0
SECTION
2
HEADER
9
$ACADVER
1
AC1015
9
$DWGCODEPAGE
3
ANSI_1252
9
$HANDSEED
5
2dd
9
$ANGBASE
50
0
9
$ANGDIR
70
0
9
$ATTMODE
70
1
9
$AUNITS
70
0
9
$AUPREC
70
0
9
$CECOLOR
62
256
9
$CELTSCALE
40
1
9
$CELTYPE
6
ByLayer
9
$CELWEIGHT
370
-1
9
$CLAYER
8
0
9
$CMLJUST
70
0
9
$CMLSCALE
40
1
9
$CMLSTYLE
2
Standard
9
$DIMSTYLE
2
Standard
9
$TEXTSIZE
40
0.2
9
$TEXTSTYLE
7
Standard
9
$LUNITS
70
2
9
$LUPREC
70
4
9
$EXTNAMES
290
1
9
$INSUNITS
70
4
9
$LTSCALE
40
1
9
$LWDISPLAY
290
0
9
$PDMODE
70
0
9
$PDSIZE
40
0
9
$PLINEGEN
70
0
0
ENDSEC
0
SECTION
2
CLASSES
0
CLASS
1
RASTERVARIABLES
2
AcDbRasterVariables
3
ISM
90
0
280
0
281
0
0
ENDSEC
0
SECTION
2
TABLES
0
TABLE
2
VPORT
5
2d3
100
AcDbSymbolTable
0
VPORT
5
1
100
AcDbSymbolTableRecord
100
AcDbViewportTableRecord
2
*Active
70
0
10
0
20
0
11
1
21
1
12
-1
22
1
13
0
23
0
14
0.5
24
0.5
15
10
25
10
16
0
26
0
36
1
17
0
27
0
37
0
0
ENDTAB
0
TABLE
2
LTYPE
5
2d4
100
AcDbSymbolTable
0
LTYPE
5
14
100
AcDbSymbolTableRecord
100
AcDbLinetypeTableRecord
70
0
2
ByBlock
3

72
65
73
0
40
0
0
LTYPE
5
15
100
AcDbSymbolTableRecord
100
AcDbLinetypeTableRecord
70
0
2
ByLayer
3

72
65
73
0
40
0
0
LTYPE
5
16
100
AcDbSymbolTableRecord
100
AcDbLinetypeTableRecord
70
0
2
CONTINUOUS
3
Solid line
72
65
73
0
40
0
0
LTYPE
5
3B
100
AcDbSymbolTableRecord
100
AcDbLinetypeTableRecord
70
0
2
DASHED
3
__ __ __ __ __ __ __ __ __
72
65
73
2
40
25.72
49
12.86
74
0
49
-12.86
74
0
0
LTYPE
5
3C
100
AcDbSymbolTableRecord
100
AcDbLinetypeTableRecord
70
0
2
HIDDEN
3
_ _ _ _ _ _ _ _ _ _ _ _ _ _ _
72
65
73
2
40
0.5
49
0.25
74
0
49
-0.25
74
0
0
LTYPE
5
3D
100
AcDbSymbolTableRecord
100
AcDbLinetypeTableRecord
70
0
2
PHANTOM
3
____ _ _ ____ _ _ _____ _ _ ____
72
65
73
6
40
50.5
49
18
74
0
49
-6.5
74
0
49
6.5
74
0
49
-6.5
74
0
49
6.5
74
0
49
-6.5
74
0
0
LTYPE
5
3E
100
AcDbSymbolTableRecord
100
AcDbLinetypeTableRecord
70
0
2
CENTER
3
____ _ ____ _ ____ _ ____
72
65
73
4
40
47.5
49
22
74
0
49
-8.5
74
0
49
8.5
74
0
49
-8.5
74
0
0
LTYPE
5
3F
100
AcDbSymbolTableRecord
100
AcDbLinetypeTableRecord
70
0
2
DOT
3
.........................
72
65
73
2
40
10
49
0
74
0
49
-10
74
0
0
LTYPE
5
40
100
AcDbSymbolTableRecord
100
AcDbLinetypeTableRecord
70
0
2
DASHDOT
3
_._._._._._._._._._._._._._._._.
72
65
73
4
40
70
49
31
74
0
49
-13
74
0
49
13
74
0
49
-13
74
0
0
ENDTAB
0
TABLE
2
LAYER
5
2d5
100
AcDbSymbolTable
0
LAYER
5
10
100
AcDbSymbolTableRecord
100
AcDbLayerTableRecord
2
0
70
0
62
7
6
CONTINUOUS
290
1
370
-3
390
0
0
LAYER
5
42
100
AcDbSymbolTableRecord
100
AcDbLayerTableRecord
2
81
70
0
62
-3
6
CONTINUOUS
290
1
370
-3
390
0
0
LAYER
5
44
100
AcDbSymbolTableRecord
100
AcDbLayerTableRecord
2
80
70
0
62
-6
6
CONTINUOUS
290
1
370
-3
390
0
0
LAYER
5
48
100
AcDbSymbolTableRecord
100
AcDbLayerTableRecord
2
1
70
0
62
4
6
CONTINUOUS
290
1
370
-3
390
0
0
LAYER
5
65
100
AcDbSymbolTableRecord
100
AcDbLayerTableRecord
2
4
70
0
62
-2
6
CENTER
290
1
370
-3
390
0
0
LAYER
5
277
100
AcDbSymbolTableRecord
100
AcDbLayerTableRecord
2
2
70
0
62
7
6
CONTINUOUS
290
1
370
-3
390
0
0
LAYER
5
2bf
100
AcDbSymbolTableRecord
100
AcDbLayerTableRecord
2
SK1
70
0
62
4
6
CONTINUOUS
290
1
370
-3
390
0
0
LAYER
5
2c0
100
AcDbSymbolTableRecord
100
AcDbLayerTableRecord
2
SK4
70
0
62
2
6
CENTER
290
1
370
-3
390
0
0
LAYER
5
2c1
100
AcDbSymbolTableRecord
100
AcDbLayerTableRecord
2
SK6
70
0
62
5
6
CONTINUOUS
290
1
370
-3
390
0
0
LAYER
5
2c2
100
AcDbSymbolTableRecord
100
AcDbLayerTableRecord
2
SK2
70
0
62
7
6
CONTINUOUS
290
1
370
-3
390
0
0
ENDTAB
0
TABLE
2
STYLE
5
2d6
100
AcDbSymbolTable
0
STYLE
5
11
100
AcDbSymbolTableRecord
100
AcDbTextStyleTableRecord
2
Standard
3
txt
70
0
71
0
40
0
41
1
42
0
50
0
0
STYLE
5
23B
100
AcDbSymbolTableRecord
100
AcDbTextStyleTableRecord
2
DEFAULT
3
simplex.shx
70
0
71
0
40
0
41
1
42
0
50
0
0
STYLE
5
25E
100
AcDbSymbolTableRecord
100
AcDbTextStyleTableRecord
2
DWGDirectTextStyle
3
SIMPLEX
70
0
71
0
40
0
41
1
42
0
50
0
0
ENDTAB
0
TABLE
2
DIMSTYLE
5
2d7
100
AcDbSymbolTable
100
AcDbDimStyleTable
0
DIMSTYLE
105
27
100
AcDbSymbolTableRecord
100
AcDbDimStyleTableRecord
2
Standard
70
0
3
<>
41
0.18
42
0.0625
44
0.18
140
0.18
147
0.09
73
0
74
0
77
1
271
2
275
0
278
52
280
0
340
11
0
ENDTAB
0
TABLE
2
VIEW
5
2d8
100
AcDbSymbolTable
0
ENDTAB
0
TABLE
2
UCS
5
2d9
100
AcDbSymbolTable
0
ENDTAB
0
TABLE
2
APPID
5
2da
100
AcDbSymbolTable
0
APPID
5
12
100
AcDbSymbolTableRecord
100
AcDbRegAppTableRecord
2
ACAD
70
0
0
ENDTAB
0
TABLE
2
BLOCK_RECORD
5
2db
100
AcDbSymbolTable
0
BLOCK_RECORD
5
1F
100
AcDbSymbolTableRecord
100
AcDbBlockTableRecord
2
*Model_Space
340
0
70
0
0
BLOCK_RECORD
5
1B
100
AcDbSymbolTableRecord
100
AcDbBlockTableRecord
2
*Paper_Space
340
0
70
0
0
BLOCK_RECORD
5
23
100
AcDbSymbolTableRecord
100
AcDbBlockTableRecord
2
*Paper_Space0
340
0
70
0
0
BLOCK_RECORD
5
260
100
AcDbSymbolTableRecord
100
AcDbBlockTableRecord
2
DimnDraft3D1
340
0
70
0
0
BLOCK_RECORD
5
26B
100
AcDbSymbolTableRecord
100
AcDbBlockTableRecord
2
DimnDraft3D2
340
0
70
0
0
BLOCK_RECORD
5
275
100
AcDbSymbolTableRecord
100
AcDbBlockTableRecord
2
DimnDraft3D3
340
0
70
0
0
BLOCK_RECORD
5
280
100
AcDbSymbolTableRecord
100
AcDbBlockTableRecord
2
DimnDraft3D4
340
0
70
0
0
BLOCK_RECORD
5
28A
100
AcDbSymbolTableRecord
100
AcDbBlockTableRecord
2
DimnDraft3D5
340
0
70
0
0
BLOCK_RECORD
5
295
100
AcDbSymbolTableRecord
100
AcDbBlockTableRecord
2
DimnDraft3D6
340
0
70
0
0
ENDTAB
0
ENDSEC
0
SECTION
2
BLOCKS
0
BLOCK
5
20
100
AcDbEntity
8
0
100
AcDbBlockBegin
2
*Model_Space
70
0
10
0
20
0
30
0
3
*Model_Space
0
ENDBLK
5
21
100
AcDbEntity
8
0
100
AcDbBlockEnd
0
BLOCK
5
1C
100
AcDbEntity
8
0
100
AcDbBlockBegin
2
*Paper_Space
70
0
10
0
20
0
30
0
3
*Paper_Space
0
ENDBLK
5
1D
100
AcDbEntity
8
0
100
AcDbBlockEnd
0
BLOCK
5
24
100
AcDbEntity
8
0
100
AcDbBlockBegin
2
*Paper_Space0
70
0
10
0
20
0
30
0
3
*Paper_Space0
0
ENDBLK
5
25
100
AcDbEntity
8
0
100
AcDbBlockEnd
0
BLOCK
5
268
100
AcDbEntity
8
0
100
AcDbBlockBegin
2
DimnDraft3D1
70
0
10
0
20
0
30
0
3
DimnDraft3D1
0
MTEXT
5
261
100
AcDbEntity
8
SK2
62
256
6
ByLayer
370
-1
48
1
60
0
100
AcDbMText
10
21.406579
20
-67.225
30
0
210
0
220
0
230
1
1
\W01.000;\fsimplex.shx,bigfont.shx;(133) 
40
4.5
41
0
44
1.084337
50
0
71
7
72
5
7
DEFAULT
0
LINE
5
263
100
AcDbEntity
8
SK2
62
256
6
ByLayer
370
-1
48
1
60
0
100
AcDbLine
10
-38
20
-4.5875
30
0
11
-38
21
-73.49375
31
0
39
0
210
0
220
0
230
1
0
LINE
5
264
100
AcDbEntity
8
SK2
62
256
6
ByLayer
370
-1
48
1
60
0
100
AcDbLine
10
95
20
-10.5875
30
0
11
95
21
-73.49375
31
0
39
0
210
0
220
0
230
1
0
LINE
5
265
100
AcDbEntity
8
SK2
62
256
6
ByLayer
370
-1
48
1
60
0
100
AcDbLine
10
-38
20
-70.31875
30
0
11
95
21
-70.31875
31
0
39
0
210
0
220
0
230
1
0
SOLID
5
266
100
AcDbEntity
8
SK2
62
256
6
ByLayer
370
-1
48
1
60
0
100
AcDbTrace
10
-38
20
-70.31875
30
0
11
-33.825003
21
-69.393175
31
0
12
-33.824997
22
-71.244325
32
0
13
-38
23
-70.31875
33
0
39
0
210
0
220
0
230
1
0
SOLID
5
267
100
AcDbEntity
8
SK2
62
256
6
ByLayer
370
-1
48
1
60
0
100
AcDbTrace
10
95
20
-70.31875
30
0
11
90.825003
21
-71.244325
31
0
12
90.824997
22
-69.393175
32
0
13
95
23
-70.31875
33
0
39
0
210
0
220
0
230
1
0
ENDBLK
5
269
100
AcDbEntity
8
0
100
AcDbBlockEnd
0
BLOCK
5
272
100
AcDbEntity
8
0
100
AcDbBlockBegin
2
DimnDraft3D2
70
0
10
0
20
0
30
0
3
DimnDraft3D2
0
MTEXT
5
26C
100
AcDbEntity
8
SK2
62
256
6
ByLayer
370
-1
48
1
60
0
100
AcDbMText
10
-20.503947
20
-57.225
30
0
210
0
220
0
230
1
1
\W01.000;\fsimplex.shx,bigfont.shx;38 
40
4.5
41
0
44
1.084337
50
0
71
7
72
5
7
DEFAULT
0
LINE
5
26D
100
AcDbEntity
8
SK2
62
256
6
ByLayer
370
-1
48
1
60
0
100
AcDbLine
10
-38
20
-4.5875
30
0
11
-38
21
-61.525
31
0
39
0
210
0
220
0
230
1
0
LINE
5
26E
100
AcDbEntity
8
SK2
62
256
6
ByLayer
370
-1
48
1
60
0
100
AcDbLine
10
0
20
-33.0875
30
0
11
0
21
-61.525
31
0
39
0
210
0
220
0
230
1
0
LINE
5
26F
100
AcDbEntity
8
SK2
62
256
6
ByLayer
370
-1
48
1
60
0
100
AcDbLine
10
-38
20
-58.35
30
0
11
0
21
-58.35
31
0
39
0
210
0
220
0
230
1
0
SOLID
5
270
100
AcDbEntity
8
SK2
62
256
6
ByLayer
370
-1
48
1
60
0
100
AcDbTrace
10
-38
20
-58.35
30
0
11
-33.825003
21
-57.424425
31
0
12
-33.824997
22
-59.275575
32
0
13
-38
23
-58.35
33
0
39
0
210
0
220
0
230
1
0
SOLID
5
271
100
AcDbEntity
8
SK2
62
256
6
ByLayer
370
-1
48
1
60
0
100
AcDbTrace
10
0
20
-58.35
30
0
11
-4.174997
21
-59.275575
31
0
12
-4.175003
22
-57.424425
32
0
13
0
23
-58.35
33
0
39
0
210
0
220
0
230
1
0
ENDBLK
5
273
100
AcDbEntity
8
0
100
AcDbBlockEnd
0
BLOCK
5
27D
100
AcDbEntity
8
0
100
AcDbBlockBegin
2
DimnDraft3D3
70
0
10
0
20
0
30
0
3
DimnDraft3D3
0
MTEXT
5
276
100
AcDbEntity
8
2
62
256
6
ByLayer
370
-1
48
1
60
0
100
AcDbMText
10
45.996053
20
-57.225
30
0
210
0
220
0
230
1
1
\W01.000;\fsimplex.shx,bigfont.shx;95 
40
4.5
41
0
44
1.084337
50
0
71
7
72
5
7
DEFAULT
0
LINE
5
278
100
AcDbEntity
8
2
62
256
6
ByLayer
370
-1
48
1
60
0
100
AcDbLine
10
0
20
-33.0875
30
0
11
0
21
-61.525
31
0
39
0
210
0
220
0
230
1
0
LINE
5
279
100
AcDbEntity
8
2
62
256
6
ByLayer
370
-1
48
1
60
0
100
AcDbLine
10
95
20
-10.5875
30
0
11
95
21
-61.525
31
0
39
0
210
0
220
0
230
1
0
LINE
5
27A
100
AcDbEntity
8
2
62
256
6
ByLayer
370
-1
48
1
60
0
100
AcDbLine
10
0
20
-58.35
30
0
11
95
21
-58.35
31
0
39
0
210
0
220
0
230
1
0
SOLID
5
27B
100
AcDbEntity
8
2
62
256
6
ByLayer
370
-1
48
1
60
0
100
AcDbTrace
10
0
20
-58.35
30
0
11
4.174997
21
-57.424425
31
0
12
4.175003
22
-59.275575
32
0
13
0
23
-58.35
33
0
39
0
210
0
220
0
230
1
0
SOLID
5
27C
100
AcDbEntity
8
2
62
256
6
ByLayer
370
-1
48
1
60
0
100
AcDbTrace
10
95
20
-58.35
30
0
11
90.825003
21
-59.275575
31
0
12
90.824997
22
-57.424425
32
0
13
95
23
-58.35
33
0
39
0
210
0
220
0
230
1
0
ENDBLK
5
27E
100
AcDbEntity
8
0
100
AcDbBlockEnd
0
BLOCK
5
287
100
AcDbEntity
8
0
100
AcDbBlockBegin
2
DimnDraft3D4
70
0
10
0
20
0
30
0
3
DimnDraft3D4
0
MTEXT
5
281
100
AcDbEntity
8
SK2
62
256
6
ByLayer
370
-1
48
1
60
0
100
AcDbMText
10
64.996053
20
-47.225
30
0
210
0
220
0
230
1
1
\W01.000;\fsimplex.shx,bigfont.shx;57 
40
4.5
41
0
44
1.084337
50
0
71
7
72
5
7
DEFAULT
0
LINE
5
282
100
AcDbEntity
8
SK2
62
256
6
ByLayer
370
-1
48
1
60
0
100
AcDbLine
10
38
20
-11.5875
30
0
11
38
21
-51.525
31
0
39
0
210
0
220
0
230
1
0
LINE
5
283
100
AcDbEntity
8
SK2
62
256
6
ByLayer
370
-1
48
1
60
0
100
AcDbLine
10
95
20
-10.5875
30
0
11
95
21
-51.525
31
0
39
0
210
0
220
0
230
1
0
LINE
5
284
100
AcDbEntity
8
SK2
62
256
6
ByLayer
370
-1
48
1
60
0
100
AcDbLine
10
38
20
-48.35
30
0
11
95
21
-48.35
31
0
39
0
210
0
220
0
230
1
0
SOLID
5
285
100
AcDbEntity
8
SK2
62
256
6
ByLayer
370
-1
48
1
60
0
100
AcDbTrace
10
38
20
-48.35
30
0
11
42.174997
21
-47.424425
31
0
12
42.175003
22
-49.275575
32
0
13
38
23
-48.35
33
0
39
0
210
0
220
0
230
1
0
SOLID
5
286
100
AcDbEntity
8
SK2
62
256
6
ByLayer
370
-1
48
1
60
0
100
AcDbTrace
10
95
20
-48.35
30
0
11
90.825003
21
-49.275575
31
0
12
90.824997
22
-47.424425
32
0
13
95
23
-48.35
33
0
39
0
210
0
220
0
230
1
0
ENDBLK
5
288
100
AcDbEntity
8
0
100
AcDbBlockEnd
0
BLOCK
5
292
100
AcDbEntity
8
0
100
AcDbBlockBegin
2
DimnDraft3D5
70
0
10
0
20
0
30
0
3
DimnDraft3D5
0
MTEXT
5
28B
100
AcDbEntity
8
SK2
62
256
6
ByLayer
370
-1
48
1
60
0
100
AcDbMText
10
-59.164798
20
5.246053
30
0
210
0
220
0
230
1
1
\W01.000;\fsimplex.shx,bigfont.shx;63 
40
4.5
41
0
44
1.084337
50
90
71
7
72
5
7
DEFAULT
0
MTEXT
5
28C
100
AcDbEntity
8
SK2
62
256
6
ByLayer
370
-1
48
1
60
0
100
AcDbMText
10
-59.164798
20
-8.253947
30
0
210
0
220
0
230
1
1
\W01.000;\fsimplex.shx,bigfont.shx;%%c 
40
4.5
41
0
44
1.084337
50
90
71
7
72
5
7
DEFAULT
0
LINE
5
28D
100
AcDbEntity
8
SK2
62
256
6
ByLayer
370
-1
48
1
60
0
100
AcDbLine
10
-1.5875
20
-31.5
30
0
11
-60.089798
21
-31.5
31
0
39
0
210
0
220
0
230
1
0
LINE
5
28E
100
AcDbEntity
8
SK2
62
256
6
ByLayer
370
-1
48
1
60
0
100
AcDbLine
10
-1.5875
20
31.5
30
0
11
-60.089798
21
31.5
31
0
39
0
210
0
220
0
230
1
0
LINE
5
28F
100
AcDbEntity
8
SK2
62
256
6
ByLayer
370
-1
48
1
60
0
100
AcDbLine
10
-56.914798
20
-31.5
30
0
11
-56.914798
21
31.5
31
0
39
0
210
0
220
0
230
1
0
SOLID
5
290
100
AcDbEntity
8
SK2
62
256
6
ByLayer
370
-1
48
1
60
0
100
AcDbTrace
10
-56.914798
20
-31.5
30
0
11
-57.840373
21
-27.325003
31
0
12
-55.989223
22
-27.324997
32
0
13
-56.914798
23
-31.5
33
0
39
0
210
0
220
0
230
1
0
SOLID
5
291
100
AcDbEntity
8
SK2
62
256
6
ByLayer
370
-1
48
1
60
0
100
AcDbTrace
10
-56.914798
20
31.5
30
0
11
-55.989223
21
27.325003
31
0
12
-57.840373
22
27.324997
32
0
13
-56.914798
23
31.5
33
0
39
0
210
0
220
0
230
1
0
ENDBLK
5
293
100
AcDbEntity
8
0
100
AcDbBlockEnd
0
BLOCK
5
29D
100
AcDbEntity
8
0
100
AcDbBlockBegin
2
DimnDraft3D6
70
0
10
0
20
0
30
0
3
DimnDraft3D6
0
MTEXT
5
296
100
AcDbEntity
8
2
62
256
6
ByLayer
370
-1
48
1
60
0
100
AcDbMText
10
119.725
20
-24.120395
30
0
210
0
220
0
230
1
1
\W01.000;\fsimplex.shx,bigfont.shx;18 
40
4.5
41
0
44
1.084337
50
90
71
7
72
5
7
DEFAULT
0
MTEXT
5
297
100
AcDbEntity
8
2
62
256
6
ByLayer
370
-1
48
1
60
0
100
AcDbMText
10
119.725
20
-37.620395
30
0
210
0
220
0
230
1
1
\W01.000;\fsimplex.shx,bigfont.shx;%%c 
40
4.5
41
0
44
1.084337
50
90
71
7
72
5
7
DEFAULT
0
LINE
5
298
100
AcDbEntity
8
2
62
256
6
ByLayer
370
-1
48
1
60
0
100
AcDbLine
10
96.5875
20
9
30
0
11
125.15
21
9
31
0
39
0
210
0
220
0
230
1
0
LINE
5
299
100
AcDbEntity
8
2
62
256
6
ByLayer
370
-1
48
1
60
0
100
AcDbLine
10
96.5875
20
-9
30
0
11
125.15
21
-9
31
0
39
0
210
0
220
0
230
1
0
LINE
5
29A
100
AcDbEntity
8
2
62
256
6
ByLayer
370
-1
48
1
60
0
100
AcDbLine
10
121.975
20
9
30
0
11
121.975
21
-38.745395
31
0
39
0
210
0
220
0
230
1
0
SOLID
5
29B
100
AcDbEntity
8
2
62
256
6
ByLayer
370
-1
48
1
60
0
100
AcDbTrace
10
121.975
20
9
30
0
11
122.900575
21
4.825003
31
0
12
121.049425
22
4.824997
32
0
13
121.975
23
9
33
0
39
0
210
0
220
0
230
1
0
SOLID
5
29C
100
AcDbEntity
8
2
62
256
6
ByLayer
370
-1
48
1
60
0
100
AcDbTrace
10
121.975
20
-9
30
0
11
121.049425
21
-4.825003
31
0
12
122.900575
22
-4.824997
32
0
13
121.975
23
-9
33
0
39
0
210
0
220
0
230
1
0
ENDBLK
5
29E
100
AcDbEntity
8
0
100
AcDbBlockEnd
0
ENDSEC
0
SECTION
2
ENTITIES
0
ARC
5
F9
100
AcDbEntity
8
1
62
256
6
ByLayer
370
-1
48
1
60
0
100
AcDbCircle
39
0
10
-28.015785
20
15.3
30
0
40
0.8
210
0
220
0
230
-1
100
AcDbArc
50
270
51
345
0
ARC
5
FA
100
AcDbEntity
8
1
62
256
6
ByLayer
370
-1
48
1
60
0
100
AcDbCircle
39
0
10
-28.015785
20
-15.3
30
0
40
0.8
210
0
220
0
230
-1
100
AcDbArc
50
15
51
90
0
ELLIPSE
5
FB
100
AcDbEntity
8
1
62
256
6
ByLayer
370
-1
48
1
60
0
100
AcDbEllipse
10
93.798687
20
-5.453154
30
0
11
-0.0804213646781425
21
-0.997467055143701
31
0
210
0
220
0
230
-1
40
0.125941
41
0
42
6.28318530717959
0
ELLIPSE
5
FC
100
AcDbEntity
8
1
62
256
6
ByLayer
370
-1
48
1
60
0
100
AcDbEllipse
10
93.51751
20
-0.682525
30
0
11
-0.59120224503834
21
5.97492078288119E-16
31
0
210
0
220
0
230
1
40
0.998135
41
-3.08923277602998
42
-2.47119166742836
0
ELLIPSE
5
FD
100
AcDbEntity
8
1
62
256
6
ByLayer
370
-1
48
1
60
0
100
AcDbEllipse
10
94.181081
20
-3.861249
30
0
11
-0.133083669611859
21
0.149294128761454
31
0
210
0
220
0
230
1
40
0.040665
41
1.50826161297239
42
1.61638305710823
0
ELLIPSE
5
FE
100
AcDbEntity
8
1
62
256
6
ByLayer
370
-1
48
1
60
0
100
AcDbEllipse
10
91.878496
20
-2.283976
30
0
11
1.25
21
0
31
0
210
0
220
0
230
1
40
0.998135
41
1.18231861927854
42
2.91402373555803
0
ELLIPSE
5
FF
100
AcDbEntity
8
1
62
256
6
ByLayer
370
-1
48
1
60
0
100
AcDbEllipse
10
91.878496
20
-2.283976
30
0
11
1.25
21
0
31
0
210
0
220
0
230
1
40
0.998135
41
-3.14159236752088
42
-3.55935187003812E-16
0
ELLIPSE
5
100
100
AcDbEntity
8
1
62
256
6
ByLayer
370
-1
48
1
60
0
100
AcDbEllipse
10
93.853886
20
-3.507778
30
0
11
-0.591202245038341
21
5.97492078288121E-16
31
0
210
0
220
0
230
1
40
0.998135
41
2.29977787734964
42
3.10668606854989
0
ELLIPSE
5
101
100
AcDbEntity
8
1
62
256
6
ByLayer
370
-1
48
1
60
0
100
AcDbEllipse
10
94.358667
20
-3.116006
30
0
11
-0.199877710054841
21
0.00699292665720333
31
0
210
0
220
0
230
1
40
0.061011
41
0.525733317016638
42
1.57293086821329
0
ELLIPSE
5
102
100
AcDbEntity
8
1
62
256
6
ByLayer
370
-1
48
1
60
0
100
AcDbEllipse
10
93.51751
20
-0.682525
30
0
11
-0.49120224503834
21
4.96428172779883E-16
31
0
210
0
220
0
230
1
40
0.998135
41
-3.08923277602998
42
-2.89365829183897
0
ELLIPSE
5
103
100
AcDbEntity
8
1
62
256
6
ByLayer
370
-1
48
1
60
0
100
AcDbEllipse
10
91.878496
20
-2.247036
30
0
11
1.25
21
0
31
0
210
0
220
0
230
1
40
0.998135
41
1.31249859227146
42
2.92973164042547
0
ELLIPSE
5
104
100
AcDbEntity
8
1
62
256
6
ByLayer
370
-1
48
1
60
0
100
AcDbEllipse
10
91.878496
20
-2.247036
30
0
11
1.25
21
0
31
0
210
0
220
0
230
1
40
0.998135
41
-3.14159236752088
42
-3.55935187003812E-16
0
ELLIPSE
5
105
100
AcDbEntity
8
1
62
256
6
ByLayer
370
-1
48
1
60
0
100
AcDbEllipse
10
94.313934
20
-2.893825
30
0
11
-0.18160533389647
21
-0.0837824725127618
31
0
210
0
220
0
230
1
40
0.055452
41
0.498021999162211
42
1.54521955035876
0
ELLIPSE
5
106
100
AcDbEntity
8
1
62
256
6
ByLayer
370
-1
48
1
60
0
100
AcDbEllipse
10
93.840089
20
0.184744
30
0
11
0.500000000000144
21
0
31
0
210
0
220
0
230
1
40
0.998135
41
0.349065850399468
42
1.17715445145119
0
ELLIPSE
5
107
100
AcDbEntity
8
1
62
256
6
ByLayer
370
-1
48
1
60
0
100
AcDbEllipse
10
94.13945
20
-0.636211
30
0
11
0.49999999999999
21
0
31
0
210
0
220
0
230
1
40
0.998135
41
0.0523598775598215
42
0.349065850399584
0
ELLIPSE
5
108
100
AcDbEntity
8
1
62
256
6
ByLayer
370
-1
48
1
60
0
100
AcDbEllipse
10
96.712196
20
-1.803735
30
0
11
2.64031606939949
21
0
31
0
210
0
220
0
230
1
40
0.998135
41
-3.08923277525973
42
-2.71005519262056
0
ELLIPSE
5
109
100
AcDbEntity
8
1
62
256
6
ByLayer
370
-1
48
1
60
0
100
AcDbEllipse
10
96.712196
20
-1.803735
30
0
11
2.54031606939949
21
0
31
0
210
0
220
0
230
1
40
0.998135
41
-3.0892327752294
42
-2.71005519262056
0
ELLIPSE
5
10A
100
AcDbEntity
8
1
62
256
6
ByLayer
370
-1
48
1
60
0
100
AcDbEllipse
10
94.461611
20
-4.351487
30
0
11
0.500000000000144
21
0
31
0
210
0
220
0
230
1
40
0.998135
41
-1.22173047639538
42
-0.0349065850401069
0
ELLIPSE
5
10B
100
AcDbEntity
8
1
62
256
6
ByLayer
370
-1
48
1
60
0
100
AcDbEllipse
10
93.867764
20
-3.105001
30
0
11
0.317997164281453
21
0
31
0
210
0
220
0
230
1
40
0.998135
41
-0.0349065850398988
42
0.431537460969192
0
ELLIPSE
5
10C
100
AcDbEntity
8
1
62
256
6
ByLayer
370
-1
48
1
60
0
100
AcDbEllipse
10
93.853886
20
-3.501673
30
0
11
0.317997164281453
21
0
31
0
210
0
220
0
230
1
40
0.998135
41
-0.340738738996758
42
-0.034906585039903
0
ELLIPSE
5
10D
100
AcDbEntity
8
1
62
256
6
ByLayer
370
-1
48
1
60
0
100
AcDbEllipse
10
96.712196
20
-1.956357
30
0
11
2.00000000000009
21
0
31
0
210
0
220
0
230
1
40
0.998135
41
-3.08923277501295
42
-2.6997467130969
0
ELLIPSE
5
10E
100
AcDbEntity
8
1
62
256
6
ByLayer
370
-1
48
1
60
0
100
AcDbEllipse
10
96.712196
20
-1.861731
30
0
11
2.19031606939965
21
0
31
0
210
0
220
0
230
1
40
0.998135
41
-3.08923277510136
42
-2.71005519262056
0
ELLIPSE
5
10F
100
AcDbEntity
8
1
62
256
6
ByLayer
370
-1
48
1
60
0
100
AcDbEllipse
10
91.878496
20
-2.247036
30
0
11
1.35
21
0
31
0
210
0
220
0
230
1
40
0.998135
41
1.91754943129525
42
2.44945998222059
0
ELLIPSE
5
110
100
AcDbEntity
8
1
62
256
6
ByLayer
370
-1
48
1
60
0
100
AcDbEllipse
10
91.878496
20
-2.247036
30
0
11
1.35
21
0
31
0
210
0
220
0
230
1
40
0.998135
41
3.14159243501374
42
-3.29569617596124E-16
0
ELLIPSE
5
111
100
AcDbEntity
8
1
62
256
6
ByLayer
370
-1
48
1
60
0
100
AcDbEllipse
10
94.000305
20
-3.23679
30
0
11
1.00000000000004
21
0
31
0
210
0
220
0
230
1
40
0.998135
41
-0.0349065850401087
42
0.441845940492527
0
ELLIPSE
5
112
100
AcDbEntity
8
1
62
256
6
ByLayer
370
-1
48
1
60
0
100
AcDbEllipse
10
94.344789
20
-3.512679
30
0
11
-0.199877710054841
21
0.00699292665720333
31
0
210
0
220
0
230
1
40
0.061011
41
0.525733317016705
42
1.57293086821329
0
ELLIPSE
5
113
100
AcDbEntity
8
1
62
256
6
ByLayer
370
-1
48
1
60
0
100
AcDbEllipse
10
93.867764
20
-3.111105
30
0
11
-0.59120224503834
21
5.97492078288119E-16
31
0
210
0
220
0
230
1
40
0.998135
41
3.10668606854989
42
-2.71005519262057
0
ELLIPSE
5
114
100
AcDbEntity
8
1
62
256
6
ByLayer
370
-1
48
1
60
0
100
AcDbEllipse
10
93.853886
20
-3.507778
30
0
11
-0.49120224503834
21
4.96428172779883E-16
31
0
210
0
220
0
230
1
40
0.998135
41
2.29977787734967
42
3.10668606854989
0
ELLIPSE
5
115
100
AcDbEntity
8
1
62
256
6
ByLayer
370
-1
48
1
60
0
100
AcDbEllipse
10
96.712196
20
-1.79763
30
0
11
-2.81352115015638
21
2.84345435664829E-15
31
0
210
0
220
0
230
1
40
0.998135
41
0.394970503341746
42
0.431537460969232
0
ELLIPSE
5
116
100
AcDbEntity
8
1
62
256
6
ByLayer
370
-1
48
1
60
0
100
AcDbEllipse
10
93.867764
20
-3.111105
30
0
11
-0.49120224503834
21
4.96428172779883E-16
31
0
210
0
220
0
230
1
40
0.998135
41
3.10668606854989
42
-2.71005519262056
0
ELLIPSE
5
117
100
AcDbEntity
8
1
62
256
6
ByLayer
370
-1
48
1
60
0
100
AcDbEllipse
10
93.703759
20
13.029429
30
0
11
1.16445136866418E-14
21
9.94022831811422
31
0
210
0
220
0
230
1
40
0.996195
41
-3.0877854465449
42
-3.07177948351001
0
ELLIPSE
5
118
100
AcDbEntity
8
1
62
256
6
ByLayer
370
-1
48
1
60
0
100
AcDbEllipse
10
89.338917
20
3.36971
30
0
11
-5.35934686386747E-16
21
-0.500000000000006
31
0
210
0
220
0
230
1
40
0.996195
41
-1.27409035395589
42
-0.226892802759315
0
ELLIPSE
5
119
100
AcDbEntity
8
1
62
256
6
ByLayer
370
-1
48
1
60
0
100
AcDbEllipse
10
89.37382
20
7.875477
30
0
11
-5.35934686386771E-15
21
-5.00000000000028
31
0
210
0
220
0
230
1
40
0.996195
41
0.0160059630348808
42
0.0258059561216735
0
ELLIPSE
5
11A
100
AcDbEntity
8
1
62
256
6
ByLayer
370
-1
48
1
60
0
100
AcDbEllipse
10
94.336159
20
8.602929
30
0
11
2.81416266174359E-16
21
0.240228318114594
31
0
210
0
220
0
230
1
40
0.996195
41
-1.50098315671512
42
-1.27409035395586
0
ELLIPSE
5
11B
100
AcDbEntity
8
1
62
256
6
ByLayer
370
-1
48
1
60
0
100
AcDbEllipse
10
89.831406
20
3.579355
30
0
11
-5.35934686386771E-15
21
-5.00000000000028
31
0
210
0
220
0
230
1
40
0.996195
41
1.58680228982978
42
1.59660228291657
0
ELLIPSE
5
11C
100
AcDbEntity
8
1
62
256
6
ByLayer
370
-1
48
1
60
0
100
AcDbEllipse
10
89.294098
20
3.174836
30
0
11
-3.21560811832048E-16
21
-0.300000000000003
31
0
210
0
220
0
230
1
40
0.996195
41
-0.226892802759225
42
4.75504451611787E-14
0
ELLIPSE
5
11D
100
AcDbEntity
8
1
62
256
6
ByLayer
370
-1
48
1
60
0
100
AcDbEllipse
10
98.633473
20
8.414836
30
0
11
1.16445136866418E-14
21
9.94022831811422
31
0
210
0
220
0
230
1
40
0.996195
41
1.57079632679489
42
1.58680228982978
0
ELLIPSE
5
11E
100
AcDbEntity
8
1
62
256
6
ByLayer
370
-1
48
1
60
0
100
AcDbEllipse
10
94.377822
20
3.353058
30
0
11
2.81416266174359E-16
21
0.240228318114594
31
0
210
0
220
0
230
1
40
0.996195
41
-3.07177948351013
42
-2.8448866807508
0
ELLIPSE
5
11F
100
AcDbEntity
8
1
62
256
6
ByLayer
370
-1
48
1
60
0
100
AcDbEllipse
10
94.239248
20
-0.959647
30
0
11
1.16445136866421E-14
21
9.9402283181145
31
0
210
0
220
0
230
1
40
0.996195
41
0.0258059561216875
42
0.0312674126735999
0
ELLIPSE
5
120
100
AcDbEntity
8
1
62
256
6
ByLayer
370
-1
48
1
60
0
100
AcDbEllipse
10
89.83095
20
3.579355
30
0
11
5.78724697506073E-15
21
4.94022831811449
31
0
210
0
220
0
230
1
40
0.996195
41
-1.55479036376002
42
-1.54499037067323
0
ELLIPSE
5
121
100
AcDbEntity
8
1
62
256
6
ByLayer
370
-1
48
1
60
0
100
AcDbEllipse
10
98.79032
20
3.938933
30
0
11
-1.07186937277348E-14
21
-9.99999999999999
31
0
210
0
220
0
230
1
40
0.996195
41
-1.53588974175501
42
-1.52678911283681
0
ELLIPSE
5
122
100
AcDbEntity
8
1
62
256
6
ByLayer
370
-1
48
1
60
0
100
AcDbEllipse
10
91.725068
20
5.957082
30
0
11
1.98450509329016E-15
21
1.69405389152441
31
0
210
0
220
0
230
1
40
0.996195
41
0
42
6.28318530717959
0
ELLIPSE
5
123
100
AcDbEntity
8
1
62
256
6
ByLayer
370
-1
48
1
60
0
100
AcDbEllipse
10
94.239704
20
-0.959647
30
0
11
-1.07186937277348E-14
21
-9.99999999999999
31
0
210
0
220
0
230
1
40
0.996195
41
-3.1157866974681
42
-3.1066860685499
0
ELLIPSE
5
124
100
AcDbEntity
8
1
62
256
6
ByLayer
370
-1
48
1
60
0
100
AcDbEllipse
10
89.338462
20
3.36971
30
0
11
5.15706934637614E-16
21
0.440228318114594
31
0
210
0
220
0
230
1
40
0.996195
41
1.86750229963392
42
2.9146998508305
0
ELLIPSE
5
125
100
AcDbEntity
8
1
62
256
6
ByLayer
370
-1
48
1
60
0
100
AcDbEllipse
10
89.731574
20
-1.11766
30
0
11
1.16445136866421E-14
21
9.9402283181145
31
0
210
0
220
0
230
1
40
0.996195
41
0.0385457690991531
42
0.0440072139580895
0
ELLIPSE
5
126
100
AcDbEntity
8
1
62
256
6
ByLayer
370
-1
48
1
60
0
100
AcDbEllipse
10
94.146082
20
8.544455
30
0
11
-5.35934686386747E-16
21
-0.500000000000006
31
0
210
0
220
0
230
1
40
0.996195
41
1.8675022996339
42
2.91469985083048
0
ELLIPSE
5
127
100
AcDbEntity
8
1
62
256
6
ByLayer
370
-1
48
1
60
0
100
AcDbEllipse
10
89.106721
20
8.561107
30
0
11
-3.21560811832048E-16
21
-0.300000000000003
31
0
210
0
220
0
230
1
40
0.996195
41
-3.07177948351009
42
-2.84488668075079
0
ELLIPSE
5
128
100
AcDbEntity
8
1
62
256
6
ByLayer
370
-1
48
1
60
0
100
AcDbEllipse
10
94.320026
20
3.544319
30
0
11
-5.35934686386747E-16
21
-0.500000000000006
31
0
210
0
220
0
230
1
40
0.996195
41
0.296705972839069
42
1.34390352403563
0
ELLIPSE
5
129
100
AcDbEntity
8
1
62
256
6
ByLayer
370
-1
48
1
60
0
100
AcDbEllipse
10
98.787478
20
3.987874
30
0
11
1.16445136866418E-14
21
9.94022831811422
31
0
210
0
220
0
230
1
40
0.996195
41
1.62460353383979
42
1.64060949687468
0
ELLIPSE
5
12A
100
AcDbEntity
8
1
62
256
6
ByLayer
370
-1
48
1
60
0
100
AcDbEllipse
10
89.294098
20
12.874836
30
0
11
-1.07186937277344E-14
21
-9.99999999999964
31
0
210
0
220
0
230
1
40
0.996195
41
0
42
0.0160059630348808
0
ELLIPSE
5
12B
100
AcDbEntity
8
1
62
256
6
ByLayer
370
-1
48
1
60
0
100
AcDbEllipse
10
93.653138
20
8.33481
30
0
11
5.78724697506073E-15
21
4.94022831811449
31
0
210
0
220
0
230
1
40
0.996195
41
1.58680228982978
42
1.59660228291657
0
ELLIPSE
5
12C
100
AcDbEntity
8
1
62
256
6
ByLayer
370
-1
48
1
60
0
100
AcDbEllipse
10
89.147928
20
3.311236
30
0
11
2.81416266174359E-16
21
0.240228318114594
31
0
210
0
220
0
230
1
40
0.996195
41
1.64060949687468
42
1.86750229963393
0
ELLIPSE
5
12D
100
AcDbEntity
8
1
62
256
6
ByLayer
370
-1
48
1
60
0
100
AcDbEllipse
10
88.970841
20
8.414836
30
0
11
-3.21560811832048E-16
21
-0.300000000000003
31
0
210
0
220
0
230
1
40
0.996195
41
-1.79768912955412
42
-1.5707963267949
0
ELLIPSE
5
12E
100
AcDbEntity
8
1
62
256
6
ByLayer
370
-1
48
1
60
0
100
AcDbEllipse
10
84.694679
20
7.975232
30
0
11
-1.07186937277348E-14
21
-9.99999999999999
31
0
210
0
220
0
230
1
40
0.996195
41
1.60570291183479
42
1.61480354075299
0
ELLIPSE
5
12F
100
AcDbEntity
8
1
62
256
6
ByLayer
370
-1
48
1
60
0
100
AcDbEllipse
10
94.110723
20
4.038688
30
0
11
5.78724697506073E-15
21
4.94022831811449
31
0
210
0
220
0
230
1
40
0.996195
41
0.0160059630348814
42
0.0258059561216742
0
ELLIPSE
5
130
100
AcDbEntity
8
1
62
256
6
ByLayer
370
-1
48
1
60
0
100
AcDbEllipse
10
94.31957
20
3.544319
30
0
11
5.15706934637614E-16
21
0.440228318114594
31
0
210
0
220
0
230
1
40
0.996195
41
-2.84488668075078
42
-1.79768912955418
0
ELLIPSE
5
131
100
AcDbEntity
8
1
62
256
6
ByLayer
370
-1
48
1
60
0
100
AcDbEllipse
10
84.694223
20
7.975232
30
0
11
1.16445136866421E-14
21
9.9402283181145
31
0
210
0
220
0
230
1
40
0.996195
41
-1.53225055769574
42
-1.52678911283681
0
ELLIPSE
5
132
100
AcDbEntity
8
1
62
256
6
ByLayer
370
-1
48
1
60
0
100
AcDbEllipse
10
84.851635
20
3.45034
30
0
11
1.16445136866421E-14
21
9.9402283181145
31
0
210
0
220
0
230
1
40
0.996195
41
-1.54499037067321
42
-1.5395289141213
0
ELLIPSE
5
133
100
AcDbEntity
8
1
62
256
6
ByLayer
370
-1
48
1
60
0
100
AcDbEllipse
10
93.704215
20
13.029429
30
0
11
-1.07186937277344E-14
21
-9.99999999999964
31
0
210
0
220
0
230
1
40
0.996195
41
0.0538072070448977
42
0.069813170079785
0
ELLIPSE
5
134
100
AcDbEntity
8
1
62
256
6
ByLayer
370
-1
48
1
60
0
100
AcDbEllipse
10
91.890221
20
5.957082
30
0
11
-1.33983671596685E-15
21
-1.25
31
0
210
0
220
0
230
1
40
0.996195
41
3.14149442776612
42
0
0
ELLIPSE
5
135
100
AcDbEntity
8
1
62
256
6
ByLayer
370
-1
48
1
60
0
100
AcDbEllipse
10
91.890221
20
5.957082
30
0
11
-1.33983671596685E-15
21
-1.25
31
0
210
0
220
0
230
1
40
0.996195
41
0
42
0.0349505431244582
0
ELLIPSE
5
136
100
AcDbEntity
8
1
62
256
6
ByLayer
370
-1
48
1
60
0
100
AcDbEllipse
10
94.514159
20
3.499329
30
0
11
-3.21560811832048E-16
21
-0.300000000000003
31
0
210
0
220
0
230
1
40
0.996195
41
1.34390352403567
42
1.5707963267949
0
ELLIPSE
5
137
100
AcDbEntity
8
1
62
256
6
ByLayer
370
-1
48
1
60
0
100
AcDbEllipse
10
94.336615
20
8.602929
30
0
11
-3.21560811832048E-16
21
-0.300000000000003
31
0
210
0
220
0
230
1
40
0.996195
41
1.64060949687463
42
1.8675022996339
0
ELLIPSE
5
138
100
AcDbEntity
8
1
62
256
6
ByLayer
370
-1
48
1
60
0
100
AcDbEllipse
10
94.190901
20
-0.960671
30
0
11
-1.07186937277344E-14
21
-9.99999999999964
31
0
210
0
220
0
230
1
40
0.996195
41
3.14159265358979
42
-3.12558669055491
0
ELLIPSE
5
139
100
AcDbEntity
8
1
62
256
6
ByLayer
370
-1
48
1
60
0
100
AcDbEllipse
10
84.85209
20
3.45034
30
0
11
-1.07186937277348E-14
21
-9.99999999999999
31
0
210
0
220
0
230
1
40
0.996195
41
1.59660228291658
42
1.60570291183479
0
ELLIPSE
5
13A
100
AcDbEntity
8
1
62
256
6
ByLayer
370
-1
48
1
60
0
100
AcDbEllipse
10
89.293642
20
3.174836
30
0
11
2.81416266174359E-16
21
0.240228318114594
31
0
210
0
220
0
230
1
40
0.996195
41
2.91469985083058
42
-3.14159265358973
0
ELLIPSE
5
13B
100
AcDbEntity
8
1
62
256
6
ByLayer
370
-1
48
1
60
0
100
AcDbEllipse
10
84.85107
20
3.499329
30
0
11
-1.07186937277344E-14
21
-9.99999999999964
31
0
210
0
220
0
230
1
40
0.996195
41
1.57079632679489
42
1.58680228982978
0
ELLIPSE
5
13C
100
AcDbEntity
8
1
62
256
6
ByLayer
370
-1
48
1
60
0
100
AcDbEllipse
10
98.787934
20
3.987874
30
0
11
-1.07186937277344E-14
21
-9.99999999999964
31
0
210
0
220
0
230
1
40
0.996195
41
-1.51698911975
42
-1.50098315671511
0
ELLIPSE
5
13D
100
AcDbEntity
8
1
62
256
6
ByLayer
370
-1
48
1
60
0
100
AcDbEllipse
10
89.24484
20
12.873812
30
0
11
1.16445136866421E-14
21
9.9402283181145
31
0
210
0
220
0
230
1
40
0.996195
41
-3.1157866974681
42
-3.11032524091619
0
ELLIPSE
5
13E
100
AcDbEntity
8
1
62
256
6
ByLayer
370
-1
48
1
60
0
100
AcDbEllipse
10
84.69661
20
7.926291
30
0
11
1.16445136866418E-14
21
9.94022831811422
31
0
210
0
220
0
230
1
40
0.996195
41
-1.51698911975
42
-1.50098315671511
0
ELLIPSE
5
13F
100
AcDbEntity
8
1
62
256
6
ByLayer
370
-1
48
1
60
0
100
AcDbEllipse
10
93.813713
20
3.718967
30
0
11
5.78724697506073E-15
21
4.94022831811449
31
0
210
0
220
0
230
1
40
0.996195
41
1.61480354075301
42
1.62460353383979
0
ELLIPSE
5
140
100
AcDbEntity
8
1
62
256
6
ByLayer
370
-1
48
1
60
0
100
AcDbEllipse
10
93.972098
20
8.036665
30
0
11
-5.35934686386771E-15
21
-5.00000000000028
31
0
210
0
220
0
230
1
40
0.996195
41
0.0440072139581043
42
0.0538072070448957
0
ELLIPSE
5
141
100
AcDbEntity
8
1
62
256
6
ByLayer
370
-1
48
1
60
0
100
AcDbEllipse
10
89.245296
20
12.873812
30
0
11
-1.07186937277348E-14
21
-9.99999999999999
31
0
210
0
220
0
230
1
40
0.996195
41
0.0258059561216878
42
0.0349065850398896
0
ELLIPSE
5
142
100
AcDbEntity
8
1
62
256
6
ByLayer
370
-1
48
1
60
0
100
AcDbEllipse
10
89.67083
20
8.195198
30
0
11
-5.35934686386771E-15
21
-5.00000000000028
31
0
210
0
220
0
230
1
40
0.996195
41
1.614803540753
42
1.62460353383979
0
ELLIPSE
5
143
100
AcDbEntity
8
1
62
256
6
ByLayer
370
-1
48
1
60
0
100
AcDbEllipse
10
93.971642
20
8.036665
30
0
11
5.78724697506073E-15
21
4.94022831811449
31
0
210
0
220
0
230
1
40
0.996195
41
-3.09758543963169
42
-3.0877854465449
0
ELLIPSE
5
144
100
AcDbEntity
8
1
62
256
6
ByLayer
370
-1
48
1
60
0
100
AcDbEllipse
10
91.768543
20
5.957082
30
0
11
-1.77841723412775E-15
21
-1.65917347701247
31
0
210
0
220
0
230
1
40
0.996195
41
2.21551000470675
42
0
0
ELLIPSE
5
145
100
AcDbEntity
8
1
62
256
6
ByLayer
370
-1
48
1
60
0
100
AcDbEllipse
10
91.768543
20
5.957082
30
0
11
-1.77841723412775E-15
21
-1.65917347701247
31
0
210
0
220
0
230
1
40
0.996195
41
0
42
0.926082326066338
0
ELLIPSE
5
146
100
AcDbEntity
8
1
62
256
6
ByLayer
370
-1
48
1
60
0
100
AcDbEllipse
10
98.632453
20
8.463825
30
0
11
1.16445136866421E-14
21
9.9402283181145
31
0
210
0
220
0
230
1
40
0.996195
41
1.59660228291658
42
1.6020637394685
0
ELLIPSE
5
147
100
AcDbEntity
8
1
62
256
6
ByLayer
370
-1
48
1
60
0
100
AcDbEllipse
10
84.850614
20
3.499329
30
0
11
1.16445136866418E-14
21
9.94022831811422
31
0
210
0
220
0
230
1
40
0.996195
41
-1.5707963267949
42
-1.55479036376002
0
ELLIPSE
5
148
100
AcDbEntity
8
1
62
256
6
ByLayer
370
-1
48
1
60
0
100
AcDbEllipse
10
89.512446
20
3.8775
30
0
11
5.78724697506073E-15
21
4.94022831811449
31
0
210
0
220
0
230
1
40
0.996195
41
0.0440072139581094
42
0.0538072070448983
0
ELLIPSE
5
149
100
AcDbEntity
8
1
62
256
6
ByLayer
370
-1
48
1
60
0
100
AcDbEllipse
10
94.513703
20
3.499329
30
0
11
2.81416266174359E-16
21
0.240228318114594
31
0
210
0
220
0
230
1
40
0.996195
41
-1.79768912955413
42
-1.5707963267949
0
ELLIPSE
5
14A
100
AcDbEntity
8
1
62
256
6
ByLayer
370
-1
48
1
60
0
100
AcDbEllipse
10
93.814169
20
3.718967
30
0
11
-5.35934686386771E-15
21
-5.00000000000028
31
0
210
0
220
0
230
1
40
0.996195
41
-1.52678911283679
42
-1.51698911975
0
ELLIPSE
5
14B
100
AcDbEntity
8
1
62
256
6
ByLayer
370
-1
48
1
60
0
100
AcDbEllipse
10
93.653594
20
8.33481
30
0
11
-5.35934686386771E-15
21
-5.00000000000028
31
0
210
0
220
0
230
1
40
0.996195
41
-1.55479036376002
42
-1.54499037067323
0
ELLIPSE
5
14C
100
AcDbEntity
8
1
62
256
6
ByLayer
370
-1
48
1
60
0
100
AcDbEllipse
10
89.164517
20
8.369846
30
0
11
5.15706934637614E-16
21
0.440228318114594
31
0
210
0
220
0
230
1
40
0.996195
41
0.296705972839016
42
1.34390352403561
0
ELLIPSE
5
14D
100
AcDbEntity
8
1
62
256
6
ByLayer
370
-1
48
1
60
0
100
AcDbEllipse
10
94.190445
20
-0.960671
30
0
11
1.16445136866418E-14
21
9.94022831811422
31
0
210
0
220
0
230
1
40
0.996195
41
0
42
0.0160059630348834
0
ELLIPSE
5
14E
100
AcDbEntity
8
1
62
256
6
ByLayer
370
-1
48
1
60
0
100
AcDbEllipse
10
89.780329
20
-1.115264
30
0
11
1.16445136866418E-14
21
9.94022831811422
31
0
210
0
220
0
230
1
40
0.996195
41
0.0538072070448956
42
0.0698131700797845
0
ELLIPSE
5
14F
100
AcDbEntity
8
1
62
256
6
ByLayer
370
-1
48
1
60
0
100
AcDbEllipse
10
91.951673
20
5.957082
30
0
11
1.46431667789534E-15
21
1.25
31
0
210
0
220
0
230
1
40
0.996195
41
0.0349500371117705
42
1.57079634872777
0
ELLIPSE
5
150
100
AcDbEntity
8
1
62
256
6
ByLayer
370
-1
48
1
60
0
100
AcDbEllipse
10
91.951673
20
5.957082
30
0
11
1.46431667789534E-15
21
1.25
31
0
210
0
220
0
230
1
40
0.996195
41
1.57079634872777
42
3.1168526777092
0
ELLIPSE
5
151
100
AcDbEntity
8
1
62
256
6
ByLayer
370
-1
48
1
60
0
100
AcDbEllipse
10
91.788599
20
5.957082
30
0
11
-1.69826236850985E-15
21
-1.58439303486727
31
0
210
0
220
0
230
1
40
0.996195
41
0
42
6.28318530717959
0
ELLIPSE
5
152
100
AcDbEntity
8
1
62
256
6
ByLayer
370
-1
48
1
60
0
100
AcDbEllipse
10
89.164973
20
8.369846
30
0
11
-5.35934686386747E-16
21
-0.500000000000006
31
0
210
0
220
0
230
1
40
0.996195
41
-2.84488668075075
42
-1.79768912955417
0
ELLIPSE
5
153
100
AcDbEntity
8
1
62
256
6
ByLayer
370
-1
48
1
60
0
100
AcDbEllipse
10
94.145626
20
8.544455
30
0
11
5.15706934637614E-16
21
0.440228318114594
31
0
210
0
220
0
230
1
40
0.996195
41
-1.27409035395587
42
-0.22689280275929
0
ELLIPSE
5
154
100
AcDbEntity
8
1
62
256
6
ByLayer
370
-1
48
1
60
0
100
AcDbEllipse
10
98.633929
20
8.414836
30
0
11
-1.07186937277344E-14
21
-9.99999999999964
31
0
210
0
220
0
230
1
40
0.996195
41
-1.5707963267949
42
-1.55479036376002
0
ELLIPSE
5
155
100
AcDbEntity
8
1
62
256
6
ByLayer
370
-1
48
1
60
0
100
AcDbEllipse
10
89.732029
20
-1.11766
30
0
11
-1.07186937277348E-14
21
-9.99999999999999
31
0
210
0
220
0
230
1
40
0.996195
41
-3.10668606854991
42
-3.0975854396317
0
ELLIPSE
5
156
100
AcDbEntity
8
1
62
256
6
ByLayer
370
-1
48
1
60
0
100
AcDbEllipse
10
88.970385
20
8.414836
30
0
11
2.81416266174359E-16
21
0.240228318114594
31
0
210
0
220
0
230
1
40
0.996195
41
1.34390352403567
42
1.5707963267949
0
ELLIPSE
5
157
100
AcDbEntity
8
1
62
256
6
ByLayer
370
-1
48
1
60
0
100
AcDbEllipse
10
94.190445
20
8.739329
30
0
11
2.81416266174359E-16
21
0.240228318114594
31
0
210
0
220
0
230
1
40
0.996195
41
-0.226892802759214
42
5.93815652555542E-14
0
ELLIPSE
5
158
100
AcDbEntity
8
1
62
256
6
ByLayer
370
-1
48
1
60
0
100
AcDbEllipse
10
93.752514
20
13.031825
30
0
11
1.16445136866421E-14
21
9.9402283181145
31
0
210
0
220
0
230
1
40
0.996195
41
-3.10304688449064
42
-3.0975854396317
0
ELLIPSE
5
159
100
AcDbEntity
8
1
62
256
6
ByLayer
370
-1
48
1
60
0
100
AcDbEllipse
10
89.512901
20
3.8775
30
0
11
-5.35934686386771E-15
21
-5.00000000000028
31
0
210
0
220
0
230
1
40
0.996195
41
-3.09758543963168
42
-3.08778544654489
0
ELLIPSE
5
15A
100
AcDbEntity
8
1
62
256
6
ByLayer
370
-1
48
1
60
0
100
AcDbEllipse
10
98.789865
20
3.938933
30
0
11
1.16445136866421E-14
21
9.9402283181145
31
0
210
0
220
0
230
1
40
0.996195
41
1.60934209589405
42
1.61480354075299
0
ELLIPSE
5
15B
100
AcDbEntity
8
1
62
256
6
ByLayer
370
-1
48
1
60
0
100
AcDbEllipse
10
94.111179
20
4.038688
30
0
11
-5.35934686386771E-15
21
-5.00000000000028
31
0
210
0
220
0
230
1
40
0.996195
41
-3.12558669055491
42
-3.11578669746812
0
ELLIPSE
5
15C
100
AcDbEntity
8
1
62
256
6
ByLayer
370
-1
48
1
60
0
100
AcDbEllipse
10
89.148384
20
3.311236
30
0
11
-3.21560811832048E-16
21
-0.300000000000003
31
0
210
0
220
0
230
1
40
0.996195
41
-1.50098315671517
42
-1.27409035395589
0
ELLIPSE
5
15D
100
AcDbEntity
8
1
62
256
6
ByLayer
370
-1
48
1
60
0
100
AcDbEllipse
10
98.632909
20
8.463825
30
0
11
-1.07186937277348E-14
21
-9.99999999999999
31
0
210
0
220
0
230
1
40
0.996195
41
-1.54499037067321
42
-1.53588974175501
0
ELLIPSE
5
15E
100
AcDbEntity
8
1
62
256
6
ByLayer
370
-1
48
1
60
0
100
AcDbEllipse
10
94.378278
20
3.353058
30
0
11
-3.21560811832048E-16
21
-0.300000000000003
31
0
210
0
220
0
230
1
40
0.996195
41
0.0698131700796572
42
0.296705972838942
0
ELLIPSE
5
15F
100
AcDbEntity
8
1
62
256
6
ByLayer
370
-1
48
1
60
0
100
AcDbEllipse
10
89.106266
20
8.561107
30
0
11
2.81416266174359E-16
21
0.240228318114594
31
0
210
0
220
0
230
1
40
0.996195
41
0.0698131700797844
42
0.296705972838996
0
ELLIPSE
5
160
100
AcDbEntity
8
1
62
256
6
ByLayer
370
-1
48
1
60
0
100
AcDbEllipse
10
89.780784
20
-1.115264
30
0
11
-1.07186937277344E-14
21
-9.99999999999964
31
0
210
0
220
0
230
1
40
0.996195
41
-3.0877854465449
42
-3.07177948351001
0
ELLIPSE
5
161
100
AcDbEntity
8
1
62
256
6
ByLayer
370
-1
48
1
60
0
100
AcDbEllipse
10
93.75297
20
13.031825
30
0
11
-1.07186937277348E-14
21
-9.99999999999999
31
0
210
0
220
0
230
1
40
0.996195
41
0.0349065850398898
42
0.0440072139580911
0
ELLIPSE
5
162
100
AcDbEntity
8
1
62
256
6
ByLayer
370
-1
48
1
60
0
100
AcDbEllipse
10
89.373364
20
7.875477
30
0
11
5.78724697506073E-15
21
4.94022831811449
31
0
210
0
220
0
230
1
40
0.996195
41
-3.12558669055492
42
-3.11578669746812
0
ELLIPSE
5
163
100
AcDbEntity
8
1
62
256
6
ByLayer
370
-1
48
1
60
0
100
AcDbEllipse
10
89.670374
20
8.195198
30
0
11
5.78724697506073E-15
21
4.94022831811449
31
0
210
0
220
0
230
1
40
0.996195
41
-1.52678911283679
42
-1.51698911975
0
ELLIPSE
5
164
100
AcDbEntity
8
1
62
256
6
ByLayer
370
-1
48
1
60
0
100
AcDbEllipse
10
94.190901
20
8.739329
30
0
11
-3.21560811832048E-16
21
-0.300000000000003
31
0
210
0
220
0
230
1
40
0.996195
41
2.91469985083057
42
3.14159265358979
0
ELLIPSE
5
165
100
AcDbEntity
8
1
62
256
6
ByLayer
370
-1
48
1
60
0
100
AcDbEllipse
10
84.697065
20
7.926291
30
0
11
-1.07186937277344E-14
21
-9.99999999999964
31
0
210
0
220
0
230
1
40
0.996195
41
1.62460353383979
42
1.64060949687468
0
ELLIPSE
5
166
100
AcDbEntity
8
1
62
256
6
ByLayer
370
-1
48
1
60
0
100
AcDbEllipse
10
89.293642
20
12.874836
30
0
11
1.16445136866418E-14
21
9.94022831811422
31
0
210
0
220
0
230
1
40
0.996195
41
3.14159265358979
42
-3.12558669055491
0
ELLIPSE
5
167
100
AcDbEntity
8
1
62
256
6
ByLayer
370
-1
48
1
60
0
100
AcDbEllipse
10
83.871264
20
3.37031
30
0
11
-9.84553223805371
21
0.517931703567048
31
0
210
0
220
0
230
-1
40
0.000334
41
-3.13619361382887
42
-3.13524192217831
0
ELLIPSE
5
168
100
AcDbEntity
8
1
62
256
6
ByLayer
370
-1
48
1
60
0
100
AcDbEllipse
10
34.537887
20
0
30
0
11
-154.726332682187
21
-8.41342710229336
31
0
210
0
220
0
230
-1
40
0.014313
41
-1.95867053572712
42
-1.91898378623493
0
ELLIPSE
5
169
100
AcDbEntity
8
1
62
256
6
ByLayer
370
-1
48
1
60
0
100
AcDbEllipse
10
84.532108
20
6E-06
30
0
11
-99.4414206620906
21
1.94975123260258E-07
31
0
210
0
220
0
230
-1
40
0.087489
41
1.59380937931413
42
1.61034523075154
0
ELLIPSE
5
16A
100
AcDbEntity
8
1
62
256
6
ByLayer
370
-1
48
1
60
0
100
AcDbEllipse
10
68.719846
20
7.393973
30
0
11
-18.0960039640013
21
1.88413487513504
31
0
210
0
220
0
230
-1
40
0.21435
41
3.1192785168895
42
-2.74179880790178
0
ELLIPSE
5
16B
100
AcDbEntity
8
1
62
256
6
ByLayer
370
-1
48
1
60
0
100
AcDbEllipse
10
94.037423
20
0.018016
30
0
11
-0.05080631550153
21
0.602076484849564
31
0
210
0
220
0
230
-1
40
0.117003
41
-1.33599297269519
42
0.0750411636378709
0
ELLIPSE
5
16C
100
AcDbEntity
8
1
62
256
6
ByLayer
370
-1
48
1
60
0
100
AcDbEllipse
10
94.284058
20
0
30
0
11
-0.730173349076816
21
8.6995773728823
31
0
210
0
220
0
230
-1
40
0.117453
41
-1.50548897159526
42
-1.43044277646183
0
ELLIPSE
5
16D
100
AcDbEntity
8
1
62
256
6
ByLayer
370
-1
48
1
60
0
100
AcDbEllipse
10
85.66694
20
3.922934
30
0
11
-0.326425640836806
21
-0.730374082922088
31
0
210
0
220
0
230
1
40
0.079621
41
0.264825503524363
42
1.60636616336575
0
ELLIPSE
5
16E
100
AcDbEntity
8
1
62
256
6
ByLayer
370
-1
48
1
60
0
100
AcDbEllipse
10
86.846745
20
0
30
0
11
-31.4148267952858
21
0.575039265643453
31
0
210
0
220
0
230
-1
40
0.276334
41
-1.58969999159024
42
-1.50524663834783
0
ELLIPSE
5
16F
100
AcDbEntity
8
1
62
256
6
ByLayer
370
-1
48
1
60
0
100
AcDbEllipse
10
26.347154
20
0
30
0
11
-14.7536831606558
21
-31.0932549155805
31
0
210
0
220
0
230
-1
40
0.341999
41
0.157806186645431
42
1.09123958575284
0
ELLIPSE
5
170
100
AcDbEntity
8
1
62
256
6
ByLayer
370
-1
48
1
60
0
100
AcDbEllipse
10
33.1
20
5.154593
30
0
11
-4.99999999999999
21
5.0531952754118E-15
31
0
210
0
220
0
230
1
40
0.656916
41
-1.48078157088412
42
-0.281077727650681
0
ELLIPSE
5
171
100
AcDbEntity
8
1
62
256
6
ByLayer
370
-1
48
1
60
0
100
AcDbEllipse
10
89.158108
20
6.533077
30
0
11
-0.579980162321606
21
-0.618336926108687
31
0
210
0
220
0
230
-1
40
0.04503
41
-0.739916138658236
42
-0.421202239189547
0
ELLIPSE
5
172
100
AcDbEntity
8
1
62
256
6
ByLayer
370
-1
48
1
60
0
100
AcDbEllipse
10
91.849749
20
5.752318
30
0
11
1.46431667789534E-15
21
1.25
31
0
210
0
220
0
230
1
40
0.996195
41
0
42
1.01571642045175
0
ELLIPSE
5
173
100
AcDbEntity
8
1
62
256
6
ByLayer
370
-1
48
1
60
0
100
AcDbEllipse
10
89.077764
20
3.834082
30
0
11
-0.599637270106163
21
-0.0208601126465927
31
0
210
0
220
0
230
1
40
0.003042
41
0.0872135714663609
42
1.13795433213009
0
ELLIPSE
5
174
100
AcDbEntity
8
1
62
256
6
ByLayer
370
-1
48
1
60
0
100
AcDbEllipse
10
86.18132
20
0
30
0
11
-27.7708697699119
21
-3.14671639402199E-14
31
0
210
0
220
0
230
-1
40
0.313278
41
1.49910751647548
42
1.59380939378221
0
ELLIPSE
5
175
100
AcDbEntity
8
1
62
256
6
ByLayer
370
-1
48
1
60
0
100
AcDbEllipse
10
85.972592
20
2.678954
30
0
11
-6.30457890164823
21
-0.198344381150647
31
0
210
0
220
0
230
-1
40
0.010627
41
-1.89655923342581
42
-1.88734668394895
0
ELLIPSE
5
176
100
AcDbEntity
8
1
62
256
6
ByLayer
370
-1
48
1
60
0
100
AcDbEllipse
10
91.849749
20
5.752318
30
0
11
1.2885986765479E-15
21
1.1
31
0
210
0
220
0
230
1
40
0.996195
41
-2.42668389129718
42
0
0
ELLIPSE
5
177
100
AcDbEntity
8
1
62
256
6
ByLayer
370
-1
48
1
60
0
100
AcDbEllipse
10
91.849749
20
5.752318
30
0
11
1.2885986765479E-15
21
1.1
31
0
210
0
220
0
230
1
40
0.996195
41
0
42
1.57079634372637
0
ELLIPSE
5
178
100
AcDbEntity
8
1
62
256
6
ByLayer
370
-1
48
1
60
0
100
AcDbEllipse
10
91.849749
20
5.752318
30
0
11
1.2885986765479E-15
21
1.1
31
0
210
0
220
0
230
1
40
0.996195
41
1.5707962760005
42
1.74584211605793
0
ELLIPSE
5
179
100
AcDbEntity
8
1
62
256
6
ByLayer
370
-1
48
1
60
0
100
AcDbEllipse
10
91.72822
20
-1.737544
30
0
11
1.2
21
0
31
0
210
0
220
0
230
1
40
0.998135
41
0
42
3.14159250110337
0
ELLIPSE
5
17A
100
AcDbEntity
8
1
62
256
6
ByLayer
370
-1
48
1
60
0
100
AcDbEllipse
10
88.773297
20
0
30
0
11
-0.281691566558757
21
8.69996497090082
31
0
210
0
220
0
230
-1
40
0.087398
41
-0.0367191154851353
42
-0.000808175743337591
0
ELLIPSE
5
17B
100
AcDbEntity
8
1
62
256
6
ByLayer
370
-1
48
1
60
0
100
AcDbEllipse
10
91.72822
20
-1.737544
30
0
11
-1.10000000000001
21
1.11170296059061E-15
31
0
210
0
220
0
230
1
40
0.998135
41
0
42
6.28318530717959
0
ELLIPSE
5
17C
100
AcDbEntity
8
1
62
256
6
ByLayer
370
-1
48
1
60
0
100
AcDbEllipse
10
94.924735
20
0
30
0
11
-0.715430981221854
21
-8.69953012918509
31
0
210
0
220
0
230
-1
40
0.126383
41
0.0127532531304196
42
1.06514290954112
0
ELLIPSE
5
17D
100
AcDbEntity
8
1
62
256
6
ByLayer
370
-1
48
1
60
0
100
AcDbEllipse
10
89.036913
20
5.008366
30
0
11
-0.599637270106163
21
-0.0208601126465927
31
0
210
0
220
0
230
1
40
0.003042
41
0.0872135714661165
42
1.13795433213007
0
ELLIPSE
5
17E
100
AcDbEntity
8
1
62
256
6
ByLayer
370
-1
48
1
60
0
100
AcDbEllipse
10
89.615281
20
3.860256
30
0
11
1.58146201212697E-15
21
1.35
31
0
210
0
220
0
230
1
40
0.996195
41
1.60570291183479
42
1.85093280967831
0
ELLIPSE
5
17F
100
AcDbEntity
8
1
62
256
6
ByLayer
370
-1
48
1
60
0
100
AcDbEllipse
10
91.836676
20
5.752318
30
0
11
1.46431667789534E-15
21
1.25
31
0
210
0
220
0
230
1
40
0.996195
41
-1.80160505545351
42
0
0
ELLIPSE
5
180
100
AcDbEntity
8
1
62
256
6
ByLayer
370
-1
48
1
60
0
100
AcDbEllipse
10
91.836676
20
5.752318
30
0
11
1.46431667789534E-15
21
1.25
31
0
210
0
220
0
230
1
40
0.996195
41
0
42
0.963290731159636
0
ELLIPSE
5
181
100
AcDbEntity
8
1
62
256
6
ByLayer
370
-1
48
1
60
0
100
AcDbEllipse
10
-2.347154
20
0
30
0
11
-14.7536831606564
21
-31.0932549155813
31
0
210
0
220
0
230
-1
40
0.341999
41
-2.98378646694437
42
-2.05035306783697
0
ELLIPSE
5
182
100
AcDbEntity
8
1
62
256
6
ByLayer
370
-1
48
1
60
0
100
AcDbEllipse
10
87.954709
20
3.476538
30
0
11
0.0280261150489236
21
-0.799508934831416
31
0
210
0
220
0
230
1
40
0.087103
41
0.0630727813209034
42
1.56774302595898
0
ELLIPSE
5
183
100
AcDbEntity
8
1
62
256
6
ByLayer
370
-1
48
1
60
0
100
AcDbEllipse
10
77.841989
20
6.402636
30
0
11
-8.42883387724583
21
4.71812867436464
31
0
210
0
220
0
230
-1
40
0.112847
41
-2.61193567468606
42
-1.5019309648499
0
ELLIPSE
5
184
100
AcDbEntity
8
1
62
256
6
ByLayer
370
-1
48
1
60
0
100
AcDbEllipse
10
89.867092
20
3.860256
30
0
11
-1.17794646133829
21
-1.04893007472002
31
0
210
0
220
0
230
-1
40
0.721468
41
-1.26712593957002
42
-0.133853100320499
0
ELLIPSE
5
185
100
AcDbEntity
8
1
62
256
6
ByLayer
370
-1
48
1
60
0
100
AcDbEllipse
10
87.773922
20
8.673371
30
0
11
-6.43121623664089E-15
21
-6
31
0
210
0
220
0
230
1
40
0.996195
41
-0.357135904997234
42
-3.49729991014509E-06
0
ELLIPSE
5
186
100
AcDbEntity
8
1
62
256
6
ByLayer
370
-1
48
1
60
0
100
AcDbEllipse
10
94.264351
20
-4.470698
30
0
11
-0.0581290992931488
21
-0.658564973948953
31
0
210
0
220
0
230
-1
40
0.115224
41
0.00370845515652388
42
1.5745047819494
0
ELLIPSE
5
187
100
AcDbEntity
8
1
62
256
6
ByLayer
370
-1
48
1
60
0
100
AcDbEllipse
10
89.57443
20
5.03454
30
0
11
1.58146201212697E-15
21
1.35
31
0
210
0
220
0
230
1
40
0.996195
41
0.86305605237593
42
1.60570291183478
0
ELLIPSE
5
188
100
AcDbEntity
8
1
62
256
6
ByLayer
370
-1
48
1
60
0
100
AcDbEllipse
10
92.080712
20
5.752318
30
0
11
1.2885986765479E-15
21
1.1
31
0
210
0
220
0
230
1
40
0.996195
41
0.105635868485064
42
1.57079627600051
0
ELLIPSE
5
189
100
AcDbEntity
8
1
62
256
6
ByLayer
370
-1
48
1
60
0
100
AcDbEllipse
10
92.080712
20
5.752318
30
0
11
1.2885986765479E-15
21
1.1
31
0
210
0
220
0
230
1
40
0.996195
41
1.57079627600051
42
2.69853015673578
0
ELLIPSE
5
18A
100
AcDbEntity
8
1
62
256
6
ByLayer
370
-1
48
1
60
0
100
AcDbEllipse
10
87.843646
20
8.673371
30
0
11
6.09155738004463E-15
21
5.2
31
0
210
0
220
0
230
1
40
0.996195
41
2.72271363311116
42
-3.10668606854991
0
ELLIPSE
5
18B
100
AcDbEntity
8
1
62
256
6
ByLayer
370
-1
48
1
60
0
100
AcDbEllipse
10
26.347154
20
0
30
0
11
-14.7536831606566
21
31.0932549155814
31
0
210
0
220
0
230
-1
40
0.341999
41
-1.09123958575282
42
-0.157806186645427
0
ELLIPSE
5
18C
100
AcDbEntity
8
1
62
256
6
ByLayer
370
-1
48
1
60
0
100
AcDbEllipse
10
93.939084
20
3.44149
30
0
11
-0.0502226951765676
21
0.603396525205565
31
0
210
0
220
0
230
-1
40
0.116044
41
2.31902105564961
42
-3.13033978931042
0
ELLIPSE
5
18D
100
AcDbEntity
8
1
62
256
6
ByLayer
370
-1
48
1
60
0
100
AcDbEllipse
10
93.282906
20
0
30
0
11
-19.7969400562836
21
8.43093334078478
31
0
210
0
220
0
230
-1
40
0.108448
41
-1.16868999061015
42
-0.547596322715688
0
ELLIPSE
5
18E
100
AcDbEntity
8
1
62
256
6
ByLayer
370
-1
48
1
60
0
100
AcDbEllipse
10
89.824454
20
3.860256
30
0
11
-1.4470236532442E-15
21
-1.35
31
0
210
0
220
0
230
1
40
0.996195
41
-1.53588974175501
42
-0.146913134865276
0
ELLIPSE
5
18F
100
AcDbEntity
8
1
62
256
6
ByLayer
370
-1
48
1
60
0
100
AcDbEllipse
10
89.783604
20
5.03454
30
0
11
-1.4470236532442E-15
21
-1.35
31
0
210
0
220
0
230
1
40
0.996195
41
-2.26960617922759
42
-1.53588974175501
0
ELLIPSE
5
190
100
AcDbEntity
8
1
62
256
6
ByLayer
370
-1
48
1
60
0
100
AcDbEllipse
10
94.035072
20
0.018098
30
0
11
-0.0367903397437341
21
0.601607566700083
31
0
210
0
220
0
230
-1
40
0.118733
41
-1.49832362618191
42
-1.33856144170636
0
ELLIPSE
5
191
100
AcDbEntity
8
1
62
256
6
ByLayer
370
-1
48
1
60
0
100
AcDbEllipse
10
94.2839
20
0
30
0
11
-0.527901124575305
21
8.6997728425284
31
0
210
0
220
0
230
-1
40
0.119092
41
-2.05883024435886
42
-1.50812033315287
0
ELLIPSE
5
192
100
AcDbEntity
8
1
62
256
6
ByLayer
370
-1
48
1
60
0
100
AcDbEllipse
10
86.279622
20
5.530509
30
0
11
-0.411561539903942
21
-3.87822344622791
31
0
210
0
220
0
230
1
40
0.29743
41
0.193129869697598
42
0.801196278959933
0
ELLIPSE
5
193
100
AcDbEntity
8
1
62
256
6
ByLayer
370
-1
48
1
60
0
100
AcDbEllipse
10
91.72822
20
-2.033629
30
0
11
-1.1
21
1.1117029605906E-15
31
0
210
0
220
0
230
1
40
0.998135
41
-3.00640582195795
42
-0.135284433923162
0
ELLIPSE
5
194
100
AcDbEntity
8
1
62
256
6
ByLayer
370
-1
48
1
60
0
100
AcDbEllipse
10
-2.347154
20
0
30
0
11
-14.753683160657
21
31.093254915582
31
0
210
0
220
0
230
-1
40
0.341999
41
2.05035306783699
42
2.98378646694437
0
POINT
5
41
100
AcDbEntity
8
81
62
256
6
ByLayer
370
-1
48
1
60
0
100
AcDbPoint
10
95
20
0
30
0
39
0
210
0
220
0
230
1
50
360
0
POINT
5
43
100
AcDbEntity
8
80
62
256
6
ByLayer
370
-1
48
1
60
0
100
AcDbPoint
10
0
20
0
30
0
39
0
210
0
220
0
230
1
50
360
0
SPLINE
5
195
100
AcDbEntity
8
1
62
256
6
ByLayer
370
-1
48
1
60
0
100
AcDbSpline
70
4
71
3
72
17
73
13
40
0
40
0
40
0
40
0
40
0.069342375304208
40
0.139487930261777
40
0.215081840056014
40
0.294948125394077
40
0.419717789864728
40
0.546084093428095
40
0.660851317437095
40
0.775794152654889
40
0.889332827096034
40
1
40
1
40
1
40
1
41
1
10
28.5
20
-14.5
30
0
41
1
10
28.7808935331695
20
-14.489474813724
30
0
41
1
10
29.3082511811724
20
-14.3857164568362
30
0
41
1
10
30.0117468639307
20
-13.9013294896002
30
0
41
1
10
30.6058220589256
20
-13.2612175734543
30
0
41
1
10
31.2530248271404
20
-12.3902901196772
30
0
41
1
10
31.9912594825479
20
-11.3398908079359
30
0
41
1
10
33.0403549529767
20
-10.3728495476696
30
0
41
1
10
34.199152178051
20
-9.61792818032916
30
0
41
1
10
35.4232211607342
20
-9.08747451686489
30
0
41
1
10
36.7047015514978
20
-8.76970888005047
30
0
41
1
10
37.5676633881012
20
-8.70044889387381
30
0
41
1
10
38
20
-8.70000000000005
30
0
0
SPLINE
5
196
100
AcDbEntity
8
1
62
256
6
ByLayer
370
-1
48
1
60
0
100
AcDbSpline
70
4
71
3
72
10
73
6
40
0
40
0
40
0
40
0
40
0.177508561998396
40
0.734232776727964
40
1
40
1
40
1
40
1
41
1
10
91.8128614820957
20
-1.04212653196618
30
0
41
1
10
91.8479895995645
20
-1.0403003900343
30
0
41
1
10
91.9925272550132
20
-1.03874766269118
30
0
41
1
10
92.1899729515577
20
-1.07110959949091
30
0
41
1
10
92.3424624490831
20
-1.12805867489769
30
0
41
1
10
92.390351473178
20
-1.14944613278624
30
0
0
SPLINE
5
197
100
AcDbEntity
8
1
62
256
6
ByLayer
370
-1
48
1
60
0
100
AcDbSpline
70
4
71
3
72
11
73
7
40
0
40
0
40
0
40
0
40
0.293253557121955
40
0.59433616117317
40
0.894473367930542
40
1
40
1
40
1
40
1
41
1
10
90.8723105083596
20
-1.5460705912638
30
0
41
1
10
90.9357498032613
20
-1.45998188329165
30
0
41
1
10
91.0886590860231
20
-1.30188778580847
30
0
41
1
10
91.372236853596
20
-1.13078955489701
30
0
41
1
10
91.6257731301845
20
-1.05878534560031
30
0
41
1
10
91.7738993528019
20
-1.04418177236644
30
0
41
1
10
91.8128614820957
20
-1.04212653196618
30
0
0
SPLINE
5
198
100
AcDbEntity
8
1
62
256
6
ByLayer
370
-1
48
1
60
0
100
AcDbSpline
70
4
71
3
72
20
73
16
40
0
40
0
40
0
40
0
40
0.0347374990023778
40
0.120502631827182
40
0.206067200958303
40
0.291145710003055
40
0.375628898564965
40
0.459578796341626
40
0.543191442056225
40
0.626736727364843
40
0.710411131649109
40
0.794456105681966
40
0.879037736605666
40
0.964188749141071
40
1
40
1
40
1
40
1
41
1
10
91.8612413402318
20
7.19613891010923
30
0
41
1
10
91.9057578417647
20
7.20172884256323
30
0
41
1
10
92.0588593486995
20
7.21030527779251
30
0
41
1
10
92.3194619356793
20
7.14273171077929
30
0
41
1
10
92.6133202007446
20
6.99010708671321
30
0
41
1
10
92.8565510525924
20
6.76068270436838
30
0
41
1
10
93.0314344911732
20
6.47620038879364
30
0
41
1
10
93.1260917886885
20
6.15572196012357
30
0
41
1
10
93.1344262373661
20
5.82221623557976
30
0
41
1
10
93.0564268923603
20
5.49877140530566
30
0
41
1
10
92.8979668780722
20
5.20754053721549
30
0
41
1
10
92.6700148032615
20
4.96819224149453
30
0
41
1
10
92.388323613322
20
4.796930931563
30
0
41
1
10
92.1322867613201
20
4.72340846360547
30
0
41
1
10
91.9790243875123
20
4.70946377585955
30
0
41
1
10
91.9330941515956
20
4.70783370282416
30
0
0
SPLINE
5
199
100
AcDbEntity
8
SK1
62
256
6
ByLayer
370
-1
48
1
60
0
100
AcDbSpline
70
4
71
2
72
6
73
3
40
0
40
0
40
0
40
1
40
1
40
1
41
1
10
-2.194957664024
20
22.0202259035338
30
0
41
1
10
-2.59747883201197
20
22.0101131705342
30
0
41
1
10
-2.99999999999997
20
22.0000004375346
30
0
0
SPLINE
5
19A
100
AcDbEntity
8
SK1
62
256
6
ByLayer
370
-1
48
1
60
0
100
AcDbSpline
70
4
71
2
72
6
73
3
40
0
40
0
40
0
40
1
40
1
40
1
41
1
10
-3.00000000000003
20
-22.0000004290441
30
0
41
1
10
-2.59747883201203
20
-22.0101131620398
30
0
41
1
10
-2.19495766402406
20
-22.0202258950355
30
0
0
SPLINE
5
19B
100
AcDbEntity
8
SK1
62
256
6
ByLayer
370
-1
48
1
60
0
100
AcDbSpline
70
4
71
2
72
6
73
3
40
0
40
0
40
0
40
1
40
1
40
1
41
1
10
-2.99999999999997
20
22.0000004375346
30
0
41
1
10
-19.7502365839533
20
21.5791761834949
30
0
41
1
10
-36.5004731679066
20
21.1583519294553
30
0
0
SPLINE
5
19C
100
AcDbEntity
8
SK1
62
256
6
ByLayer
370
-1
48
1
60
0
100
AcDbSpline
70
4
71
2
72
6
73
3
40
0
40
0
40
0
40
1
40
1
40
1
41
1
10
-36.5004731679067
20
-21.1583519212895
30
0
41
1
10
-19.7502365839533
20
-21.5791761751668
30
0
41
1
10
-3.00000000000003
20
-22.0000004290441
30
0
0
SPLINE
5
19D
100
AcDbEntity
8
SK1
62
256
6
ByLayer
370
-1
48
1
60
0
100
AcDbSpline
70
4
71
3
72
11
73
7
40
0
40
0
40
0
40
0
40
0.249492416334384
40
0.502620150888757
40
0.754490317554652
40
1
40
1
40
1
40
1
41
1
10
-1.99999999999997
20
21.8251283290969
30
0
41
1
10
-2.02566317500015
20
21.8248652661896
30
0
41
1
10
-2.07419248796035
20
21.8338651331165
30
0
41
1
10
-2.1456847237913
20
21.8776777449266
30
0
41
1
10
-2.19087628909409
20
21.94711747353
30
0
41
1
10
-2.20015150570092
20
21.9940928028999
30
0
41
1
10
-2.19999999999999
20
22.0188171515827
30
0
0
SPLINE
5
19E
100
AcDbEntity
8
SK1
62
256
6
ByLayer
370
-1
48
1
60
0
100
AcDbSpline
70
4
71
3
72
11
73
7
40
0
40
0
40
0
40
0
40
0.245509649063842
40
0.497380451392467
40
0.750508528879147
40
1
40
1
40
1
40
1
41
1
10
-2.20000000000005
20
-22.018818627264
30
0
41
1
10
-2.2001514801947
20
-21.9940939827203
30
0
41
1
10
-2.1908762502039
20
-21.9471180993486
30
0
41
1
10
-2.1456847418911
20
-21.8776780717056
30
0
41
1
10
-2.0741926967537
20
-21.8338652086853
30
0
41
1
10
-2.02566322896234
20
-21.8248652923094
30
0
41
1
10
-2.00000000000003
20
-21.8251283225343
30
0
0
SPLINE
5
19F
100
AcDbEntity
8
SK1
62
256
6
ByLayer
370
-1
48
1
60
0
100
AcDbSpline
70
4
71
2
72
6
73
3
40
0
40
0
40
0
40
1
40
1
40
1
41
1
10
-36.5004321682704
20
21.1581061531923
30
0
41
1
10
-37.250216097561
20
20.6997323883078
30
0
41
1
10
-38
20
20.2413583528791
30
0
0
SPLINE
5
1A0
100
AcDbEntity
8
SK1
62
256
6
ByLayer
370
-1
48
1
60
0
100
AcDbSpline
70
4
71
2
72
6
73
3
40
0
40
0
40
0
40
1
40
1
40
1
41
1
10
-38
20
-20.2397162883158
30
0
41
1
10
-37.2502068935607
20
-20.6982812567357
30
0
41
1
10
-36.5004138730271
20
-21.1568446673337
30
0
0
SPLINE
5
1A1
100
AcDbEntity
8
SK1
62
256
6
ByLayer
370
-1
48
1
60
0
100
AcDbSpline
70
4
71
2
72
6
73
3
40
0
40
0
40
0
40
1
40
1
40
1
41
1
10
-2.00000000000003
20
-21.7816074020814
30
0
41
1
10
-1.38101983309073
20
-21.7816074020814
30
0
41
1
10
-0.762039666181437
20
-21.7816074020814
30
0
0
SPLINE
5
1A2
100
AcDbEntity
8
SK1
62
256
6
ByLayer
370
-1
48
1
60
0
100
AcDbSpline
70
4
71
2
72
6
73
3
40
0
40
0
40
0
40
1
40
1
40
1
41
1
10
-0.751598707448096
20
21.7816065919818
30
0
41
1
10
-1.37579935372403
20
21.7816065919818
30
0
41
1
10
-1.99999999999997
20
21.7816065919818
30
0
0
SPLINE
5
1A3
100
AcDbEntity
8
1
62
256
6
ByLayer
370
-1
48
1
60
0
100
AcDbSpline
70
4
71
3
72
17
73
13
40
0
40
0
40
0
40
0
40
0.141322009867875
40
0.286651527876718
40
0.432863970932361
40
0.576720837874759
40
0.659161279002002
40
0.743675107207022
40
0.82545208924827
40
0.885636824391289
40
0.942579552969329
40
1
40
1
40
1
40
1
41
1
10
38
20
8.69999999999993
30
0
41
1
10
37.4446242868355
20
8.70119478001737
30
0
41
1
10
36.3451876524567
20
8.81396485908348
30
0
41
1
10
34.7337241819666
20
9.33067900870537
30
0
41
1
10
33.2664994951765
20
10.1791639166381
30
0
41
1
10
32.1819189739627
20
11.1478174956672
30
0
41
1
10
31.4441014188082
20
12.0997502511229
30
0
41
1
10
30.894901066021
20
12.8893485992948
30
0
41
1
10
30.3392702561382
20
13.5704542160779
30
0
41
1
10
29.7672703557256
20
14.0884560065559
30
0
41
1
10
29.1648679656491
20
14.4236483769532
30
0
41
1
10
28.7302923767691
20
14.4953156343149
30
0
41
1
10
28.5
20
14.5
30
0
0
SPLINE
5
1A4
100
AcDbEntity
8
SK1
62
256
6
ByLayer
370
-1
48
1
60
0
100
AcDbSpline
70
4
71
3
72
14
73
10
40
0
40
0
40
0
40
0
40
0.30263145722768
40
0.30263145722768
40
0.605262914455359
40
0.605262914455359
40
0.907894371683039
40
0.907894371683039
40
1
40
1
40
1
40
1
41
1
10
-0.400000000000063
20
-21.7837959067596
30
0
41
1
10
-0.42873557483199
20
-21.7819427947676
30
0
41
1
10
-0.461059788287002
20
-21.7801927483554
30
0
41
1
10
-0.534595439579363
20
-21.7776710636351
30
0
41
1
10
-0.577101677922059
20
-21.7769534913561
30
0
41
1
10
-0.661662996642292
20
-21.7775107288212
30
0
41
1
10
-0.70094634472477
20
-21.7787044180075
30
0
41
1
10
-0.745383570654468
20
-21.7806975769428
30
0
41
1
10
-0.755343718328106
20
-21.7811931735645
30
0
41
1
10
-0.764929807327349
20
-21.7817109983212
30
0
0
SPLINE
5
1A5
100
AcDbEntity
8
SK1
62
256
6
ByLayer
370
-1
48
1
60
0
100
AcDbSpline
70
4
71
3
72
10
73
6
40
0
40
0
40
0
40
0
40
0.5
40
0.5
40
1
40
1
40
1
40
1
41
1
10
-2.00000000000008
20
3.53189014643519
30
0
41
1
10
-1.90393337443695
20
4.17254949139414
30
0
41
1
10
-1.79296688652977
20
4.79344204858279
30
0
41
1
10
-1.55766021047049
20
6.00594034292695
30
0
41
1
10
-1.43293995753825
20
6.59828030673893
30
0
41
1
10
-1.30710678118655
20
7.17535191129488
30
0
0
SPLINE
5
1A6
100
AcDbEntity
8
SK1
62
256
6
ByLayer
370
-1
48
1
60
0
100
AcDbSpline
70
4
71
3
72
18
73
14
40
0
40
0
40
0
40
0
40
0.164461910623753
40
0.164461910623753
40
0.328923821247507
40
0.328923821247507
40
0.657847642495013
40
0.657847642495013
40
0.822309553118766
40
0.822309553118766
40
0.986771463742519
40
0.986771463742519
40
1
40
1
40
1
40
1
41
1
10
-2.20000000000005
20
-18.80579949842
30
0
41
1
10
-2.20000000000005
20
-19.129695530799
30
0
41
1
10
-2.19999991383656
20
-19.432115266424
30
0
41
1
10
-2.19999926362902
20
-19.9930629332167
30
0
41
1
10
-2.19999870008468
20
-20.2515480764309
30
0
41
1
10
-2.19999564044511
20
-20.9545919350817
30
0
41
1
10
-2.19999187964982
20
-21.3288356060147
30
0
41
1
10
-2.19997934279718
20
-21.7231461874623
30
0
41
1
10
-2.19997397516337
20
-21.8266671330472
30
0
41
1
10
-2.19995995834907
20
-21.9716817908412
30
0
41
1
10
-2.19995119755549
20
-22.0131826869451
30
0
41
1
10
-2.19993903881365
20
-22.0198035027518
30
0
41
1
10
-2.19993811703847
20
-22.0200679082175
30
0
41
1
10
-2.19993717843997
20
-22.0201004848422
30
0
0
SPLINE
5
1A7
100
AcDbEntity
8
SK1
62
256
6
ByLayer
370
-1
48
1
60
0
100
AcDbSpline
70
4
71
3
72
37
73
33
40
0
40
0
40
0
40
0
40
0.0014326115339296
40
0.0111574011282176
40
0.0208821907225056
40
0.0306069803167937
40
0.0500565595053697
40
0.0695061386939457
40
0.108405297071098
40
0.14730445544825
40
0.186203613825402
40
0.225102772202554
40
0.264001930579706
40
0.302901088956858
40
0.34180024733401
40
0.380699405711162
40
0.419598564088314
40
0.458497722465466
40
0.497396880842619
40
0.536296039219771
40
0.575195197596923
40
0.614094355974075
40
0.652993514351227
40
0.691892672728379
40
0.730791831105531
40
0.769690989482683
40
0.808590147859835
40
0.847489306236987
40
0.886388464614139
40
0.925287622991291
40
0.964186781368443
40
1
40
1
40
1
40
1
41
1
10
-2
20
21.8239181464676
30
0
41
1
10
-2
20
21.8237782818229
30
0
41
1
10
-2
20
21.822593634461
30
0
41
1
10
-1.99999999999997
20
21.8189793414588
30
0
41
1
10
-1.99999999999997
20
21.8103813172626
30
0
41
1
10
-1.99999999999997
20
21.7940462079955
30
0
41
1
10
-1.99999999999997
20
21.7642160490035
30
0
41
1
10
-1.99999999999997
20
21.6949779936854
30
0
41
1
10
-1.99999999999997
20
21.5661676526815
30
0
41
1
10
-1.99999999999997
20
21.3371910810194
30
0
41
1
10
-1.99999999999997
20
21.0285622078674
30
0
41
1
10
-1.99999999999997
20
20.6365187777369
30
0
41
1
10
-1.99999999999997
20
20.1589996983693
30
0
41
1
10
-2
20
19.5958617698656
30
0
41
1
10
-2
20
18.9489598758679
30
0
41
1
10
-2
20
18.2221705966385
30
0
41
1
10
-2
20
17.4213307857328
30
0
41
1
10
-2
20
16.5541009338831
30
0
41
1
10
-2
20
15.6297568996197
30
0
41
1
10
-2
20
14.6589138549468
30
0
41
1
10
-2
20
13.6532009067709
30
0
41
1
10
-2
20
12.6248857298215
30
0
41
1
10
-2.00000000000003
20
11.5864803035381
30
0
41
1
10
-2.00000000000003
20
10.5503219390466
30
0
41
1
10
-2.00000000000003
20
9.5281693138144
30
0
41
1
10
-2.00000000000003
20
8.53080274713156
30
0
41
1
10
-2.00000000000003
20
7.56767168233321
30
0
41
1
10
-2.00000000000003
20
6.64657466016962
30
0
41
1
10
-2.00000000000003
20
5.77341249237057
30
0
41
1
10
-2.00000000000003
20
4.95199325849538
30
0
41
1
10
-2.00000000000003
20
4.20424996648165
30
0
41
1
10
-2.00000000000003
20
3.74495934699039
30
0
41
1
10
-2.00000000000003
20
3.53189014643684
30
0
0
SPLINE
5
1A8
100
AcDbEntity
8
SK1
62
256
6
ByLayer
370
-1
48
1
60
0
100
AcDbSpline
70
4
71
3
72
24
73
20
40
0
40
0
40
0
40
0
40
0.249999999999997
40
0.249999999999997
40
0.499999999999995
40
0.499999999999995
40
0.624999999999996
40
0.624999999999996
40
0.749999999999997
40
0.749999999999997
40
0.812499999999998
40
0.812499999999998
40
0.874999999999999
40
0.874999999999999
40
0.906249999999999
40
0.906249999999999
40
0.937499999999999
40
0.937499999999999
40
1
40
1
40
1
40
1
41
1
10
-0.200000000000046
20
9.10270310524561
30
0
41
1
10
-0.200000000000046
20
9.03673878663002
30
0
41
1
10
-0.201300944691838
20
8.97046489993105
30
0
41
1
10
-0.2076625267851
20
8.83717267131343
30
0
41
1
10
-0.212640606030817
20
8.77006095372801
30
0
41
1
10
-0.225219355684885
20
8.66897966689044
30
0
41
1
10
-0.230267342932194
20
8.63526504879556
30
0
41
1
10
-0.243209081854872
20
8.56784399996224
30
0
41
1
10
-0.25100686287638
20
8.53408819622612
30
0
41
1
10
-0.267081479681593
20
8.48424829339385
30
0
41
1
10
-0.273198880997086
20
8.46771587246189
30
0
41
1
10
-0.288041640105263
20
8.43574737526444
30
0
41
1
10
-0.296816000011518
20
8.41986795455836
30
0
41
1
10
-0.314334579263743
20
8.39935228306197
30
0
41
1
10
-0.321047059761611
20
8.39297862418408
30
0
41
1
10
-0.336578489168488
20
8.38338430370854
30
0
41
1
10
-0.345411194560029
20
8.38038004294393
30
0
41
1
10
-0.372193276142099
20
8.37968037405628
30
0
41
1
10
-0.387527453193997
20
8.38923416170084
30
0
41
1
10
-0.399999999985937
20
8.40050075606717
30
0
0
SPLINE
5
1A9
100
AcDbEntity
8
SK1
62
256
6
ByLayer
370
-1
48
1
60
0
100
AcDbSpline
70
4
71
3
72
28
73
24
40
0
40
0
40
0
40
0
40
0.0073506936623785
40
0.0601992338133586
40
0.113047773964339
40
0.165896314115319
40
0.218744854266299
40
0.271593394417279
40
0.324441934568259
40
0.377290474719239
40
0.430139014870219
40
0.482987555021199
40
0.535836095172179
40
0.58868463532316
40
0.64153317547414
40
0.69438171562512
40
0.7472302557761
40
0.80007879592708
40
0.85292733607806
40
0.90577587622904
40
0.95862441638002
40
0.98504868645551
40
1
40
1
40
1
40
1
41
1
10
-0.400000000000034
20
-8.40050069661757
30
0
41
1
10
-0.400000000000034
20
-8.44572397118418
30
0
41
1
10
-0.400000000000034
20
-8.81701709973368
30
0
41
1
10
-0.400000000000034
20
-9.52816888083231
30
0
41
1
10
-0.400000000000034
20
-10.5503221797328
30
0
41
1
10
-0.400000000000034
20
-11.5864797887658
30
0
41
1
10
-0.400000000000063
20
-12.6248859949608
30
0
41
1
10
-0.400000000000063
20
-13.6532003777634
30
0
41
1
10
-0.400000000000063
20
-14.6589141102144
30
0
41
1
10
-0.400000000000063
20
-15.6297564245795
30
0
41
1
10
-0.400000000000063
20
-16.5541011472568
30
0
41
1
10
-0.400000000000063
20
-17.4213304234775
30
0
41
1
10
-0.400000000000063
20
-18.2221707430851
30
0
41
1
10
-0.400000000000063
20
-18.9489596670075
30
0
41
1
10
-0.400000000000063
20
-19.5958618349948
30
0
41
1
10
-0.400000000000063
20
-20.1589996510313
30
0
41
1
10
-0.400000000000063
20
-20.6365184914532
30
0
41
1
10
-0.400000000000063
20
-21.0285634421464
30
0
41
1
10
-0.400000000000063
20
-21.337187169909
30
0
41
1
10
-0.400000000000063
20
-21.5661689793568
30
0
41
1
10
-0.400000000000063
20
-21.694977581428
30
0
41
1
10
-0.400000000000063
20
-21.7567005396733
30
0
41
1
10
-0.400000000000063
20
-21.7772122547681
30
0
41
1
10
-0.400000000000063
20
-21.7837959067598
30
0
0
SPLINE
5
1AA
100
AcDbEntity
8
SK1
62
256
6
ByLayer
370
-1
48
1
60
0
100
AcDbSpline
70
4
71
3
72
14
73
10
40
0
40
0
40
0
40
0
40
0.088874344109091
40
0.247144108645392
40
0.405413873181692
40
0.563683637717993
40
0.721953402254293
40
0.880223166790594
40
1
40
1
40
1
40
1
41
1
10
-2.19999999999999
20
18.805799359705
30
0
41
1
10
-2.19999999999999
20
18.6699623491753
30
0
41
1
10
-2.19999999999999
20
18.2808589940163
30
0
41
1
10
-2.19999999999999
20
17.5929252949648
30
0
41
1
10
-2.19999999999999
20
16.7204318129083
30
0
41
1
10
-2.19999999999999
20
15.7904219641236
30
0
41
1
10
-2.19999999999999
20
14.8135246379527
30
0
41
1
10
-2.19999999999999
20
13.8834381562974
30
0
41
1
10
-2.19999999999999
20
13.2789215159481
30
0
41
1
10
-2.19999999999999
20
13.0172213664454
30
0
0
SPLINE
5
1AB
100
AcDbEntity
8
SK1
62
256
6
ByLayer
370
-1
48
1
60
0
100
AcDbSpline
70
4
71
3
72
24
73
20
40
0
40
0
40
0
40
0
40
0.25
40
0.25
40
0.5
40
0.5
40
0.625000000000001
40
0.625000000000001
40
0.750000000000003
40
0.750000000000003
40
0.812500000000004
40
0.812500000000004
40
0.875000000000005
40
0.875000000000005
40
0.906250000000004
40
0.906250000000004
40
0.937500000000002
40
0.937500000000002
40
1
40
1
40
1
40
1
41
1
10
-0.19999999999925
20
-21.9302322813768
30
0
41
1
10
-0.199999999999449
20
-21.9232339651778
30
0
41
1
10
-0.201301358458665
20
-21.9153179215732
30
0
41
1
10
-0.207664989911962
20
-21.8972173346818
30
0
41
1
10
-0.212644598959713
20
-21.8870405217581
30
0
41
1
10
-0.225227696864863
20
-21.8693999123201
30
0
41
1
10
-0.230277419646939
20
-21.8631298937617
30
0
41
1
10
-0.243223761357427
20
-21.8495186811203
30
0
41
1
10
-0.251024371908272
20
-21.8421906584754
30
0
41
1
10
-0.267105241071562
20
-21.8299687499399
30
0
41
1
10
-0.273224961098009
20
-21.825673656047
30
0
41
1
10
-0.288072610556895
20
-21.8165474607427
30
0
41
1
10
-0.296850963424532
20
-21.8116226471018
30
0
41
1
10
-0.314371903809558
20
-21.8037318707459
30
0
41
1
10
-0.321082879564614
20
-21.8009678791633
30
0
41
1
10
-0.336612671282779
20
-21.7955111151383
30
0
41
1
10
-0.345443540956296
20
-21.7928573480961
30
0
41
1
10
-0.372191316488198
20
-21.7864063266207
30
0
41
1
10
-0.387529346728002
20
-21.7846001195613
30
0
41
1
10
-0.400000000000148
20
-21.7837959067602
30
0
0
SPLINE
5
1AC
100
AcDbEntity
8
SK1
62
256
6
ByLayer
370
-1
48
1
60
0
100
AcDbSpline
70
4
71
3
72
16
73
12
40
0
40
0
40
0
40
0
40
0.125
40
0.125
40
0.25
40
0.25
40
0.5
40
0.5
40
0.75
40
0.75
40
1
40
1
40
1
40
1
41
1
10
-2.19996216443241
20
-3.54983930763259
30
0
41
1
10
-2.19996657738898
20
-4.0041634529737
30
0
41
1
10
-2.19997072345427
20
-4.45236980864419
30
0
41
1
10
-2.19997797636591
20
-5.33337228979659
30
0
41
1
10
-2.199981116614
20
-5.76662570138805
30
0
41
1
10
-2.19998914270215
20
-7.04409517492741
30
0
41
1
10
-2.1999926307073
20
-7.86507069861446
30
0
41
1
10
-2.19999730472935
20
-9.44492451930091
30
0
41
1
10
-2.19999850693478
20
-10.2038896103293
30
0
41
1
10
-2.1999998554673
20
-11.6586646600846
30
0
41
1
10
-2.20000000000005
20
-12.3549228627444
30
0
41
1
10
-2.20000000000005
20
-13.0172198859358
30
0
0
SPLINE
5
1AD
100
AcDbEntity
8
SK1
62
256
6
ByLayer
370
-1
48
1
60
0
100
AcDbSpline
70
4
71
3
72
20
73
16
40
0
40
0
40
0
40
0
40
0.0625
40
0.0625
40
0.125
40
0.125
40
0.25
40
0.25
40
0.5
40
0.5
40
0.625
40
0.625
40
0.75
40
0.75
40
1
40
1
40
1
40
1
41
1
10
-2.19996216443258
20
-3.54983930763265
30
0
41
1
10
-2.22044840143087
20
-3.40695670462844
30
0
41
1
10
-2.24021230184059
20
-3.26305777471006
30
0
41
1
10
-2.27803379469174
20
-2.97304584798116
30
0
41
1
10
-2.2961290249122
20
-2.82664512825193
30
0
41
1
10
-2.34720400178199
20
-2.38608927555839
30
0
41
1
10
-2.37689006379998
20
-2.0913414023224
30
0
41
1
10
-2.45003363011682
20
-1.20362048849589
30
0
41
1
10
-2.4771922892763
20
-0.607128851196308
30
0
41
1
10
-2.47741959906745
20
0.295725665164952
30
0
41
1
10
-2.47084183993451
20
0.598295142845728
30
0
41
1
10
-2.44464665854522
20
1.20498874144644
30
0
41
1
10
-2.42528670432401
20
1.50489082545869
30
0
41
1
10
-2.35167309829586
20
2.39552637501163
30
0
41
1
10
-2.28205772926171
20
2.97726686878858
30
0
41
1
10
-2.19996216441007
20
3.54984866401654
30
0
0
SPLINE
5
1AE
100
AcDbEntity
8
SK1
62
256
6
ByLayer
370
-1
48
1
60
0
100
AcDbSpline
70
4
71
3
72
12
73
8
40
0
40
0
40
0
40
0
40
0.5
40
0.5
40
0.75
40
0.75
40
1
40
1
40
1
40
1
41
1
10
-1.30710678118655
20
-7.17535139798747
30
0
41
1
10
-1.43288857909613
20
-6.59851617694682
30
0
41
1
10
-1.55712887502457
20
-6.00852912527773
30
0
41
1
10
-1.73364643499025
20
-5.09918734693227
30
0
41
1
10
-1.7908223366141
20
-4.79199066182511
30
0
41
1
10
-1.90003742445902
20
-4.16818032247807
30
0
41
1
10
-1.9520007528466
20
-3.85198363140074
30
0
41
1
10
-2.00000000000003
20
-3.53188087205282
30
0
0
SPLINE
5
1AF
100
AcDbEntity
8
SK1
62
256
6
ByLayer
370
-1
48
1
60
0
100
AcDbSpline
70
4
71
3
72
77
73
73
40
0
40
0
40
0
40
0
40
0.0022824633437761
40
0.0177381240208807
40
0.0331937846979853
40
0.0486494453750898
40
0.0563772757136421
40
0.0641051060521944
40
0.0679690212214706
40
0.0718329363907467
40
0.079560766729299
40
0.0872885970678512
40
0.0950164274064035
40
0.110472088083508
40
0.125927748760613
40
0.141383409437717
40
0.156839070114822
40
0.172294730791926
40
0.187750391469031
40
0.203206052146135
40
0.21866171282324
40
0.234117373500345
40
0.249573034177449
40
0.265028694854554
40
0.280484355531658
40
0.295940016208763
40
0.311395676885867
40
0.326851337562972
40
0.342306998240077
40
0.357762658917181
40
0.373218319594286
40
0.38867398027139
40
0.404129640948495
40
0.419585301625599
40
0.435040962302704
40
0.450496622979809
40
0.465952283656913
40
0.481407944334018
40
0.496863605011122
40
0.512319265688227
40
0.527774926365331
40
0.543230587042436
40
0.55868624771954
40
0.574141908396645
40
0.589597569073749
40
0.605053229750854
40
0.620508890427959
40
0.635964551105063
40
0.651420211782168
40
0.666875872459272
40
0.682331533136377
40
0.697787193813482
40
0.713242854490586
40
0.728698515167691
40
0.744154175844795
40
0.7596098365219
40
0.775065497199004
40
0.790521157876109
40
0.805976818553213
40
0.821432479230318
40
0.836888139907423
40
0.852343800584527
40
0.867799461261632
40
0.883255121938736
40
0.898710782615841
40
0.914166443292945
40
0.92962210397005
40
0.945077764647155
40
0.960533425324259
40
0.975989086001364
40
0.991444746678468
40
1
40
1
40
1
40
1
41
1
10
-36.5004731679066
20
20.808534332019
30
0
41
1
10
-36.5004731679066
20
20.8158530879457
30
0
41
1
10
-36.5004731679066
20
20.872097010648
30
0
41
1
10
-36.5004731679066
20
20.9678459995099
30
0
41
1
10
-36.5004731679066
20
21.0725443050818
30
0
41
1
10
-36.5004731679066
20
21.1298848333405
30
0
41
1
10
-36.5004731679066
20
21.1541047357203
30
0
41
1
10
-36.5004731679066
20
21.1594141733556
30
0
41
1
10
-36.5004731679066
20
21.1572893290471
30
0
41
1
10
-36.5004731679066
20
21.1507604524732
30
0
41
1
10
-36.5004731679066
20
21.1340271127651
30
0
41
1
10
-36.5004731679066
20
21.0993443437175
30
0
41
1
10
-36.5004731679066
20
21.0323574718579
30
0
41
1
10
-36.5004731679066
20
20.9076510853334
30
0
41
1
10
-36.5004731679066
20
20.6861768635696
30
0
41
1
10
-36.5004731679066
20
20.3877899097529
30
0
41
1
10
-36.5004731679066
20
20.0088910104846
30
0
41
1
10
-36.5004731679066
20
19.5475117391119
30
0
41
1
10
-36.5004731679066
20
19.0035240314005
30
0
41
1
10
-36.5004731679066
20
18.3787159166599
30
0
41
1
10
-36.5004731679066
20
17.6768145225053
30
0
41
1
10
-36.5004731679066
20
16.9034270453042
30
0
41
1
10
-36.5004731679066
20
16.0659098298205
30
0
41
1
10
-36.5004731679066
20
15.1731686563964
30
0
41
1
10
-36.5004731679066
20
14.235394189438
30
0
41
1
10
-36.5004731679066
20
13.2637500116936
30
0
41
1
10
-36.5004731679066
20
12.2700128928829
30
0
41
1
10
-36.5004731679066
20
11.266194793172
30
0
41
1
10
-36.5004731679066
20
10.2641413514587
30
0
41
1
10
-36.5004731679066
20
9.2751445842122
30
0
41
1
10
-36.5004731679066
20
8.30955984641457
30
0
41
1
10
-36.5004731679066
20
7.37646783866535
30
0
41
1
10
-36.5004731679066
20
6.48336798664187
30
0
41
1
10
-36.5004731679067
20
5.6359413325186
30
0
41
1
10
-36.5004731679067
20
4.83786714148405
30
0
41
1
10
-36.5004731679067
20
4.09072334425366
30
0
41
1
10
-36.5004731679067
20
3.39395488654748
30
0
41
1
10
-36.5004731679067
20
2.74492785973811
30
0
41
1
10
-36.5004731679067
20
2.13905542595018
30
0
41
1
10
-36.5004731679067
20
1.56999873250982
30
0
41
1
10
-36.5004731679067
20
1.02993260778024
30
0
41
1
10
-36.5004731679067
20
0.509864295014552
30
0
41
1
10
-36.5004731679067
20
1.062999786E-07
30
0
41
1
10
-36.5004731679067
20
-0.509864720214296
30
0
41
1
10
-36.5004731679067
20
-1.02993241209063
30
0
41
1
10
-36.5004731679067
20
-1.56999909006819
30
0
41
1
10
-36.5004731679067
20
-2.13905527849678
30
0
41
1
10
-36.5004731679067
20
-2.74492809199302
30
0
41
1
10
-36.5004731679067
20
-3.39395481155859
30
0
41
1
10
-36.5004731679067
20
-4.09072341195395
30
0
41
1
10
-36.5004731679067
20
-4.83786715253976
30
0
41
1
10
-36.5004731679067
20
-5.63594122059504
30
0
41
1
10
-36.5004731679066
20
-6.48336808473238
30
0
41
1
10
-36.5004731679066
20
-7.37646755822644
30
0
41
1
10
-36.5004731679066
20
-8.30956001989293
30
0
41
1
10
-36.5004731679066
20
-9.27514417073726
30
0
41
1
10
-36.5004731679066
20
-10.2641415778871
30
0
41
1
10
-36.5004731679066
20
-11.2661943009328
30
0
41
1
10
-36.5004731679067
20
-12.2700131424643
30
0
41
1
10
-36.5004731679067
20
-13.2637495056069
30
0
41
1
10
-36.5004731679067
20
-14.235394429552
30
0
41
1
10
-36.5004731679067
20
-15.1731682020267
30
0
41
1
10
-36.5004731679067
20
-16.0659100299384
30
0
41
1
10
-36.5004731679067
20
-16.903426699202
30
0
41
1
10
-36.5004731679067
20
-17.6768146587256
30
0
41
1
10
-36.5004731679067
20
-18.3787157178805
30
0
41
1
10
-36.5004731679067
20
-19.0035240899898
30
0
41
1
10
-36.5004731679067
20
-19.5475117035335
30
0
41
1
10
-36.5004731679067
20
-20.0088907018653
30
0
41
1
10
-36.5004731679067
20
-20.3877911798079
30
0
41
1
10
-36.5004731679067
20
-20.6417674230512
30
0
41
1
10
-36.5004731679067
20
-20.765349293839
30
0
41
1
10
-36.5004731679067
20
-20.805598473079
30
0
0
SPLINE
5
1B0
100
AcDbEntity
8
SK1
62
256
6
ByLayer
370
-1
48
1
60
0
100
AcDbSpline
70
4
71
3
72
87
73
83
40
0
40
0
40
0
40
0
40
0.0064304546318047
40
0.0205324394994655
40
0.0346344243671262
40
0.0416854168009566
40
0.048736409234787
40
0.0522619054517022
40
0.0557874016686174
40
0.0628383941024477
40
0.0698893865362781
40
0.0769403789701085
40
0.0910423638377693
40
0.10514434870543
40
0.119246333573091
40
0.133348318440752
40
0.147450303308412
40
0.161552288176073
40
0.175654273043734
40
0.189756257911395
40
0.203858242779055
40
0.217960227646716
40
0.232062212514377
40
0.246164197382038
40
0.260266182249698
40
0.274368167117359
40
0.28847015198502
40
0.302572136852681
40
0.316674121720341
40
0.330776106588002
40
0.344878091455663
40
0.358980076323324
40
0.373082061190984
40
0.387184046058645
40
0.401286030926306
40
0.415388015793967
40
0.429490000661627
40
0.443591985529288
40
0.457693970396949
40
0.47179595526461
40
0.485897940132271
40
0.499999924999931
40
0.514101909867592
40
0.528203894735253
40
0.542305879602914
40
0.556407864470574
40
0.570509849338235
40
0.584611834205896
40
0.598713819073557
40
0.612815803941217
40
0.626917788808878
40
0.641019773676539
40
0.6551217585442
40
0.66922374341186
40
0.683325728279521
40
0.697427713147182
40
0.711529698014843
40
0.725631682882503
40
0.739733667750164
40
0.753835652617825
40
0.767937637485486
40
0.782039622353146
40
0.796141607220807
40
0.810243592088468
40
0.824345576956129
40
0.838447561823789
40
0.85254954669145
40
0.866651531559111
40
0.880753516426772
40
0.894855501294432
40
0.908957486162093
40
0.923059471029754
40
0.930110463463584
40
0.937161455897415
40
0.944212448331245
40
0.94773794454816
40
0.951263440765076
40
0.958314433198906
40
0.965365425632736
40
0.979467410500397
40
0.993569395368058
40
1
40
1
40
1
40
1
41
1
10
-3
20
-21.7373117324389
30
0
41
1
10
-3
20
-21.7581505761792
30
0
41
1
10
-3.00000000000003
20
-21.8216572694924
30
0
41
1
10
-3.00000000000003
20
-21.9107797633372
30
0
41
1
10
-3.00000000000003
20
-21.9704004421262
30
0
41
1
10
-3.00000000000003
20
-21.9955838514163
30
0
41
1
10
-3.00000000000003
20
-22.0011048464384
30
0
41
1
10
-3.00000000000003
20
-21.9988957932114
30
0
41
1
10
-3.00000000000003
20
-21.9921074341117
30
0
41
1
10
-3.00000000000003
20
-21.9747088550401
30
0
41
1
10
-3.00000000000003
20
-21.9386456245555
30
0
41
1
10
-3.00000000000003
20
-21.868993702256
30
0
41
1
10
-3.00000000000003
20
-21.7393283758615
30
0
41
1
10
-3.00000000000003
20
-21.5090390087807
30
0
41
1
10
-3.00000000000003
20
-21.1987879004755
30
0
41
1
10
-3.00000000000003
20
-20.8048153118584
30
0
41
1
10
-3.00000000000003
20
-20.3250833271079
30
0
41
1
10
-3.00000000000003
20
-19.7594566764181
30
0
41
1
10
-3.00000000000003
20
-19.1097943347758
30
0
41
1
10
-3.00000000000003
20
-18.3799726709714
30
0
41
1
10
-3.00000000000003
20
-17.5758204617336
30
0
41
1
10
-3.00000000000003
20
-16.7049885958267
30
0
41
1
10
-3.00000000000003
20
-15.7767347946731
30
0
41
1
10
-3.00000000000003
20
-14.8016577436088
30
0
41
1
10
-3.00000000000003
20
-13.7913621958654
30
0
41
1
10
-3.00000000000003
20
-12.7580964435599
30
0
41
1
10
-3
20
-11.7143471465197
30
0
41
1
10
-3.00000000000003
20
-10.6724342215934
30
0
41
1
10
-3.00000000000003
20
-9.64409593406697
30
0
41
1
10
-3.00000000000003
20
-8.64010224817511
30
0
41
1
10
-3.00000000000003
20
-7.66989272366362
30
0
41
1
10
-3.00000000000003
20
-6.74126705030582
30
0
41
1
10
-3.00000000000003
20
-5.86013077636733
30
0
41
1
10
-3.00000000000003
20
-5.03031048105601
30
0
41
1
10
-3.00000000000003
20
-4.25344644766659
30
0
41
1
10
-3.00000000000003
20
-3.5289614043765
30
0
41
1
10
-3.00000000000003
20
-2.85411734459242
30
0
41
1
10
-3.00000000000003
20
-2.22414379058173
30
0
41
1
10
-3.00000000000003
20
-1.63245137350921
30
0
41
1
10
-3.00000000000003
20
-1.07090162750731
30
0
41
1
10
-3.00000000000003
20
-0.530146398226037
30
0
41
1
10
-3.00000000000003
20
1.1052839E-07
30
0
41
1
10
-3.00000000000003
20
0.530145956112307
30
0
41
1
10
-3.00000000000003
20
1.07090183098106
30
0
41
1
10
-3.00000000000003
20
1.63245100172756
30
0
41
1
10
-3.00000000000003
20
2.22414394390051
30
0
41
1
10
-3.00000000000003
20
2.85411710309862
30
0
41
1
10
-3.00000000000003
20
3.52896148234822
30
0
41
1
10
-3.00000000000003
20
4.25344637727321
30
0
41
1
10
-3.00000000000003
20
5.03031046956039
30
0
41
1
10
-3.00000000000003
20
5.86013089274294
30
0
41
1
10
-3.00000000000003
20
6.7412669483133
30
0
41
1
10
-3.00000000000003
20
7.66989301525788
30
0
41
1
10
-3.00000000000003
20
8.64010206779591
30
0
41
1
10
-3.00000000000003
20
9.64409636398926
30
0
41
1
10
-3.00000000000003
20
10.6724339861579
30
0
41
1
10
-3.00000000000003
20
11.7143476583394
30
0
41
1
10
-2.99999999999997
20
12.7580961840504
30
0
41
1
10
-2.99999999999997
20
13.7913627220832
30
0
41
1
10
-2.99999999999997
20
14.8016574939434
30
0
41
1
10
-2.99999999999997
20
15.7767352671169
30
0
41
1
10
-2.99999999999997
20
16.7049883877483
30
0
41
1
10
-2.99999999999997
20
17.5758208216031
30
0
41
1
10
-2.99999999999997
20
18.3799725293323
30
0
41
1
10
-2.99999999999997
20
19.1097945414623
30
0
41
1
10
-2.99999999999997
20
19.759456615498
30
0
41
1
10
-2.99999999999997
20
20.3250833641014
30
0
41
1
10
-2.99999999999997
20
20.804815632754
30
0
41
1
10
-2.99999999999997
20
21.1987865798995
30
0
41
1
10
-2.99999999999997
20
21.5090429333437
30
0
41
1
10
-2.99999999999997
20
21.7393270779667
30
0
41
1
10
-2.99999999999997
20
21.868994103416
30
0
41
1
10
-2.99999999999997
20
21.9386456157424
30
0
41
1
10
-2.99999999999997
20
21.9747080149673
30
0
41
1
10
-2.99999999999997
20
21.9921069826245
30
0
41
1
10
-2.99999999999997
20
21.9988955684255
30
0
41
1
10
-2.99999999999997
20
22.0011049359544
30
0
41
1
10
-2.99999999999997
20
21.9955842966017
30
0
41
1
10
-2.99999999999997
20
21.9704009616837
30
0
41
1
10
-2.99999999999997
20
21.9107795104958
30
0
41
1
10
-2.99999999999997
20
21.8216567023923
30
0
41
1
10
-3
20
21.7581493937909
30
0
41
1
10
-2.99999999999997
20
21.7373100004082
30
0
0
SPLINE
5
1B1
100
AcDbEntity
8
SK1
62
256
6
ByLayer
370
-1
48
1
60
0
100
AcDbSpline
70
4
71
3
72
59
73
55
40
0
40
0
40
0
40
0
40
0.0032825070072177
40
0.0090187595047328
40
0.0148173272604824
40
0.0206803756493659
40
0.0266099994057571
40
0.0326082235149354
40
0.0386770042924142
40
0.0448182306256365
40
0.0510337253538324
40
0.0728344686506542
40
0.0948683801662477
40
0.117209433993619
40
0.139928604238492
40
0.163093389758132
40
0.200662620842911
40
0.237908379186826
40
0.275111862741841
40
0.304434864407879
40
0.332798703393448
40
0.360361851614142
40
0.387296917239021
40
0.403635521946414
40
0.419213332805997
40
0.434082452315738
40
0.448302774929469
40
0.461942744574149
40
0.475079879155271
40
0.487800892264409
40
0.500201230181932
40
0.525185308534011
40
0.551818562691145
40
0.580711112719638
40
0.612342613340926
40
0.627621007436124
40
0.643077984031572
40
0.658746485018039
40
0.674658138583909
40
0.690843147499082
40
0.707330212317141
40
0.724146487094634
40
0.752011402741456
40
0.779849716305529
40
0.807779723098854
40
0.835918562025776
40
0.864709024361515
40
0.89285120045583
40
0.920478909259355
40
0.947733548804436
40
0.965515247434317
40
0.982622323802609
40
0.999102445039259
40
1
40
1
40
1
40
1
41
1
10
-38
20
-20.2401497218393
30
0
41
1
10
-38
20
-20.2399763430556
30
0
41
1
10
-38
20
-20.2382552563001
30
0
41
1
10
-38
20
-20.2299101333514
30
0
41
1
10
-38
20
-20.2120908676544
30
0
41
1
10
-38
20
-20.1861457443342
30
0
41
1
10
-38
20
-20.1520753502644
30
0
41
1
10
-38
20
-20.1098786348532
30
0
41
1
10
-38
20
-20.0595607012881
30
0
41
1
10
-38
20
-20.0011032096712
30
0
41
1
10
-38
20
-19.8792486892016
30
0
41
1
10
-38
20
-19.6560149747605
30
0
41
1
10
-38
20
-19.2711243760813
30
0
41
1
10
-38
20
-18.7936710623444
30
0
41
1
10
-38
20
-18.223548856156
30
0
41
1
10
-38
20
-17.4288759196868
30
0
41
1
10
-38
20
-16.3544924132952
30
0
41
1
10
-38.0000000000001
20
-14.9276445318439
30
0
41
1
10
-38.0000000000001
20
-13.4296501474763
30
0
41
1
10
-38
20
-11.9288756258108
30
0
41
1
10
-38
20
-10.4759268368282
30
0
41
1
10
-38
20
-8.96323644819535
30
0
41
1
10
-38
20
-7.58726637310823
30
0
41
1
10
-38
20
-6.39449029412319
30
0
41
1
10
-38
20
-5.41659594783596
30
0
41
1
10
-38
20
-4.4547870297263
30
0
41
1
10
-38
20
-3.5090765736185
30
0
41
1
10
-38
20
-2.57939132255686
30
0
41
1
10
-38
20
-1.66572746441938
30
0
41
1
10
-38
20
-0.768056548049486
30
0
41
1
10
-38
20
0.415831457948514
30
0
41
1
10
-38
20
1.9272295144481
30
0
41
1
10
-38
20
3.76642172397726
30
0
41
1
10
-38
20
5.65944965610282
30
0
41
1
10
-38
20
7.21053645631747
30
0
41
1
10
-38
20
8.4294251924504
30
0
41
1
10
-38
20
9.30633459126378
30
0
41
1
10
-38
20
10.1639471319464
30
0
41
1
10
-38
20
11.0021898492274
30
0
41
1
10
-38
20
11.8210991219975
30
0
41
1
10
-38
20
12.6206224179574
30
0
41
1
10
-38
20
13.5663001829272
30
0
41
1
10
-38
20
14.6201752586453
30
0
41
1
10
-38
20
15.7307919285947
30
0
41
1
10
-38
20
16.7360193481202
30
0
41
1
10
-38
20
17.6388814361707
30
0
41
1
10
-38
20
18.4289537488606
30
0
41
1
10
-38
20
19.0886370818297
30
0
41
1
10
-38
20
19.6045510408328
30
0
41
1
10
-38
20
19.9336739677254
30
0
41
1
10
-38
20
20.1275636137558
30
0
41
1
10
-38
20
20.2271964574402
30
0
41
1
10
-38
20
20.2494474605773
30
0
41
1
10
-38
20
20.2476818784703
30
0
41
1
10
-38
20
20.247555857894
30
0
0
SPLINE
5
1B2
100
AcDbEntity
8
SK1
62
256
6
ByLayer
370
-1
48
1
60
0
100
AcDbSpline
70
4
71
3
72
16
73
12
40
0
40
0
40
0
40
0
40
0.25
40
0.25
40
0.375
40
0.375
40
0.5
40
0.5
40
0.75
40
0.75
40
1
40
1
40
1
40
1
41
1
10
-2.19999999999999
20
13.0172213664454
30
0
41
1
10
-2.19999999999999
20
12.3545615205847
30
0
41
1
10
-2.19999985626441
20
11.6614371833872
30
0
41
1
10
-2.1999988488023
20
10.5717452872467
30
0
41
1
10
-2.19999837677909
20
10.199816975702
30
0
41
1
10
-2.19999702437667
20
9.4406799864114
30
0
41
1
10
-2.19999614446726
20
9.05321708532739
30
0
41
1
10
-2.19999264094986
20
7.86759925883197
30
0
41
1
10
-2.19998915267331
20
7.04598606643992
30
0
41
1
10
-2.19997845071697
20
5.34200368623476
30
0
41
1
10
-2.19997100300878
20
4.45970904065132
30
0
41
1
10
-2.19996216441135
20
3.54984866401668
30
0
0
SPLINE
5
1B3
100
AcDbEntity
8
SK1
62
256
6
ByLayer
370
-1
48
1
60
0
100
AcDbSpline
70
4
71
3
72
37
73
33
40
0
40
0
40
0
40
0
40
0.0358137777949071
40
0.0747129801457967
40
0.113612182496686
40
0.152511384847576
40
0.191410587198465
40
0.230309789549355
40
0.269208991900245
40
0.308108194251134
40
0.347007396602024
40
0.385906598952913
40
0.424805801303803
40
0.463705003654693
40
0.502604206005582
40
0.541503408356472
40
0.580402610707361
40
0.619301813058251
40
0.65820101540914
40
0.69710021776003
40
0.73599942011092
40
0.774898622461809
40
0.813797824812699
40
0.852697027163588
40
0.891596229514478
40
0.930495431865368
40
0.949945033040812
40
0.969394634216257
40
0.97911943480398
40
0.988844235391702
40
0.998569035979424
40
1
40
1
40
1
40
1
41
1
10
-2.00000000000003
20
-3.5318808720528
30
0
41
1
10
-2.00000000000003
20
-3.74495302120394
30
0
41
1
10
-2.00000000000003
20
-4.2042470499967
30
0
41
1
10
-2.00000000000003
20
-4.95199329354998
30
0
41
1
10
-2.00000000000003
20
-5.77341227102076
30
0
41
1
10
-2.00000000000003
20
-6.64657476441815
30
0
41
1
10
-2.00000000000003
20
-7.56767138772486
30
0
41
1
10
-2.00000000000003
20
-8.53080293175961
30
0
41
1
10
-2.00000000000003
20
-9.52816888083231
30
0
41
1
10
-2.00000000000003
20
-10.5503221797328
30
0
41
1
10
-2.00000000000003
20
-11.5864797887658
30
0
41
1
10
-2.00000000000006
20
-12.6248859949608
30
0
41
1
10
-2.00000000000006
20
-13.6532003777634
30
0
41
1
10
-2.00000000000006
20
-14.6589141102143
30
0
41
1
10
-2.00000000000006
20
-15.6297564245795
30
0
41
1
10
-2.00000000000006
20
-16.5541011472568
30
0
41
1
10
-2.00000000000006
20
-17.4213304234775
30
0
41
1
10
-2.00000000000006
20
-18.2221707430851
30
0
41
1
10
-2.00000000000006
20
-18.9489596670075
30
0
41
1
10
-2.00000000000006
20
-19.5958618349948
30
0
41
1
10
-2.00000000000003
20
-20.1589996510313
30
0
41
1
10
-2.00000000000003
20
-20.6365184914532
30
0
41
1
10
-2.00000000000003
20
-21.0285634421464
30
0
41
1
10
-2.00000000000003
20
-21.337187169909
30
0
41
1
10
-2.00000000000003
20
-21.5661689793568
30
0
41
1
10
-2.00000000000003
20
-21.694977581428
30
0
41
1
10
-2.00000000000003
20
-21.7642160759136
30
0
41
1
10
-2.00000000000003
20
-21.7940468728384
30
0
41
1
10
-2.00000000000003
20
-21.810382005051
30
0
41
1
10
-2.00000000000003
20
-21.8189797158788
30
0
41
1
10
-2.00000000000003
20
-21.8225936454567
30
0
41
1
10
-2.00000000000003
20
-21.8237781505223
30
0
41
1
10
-2.00000000000003
20
-21.8239178718768
30
0
0
SPLINE
5
1B4
100
AcDbEntity
8
SK1
62
256
6
ByLayer
370
-1
48
1
60
0
100
AcDbSpline
70
4
71
3
72
28
73
24
40
0
40
0
40
0
40
0
40
0.24999999999997
40
0.24999999999997
40
0.374999999999954
40
0.374999999999954
40
0.437499999999947
40
0.437499999999947
40
0.468749999999943
40
0.468749999999943
40
0.499999999999939
40
0.499999999999939
40
0.51562499999994
40
0.51562499999994
40
0.53124999999994
40
0.53124999999994
40
0.562499999999944
40
0.562499999999944
40
0.624999999999952
40
0.624999999999952
40
0.749999999999968
40
0.749999999999968
40
1
40
1
40
1
40
1
41
1
10
-2.00000000000003
20
-3.5318808720528
30
0
41
1
10
-2.01495367663023
20
-3.43215611727859
30
0
41
1
10
-2.03093074136544
20
-3.33270202367439
30
0
41
1
10
-2.05913381766928
20
-3.18523173447792
30
0
41
1
10
-2.06919540801943
20
-3.13627601240742
30
0
41
1
10
-2.08711697283871
20
-3.06447112741
30
0
41
1
10
-2.09354615320441
20
-3.0407352426725
30
0
41
1
10
-2.10500754339574
20
-3.00649558647135
30
0
41
1
10
-2.10913389451733
20
-2.99526415536084
30
0
41
1
10
-2.11879461576237
20
-2.97412719489222
30
0
41
1
10
-2.12410430532523
20
-2.9634541147345
30
0
41
1
10
-2.135994733063
20
-2.95444828312577
30
0
41
1
10
-2.14100969668752
20
-2.95345522109784
30
0
41
1
10
-2.14977436658612
20
-2.95915337420564
30
0
41
1
10
-2.15315484292654
20
-2.96467370301431
30
0
41
1
10
-2.16124639126005
20
-2.98162665342264
30
0
41
1
10
-2.16462863808897
20
-2.99443080041198
30
0
41
1
10
-2.17336674456095
20
-3.03234894515953
30
0
41
1
10
-2.177024266888
20
-3.05841003977531
30
0
41
1
10
-2.18628317238893
20
-3.13606460897245
30
0
41
1
10
-2.18979354091806
20
-3.18786417566517
30
0
41
1
10
-2.19793222121803
20
-3.34326676178742
30
0
41
1
10
-2.19967024790282
20
-3.44676918631768
30
0
41
1
10
-2.19996216443241
20
-3.54983930763262
30
0
0
SPLINE
5
1B5
100
AcDbEntity
8
SK1
62
256
6
ByLayer
370
-1
48
1
60
0
100
AcDbSpline
70
4
71
3
72
26
73
22
40
0
40
0
40
0
40
0
40
0.03125
40
0.03125
40
0.0625
40
0.0625
40
0.09375
40
0.09375
40
0.125
40
0.125
40
0.1875
40
0.1875
40
0.25
40
0.25
40
0.375
40
0.375
40
0.5
40
0.5
40
0.75
40
0.75
40
1
40
1
40
1
40
1
41
1
10
-0.400000000000034
20
-8.400500696617
30
0
41
1
10
-0.393725252963606
20
-8.39483264189755
30
0
41
1
10
-0.386915609950421
20
-8.38978004226055
30
0
41
1
10
-0.371510025045922
20
-8.38222431343416
30
0
41
1
10
-0.362908121619085
20
-8.37986418265822
30
0
41
1
10
-0.345148544913059
20
-8.38044759995859
30
0
41
1
10
-0.336106054502125
20
-8.3835846509011
30
0
41
1
10
-0.320552744636444
20
-8.3933811877732
30
0
41
1
10
-0.31381365174434
20
-8.39987112448955
30
0
41
1
10
-0.296222214851525
20
-8.4207588666431
30
0
41
1
10
-0.287467109392168
20
-8.4368184032987
30
0
41
1
10
-0.272674392185735
20
-8.46902466173046
30
0
41
1
10
-0.266640241246137
20
-8.48549026676815
30
0
41
1
10
-0.250660660648435
20
-8.5354288503442
30
0
41
1
10
-0.242864654673042
20
-8.56941536674472
30
0
41
1
10
-0.23003310146629
20
-8.6367185673958
30
0
41
1
10
-0.225036302071857
20
-8.67029480205611
30
0
41
1
10
-0.212586509005035
20
-8.77081535448806
30
0
41
1
10
-0.207640079074878
20
-8.8375521937113
30
0
41
1
10
-0.201301686428508
20
-8.97054022399988
30
0
41
1
10
-0.200000000000074
20
-9.03683050663383
30
0
41
1
10
-0.200000000000074
20
-9.10270278820403
30
0
0
SPLINE
5
1B6
100
AcDbEntity
8
SK1
62
256
6
ByLayer
370
-1
48
1
60
0
100
AcDbSpline
70
4
71
3
72
16
73
12
40
0
40
0
40
0
40
0
40
0.0733475788901354
40
0.0733475788901354
40
0.38223171926009
40
0.38223171926009
40
0.536673789445067
40
0.536673789445067
40
0.691115859630045
40
0.691115859630045
40
1
40
1
40
1
40
1
41
1
10
-0.762537993969346
20
21.7815820580194
30
0
41
1
10
-0.754999509120836
20
21.7811808512186
30
0
41
1
10
-0.747224067582778
20
21.7807931779348
30
0
41
1
10
-0.70530946824303
20
21.778858124759
30
0
41
1
10
-0.665128580634359
20
21.7775844844961
30
0
41
1
10
-0.601638648244574
20
21.7770923826734
30
0
41
1
10
-0.580109902589328
20
21.7771608348045
30
0
41
1
10
-0.538170853177576
20
21.7777424802776
30
0
41
1
10
-0.518095619094623
20
21.7782455008475
30
0
41
1
10
-0.461443317534645
20
21.7801625837693
30
0
41
1
10
-0.42913438724716
20
21.781916804425
30
0
41
1
10
-0.399999999999977
20
21.7837956106232
30
0
0
SPLINE
5
1B7
100
AcDbEntity
8
SK1
62
256
6
ByLayer
370
-1
48
1
60
0
100
AcDbSpline
70
4
71
3
72
14
73
10
40
0
40
0
40
0
40
0
40
0.119777021792309
40
0.278046745112675
40
0.436316468433041
40
0.594586191753408
40
0.752855915073774
40
0.91112563839414
40
1
40
1
40
1
40
1
41
1
10
-2.20000000000005
20
-13.0172198859358
30
0
41
1
10
-2.20000000000005
20
-13.2789204459097
30
0
41
1
10
-2.20000000000005
20
-13.8834372227989
30
0
41
1
10
-2.20000000000005
20
-14.8135248894266
30
0
41
1
10
-2.20000000000005
20
-15.7904214898648
30
0
41
1
10
-2.20000000000005
20
-16.7204320226197
30
0
41
1
10
-2.20000000000005
20
-17.5929249336309
30
0
41
1
10
-2.20000000000005
20
-18.2808591322616
30
0
41
1
10
-2.20000000000005
20
-18.6699624614618
30
0
41
1
10
-2.20000000000005
20
-18.8057994984197
30
0
0
SPLINE
5
1B8
100
AcDbEntity
8
SK1
62
256
6
ByLayer
370
-1
48
1
60
0
100
AcDbSpline
70
4
71
3
72
22
73
18
40
0
40
0
40
0
40
0
40
0.0131641098221325
40
0.0131641098221325
40
0.17763675818511
40
0.17763675818511
40
0.342109406548089
40
0.342109406548089
40
0.506582054911066
40
0.506582054911066
40
0.671054703274044
40
0.671054703274044
40
0.753291027455533
40
0.753291027455533
40
0.835527351637022
40
0.835527351637022
40
1
40
1
40
1
40
1
41
1
10
-2.19993720649916
20
22.0201003465238
30
0
41
1
10
-2.19993814031668
20
22.0200629239814
30
0
41
1
10
-2.19993905754629
20
22.0197960599891
30
0
41
1
10
-2.19995121410292
20
22.0131437163277
30
0
41
1
10
-2.1999599730359
20
21.9715850022846
30
0
41
1
10
-2.19997398518322
20
21.826510152625
30
0
41
1
10
-2.19997935061687
20
21.72295622244
30
0
41
1
10
-2.19998770707491
20
21.4599995385209
30
0
41
1
10
-2.19999070960964
20
21.3005486624664
30
0
41
1
10
-2.19999518626713
20
20.9304827925966
30
0
41
1
10
-2.19999666325779
20
20.7198119052019
30
0
41
1
10
-2.19999819294227
20
20.3679602304212
30
0
41
1
10
-2.19999858811516
20
20.2447397512041
30
0
41
1
10
-2.19999920479347
20
19.9866598067965
30
0
41
1
10
-2.19999942770272
20
19.851793617257
30
0
41
1
10
-2.19999991431348
20
19.4311388245235
30
0
41
1
10
-2.19999999999999
20
19.1290219240742
30
0
41
1
10
-2.19999999999999
20
18.8057993597053
30
0
0
SPLINE
5
1B9
100
AcDbEntity
8
SK1
62
256
6
ByLayer
370
-1
48
1
60
0
100
AcDbSpline
70
4
71
3
72
26
73
22
40
0
40
0
40
0
40
0
40
0.0312500000000001
40
0.0312500000000001
40
0.0625000000000002
40
0.0625000000000002
40
0.0937500000000002
40
0.0937500000000002
40
0.125
40
0.125
40
0.187500000000001
40
0.187500000000001
40
0.250000000000001
40
0.250000000000001
40
0.375000000000001
40
0.375000000000001
40
0.500000000000001
40
0.500000000000001
40
0.750000000000001
40
0.750000000000001
40
1
40
1
40
1
40
1
41
1
10
-0.400000000000006
20
21.7837956106232
30
0
41
1
10
-0.393726825128965
20
21.7842001525046
30
0
41
1
10
-0.386919878064447
20
21.7848461279868
30
0
41
1
10
-0.371522667408129
20
21.7870460733647
30
0
41
1
10
-0.362927849773115
20
21.7886293082576
30
0
41
1
10
-0.345183809992534
20
21.7929309114553
30
0
41
1
10
-0.336147993566044
20
21.7956576127002
30
0
41
1
10
-0.32059569352586
20
21.8011562525066
30
0
41
1
10
-0.313856465635752
20
21.8039479004068
30
0
41
1
10
-0.296259184571227
20
21.8119227552706
30
0
41
1
10
-0.287500521713014
20
21.8168723194731
30
0
41
1
10
-0.272700764442845
20
21.8260241370079
30
0
41
1
10
-0.26666439316179
20
21.8302849791048
30
0
41
1
10
-0.250679249280324
20
21.8424921500485
30
0
41
1
10
-0.242879422992331
20
21.8498514535513
30
0
41
1
10
-0.230042561972169
20
21.8634070974587
30
0
41
1
10
-0.225044043144692
20
21.8696386364566
30
0
41
1
10
-0.212590110184209
20
21.8871551189044
30
0
41
1
10
-0.207642307811398
20
21.8972719196379
30
0
41
1
10
-0.2013021178727
20
21.915325775428
30
0
41
1
10
-0.200000000000017
20
21.9232437308696
30
0
41
1
10
-0.200000000000017
20
21.9302323563458
30
0
0
SPLINE
5
1BA
100
AcDbEntity
8
SK1
62
256
6
ByLayer
370
-1
48
1
60
0
100
AcDbSpline
70
4
71
3
72
24
73
20
40
0
40
0
40
0
40
0
40
0.250000000000001
40
0.250000000000001
40
0.500000000000002
40
0.500000000000002
40
0.625000000000001
40
0.625000000000001
40
0.75
40
0.75
40
0.8125
40
0.8125
40
0.875
40
0.875
40
0.906249999999999
40
0.906249999999999
40
0.937499999999999
40
0.937499999999999
40
1
40
1
40
1
40
1
41
1
10
-1.30710678118655
20
-7.17535139798744
30
0
41
1
10
-1.27615597528373
20
-7.31729176822424
30
0
41
1
10
-1.24138384105765
20
-7.45750086997342
30
0
41
1
10
-1.15993244771892
20
-7.73372504411506
30
0
41
1
10
-1.1134075928062
20
-7.87028036498683
30
0
41
1
10
-1.02728970090624
20
-8.06714497948138
30
0
41
1
10
-0.995833617387149
20
-8.13150432457093
30
0
41
1
10
-0.923025329445665
20
-8.25608372870087
30
0
41
1
10
-0.882451073902956
20
-8.31659508201719
30
0
41
1
10
-0.802506521816582
20
-8.39992138277344
30
0
41
1
10
-0.773356045581323
20
-8.42553185032085
30
0
41
1
10
-0.705637492175896
20
-8.46771689364368
30
0
41
1
10
-0.665462710483411
20
-8.48434730897324
30
0
41
1
10
-0.601869302403912
20
-8.4908315660592
30
0
41
1
10
-0.58033260536854
20
-8.48996824466451
30
0
41
1
10
-0.538315588391839
20
-8.48240901438624
30
0
41
1
10
-0.518222522250682
20
-8.47584498230663
30
0
41
1
10
-0.461481328405654
20
-8.45045968426285
30
0
41
1
10
-0.429154943577061
20
-8.42683670898191
30
0
41
1
10
-0.400000000000034
20
-8.4005006966172
30
0
0
SPLINE
5
1BB
100
AcDbEntity
8
SK1
62
256
6
ByLayer
370
-1
48
1
60
0
100
AcDbSpline
70
4
71
3
72
30
73
26
40
0
40
0
40
0
40
0
40
0.250000000000023
40
0.250000000000023
40
0.375000000000035
40
0.375000000000035
40
0.437500000000041
40
0.437500000000041
40
0.468750000000045
40
0.468750000000045
40
0.484375000000045
40
0.484375000000045
40
0.500000000000045
40
0.500000000000045
40
0.515625000000045
40
0.515625000000045
40
0.531250000000046
40
0.531250000000046
40
0.562500000000042
40
0.562500000000042
40
0.625000000000036
40
0.625000000000036
40
0.750000000000023
40
0.750000000000023
40
1
40
1
40
1
40
1
41
1
10
-2.19996216441137
20
3.54984866401682
30
0
41
1
10
-2.19967154607937
20
3.44723681521549
30
0
41
1
10
-2.1979517919398
20
3.34441231087811
30
0
41
1
10
-2.18990134272281
20
3.18955543261532
30
0
41
1
10
-2.18639724056257
20
3.13771585983838
30
0
41
1
10
-2.17733543673811
20
3.0607007286294
30
0
41
1
10
-2.17379732403157
20
3.03511088069038
30
0
41
1
10
-2.16535653562107
20
2.99721939402676
30
0
41
1
10
-2.16207662613317
20
2.98431022920485
30
0
41
1
10
-2.15427700223896
20
2.96668457309295
30
0
41
1
10
-2.15108129190185
20
2.96089180614197
30
0
41
1
10
-2.14260059754056
20
2.95386542132181
30
0
41
1
10
-2.13736392673485
20
2.95393198208558
30
0
41
1
10
-2.12904051266403
20
2.95932950428878
30
0
41
1
10
-2.12565158991075
20
2.96372984352658
30
0
41
1
10
-2.11964083848361
20
2.97306578643287
30
0
41
1
10
-2.11700376214691
20
2.97815840455317
30
0
41
1
10
-2.10961390483706
20
2.99403462877069
30
0
41
1
10
-2.10542925070641
20
3.00533063146418
30
0
41
1
10
-2.09386940597537
20
3.03960648373706
30
0
41
1
10
-2.08743121666586
20
3.06329695250975
30
0
41
1
10
-2.06942678678826
20
3.13520105220164
30
0
41
1
10
-2.05931825894646
20
3.18432265089729
30
0
41
1
10
-2.03101594001578
20
3.33216899238906
30
0
41
1
10
-2.01499457923356
20
3.43189269931764
30
0
41
1
10
-2.00000000000003
20
3.53189014643689
30
0
0
SPLINE
5
1BC
100
AcDbEntity
8
SK1
62
256
6
ByLayer
370
-1
48
1
60
0
100
AcDbSpline
70
4
71
3
72
28
73
24
40
0
40
0
40
0
40
0
40
0.0149514183161537
40
0.0413756856699937
40
0.0942242203776738
40
0.147072755085354
40
0.199921289793034
40
0.252769824500714
40
0.305618359208394
40
0.358466893916074
40
0.411315428623754
40
0.464163963331434
40
0.517012498039114
40
0.569861032746794
40
0.622709567454474
40
0.675558102162154
40
0.728406636869834
40
0.781255171577515
40
0.834103706285195
40
0.886952240992875
40
0.939800775700555
40
0.992649310408235
40
1
40
1
40
1
40
1
41
1
10
-0.400000000000006
20
21.7837956106232
30
0
41
1
10
-0.400000000000006
20
21.7772120307969
30
0
41
1
10
-0.400000000000006
20
21.7567006300735
30
0
41
1
10
-0.400000000000006
20
21.6949779936854
30
0
41
1
10
-0.400000000000006
20
21.5661676526815
30
0
41
1
10
-0.400000000000006
20
21.3371910810194
30
0
41
1
10
-0.400000000000006
20
21.0285622078674
30
0
41
1
10
-0.400000000000006
20
20.6365187777369
30
0
41
1
10
-0.400000000000006
20
20.1589996983693
30
0
41
1
10
-0.400000000000006
20
19.5958617698656
30
0
41
1
10
-0.400000000000006
20
18.9489598758679
30
0
41
1
10
-0.400000000000006
20
18.2221705966385
30
0
41
1
10
-0.400000000000006
20
17.4213307857328
30
0
41
1
10
-0.400000000000006
20
16.5541009338831
30
0
41
1
10
-0.400000000000006
20
15.6297568996197
30
0
41
1
10
-0.400000000000006
20
14.6589138549468
30
0
41
1
10
-0.400000000000006
20
13.6532009067709
30
0
41
1
10
-0.400000000000006
20
12.6248857298215
30
0
41
1
10
-0.400000000000034
20
11.5864803035381
30
0
41
1
10
-0.400000000000034
20
10.5503219390466
30
0
41
1
10
-0.400000000000034
20
9.5281693138144
30
0
41
1
10
-0.400000000000034
20
8.81701711318559
30
0
41
1
10
-0.400000000000034
20
8.44572400735871
30
0
41
1
10
-0.400000000000034
20
8.4005007560547
30
0
0
SPLINE
5
1BD
100
AcDbEntity
8
SK1
62
256
6
ByLayer
370
-1
48
1
60
0
100
AcDbSpline
70
4
71
3
72
24
73
20
40
0
40
0
40
0
40
0
40
0.0624999999999988
40
0.0624999999999988
40
0.124999999999998
40
0.124999999999998
40
0.187499999999997
40
0.187499999999997
40
0.249999999999995
40
0.249999999999995
40
0.312499999999994
40
0.312499999999994
40
0.374999999999993
40
0.374999999999993
40
0.499999999999993
40
0.499999999999993
40
0.749999999999997
40
0.749999999999997
40
1
40
1
40
1
40
1
41
1
10
-0.399999999999977
20
8.40050075607752
30
0
41
1
10
-0.428748657929049
20
8.42646974805379
30
0
41
1
10
-0.461092792360148
20
8.45004754780291
30
0
41
1
10
-0.53469614337908
20
8.48344444311505
30
0
41
1
10
-0.577276309511831
20
8.49266054941435
30
0
41
1
10
-0.661890296836418
20
8.48533654515427
30
0
41
1
10
-0.701188831910571
20
8.46979005189974
30
0
41
1
10
-0.769336783097401
20
8.42865211789649
30
0
41
1
10
-0.798978874053716
20
8.40309258948946
30
0
41
1
10
-0.851909268909765
20
8.34886836972623
30
0
41
1
10
-0.875684410509848
20
8.31956817153312
30
0
41
1
10
-0.919182189240132
20
8.25948327662036
30
0
41
1
10
-0.938915819266924
20
8.22867081352976
30
0
41
1
10
-0.994217607513406
20
8.13468100281005
30
0
41
1
10
-1.02595937845055
20
8.06997690482359
30
0
41
1
10
-1.11276217093032
20
7.87216389617441
30
0
41
1
10
-1.15944811388903
20
7.7352394303455
30
0
41
1
10
-1.24118572933583
20
7.45830145730505
30
0
41
1
10
-1.27606628011537
20
7.31770381147493
30
0
41
1
10
-1.30710678118655
20
7.17535191129485
30
0
0
SPLINE
5
1BE
100
AcDbEntity
8
1
62
256
6
ByLayer
370
-1
48
1
60
0
100
AcDbSpline
70
4
71
4
72
19
73
14
40
0
40
0
40
0
40
0
40
0
40
0.446422697217933
40
0.446422697217933
40
0.446422697217933
40
0.6696340458269
40
0.6696340458269
40
0.6696340458269
40
0.892845394435866
40
0.892845394435866
40
0.892845394435866
40
1
40
1
40
1
40
1
40
1
41
1
10
39.6686255485428
20
2.25739197498314
30
0
41
1
10
39.6686255485427
20
1.58424777853335
30
0
41
0.974581796258695
10
39.5722023819952
20
0.484349166398389
30
0
41
0.974581796258695
10
39.3228726656636
20
-0.933891371478661
30
0
41
0.987290898129348
10
38.8711265656763
20
-2.91767796245079
30
0
41
0.993645449064674
10
38.7107235645469
20
-3.54278352446352
30
0
41
1
10
38.5495089546957
20
-4.10048592940279
30
0
41
1
10
38.2504910453092
20
-5.03618060089031
30
0
41
0.993645449064674
10
38.0892764354579
20
-5.48743215267752
30
0
41
0.987290898129348
10
37.9288734343286
20
-5.86620113286381
30
0
41
0.981020824807438
10
37.7074659797122
20
-6.27958595044545
30
0
41
0.979475268166487
10
37.638160983521
20
-6.39044782991317
30
0
41
0.978652201400067
10
37.5729823175405
20
-6.47425352836108
30
0
41
0.978560970498951
10
37.5128797486085
20
-6.52997396866916
30
0
0
SPLINE
5
1BF
100
AcDbEntity
8
1
62
256
6
ByLayer
370
-1
48
1
60
0
100
AcDbSpline
70
4
71
3
72
8
73
4
40
0
40
0
40
0
40
0
40
1
40
1
40
1
40
1
41
1
10
94.8083925983469
20
-3.20188778996982
30
0
41
1
10
94.8087599223751
20
-3.19138862571907
30
0
41
1
10
94.8092157296039
20
-3.18092968568536
30
0
41
1
10
94.8097600627045
20
-3.17051098926689
30
0
0
SPLINE
5
1C0
100
AcDbEntity
8
1
62
256
6
ByLayer
370
-1
48
1
60
0
100
AcDbSpline
70
4
71
3
72
16
73
12
40
0
40
0
40
0
40
0
40
0.249999999999999
40
0.249999999999999
40
0.499999999999999
40
0.499999999999999
40
0.749999999999998
40
0.749999999999998
40
0.874999999999999
40
0.874999999999999
40
1
40
1
40
1
40
1
41
1
10
94.8543735090024
20
-4.23687560458376
30
0
41
1
10
94.8593772587967
20
-4.26484144125126
30
0
41
1
10
94.8629918672148
20
-4.29377834262368
30
0
41
1
10
94.8661434239518
20
-4.35438342181055
30
0
41
1
10
94.865753343965
20
-4.38600761800186
30
0
41
1
10
94.8579338697389
20
-4.45378374492719
30
0
41
1
10
94.850661667157
20
-4.4899054510357
30
0
41
1
10
94.8287299837152
20
-4.54777633339177
30
0
41
1
10
94.8196340091616
20
-4.56751724832884
30
0
41
1
10
94.7951345424825
20
-4.60852187715801
30
0
41
1
10
94.7798431606281
20
-4.62938217416004
30
0
41
1
10
94.7608681154001
20
-4.649103524217
30
0
0
SPLINE
5
1C1
100
AcDbEntity
8
1
62
256
6
ByLayer
370
-1
48
1
60
0
100
AcDbSpline
70
4
71
3
72
8
73
4
40
0
40
0
40
0
40
0
40
1
40
1
40
1
40
1
41
1
10
94.4311710382884
20
-0.412306418015135
30
0
41
1
10
94.4492382357045
20
-0.461947859190275
30
0
41
1
10
94.4561083364013
20
-0.511472082247565
30
0
41
1
10
94.4552129450807
20
-0.555257222269375
30
0
0
SPLINE
5
1C2
100
AcDbEntity
8
1
62
256
6
ByLayer
370
-1
48
1
60
0
100
AcDbSpline
70
4
71
3
72
12
73
8
40
0
40
0
40
0
40
0
40
0.139820828223631
40
0.139820828223631
40
0.569910414111815
40
0.569910414111815
40
1
40
1
40
1
40
1
41
1
10
94.0298449541099
20
0.596051137608328
30
0
41
1
10
94.0356094970339
20
0.593661006222789
30
0
41
1
10
94.0414462163596
20
0.591102193616791
30
0
41
1
10
94.0655396803517
20
0.579920073880572
30
0
41
1
10
94.0842713954786
20
0.569796926918286
30
0
41
1
10
94.1236010482618
20
0.543594822906698
30
0
41
1
10
94.1438218545509
20
0.527654755969166
30
0
41
1
10
94.1632702490347
20
0.508405872276114
30
0
0
SPLINE
5
1C3
100
AcDbEntity
8
1
62
256
6
ByLayer
370
-1
48
1
60
0
100
AcDbSpline
70
4
71
3
72
14
73
10
40
0
40
0
40
0
40
0
40
0.25
40
0.25
40
0.5
40
0.5
40
0.75
40
0.75
40
1
40
1
40
1
40
1
41
1
10
94.4311710382908
20
-0.412306418015277
30
0
41
1
10
94.4160038914696
20
-0.370633157388738
30
0
41
1
10
94.4025480955538
20
-0.329736779971569
30
0
41
1
10
94.3805708989725
20
-0.257136094945821
30
0
41
1
10
94.3716478678564
20
-0.224421443256915
30
0
41
1
10
94.3565500506002
20
-0.165151952799675
30
0
41
1
10
94.3502219078145
20
-0.137981251466925
30
0
41
1
10
94.3390788490811
20
-0.0870366851835911
30
0
41
1
10
94.3342927253844
20
-0.0633748644467289
30
0
41
1
10
94.3299829206569
20
-0.0408110209964434
30
0
0
SPLINE
5
1C4
100
AcDbEntity
8
1
62
256
6
ByLayer
370
-1
48
1
60
0
100
AcDbSpline
70
4
71
3
72
12
73
8
40
0
40
0
40
0
40
0
40
0.249999999999994
40
0.249999999999994
40
0.499999999999988
40
0.499999999999988
40
1
40
1
40
1
40
1
41
1
10
94.732404472027
20
-2.79659655630084
30
0
41
1
10
94.7465384352053
20
-2.82541629355109
30
0
41
1
10
94.7588891277684
20
-2.85509540491017
30
0
41
1
10
94.7799099896264
20
-2.91622507847086
30
0
41
1
10
94.7885983174828
20
-2.94788487042797
30
0
41
1
10
94.8081994699593
20
-3.04267387990791
30
0
41
1
10
94.8130988621071
20
-3.10660538195458
30
0
41
1
10
94.8097600627044
20
-3.17051098926689
30
0
0
SPLINE
5
1C5
100
AcDbEntity
8
1
62
256
6
ByLayer
370
-1
48
1
60
0
100
AcDbSpline
70
4
71
3
72
12
73
8
40
0
40
0
40
0
40
0
40
0.249999999999975
40
0.249999999999975
40
0.49999999999995
40
0.49999999999995
40
1
40
1
40
1
40
1
41
1
10
94.7608681154001
20
-4.649103524217
30
0
41
1
10
94.7441884013493
20
-4.66643926574966
30
0
41
1
10
94.7249438439699
20
-4.68146313073945
30
0
41
1
10
94.6877274141913
20
-4.70410584085414
30
0
41
1
10
94.6701227737914
20
-4.71193189412097
30
0
41
1
10
94.6202914473132
20
-4.72981256844173
30
0
41
1
10
94.5917377478849
20
-4.73439257254407
30
0
41
1
10
94.5647601773691
20
-4.73667025242798
30
0
0
SPLINE
5
1C6
100
AcDbEntity
8
1
62
256
6
ByLayer
370
-1
48
1
60
0
100
AcDbSpline
70
4
71
3
72
10
73
6
40
0
40
0
40
0
40
0
40
0.5
40
0.5
40
1
40
1
40
1
40
1
41
1
10
94.457422757584
20
-0.691354354589294
30
0
41
1
10
94.4561273917441
20
-0.666683404223846
30
0
41
1
10
94.4553613262588
20
-0.643052127429883
30
0
41
1
10
94.4546912551613
20
-0.597482867374737
30
0
41
1
10
94.4547970610246
20
-0.575594186906642
30
0
41
1
10
94.4552129450806
20
-0.555257222268864
30
0
0
SPLINE
5
1C7
100
AcDbEntity
8
1
62
256
6
ByLayer
370
-1
48
1
60
0
100
AcDbSpline
70
4
71
3
72
16
73
12
40
0
40
0
40
0
40
0
40
0.250000000000002
40
0.250000000000002
40
0.500000000000003
40
0.500000000000003
40
0.750000000000003
40
0.750000000000003
40
0.875000000000002
40
0.875000000000002
40
1
40
1
40
1
40
1
41
1
10
94.854373509002
20
-4.2368756045872
30
0
41
1
10
94.8472667077286
20
-4.19715586403007
30
0
41
1
10
94.8402932644685
20
-4.15618806771744
30
0
41
1
10
94.8268045127745
20
-4.06996493516635
30
0
41
1
10
94.8202608557821
20
-4.02469025482441
30
0
41
1
10
94.8081720627507
20
-3.92615488322096
30
0
41
1
10
94.8025349534312
20
-3.87291996650794
30
0
41
1
10
94.7964025554553
20
-3.78104848599941
30
0
41
1
10
94.7947334082486
20
-3.74777818105994
30
0
41
1
10
94.7930837578336
20
-3.67604613279929
30
0
41
1
10
94.7931703919203
20
-3.63698169437907
30
0
41
1
10
94.7945146107956
20
-3.59856010013445
30
0
0
SPLINE
5
1C8
100
AcDbEntity
8
1
62
256
6
ByLayer
370
-1
48
1
60
0
100
AcDbSpline
70
4
71
3
72
12
73
8
40
0
40
0
40
0
40
0
40
0.250000000000011
40
0.250000000000011
40
0.500000000000021
40
0.500000000000021
40
1
40
1
40
1
40
1
41
1
10
94.1632702490347
20
0.508405872276114
30
0
41
1
10
94.1803660532784
20
0.491485444844358
30
0
41
1
10
94.1956532344049
20
0.472511584905959
30
0
41
1
10
94.219500908543
20
0.436525054575071
30
0
41
1
10
94.2282099890554
20
0.419820033433098
30
0
41
1
10
94.2490536771958
20
0.373005788563177
30
0
41
1
10
94.2559463328968
20
0.346805142946579
30
0
41
1
10
94.2606314137619
20
0.32227655339878
30
0
0
SPLINE
5
1C9
100
AcDbEntity
8
1
62
256
6
ByLayer
370
-1
48
1
60
0
100
AcDbSpline
70
4
71
3
72
8
73
4
40
0
40
0
40
0
40
0
40
1
40
1
40
1
40
1
41
1
10
94.732404472027
20
-2.79659655630084
30
0
41
1
10
94.7290650926409
20
-2.78978742320257
30
0
41
1
10
94.7258120871138
20
-2.78295017009859
30
0
41
1
10
94.7226800638671
20
-2.77616125458408
30
0
0
SPLINE
5
1CA
100
AcDbEntity
8
1
62
256
6
ByLayer
370
-1
48
1
60
0
100
AcDbSpline
70
4
71
3
72
48
73
44
40
0
40
0
40
0
40
0
40
0.125
40
0.1875
40
0.1953125
40
0.203125
40
0.20703125
40
0.2109375
40
0.21875
40
0.25
40
0.28125
40
0.3125
40
0.3203125
40
0.328125
40
0.34375
40
0.375
40
0.3828125
40
0.390625
40
0.39453125
40
0.3984375
40
0.40625
40
0.4375
40
0.5
40
0.5625
40
0.578125
40
0.5859375
40
0.59375
40
0.609375
40
0.625
40
0.6875
40
0.75
40
0.8125
40
0.875
40
0.9375
40
0.953125
40
0.96826171875
40
0.96875
40
0.9697265625
40
0.970703125
40
0.97265625
40
0.9765625
40
0.984375
40
1
40
1
40
1
40
1
41
1
10
91.6398218580416
20
8.89551969571906
30
0
41
1
10
91.6416245349433
20
8.85958485893948
30
0
41
1
10
91.6443285502959
20
8.80568260377009
30
0
41
1
10
91.6471452329549
20
8.749534421302
30
0
41
1
10
91.6482719060185
20
8.72707514831475
30
0
41
1
10
91.6485538572389
20
8.72145869737744
30
0
41
1
10
91.6487783429883
20
8.71697174085153
30
0
41
1
10
91.6489997933323
20
8.71248656520262
30
0
41
1
10
91.6495955247665
20
8.70010184196491
30
0
41
1
10
91.650501604455
20
8.67967685010362
30
0
41
1
10
91.6515515190712
20
8.65226673322141
30
0
41
1
10
91.6522159615443
20
8.63172862659067
30
0
41
1
10
91.6526059567127
20
8.61810669030925
30
0
41
1
10
91.6528512645598
20
8.60903161778344
30
0
41
1
10
91.6532839970055
20
8.59312139428596
30
0
41
1
10
91.6537155400561
20
8.57722113386339
30
0
41
1
10
91.6540857699752
20
8.56358952572256
30
0
41
1
10
91.6542406188551
20
8.55790221523529
30
0
41
1
10
91.6543622257919
20
8.55338113399822
30
0
41
1
10
91.6544793499709
20
8.54888948796835
30
0
41
1
10
91.654788928535
20
8.53647650806536
30
0
41
1
10
91.6554081712421
20
8.50722296083751
30
0
41
1
10
91.6559325099127
20
8.46280036146172
30
0
41
1
10
91.6558703963074
20
8.42471720319315
30
0
41
1
10
91.6556326381178
20
8.40255156815286
30
0
41
1
10
91.6555253927423
20
8.39462550697263
30
0
41
1
10
91.6554020727679
20
8.3867577306454
30
0
41
1
10
91.6552483746833
20
8.37688417229236
30
0
41
1
10
91.65487977041
20
8.35316432947866
30
0
41
1
10
91.654326412117
20
8.31762340320213
30
0
41
1
10
91.6535887516873
20
8.27022255551873
30
0
41
1
10
91.6528510912577
20
8.22282170783535
30
0
41
1
10
91.652113430828
20
8.17542086015195
30
0
41
1
10
91.6515601855057
20
8.13987022438943
30
0
41
1
10
91.6511932762816
20
8.11629324025523
30
0
41
1
10
91.6510703328767
20
8.10839309897466
30
0
41
1
10
91.6510050373299
20
8.10419596457197
30
0
41
1
10
91.6509952691421
20
8.10358042516094
30
0
41
1
10
91.6509802082142
20
8.10259616674767
30
0
41
1
10
91.650958510368
20
8.10085985520877
30
0
41
1
10
91.6509337724606
20
8.09726265509084
30
0
41
1
10
91.6509611750963
20
8.08968977597038
30
0
41
1
10
91.6511191965801
20
8.08280229894956
30
0
41
1
10
91.6512760629569
20
8.07829307469305
30
0
0
SPLINE
5
1CB
100
AcDbEntity
8
1
62
256
6
ByLayer
370
-1
48
1
60
0
100
AcDbSpline
70
4
71
3
72
14
73
10
40
0
40
0
40
0
40
0
40
0.0050966481374743
40
0.0240065217780248
40
0.0435263913424643
40
0.0630462609069038
40
0.375364173937936
40
0.687682086968968
40
1
40
1
40
1
40
1
41
1
10
89.5904287303936
20
2.93963875803789
30
0
41
1
10
89.5942577398541
20
2.93977301167706
30
0
41
1
10
89.6122933533705
20
2.94040534971762
30
0
41
1
10
89.6449938191691
20
2.94155163711568
30
0
41
1
10
89.6885301490132
20
2.94307776663825
30
0
41
1
10
89.9524977910152
20
2.95233093090153
30
0
41
1
10
90.436438468019
20
2.96929506538416
30
0
41
1
10
91.1403521800246
20
2.99397017008621
30
0
41
1
10
91.6096279880283
20
3.01042023988757
30
0
41
1
10
91.8442658920301
20
3.01864527478824
30
0
0
SPLINE
5
1CC
100
AcDbEntity
8
1
62
256
6
ByLayer
370
-1
48
1
60
0
100
AcDbSpline
70
4
71
3
72
22
73
18
40
0
40
0
40
0
40
0
40
0.0023505275440274
40
0.0123487527331453
40
0.0223469779222632
40
0.0623398786787348
40
0.102332779435197
40
0.18231858094815
40
0.262304382461088
40
0.342290183974036
40
0.662233390025809
40
0.812206767862577
40
0.957493477641933
40
0.962180145699345
40
0.972178370888459
40
0.982176596077581
40
1
40
1
40
1
40
1
41
1
10
88.745874118614
20
8.37450931580193
30
0
41
1
10
88.7458667703741
20
8.37440517726782
30
0
41
1
10
88.7458281625517
20
8.37385686783205
30
0
41
1
10
88.7457580818063
20
8.37285251083955
30
0
41
1
10
88.7455692309935
20
8.37012752559713
30
0
41
1
10
88.745284022879
20
8.36602110174817
30
0
41
1
10
88.7447730825331
20
8.35868250934035
30
0
41
1
10
88.7441300716741
20
8.34946675154902
30
0
41
1
10
88.7433610707831
20
8.33843345930632
30
0
41
1
10
88.7418256811412
20
8.31639249192773
30
0
41
1
10
88.7400663805098
20
8.29113721680645
30
0
41
1
10
88.7380981629285
20
8.26288287776453
30
0
41
1
10
88.7371383401167
20
8.24910724402872
30
0
41
1
10
88.7366263256649
20
8.24176022383671
30
0
41
1
10
88.7365473217628
20
8.24062660134214
30
0
41
1
10
88.7364265797693
20
8.23888969154618
30
0
41
1
10
88.7363383937724
20
8.23761204964978
30
0
41
1
10
88.7362824651215
20
8.23679355856734
30
0
0
SPLINE
5
1CD
100
AcDbEntity
8
1
62
256
6
ByLayer
370
-1
48
1
60
0
100
AcDbSpline
70
4
71
3
72
48
73
44
40
0
40
0
40
0
40
0
40
0.015625
40
0.0234375
40
0.02734375
40
0.029296875
40
0.0302734375
40
0.03125
40
0.03173828125
40
0.046875
40
0.0625
40
0.125
40
0.1875
40
0.25
40
0.3125
40
0.375
40
0.390625
40
0.40625
40
0.4140625
40
0.421875
40
0.4375
40
0.5
40
0.5625
40
0.59375
40
0.6015625
40
0.60546875
40
0.609375
40
0.6171875
40
0.625
40
0.65625
40
0.671875
40
0.6796875
40
0.6875
40
0.71875
40
0.75
40
0.78125
40
0.7890625
40
0.79296875
40
0.796875
40
0.8046875
40
0.8125
40
0.875
40
1
40
1
40
1
40
1
41
1
10
89.6119297511603
20
5.88300817921638
30
0
41
1
10
89.6074376858634
20
5.88285071363552
30
0
41
1
10
89.6006579970497
20
5.88261019763812
30
0
41
1
10
89.5933499768361
20
5.88234574687195
30
0
41
1
10
89.5899163420435
20
5.8822201298758
30
0
41
1
10
89.5882687381473
20
5.88215949654079
30
0
41
1
10
89.5873375263313
20
5.88212512547963
30
0
41
1
10
89.5867555107359
20
5.88210363036976
30
0
41
1
10
89.5827856526742
20
5.88195706320676
30
0
41
1
10
89.575313346431
20
5.88168118419412
30
0
41
1
10
89.5530131824862
20
5.88085785776588
30
0
41
1
10
89.5193878043916
20
5.87961640220911
30
0
41
1
10
89.4745539669321
20
5.87796112813345
30
0
41
1
10
89.4297201294725
20
5.87630585405779
30
0
41
1
10
89.3848862920131
20
5.87465057998213
30
0
41
1
10
89.3512703616552
20
5.87340946348809
30
0
41
1
10
89.3288345474518
20
5.87258114832483
30
0
41
1
10
89.3194957392706
20
5.87223635606952
30
0
41
1
10
89.3120549254834
20
5.87196160726597
30
0
41
1
10
89.3045420016426
20
5.87168482311051
30
0
41
1
10
89.2834695672972
20
5.87091078207865
30
0
41
1
10
89.2469182730951
20
5.86958088888724
30
0
41
1
10
89.2036857447482
20
5.86802961753421
30
0
41
1
10
89.1749419424414
20
5.86700806115465
30
0
41
1
10
89.162698440433
20
5.86657459034475
30
0
41
1
10
89.1582630171608
20
5.8664177386091
30
0
41
1
10
89.153794811922
20
5.86625985897336
30
0
41
1
10
89.1481721439939
20
5.8660612537148
30
0
41
1
10
89.1346963931405
20
5.86558522746913
30
0
41
1
10
89.1189782313963
20
5.86502997814006
30
0
41
1
10
89.1032493016891
20
5.86447438089274
30
0
41
1
10
89.0942791572903
20
5.86415747237695
30
0
41
1
10
89.0807929397791
20
5.86368178388002
30
0
41
1
10
89.0603830216718
20
5.86296457739257
30
0
41
1
10
89.0329808339489
20
5.86200739501919
30
0
41
1
10
89.0124380279363
20
5.86129413858652
30
0
41
1
10
88.9999355392084
20
5.86086165452113
30
0
41
1
10
88.9954020104394
20
5.86070502873616
30
0
41
1
10
88.9908637341178
20
5.8605483407616
30
0
41
1
10
88.9851820887033
20
5.86035220997306
30
0
41
1
10
88.9624629175822
20
5.85956791487811
30
0
41
1
10
88.9056649897793
20
5.85760717714078
30
0
41
1
10
88.8511389790885
20
5.85572486891292
30
0
41
1
10
88.8147883052946
20
5.854469996761
30
0
0
SPLINE
5
1CE
100
AcDbEntity
8
1
62
256
6
ByLayer
370
-1
48
1
60
0
100
AcDbSpline
70
4
71
3
72
48
73
44
40
0
40
0
40
0
40
0
40
0.015625
40
0.0234375
40
0.02734375
40
0.029296875
40
0.0302734375
40
0.03125
40
0.03173828125
40
0.046875
40
0.0625
40
0.125
40
0.1875
40
0.25
40
0.3125
40
0.375
40
0.390625
40
0.40625
40
0.4140625
40
0.421875
40
0.4375
40
0.5
40
0.5625
40
0.59375
40
0.6015625
40
0.60546875
40
0.609375
40
0.6171875
40
0.625
40
0.65625
40
0.671875
40
0.6796875
40
0.6875
40
0.71875
40
0.75
40
0.78125
40
0.7890625
40
0.79296875
40
0.796875
40
0.8046875
40
0.8125
40
0.875
40
1
40
1
40
1
40
1
41
1
10
93.8382072366315
20
6.0311567912909
30
0
41
1
10
93.8426993019283
20
6.03131425687172
30
0
41
1
10
93.8496421492974
20
6.03155477286916
30
0
41
1
10
93.8574222531419
20
6.03181922363532
30
0
41
1
10
93.8611556417202
20
6.03194484063144
30
0
41
1
10
93.8629674465225
20
6.03200547396645
30
0
41
1
10
93.8639972607323
20
6.03203984502764
30
0
41
1
10
93.8646416393323
20
6.03206134013752
30
0
41
1
10
93.8690341073489
20
6.03220790730052
30
0
41
1
10
93.8773019588214
20
6.03248378631312
30
0
41
1
10
93.9019763280596
20
6.0333071127414
30
0
41
1
10
93.9391816596859
20
6.03454856829813
30
0
41
1
10
93.9887887685209
20
6.03620384237379
30
0
41
1
10
94.0383958773558
20
6.03785911644948
30
0
41
1
10
94.0880029861908
20
6.03951439052514
30
0
41
1
10
94.1251984204769
20
6.04075550701916
30
0
41
1
10
94.1500217695747
20
6.04158382218245
30
0
41
1
10
94.1603549343586
20
6.04192861443775
30
0
41
1
10
94.1685897946973
20
6.04220336324127
30
0
41
1
10
94.1768686711055
20
6.04248014739673
30
0
41
1
10
94.1999588129741
20
6.04325418842862
30
0
41
1
10
94.2392839994795
20
6.04458408162003
30
0
41
1
10
94.2845585870797
20
6.04613535297307
30
0
41
1
10
94.3140992420705
20
6.04715690935262
30
0
41
1
10
94.3265872295959
20
6.04759038016252
30
0
41
1
10
94.3311009142449
20
6.04774723189817
30
0
41
1
10
94.3356404633223
20
6.04790511153388
30
0
41
1
10
94.3413491325018
20
6.04810371679244
30
0
41
1
10
94.3550328531612
20
6.04857974303815
30
0
41
1
10
94.3709942016794
20
6.04913499236721
30
0
41
1
10
94.3869646325595
20
6.04969058961453
30
0
41
1
10
94.3960755664306
20
6.05000749813033
30
0
41
1
10
94.409729550322
20
6.05048318662725
30
0
41
1
10
94.4302395380835
20
6.0512003931147
30
0
41
1
10
94.4574489765849
20
6.05215757548808
30
0
41
1
10
94.4776007077739
20
6.05287083192073
30
0
41
1
10
94.4897734102994
20
6.05330331598614
30
0
41
1
10
94.4941760979333
20
6.05345994177111
30
0
41
1
10
94.4985775862152
20
6.05361662974565
30
0
41
1
10
94.5040860980923
20
6.05381276053421
30
0
41
1
10
94.526114544317
20
6.05459705562913
30
0
41
1
10
94.5811856598785
20
6.05655779336649
30
0
41
1
10
94.6340539308176
20
6.05844010159436
30
0
41
1
10
94.6692994447769
20
6.05969497374625
30
0
0
SPLINE
5
1CF
100
AcDbEntity
8
1
62
256
6
ByLayer
370
-1
48
1
60
0
100
AcDbSpline
70
4
71
3
72
8
73
4
40
0
40
0
40
0
40
0
40
1
40
1
40
1
40
1
41
1
10
89.3499723455985
20
8.8151850793279
30
0
41
1
10
89.3619756450425
20
8.81564975324204
30
0
41
1
10
89.3739797867869
20
8.8160925025945
30
0
41
1
10
89.3859846913426
20
8.8165133244535
30
0
0
SPLINE
5
1D0
100
AcDbEntity
8
1
62
256
6
ByLayer
370
-1
48
1
60
0
100
AcDbSpline
70
4
71
3
72
14
73
10
40
0
40
0
40
0
40
0
40
0.0050966481374638
40
0.0240065217780145
40
0.0435263913424542
40
0.0630462609068939
40
0.375364173937929
40
0.687682086968965
40
1
40
1
40
1
40
1
41
1
10
93.8936590196779
20
8.97452621246944
30
0
41
1
10
93.8898300102174
20
8.97439195883024
30
0
41
1
10
93.871794396701
20
8.97375962078968
30
0
41
1
10
93.8390939309024
20
8.97261333339165
30
0
41
1
10
93.7955576010584
20
8.97108720386905
30
0
41
1
10
93.5315899590562
20
8.96183403960578
30
0
41
1
10
93.0476492820525
20
8.94486990512314
30
0
41
1
10
92.3437355700469
20
8.92019480042111
30
0
41
1
10
91.8744597620433
20
8.90374473061974
30
0
41
1
10
91.6398218580414
20
8.89551969571906
30
0
0
SPLINE
5
1D1
100
AcDbEntity
8
1
62
256
6
ByLayer
370
-1
48
1
60
0
100
AcDbSpline
70
4
71
3
72
23
73
19
40
0
40
0
40
0
40
0
40
0.0365499079217462
40
0.0695172064382737
40
0.102484504954801
40
0.135451803471329
40
0.168419101987857
40
0.234353699020912
40
0.300288296053952
40
0.366222893087022
40
0.498092087153132
40
0.629961281219235
40
0.761830475285353
40
0.827765072318405
40
0.893699669351464
40
0.926666967867991
40
0.959634266384519
40
1
40
1
40
1
40
1
41
1
10
94.7478052849501
20
3.67737141193996
30
0
41
1
10
94.7478748513501
20
3.67838948545384
30
0
41
1
10
94.7480054995942
20
3.68032582304605
30
0
41
1
10
94.748190304851
20
3.68318070163878
30
0
41
1
10
94.7483596930402
20
3.68593639760735
30
0
41
1
10
94.7485183077284
20
3.6886930828714
30
0
41
1
10
94.7487159424394
20
3.69236982762266
30
0
41
1
10
94.748937976306
20
3.6969676518201
30
0
41
1
10
94.7491674804792
20
3.70248714210194
30
0
41
1
10
94.7494237288756
20
3.70984879115318
30
0
41
1
10
94.7496497911588
20
3.71905433188772
30
0
41
1
10
94.7497672174869
20
3.73010370993498
30
0
41
1
10
94.7497392134477
20
3.73931138098615
30
0
41
1
10
94.749642703247
20
3.74667598045832
30
0
41
1
10
94.7495491045026
20
3.75127749395398
30
0
41
1
10
94.7494528164066
20
3.75495745568335
30
0
41
1
10
94.7493654242065
20
3.75792355264323
30
0
41
1
10
94.7492989643835
20
3.75996976257048
30
0
41
1
10
94.7492612955632
20
3.7610961393996
30
0
0
SPLINE
5
1D2
100
AcDbEntity
8
1
62
256
6
ByLayer
370
-1
48
1
60
0
100
AcDbSpline
70
4
71
3
72
8
73
4
40
0
40
0
40
0
40
0
40
1
40
1
40
1
40
1
41
1
10
94.7480051729471
20
3.79724851522153
30
0
41
1
10
94.7484243921049
20
3.78519779260083
30
0
41
1
10
94.7488217673503
20
3.77314630426017
30
0
41
1
10
94.7491972960519
20
3.76109413000174
30
0
0
SPLINE
5
1D3
100
AcDbEntity
8
1
62
256
6
ByLayer
370
-1
48
1
60
0
100
AcDbSpline
70
4
71
3
72
13
73
9
40
0
40
0
40
0
40
0
40
0.312317913031038
40
0.624635826062076
40
0.936953739093113
40
0.975993478221993
40
0.994903351862544
40
1
40
1
40
1
40
1
41
1
10
91.6398218580414
20
8.89551969571906
30
0
41
1
10
91.4051839540396
20
8.88729466081838
30
0
41
1
10
90.9359081460358
20
8.87084459101703
30
0
41
1
10
90.2319944340303
20
8.84616948631498
30
0
41
1
10
89.7333888880264
20
8.82869128715106
30
0
41
1
10
89.4552146541805
20
8.81894012272778
30
0
41
1
10
89.4078493193817
20
8.81727977064844
30
0
41
1
10
89.3898136978921
20
8.81664766180393
30
0
41
1
10
89.3859846862827
20
8.81651346993837
30
0
0
SPLINE
5
1D4
100
AcDbEntity
8
1
62
256
6
ByLayer
370
-1
48
1
60
0
100
AcDbSpline
70
4
71
3
72
19
73
15
40
0
40
0
40
0
40
0
40
0.040365733615487
40
0.106300330648545
40
0.172234927681604
40
0.238169524714662
40
0.370038718780779
40
0.501907912846896
40
0.76564630097913
40
0.831580898012188
40
0.897515495045246
40
0.930482793561775
40
0.963450092078305
40
1
40
1
40
1
40
1
41
1
10
88.8947532365079
20
3.5558712703961
30
0
41
1
10
88.8947939325322
20
3.55474499968307
30
0
41
1
10
88.8949039470189
20
3.55177938342013
30
0
41
1
10
88.8951031578017
20
3.54697576115117
30
0
41
1
10
88.8953748296016
20
3.54145953095289
30
0
41
1
10
88.8957903280926
20
3.53410611334763
30
0
41
1
10
88.8964022428086
20
3.52491891079544
30
0
41
1
10
88.8975822067247
20
3.51023325775296
30
0
41
1
10
88.8988829221378
20
3.49740692835132
30
0
41
1
10
88.9001813234322
20
3.48643634435197
30
0
41
1
10
88.9007554133525
20
3.48187012086763
30
0
41
1
10
88.9012360423091
20
3.47822062463561
30
0
41
1
10
88.9016187858415
20
3.4753856409896
30
0
41
1
10
88.9018836739253
20
3.47346316859156
30
0
41
1
10
88.9020238178416
20
3.47245244629693
30
0
0
SPLINE
5
1D5
100
AcDbEntity
8
1
62
256
6
ByLayer
370
-1
48
1
60
0
100
AcDbSpline
70
4
71
3
72
23
73
19
40
0
40
0
40
0
40
0
40
0.0365499079215857
40
0.0695172064381207
40
0.102484504954656
40
0.135451803471191
40
0.168419101987726
40
0.234353699020796
40
0.300288296053851
40
0.366222893086936
40
0.498092087153076
40
0.629961281219208
40
0.761830475285356
40
0.827765072318422
40
0.893699669351496
40
0.926666967868031
40
0.959634266384566
40
1
40
1
40
1
40
1
41
1
10
94.0130799594519
20
8.97432541544785
30
0
41
1
10
94.0120657600151
20
8.9743952475803
30
0
41
1
10
94.010136790772
20
8.9745263948794
30
0
41
1
10
94.0072927758543
20
8.97471190606228
30
0
41
1
10
94.0045475661408
20
8.97488194128687
30
0
41
1
10
94.0018013708965
20
8.9750411618574
30
0
41
1
10
93.998138617269
20
8.97523955150092
30
0
41
1
10
93.9935582891808
20
8.97546243350084
30
0
41
1
10
93.9880598022258
20
8.97569281434264
30
0
41
1
10
93.9807261664718
20
8.97595004156625
30
0
41
1
10
93.9715556555989
20
8.97617696737072
30
0
41
1
10
93.9605483237711
20
8.97629484224834
30
0
41
1
10
93.9513756906882
20
8.97626673123821
30
0
41
1
10
93.9440391157404
20
8.97616985238423
30
0
41
1
10
93.9394551123928
20
8.9760758961078
30
0
41
1
10
93.9357891540288
20
8.97597924020693
30
0
41
1
10
93.9328343439634
20
8.97589151418282
30
0
41
1
10
93.9307959204827
20
8.97582480049408
30
0
41
1
10
93.9296738298575
20
8.97578698778503
30
0
0
SPLINE
5
1D6
100
AcDbEntity
8
1
62
256
6
ByLayer
370
-1
48
1
60
0
100
AcDbSpline
70
4
71
3
72
23
73
19
40
0
40
0
40
0
40
0
40
0.036549907921933
40
0.0695172064384601
40
0.102484504954987
40
0.135451803471514
40
0.168419101988041
40
0.234353699021096
40
0.300288296054135
40
0.366222893087204
40
0.498092087153312
40
0.629961281219413
40
0.761830475285529
40
0.82776507231858
40
0.893699669351638
40
0.926666967868165
40
0.959634266384692
40
1
40
1
40
1
40
1
41
1
10
89.4710077906196
20
2.93983955505945
30
0
41
1
10
89.4720219900564
20
2.939769722927
30
0
41
1
10
89.4739509592995
20
2.9396385756279
30
0
41
1
10
89.4767949742172
20
2.93945306444502
30
0
41
1
10
89.4795401839307
20
2.93928302922046
30
0
41
1
10
89.482286379175
20
2.9391238086499
30
0
41
1
10
89.4859491328025
20
2.93892541900641
30
0
41
1
10
89.4905294608907
20
2.93870253700646
30
0
41
1
10
89.4960279478457
20
2.93847215616466
30
0
41
1
10
89.5033615835998
20
2.93821492894105
30
0
41
1
10
89.5125320944725
20
2.93798800313658
30
0
41
1
10
89.5235394263004
20
2.93787012825899
30
0
41
1
10
89.5327120593834
20
2.93789823926909
30
0
41
1
10
89.5400486343311
20
2.93799511812307
30
0
41
1
10
89.5446326376787
20
2.9380890743995
30
0
41
1
10
89.5482985960427
20
2.93818573030038
30
0
41
1
10
89.5512534061082
20
2.93827345632451
30
0
41
1
10
89.5532918295889
20
2.93834017001322
30
0
41
1
10
89.5544139202141
20
2.93837798272227
30
0
0
SPLINE
5
1D7
100
AcDbEntity
8
1
62
256
6
ByLayer
370
-1
48
1
60
0
100
AcDbSpline
70
4
71
3
72
8
73
4
40
0
40
0
40
0
40
0
40
1
40
1
40
1
40
1
41
1
10
93.8936590247402
20
8.97452606698462
30
0
41
1
10
93.9056638907231
20
8.97494688749148
30
0
41
1
10
93.9176695195122
20
8.97534578064574
30
0
41
1
10
93.9296758316089
20
8.97572274380605
30
0
0
SPLINE
5
1D8
100
AcDbEntity
8
1
62
256
6
ByLayer
370
-1
48
1
60
0
100
AcDbSpline
70
4
71
3
72
79
73
75
40
0
40
0
40
0
40
0
40
0.0017245864916163
40
0.0039792263717438
40
0.0084885061319986
40
0.0129977858922535
40
0.0220163454127632
40
0.031034904933273
40
0.0671091430153119
40
0.13925761917939
40
0.211406095343468
40
0.220424654863977
40
0.224933934624232
40
0.228315894444423
40
0.229443214384487
40
0.231697854264615
40
0.233952494144742
40
0.237334453964933
40
0.238461773904997
40
0.240716413785124
40
0.242971053665252
40
0.247480333425506
40
0.249734973305634
40
0.256498892946016
40
0.265517452466526
40
0.283554571507545
40
0.292573131028055
40
0.319628809589584
40
0.355703047671623
40
0.391777285753662
40
0.409814404794682
40
0.427851523835701
40
0.445888642876721
40
0.46392576191774
40
0.48196288095876
40
0.499999999999779
40
0.518037119040799
40
0.536074238081818
40
0.554111357122836
40
0.572148476163857
40
0.590185595204875
40
0.608222714245896
40
0.626259833286914
40
0.644296952327935
40
0.662334071368954
40
0.680371190409975
40
0.716445428492013
40
0.725463988012521
40
0.734482547533033
40
0.751392346633987
40
0.752519666574052
40
0.754774306454179
40
0.757028946334307
40
0.760410906154501
40
0.761538226094561
40
0.763792865974691
40
0.766047505854815
40
0.769429465675009
40
0.770556785615071
40
0.771684105555134
40
0.775066065375327
40
0.779575345135581
40
0.784084624895836
40
0.788593904656091
40
0.824668142738129
40
0.860742380820168
40
0.932890856984246
40
0.968965095066285
40
0.987002214107305
40
0.991511493867561
40
0.99489345368775
40
0.996020773627814
40
0.998275413507942
40
1
40
1
40
1
40
1
41
1
10
88.9211621162695
20
3.33574379342698
30
0
41
1
10
88.9212095117028
20
3.33540746684446
30
0
41
1
10
88.921318465759
20
3.33463703711814
30
0
41
1
10
88.9215506917224
20
3.33301620403799
30
0
41
1
10
88.921863949104
20
3.33090037812764
30
0
41
1
10
88.9223813273913
20
3.32754519679671
30
0
41
1
10
88.923069280025
20
3.32331733009792
30
0
41
1
10
88.9248473922168
20
3.31311433542464
30
0
41
1
10
88.9293614328151
20
3.29098736611655
30
0
41
1
10
88.9388650533345
20
3.25671382953351
30
0
41
1
10
88.9499567591712
20
3.22779816086757
30
0
41
1
10
88.9571148138909
20
3.21184937503804
30
0
41
1
10
88.9585590894839
20
3.20870911163439
30
0
41
1
10
88.9593391595694
20
3.20703674093775
30
0
41
1
10
88.9599284042969
20
3.20578353792692
30
0
41
1
10
88.9604220609527
20
3.20473988038725
30
0
41
1
10
88.9611180671009
20
3.20328004996628
30
0
41
1
10
88.9617198768119
20
3.20203017471692
30
0
41
1
10
88.9623258694809
20
3.20078145666045
30
0
41
1
10
88.9628334770014
20
3.19974158794602
30
0
41
1
10
88.9636512217091
20
3.19807938201734
30
0
41
1
10
88.9644773208263
20
3.19641959320092
30
0
41
1
10
88.9657289873084
20
3.19393365891645
30
0
41
1
10
88.9674201175555
20
3.19062585422805
30
0
41
1
10
88.9706638462131
20
3.18444702742627
30
0
41
1
10
88.9742567575765
20
3.17790152713073
30
0
41
1
10
88.9798446421057
20
3.16815903852316
30
0
41
1
10
88.9876458533404
20
3.15531066713683
30
0
41
1
10
88.9992003510854
20
3.13803490879147
30
0
41
1
10
89.0105423110223
20
3.1228049075155
30
0
41
1
10
89.0200967620218
20
3.11094485556487
30
0
41
1
10
89.0274975818971
20
3.10222149336701
30
0
41
1
10
89.0351279234989
20
3.09367951016426
30
0
41
1
10
89.0429804085343
20
3.08532738675944
30
0
41
1
10
89.0510476587107
20
3.07717360395529
30
0
41
1
10
89.0593222957351
20
3.06922664255461
30
0
41
1
10
89.0677969413147
20
3.06149498336021
30
0
41
1
10
89.0764626528153
20
3.05398542321603
30
0
41
1
10
89.0853104876026
20
3.04670475896611
30
0
41
1
10
89.0943315030423
20
3.03965978745447
30
0
41
1
10
89.1035167565002
20
3.03285730552506
30
0
41
1
10
89.1128562253471
20
3.02630210378885
30
0
41
1
10
89.1223398869537
20
3.0199989728568
30
0
41
1
10
89.1319577186908
20
3.01395270333981
30
0
41
1
10
89.1416996979293
20
3.00816808584884
30
0
41
1
10
89.1548404585529
20
3.00080761466086
30
0
41
1
10
89.1665189352736
20
2.99483423567568
30
0
41
1
10
89.1766314611932
20
2.99005432194778
30
0
41
1
10
89.1831872205309
20
2.98705523208994
30
0
41
1
10
89.1882883016674
20
2.98483130244708
30
0
41
1
10
89.1921256455019
20
2.98321453609086
30
0
41
1
10
89.1931921685904
20
2.98276810026817
30
0
41
1
10
89.1946863861653
20
2.98214806755968
30
0
41
1
10
89.1959682811333
20
2.98162194501654
30
0
41
1
10
89.1972510548721
20
2.98110009103166
30
0
41
1
10
89.1983205757887
20
2.98066788083216
30
0
41
1
10
89.1998188942934
20
2.98006776806233
30
0
41
1
10
89.2011042014551
20
2.9795587241089
30
0
41
1
10
89.2021759544727
20
2.97913808085065
30
0
41
1
10
89.2032480350613
20
2.9787192177921
30
0
41
1
10
89.2049643985121
20
2.97805473411827
30
0
41
1
10
89.2073267885133
20
2.97715478219521
30
0
41
1
10
89.2099067566795
20
2.97619012031896
30
0
41
1
10
89.2185154866169
20
2.97303161682675
30
0
41
1
10
89.2332137254259
20
2.96809866476792
30
0
41
1
10
89.2609883150972
20
2.9602570901321
30
0
41
1
10
89.288766621954
20
2.95455638374923
30
0
41
1
10
89.3127862690151
20
2.95135065710718
30
0
41
1
10
89.3238983512347
20
2.95025885087224
30
0
41
1
10
89.3287432471643
20
2.94985053784029
30
0
41
1
10
89.3304410391093
20
2.94971651830212
30
0
41
1
10
89.331726582748
20
2.94961908625808
30
0
41
1
10
89.3327053180065
20
2.94954720809756
30
0
41
1
10
89.3334785466794
20
2.94949184673587
30
0
41
1
10
89.333816083419
20
2.94946784711007
30
0
0
SPLINE
5
1D9
100
AcDbEntity
8
1
62
256
6
ByLayer
370
-1
48
1
60
0
100
AcDbSpline
70
4
71
3
72
13
73
9
40
0
40
0
40
0
40
0
40
0.312317913031034
40
0.624635826062067
40
0.936953739093101
40
0.97599347822198
40
0.994903351862531
40
1
40
1
40
1
40
1
41
1
10
94.6692994447769
20
6.0596949737463
30
0
41
1
10
94.6611057086172
20
6.29522915642295
30
0
41
1
10
94.6447182362979
20
6.76629752177624
30
0
41
1
10
94.6201370278189
20
7.47290006980617
30
0
41
1
10
94.6027253384795
20
7.97341020799405
30
0
41
1
10
94.5930112801809
20
8.25264702222202
30
0
41
1
10
94.5913572462425
20
8.30019328490485
30
0
41
1
10
94.5907275427629
20
8.31829779953858
30
0
41
1
10
94.5905938615379
20
8.32214143735033
30
0
0
SPLINE
5
1DA
100
AcDbEntity
8
1
62
256
6
ByLayer
370
-1
48
1
60
0
100
AcDbSpline
70
4
71
3
72
153
73
149
40
0
40
0
40
0
40
0
40
0.125
40
0.25
40
0.375
40
0.3828125
40
0.390625
40
0.398193359375
40
0.4019775390625
40
0.405643463134766
40
0.40576171875
40
0.406005859375
40
0.40625
40
0.4072265625
40
0.40771484375
40
0.408203125
40
0.4091796875
40
0.41015625
40
0.412109375
40
0.4140625
40
0.416015625
40
0.4169921875
40
0.41796875
40
0.4189453125
40
0.41943359375
40
0.419921875
40
0.42041015625
40
0.4208984375
40
0.421875
40
0.422119140625
40
0.42236328125
40
0.422477722167969
40
0.426025390625
40
0.4296875
40
0.4375
40
0.439453125
40
0.44140625
40
0.443359375
40
0.4443359375
40
0.4453125
40
0.445556640625
40
0.44580078125
40
0.446044921875
40
0.4462890625
40
0.4464111328125
40
0.44677734375
40
0.447265625
40
0.44921875
40
0.453125
40
0.4609375
40
0.46484375
40
0.46875
40
0.46923828125
40
0.4697265625
40
0.47021484375
40
0.4705810546875
40
0.470703125
40
0.4708251953125
40
0.47119140625
40
0.471435546875
40
0.4716796875
40
0.4718017578125
40
0.47216796875
40
0.472412109375
40
0.47265625
40
0.4727783203125
40
0.474609375
40
0.4755859375
40
0.4765625
40
0.48046875
40
0.482421875
40
0.484375
40
0.486328125
40
0.48828125
40
0.490234375
40
0.4921875
40
0.494140625
40
0.49609375
40
0.498046875
40
0.5
40
0.501953125
40
0.50390625
40
0.505859375
40
0.5078125
40
0.509765625
40
0.51171875
40
0.515625
40
0.51953125
40
0.5224609375
40
0.5234375
40
0.525390625
40
0.5263671875
40
0.527099609375
40
0.52734375
40
0.52783203125
40
0.528076171875
40
0.5283203125
40
0.5284423828125
40
0.52880859375
40
0.529052734375
40
0.529296875
40
0.5294189453125
40
0.52978515625
40
0.5302734375
40
0.53125
40
0.5390625
40
0.546875
40
0.55078125
40
0.5517578125
40
0.552734375
40
0.55322265625
40
0.5537109375
40
0.553955078125
40
0.55419921875
40
0.554443359375
40
0.5545654296875
40
0.5546875
40
0.556640625
40
0.55859375
40
0.5625
40
0.56640625
40
0.5703125
40
0.573974609375
40
0.5758056640625
40
0.57763671875
40
0.577880859375
40
0.578125
40
0.5791015625
40
0.57958984375
40
0.580078125
40
0.5810546875
40
0.58203125
40
0.5859375
40
0.587890625
40
0.58984375
40
0.5908203125
40
0.591796875
40
0.5927734375
40
0.59375
40
0.593994140625
40
0.59423828125
40
0.594380187988281
40
0.601806640625
40
0.609375
40
0.625
40
0.75
40
0.875
40
1
40
1
40
1
40
1
41
1
10
93.8382072366315
20
6.03115679129093
30
0
41
1
10
93.8442633434227
20
5.85707013100802
30
0
41
1
10
93.8563755570052
20
5.50889681044217
30
0
41
1
10
93.8745438773789
20
4.98663682959338
30
0
41
1
10
93.8870345976358
20
4.62758309275986
30
0
41
1
10
93.893847717776
20
4.43173559994156
30
0
41
1
10
93.8949714094658
20
4.39943436414688
30
0
41
1
10
93.8958999336515
20
4.37274334299022
30
0
41
1
10
93.8966275609842
20
4.35182723027251
30
0
41
1
10
93.8969942393251
20
4.34128682701319
30
0
41
1
10
93.8971894068291
20
4.33567661237518
30
0
41
1
10
93.8972187928453
20
4.3348318925575
30
0
41
1
10
93.8972897628468
20
4.33279181450732
30
0
41
1
10
93.8973725611818
20
4.33041172344878
30
0
41
1
10
93.8974671878504
20
4.32769161938185
30
0
41
1
10
93.8975618145191
20
4.32497151531493
30
0
41
1
10
93.8976800978548
20
4.32157138523127
30
0
41
1
10
93.897869351192
20
4.31613117709745
30
0
41
1
10
93.8981059178636
20
4.30933091693012
30
0
41
1
10
93.8983897978694
20
4.30117060472938
30
0
41
1
10
93.8986263645409
20
4.29437034456205
30
0
41
1
10
93.8988156178781
20
4.28893013642823
30
0
41
1
10
93.8989575578811
20
4.28484998032783
30
0
41
1
10
93.8990758412169
20
4.2814498502442
30
0
41
1
10
93.8991704678855
20
4.27872974617728
30
0
41
1
10
93.8992414378869
20
4.27668966812709
30
0
41
1
10
93.8993124078884
20
4.2746495900769
30
0
41
1
10
93.899407034557
20
4.27192948600998
30
0
41
1
10
93.899489832892
20
4.26954939495141
30
0
41
1
10
93.8995608028935
20
4.26750931690123
30
0
41
1
10
93.899590004092
20
4.26666990978683
30
0
41
1
10
93.8997792574293
20
4.26122970165298
30
0
41
1
10
93.9001341074365
20
4.25102931140202
30
0
41
1
10
93.9008619195869
20
4.23010788598106
30
0
41
1
10
93.9015124779336
20
4.21140717052097
30
0
41
1
10
93.9020802379453
20
4.19508654611946
30
0
41
1
10
93.9023641317035
20
4.18692603567195
30
0
41
1
10
93.9026007327559
20
4.18012527988776
30
0
41
1
10
93.9027900342264
20
4.17468437789026
30
0
41
1
10
93.9028965253285
20
4.17162374041726
30
0
41
1
10
93.9029675236941
20
4.16958325348313
30
0
41
1
10
93.9030030237633
20
4.16856299723844
30
0
41
1
10
93.9030385247458
20
4.16754272782893
30
0
41
1
10
93.9030681096813
20
4.16669249202766
30
0
41
1
10
93.9031036123291
20
4.1656721986117
30
0
41
1
10
93.9031509504999
20
4.16431178854666
30
0
41
1
10
93.9032870545884
20
4.16040051090579
30
0
41
1
10
93.9035948147369
20
4.15155695117849
30
0
41
1
10
93.9042579715486
20
4.13250512089175
30
0
41
1
10
93.9050167451977
20
4.11071891277166
30
0
41
1
10
93.9057732321823
20
4.08896566803367
30
0
41
1
10
93.9061737452425
20
4.07742901535994
30
0
41
1
10
93.9064087020806
20
4.07065196172462
30
0
41
1
10
93.9064793317116
20
4.06861679028165
30
0
41
1
10
93.9065443759905
20
4.06674688531797
30
0
41
1
10
93.9065923501058
20
4.06537730780326
30
0
41
1
10
93.9066227009556
20
4.06451603097417
30
0
41
1
10
93.906653256658
20
4.06365180109444
30
0
41
1
10
93.9066900014753
20
4.06261291866539
30
0
41
1
10
93.9067311743265
20
4.0614213578516
30
0
41
1
10
93.9067589248511
20
4.06059074062392
30
0
41
1
10
93.9067901121837
20
4.05962036894823
30
0
41
1
10
93.9068180878917
20
4.0586802303981
30
0
41
1
10
93.9068443193092
20
4.05760594283623
30
0
41
1
10
93.906858738454
20
4.05684326577463
30
0
41
1
10
93.9068972173773
20
4.0540880756642
30
0
41
1
10
93.9068528505141
20
4.05034802961455
30
0
41
1
10
93.9066131705558
20
4.04543470674872
30
0
41
1
10
93.9060428942311
20
4.03776172833542
30
0
41
1
10
93.904788763485
20
4.02868824630306
30
0
41
1
10
93.9024919179978
20
4.01825919137403
30
0
41
1
10
93.9003234961324
20
4.01043459605401
30
0
41
1
10
93.8976952753703
20
4.00263407307637
30
0
41
1
10
93.8946076840888
20
3.9949023089535
30
0
41
1
10
93.891061150666
20
3.98728399019788
30
0
41
1
10
93.8870626179814
20
3.97981861697849
30
0
41
1
10
93.8826190289151
20
3.97254568946442
30
0
41
1
10
93.8777469621985
20
3.96550385785508
30
0
41
1
10
93.872462996563
20
3.95873177234986
30
0
41
1
10
93.8667923371554
20
3.95226375051641
30
0
41
1
10
93.8607601891225
20
3.94613410992233
30
0
41
1
10
93.8543988979432
20
3.94037048423343
30
0
41
1
10
93.8477408090965
20
3.9350005071156
30
0
41
1
10
93.8408231754408
20
3.93004347619075
30
0
41
1
10
93.8336832498341
20
3.92551868908066
30
0
41
1
10
93.8239186526824
20
3.92007490844165
30
0
41
1
10
93.8113510248349
20
3.91439933125972
30
0
41
1
10
93.7973213145327
20
3.90983828602475
30
0
41
1
10
93.7871164338074
20
3.90753485678491
30
0
41
1
10
93.7795036791803
20
3.90622349198549
30
0
41
1
10
93.7744558839725
20
3.90555431345135
30
0
41
1
10
93.7697934499641
20
3.9051171814408
30
0
41
1
10
93.7673354342382
20
3.90494290977523
30
0
41
1
10
93.7655063968529
20
3.90483733279458
30
0
41
1
10
93.7642946442202
20
3.9047794946479
30
0
41
1
10
93.7630515582895
20
3.90472829881318
30
0
41
1
10
93.7622534617666
20
3.90469783900579
30
0
41
1
10
93.7612693938565
20
3.90466156403073
30
0
41
1
10
93.7602554665311
20
3.90462561223981
30
0
41
1
10
93.7590520918778
20
3.90458393909412
30
0
41
1
10
93.7581896419366
20
3.9045542507389
30
0
41
1
10
93.757160010094
20
3.90451862626094
30
0
41
1
10
93.7557956212567
20
3.90447112942277
30
0
41
1
10
93.7532554544264
20
3.90438207811977
30
0
41
1
10
93.740430099663
20
3.90393089792576
30
0
41
1
10
93.7174169061135
20
3.90312350459416
30
0
41
1
10
93.6902876983202
20
3.90217361408375
30
0
41
1
10
93.6726640077257
20
3.90155618825474
30
0
41
1
10
93.6645314814616
20
3.9012712229206
30
0
41
1
10
93.6611431556929
20
3.90115248743086
30
0
41
1
10
93.6584326188096
20
3.90105749907519
30
0
41
1
10
93.6567385822346
20
3.90099813136717
30
0
41
1
10
93.6553833808142
20
3.90095063720887
30
0
41
1
10
93.6543669932821
20
3.9009150165941
30
0
41
1
10
93.6535200146274
20
3.90088533275164
30
0
41
1
10
93.6528424380835
20
3.90086158567954
30
0
41
1
10
93.6497933624859
20
3.90075472386059
30
0
41
1
10
93.6442036797796
20
3.90055881061022
30
0
41
1
10
93.6333638748983
20
3.90017885787077
30
0
41
1
10
93.6198151086497
20
3.8997039172352
30
0
41
1
10
93.6035565891513
20
3.89913398847253
30
0
41
1
10
93.5876367888092
20
3.89857593322572
30
0
41
1
10
93.5745961012949
20
3.89811880286399
30
0
41
1
10
93.5644345266084
20
3.8977625973873
30
0
41
1
10
93.559015020109
20
3.89757262113306
30
0
41
1
10
93.5557971881249
20
3.89745982273212
30
0
41
1
10
93.5537648731876
20
3.89738858163679
30
0
41
1
10
93.5513938390941
20
3.89730546702557
30
0
41
1
10
93.5486840858444
20
3.89721047889844
30
0
41
1
10
93.5459743325947
20
3.89711549077134
30
0
41
1
10
93.5425871410325
20
3.89699675561244
30
0
41
1
10
93.5344578812833
20
3.8967117912311
30
0
41
1
10
93.5249737449093
20
3.89637933278621
30
0
41
1
10
93.5141347319104
20
3.89599938027774
30
0
41
1
10
93.5073603487861
20
3.89576190995996
30
0
41
1
10
93.5019408422867
20
3.89557193370573
30
0
41
1
10
93.4978762124121
20
3.89542945151507
30
0
41
1
10
93.4938115825375
20
3.89528696932439
30
0
41
1
10
93.4907631101316
20
3.89518010768137
30
0
41
1
10
93.4887307951943
20
3.89510886658604
30
0
41
1
10
93.4878564763723
20
3.89507821807317
30
0
41
1
10
93.4770174633734
20
3.8946982655647
30
0
41
1
10
93.456016875688
20
3.89396210757957
30
0
41
1
10
93.4135351425144
20
3.89247294605863
30
0
41
1
10
93.2079326146916
20
3.88526572191381
30
0
41
1
10
92.8394061727291
20
3.87234733662623
30
0
41
1
10
92.3191335487821
20
3.85410961622026
30
0
41
1
10
91.9722851328174
20
3.84195113594959
30
0
41
1
10
91.798860924835
20
3.83587189581425
30
0
0
SPLINE
5
1DB
100
AcDbEntity
8
1
62
256
6
ByLayer
370
-1
48
1
60
0
100
AcDbSpline
70
4
71
3
72
79
73
75
40
0
40
0
40
0
40
0
40
0.0017245864915908
40
0.0039792263717183
40
0.0084885061319733
40
0.0129977858922284
40
0.0220163454127384
40
0.0310349049332485
40
0.0671091430152888
40
0.139257619179369
40
0.21140609534345
40
0.22042465486396
40
0.224933934624215
40
0.228315894444407
40
0.22944321438447
40
0.231697854264598
40
0.233952494144725
40
0.237334453964917
40
0.23846177390498
40
0.240716413785108
40
0.242971053665235
40
0.24748033342549
40
0.249734973305618
40
0.256498892946
40
0.265517452466511
40
0.283554571507531
40
0.292573131028041
40
0.319628809589571
40
0.355703047671611
40
0.391777285753652
40
0.409814404794672
40
0.427851523835692
40
0.445888642876712
40
0.463925761917732
40
0.481962880958753
40
0.499999999999773
40
0.518037119040792
40
0.536074238081813
40
0.554111357122833
40
0.572148476163853
40
0.590185595204872
40
0.608222714245893
40
0.626259833286913
40
0.644296952327933
40
0.662334071368954
40
0.680371190409976
40
0.716445428492014
40
0.725463988012524
40
0.734482547533036
40
0.751392346633991
40
0.752519666574054
40
0.754774306454182
40
0.75702894633431
40
0.760410906154505
40
0.761538226094564
40
0.763792865974694
40
0.76604750585482
40
0.769429465675013
40
0.770556785615075
40
0.771684105555137
40
0.775066065375332
40
0.779575345135585
40
0.78408462489584
40
0.788593904656095
40
0.824668142738135
40
0.860742380820175
40
0.932890856984256
40
0.968965095066296
40
0.987002214107316
40
0.991511493867573
40
0.994893453687763
40
0.996020773627827
40
0.998275413507954
40
1
40
1
40
1
40
1
41
1
10
89.1306801683352
20
8.78873955406738
30
0
41
1
10
89.1303451215769
20
8.78869197759127
30
0
41
1
10
89.1295776235683
20
8.78858260734819
30
0
41
1
10
89.1279629582474
20
8.78834949431939
30
0
41
1
10
89.1258551836934
20
8.78803504034553
30
0
41
1
10
89.1225127698404
20
8.78751568575711
30
0
41
1
10
89.1183009914508
20
8.78682510525621
30
0
41
1
10
89.1081368222527
20
8.78504020096466
30
0
41
1
10
89.0860940527431
20
8.78050891746457
30
0
41
1
10
89.0519509373142
20
8.77096899465874
30
0
41
1
10
89.0231453014974
20
8.75983492030767
30
0
41
1
10
89.007257205613
20
8.75264952298178
30
0
41
1
10
89.0041288918597
20
8.75119973049067
30
0
41
1
10
89.0024628850385
20
8.75041668066422
30
0
41
1
10
89.0012144508435
20
8.7498251851176
30
0
41
1
10
89.0001747647358
20
8.74932964277352
30
0
41
1
10
88.9987204894103
20
8.74863097799496
30
0
41
1
10
88.9974753703137
20
8.74802686946865
30
0
41
1
10
88.9962314040064
20
8.74741856200603
30
0
41
1
10
88.9951954923063
20
8.74690901550721
30
0
41
1
10
88.9935396115731
20
8.74608814714765
30
0
41
1
10
88.9918861387542
20
8.74525889246604
30
0
41
1
10
88.9894096642002
20
8.74400244482129
30
0
41
1
10
88.9861144467073
20
8.7423048547314
30
0
41
1
10
88.9799591322069
20
8.73904873555728
30
0
41
1
10
88.9734385395162
20
8.73544209985619
30
0
41
1
10
88.9637331240191
20
8.72983287051588
30
0
41
1
10
88.9509336445649
20
8.72200185992159
30
0
41
1
10
88.9337236256957
20
8.71040322587231
30
0
41
1
10
88.9185515791727
20
8.69901794149098
30
0
41
1
10
88.9067366583004
20
8.68942699404093
30
0
41
1
10
88.8980464911294
20
8.68199790423603
30
0
41
1
10
88.8895370127516
20
8.67433841596892
30
0
41
1
10
88.8812166716979
20
8.6664559357163
30
0
41
1
10
88.873093916499
20
8.65835786995484
30
0
41
1
10
88.8651771956857
20
8.6500516251613
30
0
41
1
10
88.8574749577888
20
8.64154460781231
30
0
41
1
10
88.8499939737881
20
8.63284579470161
30
0
41
1
10
88.8427410146638
20
8.62396416262283
30
0
41
1
10
88.8357228513957
20
8.61490868836964
30
0
41
1
10
88.8289462549637
20
8.60568834873575
30
0
41
1
10
88.8224159977492
20
8.59631320463515
30
0
41
1
10
88.8161368521333
20
8.58679331698187
30
0
41
1
10
88.8101135904973
20
8.57713874668997
30
0
41
1
10
88.8043509852223
20
8.56735955467346
30
0
41
1
10
88.7970185228493
20
8.55416859847907
30
0
41
1
10
88.7910678743746
20
8.54244551187458
30
0
41
1
10
88.7863061496616
20
8.53229435774875
30
0
41
1
10
88.7833184722461
20
8.52571355647541
30
0
41
1
10
88.7811030053269
20
8.5205929900377
30
0
41
1
10
88.7794923912548
20
8.51674098817315
30
0
41
1
10
88.7790476542552
20
8.51567039113971
30
0
41
1
10
88.7784299809584
20
8.5141704658964
30
0
41
1
10
88.7779058604704
20
8.51288367429785
30
0
41
1
10
88.7773859922974
20
8.51159600057187
30
0
41
1
10
88.7769554267882
20
8.51052239425903
30
0
41
1
10
88.7763575976286
20
8.50901835242112
30
0
41
1
10
88.7758504907412
20
8.50772813559487
30
0
41
1
10
88.7754314481575
20
8.50665228865486
30
0
41
1
10
88.7750141789994
20
8.5055761128925
30
0
41
1
10
88.7743522238865
20
8.50385319321214
30
0
41
1
10
88.7734556965522
20
8.50148177926491
30
0
41
1
10
88.7724947055057
20
8.49889195603956
30
0
41
1
10
88.7693482210728
20
8.49025034215228
30
0
41
1
10
88.7644340403859
20
8.47549595845894
30
0
41
1
10
88.756622305309
20
8.44761527436719
30
0
41
1
10
88.750943291835
20
8.419730858891
30
0
41
1
10
88.7477497639506
20
8.39561946068022
30
0
41
1
10
88.746662112368
20
8.38446493211183
30
0
41
1
10
88.7462553530905
20
8.37960152946692
30
0
41
1
10
88.7461218435371
20
8.37789725223243
30
0
41
1
10
88.7460247822514
20
8.37660679802585
30
0
41
1
10
88.745953177609
20
8.37562432415768
30
0
41
1
10
88.7458980269139
20
8.37484814187687
30
0
41
1
10
88.745874118614
20
8.3745093158017
30
0
0
SPLINE
5
1DC
100
AcDbEntity
8
1
62
256
6
ByLayer
370
-1
48
1
60
0
100
AcDbSpline
70
4
71
3
72
48
73
44
40
0
40
0
40
0
40
0
40
0.015625
40
0.0234375
40
0.02734375
40
0.029296875
40
0.0302734375
40
0.03125
40
0.03173828125
40
0.046875
40
0.0625
40
0.125
40
0.1875
40
0.25
40
0.3125
40
0.375
40
0.390625
40
0.40625
40
0.4140625
40
0.421875
40
0.4375
40
0.5
40
0.5625
40
0.59375
40
0.6015625
40
0.60546875
40
0.609375
40
0.6171875
40
0.625
40
0.65625
40
0.671875
40
0.6796875
40
0.6875
40
0.71875
40
0.75
40
0.78125
40
0.7890625
40
0.79296875
40
0.796875
40
0.8046875
40
0.8125
40
0.875
40
1
40
1
40
1
40
1
41
1
10
91.7988609248357
20
3.83587189581428
30
0
41
1
10
91.7990177912125
20
3.83136267155777
30
0
41
1
10
91.7993389712515
20
3.82447519453694
30
0
41
1
10
91.7998384575182
20
3.81690231541649
30
0
41
1
10
91.8001134733966
20
3.81330511529856
30
0
41
1
10
91.8002559764565
20
3.81156880375966
30
0
41
1
10
91.8003395179223
20
3.81058454534642
30
0
41
1
10
91.8003921127391
20
3.80996900593536
30
0
41
1
10
91.8007494271473
20
3.80577187153267
30
0
41
1
10
91.8014220289716
20
3.79787173025213
30
0
41
1
10
91.8034293250409
20
3.77429474611793
30
0
41
1
10
91.8064560332503
20
3.73874411035538
30
0
41
1
10
91.8104916441961
20
3.69134326267201
30
0
41
1
10
91.8145272551419
20
3.6439424149886
30
0
41
1
10
91.8185628660877
20
3.59654156730522
30
0
41
1
10
91.8215890117229
20
3.56100064102867
30
0
41
1
10
91.8236079423442
20
3.53728079821497
30
0
41
1
10
91.8244486008622
20
3.52740723986193
30
0
41
1
10
91.8251193274393
20
3.51953946353473
30
0
41
1
10
91.8257780346312
20
3.51161340235447
30
0
41
1
10
91.8275579839649
20
3.48944776731418
30
0
41
1
10
91.8302697626629
20
3.45136460904561
30
0
41
1
10
91.8328361605867
20
3.40694200966985
30
0
41
1
10
91.8342522559778
20
3.37768846244197
30
0
41
1
10
91.8348063200589
20
3.36527548253898
30
0
41
1
10
91.8350017056147
20
3.36078383650911
30
0
41
1
10
91.8351946563901
20
3.35626275527204
30
0
41
1
10
91.8354355065214
20
3.35057544478477
30
0
41
1
10
91.8360137062465
20
3.33694383664394
30
0
41
1
10
91.8366884360713
20
3.32104357622137
30
0
41
1
10
91.8373626696898
20
3.30513335272388
30
0
41
1
10
91.8377487670091
20
3.29605828019811
30
0
41
1
10
91.8383065285578
20
3.28243634391666
30
0
41
1
10
91.8390710406852
20
3.26189823728595
30
0
41
1
10
91.8399282060799
20
3.23448812040371
30
0
41
1
10
91.8404432109447
20
3.21406312854242
30
0
41
1
10
91.8407091561764
20
3.20167840530471
30
0
41
1
10
91.8407997653855
20
3.19719322965582
30
0
41
1
10
91.8408874630951
20
3.19270627312992
30
0
41
1
10
91.8409962807781
20
3.18708982219258
30
0
41
1
10
91.8414322289452
20
3.16463054920533
30
0
41
1
10
91.8425220993628
20
3.10848236673724
30
0
41
1
10
91.8435683749638
20
3.05458011156787
30
0
41
1
10
91.844265892031
20
3.01864527478827
30
0
0
SPLINE
5
1DD
100
AcDbEntity
8
1
62
256
6
ByLayer
370
-1
48
1
60
0
100
AcDbSpline
70
4
71
3
72
13
73
9
40
0
40
0
40
0
40
0
40
0.312317913031033
40
0.624635826062066
40
0.9369537390931
40
0.975993478221979
40
0.99490335186253
40
1
40
1
40
1
40
1
41
1
10
88.8147883052946
20
5.854469996761
30
0
41
1
10
88.8229820414543
20
5.61893581408435
30
0
41
1
10
88.8393695137736
20
5.14786744873106
30
0
41
1
10
88.8639507222527
20
4.44126490070113
30
0
41
1
10
88.881362411592
20
3.94075476251328
30
0
41
1
10
88.8910764698907
20
3.66151794828528
30
0
41
1
10
88.8927305038291
20
3.61397168560248
30
0
41
1
10
88.8933602073086
20
3.59586717096872
30
0
41
1
10
88.8934938885336
20
3.59202353315698
30
0
0
SPLINE
5
1DE
100
AcDbEntity
8
1
62
256
6
ByLayer
370
-1
48
1
60
0
100
AcDbSpline
70
4
71
3
72
22
73
18
40
0
40
0
40
0
40
0
40
0.01782340392254
40
0.0278216291116544
40
0.0378198543007689
40
0.112806543219127
40
0.187793232137486
40
0.337766609974203
40
0.497738213000034
40
0.657709816025866
40
0.817681419051697
40
0.897667220564613
40
0.977653022077529
40
0.982652134672086
40
0.987651247266643
40
0.997649472455758
40
1
40
1
40
1
40
1
41
1
10
88.9020238178416
20
3.47245244629693
30
0
41
1
10
88.9021364880409
20
3.47163986530578
30
0
41
1
10
88.9023132438716
20
3.47037151072286
30
0
41
1
10
88.9025543913932
20
3.46864728666031
30
0
41
1
10
88.9031608061545
20
3.46431690685605
30
0
41
1
10
88.9041820730907
20
3.45702364013485
30
0
41
1
10
88.906096791787
20
3.44334877626966
30
0
41
1
10
88.9085538128759
20
3.42579938206347
30
0
41
1
10
88.9115532931662
20
3.40437544627932
30
0
41
1
10
88.9146165921861
20
3.38249568207422
30
0
41
1
10
88.9171693413693
20
3.36426254523661
30
0
41
1
10
88.9192203125879
20
3.34962529217617
30
0
41
1
10
88.9202698372435
20
3.34212427971241
30
0
41
1
10
88.9208367908366
20
3.33806471811519
30
0
41
1
10
88.9209624813723
20
3.33716540347171
30
0
41
1
10
88.9210709328729
20
3.3363914340882
30
0
41
1
10
88.9211475492355
20
3.33584716373957
30
0
41
1
10
88.9211621162695
20
3.33574379342698
30
0
0
SPLINE
5
1DF
100
AcDbEntity
8
1
62
256
6
ByLayer
370
-1
48
1
60
0
100
AcDbSpline
70
4
71
3
72
22
73
18
40
0
40
0
40
0
40
0
40
0.0023505275439915
40
0.0123487527331114
40
0.0223469779222314
40
0.0623398786787112
40
0.102332779435182
40
0.182318580948151
40
0.262304382461105
40
0.34229018397407
40
0.662233390025908
40
0.812206767862707
40
0.957493477642092
40
0.962180145699506
40
0.972178370888621
40
0.982176596077746
40
1
40
1
40
1
40
1
41
1
10
89.3338160834188
20
2.94946784711007
30
0
41
1
10
89.3339198256744
20
2.94946047080103
30
0
41
1
10
89.3344660486272
20
2.94942171550309
30
0
41
1
10
89.3354665837381
20
2.94935136706059
30
0
41
1
10
89.338181199589
20
2.94916179486833
30
0
41
1
10
89.3422719972555
20
2.94887549730524
30
0
41
1
10
89.3495826641036
20
2.94836260525025
30
0
41
1
10
89.3587633531542
20
2.94771713819415
30
0
41
1
10
89.3697546603889
20
2.94694519984472
30
0
41
1
10
89.3917117552322
20
2.94540394526379
30
0
41
1
10
89.4168709264069
20
2.94363792438981
30
0
41
1
10
89.4450177491586
20
2.94166218853704
30
0
41
1
10
89.458740962449
20
2.94069869935811
30
0
41
1
10
89.4660600250111
20
2.9401847290942
30
0
41
1
10
89.4671893337298
20
2.94010542341007
30
0
41
1
10
89.4689196340596
20
2.93998422020178
30
0
41
1
10
89.4701924141428
20
2.9398956973487
30
0
41
1
10
89.4710077906196
20
2.93983955505945
30
0
0
SPLINE
5
1E0
100
AcDbEntity
8
1
62
256
6
ByLayer
370
-1
48
1
60
0
100
AcDbSpline
70
4
71
3
72
19
73
15
40
0
40
0
40
0
40
0
40
0.0403657336156618
40
0.106300330648712
40
0.172234927681762
40
0.238169524714812
40
0.370038718780912
40
0.501907912847012
40
0.765646300979212
40
0.831580898012262
40
0.897515495045312
40
0.930482793561837
40
0.963450092078362
40
1
40
1
40
1
40
1
41
1
10
94.1341177562753
20
3.09891565904792
30
0
41
1
10
94.1352397411882
20
3.09895651052443
30
0
41
1
10
94.1381940723859
20
3.09906694524861
30
0
41
1
10
94.1429794154219
20
3.09926691698419
30
0
41
1
10
94.1484746546989
20
3.09953962652622
30
0
41
1
10
94.1558000903301
20
3.09995671215398
30
0
41
1
10
94.1649523328029
20
3.1005709642848
30
0
41
1
10
94.1795821025019
20
3.10175543547143
30
0
41
1
10
94.1923596238477
20
3.10306111940608
30
0
41
1
10
94.2032884614629
20
3.10436448038246
30
0
41
1
10
94.2078373090882
20
3.104940763233
30
0
41
1
10
94.2114729178853
20
3.10542322811406
30
0
41
1
10
94.2142971135626
20
3.10580743366461
30
0
41
1
10
94.2162122703728
20
3.10607333357788
30
0
41
1
10
94.2172191465639
20
3.10621401282111
30
0
0
SPLINE
5
1E1
100
AcDbEntity
8
1
62
256
6
ByLayer
370
-1
48
1
60
0
100
AcDbSpline
70
4
71
3
72
22
73
18
40
0
40
0
40
0
40
0
40
0.0023505275440861
40
0.0123487527332021
40
0.0223469779223181
40
0.0623398786787821
40
0.102332779435237
40
0.182318580948174
40
0.262304382461098
40
0.34229018397403
40
0.662233390025743
40
0.812206767862483
40
0.957493477641811
40
0.962180145699223
40
0.972178370888335
40
0.982176596077455
40
1
40
1
40
1
40
1
41
1
10
94.1502716666527
20
8.96469712339723
30
0
41
1
10
94.1501679243972
20
8.9647044997063
30
0
41
1
10
94.1496217014443
20
8.96474325500421
30
0
41
1
10
94.1486211663334
20
8.96481360344674
30
0
41
1
10
94.1459065504825
20
8.96500317563897
30
0
41
1
10
94.1418157528161
20
8.96528947320206
30
0
41
1
10
94.1345050859679
20
8.96580236525705
30
0
41
1
10
94.1253243969173
20
8.96644783231315
30
0
41
1
10
94.1143330896826
20
8.96721977066258
30
0
41
1
10
94.0923759948393
20
8.96876102524351
30
0
41
1
10
94.0672168236646
20
8.9705270461175
30
0
41
1
10
94.0390700009129
20
8.97250278197026
30
0
41
1
10
94.0253467876225
20
8.97346627114919
30
0
41
1
10
94.0180277250604
20
8.9739802414131
30
0
41
1
10
94.0168984163417
20
8.97405954709726
30
0
41
1
10
94.0151681160119
20
8.97418075030555
30
0
41
1
10
94.0138953359286
20
8.97426927315863
30
0
41
1
10
94.0130799594519
20
8.97432541544785
30
0
0
SPLINE
5
1E2
100
AcDbEntity
8
1
62
256
6
ByLayer
370
-1
48
1
60
0
100
AcDbSpline
70
4
71
3
72
153
73
149
40
0
40
0
40
0
40
0
40
0.125
40
0.25
40
0.375
40
0.3828125
40
0.390625
40
0.398193359375
40
0.4019775390625
40
0.405643463134766
40
0.40576171875
40
0.406005859375
40
0.40625
40
0.4072265625
40
0.40771484375
40
0.408203125
40
0.4091796875
40
0.41015625
40
0.412109375
40
0.4140625
40
0.416015625
40
0.4169921875
40
0.41796875
40
0.4189453125
40
0.41943359375
40
0.419921875
40
0.42041015625
40
0.4208984375
40
0.421875
40
0.422119140625
40
0.42236328125
40
0.422477722167969
40
0.426025390625
40
0.4296875
40
0.4375
40
0.439453125
40
0.44140625
40
0.443359375
40
0.4443359375
40
0.4453125
40
0.445556640625
40
0.44580078125
40
0.446044921875
40
0.4462890625
40
0.4464111328125
40
0.44677734375
40
0.447265625
40
0.44921875
40
0.453125
40
0.4609375
40
0.46484375
40
0.46875
40
0.46923828125
40
0.4697265625
40
0.47021484375
40
0.4705810546875
40
0.470703125
40
0.4708251953125
40
0.47119140625
40
0.471435546875
40
0.4716796875
40
0.4718017578125
40
0.47216796875
40
0.472412109375
40
0.47265625
40
0.4727783203125
40
0.474609375
40
0.4755859375
40
0.4765625
40
0.48046875
40
0.482421875
40
0.484375
40
0.486328125
40
0.48828125
40
0.490234375
40
0.4921875
40
0.494140625
40
0.49609375
40
0.498046875
40
0.5
40
0.501953125
40
0.50390625
40
0.505859375
40
0.5078125
40
0.509765625
40
0.51171875
40
0.515625
40
0.51953125
40
0.5224609375
40
0.5234375
40
0.525390625
40
0.5263671875
40
0.527099609375
40
0.52734375
40
0.52783203125
40
0.528076171875
40
0.5283203125
40
0.5284423828125
40
0.52880859375
40
0.529052734375
40
0.529296875
40
0.5294189453125
40
0.52978515625
40
0.5302734375
40
0.53125
40
0.5390625
40
0.546875
40
0.55078125
40
0.5517578125
40
0.552734375
40
0.55322265625
40
0.5537109375
40
0.553955078125
40
0.55419921875
40
0.554443359375
40
0.5545654296875
40
0.5546875
40
0.556640625
40
0.55859375
40
0.5625
40
0.56640625
40
0.5703125
40
0.573974609375
40
0.5758056640625
40
0.57763671875
40
0.577880859375
40
0.578125
40
0.5791015625
40
0.57958984375
40
0.580078125
40
0.5810546875
40
0.58203125
40
0.5859375
40
0.587890625
40
0.58984375
40
0.5908203125
40
0.591796875
40
0.5927734375
40
0.59375
40
0.593994140625
40
0.59423828125
40
0.594380187988281
40
0.601806640625
40
0.609375
40
0.625
40
0.75
40
0.875
40
1
40
1
40
1
40
1
41
1
10
89.6119297511603
20
5.88300817921638
30
0
41
1
10
89.605873644369
20
6.05709483949931
30
0
41
1
10
89.5937614307866
20
6.40526816006516
30
0
41
1
10
89.5755931104129
20
6.92752814091392
30
0
41
1
10
89.5631023901559
20
7.28658187774747
30
0
41
1
10
89.5562892700157
20
7.48242937056574
30
0
41
1
10
89.555165578326
20
7.51473060636042
30
0
41
1
10
89.5542370541402
20
7.54142162751708
30
0
41
1
10
89.5535094268075
20
7.5623377402348
30
0
41
1
10
89.5531427484667
20
7.57287814349411
30
0
41
1
10
89.5529475809627
20
7.57848835813215
30
0
41
1
10
89.5529181949464
20
7.5793330779498
30
0
41
1
10
89.552847224945
20
7.58137315599998
30
0
41
1
10
89.5527644266099
20
7.58375324705855
30
0
41
1
10
89.5526697999413
20
7.58647335112545
30
0
41
1
10
89.5525751732727
20
7.58919345519237
30
0
41
1
10
89.5524568899369
20
7.59259358527603
30
0
41
1
10
89.5522676365997
20
7.59803379340988
30
0
41
1
10
89.5520310699281
20
7.60483405357718
30
0
41
1
10
89.5517471899223
20
7.61299436577795
30
0
41
1
10
89.5515106232508
20
7.61979462594525
30
0
41
1
10
89.5513213699136
20
7.62523483407907
30
0
41
1
10
89.5511794299106
20
7.62931499017947
30
0
41
1
10
89.5510611465749
20
7.6327151202631
30
0
41
1
10
89.5509665199062
20
7.63543522433002
30
0
41
1
10
89.5508955499048
20
7.63747530238021
30
0
41
1
10
89.5508245799033
20
7.63951538043042
30
0
41
1
10
89.5507299532347
20
7.64223548449732
30
0
41
1
10
89.5506471548997
20
7.64461557555589
30
0
41
1
10
89.5505761848983
20
7.64665565360608
30
0
41
1
10
89.5505469836997
20
7.64749506072047
30
0
41
1
10
89.5503577303625
20
7.65293526885432
30
0
41
1
10
89.5500028803552
20
7.66313565910528
30
0
41
1
10
89.5492750682048
20
7.68405708452624
30
0
41
1
10
89.5486245098581
20
7.70275779998633
30
0
41
1
10
89.5480567498464
20
7.71907842438785
30
0
41
1
10
89.5477728560882
20
7.72723893483536
30
0
41
1
10
89.5475362550358
20
7.73403969061954
30
0
41
1
10
89.5473469535654
20
7.73948059261704
30
0
41
1
10
89.5472404624633
20
7.74254123009007
30
0
41
1
10
89.5471694640976
20
7.74458171702418
30
0
41
1
10
89.5471339640284
20
7.74560197326886
30
0
41
1
10
89.5470984630459
20
7.74662224267837
30
0
41
1
10
89.5470688781105
20
7.74747247847966
30
0
41
1
10
89.5470333754627
20
7.7484927718956
30
0
41
1
10
89.5469860372918
20
7.74985318196065
30
0
41
1
10
89.5468499332034
20
7.75376445960154
30
0
41
1
10
89.5465421730548
20
7.76260801932881
30
0
41
1
10
89.5458790162431
20
7.78165984961558
30
0
41
1
10
89.545120242594
20
7.80344605773567
30
0
41
1
10
89.5443637556094
20
7.82519930247364
30
0
41
1
10
89.5439632425492
20
7.83673595514736
30
0
41
1
10
89.5437282857111
20
7.84351300878268
30
0
41
1
10
89.5436576560801
20
7.84554818022568
30
0
41
1
10
89.5435926118013
20
7.84741808518933
30
0
41
1
10
89.5435446376859
20
7.84878766270404
30
0
41
1
10
89.5435142868361
20
7.84964893953315
30
0
41
1
10
89.5434837311337
20
7.85051316941286
30
0
41
1
10
89.5434469863164
20
7.85155205184191
30
0
41
1
10
89.5434058134653
20
7.8527436126557
30
0
41
1
10
89.5433780629406
20
7.85357422988341
30
0
41
1
10
89.5433468756081
20
7.85454460155907
30
0
41
1
10
89.5433188999
20
7.8554847401092
30
0
41
1
10
89.5432926684825
20
7.85655902767107
30
0
41
1
10
89.5432782493377
20
7.85732170473267
30
0
41
1
10
89.5432397704143
20
7.8600768948431
30
0
41
1
10
89.5432841372776
20
7.86381694089275
30
0
41
1
10
89.543523817236
20
7.86873026375858
30
0
41
1
10
89.5440940935606
20
7.8764032421719
30
0
41
1
10
89.5453482243067
20
7.88547672420424
30
0
41
1
10
89.5476450697939
20
7.89590577913327
30
0
41
1
10
89.5498134916592
20
7.90373037445329
30
0
41
1
10
89.5524417124215
20
7.91153089743094
30
0
41
1
10
89.5555293037028
20
7.9192626615538
30
0
41
1
10
89.5590758371258
20
7.92688098030945
30
0
41
1
10
89.5630743698104
20
7.93434635352881
30
0
41
1
10
89.5675179588766
20
7.94161928104288
30
0
41
1
10
89.5723900255932
20
7.94866111265222
30
0
41
1
10
89.5776739912287
20
7.95543319815744
30
0
41
1
10
89.5833446506363
20
7.96190121999089
30
0
41
1
10
89.5893767986693
20
7.96803086058497
30
0
41
1
10
89.5957380898486
20
7.97379448627387
30
0
41
1
10
89.6023961786952
20
7.9791644633917
30
0
41
1
10
89.609313812351
20
7.98412149431658
30
0
41
1
10
89.6164537379577
20
7.98864628142664
30
0
41
1
10
89.6262183351093
20
7.99409006206568
30
0
41
1
10
89.6387859629568
20
7.99976563924758
30
0
41
1
10
89.652815673259
20
8.00432668448258
30
0
41
1
10
89.6630205539844
20
8.00663011372239
30
0
41
1
10
89.6706333086114
20
8.00794147852181
30
0
41
1
10
89.6756811038193
20
8.00861065705595
30
0
41
1
10
89.6803435378276
20
8.0090477890665
30
0
41
1
10
89.6828015535535
20
8.00922206073207
30
0
41
1
10
89.6846305909388
20
8.00932763771274
30
0
41
1
10
89.6858423435715
20
8.0093854758594
30
0
41
1
10
89.6870854295021
20
8.00943667169412
30
0
41
1
10
89.6878835260251
20
8.00946713150151
30
0
41
1
10
89.6888675939353
20
8.00950340647657
30
0
41
1
10
89.6898815212606
20
8.00953935826749
30
0
41
1
10
89.6910848959139
20
8.00958103141318
30
0
41
1
10
89.6919473458551
20
8.0096107197684
30
0
41
1
10
89.6929769776978
20
8.00964634424639
30
0
41
1
10
89.694341366535
20
8.00969384108453
30
0
41
1
10
89.6968815333653
20
8.00978289238753
30
0
41
1
10
89.7097068881287
20
8.01023407258154
30
0
41
1
10
89.7327200816782
20
8.01104146591314
30
0
41
1
10
89.7598492894716
20
8.01199135642355
30
0
41
1
10
89.777472980066
20
8.01260878225256
30
0
41
1
10
89.7856055063301
20
8.0128937475867
30
0
41
1
10
89.7889938320988
20
8.01301248307644
30
0
41
1
10
89.7917043689822
20
8.01310747143214
30
0
41
1
10
89.7933984055572
20
8.01316683914015
30
0
41
1
10
89.7947536069775
20
8.01321433329844
30
0
41
1
10
89.7957699945097
20
8.0132499539132
30
0
41
1
10
89.7966169731644
20
8.01327963775566
30
0
41
1
10
89.7972945497082
20
8.01330338482776
30
0
41
1
10
89.8003436253059
20
8.01341024664671
30
0
41
1
10
89.8059333080121
20
8.01360615989708
30
0
41
1
10
89.8167731128934
20
8.01398611263653
30
0
41
1
10
89.830321879142
20
8.0144610532721
30
0
41
1
10
89.8465803986404
20
8.01503098203477
30
0
41
1
10
89.8625001989825
20
8.01558903728159
30
0
41
1
10
89.8755408864968
20
8.01604616764331
30
0
41
1
10
89.8857024611833
20
8.01640237312
30
0
41
1
10
89.8911219676828
20
8.01659234937424
30
0
41
1
10
89.8943397996668
20
8.01670514777518
30
0
41
1
10
89.896372114604
20
8.01677638887051
30
0
41
1
10
89.8987431486976
20
8.01685950348173
30
0
41
1
10
89.9014529019473
20
8.01695449160886
30
0
41
1
10
89.904162655197
20
8.01704947973596
30
0
41
1
10
89.9075498467592
20
8.01716821489487
30
0
41
1
10
89.9156791065084
20
8.0174531792762
30
0
41
1
10
89.9251632428824
20
8.01778563772112
30
0
41
1
10
89.9360022558813
20
8.01816559022956
30
0
41
1
10
89.9427766390056
20
8.01840306054734
30
0
41
1
10
89.9481961455051
20
8.01859303680158
30
0
41
1
10
89.9522607753797
20
8.01873551899226
30
0
41
1
10
89.9563254052542
20
8.01887800118291
30
0
41
1
10
89.9593738776601
20
8.01898486282593
30
0
41
1
10
89.9614061925975
20
8.01905610392126
30
0
41
1
10
89.9622805114195
20
8.01908675243416
30
0
41
1
10
89.9731195244183
20
8.0194667049426
30
0
41
1
10
89.9941201121037
20
8.02020286292773
30
0
41
1
10
90.0366018452773
20
8.0216920244487
30
0
41
1
10
90.2422043731002
20
8.02889924859349
30
0
41
1
10
90.6107308150626
20
8.04181763388107
30
0
41
1
10
91.1310034390096
20
8.06005535428707
30
0
41
1
10
91.4778518549743
20
8.07221383455772
30
0
41
1
10
91.6512760629567
20
8.07829307469305
30
0
0
SPLINE
5
1E3
100
AcDbEntity
8
1
62
256
6
ByLayer
370
-1
48
1
60
0
100
AcDbSpline
70
4
71
3
72
23
73
19
40
0
40
0
40
0
40
0
40
0.0365499079217384
40
0.0695172064382657
40
0.102484504954793
40
0.13545180347132
40
0.168419101987848
40
0.234353699020903
40
0.300288296053942
40
0.366222893087012
40
0.498092087153121
40
0.629961281219223
40
0.76183047528534
40
0.827765072318391
40
0.89369966935145
40
0.926666967867977
40
0.959634266384504
40
1
40
1
40
1
40
1
41
1
10
88.7362824651215
20
8.23679355856734
30
0
41
1
10
88.7362128987214
20
8.23577548505347
30
0
41
1
10
88.7360822504774
20
8.23383914746125
30
0
41
1
10
88.7358974452205
20
8.23098426886853
30
0
41
1
10
88.7357280570313
20
8.22822857289995
30
0
41
1
10
88.7355694423431
20
8.22547188763591
30
0
41
1
10
88.7353718076321
20
8.22179514288464
30
0
41
1
10
88.7351497737655
20
8.21719731868723
30
0
41
1
10
88.7349202695924
20
8.21167782840536
30
0
41
1
10
88.734664021196
20
8.20431617935412
30
0
41
1
10
88.7344379589127
20
8.19511063861958
30
0
41
1
10
88.7343205325846
20
8.18406126057235
30
0
41
1
10
88.7343485366238
20
8.17485358952118
30
0
41
1
10
88.7344450468245
20
8.16748899004898
30
0
41
1
10
88.7345386455689
20
8.16288747655332
30
0
41
1
10
88.734634933665
20
8.15920751482395
30
0
41
1
10
88.7347223258651
20
8.15624141786407
30
0
41
1
10
88.7347887856881
20
8.15419520793682
30
0
41
1
10
88.7348264545083
20
8.1530688311077
30
0
0
SPLINE
5
1E4
100
AcDbEntity
8
1
62
256
6
ByLayer
370
-1
48
1
60
0
100
AcDbSpline
70
4
71
3
72
8
73
4
40
0
40
0
40
0
40
0
40
1
40
1
40
1
40
1
41
1
10
94.5892705258548
20
8.35829133932538
30
0
41
1
10
94.5897334315444
20
8.3462421892275
30
0
41
1
10
94.590174496102
20
8.33419219361176
30
0
41
1
10
94.5905937166067
20
8.32214143227108
30
0
0
SPLINE
5
1E5
100
AcDbEntity
8
1
62
256
6
ByLayer
370
-1
48
1
60
0
100
AcDbSpline
70
4
71
3
72
13
73
9
40
0
40
0
40
0
40
0
40
0.312317913031033
40
0.624635826062065
40
0.936953739093098
40
0.975993478221977
40
0.994903351862528
40
1
40
1
40
1
40
1
41
1
10
91.8442658920301
20
3.01864527478824
30
0
41
1
10
92.078903796032
20
3.02687030968892
30
0
41
1
10
92.5481796040357
20
3.04332037949027
30
0
41
1
10
93.2520933160412
20
3.06799548419232
30
0
41
1
10
93.7506988620451
20
3.08547368335627
30
0
41
1
10
94.0288730958911
20
3.09522484777952
30
0
41
1
10
94.0762384306898
20
3.09688519985886
30
0
41
1
10
94.0942740521794
20
3.09751730870337
30
0
41
1
10
94.0981030637889
20
3.09765150056893
30
0
0
SPLINE
5
1E6
100
AcDbEntity
8
1
62
256
6
ByLayer
370
-1
48
1
60
0
100
AcDbSpline
70
4
71
3
72
8
73
4
40
0
40
0
40
0
40
0
40
1
40
1
40
1
40
1
41
1
10
88.7360825771244
20
8.11691645528578
30
0
41
1
10
88.7356633579666
20
8.12896717790647
30
0
41
1
10
88.7352659827212
20
8.14101866624713
30
0
41
1
10
88.7348904540195
20
8.15307084050559
30
0
0
SPLINE
5
1E7
100
AcDbEntity
8
1
62
256
6
ByLayer
370
-1
48
1
60
0
100
AcDbSpline
70
4
71
3
72
79
73
75
40
0
40
0
40
0
40
0
40
0.0017245864915959
40
0.0039792263717234
40
0.0084885061319784
40
0.0129977858922334
40
0.0220163454127434
40
0.0310349049332534
40
0.0671091430152934
40
0.139257619179373
40
0.211406095343454
40
0.220424654863964
40
0.224933934624219
40
0.22831589444441
40
0.229443214384474
40
0.231697854264601
40
0.233952494144729
40
0.23733445396492
40
0.238461773904984
40
0.240716413785111
40
0.242971053665239
40
0.247480333425494
40
0.249734973305621
40
0.256498892946004
40
0.265517452466514
40
0.283554571507534
40
0.292573131028044
40
0.319628809589574
40
0.355703047671614
40
0.391777285753654
40
0.409814404794674
40
0.427851523835694
40
0.445888642876714
40
0.463925761917734
40
0.481962880958754
40
0.499999999999774
40
0.518037119040794
40
0.536074238081814
40
0.554111357122833
40
0.572148476163854
40
0.590185595204873
40
0.608222714245894
40
0.626259833286913
40
0.644296952327934
40
0.662334071368954
40
0.680371190409975
40
0.716445428492014
40
0.725463988012523
40
0.734482547533035
40
0.751392346633989
40
0.752519666574054
40
0.754774306454182
40
0.757028946334309
40
0.760410906154504
40
0.761538226094564
40
0.763792865974694
40
0.766047505854818
40
0.769429465675013
40
0.770556785615074
40
0.771684105555137
40
0.77506606537533
40
0.779575345135584
40
0.784084624895839
40
0.788593904656094
40
0.824668142738134
40
0.860742380820174
40
0.932890856984254
40
0.968965095066294
40
0.987002214107315
40
0.991511493867571
40
0.99489345368776
40
0.996020773627825
40
0.998275413507952
40
1
40
1
40
1
40
1
41
1
10
94.3534075817362
20
3.12542541643992
30
0
41
1
10
94.3537426284946
20
3.12547299291603
30
0
41
1
10
94.3545101265032
20
3.12558236315911
30
0
41
1
10
94.3561247918241
20
3.12581547618791
30
0
41
1
10
94.3582325663781
20
3.12612993016177
30
0
41
1
10
94.3615749802311
20
3.12664928475019
30
0
41
1
10
94.3657867586207
20
3.12733986525109
30
0
41
1
10
94.3759509278189
20
3.12912476954264
30
0
41
1
10
94.3979936973284
20
3.13365605304273
30
0
41
1
10
94.4321368127573
20
3.14319597584856
30
0
41
1
10
94.4609424485741
20
3.15433005019966
30
0
41
1
10
94.4768305444584
20
3.16151544752552
30
0
41
1
10
94.4799588582118
20
3.16296524001666
30
0
41
1
10
94.481624865033
20
3.16374828984311
30
0
41
1
10
94.4828732992281
20
3.1643397853897
30
0
41
1
10
94.4839129853357
20
3.16483532773378
30
0
41
1
10
94.4853672606612
20
3.16553399251234
30
0
41
1
10
94.4866123797578
20
3.16613810103865
30
0
41
1
10
94.4878563460651
20
3.16674640850127
30
0
41
1
10
94.4888922577651
20
3.16725595500009
30
0
41
1
10
94.4905481384985
20
3.16807682335965
30
0
41
1
10
94.4922016113173
20
3.16890607804126
30
0
41
1
10
94.4946780858713
20
3.17016252568601
30
0
41
1
10
94.4979733033642
20
3.1718601157759
30
0
41
1
10
94.5041286178645
20
3.17511623495002
30
0
41
1
10
94.5106492105554
20
3.17872287065111
30
0
41
1
10
94.5203546260524
20
3.18433209999142
30
0
41
1
10
94.5331541055066
20
3.19216311058574
30
0
41
1
10
94.5503641243758
20
3.20376174463499
30
0
41
1
10
94.5655361708988
20
3.21514702901632
30
0
41
1
10
94.5773510917711
20
3.22473797646637
30
0
41
1
10
94.5860412589422
20
3.23216706627127
30
0
41
1
10
94.5945507373199
20
3.23982655453838
30
0
41
1
10
94.6028710783737
20
3.24770903479103
30
0
41
1
10
94.6109938335725
20
3.25580710055246
30
0
41
1
10
94.6189105543858
20
3.26411334534603
30
0
41
1
10
94.6266127922827
20
3.27262036269499
30
0
41
1
10
94.6340937762834
20
3.28131917580569
30
0
41
1
10
94.6413467354077
20
3.29020080788447
30
0
41
1
10
94.6483648986758
20
3.29925628213766
30
0
41
1
10
94.6551414951078
20
3.30847662177157
30
0
41
1
10
94.6616717523223
20
3.31785176587215
30
0
41
1
10
94.6679508979382
20
3.32737165352543
30
0
41
1
10
94.6739741595742
20
3.33702622381733
30
0
41
1
10
94.6797367648492
20
3.34680541583384
30
0
41
1
10
94.6870692272221
20
3.35999637202824
30
0
41
1
10
94.6930198756968
20
3.37171945863275
30
0
41
1
10
94.6977816004099
20
3.38187061275855
30
0
41
1
10
94.7007692778254
20
3.38845141403189
30
0
41
1
10
94.7029847447446
20
3.3935719804696
30
0
41
1
10
94.7045953588167
20
3.39742398233415
30
0
41
1
10
94.7050400958163
20
3.39849457936759
30
0
41
1
10
94.7056577691131
20
3.3999945046109
30
0
41
1
10
94.7061818896012
20
3.40128129620948
30
0
41
1
10
94.7067017577741
20
3.40256896993546
30
0
41
1
10
94.7071323232833
20
3.40364257624827
30
0
41
1
10
94.7077301524429
20
3.40514661808621
30
0
41
1
10
94.7082372593304
20
3.40643683491243
30
0
41
1
10
94.708656301914
20
3.40751268185244
30
0
41
1
10
94.7090735710722
20
3.40858885761483
30
0
41
1
10
94.709735526185
20
3.41031177729516
30
0
41
1
10
94.7106320535193
20
3.41268319124239
30
0
41
1
10
94.7115930445659
20
3.41527301446774
30
0
41
1
10
94.7147395289987
20
3.42391462835502
30
0
41
1
10
94.7196537096856
20
3.43866901204836
30
0
41
1
10
94.7274654447626
20
3.46654969614011
30
0
41
1
10
94.7331444582366
20
3.4944341116163
30
0
41
1
10
94.7363379861209
20
3.51854550982708
30
0
41
1
10
94.7374256377034
20
3.52970003839547
30
0
41
1
10
94.737832396981
20
3.53456344104038
30
0
41
1
10
94.7379659065344
20
3.5362677182749
30
0
41
1
10
94.7380629678202
20
3.53755817248145
30
0
41
1
10
94.7381345724626
20
3.53854064634962
30
0
41
1
10
94.7381897231576
20
3.53931682863043
30
0
41
1
10
94.7382136314575
20
3.5396556547056
30
0
0
SPLINE
5
1E8
100
AcDbEntity
8
1
62
256
6
ByLayer
370
-1
48
1
60
0
100
AcDbSpline
70
4
71
3
72
79
73
75
40
0
40
0
40
0
40
0
40
0.0017245864916246
40
0.0039792263717522
40
0.0084885061320073
40
0.0129977858922624
40
0.0220163454127726
40
0.0310349049332828
40
0.0671091430153236
40
0.139257619179405
40
0.211406095343487
40
0.220424654863997
40
0.224933934624252
40
0.228315894444444
40
0.229443214384507
40
0.231697854264635
40
0.233952494144762
40
0.237334453964954
40
0.238461773905018
40
0.240716413785145
40
0.242971053665273
40
0.247480333425528
40
0.249734973305655
40
0.256498892946038
40
0.265517452466548
40
0.283554571507569
40
0.292573131028079
40
0.319628809589609
40
0.35570304767165
40
0.391777285753691
40
0.409814404794711
40
0.427851523835732
40
0.445888642876752
40
0.463925761917773
40
0.481962880958793
40
0.499999999999814
40
0.518037119040833
40
0.536074238081854
40
0.554111357122874
40
0.572148476163895
40
0.590185595204914
40
0.608222714245936
40
0.626259833286956
40
0.644296952327976
40
0.662334071368997
40
0.680371190410019
40
0.716445428492058
40
0.725463988012568
40
0.734482547533081
40
0.751392346634035
40
0.752519666574099
40
0.754774306454227
40
0.757028946334354
40
0.76041090615455
40
0.761538226094609
40
0.763792865974739
40
0.766047505854864
40
0.769429465675058
40
0.770556785615119
40
0.771684105555182
40
0.775066065375376
40
0.77957534513563
40
0.784084624895885
40
0.78859390465614
40
0.824668142738181
40
0.860742380820221
40
0.932890856984303
40
0.968965095066344
40
0.987002214107364
40
0.991511493867621
40
0.994893453687811
40
0.996020773627875
40
0.998275413508002
40
1
40
1
40
1
40
1
41
1
10
94.562925633802
20
8.57842117708032
30
0
41
1
10
94.5628782383687
20
8.57875750366284
30
0
41
1
10
94.5627692843125
20
8.57952793338919
30
0
41
1
10
94.5625370583491
20
8.58114876646934
30
0
41
1
10
94.5622238009676
20
8.58326459237966
30
0
41
1
10
94.5617064226802
20
8.58661977371059
30
0
41
1
10
94.5610184700466
20
8.59084764040938
30
0
41
1
10
94.5592403578547
20
8.60105063508269
30
0
41
1
10
94.5547263172564
20
8.62317760439075
30
0
41
1
10
94.545222696737
20
8.65745114097379
30
0
41
1
10
94.5341309909003
20
8.68636680963974
30
0
41
1
10
94.5269729361806
20
8.70231559546926
30
0
41
1
10
94.5255286605876
20
8.70545585887291
30
0
41
1
10
94.5247485905022
20
8.70712822956955
30
0
41
1
10
94.5241593457746
20
8.70838143258038
30
0
41
1
10
94.5236656891188
20
8.70942509012005
30
0
41
1
10
94.5229696829707
20
8.71088492054102
30
0
41
1
10
94.5223678732597
20
8.71213479579038
30
0
41
1
10
94.5217618805906
20
8.71338351384685
30
0
41
1
10
94.52125427307
20
8.71442338256128
30
0
41
1
10
94.5204365283624
20
8.71608558848996
30
0
41
1
10
94.5196104292452
20
8.71774537730641
30
0
41
1
10
94.5183587627631
20
8.72023131159085
30
0
41
1
10
94.516667632516
20
8.72353911627926
30
0
41
1
10
94.5134239038584
20
8.72971794308103
30
0
41
1
10
94.509830992495
20
8.7362634433766
30
0
41
1
10
94.5042431079658
20
8.74600593198414
30
0
41
1
10
94.4964418967311
20
8.75885430337047
30
0
41
1
10
94.4848873989861
20
8.77613006171583
30
0
41
1
10
94.4735454390491
20
8.7913600629918
30
0
41
1
10
94.4639909880497
20
8.80322011494243
30
0
41
1
10
94.4565901681744
20
8.81194347714029
30
0
41
1
10
94.4489598265727
20
8.82048546034304
30
0
41
1
10
94.4411073415372
20
8.82883758374786
30
0
41
1
10
94.4330400913609
20
8.83699136655201
30
0
41
1
10
94.4247654543364
20
8.84493832795269
30
0
41
1
10
94.4162908087568
20
8.85266998714712
30
0
41
1
10
94.4076250972562
20
8.86017954729127
30
0
41
1
10
94.398777262469
20
8.86746021154119
30
0
41
1
10
94.3897562470292
20
8.87450518305283
30
0
41
1
10
94.3805709935713
20
8.88130766498224
30
0
41
1
10
94.3712315247245
20
8.88786286671845
30
0
41
1
10
94.3617478631178
20
8.8941659976505
30
0
41
1
10
94.3521300313807
20
8.90021226716749
30
0
41
1
10
94.3423880521422
20
8.90599688465846
30
0
41
1
10
94.3292472915186
20
8.91335735584647
30
0
41
1
10
94.3175688147979
20
8.91933073483162
30
0
41
1
10
94.3074562888783
20
8.92411064855952
30
0
41
1
10
94.3009005295406
20
8.92710973841736
30
0
41
1
10
94.2957994484041
20
8.92933366806025
30
0
41
1
10
94.2919621045696
20
8.93095043441645
30
0
41
1
10
94.2908955814812
20
8.93139687023915
30
0
41
1
10
94.2894013639062
20
8.93201690294762
30
0
41
1
10
94.2881194689381
20
8.93254302549076
30
0
41
1
10
94.2868366951995
20
8.93306487947564
30
0
41
1
10
94.2857671742828
20
8.93349708967514
30
0
41
1
10
94.2842688557782
20
8.934097202445
30
0
41
1
10
94.2829835486165
20
8.93460624639843
30
0
41
1
10
94.2819117955988
20
8.93502688965665
30
0
41
1
10
94.2808397150102
20
8.9354457527152
30
0
41
1
10
94.2791233515593
20
8.93611023638903
30
0
41
1
10
94.2767609615582
20
8.93701018831209
30
0
41
1
10
94.2741809933921
20
8.93797485018834
30
0
41
1
10
94.2655722634546
20
8.94113335368056
30
0
41
1
10
94.2508740246457
20
8.94606630573938
30
0
41
1
10
94.2230994349744
20
8.9539078803752
30
0
41
1
10
94.1953211281175
20
8.95960858675807
30
0
41
1
10
94.1713014810564
20
8.96281431340014
30
0
41
1
10
94.1601893988368
20
8.96390611963506
30
0
41
1
10
94.1553445029073
20
8.96431443266701
30
0
41
1
10
94.1536467109622
20
8.9644484522052
30
0
41
1
10
94.1523611673235
20
8.96454588424925
30
0
41
1
10
94.151382432065
20
8.96461776240974
30
0
41
1
10
94.1506092033922
20
8.96467312377143
30
0
41
1
10
94.1502716666525
20
8.96469712339723
30
0
0
SPLINE
5
1E9
100
AcDbEntity
8
1
62
256
6
ByLayer
370
-1
48
1
60
0
100
AcDbSpline
70
4
71
3
72
19
73
15
40
0
40
0
40
0
40
0
40
0.0403657336155524
40
0.106300330648607
40
0.172234927681662
40
0.238169524714717
40
0.370038718780827
40
0.501907912846937
40
0.765646300979157
40
0.831580898012212
40
0.897515495045267
40
0.930482793561794
40
0.963450092078321
40
1
40
1
40
1
40
1
41
1
10
89.3499699937962
20
8.81524931145938
30
0
41
1
10
89.3488480088833
20
8.81520845998287
30
0
41
1
10
89.3458936776855
20
8.81509802525869
30
0
41
1
10
89.3411083346496
20
8.81489805352311
30
0
41
1
10
89.3356130953726
20
8.81462534398108
30
0
41
1
10
89.3282876597414
20
8.81420825835332
30
0
41
1
10
89.3191354172686
20
8.81359400622253
30
0
41
1
10
89.3045056475697
20
8.81240953503587
30
0
41
1
10
89.2917281262238
20
8.81110385110122
30
0
41
1
10
89.2807992886086
20
8.80980049012484
30
0
41
1
10
89.2762504409832
20
8.8092242072743
30
0
41
1
10
89.2726148321862
20
8.80874174239327
30
0
41
1
10
89.2697906365089
20
8.80835753684269
30
0
41
1
10
89.2678754796987
20
8.80809163692942
30
0
41
1
10
89.2668686035076
20
8.80795095768619
30
0
0
SPLINE
5
1EA
100
AcDbEntity
8
1
62
256
6
ByLayer
370
-1
48
1
60
0
100
AcDbSpline
70
4
71
3
72
153
73
149
40
0
40
0
40
0
40
0
40
0.125
40
0.25
40
0.375
40
0.3828125
40
0.390625
40
0.398193359375
40
0.4019775390625
40
0.405643463134766
40
0.40576171875
40
0.406005859375
40
0.40625
40
0.4072265625
40
0.40771484375
40
0.408203125
40
0.4091796875
40
0.41015625
40
0.412109375
40
0.4140625
40
0.416015625
40
0.4169921875
40
0.41796875
40
0.4189453125
40
0.41943359375
40
0.419921875
40
0.42041015625
40
0.4208984375
40
0.421875
40
0.422119140625
40
0.42236328125
40
0.422477722167969
40
0.426025390625
40
0.4296875
40
0.4375
40
0.439453125
40
0.44140625
40
0.443359375
40
0.4443359375
40
0.4453125
40
0.445556640625
40
0.44580078125
40
0.446044921875
40
0.4462890625
40
0.4464111328125
40
0.44677734375
40
0.447265625
40
0.44921875
40
0.453125
40
0.4609375
40
0.46484375
40
0.46875
40
0.46923828125
40
0.4697265625
40
0.47021484375
40
0.4705810546875
40
0.470703125
40
0.4708251953125
40
0.47119140625
40
0.471435546875
40
0.4716796875
40
0.4718017578125
40
0.47216796875
40
0.472412109375
40
0.47265625
40
0.4727783203125
40
0.474609375
40
0.4755859375
40
0.4765625
40
0.48046875
40
0.482421875
40
0.484375
40
0.486328125
40
0.48828125
40
0.490234375
40
0.4921875
40
0.494140625
40
0.49609375
40
0.498046875
40
0.5
40
0.501953125
40
0.50390625
40
0.505859375
40
0.5078125
40
0.509765625
40
0.51171875
40
0.515625
40
0.51953125
40
0.5224609375
40
0.5234375
40
0.525390625
40
0.5263671875
40
0.527099609375
40
0.52734375
40
0.52783203125
40
0.528076171875
40
0.5283203125
40
0.5284423828125
40
0.52880859375
40
0.529052734375
40
0.529296875
40
0.5294189453125
40
0.52978515625
40
0.5302734375
40
0.53125
40
0.5390625
40
0.546875
40
0.55078125
40
0.5517578125
40
0.552734375
40
0.55322265625
40
0.5537109375
40
0.553955078125
40
0.55419921875
40
0.554443359375
40
0.5545654296875
40
0.5546875
40
0.556640625
40
0.55859375
40
0.5625
40
0.56640625
40
0.5703125
40
0.573974609375
40
0.5758056640625
40
0.57763671875
40
0.577880859375
40
0.578125
40
0.5791015625
40
0.57958984375
40
0.580078125
40
0.5810546875
40
0.58203125
40
0.5859375
40
0.587890625
40
0.58984375
40
0.5908203125
40
0.591796875
40
0.5927734375
40
0.59375
40
0.593994140625
40
0.59423828125
40
0.594380187988281
40
0.601806640625
40
0.609375
40
0.625
40
0.75
40
0.875
40
1
40
1
40
1
40
1
41
1
10
91.6512760629567
20
8.07829307469305
30
0
41
1
10
91.824700270939
20
8.08437231482839
30
0
41
1
10
92.1715486869037
20
8.09653079509903
30
0
41
1
10
92.6918213108508
20
8.11476851550501
30
0
41
1
10
93.0495087398144
20
8.12730694828414
30
0
41
1
10
93.2446109737945
20
8.13414609343639
30
0
41
1
10
93.276789293635
20
8.13527407744587
30
0
41
1
10
93.3033787473979
20
8.13620614844316
30
0
41
1
10
93.324215267992
20
8.13693655519407
30
0
41
1
10
93.3347155618347
20
8.13730463418662
30
0
41
1
10
93.3403044279123
20
8.13750054719878
30
0
41
1
10
93.3411459333159
20
8.13753004546484
30
0
41
1
10
93.3431782482533
20
8.13760128656017
30
0
41
1
10
93.3455492823468
20
8.13768440117138
30
0
41
1
10
93.3482590355965
20
8.13777938929852
30
0
41
1
10
93.3509687888462
20
8.13787437742562
30
0
41
1
10
93.3543559804083
20
8.13799311258452
30
0
41
1
10
93.3597754869078
20
8.13818308883876
30
0
41
1
10
93.3665498700321
20
8.13842055915654
30
0
41
1
10
93.3746791297813
20
8.13870552353788
30
0
41
1
10
93.3814535129056
20
8.13894299385566
30
0
41
1
10
93.3868730194051
20
8.1391329701099
30
0
41
1
10
93.3909376492796
20
8.13927545230055
30
0
41
1
10
93.3943248408418
20
8.13939418745946
30
0
41
1
10
93.3970345940915
20
8.13948917558656
30
0
41
1
10
93.3990669090288
20
8.13956041668192
30
0
41
1
10
93.4010992239661
20
8.13963165777724
30
0
41
1
10
93.4038089772158
20
8.13972664590435
30
0
41
1
10
93.4061800113093
20
8.13980976051559
30
0
41
1
10
93.4082123262466
20
8.13988100161092
30
0
41
1
10
93.4090485391635
20
8.13991031435327
30
0
41
1
10
93.414468045663
20
8.14010029060751
30
0
41
1
10
93.4246296203494
20
8.14045649608417
30
0
41
1
10
93.4454714334303
20
8.14118708835875
30
0
41
1
10
93.4641009870222
20
8.14184013173266
30
0
41
1
10
93.4803595065205
20
8.14241006049534
30
0
41
1
10
93.4884889637621
20
8.14269503868155
30
0
41
1
10
93.4952638406173
20
8.14293254351153
30
0
41
1
10
93.50068403834
20
8.14312256808284
30
0
41
1
10
93.5037330291634
20
8.14322946596366
30
0
41
1
10
93.5057657514287
20
8.14330073553154
30
0
41
1
10
93.5067821252904
20
8.14333637120527
30
0
41
1
10
93.5077985122668
20
8.1433720077957
30
0
41
1
10
93.5086455126641
20
8.14340170574081
30
0
41
1
10
93.5096619235556
20
8.14343734400293
30
0
41
1
10
93.5110171568496
20
8.14348486299798
30
0
41
1
10
93.5149135508983
20
8.14362148698189
30
0
41
1
10
93.5237234582108
20
8.14393042272425
30
0
41
1
10
93.5427027905314
20
8.14459611268717
30
0
41
1
10
93.5644060955522
20
8.14535778472836
30
0
41
1
10
93.5860765626264
20
8.14611716137037
30
0
41
1
10
93.5975693148537
20
8.14651920432536
30
0
41
1
10
93.6043205797539
20
8.14675505866046
30
0
41
1
10
93.6063480067551
20
8.14682595808509
30
0
41
1
10
93.6082107961658
20
8.14689125082256
30
0
41
1
10
93.6095751620247
20
8.14693940819129
30
0
41
1
10
93.6104331614354
20
8.14696987497638
30
0
41
1
10
93.6112941026595
20
8.14700054739663
30
0
41
1
10
93.6123290318272
20
8.14703743257314
30
0
41
1
10
93.6135160583924
20
8.14707876269787
30
0
41
1
10
93.6143435148708
20
8.14710661922507
30
0
41
1
10
93.6153101939893
20
8.1471379256881
30
0
41
1
10
93.6162467550284
20
8.14716600825889
30
0
41
1
10
93.6173169546017
20
8.14719233987611
30
0
41
1
10
93.6180767294468
20
8.14720681409972
30
0
41
1
10
93.6208214352271
20
8.14724544000626
30
0
41
1
10
93.6245472492724
20
8.14720090366882
30
0
41
1
10
93.6294418754613
20
8.14696030817194
30
0
41
1
10
93.6370856558752
20
8.14638785348438
30
0
41
1
10
93.6461246105691
20
8.14512893216255
30
0
41
1
10
93.6565139797955
20
8.14282331309872
30
0
41
1
10
93.664308800168
20
8.14064660821415
30
0
41
1
10
93.6720796398007
20
8.13800834807563
30
0
41
1
10
93.6797819822268
20
8.13490896269712
30
0
41
1
10
93.6873713109795
20
8.13134888209268
30
0
41
1
10
93.6948082761999
20
8.12733507566284
30
0
41
1
10
93.7020535280291
20
8.12287451280821
30
0
41
1
10
93.7090685633431
20
8.11798383558826
30
0
41
1
10
93.7158148790185
20
8.11267968606245
30
0
41
1
10
93.7222582880761
20
8.10698736565715
30
0
41
1
10
93.7283646035372
20
8.1009321757987
30
0
41
1
10
93.7341062968902
20
8.09454658552053
30
0
41
1
10
93.7394558396239
20
8.08786306385616
30
0
41
1
10
93.7443940075495
20
8.08091900596364
30
0
41
1
10
93.7489015764785
20
8.07375180700106
30
0
41
1
10
93.7543246418887
20
8.06394991067461
30
0
41
1
10
93.7599786217859
20
8.05133427653044
30
0
41
1
10
93.7645223108668
20
8.03725097501408
30
0
41
1
10
93.7668169748629
20
8.0270071133022
30
0
41
1
10
93.7681233495234
20
8.01936527918923
30
0
41
1
10
93.7687899816312
20
8.01429820222373
30
0
41
1
10
93.7692254502225
20
8.00961795847491
30
0
41
1
10
93.7693990587317
20
8.00715055352831
30
0
41
1
10
93.76950423396
20
8.00531452951728
30
0
41
1
10
93.7695618520152
20
8.00409814818642
30
0
41
1
10
93.7696128530343
20
8.00285031386943
30
0
41
1
10
93.7696431969329
20
8.00204916874742
30
0
41
1
10
93.7696793338707
20
8.00106134185774
30
0
41
1
10
93.7697151488542
20
8.0000435414947
30
0
41
1
10
93.769756663421
20
7.99883557014567
30
0
41
1
10
93.7697862388031
20
7.99796982578587
30
0
41
1
10
93.7698217277191
20
7.99693626091687
30
0
41
1
10
93.7698690438175
20
7.9955666603359
30
0
41
1
10
93.7699577562534
20
7.99301679048097
30
0
41
1
10
93.7704072195706
20
7.98014244494593
30
0
41
1
10
93.7712115405267
20
7.9570413447357
30
0
41
1
10
93.772157816417
20
7.9298085077759
30
0
41
1
10
93.7727728927543
20
7.91211749754649
30
0
41
1
10
93.7730567737094
20
7.90395390635325
30
0
41
1
10
93.7731750573747
20
7.90055263773056
30
0
41
1
10
93.773269684271
20
7.89783174703666
30
0
41
1
10
93.773328826067
20
7.89613123951716
30
0
41
1
10
93.7733761394957
20
7.89477086144751
30
0
41
1
10
93.7734116245633
20
7.89375059148011
30
0
41
1
10
93.7734411954497
20
7.89290037750456
30
0
41
1
10
93.773464852157
20
7.89222021272838
30
0
41
1
10
93.7735713073345
20
7.88915949015731
30
0
41
1
10
93.7737664750758
20
7.88354845577118
30
0
41
1
10
93.7741449819803
20
7.87266724459624
30
0
41
1
10
93.7746181153234
20
7.85906672426162
30
0
41
1
10
93.7751858753351
20
7.84274609986011
30
0
41
1
10
93.7757418070132
20
7.82676548846695
30
0
41
1
10
93.7761971978559
20
7.8136749876449
30
0
41
1
10
93.7765520478632
20
7.80347459739394
30
0
41
1
10
93.7767413012004
20
7.7980343892601
30
0
41
1
10
93.7768536703694
20
7.79480426568063
30
0
41
1
10
93.7769246403709
20
7.79276418763044
30
0
41
1
10
93.7770074387059
20
7.79038409657187
30
0
41
1
10
93.7771020653745
20
7.78766399250497
30
0
41
1
10
93.7771966920431
20
7.78494388843805
30
0
41
1
10
93.7773149753789
20
7.78154375835439
30
0
41
1
10
93.7775988553847
20
7.77338344615362
30
0
41
1
10
93.7779300487249
20
7.7638630819194
30
0
41
1
10
93.7783085553993
20
7.75298266565173
30
0
41
1
10
93.7785451220709
20
7.74618240548443
30
0
41
1
10
93.7787343754081
20
7.74074219735058
30
0
41
1
10
93.778876315411
20
7.73666204125019
30
0
41
1
10
93.7790182554139
20
7.73258188514981
30
0
41
1
10
93.7791247104161
20
7.72952176807453
30
0
41
1
10
93.7791956804176
20
7.72748169002435
30
0
41
1
10
93.7792262123036
20
7.7266040314465
30
0
41
1
10
93.7796047189781
20
7.7157236151788
30
0
41
1
10
93.7803380756598
20
7.69464280866018
30
0
41
1
10
93.7818215704716
20
7.6519988021673
30
0
41
1
10
93.7890013689526
20
7.44561090608968
30
0
41
1
10
93.801870595884
20
7.07567675298847
30
0
41
1
10
93.8200389162577
20
6.55341677213968
30
0
41
1
10
93.8321511298402
20
6.20524345157386
30
0
41
1
10
93.8382072366315
20
6.03115679129093
30
0
0
SPLINE
5
1EB
100
AcDbEntity
8
1
62
256
6
ByLayer
370
-1
48
1
60
0
100
AcDbSpline
70
4
71
3
72
14
73
10
40
0
40
0
40
0
40
0
40
0.0050966481374707
40
0.0240065217780212
40
0.0435263913424608
40
0.0630462609069004
40
0.375364173937934
40
0.687682086968967
40
1
40
1
40
1
40
1
41
1
10
88.7360824321932
20
8.11691645020417
30
0
41
1
10
88.7362161749568
20
8.11307281454958
30
0
41
1
10
88.7368461067602
20
8.09496830791954
30
0
41
1
10
88.7379880321886
20
8.06214293165402
30
0
41
1
10
88.7395083543276
20
8.0184403001027
30
0
41
1
10
88.7487263075072
20
7.75346434459146
30
0
41
1
10
88.7656258883366
20
7.26767509282087
30
0
41
1
10
88.7902070968156
20
6.56107254479093
30
0
41
1
10
88.8065945691349
20
6.09000417943764
30
0
41
1
10
88.8147883052946
20
5.854469996761
30
0
0
SPLINE
5
1EC
100
AcDbEntity
8
1
62
256
6
ByLayer
370
-1
48
1
60
0
100
AcDbSpline
70
4
71
3
72
22
73
18
40
0
40
0
40
0
40
0
40
0.0178234039224861
40
0.027821629111601
40
0.0378198543007159
40
0.112806543219077
40
0.187793232137439
40
0.337766609974162
40
0.497738213
40
0.657709816025838
40
0.817681419051676
40
0.897667220564595
40
0.977653022077514
40
0.982652134672071
40
0.987651247266629
40
0.997649472455744
40
1
40
1
40
1
40
1
41
1
10
94.2172191465639
20
3.10621401282111
30
0
41
1
10
94.2180286354391
20
3.10632711340224
30
0
41
1
10
94.2192921635499
20
3.10650454441151
30
0
41
1
10
94.2210098264193
20
3.10674661307746
30
0
41
1
10
94.225323727821
20
3.1073553442447
30
0
41
1
10
94.2325892414605
20
3.10838051225466
30
0
41
1
10
94.2462120683401
20
3.11030254486539
30
0
41
1
10
94.263694681803
20
3.11276895137564
30
0
41
1
10
94.2850370930435
20
3.11577988919336
30
0
41
1
10
94.3068335981401
20
3.11885488951785
30
0
41
1
10
94.3249973523873
20
3.12141738978824
30
0
41
1
10
94.3395789062807
20
3.12347619538374
30
0
41
1
10
94.3470513751275
20
3.124529729053
30
0
41
1
10
94.3510954888672
20
3.12509884831672
30
0
41
1
10
94.3519913813469
20
3.12522501896984
30
0
41
1
10
94.3527624055433
20
3.1253338847375
30
0
41
1
10
94.3533046047789
20
3.12541079376226
30
0
41
1
10
94.3534075817362
20
3.12542541643992
30
0
0
SPLINE
5
1ED
100
AcDbEntity
8
1
62
256
6
ByLayer
370
-1
48
1
60
0
100
AcDbSpline
70
4
71
3
72
8
73
4
40
0
40
0
40
0
40
0
40
1
40
1
40
1
40
1
41
1
10
89.5904287253313
20
2.93963890352268
30
0
41
1
10
89.5784238593484
20
2.93921808301582
30
0
41
1
10
89.5664182305593
20
2.93881918986156
30
0
41
1
10
89.5544119184626
20
2.93844222670125
30
0
0
SPLINE
5
1EE
100
AcDbEntity
8
1
62
256
6
ByLayer
370
-1
48
1
60
0
100
AcDbSpline
70
4
71
3
72
22
73
18
40
0
40
0
40
0
40
0
40
0.0178234039226251
40
0.0278216291117388
40
0.0378198543008525
40
0.112806543219206
40
0.187793232137559
40
0.337766609974265
40
0.497738213000084
40
0.657709816025904
40
0.817681419051724
40
0.897667220564634
40
0.977653022077544
40
0.982652134672101
40
0.987651247266658
40
0.997649472455771
40
1
40
1
40
1
40
1
41
1
10
89.2668686035076
20
8.80795095768619
30
0
41
1
10
89.2660591146325
20
8.80783785710506
30
0
41
1
10
89.2647955865216
20
8.80766042609579
30
0
41
1
10
89.2630779236522
20
8.80741835742984
30
0
41
1
10
89.2587640222504
20
8.80680962626261
30
0
41
1
10
89.2514985086111
20
8.80578445825265
30
0
41
1
10
89.2378756817314
20
8.80386242564191
30
0
41
1
10
89.2203930682685
20
8.80139601913166
30
0
41
1
10
89.1990506570281
20
8.79838508131394
30
0
41
1
10
89.1772541519314
20
8.79531008098948
30
0
41
1
10
89.1590903976842
20
8.79274758071907
30
0
41
1
10
89.1445088437908
20
8.79068877512356
30
0
41
1
10
89.137036374944
20
8.78963524145431
30
0
41
1
10
89.1329922612044
20
8.78906612219058
30
0
41
1
10
89.1320963687246
20
8.78893995153746
30
0
41
1
10
89.1313253445283
20
8.7888310857698
30
0
41
1
10
89.1307831452926
20
8.78875417674507
30
0
41
1
10
89.1306801683353
20
8.78873955406738
30
0
0
SPLINE
5
1EF
100
AcDbEntity
8
1
62
256
6
ByLayer
370
-1
48
1
60
0
100
AcDbSpline
70
4
71
3
72
22
73
18
40
0
40
0
40
0
40
0
40
0.0023505275440252
40
0.0123487527331432
40
0.0223469779222613
40
0.0623398786787335
40
0.102332779435197
40
0.18231858094815
40
0.26230438246109
40
0.342290183974039
40
0.662233390025817
40
0.812206767862588
40
0.957493477641946
40
0.962180145699359
40
0.972178370888472
40
0.982176596077595
40
1
40
1
40
1
40
1
41
1
10
94.7382136314575
20
3.53965565470537
30
0
41
1
10
94.7382209796975
20
3.53975979323948
30
0
41
1
10
94.7382595875198
20
3.54030810267526
30
0
41
1
10
94.7383296682653
20
3.54131245966775
30
0
41
1
10
94.7385185190781
20
3.54403744491017
30
0
41
1
10
94.7388037271925
20
3.54814386875913
30
0
41
1
10
94.7393146675384
20
3.55548246116695
30
0
41
1
10
94.7399576783974
20
3.56469821895828
30
0
41
1
10
94.7407266792884
20
3.57573151120101
30
0
41
1
10
94.7422620689304
20
3.59777247857957
30
0
41
1
10
94.7440213695617
20
3.62302775370085
30
0
41
1
10
94.7459895871431
20
3.65128209274277
30
0
41
1
10
94.7469494099548
20
3.66505772647858
30
0
41
1
10
94.7474614244067
20
3.67240474667059
30
0
41
1
10
94.7475404283088
20
3.67353836916519
30
0
41
1
10
94.7476611703023
20
3.67527527896112
30
0
41
1
10
94.7477493562992
20
3.67655292085755
30
0
41
1
10
94.7478052849501
20
3.67737141193996
30
0
0
SPLINE
5
1F0
100
AcDbEntity
8
1
62
256
6
ByLayer
370
-1
48
1
60
0
100
AcDbSpline
70
4
71
3
72
153
73
149
40
0
40
0
40
0
40
0
40
0.125
40
0.25
40
0.375
40
0.3828125
40
0.390625
40
0.398193359375
40
0.4019775390625
40
0.405643463134766
40
0.40576171875
40
0.406005859375
40
0.40625
40
0.4072265625
40
0.40771484375
40
0.408203125
40
0.4091796875
40
0.41015625
40
0.412109375
40
0.4140625
40
0.416015625
40
0.4169921875
40
0.41796875
40
0.4189453125
40
0.41943359375
40
0.419921875
40
0.42041015625
40
0.4208984375
40
0.421875
40
0.422119140625
40
0.42236328125
40
0.422477722167969
40
0.426025390625
40
0.4296875
40
0.4375
40
0.439453125
40
0.44140625
40
0.443359375
40
0.4443359375
40
0.4453125
40
0.445556640625
40
0.44580078125
40
0.446044921875
40
0.4462890625
40
0.4464111328125
40
0.44677734375
40
0.447265625
40
0.44921875
40
0.453125
40
0.4609375
40
0.46484375
40
0.46875
40
0.46923828125
40
0.4697265625
40
0.47021484375
40
0.4705810546875
40
0.470703125
40
0.4708251953125
40
0.47119140625
40
0.471435546875
40
0.4716796875
40
0.4718017578125
40
0.47216796875
40
0.472412109375
40
0.47265625
40
0.4727783203125
40
0.474609375
40
0.4755859375
40
0.4765625
40
0.48046875
40
0.482421875
40
0.484375
40
0.486328125
40
0.48828125
40
0.490234375
40
0.4921875
40
0.494140625
40
0.49609375
40
0.498046875
40
0.5
40
0.501953125
40
0.50390625
40
0.505859375
40
0.5078125
40
0.509765625
40
0.51171875
40
0.515625
40
0.51953125
40
0.5224609375
40
0.5234375
40
0.525390625
40
0.5263671875
40
0.527099609375
40
0.52734375
40
0.52783203125
40
0.528076171875
40
0.5283203125
40
0.5284423828125
40
0.52880859375
40
0.529052734375
40
0.529296875
40
0.5294189453125
40
0.52978515625
40
0.5302734375
40
0.53125
40
0.5390625
40
0.546875
40
0.55078125
40
0.5517578125
40
0.552734375
40
0.55322265625
40
0.5537109375
40
0.553955078125
40
0.55419921875
40
0.554443359375
40
0.5545654296875
40
0.5546875
40
0.556640625
40
0.55859375
40
0.5625
40
0.56640625
40
0.5703125
40
0.573974609375
40
0.5758056640625
40
0.57763671875
40
0.577880859375
40
0.578125
40
0.5791015625
40
0.57958984375
40
0.580078125
40
0.5810546875
40
0.58203125
40
0.5859375
40
0.587890625
40
0.58984375
40
0.5908203125
40
0.591796875
40
0.5927734375
40
0.59375
40
0.593994140625
40
0.59423828125
40
0.594380187988281
40
0.601806640625
40
0.609375
40
0.625
40
0.75
40
0.875
40
1
40
1
40
1
40
1
41
1
10
91.798860924835
20
3.83587189581425
30
0
41
1
10
91.6254367168527
20
3.82979265567894
30
0
41
1
10
91.278588300888
20
3.81763417540827
30
0
41
1
10
90.7583156769409
20
3.7993964550023
30
0
41
1
10
90.4006282479774
20
3.78685802222319
30
0
41
1
10
90.2055260139972
20
3.78001887707092
30
0
41
1
10
90.1733476941567
20
3.77889089306143
30
0
41
1
10
90.1467582403938
20
3.77795882206414
30
0
41
1
10
90.1259217197997
20
3.77722841531326
30
0
41
1
10
90.115421425957
20
3.77686033632068
30
0
41
1
10
90.1098325598795
20
3.77666442330852
30
0
41
1
10
90.1089910544758
20
3.77663492504246
30
0
41
1
10
90.1069587395385
20
3.77656368394713
30
0
41
1
10
90.104587705445
20
3.77648056933592
30
0
41
1
10
90.1018779521953
20
3.77638558120879
30
0
41
1
10
90.0991681989455
20
3.77629059308168
30
0
41
1
10
90.0957810073834
20
3.77617185792278
30
0
41
1
10
90.0903615008839
20
3.77598188166857
30
0
41
1
10
90.0835871177596
20
3.77574441135079
30
0
41
1
10
90.0754578580105
20
3.77545944696942
30
0
41
1
10
90.0686834748861
20
3.77522197665164
30
0
41
1
10
90.0632639683867
20
3.7750320003974
30
0
41
1
10
90.0591993385121
20
3.77488951820675
30
0
41
1
10
90.0558121469499
20
3.77477078304784
30
0
41
1
10
90.0531023937002
20
3.77467579492074
30
0
41
1
10
90.0510700787629
20
3.77460455382541
30
0
41
1
10
90.0490377638257
20
3.77453331273006
30
0
41
1
10
90.0463280105759
20
3.77443832460295
30
0
41
1
10
90.0439569764824
20
3.77435520999171
30
0
41
1
10
90.0419246615451
20
3.77428396889638
30
0
41
1
10
90.0410884486282
20
3.77425465615403
30
0
41
1
10
90.0356689421288
20
3.77406467989979
30
0
41
1
10
90.0255073674423
20
3.77370847442313
30
0
41
1
10
90.0046655543614
20
3.77297788214855
30
0
41
1
10
89.9860360007696
20
3.77232483877467
30
0
41
1
10
89.9697774812712
20
3.77175491001196
30
0
41
1
10
89.9616480240297
20
3.77146993182575
30
0
41
1
10
89.9548731471744
20
3.77123242699577
30
0
41
1
10
89.9494529494517
20
3.77104240242446
30
0
41
1
10
89.9464039586283
20
3.77093550454367
30
0
41
1
10
89.944371236363
20
3.77086423497576
30
0
41
1
10
89.9433548625013
20
3.77082859930206
30
0
41
1
10
89.942338475525
20
3.7707929627116
30
0
41
1
10
89.9414914751276
20
3.77076326476649
30
0
41
1
10
89.9404750642361
20
3.77072762650437
30
0
41
1
10
89.9391198309421
20
3.77068010750935
30
0
41
1
10
89.9352234368935
20
3.77054348352541
30
0
41
1
10
89.9264135295809
20
3.77023454778305
30
0
41
1
10
89.9074341972603
20
3.76956885782013
30
0
41
1
10
89.8857308922396
20
3.76880718577894
30
0
41
1
10
89.8640604251653
20
3.76804780913693
30
0
41
1
10
89.852567672938
20
3.76764576618194
30
0
41
1
10
89.8458164080378
20
3.76740991184684
30
0
41
1
10
89.8437889810366
20
3.76733901242221
30
0
41
1
10
89.8419261916259
20
3.76727371968474
30
0
41
1
10
89.8405618257671
20
3.76722556231601
30
0
41
1
10
89.8397038263564
20
3.76719509553092
30
0
41
1
10
89.8388428851322
20
3.76716442311067
30
0
41
1
10
89.8378079559645
20
3.76712753793416
30
0
41
1
10
89.8366209293993
20
3.76708620780943
30
0
41
1
10
89.835793472921
20
3.76705835128223
30
0
41
1
10
89.8348267938024
20
3.7670270448192
30
0
41
1
10
89.8338902327633
20
3.76699896224844
30
0
41
1
10
89.83282003319
20
3.76697263063119
30
0
41
1
10
89.8320602583449
20
3.76695815640758
30
0
41
1
10
89.8293155525646
20
3.76691953050107
30
0
41
1
10
89.8255897385193
20
3.76696406683848
30
0
41
1
10
89.8206951123304
20
3.76720466233536
30
0
41
1
10
89.8130513319165
20
3.76777711702292
30
0
41
1
10
89.8040123772226
20
3.76903603834475
30
0
41
1
10
89.7936230079962
20
3.77134165740858
30
0
41
1
10
89.7858281876237
20
3.77351836229315
30
0
41
1
10
89.778057347991
20
3.77615662243167
30
0
41
1
10
89.7703550055649
20
3.77925600781018
30
0
41
1
10
89.7627656768122
20
3.78281608841462
30
0
41
1
10
89.7553287115918
20
3.78682989484446
30
0
41
1
10
89.7480834597627
20
3.79129045769909
30
0
41
1
10
89.7410684244485
20
3.79618113491904
30
0
41
1
10
89.7343221087733
20
3.80148528444485
30
0
41
1
10
89.7278786997156
20
3.80717760485015
30
0
41
1
10
89.7217723842546
20
3.81323279470862
30
0
41
1
10
89.7160306909015
20
3.81961838498677
30
0
41
1
10
89.7106811481679
20
3.82630190665114
30
0
41
1
10
89.7057429802422
20
3.83324596454369
30
0
41
1
10
89.7012354113132
20
3.84041316350624
30
0
41
1
10
89.695812345903
20
3.85021505983269
30
0
41
1
10
89.6901583660058
20
3.86283069397686
30
0
41
1
10
89.685614676925
20
3.87691399549323
30
0
41
1
10
89.6833200129288
20
3.8871578572051
30
0
41
1
10
89.6820136382684
20
3.89479969131807
30
0
41
1
10
89.6813470061605
20
3.89986676828357
30
0
41
1
10
89.6809115375693
20
3.9045470120324
30
0
41
1
10
89.68073792906
20
3.90701441697902
30
0
41
1
10
89.6806327538316
20
3.90885044099002
30
0
41
1
10
89.6805751357766
20
3.91006682232091
30
0
41
1
10
89.6805241347575
20
3.91131465663787
30
0
41
1
10
89.6804937908589
20
3.91211580175991
30
0
41
1
10
89.680457653921
20
3.91310362864959
30
0
41
1
10
89.6804218389375
20
3.9141214290126
30
0
41
1
10
89.6803803243707
20
3.91532940036163
30
0
41
1
10
89.6803507489886
20
3.91619514472143
30
0
41
1
10
89.6803152600726
20
3.91722870959046
30
0
41
1
10
89.6802679439742
20
3.9185983101714
30
0
41
1
10
89.6801792315383
20
3.92114818002634
30
0
41
1
10
89.6797297682212
20
3.93402252556138
30
0
41
1
10
89.678925447265
20
3.9571236257716
30
0
41
1
10
89.6779791713747
20
3.9843564627314
30
0
41
1
10
89.6773640950374
20
4.00204747296081
30
0
41
1
10
89.6770802140824
20
4.01021106415405
30
0
41
1
10
89.676961930417
20
4.01361233277675
30
0
41
1
10
89.6768673035207
20
4.01633322347064
30
0
41
1
10
89.6768081617248
20
4.01803373099014
30
0
41
1
10
89.6767608482961
20
4.01939410905979
30
0
41
1
10
89.6767253632285
20
4.02041437902719
30
0
41
1
10
89.676695792342
20
4.02126459300277
30
0
41
1
10
89.6766721356347
20
4.02194475777893
30
0
41
1
10
89.6765656804573
20
4.02500548034999
30
0
41
1
10
89.6763705127159
20
4.03061651473612
30
0
41
1
10
89.6759920058113
20
4.04149772591109
30
0
41
1
10
89.6755188724683
20
4.05509824624568
30
0
41
1
10
89.6749511124566
20
4.07141887064719
30
0
41
1
10
89.6743951807785
20
4.08739948204035
30
0
41
1
10
89.6739397899358
20
4.10048998286243
30
0
41
1
10
89.6735849399285
20
4.11069037311336
30
0
41
1
10
89.6733956865913
20
4.11613058124721
30
0
41
1
10
89.6732833174223
20
4.11936070482668
30
0
41
1
10
89.6732123474209
20
4.12140078287686
30
0
41
1
10
89.6731295490858
20
4.12378087393543
30
0
41
1
10
89.6730349224172
20
4.12650097800235
30
0
41
1
10
89.6729402957486
20
4.12922108206928
30
0
41
1
10
89.6728220124128
20
4.13262121215291
30
0
41
1
10
89.672538132407
20
4.14078152435369
30
0
41
1
10
89.6722069390668
20
4.1503018885879
30
0
41
1
10
89.6718284323924
20
4.16118230485557
30
0
41
1
10
89.6715918657209
20
4.1679825650229
30
0
41
1
10
89.6714026123836
20
4.17342277315672
30
0
41
1
10
89.6712606723807
20
4.17750292925712
30
0
41
1
10
89.6711187323778
20
4.18158308535749
30
0
41
1
10
89.6710122773756
20
4.18464320243277
30
0
41
1
10
89.6709413073742
20
4.18668328048295
30
0
41
1
10
89.6709107754881
20
4.1875609390608
30
0
41
1
10
89.6705322688136
20
4.1984413553285
30
0
41
1
10
89.6697989121319
20
4.21952216184712
30
0
41
1
10
89.6683154173201
20
4.26216616834
30
0
41
1
10
89.6611356188391
20
4.46855406441762
30
0
41
1
10
89.6482663919077
20
4.83848821751883
30
0
41
1
10
89.630098071534
20
5.36074819836762
30
0
41
1
10
89.6179858579515
20
5.70892151893347
30
0
41
1
10
89.6119297511603
20
5.88300817921638
30
0
0
SPLINE
5
1F1
100
AcDbEntity
8
1
62
256
6
ByLayer
370
-1
48
1
60
0
100
AcDbSpline
70
4
71
3
72
22
73
18
40
0
40
0
40
0
40
0
40
0.0178234039225229
40
0.027821629111638
40
0.0378198543007531
40
0.112806543219116
40
0.18779323213748
40
0.337766609974206
40
0.497738213000048
40
0.657709816025889
40
0.817681419051731
40
0.897667220564652
40
0.977653022077573
40
0.98265213467213
40
0.987651247266688
40
0.997649472455803
40
1
40
1
40
1
40
1
41
1
10
94.58206393223
20
8.44171252421037
30
0
41
1
10
94.5819512620307
20
8.44252510520153
30
0
41
1
10
94.5817745062
20
8.44379345978444
30
0
41
1
10
94.5815333586784
20
8.44551768384699
30
0
41
1
10
94.5809269439171
20
8.44984806365127
30
0
41
1
10
94.5799056769809
20
8.45714133037245
30
0
41
1
10
94.5779909582845
20
8.47081619423764
30
0
41
1
10
94.5755339371956
20
8.48836558844383
30
0
41
1
10
94.5725344569053
20
8.50978952422798
30
0
41
1
10
94.5694711578855
20
8.53166928843311
30
0
41
1
10
94.5669184087022
20
8.54990242527069
30
0
41
1
10
94.5648674374836
20
8.56453967833113
30
0
41
1
10
94.563817912828
20
8.57204069079489
30
0
41
1
10
94.5632509592349
20
8.57610025239211
30
0
41
1
10
94.5631252686993
20
8.57699956703561
30
0
41
1
10
94.5630168171987
20
8.5777735364191
30
0
41
1
10
94.562940200836
20
8.57831780676773
30
0
41
1
10
94.562925633802
20
8.57842117708032
30
0
0
SPLINE
5
1F2
100
AcDbEntity
8
1
62
256
6
ByLayer
370
-1
48
1
60
0
100
AcDbSpline
70
4
71
3
72
8
73
4
40
0
40
0
40
0
40
0
40
1
40
1
40
1
40
1
41
1
10
94.134115404473
20
3.0989798911794
30
0
41
1
10
94.122112105029
20
3.09851521726526
30
0
41
1
10
94.1101079632845
20
3.0980724679128
30
0
41
1
10
94.098103058729
20
3.09765164605381
30
0
0
SPLINE
5
1F3
100
AcDbEntity
8
1
62
256
6
ByLayer
370
-1
48
1
60
0
100
AcDbSpline
70
4
71
3
72
19
73
15
40
0
40
0
40
0
40
0
40
0.0403657336154993
40
0.106300330648553
40
0.172234927681607
40
0.238169524714661
40
0.370038718780769
40
0.501907912846877
40
0.765646300979093
40
0.831580898012147
40
0.897515495045201
40
0.930482793561728
40
0.963450092078255
40
1
40
1
40
1
40
1
41
1
10
94.5893345135636
20
8.3582937001112
30
0
41
1
10
94.5892938175393
20
8.35941997082423
30
0
41
1
10
94.5891838030526
20
8.3623855870872
30
0
41
1
10
94.5889845922698
20
8.36718920935613
30
0
41
1
10
94.58871292047
20
8.37270543955444
30
0
41
1
10
94.588297421979
20
8.38005885715967
30
0
41
1
10
94.587685507263
20
8.38924605971187
30
0
41
1
10
94.5865055433467
20
8.40393171275437
30
0
41
1
10
94.5852048279336
20
8.41675804215598
30
0
41
1
10
94.5839064266393
20
8.42772862615536
30
0
41
1
10
94.583332336719
20
8.43229484963967
30
0
41
1
10
94.5828517077625
20
8.43594434587172
30
0
41
1
10
94.58246896423
20
8.4387793295177
30
0
41
1
10
94.5822040761462
20
8.44070180191574
30
0
41
1
10
94.58206393223
20
8.44171252421037
30
0
0
SPLINE
5
1F4
100
AcDbEntity
8
1
62
256
6
ByLayer
370
-1
48
1
60
0
100
AcDbSpline
70
4
71
3
72
14
73
10
40
0
40
0
40
0
40
0
40
0.005096648137471
40
0.0240065217780215
40
0.0435263913424611
40
0.0630462609069007
40
0.375364173937934
40
0.687682086968967
40
1
40
1
40
1
40
1
41
1
10
94.7480053178783
20
3.79724852030313
30
0
41
1
10
94.7478715751147
20
3.80109215595772
30
0
41
1
10
94.7472416433114
20
3.81919666258776
30
0
41
1
10
94.7460997178829
20
3.85202203885328
30
0
41
1
10
94.7445793957439
20
3.89572467040463
30
0
41
1
10
94.7353614425643
20
4.16070062591584
30
0
41
1
10
94.718461861735
20
4.64648987768644
30
0
41
1
10
94.6938806532559
20
5.35309242571637
30
0
41
1
10
94.6774931809366
20
5.82416079106966
30
0
41
1
10
94.6692994447769
20
6.0596949737463
30
0
0
SPLINE
5
1F5
100
AcDbEntity
8
1
62
256
6
ByLayer
370
-1
48
1
60
0
100
AcDbSpline
70
4
71
3
72
8
73
4
40
0
40
0
40
0
40
0
40
1
40
1
40
1
40
1
41
1
10
88.8948172242167
20
3.55587363118193
30
0
41
1
10
88.8943543185271
20
3.56792278127981
30
0
41
1
10
88.8939132539696
20
3.57997277689554
30
0
41
1
10
88.8934940334648
20
3.59202353823625
30
0
0
SPLINE
5
1F6
100
AcDbEntity
8
1
62
256
6
ByLayer
370
-1
48
1
60
0
100
AcDbSpline
70
4
71
3
72
8
73
4
40
0
40
0
40
0
40
0
40
1
40
1
40
1
40
1
41
1
10
87.7740132607717
20
1.92816047049482
30
0
41
1
10
87.7316652982997
20
1.91455927019206
30
0
41
1
10
87.6876046078174
20
1.90168715201409
30
0
41
1
10
87.641979435503
20
1.88961301633759
30
0
0
SPLINE
5
1F7
100
AcDbEntity
8
1
62
256
6
ByLayer
370
-1
48
1
60
0
100
AcDbSpline
70
4
71
3
72
8
73
4
40
0
40
0
40
0
40
0
40
1
40
1
40
1
40
1
41
1
10
38
20
6.05380897428
30
0
41
1
10
38.5835222020459
20
5.8334324530216
30
0
41
1
10
39.1364915080541
20
5.56734786760705
30
0
41
1
10
39.6686255485401
20
5.25763721292088
30
0
0
SPLINE
5
1F8
100
AcDbEntity
8
1
62
256
6
ByLayer
370
-1
48
1
60
0
100
AcDbSpline
70
4
71
3
72
8
73
4
40
0
40
0
40
0
40
0
40
1
40
1
40
1
40
1
41
1
10
28.5
20
5.56493173937412
30
0
41
1
10
28.5911534686865
20
5.34440026752898
30
0
41
1
10
28.6946134285623
20
5.12663840071525
30
0
41
1
10
28.806770454127
20
4.90888840455614
30
0
0
SPLINE
5
1F9
100
AcDbEntity
8
1
62
256
6
ByLayer
370
-1
48
1
60
0
100
AcDbSpline
70
4
71
3
72
10
73
6
40
0
40
0
40
0
40
0
40
0.5
40
0.5
40
1
40
1
40
1
40
1
41
1
10
87.6419794355012
20
1.88961301633728
30
0
41
1
10
87.3940616158605
20
1.82400464185642
30
0
41
1
10
87.1449313497326
20
1.77191706637379
30
0
41
1
10
86.6501827950204
20
1.69298894629966
30
0
41
1
10
86.4045773265883
20
1.66615425761574
30
0
41
1
10
86.1638698261522
20
1.64998629558446
30
0
0
SPLINE
5
1FA
100
AcDbEntity
8
1
62
256
6
ByLayer
370
-1
48
1
60
0
100
AcDbSpline
70
4
71
3
72
22
73
18
40
0
40
0
40
0
40
0
40
0.125
40
0.125
40
0.25
40
0.25
40
0.3125
40
0.3125
40
0.374999999999999
40
0.374999999999999
40
0.499999999999999
40
0.499999999999999
40
0.749999999999999
40
0.749999999999999
40
0.875
40
0.875
40
1
40
1
40
1
40
1
41
1
10
29.4855261981473
20
0.183943967572276
30
0
41
1
10
29.4071441829038
20
0.370717103346436
30
0
41
1
10
29.3415738949828
20
0.56234170393364
30
0
41
1
10
29.2268094352584
20
0.951790623528154
30
0
41
1
10
29.177778105455
20
1.149677926245
30
0
41
1
10
29.1133566573641
20
1.44999882654938
30
0
41
1
10
29.0934070087693
20
1.55083064464972
30
0
41
1
10
29.0565224709915
20
1.75174203221917
30
0
41
1
10
29.0395373603609
20
1.85204031168627
30
0
41
1
10
28.9923339182395
20
2.15249288262888
30
0
41
1
10
28.9658414290373
20
2.35220762819992
30
0
41
1
10
28.8977472128794
20
2.94968466960503
30
0
41
1
10
28.8673916542853
20
3.34579447876936
30
0
41
1
10
28.8356315072898
20
3.93645478391608
30
0
41
1
10
28.8273809844916
20
4.13306303936653
30
0
41
1
10
28.8145643258397
20
4.52330377382728
30
0
41
1
10
28.8099931489835
20
4.71685976332426
30
0
41
1
10
28.806770454127
20
4.90888840455614
30
0
0
SPLINE
5
1FB
100
AcDbEntity
8
1
62
256
6
ByLayer
370
-1
48
1
60
0
100
AcDbSpline
70
4
71
3
72
16
73
12
40
0
40
0
40
0
40
0
40
0.125000000000001
40
0.125000000000001
40
0.250000000000002
40
0.250000000000002
40
0.500000000000001
40
0.500000000000001
40
0.750000000000001
40
0.750000000000001
40
1
40
1
40
1
40
1
41
1
10
10.5386751345948
20
30.0805927603169
30
0
41
1
10
10.5071959726827
20
30.0805927603169
30
0
41
1
10
10.4765695733598
20
30.078685990659
30
0
41
1
10
10.4184736929998
20
30.0717959485601
30
0
41
1
10
10.3920418953325
20
30.0669872793662
30
0
41
1
10
10.3182367311259
20
30.049647240705
30
0
41
1
10
10.2791703657593
20
30.0350452819075
30
0
41
1
10
10.2125137122669
20
30.0032932993815
30
0
41
1
10
10.1857347330744
20
29.9863830332716
30
0
41
1
10
10.1400559187761
20
29.9511519005795
30
0
41
1
10
10.1212556944726
20
29.9327613369588
30
0
41
1
10
10.1056624327026
20
29.9139548464691
30
0
0
SPLINE
5
1FC
100
AcDbEntity
8
1
62
256
6
ByLayer
370
-1
48
1
60
0
100
AcDbSpline
70
4
71
3
72
16
73
12
40
0
40
0
40
0
40
0
40
0.492739254951175
40
0.492739254951175
40
0.619554441213382
40
0.619554441213382
40
0.746369627475588
40
0.746369627475588
40
0.873184813737794
40
0.873184813737794
40
1
40
1
40
1
40
1
41
1
10
72.2548178388892
20
7.01857106884444
30
0
41
1
10
74.0292294672703
20
7.44170525966157
30
0
41
1
10
75.7965430620103
20
7.79178349244953
30
0
41
1
10
78.0167103471153
20
8.13059268447631
30
0
41
1
10
78.4709851274625
20
8.19463858735554
30
0
41
1
10
79.3805481531951
20
8.31104117463474
30
0
41
1
10
79.8359844686173
20
8.36335429534589
30
0
41
1
10
80.7465076505477
20
8.4574155002617
30
0
41
1
10
81.2017528865432
20
8.49898665205552
30
0
41
1
10
82.1135633157982
20
8.57039767326677
30
0
41
1
10
82.5700986701532
20
8.60030727734988
30
0
41
1
10
83.0268600738092
20
8.624549980312
30
0
0
SPLINE
5
1FD
100
AcDbEntity
8
1
62
256
6
ByLayer
370
-1
48
1
60
0
100
AcDbSpline
70
4
71
4
72
10
73
5
40
0
40
0
40
0
40
0
40
0
40
1
40
1
40
1
40
1
40
1
41
1
10
83.0268600737736
20
5.02999999999986
30
0
41
1
10
83.0268600737879
20
5.92863749507791
30
0
41
1
10
83.0268600737977
20
6.82727499015596
30
0
41
1
10
83.0268600738045
20
7.72591248523398
30
0
41
1
10
83.0268600738092
20
8.624549980312
30
0
0
SPLINE
5
1FE
100
AcDbEntity
8
1
62
256
6
ByLayer
370
-1
48
1
60
0
100
AcDbSpline
70
4
71
3
72
8
73
4
40
0
40
0
40
0
40
0
40
1
40
1
40
1
40
1
41
1
10
84.9922494209394
20
1.80434016789286
30
0
41
1
10
84.9435688874593
20
1.81909074041704
30
0
41
1
10
84.895116298114
20
1.83444809755787
30
0
41
1
10
84.8469066022175
20
1.85041845710475
30
0
0
SPLINE
5
1FF
100
AcDbEntity
8
1
62
256
6
ByLayer
370
-1
48
1
60
0
100
AcDbSpline
70
4
71
3
72
8
73
4
40
0
40
0
40
0
40
0
40
1
40
1
40
1
40
1
41
1
10
33.7855261981474
20
-3.84108541943755
30
0
41
1
10
33.7855261981474
20
-4.6541307103017
30
0
41
1
10
33.7855261981474
20
-5.46717600116585
30
0
41
1
10
33.7855261981474
20
-6.28022129203003
30
0
0
SPLINE
5
200
100
AcDbEntity
8
1
62
256
6
ByLayer
370
-1
48
1
60
0
100
AcDbSpline
70
4
71
2
72
6
73
3
40
0
40
0
40
0
40
1
40
1
40
1
41
1
10
37.3114101024245
20
-6.50216912910057
30
0
41
1
10
37.3114101024245
20
-6.88174175954907
30
0
41
1
10
37.3114101024244
20
-7.26131438999755
30
0
0
SPLINE
5
201
100
AcDbEntity
8
1
62
256
6
ByLayer
370
-1
48
1
60
0
100
AcDbSpline
70
4
71
3
72
18
73
14
40
0
40
0
40
0
40
0
40
0.250000000000001
40
0.250000000000001
40
0.374999999999999
40
0.374999999999999
40
0.499999999999996
40
0.499999999999996
40
0.749999999999998
40
0.749999999999998
40
0.874999999999999
40
0.874999999999999
40
1
40
1
40
1
40
1
41
1
10
34.8557735436654
20
-5.23831109208575
30
0
41
1
10
35.0162891802794
20
-5.4018627072814
30
0
41
1
10
35.1891295856597
20
-5.55172732032793
30
0
41
1
10
35.4680676026512
20
-5.75660761386189
30
0
41
1
10
35.5647481873155
20
-5.82180836207792
30
0
41
1
10
35.7627797255214
20
-5.94409131310277
30
0
41
1
10
35.8639671341536
20
-6.00112804771317
30
0
41
1
10
36.1740104877419
20
-6.16035965384339
30
0
41
1
10
36.3893183156498
20
-6.25074953973549
30
0
41
1
10
36.7255667471157
20
-6.36302110810246
30
0
41
1
10
36.8398710207602
20
-6.39654094251043
30
0
41
1
10
37.0730792892129
20
-6.4555963304054
30
0
41
1
10
37.1917662680647
20
-6.48104709574997
30
0
41
1
10
37.3114101417084
20
-6.5021680987717
30
0
0
SPLINE
5
202
100
AcDbEntity
8
1
62
256
6
ByLayer
370
-1
48
1
60
0
100
AcDbSpline
70
4
71
3
72
12
73
8
40
0
40
0
40
0
40
0
40
0.5
40
0.5
40
0.75
40
0.75
40
1
40
1
40
1
40
1
41
1
10
84.4213515374954
20
5.02999999999992
30
0
41
1
10
84.3603915969761
20
5.15973457870302
30
0
41
1
10
84.3046658081196
20
5.29317437466383
30
0
41
1
10
84.2411247121484
20
5.50475238411775
30
0
41
1
10
84.2233475958917
20
5.57777336842361
30
0
41
1
10
84.1989128018584
20
5.72523080893933
30
0
41
1
10
84.1921639125268
20
5.7999136029907
30
0
41
1
10
84.1921639125268
20
5.87576004175307
30
0
0
SPLINE
5
203
100
AcDbEntity
8
1
62
256
6
ByLayer
370
-1
48
1
60
0
100
AcDbSpline
70
4
71
3
72
14
73
10
40
0
40
0
40
0
40
0
40
0.25
40
0.25
40
0.5
40
0.5
40
0.75
40
0.75
40
1
40
1
40
1
40
1
41
1
10
88.4909906612404
20
8.69994242846451
30
0
41
1
10
88.4951441115134
20
8.70011536999817
30
0
41
1
10
88.5048206479569
20
8.69989406789853
30
0
41
1
10
88.5348201249575
20
8.6987979038272
30
0
41
1
10
88.555442437244
20
8.69790839944613
30
0
41
1
10
88.6054962471844
20
8.69575743288627
30
0
41
1
10
88.6353541270853
20
8.69447963689785
30
0
41
1
10
88.7032975471491
20
8.69184677866932
30
0
41
1
10
88.7407507690259
20
8.69051615195022
30
0
41
1
10
88.7817306445718
20
8.68930453118367
30
0
0
SPLINE
5
204
100
AcDbEntity
8
1
62
256
6
ByLayer
370
-1
48
1
60
0
100
AcDbSpline
70
4
71
3
72
8
73
4
40
0
40
0
40
0
40
0
40
1
40
1
40
1
40
1
41
1
10
37.5128797486086
20
-6.5299739686692
30
0
41
1
10
37.4457651043171
20
-6.52247995027864
30
0
41
1
10
37.378614609898
20
-6.51321664873518
30
0
41
1
10
37.3114101024244
20
-6.50216809183695
30
0
0
SPLINE
5
205
100
AcDbEntity
8
1
62
256
6
ByLayer
370
-1
48
1
60
0
100
AcDbSpline
70
4
71
3
72
22
73
18
40
0
40
0
40
0
40
0
40
0.130460911236557
40
0.130460911236557
40
0.260921822473115
40
0.260921822473115
40
0.391382733709672
40
0.391382733709672
40
0.521843644946229
40
0.521843644946229
40
0.652304556182786
40
0.652304556182786
40
0.782765467419344
40
0.782765467419344
40
0.913226378655901
40
0.913226378655901
40
1
40
1
40
1
40
1
41
1
10
39.6686255485427
20
2.25739197498319
30
0
41
1
10
39.2745030390003
20
2.17328080905566
30
0
41
1
10
38.8609913136522
20
2.02833753822949
30
0
41
1
10
38.0324216204525
20
1.62983733634945
30
0
41
1
10
37.6174781936925
20
1.37633549377944
30
0
41
1
10
36.8236352779482
20
0.78365338199319
30
0
41
1
10
36.4448455294418
20
0.444555044878342
30
0
41
1
10
35.7576353076195
20
-0.288624110986888
30
0
41
1
10
35.4493098339273
20
-0.682603575389464
30
0
41
1
10
34.9309794834292
20
-1.48986875359537
30
0
41
1
10
34.7210462603716
20
-1.90304287143334
30
0
41
1
10
34.4185458995987
20
-2.71127237332067
30
0
41
1
10
34.3260205793936
20
-3.10621602809704
30
0
41
1
10
34.2667505481901
20
-3.84220080702306
30
0
41
1
10
34.3000140306534
20
-4.18314018897681
30
0
41
1
10
34.4576428005494
20
-4.68024421066747
30
0
41
1
10
34.5477592852095
20
-4.8600156727893
30
0
41
1
10
34.6629608824653
20
-5.01760005234812
30
0
0
SPLINE
5
206
100
AcDbEntity
8
1
62
256
6
ByLayer
370
-1
48
1
60
0
100
AcDbSpline
70
4
71
3
72
8
73
4
40
0
40
0
40
0
40
0
40
1
40
1
40
1
40
1
41
1
10
34.8154362837175
20
-5.19822954793449
30
0
41
1
10
34.8286504643041
20
-5.21181552492646
30
0
41
1
10
34.8420962051481
20
-5.22517646536292
30
0
41
1
10
34.8557715770319
20
-5.23830920349062
30
0
0
SPLINE
5
207
100
AcDbEntity
8
1
62
256
6
ByLayer
370
-1
48
1
60
0
100
AcDbSpline
70
4
71
3
72
34
73
30
40
0
40
0
40
0
40
0
40
0.0334133816426856
40
0.0334133816426856
40
0.121284892402442
40
0.121284892402442
40
0.16522064778232
40
0.16522064778232
40
0.209156403162197
40
0.209156403162197
40
0.297027913921953
40
0.297027913921953
40
0.472770935441465
40
0.472770935441465
40
0.560642446201221
40
0.560642446201221
40
0.648513956960977
40
0.648513956960977
40
0.736385467720733
40
0.736385467720733
40
0.78032122310061
40
0.78032122310061
40
0.824256978480488
40
0.824256978480488
40
0.912128489240244
40
0.912128489240244
40
0.956064244620122
40
0.956064244620122
40
1
40
1
40
1
40
1
41
1
10
67.8837338547297
20
-5.36151804674501
30
0
41
1
10
67.5454856867606
20
-5.4511949666894
30
0
41
1
10
67.2072755757776
20
-5.53898228395417
30
0
41
1
10
65.979651685263
20
-5.85070176454474
30
0
41
1
10
65.0902977386919
20
-6.06327322033306
30
0
41
1
10
63.7554305603335
20
-6.35982670473189
30
0
41
1
10
63.3103324015474
20
-6.45497842804102
30
0
41
1
10
62.4196486699252
20
-6.63742855230382
30
0
41
1
10
61.9739168865603
20
-6.7247496698981
30
0
41
1
10
60.6381351813675
20
-6.97367325684877
30
0
41
1
10
59.7488376769786
20
-7.12210219910358
30
0
41
1
10
57.0820860185084
20
-7.50993520292079
30
0
41
1
10
55.3057056862382
20
-7.69379133654138
30
0
41
1
10
52.6344980620707
20
-7.84892598668478
30
0
41
1
10
51.7445800574675
20
-7.88027440213628
30
0
41
1
10
49.9668988976088
20
-7.90057028073289
30
0
41
1
10
49.078647985782
20
-7.88958909662281
30
0
41
1
10
47.3012381143209
20
-7.82435947533236
30
0
41
1
10
46.4120489703188
20
-7.77057887344955
30
0
41
1
10
45.076263596266
20
-7.6599726970249
30
0
41
1
10
44.6311584643237
20
-7.61784569882084
30
0
41
1
10
43.7414238854909
20
-7.52383478220528
30
0
41
1
10
43.296678508335
20
-7.47259806865799
30
0
41
1
10
41.9627328527272
20
-7.30340243759048
30
0
41
1
10
41.073631413714
20
-7.17234246713645
30
0
41
1
10
39.7391799449412
20
-6.95115784996986
30
0
41
1
10
39.294240566299
20
-6.87315725493684
30
0
41
1
10
38.4039323057327
20
-6.70796794584189
30
0
41
1
10
37.9585554584934
20
-6.62085888396527
30
0
41
1
10
37.5128797486085
20
-6.52997396866914
30
0
0
SPLINE
5
208
100
AcDbEntity
8
1
62
256
6
ByLayer
370
-1
48
1
60
0
100
AcDbSpline
70
4
71
3
72
16
73
12
40
0
40
0
40
0
40
0
40
0.249999999999999
40
0.249999999999999
40
0.499999999999999
40
0.499999999999999
40
0.749999999999998
40
0.749999999999998
40
0.874999999999999
40
0.874999999999999
40
1
40
1
40
1
40
1
41
1
10
10.1056624327026
20
-29.9139548464691
30
0
41
1
10
10.1212498345487
20
-29.9327542695084
30
0
41
1
10
10.1399018475135
20
-29.9510098933136
30
0
41
1
10
10.1854864096889
20
-29.9862144781928
30
0
41
1
10
10.2124982207834
20
-30.0032856662985
30
0
41
1
10
10.279179996877
20
-30.0350501233767
30
0
41
1
10
10.318938143913
20
-30.0498069467438
30
0
41
1
10
10.3915918423741
20
-30.0668840803113
30
0
41
1
10
10.4185844965196
20
-30.0718038277879
30
0
41
1
10
10.4761894743047
20
-30.0786461490401
30
0
41
1
10
10.5072412025891
20
-30.080592760317
30
0
41
1
10
10.5386751345948
20
-30.080592760317
30
0
0
SPLINE
5
209
100
AcDbEntity
8
1
62
256
6
ByLayer
370
-1
48
1
60
0
100
AcDbSpline
70
4
71
3
72
16
73
12
40
0
40
0
40
0
40
0
40
0.249999999999999
40
0.249999999999999
40
0.499999999999998
40
0.499999999999998
40
0.749999999999997
40
0.749999999999997
40
0.874999999999998
40
0.874999999999998
40
1
40
1
40
1
40
1
41
1
10
13.8943375672974
20
-9.86941261896612
30
0
41
1
10
13.8787501654512
20
-9.81243201498799
30
0
41
1
10
13.8600981524864
20
-9.75655023082965
30
0
41
1
10
13.8145135903111
20
-9.64780841973388
30
0
41
1
10
13.7875017792165
20
-9.59456078532605
30
0
41
1
10
13.720820003123
20
-9.49465699870623
30
0
41
1
10
13.6810618560869
20
-9.44778039735203
30
0
41
1
10
13.6084081576259
20
-9.39323398486454
30
0
41
1
10
13.5814155034803
20
-9.37745951316339
30
0
41
1
10
13.5238105256953
20
-9.35548920253848
30
0
41
1
10
13.4927587974109
20
-9.34922131452501
30
0
41
1
10
13.4613248654052
20
-9.34922131452498
30
0
0
SPLINE
5
20A
100
AcDbEntity
8
1
62
256
6
ByLayer
370
-1
48
1
60
0
100
AcDbSpline
70
4
71
3
72
8
73
4
40
0
40
0
40
0
40
0
40
1
40
1
40
1
40
1
41
1
10
35.6301490441425
20
6.92068166029318
30
0
41
1
10
37.0159059689498
20
5.35478302963375
30
0
41
1
10
38.3541094169604
20
3.79366047402573
30
0
41
1
10
39.66862554854
20
2.25739197498393
30
0
0
SPLINE
5
20B
100
AcDbEntity
8
1
62
256
6
ByLayer
370
-1
48
1
60
0
100
AcDbSpline
70
4
71
3
72
24
73
20
40
0
40
0
40
0
40
0
40
0.122415255121227
40
0.122415255121227
40
0.195547317194457
40
0.195547317194457
40
0.268679379267688
40
0.268679379267688
40
0.41494350341415
40
0.41494350341415
40
0.488075565487381
40
0.488075565487381
40
0.561207627560612
40
0.561207627560612
40
0.707471751707074
40
0.707471751707074
40
0.853735875853537
40
0.853735875853537
40
1
40
1
40
1
40
1
41
1
10
84.501019564933
20
1.9083060355149
30
0
41
1
10
84.5517548822075
20
1.94901746333295
30
0
41
1
10
84.5974895636137
20
2.00386339194054
30
0
41
1
10
84.6624772321806
20
2.11297862821397
30
0
41
1
10
84.6849699585861
20
2.15862583799569
30
0
41
1
10
84.7261358844682
20
2.25967274270053
30
0
41
1
10
84.7448816600067
20
2.31539450036763
30
0
41
1
10
84.7940713381878
20
2.49435850229961
30
0
41
1
10
84.8177979075383
20
2.62950432211349
30
0
41
1
10
84.8387485442711
20
2.85453798412004
30
0
41
1
10
84.8432737020117
20
2.93328933326768
30
0
41
1
10
84.8469765447357
20
3.09825720288734
30
0
41
1
10
84.8461189636295
20
3.18413287254128
30
0
41
1
10
84.8350825725114
20
3.44772941391119
30
0
41
1
10
84.816600776497
20
3.63278747682875
30
0
41
1
10
84.7537367804346
20
4.01903780546257
30
0
41
1
10
84.7089020828877
20
4.22143536668145
30
0
41
1
10
84.5898761914792
20
4.62564175696116
30
0
41
1
10
84.5157971487122
20
4.82900141825226
30
0
41
1
10
84.4213515374465
20
5.02999999999992
30
0
0
SPLINE
5
20C
100
AcDbEntity
8
1
62
256
6
ByLayer
370
-1
48
1
60
0
100
AcDbSpline
70
4
71
3
72
8
73
4
40
0
40
0
40
0
40
0
40
1
40
1
40
1
40
1
41
1
10
38
20
-7.38508400765264
30
0
41
1
10
37.7704639142328
20
-7.33624709348817
30
0
41
1
10
37.5408285328135
20
-7.29508323768888
30
0
41
1
10
37.3114101024245
20
-7.26131438998252
30
0
0
SPLINE
5
20D
100
AcDbEntity
8
1
62
256
6
ByLayer
370
-1
48
1
60
0
100
AcDbSpline
70
4
71
1
72
4
73
2
40
0
40
0
40
1
40
1
41
1
10
39.66862554854
20
2.25739197498393
30
0
41
1
10
39.6686255485401
20
5.25763721292091
30
0
0
SPLINE
5
20E
100
AcDbEntity
8
1
62
256
6
ByLayer
370
-1
48
1
60
0
100
AcDbSpline
70
4
71
4
72
10
73
5
40
0
40
0
40
0
40
0
40
0
40
1
40
1
40
1
40
1
40
1
41
0.980042616004073
10
82.8297507783688
20
2.67352564181834
30
0
41
0.983200853907852
10
82.9305463540421
20
3.21207295844398
30
0
41
0.990572869019876
10
82.9983810068999
20
3.82477845964236
30
0
41
1
10
83.0268600737737
20
4.4558292279481
30
0
41
1
10
83.0268600737736
20
5.02999999999986
30
0
0
SPLINE
5
20F
100
AcDbEntity
8
1
62
256
6
ByLayer
370
-1
48
1
60
0
100
AcDbSpline
70
4
71
3
72
10
73
6
40
0
40
0
40
0
40
0
40
0.5
40
0.5
40
1
40
1
40
1
40
1
41
1
10
38
20
6.05380897428
30
0
41
1
10
37.6174126077244
20
6.19829924095947
30
0
41
1
10
37.227534493991
20
6.338173412868
30
0
41
1
10
36.4362192794627
20
6.6220621783169
30
0
41
1
10
36.0347776996237
20
6.76608789819002
30
0
41
1
10
35.6301490438459
20
6.92068166062836
30
0
0
SPLINE
5
210
100
AcDbEntity
8
1
62
256
6
ByLayer
370
-1
48
1
60
0
100
AcDbSpline
70
4
71
3
72
16
73
12
40
0
40
0
40
0
40
0
40
0.249999999999999
40
0.249999999999999
40
0.499999999999997
40
0.499999999999997
40
0.749999999999996
40
0.749999999999996
40
0.874999999999998
40
0.874999999999998
40
1
40
1
40
1
40
1
41
1
10
13.8943375672974
20
29.9139548464691
30
0
41
1
10
13.8787501654513
20
29.9327542695084
30
0
41
1
10
13.8600981524864
20
29.9510098933135
30
0
41
1
10
13.8145135903111
20
29.9862144781928
30
0
41
1
10
13.7875017792166
20
30.0032856662985
30
0
41
1
10
13.720820003123
20
30.0350501233766
30
0
41
1
10
13.6810618560869
20
30.0498069467437
30
0
41
1
10
13.6084081576259
20
30.0668840803112
30
0
41
1
10
13.5814155034803
20
30.0718038277879
30
0
41
1
10
13.5238105256953
20
30.0786461490401
30
0
41
1
10
13.4927587974109
20
30.0805927603169
30
0
41
1
10
13.4613248654052
20
30.0805927603169
30
0
0
SPLINE
5
211
100
AcDbEntity
8
1
62
256
6
ByLayer
370
-1
48
1
60
0
100
AcDbSpline
70
4
71
3
72
30
73
26
40
0
40
0
40
0
40
0
40
0.125
40
0.125
40
0.1875
40
0.1875
40
0.250000000000001
40
0.250000000000001
40
0.312500000000001
40
0.312500000000001
40
0.375000000000001
40
0.375000000000001
40
0.437500000000001
40
0.437500000000001
40
0.468750000000001
40
0.468750000000001
40
0.500000000000001
40
0.500000000000001
40
0.625000000000001
40
0.625000000000001
40
0.75
40
0.75
40
0.875
40
0.875
40
1
40
1
40
1
40
1
41
1
10
29.4855261981473
20
0.183943967572333
30
0
41
1
10
29.6342316802716
20
-0.218082501655459
30
0
41
1
10
29.7902058288074
20
-0.600944329932759
30
0
41
1
10
30.0381088739318
20
-1.14225411232522
30
0
41
1
10
30.123082490807
20
-1.31716863720945
30
0
41
1
10
30.2983054155035
20
-1.65517621413062
30
0
41
1
10
30.3867619794928
20
-1.81477174664855
30
0
41
1
10
30.5651289175752
20
-2.11616930545867
30
0
41
1
10
30.6551050492566
20
-2.25808102326639
30
0
41
1
10
30.8366533013998
20
-2.52692926809297
30
0
41
1
10
30.9283513513188
20
-2.65402273015565
30
0
41
1
10
31.1126089741843
20
-2.89622817637337
30
0
41
1
10
31.2047844645647
20
-3.01089338137928
30
0
41
1
10
31.3432133956595
20
-3.1774770410907
30
0
41
1
10
31.3893822743756
20
-3.23216908989795
30
0
41
1
10
31.4817793807431
20
-3.3401428578122
30
0
41
1
10
31.5280152257143
20
-3.39293136649366
30
0
41
1
10
31.7591873470881
20
-3.66616565737485
30
0
41
1
10
31.9441566178987
20
-3.90335971509194
30
0
41
1
10
32.3131886519813
20
-4.38669540648067
30
0
41
1
10
32.497347022551
20
-4.63326105337239
30
0
41
1
10
32.8653033384591
20
-5.12144318665429
30
0
41
1
10
33.0491062509359
20
-5.36319723714624
30
0
41
1
10
33.4169515510887
20
-5.83320276854207
30
0
41
1
10
33.6009955772989
20
-6.06152216756877
30
0
41
1
10
33.7855261981474
20
-6.28022129203003
30
0
0
SPLINE
5
212
100
AcDbEntity
8
1
62
256
6
ByLayer
370
-1
48
1
60
0
100
AcDbSpline
70
4
71
3
72
14
73
10
40
0
40
0
40
0
40
0
40
0.25
40
0.25
40
0.5
40
0.5
40
0.75
40
0.75
40
1
40
1
40
1
40
1
41
1
10
90.6647165583714
20
2.9395583639938
30
0
41
1
10
90.6354001057739
20
2.91041434665101
30
0
41
1
10
90.6061080093656
20
2.8840946972484
30
0
41
1
10
90.5486448543691
20
2.8366228796769
30
0
41
1
10
90.5204336887162
20
2.81545548181188
30
0
41
1
10
90.4672559076215
20
2.77871805071652
30
0
41
1
10
90.4426341600263
20
2.76342081125935
30
0
41
1
10
90.4040349987989
20
2.74173811462802
30
0
41
1
10
90.3906770962845
20
2.73563436978455
30
0
41
1
10
90.3864993914887
20
2.73563436978455
30
0
0
SPLINE
5
213
100
AcDbEntity
8
1
62
256
6
ByLayer
370
-1
48
1
60
0
100
AcDbSpline
70
4
71
3
72
12
73
8
40
0
40
0
40
0
40
0
40
0.5
40
0.5
40
0.75
40
0.75
40
1
40
1
40
1
40
1
41
1
10
29.1697377915231
20
3.12419878221411
30
0
41
1
10
29.0696532484777
20
3.43239934356322
30
0
41
1
10
28.988018152427
20
3.73948816085721
30
0
41
1
10
28.8952116577707
20
4.1911777503764
30
0
41
1
10
28.8692279787003
20
4.34050531456396
30
0
41
1
10
28.8287255257386
20
4.63311711331929
30
0
41
1
10
28.8145062133327
20
4.77417680981102
30
0
41
1
10
28.806770454127
20
4.90888840455614
30
0
0
SPLINE
5
214
100
AcDbEntity
8
1
62
256
6
ByLayer
370
-1
48
1
60
0
100
AcDbSpline
70
4
71
3
72
14
73
10
40
0
40
0
40
0
40
0
40
0.0705200632886156
40
0.0705200632886156
40
0.380346708859077
40
0.380346708859077
40
0.690173354429539
40
0.690173354429539
40
1
40
1
40
1
40
1
41
1
10
93.7467845935373
20
3.01958105907451
30
0
41
1
10
93.7463123671471
20
3.01216244997781
30
0
41
1
10
93.7458107031065
20
3.00494792625941
30
0
41
1
10
93.7429732464136
20
2.96712914124845
30
0
41
1
10
93.740131810209
20
2.94019925758485
30
0
41
1
10
93.7340064487655
20
2.89714698989403
30
0
41
1
10
93.7306604802245
20
2.88047832727938
30
0
41
1
10
93.7237228246314
20
2.85805795739253
30
0
41
1
10
93.7201912645252
20
2.8524010820926
30
0
41
1
10
93.7166517498997
20
2.85236836639868
30
0
0
SPLINE
5
215
100
AcDbEntity
8
1
62
256
6
ByLayer
370
-1
48
1
60
0
100
AcDbSpline
70
4
71
3
72
8
73
4
40
0
40
0
40
0
40
0
40
1
40
1
40
1
40
1
41
1
10
29.8931443580943
20
1.6530380986905
30
0
41
1
10
29.7525211827106
20
1.86560327225797
30
0
41
1
10
29.6168833469091
20
2.10171199598551
30
0
41
1
10
29.4855261981472
20
2.36158443930563
30
0
0
SPLINE
5
216
100
AcDbEntity
8
1
62
256
6
ByLayer
370
-1
48
1
60
0
100
AcDbSpline
70
4
71
3
72
50
73
46
40
0
40
0
40
0
40
0
40
0.0059459067024122
40
0.0404406416216223
40
0.0749353765408327
40
0.109430111460043
40
0.143924846379253
40
0.178419581298464
40
0.212914316217674
40
0.247409051136885
40
0.26465641859649
40
0.281903786056095
40
0.316398520975305
40
0.333645888434911
40
0.350893255894516
40
0.385387990813726
40
0.402635358273331
40
0.419882725732937
40
0.454377460652147
40
0.471624828111752
40
0.488872195571358
40
0.523366930490567
40
0.540614297950173
40
0.557861665409778
40
0.592356400328988
40
0.609603767788594
40
0.626851135248198
40
0.661345870167409
40
0.678593237627014
40
0.695840605086619
40
0.73033534000583
40
0.76483007492504
40
0.79932480984425
40
0.833819544763461
40
0.868314279682671
40
0.885561647142276
40
0.902809014601881
40
0.920056382061487
40
0.931913947189965
40
0.937303749521092
40
0.942693551852219
40
0.954551116980698
40
0.971798484440302
40
0.989045851899907
40
1
40
1
40
1
40
1
41
1
10
33.4745593805629
20
7.91388938752431
30
0
41
1
10
33.4633116795159
20
7.90784148613716
30
0
41
1
10
33.3866916600048
20
7.86644630561929
30
0
41
1
10
33.243252506974
20
7.78646079988249
30
0
41
1
10
33.0423055583846
20
7.66835121498133
30
0
41
1
10
32.8391950923466
20
7.54279889570071
30
0
41
1
10
32.6346180371009
20
7.41001236386097
30
0
41
1
10
32.4293548881113
20
7.27033425062453
30
0
41
1
10
32.2241861408417
20
7.1241071871539
30
0
41
1
10
32.0539821132877
20
6.99718595160897
30
0
41
1
10
31.9186956045891
20
6.89284501910689
30
0
41
1
10
31.7841330999341
20
6.78673180627229
30
0
41
1
10
31.6508658940651
20
6.67810569650626
30
0
41
1
10
31.5193125724234
20
6.56725773694359
30
0
41
1
10
31.3890351576331
20
6.45503961195075
30
0
41
1
10
31.2608715791696
20
6.34093284046406
30
0
41
1
10
31.1352217891323
20
6.22527062578632
30
0
41
1
10
31.0113677122855
20
6.10869084725465
30
0
41
1
10
30.8903869865835
20
5.99091382035235
30
0
41
1
10
30.7726391747447
20
5.87229773989981
30
0
41
1
10
30.6571469290245
20
5.75324358537674
30
0
41
1
10
30.5451884677965
20
5.63371426219229
30
0
41
1
10
30.4370646616898
20
5.51407365523534
30
0
41
1
10
30.3315735055775
20
5.39447566837029
30
0
41
1
10
30.2301456443274
20
5.27511682555348
30
0
41
1
10
30.1330097176801
20
5.15634755460565
30
0
41
1
10
30.0387849700376
20
5.03807805754116
30
0
41
1
10
29.9490018248062
20
4.92071831025771
30
0
41
1
10
29.863809949794
20
4.80458849066741
30
0
41
1
10
29.781702231203
20
4.68937082576576
30
0
41
1
10
29.6848940817697
20
4.54723191510476
30
0
41
1
10
29.5781865581887
20
4.38023151241663
30
0
41
1
10
29.4809326066455
20
4.21724683088777
30
0
41
1
10
29.3931235434392
20
4.05872730157247
30
0
41
1
10
29.3277048367842
20
3.93063013247911
30
0
41
1
10
29.279954042512
20
3.83072274750091
30
0
41
1
10
29.2464242667619
20
3.75715971637061
30
0
41
1
10
29.2184247976198
20
3.69255831603542
30
0
41
1
10
29.198765735043
20
3.6451023942009
30
0
41
1
10
29.1862953031041
20
3.61414797553451
30
0
41
1
10
29.1740864151056
20
3.58329650128098
30
0
41
1
10
29.1561115267164
20
3.53650347503023
30
0
41
1
10
29.1333417837157
20
3.47396050926116
30
0
41
1
10
29.1125521777641
20
3.41275411290863
30
0
41
1
10
29.1004715285121
20
3.3748885662659
30
0
41
1
10
29.0959066022255
20
3.36020300215222
30
0
0
SPLINE
5
217
100
AcDbEntity
8
1
62
256
6
ByLayer
370
-1
48
1
60
0
100
AcDbSpline
70
4
71
3
72
24
73
20
40
0
40
0
40
0
40
0
40
0.0624999999999986
40
0.0624999999999986
40
0.124999999999997
40
0.124999999999997
40
0.187499999999996
40
0.187499999999996
40
0.249999999999994
40
0.249999999999994
40
0.312499999999994
40
0.312499999999994
40
0.374999999999995
40
0.374999999999995
40
0.499999999999995
40
0.499999999999995
40
0.749999999999998
40
0.749999999999998
40
1
40
1
40
1
40
1
41
1
10
85.2316266278318
20
4.14865046523997
30
0
41
1
10
85.2033227619169
20
4.13781200696289
30
0
41
1
10
85.1756779693504
20
4.12557820122052
30
0
41
1
10
85.1221094782071
20
4.09746085261557
30
0
41
1
10
85.0959797353957
20
4.08140762690769
30
0
41
1
10
85.0478274980176
20
4.04556376086487
30
0
41
1
10
85.0256480133629
20
4.02574244440515
30
0
41
1
10
84.9861800903661
20
3.9812336850178
30
0
41
1
10
84.9695566722278
20
3.95715908217249
30
0
41
1
10
84.9438223875446
20
3.90658708990657
30
0
41
1
10
84.9347315729633
20
3.87998480648278
30
0
41
1
10
84.9241859064126
20
3.82733310776197
30
0
41
1
10
84.9225722164435
20
3.80069309493038
30
0
41
1
10
84.9265060751699
20
3.72393658905546
30
0
41
1
10
84.9405040517556
20
3.67513984261905
30
0
41
1
10
84.9999525067576
20
3.54043189267082
30
0
41
1
10
85.0627223296368
20
3.46304634396785
30
0
41
1
10
85.2031622557174
20
3.32626257628871
30
0
41
1
10
85.2822529831656
20
3.26619067898528
30
0
41
1
10
85.3671147222865
20
3.21121971570025
30
0
0
SPLINE
5
218
100
AcDbEntity
8
1
62
256
6
ByLayer
370
-1
48
1
60
0
100
AcDbSpline
70
4
71
3
72
22
73
18
40
0
40
0
40
0
40
0
40
0.125
40
0.125
40
0.25
40
0.25
40
0.375
40
0.375
40
0.5
40
0.5
40
0.625
40
0.625
40
0.75
40
0.75
40
0.875
40
0.875
40
1
40
1
40
1
40
1
41
1
10
88.8459635150971
20
2.7072929822466
30
0
41
1
10
88.851096580976
20
2.7072929822466
30
0
41
1
10
88.8458636032105
20
2.71340206398781
30
0
41
1
10
88.8202690984368
20
2.73607919008865
30
0
41
1
10
88.8007760740784
20
2.75207560811401
30
0
41
1
10
88.7548291232914
20
2.79202611638075
30
0
41
1
10
88.728460085271
20
2.81592190180612
30
0
41
1
10
88.6738993954799
20
2.86988584798291
30
0
41
1
10
88.6454356094791
20
2.90014827326084
30
0
41
1
10
88.5878163283335
20
2.96792402253479
30
0
41
1
10
88.5588117992841
20
3.00531634487285
30
0
41
1
10
88.5031160157523
20
3.08563327000658
30
0
41
1
10
88.4761750411925
20
3.12881639558637
30
0
41
1
10
88.4249189859367
20
3.22234620622035
30
0
41
1
10
88.4006996823113
20
3.27272753285064
30
0
41
1
10
88.3579143978616
20
3.37656962650291
30
0
41
1
10
88.3390119314285
20
3.43058621301793
30
0
41
1
10
88.3228436283399
20
3.48699895170856
30
0
0
SPLINE
5
219
100
AcDbEntity
8
1
62
256
6
ByLayer
370
-1
48
1
60
0
100
AcDbSpline
70
4
71
3
72
22
73
18
40
0
40
0
40
0
40
0
40
0.171298890910631
40
0.171298890910631
40
0.342597781821261
40
0.342597781821261
40
0.513896672731892
40
0.513896672731892
40
0.556721395459549
40
0.556721395459549
40
0.599546118187207
40
0.599546118187207
40
0.685195563642522
40
0.685195563642522
40
0.856494454553153
40
0.856494454553153
40
1
40
1
40
1
40
1
41
1
10
38
20
-7.38508400765264
30
0
41
1
10
39.7647233742825
20
-7.76055283063013
30
0
41
1
10
41.5181385763591
20
-8.05999713519441
30
0
41
1
10
45.0163175069975
20
-8.49467870208372
30
0
41
1
10
46.7611756952754
20
-8.62984019755916
30
0
41
1
10
50.256496673897
20
-8.72810810515568
30
0
41
1
10
52.007012584391
20
-8.69099323610561
30
0
41
1
10
54.2088079463034
20
-8.53598138916692
30
0
41
1
10
54.6500865693066
20
-8.4995351566391
30
0
41
1
10
55.5305836403377
20
-8.41623756339126
30
0
41
1
10
55.970220998723
20
-8.36936332681242
30
0
41
1
10
57.287609514678
20
-8.21341403682811
30
0
41
1
10
58.1638406527171
20
-8.08901586338504
30
0
41
1
10
60.7887937392009
20
-7.65724959807633
30
0
41
1
10
62.5336963422994
20
-7.29095211121685
30
0
41
1
10
65.7453554169081
20
-6.49276307815717
30
0
41
1
10
67.2114408540552
20
-6.08153859788393
30
0
41
1
10
68.6832974595099
20
-5.62905065814439
30
0
0
SPLINE
5
21A
100
AcDbEntity
8
1
62
256
6
ByLayer
370
-1
48
1
60
0
100
AcDbSpline
70
4
71
3
72
8
73
4
40
0
40
0
40
0
40
0
40
1
40
1
40
1
40
1
41
1
10
85.6843498503663
20
3.05195914130906
30
0
41
1
10
86.0414860666665
20
2.91253208268418
30
0
41
1
10
86.417491649348
20
2.80825428287969
30
0
41
1
10
86.8216692281034
20
2.74394056102713
30
0
0
SPLINE
5
21B
100
AcDbEntity
8
1
62
256
6
ByLayer
370
-1
48
1
60
0
100
AcDbSpline
70
4
71
3
72
18
73
14
40
0
40
0
40
0
40
0
40
0.25
40
0.25
40
0.375000000000001
40
0.375000000000001
40
0.500000000000002
40
0.500000000000002
40
0.750000000000001
40
0.750000000000001
40
0.875
40
0.875
40
1
40
1
40
1
40
1
41
1
10
33.7855261981474
20
-6.28022129203003
30
0
41
1
10
33.9704211413594
20
-6.46621630520991
30
0
41
1
10
34.1863622559721
20
-6.60661796467167
30
0
41
1
10
34.5550987197806
20
-6.77585390787647
30
0
41
1
10
34.6855445006353
20
-6.82521729445256
30
0
41
1
10
34.961956295946
20
-6.91305328823827
30
0
41
1
10
35.1066667940416
20
-6.95109357233835
30
0
41
1
10
35.5560730566711
20
-7.05175165528547
30
0
41
1
10
35.8775471972583
20
-7.10163014955708
30
0
41
1
10
36.3954661711383
20
-7.16663833483602
30
0
41
1
10
36.5734795871412
20
-7.18652926614004
30
0
41
1
10
36.9363394411699
20
-7.22459970913033
30
0
41
1
10
37.1217758320015
20
-7.24285027526955
30
0
41
1
10
37.3114101021071
20
-7.26131438995125
30
0
0
SPLINE
5
21C
100
AcDbEntity
8
1
62
256
6
ByLayer
370
-1
48
1
60
0
100
AcDbSpline
70
4
71
3
72
10
73
6
40
0
40
0
40
0
40
0
40
0.5
40
0.5
40
1
40
1
40
1
40
1
41
1
10
35.6301490438459
20
6.92068166062836
30
0
41
1
10
35.2498196352278
20
7.0690869261519
30
0
41
1
10
34.8786612893761
20
7.22071434644621
30
0
41
1
10
34.1589099825106
20
7.5469910042124
30
0
41
1
10
33.8102423826934
20
7.72147979416414
30
0
41
1
10
33.4745593805531
20
7.91388938751902
30
0
0
SPLINE
5
21D
100
AcDbEntity
8
1
62
256
6
ByLayer
370
-1
48
1
60
0
100
AcDbSpline
70
4
71
3
72
20
73
16
40
0
40
0
40
0
40
0
40
0.250000000000001
40
0.250000000000001
40
0.375000000000001
40
0.375000000000001
40
0.437500000000001
40
0.437500000000001
40
0.500000000000002
40
0.500000000000002
40
0.750000000000001
40
0.750000000000001
40
0.875
40
0.875
40
1
40
1
40
1
40
1
41
1
10
28.5
20
9.1103616649406
30
0
41
1
10
28.3621020288654
20
8.85463546102267
30
0
41
1
10
28.2615285441452
20
8.58550243826051
30
0
41
1
10
28.1620665587361
20
8.16105609797944
30
0
41
1
10
28.1375490096663
20
8.01610293168361
30
0
41
1
10
28.1137362516002
20
7.79326137617372
30
0
41
1
10
28.1079755395682
20
7.71802083289245
30
0
41
1
10
28.1008557455396
20
7.56747362476014
30
0
41
1
10
28.0994681088995
20
7.49195155979857
30
0
41
1
10
28.1030327040756
20
7.11310128519725
30
0
41
1
10
28.1391772266349
20
6.80604095963096
30
0
41
1
10
28.2405080309273
20
6.33967589434116
30
0
41
1
10
28.2822983443763
20
6.18316044731651
30
0
41
1
10
28.380262296635
20
5.87284199475289
30
0
41
1
10
28.4365393187674
20
5.71846487023771
30
0
41
1
10
28.5
20
5.56493173937409
30
0
0
SPLINE
5
21E
100
AcDbEntity
8
1
62
256
6
ByLayer
370
-1
48
1
60
0
100
AcDbSpline
70
4
71
3
72
12
73
8
40
0
40
0
40
0
40
0
40
0.499999999999987
40
0.499999999999987
40
0.749999999999993
40
0.749999999999993
40
1
40
1
40
1
40
1
41
1
10
86.1638698261521
20
1.64998629558443
30
0
41
1
10
85.9935764142394
20
1.63854794234246
30
0
41
1
10
85.8056719772345
20
1.64548849714942
30
0
41
1
10
85.5088168320522
20
1.68370200931454
30
0
41
1
10
85.4068214262757
20
1.70122947814193
30
0
41
1
10
85.2006115411986
20
1.74577845571585
30
0
41
1
10
85.0966844851394
20
1.77269554778653
30
0
41
1
10
84.9922494209394
20
1.80434016789286
30
0
0
SPLINE
5
21F
100
AcDbEntity
8
1
62
256
6
ByLayer
370
-1
48
1
60
0
100
AcDbSpline
70
4
71
3
72
8
73
4
40
0
40
0
40
0
40
0
40
1
40
1
40
1
40
1
41
1
10
86.8216692281034
20
2.74394056102713
30
0
41
1
10
86.9416242355152
20
2.72485302775709
30
0
41
1
10
87.0609981270032
20
2.70973331546384
30
0
41
1
10
87.1794869211948
20
2.69846969731978
30
0
0
SPLINE
5
220
100
AcDbEntity
8
1
62
256
6
ByLayer
370
-1
48
1
60
0
100
AcDbSpline
70
4
71
3
72
12
73
8
40
0
40
0
40
0
40
0
40
0.499999999999999
40
0.499999999999999
40
0.75
40
0.75
40
1
40
1
40
1
40
1
41
1
10
29.8931443692643
20
1.65303810755921
30
0
41
1
10
30.5472581233668
20
0.709619156540072
30
0
41
1
10
31.2008839652224
20
-0.225482132085119
30
0
41
1
10
32.1752515134874
20
-1.60464173914659
30
0
41
1
10
32.4990461005771
20
-2.06035816163262
30
0
41
1
10
33.1441061235017
20
-2.96038697386021
30
0
41
1
10
33.4653857979898
20
-3.40477937828419
30
0
41
1
10
33.7855261981474
20
-3.84108541943752
30
0
0
SPLINE
5
221
100
AcDbEntity
8
1
62
256
6
ByLayer
370
-1
48
1
60
0
100
AcDbSpline
70
4
71
3
72
10
73
6
40
0
40
0
40
0
40
0
40
0.5
40
0.5
40
1
40
1
40
1
40
1
41
1
10
87.1794869211948
20
2.69846969731978
30
0
41
1
10
87.3238444180149
20
2.66121561697173
30
0
41
1
10
87.4620579789811
20
2.62729191436409
30
0
41
1
10
87.7210021755072
20
2.56196416364529
30
0
41
1
10
87.8383710118195
20
2.53141423676217
30
0
41
1
10
87.9401730036078
20
2.49978466007499
30
0
0
SPLINE
5
222
100
AcDbEntity
8
1
62
256
6
ByLayer
370
-1
48
1
60
0
100
AcDbSpline
70
4
71
3
72
8
73
4
40
0
40
0
40
0
40
0
40
1
40
1
40
1
40
1
41
1
10
87.281691132662
20
-8.6902938479889
30
0
41
1
10
87.4873958309837
20
-8.69298428369717
30
0
41
1
10
87.6886216792491
20
-8.69575346917293
30
0
41
1
10
87.8853624482305
20
-8.69766956862884
30
0
0
SPLINE
5
223
100
AcDbEntity
8
1
62
256
6
ByLayer
370
-1
48
1
60
0
100
AcDbSpline
70
4
71
3
72
17
73
13
40
0
40
0
40
0
40
0
40
0.158453476997622
40
0.316906953995244
40
0.475360430992866
40
0.554587169491677
40
0.594200538741083
40
0.633813907990488
40
0.713040646489299
40
0.79226738498811
40
0.950720861985732
40
1
40
1
40
1
40
1
41
0.999999999999999
10
83.0268600737736
20
5.02999999999986
30
0
41
0.999999999999999
10
82.7998528129335
20
5.01793886750895
30
0
41
0.999999999999999
10
82.345695828159
20
4.99245687785737
30
0
41
0.999999999999999
10
81.6640936177749
20
4.94971445887785
30
0
41
0.999999999999999
10
81.096102066979
20
4.91001927368695
30
0
41
0.999999999999999
10
80.698759507485
20
4.88000435684532
30
0
41
0.999999999999999
10
80.471996894349
20
4.86221708244753
30
0
41
0.999999999999999
10
80.2455488505957
20
4.84400076289561
30
0
41
0.999999999999999
10
79.962380808147
20
4.82040892432449
30
0
41
0.999999999999999
10
79.5080894433752
20
4.78086292201912
30
0
41
0.999999999999999
10
79.0957903190687
20
4.74262329483097
30
0
41
0.999999999999999
10
78.797481857326
20
4.71343898170958
30
0
41
0.999999999999999
10
78.7267360527417
20
4.70643399996027
30
0
0
SPLINE
5
224
100
AcDbEntity
8
1
62
256
6
ByLayer
370
-1
48
1
60
0
100
AcDbSpline
70
4
71
3
72
8
73
4
40
0
40
0
40
0
40
0
40
1
40
1
40
1
40
1
41
1
10
76.7308296851122
20
5.77838293125859
30
0
41
1
10
76.4564879355458
20
5.87510225351392
30
0
41
1
10
76.1810368503904
20
5.97601883361281
30
0
41
1
10
75.9046774144756
20
6.08037222975489
30
0
0
SPLINE
5
225
100
AcDbEntity
8
1
62
256
6
ByLayer
370
-1
48
1
60
0
100
AcDbSpline
70
4
71
3
72
42
73
38
40
0
40
0
40
0
40
0
40
0.0624999999999995
40
0.0624999999999995
40
0.124999999999999
40
0.124999999999999
40
0.156249999999999
40
0.156249999999999
40
0.187499999999999
40
0.187499999999999
40
0.249999999999999
40
0.249999999999999
40
0.312499999999999
40
0.312499999999999
40
0.343749999999999
40
0.343749999999999
40
0.374999999999999
40
0.374999999999999
40
0.499999999999999
40
0.499999999999999
40
0.531249999999999
40
0.531249999999999
40
0.562499999999999
40
0.562499999999999
40
0.625
40
0.625
40
0.6875
40
0.6875
40
0.75
40
0.75
40
0.8125
40
0.8125
40
0.875
40
0.875
40
0.9375
40
0.9375
40
1
40
1
40
1
40
1
41
1
10
39.6686255485404
20
5.2576372129208
30
0
41
1
10
40.6076563106531
20
4.9554348854474
30
0
41
1
10
41.5452350166445
20
4.63905319503374
30
0
41
1
10
43.4195470099932
20
3.98248807748786
30
0
41
1
10
44.356676328237
20
3.64320136201877
30
0
41
1
10
45.762705861515
20
3.11862015905609
30
0
41
1
10
46.2315617164472
20
2.94142923718363
30
0
41
1
10
47.1698045517934
20
2.58277524724693
30
0
41
1
10
47.6393796185839
20
2.40106810693632
30
0
41
1
10
49.0472009810102
20
1.85074567585679
30
0
41
1
10
49.984432738785
20
1.47850173947094
30
0
41
1
10
51.8576822821501
20
0.726785523861054
30
0
41
1
10
52.7938787582184
20
0.347750517681703
30
0
41
1
10
54.1992100041303
20
-0.221413135029906
30
0
41
1
10
54.6678587889745
20
-0.411155295563873
30
0
41
1
10
55.6058072432733
20
-0.790081985859359
30
0
41
1
10
56.0753079439154
20
-0.979373344459503
30
0
41
1
10
58.4202561624759
20
-1.92038116233107
30
0
41
1
10
60.2915830856701
20
-2.65586962961436
30
0
41
1
10
62.634966173351
20
-3.52980688035299
30
0
41
1
10
63.1037942416079
20
-3.7024601220123
30
0
41
1
10
64.0422286245196
20
-4.04239180576471
30
0
41
1
10
64.5117145584921
20
-4.20962597061418
30
0
41
1
10
65.9186327196731
20
-4.70111930400682
30
0
41
1
10
66.8555902479029
20
-5.01547316089508
30
0
41
1
10
68.7293857341974
20
-5.61396980422964
30
0
41
1
10
69.6664127262617
20
-5.89774133200808
30
0
41
1
10
71.5425067128109
20
-6.43102061863783
30
0
41
1
10
72.4824988304468
20
-6.68102251366403
30
0
41
1
10
74.356360705642
20
-7.14024799108032
30
0
41
1
10
75.2914184575413
20
-7.34958397780991
30
0
41
1
10
77.1585422266775
20
-7.72672897525169
30
0
41
1
10
78.0913035719311
20
-7.89360943914986
30
0
41
1
10
79.9569933302792
20
-8.1822245055692
30
0
41
1
10
80.8895401884901
20
-8.30424982179295
30
0
41
1
10
82.7573410130918
20
-8.50056009826008
30
0
41
1
10
83.6925780889591
20
-8.57489215502244
30
0
41
1
10
84.6304262617061
20
-8.62466514584708
30
0
0
SPLINE
5
226
100
AcDbEntity
8
1
62
256
6
ByLayer
370
-1
48
1
60
0
100
AcDbSpline
70
4
71
3
72
16
73
12
40
0
40
0
40
0
40
0
40
0.125000000000001
40
0.125000000000001
40
0.250000000000001
40
0.250000000000001
40
0.500000000000001
40
0.500000000000001
40
0.75
40
0.75
40
1
40
1
40
1
40
1
41
1
10
10.5386751345948
20
-9.34922131452504
30
0
41
1
10
10.5071959726827
20
-9.34922131452504
30
0
41
1
10
10.4765695733598
20
-9.35536120669448
30
0
41
1
10
10.4184736929998
20
-9.37748487924958
30
0
41
1
10
10.3920418953324
20
-9.39290424748299
30
0
41
1
10
10.3182367311259
20
-9.44829073160841
30
0
41
1
10
10.2791703657593
20
-9.49467220053404
30
0
41
1
10
10.2125137122668
20
-9.59453680346894
30
0
41
1
10
10.1857347330744
20
-9.64728479257926
30
0
41
1
10
10.1400559187761
20
-9.75611455014871
30
0
41
1
10
10.1212556944726
20
-9.81241059371422
30
0
41
1
10
10.1056624327025
20
-9.86941261896612
30
0
0
SPLINE
5
227
100
AcDbEntity
8
1
62
256
6
ByLayer
370
-1
48
1
60
0
100
AcDbSpline
70
4
71
3
72
22
73
18
40
0
40
0
40
0
40
0
40
0.125
40
0.125
40
0.250000000000001
40
0.250000000000001
40
0.375000000000001
40
0.375000000000001
40
0.5
40
0.5
40
0.625
40
0.625
40
0.75
40
0.75
40
0.875
40
0.875
40
1
40
1
40
1
40
1
41
1
10
87.7740132607717
20
1.92816047049482
30
0
41
1
10
87.8428271253052
20
1.9502619152986
30
0
41
1
10
87.9063891262892
20
1.97388493633756
30
0
41
1
10
88.0174778275905
20
2.02216681282835
30
0
41
1
10
88.065556102843
20
2.04695193937587
30
0
41
1
10
88.1467579318297
20
2.09781251652342
30
0
41
1
10
88.179958071983
20
2.12409379325649
30
0
41
1
10
88.2286399805677
20
2.17607895008149
30
0
41
1
10
88.2445433861021
20
2.20196936864812
30
0
41
1
10
88.2594521073837
20
2.25354560770472
30
0
41
1
10
88.258254214948
20
2.27938224666974
30
0
41
1
10
88.2387385944368
20
2.32893733231313
30
0
41
1
10
88.2205874502808
20
2.35288197384435
30
0
41
1
10
88.1674783156323
20
2.39910345193562
30
0
41
1
10
88.1321786353077
20
2.42144837344935
30
0
41
1
10
88.0472130600508
20
2.4627899013696
30
0
41
1
10
87.9973747215217
20
2.48201225610356
30
0
41
1
10
87.9401730036125
20
2.4997846600759
30
0
0
SPLINE
5
228
100
AcDbEntity
8
1
62
256
6
ByLayer
370
-1
48
1
60
0
100
AcDbSpline
70
4
71
3
72
8
73
4
40
0
40
0
40
0
40
0
40
1
40
1
40
1
40
1
41
1
10
29.1697377915231
20
3.12419878221405
30
0
41
1
10
29.2568230592994
20
2.8560282176372
30
0
41
1
10
29.3614058514632
20
2.60211446073538
30
0
41
1
10
29.4855269844604
20
2.36158291552627
30
0
0
SPLINE
5
229
100
AcDbEntity
8
1
62
256
6
ByLayer
370
-1
48
1
60
0
100
AcDbSpline
70
4
71
3
72
12
73
8
40
0
40
0
40
0
40
0
40
0.500000000000003
40
0.500000000000003
40
0.750000000000001
40
0.750000000000001
40
1
40
1
40
1
40
1
41
1
10
33.7855261981474
20
-3.84108541943755
30
0
41
1
10
33.9372240526347
20
-4.04653626156281
30
0
41
1
10
34.1047173297036
20
-4.26757860915018
30
0
41
1
10
34.3737832538302
20
-4.6193804019093
30
0
41
1
10
34.4665112054739
20
-4.73994369499354
30
0
41
1
10
34.6577511721334
20
-4.98654680134143
30
0
41
1
10
34.7558709945671
20
-5.11206265017182
30
0
41
1
10
34.8557746635622
20
-5.23830608964965
30
0
0
SPLINE
5
22A
100
AcDbEntity
8
1
62
256
6
ByLayer
370
-1
48
1
60
0
100
AcDbSpline
70
4
71
3
72
12
73
8
40
0
40
0
40
0
40
0
40
0.51666234970381
40
0.51666234970381
40
0.774993524555721
40
0.774993524555721
40
1
40
1
40
1
40
1
41
1
10
90.999509035814
20
5.71043899426849
30
0
41
1
10
91.0151886923459
20
5.56939771056341
30
0
41
1
10
91.0543654127349
20
5.4287995670644
30
0
41
1
10
91.1553441946327
20
5.22095841628988
30
0
41
1
10
91.1959935816553
20
5.15288701253982
30
0
41
1
10
91.284479590695
20
5.03170697780004
30
0
41
1
10
91.3308635837797
20
4.97741347723851
30
0
41
1
10
91.3832310963543
20
4.9257787581289
30
0
0
SPLINE
5
22B
100
AcDbEntity
8
1
62
256
6
ByLayer
370
-1
48
1
60
0
100
AcDbSpline
70
4
71
3
72
8
73
4
40
0
40
0
40
0
40
0
40
1
40
1
40
1
40
1
41
1
10
90.9934587855629
20
5.78534261636824
30
0
41
1
10
90.9947104743691
20
5.76048729316508
30
0
41
1
10
90.9967219672321
20
5.73550916909943
30
0
41
1
10
90.9995090358139
20
5.71043899426849
30
0
0
SPLINE
5
22C
100
AcDbEntity
8
1
62
256
6
ByLayer
370
-1
48
1
60
0
100
AcDbSpline
70
4
71
3
72
32
73
28
40
0
40
0
40
0
40
0
40
0.125
40
0.125
40
0.250000000000001
40
0.250000000000001
40
0.312500000000001
40
0.312500000000001
40
0.375
40
0.375
40
0.499999999999999
40
0.499999999999999
40
0.5625
40
0.5625
40
0.625
40
0.625
40
0.6875
40
0.6875
40
0.71875
40
0.71875
40
0.75
40
0.75
40
0.8125
40
0.8125
40
0.875
40
0.875
40
1
40
1
40
1
40
1
41
1
10
32.6505337731106
20
8.4258729224068
30
0
41
1
10
32.436034017052
20
8.55943316866316
30
0
41
1
10
32.2355522204544
20
8.69132323587215
30
0
41
1
10
31.8593829572851
20
8.95637641007505
30
0
41
1
10
31.6837135473054
20
9.08950069645246
30
0
41
1
10
31.4377359671051
20
9.293283612376
30
0
41
1
10
31.35683205492
20
9.36025831473225
30
0
41
1
10
31.1944798288536
20
9.48968372762727
30
0
41
1
10
31.1132737557628
20
9.55235667163524
30
0
41
1
10
30.8672363508529
20
9.73136622846118
30
0
41
1
10
30.7004504153607
20
9.83859717723988
30
0
41
1
10
30.4398671469003
20
9.96399265858275
30
0
41
1
10
30.3511856313134
20
9.99988161519008
30
0
41
1
10
30.1688137542116
20
10.0558673614175
30
0
41
1
10
30.0764070692679
20
10.0755057069754
30
0
41
1
10
29.889567281182
20
10.0944958200327
30
0
41
1
10
29.795041467972
20
10.0938741753752
30
0
41
1
10
29.6518894344244
20
10.0750043628351
30
0
41
1
10
29.6037299914564
20
10.0656454540786
30
0
41
1
10
29.508881403904
20
10.0410102732143
30
0
41
1
10
29.4620459548312
20
10.0257433500174
30
0
41
1
10
29.3235085999043
20
9.97129388421632
30
0
41
1
10
29.2337713445196
20
9.9234557080145
30
0
41
1
10
29.0607369064914
20
9.80604045802176
30
0
41
1
10
28.9769286610184
20
9.7358082108297
30
0
41
1
10
28.7441703734712
20
9.50262858518948
30
0
41
1
10
28.6113320234731
20
9.31682239458735
30
0
41
1
10
28.5
20
9.11036166494057
30
0
0
SPLINE
5
22D
100
AcDbEntity
8
1
62
256
6
ByLayer
370
-1
48
1
60
0
100
AcDbSpline
70
4
71
3
72
35
73
31
40
0
40
0
40
0
40
0
40
0.0205978255839137
40
0.0750090574959181
40
0.129420289407924
40
0.183831521319928
40
0.238242753231933
40
0.347065217055943
40
0.374270833011945
40
0.401476448967947
40
0.42868206492395
40
0.455887680879952
40
0.483093296835954
40
0.496696104813956
40
0.510298912791957
40
0.523901720769958
40
0.537504528747959
40
0.551107336725961
40
0.564710144703962
40
0.591915760659964
40
0.619121376615967
40
0.673532608527971
40
0.727943840439976
40
0.782355072351981
40
0.836766304263986
40
0.863971920219988
40
0.89117753617599
40
0.904780344153992
40
0.945588768087995
40
1
40
1
40
1
40
1
41
1
10
52.7648053041159
20
0.35942069164301
30
0
41
1
10
52.6749342422458
20
0.373804407742313
30
0
41
1
10
52.3476591272758
20
0.426147220430408
30
0
41
1
10
51.7829937452294
20
0.516227883012363
30
0
41
1
10
51.0708917553092
20
0.629225737519931
30
0
41
1
10
50.3587222891331
20
0.741506313369655
30
0
41
1
10
49.4088056118781
20
0.889903747796183
30
0
41
1
10
48.5771832042173
20
1.01838529438831
30
0
41
1
10
47.8643298593457
20
1.12733879242791
30
0
41
1
10
47.5079909605566
20
1.1813174565288
30
0
41
1
10
47.151771598839
20
1.23485512563792
30
0
41
1
10
46.7956388124009
20
1.2879250987524
30
0
41
1
10
46.4985944371916
20
1.33184575046025
30
0
41
1
10
46.2607023756312
20
1.36687407442835
30
0
41
1
10
46.0820989408697
20
1.39310991830843
30
0
41
1
10
45.903502088085
20
1.41929213681405
30
0
41
1
10
45.7251327380043
20
1.44534234240388
30
0
41
1
10
45.5469693325123
20
1.47123821805101
30
0
41
1
10
45.309758424745
20
1.5054923142342
30
0
41
1
10
45.0132180185913
20
1.547939703004
30
0
41
1
10
44.5379113086501
20
1.61534456032558
30
0
41
1
10
43.9429817372308
20
1.69874500420542
30
0
41
1
10
43.2291156332641
20
1.79737405601921
30
0
41
1
10
42.5160080749187
20
1.89409861407702
30
0
41
1
10
41.9226151345466
20
1.97289966909642
30
0
41
1
10
41.4484802189431
20
2.03464949321969
30
0
41
1
10
41.1523966570391
20
2.07265231556155
30
0
41
1
10
40.7970948229137
20
2.11772955394528
30
0
41
1
10
40.322702099993
20
2.17712041584866
30
0
41
1
10
39.9066788873603
20
2.22833241717027
30
0
41
1
10
39.6686255485428
20
2.25739197498314
30
0
0
SPLINE
5
22E
100
AcDbEntity
8
1
62
256
6
ByLayer
370
-1
48
1
60
0
100
AcDbSpline
70
4
71
3
72
18
73
14
40
0
40
0
40
0
40
0
40
0.172212451334898
40
0.172212451334898
40
0.448141634223262
40
0.448141634223262
40
0.586106225667444
40
0.586106225667444
40
0.655088521389536
40
0.655088521389536
40
0.724070817111628
40
0.724070817111628
40
1
40
1
40
1
40
1
41
1
10
58.7280863464048
20
8.69995839482007
30
0
41
1
10
59.7121113090437
20
8.70003043849306
30
0
41
1
10
60.6943530564004
20
8.6728973708031
30
0
41
1
10
63.2494569005841
20
8.53199373924591
30
0
41
1
10
64.8219262480391
20
8.37603146857248
30
0
41
1
10
67.1875994134788
20
8.04333516891401
30
0
41
1
10
67.9772969258514
20
7.91600354864454
30
0
41
1
10
69.1643415478456
20
7.70091328238613
30
0
41
1
10
69.5604390845835
20
7.62519886429135
30
0
41
1
10
70.353636185045
20
7.46587352852856
30
0
41
1
10
70.7510196085042
20
7.38219778032899
30
0
41
1
10
72.7361412824826
20
6.94555418336861
30
0
41
1
10
74.3197694926286
20
6.53753311159656
30
0
41
1
10
75.9046774144756
20
6.08037222975489
30
0
0
SPLINE
5
22F
100
AcDbEntity
8
1
62
256
6
ByLayer
370
-1
48
1
60
0
100
AcDbSpline
70
4
71
3
72
10
73
6
40
0
40
0
40
0
40
0
40
0.5
40
0.5
40
1
40
1
40
1
40
1
41
1
10
83.0268600737736
20
8.62454998031075
30
0
41
1
10
83.2354196092845
20
8.6318935879118
30
0
41
1
10
83.4366132530385
20
8.64085021551082
30
0
41
1
10
83.8249922641285
20
8.6594901070803
30
0
41
1
10
84.0121767417947
20
8.66918511077003
30
0
41
1
10
84.1921639125268
20
8.67765368076093
30
0
0
SPLINE
5
230
100
AcDbEntity
8
1
62
256
6
ByLayer
370
-1
48
1
60
0
100
AcDbSpline
70
4
71
3
72
16
73
12
40
0
40
0
40
0
40
0
40
0.125000000000001
40
0.125000000000001
40
0.250000000000002
40
0.250000000000002
40
0.500000000000001
40
0.500000000000001
40
0.750000000000001
40
0.750000000000001
40
1
40
1
40
1
40
1
41
1
10
13.4613248654051
20
-30.080592760317
30
0
41
1
10
13.4928040273172
20
-30.0805927603169
30
0
41
1
10
13.5234304266402
20
-30.0786859906591
30
0
41
1
10
13.5815263070002
20
-30.0717959485602
30
0
41
1
10
13.6079581046675
20
-30.0669872793662
30
0
41
1
10
13.681763268874
20
-30.049647240705
30
0
41
1
10
13.7208296342407
20
-30.0350452819075
30
0
41
1
10
13.7874862877331
20
-30.0032932993815
30
0
41
1
10
13.8142652669256
20
-29.9863830332717
30
0
41
1
10
13.8599440812239
20
-29.9511519005795
30
0
41
1
10
13.8787443055274
20
-29.9327613369588
30
0
41
1
10
13.8943375672974
20
-29.9139548464691
30
0
0
SPLINE
5
231
100
AcDbEntity
8
1
62
256
6
ByLayer
370
-1
48
1
60
0
100
AcDbSpline
70
4
71
3
72
8
73
4
40
0
40
0
40
0
40
0
40
1
40
1
40
1
40
1
41
1
10
32.6505337731106
20
8.4258729224068
30
0
41
1
10
32.9111609000534
20
8.26359104435167
30
0
41
1
10
33.1858637765456
20
8.09295833371098
30
0
41
1
10
33.4745596176876
20
7.91389078008052
30
0
0
SPLINE
5
232
100
AcDbEntity
8
1
62
256
6
ByLayer
370
-1
48
1
60
0
100
AcDbSpline
70
4
71
3
72
8
73
4
40
0
40
0
40
0
40
0
40
1
40
1
40
1
40
1
41
1
10
87.1794869211948
20
2.69846969731978
30
0
41
1
10
87.4331959781147
20
2.6752094633658
30
0
41
1
10
87.6857331414795
20
2.66823996966502
30
0
41
1
10
87.9371487977152
20
2.67702576263039
30
0
0
SPLINE
5
233
100
AcDbEntity
8
1
62
256
6
ByLayer
370
-1
48
1
60
0
100
AcDbSpline
70
4
71
3
72
74
73
70
40
-0.0312500000000017
40
-0.0312500000000017
40
0
40
0
40
0.0312499999999967
40
0.0312499999999967
40
0.0468749999999951
40
0.0468749999999951
40
0.0624999999999936
40
0.0624999999999936
40
0.0937499999999906
40
0.0937499999999906
40
0.124999999999988
40
0.124999999999988
40
0.156249999999985
40
0.156249999999985
40
0.187499999999981
40
0.187499999999981
40
0.218749999999978
40
0.218749999999978
40
0.249999999999975
40
0.249999999999975
40
0.281249999999973
40
0.281249999999973
40
0.31249999999997
40
0.31249999999997
40
0.328124999999968
40
0.328124999999968
40
0.343749999999967
40
0.343749999999967
40
0.374999999999968
40
0.374999999999968
40
0.40624999999997
40
0.40624999999997
40
0.437499999999971
40
0.437499999999971
40
0.468749999999973
40
0.468749999999973
40
0.499999999999975
40
0.499999999999975
40
0.531249999999976
40
0.531249999999976
40
0.562499999999978
40
0.562499999999978
40
0.593749999999979
40
0.593749999999979
40
0.624999999999981
40
0.624999999999981
40
0.656249999999982
40
0.656249999999982
40
0.687499999999984
40
0.687499999999984
40
0.718749999999986
40
0.718749999999986
40
0.749999999999987
40
0.749999999999987
40
0.781249999999989
40
0.781249999999989
40
0.81249999999999
40
0.81249999999999
40
0.843749999999992
40
0.843749999999992
40
0.874999999999994
40
0.874999999999994
40
0.906249999999995
40
0.906249999999995
40
0.937499999999997
40
0.937499999999997
40
0.968749999999998
40
0.968749999999998
40
1
40
1
40
1.03125
40
1.03125
41
1
10
90.5339428427837
20
-1.83474601568392
30
0
41
1
10
90.5257868184671
20
-1.67683890142717
30
0
41
1
10
90.5292678697297
20
-1.59853336258763
30
0
41
1
10
90.5456211086017
20
-1.48204299105328
30
0
41
1
10
90.5529402184438
20
-1.44337560397784
30
0
41
1
10
90.5714374568695
20
-1.36638328977932
30
0
41
1
10
90.5826858164739
20
-1.32790544800528
30
0
41
1
10
90.6216454401583
20
-1.21542644308499
30
0
41
1
10
90.654623717494
20
-1.14366942708571
30
0
41
1
10
90.7346469578691
20
-1.00670861874397
30
0
41
1
10
90.7822708332843
20
-0.941047257422525
30
0
41
1
10
90.8880615753739
20
-0.822216402914648
30
0
41
1
10
90.9464845462207
20
-0.768347910243023
30
0
41
1
10
91.0746559767203
20
-0.6720402143076
30
0
41
1
10
91.143834486416
20
-0.63025202754676
30
0
41
1
10
91.2875947336972
20
-0.561935494765805
30
0
41
1
10
91.3633198364252
20
-0.534785325523472
30
0
41
1
10
91.5195392026917
20
-0.496123696294575
30
0
41
1
10
91.5984421550979
20
-0.484891760129187
30
0
41
1
10
91.7577916240028
20
-0.478197522784484
30
0
41
1
10
91.8390683527393
20
-0.482969718357452
30
0
41
1
10
91.996788856175
20
-0.508357140591443
30
0
41
1
10
92.0737538035816
20
-0.528784576739412
30
0
41
1
10
92.1863229691256
20
-0.571155214069762
30
0
41
1
10
92.2234944127708
20
-0.587334907571829
30
0
41
1
10
92.2952494574084
20
-0.622972346587517
30
0
41
1
10
92.3300192503312
20
-0.642483937297243
30
0
41
1
10
92.4310726899695
20
-0.705986245523263
30
0
41
1
10
92.4944377093468
20
-0.75519108847908
30
0
41
1
10
92.6108188525711
20
-0.866062959721035
30
0
41
1
10
92.6625646074237
20
-0.926400334181523
30
0
41
1
10
92.7536649953242
20
-1.05642769402272
30
0
41
1
10
92.7932846352945
20
-1.12693851113212
30
0
41
1
10
92.8570243202383
20
-1.27214408654777
30
0
41
1
10
92.8815239090473
20
-1.34708347605746
30
0
41
1
10
92.9159762560667
20
-1.50151236266342
30
0
41
1
10
92.9256702519316
20
-1.58071038166989
30
0
41
1
10
92.9298777651312
20
-1.73709188945435
30
0
41
1
10
92.9245976291756
20
-1.81510898167184
30
0
41
1
10
92.8990022316497
20
-1.97064325168554
30
0
41
1
10
92.8790784046378
20
-2.04583352122631
30
0
41
1
10
92.8256548280022
20
-2.19136856384819
30
0
41
1
10
92.7917612321256
20
-2.26233039177123
30
0
41
1
10
92.7113980114046
20
-2.39607937125211
30
0
41
1
10
92.665380672724
20
-2.45842061054651
30
0
41
1
10
92.5616164474703
20
-2.57416332724452
30
0
41
1
10
92.5031091003282
20
-2.62805530690562
30
0
41
1
10
92.3778920029076
20
-2.72244711326152
30
0
41
1
10
92.3111195507926
20
-2.76329925120356
30
0
41
1
10
92.1688597317802
20
-2.83192599958886
30
0
41
1
10
92.0928151817837
20
-2.85964360884986
30
0
41
1
10
91.9389627767036
20
-2.89853870855012
30
0
41
1
10
91.8603331319553
20
-2.91022950031339
30
0
41
1
10
91.699482617628
20
-2.91733160921223
30
0
41
1
10
91.619109453148
20
-2.91253622367114
30
0
41
1
10
91.4620272268465
20
-2.88706913639544
30
0
41
1
10
91.3838700168806
20
-2.86603981325658
30
0
41
1
10
91.2352154961952
20
-2.80939806828394
30
0
41
1
10
91.1647194693116
20
-2.77404733327583
30
0
41
1
10
91.0310722479283
20
-2.68968816079953
30
0
41
1
10
90.9684360472115
20
-2.64079551840544
30
0
41
1
10
90.8552300482138
20
-2.53347173117263
30
0
41
1
10
90.8037385806609
20
-2.47428905388321
30
0
41
1
10
90.7126587635386
20
-2.34674308084414
30
0
41
1
10
90.6738282898341
20
-2.27958599341963
30
0
41
1
10
90.6090266518942
20
-2.13864962736199
30
0
41
1
10
90.5829259994728
20
-2.06416540310172
30
0
41
1
10
90.5454717410584
20
-1.91221367978179
30
0
41
1
10
90.5339428427837
20
-1.83474601568392
30
0
41
1
10
90.5257868184671
20
-1.67683890142717
30
0
0
SPLINE
5
234
100
AcDbEntity
8
1
62
256
6
ByLayer
370
-1
48
1
60
0
100
AcDbSpline
70
4
71
3
72
16
73
12
40
0
40
0
40
0
40
0
40
0.125000000000001
40
0.125000000000001
40
0.250000000000002
40
0.250000000000002
40
0.500000000000001
40
0.500000000000001
40
0.750000000000001
40
0.750000000000001
40
1
40
1
40
1
40
1
41
1
10
13.4613248654052
20
9.34922131452501
30
0
41
1
10
13.4928040273173
20
9.34922131452501
30
0
41
1
10
13.5234304266402
20
9.35536120669445
30
0
41
1
10
13.5815263070002
20
9.37748487924955
30
0
41
1
10
13.6079581046676
20
9.39290424748296
30
0
41
1
10
13.6817632688741
20
9.44829073160838
30
0
41
1
10
13.7208296342407
20
9.49467220053401
30
0
41
1
10
13.7874862877331
20
9.59453680346888
30
0
41
1
10
13.8142652669256
20
9.64728479257923
30
0
41
1
10
13.8599440812239
20
9.75611455014862
30
0
41
1
10
13.8787443055274
20
9.81241059371416
30
0
41
1
10
13.8943375672974
20
9.86941261896607
30
0
0
SPLINE
5
235
100
AcDbEntity
8
1
62
256
6
ByLayer
370
-1
48
1
60
0
100
AcDbSpline
70
4
71
3
72
16
73
12
40
0
40
0
40
0
40
0
40
0.249999999999999
40
0.249999999999999
40
0.499999999999999
40
0.499999999999999
40
0.749999999999998
40
0.749999999999998
40
0.874999999999999
40
0.874999999999999
40
1
40
1
40
1
40
1
41
1
10
10.1056624327026
20
9.86941261896612
30
0
41
1
10
10.1212498345488
20
9.81243201498799
30
0
41
1
10
10.1399018475136
20
9.75655023082965
30
0
41
1
10
10.1854864096889
20
9.64780841973388
30
0
41
1
10
10.2124982207834
20
9.59456078532602
30
0
41
1
10
10.279179996877
20
9.4946569987062
30
0
41
1
10
10.3189381439131
20
9.44778039735201
30
0
41
1
10
10.3915918423741
20
9.39323398486451
30
0
41
1
10
10.4185844965197
20
9.37745951316336
30
0
41
1
10
10.4761894743047
20
9.35548920253845
30
0
41
1
10
10.5072412025891
20
9.34922131452495
30
0
41
1
10
10.5386751345948
20
9.34922131452495
30
0
0
SPLINE
5
236
100
AcDbEntity
8
1
62
256
6
ByLayer
370
-1
48
1
60
0
100
AcDbSpline
70
4
71
3
72
8
73
4
40
0
40
0
40
0
40
0
40
1
40
1
40
1
40
1
41
1
10
85.3671147222864
20
3.21121971570034
30
0
41
1
10
85.4649124112693
20
3.14786922081154
30
0
41
1
10
85.571392555602
20
3.09605801070509
30
0
41
1
10
85.6843498503663
20
3.05195914130906
30
0
0
SPLINE
5
237
100
AcDbEntity
8
1
62
256
6
ByLayer
370
-1
48
1
60
0
100
AcDbSpline
70
4
71
3
72
10
73
6
40
0
40
0
40
0
40
0
40
0.5
40
0.5
40
1
40
1
40
1
40
1
41
1
10
88.5798829093475
20
5.91220023680197
30
0
41
1
10
88.5832976318988
20
5.91220023680197
30
0
41
1
10
88.5902651112343
20
5.91652173495385
30
0
41
1
10
88.6106651879932
20
5.93245358142158
30
0
41
1
10
88.6241588050599
20
5.9441127402234
30
0
41
1
10
88.6402033828896
20
5.95810627784675
30
0
0
SPLINE
5
238
100
AcDbEntity
8
1
62
256
6
ByLayer
370
-1
48
1
60
0
100
AcDbSpline
70
4
71
2
72
6
73
3
40
0
40
0
40
0
40
1
40
1
40
1
41
1
10
29.4855261981472
20
2.36158443930566
30
0
41
1
10
29.4855261981472
20
1.27276420343901
30
0
41
1
10
29.4855261981473
20
0.183943967572333
30
0
0
SPLINE
5
239
100
AcDbEntity
8
1
62
256
6
ByLayer
370
-1
48
1
60
0
100
AcDbSpline
70
4
71
3
72
14
73
10
40
0
40
0
40
0
40
0
40
0.500000000000021
40
0.500000000000021
40
0.62500000000002
40
0.62500000000002
40
0.750000000000018
40
0.750000000000018
40
1
40
1
40
1
40
1
41
1
10
87.4428685602572
20
0.788953597430947
30
0
41
1
10
86.968462070841
20
0.760684578996091
30
0
41
1
10
86.5003062787168
20
0.791227364210755
30
0
41
1
10
85.9228911405251
20
0.902366487777869
30
0
41
1
10
85.8078035726195
20
0.928299691395125
30
0
41
1
10
85.5784455677663
20
0.987802012402767
30
0
41
1
10
85.4643069207751
20
1.02136380253342
30
0
41
1
10
85.1269640695718
20
1.13254012749289
30
0
41
1
10
84.9075629000511
20
1.22090930440621
30
0
41
1
10
84.693831906639
20
1.32380956067891
30
0
0
LINE
5
45
100
AcDbEntity
8
80
62
256
6
ByLayer
370
-1
48
1
60
0
100
AcDbLine
10
0
20
0
30
0
11
-7
21
0
31
0
39
0
210
0
220
0
230
1
0
LINE
5
46
100
AcDbEntity
8
81
62
256
6
ByLayer
370
-1
48
1
60
0
100
AcDbLine
10
95
20
0
30
0
11
102
21
0
31
0
39
0
210
0
220
0
230
1
0
LINE
5
47
100
AcDbEntity
8
1
62
256
6
ByLayer
370
-1
48
1
60
0
100
AcDbLine
10
0.3
20
31.5
30
0
11
0
21
31.2
31
0
39
0
210
0
220
0
230
1
0
LINE
5
49
100
AcDbEntity
8
1
62
256
6
ByLayer
370
-1
48
1
60
0
100
AcDbLine
10
0
20
-31.2
30
0
11
0.3
21
-31.5
31
0
39
0
210
0
220
0
230
1
0
LINE
5
4A
100
AcDbEntity
8
1
62
256
6
ByLayer
370
-1
48
1
60
0
100
AcDbLine
10
21.399
20
-31.5
30
0
11
21.699
21
-31.2
31
0
39
0
210
0
220
0
230
1
0
LINE
5
4B
100
AcDbEntity
8
1
62
256
6
ByLayer
370
-1
48
1
60
0
100
AcDbLine
10
21.699
20
31.2
30
0
11
21.399
21
31.5
31
0
39
0
210
0
220
0
230
1
0
LINE
5
4C
100
AcDbEntity
8
1
62
256
6
ByLayer
370
-1
48
1
60
0
100
AcDbLine
10
21.399
20
31.5
30
0
11
0.3
21
31.5
31
0
39
0
210
0
220
0
230
1
0
LINE
5
4D
100
AcDbEntity
8
1
62
256
6
ByLayer
370
-1
48
1
60
0
100
AcDbLine
10
0.3
20
-31.5
30
0
11
21.399
21
-31.5
31
0
39
0
210
0
220
0
230
1
0
LINE
5
4E
100
AcDbEntity
8
1
62
256
6
ByLayer
370
-1
48
1
60
0
100
AcDbLine
10
22.1
20
16
30
0
11
22
21
15.9
31
0
39
0
210
0
220
0
230
1
0
LINE
5
4F
100
AcDbEntity
8
1
62
256
6
ByLayer
370
-1
48
1
60
0
100
AcDbLine
10
22
20
-15.9
30
0
11
22.1
21
-16
31
0
39
0
210
0
220
0
230
1
0
LINE
5
50
100
AcDbEntity
8
1
62
256
6
ByLayer
370
-1
48
1
60
0
100
AcDbLine
10
26.9
20
-16
30
0
11
27.025882
21
-15.903407
31
0
39
0
210
0
220
0
230
1
0
LINE
5
51
100
AcDbEntity
8
1
62
256
6
ByLayer
370
-1
48
1
60
0
100
AcDbLine
10
27.025882
20
15.903407
30
0
11
26.9
21
16
31
0
39
0
210
0
220
0
230
1
0
LINE
5
52
100
AcDbEntity
8
1
62
256
6
ByLayer
370
-1
48
1
60
0
100
AcDbLine
10
26.9
20
16
30
0
11
22.1
21
16
31
0
39
0
210
0
220
0
230
1
0
LINE
5
53
100
AcDbEntity
8
1
62
256
6
ByLayer
370
-1
48
1
60
0
100
AcDbLine
10
22.1
20
-16
30
0
11
26.9
21
-16
31
0
39
0
210
0
220
0
230
1
0
LINE
5
54
100
AcDbEntity
8
1
62
256
6
ByLayer
370
-1
48
1
60
0
100
AcDbLine
10
21.699
20
-16
30
0
11
21.999
21
-16
31
0
39
0
210
0
220
0
230
1
0
LINE
5
55
100
AcDbEntity
8
1
62
256
6
ByLayer
370
-1
48
1
60
0
100
AcDbLine
10
21.999
20
16
30
0
11
21.699
21
16
31
0
39
0
210
0
220
0
230
1
0
LINE
5
56
100
AcDbEntity
8
1
62
256
6
ByLayer
370
-1
48
1
60
0
100
AcDbLine
10
27.025882
20
-15.903407
30
0
11
27.243045
21
-15.092945
31
0
39
0
210
0
220
0
230
1
0
LINE
5
57
100
AcDbEntity
8
1
62
256
6
ByLayer
370
-1
48
1
60
0
100
AcDbLine
10
27.243045
20
15.092945
30
0
11
27.025882
21
15.903407
31
0
39
0
210
0
220
0
230
1
0
LINE
5
58
100
AcDbEntity
8
1
62
256
6
ByLayer
370
-1
48
1
60
0
100
AcDbLine
10
28.5
20
14.5
30
0
11
28.015785
21
14.5
31
0
39
0
210
0
220
0
230
1
0
LINE
5
59
100
AcDbEntity
8
1
62
256
6
ByLayer
370
-1
48
1
60
0
100
AcDbLine
10
28.015785
20
-14.5
30
0
11
28.5
21
-14.5
31
0
39
0
210
0
220
0
230
1
0
LINE
5
5A
100
AcDbEntity
8
1
62
256
6
ByLayer
370
-1
48
1
60
0
100
AcDbLine
10
58.732063
20
8.7
30
0
11
38
21
8.7
31
0
39
0
210
0
220
0
230
1
0
LINE
5
5B
100
AcDbEntity
8
1
62
256
6
ByLayer
370
-1
48
1
60
0
100
AcDbLine
10
88.499265
20
8.7
30
0
11
86.18132
21
8.7
31
0
39
0
210
0
220
0
230
1
0
LINE
5
5C
100
AcDbEntity
8
1
62
256
6
ByLayer
370
-1
48
1
60
0
100
AcDbLine
10
38
20
-8.7
30
0
11
50.003865
21
-8.7
31
0
39
0
210
0
220
0
230
1
0
LINE
5
5D
100
AcDbEntity
8
1
62
256
6
ByLayer
370
-1
48
1
60
0
100
AcDbLine
10
0
20
31.2
30
0
11
-0.001
21
31.2
31
0
39
0
210
0
220
0
230
1
0
LINE
5
5E
100
AcDbEntity
8
1
62
256
6
ByLayer
370
-1
48
1
60
0
100
AcDbLine
10
-0.001
20
-31.2
30
0
11
0
21
-31.2
31
0
39
0
210
0
220
0
230
1
0
LINE
5
5F
100
AcDbEntity
8
SK1
62
256
6
ByLayer
370
-1
48
1
60
0
100
AcDbLine
10
-0.2
20
-22.45
30
0
11
-0.001
21
-22.45
31
0
39
0
210
0
220
0
230
1
0
LINE
5
61
100
AcDbEntity
8
SK1
62
256
6
ByLayer
370
-1
48
1
60
0
100
AcDbLine
10
-0.001
20
22.45
30
0
11
-0.2
21
22.45
31
0
39
0
210
0
220
0
230
1
0
LINE
5
62
100
AcDbEntity
8
SK4
62
256
6
ByLayer
370
-1
48
0.05
60
0
100
AcDbLine
10
95
20
0
30
0
11
-38
21
0
31
0
39
0
210
0
220
0
230
1
0
LINE
5
64
100
AcDbEntity
8
4
62
256
6
ByLayer
370
-1
48
0.05
60
0
100
AcDbLine
10
95
20
0
30
0
11
0
21
0
31
0
39
0
210
0
220
0
230
1
0
LINE
5
66
100
AcDbEntity
8
SK1
62
256
6
ByLayer
370
-1
48
1
60
0
100
AcDbLine
10
-0.2
20
-22.45
30
0
11
-0.2
21
22.45
31
0
39
0
210
0
220
0
230
1
0
LINE
5
67
100
AcDbEntity
8
SK1
62
256
6
ByLayer
370
-1
48
1
60
0
100
AcDbLine
10
-1.307107
20
7.175352
30
0
11
-1.307107
21
-7.175351
31
0
39
0
210
0
220
0
230
1
0
LINE
5
68
100
AcDbEntity
8
1
62
256
6
ByLayer
370
-1
48
1
60
0
100
AcDbLine
10
93.988515
20
2.838066
30
0
11
93.778292
21
2.840932
31
0
39
0
210
0
220
0
230
1
0
LINE
5
69
100
AcDbEntity
8
1
62
256
6
ByLayer
370
-1
48
1
60
0
100
AcDbLine
10
94.174867
20
-4.012823
30
0
11
94.247692
21
-3.947905
31
0
39
0
210
0
220
0
230
1
0
LINE
5
6A
100
AcDbEntity
8
1
62
256
6
ByLayer
370
-1
48
1
60
0
100
AcDbLine
10
94.444728
20
-3.528372
30
0
11
94.458606
21
-3.1317
31
0
39
0
210
0
220
0
230
1
0
LINE
5
6B
100
AcDbEntity
8
1
62
256
6
ByLayer
370
-1
48
1
60
0
100
AcDbLine
10
94.999695
20
-3.271625
30
0
11
94.80976
21
-3.170511
31
0
39
0
210
0
220
0
230
1
0
LINE
5
6C
100
AcDbEntity
8
1
62
256
6
ByLayer
370
-1
48
1
60
0
100
AcDbLine
10
94.185567
20
-3.116078
30
0
11
94.171689
21
-3.51275
31
0
39
0
210
0
220
0
230
1
0
LINE
5
6D
100
AcDbEntity
8
1
62
256
6
ByLayer
370
-1
48
1
60
0
100
AcDbLine
10
94.609296
20
-0.46552
30
0
11
94.309935
21
0.355435
31
0
39
0
210
0
220
0
230
1
0
LINE
5
6E
100
AcDbEntity
8
1
62
256
6
ByLayer
370
-1
48
1
60
0
100
AcDbLine
10
94.344789
20
-3.524889
30
0
11
94.358667
21
-3.128216
31
0
39
0
210
0
220
0
230
1
0
LINE
5
6F
100
AcDbEntity
8
1
62
256
6
ByLayer
370
-1
48
1
60
0
100
AcDbLine
10
94.329983
20
-0.040811
30
0
11
93.978662
21
-0.275934
31
0
39
0
210
0
220
0
230
1
0
LINE
5
70
100
AcDbEntity
8
1
62
256
6
ByLayer
370
-1
48
1
60
0
100
AcDbLine
10
94.961306
20
-4.368904
30
0
11
94.854374
21
-4.236876
31
0
39
0
210
0
220
0
230
1
0
LINE
5
71
100
AcDbEntity
8
1
62
256
6
ByLayer
370
-1
48
1
60
0
100
AcDbLine
10
94.638765
20
-0.610092
30
0
11
94.455213
21
-0.555257
31
0
39
0
210
0
220
0
230
1
0
LINE
5
72
100
AcDbEntity
8
1
62
256
6
ByLayer
370
-1
48
1
60
0
100
AcDbLine
10
94.632621
20
-4.820457
30
0
11
94.56476
21
-4.73667
31
0
39
0
210
0
220
0
230
1
0
LINE
5
73
100
AcDbEntity
8
1
62
256
6
ByLayer
370
-1
48
1
60
0
100
AcDbLine
10
94.309935
20
0.355435
30
0
11
94.260631
21
0.322277
31
0
39
0
210
0
220
0
230
1
0
LINE
5
74
100
AcDbEntity
8
1
62
256
6
ByLayer
370
-1
48
1
60
0
100
AcDbLine
10
94.524882
20
-1.97615
30
0
11
94.457423
21
-0.691354
31
0
39
0
210
0
220
0
230
1
0
LINE
5
75
100
AcDbEntity
8
1
62
256
6
ByLayer
370
-1
48
1
60
0
100
AcDbLine
10
94.168154
20
-3.884982
30
0
11
94.181081
21
-3.873459
31
0
39
0
210
0
220
0
230
1
0
LINE
5
76
100
AcDbEntity
8
1
62
256
6
ByLayer
370
-1
48
1
60
0
100
AcDbLine
10
94.17017
20
-4.769985
30
0
11
94.56476
21
-4.73667
31
0
39
0
210
0
220
0
230
1
0
LINE
5
77
100
AcDbEntity
8
1
62
256
6
ByLayer
370
-1
48
1
60
0
100
AcDbLine
10
94.794515
20
-3.59856
30
0
11
94.444728
21
-3.528372
31
0
39
0
210
0
220
0
230
1
0
LINE
5
78
100
AcDbEntity
8
1
62
256
6
ByLayer
370
-1
48
1
60
0
100
AcDbLine
10
94.794515
20
-3.59856
30
0
11
94.808393
21
-3.201888
31
0
39
0
210
0
220
0
230
1
0
LINE
5
79
100
AcDbEntity
8
1
62
256
6
ByLayer
370
-1
48
1
60
0
100
AcDbLine
10
94.175362
20
-1.936437
30
0
11
94.107902
21
-0.651642
31
0
39
0
210
0
220
0
230
1
0
LINE
5
7A
100
AcDbEntity
8
1
62
256
6
ByLayer
370
-1
48
1
60
0
100
AcDbLine
10
94.175362
20
-1.936437
30
0
11
94.075499
21
-1.941661
31
0
39
0
210
0
220
0
230
1
0
LINE
5
7B
100
AcDbEntity
8
1
62
256
6
ByLayer
370
-1
48
1
60
0
100
AcDbLine
10
94.171963
20
-4.98781
30
0
11
94.632621
21
-4.820457
31
0
39
0
210
0
220
0
230
1
0
LINE
5
7C
100
AcDbEntity
8
1
62
256
6
ByLayer
370
-1
48
1
60
0
100
AcDbLine
10
94.714937
20
-2.060833
30
0
11
94.524882
21
-1.97615
31
0
39
0
210
0
220
0
230
1
0
LINE
5
7D
100
AcDbEntity
8
1
62
256
6
ByLayer
370
-1
48
1
60
0
100
AcDbLine
10
94.329983
20
-0.040811
30
0
11
94.260631
21
0.322277
31
0
39
0
210
0
220
0
230
1
0
LINE
5
7E
100
AcDbEntity
8
1
62
256
6
ByLayer
370
-1
48
1
60
0
100
AcDbLine
10
94.066146
20
-1.942137
30
0
11
94.075499
21
-1.941661
31
0
39
0
210
0
220
0
230
1
0
LINE
5
7F
100
AcDbEntity
8
1
62
256
6
ByLayer
370
-1
48
1
60
0
100
AcDbLine
10
94.609296
20
-0.46552
30
0
11
94.431171
21
-0.412306
31
0
39
0
210
0
220
0
230
1
0
LINE
5
80
100
AcDbEntity
8
1
62
256
6
ByLayer
370
-1
48
1
60
0
100
AcDbLine
10
94.16327
20
0.508406
30
0
11
93.950565
21
0.366052
31
0
39
0
210
0
220
0
230
1
0
LINE
5
81
100
AcDbEntity
8
1
62
256
6
ByLayer
370
-1
48
1
60
0
100
AcDbLine
10
94.808393
20
-3.201888
30
0
11
94.458606
21
-3.1317
31
0
39
0
210
0
220
0
230
1
0
LINE
5
82
100
AcDbEntity
8
1
62
256
6
ByLayer
370
-1
48
1
60
0
100
AcDbLine
10
94.760868
20
-4.649104
30
0
11
94.247692
21
-3.947905
31
0
39
0
210
0
220
0
230
1
0
LINE
5
83
100
AcDbEntity
8
1
62
256
6
ByLayer
370
-1
48
1
60
0
100
AcDbLine
10
94.524882
20
-1.97615
30
0
11
94.175362
21
-1.936437
31
0
39
0
210
0
220
0
230
1
0
LINE
5
84
100
AcDbEntity
8
1
62
256
6
ByLayer
370
-1
48
1
60
0
100
AcDbLine
10
94.714937
20
-2.060833
30
0
11
94.638765
21
-0.610092
31
0
39
0
210
0
220
0
230
1
0
LINE
5
85
100
AcDbEntity
8
1
62
256
6
ByLayer
370
-1
48
1
60
0
100
AcDbLine
10
94.457423
20
-0.691354
30
0
11
94.107902
21
-0.651642
31
0
39
0
210
0
220
0
230
1
0
LINE
5
86
100
AcDbEntity
8
1
62
256
6
ByLayer
370
-1
48
1
60
0
100
AcDbLine
10
94.961306
20
-4.368904
30
0
11
94.999695
21
-3.271625
31
0
39
0
210
0
220
0
230
1
0
LINE
5
87
100
AcDbEntity
8
1
62
256
6
ByLayer
370
-1
48
1
60
0
100
AcDbLine
10
94.72268
20
-2.776161
30
0
11
94.404767
21
-2.864286
31
0
39
0
210
0
220
0
230
1
0
LINE
5
88
100
AcDbEntity
8
1
62
256
6
ByLayer
370
-1
48
1
60
0
100
AcDbLine
10
94.904268
20
-2.809979
30
0
11
94.732404
21
-2.796597
31
0
39
0
210
0
220
0
230
1
0
LINE
5
89
100
AcDbEntity
8
1
62
256
6
ByLayer
370
-1
48
1
60
0
100
AcDbLine
10
93.998687
20
-0.657341
30
0
11
94.008039
21
-0.656865
31
0
39
0
210
0
220
0
230
1
0
LINE
5
8A
100
AcDbEntity
8
1
62
256
6
ByLayer
370
-1
48
1
60
0
100
AcDbLine
10
94.075499
20
-1.941661
30
0
11
94.008039
21
-0.656865
31
0
39
0
210
0
220
0
230
1
0
LINE
5
8B
100
AcDbEntity
8
1
62
256
6
ByLayer
370
-1
48
1
60
0
100
AcDbLine
10
88.679642
20
8.482322
30
0
11
88.737204
21
8.468876
31
0
39
0
210
0
220
0
230
1
0
LINE
5
8C
100
AcDbEntity
8
1
62
256
6
ByLayer
370
-1
48
1
60
0
100
AcDbLine
10
94.807969
20
3.799335
30
0
11
94.748005
21
3.797249
31
0
39
0
210
0
220
0
230
1
0
LINE
5
8D
100
AcDbEntity
8
1
62
256
6
ByLayer
370
-1
48
1
60
0
100
AcDbLine
10
94.805357
20
3.431843
30
0
11
94.746883
21
3.445289
31
0
39
0
210
0
220
0
230
1
0
LINE
5
8E
100
AcDbEntity
8
1
62
256
6
ByLayer
370
-1
48
1
60
0
100
AcDbLine
10
94.100637
20
3.037916
30
0
11
94.098103
21
3.097652
31
0
39
0
210
0
220
0
230
1
0
LINE
5
8F
100
AcDbEntity
8
1
62
256
6
ByLayer
370
-1
48
1
60
0
100
AcDbLine
10
94.634746
20
8.623856
30
0
11
94.574891
21
8.619687
31
0
39
0
210
0
220
0
230
1
0
LINE
5
90
100
AcDbEntity
8
1
62
256
6
ByLayer
370
-1
48
1
60
0
100
AcDbLine
10
94.811741
20
3.659381
30
0
11
94.751749
21
3.658425
31
0
39
0
210
0
220
0
230
1
0
LINE
5
91
100
AcDbEntity
8
1
62
256
6
ByLayer
370
-1
48
1
60
0
100
AcDbLine
10
94.646981
20
8.415163
30
0
11
94.587039
21
8.412533
31
0
39
0
210
0
220
0
230
1
0
LINE
5
92
100
AcDbEntity
8
1
62
256
6
ByLayer
370
-1
48
1
60
0
100
AcDbLine
10
89.293773
20
8.872659
30
0
11
89.295937
21
8.812945
31
0
39
0
210
0
220
0
230
1
0
LINE
5
93
100
AcDbEntity
8
1
62
256
6
ByLayer
370
-1
48
1
60
0
100
AcDbLine
10
94.650557
20
8.324227
30
0
11
94.590594
21
8.322141
31
0
39
0
210
0
220
0
230
1
0
LINE
5
94
100
AcDbEntity
8
1
62
256
6
ByLayer
370
-1
48
1
60
0
100
AcDbLine
10
88.850254
20
3.290309
30
0
11
88.909197
21
3.294478
31
0
39
0
210
0
220
0
230
1
0
LINE
5
95
100
AcDbEntity
8
1
62
256
6
ByLayer
370
-1
48
1
60
0
100
AcDbLine
10
88.834442
20
3.589938
30
0
11
88.893494
21
3.592024
31
0
39
0
210
0
220
0
230
1
0
LINE
5
96
100
AcDbEntity
8
1
62
256
6
ByLayer
370
-1
48
1
60
0
100
AcDbLine
10
94.644595
20
8.464104
30
0
11
94.584681
21
8.460889
31
0
39
0
210
0
220
0
230
1
0
LINE
5
97
100
AcDbEntity
8
1
62
256
6
ByLayer
370
-1
48
1
60
0
100
AcDbLine
10
94.190901
20
9.039329
30
0
11
94.190445
21
8.979557
31
0
39
0
210
0
220
0
230
1
0
LINE
5
98
100
AcDbEntity
8
1
62
256
6
ByLayer
370
-1
48
1
60
0
100
AcDbLine
10
89.294098
20
2.874836
30
0
11
89.293642
21
2.934608
31
0
39
0
210
0
220
0
230
1
0
LINE
5
99
100
AcDbEntity
8
1
62
256
6
ByLayer
370
-1
48
1
60
0
100
AcDbLine
10
89.019344
20
8.847999
30
0
11
89.036297
21
8.790839
31
0
39
0
210
0
220
0
230
1
0
LINE
5
9A
100
AcDbEntity
8
1
62
256
6
ByLayer
370
-1
48
1
60
0
100
AcDbLine
10
94.239981
20
3.043902
30
0
11
94.236323
21
3.103587
31
0
39
0
210
0
220
0
230
1
0
LINE
5
9B
100
AcDbEntity
8
1
62
256
6
ByLayer
370
-1
48
1
60
0
100
AcDbLine
10
89.453542
20
2.876117
30
0
11
89.452133
21
2.935881
31
0
39
0
210
0
220
0
230
1
0
LINE
5
9C
100
AcDbEntity
8
1
62
256
6
ByLayer
370
-1
48
1
60
0
100
AcDbLine
10
88.674279
20
8.205795
30
0
11
88.733347
21
8.207337
31
0
39
0
210
0
220
0
230
1
0
LINE
5
9D
100
AcDbEntity
8
1
62
256
6
ByLayer
370
-1
48
1
60
0
100
AcDbLine
10
89.502345
20
2.877141
30
0
11
89.500352
21
2.936893
31
0
39
0
210
0
220
0
230
1
0
LINE
5
9E
100
AcDbEntity
8
1
62
256
6
ByLayer
370
-1
48
1
60
0
100
AcDbLine
10
89.085874
20
8.860376
30
0
11
89.089572
21
8.80075
31
0
39
0
210
0
220
0
230
1
0
LINE
5
9F
100
AcDbEntity
8
1
62
256
6
ByLayer
370
-1
48
1
60
0
100
AcDbLine
10
88.67703
20
8.11483
30
0
11
88.834442
21
3.589938
31
0
39
0
210
0
220
0
230
1
0
LINE
5
A0
100
AcDbEntity
8
1
62
256
6
ByLayer
370
-1
48
1
60
0
100
AcDbLine
10
93.892037
20
9.034261
30
0
11
93.893659
21
8.974526
31
0
39
0
210
0
220
0
230
1
0
LINE
5
A1
100
AcDbEntity
8
1
62
256
6
ByLayer
370
-1
48
1
60
0
100
AcDbLine
10
89.22687
20
2.882525
30
0
11
89.239809
21
2.940765
31
0
39
0
210
0
220
0
230
1
0
LINE
5
A2
100
AcDbEntity
8
1
62
256
6
ByLayer
370
-1
48
1
60
0
100
AcDbLine
10
93.982655
20
9.037024
30
0
11
93.983735
21
8.977272
31
0
39
0
210
0
220
0
230
1
0
LINE
5
A3
100
AcDbEntity
8
1
62
256
6
ByLayer
370
-1
48
1
60
0
100
AcDbLine
10
88.862584
20
3.223524
30
0
11
88.919071
21
3.241
31
0
39
0
210
0
220
0
230
1
0
LINE
5
A4
100
AcDbEntity
8
1
62
256
6
ByLayer
370
-1
48
1
60
0
100
AcDbLine
10
88.838018
20
3.499002
30
0
11
88.897049
21
3.501632
31
0
39
0
210
0
220
0
230
1
0
LINE
5
A5
100
AcDbEntity
8
1
62
256
6
ByLayer
370
-1
48
1
60
0
100
AcDbLine
10
88.671982
20
8.414836
30
0
11
88.731071
21
8.414836
31
0
39
0
210
0
220
0
230
1
0
LINE
5
A6
100
AcDbEntity
8
1
62
256
6
ByLayer
370
-1
48
1
60
0
100
AcDbLine
10
88.840404
20
3.450061
30
0
11
88.899407
21
3.453276
31
0
39
0
210
0
220
0
230
1
0
LINE
5
A7
100
AcDbEntity
8
1
62
256
6
ByLayer
370
-1
48
1
60
0
100
AcDbLine
10
94.25813
20
9.03164
30
0
11
94.244279
21
8.9734
31
0
39
0
210
0
220
0
230
1
0
LINE
5
A8
100
AcDbEntity
8
1
62
256
6
ByLayer
370
-1
48
1
60
0
100
AcDbLine
10
89.592963
20
2.879904
30
0
11
89.590429
21
2.939639
31
0
39
0
210
0
220
0
230
1
0
LINE
5
A9
100
AcDbEntity
8
1
62
256
6
ByLayer
370
-1
48
1
60
0
100
AcDbLine
10
94.813017
20
3.499329
30
0
11
94.753017
21
3.499329
31
0
39
0
210
0
220
0
230
1
0
LINE
5
AA
100
AcDbEntity
8
1
62
256
6
ByLayer
370
-1
48
1
60
0
100
AcDbLine
10
94.399125
20
3.053789
30
0
11
94.394516
21
3.113415
31
0
39
0
210
0
220
0
230
1
0
LINE
5
AB
100
AcDbEntity
8
1
62
256
6
ByLayer
370
-1
48
1
60
0
100
AcDbLine
10
94.191226
20
3.041506
30
0
11
94.188151
21
3.10122
31
0
39
0
210
0
220
0
230
1
0
LINE
5
AC
100
AcDbEntity
8
1
62
256
6
ByLayer
370
-1
48
1
60
0
100
AcDbLine
10
94.807969
20
3.799335
30
0
11
94.650557
21
8.324227
31
0
39
0
210
0
220
0
230
1
0
LINE
5
AD
100
AcDbEntity
8
1
62
256
6
ByLayer
370
-1
48
1
60
0
100
AcDbLine
10
94.622415
20
8.690641
30
0
11
94.565017
21
8.673165
31
0
39
0
210
0
220
0
230
1
0
LINE
5
AE
100
AcDbEntity
8
1
62
256
6
ByLayer
370
-1
48
1
60
0
100
AcDbLine
10
88.673258
20
8.254784
30
0
11
88.732339
21
8.25574
31
0
39
0
210
0
220
0
230
1
0
LINE
5
AF
100
AcDbEntity
8
1
62
256
6
ByLayer
370
-1
48
1
60
0
100
AcDbLine
10
93.892037
20
9.034261
30
0
11
89.384362
21
8.876249
31
0
39
0
210
0
220
0
230
1
0
LINE
5
B0
100
AcDbEntity
8
1
62
256
6
ByLayer
370
-1
48
1
60
0
100
AcDbLine
10
89.384362
20
8.876249
30
0
11
89.385985
21
8.816513
31
0
39
0
210
0
220
0
230
1
0
LINE
5
B1
100
AcDbEntity
8
1
62
256
6
ByLayer
370
-1
48
1
60
0
100
AcDbLine
10
89.245018
20
8.870263
30
0
11
89.247765
21
8.810578
31
0
39
0
210
0
220
0
230
1
0
LINE
5
B2
100
AcDbEntity
8
1
62
256
6
ByLayer
370
-1
48
1
60
0
100
AcDbLine
10
89.592963
20
2.879904
30
0
11
94.100637
21
3.037916
31
0
39
0
210
0
220
0
230
1
0
LINE
5
B3
100
AcDbEntity
8
1
62
256
6
ByLayer
370
-1
48
1
60
0
100
AcDbLine
10
94.465656
20
3.066166
30
0
11
94.447791
21
3.123326
31
0
39
0
210
0
220
0
230
1
0
LINE
5
B4
100
AcDbEntity
8
1
62
256
6
ByLayer
370
-1
48
1
60
0
100
AcDbLine
10
94.810721
20
3.70837
30
0
11
94.75074
21
3.706828
31
0
39
0
210
0
220
0
230
1
0
LINE
5
B5
100
AcDbEntity
8
1
62
256
6
ByLayer
370
-1
48
1
60
0
100
AcDbLine
10
94.031457
20
9.038048
30
0
11
94.031955
21
8.978284
31
0
39
0
210
0
220
0
230
1
0
LINE
5
B6
100
AcDbEntity
8
1
62
256
6
ByLayer
370
-1
48
1
60
0
100
AcDbLine
10
88.67703
20
8.11483
30
0
11
88.736083
21
8.116916
31
0
39
0
210
0
220
0
230
1
0
LINE
5
B7
100
AcDbEntity
8
1
62
256
6
ByLayer
370
-1
48
1
60
0
100
AcDbLine
10
86.820356
20
5.596853
30
0
11
84.192164
21
5.87576
31
0
39
0
210
0
220
0
230
1
0
LINE
5
B8
100
AcDbEntity
8
1
62
256
6
ByLayer
370
-1
48
1
60
0
100
AcDbLine
10
85.736664
20
3.922934
30
0
11
85.231627
21
4.14865
31
0
39
0
210
0
220
0
230
1
0
LINE
5
B9
100
AcDbEntity
8
1
62
256
6
ByLayer
370
-1
48
1
60
0
100
AcDbLine
10
93.716652
20
2.852368
30
0
11
93.988515
21
2.838066
31
0
39
0
210
0
220
0
230
1
0
LINE
5
BA
100
AcDbEntity
8
1
62
256
6
ByLayer
370
-1
48
1
60
0
100
AcDbLine
10
88.271237
20
3.813142
30
0
11
88.480411
21
3.813142
31
0
39
0
210
0
220
0
230
1
0
LINE
5
BB
100
AcDbEntity
8
1
62
256
6
ByLayer
370
-1
48
1
60
0
100
AcDbLine
10
88.322844
20
3.486999
30
0
11
88.024433
21
3.476538
31
0
39
0
210
0
220
0
230
1
0
LINE
5
BC
100
AcDbEntity
8
1
62
256
6
ByLayer
370
-1
48
1
60
0
100
AcDbLine
10
21.399
20
-31.5
30
0
11
21.399
21
31.5
31
0
39
0
210
0
220
0
230
1
0
LINE
5
BD
100
AcDbEntity
8
1
62
256
6
ByLayer
370
-1
48
1
60
0
100
AcDbLine
10
28.5
20
14.5
30
0
11
28.5
21
9.110362
31
0
39
0
210
0
220
0
230
1
0
LINE
5
BE
100
AcDbEntity
8
1
62
256
6
ByLayer
370
-1
48
1
60
0
100
AcDbLine
10
0.3
20
-31.5
30
0
11
0.3
21
31.5
31
0
39
0
210
0
220
0
230
1
0
LINE
5
BF
100
AcDbEntity
8
1
62
256
6
ByLayer
370
-1
48
1
60
0
100
AcDbLine
10
28.5
20
5.564932
30
0
11
28.5
21
-14.5
31
0
39
0
210
0
220
0
230
1
0
LINE
5
C0
100
AcDbEntity
8
1
62
256
6
ByLayer
370
-1
48
1
60
0
100
AcDbLine
10
90.237001
20
2.735634
30
0
11
93.567098
21
2.852368
31
0
39
0
210
0
220
0
230
1
0
LINE
5
C1
100
AcDbEntity
8
1
62
256
6
ByLayer
370
-1
48
1
60
0
100
AcDbLine
10
87.940173
20
2.499785
30
0
11
87.992254
21
2.678954
31
0
39
0
210
0
220
0
230
1
0
LINE
5
C2
100
AcDbEntity
8
1
62
256
6
ByLayer
370
-1
48
1
60
0
100
AcDbLine
10
88.800676
20
2.707293
30
0
11
88.845964
21
2.707293
31
0
39
0
210
0
220
0
230
1
0
LINE
5
C3
100
AcDbEntity
8
1
62
256
6
ByLayer
370
-1
48
1
60
0
100
AcDbLine
10
28.015785
20
14.5
30
0
11
28.015785
21
-14.5
31
0
39
0
210
0
220
0
230
1
0
LINE
5
C4
100
AcDbEntity
8
1
62
256
6
ByLayer
370
-1
48
1
60
0
100
AcDbLine
10
21.699
20
-31.2
30
0
11
21.699
21
31.2
31
0
39
0
210
0
220
0
230
1
0
LINE
5
C5
100
AcDbEntity
8
1
62
256
6
ByLayer
370
-1
48
1
60
0
100
AcDbLine
10
83.02686
20
5.03
30
0
11
84.421352
21
5.03
31
0
39
0
210
0
220
0
230
1
0
LINE
5
C6
100
AcDbEntity
8
1
62
256
6
ByLayer
370
-1
48
1
60
0
100
AcDbLine
10
86.820356
20
5.596853
30
0
11
86.820356
21
8.697696
31
0
39
0
210
0
220
0
230
1
0
LINE
5
C7
100
AcDbEntity
8
1
62
256
6
ByLayer
370
-1
48
1
60
0
100
AcDbLine
10
94.508607
20
-5.165794
30
0
11
94.205941
21
-5.129234
31
0
39
0
210
0
220
0
230
1
0
LINE
5
C8
100
AcDbEntity
8
1
62
256
6
ByLayer
370
-1
48
1
60
0
100
AcDbLine
10
13.461325
20
9.349221
30
0
11
10.538675
21
9.349221
31
0
39
0
210
0
220
0
230
1
0
LINE
5
C9
100
AcDbEntity
8
1
62
256
6
ByLayer
370
-1
48
1
60
0
100
AcDbLine
10
87.885362
20
-8.69767
30
0
11
94.19534
21
-8.69767
31
0
39
0
210
0
220
0
230
1
0
LINE
5
CA
100
AcDbEntity
8
1
62
256
6
ByLayer
370
-1
48
1
60
0
100
AcDbLine
10
93.17017
20
1.132094
30
0
11
93.778292
21
2.840932
31
0
39
0
210
0
220
0
230
1
0
LINE
5
CB
100
AcDbEntity
8
1
62
256
6
ByLayer
370
-1
48
1
60
0
100
AcDbLine
10
93.992041
20
0.618844
30
0
11
94.030556
21
0.598451
31
0
39
0
210
0
220
0
230
1
0
LINE
5
CC
100
AcDbEntity
8
1
62
256
6
ByLayer
370
-1
48
1
60
0
100
AcDbLine
10
88.800676
20
2.707293
30
0
11
87.992254
21
2.678954
31
0
39
0
210
0
220
0
230
1
0
LINE
5
CD
100
AcDbEntity
8
1
62
256
6
ByLayer
370
-1
48
1
60
0
100
AcDbLine
10
22
20
15.9
30
0
11
22
21
-15.9
31
0
39
0
210
0
220
0
230
1
0
LINE
5
CE
100
AcDbEntity
8
1
62
256
6
ByLayer
370
-1
48
1
60
0
100
AcDbLine
10
38
20
8.7
30
0
11
38
21
6.053809
31
0
39
0
210
0
220
0
230
1
0
LINE
5
CF
100
AcDbEntity
8
1
62
256
6
ByLayer
370
-1
48
1
60
0
100
AcDbLine
10
94.188684
20
-4.461558
30
0
11
94.194807
21
-4.392531
31
0
39
0
210
0
220
0
230
1
0
LINE
5
D0
100
AcDbEntity
8
1
62
256
6
ByLayer
370
-1
48
1
60
0
100
AcDbLine
10
87.442869
20
0.788954
30
0
11
87.774013
21
1.92816
31
0
39
0
210
0
220
0
230
1
0
LINE
5
D1
100
AcDbEntity
8
1
62
256
6
ByLayer
370
-1
48
1
60
0
100
AcDbLine
10
93.778292
20
2.840932
30
0
11
93.567098
21
2.852368
31
0
39
0
210
0
220
0
230
1
0
LINE
5
D2
100
AcDbEntity
8
1
62
256
6
ByLayer
370
-1
48
1
60
0
100
AcDbLine
10
93.567098
20
2.852368
30
0
11
93.716597
21
2.852368
31
0
39
0
210
0
220
0
230
1
0
LINE
5
D3
100
AcDbEntity
8
1
62
256
6
ByLayer
370
-1
48
1
60
0
100
AcDbLine
10
84.192164
20
8.677654
30
0
11
84.192164
21
5.87576
31
0
39
0
210
0
220
0
230
1
0
LINE
5
D4
100
AcDbEntity
8
1
62
256
6
ByLayer
370
-1
48
1
60
0
100
AcDbLine
10
94.02881
20
0.593143
30
0
11
94.030556
21
0.598451
31
0
39
0
210
0
220
0
230
1
0
LINE
5
D5
100
AcDbEntity
8
1
62
256
6
ByLayer
370
-1
48
1
60
0
100
AcDbLine
10
21.999
20
16
30
0
11
21.999
21
-16
31
0
39
0
210
0
220
0
230
1
0
LINE
5
D6
100
AcDbEntity
8
1
62
256
6
ByLayer
370
-1
48
1
60
0
100
AcDbLine
10
38
20
-8.7
30
0
11
38
21
-7.385084
31
0
39
0
210
0
220
0
230
1
0
LINE
5
D7
100
AcDbEntity
8
1
62
256
6
ByLayer
370
-1
48
1
60
0
100
AcDbLine
10
10.538675
20
9.349221
30
0
11
10.538675
21
30.080593
31
0
39
0
210
0
220
0
230
1
0
LINE
5
D8
100
AcDbEntity
8
1
62
256
6
ByLayer
370
-1
48
1
60
0
100
AcDbLine
10
88.640203
20
5.958106
30
0
11
88.752058
21
5.958106
31
0
39
0
210
0
220
0
230
1
0
LINE
5
D9
100
AcDbEntity
8
1
62
256
6
ByLayer
370
-1
48
1
60
0
100
AcDbLine
10
88.552559
20
5.9122
30
0
11
88.463882
21
8.693197
31
0
39
0
210
0
220
0
230
1
0
LINE
5
DA
100
AcDbEntity
8
1
62
256
6
ByLayer
370
-1
48
1
60
0
100
AcDbLine
10
22.1
20
16
30
0
11
22.1
21
-16
31
0
39
0
210
0
220
0
230
1
0
LINE
5
DB
100
AcDbEntity
8
1
62
256
6
ByLayer
370
-1
48
1
60
0
100
AcDbLine
10
88.781731
20
8.689305
30
0
11
88.781734
21
8.689186
31
0
39
0
210
0
220
0
230
1
0
LINE
5
DC
100
AcDbEntity
8
1
62
256
6
ByLayer
370
-1
48
1
60
0
100
AcDbLine
10
10.538675
20
-9.349221
30
0
11
13.461325
21
-9.349221
31
0
39
0
210
0
220
0
230
1
0
LINE
5
DD
100
AcDbEntity
8
1
62
256
6
ByLayer
370
-1
48
1
60
0
100
AcDbLine
10
13.461325
20
9.349221
30
0
11
13.461325
21
30.080593
31
0
39
0
210
0
220
0
230
1
0
LINE
5
DE
100
AcDbEntity
8
1
62
256
6
ByLayer
370
-1
48
1
60
0
100
AcDbLine
10
26.9
20
16
30
0
11
26.9
21
-16
31
0
39
0
210
0
220
0
230
1
0
LINE
5
DF
100
AcDbEntity
8
1
62
256
6
ByLayer
370
-1
48
1
60
0
100
AcDbLine
10
94.19534
20
-8.69767
30
0
11
94.508607
21
-5.165794
31
0
39
0
210
0
220
0
230
1
0
LINE
5
E0
100
AcDbEntity
8
1
62
256
6
ByLayer
370
-1
48
1
60
0
100
AcDbLine
10
13.461325
20
-30.080593
30
0
11
13.461325
21
-9.349221
31
0
39
0
210
0
220
0
230
1
0
LINE
5
E1
100
AcDbEntity
8
1
62
256
6
ByLayer
370
-1
48
1
60
0
100
AcDbLine
10
94.194807
20
-4.392531
30
0
11
93.961165
21
0.057303
31
0
39
0
210
0
220
0
230
1
0
LINE
5
E2
100
AcDbEntity
8
1
62
256
6
ByLayer
370
-1
48
1
60
0
100
AcDbLine
10
10.538675
20
-30.080593
30
0
11
10.538675
21
-9.349221
31
0
39
0
210
0
220
0
230
1
0
LINE
5
E3
100
AcDbEntity
8
1
62
256
6
ByLayer
370
-1
48
1
60
0
100
AcDbLine
10
94.194807
20
-4.392531
30
0
11
93.616309
21
-4.134768
31
0
39
0
210
0
220
0
230
1
0
LINE
5
E4
100
AcDbEntity
8
1
62
256
6
ByLayer
370
-1
48
1
60
0
100
AcDbLine
10
88.552559
20
5.9122
30
0
11
88.579883
21
5.9122
31
0
39
0
210
0
220
0
230
1
0
LINE
5
E5
100
AcDbEntity
8
1
62
256
6
ByLayer
370
-1
48
1
60
0
100
AcDbLine
10
10.538675
20
30.080593
30
0
11
13.461325
21
30.080593
31
0
39
0
210
0
220
0
230
1
0
LINE
5
E6
100
AcDbEntity
8
1
62
256
6
ByLayer
370
-1
48
1
60
0
100
AcDbLine
10
88.43956
20
4.987426
30
0
11
88.480411
21
3.813142
31
0
39
0
210
0
220
0
230
1
0
LINE
5
E7
100
AcDbEntity
8
1
62
256
6
ByLayer
370
-1
48
1
60
0
100
AcDbLine
10
10.105662
20
9.869413
30
0
11
10.105662
21
29.913955
31
0
39
0
210
0
220
0
230
1
0
LINE
5
E8
100
AcDbEntity
8
1
62
256
6
ByLayer
370
-1
48
1
60
0
100
AcDbLine
10
84.846907
20
1.850418
30
0
11
84.693832
21
1.32381
31
0
39
0
210
0
220
0
230
1
0
LINE
5
E9
100
AcDbEntity
8
1
62
256
6
ByLayer
370
-1
48
1
60
0
100
AcDbLine
10
88.490991
20
8.699942
30
0
11
88.579883
21
5.9122
31
0
39
0
210
0
220
0
230
1
0
LINE
5
EA
100
AcDbEntity
8
1
62
256
6
ByLayer
370
-1
48
1
60
0
100
AcDbLine
10
88.230386
20
4.987426
30
0
11
88.43956
21
4.987426
31
0
39
0
210
0
220
0
230
1
0
LINE
5
EB
100
AcDbEntity
8
1
62
256
6
ByLayer
370
-1
48
1
60
0
100
AcDbLine
10
10.105662
20
-29.913955
30
0
11
10.105662
21
-9.869413
31
0
39
0
210
0
220
0
230
1
0
LINE
5
EC
100
AcDbEntity
8
1
62
256
6
ByLayer
370
-1
48
1
60
0
100
AcDbLine
10
94.02881
20
0.593143
30
0
11
93.969183
21
0.595221
31
0
39
0
210
0
220
0
230
1
0
LINE
5
ED
100
AcDbEntity
8
1
62
256
6
ByLayer
370
-1
48
1
60
0
100
AcDbLine
10
94.030556
20
0.598451
30
0
11
94.098072
21
3.037789
31
0
39
0
210
0
220
0
230
1
0
LINE
5
EE
100
AcDbEntity
8
1
62
256
6
ByLayer
370
-1
48
1
60
0
100
AcDbLine
10
27.025882
20
15.903407
30
0
11
27.025882
21
-15.903407
31
0
39
0
210
0
220
0
230
1
0
LINE
5
EF
100
AcDbEntity
8
1
62
256
6
ByLayer
370
-1
48
1
60
0
100
AcDbLine
10
13.461325
20
-30.080593
30
0
11
10.538675
21
-30.080593
31
0
39
0
210
0
220
0
230
1
0
LINE
5
F0
100
AcDbEntity
8
1
62
256
6
ByLayer
370
-1
48
1
60
0
100
AcDbLine
10
13.894338
20
9.869413
30
0
11
13.894338
21
29.913955
31
0
39
0
210
0
220
0
230
1
0
LINE
5
F1
100
AcDbEntity
8
1
62
256
6
ByLayer
370
-1
48
1
60
0
100
AcDbLine
10
13.894338
20
-29.913955
30
0
11
13.894338
21
-9.869413
31
0
39
0
210
0
220
0
230
1
0
LINE
5
F2
100
AcDbEntity
8
1
62
256
6
ByLayer
370
-1
48
1
60
0
100
AcDbLine
10
27.243045
20
-15.092945
30
0
11
27.243045
21
15.092945
31
0
39
0
210
0
220
0
230
1
0
LINE
5
F3
100
AcDbEntity
8
1
62
256
6
ByLayer
370
-1
48
1
60
0
100
AcDbLine
10
93.983334
20
0.619147
30
0
11
93.992041
21
0.618844
31
0
39
0
210
0
220
0
230
1
0
LINE
5
F4
100
AcDbEntity
8
1
62
256
6
ByLayer
370
-1
48
1
60
0
100
AcDbLine
10
88.230386
20
4.987426
30
0
11
88.271237
21
3.813142
31
0
39
0
210
0
220
0
230
1
0
LINE
5
F5
100
AcDbEntity
8
1
62
256
6
ByLayer
370
-1
48
1
60
0
100
AcDbLine
10
93.957091
20
0.152309
30
0
11
93.216795
21
0.482165
31
0
39
0
210
0
220
0
230
1
0
LINE
5
F6
100
AcDbEntity
8
1
62
256
6
ByLayer
370
-1
48
1
60
0
100
AcDbLine
10
0
20
-31.2
30
0
11
0
21
31.2
31
0
39
0
210
0
220
0
230
1
0
LINE
5
F7
100
AcDbEntity
8
1
62
256
6
ByLayer
370
-1
48
1
60
0
100
AcDbLine
10
0
20
-31.2
30
0
11
0
21
31.2
31
0
39
0
210
0
220
0
230
1
0
LINE
5
F8
100
AcDbEntity
8
1
62
256
6
ByLayer
370
-1
48
1
60
0
100
AcDbLine
10
-0.001
20
-31.2
30
0
11
-0.001
21
31.2
31
0
39
0
210
0
220
0
230
1
0
MTEXT
5
23A
100
AcDbEntity
8
SK6
62
256
6
ByLayer
370
-1
48
1
60
0
100
AcDbMText
10
0.79375
20
-80.79375
30
0
210
0
220
0
230
1
1
\W00.709;\fsimplex.shx,bigfont.shx;880-D1800C6-03 
40
3.175
41
0
44
1.084337
50
0
71
7
72
5
7
DEFAULT
0
DIMENSION
5
26A
100
AcDbEntity
8
SK2
62
256
6
ByLayer
370
-3
48
1
60
0
100
AcDbDimension
2
DimnDraft3D1
10
95
20
-70.31875
30
0
11
28.5
21
-70.31875
31
0
70
32
71
5
72
1
41
1
210
0
220
0
230
1
3
Standard
100
AcDbAlignedDimension
13
-38
23
-4.5875
33
0
14
95
24
-10.5875
34
0
50
0
100
AcDbRotatedDimension
1001
ACAD
1000
DSTYLE
1002
{
1070
   279
1070
     0
1070
   172
1070
     1
1070
   173
1070
     1
1070
   340
1005
23B
1070
   271
1070
     1
1070
   272
1070
     2
1070
    77
1070
     1
1070
    73
1070
     0
1070
   171
1070
     3
1070
   274
1070
     4
1070
   177
1070
   150
1070
   176
1070
     9
1070
   178
1070
    43
1070
    78
1070
     8
1070
    48
1040
-0.005
1070
    41
1041
4.175
1070
   147
1041
2.25
1070
    42
1041
1.5875
1070
    44
1041
3.175
1070
   140
1041
4.5
1070
   343
1005
0
1070
   344
1005
0
1002
}
0
DIMENSION
5
274
100
AcDbEntity
8
SK2
62
256
6
ByLayer
370
-3
48
1
60
0
100
AcDbDimension
2
DimnDraft3D2
10
0
20
-58.35
30
0
11
-19
21
-58.35
31
0
70
32
71
5
72
1
41
1
210
0
220
0
230
1
3
Standard
100
AcDbAlignedDimension
13
-38
23
-4.5875
33
0
14
0
24
-33.0875
34
0
50
0
100
AcDbRotatedDimension
1001
ACAD
1000
DSTYLE
1002
{
1070
   279
1070
     0
1070
   172
1070
     1
1070
   173
1070
     1
1070
   340
1005
23B
1070
   271
1070
     1
1070
   272
1070
     2
1070
    77
1070
     1
1070
    73
1070
     0
1070
   171
1070
     3
1070
   274
1070
     4
1070
   177
1070
   150
1070
   176
1070
     9
1070
   178
1070
    43
1070
    78
1070
     8
1070
    48
1040
-0.005
1070
    41
1041
4.175
1070
   147
1041
2.25
1070
    42
1041
1.5875
1070
    44
1041
3.175
1070
   140
1041
4.5
1070
   343
1005
0
1070
   344
1005
0
1002
}
0
DIMENSION
5
27F
100
AcDbEntity
8
2
62
256
6
ByLayer
370
-3
48
1
60
0
100
AcDbDimension
2
DimnDraft3D3
10
95
20
-58.35
30
0
11
47.5
21
-58.35
31
0
70
32
71
5
72
1
41
1
210
0
220
0
230
1
3
Standard
100
AcDbAlignedDimension
13
0
23
-33.0875
33
0
14
95
24
-10.5875
34
0
50
0
100
AcDbRotatedDimension
1001
ACAD
1000
DSTYLE
1002
{
1070
   279
1070
     0
1070
   172
1070
     1
1070
   173
1070
     1
1070
   340
1005
23B
1070
   271
1070
     1
1070
   272
1070
     2
1070
    77
1070
     1
1070
    73
1070
     0
1070
   171
1070
     3
1070
   274
1070
     4
1070
   177
1070
   150
1070
   176
1070
     9
1070
   178
1070
    43
1070
    78
1070
     8
1070
    48
1040
-0.005
1070
    41
1041
4.175
1070
   147
1041
2.25
1070
    42
1041
1.5875
1070
    44
1041
3.175
1070
   140
1041
4.5
1070
   343
1005
0
1070
   344
1005
0
1002
}
0
DIMENSION
5
289
100
AcDbEntity
8
SK2
62
256
6
ByLayer
370
-3
48
1
60
0
100
AcDbDimension
2
DimnDraft3D4
10
95
20
-48.35
30
0
11
66.5
21
-48.35
31
0
70
32
71
5
72
1
41
1
210
0
220
0
230
1
3
Standard
100
AcDbAlignedDimension
13
38
23
-11.5875
33
0
14
95
24
-10.5875
34
0
50
0
100
AcDbRotatedDimension
1001
ACAD
1000
DSTYLE
1002
{
1070
   279
1070
     0
1070
   172
1070
     1
1070
   173
1070
     1
1070
   340
1005
23B
1070
   271
1070
     1
1070
   272
1070
     2
1070
    77
1070
     1
1070
    73
1070
     0
1070
   171
1070
     3
1070
   274
1070
     4
1070
   177
1070
   150
1070
   176
1070
     9
1070
   178
1070
    43
1070
    78
1070
     8
1070
    48
1040
-0.005
1070
    41
1041
4.175
1070
   147
1041
2.25
1070
    42
1041
1.5875
1070
    44
1041
3.175
1070
   140
1041
4.5
1070
   343
1005
0
1070
   344
1005
0
1002
}
0
DIMENSION
5
294
100
AcDbEntity
8
SK2
62
256
6
ByLayer
370
-3
48
1
60
0
100
AcDbDimension
2
DimnDraft3D5
10
-60.089798
20
31.5
30
0
11
-60.289798
21
4.121053
31
0
70
33
71
5
72
1
41
1
210
0
220
0
230
1
3
Standard
100
AcDbAlignedDimension
13
-1.5875
23
-31.5
33
0
14
-1.5875
24
31.5
34
0
1001
ACAD
1000
DSTYLE
1002
{
1070
   279
1070
     0
1070
    74
1070
     0
1070
   173
1070
     1
1070
   340
1005
23B
1070
   271
1070
     1
1070
   272
1070
     2
1070
    77
1070
     1
1070
    73
1070
     0
1070
   171
1070
     3
1070
   274
1070
     4
1070
   177
1070
   150
1070
   176
1070
     9
1070
   178
1070
    43
1070
    78
1070
     8
1070
    48
1040
-0.005
1070
    41
1041
4.175
1070
   147
1041
2.25
1070
    42
1041
1.5875
1070
    44
1041
3.175
1070
   140
1041
4.5
1070
   343
1005
0
1070
   344
1005
0
1002
}
0
DIMENSION
5
29F
100
AcDbEntity
8
2
62
256
6
ByLayer
370
-3
48
1
60
0
100
AcDbDimension
2
DimnDraft3D6
10
125.15
20
-9
30
0
11
118.6
21
-25.245395
31
0
70
33
71
5
72
1
41
1
210
0
220
0
230
1
3
Standard
100
AcDbAlignedDimension
13
96.5875
23
9
33
0
14
96.5875
24
-9
34
0
1001
ACAD
1000
DSTYLE
1002
{
1070
   279
1070
     0
1070
    74
1070
     0
1070
   173
1070
     1
1070
   340
1005
23B
1070
   271
1070
     2
1070
   272
1070
     2
1070
    77
1070
     1
1070
    73
1070
     0
1070
   171
1070
     3
1070
   274
1070
     4
1070
   177
1070
   150
1070
   176
1070
     9
1070
   178
1070
    43
1070
    78
1070
     8
1070
    48
1040
-0.005
1070
    41
1041
4.175
1070
   147
1041
2.25
1070
    42
1041
1.5875
1070
    44
1041
3.175
1070
   140
1041
4.5
1070
   343
1005
0
1070
   344
1005
0
1002
}
0
ENDSEC
0
SECTION
2
OBJECTS
0
DICTIONARY
5
2d0
330
0
100
AcDbDictionary
280
0
281
1
3
ACAD_GROUP
350
2d1
3
ACAD_MLINESTYLE
350
2d2
0
DICTIONARY
5
2d1
330
0
100
AcDbDictionary
280
0
281
1
0
DICTIONARY
5
2d2
330
0
100
AcDbDictionary
280
0
281
1
3
Standard
350
18
0
MLINESTYLE
5
18
330
2d2
100
AcDbMlineStyle
2
Standard
70
0
3

62
256
51
90
52
90
71
2
49
-0.5
62
256
6
ByLayer
49
0.5
62
256
6
ByLayer
0
RASTERVARIABLES
5
2be
330

100
AcDbRasterVariables
90
0
70
1
71
1
72
1
0
ENDSEC
0
EOF
