0
SECTION
2
HEADER
9
$ACADVER
1
AC1015
9
$DWGCODEPAGE
3
ANSI_1252
9
$HANDSEED
5
2bc
9
$ANGBASE
50
0
9
$ANGDIR
70
0
9
$ATTMODE
70
1
9
$AUNITS
70
0
9
$AUPREC
70
0
9
$CECOLOR
62
256
9
$CELTSCALE
40
1
9
$CELTYPE
6
ByLayer
9
$CELWEIGHT
370
-1
9
$CLAYER
8
0
9
$CMLJUST
70
0
9
$CMLSCALE
40
1
9
$CMLSTYLE
2
Standard
9
$DIMSTYLE
2
Standard
9
$TEXTSIZE
40
0.2
9
$TEXTSTYLE
7
Standard
9
$LUNITS
70
2
9
$LUPREC
70
4
9
$EXTNAMES
290
1
9
$INSUNITS
70
4
9
$LTSCALE
40
1
9
$LWDISPLAY
290
0
9
$PDMODE
70
0
9
$PDSIZE
40
0
9
$PLINEGEN
70
0
0
ENDSEC
0
SECTION
2
CLASSES
0
CLASS
1
RASTERVARIABLES
2
AcDbRasterVariables
3
ISM
90
0
280
0
281
0
0
ENDSEC
0
SECTION
2
TABLES
0
TABLE
2
VPORT
5
2b2
100
AcDbSymbolTable
0
VPORT
5
1
100
AcDbSymbolTableRecord
100
AcDbViewportTableRecord
2
*Active
70
0
10
0
20
0
11
1
21
1
12
-1
22
1
13
0
23
0
14
0.5
24
0.5
15
10
25
10
16
0
26
0
36
1
17
0
27
0
37
0
0
ENDTAB
0
TABLE
2
LTYPE
5
2b3
100
AcDbSymbolTable
0
LTYPE
5
14
100
AcDbSymbolTableRecord
100
AcDbLinetypeTableRecord
70
0
2
ByBlock
3

72
65
73
0
40
0
0
LTYPE
5
15
100
AcDbSymbolTableRecord
100
AcDbLinetypeTableRecord
70
0
2
ByLayer
3

72
65
73
0
40
0
0
LTYPE
5
16
100
AcDbSymbolTableRecord
100
AcDbLinetypeTableRecord
70
0
2
CONTINUOUS
3
Solid line
72
65
73
0
40
0
0
LTYPE
5
3B
100
AcDbSymbolTableRecord
100
AcDbLinetypeTableRecord
70
0
2
DASHED
3
__ __ __ __ __ __ __ __ __
72
65
73
2
40
25.72
49
12.86
74
0
49
-12.86
74
0
0
LTYPE
5
3C
100
AcDbSymbolTableRecord
100
AcDbLinetypeTableRecord
70
0
2
HIDDEN
3
_ _ _ _ _ _ _ _ _ _ _ _ _ _ _
72
65
73
2
40
0.5
49
0.25
74
0
49
-0.25
74
0
0
LTYPE
5
3D
100
AcDbSymbolTableRecord
100
AcDbLinetypeTableRecord
70
0
2
PHANTOM
3
____ _ _ ____ _ _ _____ _ _ ____
72
65
73
6
40
50.5
49
18
74
0
49
-6.5
74
0
49
6.5
74
0
49
-6.5
74
0
49
6.5
74
0
49
-6.5
74
0
0
LTYPE
5
3E
100
AcDbSymbolTableRecord
100
AcDbLinetypeTableRecord
70
0
2
CENTER
3
____ _ ____ _ ____ _ ____
72
65
73
4
40
47.5
49
22
74
0
49
-8.5
74
0
49
8.5
74
0
49
-8.5
74
0
0
LTYPE
5
3F
100
AcDbSymbolTableRecord
100
AcDbLinetypeTableRecord
70
0
2
DOT
3
.........................
72
65
73
2
40
10
49
0
74
0
49
-10
74
0
0
LTYPE
5
40
100
AcDbSymbolTableRecord
100
AcDbLinetypeTableRecord
70
0
2
DASHDOT
3
_._._._._._._._._._._._._._._._.
72
65
73
4
40
70
49
31
74
0
49
-13
74
0
49
13
74
0
49
-13
74
0
0
ENDTAB
0
TABLE
2
LAYER
5
2b4
100
AcDbSymbolTable
0
LAYER
5
10
100
AcDbSymbolTableRecord
100
AcDbLayerTableRecord
2
0
70
0
62
7
6
CONTINUOUS
290
1
370
-3
390
0
0
LAYER
5
42
100
AcDbSymbolTableRecord
100
AcDbLayerTableRecord
2
81
70
0
62
-3
6
CONTINUOUS
290
1
370
-3
390
0
0
LAYER
5
44
100
AcDbSymbolTableRecord
100
AcDbLayerTableRecord
2
80
70
0
62
-6
6
CONTINUOUS
290
1
370
-3
390
0
0
LAYER
5
48
100
AcDbSymbolTableRecord
100
AcDbLayerTableRecord
2
1
70
0
62
4
6
CONTINUOUS
290
1
370
-3
390
0
0
LAYER
5
60
100
AcDbSymbolTableRecord
100
AcDbLayerTableRecord
2
4
70
0
62
-2
6
CENTER
290
1
370
-3
390
0
0
LAYER
5
24B
100
AcDbSymbolTableRecord
100
AcDbLayerTableRecord
2
2
70
0
62
7
6
CONTINUOUS
290
1
370
-3
390
0
0
LAYER
5
29e
100
AcDbSymbolTableRecord
100
AcDbLayerTableRecord
2
SK1
70
0
62
4
6
CONTINUOUS
290
1
370
-3
390
0
0
LAYER
5
29f
100
AcDbSymbolTableRecord
100
AcDbLayerTableRecord
2
SK4
70
0
62
2
6
CENTER
290
1
370
-3
390
0
0
LAYER
5
2a0
100
AcDbSymbolTableRecord
100
AcDbLayerTableRecord
2
SK6
70
0
62
5
6
CONTINUOUS
290
1
370
-3
390
0
0
LAYER
5
2a1
100
AcDbSymbolTableRecord
100
AcDbLayerTableRecord
2
SK2
70
0
62
7
6
CONTINUOUS
290
1
370
-3
390
0
0
ENDTAB
0
TABLE
2
STYLE
5
2b5
100
AcDbSymbolTable
0
STYLE
5
11
100
AcDbSymbolTableRecord
100
AcDbTextStyleTableRecord
2
Standard
3
txt
70
0
71
0
40
0
41
1
42
0
50
0
0
STYLE
5
20F
100
AcDbSymbolTableRecord
100
AcDbTextStyleTableRecord
2
DEFAULT
3
simplex.shx
70
0
71
0
40
0
41
1
42
0
50
0
0
STYLE
5
232
100
AcDbSymbolTableRecord
100
AcDbTextStyleTableRecord
2
DWGDirectTextStyle
3
SIMPLEX
70
0
71
0
40
0
41
1
42
0
50
0
0
ENDTAB
0
TABLE
2
DIMSTYLE
5
2b6
100
AcDbSymbolTable
100
AcDbDimStyleTable
0
DIMSTYLE
105
27
100
AcDbSymbolTableRecord
100
AcDbDimStyleTableRecord
2
Standard
70
0
3
<>
41
0.18
42
0.0625
44
0.18
140
0.18
147
0.09
73
0
74
0
77
1
271
2
275
0
278
52
280
0
340
11
0
ENDTAB
0
TABLE
2
VIEW
5
2b7
100
AcDbSymbolTable
0
ENDTAB
0
TABLE
2
UCS
5
2b8
100
AcDbSymbolTable
0
ENDTAB
0
TABLE
2
APPID
5
2b9
100
AcDbSymbolTable
0
APPID
5
12
100
AcDbSymbolTableRecord
100
AcDbRegAppTableRecord
2
ACAD
70
0
0
ENDTAB
0
TABLE
2
BLOCK_RECORD
5
2ba
100
AcDbSymbolTable
0
BLOCK_RECORD
5
1F
100
AcDbSymbolTableRecord
100
AcDbBlockTableRecord
2
*Model_Space
340
0
70
0
0
BLOCK_RECORD
5
1B
100
AcDbSymbolTableRecord
100
AcDbBlockTableRecord
2
*Paper_Space
340
0
70
0
0
BLOCK_RECORD
5
23
100
AcDbSymbolTableRecord
100
AcDbBlockTableRecord
2
*Paper_Space0
340
0
70
0
0
BLOCK_RECORD
5
234
100
AcDbSymbolTableRecord
100
AcDbBlockTableRecord
2
DimnDraft3D1
340
0
70
0
0
BLOCK_RECORD
5
23F
100
AcDbSymbolTableRecord
100
AcDbBlockTableRecord
2
DimnDraft3D2
340
0
70
0
0
BLOCK_RECORD
5
249
100
AcDbSymbolTableRecord
100
AcDbBlockTableRecord
2
DimnDraft3D3
340
0
70
0
0
BLOCK_RECORD
5
254
100
AcDbSymbolTableRecord
100
AcDbBlockTableRecord
2
DimnDraft3D4
340
0
70
0
0
BLOCK_RECORD
5
25E
100
AcDbSymbolTableRecord
100
AcDbBlockTableRecord
2
DimnDraft3D5
340
0
70
0
0
BLOCK_RECORD
5
269
100
AcDbSymbolTableRecord
100
AcDbBlockTableRecord
2
DimnDraft3D6
340
0
70
0
0
BLOCK_RECORD
5
274
100
AcDbSymbolTableRecord
100
AcDbBlockTableRecord
2
DimnDraft3D7
340
0
70
0
0
ENDTAB
0
ENDSEC
0
SECTION
2
BLOCKS
0
BLOCK
5
20
100
AcDbEntity
8
0
100
AcDbBlockBegin
2
*Model_Space
70
0
10
0
20
0
30
0
3
*Model_Space
0
ENDBLK
5
21
100
AcDbEntity
8
0
100
AcDbBlockEnd
0
BLOCK
5
1C
100
AcDbEntity
8
0
100
AcDbBlockBegin
2
*Paper_Space
70
0
10
0
20
0
30
0
3
*Paper_Space
0
ENDBLK
5
1D
100
AcDbEntity
8
0
100
AcDbBlockEnd
0
BLOCK
5
24
100
AcDbEntity
8
0
100
AcDbBlockBegin
2
*Paper_Space0
70
0
10
0
20
0
30
0
3
*Paper_Space0
0
ENDBLK
5
25
100
AcDbEntity
8
0
100
AcDbBlockEnd
0
BLOCK
5
23C
100
AcDbEntity
8
0
100
AcDbBlockBegin
2
DimnDraft3D1
70
0
10
0
20
0
30
0
3
DimnDraft3D1
0
MTEXT
5
235
100
AcDbEntity
8
SK2
62
256
6
ByLayer
370
-1
48
1
60
0
100
AcDbMText
10
-6.468421
20
-51.7758
30
0
210
0
220
0
230
1
1
\W01.000;\fsimplex.shx,bigfont.shx;(111) 
40
4.5
41
0
44
1.084337
50
0
71
7
72
5
7
DEFAULT
0
LINE
5
237
100
AcDbEntity
8
SK2
62
256
6
ByLayer
370
-1
48
1
60
0
100
AcDbLine
10
-56
20
-14.0875
30
0
11
-56
21
-58.04455
31
0
39
0
210
0
220
0
230
1
0
LINE
5
238
100
AcDbEntity
8
SK2
62
256
6
ByLayer
370
-1
48
1
60
0
100
AcDbLine
10
55
20
-10.3375
30
0
11
55
21
-58.04455
31
0
39
0
210
0
220
0
230
1
0
LINE
5
239
100
AcDbEntity
8
SK2
62
256
6
ByLayer
370
-1
48
1
60
0
100
AcDbLine
10
-56
20
-54.86955
30
0
11
55
21
-54.86955
31
0
39
0
210
0
220
0
230
1
0
SOLID
5
23A
100
AcDbEntity
8
SK2
62
256
6
ByLayer
370
-1
48
1
60
0
100
AcDbTrace
10
-56
20
-54.86955
30
0
11
-51.825003
21
-53.943975
31
0
12
-51.824997
22
-55.795125
32
0
13
-56
23
-54.86955
33
0
39
0
210
0
220
0
230
1
0
SOLID
5
23B
100
AcDbEntity
8
SK2
62
256
6
ByLayer
370
-1
48
1
60
0
100
AcDbTrace
10
55
20
-54.86955
30
0
11
50.825003
21
-55.795125
31
0
12
50.824997
22
-53.943975
32
0
13
55
23
-54.86955
33
0
39
0
210
0
220
0
230
1
0
ENDBLK
5
23D
100
AcDbEntity
8
0
100
AcDbBlockEnd
0
BLOCK
5
246
100
AcDbEntity
8
0
100
AcDbBlockBegin
2
DimnDraft3D2
70
0
10
0
20
0
30
0
3
DimnDraft3D2
0
MTEXT
5
240
100
AcDbEntity
8
SK2
62
256
6
ByLayer
370
-1
48
1
60
0
100
AcDbMText
10
-29.503947
20
-41.7758
30
0
210
0
220
0
230
1
1
\W01.000;\fsimplex.shx,bigfont.shx;56 
40
4.5
41
0
44
1.084337
50
0
71
7
72
5
7
DEFAULT
0
LINE
5
241
100
AcDbEntity
8
SK2
62
256
6
ByLayer
370
-1
48
1
60
0
100
AcDbLine
10
-56
20
-14.0875
30
0
11
-56
21
-46.0758
31
0
39
0
210
0
220
0
230
1
0
LINE
5
242
100
AcDbEntity
8
SK2
62
256
6
ByLayer
370
-1
48
1
60
0
100
AcDbLine
10
0
20
-17.5875
30
0
11
0
21
-46.0758
31
0
39
0
210
0
220
0
230
1
0
LINE
5
243
100
AcDbEntity
8
SK2
62
256
6
ByLayer
370
-1
48
1
60
0
100
AcDbLine
10
-56
20
-42.9008
30
0
11
0
21
-42.9008
31
0
39
0
210
0
220
0
230
1
0
SOLID
5
244
100
AcDbEntity
8
SK2
62
256
6
ByLayer
370
-1
48
1
60
0
100
AcDbTrace
10
-56
20
-42.9008
30
0
11
-51.825003
21
-41.975225
31
0
12
-51.824997
22
-43.826375
32
0
13
-56
23
-42.9008
33
0
39
0
210
0
220
0
230
1
0
SOLID
5
245
100
AcDbEntity
8
SK2
62
256
6
ByLayer
370
-1
48
1
60
0
100
AcDbTrace
10
0
20
-42.9008
30
0
11
-4.174997
21
-43.826375
31
0
12
-4.175003
22
-41.975225
32
0
13
0
23
-42.9008
33
0
39
0
210
0
220
0
230
1
0
ENDBLK
5
247
100
AcDbEntity
8
0
100
AcDbBlockEnd
0
BLOCK
5
251
100
AcDbEntity
8
0
100
AcDbBlockBegin
2
DimnDraft3D3
70
0
10
0
20
0
30
0
3
DimnDraft3D3
0
MTEXT
5
24A
100
AcDbEntity
8
2
62
256
6
ByLayer
370
-1
48
1
60
0
100
AcDbMText
10
25.996053
20
-41.7758
30
0
210
0
220
0
230
1
1
\W01.000;\fsimplex.shx,bigfont.shx;55 
40
4.5
41
0
44
1.084337
50
0
71
7
72
5
7
DEFAULT
0
LINE
5
24C
100
AcDbEntity
8
2
62
256
6
ByLayer
370
-1
48
1
60
0
100
AcDbLine
10
0
20
-17.5875
30
0
11
0
21
-46.0758
31
0
39
0
210
0
220
0
230
1
0
LINE
5
24D
100
AcDbEntity
8
2
62
256
6
ByLayer
370
-1
48
1
60
0
100
AcDbLine
10
55
20
-10.3375
30
0
11
55
21
-46.0758
31
0
39
0
210
0
220
0
230
1
0
LINE
5
24E
100
AcDbEntity
8
2
62
256
6
ByLayer
370
-1
48
1
60
0
100
AcDbLine
10
0
20
-42.9008
30
0
11
55
21
-42.9008
31
0
39
0
210
0
220
0
230
1
0
SOLID
5
24F
100
AcDbEntity
8
2
62
256
6
ByLayer
370
-1
48
1
60
0
100
AcDbTrace
10
0
20
-42.9008
30
0
11
4.174997
21
-41.975225
31
0
12
4.175003
22
-43.826375
32
0
13
0
23
-42.9008
33
0
39
0
210
0
220
0
230
1
0
SOLID
5
250
100
AcDbEntity
8
2
62
256
6
ByLayer
370
-1
48
1
60
0
100
AcDbTrace
10
55
20
-42.9008
30
0
11
50.825003
21
-43.826375
31
0
12
50.824997
22
-41.975225
32
0
13
55
23
-42.9008
33
0
39
0
210
0
220
0
230
1
0
ENDBLK
5
252
100
AcDbEntity
8
0
100
AcDbBlockEnd
0
BLOCK
5
25B
100
AcDbEntity
8
0
100
AcDbBlockBegin
2
DimnDraft3D4
70
0
10
0
20
0
30
0
3
DimnDraft3D4
0
MTEXT
5
255
100
AcDbEntity
8
SK2
62
256
6
ByLayer
370
-1
48
1
60
0
100
AcDbMText
10
33.996053
20
-31.7758
30
0
210
0
220
0
230
1
1
\W01.000;\fsimplex.shx,bigfont.shx;39 
40
4.5
41
0
44
1.084337
50
0
71
7
72
5
7
DEFAULT
0
LINE
5
256
100
AcDbEntity
8
SK2
62
256
6
ByLayer
370
-1
48
1
60
0
100
AcDbLine
10
16
20
-11.5875
30
0
11
16
21
-36.0758
31
0
39
0
210
0
220
0
230
1
0
LINE
5
257
100
AcDbEntity
8
SK2
62
256
6
ByLayer
370
-1
48
1
60
0
100
AcDbLine
10
55
20
-10.3375
30
0
11
55
21
-36.0758
31
0
39
0
210
0
220
0
230
1
0
LINE
5
258
100
AcDbEntity
8
SK2
62
256
6
ByLayer
370
-1
48
1
60
0
100
AcDbLine
10
16
20
-32.9008
30
0
11
55
21
-32.9008
31
0
39
0
210
0
220
0
230
1
0
SOLID
5
259
100
AcDbEntity
8
SK2
62
256
6
ByLayer
370
-1
48
1
60
0
100
AcDbTrace
10
16
20
-32.9008
30
0
11
20.174997
21
-31.975225
31
0
12
20.175003
22
-33.826375
32
0
13
16
23
-32.9008
33
0
39
0
210
0
220
0
230
1
0
SOLID
5
25A
100
AcDbEntity
8
SK2
62
256
6
ByLayer
370
-1
48
1
60
0
100
AcDbTrace
10
55
20
-32.9008
30
0
11
50.825003
21
-33.826375
31
0
12
50.824997
22
-31.975225
32
0
13
55
23
-32.9008
33
0
39
0
210
0
220
0
230
1
0
ENDBLK
5
25C
100
AcDbEntity
8
0
100
AcDbBlockEnd
0
BLOCK
5
266
100
AcDbEntity
8
0
100
AcDbBlockBegin
2
DimnDraft3D5
70
0
10
0
20
0
30
0
3
DimnDraft3D5
0
MTEXT
5
25F
100
AcDbEntity
8
SK2
62
256
6
ByLayer
370
-1
48
1
60
0
100
AcDbMText
10
-66.975
20
5.246053
30
0
210
0
220
0
230
1
1
\W01.000;\fsimplex.shx,bigfont.shx;25 
40
4.5
41
0
44
1.084337
50
90
71
7
72
5
7
DEFAULT
0
MTEXT
5
260
100
AcDbEntity
8
SK2
62
256
6
ByLayer
370
-1
48
1
60
0
100
AcDbMText
10
-66.975
20
-8.253947
30
0
210
0
220
0
230
1
1
\W01.000;\fsimplex.shx,bigfont.shx;%%c 
40
4.5
41
0
44
1.084337
50
90
71
7
72
5
7
DEFAULT
0
LINE
5
261
100
AcDbEntity
8
SK2
62
256
6
ByLayer
370
-1
48
1
60
0
100
AcDbLine
10
-57.5875
20
12.5
30
0
11
-67.9
21
12.5
31
0
39
0
210
0
220
0
230
1
0
LINE
5
262
100
AcDbEntity
8
SK2
62
256
6
ByLayer
370
-1
48
1
60
0
100
AcDbLine
10
-57.5875
20
-12.5
30
0
11
-67.9
21
-12.5
31
0
39
0
210
0
220
0
230
1
0
LINE
5
263
100
AcDbEntity
8
SK2
62
256
6
ByLayer
370
-1
48
1
60
0
100
AcDbLine
10
-64.725
20
23.75
30
0
11
-64.725
21
-23.75
31
0
39
0
210
0
220
0
230
1
0
SOLID
5
264
100
AcDbEntity
8
SK2
62
256
6
ByLayer
370
-1
48
1
60
0
100
AcDbTrace
10
-64.725
20
12.5
30
0
11
-65.650575
21
16.674997
31
0
12
-63.799425
22
16.675003
32
0
13
-64.725
23
12.5
33
0
39
0
210
0
220
0
230
1
0
SOLID
5
265
100
AcDbEntity
8
SK2
62
256
6
ByLayer
370
-1
48
1
60
0
100
AcDbTrace
10
-64.725
20
-12.5
30
0
11
-63.799425
21
-16.674997
31
0
12
-65.650575
22
-16.675003
32
0
13
-64.725
23
-12.5
33
0
39
0
210
0
220
0
230
1
0
ENDBLK
5
267
100
AcDbEntity
8
0
100
AcDbBlockEnd
0
BLOCK
5
271
100
AcDbEntity
8
0
100
AcDbBlockBegin
2
DimnDraft3D6
70
0
10
0
20
0
30
0
3
DimnDraft3D6
0
MTEXT
5
26A
100
AcDbEntity
8
SK2
62
256
6
ByLayer
370
-1
48
1
60
0
100
AcDbMText
10
-76.975
20
5.246053
30
0
210
0
220
0
230
1
1
\W01.000;\fsimplex.shx,bigfont.shx;32 
40
4.5
41
0
44
1.084337
50
90
71
7
72
5
7
DEFAULT
0
MTEXT
5
26B
100
AcDbEntity
8
SK2
62
256
6
ByLayer
370
-1
48
1
60
0
100
AcDbMText
10
-76.975
20
-8.253947
30
0
210
0
220
0
230
1
1
\W01.000;\fsimplex.shx,bigfont.shx;%%c 
40
4.5
41
0
44
1.084337
50
90
71
7
72
5
7
DEFAULT
0
LINE
5
26C
100
AcDbEntity
8
SK2
62
256
6
ByLayer
370
-1
48
1
60
0
100
AcDbLine
10
-1.5875
20
-16
30
0
11
-77.9
21
-16
31
0
39
0
210
0
220
0
230
1
0
LINE
5
26D
100
AcDbEntity
8
SK2
62
256
6
ByLayer
370
-1
48
1
60
0
100
AcDbLine
10
-1.5875
20
16
30
0
11
-77.9
21
16
31
0
39
0
210
0
220
0
230
1
0
LINE
5
26E
100
AcDbEntity
8
SK2
62
256
6
ByLayer
370
-1
48
1
60
0
100
AcDbLine
10
-74.725
20
-16
30
0
11
-74.725
21
16
31
0
39
0
210
0
220
0
230
1
0
SOLID
5
26F
100
AcDbEntity
8
SK2
62
256
6
ByLayer
370
-1
48
1
60
0
100
AcDbTrace
10
-74.725
20
-16
30
0
11
-75.650575
21
-11.825003
31
0
12
-73.799425
22
-11.824997
32
0
13
-74.725
23
-16
33
0
39
0
210
0
220
0
230
1
0
SOLID
5
270
100
AcDbEntity
8
SK2
62
256
6
ByLayer
370
-1
48
1
60
0
100
AcDbTrace
10
-74.725
20
16
30
0
11
-73.799425
21
11.825003
31
0
12
-75.650575
22
11.824997
32
0
13
-74.725
23
16
33
0
39
0
210
0
220
0
230
1
0
ENDBLK
5
272
100
AcDbEntity
8
0
100
AcDbBlockEnd
0
BLOCK
5
27C
100
AcDbEntity
8
0
100
AcDbBlockBegin
2
DimnDraft3D7
70
0
10
0
20
0
30
0
3
DimnDraft3D7
0
MTEXT
5
275
100
AcDbEntity
8
2
62
256
6
ByLayer
370
-1
48
1
60
0
100
AcDbMText
10
79.725
20
-28.938816
30
0
210
0
220
0
230
1
1
\W01.000;\fsimplex.shx,bigfont.shx;17.5 
40
4.5
41
0
44
1.084337
50
90
71
7
72
5
7
DEFAULT
0
MTEXT
5
276
100
AcDbEntity
8
2
62
256
6
ByLayer
370
-1
48
1
60
0
100
AcDbMText
10
79.725
20
-42.438816
30
0
210
0
220
0
230
1
1
\W01.000;\fsimplex.shx,bigfont.shx;%%c 
40
4.5
41
0
44
1.084337
50
90
71
7
72
5
7
DEFAULT
0
LINE
5
277
100
AcDbEntity
8
2
62
256
6
ByLayer
370
-1
48
1
60
0
100
AcDbLine
10
56.5875
20
8.75
30
0
11
85.15
21
8.75
31
0
39
0
210
0
220
0
230
1
0
LINE
5
278
100
AcDbEntity
8
2
62
256
6
ByLayer
370
-1
48
1
60
0
100
AcDbLine
10
56.5875
20
-8.75
30
0
11
85.15
21
-8.75
31
0
39
0
210
0
220
0
230
1
0
LINE
5
279
100
AcDbEntity
8
2
62
256
6
ByLayer
370
-1
48
1
60
0
100
AcDbLine
10
81.975
20
8.75
30
0
11
81.975
21
-43.563816
31
0
39
0
210
0
220
0
230
1
0
SOLID
5
27A
100
AcDbEntity
8
2
62
256
6
ByLayer
370
-1
48
1
60
0
100
AcDbTrace
10
81.975
20
8.75
30
0
11
82.900575
21
4.575003
31
0
12
81.049425
22
4.574997
32
0
13
81.975
23
8.75
33
0
39
0
210
0
220
0
230
1
0
SOLID
5
27B
100
AcDbEntity
8
2
62
256
6
ByLayer
370
-1
48
1
60
0
100
AcDbTrace
10
81.975
20
-8.75
30
0
11
81.049425
21
-4.575003
31
0
12
82.900575
22
-4.574997
32
0
13
81.975
23
-8.75
33
0
39
0
210
0
220
0
230
1
0
ENDBLK
5
27D
100
AcDbEntity
8
0
100
AcDbBlockEnd
0
ENDSEC
0
SECTION
2
ENTITIES
0
ARC
5
F0
100
AcDbEntity
8
SK1
62
256
6
ByLayer
370
-1
48
1
60
0
100
AcDbCircle
39
0
10
1.382165
20
12.65
30
0
40
0.4
210
0
220
0
230
-1
100
AcDbArc
50
270
51
295
0
ARC
5
F1
100
AcDbEntity
8
SK1
62
256
6
ByLayer
370
-1
48
1
60
0
100
AcDbCircle
39
0
10
1.382165
20
-12.65
30
0
40
0.4
210
0
220
0
230
-1
100
AcDbArc
50
65
51
90
0
ARC
5
F2
100
AcDbEntity
8
SK1
62
256
6
ByLayer
370
-1
48
1
60
0
100
AcDbCircle
39
0
10
0.15
20
12.65
30
0
40
0.4
210
0
220
0
230
-1
100
AcDbArc
50
247.975687
51
270
0
ARC
5
F3
100
AcDbEntity
8
SK1
62
256
6
ByLayer
370
-1
48
1
60
0
100
AcDbCircle
39
0
10
0.15
20
-12.65
30
0
40
0.4
210
0
220
0
230
-1
100
AcDbArc
50
90
51
112.024313
0
ARC
5
F4
100
AcDbEntity
8
SK1
62
256
6
ByLayer
370
-1
48
1
60
0
100
AcDbCircle
39
0
10
53.894506
20
12.89675
30
0
40
0.8
210
0
220
0
230
-1
100
AcDbArc
50
250.982048
51
321
0
ARC
5
F5
100
AcDbEntity
8
SK1
62
256
6
ByLayer
370
-1
48
1
60
0
100
AcDbCircle
39
0
10
53.894506
20
-12.89675
30
0
40
0.8
210
0
220
0
230
-1
100
AcDbArc
50
39
51
109.017952
0
ELLIPSE
5
F6
100
AcDbEntity
8
1
62
256
6
ByLayer
370
-1
48
1
60
0
100
AcDbEllipse
10
49.040563
20
4.758062
30
0
11
-0.599637270106163
21
-0.0208601126465925
31
0
210
0
220
0
230
1
40
0.003042
41
0.0872135714661154
42
1.13795433213008
0
ELLIPSE
5
F7
100
AcDbEntity
8
1
62
256
6
ByLayer
370
-1
48
1
60
0
100
AcDbEllipse
10
46.73232
20
0
30
0
11
-31.042630760995
21
0.556955313983432
31
0
210
0
220
0
230
-1
40
0.271614
41
-1.59254462439066
42
-1.51718444006334
0
ELLIPSE
5
F8
100
AcDbEntity
8
1
62
256
6
ByLayer
370
-1
48
1
60
0
100
AcDbEllipse
10
47.847296
20
8.423067
30
0
11
6.09155738004463E-15
21
5.2
31
0
210
0
220
0
230
1
40
0.996195
41
2.72271363311116
42
-3.1066860685499
0
ELLIPSE
5
F9
100
AcDbEntity
8
1
62
256
6
ByLayer
370
-1
48
1
60
0
100
AcDbEllipse
10
49.618931
20
3.609953
30
0
11
1.58146201212697E-15
21
1.35
31
0
210
0
220
0
230
1
40
0.996195
41
1.60570291183479
42
1.85093280967831
0
ELLIPSE
5
FA
100
AcDbEntity
8
1
62
256
6
ByLayer
370
-1
48
1
60
0
100
AcDbEllipse
10
52.058215
20
5.502015
30
0
11
1.2885986765479E-15
21
1.1
31
0
210
0
220
0
230
1
40
0.996195
41
0.0936589268668767
42
1.57079627600051
0
ELLIPSE
5
FB
100
AcDbEntity
8
1
62
256
6
ByLayer
370
-1
48
1
60
0
100
AcDbEllipse
10
52.058215
20
5.502015
30
0
11
1.2885986765479E-15
21
1.1
31
0
210
0
220
0
230
1
40
0.996195
41
1.57079627600051
42
2.67447725026751
0
ELLIPSE
5
FC
100
AcDbEntity
8
1
62
256
6
ByLayer
370
-1
48
1
60
0
100
AcDbEllipse
10
53.796888
20
-5.339474
30
0
11
-0.0804324279366113
21
-0.99728887553158
31
0
210
0
220
0
230
-1
40
0.125988
41
1.31411308747407
42
0.252563379184843
0
ELLIPSE
5
FD
100
AcDbEntity
8
1
62
256
6
ByLayer
370
-1
48
1
60
0
100
AcDbEllipse
10
54.290451
20
0
30
0
11
-0.512731552030859
21
8.44977936999113
31
0
210
0
220
0
230
-1
40
0.119092
41
-2.05961574379395
42
-1.49330376074844
0
ELLIPSE
5
FE
100
AcDbEntity
8
1
62
256
6
ByLayer
370
-1
48
1
60
0
100
AcDbEllipse
10
45.67059
20
3.672631
30
0
11
-0.326425640836813
21
-0.730374082922085
31
0
210
0
220
0
230
1
40
0.079621
41
0.435280673289379
42
1.60636616336575
0
ELLIPSE
5
FF
100
AcDbEntity
8
1
62
256
6
ByLayer
370
-1
48
1
60
0
100
AcDbEllipse
10
47.777572
20
8.423067
30
0
11
-6.43121623664089E-15
21
-6
31
0
210
0
220
0
230
1
40
0.996195
41
-0.318454646115412
42
-4.39409771405017E-06
0
ELLIPSE
5
100
100
AcDbEntity
8
1
62
256
6
ByLayer
370
-1
48
1
60
0
100
AcDbEllipse
10
49.870742
20
3.609953
30
0
11
-1.17794646133824
21
-1.04893007471917
31
0
210
0
220
0
230
-1
40
0.721468
41
-1.26712593957057
42
-0.133853100320749
0
ELLIPSE
5
101
100
AcDbEntity
8
1
62
256
6
ByLayer
370
-1
48
1
60
0
100
AcDbEllipse
10
51.853399
20
5.502015
30
0
11
1.2885986765479E-15
21
1.1
31
0
210
0
220
0
230
1
40
0.996195
41
-2.42668389129718
42
0
0
ELLIPSE
5
102
100
AcDbEntity
8
1
62
256
6
ByLayer
370
-1
48
1
60
0
100
AcDbEllipse
10
51.853399
20
5.502015
30
0
11
1.2885986765479E-15
21
1.1
31
0
210
0
220
0
230
1
40
0.996195
41
0
42
1.57079634372637
0
ELLIPSE
5
103
100
AcDbEntity
8
1
62
256
6
ByLayer
370
-1
48
1
60
0
100
AcDbEllipse
10
51.853399
20
5.502015
30
0
11
1.2885986765479E-15
21
1.1
31
0
210
0
220
0
230
1
40
0.996195
41
1.57079627600049
42
1.74584211605792
0
ELLIPSE
5
104
100
AcDbEntity
8
1
62
256
6
ByLayer
370
-1
48
1
60
0
100
AcDbEllipse
10
49.787254
20
4.784237
30
0
11
-1.4470236532442E-15
21
-1.35
31
0
210
0
220
0
230
1
40
0.996195
41
-2.26960617922759
42
-1.53588974175501
0
ELLIPSE
5
105
100
AcDbEntity
8
1
62
256
6
ByLayer
370
-1
48
1
60
0
100
AcDbEllipse
10
54.038113
20
0.142759
30
0
11
-0.0549121510473552
21
0.602213264584963
31
0
210
0
220
0
230
-1
40
0.116476
41
-1.33525845853429
42
0.075775677805661
0
ELLIPSE
5
106
100
AcDbEntity
8
1
62
256
6
ByLayer
370
-1
48
1
60
0
100
AcDbEllipse
10
53.948821
20
3.190866
30
0
11
-0.0543036218712459
21
0.603604264849532
31
0
210
0
220
0
230
-1
40
0.115515
41
2.31803477922604
42
-3.12962527652283
0
ELLIPSE
5
107
100
AcDbEntity
8
1
62
256
6
ByLayer
370
-1
48
1
60
0
100
AcDbEllipse
10
54.913668
20
0
30
0
11
-0.69487262031207
21
-8.4495436347666
31
0
210
0
220
0
230
-1
40
0.126383
41
0.838661242252548
42
1.06435740991246
0
ELLIPSE
5
108
100
AcDbEntity
8
1
62
256
6
ByLayer
370
-1
48
1
60
0
100
AcDbEllipse
10
49.161758
20
6.282774
30
0
11
-0.579980162747698
21
-0.618336926590107
31
0
210
0
220
0
230
-1
40
0.04503
41
-0.739916138396164
42
-0.421202239080743
0
ELLIPSE
5
109
100
AcDbEntity
8
1
62
256
6
ByLayer
370
-1
48
1
60
0
100
AcDbEllipse
10
45.974871
20
2.428651
30
0
11
-6.30696434885139
21
-0.198405598728181
31
0
210
0
220
0
230
-1
40
0.01063
41
-1.89666071626499
42
-1.88745133484068
0
ELLIPSE
5
10A
100
AcDbEntity
8
1
62
256
6
ByLayer
370
-1
48
1
60
0
100
AcDbEllipse
10
51.853399
20
5.502015
30
0
11
1.46431667789534E-15
21
1.25
31
0
210
0
220
0
230
1
40
0.996195
41
0
42
1.01581412355465
0
ELLIPSE
5
10B
100
AcDbEntity
8
1
62
256
6
ByLayer
370
-1
48
1
60
0
100
AcDbEllipse
10
46.289205
20
5.230406
30
0
11
-0.36863467802306
21
-3.88253892113896
31
0
210
0
220
0
230
1
40
0.304411
41
0.210144100116321
42
0.814320553823333
0
ELLIPSE
5
10C
100
AcDbEntity
8
1
62
256
6
ByLayer
370
-1
48
1
60
0
100
AcDbEllipse
10
38.291077
20
5.971903
30
0
11
-8.05634253912482
21
4.58685544592179
31
0
210
0
220
0
230
-1
40
0.118673
41
-2.58473873937052
42
-1.45164333877064
0
ELLIPSE
5
10D
100
AcDbEntity
8
1
62
256
6
ByLayer
370
-1
48
1
60
0
100
AcDbEllipse
10
49.828104
20
3.609953
30
0
11
-1.4470236532442E-15
21
-1.35
31
0
210
0
220
0
230
1
40
0.996195
41
-1.53588974175501
42
-0.146913134865275
0
ELLIPSE
5
10E
100
AcDbEntity
8
1
62
256
6
ByLayer
370
-1
48
1
60
0
100
AcDbEllipse
10
11.4
20
-3.944699
30
0
11
-5
21
5.05319527541181E-15
31
0
210
0
220
0
230
1
40
0.998799
41
-1.31217270531657
42
-3.28375261257828E-06
0
ELLIPSE
5
10F
100
AcDbEntity
8
1
62
256
6
ByLayer
370
-1
48
1
60
0
100
AcDbEllipse
10
54.264351
20
-4.345932
30
0
11
-0.0581290992928386
21
-0.658564973947456
31
0
210
0
220
0
230
-1
40
0.115224
41
0.00370845515596111
42
1.57450478195172
0
ELLIPSE
5
110
100
AcDbEntity
8
1
62
256
6
ByLayer
370
-1
48
1
60
0
100
AcDbEllipse
10
54.035072
20
0.142865
30
0
11
-0.0367903366894931
21
0.60160753515289
31
0
210
0
220
0
230
-1
40
0.118733
41
-1.49832363825557
42
-1.33856144555657
0
ELLIPSE
5
111
100
AcDbEntity
8
1
62
256
6
ByLayer
370
-1
48
1
60
0
100
AcDbEllipse
10
51.840326
20
5.502015
30
0
11
1.46431667789534E-15
21
1.25
31
0
210
0
220
0
230
1
40
0.996195
41
-1.80160505545351
42
0
0
ELLIPSE
5
112
100
AcDbEntity
8
1
62
256
6
ByLayer
370
-1
48
1
60
0
100
AcDbEllipse
10
51.840326
20
5.502015
30
0
11
1.46431667789534E-15
21
1.25
31
0
210
0
220
0
230
1
40
0.996195
41
0
42
0.963290731159637
0
ELLIPSE
5
113
100
AcDbEntity
8
1
62
256
6
ByLayer
370
-1
48
1
60
0
100
AcDbEllipse
10
51.72822
20
-1.643301
30
0
11
1.2
21
0
31
0
210
0
220
0
230
1
40
0.998135
41
0
42
3.14159250110337
0
ELLIPSE
5
114
100
AcDbEntity
8
1
62
256
6
ByLayer
370
-1
48
1
60
0
100
AcDbEllipse
10
46.325281
20
0
30
0
11
-26.3227443602097
21
-2.98262934867324E-14
31
0
210
0
220
0
230
-1
40
0.321015
41
1.481589096073
42
1.59626870381502
0
ELLIPSE
5
115
100
AcDbEntity
8
1
62
256
6
ByLayer
370
-1
48
1
60
0
100
AcDbEllipse
10
54.294369
20
0
30
0
11
-0.766683540314182
21
8.44952521727947
31
0
210
0
220
0
230
-1
40
0.116951
41
-1.489918711877
42
-1.44812337343342
0
ELLIPSE
5
116
100
AcDbEntity
8
1
62
256
6
ByLayer
370
-1
48
1
60
0
100
AcDbEllipse
10
47.958359
20
3.226235
30
0
11
0.0280261150489165
21
-0.799508934831416
31
0
210
0
220
0
230
1
40
0.087103
41
0.0630727813209416
42
1.56774302595899
0
ELLIPSE
5
117
100
AcDbEntity
8
1
62
256
6
ByLayer
370
-1
48
1
60
0
100
AcDbEllipse
10
51.72822
20
-1.643301
30
0
11
-1.1
21
1.1117029605906E-15
31
0
210
0
220
0
230
1
40
0.998135
41
0
42
6.28318530717959
0
ELLIPSE
5
118
100
AcDbEntity
8
1
62
256
6
ByLayer
370
-1
48
1
60
0
100
AcDbEllipse
10
47.015432
20
2.954791
30
0
11
-6.70501444480015
21
0.35271630951741
31
0
210
0
220
0
230
-1
40
0.000405
41
-3.1350502761937
42
-3.13389704149519
0
ELLIPSE
5
119
100
AcDbEntity
8
1
62
256
6
ByLayer
370
-1
48
1
60
0
100
AcDbEllipse
10
51.72822
20
-1.908862
30
0
11
-1.1
21
1.1117029605906E-15
31
0
210
0
220
0
230
1
40
0.998135
41
-3.02044521600466
42
-0.121245951291246
0
ELLIPSE
5
11A
100
AcDbEntity
8
1
62
256
6
ByLayer
370
-1
48
1
60
0
100
AcDbEllipse
10
44.535755
20
-2E-06
30
0
11
-96.5839539136011
21
-1.09439248283349E-13
31
0
210
0
220
0
230
-1
40
0.087489
41
1.59626870066541
42
1.61151592476529
0
ELLIPSE
5
11B
100
AcDbEntity
8
1
62
256
6
ByLayer
370
-1
48
1
60
0
100
AcDbEllipse
10
52.741095
20
0
30
0
11
-19.2280624684002
21
8.18866514131708
31
0
210
0
220
0
230
-1
40
0.108448
41
-1.18684130913581
42
-0.546701764267085
0
ELLIPSE
5
11C
100
AcDbEntity
8
1
62
256
6
ByLayer
370
-1
48
1
60
0
100
AcDbEllipse
10
49.081414
20
3.583778
30
0
11
-0.599637270106163
21
-0.0208601126465925
31
0
210
0
220
0
230
1
40
0.003042
41
0.087213571465872
42
1.13795433213007
0
ELLIPSE
5
11D
100
AcDbEntity
8
1
62
256
6
ByLayer
370
-1
48
1
60
0
100
AcDbEllipse
10
29.455849
20
6.82868
30
0
11
-17.5361368754544
21
1.63255122553025
31
0
210
0
220
0
230
-1
40
0.221433
41
3.1209809446387
42
-2.73865810950751
0
ELLIPSE
5
11E
100
AcDbEntity
8
1
62
256
6
ByLayer
370
-1
48
1
60
0
100
AcDbEllipse
10
54.913668
20
0
30
0
11
-0.694872619691593
21
-8.44954363121111
31
0
210
0
220
0
230
-1
40
0.126383
41
0.0116302008251663
42
0.718564889753497
0
ELLIPSE
5
11F
100
AcDbEntity
8
1
62
256
6
ByLayer
370
-1
48
1
60
0
100
AcDbEllipse
10
36.280373
20
6.180713
30
0
11
-0.36863467802306
21
-3.88253892113896
31
0
210
0
220
0
230
1
40
0.304411
41
1.3550182017994
42
1.57542681839371
0
ELLIPSE
5
120
100
AcDbEntity
8
1
62
256
6
ByLayer
370
-1
48
1
60
0
100
AcDbEllipse
10
48.768904
20
1E-06
30
0
11
-0.273596958914944
21
8.44996532454589
31
0
210
0
220
0
230
-1
40
0.087398
41
-0.0378898072639936
42
-0.00091570902277519
0
ELLIPSE
5
121
100
AcDbEntity
8
1
62
256
6
ByLayer
370
-1
48
1
60
0
100
AcDbEllipse
10
-1.154425
20
0
30
0
11
-150.280180898467
21
-8.17166228592237
31
0
210
0
220
0
230
-1
40
0.014313
41
-1.94023626890323
42
-1.8994700353859
0
ELLIPSE
5
122
100
AcDbEntity
8
1
62
256
6
ByLayer
370
-1
48
1
60
0
100
AcDbEllipse
10
49.57808
20
4.784237
30
0
11
1.58146201212697E-15
21
1.35
31
0
210
0
220
0
230
1
40
0.996195
41
0.863056052375923
42
1.60570291183479
0
ELLIPSE
5
123
100
AcDbEntity
8
1
62
256
6
ByLayer
370
-1
48
1
60
0
100
AcDbEllipse
10
53.51751
20
-0.557758
30
0
11
-0.59120224503834
21
5.97492078288119E-16
31
0
210
0
220
0
230
1
40
0.998135
41
-3.08923277602997
42
-2.47119166742835
0
ELLIPSE
5
124
100
AcDbEntity
8
1
62
256
6
ByLayer
370
-1
48
1
60
0
100
AcDbEllipse
10
54.344789
20
-3.387912
30
0
11
-0.199877710054841
21
0.00699292665720209
31
0
210
0
220
0
230
1
40
0.061011
41
0.525733317016737
42
1.57293086821332
0
ELLIPSE
5
125
100
AcDbEntity
8
1
62
256
6
ByLayer
370
-1
48
1
60
0
100
AcDbEllipse
10
54.358667
20
-2.99124
30
0
11
-0.199877710054841
21
0.00699292665720209
31
0
210
0
220
0
230
1
40
0.061011
41
0.525733317016705
42
1.57293086821329
0
ELLIPSE
5
126
100
AcDbEntity
8
1
62
256
6
ByLayer
370
-1
48
1
60
0
100
AcDbEllipse
10
51.878496
20
-2.159209
30
0
11
1.25
21
0
31
0
210
0
220
0
230
1
40
0.998135
41
1.18231861927854
42
2.92708051709958
0
ELLIPSE
5
127
100
AcDbEntity
8
1
62
256
6
ByLayer
370
-1
48
1
60
0
100
AcDbEllipse
10
53.853886
20
-3.383011
30
0
11
-0.591202245038341
21
5.97492078288121E-16
31
0
210
0
220
0
230
1
40
0.998135
41
2.29977787734967
42
3.1066860685499
0
ELLIPSE
5
128
100
AcDbEntity
8
1
62
256
6
ByLayer
370
-1
48
1
60
0
100
AcDbEllipse
10
54.313934
20
-2.769058
30
0
11
-0.18160533389647
21
-0.0837824725127601
31
0
210
0
220
0
230
1
40
0.055452
41
0.498021999162211
42
1.54521955035883
0
ELLIPSE
5
129
100
AcDbEntity
8
1
62
256
6
ByLayer
370
-1
48
1
60
0
100
AcDbEllipse
10
53.853886
20
-3.376906
30
0
11
0.317997164281453
21
0
31
0
210
0
220
0
230
1
40
0.998135
41
-0.340738738996728
42
-0.0349065850398841
0
ELLIPSE
5
12A
100
AcDbEntity
8
1
62
256
6
ByLayer
370
-1
48
1
60
0
100
AcDbEllipse
10
53.867764
20
-2.986339
30
0
11
-0.49120224503834
21
4.96428172779883E-16
31
0
210
0
220
0
230
1
40
0.998135
41
3.1066860685499
42
-2.71005519262054
0
ELLIPSE
5
12B
100
AcDbEntity
8
1
62
256
6
ByLayer
370
-1
48
1
60
0
100
AcDbEllipse
10
53.867764
20
-2.980234
30
0
11
0.317997164281453
21
0
31
0
210
0
220
0
230
1
40
0.998135
41
-0.0349065850398813
42
0.43153746096927
0
ELLIPSE
5
12C
100
AcDbEntity
8
1
62
256
6
ByLayer
370
-1
48
1
60
0
100
AcDbEllipse
10
56.712196
20
-1.83159
30
0
11
2.00000000000009
21
0
31
0
210
0
220
0
230
1
40
0.998135
41
-3.08923277501294
42
-2.69974671309689
0
ELLIPSE
5
12D
100
AcDbEntity
8
1
62
256
6
ByLayer
370
-1
48
1
60
0
100
AcDbEllipse
10
56.712196
20
-1.672864
30
0
11
-2.81352115015638
21
2.84345435664829E-15
31
0
210
0
220
0
230
1
40
0.998135
41
0.394970503341752
42
0.43153746096924
0
ELLIPSE
5
12E
100
AcDbEntity
8
1
62
256
6
ByLayer
370
-1
48
1
60
0
100
AcDbEllipse
10
51.878496
20
-2.122269
30
0
11
1.35
21
0
31
0
210
0
220
0
230
1
40
0.998135
41
1.91754943129525
42
2.44945998222059
0
ELLIPSE
5
12F
100
AcDbEntity
8
1
62
256
6
ByLayer
370
-1
48
1
60
0
100
AcDbEllipse
10
54.000305
20
-3.112024
30
0
11
1.00000000000004
21
0
31
0
210
0
220
0
230
1
40
0.998135
41
-0.0349065850400989
42
0.441845940492538
0
ELLIPSE
5
130
100
AcDbEntity
8
1
62
256
6
ByLayer
370
-1
48
1
60
0
100
AcDbEllipse
10
54.181081
20
-3.736483
30
0
11
-0.133083669611859
21
0.149294128761453
31
0
210
0
220
0
230
1
40
0.040665
41
1.50826161297239
42
1.61638305710823
0
ELLIPSE
5
131
100
AcDbEntity
8
1
62
256
6
ByLayer
370
-1
48
1
60
0
100
AcDbEllipse
10
53.51751
20
-0.557758
30
0
11
-0.49120224503834
21
4.96428172779883E-16
31
0
210
0
220
0
230
1
40
0.998135
41
-3.08923277602997
42
-2.89365829183896
0
ELLIPSE
5
132
100
AcDbEntity
8
1
62
256
6
ByLayer
370
-1
48
1
60
0
100
AcDbEllipse
10
53.867764
20
-2.986339
30
0
11
-0.59120224503834
21
5.97492078288119E-16
31
0
210
0
220
0
230
1
40
0.998135
41
3.1066860685499
42
-2.71005519262055
0
ELLIPSE
5
133
100
AcDbEntity
8
1
62
256
6
ByLayer
370
-1
48
1
60
0
100
AcDbEllipse
10
54.461611
20
-4.22672
30
0
11
0.500000000000144
21
0
31
0
210
0
220
0
230
1
40
0.998135
41
-1.22173047639542
42
-0.0349065850401011
0
ELLIPSE
5
134
100
AcDbEntity
8
1
62
256
6
ByLayer
370
-1
48
1
60
0
100
AcDbEllipse
10
56.712196
20
-1.678968
30
0
11
2.64031606939949
21
0
31
0
210
0
220
0
230
1
40
0.998135
41
-3.08923277525972
42
-2.71005519262055
0
ELLIPSE
5
135
100
AcDbEntity
8
1
62
256
6
ByLayer
370
-1
48
1
60
0
100
AcDbEllipse
10
56.712196
20
-1.678968
30
0
11
2.54031606939949
21
0
31
0
210
0
220
0
230
1
40
0.998135
41
-3.0892327752294
42
-2.71005519262055
0
ELLIPSE
5
136
100
AcDbEntity
8
1
62
256
6
ByLayer
370
-1
48
1
60
0
100
AcDbEllipse
10
53.853886
20
-3.383011
30
0
11
-0.49120224503834
21
4.96428172779883E-16
31
0
210
0
220
0
230
1
40
0.998135
41
2.2997778773497
42
3.1066860685499
0
ELLIPSE
5
137
100
AcDbEntity
8
1
62
256
6
ByLayer
370
-1
48
1
60
0
100
AcDbEllipse
10
54.13945
20
-0.511444
30
0
11
0.49999999999999
21
0
31
0
210
0
220
0
230
1
40
0.998135
41
0.0523598775598189
42
0.349065850399595
0
ELLIPSE
5
138
100
AcDbEntity
8
1
62
256
6
ByLayer
370
-1
48
1
60
0
100
AcDbEllipse
10
56.712196
20
-1.736964
30
0
11
2.19031606939965
21
0
31
0
210
0
220
0
230
1
40
0.998135
41
-3.08923277510135
42
-2.71005519262055
0
ELLIPSE
5
139
100
AcDbEntity
8
1
62
256
6
ByLayer
370
-1
48
1
60
0
100
AcDbEllipse
10
51.878496
20
-2.122269
30
0
11
1.25
21
0
31
0
210
0
220
0
230
1
40
0.998135
41
1.31249859227146
42
2.94269080533633
0
ELLIPSE
5
13A
100
AcDbEntity
8
1
62
256
6
ByLayer
370
-1
48
1
60
0
100
AcDbEllipse
10
53.840089
20
0.309511
30
0
11
0.500000000000144
21
0
31
0
210
0
220
0
230
1
40
0.998135
41
0.349065850399462
42
1.17296329069382
0
ELLIPSE
5
13B
100
AcDbEntity
8
1
62
256
6
ByLayer
370
-1
48
1
60
0
100
AcDbEllipse
10
54.149732
20
8.294151
30
0
11
-5.35934686386747E-16
21
-0.500000000000006
31
0
210
0
220
0
230
1
40
0.996195
41
1.86750229963392
42
2.91469985083052
0
ELLIPSE
5
13C
100
AcDbEntity
8
1
62
256
6
ByLayer
370
-1
48
1
60
0
100
AcDbEllipse
10
54.517353
20
3.249025
30
0
11
2.81416266174359E-16
21
0.240228318114594
31
0
210
0
220
0
230
1
40
0.996195
41
-1.79768912955413
42
-1.57079632679487
0
ELLIPSE
5
13D
100
AcDbEntity
8
1
62
256
6
ByLayer
370
-1
48
1
60
0
100
AcDbEllipse
10
49.297748
20
12.624533
30
0
11
-1.07186937277344E-14
21
-9.99999999999964
31
0
210
0
220
0
230
1
40
0.996195
41
0
42
0.0160059630348816
0
ELLIPSE
5
13E
100
AcDbEntity
8
1
62
256
6
ByLayer
370
-1
48
1
60
0
100
AcDbEllipse
10
51.772193
20
5.706779
30
0
11
-1.77841723412775E-15
21
-1.65917347701247
31
0
210
0
220
0
230
1
40
0.996195
41
2.21551000470675
42
0
0
ELLIPSE
5
13F
100
AcDbEntity
8
1
62
256
6
ByLayer
370
-1
48
1
60
0
100
AcDbEllipse
10
51.772193
20
5.706779
30
0
11
-1.77841723412775E-15
21
-1.65917347701247
31
0
210
0
220
0
230
1
40
0.996195
41
0
42
0.926082326066335
0
ELLIPSE
5
140
100
AcDbEntity
8
1
62
256
6
ByLayer
370
-1
48
1
60
0
100
AcDbEllipse
10
53.75662
20
12.781521
30
0
11
-1.07186937277348E-14
21
-9.99999999999999
31
0
210
0
220
0
230
1
40
0.996195
41
0.034906585039889
42
0.0440072139580882
0
ELLIPSE
5
141
100
AcDbEntity
8
1
62
256
6
ByLayer
370
-1
48
1
60
0
100
AcDbEllipse
10
58.791584
20
3.73757
30
0
11
-1.07186937277344E-14
21
-9.99999999999964
31
0
210
0
220
0
230
1
40
0.996195
41
-1.51698911975
42
-1.50098315671511
0
ELLIPSE
5
142
100
AcDbEntity
8
1
62
256
6
ByLayer
370
-1
48
1
60
0
100
AcDbEllipse
10
49.67448
20
7.944894
30
0
11
-5.35934686386771E-15
21
-5.00000000000028
31
0
210
0
220
0
230
1
40
0.996195
41
1.614803540753
42
1.62460353383979
0
ELLIPSE
5
143
100
AcDbEntity
8
1
62
256
6
ByLayer
370
-1
48
1
60
0
100
AcDbEllipse
10
54.194551
20
8.489025
30
0
11
-3.21560811832048E-16
21
-0.300000000000003
31
0
210
0
220
0
230
1
40
0.996195
41
2.91469985083058
42
3.14159265358979
0
ELLIPSE
5
144
100
AcDbEntity
8
1
62
256
6
ByLayer
370
-1
48
1
60
0
100
AcDbEllipse
10
54.194095
20
-1.210975
30
0
11
1.16445136866418E-14
21
9.94022831811422
31
0
210
0
220
0
230
1
40
0.996195
41
0
42
0.0160059630348813
0
ELLIPSE
5
145
100
AcDbEntity
8
1
62
256
6
ByLayer
370
-1
48
1
60
0
100
AcDbEllipse
10
49.152034
20
3.060932
30
0
11
-3.21560811832048E-16
21
-0.300000000000003
31
0
210
0
220
0
230
1
40
0.996195
41
-1.50098315671514
42
-1.27409035395589
0
ELLIPSE
5
146
100
AcDbEntity
8
1
62
256
6
ByLayer
370
-1
48
1
60
0
100
AcDbEllipse
10
49.516096
20
3.627196
30
0
11
5.78724697506073E-15
21
4.94022831811449
31
0
210
0
220
0
230
1
40
0.996195
41
0.0440072139581067
42
0.0538072070448969
0
ELLIPSE
5
147
100
AcDbEntity
8
1
62
256
6
ByLayer
370
-1
48
1
60
0
100
AcDbEllipse
10
54.339809
20
8.352626
30
0
11
2.81416266174359E-16
21
0.240228318114594
31
0
210
0
220
0
230
1
40
0.996195
41
-1.50098315671515
42
-1.27409035395589
0
ELLIPSE
5
148
100
AcDbEntity
8
1
62
256
6
ByLayer
370
-1
48
1
60
0
100
AcDbEllipse
10
54.194551
20
-1.210975
30
0
11
-1.07186937277344E-14
21
-9.99999999999964
31
0
210
0
220
0
230
1
40
0.996195
41
3.14159265358979
42
-3.12558669055491
0
ELLIPSE
5
149
100
AcDbEntity
8
1
62
256
6
ByLayer
370
-1
48
1
60
0
100
AcDbEllipse
10
54.381928
20
3.102754
30
0
11
-3.21560811832048E-16
21
-0.300000000000003
31
0
210
0
220
0
230
1
40
0.996195
41
0.0698131700797314
42
0.296705972839028
0
ELLIPSE
5
14A
100
AcDbEntity
8
1
62
256
6
ByLayer
370
-1
48
1
60
0
100
AcDbEllipse
10
54.340265
20
8.352626
30
0
11
-3.21560811832048E-16
21
-0.300000000000003
31
0
210
0
220
0
230
1
40
0.996195
41
1.64060949687467
42
1.86750229963393
0
ELLIPSE
5
14B
100
AcDbEntity
8
1
62
256
6
ByLayer
370
-1
48
1
60
0
100
AcDbEllipse
10
44.85574
20
3.200036
30
0
11
-1.07186937277348E-14
21
-9.99999999999999
31
0
210
0
220
0
230
1
40
0.996195
41
1.59660228291658
42
1.60570291183479
0
ELLIPSE
5
14C
100
AcDbEntity
8
1
62
256
6
ByLayer
370
-1
48
1
60
0
100
AcDbEllipse
10
51.728718
20
5.706779
30
0
11
1.98450509329016E-15
21
1.69405389152441
31
0
210
0
220
0
230
1
40
0.996195
41
0
42
6.28318530717959
0
ELLIPSE
5
14D
100
AcDbEntity
8
1
62
256
6
ByLayer
370
-1
48
1
60
0
100
AcDbEllipse
10
49.342112
20
3.119407
30
0
11
5.15706934637614E-16
21
0.440228318114594
31
0
210
0
220
0
230
1
40
0.996195
41
1.86750229963392
42
2.9146998508305
0
ELLIPSE
5
14E
100
AcDbEntity
8
1
62
256
6
ByLayer
370
-1
48
1
60
0
100
AcDbEllipse
10
53.975292
20
7.786362
30
0
11
5.78724697506073E-15
21
4.94022831811449
31
0
210
0
220
0
230
1
40
0.996195
41
-3.09758543963169
42
-3.0877854465449
0
ELLIPSE
5
14F
100
AcDbEntity
8
1
62
256
6
ByLayer
370
-1
48
1
60
0
100
AcDbEllipse
10
49.110371
20
8.310804
30
0
11
-3.21560811832048E-16
21
-0.300000000000003
31
0
210
0
220
0
230
1
40
0.996195
41
-3.07177948351006
42
-2.84488668075076
0
ELLIPSE
5
150
100
AcDbEntity
8
1
62
256
6
ByLayer
370
-1
48
1
60
0
100
AcDbEllipse
10
58.636103
20
8.213522
30
0
11
1.16445136866421E-14
21
9.9402283181145
31
0
210
0
220
0
230
1
40
0.996195
41
1.59660228291659
42
1.6020637394685
0
ELLIPSE
5
151
100
AcDbEntity
8
1
62
256
6
ByLayer
370
-1
48
1
60
0
100
AcDbEllipse
10
51.955323
20
5.706779
30
0
11
1.46431667789534E-15
21
1.25
31
0
210
0
220
0
230
1
40
0.996195
41
0.0349500371117731
42
1.57079634872777
0
ELLIPSE
5
152
100
AcDbEntity
8
1
62
256
6
ByLayer
370
-1
48
1
60
0
100
AcDbEllipse
10
51.955323
20
5.706779
30
0
11
1.46431667789534E-15
21
1.25
31
0
210
0
220
0
230
1
40
0.996195
41
1.57079634872776
42
3.1168526777092
0
ELLIPSE
5
153
100
AcDbEntity
8
1
62
256
6
ByLayer
370
-1
48
1
60
0
100
AcDbEllipse
10
53.707865
20
12.779126
30
0
11
-1.07186937277344E-14
21
-9.99999999999964
31
0
210
0
220
0
230
1
40
0.996195
41
0.0538072070448962
42
0.0698131700797857
0
ELLIPSE
5
154
100
AcDbEntity
8
1
62
256
6
ByLayer
370
-1
48
1
60
0
100
AcDbEllipse
10
58.791128
20
3.73757
30
0
11
1.16445136866418E-14
21
9.94022831811422
31
0
210
0
220
0
230
1
40
0.996195
41
1.62460353383979
42
1.64060949687468
0
ELLIPSE
5
155
100
AcDbEntity
8
1
62
256
6
ByLayer
370
-1
48
1
60
0
100
AcDbEllipse
10
58.79397
20
3.688629
30
0
11
-1.07186937277348E-14
21
-9.99999999999999
31
0
210
0
220
0
230
1
40
0.996195
41
-1.53588974175501
42
-1.52678911283681
0
ELLIPSE
5
156
100
AcDbEntity
8
1
62
256
6
ByLayer
370
-1
48
1
60
0
100
AcDbEllipse
10
49.151578
20
3.060932
30
0
11
2.81416266174359E-16
21
0.240228318114594
31
0
210
0
220
0
230
1
40
0.996195
41
1.64060949687465
42
1.8675022996339
0
ELLIPSE
5
157
100
AcDbEntity
8
1
62
256
6
ByLayer
370
-1
48
1
60
0
100
AcDbEllipse
10
58.636559
20
8.213522
30
0
11
-1.07186937277348E-14
21
-9.99999999999999
31
0
210
0
220
0
230
1
40
0.996195
41
-1.54499037067321
42
-1.53588974175501
0
ELLIPSE
5
158
100
AcDbEntity
8
1
62
256
6
ByLayer
370
-1
48
1
60
0
100
AcDbEllipse
10
49.109916
20
8.310804
30
0
11
2.81416266174359E-16
21
0.240228318114594
31
0
210
0
220
0
230
1
40
0.996195
41
0.0698131700797864
42
0.296705972838983
0
ELLIPSE
5
159
100
AcDbEntity
8
1
62
256
6
ByLayer
370
-1
48
1
60
0
100
AcDbEllipse
10
49.783979
20
-1.365568
30
0
11
1.16445136866418E-14
21
9.94022831811422
31
0
210
0
220
0
230
1
40
0.996195
41
0.0538072070448964
42
0.0698131700797852
0
ELLIPSE
5
15A
100
AcDbEntity
8
1
62
256
6
ByLayer
370
-1
48
1
60
0
100
AcDbEllipse
10
49.735679
20
-1.367963
30
0
11
-1.07186937277348E-14
21
-9.99999999999999
31
0
210
0
220
0
230
1
40
0.996195
41
-3.1066860685499
42
-3.0975854396317
0
ELLIPSE
5
15B
100
AcDbEntity
8
1
62
256
6
ByLayer
370
-1
48
1
60
0
100
AcDbEllipse
10
44.70026
20
7.675988
30
0
11
1.16445136866418E-14
21
9.94022831811422
31
0
210
0
220
0
230
1
40
0.996195
41
-1.51698911975
42
-1.50098315671511
0
ELLIPSE
5
15C
100
AcDbEntity
8
1
62
256
6
ByLayer
370
-1
48
1
60
0
100
AcDbEllipse
10
54.243354
20
-1.20995
30
0
11
-1.07186937277348E-14
21
-9.99999999999999
31
0
210
0
220
0
230
1
40
0.996195
41
-3.11578669746811
42
-3.1066860685499
0
ELLIPSE
5
15D
100
AcDbEntity
8
1
62
256
6
ByLayer
370
-1
48
1
60
0
100
AcDbEllipse
10
44.855285
20
3.200036
30
0
11
1.16445136866421E-14
21
9.9402283181145
31
0
210
0
220
0
230
1
40
0.996195
41
-1.54499037067321
42
-1.5395289141213
0
ELLIPSE
5
15E
100
AcDbEntity
8
1
62
256
6
ByLayer
370
-1
48
1
60
0
100
AcDbEllipse
10
58.637579
20
8.164533
30
0
11
-1.07186937277344E-14
21
-9.99999999999964
31
0
210
0
220
0
230
1
40
0.996195
41
-1.5707963267949
42
-1.55479036376001
0
ELLIPSE
5
15F
100
AcDbEntity
8
1
62
256
6
ByLayer
370
-1
48
1
60
0
100
AcDbEllipse
10
44.700715
20
7.675988
30
0
11
-1.07186937277344E-14
21
-9.99999999999964
31
0
210
0
220
0
230
1
40
0.996195
41
1.62460353383979
42
1.64060949687468
0
ELLIPSE
5
160
100
AcDbEntity
8
1
62
256
6
ByLayer
370
-1
48
1
60
0
100
AcDbEllipse
10
54.517809
20
3.249025
30
0
11
-3.21560811832048E-16
21
-0.300000000000003
31
0
210
0
220
0
230
1
40
0.996195
41
1.34390352403565
42
1.57079632679492
0
ELLIPSE
5
161
100
AcDbEntity
8
1
62
256
6
ByLayer
370
-1
48
1
60
0
100
AcDbEllipse
10
49.674024
20
7.944894
30
0
11
5.78724697506073E-15
21
4.94022831811449
31
0
210
0
220
0
230
1
40
0.996195
41
-1.52678911283679
42
-1.51698911975
0
ELLIPSE
5
162
100
AcDbEntity
8
1
62
256
6
ByLayer
370
-1
48
1
60
0
100
AcDbEllipse
10
58.793515
20
3.688629
30
0
11
1.16445136866421E-14
21
9.9402283181145
31
0
210
0
220
0
230
1
40
0.996195
41
1.60934209589405
42
1.61480354075299
0
ELLIPSE
5
163
100
AcDbEntity
8
1
62
256
6
ByLayer
370
-1
48
1
60
0
100
AcDbEllipse
10
49.297748
20
2.924533
30
0
11
-3.21560811832048E-16
21
-0.300000000000003
31
0
210
0
220
0
230
1
40
0.996195
41
-0.226892802759267
42
0
0
ELLIPSE
5
164
100
AcDbEntity
8
1
62
256
6
ByLayer
370
-1
48
1
60
0
100
AcDbEllipse
10
54.149276
20
8.294151
30
0
11
5.15706934637614E-16
21
0.440228318114594
31
0
210
0
220
0
230
1
40
0.996195
41
-1.27409035395587
42
-0.22689280275929
0
ELLIPSE
5
165
100
AcDbEntity
8
1
62
256
6
ByLayer
370
-1
48
1
60
0
100
AcDbEllipse
10
53.975748
20
7.786362
30
0
11
-5.35934686386771E-15
21
-5.00000000000028
31
0
210
0
220
0
230
1
40
0.996195
41
0.0440072139581059
42
0.0538072070448984
0
ELLIPSE
5
166
100
AcDbEntity
8
1
62
256
6
ByLayer
370
-1
48
1
60
0
100
AcDbEllipse
10
48.974035
20
8.164533
30
0
11
2.81416266174359E-16
21
0.240228318114594
31
0
210
0
220
0
230
1
40
0.996195
41
1.34390352403567
42
1.5707963267949
0
ELLIPSE
5
167
100
AcDbEntity
8
1
62
256
6
ByLayer
370
-1
48
1
60
0
100
AcDbEllipse
10
53.817363
20
3.468664
30
0
11
5.78724697506073E-15
21
4.94022831811449
31
0
210
0
220
0
230
1
40
0.996195
41
1.614803540753
42
1.62460353383979
0
ELLIPSE
5
168
100
AcDbEntity
8
1
62
256
6
ByLayer
370
-1
48
1
60
0
100
AcDbEllipse
10
49.8346
20
3.329052
30
0
11
5.78724697506073E-15
21
4.94022831811449
31
0
210
0
220
0
230
1
40
0.996195
41
-1.55479036376002
42
-1.54499037067323
0
ELLIPSE
5
169
100
AcDbEntity
8
1
62
256
6
ByLayer
370
-1
48
1
60
0
100
AcDbEllipse
10
49.784434
20
-1.365568
30
0
11
-1.07186937277344E-14
21
-9.99999999999964
31
0
210
0
220
0
230
1
40
0.996195
41
-3.0877854465449
42
-3.07177948351001
0
ELLIPSE
5
16A
100
AcDbEntity
8
1
62
256
6
ByLayer
370
-1
48
1
60
0
100
AcDbEllipse
10
49.342567
20
3.119407
30
0
11
-5.35934686386747E-16
21
-0.500000000000006
31
0
210
0
220
0
230
1
40
0.996195
41
-1.27409035395588
42
-0.226892802759273
0
ELLIPSE
5
16B
100
AcDbEntity
8
1
62
256
6
ByLayer
370
-1
48
1
60
0
100
AcDbEllipse
10
54.323676
20
3.294015
30
0
11
-5.35934686386747E-16
21
-0.500000000000006
31
0
210
0
220
0
230
1
40
0.996195
41
0.296705972839027
42
1.34390352403561
0
ELLIPSE
5
16C
100
AcDbEntity
8
1
62
256
6
ByLayer
370
-1
48
1
60
0
100
AcDbEllipse
10
49.377014
20
7.625173
30
0
11
5.78724697506073E-15
21
4.94022831811449
31
0
210
0
220
0
230
1
40
0.996195
41
-3.12558669055491
42
-3.11578669746812
0
ELLIPSE
5
16D
100
AcDbEntity
8
1
62
256
6
ByLayer
370
-1
48
1
60
0
100
AcDbEllipse
10
53.817819
20
3.468664
30
0
11
-5.35934686386771E-15
21
-5.00000000000028
31
0
210
0
220
0
230
1
40
0.996195
41
-1.52678911283679
42
-1.51698911975
0
ELLIPSE
5
16E
100
AcDbEntity
8
1
62
256
6
ByLayer
370
-1
48
1
60
0
100
AcDbEllipse
10
49.168167
20
8.119543
30
0
11
5.15706934637614E-16
21
0.440228318114594
31
0
210
0
220
0
230
1
40
0.996195
41
0.296705972839016
42
1.3439035240356
0
ELLIPSE
5
16F
100
AcDbEntity
8
1
62
256
6
ByLayer
370
-1
48
1
60
0
100
AcDbEllipse
10
49.248946
20
12.623508
30
0
11
-1.07186937277348E-14
21
-9.99999999999999
31
0
210
0
220
0
230
1
40
0.996195
41
0.0258059561216895
42
0.0349065850398897
0
ELLIPSE
5
170
100
AcDbEntity
8
1
62
256
6
ByLayer
370
-1
48
1
60
0
100
AcDbEllipse
10
58.637123
20
8.164533
30
0
11
1.16445136866418E-14
21
9.94022831811422
31
0
210
0
220
0
230
1
40
0.996195
41
1.57079632679489
42
1.58680228982978
0
ELLIPSE
5
171
100
AcDbEntity
8
1
62
256
6
ByLayer
370
-1
48
1
60
0
100
AcDbEllipse
10
44.697873
20
7.724929
30
0
11
1.16445136866421E-14
21
9.9402283181145
31
0
210
0
220
0
230
1
40
0.996195
41
-1.53225055769574
42
-1.52678911283681
0
ELLIPSE
5
172
100
AcDbEntity
8
1
62
256
6
ByLayer
370
-1
48
1
60
0
100
AcDbEllipse
10
48.974491
20
8.164533
30
0
11
-3.21560811832048E-16
21
-0.300000000000003
31
0
210
0
220
0
230
1
40
0.996195
41
-1.79768912955414
42
-1.57079632679487
0
ELLIPSE
5
173
100
AcDbEntity
8
1
62
256
6
ByLayer
370
-1
48
1
60
0
100
AcDbEllipse
10
53.707409
20
12.779126
30
0
11
1.16445136866418E-14
21
9.94022831811422
31
0
210
0
220
0
230
1
40
0.996195
41
-3.0877854465449
42
-3.07177948351001
0
ELLIPSE
5
174
100
AcDbEntity
8
1
62
256
6
ByLayer
370
-1
48
1
60
0
100
AcDbEllipse
10
54.242898
20
-1.20995
30
0
11
1.16445136866421E-14
21
9.9402283181145
31
0
210
0
220
0
230
1
40
0.996195
41
0.0258059561216883
42
0.0312674126736006
0
ELLIPSE
5
175
100
AcDbEntity
8
1
62
256
6
ByLayer
370
-1
48
1
60
0
100
AcDbEllipse
10
54.114373
20
3.788385
30
0
11
5.78724697506073E-15
21
4.94022831811449
31
0
210
0
220
0
230
1
40
0.996195
41
0.0160059630348799
42
0.0258059561216699
0
ELLIPSE
5
176
100
AcDbEntity
8
1
62
256
6
ByLayer
370
-1
48
1
60
0
100
AcDbEllipse
10
54.114829
20
3.788385
30
0
11
-5.35934686386771E-15
21
-5.00000000000028
31
0
210
0
220
0
230
1
40
0.996195
41
-3.12558669055491
42
-3.11578669746812
0
ELLIPSE
5
177
100
AcDbEntity
8
1
62
256
6
ByLayer
370
-1
48
1
60
0
100
AcDbEllipse
10
49.168623
20
8.119543
30
0
11
-5.35934686386747E-16
21
-0.500000000000006
31
0
210
0
220
0
230
1
40
0.996195
41
-2.84488668075076
42
-1.79768912955418
0
ELLIPSE
5
178
100
AcDbEntity
8
1
62
256
6
ByLayer
370
-1
48
1
60
0
100
AcDbEllipse
10
54.32322
20
3.294015
30
0
11
5.15706934637614E-16
21
0.440228318114594
31
0
210
0
220
0
230
1
40
0.996195
41
-2.84488668075076
42
-1.79768912955418
0
ELLIPSE
5
179
100
AcDbEntity
8
1
62
256
6
ByLayer
370
-1
48
1
60
0
100
AcDbEllipse
10
51.893871
20
5.706779
30
0
11
-1.33983671596685E-15
21
-1.25
31
0
210
0
220
0
230
1
40
0.996195
41
3.14159240058227
42
0
0
ELLIPSE
5
17A
100
AcDbEntity
8
1
62
256
6
ByLayer
370
-1
48
1
60
0
100
AcDbEllipse
10
51.893871
20
5.706779
30
0
11
-1.33983671596685E-15
21
-1.25
31
0
210
0
220
0
230
1
40
0.996195
41
0
42
0.034950543124458
0
ELLIPSE
5
17B
100
AcDbEntity
8
1
62
256
6
ByLayer
370
-1
48
1
60
0
100
AcDbEllipse
10
49.24849
20
12.623508
30
0
11
1.16445136866421E-14
21
9.9402283181145
31
0
210
0
220
0
230
1
40
0.996195
41
-3.11578669746811
42
-3.11032524091619
0
ELLIPSE
5
17C
100
AcDbEntity
8
1
62
256
6
ByLayer
370
-1
48
1
60
0
100
AcDbEllipse
10
44.85472
20
3.249025
30
0
11
-1.07186937277344E-14
21
-9.99999999999964
31
0
210
0
220
0
230
1
40
0.996195
41
1.57079632679489
42
1.58680228982978
0
ELLIPSE
5
17D
100
AcDbEntity
8
1
62
256
6
ByLayer
370
-1
48
1
60
0
100
AcDbEllipse
10
49.297292
20
12.624533
30
0
11
1.16445136866418E-14
21
9.94022831811422
31
0
210
0
220
0
230
1
40
0.996195
41
3.14159265358979
42
-3.12558669055491
0
ELLIPSE
5
17E
100
AcDbEntity
8
1
62
256
6
ByLayer
370
-1
48
1
60
0
100
AcDbEllipse
10
53.756164
20
12.781521
30
0
11
1.16445136866421E-14
21
9.9402283181145
31
0
210
0
220
0
230
1
40
0.996195
41
-3.10304688449064
42
-3.0975854396317
0
ELLIPSE
5
17F
100
AcDbEntity
8
1
62
256
6
ByLayer
370
-1
48
1
60
0
100
AcDbEllipse
10
49.516551
20
3.627196
30
0
11
-5.35934686386771E-15
21
-5.00000000000028
31
0
210
0
220
0
230
1
40
0.996195
41
-3.09758543963168
42
-3.08778544654489
0
ELLIPSE
5
180
100
AcDbEntity
8
1
62
256
6
ByLayer
370
-1
48
1
60
0
100
AcDbEllipse
10
49.735224
20
-1.367963
30
0
11
1.16445136866421E-14
21
9.9402283181145
31
0
210
0
220
0
230
1
40
0.996195
41
0.0385457690991531
42
0.0440072139580895
0
ELLIPSE
5
181
100
AcDbEntity
8
1
62
256
6
ByLayer
370
-1
48
1
60
0
100
AcDbEllipse
10
51.792249
20
5.706779
30
0
11
-1.69826236850985E-15
21
-1.58439303486727
31
0
210
0
220
0
230
1
40
0.996195
41
0
42
6.28318530717959
0
ELLIPSE
5
182
100
AcDbEntity
8
1
62
256
6
ByLayer
370
-1
48
1
60
0
100
AcDbEllipse
10
53.656788
20
8.084507
30
0
11
5.78724697506073E-15
21
4.94022831811449
31
0
210
0
220
0
230
1
40
0.996195
41
1.58680228982978
42
1.59660228291657
0
ELLIPSE
5
183
100
AcDbEntity
8
1
62
256
6
ByLayer
370
-1
48
1
60
0
100
AcDbEllipse
10
49.37747
20
7.625173
30
0
11
-5.35934686386771E-15
21
-5.00000000000028
31
0
210
0
220
0
230
1
40
0.996195
41
0.0160059630348808
42
0.0258059561216721
0
ELLIPSE
5
184
100
AcDbEntity
8
1
62
256
6
ByLayer
370
-1
48
1
60
0
100
AcDbEllipse
10
53.657244
20
8.084507
30
0
11
-5.35934686386771E-15
21
-5.00000000000028
31
0
210
0
220
0
230
1
40
0.996195
41
-1.55479036376002
42
-1.54499037067323
0
ELLIPSE
5
185
100
AcDbEntity
8
1
62
256
6
ByLayer
370
-1
48
1
60
0
100
AcDbEllipse
10
54.194095
20
8.489025
30
0
11
2.81416266174359E-16
21
0.240228318114594
31
0
210
0
220
0
230
1
40
0.996195
41
-0.226892802759243
42
2.96907826277762E-14
0
ELLIPSE
5
186
100
AcDbEntity
8
1
62
256
6
ByLayer
370
-1
48
1
60
0
100
AcDbEllipse
10
44.698329
20
7.724929
30
0
11
-1.07186937277348E-14
21
-9.99999999999999
31
0
210
0
220
0
230
1
40
0.996195
41
1.60570291183479
42
1.61480354075299
0
ELLIPSE
5
187
100
AcDbEntity
8
1
62
256
6
ByLayer
370
-1
48
1
60
0
100
AcDbEllipse
10
49.297292
20
2.924533
30
0
11
2.81416266174359E-16
21
0.240228318114594
31
0
210
0
220
0
230
1
40
0.996195
41
2.91469985083053
42
3.14159265358979
0
ELLIPSE
5
188
100
AcDbEntity
8
1
62
256
6
ByLayer
370
-1
48
1
60
0
100
AcDbEllipse
10
44.854264
20
3.249025
30
0
11
1.16445136866418E-14
21
9.94022831811422
31
0
210
0
220
0
230
1
40
0.996195
41
-1.5707963267949
42
-1.55479036376001
0
ELLIPSE
5
189
100
AcDbEntity
8
1
62
256
6
ByLayer
370
-1
48
1
60
0
100
AcDbEllipse
10
54.381472
20
3.102754
30
0
11
2.81416266174359E-16
21
0.240228318114594
31
0
210
0
220
0
230
1
40
0.996195
41
-3.07177948351001
42
-2.84488668075078
0
ELLIPSE
5
18A
100
AcDbEntity
8
1
62
256
6
ByLayer
370
-1
48
1
60
0
100
AcDbEllipse
10
49.835056
20
3.329052
30
0
11
-5.35934686386771E-15
21
-5.00000000000028
31
0
210
0
220
0
230
1
40
0.996195
41
1.58680228982978
42
1.59660228291657
0
POINT
5
41
100
AcDbEntity
8
81
62
256
6
ByLayer
370
-1
48
1
60
0
100
AcDbPoint
10
55
20
0
30
0
39
0
210
0
220
0
230
1
50
360
0
POINT
5
43
100
AcDbEntity
8
80
62
256
6
ByLayer
370
-1
48
1
60
0
100
AcDbPoint
10
0
20
0
30
0
39
0
210
0
220
0
230
1
50
360
0
SPLINE
5
18B
100
AcDbEntity
8
1
62
256
6
ByLayer
370
-1
48
1
60
0
100
AcDbSpline
70
4
71
3
72
18
73
14
40
0
40
0
40
0
40
0
40
0.104288411812724
40
0.211035804596856
40
0.318437630913727
40
0.424622672994232
40
0.529078054822655
40
0.660590094770547
40
0.784522464376769
40
0.841276820983883
40
0.894505270586199
40
0.946061956594821
40
1
40
1
40
1
40
1
41
1
10
16
20
8.44999999999996
30
0
41
1
10
15.5077867168331
20
8.45074505529905
30
0
41
1
10
14.5306937613682
20
8.53983016823423
30
0
41
1
10
13.0906678880694
20
8.94703443669124
30
0
41
1
10
11.7485103781152
20
9.61880100628017
30
0
41
1
10
10.5593658239939
20
10.5202545990115
30
0
41
1
10
9.49147949394481
20
11.7148204221627
30
0
41
1
10
8.5478963998591
20
13.1027907310032
30
0
41
1
10
7.73921728676316
20
14.3155197280807
30
0
41
1
10
7.01204195959789
20
15.1322069191917
30
0
41
1
10
6.42522991935138
20
15.6104181656888
30
0
41
1
10
5.74383287633106
20
15.9312775897306
30
0
41
1
10
5.25930645608278
20
15.9992887537436
30
0
41
1
10
5.00000000000003
20
16
30
0
0
SPLINE
5
18C
100
AcDbEntity
8
1
62
256
6
ByLayer
370
-1
48
1
60
0
100
AcDbSpline
70
4
71
3
72
16
73
12
40
0
40
0
40
0
40
0
40
0.0729798130809284
40
0.142737577182918
40
0.214757288268539
40
0.291547658760878
40
0.459231923846218
40
0.637171713415361
40
0.778503021706818
40
0.922174612921448
40
1
40
1
40
1
40
1
41
1
10
4.99999999999997
20
-16
30
0
41
1
10
5.25930645608273
20
-15.9992887537436
30
0
41
1
10
5.74383315923808
20
-15.9312782620499
30
0
41
1
10
6.42522896289103
20
-15.6104158926927
30
0
41
1
10
7.01204574946635
20
-15.1322159256886
30
0
41
1
10
7.7391944774038
20
-14.3154655223944
30
0
41
1
10
8.54810376657628
20
-13.1032835311322
30
0
41
1
10
9.49074443832308
20
-11.7130735868457
30
0
41
1
10
10.5614968700232
20
-10.5253189592532
30
0
41
1
10
11.5554221308198
20
-9.74455006840191
30
0
41
1
10
12.2381606899487
20
-9.40651796824008
30
0
41
1
10
12.4873031675687
20
-9.30158551097361
30
0
0
SPLINE
5
18D
100
AcDbEntity
8
1
62
256
6
ByLayer
370
-1
48
1
60
0
100
AcDbSpline
70
4
71
3
72
20
73
16
40
0
40
0
40
0
40
0
40
0.0347374990023722
40
0.120502631827167
40
0.206067200958296
40
0.291145710003031
40
0.37562889856495
40
0.459578796341619
40
0.543191442056218
40
0.626736727364843
40
0.710411131649109
40
0.794456105681964
40
0.879037736605663
40
0.964188749141069
40
1
40
1
40
1
40
1
41
1
10
51.8648913402319
20
6.94583548345594
30
0
41
1
10
51.9094078417647
20
6.95142541590994
30
0
41
1
10
52.0625093486995
20
6.96000185113923
30
0
41
1
10
52.3231119356793
20
6.892428284126
30
0
41
1
10
52.6169702007445
20
6.73980366005995
30
0
41
1
10
52.8602010525923
20
6.51037927771514
30
0
41
1
10
53.0350844911733
20
6.22589696214041
30
0
41
1
10
53.1297417886885
20
5.90541853347031
30
0
41
1
10
53.1380762373661
20
5.5719128089265
30
0
41
1
10
53.0600768923603
20
5.24846797865237
30
0
41
1
10
52.9016168780722
20
4.9572371105622
30
0
41
1
10
52.6736648032615
20
4.71788881484124
30
0
41
1
10
52.3919736133221
20
4.54662750490971
30
0
41
1
10
52.1359367613202
20
4.47310503695215
30
0
41
1
10
51.9826743875124
20
4.45916034920626
30
0
41
1
10
51.9367441515957
20
4.45753027617087
30
0
0
SPLINE
5
18E
100
AcDbEntity
8
1
62
256
6
ByLayer
370
-1
48
1
60
0
100
AcDbSpline
70
4
71
3
72
13
73
9
40
0
40
0
40
0
40
0
40
0.0864639382783271
40
0.297446556447653
40
0.507839471175439
40
0.717505858778774
40
0.926513895375506
40
1
40
1
40
1
40
1
41
1
10
50.665464786147
20
-1.8492066816747
30
0
41
1
10
50.6774987696292
20
-1.80541149283064
30
0
41
1
10
50.7286817175387
20
-1.65672380638034
30
0
41
1
10
50.8535146295452
20
-1.42087406135488
30
0
41
1
10
51.0858462577502
20
-1.17881807166438
30
0
41
1
10
51.3722368535961
20
-1.00602270509418
30
0
41
1
10
51.6257731301846
20
-0.934018495797517
30
0
41
1
10
51.7738993528019
20
-0.919414922563675
30
0
41
1
10
51.8128614820956
20
-0.917359682163408
30
0
0
SPLINE
5
18F
100
AcDbEntity
8
1
62
256
6
ByLayer
370
-1
48
1
60
0
100
AcDbSpline
70
4
71
3
72
10
73
6
40
0
40
0
40
0
40
0
40
0.177508561998312
40
0.734232776727753
40
1
40
1
40
1
40
1
41
1
10
51.8128614820956
20
-0.917359682163408
30
0
41
1
10
51.8479895995645
20
-0.915533540231536
30
0
41
1
10
51.992527255013
20
-0.913980812888411
30
0
41
1
10
52.1899729515578
20
-0.946342749688171
30
0
41
1
10
52.3424624490833
20
-1.003291825095
30
0
41
1
10
52.3903514731783
20
-1.02467928298358
30
0
0
SPLINE
5
190
100
AcDbEntity
8
1
62
256
6
ByLayer
370
-1
48
1
60
0
100
AcDbSpline
70
4
71
3
72
10
73
6
40
0
40
0
40
0
40
0
40
0.5
40
0.5
40
1
40
1
40
1
40
1
41
1
10
10.1212490480252
20
0.883209019389568
30
0
41
1
10
10.2854931083567
20
0.917817180437112
30
0
41
1
10
10.4577385265601
20
0.936121832484531
30
0
41
1
10
10.818766137874
20
0.941761205311508
30
0
41
1
10
11.0075527929041
20
0.929100782652966
30
0
41
1
10
11.2049704893549
20
0.900336151087515
30
0
0
SPLINE
5
191
100
AcDbEntity
8
1
62
256
6
ByLayer
370
-1
48
1
60
0
100
AcDbSpline
70
4
71
3
72
8
73
4
40
0
40
0
40
0
40
0
40
1
40
1
40
1
40
1
41
1
10
43.0400704143911
20
8.37277902538779
30
0
41
1
10
43.3718142863468
20
8.38493958441455
30
0
41
1
10
43.6849250566941
20
8.40135112019513
30
0
41
1
10
43.9802155518527
20
8.41640003674831
30
0
0
SPLINE
5
192
100
AcDbEntity
8
1
62
256
6
ByLayer
370
-1
48
1
60
0
100
AcDbSpline
70
4
71
3
72
10
73
6
40
0
40
0
40
0
40
0
40
0.5
40
0.5
40
1
40
1
40
1
40
1
41
1
10
48.5835329093475
20
5.66189681014865
30
0
41
1
10
48.5869476318988
20
5.66189681014865
30
0
41
1
10
48.5939151112343
20
5.66621830830053
30
0
41
1
10
48.6143151879933
20
5.68215015476827
30
0
41
1
10
48.6278088050599
20
5.69380931357011
30
0
41
1
10
48.6438533828897
20
5.70780285119346
30
0
0
SPLINE
5
193
100
AcDbEntity
8
1
62
256
6
ByLayer
370
-1
48
1
60
0
100
AcDbSpline
70
4
71
3
72
32
73
28
40
0
40
0
40
0
40
0
40
0.124999999999995
40
0.124999999999995
40
0.187499999999992
40
0.187499999999992
40
0.218749999999994
40
0.218749999999994
40
0.249999999999995
40
0.249999999999995
40
0.281249999999997
40
0.281249999999997
40
0.312499999999999
40
0.312499999999999
40
0.343750000000001
40
0.343750000000001
40
0.375000000000002
40
0.375000000000002
40
0.4375
40
0.4375
40
0.499999999999998
40
0.499999999999998
40
0.625
40
0.625
40
0.750000000000002
40
0.750000000000002
40
1
40
1
40
1
40
1
41
1
10
40.6052233227203
20
5.88326284092395
30
0
41
1
10
40.717898352105
20
5.85599081421725
30
0
41
1
10
40.8291343750624
20
5.82421452363877
30
0
41
1
10
40.9900192416024
20
5.75854718230761
30
0
41
1
10
41.0431596923934
20
5.73344706189889
30
0
41
1
10
41.1172735023303
20
5.68629036234478
30
0
41
1
10
41.141122334338
20
5.66889472007657
30
0
41
1
10
41.1845903779999
20
5.6288622161851
30
0
41
1
10
41.2042899422284
20
5.60616338154222
30
0
41
1
10
41.2328013174991
20
5.55361791142622
30
0
41
1
10
41.2408916677503
20
5.5234666170372
30
0
41
1
10
41.2382503584054
20
5.46263746772669
30
0
41
1
10
41.2277927528905
20
5.43255197448954
30
0
41
1
10
41.1982247936946
20
5.37945904068243
30
0
41
1
10
41.179050901589
20
5.35538069521169
30
0
41
1
10
41.1375886354014
20
5.3115680850251
30
0
41
1
10
41.1152187018908
20
5.29173517996716
30
0
41
1
10
41.0452476826094
20
5.23584271492237
30
0
41
1
10
40.9945576274554
20
5.20320765436853
30
0
41
1
10
40.8915455907009
20
5.14373243813114
30
0
41
1
10
40.8388884589143
20
5.11682223785067
30
0
41
1
10
40.6788416489956
20
5.04113055968816
30
0
41
1
10
40.5694012874339
20
4.99732831799562
30
0
41
1
10
40.3476902069637
20
4.9164460196173
30
0
41
1
10
40.2352475982797
20
4.87949543430145
30
0
41
1
10
39.8962320353666
20
4.77574975692457
30
0
41
1
10
39.6676730339591
20
4.71580142823817
30
0
41
1
10
39.4375366109395
20
4.66154266696495
30
0
0
SPLINE
5
194
100
AcDbEntity
8
1
62
256
6
ByLayer
370
-1
48
1
60
0
100
AcDbSpline
70
4
71
3
72
16
73
12
40
0
40
0
40
0
40
0
40
0.0878761843912738
40
0.0878761843912738
40
0.391917456260849
40
0.391917456260849
40
0.695958728130425
40
0.695958728130425
40
0.847979364065212
40
0.847979364065212
40
1
40
1
40
1
40
1
41
1
10
32.5196301961486
20
6.78668621151976
30
0
41
1
10
32.8283997279705
20
6.86094129986742
30
0
41
1
10
33.13727581435
20
6.93300633761751
30
0
41
1
10
34.5145621849918
20
7.24415953631348
30
0
41
1
10
35.5801494470266
20
7.45802061459449
30
0
41
1
10
37.7103396917283
20
7.82522274084383
30
0
41
1
10
38.7752776829881
20
7.97845404298295
30
0
41
1
10
40.3728996236326
20
8.16219206098853
30
0
41
1
10
40.9054196768261
20
8.21572896802883
30
0
41
1
10
41.9717570657125
20
8.30645767222805
30
0
41
1
10
42.5056267959748
20
8.34366984401183
30
0
41
1
10
43.0400704144261
20
8.37277902538906
30
0
0
SPLINE
5
195
100
AcDbEntity
8
1
62
256
6
ByLayer
370
-1
48
1
60
0
100
AcDbSpline
70
4
71
3
72
8
73
4
40
0
40
0
40
0
40
0
40
1
40
1
40
1
40
1
41
1
10
7.46817747888255
20
-7.02980314215512
30
0
41
1
10
7.48572319929428
20
-7.05468308296739
30
0
41
1
10
7.50397955840859
20
-7.0787459854586
30
0
41
1
10
7.52296214102182
20
-7.10202489039077
30
0
0
SPLINE
5
196
100
AcDbEntity
8
1
62
256
6
ByLayer
370
-1
48
1
60
0
100
AcDbSpline
70
4
71
3
72
8
73
4
40
0
40
0
40
0
40
0
40
1
40
1
40
1
40
1
41
1
10
7.58750383760775
20
-7.17524829212172
30
0
41
1
10
7.63907864861642
20
-7.22940810243162
30
0
41
1
10
7.69532046367152
20
-7.27887024777428
30
0
41
1
10
7.75647453967846
20
-7.32415468842757
30
0
0
SPLINE
5
197
100
AcDbEntity
8
1
62
256
6
ByLayer
370
-1
48
1
60
0
100
AcDbSpline
70
4
71
4
72
10
73
5
40
0
40
0
40
0
40
0
40
0
40
1
40
1
40
1
40
1
40
1
41
1
10
43.0400704143911
20
4.92999999999992
30
0
41
1
10
43.0400704144049
20
5.79069475634719
30
0
41
1
10
43.0400704144146
20
6.65138951269449
30
0
41
1
10
43.0400704144214
20
7.51208426904176
30
0
41
1
10
43.0400704144261
20
8.37277902538906
30
0
0
SPLINE
5
198
100
AcDbEntity
8
1
62
256
6
ByLayer
370
-1
48
1
60
0
100
AcDbSpline
70
4
71
3
72
10
73
6
40
0
40
0
40
0
40
0
40
0.5
40
0.5
40
1
40
1
40
1
40
1
41
1
10
47.390679884359
20
2.43275457345149
30
0
41
1
10
47.4944741958414
20
2.40815315514729
30
0
41
1
10
47.5944382429436
20
2.38513463866661
30
0
41
1
10
47.784961679293
20
2.34051002991907
30
0
41
1
10
47.8753845519897
20
2.31893073604599
30
0
41
1
10
47.9577428718613
20
2.29736848501261
30
0
0
SPLINE
5
199
100
AcDbEntity
8
1
62
256
6
ByLayer
370
-1
48
1
60
0
100
AcDbSpline
70
4
71
3
72
14
73
10
40
0
40
0
40
0
40
0
40
0.25
40
0.25
40
0.5
40
0.5
40
0.75
40
0.75
40
1
40
1
40
1
40
1
41
1
10
50.6683665583714
20
2.68925493734051
30
0
41
1
10
50.6390501057739
20
2.66011091999772
30
0
41
1
10
50.6097580093656
20
2.63379127059511
30
0
41
1
10
50.5522948543692
20
2.58631945302358
30
0
41
1
10
50.5240836887163
20
2.56515205515859
30
0
41
1
10
50.4709059076215
20
2.52841462406323
30
0
41
1
10
50.4462841600263
20
2.51311738460603
30
0
41
1
10
50.4076849987989
20
2.4914346879747
30
0
41
1
10
50.3943270962845
20
2.48533094313126
30
0
41
1
10
50.3901493914888
20
2.48533094313126
30
0
0
SPLINE
5
19A
100
AcDbEntity
8
1
62
256
6
ByLayer
370
-1
48
1
60
0
100
AcDbSpline
70
4
71
3
72
14
73
10
40
0
40
0
40
0
40
0
40
0.25
40
0.25
40
0.5
40
0.5
40
0.75
40
0.75
40
1
40
1
40
1
40
1
41
1
10
46.2695584424375
20
1.36523622301735
30
0
41
1
10
46.1732637913709
20
1.35677161723248
30
0
41
1
10
46.0711260861291
20
1.35408096535269
30
0
41
1
10
45.8584851220405
20
1.36011538844059
30
0
41
1
10
45.7479465184882
20
1.36885252537687
30
0
41
1
10
45.5203057221744
20
1.39830599397626
30
0
41
1
10
45.4026775187842
20
1.41918315326063
30
0
41
1
10
45.166667601275
20
1.47270779461033
30
0
41
1
10
45.0478401347424
20
1.50536480078526
30
0
41
1
10
44.9285740645659
20
1.54408152876599
30
0
0
SPLINE
5
19B
100
AcDbEntity
8
1
62
256
6
ByLayer
370
-1
48
1
60
0
100
AcDbSpline
70
4
71
2
72
6
73
3
40
0
40
0
40
0
40
1
40
1
40
1
41
1
10
7.75647452966552
20
-7.32415468101303
30
0
41
1
10
7.75647452966555
20
-8.548446192097
30
0
41
1
10
7.75647452966558
20
-9.77273770318098
30
0
0
SPLINE
5
19C
100
AcDbEntity
8
1
62
256
6
ByLayer
370
-1
48
1
60
0
100
AcDbSpline
70
4
71
3
72
14
73
10
40
0
40
0
40
0
40
0
40
0.499999999999993
40
0.499999999999993
40
0.624999999999995
40
0.624999999999995
40
0.749999999999996
40
0.749999999999996
40
1
40
1
40
1
40
1
41
1
10
47.4649142344514
20
0.601935128816422
30
0
41
1
10
46.9905668195218
20
0.573819054379527
30
0
41
1
10
46.5224530686386
20
0.604197421957764
30
0
41
1
10
45.9450586707751
20
0.714677877857952
30
0
41
1
10
45.8299735883826
20
0.740456486797143
30
0
41
1
10
45.6006166385735
20
0.79960147430856
30
0
41
1
10
45.4863914226601
20
0.832984213185767
30
0
41
1
10
45.1487584270763
20
0.943588729969747
30
0
41
1
10
44.9291036674786
20
1.03152772698783
30
0
41
1
10
44.7150584005259
20
1.13397294086033
30
0
0
SPLINE
5
19D
100
AcDbEntity
8
1
62
256
6
ByLayer
370
-1
48
1
60
0
100
AcDbSpline
70
4
71
4
72
10
73
5
40
0
40
0
40
0
40
0
40
0
40
1
40
1
40
1
40
1
40
1
41
0.979227627740551
10
42.8079356350778
20
2.41105288647931
30
0
41
0.981550017568169
10
42.9259084409386
20
2.97072558278808
30
0
41
0.989075173264334
10
43.0065916535564
20
3.62681362353038
30
0
41
1
10
43.0400704143912
20
4.31190021932059
30
0
41
1
10
43.0400704143911
20
4.92999999999992
30
0
0
SPLINE
5
19E
100
AcDbEntity
8
1
62
256
6
ByLayer
370
-1
48
1
60
0
100
AcDbSpline
70
4
71
3
72
12
73
8
40
0
40
0
40
0
40
0
40
0.5
40
0.5
40
0.75
40
0.75
40
1
40
1
40
1
40
1
41
1
10
8.10781898959547
20
-7.46132296285927
30
0
41
1
10
8.72080304974745
20
-7.46126773795592
30
0
41
1
10
9.33320061129655
20
-7.44638659227152
30
0
41
1
10
10.246357636848
20
-7.38425998666474
30
0
41
1
10
10.5499043373515
20
-7.35683261453593
30
0
41
1
10
11.1547734175506
20
-7.28401731492366
30
0
41
1
10
11.4561016708372
20
-7.23869947282637
30
0
41
1
10
11.7564745296658
20
-7.18098963771416
30
0
0
SPLINE
5
19F
100
AcDbEntity
8
1
62
256
6
ByLayer
370
-1
48
1
60
0
100
AcDbSpline
70
4
71
3
72
28
73
24
40
0
40
0
40
0
40
0
40
0.125
40
0.125
40
0.250000000000001
40
0.250000000000001
40
0.312500000000001
40
0.312500000000001
40
0.375000000000001
40
0.375000000000001
40
0.500000000000002
40
0.500000000000002
40
0.562500000000002
40
0.562500000000002
40
0.625000000000002
40
0.625000000000002
40
0.750000000000001
40
0.750000000000001
40
0.875
40
0.875
40
0.9375
40
0.9375
40
1
40
1
40
1
40
1
41
1
10
17.7132330011239
20
-1.26658467427907
30
0
41
1
10
18.8493113679556
20
-1.72144155122493
30
0
41
1
10
19.9830562885243
20
-2.16942542765105
30
0
41
1
10
22.2497068077293
20
-3.04252207562774
30
0
41
1
10
23.3826144723071
20
-3.46760514051652
30
0
41
1
10
25.0850422440274
20
-4.0795277351173
30
0
41
1
10
25.6534968440359
20
-4.27919406335377
30
0
41
1
10
26.7893414234431
20
-4.66789661837379
30
0
41
1
10
27.3568962613144
20
-4.85685959721272
30
0
41
1
10
29.0589999627242
20
-5.40664345072074
30
0
41
1
10
30.1929354108653
20
-5.75047433868968
30
0
41
1
10
31.8950347077756
20
-6.22757961194674
30
0
41
1
10
32.4626094563391
20
-6.38015230081962
30
0
41
1
10
33.5987236758245
20
-6.67135002020609
30
0
41
1
10
34.1669210426783
20
-6.80989807127051
30
0
41
1
10
35.8678228620331
20
-7.20199303186655
30
0
41
1
10
36.9990809816419
20
-7.43189977512012
30
0
41
1
10
39.2596931908203
20
-7.82496463182468
30
0
41
1
10
40.3891155277156
20
-7.987995289293
30
0
41
1
10
42.0851481622832
20
-8.17920127017317
30
0
41
1
10
42.6506269380249
20
-8.2341642316249
30
0
41
1
10
43.7829680471982
20
-8.32573408925919
30
0
41
1
10
44.3499180194023
20
-8.36232185653387
30
0
41
1
10
44.9178030776241
20
-8.38966558305799
30
0
0
SPLINE
5
1A0
100
AcDbEntity
8
1
62
256
6
ByLayer
370
-1
48
1
60
0
100
AcDbSpline
70
4
71
3
72
36
73
32
40
0
40
0
40
0
40
0
40
0.125
40
0.125
40
0.250000000000001
40
0.250000000000001
40
0.312499999999997
40
0.312499999999997
40
0.374999999999993
40
0.374999999999993
40
0.40624999999999
40
0.40624999999999
40
0.437499999999988
40
0.437499999999988
40
0.468749999999986
40
0.468749999999986
40
0.499999999999984
40
0.499999999999984
40
0.531249999999982
40
0.531249999999982
40
0.56249999999998
40
0.56249999999998
40
0.624999999999983
40
0.624999999999983
40
0.687499999999986
40
0.687499999999986
40
0.749999999999989
40
0.749999999999989
40
0.874999999999994
40
0.874999999999994
40
1
40
1
40
1
40
1
41
1
10
53.6549379065485
20
-5.58285820492173
30
0
41
1
10
53.5603454669696
20
-5.59696604878442
30
0
41
1
10
53.4659444704642
20
-5.61250253287926
30
0
41
1
10
53.2788556119037
20
-5.64788542517232
30
0
41
1
10
53.1861918589782
20
-5.66761200935355
30
0
41
1
10
53.0498035315474
20
-5.70317755893541
30
0
41
1
10
53.0047112576383
20
-5.71606396176998
30
0
41
1
10
52.9162875523938
20
-5.74508733034065
30
0
41
1
10
52.8732917764629
20
-5.7610276771774
30
0
41
1
10
52.8123955105408
20
-5.78914636311148
30
0
41
1
10
52.7927042386699
20
-5.79922983914668
30
0
41
1
10
52.7553287856636
20
-5.82174003267281
30
0
41
1
10
52.7375667215481
20
-5.83423355053696
30
0
41
1
10
52.7076387176477
20
-5.86205949021885
30
0
41
1
10
52.6953041519299
20
-5.87764068104218
30
0
41
1
10
52.6819674875786
20
-5.91149672190693
30
0
41
1
10
52.6815230607266
20
-5.92938981000216
30
0
41
1
10
52.692778126531
20
-5.9633059013839
30
0
41
1
10
52.7040149155429
20
-5.97910563985536
30
0
41
1
10
52.7314899179526
20
-6.00739748454441
30
0
41
1
10
52.7480190020349
20
-6.02029337608664
30
0
41
1
10
52.8007647641855
20
-6.05558025139737
30
0
41
1
10
52.8401241999762
20
-6.07500997066558
30
0
41
1
10
52.9223228740713
20
-6.11047067170176
30
0
41
1
10
52.965302878339
20
-6.12630295917489
30
0
41
1
10
53.0519963300663
20
-6.15533640179044
30
0
41
1
10
53.0959826118726
20
-6.16860660648621
30
0
41
1
10
53.2291935163293
20
-6.20597884562491
30
0
41
1
10
53.3196465411648
20
-6.22768871139524
30
0
41
1
10
53.5023703297486
20
-6.26757959787281
30
0
41
1
10
53.5946748203163
20
-6.28569485713538
30
0
41
1
10
53.6876095787234
20
-6.302591863294
30
0
0
SPLINE
5
1A1
100
AcDbEntity
8
1
62
256
6
ByLayer
370
-1
48
1
60
0
100
AcDbSpline
70
4
71
3
72
20
73
16
40
0
40
0
40
0
40
0
40
0.0583803915397961
40
0.0583803915397961
40
0.21531699294983
40
0.21531699294983
40
0.372253594359864
40
0.372253594359864
40
0.529190195769898
40
0.529190195769898
40
0.686126797179932
40
0.686126797179932
40
0.843063398589966
40
0.843063398589966
40
1
40
1
40
1
40
1
41
1
10
36.6081641994372
20
5.64106345366758
30
0
41
1
10
36.6202948307921
20
5.65649588370459
30
0
41
1
10
36.6327931923564
20
5.67165328133481
30
0
41
1
10
36.6802379771543
20
5.72654788493506
30
0
41
1
10
36.7177485696539
20
5.76483298283799
30
0
41
1
10
36.7970035377422
20
5.83592440935078
30
0
41
1
10
36.8384494045512
20
5.86853579759401
30
0
41
1
10
36.9250225934753
20
5.9278324646366
30
0
41
1
10
36.9701484904968
20
5.95451991965911
30
0
41
1
10
37.0644474829917
20
6.00140435221056
30
0
41
1
10
37.1131357350984
20
6.02127233613516
30
0
41
1
10
37.2111981398171
20
6.05275174484657
30
0
41
1
10
37.2609394395989
20
6.06449487667877
30
0
41
1
10
37.3617970669118
20
6.080459850403
30
0
41
1
10
37.4130022961558
20
6.08466926902409
30
0
41
1
10
37.4639546233377
20
6.0864755426185
30
0
0
SPLINE
5
1A2
100
AcDbEntity
8
1
62
256
6
ByLayer
370
-1
48
1
60
0
100
AcDbSpline
70
4
71
3
72
8
73
4
40
0
40
0
40
0
40
0
40
1
40
1
40
1
40
1
41
1
10
8.10781882633177
20
-7.46132417161814
30
0
41
1
10
7.986887009622
20
-7.44984846859231
30
0
41
1
10
7.86994580568043
20
-7.40433088423612
30
0
41
1
10
7.7564745296655
20
-7.32415468101306
30
0
0
SPLINE
5
1A3
100
AcDbEntity
8
1
62
256
6
ByLayer
370
-1
48
1
60
0
100
AcDbSpline
70
4
71
3
72
20
73
16
40
0
40
0
40
0
40
0
40
0.105445962947489
40
0.105445962947489
40
0.254538302456241
40
0.254538302456241
40
0.403630641964992
40
0.403630641964992
40
0.701815320982495
40
0.701815320982495
40
0.776361490736871
40
0.776361490736871
40
0.850907660491247
40
0.850907660491247
40
1
40
1
40
1
40
1
41
1
10
19.20772683843
20
8.44994616824488
30
0
41
1
10
19.7921490001261
20
8.44994436172351
30
0
41
1
10
20.3764696288955
20
8.44000186847825
30
0
41
1
10
21.7875242908781
20
8.3919964501315
30
0
41
1
10
22.6144815605379
20
8.34407063108586
30
0
41
1
10
24.2709490079008
20
8.2091838991889
30
0
41
1
10
25.0994044486156
20
8.12229125363183
30
0
41
1
10
27.5811381293269
20
7.80567276384107
30
0
41
1
10
29.2329553294441
20
7.51928424773635
30
0
41
1
10
31.3029765845857
20
7.07562214622928
30
0
41
1
10
31.7174169761662
20
6.98258603421917
30
0
41
1
10
32.5454973148749
20
6.78865379465037
30
0
41
1
10
32.9592868112304
20
6.68772933736639
30
0
41
1
10
34.200232703152
20
6.37363684234398
30
0
41
1
10
35.026973457574
20
6.14915606893646
30
0
41
1
10
35.8539701624739
20
5.91105293215105
30
0
0
SPLINE
5
1A4
100
AcDbEntity
8
1
62
256
6
ByLayer
370
-1
48
1
60
0
100
AcDbSpline
70
4
71
3
72
22
73
18
40
0
40
0
40
0
40
0
40
0.125000000000009
40
0.125000000000009
40
0.250000000000019
40
0.250000000000019
40
0.312500000000018
40
0.312500000000018
40
0.375000000000018
40
0.375000000000018
40
0.500000000000016
40
0.500000000000016
40
0.625000000000014
40
0.625000000000014
40
0.750000000000012
40
0.750000000000012
40
1
40
1
40
1
40
1
41
1
10
45.4458401240756
20
3.80424002437928
30
0
41
1
10
45.4005087150302
20
3.78580296524072
30
0
41
1
10
45.3568471931038
20
3.7636826011655
30
0
41
1
10
45.2757949636807
20
3.70845530949799
30
0
41
1
10
45.2397062381676
20
3.67608930993583
30
0
41
1
10
45.1965477286923
20
3.61920844195493
30
0
41
1
10
45.1844375756928
20
3.59943700408911
30
0
41
1
10
45.1647835745718
20
3.55829679949934
30
0
41
1
10
45.1572837981738
20
3.53684040914234
30
0
41
1
10
45.1422071371398
20
3.47318578487165
30
0
41
1
10
45.1416353217054
20
3.43039282055636
30
0
41
1
10
45.1533057219332
20
3.35014349772618
30
0
41
1
10
45.1655505918783
20
3.311525964141
30
0
41
1
10
45.1974808973948
20
3.23949080286471
30
0
41
1
10
45.2171878381752
20
3.20576074769303
30
0
41
1
10
45.2841832599506
20
3.10937403462617
30
0
41
1
10
45.3390752665656
20
3.05181836800841
30
0
41
1
10
45.3991236111038
20
2.99940378048547
30
0
0
SPLINE
5
1A5
100
AcDbEntity
8
1
62
256
6
ByLayer
370
-1
48
1
60
0
100
AcDbSpline
70
4
71
4
72
16
73
11
40
0
40
0
40
0
40
0
40
0
40
0.177019724559202
40
0.177019724559202
40
0.177019724559202
40
0.843277341388477
40
0.843277341388477
40
0.843277341388477
40
1
40
1
40
1
40
1
40
1
41
0.997267125734368
10
17.3396508446222
20
-1.02062394497867
30
0
41
0.998139148332455
10
17.2754085725597
20
-1.20505672289235
30
0
41
0.999155280340518
10
17.2057576662884
20
-1.41385591929892
30
0
41
1
10
17.1321590959929
20
-1.64238485754032
30
0
41
1
10
16.7722932155492
20
-2.79119300884079
30
0
41
0.988033871712585
10
16.4000000000026
20
-4.07166246914302
30
0
41
1
10
16.0277067844561
20
-5.47734914918374
30
0
41
1
10
15.676502611317
20
-6.8901872330766
30
0
41
0.999337885862356
10
15.611156701964
20
-7.15809575679441
30
0
41
0.998480901571983
10
15.5487234015177
20
-7.41980887764716
30
0
41
0.997676473080392
10
15.4902553924571
20
-7.67113254289918
30
0
0
SPLINE
5
1A6
100
AcDbEntity
8
1
62
256
6
ByLayer
370
-1
48
1
60
0
100
AcDbSpline
70
4
71
3
72
8
73
4
40
0
40
0
40
0
40
0
40
1
40
1
40
1
40
1
41
1
10
16
20
-8.21338554213796
30
0
41
1
10
15.7503893412972
20
-8.2370322047241
30
0
41
1
10
15.500637744081
20
-8.26996473403415
30
0
41
1
10
15.2511599140285
20
-8.31264272483156
30
0
0
SPLINE
5
1A7
100
AcDbEntity
8
1
62
256
6
ByLayer
370
-1
48
1
60
0
100
AcDbSpline
70
4
71
3
72
74
73
70
40
-0.0312500000000016
40
-0.0312500000000016
40
0
40
0
40
0.0312499999999958
40
0.0312499999999958
40
0.0468749999999938
40
0.0468749999999938
40
0.0624999999999918
40
0.0624999999999918
40
0.0937499999999886
40
0.0937499999999886
40
0.124999999999985
40
0.124999999999985
40
0.156249999999982
40
0.156249999999982
40
0.187499999999979
40
0.187499999999979
40
0.218749999999976
40
0.218749999999976
40
0.249999999999973
40
0.249999999999973
40
0.28124999999997
40
0.28124999999997
40
0.312499999999966
40
0.312499999999966
40
0.328124999999966
40
0.328124999999966
40
0.343749999999966
40
0.343749999999966
40
0.374999999999968
40
0.374999999999968
40
0.406249999999969
40
0.406249999999969
40
0.437499999999971
40
0.437499999999971
40
0.468749999999973
40
0.468749999999973
40
0.499999999999974
40
0.499999999999974
40
0.531249999999976
40
0.531249999999976
40
0.562499999999978
40
0.562499999999978
40
0.593749999999979
40
0.593749999999979
40
0.624999999999981
40
0.624999999999981
40
0.656249999999982
40
0.656249999999982
40
0.687499999999984
40
0.687499999999984
40
0.718749999999986
40
0.718749999999986
40
0.749999999999987
40
0.749999999999987
40
0.781249999999989
40
0.781249999999989
40
0.81249999999999
40
0.81249999999999
40
0.843749999999992
40
0.843749999999992
40
0.874999999999994
40
0.874999999999994
40
0.906249999999995
40
0.906249999999995
40
0.937499999999997
40
0.937499999999997
40
0.968749999999998
40
0.968749999999998
40
1
40
1
40
1.03125
40
1.03125
41
1
10
50.5339471583984
20
-1.72378573551168
30
0
41
1
10
50.5257825028524
20
-1.56578599507239
30
0
41
1
10
50.5292752349324
20
-1.48743974232735
30
0
41
1
10
50.5456676480865
20
-1.37089614320558
30
0
41
1
10
50.5530034792334
20
-1.3322123273359
30
0
41
1
10
50.5715417522006
20
-1.25518976700613
30
0
41
1
10
50.5828129177842
20
-1.21670510326504
30
0
41
1
10
50.6218389714647
20
-1.10423282329751
30
0
41
1
10
50.6548680074732
20
-1.03248969178642
30
0
41
1
10
50.735004181601
20
-0.895571897414698
30
0
41
1
10
50.7826740415915
20
-0.829967776055554
30
0
41
1
10
50.8885148731717
20
-0.711283429469319
30
0
41
1
10
50.946961146049
20
-0.657484240043402
30
0
41
1
10
51.0751817060113
20
-0.561307927570937
30
0
41
1
10
51.1442970143488
20
-0.519635554666507
30
0
41
1
10
51.2879887231254
20
-0.451467924568874
30
0
41
1
10
51.3637271797925
20
-0.424365425040236
30
0
41
1
10
51.5197630204058
20
-0.385821148198062
30
0
41
1
10
51.5985878906131
20
-0.374618297159486
30
0
41
1
10
51.7578100456463
20
-0.36794507575911
30
0
41
1
10
51.839016380234
20
-0.372710029742166
30
0
41
1
10
51.9965725457391
20
-0.398034869632767
30
0
41
1
10
52.0734788052828
20
-0.418412527233585
30
0
41
1
10
52.185992146092
20
-0.460697154371729
30
0
41
1
10
52.2231399333008
20
-0.476841993896755
30
0
41
1
10
52.2948491533923
20
-0.512400986469487
30
0
41
1
10
52.3296028796685
20
-0.531872152589813
30
0
41
1
10
52.4306261688155
20
-0.595253803510275
30
0
41
1
10
52.4940043387951
20
-0.644387562581358
30
0
41
1
10
52.6104068334141
20
-0.755100745263803
30
0
41
1
10
52.6621825135216
20
-0.815369628003879
30
0
41
1
10
52.7533642323088
20
-0.945297480323518
30
0
41
1
10
52.7930364262967
20
-1.01577957273491
30
0
41
1
10
52.8568713353346
20
-1.16095703039437
30
0
41
1
10
52.8814164621966
20
-1.2358999178274
30
0
41
1
10
52.9159412151055
20
-1.39037708890785
30
0
41
1
10
52.9256590825051
20
-1.46961013706743
30
0
41
1
10
52.9298835365791
20
-1.62607173447068
30
0
41
1
10
52.9245929002009
20
-1.7041633957447
30
0
41
1
10
52.898956808527
20
-1.8597544074259
30
0
41
1
10
52.8790010557913
20
-1.9349717604187
30
0
41
1
10
52.8254901852994
20
-2.08055813071871
30
0
41
1
10
52.7915289414946
20
-2.15155881741239
30
0
41
1
10
52.7110924185573
20
-2.28525275857777
30
0
41
1
10
52.6650355298248
20
-2.34756902372428
30
0
41
1
10
52.5611803677731
20
-2.4632636776357
30
0
41
1
10
52.5026333997133
20
-2.51711421940158
30
0
41
1
10
52.3774433231817
20
-2.61136364049932
30
0
41
1
10
52.3106803799219
20
-2.6521611981288
30
0
41
1
10
52.1684194628431
20
-2.72069808389332
30
0
41
1
10
52.0924450148396
20
-2.74834703772129
30
0
41
1
10
51.9387409464723
20
-2.78715246611759
30
0
41
1
10
51.8601672248582
20
-2.79882202312945
30
0
41
1
10
51.6993831502237
20
-2.80590120992
30
0
41
1
10
51.6191729372183
20
-2.80111298137078
30
0
41
1
10
51.4622235553046
20
-2.7756917759348
30
0
41
1
10
51.384103070665
20
-2.75469291382231
30
0
41
1
10
51.2355726969019
20
-2.69815858243123
30
0
41
1
10
51.1651048530367
20
-2.66286598823149
30
0
41
1
10
51.0314621244186
20
-2.57860495689042
30
0
41
1
10
50.9688386854847
20
-2.52977951942413
30
0
41
1
10
50.8555989632765
20
-2.4225513701102
30
0
41
1
10
50.80406006825
20
-2.36338701085134
30
0
41
1
10
50.7129139795218
20
-2.2359015782329
30
0
41
1
10
50.6740401506248
20
-2.16875763783489
30
0
41
1
10
50.6091503275254
20
-2.02780467651604
30
0
41
1
10
50.5830048619974
20
-1.95328519288324
30
0
41
1
10
50.5454948995517
20
-1.80128516968802
30
0
41
1
10
50.5339471583984
20
-1.72378573551168
30
0
41
1
10
50.5257825028524
20
-1.56578599507239
30
0
0
SPLINE
5
1A8
100
AcDbEntity
8
1
62
256
6
ByLayer
370
-1
48
1
60
0
100
AcDbSpline
70
4
71
3
72
8
73
4
40
0
40
0
40
0
40
0
40
1
40
1
40
1
40
1
41
1
10
44.928574064566
20
1.54408152876596
30
0
41
1
10
44.8998300214575
20
1.55341255892776
30
0
41
1
10
44.871168815512
20
1.56295887744847
30
0
41
1
10
44.8425938782973
20
1.57272159850439
30
0
0
SPLINE
5
1A9
100
AcDbEntity
8
1
62
256
6
ByLayer
370
-1
48
1
60
0
100
AcDbSpline
70
4
71
3
72
8
73
4
40
0
40
0
40
0
40
0
40
1
40
1
40
1
40
1
41
1
10
11.7564745296657
20
-7.18098963771419
30
0
41
1
10
11.7564745296657
20
-7.99261504005858
30
0
41
1
10
11.7564745296657
20
-8.80424044240294
30
0
41
1
10
11.7564745296657
20
-9.61586584474733
30
0
0
SPLINE
5
1AA
100
AcDbEntity
8
1
62
256
6
ByLayer
370
-1
48
1
60
0
100
AcDbSpline
70
4
71
3
72
24
73
20
40
0
40
0
40
0
40
0
40
0.25
40
0.25
40
0.375
40
0.375
40
0.5
40
0.5
40
0.53125
40
0.53125
40
0.5625
40
0.5625
40
0.625
40
0.625
40
0.75
40
0.75
40
0.875
40
0.875
40
1
40
1
40
1
40
1
41
1
10
7.75647452966558
20
-9.77273770318098
30
0
41
1
10
8.0799459263917
20
-9.96227665227144
30
0
41
1
10
8.41339307519013
20
-9.98725904629313
30
0
41
1
10
8.91770602705904
20
-9.97726338317497
30
0
41
1
10
9.08620113213118
20
-9.96610926236787
30
0
41
1
10
9.42233845152967
20
-9.94631525434488
30
0
41
1
10
9.59004078385843
20
-9.93749527583904
30
0
41
1
10
9.79889317777938
20
-9.92948907529518
30
0
41
1
10
9.84065018389379
20
-9.92767936031282
30
0
41
1
10
9.92435002448292
20
-9.92090727144404
30
0
41
1
10
9.96615558007605
20
-9.91779916941104
30
0
41
1
10
10.0914344843963
20
-9.90935527039923
30
0
41
1
10
10.174783554852
20
-9.90459839005808
30
0
41
1
10
10.4244992501189
20
-9.88926677316775
30
0
41
1
10
10.5905357774855
20
-9.87744104130724
30
0
41
1
10
10.9226290911157
20
-9.83792533781875
30
0
41
1
10
11.0886841428547
20
-9.81035767934387
30
0
41
1
10
11.4216867945913
20
-9.73188389553493
30
0
41
1
10
11.588632503992
20
-9.68103978866338
30
0
41
1
10
11.7564745296657
20
-9.61586584474733
30
0
0
SPLINE
5
1AB
100
AcDbEntity
8
1
62
256
6
ByLayer
370
-1
48
1
60
0
100
AcDbSpline
70
4
71
3
72
8
73
4
40
0
40
0
40
0
40
0
40
1
40
1
40
1
40
1
41
1
10
39.4375366109395
20
4.66154266696495
30
0
41
1
10
39.1698102695686
20
4.59842141283048
30
0
41
1
10
38.9008911763096
20
4.54098724822114
30
0
41
1
10
38.6309390911188
20
4.49014391936998
30
0
0
SPLINE
5
1AC
100
AcDbEntity
8
1
62
256
6
ByLayer
370
-1
48
1
60
0
100
AcDbSpline
70
4
71
3
72
20
73
16
40
0
40
0
40
0
40
0
40
0.25
40
0.25
40
0.375
40
0.375
40
0.4375
40
0.4375
40
0.5
40
0.5
40
0.75
40
0.75
40
0.875
40
0.875
40
1
40
1
40
1
40
1
41
1
10
11.7564745296657
20
-9.61586584474733
30
0
41
1
10
11.9373017214035
20
-9.53839513666586
30
0
41
1
10
12.1496001072845
20
-9.4301773060663
30
0
41
1
10
12.5135071393641
20
-9.24915436148382
30
0
41
1
10
12.6424470057169
20
-9.18557221039543
30
0
41
1
10
12.8476390487805
20
-9.08806132678922
30
0
41
1
10
12.9179511146357
20
-9.05522931285509
30
0
41
1
10
13.0609934231912
20
-8.98999556012615
30
0
41
1
10
13.133908180787
20
-8.95750492458083
30
0
41
1
10
13.5054384353064
20
-8.796662488252
30
0
41
1
10
13.8246790790395
20
-8.67318287228173
30
0
41
1
10
14.3392432184118
20
-8.51307900607509
30
0
41
1
10
14.5164222606263
20
-8.46406666828366
30
0
41
1
10
14.8776120371677
20
-8.37862471307184
30
0
41
1
10
15.0622633015027
20
-8.34198043063711
30
0
41
1
10
15.2511599138987
20
-8.31264272485183
30
0
0
SPLINE
5
1AD
100
AcDbEntity
8
1
62
256
6
ByLayer
370
-1
48
1
60
0
100
AcDbSpline
70
4
71
3
72
13
73
9
40
0
40
0
40
0
40
0
40
0.222026715174047
40
0.444053430348094
40
0.666080145522141
40
0.777093503109164
40
0.888106860696187
40
1
40
1
40
1
40
1
41
1
10
43.0400704143912
20
4.92999999999992
30
0
41
1
10
42.7734150876201
20
4.91546515279106
30
0
41
1
10
42.2400554900556
20
4.88398738510725
30
0
41
1
10
41.4398359254159
20
4.82959478018253
30
0
41
1
10
40.7730696482389
20
4.77837082350442
30
0
41
1
10
40.2399439683179
20
4.73392003148567
30
0
41
1
10
39.8392853101847
20
4.69878191587364
30
0
41
1
10
39.5718168442742
20
4.67418025217688
30
0
41
1
10
39.4375366109395
20
4.66154266696495
30
0
0
SPLINE
5
1AE
100
AcDbEntity
8
1
62
256
6
ByLayer
370
-1
48
1
60
0
100
AcDbSpline
70
4
71
3
72
8
73
4
40
0
40
0
40
0
40
0
40
1
40
1
40
1
40
1
41
1
10
16
20
-0.186634161131479
30
0
41
1
10
15.4707492410127
20
0.0846391135568751
30
0
41
1
10
14.9229292614649
20
0.299329974604973
30
0
41
1
10
14.3599635326147
20
0.459416581044849
30
0
0
SPLINE
5
1AF
100
AcDbEntity
8
1
62
256
6
ByLayer
370
-1
48
1
60
0
100
AcDbSpline
70
4
71
3
72
14
73
10
40
0
40
0
40
0
40
0
40
0.25
40
0.25
40
0.5
40
0.5
40
0.75
40
0.75
40
1
40
1
40
1
40
1
41
1
10
48.4946310401404
20
8.44994072830571
30
0
41
1
10
48.4987844297117
20
8.45011878622728
30
0
41
1
10
48.5084615288179
20
8.44989091706378
30
0
41
1
10
48.5384630677061
20
8.44876225958674
30
0
41
1
10
48.5590867020866
20
8.44784640296808
30
0
41
1
10
48.6091430283248
20
8.44563172868575
30
0
41
1
10
48.6390028611753
20
8.44431606202221
30
0
41
1
10
48.7069471786122
20
8.4416052624693
30
0
41
1
10
48.7444007328281
20
8.44023522594151
30
0
41
1
10
48.7853810722507
20
8.4389876921301
30
0
0
SPLINE
5
1B0
100
AcDbEntity
8
1
62
256
6
ByLayer
370
-1
48
1
60
0
100
AcDbSpline
70
4
71
3
72
10
73
6
40
0
40
0
40
0
40
0
40
0.5
40
0.5
40
1
40
1
40
1
40
1
41
1
10
46.8957264600573
20
2.48396583698025
30
0
41
1
10
46.979108387913
20
2.47164921267344
30
0
41
1
10
47.0621667651279
20
2.46124662364792
30
0
41
1
10
47.2275345030343
20
2.44418293480948
30
0
41
1
10
47.309833616192
20
2.43753773695127
30
0
41
1
10
47.390679884359
20
2.43275457345146
30
0
0
SPLINE
5
1B1
100
AcDbEntity
8
1
62
256
6
ByLayer
370
-1
48
1
60
0
100
AcDbSpline
70
4
71
2
72
6
73
3
40
0
40
0
40
0
40
1
40
1
40
1
41
1
10
15.2511599140286
20
-7.70619122245671
30
0
41
1
10
15.2511599140286
20
-8.00941697364757
30
0
41
1
10
15.2511599140286
20
-8.31264272483844
30
0
0
SPLINE
5
1B2
100
AcDbEntity
8
1
62
256
6
ByLayer
370
-1
48
1
60
0
100
AcDbSpline
70
4
71
3
72
8
73
4
40
0
40
0
40
0
40
0
40
1
40
1
40
1
40
1
41
1
10
37.4639546233378
20
6.08647554261154
30
0
41
1
10
37.7588360556229
20
6.09692916807018
30
0
41
1
10
38.0535761490453
20
6.10080592067655
30
0
41
1
10
38.3483304939786
20
6.0975476113164
30
0
0
SPLINE
5
1B3
100
AcDbEntity
8
1
62
256
6
ByLayer
370
-1
48
1
60
0
100
AcDbSpline
70
4
71
3
72
16
73
12
40
0
40
0
40
0
40
0
40
0.0610323788227223
40
0.0610323788227223
40
0.295774284117042
40
0.295774284117042
40
0.530516189411361
40
0.530516189411361
40
0.765258094705681
40
0.765258094705681
40
1
40
1
40
1
40
1
41
1
10
28.6295529793779
20
-5.27439344396666
30
0
41
1
10
28.3622746543277
20
-5.34812472125685
30
0
41
1
10
28.0949781625679
20
-5.42054412234094
30
0
41
1
10
26.7994023101166
20
-5.76491674715504
30
0
41
1
10
25.77065746669
20
-6.01827094903103
30
0
41
1
10
23.7150168522207
20
-6.48115301598037
30
0
41
1
10
22.6874350131386
20
-6.69096146004509
30
0
41
1
10
20.6302733762528
20
-7.06099449038788
30
0
41
1
10
19.6019030684271
20
-7.22086761565419
30
0
41
1
10
17.5466153688345
20
-7.48710476775227
30
0
41
1
10
16.5191311587396
20
-7.59377973359244
30
0
41
1
10
15.4902553924487
20
-7.67113254293525
30
0
0
SPLINE
5
1B4
100
AcDbEntity
8
1
62
256
6
ByLayer
370
-1
48
1
60
0
100
AcDbSpline
70
4
71
3
72
8
73
4
40
0
40
0
40
0
40
0
40
1
40
1
40
1
40
1
41
1
10
47.390679884359
20
2.43275457345149
30
0
41
1
10
47.5746576438493
20
2.42229136436652
30
0
41
1
10
47.7580251858909
20
2.42033525914559
30
0
41
1
10
47.9407987977152
20
2.4267223359771
30
0
0
SPLINE
5
1B5
100
AcDbEntity
8
1
62
256
6
ByLayer
370
-1
48
1
60
0
100
AcDbSpline
70
4
71
3
72
26
73
22
40
0
40
0
40
0
40
0
40
0.031003645280322
40
0.031003645280322
40
0.111753341506962
40
0.111753341506962
40
0.192503037733601
40
0.192503037733601
40
0.354002430186881
40
0.354002430186881
40
0.434752126413521
40
0.434752126413521
40
0.51550182264016
40
0.51550182264016
40
0.67700121509344
40
0.67700121509344
40
0.75775091132008
40
0.75775091132008
40
0.838500607546719
40
0.838500607546719
40
1
40
1
40
1
40
1
41
1
10
44.3517948234073
20
1.75008081990555
30
0
41
1
10
44.3617201817726
20
1.76533170957947
30
0
41
1
10
44.3714002347276
20
1.78135147043966
30
0
41
1
10
44.405401521454
20
1.84184661497315
30
0
41
1
10
44.4282791201049
20
1.89077029498654
30
0
41
1
10
44.4703955513115
20
1.99924052882798
30
0
41
1
10
44.4895080170351
20
2.05856567111317
30
0
41
1
10
44.5399681803483
20
2.24864027409285
30
0
41
1
10
44.5649144753115
20
2.39235828543153
30
0
41
1
10
44.5877347526069
20
2.63254169296712
30
0
41
1
10
44.5928950666478
20
2.71716012498374
30
0
41
1
10
44.5977175638045
20
2.89249458451516
30
0
41
1
10
44.5974041077623
20
2.98294459125259
30
0
41
1
10
44.5878823919104
20
3.26208728308816
30
0
41
1
10
44.5702478369036
20
3.45855882015763
30
0
41
1
10
44.5229676419756
20
3.76723144077846
30
0
41
1
10
44.5036371524918
20
3.87256183532833
30
0
41
1
10
44.4578253730395
20
4.08328990891073
30
0
41
1
10
44.4312854022806
20
4.18919730447109
30
0
41
1
10
44.3392038451106
20
4.50750032282934
30
0
41
1
10
44.261974301262
20
4.72084205920191
30
0
41
1
10
44.158946762615
20
4.92999999999995
30
0
0
SPLINE
5
1B6
100
AcDbEntity
8
1
62
256
6
ByLayer
370
-1
48
1
60
0
100
AcDbSpline
70
4
71
3
72
16
73
12
40
0
40
0
40
0
40
0
40
0.25
40
0.25
40
0.499999999999999
40
0.499999999999999
40
0.749999999999999
40
0.749999999999999
40
0.874999999999999
40
0.874999999999999
40
1
40
1
40
1
40
1
41
1
10
12.7374169868464
20
-7.52548292014393
30
0
41
1
10
12.8978100250515
20
-7.57671419483154
30
0
41
1
10
13.0726365785094
20
-7.61697741423239
30
0
41
1
10
13.4518823460985
20
-7.67922332052464
30
0
41
1
10
13.6521564064761
20
-7.70056921100345
30
0
41
1
10
14.0741243428562
20
-7.72757072742283
30
0
41
1
10
14.2958091620583
20
-7.7332012836325
30
0
41
1
10
14.6454006296151
20
-7.73093508928514
30
0
41
1
10
14.764606849889
20
-7.72836466310889
30
0
41
1
10
15.0054558065879
20
-7.71981280997838
30
0
41
1
10
15.1274948696241
20
-7.71383103495558
30
0
41
1
10
15.2511603290328
20
-7.70618481276494
30
0
0
SPLINE
5
1B7
100
AcDbEntity
8
1
62
256
6
ByLayer
370
-1
48
1
60
0
100
AcDbSpline
70
4
71
3
72
12
73
8
40
0
40
0
40
0
40
0
40
0.25
40
0.25
40
0.5
40
0.5
40
1
40
1
40
1
40
1
41
1
10
40.6052233227203
20
5.88326284092395
30
0
41
1
10
40.4212194610647
20
5.92779940112382
30
0
41
1
10
40.2352170513258
20
5.96052376167859
30
0
41
1
10
39.8610609222832
20
6.01325740313075
30
0
41
1
10
39.6728751193066
20
6.03307705699166
30
0
41
1
10
39.1061289242333
20
6.07959943770248
30
0
41
1
10
38.7270744699906
20
6.0933608535523
30
0
41
1
10
38.3483304939786
20
6.09754761131637
30
0
0
SPLINE
5
1B8
100
AcDbEntity
8
1
62
256
6
ByLayer
370
-1
48
1
60
0
100
AcDbSpline
70
4
71
3
72
8
73
4
40
0
40
0
40
0
40
0
40
1
40
1
40
1
40
1
41
1
10
15.4902553926243
20
-7.67113254290362
30
0
41
1
10
15.4106100199258
20
-7.68544671023318
30
0
41
1
10
15.3309222516694
20
-7.69716283728559
30
0
41
1
10
15.2511599140284
20
-7.70618483842475
30
0
0
SPLINE
5
1B9
100
AcDbEntity
8
1
62
256
6
ByLayer
370
-1
48
1
60
0
100
AcDbSpline
70
4
71
3
72
14
73
10
40
0
40
0
40
0
40
0
40
0.0705200632887957
40
0.0705200632887957
40
0.380346708859197
40
0.380346708859197
40
0.690173354429599
40
0.690173354429599
40
1
40
1
40
1
40
1
41
1
10
53.7504345935373
20
2.76927763242131
30
0
41
1
10
53.7499623671471
20
2.76185902332458
30
0
41
1
10
53.7494607031065
20
2.75464449960614
30
0
41
1
10
53.7466232464137
20
2.71682571459513
30
0
41
1
10
53.743781810209
20
2.68989583093153
30
0
41
1
10
53.7376564487655
20
2.64684356324071
30
0
41
1
10
53.7343104802245
20
2.63017490062606
30
0
41
1
10
53.7273728246315
20
2.60775453073924
30
0
41
1
10
53.7238412645253
20
2.60209765543931
30
0
41
1
10
53.7203017498997
20
2.60206493974539
30
0
0
SPLINE
5
1BA
100
AcDbEntity
8
1
62
256
6
ByLayer
370
-1
48
1
60
0
100
AcDbSpline
70
4
71
3
72
16
73
12
40
0
40
0
40
0
40
0
40
0.446030329968635
40
0.446030329968635
40
0.557537912460793
40
0.557537912460793
40
0.669045494952952
40
0.669045494952952
40
0.892060659937268
40
0.892060659937268
40
1
40
1
40
1
40
1
41
1
10
16
20
-8.21338554213796
30
0
41
1
10
17.9676057388193
20
-8.02698601396784
30
0
41
1
10
19.927852603119
20
-7.73229235902843
30
0
41
1
10
22.3826025695996
20
-7.24158405927886
30
0
41
1
10
22.8737646810523
20
-7.13733185462669
30
0
41
1
10
23.8568529991808
20
-6.91699525187468
30
0
41
1
10
24.3487859134989
20
-6.80090029357481
30
0
41
1
10
25.8225893633069
20
-6.43647312655116
30
0
41
1
10
26.803689973198
20
-6.17173219001202
30
0
41
1
10
28.2595316769077
20
-5.74997923023849
30
0
41
1
10
28.7343260471667
20
-5.60786108645743
30
0
41
1
10
29.209248057174
20
-5.46144956611988
30
0
0
SPLINE
5
1BB
100
AcDbEntity
8
1
62
256
6
ByLayer
370
-1
48
1
60
0
100
AcDbSpline
70
4
71
3
72
12
73
8
40
0
40
0
40
0
40
0
40
0.500000000000001
40
0.500000000000001
40
0.75
40
0.75
40
1
40
1
40
1
40
1
41
1
10
11.7564745296657
20
-7.18098963771411
30
0
41
1
10
11.8970130738022
20
-7.17656570029413
30
0
41
1
10
12.0510457310448
20
-7.20841266172704
30
0
41
1
10
12.2973505645734
20
-7.29888330453733
30
0
41
1
10
12.3820583169149
20
-7.33610877622624
30
0
41
1
10
12.5564616326139
20
-7.42256651504385
30
0
41
1
10
12.6461483299472
20
-7.47181206113532
30
0
41
1
10
12.7374181730623
20
-7.52547615424598
30
0
0
SPLINE
5
1BC
100
AcDbEntity
8
1
62
256
6
ByLayer
370
-1
48
1
60
0
100
AcDbSpline
70
4
71
3
72
10
73
6
40
0
40
0
40
0
40
0
40
0.5
40
0.5
40
1
40
1
40
1
40
1
41
1
10
47.7666793739361
20
1.64007018100924
30
0
41
1
10
47.5160475613103
20
1.56803824785456
30
0
41
1
10
47.2638842121684
20
1.50978601594053
30
0
41
1
10
46.7627084537868
20
1.41911382753477
30
0
41
1
10
46.5137112598492
20
1.38669803141235
30
0
41
1
10
46.2695584424376
20
1.36523622301735
30
0
0
SPLINE
5
1BD
100
AcDbEntity
8
1
62
256
6
ByLayer
370
-1
48
1
60
0
100
AcDbSpline
70
4
71
3
72
14
73
10
40
0
40
0
40
0
40
0
40
0.5
40
0.5
40
0.625000000000001
40
0.625000000000001
40
0.750000000000001
40
0.750000000000001
40
1
40
1
40
1
40
1
41
1
10
14.3599635326147
20
0.459416581044849
30
0
41
1
10
13.7996746563732
20
0.616402791045715
30
0
41
1
10
13.2508983824946
20
0.708533507190879
30
0
41
1
10
12.5882229516835
20
0.787721446550705
30
0
41
1
10
12.4568353742305
20
0.80169634486677
30
0
41
1
10
12.1965386198709
20
0.826839311366314
30
0
41
1
10
12.0673321544019
20
0.838028385438321
30
0
41
1
10
11.68636259769
20
0.868486717772697
30
0
41
1
10
11.4412140912941
20
0.884727816191798
30
0
41
1
10
11.2049702648778
20
0.900333762404813
30
0
0
SPLINE
5
1BE
100
AcDbEntity
8
1
62
256
6
ByLayer
370
-1
48
1
60
0
100
AcDbSpline
70
4
71
3
72
14
73
10
40
0
40
0
40
0
40
0
40
0.25
40
0.25
40
0.5
40
0.5
40
0.75
40
0.75
40
1
40
1
40
1
40
1
41
1
10
7.46817747888483
20
-7.0298031421583
30
0
41
1
10
7.41003709379771
20
-6.94735971402744
30
0
41
1
10
7.35821726601836
20
-6.86850476923925
30
0
41
1
10
7.26742973104444
20
-6.72218166985812
30
0
41
1
10
7.22844778189861
20
-6.65469045954038
30
0
41
1
10
7.16447598602306
20
-6.53707512092197
30
0
41
1
10
7.13942892684156
20
-6.48681419219744
30
0
41
1
10
7.10665533246083
20
-6.41372256301537
30
0
41
1
10
7.09870355596348
20
-6.39059932077558
30
0
41
1
10
7.10017131892738
20
-6.38342355703929
30
0
0
SPLINE
5
1BF
100
AcDbEntity
8
1
62
256
6
ByLayer
370
-1
48
1
60
0
100
AcDbSpline
70
4
71
2
72
6
73
3
40
0
40
0
40
0
40
1
40
1
40
1
41
0.500000013874791
10
47.7666793739361
20
1.64007018100923
30
0
41
0.499999986125209
10
47.7686363374987
20
1.64063261507156
30
0
41
0.500000013874791
10
47.7705940103224
20
1.64119602804054
30
0
0
SPLINE
5
1C0
100
AcDbEntity
8
1
62
256
6
ByLayer
370
-1
48
1
60
0
100
AcDbSpline
70
4
71
3
72
10
73
6
40
0
40
0
40
0
40
0
40
0.5
40
0.5
40
1
40
1
40
1
40
1
41
1
10
45.3991236111077
20
2.99940378048157
30
0
41
1
10
45.4690960684319
20
2.93832670139182
30
0
41
1
10
45.5479186064831
20
2.88663853164206
30
0
41
1
10
45.718865298733
20
2.79607346044645
30
0
41
1
10
45.8110111724429
20
2.75748727754862
30
0
41
1
10
45.9061247310596
20
2.72474489147848
30
0
0
SPLINE
5
1C1
100
AcDbEntity
8
1
62
256
6
ByLayer
370
-1
48
1
60
0
100
AcDbSpline
70
4
71
3
72
54
73
50
40
0
40
0
40
0
40
0
40
0.0312499999999999
40
0.0312499999999999
40
0.0624999999999998
40
0.0624999999999998
40
0.125
40
0.125
40
0.1875
40
0.1875
40
0.25
40
0.25
40
0.3125
40
0.3125
40
0.34375
40
0.34375
40
0.375000000000001
40
0.375000000000001
40
0.437500000000001
40
0.437500000000001
40
0.468750000000001
40
0.468750000000001
40
0.500000000000001
40
0.500000000000001
40
0.531250000000001
40
0.531250000000001
40
0.562500000000001
40
0.562500000000001
40
0.593750000000001
40
0.593750000000001
40
0.625000000000001
40
0.625000000000001
40
0.687500000000001
40
0.687500000000001
40
0.718750000000001
40
0.718750000000001
40
0.750000000000001
40
0.750000000000001
40
0.781250000000001
40
0.781250000000001
40
0.812500000000001
40
0.812500000000001
40
0.875000000000001
40
0.875000000000001
40
0.90625
40
0.90625
40
0.9375
40
0.9375
40
1
40
1
40
1
40
1
41
1
10
10.1212490480314
20
0.883209019390904
30
0
41
1
10
10.0415175640936
20
0.866408655157954
30
0
41
1
10
9.96418788076207
20
0.848195947895448
30
0
41
1
10
9.81406384515233
20
0.809430758995603
30
0
41
1
10
9.73921972758598
20
0.788106013313978
30
0
41
1
10
9.52098007519274
20
0.720751357947165
30
0
41
1
10
9.38221942395526
20
0.670879279990316
30
0
41
1
10
9.11354814697086
20
0.560940014381146
30
0
41
1
10
8.98365431001079
20
0.500876693307475
30
0
41
1
10
8.72886333769651
20
0.368574397676667
30
0
41
1
10
8.60397549957418
20
0.296358890548646
30
0
41
1
10
8.35567294125755
20
0.135681732764965
30
0
41
1
10
8.23226190519438
20
0.047278670027282
30
0
41
1
10
8.04571107557007
20
-0.102991291908978
30
0
41
1
10
7.98315297603054
20
-0.156196041786984
30
0
41
1
10
7.85870963324254
20
-0.268516685525924
30
0
41
1
10
7.79667505391231
20
-0.32773997784696
30
0
41
1
10
7.61102915246283
20
-0.516267615310198
30
0
41
1
10
7.48777142235912
20
-0.656260180122189
30
0
41
1
10
7.30471121405421
20
-0.896860719665199
30
0
41
1
10
7.24465680143371
20
-0.98143181668982
30
0
41
1
10
7.12844117447148
20
-1.15810788428672
30
0
41
1
10
7.07206346576467
20
-1.25049314656206
30
0
41
1
10
6.96350920514413
20
-1.44399248603628
30
0
41
1
10
6.91109841170862
20
-1.5456105403405
30
0
41
1
10
6.81245264829138
20
-1.75600916849686
30
0
41
1
10
6.76676048582482
20
-1.86354047822618
30
0
41
1
10
6.68285037828042
20
-2.08315342790783
30
0
41
1
10
6.64463184910625
20
-2.19523450917759
30
0
41
1
10
6.57596186530927
20
-2.42390931824889
30
0
41
1
10
6.54538054521041
20
-2.54118949660457
30
0
41
1
10
6.46726936712838
20
-2.89299574777996
30
0
41
1
10
6.43280181988979
20
-3.12827292034737
30
0
41
1
10
6.40576794718649
20
-3.48249715875895
30
0
41
1
10
6.40093415084104
20
-3.60086607466769
30
0
41
1
10
6.3993140997047
20
-3.83380825362016
30
0
41
1
10
6.40247307428606
20
-3.9489341528155
30
0
41
1
10
6.41616560446633
20
-4.17661086278042
30
0
41
1
10
6.42670116598828
20
-4.28916068407753
30
0
41
1
10
6.45470407445018
20
-4.51169212517561
30
0
41
1
10
6.47226481108902
20
-4.62207979508437
30
0
41
1
10
6.53384452207001
20
-4.94483962034872
30
0
41
1
10
6.58671091195151
20
-5.14968744007615
30
0
41
1
10
6.67955874981141
20
-5.44237712492261
30
0
41
1
10
6.71277553329918
20
-5.53749991535145
30
0
41
1
10
6.7831337910786
20
-5.7229447766577
30
0
41
1
10
6.8203177005085
20
-5.81330715839434
30
0
41
1
10
6.93508758907146
20
-6.07351767667515
30
0
41
1
10
7.01635820008369
20
-6.23397491399126
30
0
41
1
10
7.10017131892408
20
-6.38342355703409
30
0
0
SPLINE
5
1C2
100
AcDbEntity
8
1
62
256
6
ByLayer
370
-1
48
1
60
0
100
AcDbSpline
70
4
71
3
72
28
73
24
40
0
40
0
40
0
40
0
40
0.0624999999999984
40
0.0624999999999984
40
0.124999999999997
40
0.124999999999997
40
0.249999999999997
40
0.249999999999997
40
0.374999999999998
40
0.374999999999998
40
0.499999999999998
40
0.499999999999998
40
0.562499999999998
40
0.562499999999998
40
0.624999999999999
40
0.624999999999999
40
0.749999999999999
40
0.749999999999999
40
0.874999999999999
40
0.874999999999999
40
0.9375
40
0.9375
40
1
40
1
40
1
40
1
41
1
10
47.7705940103224
20
1.64119602804055
30
0
41
1
10
47.8133762904386
20
1.65350865309671
30
0
41
1
10
47.8544091586117
20
1.66625372185047
30
0
41
1
10
47.9328825504749
20
1.69263186446034
30
0
41
1
10
47.9703684303493
20
1.70629651919279
30
0
41
1
10
48.0750181988213
20
1.74777042352244
30
0
41
1
10
48.1353002555583
20
1.77632290384327
30
0
41
1
10
48.2370213292472
20
1.83522229920931
30
0
41
1
10
48.2785466547546
20
1.86582619127159
30
0
41
1
10
48.3389365785383
20
1.9264304021909
30
0
41
1
10
48.3583947296552
20
1.95667695139932
30
0
41
1
10
48.3712760886789
20
2.0019624025897
30
0
41
1
10
48.3728106759539
20
2.01711502980598
30
0
41
1
10
48.3702709784599
20
2.04681416088872
30
0
41
1
10
48.3662374898336
20
2.06140839244418
30
0
41
1
10
48.3460412217803
20
2.10444311214704
30
0
41
1
10
48.3218535060283
20
2.13214217265991
30
0
41
1
10
48.2513508804467
20
2.18549595183686
30
0
41
1
10
48.2058630727938
20
2.21046526252951
30
0
41
1
10
48.1235851853264
20
2.24511457947236
30
0
41
1
10
48.0937742561792
20
2.25621507346278
30
0
41
1
10
48.0293272931804
20
2.27750711164899
30
0
41
1
10
47.9944905067592
20
2.28774757810501
30
0
41
1
10
47.9577428718614
20
2.29736848501261
30
0
0
SPLINE
5
1C3
100
AcDbEntity
8
1
62
256
6
ByLayer
370
-1
48
1
60
0
100
AcDbSpline
70
4
71
3
72
24
73
20
40
0
40
0
40
0
40
0
40
0.125000000000002
40
0.125000000000002
40
0.187500000000002
40
0.187500000000002
40
0.250000000000002
40
0.250000000000002
40
0.312500000000002
40
0.312500000000002
40
0.375000000000002
40
0.375000000000002
40
0.500000000000002
40
0.500000000000002
40
0.625000000000001
40
0.625000000000001
40
0.750000000000001
40
0.750000000000001
40
1
40
1
40
1
40
1
41
1
10
7.75647452966564
20
-9.77273770318101
30
0
41
1
10
7.66281996393025
20
-9.7559364233424
30
0
41
1
10
7.58553425590162
20
-9.70196255089326
30
0
41
1
10
7.48632858385147
20
-9.58154140113547
30
0
41
1
10
7.45611807940236
20
-9.53454532933861
30
0
41
1
10
7.40196757436456
20
-9.43210730985771
30
0
41
1
10
7.37774765211358
20
-9.3763576566312
30
0
41
1
10
7.33380576084315
20
-9.25749872375536
30
0
41
1
10
7.31409055521266
20
-9.19437930751434
30
0
41
1
10
7.27833220612033
20
-9.06189030882564
30
0
41
1
10
7.26224886544617
20
-8.99226655307845
30
0
41
1
10
7.21905391436189
20
-8.77765550520837
30
0
41
1
10
7.196774003141
20
-8.62676374612235
30
0
41
1
10
7.16078530055896
20
-8.31329465098361
30
0
41
1
10
7.14712569859842
20
-8.15066650011795
30
0
41
1
10
7.12582139709596
20
-7.81573764822036
30
0
41
1
10
7.11818522321079
20
-7.64307530713563
30
0
41
1
10
7.10172912243075
20
-7.11468008105464
30
0
41
1
10
7.09923501578609
20
-6.75278073848068
30
0
41
1
10
7.10017131892727
20
-6.38342355703963
30
0
0
SPLINE
5
1C4
100
AcDbEntity
8
1
62
256
6
ByLayer
370
-1
48
1
60
0
100
AcDbSpline
70
4
71
3
72
8
73
4
40
0
40
0
40
0
40
0
40
1
40
1
40
1
40
1
41
1
10
47.2561495298375
20
-8.4417429608641
30
0
41
1
10
47.4455022227505
20
-8.44402130358546
30
0
41
1
10
47.6311713979556
20
-8.44633328808752
30
0
41
1
10
47.8131518944201
20
-8.44795084245533
30
0
0
SPLINE
5
1C5
100
AcDbEntity
8
1
62
256
6
ByLayer
370
-1
48
1
60
0
100
AcDbSpline
70
4
71
3
72
8
73
4
40
0
40
0
40
0
40
0
40
1
40
1
40
1
40
1
41
1
10
36.7929354376297
20
5.5678604340622
30
0
41
1
10
36.4814606103251
20
5.67696110983968
30
0
41
1
10
36.168361415789
20
5.79174624615396
30
0
41
1
10
35.8539701624739
20
5.91105293215105
30
0
0
SPLINE
5
1C6
100
AcDbEntity
8
1
62
256
6
ByLayer
370
-1
48
1
60
0
100
AcDbSpline
70
4
71
3
72
12
73
8
40
0
40
0
40
0
40
0
40
0.500000000000004
40
0.500000000000004
40
0.750000000000002
40
0.750000000000002
40
1
40
1
40
1
40
1
41
1
10
44.1589467626662
20
4.92999999999995
30
0
41
1
10
44.1110627774173
20
5.02721008463888
30
0
41
1
10
44.0675651537913
20
5.12708939236487
30
0
41
1
10
44.0181506360246
20
5.28533364503471
30
0
41
1
10
44.0043594229349
20
5.33994142985779
30
0
41
1
10
43.9854241800263
20
5.4502531227744
30
0
41
1
10
43.9802155518527
20
5.50611011840252
30
0
41
1
10
43.9802155518527
20
5.56281810128655
30
0
0
SPLINE
5
1C7
100
AcDbEntity
8
1
62
256
6
ByLayer
370
-1
48
1
60
0
100
AcDbSpline
70
4
71
3
72
20
73
16
40
0
40
0
40
0
40
0
40
0.0805481380890848
40
0.0805481380890848
40
0.233790115074237
40
0.233790115074237
40
0.38703209205939
40
0.38703209205939
40
0.540274069044542
40
0.540274069044542
40
0.693516046029695
40
0.693516046029695
40
0.846758023014847
40
0.846758023014847
40
1
40
1
40
1
40
1
41
1
10
15.8602228262101
20
-0.106269179757931
30
0
41
1
10
15.639041976027
20
-0.137571057609591
30
0
41
1
10
15.4201067423874
20
-0.189526626714638
30
0
41
1
10
14.7991840808746
20
-0.399065512045411
30
0
41
1
10
14.4104250176082
20
-0.609622113720235
30
0
41
1
10
13.7041635222742
20
-1.15831657826422
30
0
41
1
10
13.386757492885
20
-1.49637954590494
30
0
41
1
10
12.8517951583603
20
-2.2696883597346
30
0
41
1
10
12.6343118740568
20
-2.70482865147747
30
0
41
1
10
12.3188006508075
20
-3.63314630164996
30
0
41
1
10
12.2208157782433
20
-4.12619694736978
30
0
41
1
10
12.153154826009
20
-5.12596557826703
30
0
41
1
10
12.183487981866
20
-5.63254709787978
30
0
41
1
10
12.3697674617841
20
-6.61377755234594
30
0
41
1
10
12.5256883592279
20
-7.08829255204279
30
0
41
1
10
12.7374148088813
20
-7.52547842295215
30
0
0
SPLINE
5
1C8
100
AcDbEntity
8
1
62
256
6
ByLayer
370
-1
48
1
60
0
100
AcDbSpline
70
4
71
3
72
8
73
4
40
0
40
0
40
0
40
0
40
1
40
1
40
1
40
1
41
1
10
16
20
-0.186634161131479
30
0
41
1
10
16.6041285471496
20
-0.496286866460764
30
0
41
1
10
17.1709258814599
20
-0.863551404961612
30
0
41
1
10
17.7132330011237
20
-1.26658467427902
30
0
0
SPLINE
5
1C9
100
AcDbEntity
8
1
62
256
6
ByLayer
370
-1
48
1
60
0
100
AcDbSpline
70
4
71
3
72
22
73
18
40
0
40
0
40
0
40
0
40
0.125
40
0.125
40
0.25
40
0.25
40
0.375
40
0.375
40
0.5
40
0.5
40
0.625
40
0.625
40
0.75
40
0.75
40
0.875
40
0.875
40
1
40
1
40
1
40
1
41
1
10
48.8496135150971
20
2.45698955559331
30
0
41
1
10
48.8547465809761
20
2.45698955559331
30
0
41
1
10
48.8495136032106
20
2.4630986373345
30
0
41
1
10
48.8239190984368
20
2.48577576343536
30
0
41
1
10
48.8044260740785
20
2.50177218146069
30
0
41
1
10
48.7584791232914
20
2.54172268972747
30
0
41
1
10
48.7321100852711
20
2.56561847515283
30
0
41
1
10
48.6775493954798
20
2.61958242132962
30
0
41
1
10
48.6490856094791
20
2.64984484660755
30
0
41
1
10
48.5914663283335
20
2.71762059588147
30
0
41
1
10
48.5624617992841
20
2.75501291821953
30
0
41
1
10
48.5067660157524
20
2.83532984335329
30
0
41
1
10
48.4798250411925
20
2.87851296893305
30
0
41
1
10
48.4285689859367
20
2.97204277956706
30
0
41
1
10
48.4043496823113
20
3.02242410619732
30
0
41
1
10
48.3615643978616
20
3.12626619984962
30
0
41
1
10
48.3426619314285
20
3.18028278636464
30
0
41
1
10
48.3264936283399
20
3.23669552505527
30
0
0
SPLINE
5
1CA
100
AcDbEntity
8
1
62
256
6
ByLayer
370
-1
48
1
60
0
100
AcDbSpline
70
4
71
3
72
8
73
4
40
0
40
0
40
0
40
0
40
1
40
1
40
1
40
1
41
1
10
45.9061247310595
20
2.72474489147848
30
0
41
1
10
46.2200922497549
20
2.61666308000889
30
0
41
1
10
46.5481229180074
20
2.53531152237324
30
0
41
1
10
46.8957264600573
20
2.48396583698022
30
0
0
SPLINE
5
1CB
100
AcDbEntity
8
1
62
256
6
ByLayer
370
-1
48
1
60
0
100
AcDbSpline
70
4
71
3
72
68
73
64
40
0
40
0
40
0
40
0
40
0.0123751412481162
40
0.0346845038066443
40
0.0569938663651725
40
0.0793032289237007
40
0.101612591482229
40
0.123921954040757
40
0.146231316599285
40
0.157385997878549
40
0.168540679157813
40
0.190850041716341
40
0.202004722995605
40
0.213159404274869
40
0.235468766833397
40
0.257778129391926
40
0.280087491950454
40
0.291242173229718
40
0.302396854508982
40
0.307974195148614
40
0.313551535788246
40
0.32470621706751
40
0.347015579626038
40
0.369324942184566
40
0.391634304743094
40
0.413943667301622
40
0.43625302986015
40
0.458562392418678
40
0.480871754977206
40
0.503181117535734
40
0.525490480094263
40
0.547799842652791
40
0.558954523932055
40
0.570109205211319
40
0.581263886490583
40
0.592418567769847
40
0.614727930328375
40
0.637037292886903
40
0.648191974166167
40
0.659346655445431
40
0.681656018003959
40
0.692810699283224
40
0.703965380562487
40
0.726274743121015
40
0.748584105679543
40
0.770893468238072
40
0.776470808877704
40
0.782048149517336
40
0.787625490156968
40
0.7932028307966
40
0.815512193355128
40
0.837821555913656
40
0.860130918472184
40
0.871285599751448
40
0.882440281030712
40
0.90474964358924
40
0.915904324868504
40
0.927059006147769
40
0.949368368706296
40
0.960523049985561
40
0.971677731264825
40
0.993987093823353
40
1
40
1
40
1
40
1
41
1
10
11.2049702648327
20
0.900333762396144
30
0
41
1
10
11.1660053429212
20
0.892836273662908
30
0
41
1
10
11.0567439800254
20
0.870064975561149
30
0
41
1
10
10.8772515700876
20
0.824538425454136
30
0
41
1
10
10.667345873294
20
0.758976199640415
30
0
41
1
10
10.4591151970337
20
0.681462629223347
30
0
41
1
10
10.2533417883828
20
0.592328442040639
30
0
41
1
10
10.0508078944171
20
0.491904365930083
30
0
41
1
10
9.88533184952254
20
0.399222524467774
30
0
41
1
10
9.75529389635653
20
0.319927862117709
30
0
41
1
10
9.6269229246507
20
0.237305605808757
30
0
41
1
10
9.50121001457555
20
0.149849756803405
30
0
41
1
10
9.3784703450122
20
0.0578759115854268
30
0
41
1
10
9.25779902475401
20
-0.0369873473613325
30
0
41
1
10
9.11099963368582
20
-0.160754227262004
30
0
41
1
10
8.94182111299511
20
-0.316839470612734
30
0
41
1
10
8.80693924359366
20
-0.452596558841378
30
0
41
1
10
8.70286365118594
20
-0.564242998212933
30
0
41
1
10
8.63948687714469
20
-0.635146859411492
30
0
41
1
10
8.58983254758968
20
-0.692459560082824
30
0
41
1
10
8.54071884180959
20
-0.750345402855118
30
0
41
1
10
8.45577572457648
20
-0.853622803239887
30
0
41
1
10
8.33743449585472
20
-1.00686268752594
30
0
41
1
10
8.20091407323613
20
-1.1994787798393
30
0
41
1
10
8.0705620237344
20
-1.40043014908611
30
0
41
1
10
7.94702174153721
20
-1.60916380244515
30
0
41
1
10
7.83093662083215
20
-1.82512674709523
30
0
41
1
10
7.72287546698371
20
-2.04762288272855
30
0
41
1
10
7.6234070853564
20
-2.27595610903734
30
0
41
1
10
7.53299235039091
20
-2.50931254340207
30
0
41
1
10
7.45209213652788
20
-2.74687830320323
30
0
41
1
10
7.39287542491107
20
-2.94761221267643
30
0
41
1
10
7.35058495498924
20
-3.10940960910347
30
0
41
1
10
7.32143003228759
20
-3.23124641407432
30
0
41
1
10
7.29485951937951
20
-3.35345559992209
30
0
41
1
10
7.262906688632
20
-3.51674251985676
30
0
41
1
10
7.22953407495089
20
-3.72120023809902
30
0
41
1
10
7.204929258503
20
-3.92535605445039
30
0
41
1
10
7.19051202222195
20
-4.08803917060331
30
0
41
1
10
7.1795819994631
20
-4.25015032383502
30
0
41
1
10
7.17384700039364
20
-4.41118712523127
30
0
41
1
10
7.17323543182567
20
-4.57071675988473
30
0
41
1
10
7.17599249461611
20
-4.72911273021268
30
0
41
1
10
7.18566690257128
20
-4.92474041033026
30
0
41
1
10
7.20695918540929
20
-5.15493265502141
30
0
41
1
10
7.22989409432961
20
-5.32366947152022
30
0
41
1
10
7.24796284553261
20
-5.43432984691458
30
0
41
1
10
7.25754585797046
20
-5.48929318068764
30
0
41
1
10
7.26767038169646
20
-5.54388897373337
30
0
41
1
10
7.28907157427332
20
-5.65268826799149
30
0
41
1
10
7.32575311691423
20
-5.81570157608311
30
0
41
1
10
7.38450093155728
20
-6.0311377084503
30
0
41
1
10
7.44172460319089
20
-6.20840272859095
30
0
41
1
10
7.49250458625409
20
-6.34845410904924
30
0
41
1
10
7.54660565909839
20
-6.487185545285
30
0
41
1
10
7.60566895552978
20
-6.62371778450728
30
0
41
1
10
7.66965565337901
20
-6.75761226535693
30
0
41
1
10
7.73688620888154
20
-6.88960888082738
30
0
41
1
10
7.80892493592611
20
-7.01854965853298
30
0
41
1
10
7.88565660463686
20
-7.1440165190815
30
0
41
1
10
7.96545336033009
20
-7.26704098278344
30
0
41
1
10
8.0400379738594
20
-7.37247911690872
30
0
41
1
10
8.09586419287194
20
-7.44585055657015
30
0
41
1
10
8.1078189895903
20
-7.46132296285256
30
0
0
SPLINE
5
1CC
100
AcDbEntity
8
1
62
256
6
ByLayer
370
-1
48
1
60
0
100
AcDbSpline
70
4
71
3
72
14
73
10
40
0
40
0
40
0
40
0
40
0.422030062717399
40
0.422030062717399
40
0.633045094076096
40
0.633045094076096
40
0.844060125434793
40
0.844060125434793
40
1
40
1
40
1
40
1
41
1
10
50.9931313275988
20
5.46013556761517
30
0
41
1
10
51.0085842053444
20
5.31853209568709
30
0
41
1
10
51.0477109477616
20
5.17752654210631
30
0
41
1
10
51.1487090235515
20
4.96932899058655
30
0
41
1
10
51.1894350854009
20
4.90110022047452
30
0
41
1
10
51.2840766795101
20
4.77152012810248
30
0
41
1
10
51.3382111920359
20
4.70961274317611
30
0
41
1
10
51.4461859145907
20
4.6083685027472
30
0
41
1
10
51.4953574880037
20
4.56837053949855
30
0
41
1
10
51.547918927797
20
4.53175195205543
30
0
0
SPLINE
5
1CD
100
AcDbEntity
8
1
62
256
6
ByLayer
370
-1
48
1
60
0
100
AcDbSpline
70
4
71
3
72
8
73
4
40
0
40
0
40
0
40
0
40
1
40
1
40
1
40
1
41
1
10
50.9864761696034
20
5.63428147026644
30
0
41
1
10
50.9845808121362
20
5.57695434384465
30
0
41
1
10
50.9867338364335
20
5.51875940296421
30
0
41
1
10
50.9931313275988
20
5.4601355676152
30
0
0
SPLINE
5
1CE
100
AcDbEntity
8
1
62
256
6
ByLayer
370
-1
48
1
60
0
100
AcDbSpline
70
4
71
3
72
12
73
8
40
0
40
0
40
0
40
0
40
0.25
40
0.25
40
0.5
40
0.5
40
1
40
1
40
1
40
1
41
1
10
54.7608681154001
20
-4.5243366744142
30
0
41
1
10
54.7441884013493
20
-4.54167241594686
30
0
41
1
10
54.7249438439699
20
-4.55669628093668
30
0
41
1
10
54.6877274141913
20
-4.57933899105134
30
0
41
1
10
54.6701227737914
20
-4.58716504431817
30
0
41
1
10
54.6202914473132
20
-4.60504571863896
30
0
41
1
10
54.5917377478849
20
-4.6096257227413
30
0
41
1
10
54.5647601773691
20
-4.61190340262519
30
0
0
SPLINE
5
1CF
100
AcDbEntity
8
1
62
256
6
ByLayer
370
-1
48
1
60
0
100
AcDbSpline
70
4
71
3
72
14
73
10
40
0
40
0
40
0
40
0
40
0.25
40
0.25
40
0.5
40
0.5
40
0.75
40
0.75
40
1
40
1
40
1
40
1
41
1
10
54.4311710382908
20
-0.28753956821248
30
0
41
1
10
54.4160038914696
20
-0.245866307585942
30
0
41
1
10
54.4025480955538
20
-0.204969930168772
30
0
41
1
10
54.3805708989725
20
-0.132369245143025
30
0
41
1
10
54.3716478678564
20
-0.0996545934541189
30
0
41
1
10
54.3565500506003
20
-0.0403851029968791
30
0
41
1
10
54.3502219078145
20
-0.0132144016641291
30
0
41
1
10
54.339078849081
20
0.0377301646192052
30
0
41
1
10
54.3342927253844
20
0.0613919853560674
30
0
41
1
10
54.3299829206569
20
0.0839558288063529
30
0
0
SPLINE
5
1D0
100
AcDbEntity
8
1
62
256
6
ByLayer
370
-1
48
1
60
0
100
AcDbSpline
70
4
71
3
72
12
73
8
40
0
40
0
40
0
40
0
40
0.125031204135317
40
0.125031204135317
40
0.562515602067659
40
0.562515602067659
40
1
40
1
40
1
40
1
41
1
10
54.0319387603531
20
0.719943730120434
30
0
41
1
10
54.0370217928669
20
0.717806485317595
30
0
41
1
10
54.0421608068327
20
0.715537391805043
30
0
41
1
10
54.0655396803517
20
0.70468692368334
30
0
41
1
10
54.0842713954786
20
0.694563776721054
30
0
41
1
10
54.1236010482618
20
0.668361672709494
30
0
41
1
10
54.1438218545509
20
0.652421605771963
30
0
41
1
10
54.1632702490347
20
0.633172722078911
30
0
0
SPLINE
5
1D1
100
AcDbEntity
8
1
62
256
6
ByLayer
370
-1
48
1
60
0
100
AcDbSpline
70
4
71
3
72
10
73
6
40
0
40
0
40
0
40
0
40
0.5
40
0.5
40
1
40
1
40
1
40
1
41
1
10
54.457422757584
20
-0.566587504786497
30
0
41
1
10
54.4561273917441
20
-0.54191655442105
30
0
41
1
10
54.4553613262588
20
-0.518285277627086
30
0
41
1
10
54.4546912551613
20
-0.47271601757194
30
0
41
1
10
54.4547970610246
20
-0.450827337103817
30
0
41
1
10
54.4552129450806
20
-0.430490372466068
30
0
0
SPLINE
5
1D2
100
AcDbEntity
8
1
62
256
6
ByLayer
370
-1
48
1
60
0
100
AcDbSpline
70
4
71
3
72
16
73
12
40
0
40
0
40
0
40
0
40
0.249999999999999
40
0.249999999999999
40
0.499999999999999
40
0.499999999999999
40
0.749999999999998
40
0.749999999999998
40
0.874999999999999
40
0.874999999999999
40
1
40
1
40
1
40
1
41
1
10
54.8543735090025
20
-4.11210875478096
30
0
41
1
10
54.8593772587967
20
-4.14007459144847
30
0
41
1
10
54.8629918672148
20
-4.16901149282089
30
0
41
1
10
54.8661434239518
20
-4.22961657200776
30
0
41
1
10
54.865753343965
20
-4.26124076819906
30
0
41
1
10
54.8579338697389
20
-4.3290168951244
30
0
41
1
10
54.8506616671571
20
-4.3651386012329
30
0
41
1
10
54.8287299837152
20
-4.42300948358897
30
0
41
1
10
54.8196340091616
20
-4.44275039852604
30
0
41
1
10
54.7951345424825
20
-4.48375502735522
30
0
41
1
10
54.7798431606282
20
-4.50461532435725
30
0
41
1
10
54.7608681154001
20
-4.5243366744142
30
0
0
SPLINE
5
1D3
100
AcDbEntity
8
1
62
256
6
ByLayer
370
-1
48
1
60
0
100
AcDbSpline
70
4
71
3
72
12
73
8
40
0
40
0
40
0
40
0
40
0.250000000000004
40
0.250000000000004
40
0.500000000000007
40
0.500000000000007
40
1
40
1
40
1
40
1
41
1
10
54.732404472027
20
-2.67182970649805
30
0
41
1
10
54.7465384352053
20
-2.70064944374832
30
0
41
1
10
54.7588891277684
20
-2.73032855510738
30
0
41
1
10
54.7799099896265
20
-2.79145822866809
30
0
41
1
10
54.7885983174828
20
-2.82311802062517
30
0
41
1
10
54.8081994699593
20
-2.91790703010511
30
0
41
1
10
54.8130988621071
20
-2.98183853215178
30
0
41
1
10
54.8097600627044
20
-3.04574413946406
30
0
0
SPLINE
5
1D4
100
AcDbEntity
8
1
62
256
6
ByLayer
370
-1
48
1
60
0
100
AcDbSpline
70
4
71
3
72
12
73
8
40
0
40
0
40
0
40
0
40
0.249999999999995
40
0.249999999999995
40
0.49999999999999
40
0.49999999999999
40
1
40
1
40
1
40
1
41
1
10
54.1632702490347
20
0.633172722078911
30
0
41
1
10
54.1803660532784
20
0.616252294647154
30
0
41
1
10
54.1956532344048
20
0.597278434708755
30
0
41
1
10
54.2195009085429
20
0.561291904377839
30
0
41
1
10
54.2282099890555
20
0.544586883235866
30
0
41
1
10
54.2490536771958
20
0.497772638365973
30
0
41
1
10
54.2559463328968
20
0.471571992749375
30
0
41
1
10
54.2606314137619
20
0.447043403201576
30
0
0
SPLINE
5
1D5
100
AcDbEntity
8
1
62
256
6
ByLayer
370
-1
48
1
60
0
100
AcDbSpline
70
4
71
3
72
8
73
4
40
0
40
0
40
0
40
0
40
1
40
1
40
1
40
1
41
1
10
54.8083925983469
20
-3.07712094016702
30
0
41
1
10
54.8087599223751
20
-3.0666217759163
30
0
41
1
10
54.8092157296039
20
-3.05616283588256
30
0
41
1
10
54.8097600627045
20
-3.04574413946409
30
0
0
SPLINE
5
1D6
100
AcDbEntity
8
1
62
256
6
ByLayer
370
-1
48
1
60
0
100
AcDbSpline
70
4
71
3
72
8
73
4
40
0
40
0
40
0
40
0
40
1
40
1
40
1
40
1
41
1
10
54.732404472027
20
-2.67182970649805
30
0
41
1
10
54.7290650926409
20
-2.6650205733998
30
0
41
1
10
54.7258120871138
20
-2.65818332029579
30
0
41
1
10
54.7226800638671
20
-2.65139440478129
30
0
0
SPLINE
5
1D7
100
AcDbEntity
8
1
62
256
6
ByLayer
370
-1
48
1
60
0
100
AcDbSpline
70
4
71
3
72
16
73
12
40
0
40
0
40
0
40
0
40
0.25
40
0.25
40
0.500000000000001
40
0.500000000000001
40
0.750000000000001
40
0.750000000000001
40
0.875
40
0.875
40
1
40
1
40
1
40
1
41
1
10
54.854373509002
20
-4.1121087547844
30
0
41
1
10
54.8472667077287
20
-4.07238901422727
30
0
41
1
10
54.8402932644686
20
-4.03142121791464
30
0
41
1
10
54.8268045127745
20
-3.94519808536356
30
0
41
1
10
54.8202608557822
20
-3.89992340502161
30
0
41
1
10
54.8081720627507
20
-3.80138803341814
30
0
41
1
10
54.8025349534313
20
-3.74815311670514
30
0
41
1
10
54.7964025554554
20
-3.65628163619658
30
0
41
1
10
54.7947334082486
20
-3.62301133125715
30
0
41
1
10
54.7930837578336
20
-3.55127928299649
30
0
41
1
10
54.7931703919203
20
-3.51221484457628
30
0
41
1
10
54.7945146107957
20
-3.47379325033168
30
0
0
SPLINE
5
1D8
100
AcDbEntity
8
1
62
256
6
ByLayer
370
-1
48
1
60
0
100
AcDbSpline
70
4
71
3
72
8
73
4
40
0
40
0
40
0
40
0
40
1
40
1
40
1
40
1
41
1
10
54.4311710382884
20
-0.287539568212338
30
0
41
1
10
54.4492382357045
20
-0.337181009387479
30
0
41
1
10
54.4561083364013
20
-0.386705232444797
30
0
41
1
10
54.4552129450807
20
-0.430490372466579
30
0
0
SPLINE
5
1D9
100
AcDbEntity
8
1
62
256
6
ByLayer
370
-1
48
1
60
0
100
AcDbSpline
70
4
71
3
72
14
73
10
40
0
40
0
40
0
40
0
40
0.0050966481374705
40
0.0240065217780211
40
0.0435263913424607
40
0.0630462609069003
40
0.375364173937933
40
0.687682086968967
40
1
40
1
40
1
40
1
41
1
10
48.7397324321932
20
7.86661302355085
30
0
41
1
10
48.7398661749568
20
7.86276938789629
30
0
41
1
10
48.7404961067602
20
7.84466488126625
30
0
41
1
10
48.7416380321886
20
7.81183950500071
30
0
41
1
10
48.7431583543276
20
7.76813687344938
30
0
41
1
10
48.7523763075072
20
7.50316091793815
30
0
41
1
10
48.7692758883366
20
7.01737166616758
30
0
41
1
10
48.7938570968156
20
6.31076911813764
30
0
41
1
10
48.810244569135
20
5.83970075278435
30
0
41
1
10
48.8184383052946
20
5.60416657010771
30
0
0
SPLINE
5
1DA
100
AcDbEntity
8
1
62
256
6
ByLayer
370
-1
48
1
60
0
100
AcDbSpline
70
4
71
3
72
48
73
44
40
0
40
0
40
0
40
0
40
0.015625
40
0.0234375
40
0.02734375
40
0.029296875
40
0.0302734375
40
0.03125
40
0.03173828125
40
0.046875
40
0.0625
40
0.125
40
0.1875
40
0.25
40
0.3125
40
0.375
40
0.390625
40
0.40625
40
0.4140625
40
0.421875
40
0.4375
40
0.5
40
0.5625
40
0.59375
40
0.6015625
40
0.60546875
40
0.609375
40
0.6171875
40
0.625
40
0.65625
40
0.671875
40
0.6796875
40
0.6875
40
0.71875
40
0.75
40
0.78125
40
0.7890625
40
0.79296875
40
0.796875
40
0.8046875
40
0.8125
40
0.875
40
1
40
1
40
1
40
1
41
1
10
51.8025109248352
20
3.58556846916096
30
0
41
1
10
51.802667791212
20
3.58105924490445
30
0
41
1
10
51.8029889712511
20
3.57417176788363
30
0
41
1
10
51.8034884575177
20
3.56659888876317
30
0
41
1
10
51.8037634733961
20
3.56300168864524
30
0
41
1
10
51.803905976456
20
3.56126537710634
30
0
41
1
10
51.8039895179218
20
3.5602811186931
30
0
41
1
10
51.8040421127387
20
3.55966557928204
30
0
41
1
10
51.8043994271468
20
3.55546844487935
30
0
41
1
10
51.805072028971
20
3.54756830359878
30
0
41
1
10
51.8070793250405
20
3.52399131946461
30
0
41
1
10
51.8101060332498
20
3.48844068370207
30
0
41
1
10
51.8141416441956
20
3.44103983601866
30
0
41
1
10
51.8181772551415
20
3.39363898833528
30
0
41
1
10
51.8222128660872
20
3.34623814065191
30
0
41
1
10
51.8252390117224
20
3.31069721437535
30
0
41
1
10
51.8272579423436
20
3.28697737156165
30
0
41
1
10
51.8280986008617
20
3.27710381320861
30
0
41
1
10
51.8287693274387
20
3.26923603688141
30
0
41
1
10
51.8294280346307
20
3.26130997570115
30
0
41
1
10
51.8312079839644
20
3.23914434066086
30
0
41
1
10
51.8339197626623
20
3.20106118239229
30
0
41
1
10
51.8364861605862
20
3.1566385830165
30
0
41
1
10
51.8379022559773
20
3.12738503578865
30
0
41
1
10
51.8384563200584
20
3.11497205588566
30
0
41
1
10
51.8386517056142
20
3.1104804098558
30
0
41
1
10
51.8388446563895
20
3.10595932861872
30
0
41
1
10
51.8390855065209
20
3.10027201813145
30
0
41
1
10
51.8396637062459
20
3.08664040999062
30
0
41
1
10
51.8403384360707
20
3.07074014956805
30
0
41
1
10
51.8410126696892
20
3.05482992607057
30
0
41
1
10
51.8413987670085
20
3.04575485354479
30
0
41
1
10
51.8419565285572
20
3.03213291726334
30
0
41
1
10
51.8427210406846
20
3.01159481063263
30
0
41
1
10
51.8435782060793
20
2.98418469375039
30
0
41
1
10
51.8440932109441
20
2.9637597018891
30
0
41
1
10
51.8443591561758
20
2.95137497865139
30
0
41
1
10
51.8444497653849
20
2.94688980300248
30
0
41
1
10
51.8445374630945
20
2.94240284647657
30
0
41
1
10
51.8446462807775
20
2.93678639553926
30
0
41
1
10
51.8450822289446
20
2.91432712255201
30
0
41
1
10
51.8461720993622
20
2.85817894008392
30
0
41
1
10
51.8472183749631
20
2.80427668491453
30
0
41
1
10
51.8479158920304
20
2.76834184813495
30
0
0
SPLINE
5
1DB
100
AcDbEntity
8
1
62
256
6
ByLayer
370
-1
48
1
60
0
100
AcDbSpline
70
4
71
3
72
153
73
149
40
0
40
0
40
0
40
0
40
0.125
40
0.25
40
0.375
40
0.3828125
40
0.390625
40
0.398193359375
40
0.4019775390625
40
0.405643463134766
40
0.40576171875
40
0.406005859375
40
0.40625
40
0.4072265625
40
0.40771484375
40
0.408203125
40
0.4091796875
40
0.41015625
40
0.412109375
40
0.4140625
40
0.416015625
40
0.4169921875
40
0.41796875
40
0.4189453125
40
0.41943359375
40
0.419921875
40
0.42041015625
40
0.4208984375
40
0.421875
40
0.422119140625
40
0.42236328125
40
0.422477722167969
40
0.426025390625
40
0.4296875
40
0.4375
40
0.439453125
40
0.44140625
40
0.443359375
40
0.4443359375
40
0.4453125
40
0.445556640625
40
0.44580078125
40
0.446044921875
40
0.4462890625
40
0.4464111328125
40
0.44677734375
40
0.447265625
40
0.44921875
40
0.453125
40
0.4609375
40
0.46484375
40
0.46875
40
0.46923828125
40
0.4697265625
40
0.47021484375
40
0.4705810546875
40
0.470703125
40
0.4708251953125
40
0.47119140625
40
0.471435546875
40
0.4716796875
40
0.4718017578125
40
0.47216796875
40
0.472412109375
40
0.47265625
40
0.4727783203125
40
0.474609375
40
0.4755859375
40
0.4765625
40
0.48046875
40
0.482421875
40
0.484375
40
0.486328125
40
0.48828125
40
0.490234375
40
0.4921875
40
0.494140625
40
0.49609375
40
0.498046875
40
0.5
40
0.501953125
40
0.50390625
40
0.505859375
40
0.5078125
40
0.509765625
40
0.51171875
40
0.515625
40
0.51953125
40
0.5224609375
40
0.5234375
40
0.525390625
40
0.5263671875
40
0.527099609375
40
0.52734375
40
0.52783203125
40
0.528076171875
40
0.5283203125
40
0.5284423828125
40
0.52880859375
40
0.529052734375
40
0.529296875
40
0.5294189453125
40
0.52978515625
40
0.5302734375
40
0.53125
40
0.5390625
40
0.546875
40
0.55078125
40
0.5517578125
40
0.552734375
40
0.55322265625
40
0.5537109375
40
0.553955078125
40
0.55419921875
40
0.554443359375
40
0.5545654296875
40
0.5546875
40
0.556640625
40
0.55859375
40
0.5625
40
0.56640625
40
0.5703125
40
0.573974609375
40
0.5758056640625
40
0.57763671875
40
0.577880859375
40
0.578125
40
0.5791015625
40
0.57958984375
40
0.580078125
40
0.5810546875
40
0.58203125
40
0.5859375
40
0.587890625
40
0.58984375
40
0.5908203125
40
0.591796875
40
0.5927734375
40
0.59375
40
0.593994140625
40
0.59423828125
40
0.594380187988281
40
0.601806640625
40
0.609375
40
0.625
40
0.75
40
0.875
40
1
40
1
40
1
40
1
41
1
10
49.6155797511603
20
5.63270475256309
30
0
41
1
10
49.6095236443691
20
5.806791412846
30
0
41
1
10
49.5974114307866
20
6.15496473341184
30
0
41
1
10
49.5792431104128
20
6.67722471426063
30
0
41
1
10
49.5667523901559
20
7.03627845109415
30
0
41
1
10
49.5599392700158
20
7.23212594391245
30
0
41
1
10
49.5588155783259
20
7.26442717970713
30
0
41
1
10
49.5578870541402
20
7.29111820086379
30
0
41
1
10
49.5571594268075
20
7.31203431358151
30
0
41
1
10
49.5567927484666
20
7.32257471684082
30
0
41
1
10
49.5565975809627
20
7.32818493147883
30
0
41
1
10
49.5565681949464
20
7.32902965129648
30
0
41
1
10
49.556497224945
20
7.33106972934669
30
0
41
1
10
49.5564144266099
20
7.33344982040524
30
0
41
1
10
49.5563197999413
20
7.33616992447216
30
0
41
1
10
49.5562251732727
20
7.33889002853908
30
0
41
1
10
49.5561068899369
20
7.34229015862272
30
0
41
1
10
49.5559176365997
20
7.34773036675657
30
0
41
1
10
49.5556810699281
20
7.35453062692386
30
0
41
1
10
49.5553971899223
20
7.36269093912463
30
0
41
1
10
49.5551606232508
20
7.36949119929193
30
0
41
1
10
49.5549713699136
20
7.37493140742578
30
0
41
1
10
49.5548294299106
20
7.37901156352615
30
0
41
1
10
49.5547111465749
20
7.38241169360981
30
0
41
1
10
49.5546165199063
20
7.38513179767673
30
0
41
1
10
49.5545455499048
20
7.38717187572692
30
0
41
1
10
49.5544745799033
20
7.38921195377711
30
0
41
1
10
49.5543799532347
20
7.39193205784403
30
0
41
1
10
49.5542971548997
20
7.3943121489026
30
0
41
1
10
49.5542261848982
20
7.39635222695279
30
0
41
1
10
49.5541969836997
20
7.39719163406718
30
0
41
1
10
49.5540077303625
20
7.40263184220103
30
0
41
1
10
49.5536528803552
20
7.41283223245199
30
0
41
1
10
49.5529250682048
20
7.43375365787293
30
0
41
1
10
49.5522745098581
20
7.45245437333301
30
0
41
1
10
49.5517067498464
20
7.46877499773456
30
0
41
1
10
49.5514228560882
20
7.47693550818207
30
0
41
1
10
49.5511862550358
20
7.48373626396625
30
0
41
1
10
49.5509969535654
20
7.48917716596372
30
0
41
1
10
49.5508904624633
20
7.49223780343675
30
0
41
1
10
49.5508194640976
20
7.49427829037089
30
0
41
1
10
49.5507839640284
20
7.49529854661557
30
0
41
1
10
49.5507484630459
20
7.49631881602508
30
0
41
1
10
49.5507188781105
20
7.49716905182635
30
0
41
1
10
49.5506833754627
20
7.49818934524231
30
0
41
1
10
49.5506360372918
20
7.49954975530733
30
0
41
1
10
49.5504999332034
20
7.50346103294822
30
0
41
1
10
49.5501921730548
20
7.51230459267549
30
0
41
1
10
49.5495290162431
20
7.53135642296226
30
0
41
1
10
49.5487702425941
20
7.55314263108235
30
0
41
1
10
49.5480137556094
20
7.57489587582032
30
0
41
1
10
49.5476132425492
20
7.58643252849407
30
0
41
1
10
49.5473782857111
20
7.59320958212936
30
0
41
1
10
49.5473076560802
20
7.59524475357236
30
0
41
1
10
49.5472426118013
20
7.59711465853602
30
0
41
1
10
49.5471946376859
20
7.59848423605075
30
0
41
1
10
49.5471642868361
20
7.59934551287984
30
0
41
1
10
49.5471337311337
20
7.60020974275955
30
0
41
1
10
49.5470969863164
20
7.60124862518862
30
0
41
1
10
49.5470558134653
20
7.60244018600241
30
0
41
1
10
49.5470280629406
20
7.60327080323009
30
0
41
1
10
49.5469968756081
20
7.60424117490578
30
0
41
1
10
49.5469688999
20
7.60518131345592
30
0
41
1
10
49.5469426684825
20
7.60625560101778
30
0
41
1
10
49.5469282493377
20
7.60701827807935
30
0
41
1
10
49.5468897704144
20
7.60977346818981
30
0
41
1
10
49.5469341372776
20
7.61351351423946
30
0
41
1
10
49.5471738172359
20
7.61842683710529
30
0
41
1
10
49.5477440935607
20
7.62609981551859
30
0
41
1
10
49.5489982243067
20
7.63517329755095
30
0
41
1
10
49.5512950697939
20
7.64560235247995
30
0
41
1
10
49.5534634916593
20
7.65342694779997
30
0
41
1
10
49.5560917124214
20
7.66122747077765
30
0
41
1
10
49.5591793037029
20
7.66895923490051
30
0
41
1
10
49.5627258371258
20
7.67657755365613
30
0
41
1
10
49.5667243698103
20
7.68404292687549
30
0
41
1
10
49.5711679588766
20
7.69131585438956
30
0
41
1
10
49.5760400255932
20
7.69835768599893
30
0
41
1
10
49.5813239912287
20
7.70512977150412
30
0
41
1
10
49.5869946506364
20
7.71159779333757
30
0
41
1
10
49.5930267986693
20
7.71772743393169
30
0
41
1
10
49.5993880898486
20
7.72349105962056
30
0
41
1
10
49.6060461786952
20
7.72886103673838
30
0
41
1
10
49.612963812351
20
7.73381806766326
30
0
41
1
10
49.6201037379577
20
7.73834285477332
30
0
41
1
10
49.6298683351093
20
7.74378663541236
30
0
41
1
10
49.6424359629568
20
7.74946221259427
30
0
41
1
10
49.656465673259
20
7.75402325782926
30
0
41
1
10
49.6666705539844
20
7.75632668706908
30
0
41
1
10
49.6742833086114
20
7.75763805186853
30
0
41
1
10
49.6793311038193
20
7.75830723040266
30
0
41
1
10
49.6839935378276
20
7.75874436241318
30
0
41
1
10
49.6864515535535
20
7.75891863407875
30
0
41
1
10
49.6882805909388
20
7.75902421105943
30
0
41
1
10
49.6894923435715
20
7.75908204920609
30
0
41
1
10
49.6907354295022
20
7.75913324504083
30
0
41
1
10
49.6915335260251
20
7.75916370484822
30
0
41
1
10
49.6925175939352
20
7.75919997982328
30
0
41
1
10
49.6935315212606
20
7.7592359316142
30
0
41
1
10
49.6947348959139
20
7.75927760475989
30
0
41
1
10
49.6955973458551
20
7.75930729311511
30
0
41
1
10
49.6966269776977
20
7.75934291759307
30
0
41
1
10
49.697991366535
20
7.75939041443124
30
0
41
1
10
49.7005315333653
20
7.75947946573422
30
0
41
1
10
49.7133568881287
20
7.75993064592825
30
0
41
1
10
49.7363700816783
20
7.76073803925982
30
0
41
1
10
49.7634992894716
20
7.76168792977026
30
0
41
1
10
49.781122980066
20
7.76230535559927
30
0
41
1
10
49.7892555063301
20
7.76259032093341
30
0
41
1
10
49.7926438320988
20
7.76270905642312
30
0
41
1
10
49.7953543689822
20
7.76280404477882
30
0
41
1
10
49.7970484055572
20
7.76286341248684
30
0
41
1
10
49.7984036069776
20
7.76291090664515
30
0
41
1
10
49.7994199945097
20
7.76294652725991
30
0
41
1
10
49.8002669731644
20
7.76297621110237
30
0
41
1
10
49.8009445497082
20
7.76299995817448
30
0
41
1
10
49.8039936253059
20
7.7631068199934
30
0
41
1
10
49.8095833080121
20
7.76330273324379
30
0
41
1
10
49.8204231128934
20
7.76368268598321
30
0
41
1
10
49.833971879142
20
7.76415762661878
30
0
41
1
10
49.8502303986404
20
7.76472755538148
30
0
41
1
10
49.8661501989826
20
7.76528561062827
30
0
41
1
10
49.8791908864968
20
7.76574274099002
30
0
41
1
10
49.8893524611833
20
7.76609894646668
30
0
41
1
10
49.8947719676827
20
7.76628892272092
30
0
41
1
10
49.8979897996668
20
7.76640172112187
30
0
41
1
10
49.9000221146041
20
7.76647296221722
30
0
41
1
10
49.9023931486976
20
7.76655607682844
30
0
41
1
10
49.9051029019473
20
7.76665106495554
30
0
41
1
10
49.9078126551971
20
7.76674605308267
30
0
41
1
10
49.9111998467592
20
7.76686478824155
30
0
41
1
10
49.9193291065084
20
7.76714975262291
30
0
41
1
10
49.9288132428824
20
7.7674822110678
30
0
41
1
10
49.9396522558813
20
7.76786216357627
30
0
41
1
10
49.9464266390056
20
7.76809963389405
30
0
41
1
10
49.951846145505
20
7.76828961014829
30
0
41
1
10
49.9559107753797
20
7.76843209233894
30
0
41
1
10
49.9599754052542
20
7.76857457452962
30
0
41
1
10
49.9630238776602
20
7.76868143617261
30
0
41
1
10
49.9650561925974
20
7.76875267726797
30
0
41
1
10
49.9659305114195
20
7.76878332578085
30
0
41
1
10
49.9767695244183
20
7.76916327828931
30
0
41
1
10
49.9977701121037
20
7.76989943627444
30
0
41
1
10
50.0402518452773
20
7.77138859779538
30
0
41
1
10
50.2458543731001
20
7.7785958219402
30
0
41
1
10
50.6143808150627
20
7.79151420722778
30
0
41
1
10
51.1346534390096
20
7.80975192763376
30
0
41
1
10
51.4815018549743
20
7.82191040790443
30
0
41
1
10
51.6549260629567
20
7.82798964803973
30
0
0
SPLINE
5
1DC
100
AcDbEntity
8
1
62
256
6
ByLayer
370
-1
48
1
60
0
100
AcDbSpline
70
4
71
3
72
13
73
9
40
0
40
0
40
0
40
0
40
0.312317913031033
40
0.624635826062066
40
0.9369537390931
40
0.975993478221979
40
0.99490335186253
40
1
40
1
40
1
40
1
41
1
10
48.8184383052946
20
5.60416657010771
30
0
41
1
10
48.8266320414543
20
5.36863238743106
30
0
41
1
10
48.8430195137736
20
4.89756402207777
30
0
41
1
10
48.8676007222527
20
4.19096147404784
30
0
41
1
10
48.885012411592
20
3.69045133585996
30
0
41
1
10
48.8947264698907
20
3.41121452163199
30
0
41
1
10
48.8963805038291
20
3.36366825894916
30
0
41
1
10
48.8970102073086
20
3.34556374431543
30
0
41
1
10
48.8971438885336
20
3.34172010650366
30
0
0
SPLINE
5
1DD
100
AcDbEntity
8
1
62
256
6
ByLayer
370
-1
48
1
60
0
100
AcDbSpline
70
4
71
3
72
79
73
75
40
0
40
0
40
0
40
0
40
0.0017245864916235
40
0.0039792263717509
40
0.0084885061320058
40
0.0129977858922607
40
0.0220163454127704
40
0.0310349049332802
40
0.0671091430153191
40
0.139257619179397
40
0.211406095343475
40
0.220424654863985
40
0.22493393462424
40
0.228315894444431
40
0.229443214384494
40
0.231697854264622
40
0.233952494144749
40
0.23733445396494
40
0.238461773905004
40
0.240716413785132
40
0.242971053665259
40
0.247480333425514
40
0.249734973305641
40
0.256498892946024
40
0.265517452466534
40
0.283554571507553
40
0.292573131028063
40
0.319628809589592
40
0.355703047671631
40
0.39177728575367
40
0.409814404794689
40
0.427851523835709
40
0.445888642876728
40
0.463925761917748
40
0.481962880958767
40
0.499999999999787
40
0.518037119040806
40
0.536074238081826
40
0.554111357122845
40
0.572148476163865
40
0.590185595204882
40
0.608222714245904
40
0.626259833286923
40
0.644296952327943
40
0.662334071368962
40
0.680371190409984
40
0.716445428492021
40
0.725463988012529
40
0.734482547533041
40
0.751392346633996
40
0.75251966657406
40
0.754774306454187
40
0.757028946334314
40
0.760410906154509
40
0.761538226094569
40
0.763792865974699
40
0.766047505854823
40
0.769429465675017
40
0.770556785615079
40
0.771684105555141
40
0.775066065375336
40
0.779575345135589
40
0.784084624895844
40
0.788593904656098
40
0.824668142738137
40
0.860742380820176
40
0.932890856984254
40
0.968965095066293
40
0.987002214107313
40
0.991511493867568
40
0.994893453687758
40
0.996020773627822
40
0.99827541350795
40
1
40
1
40
1
40
1
41
1
10
54.566575633802
20
8.32811775042703
30
0
41
1
10
54.5665282383687
20
8.32845407700955
30
0
41
1
10
54.5664192843125
20
8.32922450673587
30
0
41
1
10
54.5661870583491
20
8.33084533981602
30
0
41
1
10
54.5658738009676
20
8.33296116572635
30
0
41
1
10
54.5653564226802
20
8.33631634705728
30
0
41
1
10
54.5646684700466
20
8.34054421375609
30
0
41
1
10
54.5628903578547
20
8.35074720842937
30
0
41
1
10
54.5583763172564
20
8.37287417773746
30
0
41
1
10
54.548872696737
20
8.4071477143205
30
0
41
1
10
54.5377809909003
20
8.43606338298645
30
0
41
1
10
54.5306229361806
20
8.45201216881597
30
0
41
1
10
54.5291786605876
20
8.45515243221962
30
0
41
1
10
54.5283985905022
20
8.45682480291626
30
0
41
1
10
54.5278093457746
20
8.45807800592709
30
0
41
1
10
54.5273156891188
20
8.45912166346676
30
0
41
1
10
54.5266196829706
20
8.46058149388773
30
0
41
1
10
54.5260178732597
20
8.46183136913706
30
0
41
1
10
54.5254118805906
20
8.46308008719353
30
0
41
1
10
54.5249042730701
20
8.46411995590799
30
0
41
1
10
54.5240865283624
20
8.46578216183667
30
0
41
1
10
54.5232604292452
20
8.4674419506531
30
0
41
1
10
54.5220087627631
20
8.46992788493753
30
0
41
1
10
54.520317632516
20
8.47323568962597
30
0
41
1
10
54.5170739038584
20
8.47941451642771
30
0
41
1
10
54.513480992495
20
8.48596001672328
30
0
41
1
10
54.5078931079659
20
8.49570250533083
30
0
41
1
10
54.5000918967311
20
8.50855087671715
30
0
41
1
10
54.4885373989861
20
8.52582663506254
30
0
41
1
10
54.4771954390492
20
8.54105663633851
30
0
41
1
10
54.4676409880498
20
8.55291668828912
30
0
41
1
10
54.4602401681744
20
8.56164005048697
30
0
41
1
10
54.4526098265726
20
8.57018203368972
30
0
41
1
10
54.4447573415372
20
8.57853415709457
30
0
41
1
10
54.4366900913608
20
8.58668793989872
30
0
41
1
10
54.4284154543365
20
8.5946349012994
30
0
41
1
10
54.4199408087568
20
8.60236656049381
30
0
41
1
10
54.4112750972562
20
8.60987612063798
30
0
41
1
10
54.402427262469
20
8.6171567848879
30
0
41
1
10
54.3934062470292
20
8.62420175639954
30
0
41
1
10
54.3842209935713
20
8.63100423832896
30
0
41
1
10
54.3748815247245
20
8.63755944006516
30
0
41
1
10
54.3653978631178
20
8.64386257099721
30
0
41
1
10
54.3557800313807
20
8.6499088405142
30
0
41
1
10
54.3460380521423
20
8.65569345800517
30
0
41
1
10
54.3328972915186
20
8.66305392919315
30
0
41
1
10
54.3212188147979
20
8.66902730817833
30
0
41
1
10
54.3111062888783
20
8.6738072219062
30
0
41
1
10
54.3045505295406
20
8.67680631176407
30
0
41
1
10
54.2994494484041
20
8.67903024140693
30
0
41
1
10
54.2956121045696
20
8.68064700776313
30
0
41
1
10
54.2945455814812
20
8.68109344358584
30
0
41
1
10
54.2930513639062
20
8.68171347629431
30
0
41
1
10
54.2917694689382
20
8.68223959883747
30
0
41
1
10
54.2904866951995
20
8.68276145282232
30
0
41
1
10
54.2894171742828
20
8.68319366302183
30
0
41
1
10
54.2879188557782
20
8.68379377579168
30
0
41
1
10
54.2866335486165
20
8.68430281974511
30
0
41
1
10
54.2855617955989
20
8.68472346300334
30
0
41
1
10
54.2844897150102
20
8.68514232606191
30
0
41
1
10
54.2827733515594
20
8.68580680973574
30
0
41
1
10
54.2804109615582
20
8.6867067616588
30
0
41
1
10
54.2778309933921
20
8.68767142353505
30
0
41
1
10
54.2692222634546
20
8.69082992702727
30
0
41
1
10
54.2545240246457
20
8.69576287908609
30
0
41
1
10
54.2267494349743
20
8.70360445372191
30
0
41
1
10
54.1989711281175
20
8.70930516010478
30
0
41
1
10
54.1749514810564
20
8.71251088674683
30
0
41
1
10
54.1638393988368
20
8.71360269298174
30
0
41
1
10
54.1589945029073
20
8.71401100601372
30
0
41
1
10
54.1572967109622
20
8.71414502555189
30
0
41
1
10
54.1560111673235
20
8.71424245759593
30
0
41
1
10
54.155032432065
20
8.71431433575646
30
0
41
1
10
54.1542592033921
20
8.71436969711814
30
0
41
1
10
54.1539216666525
20
8.71439369674394
30
0
0
SPLINE
5
1DE
100
AcDbEntity
8
1
62
256
6
ByLayer
370
-1
48
1
60
0
100
AcDbSpline
70
4
71
3
72
22
73
18
40
0
40
0
40
0
40
0
40
0.0178234039225358
40
0.0278216291116505
40
0.0378198543007652
40
0.112806543219125
40
0.187793232137486
40
0.337766609974206
40
0.497738213000041
40
0.657709816025876
40
0.817681419051711
40
0.897667220564629
40
0.977653022077546
40
0.982652134672104
40
0.987651247266661
40
0.997649472455776
40
1
40
1
40
1
40
1
41
1
10
54.2208691465639
20
2.85591058616782
30
0
41
1
10
54.2216786354391
20
2.85602368674896
30
0
41
1
10
54.2229421635499
20
2.85620111775822
30
0
41
1
10
54.2246598264193
20
2.85644318642417
30
0
41
1
10
54.2289737278211
20
2.85705191759138
30
0
41
1
10
54.2362392414605
20
2.85807708560134
30
0
41
1
10
54.2498620683401
20
2.85999911821207
30
0
41
1
10
54.267344681803
20
2.86246552472235
30
0
41
1
10
54.2886870930435
20
2.86547646254007
30
0
41
1
10
54.3104835981401
20
2.86855146286453
30
0
41
1
10
54.3286473523873
20
2.87111396313494
30
0
41
1
10
54.3432289062807
20
2.87317276873046
30
0
41
1
10
54.3507013751275
20
2.87422630239971
30
0
41
1
10
54.3547454888672
20
2.87479542166344
30
0
41
1
10
54.3556413813469
20
2.87492159231653
30
0
41
1
10
54.3564124055433
20
2.87503045808421
30
0
41
1
10
54.3569546047789
20
2.87510736710894
30
0
41
1
10
54.3570575817362
20
2.87512198978661
30
0
0
SPLINE
5
1DF
100
AcDbEntity
8
1
62
256
6
ByLayer
370
-1
48
1
60
0
100
AcDbSpline
70
4
71
3
72
23
73
19
40
0
40
0
40
0
40
0
40
0.0365499079217469
40
0.0695172064382718
40
0.102484504954797
40
0.135451803471321
40
0.168419101987846
40
0.234353699020896
40
0.300288296053931
40
0.366222893086996
40
0.498092087153095
40
0.629961281219187
40
0.761830475285294
40
0.82776507231834
40
0.893699669351394
40
0.926666967867918
40
0.959634266384443
40
1
40
1
40
1
40
1
41
1
10
54.0167299594519
20
8.72402198879456
30
0
41
1
10
54.0157157600151
20
8.72409182092701
30
0
41
1
10
54.013786790772
20
8.72422296822612
30
0
41
1
10
54.0109427758543
20
8.72440847940896
30
0
41
1
10
54.0081975661408
20
8.72457851463355
30
0
41
1
10
54.0054513708965
20
8.72473773520409
30
0
41
1
10
54.001788617269
20
8.7249361248476
30
0
41
1
10
53.9972082891808
20
8.72515900684755
30
0
41
1
10
53.9917098022258
20
8.72538938768932
30
0
41
1
10
53.9843761664717
20
8.72564661491296
30
0
41
1
10
53.975205655599
20
8.7258735407174
30
0
41
1
10
53.9641983237711
20
8.72599141559502
30
0
41
1
10
53.9550256906882
20
8.72596330458489
30
0
41
1
10
53.9476891157404
20
8.72586642573091
30
0
41
1
10
53.9431051123928
20
8.72577246945451
30
0
41
1
10
53.9394391540288
20
8.72567581355361
30
0
41
1
10
53.9364843439633
20
8.7255880875295
30
0
41
1
10
53.9344459204826
20
8.72552137384076
30
0
41
1
10
53.9333238298574
20
8.72548356113174
30
0
0
SPLINE
5
1E0
100
AcDbEntity
8
1
62
256
6
ByLayer
370
-1
48
1
60
0
100
AcDbSpline
70
4
71
3
72
23
73
19
40
0
40
0
40
0
40
0
40
0.0365499079217318
40
0.0695172064382601
40
0.102484504954788
40
0.135451803471316
40
0.168419101987845
40
0.234353699020901
40
0.300288296053943
40
0.366222893087014
40
0.498092087153127
40
0.629961281219232
40
0.761830475285352
40
0.827765072318405
40
0.893699669351465
40
0.926666967867993
40
0.959634266384522
40
1
40
1
40
1
40
1
41
1
10
54.75145528495
20
3.42706798528667
30
0
41
1
10
54.7515248513501
20
3.42808605880052
30
0
41
1
10
54.7516554995942
20
3.43002239639276
30
0
41
1
10
54.751840304851
20
3.43287727498546
30
0
41
1
10
54.7520096930402
20
3.43563297095406
30
0
41
1
10
54.7521683077284
20
3.43838965621808
30
0
41
1
10
54.7523659424394
20
3.44206640096934
30
0
41
1
10
54.752587976306
20
3.44666422516678
30
0
41
1
10
54.7528174804792
20
3.45218371544866
30
0
41
1
10
54.7530737288756
20
3.45954536449989
30
0
41
1
10
54.7532997911588
20
3.46875090523443
30
0
41
1
10
54.7534172174869
20
3.47980028328166
30
0
41
1
10
54.7533892134477
20
3.48900795433283
30
0
41
1
10
54.753292703247
20
3.49637255380503
30
0
41
1
10
54.7531991045026
20
3.50097406730069
30
0
41
1
10
54.7531028164066
20
3.50465402903004
30
0
41
1
10
54.7530154242065
20
3.50762012598994
30
0
41
1
10
54.7529489643834
20
3.50966633591719
30
0
41
1
10
54.7529112955632
20
3.51079271274631
30
0
0
SPLINE
5
1E1
100
AcDbEntity
8
1
62
256
6
ByLayer
370
-1
48
1
60
0
100
AcDbSpline
70
4
71
3
72
8
73
4
40
0
40
0
40
0
40
0
40
1
40
1
40
1
40
1
41
1
10
49.5940787253313
20
2.68933547686936
30
0
41
1
10
49.5820738593484
20
2.68891465636253
30
0
41
1
10
49.5700682305593
20
2.68851576320824
30
0
41
1
10
49.5580619184626
20
2.68813880004794
30
0
0
SPLINE
5
1E2
100
AcDbEntity
8
1
62
256
6
ByLayer
370
-1
48
1
60
0
100
AcDbSpline
70
4
71
3
72
8
73
4
40
0
40
0
40
0
40
0
40
1
40
1
40
1
40
1
41
1
10
53.8973090247402
20
8.72422264033133
30
0
41
1
10
53.9093138907231
20
8.72464346083817
30
0
41
1
10
53.9213195195122
20
8.72504235399245
30
0
41
1
10
53.9333258316089
20
8.72541931715276
30
0
0
SPLINE
5
1E3
100
AcDbEntity
8
1
62
256
6
ByLayer
370
-1
48
1
60
0
100
AcDbSpline
70
4
71
3
72
79
73
75
40
0
40
0
40
0
40
0
40
0.0017245864916112
40
0.0039792263717387
40
0.0084885061319936
40
0.0129977858922485
40
0.0220163454127584
40
0.0310349049332683
40
0.0671091430153077
40
0.139257619179387
40
0.211406095343465
40
0.220424654863975
40
0.22493393462423
40
0.228315894444421
40
0.229443214384485
40
0.231697854264613
40
0.23395249414474
40
0.237334453964931
40
0.238461773904995
40
0.240716413785123
40
0.24297105366525
40
0.247480333425505
40
0.249734973305632
40
0.256498892946015
40
0.265517452466525
40
0.283554571507544
40
0.292573131028054
40
0.319628809589584
40
0.355703047671623
40
0.391777285753663
40
0.409814404794683
40
0.427851523835702
40
0.445888642876722
40
0.463925761917742
40
0.481962880958761
40
0.499999999999781
40
0.518037119040801
40
0.536074238081821
40
0.554111357122839
40
0.57214847616386
40
0.590185595204879
40
0.608222714245899
40
0.626259833286918
40
0.644296952327939
40
0.662334071368959
40
0.680371190409979
40
0.716445428492018
40
0.725463988012527
40
0.734482547533039
40
0.751392346633993
40
0.752519666574057
40
0.754774306454185
40
0.757028946334312
40
0.760410906154507
40
0.761538226094567
40
0.763792865974697
40
0.766047505854821
40
0.769429465675015
40
0.770556785615077
40
0.77168410555514
40
0.775066065375333
40
0.779575345135587
40
0.784084624895842
40
0.788593904656097
40
0.824668142738136
40
0.860742380820176
40
0.932890856984255
40
0.968965095066294
40
0.987002214107314
40
0.99151149386757
40
0.994893453687759
40
0.996020773627824
40
0.998275413507951
40
1
40
1
40
1
40
1
41
1
10
54.3570575817363
20
2.87512198978661
30
0
41
1
10
54.3573926284946
20
2.87516956626274
30
0
41
1
10
54.3581601265032
20
2.87527893650579
30
0
41
1
10
54.3597747918242
20
2.87551204953462
30
0
41
1
10
54.3618825663781
20
2.87582650350848
30
0
41
1
10
54.3652249802311
20
2.8763458580969
30
0
41
1
10
54.3694367586207
20
2.8770364385978
30
0
41
1
10
54.3796009278189
20
2.87882134288935
30
0
41
1
10
54.4016436973284
20
2.88335262638941
30
0
41
1
10
54.4357868127573
20
2.89289254919527
30
0
41
1
10
54.4645924485741
20
2.90402662354634
30
0
41
1
10
54.4804805444585
20
2.91121202087223
30
0
41
1
10
54.4836088582118
20
2.91266181336334
30
0
41
1
10
54.485274865033
20
2.91344486318979
30
0
41
1
10
54.486523299228
20
2.91403635873641
30
0
41
1
10
54.4875629853357
20
2.91453190108047
30
0
41
1
10
54.4890172606612
20
2.91523056585902
30
0
41
1
10
54.4902623797578
20
2.91583467438537
30
0
41
1
10
54.4915063460651
20
2.91644298184798
30
0
41
1
10
54.4925422577652
20
2.91695252834677
30
0
41
1
10
54.4941981384985
20
2.91777339670637
30
0
41
1
10
54.4958516113173
20
2.91860265138797
30
0
41
1
10
54.4983280858713
20
2.91985909903272
30
0
41
1
10
54.5016233033642
20
2.92155668912261
30
0
41
1
10
54.5077786178646
20
2.92481280829671
30
0
41
1
10
54.5142992105554
20
2.92841944399783
30
0
41
1
10
54.5240046260524
20
2.93402867333813
30
0
41
1
10
54.5368041055066
20
2.94185968393242
30
0
41
1
10
54.5540141243758
20
2.9534583179817
30
0
41
1
10
54.5691861708988
20
2.96484360236303
30
0
41
1
10
54.5810010917711
20
2.97443454981308
30
0
41
1
10
54.5896912589421
20
2.98186363961796
30
0
41
1
10
54.5982007373199
20
2.98952312788509
30
0
41
1
10
54.6065210783737
20
2.99740560813771
30
0
41
1
10
54.6146438335725
20
3.00550367389917
30
0
41
1
10
54.6225605543858
20
3.01380991869272
30
0
41
1
10
54.6302627922827
20
3.02231693604171
30
0
41
1
10
54.6377437762834
20
3.0310157491524
30
0
41
1
10
54.6449967354077
20
3.03989738123119
30
0
41
1
10
54.6520148986758
20
3.04895285548437
30
0
41
1
10
54.6587914951078
20
3.05817319511826
30
0
41
1
10
54.6653217523223
20
3.06754833921886
30
0
41
1
10
54.6716008979382
20
3.07706822687212
30
0
41
1
10
54.6776241595742
20
3.08672279716404
30
0
41
1
10
54.6833867648492
20
3.09650198918055
30
0
41
1
10
54.6907192272222
20
3.10969294537494
30
0
41
1
10
54.6966698756969
20
3.12141603197944
30
0
41
1
10
54.7014316004099
20
3.13156718610523
30
0
41
1
10
54.7044192778254
20
3.1381479873786
30
0
41
1
10
54.7066347447446
20
3.14326855381631
30
0
41
1
10
54.7082453588167
20
3.14712055568086
30
0
41
1
10
54.7086900958163
20
3.14819115271428
30
0
41
1
10
54.7093077691131
20
3.14969107795758
30
0
41
1
10
54.7098318896012
20
3.15097786955616
30
0
41
1
10
54.7103517577741
20
3.15226554328214
30
0
41
1
10
54.7107823232833
20
3.15333914959498
30
0
41
1
10
54.7113801524429
20
3.15484319143289
30
0
41
1
10
54.7118872593303
20
3.15613340825911
30
0
41
1
10
54.712306301914
20
3.15720925519915
30
0
41
1
10
54.7127235710722
20
3.15828543096151
30
0
41
1
10
54.713385526185
20
3.16000835064185
30
0
41
1
10
54.7142820535193
20
3.16237976458908
30
0
41
1
10
54.7152430445659
20
3.16496958781445
30
0
41
1
10
54.7183895289987
20
3.17361120170173
30
0
41
1
10
54.7233037096856
20
3.18836558539505
30
0
41
1
10
54.7311154447626
20
3.21624626948682
30
0
41
1
10
54.7367944582366
20
3.24413068496301
30
0
41
1
10
54.7399879861209
20
3.26824208317379
30
0
41
1
10
54.7410756377035
20
3.27939661174219
30
0
41
1
10
54.7414823969811
20
3.28426001438709
30
0
41
1
10
54.7416159065344
20
3.28596429162158
30
0
41
1
10
54.7417129678201
20
3.28725474582816
30
0
41
1
10
54.7417845724626
20
3.2882372196963
30
0
41
1
10
54.7418397231576
20
3.28901340197711
30
0
41
1
10
54.7418636314575
20
3.28935222805228
30
0
0
SPLINE
5
1E4
100
AcDbEntity
8
1
62
256
6
ByLayer
370
-1
48
1
60
0
100
AcDbSpline
70
4
71
3
72
19
73
15
40
0
40
0
40
0
40
0
40
0.0403657336155581
40
0.10630033064861
40
0.172234927681662
40
0.238169524714714
40
0.370038718780818
40
0.501907912846922
40
0.76564630097913
40
0.831580898012182
40
0.897515495045234
40
0.93048279356176
40
0.963450092078286
40
1
40
1
40
1
40
1
41
1
10
49.3536199937963
20
8.56494588480609
30
0
41
1
10
49.3524980088833
20
8.56490503332958
30
0
41
1
10
49.3495436776856
20
8.5647945986054
30
0
41
1
10
49.3447583346496
20
8.56459462686982
30
0
41
1
10
49.3392630953726
20
8.56432191732779
30
0
41
1
10
49.3319376597414
20
8.56390483170003
30
0
41
1
10
49.3227854172686
20
8.56329057956921
30
0
41
1
10
49.3081556475697
20
8.56210610838258
30
0
41
1
10
49.2953781262238
20
8.5608004244479
30
0
41
1
10
49.2844492886086
20
8.55949706347153
30
0
41
1
10
49.2799004409833
20
8.55892078062101
30
0
41
1
10
49.2762648321862
20
8.55843831573995
30
0
41
1
10
49.2734406365089
20
8.5580541101894
30
0
41
1
10
49.2715254796988
20
8.55778821027613
30
0
41
1
10
49.2705186035076
20
8.5576475310329
30
0
0
SPLINE
5
1E5
100
AcDbEntity
8
1
62
256
6
ByLayer
370
-1
48
1
60
0
100
AcDbSpline
70
4
71
3
72
13
73
9
40
0
40
0
40
0
40
0
40
0.312317913031033
40
0.624635826062065
40
0.936953739093098
40
0.975993478221977
40
0.994903351862528
40
1
40
1
40
1
40
1
41
1
10
51.8479158920301
20
2.76834184813495
30
0
41
1
10
52.082553796032
20
2.77656688303563
30
0
41
1
10
52.5518296040357
20
2.79301695283698
30
0
41
1
10
53.2557433160412
20
2.81769205753901
30
0
41
1
10
53.7543488620452
20
2.83517025670295
30
0
41
1
10
54.0325230958911
20
2.84492142112623
30
0
41
1
10
54.0798884306898
20
2.84658177320557
30
0
41
1
10
54.0979240521795
20
2.84721388205009
30
0
41
1
10
54.1017530637889
20
2.84734807391564
30
0
0
SPLINE
5
1E6
100
AcDbEntity
8
1
62
256
6
ByLayer
370
-1
48
1
60
0
100
AcDbSpline
70
4
71
3
72
14
73
10
40
0
40
0
40
0
40
0
40
0.0050966481374701
40
0.0240065217780207
40
0.0435263913424603
40
0.0630462609068999
40
0.375364173937933
40
0.687682086968967
40
1
40
1
40
1
40
1
41
1
10
53.8973090196779
20
8.72422278581612
30
0
41
1
10
53.8934800102174
20
8.72408853217695
30
0
41
1
10
53.875444396701
20
8.72345619413639
30
0
41
1
10
53.8427439309024
20
8.72230990673833
30
0
41
1
10
53.7992076010584
20
8.72078377721576
30
0
41
1
10
53.5352399590563
20
8.71153061295249
30
0
41
1
10
53.0512992820525
20
8.69456647846982
30
0
41
1
10
52.3473855700469
20
8.6698913737678
30
0
41
1
10
51.8781097620432
20
8.65344130396645
30
0
41
1
10
51.6434718580414
20
8.64521626906577
30
0
0
SPLINE
5
1E7
100
AcDbEntity
8
1
62
256
6
ByLayer
370
-1
48
1
60
0
100
AcDbSpline
70
4
71
3
72
22
73
18
40
0
40
0
40
0
40
0
40
0.0023505275440183
40
0.0123487527331363
40
0.0223469779222542
40
0.062339878678726
40
0.102332779435189
40
0.182318580948141
40
0.26230438246108
40
0.342290183974028
40
0.662233390025802
40
0.812206767862572
40
0.957493477641928
40
0.962180145699341
40
0.972178370888454
40
0.982176596077577
40
1
40
1
40
1
40
1
41
1
10
54.1539216666527
20
8.71439369674391
30
0
41
1
10
54.1538179243972
20
8.71440107305298
30
0
41
1
10
54.1532717014443
20
8.71443982835092
30
0
41
1
10
54.1522711663334
20
8.71451017679343
30
0
41
1
10
54.1495565504825
20
8.71469974898568
30
0
41
1
10
54.1454657528161
20
8.71498604654875
30
0
41
1
10
54.1381550859679
20
8.71549893860376
30
0
41
1
10
54.1289743969173
20
8.71614440565986
30
0
41
1
10
54.1179830896826
20
8.71691634400926
30
0
41
1
10
54.0960259948393
20
8.71845759859022
30
0
41
1
10
54.0708668236646
20
8.72022361946421
30
0
41
1
10
54.0427200009129
20
8.72219935531697
30
0
41
1
10
54.0289967876225
20
8.7231628444959
30
0
41
1
10
54.0216777250604
20
8.72367681475978
30
0
41
1
10
54.0205484163417
20
8.72375612044394
30
0
41
1
10
54.0188181160119
20
8.72387732365223
30
0
41
1
10
54.0175453359287
20
8.72396584650531
30
0
41
1
10
54.0167299594519
20
8.72402198879456
30
0
0
SPLINE
5
1E8
100
AcDbEntity
8
1
62
256
6
ByLayer
370
-1
48
1
60
0
100
AcDbSpline
70
4
71
3
72
22
73
18
40
0
40
0
40
0
40
0
40
0.0178234039225358
40
0.0278216291116505
40
0.0378198543007652
40
0.112806543219125
40
0.187793232137486
40
0.337766609974206
40
0.497738213000041
40
0.657709816025876
40
0.817681419051711
40
0.897667220564629
40
0.977653022077546
40
0.982652134672104
40
0.987651247266661
40
0.997649472455776
40
1
40
1
40
1
40
1
41
1
10
48.9056738178416
20
3.22214901964364
30
0
41
1
10
48.9057864880408
20
3.22133643865246
30
0
41
1
10
48.9059632438715
20
3.22006808406957
30
0
41
1
10
48.9062043913932
20
3.218343860007
30
0
41
1
10
48.9068108061545
20
3.21401348020274
30
0
41
1
10
48.9078320730907
20
3.20672021348156
30
0
41
1
10
48.909746791787
20
3.19304534961634
30
0
41
1
10
48.9122038128759
20
3.17549595541018
30
0
41
1
10
48.9152032931662
20
3.154072019626
30
0
41
1
10
48.9182665921861
20
3.1321922554209
30
0
41
1
10
48.9208193413693
20
3.11395911858332
30
0
41
1
10
48.922870312588
20
3.09932186552285
30
0
41
1
10
48.9239198372435
20
3.09182085305909
30
0
41
1
10
48.9244867908366
20
3.0877612914619
30
0
41
1
10
48.9246124813723
20
3.0868619768184
30
0
41
1
10
48.9247209328729
20
3.08608800743488
30
0
41
1
10
48.9247975492355
20
3.08554373708626
30
0
41
1
10
48.9248121162695
20
3.0854403667737
30
0
0
SPLINE
5
1E9
100
AcDbEntity
8
1
62
256
6
ByLayer
370
-1
48
1
60
0
100
AcDbSpline
70
4
71
3
72
22
73
18
40
0
40
0
40
0
40
0
40
0.0178234039225224
40
0.0278216291116371
40
0.0378198543007519
40
0.112806543219113
40
0.187793232137474
40
0.337766609974195
40
0.497738213000032
40
0.657709816025868
40
0.817681419051705
40
0.897667220564623
40
0.977653022077541
40
0.982652134672099
40
0.987651247266656
40
0.997649472455771
40
1
40
1
40
1
40
1
41
1
10
54.58571393223
20
8.19140909755708
30
0
41
1
10
54.5856012620307
20
8.19222167854824
30
0
41
1
10
54.5854245062
20
8.19349003313113
30
0
41
1
10
54.5851833586784
20
8.1952142571937
30
0
41
1
10
54.5845769439171
20
8.19954463699796
30
0
41
1
10
54.5835556769808
20
8.20683790371913
30
0
41
1
10
54.5816409582845
20
8.22051276758435
30
0
41
1
10
54.5791839371956
20
8.23806216179054
30
0
41
1
10
54.5761844569054
20
8.25948609757469
30
0
41
1
10
54.5731211578855
20
8.28136586177979
30
0
41
1
10
54.5705684087022
20
8.29959899861737
30
0
41
1
10
54.5685174374836
20
8.31423625167784
30
0
41
1
10
54.567467912828
20
8.3217372641416
30
0
41
1
10
54.5669009592349
20
8.32579682573882
30
0
41
1
10
54.5667752686993
20
8.3266961403823
30
0
41
1
10
54.5666668171987
20
8.32747010976581
30
0
41
1
10
54.566590200836
20
8.32801438011444
30
0
41
1
10
54.566575633802
20
8.32811775042703
30
0
0
SPLINE
5
1EA
100
AcDbEntity
8
1
62
256
6
ByLayer
370
-1
48
1
60
0
100
AcDbSpline
70
4
71
3
72
23
73
19
40
0
40
0
40
0
40
0
40
0.0365499079216745
40
0.069517206438205
40
0.102484504954736
40
0.135451803471266
40
0.168419101987797
40
0.234353699020858
40
0.300288296053904
40
0.36622289308698
40
0.498092087153102
40
0.629961281219217
40
0.761830475285347
40
0.827765072318404
40
0.893699669351469
40
0.926666967868
40
0.95963426638453
40
1
40
1
40
1
40
1
41
1
10
49.4746577906196
20
2.68953612840616
30
0
41
1
10
49.4756719900564
20
2.68946629627371
30
0
41
1
10
49.4776009592995
20
2.68933514897461
30
0
41
1
10
49.4804449742173
20
2.68914963779173
30
0
41
1
10
49.4831901839307
20
2.68897960256714
30
0
41
1
10
49.485936379175
20
2.68882038199661
30
0
41
1
10
49.4895991328025
20
2.68862199235309
30
0
41
1
10
49.4941794608907
20
2.68839911035317
30
0
41
1
10
49.4996779478457
20
2.68816872951138
30
0
41
1
10
49.5070115835998
20
2.68791150228776
30
0
41
1
10
49.5161820944726
20
2.68768457648329
30
0
41
1
10
49.5271894263004
20
2.68756670160567
30
0
41
1
10
49.5363620593834
20
2.6875948126158
30
0
41
1
10
49.5436986343312
20
2.68769169146978
30
0
41
1
10
49.5482826376787
20
2.68778564774621
30
0
41
1
10
49.5519485960427
20
2.68788230364709
30
0
41
1
10
49.5549034061082
20
2.68797002967119
30
0
41
1
10
49.5569418295889
20
2.68803674335993
30
0
41
1
10
49.5580639202141
20
2.68807455606898
30
0
0
SPLINE
5
1EB
100
AcDbEntity
8
1
62
256
6
ByLayer
370
-1
48
1
60
0
100
AcDbSpline
70
4
71
3
72
8
73
4
40
0
40
0
40
0
40
0
40
1
40
1
40
1
40
1
41
1
10
48.7397325771244
20
7.86661302863249
30
0
41
1
10
48.7393133579666
20
7.87866375125316
30
0
41
1
10
48.7389159827212
20
7.89071523959385
30
0
41
1
10
48.7385404540196
20
7.90276741385227
30
0
0
SPLINE
5
1EC
100
AcDbEntity
8
1
62
256
6
ByLayer
370
-1
48
1
60
0
100
AcDbSpline
70
4
71
3
72
79
73
75
40
0
40
0
40
0
40
0
40
0.0017245864916225
40
0.00397922637175
40
0.0084885061320049
40
0.0129977858922598
40
0.0220163454127697
40
0.0310349049332796
40
0.067109143015319
40
0.139257619179398
40
0.211406095343477
40
0.220424654863987
40
0.224933934624242
40
0.228315894444433
40
0.229443214384497
40
0.231697854264624
40
0.233952494144752
40
0.237334453964943
40
0.238461773905007
40
0.240716413785134
40
0.242971053665261
40
0.247480333425516
40
0.249734973305644
40
0.256498892946026
40
0.265517452466536
40
0.283554571507556
40
0.292573131028066
40
0.319628809589595
40
0.355703047671635
40
0.391777285753674
40
0.409814404794694
40
0.427851523835714
40
0.445888642876733
40
0.463925761917753
40
0.481962880958773
40
0.499999999999793
40
0.518037119040813
40
0.536074238081833
40
0.554111357122851
40
0.572148476163872
40
0.59018559520489
40
0.608222714245912
40
0.62625983328693
40
0.644296952327951
40
0.662334071368971
40
0.680371190409992
40
0.71644542849203
40
0.725463988012538
40
0.73448254753305
40
0.751392346634005
40
0.752519666574069
40
0.754774306454197
40
0.757028946334324
40
0.760410906154518
40
0.761538226094579
40
0.763792865974709
40
0.766047505854832
40
0.769429465675027
40
0.770556785615089
40
0.771684105555151
40
0.775066065375345
40
0.779575345135599
40
0.784084624895854
40
0.788593904656109
40
0.824668142738148
40
0.860742380820188
40
0.932890856984267
40
0.968965095066306
40
0.987002214107326
40
0.991511493867581
40
0.99489345368777
40
0.996020773627836
40
0.998275413507963
40
1
40
1
40
1
40
1
41
1
10
48.9248121162695
20
3.0854403667737
30
0
41
1
10
48.9248595117028
20
3.08510404019117
30
0
41
1
10
48.924968465759
20
3.08433361046482
30
0
41
1
10
48.9252006917224
20
3.08271277738467
30
0
41
1
10
48.925513949104
20
3.08059695147435
30
0
41
1
10
48.9260313273914
20
3.07724177014342
30
0
41
1
10
48.926719280025
20
3.0730139034446
30
0
41
1
10
48.9284973922168
20
3.06281090877133
30
0
41
1
10
48.9330114328151
20
3.04068393946326
30
0
41
1
10
48.9425150533346
20
3.00641040288019
30
0
41
1
10
48.9536067591712
20
2.97749473421427
30
0
41
1
10
48.960764813891
20
2.96154594838475
30
0
41
1
10
48.962209089484
20
2.9584056849811
30
0
41
1
10
48.9629891595694
20
2.95673331428444
30
0
41
1
10
48.9635784042969
20
2.95548011127363
30
0
41
1
10
48.9640720609527
20
2.95443645373396
30
0
41
1
10
48.9647680671009
20
2.95297662331296
30
0
41
1
10
48.9653698768118
20
2.95172674806363
30
0
41
1
10
48.9659758694809
20
2.95047803000716
30
0
41
1
10
48.9664834770015
20
2.9494381612927
30
0
41
1
10
48.9673012217091
20
2.94777595536402
30
0
41
1
10
48.9681273208263
20
2.9461161665476
30
0
41
1
10
48.9693789873084
20
2.94363023226316
30
0
41
1
10
48.9710701175555
20
2.94032242757476
30
0
41
1
10
48.9743138462131
20
2.93414360077298
30
0
41
1
10
48.9779067575765
20
2.92759810047741
30
0
41
1
10
48.9834946421057
20
2.91785561186987
30
0
41
1
10
48.9912958533404
20
2.90500724048354
30
0
41
1
10
49.0028503510854
20
2.88773148213815
30
0
41
1
10
49.0141923110224
20
2.87250148086218
30
0
41
1
10
49.0237467620218
20
2.86064142891158
30
0
41
1
10
49.0311475818971
20
2.85191806671372
30
0
41
1
10
49.0387779234989
20
2.84337608351098
30
0
41
1
10
49.0466304085344
20
2.83502396010613
30
0
41
1
10
49.0546976587107
20
2.826870177302
30
0
41
1
10
49.0629722957351
20
2.81892321590132
30
0
41
1
10
49.0714469413147
20
2.81119155670689
30
0
41
1
10
49.0801126528153
20
2.80368199656272
30
0
41
1
10
49.0889604876026
20
2.79640133231283
30
0
41
1
10
49.0979815030423
20
2.78935636080115
30
0
41
1
10
49.1071667565002
20
2.78255387887177
30
0
41
1
10
49.1165062253471
20
2.77599867713556
30
0
41
1
10
49.1259898869537
20
2.76969554620348
30
0
41
1
10
49.1356077186908
20
2.76364927668649
30
0
41
1
10
49.1453496979293
20
2.75786465919555
30
0
41
1
10
49.1584904585529
20
2.75050418800754
30
0
41
1
10
49.1701689352736
20
2.74453080902239
30
0
41
1
10
49.1802814611932
20
2.73975089529449
30
0
41
1
10
49.1868372205309
20
2.73675180543663
30
0
41
1
10
49.1919383016674
20
2.73452787579376
30
0
41
1
10
49.1957756455019
20
2.73291110943757
30
0
41
1
10
49.1968421685904
20
2.73246467361486
30
0
41
1
10
49.1983363861654
20
2.73184464090639
30
0
41
1
10
49.1996182811334
20
2.73131851836325
30
0
41
1
10
49.2009010548721
20
2.73079666437837
30
0
41
1
10
49.2019705757887
20
2.73036445417887
30
0
41
1
10
49.2034688942934
20
2.72976434140901
30
0
41
1
10
49.2047542014551
20
2.72925529745558
30
0
41
1
10
49.2058259544727
20
2.72883465419736
30
0
41
1
10
49.2068980350614
20
2.72841579113881
30
0
41
1
10
49.2086143985122
20
2.72775130746496
30
0
41
1
10
49.2109767885134
20
2.7268513555419
30
0
41
1
10
49.2135567566795
20
2.72588669366567
30
0
41
1
10
49.2221654866169
20
2.72272819017343
30
0
41
1
10
49.2368637254258
20
2.7177952381146
30
0
41
1
10
49.2646383150972
20
2.70995366347881
30
0
41
1
10
49.292416621954
20
2.70425295709592
30
0
41
1
10
49.3164362690151
20
2.70104723045387
30
0
41
1
10
49.3275483512347
20
2.69995542421896
30
0
41
1
10
49.3323932471642
20
2.69954711118697
30
0
41
1
10
49.3340910391093
20
2.69941309164881
30
0
41
1
10
49.335376582748
20
2.69931565960476
30
0
41
1
10
49.3363553180065
20
2.69924378144424
30
0
41
1
10
49.3371285466794
20
2.69918842008255
30
0
41
1
10
49.337466083419
20
2.69916442045675
30
0
0
SPLINE
5
1ED
100
AcDbEntity
8
1
62
256
6
ByLayer
370
-1
48
1
60
0
100
AcDbSpline
70
4
71
3
72
19
73
15
40
0
40
0
40
0
40
0
40
0.0403657336154718
40
0.10630033064853
40
0.172234927681587
40
0.238169524714645
40
0.370038718780761
40
0.501907912846877
40
0.765646300979109
40
0.831580898012167
40
0.897515495045224
40
0.930482793561753
40
0.963450092078282
40
1
40
1
40
1
40
1
41
1
10
54.5929845135636
20
8.10799027345792
30
0
41
1
10
54.5929438175393
20
8.10911654417095
30
0
41
1
10
54.5928338030526
20
8.11208216043389
30
0
41
1
10
54.5926345922699
20
8.11688578270281
30
0
41
1
10
54.59236292047
20
8.12240201290112
30
0
41
1
10
54.5919474219789
20
8.12975543050638
30
0
41
1
10
54.5913355072629
20
8.13894263305858
30
0
41
1
10
54.5901555433468
20
8.15362828610105
30
0
41
1
10
54.5888548279337
20
8.16645461550269
30
0
41
1
10
54.5875564266393
20
8.17742519950204
30
0
41
1
10
54.586982336719
20
8.18199142298639
30
0
41
1
10
54.5865017077625
20
8.1856409192184
30
0
41
1
10
54.5861189642301
20
8.18847590286441
30
0
41
1
10
54.5858540761462
20
8.19039837526245
30
0
41
1
10
54.58571393223
20
8.19140909755708
30
0
0
SPLINE
5
1EE
100
AcDbEntity
8
1
62
256
6
ByLayer
370
-1
48
1
60
0
100
AcDbSpline
70
4
71
3
72
8
73
4
40
0
40
0
40
0
40
0
40
1
40
1
40
1
40
1
41
1
10
54.5929205258548
20
8.10798791267206
30
0
41
1
10
54.5933834315444
20
8.09593876257418
30
0
41
1
10
54.5938244961019
20
8.08388876695847
30
0
41
1
10
54.5942437166067
20
8.07183800561776
30
0
0
SPLINE
5
1EF
100
AcDbEntity
8
1
62
256
6
ByLayer
370
-1
48
1
60
0
100
AcDbSpline
70
4
71
3
72
13
73
9
40
0
40
0
40
0
40
0
40
0.312317913031033
40
0.624635826062067
40
0.9369537390931
40
0.975993478221979
40
0.99490335186253
40
1
40
1
40
1
40
1
41
1
10
51.6434718580414
20
8.64521626906577
30
0
41
1
10
51.4088339540396
20
8.63699123416509
30
0
41
1
10
50.9395581460358
20
8.62054116436371
30
0
41
1
10
50.2356444340303
20
8.59586605966169
30
0
41
1
10
49.7370388880264
20
8.57838786049774
30
0
41
1
10
49.4588646541805
20
8.56863669607449
30
0
41
1
10
49.4114993193817
20
8.56697634399515
30
0
41
1
10
49.3934636978921
20
8.56634423515061
30
0
41
1
10
49.3896346862826
20
8.56621004328508
30
0
0
SPLINE
5
1F0
100
AcDbEntity
8
1
62
256
6
ByLayer
370
-1
48
1
60
0
100
AcDbSpline
70
4
71
3
72
22
73
18
40
0
40
0
40
0
40
0
40
0.0023505275440093
40
0.0123487527331274
40
0.0223469779222456
40
0.0623398786787182
40
0.102332779435182
40
0.182318580948136
40
0.262304382461077
40
0.342290183974026
40
0.662233390025807
40
0.812206767862579
40
0.957493477641938
40
0.962180145699351
40
0.972178370888465
40
0.982176596077588
40
1
40
1
40
1
40
1
41
1
10
54.7418636314575
20
3.28935222805205
30
0
41
1
10
54.7418709796975
20
3.28945636658619
30
0
41
1
10
54.7419095875198
20
3.29000467602196
30
0
41
1
10
54.7419796682653
20
3.29100903301446
30
0
41
1
10
54.7421685190781
20
3.29373401825689
30
0
41
1
10
54.7424537271925
20
3.29784044210581
30
0
41
1
10
54.7429646675384
20
3.30517903451366
30
0
41
1
10
54.7436076783974
20
3.31439479230497
30
0
41
1
10
54.7443766792884
20
3.3254280845477
30
0
41
1
10
54.7459120689304
20
3.34746905192628
30
0
41
1
10
54.7476713695617
20
3.37272432704754
30
0
41
1
10
54.7496395871431
20
3.40097866608949
30
0
41
1
10
54.7505994099548
20
3.41475429982529
30
0
41
1
10
54.7511114244067
20
3.42210132001728
30
0
41
1
10
54.7511904283088
20
3.42323494251187
30
0
41
1
10
54.7513111703022
20
3.42497185230781
30
0
41
1
10
54.7513993562992
20
3.42624949420423
30
0
41
1
10
54.75145528495
20
3.42706798528664
30
0
0
SPLINE
5
1F1
100
AcDbEntity
8
1
62
256
6
ByLayer
370
-1
48
1
60
0
100
AcDbSpline
70
4
71
3
72
8
73
4
40
0
40
0
40
0
40
0
40
1
40
1
40
1
40
1
41
1
10
54.137765404473
20
2.84867646452611
30
0
41
1
10
54.125762105029
20
2.84821179061197
30
0
41
1
10
54.1137579632846
20
2.84776904125948
30
0
41
1
10
54.101753058729
20
2.84734821940052
30
0
0
SPLINE
5
1F2
100
AcDbEntity
8
1
62
256
6
ByLayer
370
-1
48
1
60
0
100
AcDbSpline
70
4
71
3
72
48
73
44
40
0
40
0
40
0
40
0
40
0.125
40
0.1875
40
0.1953125
40
0.203125
40
0.20703125
40
0.2109375
40
0.21875
40
0.25
40
0.28125
40
0.3125
40
0.3203125
40
0.328125
40
0.34375
40
0.375
40
0.3828125
40
0.390625
40
0.39453125
40
0.3984375
40
0.40625
40
0.4375
40
0.5
40
0.5625
40
0.578125
40
0.5859375
40
0.59375
40
0.609375
40
0.625
40
0.6875
40
0.75
40
0.8125
40
0.875
40
0.9375
40
0.953125
40
0.96826171875
40
0.96875
40
0.9697265625
40
0.970703125
40
0.97265625
40
0.9765625
40
0.984375
40
1
40
1
40
1
40
1
41
1
10
51.6434718580414
20
8.64521626906577
30
0
41
1
10
51.6452745349432
20
8.60928143228617
30
0
41
1
10
51.6479785502958
20
8.55537917711681
30
0
41
1
10
51.6507952329548
20
8.49923099464868
30
0
41
1
10
51.6519219060184
20
8.47677172166146
30
0
41
1
10
51.6522038572388
20
8.47115527072413
30
0
41
1
10
51.6524283429881
20
8.46666831419822
30
0
41
1
10
51.6526497933322
20
8.46218313854934
30
0
41
1
10
51.6532455247664
20
8.44979841531162
30
0
41
1
10
51.6541516044549
20
8.42937342345033
30
0
41
1
10
51.6552015190711
20
8.40196330656809
30
0
41
1
10
51.6558659615441
20
8.38142519993738
30
0
41
1
10
51.6562559567126
20
8.36780326365593
30
0
41
1
10
51.6565012645597
20
8.35872819113013
30
0
41
1
10
51.6569339970053
20
8.34281796763267
30
0
41
1
10
51.657365540056
20
8.3269177072101
30
0
41
1
10
51.6577357699751
20
8.31328609906927
30
0
41
1
10
51.657890618855
20
8.307598788582
30
0
41
1
10
51.6580122257918
20
8.3030777073449
30
0
41
1
10
51.6581293499708
20
8.29858606131506
30
0
41
1
10
51.6584389285349
20
8.28617308141207
30
0
41
1
10
51.659058171242
20
8.25691953418419
30
0
41
1
10
51.6595825099126
20
8.21249693480843
30
0
41
1
10
51.6595203963073
20
8.17441377653984
30
0
41
1
10
51.6592826381177
20
8.15224814149954
30
0
41
1
10
51.6591753927422
20
8.14432208031931
30
0
41
1
10
51.6590520727678
20
8.13645430399211
30
0
41
1
10
51.6588983746831
20
8.12658074563905
30
0
41
1
10
51.6585297704099
20
8.10286090282534
30
0
41
1
10
51.6579764121169
20
8.06731997654882
30
0
41
1
10
51.6572387516872
20
8.01991912886541
30
0
41
1
10
51.6565010912576
20
7.97251828118203
30
0
41
1
10
51.6557634308279
20
7.92511743349866
30
0
41
1
10
51.6552101855056
20
7.88956679773611
30
0
41
1
10
51.6548432762815
20
7.86598981360191
30
0
41
1
10
51.6547203328765
20
7.85808967232134
30
0
41
1
10
51.6546550373298
20
7.85389253791865
30
0
41
1
10
51.654645269142
20
7.85327699850762
30
0
41
1
10
51.654630208214
20
7.85229274009436
30
0
41
1
10
51.6546085103678
20
7.85055642855545
30
0
41
1
10
51.6545837724605
20
7.84695922843756
30
0
41
1
10
51.6546111750962
20
7.83938634931707
30
0
41
1
10
51.65476919658
20
7.83249887229624
30
0
41
1
10
51.6549260629567
20
7.82798964803976
30
0
0
SPLINE
5
1F3
100
AcDbEntity
8
1
62
256
6
ByLayer
370
-1
48
1
60
0
100
AcDbSpline
70
4
71
3
72
19
73
15
40
0
40
0
40
0
40
0
40
0.0403657336152952
40
0.106300330648359
40
0.172234927681422
40
0.238169524714485
40
0.370038718780612
40
0.501907912846739
40
0.765646300978992
40
0.831580898012055
40
0.897515495045119
40
0.93048279356165
40
0.963450092078182
40
1
40
1
40
1
40
1
41
1
10
54.1377677562753
20
2.84861223239463
30
0
41
1
10
54.1388897411882
20
2.84865308387114
30
0
41
1
10
54.141844072386
20
2.84876351859529
30
0
41
1
10
54.1466294154219
20
2.8489634903309
30
0
41
1
10
54.1521246546989
20
2.84923619987291
30
0
41
1
10
54.1594500903301
20
2.84965328550066
30
0
41
1
10
54.1686023328029
20
2.85026753763148
30
0
41
1
10
54.1832321025018
20
2.85145200881811
30
0
41
1
10
54.1960096238477
20
2.85275769275279
30
0
41
1
10
54.2069384614629
20
2.85406105372917
30
0
41
1
10
54.2114873090883
20
2.85463733657968
30
0
41
1
10
54.2151229178853
20
2.85511980146075
30
0
41
1
10
54.2179471135626
20
2.85550400701129
30
0
41
1
10
54.2198622703728
20
2.85576990692459
30
0
41
1
10
54.220869146564
20
2.85591058616782
30
0
0
SPLINE
5
1F4
100
AcDbEntity
8
1
62
256
6
ByLayer
370
-1
48
1
60
0
100
AcDbSpline
70
4
71
3
72
79
73
75
40
0
40
0
40
0
40
0
40
0.0017245864916112
40
0.0039792263717387
40
0.0084885061319936
40
0.0129977858922485
40
0.0220163454127584
40
0.0310349049332682
40
0.0671091430153076
40
0.139257619179386
40
0.211406095343465
40
0.220424654863975
40
0.22493393462423
40
0.228315894444421
40
0.229443214384485
40
0.231697854264612
40
0.23395249414474
40
0.237334453964931
40
0.238461773904995
40
0.240716413785122
40
0.24297105366525
40
0.247480333425505
40
0.249734973305632
40
0.256498892946015
40
0.265517452466524
40
0.283554571507544
40
0.292573131028054
40
0.319628809589583
40
0.355703047671623
40
0.391777285753662
40
0.409814404794682
40
0.427851523835702
40
0.445888642876721
40
0.463925761917741
40
0.481962880958761
40
0.49999999999978
40
0.518037119040801
40
0.53607423808182
40
0.554111357122839
40
0.57214847616386
40
0.590185595204877
40
0.608222714245899
40
0.626259833286918
40
0.644296952327938
40
0.662334071368958
40
0.680371190409979
40
0.716445428492017
40
0.725463988012525
40
0.734482547533037
40
0.751392346633992
40
0.752519666574057
40
0.754774306454184
40
0.757028946334312
40
0.760410906154505
40
0.761538226094567
40
0.763792865974696
40
0.76604750585482
40
0.769429465675015
40
0.770556785615076
40
0.771684105555138
40
0.775066065375332
40
0.779575345135586
40
0.784084624895841
40
0.788593904656096
40
0.824668142738136
40
0.860742380820175
40
0.932890856984254
40
0.968965095066293
40
0.987002214107313
40
0.991511493867568
40
0.994893453687757
40
0.996020773627823
40
0.99827541350795
40
1
40
1
40
1
40
1
41
1
10
49.1343301683353
20
8.53843612741409
30
0
41
1
10
49.133995121577
20
8.53838855093795
30
0
41
1
10
49.1332276235683
20
8.5382791806949
30
0
41
1
10
49.1316129582474
20
8.53804606766607
30
0
41
1
10
49.1295051836934
20
8.53773161369222
30
0
41
1
10
49.1261627698404
20
8.5372122591038
30
0
41
1
10
49.1219509914508
20
8.5365216786029
30
0
41
1
10
49.1117868222527
20
8.53473677431134
30
0
41
1
10
49.0897440527431
20
8.53020549081128
30
0
41
1
10
49.0556009373142
20
8.52066556800543
30
0
41
1
10
49.0267953014974
20
8.50953149365435
30
0
41
1
10
49.0109072056131
20
8.50234609632847
30
0
41
1
10
49.0077788918597
20
8.50089630383735
30
0
41
1
10
49.0061128850385
20
8.5001132540109
30
0
41
1
10
49.0048644508435
20
8.49952175846431
30
0
41
1
10
49.0038247647358
20
8.49902621612023
30
0
41
1
10
49.0023704894103
20
8.49832755134167
30
0
41
1
10
49.0011253703137
20
8.49772344281536
30
0
41
1
10
48.9998814040064
20
8.49711513535271
30
0
41
1
10
48.9988454923064
20
8.49660558885392
30
0
41
1
10
48.9971896115731
20
8.49578472049436
30
0
41
1
10
48.9955361387542
20
8.49495546581275
30
0
41
1
10
48.9930596642003
20
8.493699018168
30
0
41
1
10
48.9897644467073
20
8.49200142807808
30
0
41
1
10
48.983609132207
20
8.48874530890399
30
0
41
1
10
48.9770885395162
20
8.48513867320287
30
0
41
1
10
48.9673831240191
20
8.47952944386259
30
0
41
1
10
48.9545836445649
20
8.47169843326827
30
0
41
1
10
48.9373736256958
20
8.46009979921899
30
0
41
1
10
48.9222015791727
20
8.44871451483769
30
0
41
1
10
48.9103866583004
20
8.43912356738764
30
0
41
1
10
48.9016964911294
20
8.43169447758274
30
0
41
1
10
48.8931870127516
20
8.42403498931563
30
0
41
1
10
48.8848666716979
20
8.41615250906298
30
0
41
1
10
48.876743916499
20
8.40805444330155
30
0
41
1
10
48.8688271956857
20
8.39974819850798
30
0
41
1
10
48.8611249577888
20
8.39124118115902
30
0
41
1
10
48.8536439737882
20
8.38254236804829
30
0
41
1
10
48.8463910146638
20
8.37366073596951
30
0
41
1
10
48.8393728513957
20
8.36460526171635
30
0
41
1
10
48.8325962549638
20
8.35538492208244
30
0
41
1
10
48.8260659977492
20
8.34600977798183
30
0
41
1
10
48.8197868521333
20
8.33648989032858
30
0
41
1
10
48.8137635904973
20
8.32683532003668
30
0
41
1
10
48.8080009852223
20
8.31705612802014
30
0
41
1
10
48.8006685228494
20
8.30386517182575
30
0
41
1
10
48.7947178743746
20
8.29214208522126
30
0
41
1
10
48.7899561496616
20
8.28199093109546
30
0
41
1
10
48.7869684722461
20
8.27541012982212
30
0
41
1
10
48.7847530053269
20
8.27028956338438
30
0
41
1
10
48.7831423912548
20
8.26643756151987
30
0
41
1
10
48.7826976542552
20
8.26536696448642
30
0
41
1
10
48.7820799809584
20
8.26386703924311
30
0
41
1
10
48.7815558604703
20
8.26258024764454
30
0
41
1
10
48.7810359922975
20
8.26129257391855
30
0
41
1
10
48.7806054267882
20
8.26021896760574
30
0
41
1
10
48.7800075976287
20
8.25871492576781
30
0
41
1
10
48.7795004907412
20
8.25742470894158
30
0
41
1
10
48.7790814481575
20
8.25634886200154
30
0
41
1
10
48.7786641789994
20
8.25527268623918
30
0
41
1
10
48.7780022238865
20
8.25354976655885
30
0
41
1
10
48.7771056965522
20
8.25117835261162
30
0
41
1
10
48.7761447055057
20
8.24858852938624
30
0
41
1
10
48.7729982210728
20
8.23994691549899
30
0
41
1
10
48.7680840403859
20
8.22519253180565
30
0
41
1
10
48.760272305309
20
8.19731184771391
30
0
41
1
10
48.754593291835
20
8.16942743223771
30
0
41
1
10
48.7513997639506
20
8.14531603402691
30
0
41
1
10
48.7503121123681
20
8.13416150545854
30
0
41
1
10
48.7499053530905
20
8.12929810281361
30
0
41
1
10
48.7497718435371
20
8.12759382557911
30
0
41
1
10
48.7496747822514
20
8.12630337137256
30
0
41
1
10
48.749603177609
20
8.12532089750439
30
0
41
1
10
48.749548026914
20
8.12454471522358
30
0
41
1
10
48.749524118614
20
8.12420588914841
30
0
0
SPLINE
5
1F5
100
AcDbEntity
8
1
62
256
6
ByLayer
370
-1
48
1
60
0
100
AcDbSpline
70
4
71
3
72
22
73
18
40
0
40
0
40
0
40
0
40
0.0178234039225037
40
0.0278216291116182
40
0.0378198543007327
40
0.112806543219092
40
0.18779323213745
40
0.337766609974168
40
0.497738213
40
0.657709816025832
40
0.817681419051664
40
0.897667220564581
40
0.977653022077497
40
0.982652134672054
40
0.987651247266611
40
0.997649472455726
40
1
40
1
40
1
40
1
41
1
10
49.2705186035076
20
8.5576475310329
30
0
41
1
10
49.2697091146324
20
8.55753443045174
30
0
41
1
10
49.2684455865216
20
8.55735699944248
30
0
41
1
10
49.2667279236522
20
8.55711493077655
30
0
41
1
10
49.2624140222505
20
8.55650619960932
30
0
41
1
10
49.2551485086111
20
8.55548103159936
30
0
41
1
10
49.2415256817314
20
8.55355899898862
30
0
41
1
10
49.2240430682685
20
8.55109259247837
30
0
41
1
10
49.2027006570281
20
8.54808165466065
30
0
41
1
10
49.1809041519314
20
8.54500665433616
30
0
41
1
10
49.1627403976843
20
8.54244415406578
30
0
41
1
10
49.1481588437908
20
8.54038534847027
30
0
41
1
10
49.140686374944
20
8.53933181480102
30
0
41
1
10
49.1366422612044
20
8.53876269553726
30
0
41
1
10
49.1357463687246
20
8.53863652488417
30
0
41
1
10
49.1349753445282
20
8.53852765911648
30
0
41
1
10
49.1344331452926
20
8.53845075009176
30
0
41
1
10
49.1343301683353
20
8.53843612741409
30
0
0
SPLINE
5
1F6
100
AcDbEntity
8
1
62
256
6
ByLayer
370
-1
48
1
60
0
100
AcDbSpline
70
4
71
3
72
8
73
4
40
0
40
0
40
0
40
0
40
1
40
1
40
1
40
1
41
1
10
49.3536223455986
20
8.56488165267461
30
0
41
1
10
49.3656256450426
20
8.56534632658875
30
0
41
1
10
49.377629786787
20
8.56578907594121
30
0
41
1
10
49.3896346913426
20
8.56620989780018
30
0
0
SPLINE
5
1F7
100
AcDbEntity
8
1
62
256
6
ByLayer
370
-1
48
1
60
0
100
AcDbSpline
70
4
71
3
72
19
73
15
40
0
40
0
40
0
40
0
40
0.0403657336154867
40
0.106300330648545
40
0.172234927681603
40
0.23816952471466
40
0.370038718780776
40
0.501907912846892
40
0.765646300979124
40
0.831580898012182
40
0.897515495045239
40
0.930482793561768
40
0.963450092078297
40
1
40
1
40
1
40
1
41
1
10
48.8984032365079
20
3.30556784374281
30
0
41
1
10
48.8984439325322
20
3.30444157302978
30
0
41
1
10
48.8985539470189
20
3.30147595676681
30
0
41
1
10
48.8987531578017
20
3.29667233449789
30
0
41
1
10
48.8990248296016
20
3.29115610429957
30
0
41
1
10
48.8994403280926
20
3.28380268669434
30
0
41
1
10
48.9000522428086
20
3.27461548414212
30
0
41
1
10
48.9012322067248
20
3.25992983109964
30
0
41
1
10
48.9025329221379
20
3.24710350169804
30
0
41
1
10
48.9038313234322
20
3.23613291769865
30
0
41
1
10
48.9044054133525
20
3.23156669421434
30
0
41
1
10
48.904886042309
20
3.22791719798229
30
0
41
1
10
48.9052687858415
20
3.22508221433631
30
0
41
1
10
48.9055336739253
20
3.22315974193828
30
0
41
1
10
48.9056738178416
20
3.22214901964364
30
0
0
SPLINE
5
1F8
100
AcDbEntity
8
1
62
256
6
ByLayer
370
-1
48
1
60
0
100
AcDbSpline
70
4
71
3
72
48
73
44
40
0
40
0
40
0
40
0
40
0.015625
40
0.0234375
40
0.02734375
40
0.029296875
40
0.0302734375
40
0.03125
40
0.03173828125
40
0.046875
40
0.0625
40
0.125
40
0.1875
40
0.25
40
0.3125
40
0.375
40
0.390625
40
0.40625
40
0.4140625
40
0.421875
40
0.4375
40
0.5
40
0.5625
40
0.59375
40
0.6015625
40
0.60546875
40
0.609375
40
0.6171875
40
0.625
40
0.65625
40
0.671875
40
0.6796875
40
0.6875
40
0.71875
40
0.75
40
0.78125
40
0.7890625
40
0.79296875
40
0.796875
40
0.8046875
40
0.8125
40
0.875
40
1
40
1
40
1
40
1
41
1
10
53.8418572366314
20
5.78085336463764
30
0
41
1
10
53.8463493019283
20
5.78101083021849
30
0
41
1
10
53.8532921492973
20
5.7812513462159
30
0
41
1
10
53.8610722531419
20
5.78151579698206
30
0
41
1
10
53.8648056417202
20
5.78164141397821
30
0
41
1
10
53.8666174465225
20
5.78170204731322
30
0
41
1
10
53.8676472607323
20
5.78173641837438
30
0
41
1
10
53.8682916393323
20
5.78175791348426
30
0
41
1
10
53.8726841073489
20
5.78190448064726
30
0
41
1
10
53.8809519588214
20
5.78218035965989
30
0
41
1
10
53.9056263280596
20
5.78300368608814
30
0
41
1
10
53.9428316596859
20
5.7842451416449
30
0
41
1
10
53.9924387685209
20
5.78590041572056
30
0
41
1
10
54.0420458773558
20
5.78755568979622
30
0
41
1
10
54.0916529861908
20
5.78921096387188
30
0
41
1
10
54.1288484204769
20
5.79045208036592
30
0
41
1
10
54.1536717695747
20
5.79128039552918
30
0
41
1
10
54.1640049343586
20
5.79162518778449
30
0
41
1
10
54.1722397946973
20
5.79189993658804
30
0
41
1
10
54.1805186711055
20
5.7921767207435
30
0
41
1
10
54.2036088129742
20
5.79295076177536
30
0
41
1
10
54.2429339994795
20
5.7942806549668
30
0
41
1
10
54.2882085870797
20
5.79583192631981
30
0
41
1
10
54.3177492420705
20
5.79685348269936
30
0
41
1
10
54.3302372295959
20
5.79728695350926
30
0
41
1
10
54.3347509142449
20
5.79744380524491
30
0
41
1
10
54.3392904633222
20
5.79760168488065
30
0
41
1
10
54.3449991325018
20
5.79780029013921
30
0
41
1
10
54.3586828531612
20
5.79827631638489
30
0
41
1
10
54.3746442016794
20
5.79883156571398
30
0
41
1
10
54.3906146325595
20
5.7993871629613
30
0
41
1
10
54.3997255664306
20
5.79970407147709
30
0
41
1
10
54.413379550322
20
5.80017975997399
30
0
41
1
10
54.4338895380835
20
5.80089696646144
30
0
41
1
10
54.4610989765849
20
5.80185414883482
30
0
41
1
10
54.4812507077739
20
5.8025674052675
30
0
41
1
10
54.4934234102994
20
5.80299988933288
30
0
41
1
10
54.4978260979333
20
5.80315651511785
30
0
41
1
10
54.5022275862152
20
5.80331320309242
30
0
41
1
10
54.5077360980923
20
5.80350933388095
30
0
41
1
10
54.5297645443169
20
5.8042936289759
30
0
41
1
10
54.5848356598785
20
5.80625436671326
30
0
41
1
10
54.6377039308175
20
5.8081366749411
30
0
41
1
10
54.6729494447769
20
5.80939154709301
30
0
0
SPLINE
5
1F9
100
AcDbEntity
8
1
62
256
6
ByLayer
370
-1
48
1
60
0
100
AcDbSpline
70
4
71
3
72
48
73
44
40
0
40
0
40
0
40
0
40
0.015625
40
0.0234375
40
0.02734375
40
0.029296875
40
0.0302734375
40
0.03125
40
0.03173828125
40
0.046875
40
0.0625
40
0.125
40
0.1875
40
0.25
40
0.3125
40
0.375
40
0.390625
40
0.40625
40
0.4140625
40
0.421875
40
0.4375
40
0.5
40
0.5625
40
0.59375
40
0.6015625
40
0.60546875
40
0.609375
40
0.6171875
40
0.625
40
0.65625
40
0.671875
40
0.6796875
40
0.6875
40
0.71875
40
0.75
40
0.78125
40
0.7890625
40
0.79296875
40
0.796875
40
0.8046875
40
0.8125
40
0.875
40
1
40
1
40
1
40
1
41
1
10
49.6155797511603
20
5.63270475256309
30
0
41
1
10
49.6110876858634
20
5.63254728698223
30
0
41
1
10
49.6043079970497
20
5.63230677098483
30
0
41
1
10
49.5969999768361
20
5.63204232021866
30
0
41
1
10
49.5935663420435
20
5.63191670322254
30
0
41
1
10
49.5919187381473
20
5.6318560698875
30
0
41
1
10
49.5909875263313
20
5.63182169882634
30
0
41
1
10
49.5904055107359
20
5.63180020371647
30
0
41
1
10
49.5864356526742
20
5.63165363655347
30
0
41
1
10
49.578963346431
20
5.63137775754086
30
0
41
1
10
49.5566631824862
20
5.63055443111259
30
0
41
1
10
49.5230378043915
20
5.62931297555585
30
0
41
1
10
49.4782039669321
20
5.62765770148016
30
0
41
1
10
49.4333701294726
20
5.6260024274045
30
0
41
1
10
49.388536292013
20
5.62434715332884
30
0
41
1
10
49.3549203616552
20
5.62310603683483
30
0
41
1
10
49.3324845474518
20
5.62227772167154
30
0
41
1
10
49.3231457392706
20
5.62193292941623
30
0
41
1
10
49.3157049254834
20
5.62165818061268
30
0
41
1
10
49.3081920016426
20
5.62138139645725
30
0
41
1
10
49.2871195672972
20
5.62060735542536
30
0
41
1
10
49.2505682730951
20
5.61927746223395
30
0
41
1
10
49.2073357447482
20
5.61772619088092
30
0
41
1
10
49.1785919424414
20
5.61670463450136
30
0
41
1
10
49.166348440433
20
5.61627116369147
30
0
41
1
10
49.1619130171608
20
5.61611431195581
30
0
41
1
10
49.157444811922
20
5.61595643232007
30
0
41
1
10
49.1518221439939
20
5.61575782706151
30
0
41
1
10
49.1383463931405
20
5.61528180081584
30
0
41
1
10
49.1226282313963
20
5.61472655148677
30
0
41
1
10
49.1068993016892
20
5.61417095423946
30
0
41
1
10
49.0979291572903
20
5.61385404572366
30
0
41
1
10
49.0844429397791
20
5.61337835722674
30
0
41
1
10
49.0640330216718
20
5.61266115073929
30
0
41
1
10
49.0366308339489
20
5.6117039683659
30
0
41
1
10
49.0160880279363
20
5.61099071193325
30
0
41
1
10
49.0035855392084
20
5.61055822786784
30
0
41
1
10
48.9990520104394
20
5.61040160208287
30
0
41
1
10
48.9945137341179
20
5.61024491410831
30
0
41
1
10
48.9888320887033
20
5.61004878331977
30
0
41
1
10
48.9661129175821
20
5.60926448822482
30
0
41
1
10
48.9093149897793
20
5.60730375048749
30
0
41
1
10
48.8547889790885
20
5.60542144225963
30
0
41
1
10
48.8184383052946
20
5.60416657010774
30
0
0
SPLINE
5
1FA
100
AcDbEntity
8
1
62
256
6
ByLayer
370
-1
48
1
60
0
100
AcDbSpline
70
4
71
3
72
153
73
149
40
0
40
0
40
0
40
0
40
0.125
40
0.25
40
0.375
40
0.3828125
40
0.390625
40
0.398193359375
40
0.4019775390625
40
0.405643463134766
40
0.40576171875
40
0.406005859375
40
0.40625
40
0.4072265625
40
0.40771484375
40
0.408203125
40
0.4091796875
40
0.41015625
40
0.412109375
40
0.4140625
40
0.416015625
40
0.4169921875
40
0.41796875
40
0.4189453125
40
0.41943359375
40
0.419921875
40
0.42041015625
40
0.4208984375
40
0.421875
40
0.422119140625
40
0.42236328125
40
0.422477722167969
40
0.426025390625
40
0.4296875
40
0.4375
40
0.439453125
40
0.44140625
40
0.443359375
40
0.4443359375
40
0.4453125
40
0.445556640625
40
0.44580078125
40
0.446044921875
40
0.4462890625
40
0.4464111328125
40
0.44677734375
40
0.447265625
40
0.44921875
40
0.453125
40
0.4609375
40
0.46484375
40
0.46875
40
0.46923828125
40
0.4697265625
40
0.47021484375
40
0.4705810546875
40
0.470703125
40
0.4708251953125
40
0.47119140625
40
0.471435546875
40
0.4716796875
40
0.4718017578125
40
0.47216796875
40
0.472412109375
40
0.47265625
40
0.4727783203125
40
0.474609375
40
0.4755859375
40
0.4765625
40
0.48046875
40
0.482421875
40
0.484375
40
0.486328125
40
0.48828125
40
0.490234375
40
0.4921875
40
0.494140625
40
0.49609375
40
0.498046875
40
0.5
40
0.501953125
40
0.50390625
40
0.505859375
40
0.5078125
40
0.509765625
40
0.51171875
40
0.515625
40
0.51953125
40
0.5224609375
40
0.5234375
40
0.525390625
40
0.5263671875
40
0.527099609375
40
0.52734375
40
0.52783203125
40
0.528076171875
40
0.5283203125
40
0.5284423828125
40
0.52880859375
40
0.529052734375
40
0.529296875
40
0.5294189453125
40
0.52978515625
40
0.5302734375
40
0.53125
40
0.5390625
40
0.546875
40
0.55078125
40
0.5517578125
40
0.552734375
40
0.55322265625
40
0.5537109375
40
0.553955078125
40
0.55419921875
40
0.554443359375
40
0.5545654296875
40
0.5546875
40
0.556640625
40
0.55859375
40
0.5625
40
0.56640625
40
0.5703125
40
0.573974609375
40
0.5758056640625
40
0.57763671875
40
0.577880859375
40
0.578125
40
0.5791015625
40
0.57958984375
40
0.580078125
40
0.5810546875
40
0.58203125
40
0.5859375
40
0.587890625
40
0.58984375
40
0.5908203125
40
0.591796875
40
0.5927734375
40
0.59375
40
0.593994140625
40
0.59423828125
40
0.594380187988281
40
0.601806640625
40
0.609375
40
0.625
40
0.75
40
0.875
40
1
40
1
40
1
40
1
41
1
10
51.6549260629567
20
7.82798964803973
30
0
41
1
10
51.828350270939
20
7.83406888817507
30
0
41
1
10
52.1751986869037
20
7.84622736844574
30
0
41
1
10
52.6954713108508
20
7.86446508885172
30
0
41
1
10
53.0531587398144
20
7.87700352163083
30
0
41
1
10
53.2482609737945
20
7.88384266678307
30
0
41
1
10
53.280439293635
20
7.88497065079255
30
0
41
1
10
53.3070287473979
20
7.88590272178988
30
0
41
1
10
53.327865267992
20
7.88663312854075
30
0
41
1
10
53.3383655618347
20
7.88700120753333
30
0
41
1
10
53.3439544279123
20
7.88719712054549
30
0
41
1
10
53.3447959333159
20
7.88722661881152
30
0
41
1
10
53.3468282482533
20
7.88729785990688
30
0
41
1
10
53.3491992823468
20
7.88738097451809
30
0
41
1
10
53.3519090355965
20
7.8874759626452
30
0
41
1
10
53.3546187888462
20
7.88757095077233
30
0
41
1
10
53.3580059804083
20
7.88768968593121
30
0
41
1
10
53.3634254869078
20
7.88787966218544
30
0
41
1
10
53.3701998700321
20
7.88811713250323
30
0
41
1
10
53.3783291297813
20
7.88840209688456
30
0
41
1
10
53.3851035129056
20
7.88863956720235
30
0
41
1
10
53.3905230194051
20
7.88882954345658
30
0
41
1
10
53.3945876492796
20
7.88897202564726
30
0
41
1
10
53.3979748408418
20
7.88909076080614
30
0
41
1
10
53.4006845940915
20
7.88918574893327
30
0
41
1
10
53.4027169090288
20
7.8892569900286
30
0
41
1
10
53.4047492239661
20
7.88932823112396
30
0
41
1
10
53.4074589772158
20
7.88942321925106
30
0
41
1
10
53.4098300113093
20
7.88950633386227
30
0
41
1
10
53.4118623262466
20
7.88957757495763
30
0
41
1
10
53.4126985391636
20
7.88960688769996
30
0
41
1
10
53.418118045663
20
7.88979686395419
30
0
41
1
10
53.4282796203495
20
7.89015306943088
30
0
41
1
10
53.4491214334303
20
7.89088366170543
30
0
41
1
10
53.4677509870222
20
7.89153670507935
30
0
41
1
10
53.4840095065205
20
7.89210663384205
30
0
41
1
10
53.4921389637621
20
7.89239161202826
30
0
41
1
10
53.4989138406173
20
7.89262911685825
30
0
41
1
10
53.5043340383401
20
7.89281914142953
30
0
41
1
10
53.5073830291635
20
7.89292603931034
30
0
41
1
10
53.5094157514287
20
7.89299730887825
30
0
41
1
10
53.5104321252904
20
7.89303294455195
30
0
41
1
10
53.5114485122668
20
7.89306858114239
30
0
41
1
10
53.5122955126641
20
7.89309827908752
30
0
41
1
10
53.5133119235556
20
7.89313391734964
30
0
41
1
10
53.5146671568496
20
7.89318143634466
30
0
41
1
10
53.5185635508983
20
7.89331806032857
30
0
41
1
10
53.5273734582108
20
7.89362699607096
30
0
41
1
10
53.5463527905314
20
7.89429268603388
30
0
41
1
10
53.5680560955522
20
7.89505435807507
30
0
41
1
10
53.5897265626264
20
7.89581373471708
30
0
41
1
10
53.6012193148537
20
7.89621577767207
30
0
41
1
10
53.6079705797539
20
7.89645163200717
30
0
41
1
10
53.6099980067551
20
7.8965225314318
30
0
41
1
10
53.6118607961658
20
7.89658782416925
30
0
41
1
10
53.6132251620247
20
7.896635981538
30
0
41
1
10
53.6140831614354
20
7.89666644832309
30
0
41
1
10
53.6149441026595
20
7.89669712074334
30
0
41
1
10
53.6159790318272
20
7.89673400591983
30
0
41
1
10
53.6171660583924
20
7.89677533604456
30
0
41
1
10
53.6179935148708
20
7.89680319257178
30
0
41
1
10
53.6189601939893
20
7.89683449903481
30
0
41
1
10
53.6198967550284
20
7.89686258160557
30
0
41
1
10
53.6209669546017
20
7.89688891322282
30
0
41
1
10
53.6217267294468
20
7.8969033874464
30
0
41
1
10
53.6244714352271
20
7.89694201335294
30
0
41
1
10
53.6281972492724
20
7.8968974770155
30
0
41
1
10
53.6330918754613
20
7.89665688151865
30
0
41
1
10
53.6407356558752
20
7.89608442683107
30
0
41
1
10
53.6497746105691
20
7.89482550550926
30
0
41
1
10
53.6601639797955
20
7.89251988644543
30
0
41
1
10
53.667958800168
20
7.89034318156087
30
0
41
1
10
53.6757296398007
20
7.88770492142231
30
0
41
1
10
53.6834319822268
20
7.88460553604384
30
0
41
1
10
53.6910213109795
20
7.88104545543936
30
0
41
1
10
53.6984582762
20
7.87703164900955
30
0
41
1
10
53.7057035280291
20
7.87257108615492
30
0
41
1
10
53.7127185633432
20
7.86768040893497
30
0
41
1
10
53.7194648790185
20
7.86237625940916
30
0
41
1
10
53.7259082880761
20
7.85668393900386
30
0
41
1
10
53.7320146035372
20
7.85062874914539
30
0
41
1
10
53.7377562968902
20
7.84424315886724
30
0
41
1
10
53.7431058396239
20
7.83755963720284
30
0
41
1
10
53.7480440075495
20
7.83061557931032
30
0
41
1
10
53.7525515764785
20
7.82344838034774
30
0
41
1
10
53.7579746418887
20
7.81364648402132
30
0
41
1
10
53.7636286217859
20
7.80103084987715
30
0
41
1
10
53.7681723108668
20
7.78694754836079
30
0
41
1
10
53.7704669748629
20
7.77670368664892
30
0
41
1
10
53.7717733495234
20
7.76906185253591
30
0
41
1
10
53.7724399816312
20
7.76399477557044
30
0
41
1
10
53.7728754502224
20
7.75931453182162
30
0
41
1
10
53.7730490587317
20
7.75684712687499
30
0
41
1
10
53.7731542339601
20
7.75501110286396
30
0
41
1
10
53.7732118520152
20
7.7537947215331
30
0
41
1
10
53.7732628530343
20
7.75254688721614
30
0
41
1
10
53.7732931969328
20
7.7517457420941
30
0
41
1
10
53.7733293338707
20
7.75075791520442
30
0
41
1
10
53.7733651488542
20
7.74974011484139
30
0
41
1
10
53.773406663421
20
7.74853214349238
30
0
41
1
10
53.7734362388031
20
7.74766639913256
30
0
41
1
10
53.7734717277191
20
7.74663283426355
30
0
41
1
10
53.7735190438175
20
7.74526323368258
30
0
41
1
10
53.7736077562534
20
7.74271336382768
30
0
41
1
10
53.7740572195706
20
7.72983901829264
30
0
41
1
10
53.7748615405268
20
7.70673791808238
30
0
41
1
10
53.775807816417
20
7.67950508112261
30
0
41
1
10
53.7764228927543
20
7.6618140708932
30
0
41
1
10
53.7767067737094
20
7.65365047969996
30
0
41
1
10
53.7768250573747
20
7.65024921107727
30
0
41
1
10
53.776919684271
20
7.64752832038334
30
0
41
1
10
53.776978826067
20
7.64582781286384
30
0
41
1
10
53.7770261394957
20
7.64446743479422
30
0
41
1
10
53.7770616245633
20
7.64344716482682
30
0
41
1
10
53.7770911954497
20
7.64259695085124
30
0
41
1
10
53.777114852157
20
7.64191678607506
30
0
41
1
10
53.7772213073345
20
7.63885606350402
30
0
41
1
10
53.7774164750758
20
7.63324502911789
30
0
41
1
10
53.7777949819804
20
7.62236381794293
30
0
41
1
10
53.7782681153234
20
7.60876329760833
30
0
41
1
10
53.7788358753351
20
7.59244267320679
30
0
41
1
10
53.7793918070132
20
7.57646206181363
30
0
41
1
10
53.7798471978559
20
7.56337156099158
30
0
41
1
10
53.7802020478632
20
7.55317117074063
30
0
41
1
10
53.7803913012004
20
7.54773096260681
30
0
41
1
10
53.7805036703694
20
7.54450083902734
30
0
41
1
10
53.7805746403709
20
7.54246076097712
30
0
41
1
10
53.7806574387059
20
7.54008066991858
30
0
41
1
10
53.7807520653745
20
7.53736056585166
30
0
41
1
10
53.7808466920432
20
7.53464046178473
30
0
41
1
10
53.7809649753789
20
7.5312403317011
30
0
41
1
10
53.7812488553848
20
7.52308001950033
30
0
41
1
10
53.7815800487249
20
7.51355965526611
30
0
41
1
10
53.7819585553993
20
7.50267923899841
30
0
41
1
10
53.7821951220709
20
7.49587897883112
30
0
41
1
10
53.7823843754081
20
7.49043877069727
30
0
41
1
10
53.782526315411
20
7.4863586145969
30
0
41
1
10
53.7826682554139
20
7.48227845849652
30
0
41
1
10
53.7827747104161
20
7.47921834142122
30
0
41
1
10
53.7828456804176
20
7.47717826337103
30
0
41
1
10
53.7828762123036
20
7.47630060479321
30
0
41
1
10
53.7832547189781
20
7.46542018852551
30
0
41
1
10
53.7839880756599
20
7.44433938200689
30
0
41
1
10
53.7854715704716
20
7.40169537551398
30
0
41
1
10
53.7926513689526
20
7.19530747943639
30
0
41
1
10
53.805520595884
20
6.82537332633518
30
0
41
1
10
53.8236889162578
20
6.30311334548639
30
0
41
1
10
53.8358011298402
20
5.95494002492055
30
0
41
1
10
53.8418572366314
20
5.78085336463764
30
0
0
SPLINE
5
1FB
100
AcDbEntity
8
1
62
256
6
ByLayer
370
-1
48
1
60
0
100
AcDbSpline
70
4
71
3
72
23
73
19
40
0
40
0
40
0
40
0
40
0.0365499079217207
40
0.0695172064382491
40
0.102484504954777
40
0.135451803471306
40
0.168419101987834
40
0.234353699020891
40
0.300288296053932
40
0.366222893087004
40
0.498092087153117
40
0.629961281219223
40
0.761830475285344
40
0.827765072318397
40
0.893699669351457
40
0.926666967867986
40
0.959634266384514
40
1
40
1
40
1
40
1
41
1
10
48.7399324651215
20
7.98649013191402
30
0
41
1
10
48.7398628987214
20
7.98547205840018
30
0
41
1
10
48.7397322504774
20
7.98353572080796
30
0
41
1
10
48.7395474452206
20
7.98068084221524
30
0
41
1
10
48.7393780570313
20
7.97792514624666
30
0
41
1
10
48.7392194423431
20
7.97516846098262
30
0
41
1
10
48.7390218076321
20
7.97149171623136
30
0
41
1
10
48.7387997737655
20
7.96689389203391
30
0
41
1
10
48.7385702695923
20
7.96137440175204
30
0
41
1
10
48.738314021196
20
7.95401275270081
30
0
41
1
10
48.7380879589127
20
7.94480721196629
30
0
41
1
10
48.7379705325846
20
7.93375783391903
30
0
41
1
10
48.7379985366238
20
7.92455016286786
30
0
41
1
10
48.7380950468245
20
7.91718556339569
30
0
41
1
10
48.7381886455689
20
7.91258404990003
30
0
41
1
10
48.7382849336649
20
7.90890408817066
30
0
41
1
10
48.738372325865
20
7.90593799121075
30
0
41
1
10
48.7384387856881
20
7.90389178128353
30
0
41
1
10
48.7384764545083
20
7.90276540445441
30
0
0
SPLINE
5
1FC
100
AcDbEntity
8
1
62
256
6
ByLayer
370
-1
48
1
60
0
100
AcDbSpline
70
4
71
3
72
14
73
10
40
0
40
0
40
0
40
0
40
0.0050966481374707
40
0.0240065217780212
40
0.0435263913424608
40
0.0630462609069004
40
0.375364173937934
40
0.687682086968967
40
1
40
1
40
1
40
1
41
1
10
54.7516553178783
20
3.54694509364984
30
0
41
1
10
54.7515215751147
20
3.5507887293044
30
0
41
1
10
54.7508916433114
20
3.56889323593444
30
0
41
1
10
54.7497497178829
20
3.60171861219999
30
0
41
1
10
54.7482293957439
20
3.64542124375131
30
0
41
1
10
54.7390114425643
20
3.91039719926255
30
0
41
1
10
54.722111861735
20
4.39618645103312
30
0
41
1
10
54.697530653256
20
5.10278899906305
30
0
41
1
10
54.6811431809366
20
5.57385736441634
30
0
41
1
10
54.6729494447769
20
5.80939154709299
30
0
0
SPLINE
5
1FD
100
AcDbEntity
8
1
62
256
6
ByLayer
370
-1
48
1
60
0
100
AcDbSpline
70
4
71
3
72
153
73
149
40
0
40
0
40
0
40
0
40
0.125
40
0.25
40
0.375
40
0.3828125
40
0.390625
40
0.398193359375
40
0.4019775390625
40
0.405643463134766
40
0.40576171875
40
0.406005859375
40
0.40625
40
0.4072265625
40
0.40771484375
40
0.408203125
40
0.4091796875
40
0.41015625
40
0.412109375
40
0.4140625
40
0.416015625
40
0.4169921875
40
0.41796875
40
0.4189453125
40
0.41943359375
40
0.419921875
40
0.42041015625
40
0.4208984375
40
0.421875
40
0.422119140625
40
0.42236328125
40
0.422477722167969
40
0.426025390625
40
0.4296875
40
0.4375
40
0.439453125
40
0.44140625
40
0.443359375
40
0.4443359375
40
0.4453125
40
0.445556640625
40
0.44580078125
40
0.446044921875
40
0.4462890625
40
0.4464111328125
40
0.44677734375
40
0.447265625
40
0.44921875
40
0.453125
40
0.4609375
40
0.46484375
40
0.46875
40
0.46923828125
40
0.4697265625
40
0.47021484375
40
0.4705810546875
40
0.470703125
40
0.4708251953125
40
0.47119140625
40
0.471435546875
40
0.4716796875
40
0.4718017578125
40
0.47216796875
40
0.472412109375
40
0.47265625
40
0.4727783203125
40
0.474609375
40
0.4755859375
40
0.4765625
40
0.48046875
40
0.482421875
40
0.484375
40
0.486328125
40
0.48828125
40
0.490234375
40
0.4921875
40
0.494140625
40
0.49609375
40
0.498046875
40
0.5
40
0.501953125
40
0.50390625
40
0.505859375
40
0.5078125
40
0.509765625
40
0.51171875
40
0.515625
40
0.51953125
40
0.5224609375
40
0.5234375
40
0.525390625
40
0.5263671875
40
0.527099609375
40
0.52734375
40
0.52783203125
40
0.528076171875
40
0.5283203125
40
0.5284423828125
40
0.52880859375
40
0.529052734375
40
0.529296875
40
0.5294189453125
40
0.52978515625
40
0.5302734375
40
0.53125
40
0.5390625
40
0.546875
40
0.55078125
40
0.5517578125
40
0.552734375
40
0.55322265625
40
0.5537109375
40
0.553955078125
40
0.55419921875
40
0.554443359375
40
0.5545654296875
40
0.5546875
40
0.556640625
40
0.55859375
40
0.5625
40
0.56640625
40
0.5703125
40
0.573974609375
40
0.5758056640625
40
0.57763671875
40
0.577880859375
40
0.578125
40
0.5791015625
40
0.57958984375
40
0.580078125
40
0.5810546875
40
0.58203125
40
0.5859375
40
0.587890625
40
0.58984375
40
0.5908203125
40
0.591796875
40
0.5927734375
40
0.59375
40
0.593994140625
40
0.59423828125
40
0.594380187988281
40
0.601806640625
40
0.609375
40
0.625
40
0.75
40
0.875
40
1
40
1
40
1
40
1
41
1
10
51.802510924835
20
3.58556846916096
30
0
41
1
10
51.6290867168527
20
3.57948922902563
30
0
41
1
10
51.282238300888
20
3.56733074875498
30
0
41
1
10
50.7619656769409
20
3.54909302834898
30
0
41
1
10
50.4042782479774
20
3.53655459556987
30
0
41
1
10
50.2091760139972
20
3.52971545041763
30
0
41
1
10
50.1769976941567
20
3.52858746640814
30
0
41
1
10
50.1504082403938
20
3.52765539541082
30
0
41
1
10
50.1295717197997
20
3.52692498865994
30
0
41
1
10
50.119071425957
20
3.52655690966739
30
0
41
1
10
50.1134825598795
20
3.5263609966552
30
0
41
1
10
50.1126410544758
20
3.52633149838917
30
0
41
1
10
50.1106087395385
20
3.52626025729384
30
0
41
1
10
50.108237705445
20
3.5261771426826
30
0
41
1
10
50.1055279521953
20
3.5260821545555
30
0
41
1
10
50.1028181989456
20
3.52598716642839
30
0
41
1
10
50.0994310073834
20
3.52586843126949
30
0
41
1
10
50.0940115008839
20
3.52567845501525
30
0
41
1
10
50.0872371177596
20
3.52544098469747
30
0
41
1
10
50.0791078580105
20
3.52515602031613
30
0
41
1
10
50.0723334748861
20
3.52491854999835
30
0
41
1
10
50.0669139683867
20
3.52472857374411
30
0
41
1
10
50.0628493385121
20
3.52458609155343
30
0
41
1
10
50.0594621469499
20
3.52446735639455
30
0
41
1
10
50.0567523937002
20
3.52437236826742
30
0
41
1
10
50.0547200787629
20
3.5243011271721
30
0
41
1
10
50.0526877638257
20
3.52422988607677
30
0
41
1
10
50.0499780105759
20
3.52413489794964
30
0
41
1
10
50.0476069764824
20
3.52405178333842
30
0
41
1
10
50.0455746615451
20
3.5239805422431
30
0
41
1
10
50.0447384486282
20
3.52395122950074
30
0
41
1
10
50.0393189421288
20
3.52376125324651
30
0
41
1
10
50.0291573674423
20
3.52340504776981
30
0
41
1
10
50.0083155543614
20
3.52267445549526
30
0
41
1
10
49.9896860007696
20
3.52202141212135
30
0
41
1
10
49.9734274812712
20
3.52145148335868
30
0
41
1
10
49.9652980240297
20
3.52116650517243
30
0
41
1
10
49.9585231471745
20
3.52092900034245
30
0
41
1
10
49.9531029494517
20
3.52073897577117
30
0
41
1
10
49.9500539586283
20
3.52063207789036
30
0
41
1
10
49.948021236363
20
3.52056080832247
30
0
41
1
10
49.9470048625013
20
3.52052517264875
30
0
41
1
10
49.945988475525
20
3.52048953605831
30
0
41
1
10
49.9451414751276
20
3.5204598381132
30
0
41
1
10
49.9441250642361
20
3.52042419985105
30
0
41
1
10
49.9427698309421
20
3.52037668085603
30
0
41
1
10
49.9388734368935
20
3.52024005687213
30
0
41
1
10
49.9300635295809
20
3.51993112112976
30
0
41
1
10
49.9110841972603
20
3.51926543116682
30
0
41
1
10
49.8893808922396
20
3.51850375912565
30
0
41
1
10
49.8677104251653
20
3.51774438248361
30
0
41
1
10
49.856217672938
20
3.51734233952865
30
0
41
1
10
49.8494664080378
20
3.51710648519352
30
0
41
1
10
49.8474389810366
20
3.5170355857689
30
0
41
1
10
49.8455761916259
20
3.51697029303145
30
0
41
1
10
49.844211825767
20
3.51692213566273
30
0
41
1
10
49.8433538263563
20
3.51689166887763
30
0
41
1
10
49.8424928851322
20
3.51686099645738
30
0
41
1
10
49.8414579559645
20
3.51682411128087
30
0
41
1
10
49.8402709293993
20
3.51678278115614
30
0
41
1
10
49.8394434729209
20
3.51675492462891
30
0
41
1
10
49.8384767938024
20
3.51672361816588
30
0
41
1
10
49.8375402327633
20
3.51669553559512
30
0
41
1
10
49.83647003319
20
3.51666920397787
30
0
41
1
10
49.8357102583449
20
3.51665472975429
30
0
41
1
10
49.8329655525646
20
3.51661610384775
30
0
41
1
10
49.8292397385193
20
3.51666064018519
30
0
41
1
10
49.8243451123304
20
3.51690123568207
30
0
41
1
10
49.8167013319165
20
3.51747369036963
30
0
41
1
10
49.8076623772226
20
3.51873261169146
30
0
41
1
10
49.7972730079962
20
3.52103823075527
30
0
41
1
10
49.7894781876237
20
3.52321493563986
30
0
41
1
10
49.781707347991
20
3.52585319577838
30
0
41
1
10
49.7740050055649
20
3.52895258115689
30
0
41
1
10
49.7664156768122
20
3.53251266176133
30
0
41
1
10
49.7589787115918
20
3.53652646819114
30
0
41
1
10
49.7517334597626
20
3.54098703104577
30
0
41
1
10
49.7447184244486
20
3.54587770826575
30
0
41
1
10
49.7379721087732
20
3.55118185779156
30
0
41
1
10
49.7315286997156
20
3.55687417819686
30
0
41
1
10
49.7254223842546
20
3.56292936805531
30
0
41
1
10
49.7196806909015
20
3.56931495833345
30
0
41
1
10
49.7143311481679
20
3.57599847999785
30
0
41
1
10
49.7093929802422
20
3.58294253789038
30
0
41
1
10
49.7048854113132
20
3.59010973685295
30
0
41
1
10
49.699462345903
20
3.59991163317937
30
0
41
1
10
49.6938083660058
20
3.61252726732357
30
0
41
1
10
49.689264676925
20
3.62661056883991
30
0
41
1
10
49.6869700129288
20
3.63685443055181
30
0
41
1
10
49.6856636382684
20
3.64449626466478
30
0
41
1
10
49.6849970061606
20
3.64956334163025
30
0
41
1
10
49.6845615375693
20
3.65424358537911
30
0
41
1
10
49.6843879290601
20
3.65671099032571
30
0
41
1
10
49.6842827538317
20
3.65854701433673
30
0
41
1
10
49.6842251357766
20
3.6597633956676
30
0
41
1
10
49.6841741347575
20
3.66101122998458
30
0
41
1
10
49.6841437908588
20
3.66181237510659
30
0
41
1
10
49.6841076539211
20
3.66280020199628
30
0
41
1
10
49.6840718389375
20
3.66381800235931
30
0
41
1
10
49.6840303243707
20
3.66502597370831
30
0
41
1
10
49.6840007489886
20
3.66589171806814
30
0
41
1
10
49.6839652600726
20
3.66692528293714
30
0
41
1
10
49.6839179439742
20
3.66829488351812
30
0
41
1
10
49.6838292315383
20
3.67084475337305
30
0
41
1
10
49.6833797682212
20
3.68371909890806
30
0
41
1
10
49.682575447265
20
3.70682019911831
30
0
41
1
10
49.6816291713747
20
3.73405303607808
30
0
41
1
10
49.6810140950374
20
3.75174404630752
30
0
41
1
10
49.6807302140824
20
3.75990763750073
30
0
41
1
10
49.6806119304171
20
3.76330890612346
30
0
41
1
10
49.6805173035207
20
3.76602979681735
30
0
41
1
10
49.6804581617247
20
3.76773030433685
30
0
41
1
10
49.680410848296
20
3.7690906824065
30
0
41
1
10
49.6803753632285
20
3.77011095237387
30
0
41
1
10
49.680345792342
20
3.77096116634945
30
0
41
1
10
49.6803221356347
20
3.77164133112564
30
0
41
1
10
49.6802156804573
20
3.77470205369667
30
0
41
1
10
49.6800205127159
20
3.78031308808283
30
0
41
1
10
49.6796420058114
20
3.79119429925777
30
0
41
1
10
49.6791688724683
20
3.80479481959239
30
0
41
1
10
49.6786011124566
20
3.8211154439939
30
0
41
1
10
49.6780451807785
20
3.83709605538707
30
0
41
1
10
49.6775897899358
20
3.85018655620911
30
0
41
1
10
49.6772349399286
20
3.86038694646007
30
0
41
1
10
49.6770456865913
20
3.86582715459392
30
0
41
1
10
49.6769333174223
20
3.86905727817339
30
0
41
1
10
49.6768623474209
20
3.87109735622357
30
0
41
1
10
49.6767795490858
20
3.87347744728211
30
0
41
1
10
49.6766849224172
20
3.87619755134904
30
0
41
1
10
49.6765902957486
20
3.87891765541596
30
0
41
1
10
49.6764720124128
20
3.88231778549962
30
0
41
1
10
49.676188132407
20
3.89047809770037
30
0
41
1
10
49.6758569390669
20
3.89999846193459
30
0
41
1
10
49.6754784323924
20
3.91087887820228
30
0
41
1
10
49.6752418657209
20
3.91767913836958
30
0
41
1
10
49.6750526123836
20
3.92311934650343
30
0
41
1
10
49.6749106723807
20
3.9271995026038
30
0
41
1
10
49.6747687323778
20
3.9312796587042
30
0
41
1
10
49.6746622773756
20
3.93433977577948
30
0
41
1
10
49.6745913073742
20
3.93637985382966
30
0
41
1
10
49.6745607754881
20
3.93725751240751
30
0
41
1
10
49.6741822688136
20
3.94813792867518
30
0
41
1
10
49.6734489121319
20
3.96921873519383
30
0
41
1
10
49.6719654173202
20
4.01186274168671
30
0
41
1
10
49.6647856188391
20
4.21825063776433
30
0
41
1
10
49.6519163919077
20
4.58818479086554
30
0
41
1
10
49.633748071534
20
5.1104447717143
30
0
41
1
10
49.6216358579515
20
5.45861809228015
30
0
41
1
10
49.6155797511603
20
5.63270475256309
30
0
0
SPLINE
5
1FE
100
AcDbEntity
8
1
62
256
6
ByLayer
370
-1
48
1
60
0
100
AcDbSpline
70
4
71
3
72
14
73
10
40
0
40
0
40
0
40
0
40
0.00509664813747
40
0.0240065217780206
40
0.0435263913424602
40
0.0630462609068998
40
0.375364173937933
40
0.687682086968967
40
1
40
1
40
1
40
1
41
1
10
49.5940787303936
20
2.68933533138457
30
0
41
1
10
49.5979077398541
20
2.68946958502377
30
0
41
1
10
49.6159433533705
20
2.6901019230643
30
0
41
1
10
49.6486438191691
20
2.69124821046236
30
0
41
1
10
49.6921801490131
20
2.69277433998497
30
0
41
1
10
49.9561477910153
20
2.70202750424821
30
0
41
1
10
50.440088468019
20
2.71899163873087
30
0
41
1
10
51.1440021800246
20
2.7436667434329
30
0
41
1
10
51.6132779880283
20
2.76011681323428
30
0
41
1
10
51.8479158920301
20
2.76834184813495
30
0
0
SPLINE
5
1FF
100
AcDbEntity
8
1
62
256
6
ByLayer
370
-1
48
1
60
0
100
AcDbSpline
70
4
71
3
72
153
73
149
40
0
40
0
40
0
40
0
40
0.125
40
0.25
40
0.375
40
0.3828125
40
0.390625
40
0.398193359375
40
0.4019775390625
40
0.405643463134766
40
0.40576171875
40
0.406005859375
40
0.40625
40
0.4072265625
40
0.40771484375
40
0.408203125
40
0.4091796875
40
0.41015625
40
0.412109375
40
0.4140625
40
0.416015625
40
0.4169921875
40
0.41796875
40
0.4189453125
40
0.41943359375
40
0.419921875
40
0.42041015625
40
0.4208984375
40
0.421875
40
0.422119140625
40
0.42236328125
40
0.422477722167969
40
0.426025390625
40
0.4296875
40
0.4375
40
0.439453125
40
0.44140625
40
0.443359375
40
0.4443359375
40
0.4453125
40
0.445556640625
40
0.44580078125
40
0.446044921875
40
0.4462890625
40
0.4464111328125
40
0.44677734375
40
0.447265625
40
0.44921875
40
0.453125
40
0.4609375
40
0.46484375
40
0.46875
40
0.46923828125
40
0.4697265625
40
0.47021484375
40
0.4705810546875
40
0.470703125
40
0.4708251953125
40
0.47119140625
40
0.471435546875
40
0.4716796875
40
0.4718017578125
40
0.47216796875
40
0.472412109375
40
0.47265625
40
0.4727783203125
40
0.474609375
40
0.4755859375
40
0.4765625
40
0.48046875
40
0.482421875
40
0.484375
40
0.486328125
40
0.48828125
40
0.490234375
40
0.4921875
40
0.494140625
40
0.49609375
40
0.498046875
40
0.5
40
0.501953125
40
0.50390625
40
0.505859375
40
0.5078125
40
0.509765625
40
0.51171875
40
0.515625
40
0.51953125
40
0.5224609375
40
0.5234375
40
0.525390625
40
0.5263671875
40
0.527099609375
40
0.52734375
40
0.52783203125
40
0.528076171875
40
0.5283203125
40
0.5284423828125
40
0.52880859375
40
0.529052734375
40
0.529296875
40
0.5294189453125
40
0.52978515625
40
0.5302734375
40
0.53125
40
0.5390625
40
0.546875
40
0.55078125
40
0.5517578125
40
0.552734375
40
0.55322265625
40
0.5537109375
40
0.553955078125
40
0.55419921875
40
0.554443359375
40
0.5545654296875
40
0.5546875
40
0.556640625
40
0.55859375
40
0.5625
40
0.56640625
40
0.5703125
40
0.573974609375
40
0.5758056640625
40
0.57763671875
40
0.577880859375
40
0.578125
40
0.5791015625
40
0.57958984375
40
0.580078125
40
0.5810546875
40
0.58203125
40
0.5859375
40
0.587890625
40
0.58984375
40
0.5908203125
40
0.591796875
40
0.5927734375
40
0.59375
40
0.593994140625
40
0.59423828125
40
0.594380187988281
40
0.601806640625
40
0.609375
40
0.625
40
0.75
40
0.875
40
1
40
1
40
1
40
1
41
1
10
53.8418572366314
20
5.78085336463764
30
0
41
1
10
53.8479133434227
20
5.6067667043547
30
0
41
1
10
53.8600255570052
20
5.25859338378885
30
0
41
1
10
53.8781938773789
20
4.73633340294009
30
0
41
1
10
53.8906845976359
20
4.37727966610655
30
0
41
1
10
53.897497717776
20
4.18143217328827
30
0
41
1
10
53.8986214094658
20
4.14913093749357
30
0
41
1
10
53.8995499336515
20
4.12243991633693
30
0
41
1
10
53.9002775609842
20
4.10152380361922
30
0
41
1
10
53.9006442393251
20
4.0909834003599
30
0
41
1
10
53.9008394068291
20
4.08537318572186
30
0
41
1
10
53.9008687928454
20
4.08452846590421
30
0
41
1
10
53.9009397628468
20
4.08248838785403
30
0
41
1
10
53.9010225611818
20
4.08010829679546
30
0
41
1
10
53.9011171878505
20
4.07738819272853
30
0
41
1
10
53.9012118145191
20
4.07466808866161
30
0
41
1
10
53.9013300978548
20
4.07126795857798
30
0
41
1
10
53.9015193511921
20
4.06582775044413
30
0
41
1
10
53.9017559178636
20
4.05902749027683
30
0
41
1
10
53.9020397978694
20
4.05086717807606
30
0
41
1
10
53.902276364541
20
4.04406691790876
30
0
41
1
10
53.9024656178782
20
4.03862670977492
30
0
41
1
10
53.9026075578811
20
4.03454655367455
30
0
41
1
10
53.9027258412169
20
4.03114642359088
30
0
41
1
10
53.9028204678855
20
4.02842631952396
30
0
41
1
10
53.9028914378869
20
4.02638624147377
30
0
41
1
10
53.9029624078884
20
4.02434616342359
30
0
41
1
10
53.903057034557
20
4.02162605935666
30
0
41
1
10
53.9031398328921
20
4.01924596829812
30
0
41
1
10
53.9032108028935
20
4.01720589024794
30
0
41
1
10
53.903240004092
20
4.01636648313351
30
0
41
1
10
53.9034292574293
20
4.01092627499969
30
0
41
1
10
53.9037841074365
20
4.00072588474873
30
0
41
1
10
53.9045119195869
20
3.97980445932777
30
0
41
1
10
53.9051624779336
20
3.96110374386768
30
0
41
1
10
53.9057302379453
20
3.94478311946617
30
0
41
1
10
53.9060141317035
20
3.93662260901863
30
0
41
1
10
53.9062507327559
20
3.92982185323444
30
0
41
1
10
53.9064400342264
20
3.92438095123697
30
0
41
1
10
53.9065465253285
20
3.92132031376394
30
0
41
1
10
53.9066175236941
20
3.91927982682981
30
0
41
1
10
53.9066530237633
20
3.91825957058512
30
0
41
1
10
53.9066885247458
20
3.91723930117564
30
0
41
1
10
53.9067181096813
20
3.91638906537435
30
0
41
1
10
53.9067536123291
20
3.91536877195838
30
0
41
1
10
53.9068009504999
20
3.91400836189337
30
0
41
1
10
53.9069370545883
20
3.91009708425247
30
0
41
1
10
53.9072448147369
20
3.9012535245252
30
0
41
1
10
53.9079079715486
20
3.88220169423843
30
0
41
1
10
53.9086667451977
20
3.86041548611834
30
0
41
1
10
53.9094232321823
20
3.83866224138038
30
0
41
1
10
53.9098237452425
20
3.82712558870665
30
0
41
1
10
53.9100587020806
20
3.82034853507133
30
0
41
1
10
53.9101293317116
20
3.81831336362833
30
0
41
1
10
53.9101943759904
20
3.81644345866468
30
0
41
1
10
53.9102423501058
20
3.81507388114994
30
0
41
1
10
53.9102727009556
20
3.81421260432086
30
0
41
1
10
53.910303256658
20
3.81334837444115
30
0
41
1
10
53.9103400014753
20
3.81230949201208
30
0
41
1
10
53.9103811743265
20
3.81111793119828
30
0
41
1
10
53.9104089248512
20
3.8102873139706
30
0
41
1
10
53.9104401121837
20
3.80931694229494
30
0
41
1
10
53.9104680878918
20
3.80837680374478
30
0
41
1
10
53.9104943193092
20
3.80730251618292
30
0
41
1
10
53.910508738454
20
3.80653983912134
30
0
41
1
10
53.9105472173774
20
3.80378464901088
30
0
41
1
10
53.9105028505141
20
3.80004460296124
30
0
41
1
10
53.9102631705558
20
3.7951312800954
30
0
41
1
10
53.9096928942311
20
3.78745830168211
30
0
41
1
10
53.908438763485
20
3.77838481964974
30
0
41
1
10
53.9061419179978
20
3.76795576472074
30
0
41
1
10
53.9039734961325
20
3.76013116940072
30
0
41
1
10
53.9013452753703
20
3.75233064642305
30
0
41
1
10
53.8982576840889
20
3.74459888230018
30
0
41
1
10
53.894711150666
20
3.73698056354456
30
0
41
1
10
53.8907126179814
20
3.7295151903252
30
0
41
1
10
53.8862690289151
20
3.72224226281114
30
0
41
1
10
53.8813969621985
20
3.71520043120179
30
0
41
1
10
53.876112996563
20
3.70842834569658
30
0
41
1
10
53.8704423371554
20
3.70196032386312
30
0
41
1
10
53.8644101891225
20
3.69583068326901
30
0
41
1
10
53.8580488979432
20
3.69006705758014
30
0
41
1
10
53.8513908090965
20
3.68469708046231
30
0
41
1
10
53.8444731754408
20
3.67974004953743
30
0
41
1
10
53.8373332498341
20
3.67521526242737
30
0
41
1
10
53.8275686526824
20
3.66977148178833
30
0
41
1
10
53.8150010248349
20
3.66409590460643
30
0
41
1
10
53.8009713145327
20
3.65953485937143
30
0
41
1
10
53.7907664338074
20
3.65723143013162
30
0
41
1
10
53.7831536791803
20
3.6559200653322
30
0
41
1
10
53.7781058839725
20
3.65525088679806
30
0
41
1
10
53.7734434499641
20
3.65481375478751
30
0
41
1
10
53.7709854342382
20
3.65463948312194
30
0
41
1
10
53.7691563968529
20
3.65453390614127
30
0
41
1
10
53.7679446442202
20
3.65447606799461
30
0
41
1
10
53.7667015582896
20
3.65442487215986
30
0
41
1
10
53.7659034617666
20
3.6543944123525
30
0
41
1
10
53.7649193938565
20
3.65435813737744
30
0
41
1
10
53.7639054665311
20
3.65432218558652
30
0
41
1
10
53.7627020918778
20
3.65428051244081
30
0
41
1
10
53.7618396419366
20
3.65425082408558
30
0
41
1
10
53.760810010094
20
3.65421519960762
30
0
41
1
10
53.7594456212567
20
3.65416770276949
30
0
41
1
10
53.7569054544264
20
3.65407865146648
30
0
41
1
10
53.7440800996631
20
3.65362747127247
30
0
41
1
10
53.7210669061135
20
3.65282007794087
30
0
41
1
10
53.6939376983202
20
3.65187018743046
30
0
41
1
10
53.6763140077258
20
3.65125276160143
30
0
41
1
10
53.6681814814617
20
3.65096779626731
30
0
41
1
10
53.6647931556929
20
3.65084906077757
30
0
41
1
10
53.6620826188096
20
3.65075407242188
30
0
41
1
10
53.6603885822346
20
3.65069470471386
30
0
41
1
10
53.6590333808142
20
3.65064721055558
30
0
41
1
10
53.658016993282
20
3.65061158994078
30
0
41
1
10
53.6571700146273
20
3.65058190609835
30
0
41
1
10
53.6564924380835
20
3.65055815902625
30
0
41
1
10
53.6534433624859
20
3.6504512972073
30
0
41
1
10
53.6478536797796
20
3.65025538395693
30
0
41
1
10
53.6370138748983
20
3.64987543121748
30
0
41
1
10
53.6234651086497
20
3.64940049058191
30
0
41
1
10
53.6072065891514
20
3.64883056181921
30
0
41
1
10
53.5912867888092
20
3.64827250657242
30
0
41
1
10
53.5782461012949
20
3.64781537621067
30
0
41
1
10
53.5680845266085
20
3.64745917073401
30
0
41
1
10
53.562665020109
20
3.64726919447978
30
0
41
1
10
53.5594471881249
20
3.64715639607883
30
0
41
1
10
53.5574148731877
20
3.6470851549835
30
0
41
1
10
53.5550438390941
20
3.64700204037226
30
0
41
1
10
53.5523340858444
20
3.64690705224516
30
0
41
1
10
53.5496243325947
20
3.64681206411802
30
0
41
1
10
53.5462371410325
20
3.64669332895915
30
0
41
1
10
53.5381078812834
20
3.64640836457781
30
0
41
1
10
53.5286237449093
20
3.64607590613289
30
0
41
1
10
53.5177847319104
20
3.64569595362445
30
0
41
1
10
53.5110103487861
20
3.64545848330664
30
0
41
1
10
53.5055908422867
20
3.64526850705243
30
0
41
1
10
53.5015262124121
20
3.64512602486175
30
0
41
1
10
53.4974615825375
20
3.64498354267107
30
0
41
1
10
53.4944131101316
20
3.64487668102808
30
0
41
1
10
53.4923807951943
20
3.64480543993275
30
0
41
1
10
53.4915064763723
20
3.64477479141985
30
0
41
1
10
53.4806674633734
20
3.64439483891141
30
0
41
1
10
53.459666875688
20
3.64365868092625
30
0
41
1
10
53.4171851425144
20
3.64216951940531
30
0
41
1
10
53.2115826146916
20
3.63496229526049
30
0
41
1
10
52.8430561727291
20
3.62204390997292
30
0
41
1
10
52.3227835487821
20
3.60380618956694
30
0
41
1
10
51.9759351328174
20
3.5916477092963
30
0
41
1
10
51.802510924835
20
3.58556846916096
30
0
0
SPLINE
5
200
100
AcDbEntity
8
1
62
256
6
ByLayer
370
-1
48
1
60
0
100
AcDbSpline
70
4
71
3
72
22
73
18
40
0
40
0
40
0
40
0
40
0.0023505275440047
40
0.0123487527331229
40
0.0223469779222411
40
0.0623398786787137
40
0.102332779435177
40
0.182318580948132
40
0.262304382461073
40
0.342290183974022
40
0.662233390025804
40
0.812206767862576
40
0.957493477641936
40
0.962180145699349
40
0.972178370888462
40
0.982176596077585
40
1
40
1
40
1
40
1
41
1
10
48.749524118614
20
8.12420588914864
30
0
41
1
10
48.749516770374
20
8.12410175061453
30
0
41
1
10
48.7494781625517
20
8.12355344117876
30
0
41
1
10
48.7494080818063
20
8.12254908418623
30
0
41
1
10
48.7492192309934
20
8.11982409894381
30
0
41
1
10
48.748934022879
20
8.11571767509489
30
0
41
1
10
48.7484230825331
20
8.10837908268707
30
0
41
1
10
48.7477800716741
20
8.09916332489573
30
0
41
1
10
48.7470110707831
20
8.088130032653
30
0
41
1
10
48.7454756811412
20
8.06608906527444
30
0
41
1
10
48.7437163805098
20
8.04083379015316
30
0
41
1
10
48.7417481629285
20
8.01257945111124
30
0
41
1
10
48.7407883401167
20
7.99880381737543
30
0
41
1
10
48.7402763256649
20
7.99145679718342
30
0
41
1
10
48.7401973217628
20
7.99032317468883
30
0
41
1
10
48.7400765797693
20
7.98858626489289
30
0
41
1
10
48.7399883937724
20
7.98730862299647
30
0
41
1
10
48.7399324651215
20
7.98649013191405
30
0
0
SPLINE
5
201
100
AcDbEntity
8
1
62
256
6
ByLayer
370
-1
48
1
60
0
100
AcDbSpline
70
4
71
3
72
8
73
4
40
0
40
0
40
0
40
0
40
1
40
1
40
1
40
1
41
1
10
54.7516551729472
20
3.54694508856824
30
0
41
1
10
54.7520743921049
20
3.53489436594754
30
0
41
1
10
54.7524717673503
20
3.52284287760685
30
0
41
1
10
54.752847296052
20
3.51079070334842
30
0
0
SPLINE
5
202
100
AcDbEntity
8
1
62
256
6
ByLayer
370
-1
48
1
60
0
100
AcDbSpline
70
4
71
3
72
22
73
18
40
0
40
0
40
0
40
0
40
0.0023505275440227
40
0.0123487527331398
40
0.0223469779222569
40
0.0623398786787253
40
0.102332779435185
40
0.18231858094813
40
0.262304382461063
40
0.342290183974004
40
0.662233390025751
40
0.812206767862508
40
0.957493477641852
40
0.962180145699264
40
0.972178370888377
40
0.982176596077499
40
1
40
1
40
1
40
1
41
1
10
49.3374660834188
20
2.69916442045678
30
0
41
1
10
49.3375698256744
20
2.69915704414771
30
0
41
1
10
49.3381160486272
20
2.69911828884978
30
0
41
1
10
49.3391165837381
20
2.69904794040727
30
0
41
1
10
49.341831199589
20
2.69885836821501
30
0
41
1
10
49.3459219972555
20
2.69857207065195
30
0
41
1
10
49.3532326641036
20
2.69805917859693
30
0
41
1
10
49.3624133531542
20
2.69741371154083
30
0
41
1
10
49.3734046603889
20
2.69664177319143
30
0
41
1
10
49.3953617552322
20
2.6951005186105
30
0
41
1
10
49.4205209264069
20
2.69333449773651
30
0
41
1
10
49.4486677491586
20
2.69135876188375
30
0
41
1
10
49.462390962449
20
2.69039527270479
30
0
41
1
10
49.4697100250111
20
2.68988130244091
30
0
41
1
10
49.4708393337298
20
2.68980199675676
30
0
41
1
10
49.4725696340596
20
2.68968079354846
30
0
41
1
10
49.4738424141429
20
2.68959227069539
30
0
41
1
10
49.4746577906196
20
2.68953612840616
30
0
0
SPLINE
5
203
100
AcDbEntity
8
1
62
256
6
ByLayer
370
-1
48
1
60
0
100
AcDbSpline
70
4
71
3
72
13
73
9
40
0
40
0
40
0
40
0
40
0.312317913031034
40
0.624635826062067
40
0.936953739093101
40
0.97599347822198
40
0.994903351862531
40
1
40
1
40
1
40
1
41
1
10
54.6729494447769
20
5.80939154709299
30
0
41
1
10
54.6647557086172
20
6.04492572976963
30
0
41
1
10
54.6483682362979
20
6.51599409512292
30
0
41
1
10
54.6237870278188
20
7.22259664315285
30
0
41
1
10
54.6063753384796
20
7.72310678134073
30
0
41
1
10
54.5966612801808
20
8.0023435955687
30
0
41
1
10
54.5950072462425
20
8.04988985825153
30
0
41
1
10
54.5943775427629
20
8.06799437288527
30
0
41
1
10
54.594243861538
20
8.07183801069704
30
0
0
SPLINE
5
204
100
AcDbEntity
8
1
62
256
6
ByLayer
370
-1
48
1
60
0
100
AcDbSpline
70
4
71
3
72
8
73
4
40
0
40
0
40
0
40
0
40
1
40
1
40
1
40
1
41
1
10
48.8984672242167
20
3.30557020452863
30
0
41
1
10
48.8980043185271
20
3.31761935462651
30
0
41
1
10
48.8975632539696
20
3.32966935024223
30
0
41
1
10
48.8971440334648
20
3.34172011158293
30
0
0
SPLINE
5
205
100
AcDbEntity
8
SK1
62
256
6
ByLayer
370
-1
48
1
60
0
100
AcDbSpline
70
4
71
3
72
20
73
16
40
0
40
0
40
0
40
0
40
0.25
40
0.25
40
0.375
40
0.375
40
0.5
40
0.5
40
0.625
40
0.625
40
0.75
40
0.75
40
0.875
40
0.875
40
1
40
1
40
1
40
1
41
1
10
-54.5162227297291
20
6.8120439556497
30
0
41
1
10
-54.4772709483907
20
6.72453199501689
30
0
41
1
10
-54.4306845518237
20
6.63914767831511
30
0
41
1
10
-54.3469265709005
20
6.52165950363116
30
0
41
1
10
-54.3163253277688
20
6.4838456686486
30
0
41
1
10
-54.2501041764424
20
6.41421731653315
30
0
41
1
10
-54.2145625265326
20
6.38236090680323
30
0
41
1
10
-54.1369222939179
20
6.32662557921188
30
0
41
1
10
-54.0940013611407
20
6.30244517653043
30
0
41
1
10
-54.0037548865671
20
6.26824500575401
30
0
41
1
10
-53.9556146989167
20
6.25796898452336
30
0
41
1
10
-53.8582046255659
20
6.25504848254036
30
0
41
1
10
-53.8099490429817
20
6.26234710426348
30
0
41
1
10
-53.7177558858445
20
6.29178438547694
30
0
41
1
10
-53.6739857261288
20
6.31382932086129
30
0
41
1
10
-53.6338144512151
20
6.3403417946746
30
0
0
SPLINE
5
206
100
AcDbEntity
8
SK1
62
256
6
ByLayer
370
-1
48
1
60
0
100
AcDbSpline
70
4
71
3
72
8
73
4
40
0
40
0
40
0
40
0
40
1
40
1
40
1
40
1
41
1
10
-55
20
-6.99849805315392
30
0
41
1
10
-55.3648529633576
20
-6.34700451336727
30
0
41
1
10
-55.7026345426883
20
-5.68249326840734
30
0
41
1
10
-56
20
-4.99854728896301
30
0
0
SPLINE
5
207
100
AcDbEntity
8
SK1
62
256
6
ByLayer
370
-1
48
1
60
0
100
AcDbSpline
70
4
71
3
72
20
73
16
40
0
40
0
40
0
40
0
40
0.125000000000007
40
0.125000000000007
40
0.250000000000015
40
0.250000000000015
40
0.312500000000018
40
0.312500000000018
40
0.375000000000022
40
0.375000000000022
40
0.500000000000012
40
0.500000000000012
40
0.750000000000006
40
0.750000000000006
40
1
40
1
40
1
40
1
41
1
10
-53.6338144512145
20
-6.34034179467375
30
0
41
1
10
-53.6736405326374
20
-6.31405714368668
30
0
41
1
10
-53.7174596238936
20
-6.2918915268643
30
0
41
1
10
-53.8100286430816
20
-6.26230917234659
30
0
41
1
10
-53.858409060093
20
-6.25510537770515
30
0
41
1
10
-53.930507607687
20
-6.25719119578446
30
0
41
1
10
-53.9548847131617
20
-6.26004287846277
30
0
41
1
10
-54.0024268232708
20
-6.26975628298462
30
0
41
1
10
-54.025531470073
20
-6.27654559824734
30
0
41
1
10
-54.0930893921825
20
-6.30200607369946
30
0
41
1
10
-54.136092797726
20
-6.32609087475549
30
0
41
1
10
-54.2534188607808
20
-6.41013429612562
30
0
41
1
10
-54.3194596979378
20
-6.48308041368765
30
0
41
1
10
-54.4306544823114
20
-6.63915672058906
30
0
41
1
10
-54.4771151388184
20
-6.72418194167685
30
0
41
1
10
-54.5162227297291
20
-6.81204395564961
30
0
0
SPLINE
5
208
100
AcDbEntity
8
SK1
62
256
6
ByLayer
370
-1
48
1
60
0
100
AcDbSpline
70
4
71
3
72
68
73
64
40
0
40
0
40
0
40
0
40
0.015625
40
0.015625
40
0.0312499999999999
40
0.0312499999999999
40
0.0468749999999999
40
0.0468749999999999
40
0.0624999999999998
40
0.0624999999999998
40
0.0781249999999998
40
0.0781249999999998
40
0.0937499999999997
40
0.0937499999999997
40
0.125
40
0.125
40
0.15625
40
0.15625
40
0.1875
40
0.1875
40
0.25
40
0.25
40
0.28125
40
0.28125
40
0.3125
40
0.3125
40
0.375
40
0.375
40
0.4375
40
0.4375
40
0.46875
40
0.46875
40
0.5
40
0.5
40
0.5625
40
0.5625
40
0.625
40
0.625
40
0.6875
40
0.6875
40
0.75
40
0.75
40
0.8125
40
0.8125
40
0.84375
40
0.84375
40
0.859375
40
0.859375
40
0.875
40
0.875
40
0.90625
40
0.90625
40
0.921875
40
0.921875
40
0.9375
40
0.9375
40
0.953125
40
0.953125
40
0.96875
40
0.96875
40
0.984375
40
0.984375
40
1
40
1
40
1
40
1
41
1
10
-6.5
20
-6.99849805315398
30
0
41
1
10
-6.4096424095903
20
-6.99849805315398
30
0
41
1
10
-6.31887533751086
20
-6.9924669932976
30
0
41
1
10
-6.13726564177031
20
-6.96792032412691
30
0
41
1
10
-6.04880117468585
20
-6.94974705973743
30
0
41
1
10
-5.87614107362342
20
-6.90252164638767
30
0
41
1
10
-5.79194795071362
20
-6.87346297167917
30
0
41
1
10
-5.62761370230606
20
-6.80484072991021
30
0
41
1
10
-5.54890965383427
20
-6.76585529638666
30
0
41
1
10
-5.39867973784189
20
-6.68016521734489
30
0
41
1
10
-5.32694157755157
20
-6.63336290342139
30
0
41
1
10
-5.18947718430641
20
-6.53250060019133
30
0
41
1
10
-5.12348684568531
20
-6.47818603126365
30
0
41
1
10
-4.93566988154686
20
-6.30674027670506
30
0
41
1
10
-4.82518003213681
20
-6.18267595320251
30
0
41
1
10
-4.62603001440084
20
-5.91868980815966
30
0
41
1
10
-4.53721391214785
20
-5.77825879287735
30
0
41
1
10
-4.37814656673874
20
-5.48542007115435
30
0
41
1
10
-4.30877871567313
20
-5.33483042069352
30
0
41
1
10
-4.12354082750574
20
-4.87237000918773
30
0
41
1
10
-4.03020120532329
20
-4.54989217457512
30
0
41
1
10
-3.91807144557504
20
-4.04887624586692
30
0
41
1
10
-3.88552668802802
20
-3.87909831441809
30
0
41
1
10
-3.82866773565829
20
-3.53847076026688
30
0
41
1
10
-3.80422767364425
20
-3.36705941807358
30
0
41
1
10
-3.74020579920568
20
-2.84975913582008
30
0
41
1
10
-3.70977205452269
20
-2.5008195214777
30
0
41
1
10
-3.66416163751657
20
-1.79552608157809
30
0
41
1
10
-3.64903771748126
20
-1.43916908464092
30
0
41
1
10
-3.63426182330713
20
-0.899256752194447
30
0
41
1
10
-3.63068669313998
20
-0.718167674817778
30
0
41
1
10
-3.62598899859142
20
-0.357375695924361
30
0
41
1
10
-3.62485343662013
20
-0.177302953433326
30
0
41
1
10
-3.62488496014578
20
0.361962578325034
30
0
41
1
10
-3.62938260517049
20
0.720207066315254
30
0
41
1
10
-3.64887950283875
20
1.43414621185846
30
0
41
1
10
-3.66385562324439
20
1.78984138878459
30
0
41
1
10
-3.70956223321124
20
2.49851694715909
30
0
41
1
10
-3.74045671775656
20
2.85271919963691
30
0
41
1
10
-3.82645737175278
20
3.54573152185978
30
0
41
1
10
-3.88145968550236
20
3.88575414429386
30
0
41
1
10
-4.03051920995767
20
4.55084385300148
30
0
41
1
10
-4.12523349261875
20
4.87761469840365
30
0
41
1
10
-4.31105593218689
20
5.33999328729007
30
0
41
1
10
-4.38041029850672
20
5.4899128326384
30
0
41
1
10
-4.49888437250004
20
5.70752713951083
30
0
41
1
10
-4.54079549132547
20
5.77885043055693
30
0
41
1
10
-4.63023926406612
20
5.91883578995851
30
0
41
1
10
-4.67776791395602
20
5.98743717509882
30
0
41
1
10
-4.82792587490127
20
6.18597359029033
30
0
41
1
10
-4.93858588995937
20
6.30966494075429
30
0
41
1
10
-5.12522766477915
20
6.47964028567972
30
0
41
1
10
-5.19131964832849
20
6.53397024553271
30
0
41
1
10
-5.32929892448178
20
6.63497116118225
30
0
41
1
10
-5.40112275258878
20
6.68167605293547
30
0
41
1
10
-5.55102867370906
20
6.76694298534821
30
0
41
1
10
-5.62910582891868
20
6.80551115138627
30
0
41
1
10
-5.79238720600742
20
6.87359848794483
30
0
41
1
10
-5.87738605118548
20
6.90291103819595
30
0
41
1
10
-6.04966564042599
20
6.94993403370722
30
0
41
1
10
-6.13756051826556
20
6.96792637087054
30
0
41
1
10
-6.31709499624006
20
6.99225989008042
30
0
41
1
10
-6.40924253974518
20
6.99849805315398
30
0
41
1
10
-6.5
20
6.99849805315398
30
0
0
SPLINE
5
209
100
AcDbEntity
8
SK1
62
256
6
ByLayer
370
-1
48
1
60
0
100
AcDbSpline
70
4
71
3
72
8
73
4
40
0
40
0
40
0
40
0
40
1
40
1
40
1
40
1
41
1
10
-52.6000000000004
20
-6.99849805315466
30
0
41
1
10
-52.9473802440142
20
-6.78469639798683
30
0
41
1
10
-53.292222119692
20
-6.56578790669792
30
0
41
1
10
-53.6338144512151
20
-6.34034179467449
30
0
0
SPLINE
5
20A
100
AcDbEntity
8
SK1
62
256
6
ByLayer
370
-1
48
1
60
0
100
AcDbSpline
70
4
71
3
72
8
73
4
40
0
40
0
40
0
40
0
40
1
40
1
40
1
40
1
41
1
10
-53.6338144512151
20
6.3403417946746
30
0
41
1
10
-53.292222119692
20
6.56578790669803
30
0
41
1
10
-52.9473802440142
20
6.78469639798695
30
0
41
1
10
-52.6000000000004
20
6.99849805315478
30
0
0
SPLINE
5
20B
100
AcDbEntity
8
SK1
62
256
6
ByLayer
370
-1
48
1
60
0
100
AcDbSpline
70
4
71
3
72
8
73
4
40
0
40
0
40
0
40
0
40
1
40
1
40
1
40
1
41
1
10
-54.516222729729
20
-6.81204395564961
30
0
41
1
10
-54.5439393896427
20
-6.87431425928901
30
0
41
1
10
-54.5718676648179
20
-6.93646419260506
30
0
41
1
10
-54.6
20
-6.99849805315392
30
0
0
SPLINE
5
20C
100
AcDbEntity
8
SK1
62
256
6
ByLayer
370
-1
48
1
60
0
100
AcDbSpline
70
4
71
3
72
8
73
4
40
0
40
0
40
0
40
0
40
1
40
1
40
1
40
1
41
1
10
-54.6
20
6.99849805315404
30
0
41
1
10
-54.5718676648179
20
6.93646419260517
30
0
41
1
10
-54.5439393896427
20
6.87431425928909
30
0
41
1
10
-54.516222729729
20
6.81204395564973
30
0
0
SPLINE
5
20D
100
AcDbEntity
8
SK1
62
256
6
ByLayer
370
-1
48
1
60
0
100
AcDbSpline
70
4
71
3
72
8
73
4
40
0
40
0
40
0
40
0
40
1
40
1
40
1
40
1
41
1
10
-56.0000000000001
20
4.99854728896315
30
0
41
1
10
-55.7019755215914
20
5.68400902895925
30
0
41
1
10
-55.3641473109836
20
6.34826454962635
30
0
41
1
10
-55
20
6.99849805315404
30
0
0
LINE
5
45
100
AcDbEntity
8
80
62
256
6
ByLayer
370
-1
48
1
60
0
100
AcDbLine
10
0
20
0
30
0
11
-7
21
0
31
0
39
0
210
0
220
0
230
1
0
LINE
5
46
100
AcDbEntity
8
81
62
256
6
ByLayer
370
-1
48
1
60
0
100
AcDbLine
10
55
20
0
30
0
11
62
21
0
31
0
39
0
210
0
220
0
230
1
0
LINE
5
47
100
AcDbEntity
8
1
62
256
6
ByLayer
370
-1
48
1
60
0
100
AcDbLine
10
0.2
20
16
30
0
11
0
21
15.8
31
0
39
0
210
0
220
0
230
1
0
LINE
5
49
100
AcDbEntity
8
1
62
256
6
ByLayer
370
-1
48
1
60
0
100
AcDbLine
10
0
20
-15.8
30
0
11
0.2
21
-16
31
0
39
0
210
0
220
0
230
1
0
LINE
5
4A
100
AcDbEntity
8
1
62
256
6
ByLayer
370
-1
48
1
60
0
100
AcDbLine
10
5
20
16
30
0
11
0.2
21
16
31
0
39
0
210
0
220
0
230
1
0
LINE
5
4B
100
AcDbEntity
8
1
62
256
6
ByLayer
370
-1
48
1
60
0
100
AcDbLine
10
0.2
20
-16
30
0
11
5
21
-16
31
0
39
0
210
0
220
0
230
1
0
LINE
5
4C
100
AcDbEntity
8
1
62
256
6
ByLayer
370
-1
48
1
60
0
100
AcDbLine
10
19.207179
20
8.45
30
0
11
16
21
8.45
31
0
39
0
210
0
220
0
230
1
0
LINE
5
4D
100
AcDbEntity
8
1
62
256
6
ByLayer
370
-1
48
1
60
0
100
AcDbLine
10
48.502905
20
8.45
30
0
11
46.325281
21
8.45
31
0
39
0
210
0
220
0
230
1
0
LINE
5
4E
100
AcDbEntity
8
SK1
62
256
6
ByLayer
370
-1
48
1
60
0
100
AcDbLine
10
-2
20
12.49675
30
0
11
-52.6
21
12.49675
31
0
39
0
210
0
220
0
230
1
0
LINE
5
50
100
AcDbEntity
8
SK1
62
256
6
ByLayer
370
-1
48
1
60
0
100
AcDbLine
10
-52.6
20
-12.49675
30
0
11
-2
21
-12.49675
31
0
39
0
210
0
220
0
230
1
0
LINE
5
51
100
AcDbEntity
8
SK1
62
256
6
ByLayer
370
-1
48
1
60
0
100
AcDbLine
10
-2
20
-12.49675
30
0
11
-1.551212
21
-12.287477
31
0
39
0
210
0
220
0
230
1
0
LINE
5
52
100
AcDbEntity
8
SK1
62
256
6
ByLayer
370
-1
48
1
60
0
100
AcDbLine
10
-1.551212
20
12.287477
30
0
11
-2
21
12.49675
31
0
39
0
210
0
220
0
230
1
0
LINE
5
53
100
AcDbEntity
8
SK1
62
256
6
ByLayer
370
-1
48
1
60
0
100
AcDbLine
10
-0.15
20
12.25
30
0
11
-1.382165
21
12.25
31
0
39
0
210
0
220
0
230
1
0
LINE
5
54
100
AcDbEntity
8
SK1
62
256
6
ByLayer
370
-1
48
1
60
0
100
AcDbLine
10
-1.382165
20
-12.25
30
0
11
-0.15
21
-12.25
31
0
39
0
210
0
220
0
230
1
0
LINE
5
55
100
AcDbEntity
8
SK1
62
256
6
ByLayer
370
-1
48
1
60
0
100
AcDbLine
10
-55
20
12.49675
30
0
11
-56
21
11.49675
31
0
39
0
210
0
220
0
230
1
0
LINE
5
56
100
AcDbEntity
8
SK1
62
256
6
ByLayer
370
-1
48
1
60
0
100
AcDbLine
10
-56
20
-11.49675
30
0
11
-55
21
-12.49675
31
0
39
0
210
0
220
0
230
1
0
LINE
5
57
100
AcDbEntity
8
SK1
62
256
6
ByLayer
370
-1
48
1
60
0
100
AcDbLine
10
-54.6
20
12.49675
30
0
11
-55
21
12.49675
31
0
39
0
210
0
220
0
230
1
0
LINE
5
58
100
AcDbEntity
8
SK1
62
256
6
ByLayer
370
-1
48
1
60
0
100
AcDbLine
10
-55
20
-12.49675
30
0
11
-54.6
21
-12.49675
31
0
39
0
210
0
220
0
230
1
0
LINE
5
59
100
AcDbEntity
8
SK1
62
256
6
ByLayer
370
-1
48
1
60
0
100
AcDbLine
10
-52.6
20
12.49675
30
0
11
-53.633814
21
12.140417
31
0
39
0
210
0
220
0
230
1
0
LINE
5
5A
100
AcDbEntity
8
SK1
62
256
6
ByLayer
370
-1
48
1
60
0
100
AcDbLine
10
-53.633814
20
-12.140417
30
0
11
-52.6
21
-12.49675
31
0
39
0
210
0
220
0
230
1
0
LINE
5
5B
100
AcDbEntity
8
SK1
62
256
6
ByLayer
370
-1
48
1
60
0
100
AcDbLine
10
-54.6
20
-12.49675
30
0
11
-54.516223
21
-12.393294
31
0
39
0
210
0
220
0
230
1
0
LINE
5
5C
100
AcDbEntity
8
SK1
62
256
6
ByLayer
370
-1
48
1
60
0
100
AcDbLine
10
-54.516223
20
12.393294
30
0
11
-54.6
21
12.49675
31
0
39
0
210
0
220
0
230
1
0
LINE
5
5D
100
AcDbEntity
8
SK4
62
256
6
ByLayer
370
-1
48
0.05
60
0
100
AcDbLine
10
55
20
0
30
0
11
-56
21
0
31
0
39
0
210
0
220
0
230
1
0
LINE
5
5F
100
AcDbEntity
8
4
62
256
6
ByLayer
370
-1
48
0.05
60
0
100
AcDbLine
10
55
20
0
30
0
11
0
21
0
31
0
39
0
210
0
220
0
230
1
0
LINE
5
61
100
AcDbEntity
8
1
62
256
6
ByLayer
370
-1
48
1
60
0
100
AcDbLine
10
54.206423
20
-8.447951
30
0
11
54.508607
21
-5.041028
31
0
39
0
210
0
220
0
230
1
0
LINE
5
62
100
AcDbEntity
8
1
62
256
6
ByLayer
370
-1
48
1
60
0
100
AcDbLine
10
5
20
16
30
0
11
5
21
-16
31
0
39
0
210
0
220
0
230
1
0
LINE
5
63
100
AcDbEntity
8
1
62
256
6
ByLayer
370
-1
48
1
60
0
100
AcDbLine
10
48.556209
20
5.661897
30
0
11
48.467528
21
8.442996
31
0
39
0
210
0
220
0
230
1
0
LINE
5
64
100
AcDbEntity
8
1
62
256
6
ByLayer
370
-1
48
1
60
0
100
AcDbLine
10
0.2
20
16
30
0
11
0.2
21
-16
31
0
39
0
210
0
220
0
230
1
0
LINE
5
65
100
AcDbEntity
8
1
62
256
6
ByLayer
370
-1
48
1
60
0
100
AcDbLine
10
54.188684
20
-4.336791
30
0
11
54.194807
21
-4.267764
31
0
39
0
210
0
220
0
230
1
0
LINE
5
66
100
AcDbEntity
8
1
62
256
6
ByLayer
370
-1
48
1
60
0
100
AcDbLine
10
54.031305
20
0.717823
30
0
11
54.032253
21
0.720664
31
0
39
0
210
0
220
0
230
1
0
LINE
5
67
100
AcDbEntity
8
1
62
256
6
ByLayer
370
-1
48
1
60
0
100
AcDbLine
10
48.804326
20
2.45699
30
0
11
48.849614
21
2.45699
31
0
39
0
210
0
220
0
230
1
0
LINE
5
68
100
AcDbEntity
8
1
62
256
6
ByLayer
370
-1
48
1
60
0
100
AcDbLine
10
16
20
8.45
30
0
11
16
21
-0.186634
31
0
39
0
210
0
220
0
230
1
0
LINE
5
69
100
AcDbEntity
8
1
62
256
6
ByLayer
370
-1
48
1
60
0
100
AcDbLine
10
53.957091
20
0.277076
30
0
11
53.247476
21
0.593261
31
0
39
0
210
0
220
0
230
1
0
LINE
5
6A
100
AcDbEntity
8
1
62
256
6
ByLayer
370
-1
48
1
60
0
100
AcDbLine
10
45.740314
20
3.672631
30
0
11
45.44584
21
3.80424
31
0
39
0
210
0
220
0
230
1
0
LINE
5
6B
100
AcDbEntity
8
1
62
256
6
ByLayer
370
-1
48
1
60
0
100
AcDbLine
10
40.605223
20
5.883263
30
0
11
38.34833
21
6.097548
31
0
39
0
210
0
220
0
230
1
0
LINE
5
6C
100
AcDbEntity
8
1
62
256
6
ByLayer
370
-1
48
1
60
0
100
AcDbLine
10
47.464914
20
0.601935
30
0
11
47.766679
21
1.64007
31
0
39
0
210
0
220
0
230
1
0
LINE
5
6D
100
AcDbEntity
8
1
62
256
6
ByLayer
370
-1
48
1
60
0
100
AcDbLine
10
47.813152
20
-8.447951
30
0
11
54.206423
21
-8.447951
31
0
39
0
210
0
220
0
230
1
0
LINE
5
6E
100
AcDbEntity
8
1
62
256
6
ByLayer
370
-1
48
1
60
0
100
AcDbLine
10
48.556209
20
5.661897
30
0
11
48.583533
21
5.661897
31
0
39
0
210
0
220
0
230
1
0
LINE
5
6F
100
AcDbEntity
8
1
62
256
6
ByLayer
370
-1
48
1
60
0
100
AcDbLine
10
54.508607
20
-5.041028
30
0
11
54.205941
21
-5.004467
31
0
39
0
210
0
220
0
230
1
0
LINE
5
70
100
AcDbEntity
8
1
62
256
6
ByLayer
370
-1
48
1
60
0
100
AcDbLine
10
54.194807
20
-4.267764
30
0
11
53.64277
21
-4.021791
31
0
39
0
210
0
220
0
230
1
0
LINE
5
71
100
AcDbEntity
8
1
62
256
6
ByLayer
370
-1
48
1
60
0
100
AcDbLine
10
54.002286
20
2.58723
30
0
11
53.792285
21
2.590068
31
0
39
0
210
0
220
0
230
1
0
LINE
5
72
100
AcDbEntity
8
1
62
256
6
ByLayer
370
-1
48
1
60
0
100
AcDbLine
10
54.194807
20
-4.267764
30
0
11
53.961165
21
0.18207
31
0
39
0
210
0
220
0
230
1
0
LINE
5
73
100
AcDbEntity
8
1
62
256
6
ByLayer
370
-1
48
1
60
0
100
AcDbLine
10
48.326494
20
3.236696
30
0
11
48.028083
21
3.226235
31
0
39
0
210
0
220
0
230
1
0
LINE
5
74
100
AcDbEntity
8
1
62
256
6
ByLayer
370
-1
48
1
60
0
100
AcDbLine
10
53.570748
20
2.602065
30
0
11
53.720247
21
2.602065
31
0
39
0
210
0
220
0
230
1
0
LINE
5
75
100
AcDbEntity
8
1
62
256
6
ByLayer
370
-1
48
1
60
0
100
AcDbLine
10
48.274887
20
3.562838
30
0
11
48.484061
21
3.562838
31
0
39
0
210
0
220
0
230
1
0
LINE
5
76
100
AcDbEntity
8
1
62
256
6
ByLayer
370
-1
48
1
60
0
100
AcDbLine
10
53.980004
20
0.74403
30
0
11
53.988668
21
0.743728
31
0
39
0
210
0
220
0
230
1
0
LINE
5
77
100
AcDbEntity
8
1
62
256
6
ByLayer
370
-1
48
1
60
0
100
AcDbLine
10
53.792285
20
2.590068
30
0
11
53.570748
21
2.602065
31
0
39
0
210
0
220
0
230
1
0
LINE
5
78
100
AcDbEntity
8
1
62
256
6
ByLayer
370
-1
48
1
60
0
100
AcDbLine
10
48.804326
20
2.45699
30
0
11
47.995904
21
2.428651
31
0
39
0
210
0
220
0
230
1
0
LINE
5
79
100
AcDbEntity
8
1
62
256
6
ByLayer
370
-1
48
1
60
0
100
AcDbLine
10
48.44321
20
4.737123
30
0
11
48.484061
21
3.562838
31
0
39
0
210
0
220
0
230
1
0
LINE
5
7A
100
AcDbEntity
8
1
62
256
6
ByLayer
370
-1
48
1
60
0
100
AcDbLine
10
53.988668
20
0.743728
30
0
11
54.032253
21
0.720664
31
0
39
0
210
0
220
0
230
1
0
LINE
5
7B
100
AcDbEntity
8
1
62
256
6
ByLayer
370
-1
48
1
60
0
100
AcDbLine
10
50.240651
20
2.485331
30
0
11
53.570748
21
2.602065
31
0
39
0
210
0
220
0
230
1
0
LINE
5
7C
100
AcDbEntity
8
1
62
256
6
ByLayer
370
-1
48
1
60
0
100
AcDbLine
10
48.785381
20
8.438988
30
0
11
48.785384
21
8.438909
31
0
39
0
210
0
220
0
230
1
0
LINE
5
7D
100
AcDbEntity
8
1
62
256
6
ByLayer
370
-1
48
1
60
0
100
AcDbLine
10
53.720302
20
2.602065
30
0
11
54.002286
21
2.58723
31
0
39
0
210
0
220
0
230
1
0
LINE
5
7E
100
AcDbEntity
8
1
62
256
6
ByLayer
370
-1
48
1
60
0
100
AcDbLine
10
48.234036
20
4.737123
30
0
11
48.44321
21
4.737123
31
0
39
0
210
0
220
0
230
1
0
LINE
5
7F
100
AcDbEntity
8
1
62
256
6
ByLayer
370
-1
48
1
60
0
100
AcDbLine
10
46.995712
20
5.276506
30
0
11
46.995712
21
8.447259
31
0
39
0
210
0
220
0
230
1
0
LINE
5
80
100
AcDbEntity
8
1
62
256
6
ByLayer
370
-1
48
1
60
0
100
AcDbLine
10
44.842594
20
1.572722
30
0
11
44.715058
21
1.133973
31
0
39
0
210
0
220
0
230
1
0
LINE
5
81
100
AcDbEntity
8
1
62
256
6
ByLayer
370
-1
48
1
60
0
100
AcDbLine
10
47.957743
20
2.297368
30
0
11
47.995904
21
2.428651
31
0
39
0
210
0
220
0
230
1
0
LINE
5
82
100
AcDbEntity
8
1
62
256
6
ByLayer
370
-1
48
1
60
0
100
AcDbLine
10
48.234036
20
4.737123
30
0
11
48.274887
21
3.562838
31
0
39
0
210
0
220
0
230
1
0
LINE
5
83
100
AcDbEntity
8
1
62
256
6
ByLayer
370
-1
48
1
60
0
100
AcDbLine
10
54.031305
20
0.717823
30
0
11
53.966045
21
0.720097
31
0
39
0
210
0
220
0
230
1
0
LINE
5
84
100
AcDbEntity
8
1
62
256
6
ByLayer
370
-1
48
1
60
0
100
AcDbLine
10
46.995712
20
5.276506
30
0
11
43.980216
21
5.562818
31
0
39
0
210
0
220
0
230
1
0
LINE
5
85
100
AcDbEntity
8
1
62
256
6
ByLayer
370
-1
48
1
60
0
100
AcDbLine
10
48.494631
20
8.449941
30
0
11
48.583533
21
5.661897
31
0
39
0
210
0
220
0
230
1
0
LINE
5
86
100
AcDbEntity
8
1
62
256
6
ByLayer
370
-1
48
1
60
0
100
AcDbLine
10
48.643853
20
5.707803
30
0
11
48.755708
21
5.707803
31
0
39
0
210
0
220
0
230
1
0
LINE
5
87
100
AcDbEntity
8
1
62
256
6
ByLayer
370
-1
48
1
60
0
100
AcDbLine
10
0
20
15.8
30
0
11
0
21
-15.8
31
0
39
0
210
0
220
0
230
1
0
LINE
5
88
100
AcDbEntity
8
1
62
256
6
ByLayer
370
-1
48
1
60
0
100
AcDbLine
10
43.04007
20
4.93
30
0
11
44.158947
21
4.93
31
0
39
0
210
0
220
0
230
1
0
LINE
5
89
100
AcDbEntity
8
1
62
256
6
ByLayer
370
-1
48
1
60
0
100
AcDbLine
10
54.032253
20
0.720664
30
0
11
54.097224
21
2.787338
31
0
39
0
210
0
220
0
230
1
0
LINE
5
8A
100
AcDbEntity
8
1
62
256
6
ByLayer
370
-1
48
1
60
0
100
AcDbLine
10
43.980216
20
8.4164
30
0
11
43.980216
21
5.562818
31
0
39
0
210
0
220
0
230
1
0
LINE
5
8B
100
AcDbEntity
8
1
62
256
6
ByLayer
370
-1
48
1
60
0
100
AcDbLine
10
53.219796
20
0.944939
30
0
11
53.792285
21
2.590068
31
0
39
0
210
0
220
0
230
1
0
LINE
5
8C
100
AcDbEntity
8
1
62
256
6
ByLayer
370
-1
48
1
60
0
100
AcDbLine
10
54.185567
20
-2.991311
30
0
11
54.171689
21
-3.387983
31
0
39
0
210
0
220
0
230
1
0
LINE
5
8D
100
AcDbEntity
8
1
62
256
6
ByLayer
370
-1
48
1
60
0
100
AcDbLine
10
54.904268
20
-2.685212
30
0
11
54.732404
21
-2.67183
31
0
39
0
210
0
220
0
230
1
0
LINE
5
8E
100
AcDbEntity
8
1
62
256
6
ByLayer
370
-1
48
1
60
0
100
AcDbLine
10
54.794515
20
-3.473793
30
0
11
54.444728
21
-3.403605
31
0
39
0
210
0
220
0
230
1
0
LINE
5
8F
100
AcDbEntity
8
1
62
256
6
ByLayer
370
-1
48
1
60
0
100
AcDbLine
10
54.329983
20
0.083956
30
0
11
54.260631
21
0.447043
31
0
39
0
210
0
220
0
230
1
0
LINE
5
90
100
AcDbEntity
8
1
62
256
6
ByLayer
370
-1
48
1
60
0
100
AcDbLine
10
54.961306
20
-4.244137
30
0
11
54.854374
21
-4.112109
31
0
39
0
210
0
220
0
230
1
0
LINE
5
91
100
AcDbEntity
8
1
62
256
6
ByLayer
370
-1
48
1
60
0
100
AcDbLine
10
54.344789
20
-3.400122
30
0
11
54.358667
21
-3.003449
31
0
39
0
210
0
220
0
230
1
0
LINE
5
92
100
AcDbEntity
8
1
62
256
6
ByLayer
370
-1
48
1
60
0
100
AcDbLine
10
54.638765
20
-0.485325
30
0
11
54.455213
21
-0.43049
31
0
39
0
210
0
220
0
230
1
0
LINE
5
93
100
AcDbEntity
8
1
62
256
6
ByLayer
370
-1
48
1
60
0
100
AcDbLine
10
54.794515
20
-3.473793
30
0
11
54.808393
21
-3.077121
31
0
39
0
210
0
220
0
230
1
0
LINE
5
94
100
AcDbEntity
8
1
62
256
6
ByLayer
370
-1
48
1
60
0
100
AcDbLine
10
54.17017
20
-4.645218
30
0
11
54.56476
21
-4.611903
31
0
39
0
210
0
220
0
230
1
0
LINE
5
95
100
AcDbEntity
8
1
62
256
6
ByLayer
370
-1
48
1
60
0
100
AcDbLine
10
54.999695
20
-3.146858
30
0
11
54.80976
21
-3.045744
31
0
39
0
210
0
220
0
230
1
0
LINE
5
96
100
AcDbEntity
8
1
62
256
6
ByLayer
370
-1
48
1
60
0
100
AcDbLine
10
54.16327
20
0.633173
30
0
11
53.949093
21
0.489834
31
0
39
0
210
0
220
0
230
1
0
LINE
5
97
100
AcDbEntity
8
1
62
256
6
ByLayer
370
-1
48
1
60
0
100
AcDbLine
10
54.168154
20
-3.760216
30
0
11
54.181081
21
-3.748692
31
0
39
0
210
0
220
0
230
1
0
LINE
5
98
100
AcDbEntity
8
1
62
256
6
ByLayer
370
-1
48
1
60
0
100
AcDbLine
10
54.175362
20
-1.81167
30
0
11
54.107902
21
-0.526875
31
0
39
0
210
0
220
0
230
1
0
LINE
5
99
100
AcDbEntity
8
1
62
256
6
ByLayer
370
-1
48
1
60
0
100
AcDbLine
10
54.961306
20
-4.244137
30
0
11
54.999695
21
-3.146858
31
0
39
0
210
0
220
0
230
1
0
LINE
5
9A
100
AcDbEntity
8
1
62
256
6
ByLayer
370
-1
48
1
60
0
100
AcDbLine
10
54.808393
20
-3.077121
30
0
11
54.458606
21
-3.006933
31
0
39
0
210
0
220
0
230
1
0
LINE
5
9B
100
AcDbEntity
8
1
62
256
6
ByLayer
370
-1
48
1
60
0
100
AcDbLine
10
54.171963
20
-4.863043
30
0
11
54.632621
21
-4.69569
31
0
39
0
210
0
220
0
230
1
0
LINE
5
9C
100
AcDbEntity
8
1
62
256
6
ByLayer
370
-1
48
1
60
0
100
AcDbLine
10
53.998687
20
-0.532574
30
0
11
54.008039
21
-0.532099
31
0
39
0
210
0
220
0
230
1
0
LINE
5
9D
100
AcDbEntity
8
1
62
256
6
ByLayer
370
-1
48
1
60
0
100
AcDbLine
10
54.714937
20
-1.936066
30
0
11
54.638765
21
-0.485325
31
0
39
0
210
0
220
0
230
1
0
LINE
5
9E
100
AcDbEntity
8
1
62
256
6
ByLayer
370
-1
48
1
60
0
100
AcDbLine
10
54.524882
20
-1.851383
30
0
11
54.457423
21
-0.566588
31
0
39
0
210
0
220
0
230
1
0
LINE
5
9F
100
AcDbEntity
8
1
62
256
6
ByLayer
370
-1
48
1
60
0
100
AcDbLine
10
54.444728
20
-3.403605
30
0
11
54.458606
21
-3.006933
31
0
39
0
210
0
220
0
230
1
0
LINE
5
A0
100
AcDbEntity
8
1
62
256
6
ByLayer
370
-1
48
1
60
0
100
AcDbLine
10
54.457423
20
-0.566588
30
0
11
54.107902
21
-0.526875
31
0
39
0
210
0
220
0
230
1
0
LINE
5
A1
100
AcDbEntity
8
1
62
256
6
ByLayer
370
-1
48
1
60
0
100
AcDbLine
10
54.760868
20
-4.524337
30
0
11
54.247692
21
-3.823139
31
0
39
0
210
0
220
0
230
1
0
LINE
5
A2
100
AcDbEntity
8
1
62
256
6
ByLayer
370
-1
48
1
60
0
100
AcDbLine
10
54.714937
20
-1.936066
30
0
11
54.524882
21
-1.851383
31
0
39
0
210
0
220
0
230
1
0
LINE
5
A3
100
AcDbEntity
8
1
62
256
6
ByLayer
370
-1
48
1
60
0
100
AcDbLine
10
54.329983
20
0.083956
30
0
11
53.978662
21
-0.151167
31
0
39
0
210
0
220
0
230
1
0
LINE
5
A4
100
AcDbEntity
8
1
62
256
6
ByLayer
370
-1
48
1
60
0
100
AcDbLine
10
54.174867
20
-3.888056
30
0
11
54.247692
21
-3.823139
31
0
39
0
210
0
220
0
230
1
0
LINE
5
A5
100
AcDbEntity
8
1
62
256
6
ByLayer
370
-1
48
1
60
0
100
AcDbLine
10
54.609296
20
-0.340753
30
0
11
54.431171
21
-0.28754
31
0
39
0
210
0
220
0
230
1
0
LINE
5
A6
100
AcDbEntity
8
1
62
256
6
ByLayer
370
-1
48
1
60
0
100
AcDbLine
10
54.075499
20
-1.816894
30
0
11
54.008039
21
-0.532099
31
0
39
0
210
0
220
0
230
1
0
LINE
5
A7
100
AcDbEntity
8
1
62
256
6
ByLayer
370
-1
48
1
60
0
100
AcDbLine
10
54.066146
20
-1.81737
30
0
11
54.075499
21
-1.816894
31
0
39
0
210
0
220
0
230
1
0
LINE
5
A8
100
AcDbEntity
8
1
62
256
6
ByLayer
370
-1
48
1
60
0
100
AcDbLine
10
54.524882
20
-1.851383
30
0
11
54.175362
21
-1.81167
31
0
39
0
210
0
220
0
230
1
0
LINE
5
A9
100
AcDbEntity
8
1
62
256
6
ByLayer
370
-1
48
1
60
0
100
AcDbLine
10
54.609296
20
-0.340753
30
0
11
54.309935
21
0.480202
31
0
39
0
210
0
220
0
230
1
0
LINE
5
AA
100
AcDbEntity
8
1
62
256
6
ByLayer
370
-1
48
1
60
0
100
AcDbLine
10
54.72268
20
-2.651394
30
0
11
54.404767
21
-2.739519
31
0
39
0
210
0
220
0
230
1
0
LINE
5
AB
100
AcDbEntity
8
1
62
256
6
ByLayer
370
-1
48
1
60
0
100
AcDbLine
10
54.309935
20
0.480202
30
0
11
54.260631
21
0.447043
31
0
39
0
210
0
220
0
230
1
0
LINE
5
AC
100
AcDbEntity
8
1
62
256
6
ByLayer
370
-1
48
1
60
0
100
AcDbLine
10
54.175362
20
-1.81167
30
0
11
54.075499
21
-1.816894
31
0
39
0
210
0
220
0
230
1
0
LINE
5
AD
100
AcDbEntity
8
1
62
256
6
ByLayer
370
-1
48
1
60
0
100
AcDbLine
10
54.632621
20
-4.69569
30
0
11
54.56476
21
-4.611903
31
0
39
0
210
0
220
0
230
1
0
LINE
5
AE
100
AcDbEntity
8
1
62
256
6
ByLayer
370
-1
48
1
60
0
100
AcDbLine
10
49.596613
20
2.6296
30
0
11
54.104287
21
2.787613
31
0
39
0
210
0
220
0
230
1
0
LINE
5
AF
100
AcDbEntity
8
1
62
256
6
ByLayer
370
-1
48
1
60
0
100
AcDbLine
10
54.626065
20
8.440337
30
0
11
54.568667
21
8.422862
31
0
39
0
210
0
220
0
230
1
0
LINE
5
B0
100
AcDbEntity
8
1
62
256
6
ByLayer
370
-1
48
1
60
0
100
AcDbLine
10
49.505995
20
2.626838
30
0
11
49.504002
21
2.68659
31
0
39
0
210
0
220
0
230
1
0
LINE
5
B1
100
AcDbEntity
8
1
62
256
6
ByLayer
370
-1
48
1
60
0
100
AcDbLine
10
48.68068
20
7.864527
30
0
11
48.838092
21
3.339634
31
0
39
0
210
0
220
0
230
1
0
LINE
5
B2
100
AcDbEntity
8
1
62
256
6
ByLayer
370
-1
48
1
60
0
100
AcDbLine
10
54.194876
20
2.791203
30
0
11
54.191801
21
2.850917
31
0
39
0
210
0
220
0
230
1
0
LINE
5
B3
100
AcDbEntity
8
1
62
256
6
ByLayer
370
-1
48
1
60
0
100
AcDbLine
10
54.194551
20
8.789025
30
0
11
54.194095
21
8.729254
31
0
39
0
210
0
220
0
230
1
0
LINE
5
B4
100
AcDbEntity
8
1
62
256
6
ByLayer
370
-1
48
1
60
0
100
AcDbLine
10
54.26178
20
8.781336
30
0
11
54.247929
21
8.723097
31
0
39
0
210
0
220
0
230
1
0
LINE
5
B5
100
AcDbEntity
8
1
62
256
6
ByLayer
370
-1
48
1
60
0
100
AcDbLine
10
48.838092
20
3.339634
30
0
11
48.897144
21
3.34172
31
0
39
0
210
0
220
0
230
1
0
LINE
5
B6
100
AcDbEntity
8
1
62
256
6
ByLayer
370
-1
48
1
60
0
100
AcDbLine
10
48.841668
20
3.248699
30
0
11
48.900699
21
3.251329
31
0
39
0
210
0
220
0
230
1
0
LINE
5
B7
100
AcDbEntity
8
1
62
256
6
ByLayer
370
-1
48
1
60
0
100
AcDbLine
10
49.388012
20
8.625945
30
0
11
49.389635
21
8.56621
31
0
39
0
210
0
220
0
230
1
0
LINE
5
B8
100
AcDbEntity
8
1
62
256
6
ByLayer
370
-1
48
1
60
0
100
AcDbLine
10
49.23052
20
2.632222
30
0
11
49.243459
21
2.690462
31
0
39
0
210
0
220
0
230
1
0
LINE
5
B9
100
AcDbEntity
8
1
62
256
6
ByLayer
370
-1
48
1
60
0
100
AcDbLine
10
48.853904
20
3.040006
30
0
11
48.912847
21
3.044175
31
0
39
0
210
0
220
0
230
1
0
LINE
5
BA
100
AcDbEntity
8
1
62
256
6
ByLayer
370
-1
48
1
60
0
100
AcDbLine
10
54.811619
20
3.549031
30
0
11
54.751655
21
3.546945
31
0
39
0
210
0
220
0
230
1
0
LINE
5
BB
100
AcDbEntity
8
1
62
256
6
ByLayer
370
-1
48
1
60
0
100
AcDbLine
10
54.104287
20
2.787613
30
0
11
54.101753
21
2.847348
31
0
39
0
210
0
220
0
230
1
0
LINE
5
BC
100
AcDbEntity
8
1
62
256
6
ByLayer
370
-1
48
1
60
0
100
AcDbLine
10
48.844054
20
3.199758
30
0
11
48.903057
21
3.202972
31
0
39
0
210
0
220
0
230
1
0
LINE
5
BD
100
AcDbEntity
8
1
62
256
6
ByLayer
370
-1
48
1
60
0
100
AcDbLine
10
54.035107
20
8.787744
30
0
11
54.035605
21
8.72798
31
0
39
0
210
0
220
0
230
1
0
LINE
5
BE
100
AcDbEntity
8
1
62
256
6
ByLayer
370
-1
48
1
60
0
100
AcDbLine
10
54.650631
20
8.164859
30
0
11
54.590689
21
8.16223
31
0
39
0
210
0
220
0
230
1
0
LINE
5
BF
100
AcDbEntity
8
1
62
256
6
ByLayer
370
-1
48
1
60
0
100
AcDbLine
10
48.676908
20
8.00448
30
0
11
48.735989
21
8.005437
31
0
39
0
210
0
220
0
230
1
0
LINE
5
C0
100
AcDbEntity
8
1
62
256
6
ByLayer
370
-1
48
1
60
0
100
AcDbLine
10
54.814371
20
3.458067
30
0
11
54.75439
21
3.456525
31
0
39
0
210
0
220
0
230
1
0
LINE
5
C1
100
AcDbEntity
8
1
62
256
6
ByLayer
370
-1
48
1
60
0
100
AcDbLine
10
54.811619
20
3.549031
30
0
11
54.654207
21
8.073924
31
0
39
0
210
0
220
0
230
1
0
LINE
5
C2
100
AcDbEntity
8
1
62
256
6
ByLayer
370
-1
48
1
60
0
100
AcDbLine
10
53.895687
20
8.783958
30
0
11
49.388012
21
8.625945
31
0
39
0
210
0
220
0
230
1
0
LINE
5
C3
100
AcDbEntity
8
1
62
256
6
ByLayer
370
-1
48
1
60
0
100
AcDbLine
10
49.089524
20
8.610073
30
0
11
49.093222
21
8.550447
31
0
39
0
210
0
220
0
230
1
0
LINE
5
C4
100
AcDbEntity
8
1
62
256
6
ByLayer
370
-1
48
1
60
0
100
AcDbLine
10
54.243631
20
2.793598
30
0
11
54.239973
21
2.853283
31
0
39
0
210
0
220
0
230
1
0
LINE
5
C5
100
AcDbEntity
8
1
62
256
6
ByLayer
370
-1
48
1
60
0
100
AcDbLine
10
54.402775
20
2.803485
30
0
11
54.398166
21
2.863111
31
0
39
0
210
0
220
0
230
1
0
LINE
5
C6
100
AcDbEntity
8
1
62
256
6
ByLayer
370
-1
48
1
60
0
100
AcDbLine
10
49.248668
20
8.61996
30
0
11
49.251415
21
8.560275
31
0
39
0
210
0
220
0
230
1
0
LINE
5
C7
100
AcDbEntity
8
1
62
256
6
ByLayer
370
-1
48
1
60
0
100
AcDbLine
10
53.986305
20
8.78672
30
0
11
53.987385
21
8.726968
31
0
39
0
210
0
220
0
230
1
0
LINE
5
C8
100
AcDbEntity
8
1
62
256
6
ByLayer
370
-1
48
1
60
0
100
AcDbLine
10
49.596613
20
2.6296
30
0
11
49.594079
21
2.689335
31
0
39
0
210
0
220
0
230
1
0
LINE
5
C9
100
AcDbEntity
8
1
62
256
6
ByLayer
370
-1
48
1
60
0
100
AcDbLine
10
49.297748
20
2.624533
30
0
11
49.297292
21
2.684304
31
0
39
0
210
0
220
0
230
1
0
LINE
5
CA
100
AcDbEntity
8
1
62
256
6
ByLayer
370
-1
48
1
60
0
100
AcDbLine
10
48.675632
20
8.164533
30
0
11
48.734721
21
8.164533
31
0
39
0
210
0
220
0
230
1
0
LINE
5
CB
100
AcDbEntity
8
1
62
256
6
ByLayer
370
-1
48
1
60
0
100
AcDbLine
10
54.469306
20
2.815863
30
0
11
54.451441
21
2.873023
31
0
39
0
210
0
220
0
230
1
0
LINE
5
CC
100
AcDbEntity
8
1
62
256
6
ByLayer
370
-1
48
1
60
0
100
AcDbLine
10
54.815391
20
3.409078
30
0
11
54.755399
21
3.408121
31
0
39
0
210
0
220
0
230
1
0
LINE
5
CD
100
AcDbEntity
8
1
62
256
6
ByLayer
370
-1
48
1
60
0
100
AcDbLine
10
48.68068
20
7.864527
30
0
11
48.739733
21
7.866613
31
0
39
0
210
0
220
0
230
1
0
LINE
5
CE
100
AcDbEntity
8
1
62
256
6
ByLayer
370
-1
48
1
60
0
100
AcDbLine
10
54.809007
20
3.18154
30
0
11
54.750533
21
3.194986
31
0
39
0
210
0
220
0
230
1
0
LINE
5
CF
100
AcDbEntity
8
1
62
256
6
ByLayer
370
-1
48
1
60
0
100
AcDbLine
10
48.683292
20
8.232018
30
0
11
48.740854
21
8.218573
31
0
39
0
210
0
220
0
230
1
0
LINE
5
D0
100
AcDbEntity
8
1
62
256
6
ByLayer
370
-1
48
1
60
0
100
AcDbLine
10
54.816667
20
3.249025
30
0
11
54.756667
21
3.249025
31
0
39
0
210
0
220
0
230
1
0
LINE
5
D1
100
AcDbEntity
8
1
62
256
6
ByLayer
370
-1
48
1
60
0
100
AcDbLine
10
49.457192
20
2.625814
30
0
11
49.455783
21
2.685578
31
0
39
0
210
0
220
0
230
1
0
LINE
5
D2
100
AcDbEntity
8
1
62
256
6
ByLayer
370
-1
48
1
60
0
100
AcDbLine
10
49.022994
20
8.597695
30
0
11
49.039947
21
8.540535
31
0
39
0
210
0
220
0
230
1
0
LINE
5
D3
100
AcDbEntity
8
1
62
256
6
ByLayer
370
-1
48
1
60
0
100
AcDbLine
10
48.677929
20
7.955491
30
0
11
48.736997
21
7.957033
31
0
39
0
210
0
220
0
230
1
0
LINE
5
D4
100
AcDbEntity
8
1
62
256
6
ByLayer
370
-1
48
1
60
0
100
AcDbLine
10
54.648245
20
8.2138
30
0
11
54.588331
21
8.210586
31
0
39
0
210
0
220
0
230
1
0
LINE
5
D5
100
AcDbEntity
8
1
62
256
6
ByLayer
370
-1
48
1
60
0
100
AcDbLine
10
48.866234
20
2.973221
30
0
11
48.922721
21
2.990696
31
0
39
0
210
0
220
0
230
1
0
LINE
5
D6
100
AcDbEntity
8
1
62
256
6
ByLayer
370
-1
48
1
60
0
100
AcDbLine
10
54.638396
20
8.373553
30
0
11
54.578541
21
8.369383
31
0
39
0
210
0
220
0
230
1
0
LINE
5
D7
100
AcDbEntity
8
1
62
256
6
ByLayer
370
-1
48
1
60
0
100
AcDbLine
10
54.654207
20
8.073924
30
0
11
54.594244
21
8.071838
31
0
39
0
210
0
220
0
230
1
0
LINE
5
D8
100
AcDbEntity
8
1
62
256
6
ByLayer
370
-1
48
1
60
0
100
AcDbLine
10
53.895687
20
8.783958
30
0
11
53.897309
21
8.724223
31
0
39
0
210
0
220
0
230
1
0
LINE
5
D9
100
AcDbEntity
8
1
62
256
6
ByLayer
370
-1
48
1
60
0
100
AcDbLine
10
49.297423
20
8.622355
30
0
11
49.299587
21
8.562641
31
0
39
0
210
0
220
0
230
1
0
LINE
5
DA
100
AcDbEntity
8
SK1
62
256
6
ByLayer
370
-1
48
1
60
0
100
AcDbLine
10
-0.15
20
12.25
30
0
11
-0.15
21
-12.25
31
0
39
0
210
0
220
0
230
1
0
LINE
5
DB
100
AcDbEntity
8
SK1
62
256
6
ByLayer
370
-1
48
1
60
0
100
AcDbLine
10
-52.6
20
6.998498
30
0
11
-52.6
21
12.49675
31
0
39
0
210
0
220
0
230
1
0
LINE
5
DC
100
AcDbEntity
8
SK1
62
256
6
ByLayer
370
-1
48
1
60
0
100
AcDbLine
10
-52.6
20
-12.49675
30
0
11
-52.6
21
-6.998498
31
0
39
0
210
0
220
0
230
1
0
LINE
5
DD
100
AcDbEntity
8
SK1
62
256
6
ByLayer
370
-1
48
1
60
0
100
AcDbLine
10
-1.551212
20
12.287477
30
0
11
-1.551212
21
-12.287477
31
0
39
0
210
0
220
0
230
1
0
LINE
5
DE
100
AcDbEntity
8
SK1
62
256
6
ByLayer
370
-1
48
1
60
0
100
AcDbLine
10
-56
20
4.998547
30
0
11
-56
21
-4.998547
31
0
39
0
210
0
220
0
230
1
0
LINE
5
DF
100
AcDbEntity
8
SK1
62
256
6
ByLayer
370
-1
48
1
60
0
100
AcDbLine
10
-54.6
20
-12.49675
30
0
11
-54.6
21
-6.998498
31
0
39
0
210
0
220
0
230
1
0
LINE
5
E0
100
AcDbEntity
8
SK1
62
256
6
ByLayer
370
-1
48
1
60
0
100
AcDbLine
10
-54.6
20
6.998498
30
0
11
-54.6
21
12.49675
31
0
39
0
210
0
220
0
230
1
0
LINE
5
E1
100
AcDbEntity
8
SK1
62
256
6
ByLayer
370
-1
48
1
60
0
100
AcDbLine
10
-53.633814
20
-6.340342
30
0
11
-53.633814
21
-12.140417
31
0
39
0
210
0
220
0
230
1
0
LINE
5
E2
100
AcDbEntity
8
SK1
62
256
6
ByLayer
370
-1
48
1
60
0
100
AcDbLine
10
-53.633814
20
12.140417
30
0
11
-53.633814
21
6.340342
31
0
39
0
210
0
220
0
230
1
0
LINE
5
E3
100
AcDbEntity
8
SK1
62
256
6
ByLayer
370
-1
48
1
60
0
100
AcDbLine
10
-6.5
20
6.998498
30
0
11
-6.5
21
-6.998498
31
0
39
0
210
0
220
0
230
1
0
LINE
5
E4
100
AcDbEntity
8
SK1
62
256
6
ByLayer
370
-1
48
1
60
0
100
AcDbLine
10
-52.6
20
6.998498
30
0
11
-6.5
21
6.998498
31
0
39
0
210
0
220
0
230
1
0
LINE
5
E5
100
AcDbEntity
8
SK1
62
256
6
ByLayer
370
-1
48
1
60
0
100
AcDbLine
10
-55
20
-6.998498
30
0
11
-55
21
-12.49675
31
0
39
0
210
0
220
0
230
1
0
LINE
5
E6
100
AcDbEntity
8
SK1
62
256
6
ByLayer
370
-1
48
1
60
0
100
AcDbLine
10
-55
20
12.49675
30
0
11
-55
21
6.998498
31
0
39
0
210
0
220
0
230
1
0
LINE
5
E7
100
AcDbEntity
8
SK1
62
256
6
ByLayer
370
-1
48
1
60
0
100
AcDbLine
10
-1.382165
20
12.25
30
0
11
-1.382165
21
-12.25
31
0
39
0
210
0
220
0
230
1
0
LINE
5
E8
100
AcDbEntity
8
SK1
62
256
6
ByLayer
370
-1
48
1
60
0
100
AcDbLine
10
-54.6
20
-6.998498
30
0
11
-55
21
-6.998498
31
0
39
0
210
0
220
0
230
1
0
LINE
5
E9
100
AcDbEntity
8
SK1
62
256
6
ByLayer
370
-1
48
1
60
0
100
AcDbLine
10
-2
20
-12.49675
30
0
11
-2
21
12.49675
31
0
39
0
210
0
220
0
230
1
0
LINE
5
EA
100
AcDbEntity
8
SK1
62
256
6
ByLayer
370
-1
48
1
60
0
100
AcDbLine
10
-56
20
-4.998547
30
0
11
-56
21
-11.49675
31
0
39
0
210
0
220
0
230
1
0
LINE
5
EB
100
AcDbEntity
8
SK1
62
256
6
ByLayer
370
-1
48
1
60
0
100
AcDbLine
10
-56
20
11.49675
30
0
11
-56
21
4.998547
31
0
39
0
210
0
220
0
230
1
0
LINE
5
EC
100
AcDbEntity
8
SK1
62
256
6
ByLayer
370
-1
48
1
60
0
100
AcDbLine
10
-6.5
20
-6.998498
30
0
11
-52.6
21
-6.998498
31
0
39
0
210
0
220
0
230
1
0
LINE
5
ED
100
AcDbEntity
8
SK1
62
256
6
ByLayer
370
-1
48
1
60
0
100
AcDbLine
10
-54.516223
20
-6.812044
30
0
11
-54.516223
21
-12.393294
31
0
39
0
210
0
220
0
230
1
0
LINE
5
EE
100
AcDbEntity
8
SK1
62
256
6
ByLayer
370
-1
48
1
60
0
100
AcDbLine
10
-54.516223
20
12.393294
30
0
11
-54.516223
21
6.812044
31
0
39
0
210
0
220
0
230
1
0
LINE
5
EF
100
AcDbEntity
8
SK1
62
256
6
ByLayer
370
-1
48
1
60
0
100
AcDbLine
10
-55
20
6.998498
30
0
11
-54.6
21
6.998498
31
0
39
0
210
0
220
0
230
1
0
MTEXT
5
20E
100
AcDbEntity
8
SK6
62
256
6
ByLayer
370
-1
48
1
60
0
100
AcDbMText
10
0.79375
20
-80.79375
30
0
210
0
220
0
230
1
1
\W00.723;\fsimplex.shx,bigfont.shx;880-D1750L25-02 
40
3.175
41
0
44
1.084337
50
0
71
7
72
5
7
DEFAULT
0
DIMENSION
5
23E
100
AcDbEntity
8
SK2
62
256
6
ByLayer
370
-3
48
1
60
0
100
AcDbDimension
2
DimnDraft3D1
10
55
20
-54.86955
30
0
11
-0.5
21
-54.86955
31
0
70
32
71
5
72
1
41
1
210
0
220
0
230
1
3
Standard
100
AcDbAlignedDimension
13
-56
23
-14.0875
33
0
14
55
24
-10.3375
34
0
50
0
100
AcDbRotatedDimension
1001
ACAD
1000
DSTYLE
1002
{
1070
   279
1070
     0
1070
   172
1070
     1
1070
   173
1070
     1
1070
   340
1005
20F
1070
   271
1070
     1
1070
   272
1070
     2
1070
    77
1070
     1
1070
    73
1070
     0
1070
   171
1070
     3
1070
   274
1070
     4
1070
   177
1070
   150
1070
   176
1070
     9
1070
   178
1070
    43
1070
    78
1070
     8
1070
    48
1040
-0.005
1070
    41
1041
4.175
1070
   147
1041
2.25
1070
    42
1041
1.5875
1070
    44
1041
3.175
1070
   140
1041
4.5
1070
   343
1005
0
1070
   344
1005
0
1002
}
0
DIMENSION
5
248
100
AcDbEntity
8
SK2
62
256
6
ByLayer
370
-3
48
1
60
0
100
AcDbDimension
2
DimnDraft3D2
10
0
20
-42.9008
30
0
11
-28
21
-42.9008
31
0
70
32
71
5
72
1
41
1
210
0
220
0
230
1
3
Standard
100
AcDbAlignedDimension
13
-56
23
-14.0875
33
0
14
0
24
-17.5875
34
0
50
0
100
AcDbRotatedDimension
1001
ACAD
1000
DSTYLE
1002
{
1070
   279
1070
     0
1070
   172
1070
     1
1070
   173
1070
     1
1070
   340
1005
20F
1070
   271
1070
     1
1070
   272
1070
     2
1070
    77
1070
     1
1070
    73
1070
     0
1070
   171
1070
     3
1070
   274
1070
     4
1070
   177
1070
   150
1070
   176
1070
     9
1070
   178
1070
    43
1070
    78
1070
     8
1070
    48
1040
-0.005
1070
    41
1041
4.175
1070
   147
1041
2.25
1070
    42
1041
1.5875
1070
    44
1041
3.175
1070
   140
1041
4.5
1070
   343
1005
0
1070
   344
1005
0
1002
}
0
DIMENSION
5
253
100
AcDbEntity
8
2
62
256
6
ByLayer
370
-3
48
1
60
0
100
AcDbDimension
2
DimnDraft3D3
10
55
20
-42.9008
30
0
11
27.5
21
-42.9008
31
0
70
32
71
5
72
1
41
1
210
0
220
0
230
1
3
Standard
100
AcDbAlignedDimension
13
0
23
-17.5875
33
0
14
55
24
-10.3375
34
0
50
0
100
AcDbRotatedDimension
1001
ACAD
1000
DSTYLE
1002
{
1070
   279
1070
     0
1070
   172
1070
     1
1070
   173
1070
     1
1070
   340
1005
20F
1070
   271
1070
     1
1070
   272
1070
     2
1070
    77
1070
     1
1070
    73
1070
     0
1070
   171
1070
     3
1070
   274
1070
     4
1070
   177
1070
   150
1070
   176
1070
     9
1070
   178
1070
    43
1070
    78
1070
     8
1070
    48
1040
-0.005
1070
    41
1041
4.175
1070
   147
1041
2.25
1070
    42
1041
1.5875
1070
    44
1041
3.175
1070
   140
1041
4.5
1070
   343
1005
0
1070
   344
1005
0
1002
}
0
DIMENSION
5
25D
100
AcDbEntity
8
SK2
62
256
6
ByLayer
370
-3
48
1
60
0
100
AcDbDimension
2
DimnDraft3D4
10
55
20
-32.9008
30
0
11
35.5
21
-32.9008
31
0
70
32
71
5
72
1
41
1
210
0
220
0
230
1
3
Standard
100
AcDbAlignedDimension
13
16
23
-11.5875
33
0
14
55
24
-10.3375
34
0
50
0
100
AcDbRotatedDimension
1001
ACAD
1000
DSTYLE
1002
{
1070
   279
1070
     0
1070
   172
1070
     1
1070
   173
1070
     1
1070
   340
1005
20F
1070
   271
1070
     1
1070
   272
1070
     2
1070
    77
1070
     1
1070
    73
1070
     0
1070
   171
1070
     3
1070
   274
1070
     4
1070
   177
1070
   150
1070
   176
1070
     9
1070
   178
1070
    43
1070
    78
1070
     8
1070
    48
1040
-0.005
1070
    41
1041
4.175
1070
   147
1041
2.25
1070
    42
1041
1.5875
1070
    44
1041
3.175
1070
   140
1041
4.5
1070
   343
1005
0
1070
   344
1005
0
1002
}
0
DIMENSION
5
268
100
AcDbEntity
8
SK2
62
256
6
ByLayer
370
-3
48
1
60
0
100
AcDbDimension
2
DimnDraft3D5
10
-67.9
20
-12.5
30
0
11
-68.1
21
4.121053
31
0
70
33
71
5
72
1
41
1
210
0
220
0
230
1
3
Standard
100
AcDbAlignedDimension
13
-57.5875
23
12.5
33
0
14
-57.5875
24
-12.5
34
0
1001
ACAD
1000
DSTYLE
1002
{
1070
   279
1070
     0
1070
    74
1070
     0
1070
   173
1070
     1
1070
   340
1005
20F
1070
   271
1070
     2
1070
   272
1070
     2
1070
    77
1070
     1
1070
    73
1070
     0
1070
   171
1070
     3
1070
   274
1070
     4
1070
   177
1070
   150
1070
   176
1070
     9
1070
   178
1070
    43
1070
    78
1070
     8
1070
    48
1040
-0.005
1070
    41
1041
4.175
1070
   147
1041
2.25
1070
    42
1041
1.5875
1070
    44
1041
3.175
1070
   140
1041
4.5
1070
   343
1005
0
1070
   344
1005
0
1002
}
0
DIMENSION
5
273
100
AcDbEntity
8
SK2
62
256
6
ByLayer
370
-3
48
1
60
0
100
AcDbDimension
2
DimnDraft3D6
10
-77.9
20
16
30
0
11
-78.1
21
4.121053
31
0
70
33
71
5
72
1
41
1
210
0
220
0
230
1
3
Standard
100
AcDbAlignedDimension
13
-1.5875
23
-16
33
0
14
-1.5875
24
16
34
0
1001
ACAD
1000
DSTYLE
1002
{
1070
   279
1070
     0
1070
    74
1070
     0
1070
   173
1070
     1
1070
   340
1005
20F
1070
   271
1070
     1
1070
   272
1070
     2
1070
    77
1070
     1
1070
    73
1070
     0
1070
   171
1070
     3
1070
   274
1070
     4
1070
   177
1070
   150
1070
   176
1070
     9
1070
   178
1070
    43
1070
    78
1070
     8
1070
    48
1040
-0.005
1070
    41
1041
4.175
1070
   147
1041
2.25
1070
    42
1041
1.5875
1070
    44
1041
3.175
1070
   140
1041
4.5
1070
   343
1005
0
1070
   344
1005
0
1002
}
0
DIMENSION
5
27E
100
AcDbEntity
8
2
62
256
6
ByLayer
370
-3
48
1
60
0
100
AcDbDimension
2
DimnDraft3D7
10
85.15
20
-8.75
30
0
11
78.6
21
-30.063816
31
0
70
33
71
5
72
1
41
1
210
0
220
0
230
1
3
Standard
100
AcDbAlignedDimension
13
56.5875
23
8.75
33
0
14
56.5875
24
-8.75
34
0
1001
ACAD
1000
DSTYLE
1002
{
1070
   279
1070
     0
1070
    74
1070
     0
1070
   173
1070
     1
1070
   340
1005
20F
1070
   271
1070
     2
1070
   272
1070
     2
1070
    77
1070
     1
1070
    73
1070
     0
1070
   171
1070
     3
1070
   274
1070
     4
1070
   177
1070
   150
1070
   176
1070
     9
1070
   178
1070
    43
1070
    78
1070
     8
1070
    48
1040
-0.005
1070
    41
1041
4.175
1070
   147
1041
2.25
1070
    42
1041
1.5875
1070
    44
1041
3.175
1070
   140
1041
4.5
1070
   343
1005
0
1070
   344
1005
0
1002
}
0
ENDSEC
0
SECTION
2
OBJECTS
0
DICTIONARY
5
2af
330
0
100
AcDbDictionary
280
0
281
1
3
ACAD_GROUP
350
2b0
3
ACAD_MLINESTYLE
350
2b1
0
DICTIONARY
5
2b0
330
0
100
AcDbDictionary
280
0
281
1
0
DICTIONARY
5
2b1
330
0
100
AcDbDictionary
280
0
281
1
3
Standard
350
18
0
MLINESTYLE
5
18
330
2b1
100
AcDbMlineStyle
2
Standard
70
0
3

62
256
51
90
52
90
71
2
49
-0.5
62
256
6
ByLayer
49
0.5
62
256
6
ByLayer
0
RASTERVARIABLES
5
29d
330

100
AcDbRasterVariables
90
0
70
1
71
1
72
1
0
ENDSEC
0
EOF
