0
SECTION
2
HEADER
9
$ACADVER
1
AC1015
9
$DWGCODEPAGE
3
ANSI_1252
9
$HANDSEED
5
322
9
$ANGBASE
50
0
9
$ANGDIR
70
0
9
$ATTMODE
70
1
9
$AUNITS
70
0
9
$AUPREC
70
0
9
$CECOLOR
62
256
9
$CELTSCALE
40
1
9
$CELTYPE
6
ByLayer
9
$CELWEIGHT
370
18
9
$CLAYER
8
0
9
$CMLJUST
70
0
9
$CMLSCALE
40
1
9
$CMLSTYLE
2
Standard
9
$DIMSTYLE
2
Standard
9
$TEXTSIZE
40
0.2
9
$TEXTSTYLE
7
Standard
9
$LUNITS
70
2
9
$LUPREC
70
4
9
$EXTNAMES
290
1
9
$INSUNITS
70
4
9
$LTSCALE
40
1
9
$LWDISPLAY
290
1
9
$PDMODE
70
0
9
$PDSIZE
40
0
9
$PLINEGEN
70
0
0
ENDSEC
0
SECTION
2
CLASSES
0
CLASS
1
RASTERVARIABLES
2
AcDbRasterVariables
3
ISM
90
0
280
0
281
0
0
ENDSEC
0
SECTION
2
TABLES
0
TABLE
2
VPORT
5
318
100
AcDbSymbolTable
0
VPORT
5
1
100
AcDbSymbolTableRecord
100
AcDbViewportTableRecord
2
*Active
70
0
10
0
20
0
11
1
21
1
12
-1
22
1
13
0
23
0
14
0.5
24
0.5
15
10
25
10
16
0
26
0
36
1
17
0
27
0
37
0
0
ENDTAB
0
TABLE
2
LTYPE
5
319
100
AcDbSymbolTable
0
LTYPE
5
14
100
AcDbSymbolTableRecord
100
AcDbLinetypeTableRecord
70
0
2
ByBlock
3

72
65
73
0
40
0
0
LTYPE
5
15
100
AcDbSymbolTableRecord
100
AcDbLinetypeTableRecord
70
0
2
ByLayer
3

72
65
73
0
40
0
0
LTYPE
5
16
100
AcDbSymbolTableRecord
100
AcDbLinetypeTableRecord
70
0
2
CONTINUOUS
3
Solid line
72
65
73
0
40
0
0
LTYPE
5
6A
100
AcDbSymbolTableRecord
100
AcDbLinetypeTableRecord
70
0
2
CENTER
3
____ _ ____ _ ____ _ ____
72
65
73
4
40
47.5
49
22
74
0
49
-8.5
74
0
49
8.5
74
0
49
-8.5
74
0
0
LTYPE
5
6B
100
AcDbSymbolTableRecord
100
AcDbLinetypeTableRecord
70
0
2
DASHED
3
__ __ __ __ __ __ __ __ __
72
65
73
2
40
25.72
49
12.86
74
0
49
-12.86
74
0
0
ENDTAB
0
TABLE
2
LAYER
5
31a
100
AcDbSymbolTable
0
LAYER
5
10
100
AcDbSymbolTableRecord
100
AcDbLayerTableRecord
2
0
70
0
62
7
6
CONTINUOUS
290
1
370
-3
390
0
0
LAYER
5
6D
100
AcDbSymbolTableRecord
100
AcDbLayerTableRecord
2
81
70
0
62
-3
6
CONTINUOUS
290
1
370
-3
390
0
0
LAYER
5
6F
100
AcDbSymbolTableRecord
100
AcDbLayerTableRecord
2
80
70
0
62
-6
6
CONTINUOUS
290
1
370
-3
390
0
0
LAYER
5
73
100
AcDbSymbolTableRecord
100
AcDbLayerTableRecord
2
1
70
0
62
4
6
CONTINUOUS
290
1
370
-3
390
0
0
LAYER
5
8B
100
AcDbSymbolTableRecord
100
AcDbLayerTableRecord
2
4
70
0
62
-2
6
CENTER
290
1
370
-3
390
0
0
LAYER
5
282
100
AcDbSymbolTableRecord
100
AcDbLayerTableRecord
2
2
70
0
62
7
6
CONTINUOUS
290
1
370
-3
390
0
0
LAYER
5
304
100
AcDbSymbolTableRecord
100
AcDbLayerTableRecord
2
SK4
70
0
62
2
6
CENTER
290
1
370
-3
390
0
0
LAYER
5
305
100
AcDbSymbolTableRecord
100
AcDbLayerTableRecord
2
SK1
70
0
62
4
6
CONTINUOUS
290
1
370
-3
390
0
0
LAYER
5
306
100
AcDbSymbolTableRecord
100
AcDbLayerTableRecord
2
SK6
70
0
62
5
6
CONTINUOUS
290
1
370
-3
390
0
0
LAYER
5
307
100
AcDbSymbolTableRecord
100
AcDbLayerTableRecord
2
SK2
70
0
62
7
6
CONTINUOUS
290
1
370
-3
390
0
0
ENDTAB
0
TABLE
2
STYLE
5
31b
100
AcDbSymbolTable
0
STYLE
5
11
100
AcDbSymbolTableRecord
100
AcDbTextStyleTableRecord
2
Standard
3
txt
70
0
71
0
40
0
41
1
42
0
50
0
0
STYLE
5
268
100
AcDbSymbolTableRecord
100
AcDbTextStyleTableRecord
2
iso_b_vert
3
simplex.shx
70
0
71
0
40
0
41
1
42
0
50
0
0
STYLE
5
269
100
AcDbSymbolTableRecord
100
AcDbTextStyleTableRecord
2
DWGDirectTextStyle
3
simplex
70
0
71
0
40
0
41
1
42
0
50
0
0
ENDTAB
0
TABLE
2
DIMSTYLE
5
31c
100
AcDbSymbolTable
100
AcDbDimStyleTable
0
DIMSTYLE
105
27
100
AcDbSymbolTableRecord
100
AcDbDimStyleTableRecord
2
Standard
70
0
3
<>
41
0.18
42
0.0625
44
0.18
140
0.18
147
0.09
73
0
74
0
77
1
271
2
275
0
278
52
280
0
340
11
0
ENDTAB
0
TABLE
2
VIEW
5
31d
100
AcDbSymbolTable
0
ENDTAB
0
TABLE
2
UCS
5
31e
100
AcDbSymbolTable
0
ENDTAB
0
TABLE
2
APPID
5
31f
100
AcDbSymbolTable
0
APPID
5
12
100
AcDbSymbolTableRecord
100
AcDbRegAppTableRecord
2
ACAD
70
0
0
ENDTAB
0
TABLE
2
BLOCK_RECORD
5
320
100
AcDbSymbolTable
0
BLOCK_RECORD
5
1F
100
AcDbSymbolTableRecord
100
AcDbBlockTableRecord
2
*Model_Space
340
0
70
0
0
BLOCK_RECORD
5
1B
100
AcDbSymbolTableRecord
100
AcDbBlockTableRecord
2
*Paper_Space
340
0
70
0
0
BLOCK_RECORD
5
23
100
AcDbSymbolTableRecord
100
AcDbBlockTableRecord
2
*Paper_Space0
340
0
70
0
0
BLOCK_RECORD
5
26B
100
AcDbSymbolTableRecord
100
AcDbBlockTableRecord
2
DimnDraft3D1
340
0
70
0
0
BLOCK_RECORD
5
276
100
AcDbSymbolTableRecord
100
AcDbBlockTableRecord
2
DimnDraft3D2
340
0
70
0
0
BLOCK_RECORD
5
280
100
AcDbSymbolTableRecord
100
AcDbBlockTableRecord
2
DimnDraft3D3
340
0
70
0
0
BLOCK_RECORD
5
28B
100
AcDbSymbolTableRecord
100
AcDbBlockTableRecord
2
DimnDraft3D4
340
0
70
0
0
BLOCK_RECORD
5
295
100
AcDbSymbolTableRecord
100
AcDbBlockTableRecord
2
DimnDraft3D5
340
0
70
0
0
BLOCK_RECORD
5
2A0
100
AcDbSymbolTableRecord
100
AcDbBlockTableRecord
2
DimnDraft3D6
340
0
70
0
0
ENDTAB
0
ENDSEC
0
SECTION
2
BLOCKS
0
BLOCK
5
20
100
AcDbEntity
8
0
100
AcDbBlockBegin
2
*Model_Space
70
0
10
0
20
0
30
0
3
*Model_Space
0
ENDBLK
5
21
100
AcDbEntity
8
0
100
AcDbBlockEnd
0
BLOCK
5
1C
100
AcDbEntity
8
0
100
AcDbBlockBegin
2
*Paper_Space
70
0
10
0
20
0
30
0
3
*Paper_Space
0
ENDBLK
5
1D
100
AcDbEntity
8
0
100
AcDbBlockEnd
0
BLOCK
5
24
100
AcDbEntity
8
0
100
AcDbBlockBegin
2
*Paper_Space0
70
0
10
0
20
0
30
0
3
*Paper_Space0
0
ENDBLK
5
25
100
AcDbEntity
8
0
100
AcDbBlockEnd
0
BLOCK
5
273
100
AcDbEntity
8
0
100
AcDbBlockBegin
2
DimnDraft3D1
70
0
10
0
20
0
30
0
3
DimnDraft3D1
0
MTEXT
5
26C
100
AcDbEntity
8
SK2
62
256
6
ByLayer
370
18
48
1
60
0
100
AcDbMText
10
27.380263
20
-55.725
30
0
210
0
220
0
230
1
1
\W0.8594;(116)
40
4.5
41
0
44
1.084337
50
0
71
7
72
5
7
iso_b_vert
0
LINE
5
26E
100
AcDbEntity
8
SK2
62
256
6
ByLayer
370
13
48
1
60
0
100
AcDbLine
10
-24
20
-3.5875
30
0
11
-24
21
-61.99375
31
0
39
0
210
0
220
0
230
1
0
LINE
5
26F
100
AcDbEntity
8
SK2
62
256
6
ByLayer
370
13
48
1
60
0
100
AcDbLine
10
92
20
-10.3375
30
0
11
92
21
-61.99375
31
0
39
0
210
0
220
0
230
1
0
LINE
5
270
100
AcDbEntity
8
SK2
62
256
6
ByLayer
370
13
48
1
60
0
100
AcDbLine
10
-24
20
-58.81875
30
0
11
92
21
-58.81875
31
0
39
0
210
0
220
0
230
1
0
SOLID
5
271
100
AcDbEntity
8
SK2
62
256
6
ByLayer
370
13
48
1
60
0
100
AcDbTrace
10
-24
20
-58.81875
30
0
11
-19.825003
21
-57.893175
31
0
12
-19.824997
22
-59.744325
32
0
13
-24
23
-58.81875
33
0
39
0
210
0
220
0
230
1
0
SOLID
5
272
100
AcDbEntity
8
SK2
62
256
6
ByLayer
370
13
48
1
60
0
100
AcDbTrace
10
92
20
-58.81875
30
0
11
87.825003
21
-59.744325
31
0
12
87.824997
22
-57.893175
32
0
13
92
23
-58.81875
33
0
39
0
210
0
220
0
230
1
0
ENDBLK
5
274
100
AcDbEntity
8
0
100
AcDbBlockEnd
0
BLOCK
5
27D
100
AcDbEntity
8
0
100
AcDbBlockBegin
2
DimnDraft3D2
70
0
10
0
20
0
30
0
3
DimnDraft3D2
0
MTEXT
5
277
100
AcDbEntity
8
SK2
62
256
6
ByLayer
370
18
48
1
60
0
100
AcDbMText
10
-13.8
20
-45.725
30
0
210
0
220
0
230
1
1
\W0.7167;24
40
4.5
41
0
44
1.084337
50
0
71
7
72
5
7
iso_b_vert
0
LINE
5
278
100
AcDbEntity
8
SK2
62
256
6
ByLayer
370
13
48
1
60
0
100
AcDbLine
10
-24
20
-3.5875
30
0
11
-24
21
-50.025
31
0
39
0
210
0
220
0
230
1
0
LINE
5
279
100
AcDbEntity
8
SK2
62
256
6
ByLayer
370
13
48
1
60
0
100
AcDbLine
10
0
20
-21.5875
30
0
11
0
21
-50.025
31
0
39
0
210
0
220
0
230
1
0
LINE
5
27A
100
AcDbEntity
8
SK2
62
256
6
ByLayer
370
13
48
1
60
0
100
AcDbLine
10
-24
20
-46.85
30
0
11
0
21
-46.85
31
0
39
0
210
0
220
0
230
1
0
SOLID
5
27B
100
AcDbEntity
8
SK2
62
256
6
ByLayer
370
13
48
1
60
0
100
AcDbTrace
10
-24
20
-46.85
30
0
11
-19.825003
21
-45.924425
31
0
12
-19.824997
22
-47.775575
32
0
13
-24
23
-46.85
33
0
39
0
210
0
220
0
230
1
0
SOLID
5
27C
100
AcDbEntity
8
SK2
62
256
6
ByLayer
370
13
48
1
60
0
100
AcDbTrace
10
0
20
-46.85
30
0
11
-4.174997
21
-47.775575
31
0
12
-4.175003
22
-45.924425
32
0
13
0
23
-46.85
33
0
39
0
210
0
220
0
230
1
0
ENDBLK
5
27E
100
AcDbEntity
8
0
100
AcDbBlockEnd
0
BLOCK
5
288
100
AcDbEntity
8
0
100
AcDbBlockBegin
2
DimnDraft3D3
70
0
10
0
20
0
30
0
3
DimnDraft3D3
0
MTEXT
5
281
100
AcDbEntity
8
2
62
256
6
ByLayer
370
18
48
1
60
0
100
AcDbMText
10
44.436842
20
-45.725
30
0
210
0
220
0
230
1
1
\W0.6740;92
40
4.5
41
0
44
1.084337
50
0
71
7
72
5
7
iso_b_vert
0
LINE
5
283
100
AcDbEntity
8
2
62
256
6
ByLayer
370
13
48
1
60
0
100
AcDbLine
10
0
20
-21.5875
30
0
11
0
21
-50.025
31
0
39
0
210
0
220
0
230
1
0
LINE
5
284
100
AcDbEntity
8
2
62
256
6
ByLayer
370
13
48
1
60
0
100
AcDbLine
10
92
20
-10.3375
30
0
11
92
21
-50.025
31
0
39
0
210
0
220
0
230
1
0
LINE
5
285
100
AcDbEntity
8
2
62
256
6
ByLayer
370
13
48
1
60
0
100
AcDbLine
10
0
20
-46.85
30
0
11
92
21
-46.85
31
0
39
0
210
0
220
0
230
1
0
SOLID
5
286
100
AcDbEntity
8
2
62
256
6
ByLayer
370
13
48
1
60
0
100
AcDbTrace
10
0
20
-46.85
30
0
11
4.174997
21
-45.924425
31
0
12
4.175003
22
-47.775575
32
0
13
0
23
-46.85
33
0
39
0
210
0
220
0
230
1
0
SOLID
5
287
100
AcDbEntity
8
2
62
256
6
ByLayer
370
13
48
1
60
0
100
AcDbTrace
10
92
20
-46.85
30
0
11
87.825003
21
-47.775575
31
0
12
87.824997
22
-45.924425
32
0
13
92
23
-46.85
33
0
39
0
210
0
220
0
230
1
0
ENDBLK
5
289
100
AcDbEntity
8
0
100
AcDbBlockEnd
0
BLOCK
5
292
100
AcDbEntity
8
0
100
AcDbBlockBegin
2
DimnDraft3D4
70
0
10
0
20
0
30
0
3
DimnDraft3D4
0
MTEXT
5
28C
100
AcDbEntity
8
SK2
62
256
6
ByLayer
370
18
48
1
60
0
100
AcDbMText
10
62.436842
20
-35.725
30
0
210
0
220
0
230
1
1
\W0.6740;56
40
4.5
41
0
44
1.084337
50
0
71
7
72
5
7
iso_b_vert
0
LINE
5
28D
100
AcDbEntity
8
SK2
62
256
6
ByLayer
370
13
48
1
60
0
100
AcDbLine
10
36
20
-11.5875
30
0
11
36
21
-40.025
31
0
39
0
210
0
220
0
230
1
0
LINE
5
28E
100
AcDbEntity
8
SK2
62
256
6
ByLayer
370
13
48
1
60
0
100
AcDbLine
10
92
20
-10.3375
30
0
11
92
21
-40.025
31
0
39
0
210
0
220
0
230
1
0
LINE
5
28F
100
AcDbEntity
8
SK2
62
256
6
ByLayer
370
13
48
1
60
0
100
AcDbLine
10
36
20
-36.85
30
0
11
92
21
-36.85
31
0
39
0
210
0
220
0
230
1
0
SOLID
5
290
100
AcDbEntity
8
SK2
62
256
6
ByLayer
370
13
48
1
60
0
100
AcDbTrace
10
36
20
-36.85
30
0
11
40.174997
21
-35.924425
31
0
12
40.175003
22
-37.775575
32
0
13
36
23
-36.85
33
0
39
0
210
0
220
0
230
1
0
SOLID
5
291
100
AcDbEntity
8
SK2
62
256
6
ByLayer
370
13
48
1
60
0
100
AcDbTrace
10
92
20
-36.85
30
0
11
87.825003
21
-37.775575
31
0
12
87.824997
22
-35.924425
32
0
13
92
23
-36.85
33
0
39
0
210
0
220
0
230
1
0
ENDBLK
5
293
100
AcDbEntity
8
0
100
AcDbBlockEnd
0
BLOCK
5
29D
100
AcDbEntity
8
0
100
AcDbBlockBegin
2
DimnDraft3D5
70
0
10
0
20
0
30
0
3
DimnDraft3D5
0
MTEXT
5
296
100
AcDbEntity
8
SK2
62
256
6
ByLayer
370
18
48
1
60
0
100
AcDbMText
10
-45.153766
20
4.95
30
0
210
0
220
0
230
1
1
\W0.7361;40
40
4.5
41
0
44
1.084337
50
90
71
7
72
5
7
iso_b_vert
0
MTEXT
5
297
100
AcDbEntity
8
SK2
62
256
6
ByLayer
370
18
48
1
60
0
100
AcDbMText
10
-45.153766
20
-6.264844
30
0
210
0
220
0
230
1
1
%%c
40
4.5
41
0
44
1.084337
50
90
71
7
72
5
7
iso_b_vert
0
LINE
5
298
100
AcDbEntity
8
SK2
62
256
6
ByLayer
370
13
48
1
60
0
100
AcDbLine
10
-1.5875
20
-20
30
0
11
-46.078766
21
-20
31
0
39
0
210
0
220
0
230
1
0
LINE
5
299
100
AcDbEntity
8
SK2
62
256
6
ByLayer
370
13
48
1
60
0
100
AcDbLine
10
-1.5875
20
20
30
0
11
-46.078766
21
20
31
0
39
0
210
0
220
0
230
1
0
LINE
5
29A
100
AcDbEntity
8
SK2
62
256
6
ByLayer
370
13
48
1
60
0
100
AcDbLine
10
-42.903766
20
-20
30
0
11
-42.903766
21
20
31
0
39
0
210
0
220
0
230
1
0
SOLID
5
29B
100
AcDbEntity
8
SK2
62
256
6
ByLayer
370
13
48
1
60
0
100
AcDbTrace
10
-42.903766
20
-20
30
0
11
-43.829341
21
-15.825003
31
0
12
-41.97819
22
-15.824997
32
0
13
-42.903766
23
-20
33
0
39
0
210
0
220
0
230
1
0
SOLID
5
29C
100
AcDbEntity
8
SK2
62
256
6
ByLayer
370
13
48
1
60
0
100
AcDbTrace
10
-42.903766
20
20
30
0
11
-41.97819
21
15.825003
31
0
12
-43.829341
22
15.824997
32
0
13
-42.903766
23
20
33
0
39
0
210
0
220
0
230
1
0
ENDBLK
5
29E
100
AcDbEntity
8
0
100
AcDbBlockEnd
0
BLOCK
5
2A8
100
AcDbEntity
8
0
100
AcDbBlockBegin
2
DimnDraft3D6
70
0
10
0
20
0
30
0
3
DimnDraft3D6
0
MTEXT
5
2A1
100
AcDbEntity
8
2
62
256
6
ByLayer
370
18
48
1
60
0
100
AcDbMText
10
116.725
20
-29.175658
30
0
210
0
220
0
230
1
1
\W0.6563;17.5
40
4.5
41
0
44
1.084337
50
90
71
7
72
5
7
iso_b_vert
0
MTEXT
5
2A2
100
AcDbEntity
8
2
62
256
6
ByLayer
370
18
48
1
60
0
100
AcDbMText
10
116.725
20
-40.390502
30
0
210
0
220
0
230
1
1
%%c
40
4.5
41
0
44
1.084337
50
90
71
7
72
5
7
iso_b_vert
0
LINE
5
2A3
100
AcDbEntity
8
2
62
256
6
ByLayer
370
13
48
1
60
0
100
AcDbLine
10
93.5875
20
8.75
30
0
11
122.15
21
8.75
31
0
39
0
210
0
220
0
230
1
0
LINE
5
2A4
100
AcDbEntity
8
2
62
256
6
ByLayer
370
13
48
1
60
0
100
AcDbLine
10
93.5875
20
-8.75
30
0
11
122.15
21
-8.75
31
0
39
0
210
0
220
0
230
1
0
LINE
5
2A5
100
AcDbEntity
8
2
62
256
6
ByLayer
370
13
48
1
60
0
100
AcDbLine
10
118.975
20
8.75
30
0
11
118.975
21
-43.800658
31
0
39
0
210
0
220
0
230
1
0
SOLID
5
2A6
100
AcDbEntity
8
2
62
256
6
ByLayer
370
13
48
1
60
0
100
AcDbTrace
10
118.975
20
8.75
30
0
11
119.900575
21
4.575003
31
0
12
118.049425
22
4.574997
32
0
13
118.975
23
8.75
33
0
39
0
210
0
220
0
230
1
0
SOLID
5
2A7
100
AcDbEntity
8
2
62
256
6
ByLayer
370
13
48
1
60
0
100
AcDbTrace
10
118.975
20
-8.75
30
0
11
118.049425
21
-4.575003
31
0
12
119.900575
22
-4.574997
32
0
13
118.975
23
-8.75
33
0
39
0
210
0
220
0
230
1
0
ENDBLK
5
2A9
100
AcDbEntity
8
0
100
AcDbBlockEnd
0
ENDSEC
0
SECTION
2
ENTITIES
0
ARC
5
121
100
AcDbEntity
8
1
62
256
6
ByLayer
370
18
48
1
60
0
100
AcDbCircle
39
0
10
-26.515785
20
15.3
30
0
40
0.8
210
0
220
0
230
-1
100
AcDbArc
50
270
51
345
0
ARC
5
122
100
AcDbEntity
8
1
62
256
6
ByLayer
370
18
48
1
60
0
100
AcDbCircle
39
0
10
-26.515785
20
-15.3
30
0
40
0.8
210
0
220
0
230
-1
100
AcDbArc
50
15
51
90
0
ARC
5
123
100
AcDbEntity
8
SK1
62
256
6
ByLayer
370
18
48
1
60
0
100
AcDbCircle
39
0
10
0.6
20
-15
30
0
40
1
210
0
220
0
230
-1
100
AcDbArc
50
113.578178
51
126.869898
0
ARC
5
124
100
AcDbEntity
8
SK1
62
256
6
ByLayer
370
18
48
1
60
0
100
AcDbCircle
39
0
10
0.6
20
15
30
0
40
1
210
0
220
0
230
-1
100
AcDbArc
50
233.130102
51
246.421822
0
ELLIPSE
5
125
100
AcDbEntity
8
1
62
256
6
ByLayer
370
18
48
1
60
0
100
AcDbEllipse
10
88.772793
20
5.706779
30
0
11
-1.77841723412775E-15
21
-1.65917347701247
31
0
210
0
220
0
230
1
40
0.996195
41
2.21551000470675
42
0
0
ELLIPSE
5
126
100
AcDbEntity
8
1
62
256
6
ByLayer
370
18
48
1
60
0
100
AcDbEllipse
10
88.772793
20
5.706779
30
0
11
-1.77841723412775E-15
21
-1.65917347701247
31
0
210
0
220
0
230
1
40
0.996195
41
0
42
0.926082326066338
0
ELLIPSE
5
127
100
AcDbEntity
8
1
62
256
6
ByLayer
370
18
48
1
60
0
100
AcDbEllipse
10
88.894471
20
5.706779
30
0
11
-1.33983671596685E-15
21
-1.25
31
0
210
0
220
0
230
1
40
0.996195
41
3.14159240058227
42
0
0
ELLIPSE
5
128
100
AcDbEntity
8
1
62
256
6
ByLayer
370
18
48
1
60
0
100
AcDbEllipse
10
88.894471
20
5.706779
30
0
11
-1.33983671596685E-15
21
-1.25
31
0
210
0
220
0
230
1
40
0.996195
41
0
42
0.0349505431244582
0
ELLIPSE
5
129
100
AcDbEntity
8
1
62
256
6
ByLayer
370
18
48
1
60
0
100
AcDbEllipse
10
88.955923
20
5.706779
30
0
11
1.46431667789534E-15
21
1.25
31
0
210
0
220
0
230
1
40
0.996195
41
0.0349500371117705
42
1.57079634872777
0
ELLIPSE
5
12A
100
AcDbEntity
8
1
62
256
6
ByLayer
370
18
48
1
60
0
100
AcDbEllipse
10
88.955923
20
5.706779
30
0
11
1.46431667789534E-15
21
1.25
31
0
210
0
220
0
230
1
40
0.996195
41
1.57079634872777
42
3.1168526777092
0
ELLIPSE
5
12B
100
AcDbEntity
8
1
62
256
6
ByLayer
370
18
48
1
60
0
100
AcDbEllipse
10
93.712196
20
-1.672864
30
0
11
-2.81352115015638
21
2.84345435664829E-15
31
0
210
0
220
0
230
1
40
0.998135
41
0.394970503341747
42
0.431537460969238
0
ELLIPSE
5
12C
100
AcDbEntity
8
1
62
256
6
ByLayer
370
18
48
1
60
0
100
AcDbEllipse
10
90.853886
20
-3.376906
30
0
11
0.317997164281453
21
0
31
0
210
0
220
0
230
1
40
0.998135
41
-0.340738738996759
42
-0.0349065850399058
0
ELLIPSE
5
12D
100
AcDbEntity
8
1
62
256
6
ByLayer
370
18
48
1
60
0
100
AcDbEllipse
10
91.181081
20
-3.736483
30
0
11
-0.133083669611859
21
0.149294128761454
31
0
210
0
220
0
230
1
40
0.040665
41
1.50826161297246
42
1.61638305710823
0
ELLIPSE
5
12E
100
AcDbEntity
8
1
62
256
6
ByLayer
370
18
48
1
60
0
100
AcDbEllipse
10
88.878496
20
-2.122269
30
0
11
1.35
21
0
31
0
210
0
220
0
230
1
40
0.998135
41
1.91754943129525
42
2.44945998222058
0
ELLIPSE
5
12F
100
AcDbEntity
8
1
62
256
6
ByLayer
370
18
48
1
60
0
100
AcDbEllipse
10
88.878496
20
-2.122269
30
0
11
1.35
21
0
31
0
210
0
220
0
230
1
40
0.998135
41
3.14159243501374
42
-3.29569617596124E-16
0
ELLIPSE
5
130
100
AcDbEntity
8
1
62
256
6
ByLayer
370
18
48
1
60
0
100
AcDbEllipse
10
90.51751
20
-0.557758
30
0
11
-0.49120224503834
21
4.96428172779883E-16
31
0
210
0
220
0
230
1
40
0.998135
41
-3.08923277602998
42
-2.89365829183897
0
ELLIPSE
5
131
100
AcDbEntity
8
1
62
256
6
ByLayer
370
18
48
1
60
0
100
AcDbEllipse
10
88.878496
20
-2.122269
30
0
11
1.25
21
0
31
0
210
0
220
0
230
1
40
0.998135
41
1.31249859227146
42
2.94269080533633
0
ELLIPSE
5
132
100
AcDbEntity
8
1
62
256
6
ByLayer
370
18
48
1
60
0
100
AcDbEllipse
10
88.878496
20
-2.122269
30
0
11
1.25
21
0
31
0
210
0
220
0
230
1
40
0.998135
41
-3.14159236752088
42
-3.55935187003812E-16
0
ELLIPSE
5
133
100
AcDbEntity
8
1
62
256
6
ByLayer
370
18
48
1
60
0
100
AcDbEllipse
10
90.51751
20
-0.557758
30
0
11
-0.59120224503834
21
5.97492078288119E-16
31
0
210
0
220
0
230
1
40
0.998135
41
-3.08923277602998
42
-2.47119166742836
0
ELLIPSE
5
134
100
AcDbEntity
8
1
62
256
6
ByLayer
370
18
48
1
60
0
100
AcDbEllipse
10
88.878496
20
-2.159209
30
0
11
1.25
21
0
31
0
210
0
220
0
230
1
40
0.998135
41
1.18231861927854
42
2.92708051709958
0
ELLIPSE
5
135
100
AcDbEntity
8
1
62
256
6
ByLayer
370
18
48
1
60
0
100
AcDbEllipse
10
88.878496
20
-2.159209
30
0
11
1.25
21
0
31
0
210
0
220
0
230
1
40
0.998135
41
-3.14159236752088
42
-3.55935187003812E-16
0
ELLIPSE
5
136
100
AcDbEntity
8
1
62
256
6
ByLayer
370
18
48
1
60
0
100
AcDbEllipse
10
90.840089
20
0.309511
30
0
11
0.500000000000144
21
0
31
0
210
0
220
0
230
1
40
0.998135
41
0.349065850399443
42
1.16337454678083
0
ELLIPSE
5
137
100
AcDbEntity
8
1
62
256
6
ByLayer
370
18
48
1
60
0
100
AcDbEllipse
10
88.853999
20
5.502015
30
0
11
-1.17905631005083E-15
21
-1.1
31
0
210
0
220
0
230
1
40
0.996195
41
1.5707962760005
42
-1.39565231052877
0
ELLIPSE
5
138
100
AcDbEntity
8
1
62
256
6
ByLayer
370
18
48
1
60
0
100
AcDbEllipse
10
88.853999
20
5.502015
30
0
11
-1.17905631005083E-15
21
-1.1
31
0
210
0
220
0
230
1
40
0.996195
41
0.54221956596542
42
1.5707962760005
0
ELLIPSE
5
139
100
AcDbEntity
8
1
62
256
6
ByLayer
370
18
48
1
60
0
100
AcDbEllipse
10
31.4
20
5.440645
30
0
11
5.00000000000001
21
0
31
0
210
0
220
0
230
1
40
0.651033
41
1.79396827326585
42
2.88586185525357
0
ELLIPSE
5
13A
100
AcDbEntity
8
1
62
256
6
ByLayer
370
18
48
1
60
0
100
AcDbEllipse
10
89.058815
20
5.502015
30
0
11
-1.17905631005083E-15
21
-1.1
31
0
210
0
220
0
230
1
40
0.996195
41
-3.04803224629313
42
-0.46701780073929
0
ELLIPSE
5
13B
100
AcDbEntity
8
1
62
256
6
ByLayer
370
18
48
1
60
0
100
AcDbEllipse
10
88.72822
20
-1.643301
30
0
11
-1.2
21
1.21276686609884E-15
31
0
210
0
220
0
230
1
40
0.998135
41
-3.14159250110337
42
-1.85382909897818E-16
0
ELLIPSE
5
13C
100
AcDbEntity
8
1
62
256
6
ByLayer
370
18
48
1
60
0
100
AcDbEllipse
10
88.72822
20
-1.908862
30
0
11
1.1
21
0
31
0
210
0
220
0
230
1
40
0.998135
41
0.121245649079222
42
3.02044491379262
0
ELLIPSE
5
13D
100
AcDbEntity
8
1
62
256
6
ByLayer
370
18
48
1
60
0
100
AcDbEllipse
10
83.289205
20
5.230406
30
0
11
0.368634678023051
21
3.88253892113896
31
0
210
0
220
0
230
1
40
0.304411
41
-2.95741076964286
42
-2.32724217976017
0
ELLIPSE
5
13E
100
AcDbEntity
8
1
62
256
6
ByLayer
370
18
48
1
60
0
100
AcDbEllipse
10
86.828704
20
3.609953
30
0
11
1.58146201212697E-15
21
1.35
31
0
210
0
220
0
230
1
40
0.996195
41
1.60570291183478
42
2.99467951872451
0
ELLIPSE
5
13F
100
AcDbEntity
8
1
62
256
6
ByLayer
370
18
48
1
60
0
100
AcDbEllipse
10
84.778172
20
8.423067
30
0
11
-6.43121623664089E-15
21
-6
31
0
210
0
220
0
230
1
40
0.996195
41
-0.318509375157586
42
-4.26818814346753E-06
0
ELLIPSE
5
140
100
AcDbEntity
8
1
62
256
6
ByLayer
370
18
48
1
60
0
100
AcDbEllipse
10
84.958959
20
3.226235
30
0
11
0.0280261150489236
21
-0.799508934831416
31
0
210
0
220
0
230
1
40
0.087103
41
0.0630727813209034
42
1.56774302595898
0
ELLIPSE
5
141
100
AcDbEntity
8
1
62
256
6
ByLayer
370
18
48
1
60
0
100
AcDbEllipse
10
91.133699
20
3.181172
30
0
11
-0.0295113113644434
21
-0.599277174767209
31
0
210
0
220
0
230
-1
40
0.017283
41
0.00463674397757758
42
0.853597078827185
0
ELLIPSE
5
142
100
AcDbEntity
8
1
62
256
6
ByLayer
370
18
48
1
60
0
100
AcDbEllipse
10
86.787854
20
4.784237
30
0
11
1.58146201212697E-15
21
1.35
31
0
210
0
220
0
230
1
40
0.996195
41
0.871986474362203
42
1.60570291183478
0
ELLIPSE
5
143
100
AcDbEntity
8
1
62
256
6
ByLayer
370
18
48
1
60
0
100
AcDbEllipse
10
86.157173
20
6.277304
30
0
11
-0.579980162531426
21
-0.618336926345038
31
0
210
0
220
0
230
-1
40
0.04503
41
-0.752474148207702
42
-0.444414955451788
0
ELLIPSE
5
144
100
AcDbEntity
8
1
62
256
6
ByLayer
370
18
48
1
60
0
100
AcDbEllipse
10
73.280373
20
6.180713
30
0
11
0.368634678023051
21
3.88253892113896
31
0
210
0
220
0
230
1
40
0.304411
41
-1.78650731593887
42
-1.56741576015984
0
ELLIPSE
5
145
100
AcDbEntity
8
1
62
256
6
ByLayer
370
18
48
1
60
0
100
AcDbEllipse
10
86.082014
20
3.583778
30
0
11
0.599637270106163
21
0.0208601126465929
31
0
210
0
220
0
230
1
40
0.003042
41
-3.05437908212392
42
-2.00363832145971
0
ELLIPSE
5
146
100
AcDbEntity
8
1
62
256
6
ByLayer
370
18
48
1
60
0
100
AcDbEllipse
10
86.041163
20
4.758062
30
0
11
0.599637270106163
21
0.0208601126465929
31
0
210
0
220
0
230
1
40
0.003042
41
-3.05437908212368
42
-2.00363832145971
0
ELLIPSE
5
147
100
AcDbEntity
8
1
62
256
6
ByLayer
370
18
48
1
60
0
100
AcDbEllipse
10
88.840926
20
5.502015
30
0
11
-1.33983671596685E-15
21
-1.25
31
0
210
0
220
0
230
1
40
0.996195
41
1.57079634872777
42
-2.17839989581392
0
ELLIPSE
5
148
100
AcDbEntity
8
1
62
256
6
ByLayer
370
18
48
1
60
0
100
AcDbEllipse
10
88.840926
20
5.502015
30
0
11
-1.33983671596685E-15
21
-1.25
31
0
210
0
220
0
230
1
40
0.996195
41
1.36914525127864
42
1.57079634872777
0
ELLIPSE
5
149
100
AcDbEntity
8
1
62
256
6
ByLayer
370
18
48
1
60
0
100
AcDbEllipse
10
88.853999
20
5.502015
30
0
11
-1.33983671596685E-15
21
-1.25
31
0
210
0
220
0
230
1
40
0.996195
41
3.14159240058228
42
-2.12587648544908
0
ELLIPSE
5
14A
100
AcDbEntity
8
1
62
256
6
ByLayer
370
18
48
1
60
0
100
AcDbEllipse
10
82.97688
20
2.428651
30
0
11
-6.30450917139505
21
-0.198342572271105
31
0
210
0
220
0
230
-1
40
0.010627
41
-1.89655663520025
42
-1.88734399195087
0
ELLIPSE
5
14B
100
AcDbEntity
8
1
62
256
6
ByLayer
370
18
48
1
60
0
100
AcDbEllipse
10
86.619531
20
3.609953
30
0
11
1.58146201212697E-15
21
1.35
31
0
210
0
220
0
230
1
40
0.996195
41
1.60570291183478
42
1.8509328096783
0
ELLIPSE
5
14C
100
AcDbEntity
8
1
62
256
6
ByLayer
370
18
48
1
60
0
100
AcDbEllipse
10
91.913668
20
0
30
0
11
-0.694872619694502
21
-8.44954363123481
31
0
210
0
220
0
230
-1
40
0.126383
41
0.0116302008251468
42
0.718384041587714
0
ELLIPSE
5
14D
100
AcDbEntity
8
1
62
256
6
ByLayer
370
18
48
1
60
0
100
AcDbEllipse
10
84.961036
20
2.905077
30
0
11
-5.76001018715579
21
0.303001752636283
31
0
210
0
220
0
230
-1
40
0.000437
41
-3.13453397468622
42
-3.13328972696289
0
ELLIPSE
5
14E
100
AcDbEntity
8
1
62
256
6
ByLayer
370
18
48
1
60
0
100
AcDbEllipse
10
16.948929
20
0
30
0
11
-9.36741787978206
21
19.7417491527503
31
0
210
0
220
0
230
-1
40
0.341999
41
-1.0963195274999
42
-0.152726244898346
0
ELLIPSE
5
14F
100
AcDbEntity
8
1
62
256
6
ByLayer
370
18
48
1
60
0
100
AcDbEllipse
10
86.871342
20
3.609953
30
0
11
-1.17794646133808
21
-1.04893007471813
31
0
210
0
220
0
230
-1
40
0.721468
41
-1.26712593957125
42
-0.133853100321086
0
ELLIPSE
5
150
100
AcDbEntity
8
1
62
256
6
ByLayer
370
18
48
1
60
0
100
AcDbEllipse
10
91.290451
20
0
30
0
11
-0.512731552031291
21
8.44977937003648
31
0
210
0
220
0
230
-1
40
0.119092
41
-2.05961574379369
42
-1.49330376075114
0
ELLIPSE
5
151
100
AcDbEntity
8
1
62
256
6
ByLayer
370
18
48
1
60
0
100
AcDbEllipse
10
91.285809
20
-1E-06
30
0
11
-0.211436256023373
21
8.44996735438441
31
0
210
0
220
0
230
-1
40
0.121373
41
-1.49749302832414
42
-1.45553854088499
0
ELLIPSE
5
152
100
AcDbEntity
8
1
62
256
6
ByLayer
370
18
48
1
60
0
100
AcDbEllipse
10
-0.948929
20
0
30
0
11
-9.36741787978203
21
19.7417491527502
31
0
210
0
220
0
230
-1
40
0.341999
41
2.04527312608989
42
2.98886640869145
0
ELLIPSE
5
153
100
AcDbEntity
8
1
62
256
6
ByLayer
370
18
48
1
60
0
100
AcDbEllipse
10
91.913668
20
0
30
0
11
-0.694872619212238
21
-8.44954362847578
31
0
210
0
220
0
230
-1
40
0.126383
41
0.838517744902991
42
1.06435741025143
0
ELLIPSE
5
154
100
AcDbEntity
8
1
62
256
6
ByLayer
370
18
48
1
60
0
100
AcDbEllipse
10
84.847896
20
8.423067
30
0
11
6.09155738004463E-15
21
5.2
31
0
210
0
220
0
230
1
40
0.996195
41
2.72271363311115
42
-3.10668606854991
0
ELLIPSE
5
155
100
AcDbEntity
8
1
62
256
6
ByLayer
370
18
48
1
60
0
100
AcDbEllipse
10
16.948929
20
0
30
0
11
-9.3674178797819
21
-19.7417491527501
31
0
210
0
220
0
230
-1
40
0.341999
41
0.152726244898344
42
1.0963195274999
0
ELLIPSE
5
156
100
AcDbEntity
8
1
62
256
6
ByLayer
370
18
48
1
60
0
100
AcDbEllipse
10
85.764178
20
0
30
0
11
-0.273596979760117
21
8.44996593244672
31
0
210
0
220
0
230
-1
40
0.087398
41
-0.0378350327925117
42
-0.000961132544345563
0
ELLIPSE
5
157
100
AcDbEntity
8
1
62
256
6
ByLayer
370
18
48
1
60
0
100
AcDbEllipse
10
35.846177
20
0
30
0
11
-150.280178045223
21
-8.1716621544551
31
0
210
0
220
0
230
-1
40
0.014313
41
-1.9403954391652
42
-1.89947002950762
0
ELLIPSE
5
158
100
AcDbEntity
8
1
62
256
6
ByLayer
370
18
48
1
60
0
100
AcDbEllipse
10
75.291622
20
5.971849
30
0
11
-8.05634253913083
21
4.58685544592603
31
0
210
0
220
0
230
-1
40
0.118673
41
-2.58474634530154
42
-1.45129523366553
0
ELLIPSE
5
159
100
AcDbEntity
8
1
62
256
6
ByLayer
370
18
48
1
60
0
100
AcDbEllipse
10
91.264351
20
-4.345932
30
0
11
-0.0581290992931491
21
-0.65856497394895
31
0
210
0
220
0
230
-1
40
0.115224
41
0.00370845515652396
42
1.5745047819494
0
ELLIPSE
5
15A
100
AcDbEntity
8
1
62
256
6
ByLayer
370
18
48
1
60
0
100
AcDbEllipse
10
88.72822
20
-1.643301
30
0
11
1.1
21
0
31
0
210
0
220
0
230
1
40
0.998135
41
0
42
6.28318530717959
0
ELLIPSE
5
15B
100
AcDbEntity
8
1
62
256
6
ByLayer
370
18
48
1
60
0
100
AcDbEllipse
10
83.325281
20
0
30
0
11
-26.3227443606822
21
-2.98262934872678E-14
31
0
210
0
220
0
230
-1
40
0.321015
41
1.48158909607451
42
1.59626016148024
0
ELLIPSE
5
15C
100
AcDbEntity
8
1
62
256
6
ByLayer
370
18
48
1
60
0
100
AcDbEllipse
10
86.57868
20
4.784237
30
0
11
1.58146201212697E-15
21
1.35
31
0
210
0
220
0
230
1
40
0.996195
41
0.868901769412538
42
1.60570291183478
0
ELLIPSE
5
15D
100
AcDbEntity
8
1
62
256
6
ByLayer
370
18
48
1
60
0
100
AcDbEllipse
10
81.536351
20
-1.1E-05
30
0
11
-96.5840034893285
21
-3.64006625041187E-07
31
0
210
0
220
0
230
-1
40
0.087489
41
1.596260188368
42
1.61146117392268
0
ELLIPSE
5
15E
100
AcDbEntity
8
1
62
256
6
ByLayer
370
18
48
1
60
0
100
AcDbEllipse
10
91.035072
20
0.142865
30
0
11
-0.0367903375078454
21
0.601607543243208
31
0
210
0
220
0
230
-1
40
0.118733
41
-1.49832363464892
42
-1.33856144405659
0
ELLIPSE
5
15F
100
AcDbEntity
8
1
62
256
6
ByLayer
370
18
48
1
60
0
100
AcDbEllipse
10
90.796913
20
-5.340404
30
0
11
-0.080436179439282
21
-0.997275074950503
31
0
210
0
220
0
230
-1
40
0.125987
41
1.31412923516706
42
0.252170790377779
0
ELLIPSE
5
160
100
AcDbEntity
8
1
62
256
6
ByLayer
370
18
48
1
60
0
100
AcDbEllipse
10
-0.948929
20
0
30
0
11
-9.36741787978208
21
-19.7417491527502
31
0
210
0
220
0
230
-1
40
0.341999
41
-2.98886640869145
42
-2.0452731260899
0
ELLIPSE
5
161
100
AcDbEntity
8
1
62
256
6
ByLayer
370
18
48
1
60
0
100
AcDbEllipse
10
91.031477
20
0.14299
30
0
11
-0.0153379046632384
21
0.600882882579652
31
0
210
0
220
0
230
-1
40
0.121159
41
-1.34266259966179
42
0.0683715366878007
0
ELLIPSE
5
162
100
AcDbEntity
8
1
62
256
6
ByLayer
370
18
48
1
60
0
100
AcDbEllipse
10
66.455624
20
6.828701
30
0
11
-17.5361368755492
21
1.63255122554398
31
0
210
0
220
0
230
-1
40
0.221433
41
3.12098094463871
42
-2.73871454387595
0
ELLIPSE
5
163
100
AcDbEntity
8
1
62
256
6
ByLayer
370
18
48
1
60
0
100
AcDbEllipse
10
89.741695
20
0
30
0
11
-19.2280624684071
21
8.18866514131942
31
0
210
0
220
0
230
-1
40
0.108448
41
-1.18684130913561
42
-0.546403175871006
0
ELLIPSE
5
164
100
AcDbEntity
8
1
62
256
6
ByLayer
370
18
48
1
60
0
100
AcDbEllipse
10
82.67119
20
3.672631
30
0
11
-0.326425640836806
21
-0.730374082922088
31
0
210
0
220
0
230
1
40
0.079621
41
0.435009741573277
42
1.60636616336575
0
ELLIPSE
5
165
100
AcDbEntity
8
1
62
256
6
ByLayer
370
18
48
1
60
0
100
AcDbEllipse
10
83.73232
20
0
30
0
11
-31.0426306824055
21
0.556955313324923
31
0
210
0
220
0
230
-1
40
0.271614
41
-1.59254462453484
42
-1.51703716908408
0
ELLIPSE
5
166
100
AcDbEntity
8
1
62
256
6
ByLayer
370
18
48
1
60
0
100
AcDbEllipse
10
81.698929
20
7.724929
30
0
11
-1.07186937277348E-14
21
-9.99999999999999
31
0
210
0
220
0
230
1
40
0.996195
41
1.60570291183478
42
1.61480354075299
0
ELLIPSE
5
167
100
AcDbEntity
8
1
62
256
6
ByLayer
370
18
48
1
60
0
100
AcDbEllipse
10
86.24909
20
12.623508
30
0
11
1.16445136866421E-14
21
9.9402283181145
31
0
210
0
220
0
230
1
40
0.996195
41
-3.11578669746811
42
-3.11032524091619
0
ELLIPSE
5
168
100
AcDbEntity
8
1
62
256
6
ByLayer
370
18
48
1
60
0
100
AcDbEllipse
10
91.195151
20
-1.210975
30
0
11
-1.07186937277344E-14
21
-9.99999999999964
31
0
210
0
220
0
230
1
40
0.996195
41
3.14159265358979
42
-3.12558669055492
0
ELLIPSE
5
169
100
AcDbEntity
8
1
62
256
6
ByLayer
370
18
48
1
60
0
100
AcDbEllipse
10
86.37807
20
7.625173
30
0
11
-5.35934686386771E-15
21
-5.00000000000028
31
0
210
0
220
0
230
1
40
0.996195
41
0.0160059630348808
42
0.0258059561216707
0
ELLIPSE
5
16A
100
AcDbEntity
8
1
62
256
6
ByLayer
370
18
48
1
60
0
100
AcDbEllipse
10
95.791728
20
3.73757
30
0
11
1.16445136866418E-14
21
9.94022831811422
31
0
210
0
220
0
230
1
40
0.996195
41
1.62460353383979
42
1.64060949687468
0
ELLIPSE
5
16B
100
AcDbEntity
8
1
62
256
6
ByLayer
370
18
48
1
60
0
100
AcDbEllipse
10
90.657388
20
8.084507
30
0
11
5.78724697506073E-15
21
4.94022831811449
31
0
210
0
220
0
230
1
40
0.996195
41
1.58680228982978
42
1.59660228291657
0
ELLIPSE
5
16C
100
AcDbEntity
8
1
62
256
6
ByLayer
370
18
48
1
60
0
100
AcDbEllipse
10
86.516696
20
3.627196
30
0
11
5.78724697506073E-15
21
4.94022831811449
31
0
210
0
220
0
230
1
40
0.996195
41
0.0440072139581066
42
0.0538072070448955
0
ELLIPSE
5
16D
100
AcDbEntity
8
1
62
256
6
ByLayer
370
18
48
1
60
0
100
AcDbEllipse
10
91.32382
20
3.294015
30
0
11
5.15706934637614E-16
21
0.440228318114594
31
0
210
0
220
0
230
1
40
0.996195
41
-2.84488668075078
42
-1.79768912955418
0
ELLIPSE
5
16E
100
AcDbEntity
8
1
62
256
6
ByLayer
370
18
48
1
60
0
100
AcDbEllipse
10
86.785034
20
-1.365568
30
0
11
-1.07186937277344E-14
21
-9.99999999999964
31
0
210
0
220
0
230
1
40
0.996195
41
-3.0877854465449
42
-3.07177948351001
0
ELLIPSE
5
16F
100
AcDbEntity
8
1
62
256
6
ByLayer
370
18
48
1
60
0
100
AcDbEllipse
10
86.298348
20
2.924533
30
0
11
-3.21560811832048E-16
21
-0.300000000000003
31
0
210
0
220
0
230
1
40
0.996195
41
-0.226892802759267
42
4.75504451611787E-14
0
ELLIPSE
5
170
100
AcDbEntity
8
1
62
256
6
ByLayer
370
18
48
1
60
0
100
AcDbEllipse
10
91.340865
20
8.352626
30
0
11
-3.21560811832048E-16
21
-0.300000000000003
31
0
210
0
220
0
230
1
40
0.996195
41
1.64060949687463
42
1.8675022996339
0
ELLIPSE
5
171
100
AcDbEntity
8
1
62
256
6
ByLayer
370
18
48
1
60
0
100
AcDbEllipse
10
86.784579
20
-1.365568
30
0
11
1.16445136866418E-14
21
9.94022831811422
31
0
210
0
220
0
230
1
40
0.996195
41
0.0538072070448971
42
0.0698131700797859
0
ELLIPSE
5
172
100
AcDbEntity
8
1
62
256
6
ByLayer
370
18
48
1
60
0
100
AcDbEllipse
10
86.110971
20
8.310804
30
0
11
-3.21560811832048E-16
21
-0.300000000000003
31
0
210
0
220
0
230
1
40
0.996195
41
-3.07177948351004
42
-2.84488668075075
0
ELLIPSE
5
173
100
AcDbEntity
8
1
62
256
6
ByLayer
370
18
48
1
60
0
100
AcDbEllipse
10
81.85532
20
3.249025
30
0
11
-1.07186937277344E-14
21
-9.99999999999964
31
0
210
0
220
0
230
1
40
0.996195
41
1.57079632679489
42
1.58680228982978
0
ELLIPSE
5
174
100
AcDbEntity
8
1
62
256
6
ByLayer
370
18
48
1
60
0
100
AcDbEllipse
10
85.975091
20
8.164533
30
0
11
-3.21560811832048E-16
21
-0.300000000000003
31
0
210
0
220
0
230
1
40
0.996195
41
-1.79768912955412
42
-1.5707963267949
0
ELLIPSE
5
175
100
AcDbEntity
8
1
62
256
6
ByLayer
370
18
48
1
60
0
100
AcDbEllipse
10
86.110516
20
8.310804
30
0
11
2.81416266174359E-16
21
0.240228318114594
31
0
210
0
220
0
230
1
40
0.996195
41
0.0698131700797251
42
0.296705972838996
0
ELLIPSE
5
176
100
AcDbEntity
8
1
62
256
6
ByLayer
370
18
48
1
60
0
100
AcDbEllipse
10
81.70086
20
7.675988
30
0
11
1.16445136866418E-14
21
9.94022831811422
31
0
210
0
220
0
230
1
40
0.996195
41
-1.51698911975
42
-1.50098315671511
0
ELLIPSE
5
177
100
AcDbEntity
8
1
62
256
6
ByLayer
370
18
48
1
60
0
100
AcDbEllipse
10
91.194695
20
8.489025
30
0
11
2.81416266174359E-16
21
0.240228318114594
31
0
210
0
220
0
230
1
40
0.996195
41
-0.226892802759214
42
0
0
ELLIPSE
5
178
100
AcDbEntity
8
1
62
256
6
ByLayer
370
18
48
1
60
0
100
AcDbEllipse
10
90.756764
20
12.781521
30
0
11
1.16445136866421E-14
21
9.9402283181145
31
0
210
0
220
0
230
1
40
0.996195
41
-3.10304688449064
42
-3.0975854396317
0
ELLIPSE
5
179
100
AcDbEntity
8
1
62
256
6
ByLayer
370
18
48
1
60
0
100
AcDbEllipse
10
95.638179
20
8.164533
30
0
11
-1.07186937277344E-14
21
-9.99999999999964
31
0
210
0
220
0
230
1
40
0.996195
41
-1.5707963267949
42
-1.55479036376002
0
ELLIPSE
5
17A
100
AcDbEntity
8
1
62
256
6
ByLayer
370
18
48
1
60
0
100
AcDbEllipse
10
88.792849
20
5.706779
30
0
11
-1.69826236850985E-15
21
-1.58439303486727
31
0
210
0
220
0
230
1
40
0.996195
41
0
42
6.28318530717959
0
ELLIPSE
5
17B
100
AcDbEntity
8
1
62
256
6
ByLayer
370
18
48
1
60
0
100
AcDbEllipse
10
91.518409
20
3.249025
30
0
11
-3.21560811832048E-16
21
-0.300000000000003
31
0
210
0
220
0
230
1
40
0.996195
41
1.34390352403567
42
1.5707963267949
0
ELLIPSE
5
17C
100
AcDbEntity
8
1
62
256
6
ByLayer
370
18
48
1
60
0
100
AcDbEllipse
10
91.324276
20
3.294015
30
0
11
-5.35934686386747E-16
21
-0.500000000000006
31
0
210
0
220
0
230
1
40
0.996195
41
0.296705972839047
42
1.34390352403562
0
ELLIPSE
5
17D
100
AcDbEntity
8
1
62
256
6
ByLayer
370
18
48
1
60
0
100
AcDbEllipse
10
90.976348
20
7.786362
30
0
11
-5.35934686386771E-15
21
-5.00000000000028
31
0
210
0
220
0
230
1
40
0.996195
41
0.0440072139581045
42
0.0538072070448955
0
ELLIPSE
5
17E
100
AcDbEntity
8
1
62
256
6
ByLayer
370
18
48
1
60
0
100
AcDbEllipse
10
91.115429
20
3.788385
30
0
11
-5.35934686386771E-15
21
-5.00000000000028
31
0
210
0
220
0
230
1
40
0.996195
41
-3.12558669055492
42
-3.11578669746813
0
ELLIPSE
5
17F
100
AcDbEntity
8
1
62
256
6
ByLayer
370
18
48
1
60
0
100
AcDbEllipse
10
95.636703
20
8.213522
30
0
11
1.16445136866421E-14
21
9.9402283181145
31
0
210
0
220
0
230
1
40
0.996195
41
1.59660228291658
42
1.6020637394685
0
ELLIPSE
5
180
100
AcDbEntity
8
1
62
256
6
ByLayer
370
18
48
1
60
0
100
AcDbEllipse
10
86.297892
20
2.924533
30
0
11
2.81416266174359E-16
21
0.240228318114594
31
0
210
0
220
0
230
1
40
0.996195
41
2.91469985083053
42
3.14159265358979
0
ELLIPSE
5
181
100
AcDbEntity
8
1
62
256
6
ByLayer
370
18
48
1
60
0
100
AcDbEllipse
10
85.974635
20
8.164533
30
0
11
2.81416266174359E-16
21
0.240228318114594
31
0
210
0
220
0
230
1
40
0.996195
41
1.34390352403567
42
1.5707963267949
0
ELLIPSE
5
182
100
AcDbEntity
8
1
62
256
6
ByLayer
370
18
48
1
60
0
100
AcDbEllipse
10
86.735824
20
-1.367963
30
0
11
1.16445136866421E-14
21
9.9402283181145
31
0
210
0
220
0
230
1
40
0.996195
41
0.0385457690991545
42
0.0440072139580909
0
ELLIPSE
5
183
100
AcDbEntity
8
1
62
256
6
ByLayer
370
18
48
1
60
0
100
AcDbEllipse
10
86.298348
20
12.624533
30
0
11
-1.07186937277344E-14
21
-9.99999999999964
31
0
210
0
220
0
230
1
40
0.996195
41
0
42
0.0160059630348794
0
ELLIPSE
5
184
100
AcDbEntity
8
1
62
256
6
ByLayer
370
18
48
1
60
0
100
AcDbEllipse
10
91.340409
20
8.352626
30
0
11
2.81416266174359E-16
21
0.240228318114594
31
0
210
0
220
0
230
1
40
0.996195
41
-1.50098315671512
42
-1.27409035395592
0
ELLIPSE
5
185
100
AcDbEntity
8
1
62
256
6
ByLayer
370
18
48
1
60
0
100
AcDbEllipse
10
90.975892
20
7.786362
30
0
11
5.78724697506073E-15
21
4.94022831811449
31
0
210
0
220
0
230
1
40
0.996195
41
-3.09758543963168
42
-3.0877854465449
0
ELLIPSE
5
186
100
AcDbEntity
8
1
62
256
6
ByLayer
370
18
48
1
60
0
100
AcDbEllipse
10
86.297892
20
12.624533
30
0
11
1.16445136866418E-14
21
9.94022831811422
31
0
210
0
220
0
230
1
40
0.996195
41
3.14159265358978
42
-3.12558669055491
0
ELLIPSE
5
187
100
AcDbEntity
8
1
62
256
6
ByLayer
370
18
48
1
60
0
100
AcDbEllipse
10
95.79457
20
3.688629
30
0
11
-1.07186937277348E-14
21
-9.99999999999999
31
0
210
0
220
0
230
1
40
0.996195
41
-1.53588974175501
42
-1.52678911283681
0
ELLIPSE
5
188
100
AcDbEntity
8
1
62
256
6
ByLayer
370
18
48
1
60
0
100
AcDbEllipse
10
95.637723
20
8.164533
30
0
11
1.16445136866418E-14
21
9.94022831811422
31
0
210
0
220
0
230
1
40
0.996195
41
1.57079632679489
42
1.58680228982978
0
ELLIPSE
5
189
100
AcDbEntity
8
1
62
256
6
ByLayer
370
18
48
1
60
0
100
AcDbEllipse
10
86.377614
20
7.625173
30
0
11
5.78724697506073E-15
21
4.94022831811449
31
0
210
0
220
0
230
1
40
0.996195
41
-3.12558669055491
42
-3.11578669746812
0
ELLIPSE
5
18A
100
AcDbEntity
8
1
62
256
6
ByLayer
370
18
48
1
60
0
100
AcDbEllipse
10
90.818419
20
3.468664
30
0
11
-5.35934686386771E-15
21
-5.00000000000028
31
0
210
0
220
0
230
1
40
0.996195
41
-1.52678911283679
42
-1.51698911975
0
ELLIPSE
5
18B
100
AcDbEntity
8
1
62
256
6
ByLayer
370
18
48
1
60
0
100
AcDbEllipse
10
86.152634
20
3.060932
30
0
11
-3.21560811832048E-16
21
-0.300000000000003
31
0
210
0
220
0
230
1
40
0.996195
41
-1.50098315671517
42
-1.27409035395589
0
ELLIPSE
5
18C
100
AcDbEntity
8
1
62
256
6
ByLayer
370
18
48
1
60
0
100
AcDbEllipse
10
90.708465
20
12.779126
30
0
11
-1.07186937277344E-14
21
-9.99999999999964
31
0
210
0
220
0
230
1
40
0.996195
41
0.0538072070448977
42
0.0698131700797864
0
ELLIPSE
5
18D
100
AcDbEntity
8
1
62
256
6
ByLayer
370
18
48
1
60
0
100
AcDbEllipse
10
86.674624
20
7.944894
30
0
11
5.78724697506073E-15
21
4.94022831811449
31
0
210
0
220
0
230
1
40
0.996195
41
-1.52678911283679
42
-1.51698911975
0
ELLIPSE
5
18E
100
AcDbEntity
8
1
62
256
6
ByLayer
370
18
48
1
60
0
100
AcDbEllipse
10
86.517151
20
3.627196
30
0
11
-5.35934686386771E-15
21
-5.00000000000028
31
0
210
0
220
0
230
1
40
0.996195
41
-3.09758543963169
42
-3.0877854465449
0
ELLIPSE
5
18F
100
AcDbEntity
8
1
62
256
6
ByLayer
370
18
48
1
60
0
100
AcDbEllipse
10
86.169223
20
8.119543
30
0
11
-5.35934686386747E-16
21
-0.500000000000006
31
0
210
0
220
0
230
1
40
0.996195
41
-2.84488668075078
42
-1.7976891295542
0
ELLIPSE
5
190
100
AcDbEntity
8
1
62
256
6
ByLayer
370
18
48
1
60
0
100
AcDbEllipse
10
91.149876
20
8.294151
30
0
11
5.15706934637614E-16
21
0.440228318114594
31
0
210
0
220
0
230
1
40
0.996195
41
-1.27409035395587
42
-0.22689280275929
0
ELLIPSE
5
191
100
AcDbEntity
8
1
62
256
6
ByLayer
370
18
48
1
60
0
100
AcDbEllipse
10
81.698473
20
7.724929
30
0
11
1.16445136866421E-14
21
9.9402283181145
31
0
210
0
220
0
230
1
40
0.996195
41
-1.53225055769574
42
-1.52678911283681
0
ELLIPSE
5
192
100
AcDbEntity
8
1
62
256
6
ByLayer
370
18
48
1
60
0
100
AcDbEllipse
10
86.736279
20
-1.367963
30
0
11
-1.07186937277348E-14
21
-9.99999999999999
31
0
210
0
220
0
230
1
40
0.996195
41
-3.10668606854991
42
-3.09758543963171
0
ELLIPSE
5
193
100
AcDbEntity
8
1
62
256
6
ByLayer
370
18
48
1
60
0
100
AcDbEllipse
10
91.114973
20
3.788385
30
0
11
5.78724697506073E-15
21
4.94022831811449
31
0
210
0
220
0
230
1
40
0.996195
41
0.0160059630348785
42
0.0258059561216684
0
ELLIPSE
5
194
100
AcDbEntity
8
1
62
256
6
ByLayer
370
18
48
1
60
0
100
AcDbEllipse
10
86.168767
20
8.119543
30
0
11
5.15706934637614E-16
21
0.440228318114594
31
0
210
0
220
0
230
1
40
0.996195
41
0.296705972838989
42
1.34390352403561
0
ELLIPSE
5
195
100
AcDbEntity
8
1
62
256
6
ByLayer
370
18
48
1
60
0
100
AcDbEllipse
10
91.243498
20
-1.20995
30
0
11
1.16445136866421E-14
21
9.9402283181145
31
0
210
0
220
0
230
1
40
0.996195
41
0.025805956121689
42
0.0312674126735999
0
ELLIPSE
5
196
100
AcDbEntity
8
1
62
256
6
ByLayer
370
18
48
1
60
0
100
AcDbEllipse
10
91.382072
20
3.102754
30
0
11
2.81416266174359E-16
21
0.240228318114594
31
0
210
0
220
0
230
1
40
0.996195
41
-3.07177948351007
42
-2.8448866807508
0
ELLIPSE
5
197
100
AcDbEntity
8
1
62
256
6
ByLayer
370
18
48
1
60
0
100
AcDbEllipse
10
95.792184
20
3.73757
30
0
11
-1.07186937277344E-14
21
-9.99999999999964
31
0
210
0
220
0
230
1
40
0.996195
41
-1.51698911975
42
-1.50098315671511
0
ELLIPSE
5
198
100
AcDbEntity
8
1
62
256
6
ByLayer
370
18
48
1
60
0
100
AcDbEllipse
10
91.517953
20
3.249025
30
0
11
2.81416266174359E-16
21
0.240228318114594
31
0
210
0
220
0
230
1
40
0.996195
41
-1.79768912955413
42
-1.5707963267949
0
ELLIPSE
5
199
100
AcDbEntity
8
1
62
256
6
ByLayer
370
18
48
1
60
0
100
AcDbEllipse
10
88.729318
20
5.706779
30
0
11
1.98450509329016E-15
21
1.69405389152441
31
0
210
0
220
0
230
1
40
0.996195
41
0
42
6.28318530717959
0
ELLIPSE
5
19A
100
AcDbEntity
8
1
62
256
6
ByLayer
370
18
48
1
60
0
100
AcDbEllipse
10
81.854864
20
3.249025
30
0
11
1.16445136866418E-14
21
9.94022831811422
31
0
210
0
220
0
230
1
40
0.996195
41
-1.5707963267949
42
-1.55479036376002
0
ELLIPSE
5
19B
100
AcDbEntity
8
1
62
256
6
ByLayer
370
18
48
1
60
0
100
AcDbEllipse
10
81.85634
20
3.200036
30
0
11
-1.07186937277348E-14
21
-9.99999999999999
31
0
210
0
220
0
230
1
40
0.996195
41
1.59660228291658
42
1.60570291183478
0
ELLIPSE
5
19C
100
AcDbEntity
8
1
62
256
6
ByLayer
370
18
48
1
60
0
100
AcDbEllipse
10
81.701315
20
7.675988
30
0
11
-1.07186937277344E-14
21
-9.99999999999964
31
0
210
0
220
0
230
1
40
0.996195
41
1.62460353383979
42
1.64060949687468
0
ELLIPSE
5
19D
100
AcDbEntity
8
1
62
256
6
ByLayer
370
18
48
1
60
0
100
AcDbEllipse
10
91.195151
20
8.489025
30
0
11
-3.21560811832048E-16
21
-0.300000000000003
31
0
210
0
220
0
230
1
40
0.996195
41
2.91469985083052
42
3.14159265358979
0
ELLIPSE
5
19E
100
AcDbEntity
8
1
62
256
6
ByLayer
370
18
48
1
60
0
100
AcDbEllipse
10
91.150332
20
8.294151
30
0
11
-5.35934686386747E-16
21
-0.500000000000006
31
0
210
0
220
0
230
1
40
0.996195
41
1.86750229963393
42
2.9146998508305
0
ELLIPSE
5
19F
100
AcDbEntity
8
1
62
256
6
ByLayer
370
18
48
1
60
0
100
AcDbEllipse
10
91.243954
20
-1.20995
30
0
11
-1.07186937277348E-14
21
-9.99999999999999
31
0
210
0
220
0
230
1
40
0.996195
41
-3.11578669746811
42
-3.10668606854991
0
ELLIPSE
5
1A0
100
AcDbEntity
8
1
62
256
6
ByLayer
370
18
48
1
60
0
100
AcDbEllipse
10
86.249546
20
12.623508
30
0
11
-1.07186937277348E-14
21
-9.99999999999999
31
0
210
0
220
0
230
1
40
0.996195
41
0.0258059561216878
42
0.0349065850398881
0
ELLIPSE
5
1A1
100
AcDbEntity
8
1
62
256
6
ByLayer
370
18
48
1
60
0
100
AcDbEllipse
10
91.194695
20
-1.210975
30
0
11
1.16445136866418E-14
21
9.94022831811422
31
0
210
0
220
0
230
1
40
0.996195
41
0
42
0.0160059630348805
0
ELLIPSE
5
1A2
100
AcDbEntity
8
1
62
256
6
ByLayer
370
18
48
1
60
0
100
AcDbEllipse
10
86.152178
20
3.060932
30
0
11
2.81416266174359E-16
21
0.240228318114594
31
0
210
0
220
0
230
1
40
0.996195
41
1.64060949687468
42
1.86750229963393
0
ELLIPSE
5
1A3
100
AcDbEntity
8
1
62
256
6
ByLayer
370
18
48
1
60
0
100
AcDbEllipse
10
95.794115
20
3.688629
30
0
11
1.16445136866421E-14
21
9.9402283181145
31
0
210
0
220
0
230
1
40
0.996195
41
1.60934209589405
42
1.61480354075299
0
ELLIPSE
5
1A4
100
AcDbEntity
8
1
62
256
6
ByLayer
370
18
48
1
60
0
100
AcDbEllipse
10
95.637159
20
8.213522
30
0
11
-1.07186937277348E-14
21
-9.99999999999999
31
0
210
0
220
0
230
1
40
0.996195
41
-1.54499037067321
42
-1.53588974175501
0
ELLIPSE
5
1A5
100
AcDbEntity
8
1
62
256
6
ByLayer
370
18
48
1
60
0
100
AcDbEllipse
10
91.382528
20
3.102754
30
0
11
-3.21560811832048E-16
21
-0.300000000000003
31
0
210
0
220
0
230
1
40
0.996195
41
0.069813170079798
42
0.296705972839048
0
ELLIPSE
5
1A6
100
AcDbEntity
8
1
62
256
6
ByLayer
370
18
48
1
60
0
100
AcDbEllipse
10
81.855885
20
3.200036
30
0
11
1.16445136866421E-14
21
9.9402283181145
31
0
210
0
220
0
230
1
40
0.996195
41
-1.54499037067321
42
-1.5395289141213
0
ELLIPSE
5
1A7
100
AcDbEntity
8
1
62
256
6
ByLayer
370
18
48
1
60
0
100
AcDbEllipse
10
86.67508
20
7.944894
30
0
11
-5.35934686386771E-15
21
-5.00000000000028
31
0
210
0
220
0
230
1
40
0.996195
41
1.614803540753
42
1.62460353383979
0
ELLIPSE
5
1A8
100
AcDbEntity
8
1
62
256
6
ByLayer
370
18
48
1
60
0
100
AcDbEllipse
10
90.657844
20
8.084507
30
0
11
-5.35934686386771E-15
21
-5.00000000000028
31
0
210
0
220
0
230
1
40
0.996195
41
-1.55479036376002
42
-1.54499037067323
0
ELLIPSE
5
1A9
100
AcDbEntity
8
1
62
256
6
ByLayer
370
18
48
1
60
0
100
AcDbEllipse
10
86.835656
20
3.329052
30
0
11
-5.35934686386771E-15
21
-5.00000000000028
31
0
210
0
220
0
230
1
40
0.996195
41
1.58680228982978
42
1.59660228291657
0
ELLIPSE
5
1AA
100
AcDbEntity
8
1
62
256
6
ByLayer
370
18
48
1
60
0
100
AcDbEllipse
10
90.817963
20
3.468664
30
0
11
5.78724697506073E-15
21
4.94022831811449
31
0
210
0
220
0
230
1
40
0.996195
41
1.61480354075301
42
1.62460353383979
0
ELLIPSE
5
1AB
100
AcDbEntity
8
1
62
256
6
ByLayer
370
18
48
1
60
0
100
AcDbEllipse
10
90.708009
20
12.779126
30
0
11
1.16445136866418E-14
21
9.94022831811422
31
0
210
0
220
0
230
1
40
0.996195
41
-3.0877854465449
42
-3.07177948351001
0
ELLIPSE
5
1AC
100
AcDbEntity
8
1
62
256
6
ByLayer
370
18
48
1
60
0
100
AcDbEllipse
10
86.343167
20
3.119407
30
0
11
-5.35934686386747E-16
21
-0.500000000000006
31
0
210
0
220
0
230
1
40
0.996195
41
-1.27409035395586
42
-0.226892802759265
0
ELLIPSE
5
1AD
100
AcDbEntity
8
1
62
256
6
ByLayer
370
18
48
1
60
0
100
AcDbEllipse
10
86.342712
20
3.119407
30
0
11
5.15706934637614E-16
21
0.440228318114594
31
0
210
0
220
0
230
1
40
0.996195
41
1.86750229963392
42
2.91469985083053
0
ELLIPSE
5
1AE
100
AcDbEntity
8
1
62
256
6
ByLayer
370
18
48
1
60
0
100
AcDbEllipse
10
90.75722
20
12.781521
30
0
11
-1.07186937277348E-14
21
-9.99999999999999
31
0
210
0
220
0
230
1
40
0.996195
41
0.0349065850398881
42
0.0440072139580882
0
ELLIPSE
5
1AF
100
AcDbEntity
8
1
62
256
6
ByLayer
370
18
48
1
60
0
100
AcDbEllipse
10
86.8352
20
3.329052
30
0
11
5.78724697506073E-15
21
4.94022831811449
31
0
210
0
220
0
230
1
40
0.996195
41
-1.55479036376002
42
-1.54499037067323
0
ELLIPSE
5
1B0
100
AcDbEntity
8
1
62
256
6
ByLayer
370
18
48
1
60
0
100
AcDbEllipse
10
90.853886
20
-3.383011
30
0
11
-0.49120224503834
21
4.96428172779883E-16
31
0
210
0
220
0
230
1
40
0.998135
41
2.29977787734963
42
3.10668606854989
0
ELLIPSE
5
1B1
100
AcDbEntity
8
1
62
256
6
ByLayer
370
18
48
1
60
0
100
AcDbEllipse
10
91.358667
20
-2.99124
30
0
11
-0.199877710054841
21
0.00699292665720333
31
0
210
0
220
0
230
1
40
0.061011
41
0.525733317016606
42
1.57293086821329
0
ELLIPSE
5
1B2
100
AcDbEntity
8
1
62
256
6
ByLayer
370
18
48
1
60
0
100
AcDbEllipse
10
91.344789
20
-3.387912
30
0
11
-0.199877710054841
21
0.00699292665720333
31
0
210
0
220
0
230
1
40
0.061011
41
0.525733317016674
42
1.57293086821329
0
ELLIPSE
5
1B3
100
AcDbEntity
8
1
62
256
6
ByLayer
370
18
48
1
60
0
100
AcDbEllipse
10
91.313934
20
-2.769058
30
0
11
-0.18160533389647
21
-0.0837824725127618
31
0
210
0
220
0
230
1
40
0.055452
41
0.498021999162735
42
1.54521955035883
0
ELLIPSE
5
1B4
100
AcDbEntity
8
1
62
256
6
ByLayer
370
18
48
1
60
0
100
AcDbEllipse
10
91.461611
20
-4.22672
30
0
11
0.500000000000144
21
0
31
0
210
0
220
0
230
1
40
0.998135
41
-1.22173047639544
42
-0.0349065850401105
0
ELLIPSE
5
1B5
100
AcDbEntity
8
1
62
256
6
ByLayer
370
18
48
1
60
0
100
AcDbEllipse
10
93.712196
20
-1.736964
30
0
11
2.19031606939965
21
0
31
0
210
0
220
0
230
1
40
0.998135
41
-3.08923277510136
42
-2.71005519262056
0
ELLIPSE
5
1B6
100
AcDbEntity
8
1
62
256
6
ByLayer
370
18
48
1
60
0
100
AcDbEllipse
10
91.13945
20
-0.511444
30
0
11
0.49999999999999
21
0
31
0
210
0
220
0
230
1
40
0.998135
41
0.0523598775598214
42
0.349065850399576
0
ELLIPSE
5
1B7
100
AcDbEntity
8
1
62
256
6
ByLayer
370
18
48
1
60
0
100
AcDbEllipse
10
90.867764
20
-2.986339
30
0
11
-0.49120224503834
21
4.96428172779883E-16
31
0
210
0
220
0
230
1
40
0.998135
41
3.10668606854989
42
-2.71005519262057
0
ELLIPSE
5
1B8
100
AcDbEntity
8
1
62
256
6
ByLayer
370
18
48
1
60
0
100
AcDbEllipse
10
90.853886
20
-3.383011
30
0
11
-0.591202245038341
21
5.97492078288121E-16
31
0
210
0
220
0
230
1
40
0.998135
41
2.29977787734964
42
3.10668606854989
0
ELLIPSE
5
1B9
100
AcDbEntity
8
1
62
256
6
ByLayer
370
18
48
1
60
0
100
AcDbEllipse
10
93.712196
20
-1.678968
30
0
11
2.54031606939949
21
0
31
0
210
0
220
0
230
1
40
0.998135
41
-3.0892327752294
42
-2.71005519262056
0
ELLIPSE
5
1BA
100
AcDbEntity
8
1
62
256
6
ByLayer
370
18
48
1
60
0
100
AcDbEllipse
10
90.867764
20
-2.980234
30
0
11
0.317997164281453
21
0
31
0
210
0
220
0
230
1
40
0.998135
41
-0.0349065850398988
42
0.431537460969237
0
ELLIPSE
5
1BB
100
AcDbEntity
8
1
62
256
6
ByLayer
370
18
48
1
60
0
100
AcDbEllipse
10
93.712196
20
-1.83159
30
0
11
2.00000000000009
21
0
31
0
210
0
220
0
230
1
40
0.998135
41
-3.08923277501295
42
-2.6997467130969
0
ELLIPSE
5
1BC
100
AcDbEntity
8
1
62
256
6
ByLayer
370
18
48
1
60
0
100
AcDbEllipse
10
90.867764
20
-2.986339
30
0
11
-0.59120224503834
21
5.97492078288119E-16
31
0
210
0
220
0
230
1
40
0.998135
41
3.10668606854989
42
-2.71005519262056
0
ELLIPSE
5
1BD
100
AcDbEntity
8
1
62
256
6
ByLayer
370
18
48
1
60
0
100
AcDbEllipse
10
93.712196
20
-1.678968
30
0
11
2.64031606939949
21
0
31
0
210
0
220
0
230
1
40
0.998135
41
-3.08923277525973
42
-2.71005519262056
0
ELLIPSE
5
1BE
100
AcDbEntity
8
1
62
256
6
ByLayer
370
18
48
1
60
0
100
AcDbEllipse
10
91.000305
20
-3.112024
30
0
11
1.00000000000004
21
0
31
0
210
0
220
0
230
1
40
0.998135
41
-0.034906585040106
42
0.441845940492531
0
POINT
5
6C
100
AcDbEntity
8
81
62
256
6
ByLayer
370
18
48
1
60
0
100
AcDbPoint
10
92
20
0
30
0
39
0
210
0
220
0
230
1
50
360
0
POINT
5
6E
100
AcDbEntity
8
80
62
256
6
ByLayer
370
18
48
1
60
0
100
AcDbPoint
10
0
20
0
30
0
39
0
210
0
220
0
230
1
50
360
0
SPLINE
5
1BF
100
AcDbEntity
8
1
62
256
6
ByLayer
370
18
48
1
60
0
100
AcDbSpline
70
4
71
3
72
20
73
16
40
0
40
0
40
0
40
0
40
0.0347374990023696
40
0.120502631827161
40
0.206067200958287
40
0.291145710003034
40
0.375628898564931
40
0.45957879634161
40
0.543191442056211
40
0.626736727364833
40
0.710411131649086
40
0.794456105681948
40
0.879037736605639
40
0.964188749141049
40
1
40
1
40
1
40
1
41
1
10
88.8654913402318
20
6.94583548345588
30
0
41
1
10
88.9100078417646
20
6.95142541590988
30
0
41
1
10
89.0631093486994
20
6.96000185113917
30
0
41
1
10
89.3237119356792
20
6.89242828412597
30
0
41
1
10
89.6175702007444
20
6.73980366005989
30
0
41
1
10
89.8608010525923
20
6.51037927771512
30
0
41
1
10
90.0356844911732
20
6.22589696214038
30
0
41
1
10
90.1303417886884
20
5.90541853347031
30
0
41
1
10
90.1386762373661
20
5.57191280892647
30
0
41
1
10
90.0606768923602
20
5.24846797865237
30
0
41
1
10
89.9022168780721
20
4.9572371105622
30
0
41
1
10
89.6742648032616
20
4.71788881484124
30
0
41
1
10
89.3925736133221
20
4.54662750490968
30
0
41
1
10
89.1365367613201
20
4.47310503695209
30
0
41
1
10
88.9832743875123
20
4.4591603492062
30
0
41
1
10
88.9373441515956
20
4.45753027617081
30
0
0
SPLINE
5
1C0
100
AcDbEntity
8
1
62
256
6
ByLayer
370
18
48
1
60
0
100
AcDbSpline
70
4
71
3
72
18
73
14
40
0
40
0
40
0
40
0
40
0.0535933459525251
40
0.103558956802872
40
0.155161560792939
40
0.210697927338691
40
0.33291349051241
40
0.462346582275453
40
0.567432097320993
40
0.674965327578263
40
0.783594656714346
40
0.89237686044287
40
1
40
1
40
1
40
1
41
1
10
27
20
-14.5
30
0
41
1
10
27.2133606282757
20
-14.5007314050447
30
0
41
1
10
27.6024949378259
20
-14.4414352654861
30
0
41
1
10
28.1387708101256
20
-14.1564194576256
30
0
41
1
10
28.5735486576624
20
-13.7352970098086
30
0
41
1
10
29.0931743780681
20
-13.0248723249047
30
0
41
1
10
29.658668924482
20
-11.9942190190771
30
0
41
1
10
30.3746114210598
20
-10.8248793064804
30
0
41
1
10
31.3186233103272
20
-9.89582260016383
30
0
41
1
10
32.3921349519069
20
-9.28072687465598
30
0
41
1
10
33.5421632564048
20
-8.80089071496243
30
0
41
1
10
34.7606367410245
20
-8.51441368263872
30
0
41
1
10
35.5844777840853
20
-8.45038131890618
30
0
41
1
10
36
20
-8.45000000000005
30
0
0
SPLINE
5
1C1
100
AcDbEntity
8
1
62
256
6
ByLayer
370
18
48
1
60
0
100
AcDbSpline
70
4
71
3
72
18
73
14
40
0
40
0
40
0
40
0
40
0.10762313955713
40
0.216405343285654
40
0.325034672421737
40
0.432567902679007
40
0.537653417724547
40
0.66708650948759
40
0.789302072661309
40
0.844838439207061
40
0.896441043197128
40
0.946406654047475
40
1
40
1
40
1
40
1
41
1
10
36
20
8.44999999999996
30
0
41
1
10
35.5844777840853
20
8.4503813189061
30
0
41
1
10
34.7606367410246
20
8.51441368263863
30
0
41
1
10
33.5421632564048
20
8.80089071496235
30
0
41
1
10
32.3921349519069
20
9.28072687465593
30
0
41
1
10
31.3186233103272
20
9.89582260016377
30
0
41
1
10
30.3746114210598
20
10.8248793064803
30
0
41
1
10
29.658668924482
20
11.994219019077
30
0
41
1
10
29.0931743780682
20
13.0248723249047
30
0
41
1
10
28.5735486576625
20
13.7352970098085
30
0
41
1
10
28.1387708101257
20
14.1564194576256
30
0
41
1
10
27.6024949378259
20
14.441435265486
30
0
41
1
10
27.2133606282757
20
14.5007314050447
30
0
41
1
10
27
20
14.5
30
0
0
SPLINE
5
1C2
100
AcDbEntity
8
SK1
62
256
6
ByLayer
370
18
48
1
60
0
100
AcDbSpline
70
4
71
2
72
6
73
3
40
0
40
0
40
0
40
1
40
1
40
1
41
1
10
-2.5
20
14.0000000000425
30
0
41
1
10
-12.5002365839528
20
13.7487592491499
30
0
41
1
10
-22.5004731679057
20
13.4975184982574
30
0
0
SPLINE
5
1C3
100
AcDbEntity
8
SK1
62
256
6
ByLayer
370
18
48
1
60
0
100
AcDbSpline
70
4
71
2
72
6
73
3
40
0
40
0
40
0
40
1
40
1
40
1
41
1
10
-22.5004731679057
20
-13.4975184982324
30
0
41
1
10
-12.5002365839529
20
-13.7487592491244
30
0
41
1
10
-2.50000000000003
20
-14.0000000000165
30
0
0
SPLINE
5
1C4
100
AcDbEntity
8
SK1
62
256
6
ByLayer
370
18
48
1
60
0
100
AcDbSpline
70
4
71
2
72
6
73
3
40
0
40
0
40
0
40
1
40
1
40
1
41
1
10
-1.69501459340779
20
14.0202240353752
30
0
41
1
10
-2.0975072967039
20
14.0101120177089
30
0
41
1
10
-2.5
20
14.0000000000425
30
0
0
SPLINE
5
1C5
100
AcDbEntity
8
SK1
62
256
6
ByLayer
370
18
48
1
60
0
100
AcDbSpline
70
4
71
2
72
6
73
3
40
0
40
0
40
0
40
1
40
1
40
1
41
1
10
-2.50000000000003
20
-14.0000000000165
30
0
41
1
10
-2.09750729670392
20
-14.0101120176829
30
0
41
1
10
-1.69501459340782
20
-14.0202240353492
30
0
0
SPLINE
5
1C6
100
AcDbEntity
8
SK1
62
256
6
ByLayer
370
18
48
1
60
0
100
AcDbSpline
70
4
71
2
72
6
73
3
40
0
40
0
40
0
40
1
40
1
40
1
41
1
10
-22.5003908351881
20
13.4978822065961
30
0
41
1
10
-23.250195418969
20
13.0391711516489
30
0
41
1
10
-24
20
12.5804569169116
30
0
0
SPLINE
5
1C7
100
AcDbEntity
8
SK1
62
256
6
ByLayer
370
18
48
1
60
0
100
AcDbSpline
70
4
71
2
72
6
73
3
40
0
40
0
40
0
40
1
40
1
40
1
41
1
10
-24
20
-12.5792497909748
30
0
41
1
10
-23.2502022101313
20
-13.0377782366816
30
0
41
1
10
-22.5004044650254
20
-13.4963063059167
30
0
0
SPLINE
5
1C8
100
AcDbEntity
8
SK1
62
256
6
ByLayer
370
18
48
1
60
0
100
AcDbSpline
70
4
71
1
72
4
73
2
40
0
40
0
40
1
40
1
41
1
10
-1.53130590457357
20
13.618315394559
30
0
41
1
10
-1.53248549198227
20
13.6035488735108
30
0
0
SPLINE
5
1C9
100
AcDbEntity
8
SK1
62
256
6
ByLayer
370
18
48
1
60
0
100
AcDbSpline
70
4
71
3
72
12
73
8
40
0
40
0
40
0
40
0
40
0.206082366692305
40
0.448551004323562
40
0.70136808861964
40
0.955628443573868
40
1
40
1
40
1
40
1
41
1
10
-1.6732373831
20
-7.03173855039418
30
0
41
1
10
-1.66891584747063
20
-7.49703771035641
30
0
41
1
10
-1.65896818437474
20
-8.46121732402418
30
0
41
1
10
-1.64147446563652
20
-9.80884739238272
30
0
41
1
10
-1.62081384062992
20
-11.0423654429251
30
0
41
1
10
-1.60470593089275
20
-11.8486552107853
30
0
41
1
10
-1.5949251842994
20
-12.1743433075456
30
0
41
1
10
-1.59345638303472
20
-12.2210841903316
30
0
0
SPLINE
5
1CA
100
AcDbEntity
8
SK1
62
256
6
ByLayer
370
18
48
1
60
0
100
AcDbSpline
70
4
71
2
72
6
73
3
40
0
40
0
40
0
40
1
40
1
40
1
41
1
10
-1.49999999999997
20
-13.7870504860688
30
0
41
1
10
-0.94999999999996
20
-13.7870504860688
30
0
41
1
10
-0.399999999999977
20
-13.7870504860688
30
0
0
SPLINE
5
1CB
100
AcDbEntity
8
SK1
62
256
6
ByLayer
370
18
48
1
60
0
100
AcDbSpline
70
4
71
2
72
6
73
3
40
0
40
0
40
0
40
1
40
1
40
1
41
1
10
-0.399999999999949
20
13.7870502939328
30
0
41
1
10
-0.949999999999932
20
13.7870502939328
30
0
41
1
10
-1.49999999999994
20
13.7870502939328
30
0
0
SPLINE
5
1CC
100
AcDbEntity
8
1
62
256
6
ByLayer
370
18
48
1
60
0
100
AcDbSpline
70
4
71
3
72
13
73
9
40
0
40
0
40
0
40
0
40
0.106588400115079
40
0.312923241556723
40
0.518681370247537
40
0.723728976619784
40
0.928132734926574
40
1
40
1
40
1
40
1
41
1
10
87.6566562149141
20
-1.88354614687972
30
0
41
1
10
87.6698724590887
20
-1.82799200429287
30
0
41
1
10
87.7231447071658
20
-1.66718500978968
30
0
41
1
10
87.8535146295454
20
-1.42087406135488
30
0
41
1
10
88.0858462577503
20
-1.17881807166438
30
0
41
1
10
88.3722368535963
20
-1.00602270509421
30
0
41
1
10
88.6257731301848
20
-0.934018495797574
30
0
41
1
10
88.7738993528021
20
-0.919414922563703
30
0
41
1
10
88.8128614820958
20
-0.917359682163436
30
0
0
SPLINE
5
1CD
100
AcDbEntity
8
1
62
256
6
ByLayer
370
18
48
1
60
0
100
AcDbSpline
70
4
71
3
72
10
73
6
40
0
40
0
40
0
40
0
40
0.214350453915082
40
0.886622747653139
40
1
40
1
40
1
40
1
41
1
10
88.8128614820958
20
-0.917359682163436
30
0
41
1
10
88.8479895995647
20
-0.915533540231564
30
0
41
1
10
88.9925272550133
20
-0.91398081288844
30
0
41
1
10
89.1560365969635
20
-0.940780480255057
30
0
41
1
10
89.2782980003901
20
-0.980814958830223
30
0
41
1
10
89.295797044475
20
-0.986979610610746
30
0
0
SPLINE
5
1CE
100
AcDbEntity
8
1
62
256
6
ByLayer
370
18
48
1
60
0
100
AcDbSpline
70
4
71
3
72
12
73
8
40
0
40
0
40
0
40
0
40
0.124594542225909
40
0.124594542225909
40
0.562297271112955
40
0.562297271112955
40
1
40
1
40
1
40
1
41
1
10
91.0319995991856
20
0.719918144258259
30
0
41
1
10
91.037062797896
20
0.71778837798422
30
0
41
1
10
91.0421815380628
20
0.715527770145997
30
0
41
1
10
91.0655396803518
20
0.704686923683312
30
0
41
1
10
91.0842713954787
20
0.694563776721026
30
0
41
1
10
91.1236010482619
20
0.668361672709437
30
0
41
1
10
91.143821854551
20
0.652421605771906
30
0
41
1
10
91.1632702490348
20
0.633172722078854
30
0
0
SPLINE
5
1CF
100
AcDbEntity
8
1
62
256
6
ByLayer
370
18
48
1
60
0
100
AcDbSpline
70
4
71
3
72
18
73
14
40
0
40
0
40
0
40
0
40
0.170065468169908
40
0.170065468169908
40
0.44671031211327
40
0.44671031211327
40
0.585032734084951
40
0.585032734084951
40
0.654193945070792
40
0.654193945070792
40
0.723355156056634
40
0.723355156056634
40
1
40
1
40
1
40
1
41
1
10
56.1957882154615
20
8.44996076975895
30
0
41
1
10
57.1380609872989
20
8.45002779824
30
0
41
1
10
58.0786817961834
20
8.42441666504686
30
0
41
1
10
60.5484991627237
20
8.29014010120923
30
0
41
1
10
62.0772993428437
20
8.13961050569509
30
0
41
1
10
64.3772944672892
20
7.8175786746244
30
0
41
1
10
65.1450724419659
20
7.69422181599381
30
0
41
1
10
66.2991867914966
20
7.48571313258873
30
0
41
1
10
66.6842978186522
20
7.41229449844681
30
0
41
1
10
67.4554987371187
20
7.25776039284969
30
0
41
1
10
67.8418581178394
20
7.17658306381688
30
0
41
1
10
69.7716949903162
20
6.7529415595458
30
0
41
1
10
71.3111541276088
20
6.35683049641747
30
0
41
1
10
72.8518126947626
20
5.91285565685027
30
0
0
SPLINE
5
1D0
100
AcDbEntity
8
SK1
62
256
6
ByLayer
370
18
48
1
60
0
100
AcDbSpline
70
4
71
3
72
24
73
20
40
0
40
0
40
0
40
0
40
0.0566760783907113
40
0.0566760783907113
40
0.292507058793032
40
0.292507058793032
40
0.528338039195353
40
0.528338039195353
40
0.646253529396515
40
0.646253529396515
40
0.764169019597677
40
0.764169019597677
40
0.823126764698257
40
0.823126764698257
40
0.882084509798838
40
0.882084509798838
40
0.941042254899419
40
0.941042254899419
40
1
40
1
40
1
40
1
41
1
10
-0.218262967664543
20
-13.9259756044899
30
0
41
1
10
-0.219182198007161
20
-13.9243663193602
30
0
41
1
10
-0.220148374140706
20
-13.9227324215875
30
0
41
1
10
-0.22539182130518
20
-13.9141687233657
30
0
41
1
10
-0.2304827160483
20
-13.9068356660934
30
0
41
1
10
-0.243543515905088
20
-13.891029693572
30
0
41
1
10
-0.25142390994651
20
-13.8825628910797
30
0
41
1
10
-0.267620190121903
20
-13.8686743036801
30
0
41
1
10
-0.27378263345841
20
-13.8638193425138
30
0
41
1
10
-0.288879054648476
20
-13.8535372444218
30
0
41
1
10
-0.297539482613246
20
-13.8481844775088
30
0
41
1
10
-0.315471101946542
20
-13.8395368680739
30
0
41
1
10
-0.32229182569094
20
-13.8365782388304
30
0
41
1
10
-0.337698531233258
20
-13.8309872537491
30
0
41
1
10
-0.34648400026407
20
-13.8283381842761
30
0
41
1
10
-0.363738539634682
20
-13.8243096436096
30
0
41
1
10
-0.372122595374435
20
-13.8229165631
30
0
41
1
10
-0.387163049046109
20
-13.821141567135
30
0
41
1
10
-0.393815287664467
20
-13.8207254794661
30
0
41
1
10
-0.399999999999977
20
-13.8205593061294
30
0
0
SPLINE
5
1D1
100
AcDbEntity
8
SK1
62
256
6
ByLayer
370
18
48
1
60
0
100
AcDbSpline
70
4
71
3
72
20
73
16
40
0
40
0
40
0
40
0
40
0.0998383909819438
40
0.0998383909819438
40
0.199676781963888
40
0.199676781963888
40
0.299515172945832
40
0.299515172945832
40
0.399353563927775
40
0.399353563927775
40
0.599030345891653
40
0.599030345891653
40
0.798707127855532
40
0.798707127855532
40
1
40
1
40
1
40
1
41
1
10
-0.399999999999949
20
13.8205590132786
30
0
41
1
10
-0.39376584134564
20
13.8207265187753
30
0
41
1
10
-0.387027117241104
20
13.8211499115544
30
0
41
1
10
-0.371824577325583
20
13.8229590799712
30
0
41
1
10
-0.363395045486499
20
13.824372072028
30
0
41
1
10
-0.34598546816116
20
13.8284726621792
30
0
41
1
10
-0.337106206851047
20
13.8311746690827
30
0
41
1
10
-0.321547617318544
20
13.8368777277562
30
0
41
1
10
-0.314808664695903
20
13.8398348619912
30
0
41
1
10
-0.2970529040835
20
13.8484646203001
30
0
41
1
10
-0.288219391107304
20
13.8539513653589
30
0
41
1
10
-0.273250362863962
20
13.864219309884
30
0
41
1
10
-0.267161640943357
20
13.8690434744368
30
0
41
1
10
-0.256374276517278
20
13.8783434335059
30
0
41
1
10
-0.251686990651933
20
13.8828203854394
30
0
41
1
10
-0.247540221313073
20
13.8871216556949
30
0
0
SPLINE
5
1D2
100
AcDbEntity
8
SK1
62
256
6
ByLayer
370
18
48
1
60
0
100
AcDbSpline
70
4
71
3
72
72
73
68
40
0
40
0
40
0
40
0
40
0.0150365755596474
40
0.03051010127764
40
0.0459836269956325
40
0.0614571527136251
40
0.0769306784316176
40
0.0924042041496101
40
0.107877729867603
40
0.123351255585595
40
0.138824781303588
40
0.154298307021581
40
0.169771832739573
40
0.185245358457566
40
0.200718884175558
40
0.216192409893551
40
0.231665935611543
40
0.247139461329536
40
0.262612987047528
40
0.278086512765521
40
0.293560038483513
40
0.309033564201506
40
0.324507089919499
40
0.339980615637491
40
0.355454141355484
40
0.370927667073476
40
0.386401192791469
40
0.401874718509461
40
0.417348244227454
40
0.432821769945446
40
0.448295295663439
40
0.463768821381432
40
0.479242347099424
40
0.494715872817417
40
0.510189398535409
40
0.525662924253402
40
0.541136449971394
40
0.556609975689387
40
0.57208350140738
40
0.587557027125372
40
0.603030552843364
40
0.618504078561357
40
0.63397760427935
40
0.649451129997342
40
0.664924655715335
40
0.680398181433327
40
0.69587170715132
40
0.711345232869312
40
0.726818758587305
40
0.742292284305297
40
0.75776581002329
40
0.773239335741283
40
0.788712861459275
40
0.804186387177268
40
0.81965991289526
40
0.835133438613253
40
0.850606964331245
40
0.866080490049238
40
0.88155401576723
40
0.897027541485223
40
0.912501067203216
40
0.927974592921208
40
0.943448118639201
40
0.958921644357193
40
0.974395170075186
40
0.989868695793178
40
1
40
1
40
1
40
1
41
1
10
-22.5004731679057
20
13.2913209175295
30
0
41
1
10
-22.5004731679057
20
13.3210932341281
30
0
41
1
10
-22.5004731679057
20
13.3768125167869
30
0
41
1
10
-22.5004731679057
20
13.4428288363681
30
0
41
1
10
-22.5004731679057
20
13.4866768366259
30
0
41
1
10
-22.5004731679057
20
13.5029401449552
30
0
41
1
10
-22.5004731679057
20
13.4866735728523
30
0
41
1
10
-22.5004731679057
20
13.4330108195395
30
0
41
1
10
-22.5004731679057
20
13.3373970005121
30
0
41
1
10
-22.5004731679057
20
13.1958202698686
30
0
41
1
10
-22.5004731679057
20
13.0050138959383
30
0
41
1
10
-22.5004731679057
20
12.7626398072662
30
0
41
1
10
-22.5004731679057
20
12.4674309788965
30
0
41
1
10
-22.5004731679056
20
12.1192984726134
30
0
41
1
10
-22.5004731679056
20
11.7193888839714
30
0
41
1
10
-22.5004731679056
20
11.2700975146
30
0
41
1
10
-22.5004731679056
20
10.7750305295073
30
0
41
1
10
-22.5004731679056
20
10.2389206082719
30
0
41
1
10
-22.5004731679056
20
9.66749825781361
30
0
41
1
10
-22.5004731679056
20
9.0673213507315
30
0
41
1
10
-22.5004731679056
20
8.44557410053284
30
0
41
1
10
-22.5004731679056
20
7.80983526623567
30
0
41
1
10
-22.5004731679056
20
7.16783457729309
30
0
41
1
10
-22.5004731679056
20
6.52719401685735
30
0
41
1
10
-22.5004731679056
20
5.89517825258662
30
0
41
1
10
-22.5004731679056
20
5.27844782766644
30
0
41
1
10
-22.5004731679056
20
4.68284136974697
30
0
41
1
10
-22.5004731679056
20
4.11317803178855
30
0
41
1
10
-22.5004731679056
20
3.57310471645681
30
0
41
1
10
-22.5004731679056
20
3.06497793170672
30
0
41
1
10
-22.5004731679056
20
2.58979965981254
30
0
41
1
10
-22.5004731679056
20
2.14719700401548
30
0
41
1
10
-22.5004731679056
20
1.73545710126749
30
0
41
1
10
-22.5004731679056
20
1.35160831830677
30
0
41
1
10
-22.5004731679056
20
0.991549758416369
30
0
41
1
10
-22.5004731679056
20
0.650222532349176
30
0
41
1
10
-22.5004731679056
20
0.321815193057716
30
0
41
1
10
-22.5004731679056
20
6.86773944E-08
30
0
41
1
10
-22.5004731679056
20
-0.321815467767181
30
0
41
1
10
-22.5004731679056
20
-0.6502224058938
30
0
41
1
10
-22.5004731679056
20
-0.99154998952838
30
0
41
1
10
-22.5004731679056
20
-1.35160822294213
30
0
41
1
10
-22.5004731679056
20
-1.73545725161395
30
0
41
1
10
-22.5004731679056
20
-2.147196955358
30
0
41
1
10
-22.5004731679056
20
-2.58979970409595
30
0
41
1
10
-22.5004731679056
20
-3.06497793851139
30
0
41
1
10
-22.5004731679056
20
-3.57310464495461
30
0
41
1
10
-22.5004731679056
20
-4.11317809469651
30
0
41
1
10
-22.5004731679056
20
-4.68284118961725
30
0
41
1
10
-22.5004731679056
20
-5.27844793917419
30
0
41
1
10
-22.5004731679056
20
-5.89517798668527
30
0
41
1
10
-22.5004731679056
20
-6.52719416250753
30
0
41
1
10
-22.5004731679056
20
-7.16783426059351
30
0
41
1
10
-22.5004731679057
20
-7.8098354268293
30
0
41
1
10
-22.5004731679057
20
-8.44557377485771
30
0
41
1
10
-22.5004731679057
20
-9.06732150524962
30
0
41
1
10
-22.5004731679057
20
-9.667497965416
30
0
41
1
10
-22.5004731679057
20
-10.2389207370425
30
0
41
1
10
-22.5004731679057
20
-10.7750303068223
30
0
41
1
10
-22.5004731679057
20
-11.2700976022241
30
0
41
1
10
-22.5004731679057
20
-11.7193887561596
30
0
41
1
10
-22.5004731679057
20
-12.1192985102377
30
0
41
1
10
-22.5004731679057
20
-12.4674309562112
30
0
41
1
10
-22.5004731679057
20
-12.7626397938223
30
0
41
1
10
-22.5004731679057
20
-13.0050139723987
30
0
41
1
10
-22.5004731679057
20
-13.1738616484515
30
0
41
1
10
-22.5004731679057
20
-13.2566406313252
30
0
41
1
10
-22.5004731679057
20
-13.2860299212734
30
0
0
SPLINE
5
1D3
100
AcDbEntity
8
SK1
62
256
6
ByLayer
370
18
48
1
60
0
100
AcDbSpline
70
4
71
3
72
79
73
75
40
0
40
0
40
0
40
0
40
0.0043177006711251
40
0.0184424549640358
40
0.0325672092569465
40
0.0466919635498572
40
0.0608167178427679
40
0.0749414721356786
40
0.0890662264285893
40
0.1031909807215
40
0.117315735014411
40
0.131440489307321
40
0.145565243600232
40
0.159689997893143
40
0.173814752186053
40
0.187939506478964
40
0.202064260771875
40
0.216189015064786
40
0.230313769357696
40
0.244438523650607
40
0.258563277943518
40
0.272688032236428
40
0.286812786529339
40
0.30093754082225
40
0.31506229511516
40
0.329187049408071
40
0.343311803700982
40
0.357436557993893
40
0.371561312286803
40
0.385686066579714
40
0.399810820872624
40
0.413935575165535
40
0.428060329458446
40
0.442185083751357
40
0.456309838044267
40
0.470434592337178
40
0.484559346630089
40
0.498684100922999
40
0.51280885521591
40
0.526933609508821
40
0.541058363801732
40
0.555183118094642
40
0.569307872387553
40
0.583432626680464
40
0.597557380973374
40
0.611682135266285
40
0.625806889559196
40
0.639931643852106
40
0.654056398145017
40
0.668181152437928
40
0.682305906730838
40
0.696430661023749
40
0.71055541531666
40
0.72468016960957
40
0.738804923902481
40
0.752929678195392
40
0.767054432488303
40
0.781179186781213
40
0.795303941074124
40
0.809428695367035
40
0.823553449659945
40
0.837678203952856
40
0.851802958245767
40
0.865927712538678
40
0.880052466831588
40
0.894177221124499
40
0.90830197541741
40
0.92242672971032
40
0.936551484003231
40
0.950676238296142
40
0.964800992589052
40
0.978925746881963
40
0.993050501174874
40
1
40
1
40
1
40
1
41
1
10
-2.50000000000003
20
-13.8460520008658
30
0
41
1
10
-2.50000000000003
20
-13.8546426979683
30
0
41
1
10
-2.50000000000003
20
-13.890148056014
30
0
41
1
10
-2.50000000000003
20
-13.9432745301022
30
0
41
1
10
-2.50000000000003
20
-13.9887542441536
30
0
41
1
10
-2.50000000000003
20
-14.0056234056246
30
0
41
1
10
-2.5
20
-13.988752133348
30
0
41
1
10
-2.5
20
-13.9330904587156
30
0
41
1
10
-2.5
20
-13.8339177083708
30
0
41
1
10
-2.5
20
-13.6870701821128
30
0
41
1
10
-2.5
20
-13.4891606659135
30
0
41
1
10
-2.5
20
-13.2377634553435
30
0
41
1
10
-2.5
20
-12.9315646731672
30
0
41
1
10
-2.5
20
-12.5704720586786
30
0
41
1
10
-2.49999999999997
20
-12.1556745862519
30
0
41
1
10
-2.49999999999997
20
-11.6896573582757
30
0
41
1
10
-2.49999999999997
20
-11.1761598486008
30
0
41
1
10
-2.49999999999997
20
-10.6200921552756
30
0
41
1
10
-2.49999999999997
20
-10.0273966309962
30
0
41
1
10
-2.49999999999997
20
-9.40487698463008
30
0
41
1
10
-2.49999999999997
20
-8.75998301936997
30
0
41
1
10
-2.49999999999997
20
-8.10057759802723
30
0
41
1
10
-2.49999999999994
20
-7.43467620819112
30
0
41
1
10
-2.49999999999994
20
-6.77018655593477
30
0
41
1
10
-2.49999999999994
20
-6.11464187468977
30
0
41
1
10
-2.49999999999994
20
-5.47495238907831
30
0
41
1
10
-2.49999999999994
20
-4.85717257311447
30
0
41
1
10
-2.49999999999994
20
-4.26630223424849
30
0
41
1
10
-2.49999999999994
20
-3.70612309484702
30
0
41
1
10
-2.49999999999994
20
-3.17908000235968
30
0
41
1
10
-2.49999999999994
20
-2.68621197756718
30
0
41
1
10
-2.49999999999994
20
-2.22713214869714
30
0
41
1
10
-2.49999999999994
20
-1.80006432484655
30
0
41
1
10
-2.49999999999994
20
-1.40192548161284
30
0
41
1
10
-2.49999999999994
20
-1.02846311010666
30
0
41
1
10
-2.49999999999994
20
-0.674428687296569
30
0
41
1
10
-2.49999999999994
20
-0.333795915844547
30
0
41
1
10
-2.49999999999994
20
7.12340693E-08
30
0
41
1
10
-2.49999999999994
20
0.333795630908241
30
0
41
1
10
-2.49999999999994
20
0.674428818459575
30
0
41
1
10
-2.49999999999994
20
1.02846287039082
30
0
41
1
10
-2.49999999999994
20
1.40192558052763
30
0
41
1
10
-2.49999999999994
20
1.80006416890296
30
0
41
1
10
-2.49999999999994
20
2.22713219916599
30
0
41
1
10
-2.49999999999994
20
2.68621193163514
30
0
41
1
10
-2.49999999999994
20
3.17907999530164
30
0
41
1
10
-2.49999999999994
20
3.70612316901105
30
0
41
1
10
-2.49999999999994
20
4.26630216899858
30
0
41
1
10
-2.49999999999994
20
4.85717275994992
30
0
41
1
10
-2.49999999999994
20
5.47495227341935
30
0
41
1
10
-2.49999999999994
20
6.11464215048997
30
0
41
1
10
-2.49999999999994
20
6.7701864048623
30
0
41
1
10
-2.49999999999994
20
7.43467653668063
30
0
41
1
10
-2.49999999999994
20
8.10057743145504
30
0
41
1
10
-2.49999999999994
20
8.75998335716918
30
0
41
1
10
-2.49999999999994
20
9.40487682435958
30
0
41
1
10
-2.49999999999994
20
10.027396934279
30
0
41
1
10
-2.49999999999994
20
10.6200920217111
30
0
41
1
10
-2.49999999999994
20
11.1761600795757
30
0
41
1
10
-2.49999999999994
20
11.6896572673894
30
0
41
1
10
-2.49999999999994
20
12.1556747188218
30
0
41
1
10
-2.49999999999997
20
12.5704720196537
30
0
41
1
10
-2.49999999999997
20
12.931564696697
30
0
41
1
10
-2.49999999999997
20
13.2377634692878
30
0
41
1
10
-2.49999999999997
20
13.4891605866066
30
0
41
1
10
-2.49999999999997
20
13.6870702420279
30
0
41
1
10
-2.49999999999997
20
13.8339175480175
30
0
41
1
10
-2.49999999999997
20
13.9330908491367
30
0
41
1
10
-2.49999999999997
20
13.9887513430622
30
0
41
1
10
-2.49999999999997
20
14.0056234821498
30
0
41
1
10
-2.49999999999997
20
13.9887547283385
30
0
41
1
10
-2.5
20
13.9432743681012
30
0
41
1
10
-2.49999999999997
20
13.8858546593185
30
0
41
1
10
-2.49999999999997
20
13.8443987701481
30
0
41
1
10
-2.49999999999997
20
13.8300369986856
30
0
0
SPLINE
5
1D4
100
AcDbEntity
8
SK1
62
256
6
ByLayer
370
18
48
1
60
0
100
AcDbSpline
70
4
71
3
72
34
73
30
40
0
40
0
40
0
40
0
40
0.0691487353632072
40
0.0691487353632072
40
0.103723103044811
40
0.103723103044811
40
0.138297470726414
40
0.138297470726414
40
0.276594941452829
40
0.276594941452829
40
0.345743676816036
40
0.345743676816036
40
0.414892412179243
40
0.414892412179243
40
0.553189882905658
40
0.553189882905658
40
0.622338618268865
40
0.622338618268865
40
0.691487353632072
40
0.691487353632072
40
0.760636088995279
40
0.760636088995279
40
0.829784824358486
40
0.829784824358486
40
0.898933559721693
40
0.898933559721693
40
0.9680822950849
40
0.9680822950849
40
1
40
1
40
1
40
1
41
1
10
-1.69996145737016
20
2.58069190327939
30
0
41
1
10
-1.69996733344885
20
3.05509930631811
30
0
41
1
10
-1.69997243482129
20
3.51761528130072
30
0
41
1
10
-1.69997865337851
20
4.19092322032554
30
0
41
1
10
-1.69998050405434
20
4.41234322785277
30
0
41
1
10
-1.69998380142843
20
4.84743867361578
30
0
41
1
10
-1.69998525071335
20
5.06131925165261
30
0
41
1
10
-1.69999166856414
20
6.11382700256573
30
0
41
1
10
-1.69999423902317
20
6.90428314753061
30
0
41
1
10
-1.69999661083062
20
8.0054717157181
30
0
41
1
10
-1.69999714066637
20
8.35873938181228
30
0
41
1
10
-1.69999789766095
20
9.03705178077976
30
0
41
1
10
-1.69999812321308
20
9.36174331820493
30
0
41
1
10
-1.69999851418865
20
10.2923620885299
30
0
41
1
10
-1.69999843654321
20
10.8567565013492
30
0
41
1
10
-1.69999767337529
20
11.609217294373
30
0
41
1
10
-1.69999730051998
20
11.8445810270417
30
0
41
1
10
-1.69999615550935
20
12.283924450631
30
0
41
1
10
-1.69999538395524
20
12.4873992298258
30
0
41
1
10
-1.69999318283217
20
12.8602942255247
30
0
41
1
10
-1.69999175218271
20
13.0297885744734
30
0
41
1
10
-1.69998784953967
20
13.3318809933356
30
0
41
1
10
-1.69998537605034
20
13.4646455358602
30
0
41
1
10
-1.69997883083784
20
13.6911630512906
30
0
41
1
10
-1.69997475891142
20
13.7846945374618
30
0
41
1
10
-1.69996425447641
20
13.9277532746907
30
0
41
1
10
-1.69995785433565
20
13.977282564264
30
0
41
1
10
-1.69994833162727
20
14.0135163639541
30
0
41
1
10
-1.69994322325098
20
14.0196779314721
30
0
41
1
10
-1.69993757160967
20
14.0200998896391
30
0
0
SPLINE
5
1D5
100
AcDbEntity
8
SK1
62
256
6
ByLayer
370
18
48
1
60
0
100
AcDbSpline
70
4
71
3
72
32
73
28
40
0
40
0
40
0
40
0
40
0.0318901005864405
40
0.0318901005864405
40
0.101040807687409
40
0.101040807687409
40
0.170191514788378
40
0.170191514788378
40
0.308492928990315
40
0.308492928990315
40
0.446794343192252
40
0.446794343192252
40
0.585095757394189
40
0.585095757394189
40
0.723397171596126
40
0.723397171596126
40
0.792547878697094
40
0.792547878697094
40
0.861698585798063
40
0.861698585798063
40
0.896273939348547
40
0.896273939348547
40
0.930849292899032
40
0.930849292899032
40
0.965424646449516
40
0.965424646449516
40
1
40
1
40
1
40
1
41
1
10
-1.69993734667173
20
-14.0200998926381
30
0
41
1
10
-1.69994186768864
20
-14.0197056805385
30
0
41
1
10
-1.69994597192186
20
-14.0135858453431
30
0
41
1
10
-1.69995782891479
20
-13.9774503250364
30
0
41
1
10
-1.6999642517909
20
-13.9277695406165
30
0
41
1
10
-1.69997475382922
20
-13.7847828609722
30
0
41
1
10
-1.6999788250202
20
-13.6912957588325
30
0
41
1
10
-1.69998863922478
20
-13.3518485205222
30
0
41
1
10
-1.69999208307536
20
-13.0465849013762
30
0
41
1
10
-1.699996483229
20
-12.3011915217478
30
0
41
1
10
-1.69999741875159
20
-11.8602971411697
30
0
41
1
10
-1.69999843685463
20
-10.8564210971593
30
0
41
1
10
-1.69999851438988
20
-10.2927022373387
30
0
41
1
10
-1.69999799256735
20
-9.05091124162109
30
0
41
1
10
-1.69999740061834
20
-8.3721061456593
30
0
41
1
10
-1.69999502958709
20
-7.2713543324295
30
0
41
1
10
-1.69999397669187
20
-6.89040184870717
30
0
41
1
10
-1.69999101652976
20
-6.10141020276637
30
0
41
1
10
-1.6999891033789
20
-5.69306646653774
30
0
41
1
10
-1.69998524495594
20
-5.06041750139286
30
0
41
1
10
-1.69998379350474
20
-4.84631038003562
30
0
41
1
10
-1.69998049429259
20
-4.4111320962962
30
0
41
1
10
-1.69997864360511
20
-4.18980776264149
30
0
41
1
10
-1.69997449922675
20
-3.74119667368481
30
0
41
1
10
-1.69997220400032
20
-3.51385665934996
30
0
41
1
10
-1.69996715777285
20
-3.05243159507233
30
0
41
1
10
-1.69996439693625
20
-2.81803866041682
30
0
41
1
10
-1.6999614571626
20
-2.58068890323889
30
0
0
SPLINE
5
1D6
100
AcDbEntity
8
SK1
62
256
6
ByLayer
370
18
48
1
60
0
100
AcDbSpline
70
4
71
3
72
53
73
49
40
0
40
0
40
0
40
0
40
0.0009015193746167
40
0.0080239562360817
40
0.0152429704248288
40
0.0225627430941064
40
0.0299872851717886
40
0.037520440238389
40
0.0451658880678113
40
0.0529271487146514
40
0.0802072100760792
40
0.107887533908892
40
0.136107123180198
40
0.164997197969626
40
0.221222022738541
40
0.277014628227447
40
0.306338666575135
40
0.334691910501004
40
0.362228645150814
40
0.389117214602899
40
0.410870120719345
40
0.431237756425149
40
0.450352152768407
40
0.468372907871325
40
0.485490237831952
40
0.501925756049277
40
0.526652465746316
40
0.553195769198824
40
0.582181780559291
40
0.614093155673714
40
0.631894224101699
40
0.649963182754918
40
0.668350919583493
40
0.687105727867598
40
0.706273126520034
40
0.725895763388216
40
0.753753728495308
40
0.781593581879872
40
0.809530719871306
40
0.837679342358795
40
0.866493078870823
40
0.894647645348612
40
0.922273632099422
40
0.949509233855134
40
0.96488210488651
40
0.979800925795743
40
0.994296164401004
40
1
40
1
40
1
40
1
41
1
10
-24.0000000000001
20
-12.5794716105389
30
0
41
1
10
-24.0000000000001
20
-12.579444121901
30
0
41
1
10
-24
20
-12.5790106287372
30
0
41
1
10
-24
20
-12.5750102454912
30
0
41
1
10
-24
20
-12.5615745885518
30
0
41
1
10
-24
20
-12.5403129223796
30
0
41
1
10
-24
20
-12.5112243715907
30
0
41
1
10
-24
20
-12.4743144356193
30
0
41
1
10
-24
20
-12.4295641486956
30
0
41
1
10
-24
20
-12.3332983728988
30
0
41
1
10
-24
20
-12.1488140883502
30
0
41
1
10
-24
20
-11.8183666241033
30
0
41
1
10
-24
20
-11.3988068147615
30
0
41
1
10
-24
20
-10.7351621337747
30
0
41
1
10
-24
20
-9.73480607524854
30
0
41
1
10
-24
20
-8.50289855695533
30
0
41
1
10
-24
20
-7.39075627731413
30
0
41
1
10
-24
20
-6.49127914507179
30
0
41
1
10
-24
20
-5.5556849882195
30
0
41
1
10
-24
20
-4.63955568105783
30
0
41
1
10
-24
20
-3.76913729325929
30
0
41
1
10
-23.9999999999999
20
-2.96447783194304
30
0
41
1
10
-24
20
-2.1790530124172
30
0
41
1
10
-23.9999999999999
20
-1.41279480441605
30
0
41
1
10
-23.9999999999999
20
-0.665594437609201
30
0
41
1
10
-23.9999999999999
20
0.190530582996331
30
0
41
1
10
-24
20
1.1838590283013
30
0
41
1
10
-23.9999999999999
20
2.32153593904502
30
0
41
1
10
-23.9999999999999
20
3.49834713164501
30
0
41
1
10
-23.9999999999999
20
4.49575550939699
30
0
41
1
10
-23.9999999999999
20
5.31422162579241
30
0
41
1
10
-23.9999999999999
20
5.94369174685866
30
0
41
1
10
-23.9999999999999
20
6.55748161513671
30
0
41
1
10
-23.9999999999999
20
7.15551399202425
30
0
41
1
10
-24
20
7.73777017421654
30
0
41
1
10
-23.9999999999999
20
8.37891321215074
30
0
41
1
10
-24
20
9.05789466220696
30
0
41
1
10
-24
20
9.74741392450429
30
0
41
1
10
-24
20
10.3724214375753
30
0
41
1
10
-24
20
10.9348709055083
30
0
41
1
10
-24
20
11.4282187860647
30
0
41
1
10
-24
20
11.841530117034
30
0
41
1
10
-24
20
12.1662204954186
30
0
41
1
10
-24
20
12.3685088187021
30
0
41
1
10
-24
20
12.4863667597008
30
0
41
1
10
-24
20
12.5496478387326
30
0
41
1
10
-24
20
12.5753276015826
30
0
41
1
10
-24
20
12.5798034646193
30
0
41
1
10
-24
20
12.580218389636
30
0
0
SPLINE
5
1D7
100
AcDbEntity
8
SK1
62
256
6
ByLayer
370
18
48
1
60
0
100
AcDbSpline
70
4
71
3
72
26
73
22
40
0
40
0
40
0
40
0
40
0.0307913256470866
40
0.0307913256470866
40
0.127712193082394
40
0.127712193082394
40
0.176172626800047
40
0.176172626800047
40
0.224633060517701
40
0.224633060517701
40
0.248863277376525
40
0.248863277376525
40
0.27309349423535
40
0.27309349423535
40
0.321553927952997
40
0.321553927952997
40
0.418474795388285
40
0.418474795388285
40
0.612316530258858
40
0.612316530258858
40
1
40
1
40
1
40
1
41
1
10
-1.57433614775925
20
13.5697408402978
30
0
41
1
10
-1.57608698429783
20
13.5688168376521
30
0
41
1
10
-1.57787595635415
20
13.5679297492289
30
0
41
1
10
-1.58547170222769
20
13.5644238104942
30
0
41
1
10
-1.59163473346519
20
13.5621602929549
30
0
41
1
10
-1.60238757652306
20
13.5604200520529
30
0
41
1
10
-1.60622023568951
20
13.5601161512167
30
0
41
1
10
-1.61487977434197
20
13.5607220760426
30
0
41
1
10
-1.61966061650892
20
13.5615054149213
30
0
41
1
10
-1.62874276649825
20
13.5655264252002
30
0
41
1
10
-1.63222251279362
20
13.5674114022669
30
0
41
1
10
-1.64030398611317
20
13.573619849459
30
0
41
1
10
-1.64480166471762
20
13.5781096216329
30
0
41
1
10
-1.6556911619829
20
13.5916302553316
30
0
41
1
10
-1.65990888395672
20
13.5997016412416
30
0
41
1
10
-1.67042770926656
20
13.6213807422026
30
0
41
1
10
-1.67437774883194
20
13.6335041506938
30
0
41
1
10
-1.68468937018747
20
13.6684047051555
30
0
41
1
10
-1.68844996321826
20
13.6887386799271
30
0
41
1
10
-1.69734030571792
20
13.7470295418718
30
0
41
1
10
-1.69934373531291
20
13.7816465515501
30
0
41
1
10
-1.6998763996223
20
13.8139891097877
30
0
0
SPLINE
5
1D8
100
AcDbEntity
8
SK1
62
256
6
ByLayer
370
18
48
1
60
0
100
AcDbSpline
70
4
71
3
72
33
73
29
40
0
40
0
40
0
40
0
40
0.0059995898399567
40
0.0460651672944133
40
0.08613074474887
40
0.126196322203327
40
0.166261899657783
40
0.20632747711224
40
0.246393054566697
40
0.286458632021153
40
0.32652420947561
40
0.366589786930067
40
0.406655364384523
40
0.44672094183898
40
0.486786519293436
40
0.526852096747893
40
0.56691767420235
40
0.606983251656806
40
0.647048829111263
40
0.68711440656572
40
0.727179984020176
40
0.767245561474633
40
0.80731113892909
40
0.847376716383546
40
0.887442293838003
40
0.927507871292459
40
0.967573448746916
40
1
40
1
40
1
40
1
41
1
10
-1.49999999999989
20
2.55452876952208
30
0
41
1
10
-1.49999999999989
20
2.57759088989684
30
0
41
1
10
-1.49999999999989
20
2.7556344787354
30
0
41
1
10
-1.49999999999989
20
3.10259083011954
30
0
41
1
10
-1.49999999999989
20
3.62131845460991
30
0
41
1
10
-1.49999999999989
20
4.17356939352865
30
0
41
1
10
-1.49999999999989
20
4.75691763797596
30
0
41
1
10
-1.49999999999989
20
5.36758867042255
30
0
41
1
10
-1.49999999999989
20
6.00058612356241
30
0
41
1
10
-1.49999999999989
20
6.64985041554641
30
0
41
1
10
-1.49999999999989
20
7.30846469728445
30
0
41
1
10
-1.49999999999989
20
7.96888164701966
30
0
41
1
10
-1.49999999999989
20
8.62318069742537
30
0
41
1
10
-1.49999999999989
20
9.26332794093628
30
0
41
1
10
-1.49999999999989
20
9.88144573908428
30
0
41
1
10
-1.49999999999991
20
10.470066387995
30
0
41
1
10
-1.49999999999991
20
11.0223736645665
30
0
41
1
10
-1.49999999999991
20
11.5324121673266
30
0
41
1
10
-1.49999999999991
20
11.9952649527342
30
0
41
1
10
-1.49999999999991
20
12.4071875173709
30
0
41
1
10
-1.49999999999991
20
12.765695711353
30
0
41
1
10
-1.49999999999991
20
13.0696050793313
30
0
41
1
10
-1.49999999999991
20
13.3190171661248
30
0
41
1
10
-1.49999999999991
20
13.5152595834079
30
0
41
1
10
-1.49999999999991
20
13.6607745146452
30
0
41
1
10
-1.49999999999991
20
13.7589702687857
30
0
41
1
10
-1.49999999999994
20
13.8105308239154
30
0
41
1
10
-1.49999999999994
20
13.8227927556879
30
0
41
1
10
-1.49999999999994
20
13.8245347695506
30
0
0
SPLINE
5
1D9
100
AcDbEntity
8
SK1
62
256
6
ByLayer
370
18
48
1
60
0
100
AcDbSpline
70
4
71
3
72
33
73
29
40
0
40
0
40
0
40
0
40
0.0324112044302648
40
0.0724774076953728
40
0.112543610960481
40
0.152609814225589
40
0.192676017490697
40
0.232742220755805
40
0.272808424020913
40
0.312874627286021
40
0.352940830551129
40
0.393007033816237
40
0.433073237081345
40
0.473139440346454
40
0.513205643611562
40
0.55327184687667
40
0.593338050141778
40
0.633404253406886
40
0.673470456671994
40
0.713536659937102
40
0.75360286320221
40
0.793669066467318
40
0.833735269732426
40
0.873801472997534
40
0.913867676262642
40
0.95393387952775
40
0.994000082792858
40
1
40
1
40
1
40
1
41
1
10
-1.49999999999997
20
-13.8245323394426
30
0
41
1
10
-1.49999999999997
20
-13.8227877018024
30
0
41
1
10
-1.49999999999997
20
-13.8105242754917
30
0
41
1
10
-1.49999999999997
20
-13.7589698929487
30
0
41
1
10
-1.49999999999997
20
-13.6607746658667
30
0
41
1
10
-1.49999999999994
20
-13.5152595263794
30
0
41
1
10
-1.49999999999994
20
-13.3190172436223
30
0
41
1
10
-1.49999999999994
20
-13.0696050688166
30
0
41
1
10
-1.49999999999994
20
-12.7656956859389
30
0
41
1
10
-1.49999999999994
20
-12.4071875603976
30
0
41
1
10
-1.49999999999994
20
-11.9952648181666
30
0
41
1
10
-1.49999999999994
20
-11.5324122627522
30
0
41
1
10
-1.49999999999994
20
-11.022373431452
30
0
41
1
10
-1.49999999999991
20
-10.4700665265398
30
0
41
1
10
-1.49999999999991
20
-9.88144543350359
30
0
41
1
10
-1.49999999999991
20
-9.26332810646636
30
0
41
1
10
-1.49999999999991
20
-8.62318035716163
30
0
41
1
10
-1.49999999999991
20
-7.96888181888042
30
0
41
1
10
-1.49999999999991
20
-7.30846436616247
30
0
41
1
10
-1.49999999999991
20
-6.64985057156352
30
0
41
1
10
-1.49999999999991
20
-6.00058584498379
30
0
41
1
10
-1.49999999999991
20
-5.36758879010387
30
0
41
1
10
-1.49999999999989
20
-4.75691744833273
30
0
41
1
10
-1.49999999999989
20
-4.17356946094313
30
0
41
1
10
-1.49999999999989
20
-3.62131828040256
30
0
41
1
10
-1.49999999999989
20
-3.10259085919483
30
0
41
1
10
-1.49999999999989
20
-2.75563386385181
30
0
41
1
10
-1.49999999999989
20
-2.57758935777625
30
0
41
1
10
-1.49999999999989
20
-2.55452633951475
30
0
0
SPLINE
5
1DA
100
AcDbEntity
8
SK1
62
256
6
ByLayer
370
18
48
1
60
0
100
AcDbSpline
70
4
71
3
72
27
73
23
40
0
40
0
40
0
40
0
40
0.037333348839777
40
0.0884074674628125
40
0.139481586085848
40
0.190555704708883
40
0.241629823331919
40
0.292703941954954
40
0.34377806057799
40
0.394852179201025
40
0.445926297824061
40
0.497000416447096
40
0.548074535070131
40
0.599148653693167
40
0.650222772316202
40
0.701296890939238
40
0.752371009562273
40
0.803445128185309
40
0.854519246808344
40
0.90559336543138
40
0.956667484054415
40
1
40
1
40
1
40
1
41
1
10
-0.400000000000006
20
-13.7965785644578
30
0
41
1
10
-0.400000000000006
20
-13.7852812983138
30
0
41
1
10
-0.399999999999977
20
-13.7501638802654
30
0
41
1
10
-0.399999999999977
20
-13.6607746658667
30
0
41
1
10
-0.399999999999977
20
-13.5152595263794
30
0
41
1
10
-0.399999999999977
20
-13.3190172436223
30
0
41
1
10
-0.399999999999977
20
-13.0696050688166
30
0
41
1
10
-0.399999999999949
20
-12.7656956859389
30
0
41
1
10
-0.399999999999949
20
-12.4071875603976
30
0
41
1
10
-0.399999999999949
20
-11.9952648181666
30
0
41
1
10
-0.399999999999949
20
-11.5324122627522
30
0
41
1
10
-0.399999999999949
20
-11.022373431452
30
0
41
1
10
-0.399999999999949
20
-10.4700665265398
30
0
41
1
10
-0.399999999999949
20
-9.88144543350359
30
0
41
1
10
-0.399999999999949
20
-9.26332810646636
30
0
41
1
10
-0.39999999999992
20
-8.62318035716166
30
0
41
1
10
-0.39999999999992
20
-7.96888181888042
30
0
41
1
10
-0.39999999999992
20
-7.30846436616247
30
0
41
1
10
-0.39999999999992
20
-6.64985057156352
30
0
41
1
10
-0.39999999999992
20
-6.00058584498379
30
0
41
1
10
-0.39999999999992
20
-5.3995711445526
30
0
41
1
10
-0.39999999999992
20
-5.02226873502781
30
0
41
1
10
-0.39999999999992
20
-4.85227456455004
30
0
0
SPLINE
5
1DB
100
AcDbEntity
8
SK1
62
256
6
ByLayer
370
18
48
1
60
0
100
AcDbSpline
70
4
71
3
72
27
73
23
40
0
40
0
40
0
40
0
40
0.0433317729095595
40
0.094405057638901
40
0.145478342368243
40
0.196551627097584
40
0.247624911826926
40
0.298698196556267
40
0.349771481285609
40
0.40084476601495
40
0.451918050744292
40
0.502991335473633
40
0.554064620202975
40
0.605137904932316
40
0.656211189661658
40
0.707284474390999
40
0.758357759120341
40
0.809431043849682
40
0.860504328579024
40
0.911577613308365
40
0.962650898037707
40
1
40
1
40
1
40
1
41
1
10
-0.39999999999992
20
4.85227506835241
30
0
41
1
10
-0.39999999999992
20
5.02226907709917
30
0
41
1
10
-0.39999999999992
20
5.39957119182191
30
0
41
1
10
-0.39999999999992
20
6.00058612356241
30
0
41
1
10
-0.39999999999992
20
6.64985041554641
30
0
41
1
10
-0.39999999999992
20
7.30846469728448
30
0
41
1
10
-0.39999999999992
20
7.96888164701966
30
0
41
1
10
-0.39999999999992
20
8.62318069742537
30
0
41
1
10
-0.39999999999992
20
9.26332794093628
30
0
41
1
10
-0.39999999999992
20
9.88144573908428
30
0
41
1
10
-0.39999999999992
20
10.470066387995
30
0
41
1
10
-0.39999999999992
20
11.0223736645665
30
0
41
1
10
-0.39999999999992
20
11.5324121673266
30
0
41
1
10
-0.39999999999992
20
11.9952649527342
30
0
41
1
10
-0.39999999999992
20
12.4071875173709
30
0
41
1
10
-0.39999999999992
20
12.765695711353
30
0
41
1
10
-0.39999999999992
20
13.0696050793313
30
0
41
1
10
-0.399999999999949
20
13.3190171661248
30
0
41
1
10
-0.399999999999949
20
13.5152595834079
30
0
41
1
10
-0.399999999999949
20
13.6607745146452
30
0
41
1
10
-0.399999999999949
20
13.7501746953666
30
0
41
1
10
-0.399999999999949
20
13.7852940852798
30
0
41
1
10
-0.399999999999949
20
13.7965930685277
30
0
0
SPLINE
5
1DC
100
AcDbEntity
8
1
62
256
6
ByLayer
370
18
48
1
60
0
100
AcDbSpline
70
4
71
3
72
16
73
12
40
0
40
0
40
0
40
0
40
0.12564365492488
40
0.12564365492488
40
0.34423274119366
40
0.34423274119366
40
0.56282182746244
40
0.56282182746244
40
0.78141091373122
40
0.78141091373122
40
1
40
1
40
1
40
1
41
1
10
27.3215007805922
20
3.89389911991285
30
0
41
1
10
27.379988710589
20
4.05569013215666
30
0
41
1
10
27.455455139666
20
4.2239203870968
30
0
41
1
10
27.7065773322152
20
4.69687407036315
30
0
41
1
10
27.9150201594715
20
5.01044984414671
30
0
41
1
10
28.4142374725694
20
5.64058948231016
30
0
41
1
10
28.7049642971711
20
5.9570931860433
30
0
41
1
10
29.3468585450194
20
6.56924013738333
30
0
41
1
10
29.697964685384
20
6.86482494214005
30
0
41
1
10
30.4341726351506
20
7.41285727047094
30
0
41
1
10
30.8192041573596
20
7.66525247234162
30
0
41
1
10
31.2067303551016
20
7.88656570059848
30
0
0
SPLINE
5
1DD
100
AcDbEntity
8
1
62
256
6
ByLayer
370
18
48
1
60
0
100
AcDbSpline
70
4
71
3
72
10
73
6
40
0
40
0
40
0
40
0
40
0.0301399412899025
40
0.645347345269167
40
1
40
1
40
1
40
1
41
1
10
32.7374181730634
20
-5.00535818232976
30
0
41
1
10
32.7365271125145
20
-5.00447954305952
30
0
41
1
10
32.7174686402297
20
-4.98564660537278
30
0
41
1
10
32.6886224210577
20
-4.95580844410907
30
0
41
1
10
32.6616700895978
20
-4.92593469093424
30
0
41
1
10
32.6519532168349
20
-4.9148872045003
30
0
0
SPLINE
5
1DE
100
AcDbEntity
8
1
62
256
6
ByLayer
370
18
48
1
60
0
100
AcDbSpline
70
4
71
3
72
67
73
63
40
0
40
0
40
0
40
0
40
0.0014418905727006
40
0.0121790745450373
40
0.0336534424897103
40
0.0443906264620465
40
0.0551278104343834
40
0.0766021783790562
40
0.087339362351393
40
0.0980765463237296
40
0.119550914268403
40
0.130288098240739
40
0.141025282213076
40
0.162499650157749
40
0.183974018102422
40
0.226922753991768
40
0.248397121936441
40
0.269871489881114
40
0.280608673853451
40
0.291345857825787
40
0.302083041798124
40
0.309464855779105
40
0.312820225770461
40
0.316175595761816
40
0.323557409742797
40
0.334294593715134
40
0.34503177768747
40
0.355768961659807
40
0.37724332960448
40
0.398717697549153
40
0.420192065493826
40
0.441666433438499
40
0.463140801383172
40
0.473877985355509
40
0.484615169327845
40
0.506089537272519
40
0.516826721244855
40
0.527563905217192
40
0.549038273161865
40
0.559775457134201
40
0.570512641106538
40
0.591987009051211
40
0.602724193023548
40
0.613461376995884
40
0.634935744940557
40
0.645672928912894
40
0.65641011288523
40
0.677884480829903
40
0.68862166480224
40
0.699358848774576
40
0.720833216719249
40
0.742307584663923
40
0.763781952608596
40
0.785256320553269
40
0.806730688497942
40
0.828205056442615
40
0.849679424387288
40
0.871153792331961
40
0.892628160276634
40
0.914102528221308
40
0.957051264110654
40
1
40
1
40
1
40
1
41
1
10
32.4994667648218
20
-4.71409320955513
30
0
41
1
10
32.4975831762822
20
-4.71120687063899
30
0
41
1
10
32.4817404244778
20
-4.68677597495147
30
0
41
1
10
32.4395342918471
20
-4.61807978655838
30
0
41
1
10
32.3910514476939
20
-4.52653307805917
30
0
41
1
10
32.3480185787583
20
-4.43143510902948
30
0
41
1
10
32.3086420554004
20
-4.3340779457786
30
0
41
1
10
32.2747845935575
20
-4.23349446039475
30
0
41
1
10
32.2464265118562
20
-4.13004623401403
30
0
41
1
10
32.2217281231246
20
-4.02480870734743
30
0
41
1
10
32.202509433161
20
-3.91706802082015
30
0
41
1
10
32.1886688839096
20
-3.80720171395777
30
0
41
1
10
32.1783799091143
20
-3.69604417338053
30
0
41
1
10
32.1721144189409
20
-3.55491214664721
30
0
41
1
10
32.1757031680509
20
-3.3254352086112
30
0
41
1
10
32.1990261866981
20
-3.09195350802477
30
0
41
1
10
32.2402785812155
20
-2.85728370301231
30
0
41
1
10
32.2730943972127
20
-2.71064847832687
30
0
41
1
10
32.3033043893517
20
-2.59367740882186
30
0
41
1
10
32.3278477693254
20
-2.50625237310541
30
0
41
1
10
32.3514408678213
20
-2.4283264669684
30
0
41
1
10
32.3700551081647
20
-2.37035836371149
30
0
41
1
10
32.3826944219814
20
-2.33226619832712
30
0
41
1
10
32.3956022031483
20
-2.29412546437757
30
0
41
1
10
32.4159451999725
20
-2.23584461090451
30
0
41
1
10
32.4449064622995
20
-2.15694754751249
30
0
41
1
10
32.4795723614356
20
-2.06769124169463
30
0
41
1
10
32.528921150387
20
-1.94725776270258
30
0
41
1
10
32.5964929790475
20
-1.79433481004995
30
0
41
1
10
32.6871368399611
20
-1.60753127299847
30
0
41
1
10
32.7874786859624
20
-1.41794551447046
30
0
41
1
10
32.8975255660835
20
-1.2261987926947
30
0
41
1
10
32.9973247021446
20
-1.06512677036574
30
0
41
1
10
33.081947247069
20
-0.935854888825332
30
0
41
1
10
33.1697343475436
20
-0.806425361110854
30
0
41
1
10
33.262231878593
20
-0.676937158551425
30
0
41
1
10
33.3592851347737
20
-0.54777743559373
30
0
41
1
10
33.4593239725609
20
-0.418965750519391
30
0
41
1
10
33.5637638300358
20
-0.290869699493413
30
0
41
1
10
33.6723689427644
20
-0.163889955348566
30
0
41
1
10
33.7836723041841
20
-0.0377879734020894
30
0
41
1
10
33.8989051564233
20
0.0867970288305173
30
0
41
1
10
34.0177576537637
20
0.2094715601676
30
0
41
1
10
34.1389199659322
20
0.330741280513791
30
0
41
1
10
34.2633920774834
20
0.449707038782833
30
0
41
1
10
34.3908040154977
20
0.56600404586311
30
0
41
1
10
34.5200525135141
20
0.680400289113692
30
0
41
1
10
34.6518708650737
20
0.791762992063923
30
0
41
1
10
34.7858478070698
20
0.899776105907421
30
0
41
1
10
34.9211267216546
20
1.00545081074432
30
0
41
1
10
35.0924095240479
20
1.13296214439904
30
0
41
1
10
35.3005831697223
20
1.27814159374069
30
0
41
1
10
35.5105307263422
20
1.41498401682051
30
0
41
1
10
35.7214001301098
20
1.54313726401665
30
0
41
1
10
35.9323393172274
20
1.66224918570723
30
0
41
1
10
36.1425469856343
20
1.77212611764406
30
0
41
1
10
36.3512218332698
20
1.87257439557894
30
0
41
1
10
36.557648754176
20
1.96355509256986
30
0
41
1
10
36.7611126423954
20
2.04502928167489
30
0
41
1
10
37.0276411474419
20
2.14112033272812
30
0
41
1
10
37.3503718132951
20
2.23797091218407
30
0
41
1
10
37.5948729420862
20
2.29180021010976
30
0
41
1
10
37.7132330011237
20
2.31321278872224
30
0
0
SPLINE
5
1DF
100
AcDbEntity
8
1
62
256
6
ByLayer
370
18
48
1
60
0
100
AcDbSpline
70
4
71
3
72
11
73
7
40
0
40
0
40
0
40
0
40
0.427963189735666
40
0.748935582037417
40
0.855926379471333
40
1
40
1
40
1
40
1
41
1
10
37.7132330011264
20
2.31321278872147
30
0
41
1
10
39.566939015743
20
2.07576420468323
30
0
41
1
10
42.8200307134248
20
1.6122464711973
30
0
41
1
10
46.5422230655109
20
1.02923065041395
30
0
41
1
10
49.0254925094267
20
0.623756889834368
30
0
41
1
10
50.1150913752954
20
0.442074550144042
30
0
41
1
10
50.7403890669789
20
0.337172747483493
30
0
0
SPLINE
5
1E0
100
AcDbEntity
8
1
62
256
6
ByLayer
370
18
48
1
60
0
100
AcDbSpline
70
4
71
3
72
12
73
8
40
0
40
0
40
0
40
0
40
0.239591908836381
40
0.239591908836381
40
0.493061272557588
40
0.493061272557588
40
1
40
1
40
1
40
1
41
1
10
69.5132888745
20
6.77882419119558
30
0
41
1
10
70.3564415082897
20
6.98234108034981
30
0
41
1
10
71.1973233280265
20
7.16967404138126
30
0
41
1
10
72.9259567738566
20
7.5177731745008
30
0
41
1
10
73.8135304053271
20
7.67649333312426
30
0
41
1
10
76.4770878087865
20
8.08793692709989
30
0
41
1
10
78.2540937350963
20
8.27580748560504
30
0
41
1
10
80.040070414426
20
8.37277902538909
30
0
0
SPLINE
5
1E1
100
AcDbEntity
8
1
62
256
6
ByLayer
370
18
48
1
60
0
100
AcDbSpline
70
4
71
3
72
22
73
18
40
0
40
0
40
0
40
0
40
0.16771840473165
40
0.16771840473165
40
0.335436809463301
40
0.335436809463301
40
0.503155214194951
40
0.503155214194951
40
0.545084815377863
40
0.545084815377863
40
0.587014416560776
40
0.587014416560776
40
0.670873618926601
40
0.670873618926601
40
0.838592023658251
40
0.838592023658251
40
1
40
1
40
1
40
1
41
1
10
36
20
-7.08800561290963
30
0
41
1
10
37.7004877604744
20
-7.46055047222882
30
0
41
1
10
39.3902466400004
20
-7.76112522401323
30
0
41
1
10
42.7620210619727
20
-8.20619966579602
30
0
41
1
10
44.4441412275348
20
-8.35067407464575
30
0
41
1
10
47.8139533042255
20
-8.47656801050854
30
0
41
1
10
49.5015102700963
20
-8.45795352284316
30
0
41
1
10
51.6229400704198
20
-8.33071003489795
30
0
41
1
10
52.0482015597732
20
-8.3000375453542
30
0
41
1
10
52.8969348692877
20
-8.22862346296094
30
0
41
1
10
53.3206865386054
20
-8.18787456542498
30
0
41
1
10
54.590417530901
20
-8.05081694295748
30
0
41
1
10
55.4348793592202
20
-7.93969976884392
30
0
41
1
10
57.9645640417169
20
-7.54968372363743
30
0
41
1
10
59.6460097923833
20
-7.21387389609188
30
0
41
1
10
62.9494632156809
20
-6.42329424119254
30
0
41
1
10
64.5714204741326
20
-5.9736775672412
30
0
41
1
10
66.2011766501753
20
-5.47130355689202
30
0
0
SPLINE
5
1E2
100
AcDbEntity
8
1
62
256
6
ByLayer
370
18
48
1
60
0
100
AcDbSpline
70
4
71
3
72
14
73
10
40
0
40
0
40
0
40
0
40
0.422030062717032
40
0.422030062717032
40
0.633045094075549
40
0.633045094075549
40
0.844060125434066
40
0.844060125434066
40
1
40
1
40
1
40
1
41
1
10
87.9937313275987
20
5.46013556761511
30
0
41
1
10
88.0091842053444
20
5.31853209568703
30
0
41
1
10
88.0483109477615
20
5.17752654210625
30
0
41
1
10
88.1493090235514
20
4.96932899058649
30
0
41
1
10
88.1900350854008
20
4.90110022047449
30
0
41
1
10
88.28467667951
20
4.77152012810245
30
0
41
1
10
88.3388111920358
20
4.70961274317605
30
0
41
1
10
88.4467859145907
20
4.60836850274691
30
0
41
1
10
88.4959574880041
20
4.56837053949803
30
0
41
1
10
88.5485189277978
20
4.53175195205478
30
0
0
SPLINE
5
1E3
100
AcDbEntity
8
1
62
256
6
ByLayer
370
18
48
1
60
0
100
AcDbSpline
70
4
71
3
72
10
73
6
40
0
40
0
40
0
40
0
40
0.0435199676896534
40
0.0435199676896534
40
1
40
1
40
1
40
1
41
1
10
88.0233124829044
20
5.88900681946654
30
0
41
1
10
88.0217965140287
20
5.88310492112632
30
0
41
1
10
88.0203262824104
20
5.87718708098191
30
0
41
1
10
87.9875896690624
20
5.74084015144982
30
0
41
1
10
87.978278449853
20
5.60173903954322
30
0
41
1
10
87.9937313275987
20
5.46013556761511
30
0
0
SPLINE
5
1E4
100
AcDbEntity
8
1
62
256
6
ByLayer
370
18
48
1
60
0
100
AcDbSpline
70
4
71
3
72
28
73
24
40
0
40
0
40
0
40
0
40
0.135845643240435
40
0.135845643240435
40
0.179053361078413
40
0.179053361078413
40
0.222261078916392
40
0.222261078916392
40
0.308676514592349
40
0.308676514592349
40
0.481507385944262
40
0.481507385944262
40
0.524715103782241
40
0.524715103782241
40
0.567922821620219
40
0.567922821620219
40
0.654338257296175
40
0.654338257296175
40
0.740753692972131
40
0.740753692972131
40
0.827169128648087
40
0.827169128648087
40
1
40
1
40
1
40
1
41
1
10
65.6247647293132
20
-5.28344072711366
30
0
41
1
10
64.2607563758426
20
-5.66035635816414
30
0
41
1
10
62.8978012444173
20
-6.0043998145467
30
0
41
1
10
61.0992950488052
20
-6.40888270873759
30
0
41
1
10
60.6651344198452
20
-6.50266600404794
30
0
41
1
10
59.7962955545958
20
-6.68207015146521
30
0
41
1
10
59.361399544703
20
-6.76773276266798
30
0
41
1
10
58.0579832436729
20
-7.0112337538134
30
0
41
1
10
57.1903711500709
20
-7.15545756527379
30
0
41
1
10
54.5888831980244
20
-7.53019636377798
30
0
41
1
10
52.8563673308617
20
-7.70383935936096
30
0
41
1
10
50.6846171803846
20
-7.81934318542702
30
0
41
1
10
50.2498954982949
20
-7.83732838431499
30
0
41
1
10
49.3814292458362
20
-7.8627590692133
30
0
41
1
10
48.9474610268327
20
-7.87021996430553
30
0
41
1
10
47.6460128864368
20
-7.87650382286256
30
0
41
1
10
46.7790004874489
20
-7.85908155137665
30
0
41
1
10
45.0442291097356
20
-7.78003907411238
30
0
41
1
10
44.1764397728031
20
-7.71879253475646
30
0
41
1
10
42.438257054478
20
-7.55667443995753
30
0
41
1
10
41.569621613128
20
-7.4559888832043
30
0
41
1
10
38.9653356305127
20
-7.10128111262171
30
0
41
1
10
37.2301084097814
20
-6.79489425611047
30
0
41
1
10
35.490212257628
20
-6.42352541394317
30
0
0
SPLINE
5
1E5
100
AcDbEntity
8
1
62
256
6
ByLayer
370
18
48
1
60
0
100
AcDbSpline
70
4
71
3
72
10
73
6
40
0
40
0
40
0
40
0
40
0.572022423412489
40
0.572022423412489
40
1
40
1
40
1
40
1
41
1
10
80.0400704143909
20
4.92999999999989
30
0
41
1
10
80.0400704143909
20
4.40640122440161
30
0
41
1
10
80.0130001654266
20
3.88300846256277
30
0
41
1
10
79.9219191254684
20
3.03733848141519
30
0
41
1
10
79.868950103356
20
2.69781930119151
30
0
41
1
10
79.8044259070978
20
2.39471373911258
30
0
0
SPLINE
5
1E6
100
AcDbEntity
8
1
62
256
6
ByLayer
370
18
48
1
60
0
100
AcDbSpline
70
4
71
3
72
8
73
4
40
0
40
0
40
0
40
0
40
1
40
1
40
1
40
1
41
1
10
76.5192398800387
20
4.66523622900243
30
0
41
1
10
76.2255615882722
20
4.59668857967395
30
0
41
1
10
75.9304258170444
20
4.53614997792917
30
0
41
1
10
75.6341465361843
20
4.48395953765987
30
0
0
SPLINE
5
1E7
100
AcDbEntity
8
1
62
256
6
ByLayer
370
18
48
1
60
0
100
AcDbSpline
70
4
71
3
72
26
73
22
40
0
40
0
40
0
40
0
40
0.0309254961534703
40
0.0309254961534703
40
0.111681704807348
40
0.111681704807348
40
0.192437913461226
40
0.192437913461226
40
0.353950330768981
40
0.353950330768981
40
0.434706539422858
40
0.434706539422858
40
0.515462748076735
40
0.515462748076735
40
0.67697516538449
40
0.67697516538449
40
0.757731374038367
40
0.757731374038367
40
0.838487582692245
40
0.838487582692245
40
1
40
1
40
1
40
1
41
1
10
81.3518722684695
20
1.75019984199872
30
0
41
1
10
81.361770537342
20
1.76541505219797
30
0
41
1
10
81.3714247706163
20
1.78139512473317
30
0
41
1
10
81.4054015214537
20
1.84184661497321
30
0
41
1
10
81.4282791201045
20
1.89077029498659
30
0
41
1
10
81.470395551311
20
1.99924052882804
30
0
41
1
10
81.4895080170346
20
2.05856567111323
30
0
41
1
10
81.5399681803477
20
2.24864027409296
30
0
41
1
10
81.564914475311
20
2.39235828543161
30
0
41
1
10
81.5877347526061
20
2.63254169296727
30
0
41
1
10
81.5928950666471
20
2.71716012498388
30
0
41
1
10
81.5977175638036
20
2.89249458451531
30
0
41
1
10
81.5974041077615
20
2.98294459125273
30
0
41
1
10
81.5878823919094
20
3.26208728308833
30
0
41
1
10
81.5702478369026
20
3.4585588201578
30
0
41
1
10
81.5229676419744
20
3.76723144077863
30
0
41
1
10
81.5036371524906
20
3.87256183532847
30
0
41
1
10
81.4578253730382
20
4.08328990891087
30
0
41
1
10
81.4312854022792
20
4.18919730447121
30
0
41
1
10
81.339203845109
20
4.50750032282943
30
0
41
1
10
81.2619743012602
20
4.72084205920197
30
0
41
1
10
81.1589467626131
20
4.92999999999989
30
0
0
SPLINE
5
1E8
100
AcDbEntity
8
1
62
256
6
ByLayer
370
18
48
1
60
0
100
AcDbSpline
70
4
71
3
72
14
73
10
40
0
40
0
40
0
40
0
40
0.309826645571038
40
0.309826645571038
40
0.619653291142076
40
0.619653291142076
40
0.929479936713113
40
0.929479936713113
40
1
40
1
40
1
40
1
41
1
10
90.7209017498996
20
2.60206493974533
30
0
41
1
10
90.7244412645252
20
2.60209765543925
30
0
41
1
10
90.7279728246314
20
2.60775453073919
30
0
41
1
10
90.7349104802245
20
2.630174900626
30
0
41
1
10
90.7382564487654
20
2.64684356324065
30
0
41
1
10
90.7443818102089
20
2.68989583093148
30
0
41
1
10
90.7472232464136
20
2.71682571459508
30
0
41
1
10
90.7500607031064
20
2.75464449960589
30
0
41
1
10
90.750562367147
20
2.76185902332409
30
0
41
1
10
90.7510345935372
20
2.7692776324206
30
0
0
SPLINE
5
1E9
100
AcDbEntity
8
1
62
256
6
ByLayer
370
18
48
1
60
0
100
AcDbSpline
70
4
71
3
72
18
73
14
40
0
40
0
40
0
40
0
40
0.0445855170198269
40
0.0445855170198269
40
0.203821264183195
40
0.203821264183195
40
0.363057011346562
40
0.363057011346562
40
0.681528505673262
40
0.681528505673262
40
0.840764252836631
40
0.840764252836631
40
1
40
1
40
1
40
1
41
1
10
73.6211713905825
20
5.63588766045299
30
0
41
1
10
73.630279849998
20
5.64756079622154
30
0
41
1
10
73.6396072182357
20
5.65908674948219
30
0
41
1
10
73.6832458843219
20
5.71110583438258
30
0
41
1
10
73.7204273802972
20
5.75010908644711
30
0
41
1
10
73.7984664876233
20
5.82205935279038
30
0
41
1
10
73.8394485583713
20
5.85522921840035
30
0
41
1
10
73.9684319173411
20
5.94612427323528
30
0
41
1
10
74.0637826551401
20
5.99547120832651
30
0
41
1
10
74.210230328489
20
6.04460883047909
30
0
41
1
10
74.2599640992025
20
6.05706280516333
30
0
41
1
10
74.3612345857982
20
6.07441935122353
30
0
41
1
10
74.412476950971
20
6.0792570943112
30
0
41
1
10
74.4634997786123
20
6.08162213771496
30
0
0
SPLINE
5
1EA
100
AcDbEntity
8
1
62
256
6
ByLayer
370
18
48
1
60
0
100
AcDbSpline
70
4
71
3
72
8
73
4
40
0
40
0
40
0
40
0
40
1
40
1
40
1
40
1
41
1
10
36
20
6.00691524742757
30
0
41
1
10
35.4707492410128
20
6.19775258197834
30
0
41
1
10
34.922929261465
20
6.37743294351876
30
0
41
1
10
34.359963532615
20
6.56703440158617
30
0
0
SPLINE
5
1EB
100
AcDbEntity
8
1
62
256
6
ByLayer
370
18
48
1
60
0
100
AcDbSpline
70
4
71
3
72
8
73
4
40
0
40
0
40
0
40
0
40
1
40
1
40
1
40
1
41
1
10
74.4634997786123
20
6.08162213771496
30
0
41
1
10
74.7416094450863
20
6.09451325846658
30
0
41
1
10
75.0196289506395
20
6.10159429261128
30
0
41
1
10
75.2977083948094
20
6.10235401805349
30
0
0
SPLINE
5
1EC
100
AcDbEntity
8
1
62
256
6
ByLayer
370
18
48
1
60
0
100
AcDbSpline
70
4
71
3
72
22
73
18
40
0
40
0
40
0
40
0
40
0.125
40
0.125
40
0.25
40
0.25
40
0.375
40
0.375
40
0.5
40
0.5
40
0.625
40
0.625
40
0.75
40
0.75
40
0.875
40
0.875
40
1
40
1
40
1
40
1
41
1
10
85.850213515097
20
2.45698955559325
30
0
41
1
10
85.855346580976
20
2.45698955559325
30
0
41
1
10
85.8501136032106
20
2.46309863733447
30
0
41
1
10
85.8245190984367
20
2.4857757634353
30
0
41
1
10
85.8050260740783
20
2.50177218146064
30
0
41
1
10
85.7590791232913
20
2.54172268972741
30
0
41
1
10
85.732710085271
20
2.56561847515278
30
0
41
1
10
85.6781493954798
20
2.61958242132957
30
0
41
1
10
85.649685609479
20
2.64984484660749
30
0
41
1
10
85.5920663283335
20
2.71762059588141
30
0
41
1
10
85.563061799284
20
2.75501291821951
30
0
41
1
10
85.5073660157523
20
2.83532984335326
30
0
41
1
10
85.4804250411925
20
2.87851296893299
30
0
41
1
10
85.4291689859367
20
2.972042779567
30
0
41
1
10
85.4049496823113
20
3.02242410619726
30
0
41
1
10
85.3621643978616
20
3.12626619984957
30
0
41
1
10
85.3432619314285
20
3.18028278636459
30
0
41
1
10
85.3270936283398
20
3.23669552505521
30
0
0
SPLINE
5
1ED
100
AcDbEntity
8
1
62
256
6
ByLayer
370
18
48
1
60
0
100
AcDbSpline
70
4
71
4
72
10
73
5
40
0
40
0
40
0
40
0
40
0
40
1
40
1
40
1
40
1
40
1
41
1
10
37.7132330011243
20
5.19667769950954
30
0
41
1
10
37.7132330011246
20
4.47581147181262
30
0
41
1
10
37.713233001125
20
3.75494524411568
30
0
41
1
10
37.7132330011256
20
3.03407901641862
30
0
41
1
10
37.7132330011264
20
2.31321278872147
30
0
0
SPLINE
5
1EE
100
AcDbEntity
8
1
62
256
6
ByLayer
370
18
48
1
60
0
100
AcDbSpline
70
4
71
3
72
8
73
4
40
0
40
0
40
0
40
0
40
1
40
1
40
1
40
1
41
1
10
37.7132330011237
20
2.31321278872224
30
0
41
1
10
36.6218432583437
20
3.71490278084124
30
0
41
1
10
35.5102950050656
20
5.13777761519566
30
0
41
1
10
34.3599635326419
20
6.56703440155277
30
0
0
SPLINE
5
1EF
100
AcDbEntity
8
1
62
256
6
ByLayer
370
18
48
1
60
0
100
AcDbSpline
70
4
71
3
72
14
73
10
40
0
40
0
40
0
40
0
40
0.25
40
0.25
40
0.5
40
0.5
40
0.75
40
0.75
40
1
40
1
40
1
40
1
41
1
10
6.92320508075687
20
-5.85988980456935
30
0
41
1
10
6.88563301332894
20
-5.85988980456935
30
0
41
1
10
6.85031272404197
20
-5.87477627667434
30
0
41
1
10
6.79136513419888
20
-5.9185420083206
30
0
41
1
10
6.76786471768483
20
-5.94612987812172
30
0
41
1
10
6.72774154010148
20
-6.00566371121201
30
0
41
1
10
6.71161954962216
20
-6.03712755983022
30
0
41
1
10
6.6841154605244
20
-6.10206728171735
30
0
41
1
10
6.67279157843186
20
-6.13567510453115
30
0
41
1
10
6.66339745962154
20
-6.16973001948568
30
0
0
SPLINE
5
1F0
100
AcDbEntity
8
1
62
256
6
ByLayer
370
18
48
1
60
0
100
AcDbSpline
70
4
71
3
72
14
73
10
40
0
40
0
40
0
40
0
40
0.25
40
0.25
40
0.5
40
0.5
40
0.75
40
0.75
40
1
40
1
40
1
40
1
41
1
10
9.0767949192431
20
-19.1222825906926
30
0
41
1
10
9.11436698667103
20
-19.1222825906926
30
0
41
1
10
9.14968727595803
20
-19.1177281115534
30
0
41
1
10
9.20863486580112
20
-19.1042242696216
30
0
41
1
10
9.23213528231517
20
-19.0956673725615
30
0
41
1
10
9.27225845989852
20
-19.0770274497583
30
0
41
1
10
9.28838045037784
20
-19.06709867989
30
0
41
1
10
9.3158845394756
20
-19.0464153092313
30
0
41
1
10
9.32720842156814
20
-19.0356185274185
30
0
41
1
10
9.33660254037844
20
-19.0245744101322
30
0
0
SPLINE
5
1F1
100
AcDbEntity
8
1
62
256
6
ByLayer
370
18
48
1
60
0
100
AcDbSpline
70
4
71
3
72
8
73
4
40
0
40
0
40
0
40
0
40
1
40
1
40
1
40
1
41
1
10
27.7564745296657
20
0.667360338476158
30
0
41
1
10
27.7564745296657
20
1.35058636732728
30
0
41
1
10
27.7564745296657
20
2.0338123961784
30
0
41
1
10
27.7564745296657
20
2.71703842502953
30
0
0
SPLINE
5
1F2
100
AcDbEntity
8
1
62
256
6
ByLayer
370
18
48
1
60
0
100
AcDbSpline
70
4
71
3
72
18
73
14
40
0
40
0
40
0
40
0
40
0.125
40
0.125
40
0.25
40
0.25
40
0.375
40
0.375
40
0.5
40
0.5
40
0.75
40
0.75
40
1
40
1
40
1
40
1
41
1
10
27.7564745296656
20
0.667360338476129
30
0
41
1
10
27.6913891729665
20
0.843868907753489
30
0
41
1
10
27.6359148729526
20
1.02257815970279
30
0
41
1
10
27.5375099433796
20
1.38287243942199
30
0
41
1
10
27.4946955390275
20
1.56448364314093
30
0
41
1
10
27.4185257750695
20
1.92986573807107
30
0
41
1
10
27.3851178078206
20
2.11422451232926
30
0
41
1
10
27.3262828572653
20
2.48164040537372
30
0
41
1
10
27.3008826125189
20
2.66437771350118
30
0
41
1
10
27.2340469740322
20
3.20996818940247
30
0
41
1
10
27.2018690583797
20
3.57022198797927
30
0
41
1
10
27.1532615843068
20
4.2841767888423
30
0
41
1
10
27.1369197652728
20
4.63785758502269
30
0
41
1
10
27.1255554167487
20
4.98813164464079
30
0
0
SPLINE
5
1F3
100
AcDbEntity
8
1
62
256
6
ByLayer
370
18
48
1
60
0
100
AcDbSpline
70
4
71
3
72
12
73
8
40
0
40
0
40
0
40
0
40
0.499999999999997
40
0.499999999999997
40
0.749999999999999
40
0.749999999999999
40
1
40
1
40
1
40
1
41
1
10
31.7564745296657
20
-3.62205006731199
30
0
41
1
10
31.8970135021106
20
-3.82852628761449
30
0
41
1
10
32.0510544534959
20
-4.04922392258018
30
0
41
1
10
32.2973660299156
20
-4.39733500182214
30
0
41
1
10
32.3820748968831
20
-4.51616178649292
30
0
41
1
10
32.5564748626966
20
-4.75831682889233
30
0
41
1
10
32.6461573486646
20
-4.88161422304796
30
0
41
1
10
32.7374181730623
20
-5.00535818232874
30
0
0
SPLINE
5
1F4
100
AcDbEntity
8
1
62
256
6
ByLayer
370
18
48
1
60
0
100
AcDbSpline
70
4
71
3
72
14
73
10
40
0
40
0
40
0
40
0
40
0.25
40
0.25
40
0.5
40
0.5
40
0.75
40
0.75
40
1
40
1
40
1
40
1
41
1
10
83.2698240173112
20
1.36527354308103
30
0
41
1
10
83.1735008611001
20
1.3568031316583
30
0
41
1
10
83.0713283492618
20
1.3541113180442
30
0
41
1
10
82.8586093576195
20
1.36015294229736
30
0
41
1
10
82.7480274774545
20
1.36889845830694
30
0
41
1
10
82.5202937670202
20
1.39837942408317
30
0
41
1
10
82.4026167515856
20
1.41927578726694
30
0
41
1
10
82.1665130736765
20
1.4728480548734
30
0
41
1
10
82.0476383768278
20
1.50553389353686
30
0
41
1
10
81.9283251726149
20
1.54428483577019
30
0
0
SPLINE
5
1F5
100
AcDbEntity
8
1
62
256
6
ByLayer
370
18
48
1
60
0
100
AcDbSpline
70
4
71
3
72
16
73
12
40
0
40
0
40
0
40
0
40
0.249999999999999
40
0.249999999999999
40
0.499999999999997
40
0.499999999999997
40
0.749999999999996
40
0.749999999999996
40
0.874999999999998
40
0.874999999999998
40
1
40
1
40
1
40
1
41
1
10
32.7374169865367
20
-5.00536349594472
30
0
41
1
10
32.8978100247493
20
-5.18280322254779
30
0
41
1
10
33.0726365782143
20
-5.34655203421971
30
0
41
1
10
33.4518823458441
20
-5.645647073714
30
0
41
1
10
33.6521564062455
20
-5.77780894699811
30
0
41
1
10
34.0741243426797
20
-6.00963733692495
30
0
41
1
10
34.2958091619122
20
-6.1092978952249
30
0
41
1
10
34.6454006295196
20
-6.23401183117792
30
0
41
1
10
34.7646068498121
20
-6.27132449255154
30
0
41
1
10
35.0054558065488
20
-6.3365673796541
30
0
41
1
10
35.1274948696043
20
-6.36464636428659
30
0
41
1
10
35.2511603290328
20
-6.38819183281277
30
0
0
SPLINE
5
1F6
100
AcDbEntity
8
1
62
256
6
ByLayer
370
18
48
1
60
0
100
AcDbSpline
70
4
71
3
72
8
73
4
40
0
40
0
40
0
40
0
40
1
40
1
40
1
40
1
41
1
10
84.3907120859012
20
2.43278689232275
30
0
41
1
10
84.5748803704824
20
2.42229536012613
30
0
41
1
10
84.758437159142
20
2.42032868849631
30
0
41
1
10
84.9413987977151
20
2.42672233597705
30
0
0
SPLINE
5
1F7
100
AcDbEntity
8
1
62
256
6
ByLayer
370
18
48
1
60
0
100
AcDbSpline
70
4
71
3
72
14
73
10
40
0
40
0
40
0
40
0
40
0.25
40
0.25
40
0.5
40
0.5
40
0.75
40
0.75
40
1
40
1
40
1
40
1
41
1
10
9.33660254037846
20
19.0245744101322
30
0
41
1
10
9.32721186043483
20
19.0356144845436
30
0
41
1
10
9.31597445228968
20
19.0463346141653
30
0
41
1
10
9.28852371889985
20
19.0670039094876
30
0
41
1
10
9.2722622465561
20
19.0770249518318
30
0
41
1
10
9.23214899512476
20
19.0956617404786
30
0
41
1
10
9.20824291947474
20
19.1043106800553
30
0
41
1
10
9.1501693661348
20
19.1176210455321
30
0
41
1
10
9.11431735240404
20
19.1222825906925
30
0
41
1
10
9.07679491924316
20
19.1222825906925
30
0
0
SPLINE
5
1F8
100
AcDbEntity
8
1
62
256
6
ByLayer
370
18
48
1
60
0
100
AcDbSpline
70
4
71
3
72
22
73
18
40
0
40
0
40
0
40
0
40
0.124999999999992
40
0.124999999999992
40
0.249999999999984
40
0.249999999999984
40
0.312499999999981
40
0.312499999999981
40
0.374999999999977
40
0.374999999999977
40
0.499999999999979
40
0.499999999999979
40
0.62499999999998
40
0.62499999999998
40
0.749999999999981
40
0.749999999999981
40
1
40
1
40
1
40
1
41
1
10
82.4460221385985
20
3.80442683437209
30
0
41
1
10
82.4006755921394
20
3.78598023581367
30
0
41
1
10
82.3569992420336
20
3.76384599788935
30
0
41
1
10
82.275931906932
20
3.70858306477587
30
0
41
1
10
82.2398375579509
20
3.6761900318007
30
0
41
1
10
82.1966955108926
20
3.61927473356076
30
0
41
1
10
82.1845927664152
20
3.59949139659466
30
0
41
1
10
82.1649573909224
20
3.55832659132827
30
0
41
1
10
82.1574701843517
20
3.5368605754513
30
0
41
1
10
82.1424326333742
20
3.47318027168131
30
0
41
1
10
82.1418900883057
20
3.4303758664791
30
0
41
1
10
82.1536144280582
20
3.35010891501068
30
0
41
1
10
82.1658854932652
20
3.31148433418014
30
0
41
1
10
82.1978626540682
20
3.23944097969826
30
0
41
1
10
82.2175918669721
20
3.20570650317157
30
0
41
1
10
82.284653287716
20
3.10930670564108
30
0
41
1
10
82.3395847571066
20
3.05174622087128
30
0
41
1
10
82.3996720431189
20
2.99932675047427
30
0
0
SPLINE
5
1F9
100
AcDbEntity
8
1
62
256
6
ByLayer
370
18
48
1
60
0
100
AcDbSpline
70
4
71
3
72
22
73
18
40
0
40
0
40
0
40
0
40
0.125
40
0.125
40
0.25
40
0.25
40
0.375
40
0.375
40
0.5
40
0.5
40
0.625
40
0.625
40
0.75
40
0.75
40
0.875
40
0.875
40
1
40
1
40
1
40
1
41
1
10
35.4902122576281
20
-6.42352541394325
30
0
41
1
10
35.5823954292114
20
-6.34512339207723
30
0
41
1
10
35.6875888145201
20
-6.19777273185434
30
0
41
1
10
35.9151390138229
20
-5.77758066208196
30
0
41
1
10
36.0374683616956
20
-5.5047899712151
30
0
41
1
10
36.2889357533781
20
-4.85678751649564
30
0
41
1
10
36.4180434441762
20
-4.48165396885227
30
0
41
1
10
36.6721362970243
20
-3.66070746394084
30
0
41
1
10
36.7970907891599
20
-3.21499359784622
30
0
41
1
10
37.0322950742964
20
-2.29061254139745
30
0
41
1
10
37.1425164773006
20
-1.81205692713632
30
0
41
1
10
37.3389174599121
20
-0.862508616002316
30
0
41
1
10
37.42507333322
20
-0.391630532999898
30
0
41
1
10
37.5660417521369
20
0.502686825798094
30
0
41
1
10
37.6208372823546
20
0.926018154296258
30
0
41
1
10
37.6944373487447
20
1.68938275565119
30
0
41
1
10
37.7132330011264
20
2.02932388767581
30
0
41
1
10
37.7132330011264
20
2.31321278872147
30
0
0
SPLINE
5
1FA
100
AcDbEntity
8
1
62
256
6
ByLayer
370
18
48
1
60
0
100
AcDbSpline
70
4
71
3
72
8
73
4
40
0
40
0
40
0
40
0
40
1
40
1
40
1
40
1
41
1
10
80.0400704143909
20
8.37277902538781
30
0
41
1
10
80.3718142863457
20
8.38493958441452
30
0
41
1
10
80.6849250566923
20
8.40135112019505
30
0
41
1
10
80.9802155518501
20
8.4164000367482
30
0
0
SPLINE
5
1FB
100
AcDbEntity
8
1
62
256
6
ByLayer
370
18
48
1
60
0
100
AcDbSpline
70
4
71
3
72
8
73
4
40
0
40
0
40
0
40
0
40
1
40
1
40
1
40
1
41
1
10
35.2511599138988
20
-6.95063519370251
30
0
41
1
10
35.2511599138988
20
-6.76315602062854
30
0
41
1
10
35.2511599138988
20
-6.57567684755457
30
0
41
1
10
35.2511599138988
20
-6.38819767448061
30
0
0
SPLINE
5
1FC
100
AcDbEntity
8
1
62
256
6
ByLayer
370
18
48
1
60
0
100
AcDbSpline
70
4
71
3
72
36
73
32
40
0
40
0
40
0
40
0
40
0.125
40
0.125
40
0.15625
40
0.15625
40
0.1875
40
0.1875
40
0.25
40
0.25
40
0.28125
40
0.28125
40
0.3125
40
0.3125
40
0.375
40
0.375
40
0.499999999999999
40
0.499999999999999
40
0.562499999999999
40
0.562499999999999
40
0.624999999999999
40
0.624999999999999
40
0.749999999999998
40
0.749999999999998
40
0.874999999999998
40
0.874999999999998
40
0.906249999999998
40
0.906249999999998
40
0.937499999999999
40
0.937499999999999
40
1
40
1
40
1
40
1
41
1
10
27.7564745296656
20
0.667360338476215
30
0
41
1
10
27.884971910891
20
0.246281306553584
30
0
41
1
10
28.0210911717718
20
-0.162142296142122
30
0
41
1
10
28.2058405734691
20
-0.650575733581775
30
0
41
1
10
28.2435389158441
20
-0.747134521039044
30
0
41
1
10
28.3206472826863
20
-0.937730611290647
30
0
41
1
10
28.3602327979618
20
-1.03215119771022
30
0
41
1
10
28.479919531461
20
-1.30660674136934
30
0
41
1
10
28.561295078514
20
-1.47876658341173
30
0
41
1
10
28.6861791895843
20
-1.71988432922228
30
0
41
1
10
28.7282770116678
20
-1.79740797334995
30
0
41
1
10
28.8134644950536
20
-1.94675338409917
30
0
41
1
10
28.8567348396188
20
-2.01885242002967
30
0
41
1
10
28.9867005907898
20
-2.224755593049
30
0
41
1
10
29.0729737934431
20
-2.34732421486817
30
0
41
1
10
29.3315446223746
20
-2.68529870161669
30
0
41
1
10
29.5037261902321
20
-2.87188371947653
30
0
41
1
10
29.76325919095
20
-3.15700434443519
30
0
41
1
10
29.84994724838
20
-3.25276097665972
30
0
41
1
10
30.0236205844695
20
-3.45158348004927
30
0
41
1
10
30.1106019969466
20
-3.55462179574323
30
0
41
1
10
30.3717397023991
20
-3.87737748170599
30
0
41
1
10
30.5460590178981
20
-4.11120901518305
30
0
41
1
10
30.8939704820679
20
-4.60336769894599
30
0
41
1
10
31.067045880458
20
-4.86016069018669
30
0
41
1
10
31.2825998604168
20
-5.18324382580971
30
0
41
1
10
31.3256733595078
20
-5.24797570863336
30
0
41
1
10
31.4117589717897
20
-5.37743521413139
30
0
41
1
10
31.4547504149665
20
-5.44242025580377
30
0
41
1
10
31.5837953380621
20
-5.63528574627472
30
0
41
1
10
31.6700864370882
20
-5.75909085836483
30
0
41
1
10
31.7564745296657
20
-5.8806197673841
30
0
0
SPLINE
5
1FD
100
AcDbEntity
8
1
62
256
6
ByLayer
370
18
48
1
60
0
100
AcDbSpline
70
4
71
3
72
10
73
6
40
0
40
0
40
0
40
0
40
0.5
40
0.5
40
1
40
1
40
1
40
1
41
1
10
84.7673304626641
20
1.64024593689464
30
0
41
1
10
84.5166308220648
20
1.56817899912033
30
0
41
1
10
84.2643993923401
20
1.50989854017448
30
0
41
1
10
83.7630931541184
20
1.41918132686274
30
0
41
1
10
83.5140336091682
20
1.38674870853214
30
0
41
1
10
83.2698240173114
20
1.36527354308106
30
0
0
SPLINE
5
1FE
100
AcDbEntity
8
1
62
256
6
ByLayer
370
18
48
1
60
0
100
AcDbSpline
70
4
71
3
72
12
73
8
40
0
40
0
40
0
40
0
40
0.499999999999999
40
0.499999999999999
40
0.75
40
0.75
40
1
40
1
40
1
40
1
41
1
10
27.4681774788826
20
3.42972631350162
30
0
41
1
10
27.3824157810548
20
3.69557932913313
30
0
41
1
10
27.3103159929381
20
3.96060840253665
30
0
41
1
10
27.2236518991517
20
4.35254218031545
30
0
41
1
10
27.1983722490253
20
4.48223321509445
30
0
41
1
10
27.1556769714052
20
4.73869760352258
30
0
41
1
10
27.1382633680244
20
4.86582808645986
30
0
41
1
10
27.1255554167499
20
4.9881316446409
30
0
0
SPLINE
5
1FF
100
AcDbEntity
8
1
62
256
6
ByLayer
370
18
48
1
60
0
100
AcDbSpline
70
4
71
3
72
14
73
10
40
0
40
0
40
0
40
0
40
0.5
40
0.5
40
0.625000000000003
40
0.625000000000003
40
0.750000000000007
40
0.750000000000007
40
1
40
1
40
1
40
1
41
1
10
84.4655142344514
20
0.601935128816365
30
0
41
1
10
83.9911668195217
20
0.57381905437947
30
0
41
1
10
83.5230530686385
20
0.604197421957736
30
0
41
1
10
82.9456586707751
20
0.714677877857923
30
0
41
1
10
82.8305735883825
20
0.740456486797115
30
0
41
1
10
82.6012166385734
20
0.799601474308531
30
0
41
1
10
82.4869914226602
20
0.832984213185739
30
0
41
1
10
82.1493584270763
20
0.943588729969719
30
0
41
1
10
81.9297036674785
20
1.0315277269878
30
0
41
1
10
81.7156584005259
20
1.1339729408603
30
0
0
SPLINE
5
200
100
AcDbEntity
8
1
62
256
6
ByLayer
370
18
48
1
60
0
100
AcDbSpline
70
4
71
3
72
14
73
10
40
0
40
0
40
0
40
0
40
0.25
40
0.25
40
0.5
40
0.5
40
0.75
40
0.75
40
1
40
1
40
1
40
1
41
1
10
85.4898718298616
20
8.44993928195711
30
0
41
1
10
85.4940359050893
20
8.4501199659671
30
0
41
1
10
85.5037519425863
20
8.44989255380793
30
0
41
1
10
85.5338871549976
20
8.44876154561126
30
0
41
1
10
85.5546039494618
20
8.44784294938771
30
0
41
1
10
85.6048853050803
20
8.44562209990553
30
0
41
1
10
85.6348940844572
20
8.44430234028857
30
0
41
1
10
85.703121099188
20
8.4415872087788
30
0
41
1
10
85.7407266651146
20
8.44021603894873
30
0
41
1
10
85.7818723058822
20
8.43896931425508
30
0
0
SPLINE
5
201
100
AcDbEntity
8
1
62
256
6
ByLayer
370
18
48
1
60
0
100
AcDbSpline
70
4
71
3
72
8
73
4
40
0
40
0
40
0
40
0
40
1
40
1
40
1
40
1
41
1
10
35.4902122576281
20
-6.42352541394325
30
0
41
1
10
35.4105795393054
20
-6.41425880372111
30
0
41
1
10
35.3309060797059
20
-6.40249009305671
30
0
41
1
10
35.2511599140941
20
-6.38819175381079
30
0
0
SPLINE
5
202
100
AcDbEntity
8
1
62
256
6
ByLayer
370
18
48
1
60
0
100
AcDbSpline
70
4
71
3
72
14
73
10
40
0
40
0
40
0
40
0
40
0.25
40
0.25
40
0.5
40
0.5
40
0.75
40
0.75
40
1
40
1
40
1
40
1
41
1
10
87.3907493914887
20
2.4853309431312
30
0
41
1
10
87.3949270962844
20
2.4853309431312
30
0
41
1
10
87.4082849987989
20
2.49143468797465
30
0
41
1
10
87.4468841600262
20
2.51311738460598
30
0
41
1
10
87.4715059076214
20
2.52841462406317
30
0
41
1
10
87.5246836887162
20
2.56515205515853
30
0
41
1
10
87.5528948543691
20
2.58631945302355
30
0
41
1
10
87.6103580093656
20
2.63379127059505
30
0
41
1
10
87.6396501057739
20
2.66011091999766
30
0
41
1
10
87.6689665583713
20
2.68925493734045
30
0
0
SPLINE
5
203
100
AcDbEntity
8
1
62
256
6
ByLayer
370
18
48
1
60
0
100
AcDbSpline
70
4
71
3
72
36
73
32
40
0
40
0
40
0
40
0
40
0.0625000000000081
40
0.0625000000000081
40
0.125000000000016
40
0.125000000000016
40
0.15625000000002
40
0.15625000000002
40
0.187500000000025
40
0.187500000000025
40
0.218750000000029
40
0.218750000000029
40
0.250000000000033
40
0.250000000000033
40
0.281250000000037
40
0.281250000000037
40
0.312500000000042
40
0.312500000000042
40
0.343750000000046
40
0.343750000000046
40
0.37500000000005
40
0.37500000000005
40
0.437500000000047
40
0.437500000000047
40
0.500000000000043
40
0.500000000000043
40
0.625000000000036
40
0.625000000000036
40
0.750000000000029
40
0.750000000000029
40
1
40
1
40
1
40
1
41
1
10
77.7463510194646
20
5.86986321657855
30
0
41
1
10
77.7988790468725
20
5.85499565442777
30
0
41
1
10
77.8508316246121
20
5.83871202887886
30
0
41
1
10
77.9529800328936
20
5.80187548495488
30
0
41
1
10
78.0032086187052
20
5.7813991042386
30
0
41
1
10
78.0762060940294
20
5.74506032122994
30
0
41
1
10
78.1001417836078
20
5.73199616070795
30
0
41
1
10
78.146788750378
20
5.70295531889721
30
0
41
1
10
78.1697485651332
20
5.68682812389787
30
0
41
1
10
78.2123671647517
20
5.65038439719251
30
0
41
1
10
78.2318516651937
20
5.63036833276342
30
0
41
1
10
78.2639871882084
20
5.58365566148839
30
0
41
1
10
78.2762832157985
20
5.55655300870242
30
0
41
1
10
78.2849344718342
20
5.49908897673976
30
0
41
1
10
78.2810506230429
20
5.46927850673404
30
0
41
1
10
78.2611895009403
20
5.41418493969556
30
0
41
1
10
78.2458695183876
20
5.38899593643478
30
0
41
1
10
78.2105516675383
20
5.34290629326082
30
0
41
1
10
78.190358320983
20
5.32180023051325
30
0
41
1
10
78.1482243330527
20
5.28293630126885
30
0
41
1
10
78.1260470354444
20
5.26496414982375
30
0
41
1
10
78.0573587978656
20
5.21387258052013
30
0
41
1
10
78.0085061141136
20
5.18341259037348
30
0
41
1
10
77.9093769833935
20
5.12742619935844
30
0
41
1
10
77.8588794149617
20
5.10183436171724
30
0
41
1
10
77.7056118981561
20
5.02957861777563
30
0
41
1
10
77.6010965778994
20
4.98735759479663
30
0
41
1
10
77.3894834229548
20
4.90938344047339
30
0
41
1
10
77.282332758296
20
4.87376949254013
30
0
41
1
10
76.9581071838687
20
4.77383313555902
30
0
41
1
10
76.7394006389181
20
4.71662410110136
30
0
41
1
10
76.5192398800387
20
4.6652362290024
30
0
0
SPLINE
5
204
100
AcDbEntity
8
1
62
256
6
ByLayer
370
18
48
1
60
0
100
AcDbSpline
70
4
71
3
72
8
73
4
40
0
40
0
40
0
40
0
40
1
40
1
40
1
40
1
41
1
10
36
20
-7.08800561290963
30
0
41
1
10
35.750385759563
20
-7.03331983142436
30
0
41
1
10
35.500633183745
20
-6.98765302371092
30
0
41
1
10
35.2511599140942
20
-6.95063519372314
30
0
0
SPLINE
5
205
100
AcDbEntity
8
1
62
256
6
ByLayer
370
18
48
1
60
0
100
AcDbSpline
70
4
71
3
72
12
73
8
40
0
40
0
40
0
40
0
40
0.500000000000011
40
0.500000000000011
40
0.750000000000005
40
0.750000000000005
40
1
40
1
40
1
40
1
41
1
10
81.1589467626642
20
4.92999999999989
30
0
41
1
10
81.1110627774151
20
5.02721008463885
30
0
41
1
10
81.0675651537891
20
5.12708939236489
30
0
41
1
10
81.0181506360222
20
5.2853336450348
30
0
41
1
10
81.0043594229325
20
5.33994142985787
30
0
41
1
10
80.9854241800238
20
5.45025312277454
30
0
41
1
10
80.9802155518501
20
5.50611011840269
30
0
41
1
10
80.9802155518501
20
5.56281810128675
30
0
0
SPLINE
5
206
100
AcDbEntity
8
1
62
256
6
ByLayer
370
18
48
1
60
0
100
AcDbSpline
70
4
71
3
72
8
73
4
40
0
40
0
40
0
40
0
40
1
40
1
40
1
40
1
41
1
10
27
20
9.51147645187231
30
0
41
1
10
26.7754015992292
20
9.19399552525141
30
0
41
1
10
26.615040620487
20
8.84750278599375
30
0
41
1
10
26.5157853790299
20
8.46899146007519
30
0
0
SPLINE
5
207
100
AcDbEntity
8
1
62
256
6
ByLayer
370
18
48
1
60
0
100
AcDbSpline
70
4
71
3
72
8
73
4
40
0
40
0
40
0
40
0
40
1
40
1
40
1
40
1
41
1
10
28.1078188259685
20
2.05019732432257
30
0
41
1
10
27.9868870093862
20
2.25202657784485
30
0
41
1
10
27.8699458055651
20
2.47424777150701
30
0
41
1
10
27.7564745296655
20
2.71703842502964
30
0
0
SPLINE
5
208
100
AcDbEntity
8
1
62
256
6
ByLayer
370
18
48
1
60
0
100
AcDbSpline
70
4
71
3
72
14
73
10
40
0
40
0
40
0
40
0
40
0.25
40
0.25
40
0.5
40
0.5
40
0.75
40
0.75
40
1
40
1
40
1
40
1
41
1
10
6.66339745962156
20
6.16973001948568
30
0
41
1
10
6.6727881395652
20
6.13568757087461
30
0
41
1
10
6.68402554771038
20
6.10231901184946
30
0
41
1
10
6.71147628110018
20
6.03742672607427
30
0
41
1
10
6.72773775344396
20
6.00567161829605
30
0
41
1
10
6.7678510048753
20
5.94614793734939
30
0
41
1
10
6.79175708052529
20
5.91826181931597
30
0
41
1
10
6.84983063386525
20
5.87512340989323
30
0
41
1
10
6.88568264759601
20
5.85988980456932
30
0
41
1
10
6.9232050807569
20
5.85988980456932
30
0
0
SPLINE
5
209
100
AcDbEntity
8
1
62
256
6
ByLayer
370
18
48
1
60
0
100
AcDbSpline
70
4
71
3
72
8
73
4
40
0
40
0
40
0
40
0
40
1
40
1
40
1
40
1
41
1
10
81.9283251726149
20
1.54428483577021
30
0
41
1
10
81.8998592589734
20
1.55353009058021
30
0
41
1
10
81.8714746184886
20
1.5629865274968
30
0
41
1
10
81.8431745857179
20
1.5726552280054
30
0
0
SPLINE
5
20A
100
AcDbEntity
8
1
62
256
6
ByLayer
370
18
48
1
60
0
100
AcDbSpline
70
4
71
3
72
8
73
4
40
0
40
0
40
0
40
0
40
1
40
1
40
1
40
1
41
1
10
27
20
5.22532026194125
30
0
41
1
10
27.0404761643197
20
5.14590287504129
30
0
41
1
10
27.0823987195914
20
5.06689655894797
30
0
41
1
10
27.1255554167499
20
4.9881316446409
30
0
0
SPLINE
5
20B
100
AcDbEntity
8
1
62
256
6
ByLayer
370
18
48
1
60
0
100
AcDbSpline
70
4
71
3
72
18
73
14
40
0
40
0
40
0
40
0
40
0.499999999999992
40
0.499999999999992
40
0.624999999999993
40
0.624999999999993
40
0.749999999999993
40
0.749999999999993
40
0.874999999999994
40
0.874999999999994
40
0.937499999999997
40
0.937499999999997
40
1
40
1
40
1
40
1
41
1
10
34.359963532615
20
6.56703440158617
30
0
41
1
10
33.7998301178677
20
6.75463390097559
30
0
41
1
10
33.2512079754987
20
6.94144749085007
30
0
41
1
10
32.5887405716115
20
7.20793531835218
30
0
41
1
10
32.4573952984583
20
7.26282450704136
30
0
41
1
10
32.1971840874166
20
7.376479259413
30
0
41
1
10
32.0680222320541
20
7.43538793718622
30
0
41
1
10
31.8140103652344
20
7.55697434490455
30
0
41
1
10
31.6893675717102
20
7.61978525280477
30
0
41
1
10
31.5053060688243
20
7.71660786341292
30
0
41
1
10
31.4436823157025
20
7.74832776011371
30
0
41
1
10
31.3234556086517
20
7.81537147850304
30
0
41
1
10
31.2645229428771
20
7.85027437607351
30
0
41
1
10
31.2067303857538
20
7.88656536576627
30
0
0
SPLINE
5
20C
100
AcDbEntity
8
1
62
256
6
ByLayer
370
18
48
1
60
0
100
AcDbSpline
70
4
71
3
72
8
73
4
40
0
40
0
40
0
40
0
40
1
40
1
40
1
40
1
41
1
10
82.9064140568707
20
2.72484771375491
30
0
41
1
10
83.2203023993
20
2.61677291165247
30
0
41
1
10
83.5482481950385
20
2.5354155632142
30
0
41
1
10
83.8957587523452
20
2.48404801625389
30
0
0
SPLINE
5
20D
100
AcDbEntity
8
1
62
256
6
ByLayer
370
18
48
1
60
0
100
AcDbSpline
70
4
71
3
72
14
73
10
40
0
40
0
40
0
40
0
40
0.25
40
0.25
40
0.5
40
0.5
40
0.75
40
0.75
40
1
40
1
40
1
40
1
41
1
10
6.66339745962154
20
-19.0245744101322
30
0
41
1
10
6.67278813956517
20
-19.0356144845436
30
0
41
1
10
6.68402554771035
20
-19.0463346141653
30
0
41
1
10
6.71147628110015
20
-19.0670039094876
30
0
41
1
10
6.72773775344393
20
-19.0770249518318
30
0
41
1
10
6.76785100487527
20
-19.0956617404786
30
0
41
1
10
6.79175708052526
20
-19.1043106800553
30
0
41
1
10
6.84983063386522
20
-19.1176210455322
30
0
41
1
10
6.88568264759598
20
-19.1222825906926
30
0
41
1
10
6.92320508075687
20
-19.1222825906926
30
0
0
SPLINE
5
20E
100
AcDbEntity
8
1
62
256
6
ByLayer
370
18
48
1
60
0
100
AcDbSpline
70
4
71
3
72
10
73
6
40
0
40
0
40
0
40
0
40
0.5
40
0.5
40
1
40
1
40
1
40
1
41
1
10
85.6455017694169
20
5.70780285120679
30
0
41
1
10
85.6277715510323
20
5.69215433889963
30
0
41
1
10
85.6128431131526
20
5.67898208737259
30
0
41
1
10
85.5902557448582
20
5.66084067143569
30
0
41
1
10
85.5826014615839
20
5.65588546146307
30
0
41
1
10
85.5789653357742
20
5.65588546146307
30
0
0
SPLINE
5
20F
100
AcDbEntity
8
1
62
256
6
ByLayer
370
18
48
1
60
0
100
AcDbSpline
70
4
71
2
72
6
73
3
40
0
40
0
40
0
40
1
40
1
40
1
41
1
10
31.7564745296657
20
-5.88061976738408
30
0
41
1
10
31.7564745296657
20
-4.75133491734803
30
0
41
1
10
31.7564745296657
20
-3.62205006731199
30
0
0
SPLINE
5
210
100
AcDbEntity
8
1
62
256
6
ByLayer
370
18
48
1
60
0
100
AcDbSpline
70
4
71
3
72
8
73
4
40
0
40
0
40
0
40
0
40
1
40
1
40
1
40
1
41
1
10
36
20
6.00691524742754
30
0
41
1
10
36.6041285471504
20
5.7890784664566
30
0
41
1
10
37.1709258814608
20
5.51811450375754
30
0
41
1
10
37.7132330011238
20
5.19667769950939
30
0
0
SPLINE
5
211
100
AcDbEntity
8
1
62
256
6
ByLayer
370
18
48
1
60
0
100
AcDbSpline
70
4
71
3
72
12
73
8
40
0
40
0
40
0
40
0
40
0.5
40
0.5
40
0.75
40
0.75
40
1
40
1
40
1
40
1
41
1
10
28.1078188323881
20
2.0501973184189
30
0
41
1
10
28.7208765339634
20
1.07434721256234
30
0
41
1
10
29.3333291995397
20
0.107864246162364
30
0
41
1
10
30.2465458257062
20
-1.31617635363844
30
0
41
1
10
30.5500497869218
20
-1.78647596573711
30
0
41
1
10
31.1548298273823
20
-2.71473072361061
30
0
41
1
10
31.4561182467495
20
-3.17278023722119
30
0
41
1
10
31.7564745296657
20
-3.62205006731199
30
0
0
SPLINE
5
212
100
AcDbEntity
8
1
62
256
6
ByLayer
370
18
48
1
60
0
100
AcDbSpline
70
4
71
3
72
12
73
8
40
0
40
0
40
0
40
0
40
0.250000000000004
40
0.250000000000004
40
0.500000000000008
40
0.500000000000008
40
1
40
1
40
1
40
1
41
1
10
77.7463510194646
20
5.86986321657864
30
0
41
1
10
77.5483507373959
20
5.92590532675862
30
0
41
1
10
77.3471287741768
20
5.96542138898263
30
0
41
1
10
76.9411715405202
20
6.02643153022728
30
0
41
1
10
76.7360627622807
20
6.04772125114764
30
0
41
1
10
76.1199206563678
20
6.09447405100551
30
0
41
1
10
75.7088786296979
20
6.10347735347105
30
0
41
1
10
75.2977083948094
20
6.10235401805352
30
0
0
SPLINE
5
213
100
AcDbEntity
8
1
62
256
6
ByLayer
370
18
48
1
60
0
100
AcDbSpline
70
4
71
3
72
8
73
4
40
0
40
0
40
0
40
0
40
1
40
1
40
1
40
1
41
1
10
80.0400704144372
20
8.37277902538909
30
0
41
1
10
80.0400704144372
20
7.22518601692602
30
0
41
1
10
80.0400704144372
20
6.07759300846297
30
0
41
1
10
80.0400704144372
20
4.92999999999989
30
0
0
SPLINE
5
214
100
AcDbEntity
8
1
62
256
6
ByLayer
370
18
48
1
60
0
100
AcDbSpline
70
4
71
3
72
10
73
6
40
0
40
0
40
0
40
0
40
0.5
40
0.5
40
1
40
1
40
1
40
1
41
1
10
82.3996720431229
20
2.99932675047037
30
0
41
1
10
82.4696252345419
20
2.93830037550703
30
0
41
1
10
82.5484111022496
20
2.88664976248182
30
0
41
1
10
82.7192609938226
20
2.79614527193598
30
0
41
1
10
82.8113554958147
20
2.75757729872376
30
0
41
1
10
82.9064140568707
20
2.72484771375488
30
0
0
SPLINE
5
215
100
AcDbEntity
8
1
62
256
6
ByLayer
370
18
48
1
60
0
100
AcDbSpline
70
4
71
3
72
34
73
30
40
0
40
0
40
0
40
0
40
0.125000000000005
40
0.125000000000005
40
0.250000000000011
40
0.250000000000011
40
0.312500000000013
40
0.312500000000013
40
0.375000000000016
40
0.375000000000016
40
0.437500000000019
40
0.437500000000019
40
0.468750000000015
40
0.468750000000015
40
0.500000000000011
40
0.500000000000011
40
0.531250000000007
40
0.531250000000007
40
0.562500000000003
40
0.562500000000003
40
0.625000000000007
40
0.625000000000007
40
0.687500000000012
40
0.687500000000012
40
0.750000000000017
40
0.750000000000017
40
0.875000000000008
40
0.875000000000008
40
1
40
1
40
1
40
1
41
1
10
90.6549661921318
20
-5.58376835863993
30
0
41
1
10
90.5597929510836
20
-5.59799277295605
30
0
41
1
10
90.4648840592159
20
-5.61365003865828
30
0
41
1
10
90.2768999942829
20
-5.64929806520317
30
0
41
1
10
90.1837008394843
20
-5.6691877820372
30
0
41
1
10
90.0462882462493
20
-5.70518828654187
30
0
41
1
10
90.0009627316998
20
-5.7182203201753
30
0
41
1
10
89.9125343516566
20
-5.74744369726184
30
0
41
1
10
89.8691790056715
20
-5.76361280957207
30
0
41
1
10
89.7871245166786
20
-5.80202531549125
30
0
41
1
10
89.7479792076581
20
-5.82409254957958
30
0
41
1
10
89.7043741287051
20
-5.8661662511262
30
0
41
1
10
89.6925588982119
20
-5.88188496874955
30
0
41
1
10
89.6805598029006
20
-5.91605523820496
30
0
41
1
10
89.6809796713343
20
-5.93385524834994
30
0
41
1
10
89.6934099169368
20
-5.96732686836148
30
0
41
1
10
89.7050245920331
20
-5.9829024617417
30
0
41
1
10
89.7330018789324
20
-6.01081272641173
30
0
41
1
10
89.7496945720784
20
-6.02355886175906
30
0
41
1
10
89.8025531599973
20
-6.05832759584288
30
0
41
1
10
89.8419378200924
20
-6.07759860267223
30
0
41
1
10
89.9242446747958
20
-6.11280352310101
30
0
41
1
10
89.967016439492
20
-6.12845060331856
30
0
41
1
10
90.0534208021815
20
-6.15722413972179
30
0
41
1
10
90.0972745868156
20
-6.17039298587932
30
0
41
1
10
90.2301200358474
20
-6.20750140077567
30
0
41
1
10
90.3203714457938
20
-6.22908845678239
30
0
41
1
10
90.5027511655571
20
-6.26876866354419
30
0
41
1
10
90.594997444064
20
-6.28681329793977
30
0
41
1
10
90.6876722467057
20
-6.30360966128183
30
0
0
SPLINE
5
216
100
AcDbEntity
8
1
62
256
6
ByLayer
370
18
48
1
60
0
100
AcDbSpline
70
4
71
3
72
10
73
6
40
0
40
0
40
0
40
0
40
0.5
40
0.5
40
1
40
1
40
1
40
1
41
1
10
84.3907120859012
20
2.43278689232275
30
0
41
1
10
84.4946187642107
20
2.40814319845012
30
0
41
1
10
84.5946852377606
20
2.3850862222582
30
0
41
1
10
84.7853864882328
20
2.34038575059168
30
0
41
1
10
84.8758802563686
20
2.3187700658199
30
0
41
1
10
84.9582849199501
20
2.29716911834473
30
0
0
SPLINE
5
217
100
AcDbEntity
8
1
62
256
6
ByLayer
370
18
48
1
60
0
100
AcDbSpline
70
4
71
3
72
28
73
24
40
0
40
0
40
0
40
0
40
0.0625000000000005
40
0.0625000000000005
40
0.125000000000001
40
0.125000000000001
40
0.250000000000001
40
0.250000000000001
40
0.375000000000002
40
0.375000000000002
40
0.500000000000003
40
0.500000000000003
40
0.562500000000004
40
0.562500000000004
40
0.625000000000004
40
0.625000000000004
40
0.750000000000003
40
0.750000000000003
40
0.875000000000002
40
0.875000000000002
40
0.937500000000001
40
0.937500000000001
40
1
40
1
40
1
40
1
41
1
10
84.7705192934651
20
1.64116312286382
30
0
41
1
10
84.8132869714439
20
1.65347105117755
30
0
41
1
10
84.8543056669421
20
1.66621089790311
30
0
41
1
10
84.9327520704178
20
1.69257740048124
30
0
41
1
10
84.9702299246304
20
1.70623729187506
30
0
41
1
10
85.0748610284256
20
1.74769732891067
30
0
41
1
10
85.1351331975062
20
1.77623904767455
30
0
41
1
10
85.2368449369017
20
1.83511339656889
30
0
41
1
10
85.278376012567
20
1.86570574954251
30
0
41
1
10
85.3387934749572
20
1.9262908161044
30
0
41
1
10
85.3582702488876
20
1.95652671040148
30
0
41
1
10
85.3711927476252
20
2.00179456568378
30
0
41
1
10
85.3727438593374
20
2.0169421480698
30
0
41
1
10
85.3702396143446
20
2.04663558997615
30
0
41
1
10
85.3662251161006
20
2.06122681461298
30
0
41
1
10
85.3460910701928
20
2.10425218119272
30
0
41
1
10
85.3219516830759
20
2.13194455603912
30
0
41
1
10
85.2515693485418
20
2.18528491396543
30
0
41
1
10
85.2061300939786
20
2.21025999990255
30
0
41
1
10
85.1239482683845
20
2.24490973556354
30
0
41
1
10
85.0941714301217
20
2.25601046127295
30
0
41
1
10
85.0297979741511
20
2.277303363622
30
0
41
1
10
84.995001509206
20
2.2875445038932
30
0
41
1
10
84.9582849199502
20
2.29716911834473
30
0
0
SPLINE
5
218
100
AcDbEntity
8
1
62
256
6
ByLayer
370
18
48
1
60
0
100
AcDbSpline
70
4
71
3
72
10
73
6
40
0
40
0
40
0
40
0
40
0.5
40
0.5
40
1
40
1
40
1
40
1
41
1
10
30.2933799273469
20
8.61508016736357
30
0
41
1
10
30.42519745813
20
8.49664184818818
30
0
41
1
10
30.5649874852572
20
8.37456091711425
30
0
41
1
10
30.8671745518308
20
8.1297609974969
30
0
41
1
10
31.0295588675899
20
8.0070644910875
30
0
41
1
10
31.2067304410925
20
7.88656574958213
30
0
0
SPLINE
5
219
100
AcDbEntity
8
1
62
256
6
ByLayer
370
18
48
1
60
0
100
AcDbSpline
70
4
71
3
72
10
73
6
40
0
40
0
40
0
40
0
40
0.5
40
0.5
40
1
40
1
40
1
40
1
41
1
10
26.5157853790299
20
6.54539663897907
30
0
41
1
10
26.5665856190543
20
6.32131136832075
30
0
41
1
10
26.6329273964942
20
6.09923056347625
30
0
41
1
10
26.7946548107724
20
5.65910441812156
30
0
41
1
10
26.8900463386037
20
5.44105790939224
30
0
41
1
10
27
20
5.22532026194122
30
0
0
SPLINE
5
21A
100
AcDbEntity
8
1
62
256
6
ByLayer
370
18
48
1
60
0
100
AcDbSpline
70
4
71
3
72
30
73
26
40
0
40
0
40
0
40
0
40
0.125
40
0.125
40
0.25
40
0.25
40
0.375
40
0.375
40
0.5
40
0.5
40
0.5625
40
0.5625
40
0.624999999999999
40
0.624999999999999
40
0.687499999999999
40
0.687499999999999
40
0.749999999999999
40
0.749999999999999
40
0.812499999999998
40
0.812499999999998
40
0.843749999999999
40
0.843749999999999
40
0.874999999999999
40
0.874999999999999
40
1
40
1
40
1
40
1
41
1
10
30.2933799273469
20
8.61508016736357
30
0
41
1
10
30.1510671215395
20
8.74294851246776
30
0
41
1
10
30.0194860533957
20
8.87262194136517
30
0
41
1
10
29.7677167243515
20
9.13157422387434
30
0
41
1
10
29.6475946335983
20
9.26088847841072
30
0
41
1
10
29.4093534201438
20
9.51269721193771
30
0
41
1
10
29.2910936802045
20
9.63546919941155
30
0
41
1
10
29.0470861483832
20
9.86233725815995
30
0
41
1
10
28.9213957705493
20
9.96662596688648
30
0
41
1
10
28.7178626926006
20
10.0947299283074
30
0
41
1
10
28.6472004884286
20
10.1327517572005
30
0
41
1
10
28.5002130596859
20
10.1948004876463
30
0
41
1
10
28.4245957736181
20
10.2185371435968
30
0
41
1
10
28.2686433439301
20
10.2480982008277
30
0
41
1
10
28.1882503877511
20
10.2539147539903
30
0
41
1
10
28.0230241737125
20
10.2442352959039
30
0
41
1
10
27.9406713430025
20
10.2288691578457
30
0
41
1
10
27.7776644226439
20
10.178015861635
30
0
41
1
10
27.697014133223
20
10.1425427981557
30
0
41
1
10
27.578282919991
20
10.0752734755115
30
0
41
1
10
27.5391726774391
20
10.050536697946
30
0
41
1
10
27.4631664750353
20
9.99760993145043
30
0
41
1
10
27.4260918249548
20
9.9693233698155
30
0
41
1
10
27.2453138791286
20
9.81974068369013
30
0
41
1
10
27.1153164861114
20
9.67448199750248
30
0
41
1
10
27
20
9.51147645187231
30
0
0
SPLINE
5
21B
100
AcDbEntity
8
1
62
256
6
ByLayer
370
18
48
1
60
0
100
AcDbSpline
70
4
71
3
72
8
73
4
40
0
40
0
40
0
40
0
40
1
40
1
40
1
40
1
41
1
10
76.5192398800387
20
4.6652362290024
30
0
41
1
10
77.6927169426949
20
4.77697236858538
30
0
41
1
10
78.8663149168432
20
4.86614951859821
30
0
41
1
10
80.0400704143909
20
4.92999999999989
30
0
0
SPLINE
5
21C
100
AcDbEntity
8
1
62
256
6
ByLayer
370
18
48
1
60
0
100
AcDbSpline
70
4
71
3
72
14
73
10
40
0
40
0
40
0
40
0
40
0.25
40
0.25
40
0.5
40
0.5
40
0.75
40
0.75
40
1
40
1
40
1
40
1
41
1
10
9.33660254037844
20
-6.16973001948568
30
0
41
1
10
9.3272118604348
20
-6.13568757087461
30
0
41
1
10
9.31597445228965
20
-6.10231901184946
30
0
41
1
10
9.28852371889982
20
-6.0374267260743
30
0
41
1
10
9.27226224655607
20
-6.00567161829605
30
0
41
1
10
9.2321489951247
20
-5.94614793734939
30
0
41
1
10
9.20824291947471
20
-5.91826181931597
30
0
41
1
10
9.15016936613478
20
-5.87512340989326
30
0
41
1
10
9.11431735240402
20
-5.85988980456935
30
0
41
1
10
9.07679491924313
20
-5.85988980456935
30
0
0
SPLINE
5
21D
100
AcDbEntity
8
1
62
256
6
ByLayer
370
18
48
1
60
0
100
AcDbSpline
70
4
71
3
72
14
73
10
40
0
40
0
40
0
40
0
40
0.25
40
0.25
40
0.5
40
0.5
40
0.75
40
0.75
40
1
40
1
40
1
40
1
41
1
10
26.5157853790299
20
6.54539663897907
30
0
41
1
10
26.4780962022682
20
6.71164761282256
30
0
41
1
10
26.4496825680097
20
6.8778442416274
30
0
41
1
10
26.4109933423505
20
7.20715291042313
30
0
41
1
10
26.4007378701377
20
7.37026896136527
30
0
41
1
10
26.3993385625532
20
7.69227258151935
30
0
41
1
10
26.4082721031867
20
7.85158330045164
30
0
41
1
10
26.446759143033
20
8.16489076855302
30
0
41
1
10
26.4761403860552
20
8.31780469516465
30
0
41
1
10
26.5157853790285
20
8.46899146007544
30
0
0
SPLINE
5
21E
100
AcDbEntity
8
1
62
256
6
ByLayer
370
18
48
1
60
0
100
AcDbSpline
70
4
71
3
72
10
73
6
40
0
40
0
40
0
40
0
40
0.5
40
0.5
40
1
40
1
40
1
40
1
41
1
10
27.4681774788824
20
3.4297263135015
30
0
41
1
10
27.5083772798026
20
3.30511079663191
30
0
41
1
10
27.552558860879
20
3.18296319236015
30
0
41
1
10
27.6485454568078
20
2.94544847642555
30
0
41
1
10
27.700454391519
20
2.82975064635926
30
0
41
1
10
27.7564745652637
20
2.71703835340628
30
0
0
SPLINE
5
21F
100
AcDbEntity
8
1
62
256
6
ByLayer
370
18
48
1
60
0
100
AcDbSpline
70
4
71
3
72
10
73
6
40
0
40
0
40
0
40
0
40
0.5
40
0.5
40
1
40
1
40
1
40
1
41
1
10
83.8957587523452
20
2.48404801625389
30
0
41
1
10
83.9791409367638
20
2.47172281293641
30
0
41
1
10
84.0621995509347
20
2.46131177940964
30
0
41
1
10
84.2275676544336
20
2.44423142877477
30
0
41
1
10
84.3098663659961
20
2.43757806267254
30
0
41
1
10
84.3907120859012
20
2.43278689232275
30
0
0
SPLINE
5
220
100
AcDbEntity
8
1
62
256
6
ByLayer
370
18
48
1
60
0
100
AcDbSpline
70
2053
71
3
72
74
73
70
40
0
40
0
40
0
40
0
40
0.0312499999999945
40
0.0312499999999945
40
0.0468749999999912
40
0.0468749999999912
40
0.062499999999988
40
0.062499999999988
40
0.0937499999999814
40
0.0937499999999814
40
0.124999999999975
40
0.124999999999975
40
0.156249999999968
40
0.156249999999968
40
0.187499999999962
40
0.187499999999962
40
0.218749999999955
40
0.218749999999955
40
0.249999999999949
40
0.249999999999949
40
0.281249999999942
40
0.281249999999942
40
0.312499999999936
40
0.312499999999936
40
0.328124999999935
40
0.328124999999935
40
0.343749999999934
40
0.343749999999934
40
0.374999999999937
40
0.374999999999937
40
0.40624999999994
40
0.40624999999994
40
0.437499999999944
40
0.437499999999944
40
0.468749999999947
40
0.468749999999947
40
0.49999999999995
40
0.49999999999995
40
0.531249999999953
40
0.531249999999953
40
0.562499999999956
40
0.562499999999956
40
0.593749999999959
40
0.593749999999959
40
0.624999999999962
40
0.624999999999962
40
0.656249999999966
40
0.656249999999966
40
0.687499999999969
40
0.687499999999969
40
0.718749999999972
40
0.718749999999972
40
0.749999999999975
40
0.749999999999975
40
0.781249999999978
40
0.781249999999978
40
0.812499999999981
40
0.812499999999981
40
0.843749999999984
40
0.843749999999984
40
0.874999999999987
40
0.874999999999987
40
0.906249999999991
40
0.906249999999991
40
0.937499999999994
40
0.937499999999994
40
0.968749999999997
40
0.968749999999997
40
1
40
1
40
1
40
1
41
1
10
87.5298648306255
20
-1.64478586529205
30
0
41
1
10
87.5257825028525
20
-1.56578599507242
30
0
41
1
10
87.5292752349326
20
-1.48743974232738
30
0
41
1
10
87.5456676480865
20
-1.37089614320561
30
0
41
1
10
87.5530034792336
20
-1.33221232733592
30
0
41
1
10
87.5715417522007
20
-1.25518976700616
30
0
41
1
10
87.5828129177844
20
-1.21670510326507
30
0
41
1
10
87.6218389714649
20
-1.10423282329756
30
0
41
1
10
87.6548680074733
20
-1.03248969178648
30
0
41
1
10
87.7350041816012
20
-0.895571897414726
30
0
41
1
10
87.7826740415916
20
-0.829967776055582
30
0
41
1
10
87.8885148731719
20
-0.711283429469376
30
0
41
1
10
87.9469611460492
20
-0.657484240043431
30
0
41
1
10
88.0751817060114
20
-0.561307927570965
30
0
41
1
10
88.144297014349
20
-0.519635554666536
30
0
41
1
10
88.2879887231256
20
-0.451467924568902
30
0
41
1
10
88.3637271797927
20
-0.424365425040293
30
0
41
1
10
88.519763020406
20
-0.38582114819809
30
0
41
1
10
88.5985878906133
20
-0.374618297159543
30
0
41
1
10
88.7578100456464
20
-0.367945075759138
30
0
41
1
10
88.8390163802342
20
-0.372710029742194
30
0
41
1
10
88.9965725457392
20
-0.398034869632823
30
0
41
1
10
89.0734788052829
20
-0.418412527233642
30
0
41
1
10
89.1859921460921
20
-0.460697154371786
30
0
41
1
10
89.2231399333009
20
-0.476841993896812
30
0
41
1
10
89.2948491533925
20
-0.512400986469544
30
0
41
1
10
89.3296028796686
20
-0.53187215258987
30
0
41
1
10
89.4306261688157
20
-0.595253803510303
30
0
41
1
10
89.4940043387952
20
-0.644387562581386
30
0
41
1
10
89.6104068334142
20
-0.75510074526386
30
0
41
1
10
89.6621825135217
20
-0.815369628003907
30
0
41
1
10
89.753364232309
20
-0.945297480323575
30
0
41
1
10
89.7930364262969
20
-1.01577957273497
30
0
41
1
10
89.8568713353347
20
-1.16095703039443
30
0
41
1
10
89.8814164621968
20
-1.23589991782745
30
0
41
1
10
89.9159412151056
20
-1.39037708890791
30
0
41
1
10
89.9256590825053
20
-1.46961013706749
30
0
41
1
10
89.9298835365793
20
-1.62607173447074
30
0
41
1
10
89.924592900201
20
-1.70416339574476
30
0
41
1
10
89.8989568085273
20
-1.85975440742595
30
0
41
1
10
89.8790010557914
20
-1.93497176041876
30
0
41
1
10
89.8254901852995
20
-2.08055813071877
30
0
41
1
10
89.7915289414947
20
-2.15155881741245
30
0
41
1
10
89.7110924185574
20
-2.28525275857783
30
0
41
1
10
89.6650355298249
20
-2.34756902372433
30
0
41
1
10
89.5611803677732
20
-2.46326367763572
30
0
41
1
10
89.5026333997134
20
-2.51711421940163
30
0
41
1
10
89.3774433231818
20
-2.61136364049938
30
0
41
1
10
89.310680379922
20
-2.65216119812885
30
0
41
1
10
89.1684194628432
20
-2.72069808389338
30
0
41
1
10
89.0924450148397
20
-2.74834703772135
30
0
41
1
10
88.9387409464725
20
-2.78715246611762
30
0
41
1
10
88.8601672248584
20
-2.79882202312948
30
0
41
1
10
88.6993831502239
20
-2.80590120992005
30
0
41
1
10
88.6191729372184
20
-2.80111298137081
30
0
41
1
10
88.4622235553048
20
-2.77569177593483
30
0
41
1
10
88.3841030706652
20
-2.75469291382234
30
0
41
1
10
88.235572696902
20
-2.69815858243126
30
0
41
1
10
88.1651048530368
20
-2.66286598823152
30
0
41
1
10
88.0314621244187
20
-2.57860495689045
30
0
41
1
10
87.9688386854848
20
-2.52977951942415
30
0
41
1
10
87.8555989632766
20
-2.42255137011023
30
0
41
1
10
87.8040600682502
20
-2.36338701085137
30
0
41
1
10
87.7129139795219
20
-2.23590157823293
30
0
41
1
10
87.6740401506249
20
-2.16875763783491
30
0
41
1
10
87.6091503275255
20
-2.02780467651607
30
0
41
1
10
87.5830048619975
20
-1.95328519288327
30
0
41
1
10
87.5454948995518
20
-1.80128516968804
30
0
41
1
10
87.5339471583986
20
-1.72378573551171
30
0
41
1
10
87.5298648306255
20
-1.64478586529205
30
0
0
SPLINE
5
221
100
AcDbEntity
8
1
62
256
6
ByLayer
370
18
48
1
60
0
100
AcDbSpline
70
4
71
3
72
8
73
4
40
0
40
0
40
0
40
0
40
1
40
1
40
1
40
1
41
1
10
73.7907182907899
20
5.56943130163964
30
0
41
1
10
73.4792477333899
20
5.6786303482842
30
0
41
1
10
73.1661690214467
20
5.79349317765659
30
0
41
1
10
72.8518126947626
20
5.91285565685027
30
0
0
SPLINE
5
222
100
AcDbEntity
8
1
62
256
6
ByLayer
370
18
48
1
60
0
100
AcDbSpline
70
4
71
2
72
6
73
3
40
0
40
0
40
0
40
1
40
1
40
1
41
0.500000008074807
10
84.7673304626641
20
1.64024593689465
30
0
41
0.499999991925193
10
84.768924642778
20
1.64070420511871
30
0
41
0.500000008074807
10
84.7705192934651
20
1.64116312286382
30
0
0
SPLINE
5
223
100
AcDbEntity
8
1
62
256
6
ByLayer
370
18
48
1
60
0
100
AcDbSpline
70
4
71
3
72
14
73
10
40
0
40
0
40
0
40
0
40
0.25
40
0.25
40
0.5
40
0.5
40
0.75
40
0.75
40
1
40
1
40
1
40
1
41
1
10
9.07679491924313
20
5.85988980456935
30
0
41
1
10
9.11436698667109
20
5.85988980456935
30
0
41
1
10
9.14968727595806
20
5.87477627667434
30
0
41
1
10
9.20863486580112
20
5.9185420083206
30
0
41
1
10
9.2321352823152
20
5.9461298781217
30
0
41
1
10
9.27225845989855
20
6.00566371121201
30
0
41
1
10
9.28838045037787
20
6.0371275598302
30
0
41
1
10
9.31588453947563
20
6.1020672817173
30
0
41
1
10
9.32720842156817
20
6.13567510453109
30
0
41
1
10
9.33660254037846
20
6.16973001948563
30
0
0
SPLINE
5
224
100
AcDbEntity
8
1
62
256
6
ByLayer
370
18
48
1
60
0
100
AcDbSpline
70
4
71
3
72
14
73
10
40
0
40
0
40
0
40
0
40
0.25
40
0.25
40
0.5
40
0.5
40
0.75
40
0.75
40
1
40
1
40
1
40
1
41
1
10
6.92320508075693
20
19.1222825906925
30
0
41
1
10
6.88563301332897
20
19.1222825906925
30
0
41
1
10
6.850312724042
20
19.1177281115534
30
0
41
1
10
6.79136513419891
20
19.1042242696216
30
0
41
1
10
6.76786471768486
20
19.0956673725615
30
0
41
1
10
6.7277415401015
20
19.0770274497583
30
0
41
1
10
6.71161954962218
20
19.06709867989
30
0
41
1
10
6.68411546052442
20
19.0464153092313
30
0
41
1
10
6.67279157843188
20
19.0356185274184
30
0
41
1
10
6.66339745962156
20
19.0245744101322
30
0
0
SPLINE
5
225
100
AcDbEntity
8
1
62
256
6
ByLayer
370
18
48
1
60
0
100
AcDbSpline
70
4
71
3
72
8
73
4
40
0
40
0
40
0
40
0
40
1
40
1
40
1
40
1
41
1
10
84.2561495298374
20
-8.44174296086416
30
0
41
1
10
84.4455022227503
20
-8.44402130358549
30
0
41
1
10
84.6311713979551
20
-8.44633328808754
30
0
41
1
10
84.8131518944195
20
-8.44795084245538
30
0
0
SPLINE
5
226
100
AcDbEntity
8
1
62
256
6
ByLayer
370
18
48
1
60
0
100
AcDbSpline
70
4
71
3
72
34
73
30
40
0
40
0
40
0
40
0
40
0.125
40
0.125
40
0.25
40
0.25
40
0.3125
40
0.3125
40
0.34375
40
0.34375
40
0.375
40
0.375
40
0.5
40
0.5
40
0.5625
40
0.5625
40
0.625000000000001
40
0.625000000000001
40
0.687500000000001
40
0.687500000000001
40
0.750000000000002
40
0.750000000000002
40
0.781250000000001
40
0.781250000000001
40
0.812500000000001
40
0.812500000000001
40
0.875000000000001
40
0.875000000000001
40
1
40
1
40
1
40
1
41
1
10
37.7132330011239
20
5.19667769950931
30
0
41
1
10
39.5613170469658
20
4.60451265235866
30
0
41
1
10
41.3980626001413
20
3.95784700158271
30
0
41
1
10
45.0656007209432
20
2.59602814440123
30
0
41
1
10
46.8964331117298
20
1.88108136456143
30
0
41
1
10
49.647598217038
20
0.780048799880632
30
0
41
1
10
50.5655144108391
20
0.408342068935355
30
0
41
1
10
51.945728764316
20
-0.151180368501997
30
0
41
1
10
52.4063600376361
20
-0.338004212584053
30
0
41
1
10
53.3290747422229
20
-0.711432252456319
30
0
41
1
10
53.7914814171705
20
-0.898164950037881
30
0
41
1
10
56.1006631632475
20
-1.82617036494074
30
0
41
1
10
57.9434943862374
20
-2.55152030540032
30
0
41
1
10
60.7135662434945
20
-3.58420190532772
30
0
41
1
10
61.6387614132651
20
-3.91991937988595
30
0
41
1
10
63.4859688136306
20
-4.5655970719915
30
0
41
1
10
64.4083670619568
20
-4.87571447916156
30
0
41
1
10
66.2534966998049
20
-5.46500891224605
30
0
41
1
10
67.1762570964742
20
-5.7441470584061
30
0
41
1
10
69.0243512767487
20
-6.26745941743403
30
0
41
1
10
69.9504214992832
20
-6.51175943666354
30
0
41
1
10
71.3347698856538
20
-6.84758587583877
30
0
41
1
10
71.7949274680683
20
-6.95574016834232
30
0
41
1
10
72.7148935382621
20
-7.1609343380868
30
0
41
1
10
73.174496651614
20
-7.25831357120964
30
0
41
1
10
74.5526355514237
20
-7.53422461672372
30
0
41
1
10
75.4704960480869
20
-7.69650437791231
30
0
41
1
10
78.2254388743839
20
-8.11433774091105
30
0
41
1
10
80.06410058469
20
-8.30066632783053
30
0
41
1
10
81.9132391824396
20
-8.38951704682043
30
0
0
SPLINE
5
227
100
AcDbEntity
8
1
62
256
6
ByLayer
370
18
48
1
60
0
100
AcDbSpline
70
4
71
3
72
20
73
16
40
0
40
0
40
0
40
0
40
0.250000000000001
40
0.250000000000001
40
0.375000000000002
40
0.375000000000002
40
0.437500000000003
40
0.437500000000003
40
0.500000000000004
40
0.500000000000004
40
0.75
40
0.75
40
0.875
40
0.875
40
1
40
1
40
1
40
1
41
1
10
31.7564745296657
20
-5.8806197673841
30
0
41
1
10
31.9373017214035
20
-6.07959815570209
30
0
41
1
10
32.1496001072845
20
-6.23145936549327
30
0
41
1
10
32.5135071393641
20
-6.4158437804395
30
0
41
1
10
32.6424470057169
20
-6.46991656324511
30
0
41
1
10
32.8476390487805
20
-6.54237125112621
30
0
41
1
10
32.9179511146357
20
-6.56504438244104
30
0
41
1
10
33.0609934231912
20
-6.60743845210817
30
0
41
1
10
33.1339081807871
20
-6.62722680727532
30
0
41
1
10
33.5054384353064
20
-6.7202336514338
30
0
41
1
10
33.8246790790395
20
-6.77596368488736
30
0
41
1
10
34.3392432184118
20
-6.84794380841768
30
0
41
1
10
34.5164222606263
20
-6.8698770256421
30
0
41
1
10
34.8776120371678
20
-6.91138434570061
30
0
41
1
10
35.0622633015027
20
-6.93104661015832
30
0
41
1
10
35.2511599138987
20
-6.95063519370251
30
0
0
SPLINE
5
228
100
AcDbEntity
8
1
62
256
6
ByLayer
370
18
48
1
60
0
100
AcDbSpline
70
4
71
3
72
48
73
44
40
0
40
0
40
0
40
0
40
0.015625
40
0.0234375
40
0.02734375
40
0.029296875
40
0.0302734375
40
0.03125
40
0.03173828125
40
0.046875
40
0.0625
40
0.125
40
0.1875
40
0.25
40
0.3125
40
0.375
40
0.390625
40
0.40625
40
0.4140625
40
0.421875
40
0.4375
40
0.5
40
0.5625
40
0.59375
40
0.6015625
40
0.60546875
40
0.609375
40
0.6171875
40
0.625
40
0.65625
40
0.671875
40
0.6796875
40
0.6875
40
0.71875
40
0.75
40
0.78125
40
0.7890625
40
0.79296875
40
0.796875
40
0.8046875
40
0.8125
40
0.875
40
1
40
1
40
1
40
1
41
1
10
90.8424572366314
20
5.78085336463755
30
0
41
1
10
90.8469493019282
20
5.78101083021841
30
0
41
1
10
90.8538921492973
20
5.78125134621584
30
0
41
1
10
90.8616722531419
20
5.78151579698198
30
0
41
1
10
90.8654056417201
20
5.78164141397812
30
0
41
1
10
90.8672174465225
20
5.78170204731313
30
0
41
1
10
90.8682472607322
20
5.78173641837429
30
0
41
1
10
90.8688916393323
20
5.7817579134842
30
0
41
1
10
90.8732841073489
20
5.7819044806472
30
0
41
1
10
90.8815519588214
20
5.7821803596598
30
0
41
1
10
90.9062263280596
20
5.78300368608805
30
0
41
1
10
90.9434316596858
20
5.78424514164482
30
0
41
1
10
90.9930387685208
20
5.78590041572048
30
0
41
1
10
91.0426458773558
20
5.78755568979614
30
0
41
1
10
91.0922529861908
20
5.78921096387179
30
0
41
1
10
91.1294484204769
20
5.79045208036584
30
0
41
1
10
91.1542717695746
20
5.7912803955291
30
0
41
1
10
91.1646049343586
20
5.7916251877844
30
0
41
1
10
91.1728397946973
20
5.79189993658795
30
0
41
1
10
91.1811186711054
20
5.79217672074341
30
0
41
1
10
91.2042088129741
20
5.79295076177527
30
0
41
1
10
91.2435339994795
20
5.79428065496671
30
0
41
1
10
91.2888085870797
20
5.79583192631972
30
0
41
1
10
91.3183492420704
20
5.79685348269928
30
0
41
1
10
91.3308372295958
20
5.79728695350917
30
0
41
1
10
91.3353509142449
20
5.79744380524482
30
0
41
1
10
91.3398904633222
20
5.79760168488056
30
0
41
1
10
91.3455991325017
20
5.79780029013912
30
0
41
1
10
91.3592828531611
20
5.7982763163848
30
0
41
1
10
91.3752442016794
20
5.79883156571387
30
0
41
1
10
91.3912146325595
20
5.79938716296121
30
0
41
1
10
91.4003255664305
20
5.79970407147698
30
0
41
1
10
91.413979550322
20
5.8001797599739
30
0
41
1
10
91.4344895380835
20
5.80089696646135
30
0
41
1
10
91.4616989765849
20
5.80185414883474
30
0
41
1
10
91.4818507077738
20
5.80256740526741
30
0
41
1
10
91.4940234102993
20
5.8029998893328
30
0
41
1
10
91.4984260979333
20
5.80315651511776
30
0
41
1
10
91.5028275862151
20
5.80331320309233
30
0
41
1
10
91.5083360980923
20
5.80350933388087
30
0
41
1
10
91.5303645443169
20
5.80429362897581
30
0
41
1
10
91.5854356598784
20
5.80625436671315
30
0
41
1
10
91.6383039308175
20
5.80813667494101
30
0
41
1
10
91.6735494447769
20
5.80939154709293
30
0
0
SPLINE
5
229
100
AcDbEntity
8
1
62
256
6
ByLayer
370
18
48
1
60
0
100
AcDbSpline
70
4
71
3
72
22
73
18
40
0
40
0
40
0
40
0
40
0.0178234039225364
40
0.0278216291116514
40
0.0378198543007664
40
0.112806543219129
40
0.187793232137492
40
0.337766609974217
40
0.497738213000057
40
0.657709816025897
40
0.817681419051737
40
0.897667220564657
40
0.977653022077577
40
0.982652134672135
40
0.987651247266692
40
0.997649472455807
40
1
40
1
40
1
40
1
41
1
10
91.5863139322299
20
8.19140909755703
30
0
41
1
10
91.5862012620307
20
8.19222167854818
30
0
41
1
10
91.5860245062
20
8.19349003313107
30
0
41
1
10
91.5857833586784
20
8.19521425719364
30
0
41
1
10
91.585176943917
20
8.1995446369979
30
0
41
1
10
91.5841556769809
20
8.20683790371908
30
0
41
1
10
91.5822409582844
20
8.2205127675843
30
0
41
1
10
91.5797839371956
20
8.23806216179048
30
0
41
1
10
91.5767844569053
20
8.25948609757464
30
0
41
1
10
91.5737211578854
20
8.28136586177973
30
0
41
1
10
91.5711684087022
20
8.29959899861731
30
0
41
1
10
91.5691174374836
20
8.31423625167778
30
0
41
1
10
91.568067912828
20
8.32173726414155
30
0
41
1
10
91.5675009592348
20
8.32579682573876
30
0
41
1
10
91.5673752686992
20
8.32669614038224
30
0
41
1
10
91.5672668171986
20
8.32747010976576
30
0
41
1
10
91.567190200836
20
8.32801438011438
30
0
41
1
10
91.567175633802
20
8.32811775042697
30
0
0
SPLINE
5
22A
100
AcDbEntity
8
1
62
256
6
ByLayer
370
18
48
1
60
0
100
AcDbSpline
70
4
71
3
72
14
73
10
40
0
40
0
40
0
40
0
40
0.0050966481374708
40
0.0240065217780214
40
0.043526391342461
40
0.0630462609069005
40
0.375364173937934
40
0.687682086968967
40
1
40
1
40
1
40
1
41
1
10
91.7522553178782
20
3.54694509364978
30
0
41
1
10
91.7521215751147
20
3.55078872930434
30
0
41
1
10
91.7514916433113
20
3.56889323593438
30
0
41
1
10
91.7503497178829
20
3.60171861219993
30
0
41
1
10
91.7488293957439
20
3.64542124375126
30
0
41
1
10
91.7396114425642
20
3.91039719926249
30
0
41
1
10
91.7227118617349
20
4.39618645103306
30
0
41
1
10
91.6981306532559
20
5.10278899906299
30
0
41
1
10
91.6817431809365
20
5.57385736441628
30
0
41
1
10
91.6735494447768
20
5.80939154709293
30
0
0
SPLINE
5
22B
100
AcDbEntity
8
1
62
256
6
ByLayer
370
18
48
1
60
0
100
AcDbSpline
70
4
71
3
72
153
73
149
40
0
40
0
40
0
40
0
40
0.125
40
0.25
40
0.375
40
0.3828125
40
0.390625
40
0.398193359375
40
0.4019775390625
40
0.405643463134766
40
0.40576171875
40
0.406005859375
40
0.40625
40
0.4072265625
40
0.40771484375
40
0.408203125
40
0.4091796875
40
0.41015625
40
0.412109375
40
0.4140625
40
0.416015625
40
0.4169921875
40
0.41796875
40
0.4189453125
40
0.41943359375
40
0.419921875
40
0.42041015625
40
0.4208984375
40
0.421875
40
0.422119140625
40
0.42236328125
40
0.422477722167969
40
0.426025390625
40
0.4296875
40
0.4375
40
0.439453125
40
0.44140625
40
0.443359375
40
0.4443359375
40
0.4453125
40
0.445556640625
40
0.44580078125
40
0.446044921875
40
0.4462890625
40
0.4464111328125
40
0.44677734375
40
0.447265625
40
0.44921875
40
0.453125
40
0.4609375
40
0.46484375
40
0.46875
40
0.46923828125
40
0.4697265625
40
0.47021484375
40
0.4705810546875
40
0.470703125
40
0.4708251953125
40
0.47119140625
40
0.471435546875
40
0.4716796875
40
0.4718017578125
40
0.47216796875
40
0.472412109375
40
0.47265625
40
0.4727783203125
40
0.474609375
40
0.4755859375
40
0.4765625
40
0.48046875
40
0.482421875
40
0.484375
40
0.486328125
40
0.48828125
40
0.490234375
40
0.4921875
40
0.494140625
40
0.49609375
40
0.498046875
40
0.5
40
0.501953125
40
0.50390625
40
0.505859375
40
0.5078125
40
0.509765625
40
0.51171875
40
0.515625
40
0.51953125
40
0.5224609375
40
0.5234375
40
0.525390625
40
0.5263671875
40
0.527099609375
40
0.52734375
40
0.52783203125
40
0.528076171875
40
0.5283203125
40
0.5284423828125
40
0.52880859375
40
0.529052734375
40
0.529296875
40
0.5294189453125
40
0.52978515625
40
0.5302734375
40
0.53125
40
0.5390625
40
0.546875
40
0.55078125
40
0.5517578125
40
0.552734375
40
0.55322265625
40
0.5537109375
40
0.553955078125
40
0.55419921875
40
0.554443359375
40
0.5545654296875
40
0.5546875
40
0.556640625
40
0.55859375
40
0.5625
40
0.56640625
40
0.5703125
40
0.573974609375
40
0.5758056640625
40
0.57763671875
40
0.577880859375
40
0.578125
40
0.5791015625
40
0.57958984375
40
0.580078125
40
0.5810546875
40
0.58203125
40
0.5859375
40
0.587890625
40
0.58984375
40
0.5908203125
40
0.591796875
40
0.5927734375
40
0.59375
40
0.593994140625
40
0.59423828125
40
0.594380187988281
40
0.601806640625
40
0.609375
40
0.625
40
0.75
40
0.875
40
1
40
1
40
1
40
1
41
1
10
90.8424572366314
20
5.78085336463758
30
0
41
1
10
90.8485133434227
20
5.60676670435464
30
0
41
1
10
90.8606255570051
20
5.25859338378879
30
0
41
1
10
90.8787938773789
20
4.73633340294003
30
0
41
1
10
90.8912845976358
20
4.37727966610649
30
0
41
1
10
90.898097717776
20
4.18143217328821
30
0
41
1
10
90.8992214094657
20
4.14913093749351
30
0
41
1
10
90.9001499336514
20
4.12243991633687
30
0
41
1
10
90.9008775609842
20
4.10152380361916
30
0
41
1
10
90.901244239325
20
4.09098340035985
30
0
41
1
10
90.9014394068291
20
4.08537318572181
30
0
41
1
10
90.9014687928453
20
4.08452846590416
30
0
41
1
10
90.9015397628468
20
4.08248838785397
30
0
41
1
10
90.9016225611818
20
4.0801082967954
30
0
41
1
10
90.9017171878504
20
4.07738819272848
30
0
41
1
10
90.901811814519
20
4.07466808866155
30
0
41
1
10
90.9019300978547
20
4.07126795857792
30
0
41
1
10
90.902119351192
20
4.06582775044407
30
0
41
1
10
90.9023559178635
20
4.05902749027678
30
0
41
1
10
90.9026397978694
20
4.050867178076
30
0
41
1
10
90.9028763645409
20
4.04406691790871
30
0
41
1
10
90.9030656178781
20
4.03862670977486
30
0
41
1
10
90.903207557881
20
4.03454655367449
30
0
41
1
10
90.9033258412168
20
4.03114642359083
30
0
41
1
10
90.9034204678854
20
4.0284263195239
30
0
41
1
10
90.9034914378869
20
4.02638624147372
30
0
41
1
10
90.9035624078883
20
4.02434616342353
30
0
41
1
10
90.9036570345569
20
4.02162605935661
30
0
41
1
10
90.903739832892
20
4.01924596829806
30
0
41
1
10
90.9038108028935
20
4.01720589024788
30
0
41
1
10
90.9038400040919
20
4.01636648313345
30
0
41
1
10
90.9040292574292
20
4.01092627499963
30
0
41
1
10
90.9043841074365
20
4.00072588474868
30
0
41
1
10
90.9051119195869
20
3.97980445932771
30
0
41
1
10
90.9057624779336
20
3.96110374386762
30
0
41
1
10
90.9063302379453
20
3.94478311946611
30
0
41
1
10
90.9066141317035
20
3.9366226090186
30
0
41
1
10
90.9068507327559
20
3.92982185323439
30
0
41
1
10
90.9070400342263
20
3.92438095123691
30
0
41
1
10
90.9071465253284
20
3.92132031376389
30
0
41
1
10
90.907217523694
20
3.91927982682975
30
0
41
1
10
90.9072530237633
20
3.91825957058509
30
0
41
1
10
90.9072885247458
20
3.91723930117558
30
0
41
1
10
90.9073181096812
20
3.91638906537429
30
0
41
1
10
90.907353612329
20
3.91536877195833
30
0
41
1
10
90.9074009504999
20
3.91400836189331
30
0
41
1
10
90.9075370545883
20
3.91009708425241
30
0
41
1
10
90.9078448147369
20
3.90125352452515
30
0
41
1
10
90.9085079715485
20
3.88220169423838
30
0
41
1
10
90.9092667451977
20
3.86041548611828
30
0
41
1
10
90.9100232321823
20
3.83866224138032
30
0
41
1
10
90.9104237452424
20
3.82712558870659
30
0
41
1
10
90.9106587020806
20
3.82034853507127
30
0
41
1
10
90.9107293317115
20
3.81831336362828
30
0
41
1
10
90.9107943759904
20
3.81644345866462
30
0
41
1
10
90.9108423501058
20
3.81507388114989
30
0
41
1
10
90.9108727009556
20
3.8142126043208
30
0
41
1
10
90.910903256658
20
3.81334837444109
30
0
41
1
10
90.9109400014752
20
3.81230949201202
30
0
41
1
10
90.9109811743264
20
3.81111793119825
30
0
41
1
10
90.9110089248511
20
3.81028731397055
30
0
41
1
10
90.9110401121836
20
3.80931694229489
30
0
41
1
10
90.9110680878917
20
3.80837680374472
30
0
41
1
10
90.9110943193092
20
3.80730251618286
30
0
41
1
10
90.911108738454
20
3.80653983912128
30
0
41
1
10
90.9111472173773
20
3.80378464901082
30
0
41
1
10
90.9111028505141
20
3.80004460296118
30
0
41
1
10
90.9108631705557
20
3.79513128009535
30
0
41
1
10
90.9102928942311
20
3.78745830168205
30
0
41
1
10
90.9090387634849
20
3.77838481964969
30
0
41
1
10
90.9067419179977
20
3.76795576472068
30
0
41
1
10
90.9045734961324
20
3.76013116940066
30
0
41
1
10
90.9019452753702
20
3.75233064642299
30
0
41
1
10
90.8988576840888
20
3.74459888230015
30
0
41
1
10
90.8953111506659
20
3.73698056354451
30
0
41
1
10
90.8913126179813
20
3.72951519032515
30
0
41
1
10
90.886869028915
20
3.72224226281108
30
0
41
1
10
90.8819969621985
20
3.71520043120174
30
0
41
1
10
90.876712996563
20
3.70842834569652
30
0
41
1
10
90.8710423371554
20
3.70196032386306
30
0
41
1
10
90.8650101891224
20
3.69583068326895
30
0
41
1
10
90.8586488979432
20
3.69006705758008
30
0
41
1
10
90.8519908090965
20
3.68469708046226
30
0
41
1
10
90.8450731754407
20
3.67974004953737
30
0
41
1
10
90.837933249834
20
3.67521526242732
30
0
41
1
10
90.8281686526824
20
3.66977148178827
30
0
41
1
10
90.8156010248349
20
3.66409590460637
30
0
41
1
10
90.8015713145327
20
3.65953485937138
30
0
41
1
10
90.7913664338074
20
3.65723143013156
30
0
41
1
10
90.7837536791803
20
3.65592006533214
30
0
41
1
10
90.7787058839724
20
3.655250886798
30
0
41
1
10
90.774043449964
20
3.65481375478746
30
0
41
1
10
90.7715854342382
20
3.65463948312188
30
0
41
1
10
90.7697563968529
20
3.65453390614121
30
0
41
1
10
90.7685446442202
20
3.65447606799455
30
0
41
1
10
90.7673015582895
20
3.65442487215981
30
0
41
1
10
90.7665034617665
20
3.65439441235245
30
0
41
1
10
90.7655193938564
20
3.65435813737739
30
0
41
1
10
90.764505466531
20
3.65432218558647
30
0
41
1
10
90.7633020918777
20
3.65428051244075
30
0
41
1
10
90.7624396419366
20
3.65425082408555
30
0
41
1
10
90.7614100100939
20
3.65421519960756
30
0
41
1
10
90.7600456212567
20
3.65416770276943
30
0
41
1
10
90.7575054544264
20
3.65407865146642
30
0
41
1
10
90.744680099663
20
3.65362747127242
30
0
41
1
10
90.7216669061135
20
3.65282007794082
30
0
41
1
10
90.6945376983201
20
3.6518701874304
30
0
41
1
10
90.6769140077257
20
3.6512527616014
30
0
41
1
10
90.6687814814616
20
3.65096779626725
30
0
41
1
10
90.6653931556929
20
3.65084906077752
30
0
41
1
10
90.6626826188095
20
3.65075407242182
30
0
41
1
10
90.6609885822346
20
3.6506947047138
30
0
41
1
10
90.6596333808141
20
3.65064721055552
30
0
41
1
10
90.658616993282
20
3.65061158994072
30
0
41
1
10
90.6577700146273
20
3.6505819060983
30
0
41
1
10
90.6570924380835
20
3.65055815902619
30
0
41
1
10
90.6540433624858
20
3.65045129720724
30
0
41
1
10
90.6484536797796
20
3.65025538395688
30
0
41
1
10
90.6376138748983
20
3.64987543121742
30
0
41
1
10
90.6240651086496
20
3.64940049058185
30
0
41
1
10
90.6078065891513
20
3.64883056181915
30
0
41
1
10
90.5918867888092
20
3.64827250657237
30
0
41
1
10
90.5788461012949
20
3.64781537621062
30
0
41
1
10
90.5686845266084
20
3.64745917073395
30
0
41
1
10
90.5632650201089
20
3.64726919447972
30
0
41
1
10
90.5600471881249
20
3.64715639607877
30
0
41
1
10
90.5580148731876
20
3.64708515498344
30
0
41
1
10
90.5556438390941
20
3.6470020403722
30
0
41
1
10
90.5529340858444
20
3.6469070522451
30
0
41
1
10
90.5502243325946
20
3.646812064118
30
0
41
1
10
90.5468371410325
20
3.64669332895909
30
0
41
1
10
90.5387078812833
20
3.64640836457775
30
0
41
1
10
90.5292237449093
20
3.64607590613284
30
0
41
1
10
90.5183847319104
20
3.6456959536244
30
0
41
1
10
90.5116103487861
20
3.64545848330661
30
0
41
1
10
90.5061908422866
20
3.64526850705238
30
0
41
1
10
90.5021262124121
20
3.6451260248617
30
0
41
1
10
90.4980615825374
20
3.64498354267101
30
0
41
1
10
90.4950131101315
20
3.64487668102802
30
0
41
1
10
90.4929807951942
20
3.6448054399327
30
0
41
1
10
90.4921064763723
20
3.64477479141979
30
0
41
1
10
90.4812674633733
20
3.64439483891135
30
0
41
1
10
90.460266875688
20
3.64365868092619
30
0
41
1
10
90.4177851425144
20
3.64216951940526
30
0
41
1
10
90.2121826146916
20
3.63496229526044
30
0
41
1
10
89.843656172729
20
3.62204390997286
30
0
41
1
10
89.323383548782
20
3.60380618956688
30
0
41
1
10
88.9765351328173
20
3.59164770929624
30
0
41
1
10
88.803110924835
20
3.5855684691609
30
0
0
SPLINE
5
22C
100
AcDbEntity
8
1
62
256
6
ByLayer
370
18
48
1
60
0
100
AcDbSpline
70
4
71
3
72
22
73
18
40
0
40
0
40
0
40
0
40
0.0023505275440297
40
0.0123487527331475
40
0.0223469779222653
40
0.0623398786787366
40
0.102332779435199
40
0.182318580948151
40
0.262304382461089
40
0.342290183974036
40
0.662233390025806
40
0.812206767862574
40
0.957493477641929
40
0.962180145699341
40
0.972178370888454
40
0.982176596077577
40
1
40
1
40
1
40
1
41
1
10
91.7424636314575
20
3.289352228052
30
0
41
1
10
91.7424709796974
20
3.28945636658611
30
0
41
1
10
91.7425095875198
20
3.29000467602188
30
0
41
1
10
91.7425796682652
20
3.2910090330144
30
0
41
1
10
91.742768519078
20
3.29373401825683
30
0
41
1
10
91.7430537271924
20
3.29784044210575
30
0
41
1
10
91.7435646675384
20
3.3051790345136
30
0
41
1
10
91.7442076783974
20
3.31439479230491
30
0
41
1
10
91.7449766792884
20
3.32542808454764
30
0
41
1
10
91.7465120689303
20
3.34746905192622
30
0
41
1
10
91.7482713695617
20
3.37272432704748
30
0
41
1
10
91.750239587143
20
3.40097866608943
30
0
41
1
10
91.7511994099548
20
3.41475429982523
30
0
41
1
10
91.7517114244067
20
3.42210132001722
30
0
41
1
10
91.7517904283087
20
3.42323494251181
30
0
41
1
10
91.7519111703022
20
3.42497185230775
30
0
41
1
10
91.7519993562991
20
3.42624949420417
30
0
41
1
10
91.75205528495
20
3.42706798528658
30
0
0
SPLINE
5
22D
100
AcDbEntity
8
1
62
256
6
ByLayer
370
18
48
1
60
0
100
AcDbSpline
70
4
71
3
72
14
73
10
40
0
40
0
40
0
40
0
40
0.0050966481374758
40
0.0240065217780263
40
0.0435263913424657
40
0.0630462609069052
40
0.375364173937937
40
0.687682086968968
40
1
40
1
40
1
40
1
41
1
10
86.5946787303935
20
2.68933533138451
30
0
41
1
10
86.598507739854
20
2.68946958502372
30
0
41
1
10
86.6165433533704
20
2.69010192306428
30
0
41
1
10
86.649243819169
20
2.6912482104623
30
0
41
1
10
86.6927801490131
20
2.69277433998491
30
0
41
1
10
86.9567477910152
20
2.70202750424818
30
0
41
1
10
87.440688468019
20
2.71899163873081
30
0
41
1
10
88.1446021800245
20
2.74366674343284
30
0
41
1
10
88.6138779880283
20
2.76011681323422
30
0
41
1
10
88.8485158920301
20
2.7683418481349
30
0
0
SPLINE
5
22E
100
AcDbEntity
8
1
62
256
6
ByLayer
370
18
48
1
60
0
100
AcDbSpline
70
4
71
3
72
19
73
15
40
0
40
0
40
0
40
0
40
0.0403657336154939
40
0.106300330648551
40
0.172234927681609
40
0.238169524714666
40
0.370038718780781
40
0.501907912846896
40
0.765646300979125
40
0.831580898012183
40
0.89751549504524
40
0.930482793561769
40
0.963450092078298
40
1
40
1
40
1
40
1
41
1
10
85.8990032365078
20
3.30556784374275
30
0
41
1
10
85.8990439325322
20
3.30444157302972
30
0
41
1
10
85.8991539470189
20
3.30147595676675
30
0
41
1
10
85.8993531578016
20
3.29667233449783
30
0
41
1
10
85.8996248296015
20
3.29115610429952
30
0
41
1
10
85.9000403280925
20
3.28380268669429
30
0
41
1
10
85.9006522428086
20
3.27461548414209
30
0
41
1
10
85.9018322067247
20
3.25992983109958
30
0
41
1
10
85.9031329221378
20
3.24710350169798
30
0
41
1
10
85.9044313234322
20
3.2361329176986
30
0
41
1
10
85.9050054133525
20
3.23156669421428
30
0
41
1
10
85.905486042309
20
3.22791719798224
30
0
41
1
10
85.9058687858414
20
3.22508221433625
30
0
41
1
10
85.9061336739252
20
3.22315974193822
30
0
41
1
10
85.9062738178415
20
3.22214901964358
30
0
0
SPLINE
5
22F
100
AcDbEntity
8
1
62
256
6
ByLayer
370
18
48
1
60
0
100
AcDbSpline
70
4
71
3
72
14
73
10
40
0
40
0
40
0
40
0
40
0.0050966481374719
40
0.0240065217780225
40
0.043526391342462
40
0.0630462609069016
40
0.375364173937934
40
0.687682086968967
40
1
40
1
40
1
40
1
41
1
10
85.7403324321932
20
7.86661302355083
30
0
41
1
10
85.7404661749567
20
7.86276938789624
30
0
41
1
10
85.7410961067602
20
7.8446648812662
30
0
41
1
10
85.7422380321885
20
7.81183950500068
30
0
41
1
10
85.7437583543276
20
7.76813687344932
30
0
41
1
10
85.7529763075072
20
7.50316091793812
30
0
41
1
10
85.7698758883365
20
7.01737166616752
30
0
41
1
10
85.7944570968156
20
6.31076911813759
30
0
41
1
10
85.8108445691349
20
5.8397007527843
30
0
41
1
10
85.8190383052946
20
5.60416657010765
30
0
0
SPLINE
5
230
100
AcDbEntity
8
1
62
256
6
ByLayer
370
18
48
1
60
0
100
AcDbSpline
70
4
71
3
72
23
73
19
40
0
40
0
40
0
40
0
40
0.0365499079216905
40
0.0695172064382084
40
0.102484504954726
40
0.135451803471244
40
0.168419101987762
40
0.234353699020798
40
0.300288296053819
40
0.36622289308687
40
0.498092087152942
40
0.629961281219006
40
0.761830475285085
40
0.827765072318118
40
0.893699669351157
40
0.926666967867675
40
0.959634266384193
40
1
40
1
40
1
40
1
41
1
10
91.0173299594518
20
8.7240219887945
30
0
41
1
10
91.0163157600151
20
8.72409182092696
30
0
41
1
10
91.014386790772
20
8.72422296822606
30
0
41
1
10
91.0115427758543
20
8.72440847940894
30
0
41
1
10
91.0087975661408
20
8.72457851463349
30
0
41
1
10
91.0060513708964
20
8.72473773520403
30
0
41
1
10
91.002388617269
20
8.72493612484755
30
0
41
1
10
90.9978082891807
20
8.72515900684749
30
0
41
1
10
90.9923098022258
20
8.72538938768926
30
0
41
1
10
90.9849761664718
20
8.7256466149129
30
0
41
1
10
90.9758056555989
20
8.72587354071734
30
0
41
1
10
90.964798323771
20
8.72599141559496
30
0
41
1
10
90.9556256906881
20
8.72596330458484
30
0
41
1
10
90.9482891157404
20
8.72586642573086
30
0
41
1
10
90.9437051123928
20
8.72577246945445
30
0
41
1
10
90.9400391540288
20
8.72567581355355
30
0
41
1
10
90.9370843439633
20
8.72558808752945
30
0
41
1
10
90.9350459204826
20
8.72552137384071
30
0
41
1
10
90.9339238298574
20
8.72548356113168
30
0
0
SPLINE
5
231
100
AcDbEntity
8
1
62
256
6
ByLayer
370
18
48
1
60
0
100
AcDbSpline
70
4
71
3
72
8
73
4
40
0
40
0
40
0
40
0
40
1
40
1
40
1
40
1
41
1
10
90.8979090247402
20
8.72422264033128
30
0
41
1
10
90.9099138907231
20
8.72464346083811
30
0
41
1
10
90.9219195195122
20
8.72504235399239
30
0
41
1
10
90.9339258316089
20
8.7254193171527
30
0
0
SPLINE
5
232
100
AcDbEntity
8
1
62
256
6
ByLayer
370
18
48
1
60
0
100
AcDbSpline
70
4
71
3
72
19
73
15
40
0
40
0
40
0
40
0
40
0.040365733615482
40
0.106300330648544
40
0.172234927681607
40
0.238169524714669
40
0.370038718780794
40
0.501907912846918
40
0.765646300979168
40
0.83158089801223
40
0.897515495045293
40
0.930482793561824
40
0.963450092078355
40
1
40
1
40
1
40
1
41
1
10
91.5935845135636
20
8.10799027345786
30
0
41
1
10
91.5935438175393
20
8.10911654417089
30
0
41
1
10
91.5934338030526
20
8.11208216043383
30
0
41
1
10
91.5932345922698
20
8.11688578270275
30
0
41
1
10
91.5929629204699
20
8.12240201290106
30
0
41
1
10
91.5925474219789
20
8.12975543050632
30
0
41
1
10
91.5919355072629
20
8.13894263305852
30
0
41
1
10
91.5907555433467
20
8.153628286101
30
0
41
1
10
91.5894548279336
20
8.1664546155026
30
0
41
1
10
91.5881564266393
20
8.17742519950198
30
0
41
1
10
91.587582336719
20
8.18199142298633
30
0
41
1
10
91.5871017077624
20
8.18564091921834
30
0
41
1
10
91.58671896423
20
8.18847590286433
30
0
41
1
10
91.5864540761461
20
8.19039837526239
30
0
41
1
10
91.5863139322299
20
8.19140909755703
30
0
0
SPLINE
5
233
100
AcDbEntity
8
1
62
256
6
ByLayer
370
18
48
1
60
0
100
AcDbSpline
70
4
71
3
72
48
73
44
40
0
40
0
40
0
40
0
40
0.015625
40
0.0234375
40
0.02734375
40
0.029296875
40
0.0302734375
40
0.03125
40
0.03173828125
40
0.046875
40
0.0625
40
0.125
40
0.1875
40
0.25
40
0.3125
40
0.375
40
0.390625
40
0.40625
40
0.4140625
40
0.421875
40
0.4375
40
0.5
40
0.5625
40
0.59375
40
0.6015625
40
0.60546875
40
0.609375
40
0.6171875
40
0.625
40
0.65625
40
0.671875
40
0.6796875
40
0.6875
40
0.71875
40
0.75
40
0.78125
40
0.7890625
40
0.79296875
40
0.796875
40
0.8046875
40
0.8125
40
0.875
40
1
40
1
40
1
40
1
41
1
10
86.6161797511602
20
5.632704752563
30
0
41
1
10
86.6116876858634
20
5.63254728698217
30
0
41
1
10
86.6049079970497
20
5.63230677098474
30
0
41
1
10
86.5975999768361
20
5.63204232021857
30
0
41
1
10
86.5941663420435
20
5.63191670322246
30
0
41
1
10
86.5925187381472
20
5.63185606988745
30
0
41
1
10
86.5915875263312
20
5.63182169882626
30
0
41
1
10
86.5910055107358
20
5.63180020371638
30
0
41
1
10
86.5870356526742
20
5.63165363655338
30
0
41
1
10
86.5795633464309
20
5.63137775754078
30
0
41
1
10
86.5572631824862
20
5.6305544311125
30
0
41
1
10
86.5236378043915
20
5.62931297555576
30
0
41
1
10
86.478803966932
20
5.6276577014801
30
0
41
1
10
86.4339701294725
20
5.62600242740444
30
0
41
1
10
86.389136292013
20
5.62434715332876
30
0
41
1
10
86.3555203616552
20
5.62310603683474
30
0
41
1
10
86.3330845474518
20
5.62227772167145
30
0
41
1
10
86.3237457392705
20
5.62193292941615
30
0
41
1
10
86.3163049254833
20
5.62165818061263
30
0
41
1
10
86.3087920016425
20
5.62138139645717
30
0
41
1
10
86.2877195672972
20
5.62060735542528
30
0
41
1
10
86.2511682730951
20
5.61927746223387
30
0
41
1
10
86.2079357447481
20
5.61772619088083
30
0
41
1
10
86.1791919424413
20
5.61670463450128
30
0
41
1
10
86.1669484404329
20
5.61627116369138
30
0
41
1
10
86.1625130171607
20
5.61611431195573
30
0
41
1
10
86.158044811922
20
5.61595643231999
30
0
41
1
10
86.1524221439939
20
5.61575782706146
30
0
41
1
10
86.1389463931405
20
5.61528180081575
30
0
41
1
10
86.1232282313963
20
5.61472655148668
30
0
41
1
10
86.1074993016891
20
5.61417095423937
30
0
41
1
10
86.0985291572902
20
5.61385404572357
30
0
41
1
10
86.085042939779
20
5.61337835722665
30
0
41
1
10
86.0646330216718
20
5.6126611507392
30
0
41
1
10
86.0372308339489
20
5.61170396836582
30
0
41
1
10
86.0166880279363
20
5.61099071193317
30
0
41
1
10
86.0041855392083
20
5.61055822786776
30
0
41
1
10
85.9996520104393
20
5.61040160208279
30
0
41
1
10
85.9951137341178
20
5.61024491410822
30
0
41
1
10
85.9894320887033
20
5.61004878331968
30
0
41
1
10
85.9667129175821
20
5.60926448822474
30
0
41
1
10
85.9099149897792
20
5.6073037504874
30
0
41
1
10
85.8553889790884
20
5.60542144225954
30
0
41
1
10
85.8190383052946
20
5.60416657010765
30
0
0
SPLINE
5
234
100
AcDbEntity
8
1
62
256
6
ByLayer
370
18
48
1
60
0
100
AcDbSpline
70
4
71
3
72
79
73
75
40
0
40
0
40
0
40
0
40
0.0017245864916255
40
0.0039792263717529
40
0.0084885061320077
40
0.0129977858922626
40
0.0220163454127722
40
0.0310349049332818
40
0.0671091430153203
40
0.139257619179397
40
0.211406095343474
40
0.220424654863984
40
0.224933934624239
40
0.22831589444443
40
0.229443214384493
40
0.231697854264621
40
0.233952494144748
40
0.237334453964939
40
0.238461773905003
40
0.240716413785131
40
0.242971053665258
40
0.247480333425513
40
0.24973497330564
40
0.256498892946022
40
0.265517452466532
40
0.283554571507551
40
0.292573131028061
40
0.31962880958959
40
0.355703047671628
40
0.391777285753667
40
0.409814404794686
40
0.427851523835705
40
0.445888642876724
40
0.463925761917744
40
0.481962880958763
40
0.499999999999782
40
0.518037119040801
40
0.536074238081821
40
0.554111357122839
40
0.572148476163859
40
0.590185595204877
40
0.608222714245898
40
0.626259833286916
40
0.644296952327936
40
0.662334071368955
40
0.680371190409976
40
0.716445428492013
40
0.725463988012522
40
0.734482547533033
40
0.751392346633987
40
0.752519666574052
40
0.754774306454179
40
0.757028946334306
40
0.760410906154501
40
0.761538226094561
40
0.763792865974691
40
0.766047505854815
40
0.769429465675009
40
0.770556785615071
40
0.771684105555133
40
0.775066065375327
40
0.77957534513558
40
0.784084624895835
40
0.78859390465609
40
0.824668142738129
40
0.860742380820167
40
0.932890856984244
40
0.968965095066282
40
0.987002214107302
40
0.991511493867558
40
0.994893453687747
40
0.996020773627811
40
0.998275413507939
40
1
40
1
40
1
40
1
41
1
10
91.567175633802
20
8.32811775042697
30
0
41
1
10
91.5671282383687
20
8.3284540770095
30
0
41
1
10
91.5670192843124
20
8.32922450673581
30
0
41
1
10
91.5667870583491
20
8.33084533981597
30
0
41
1
10
91.5664738009676
20
8.33296116572629
30
0
41
1
10
91.5659564226801
20
8.33631634705722
30
0
41
1
10
91.5652684700465
20
8.34054421375603
30
0
41
1
10
91.5634903578547
20
8.35074720842931
30
0
41
1
10
91.5589763172563
20
8.3728741777374
30
0
41
1
10
91.549472696737
20
8.40714771432044
30
0
41
1
10
91.5383809909002
20
8.43606338298639
30
0
41
1
10
91.5312229361805
20
8.45201216881591
30
0
41
1
10
91.5297786605876
20
8.45515243221956
30
0
41
1
10
91.5289985905021
20
8.4568248029162
30
0
41
1
10
91.5284093457746
20
8.45807800592704
30
0
41
1
10
91.5279156891187
20
8.4591216634667
30
0
41
1
10
91.5272196829706
20
8.46058149388767
30
0
41
1
10
91.5266178732596
20
8.461831369137
30
0
41
1
10
91.5260118805905
20
8.46308008719348
30
0
41
1
10
91.52550427307
20
8.46411995590793
30
0
41
1
10
91.5246865283624
20
8.46578216183661
30
0
41
1
10
91.5238604292452
20
8.46744195065304
30
0
41
1
10
91.5226087627631
20
8.46992788493748
30
0
41
1
10
91.520917632516
20
8.47323568962591
30
0
41
1
10
91.5176739038584
20
8.47941451642765
30
0
41
1
10
91.514080992495
20
8.48596001672323
30
0
41
1
10
91.5084931079658
20
8.49570250533077
30
0
41
1
10
91.500691896731
20
8.50855087671712
30
0
41
1
10
91.4891373989861
20
8.52582663506249
30
0
41
1
10
91.4777954390491
20
8.54105663633845
30
0
41
1
10
91.4682409880497
20
8.55291668828906
30
0
41
1
10
91.4608401681744
20
8.56164005048691
30
0
41
1
10
91.4532098265726
20
8.57018203368966
30
0
41
1
10
91.4453573415371
20
8.57853415709451
30
0
41
1
10
91.4372900913608
20
8.58668793989867
30
0
41
1
10
91.4290154543364
20
8.59463490129934
30
0
41
1
10
91.4205408087568
20
8.60236656049375
30
0
41
1
10
91.4118750972562
20
8.60987612063792
30
0
41
1
10
91.4030272624689
20
8.61715678488784
30
0
41
1
10
91.3940062470292
20
8.62420175639949
30
0
41
1
10
91.3848209935713
20
8.6310042383289
30
0
41
1
10
91.3754815247244
20
8.6375594400651
30
0
41
1
10
91.3659978631178
20
8.64386257099716
30
0
41
1
10
91.3563800313807
20
8.64990884051414
30
0
41
1
10
91.3466380521422
20
8.65569345800512
30
0
41
1
10
91.3334972915185
20
8.6630539291931
30
0
41
1
10
91.3218188147979
20
8.66902730817824
30
0
41
1
10
91.3117062888783
20
8.67380722190615
30
0
41
1
10
91.3051505295406
20
8.67680631176401
30
0
41
1
10
91.3000494484041
20
8.67903024140688
30
0
41
1
10
91.2962121045696
20
8.68064700776307
30
0
41
1
10
91.2951455814811
20
8.68109344358578
30
0
41
1
10
91.2936513639062
20
8.68171347629428
30
0
41
1
10
91.2923694689381
20
8.68223959883741
30
0
41
1
10
91.2910866951995
20
8.68276145282226
30
0
41
1
10
91.2900171742828
20
8.6831936630218
30
0
41
1
10
91.2885188557781
20
8.68379377579163
30
0
41
1
10
91.2872335486164
20
8.68430281974506
30
0
41
1
10
91.2861617955988
20
8.68472346300328
30
0
41
1
10
91.2850897150101
20
8.68514232606185
30
0
41
1
10
91.2833733515593
20
8.68580680973568
30
0
41
1
10
91.2810109615581
20
8.68670676165874
30
0
41
1
10
91.278430993392
20
8.68767142353499
30
0
41
1
10
91.2698222634546
20
8.69082992702721
30
0
41
1
10
91.2551240246457
20
8.69576287908603
30
0
41
1
10
91.2273494349743
20
8.70360445372185
30
0
41
1
10
91.1995711281175
20
8.70930516010472
30
0
41
1
10
91.1755514810563
20
8.71251088674677
30
0
41
1
10
91.1644393988368
20
8.71360269298168
30
0
41
1
10
91.1595945029073
20
8.71401100601366
30
0
41
1
10
91.1578967109622
20
8.71414502555183
30
0
41
1
10
91.1566111673235
20
8.71424245759587
30
0
41
1
10
91.155632432065
20
8.7143143357564
30
0
41
1
10
91.1548592033921
20
8.71436969711809
30
0
41
1
10
91.1545216666524
20
8.71439369674388
30
0
0
SPLINE
5
235
100
AcDbEntity
8
1
62
256
6
ByLayer
370
18
48
1
60
0
100
AcDbSpline
70
4
71
3
72
23
73
19
40
0
40
0
40
0
40
0
40
0.0365499079217316
40
0.0695172064382595
40
0.102484504954788
40
0.135451803471315
40
0.168419101987843
40
0.234353699020899
40
0.30028829605394
40
0.366222893087011
40
0.498092087153123
40
0.629961281219227
40
0.761830475285347
40
0.827765072318399
40
0.893699669351459
40
0.926666967867987
40
0.959634266384515
40
1
40
1
40
1
40
1
41
1
10
91.75205528495
20
3.42706798528661
30
0
41
1
10
91.7521248513501
20
3.42808605880046
30
0
41
1
10
91.7522554995941
20
3.4300223963927
30
0
41
1
10
91.752440304851
20
3.4328772749854
30
0
41
1
10
91.7526096930401
20
3.435632970954
30
0
41
1
10
91.7527683077283
20
3.43838965621802
30
0
41
1
10
91.7529659424394
20
3.44206640096928
30
0
41
1
10
91.753187976306
20
3.44666422516673
30
0
41
1
10
91.7534174804791
20
3.4521837154486
30
0
41
1
10
91.7536737288755
20
3.45954536449983
30
0
41
1
10
91.7538997911587
20
3.46875090523437
30
0
41
1
10
91.7540172174869
20
3.4798002832816
30
0
41
1
10
91.7539892134477
20
3.48900795433278
30
0
41
1
10
91.7538927032469
20
3.49637255380497
30
0
41
1
10
91.7537991045025
20
3.50097406730063
30
0
41
1
10
91.7537028164065
20
3.50465402902998
30
0
41
1
10
91.7536154242064
20
3.50762012598989
30
0
41
1
10
91.7535489643834
20
3.50966633591713
30
0
41
1
10
91.7535112955632
20
3.51079271274625
30
0
0
SPLINE
5
236
100
AcDbEntity
8
1
62
256
6
ByLayer
370
18
48
1
60
0
100
AcDbSpline
70
4
71
3
72
22
73
18
40
0
40
0
40
0
40
0
40
0.0023505275439412
40
0.0123487527330601
40
0.0223469779221789
40
0.0623398786786542
40
0.10233277943512
40
0.18231858094808
40
0.262304382461026
40
0.342290183973981
40
0.662233390025784
40
0.812206767862566
40
0.957493477641936
40
0.962180145699349
40
0.972178370888463
40
0.982176596077586
40
1
40
1
40
1
40
1
41
1
10
91.1545216666527
20
8.71439369674385
30
0
41
1
10
91.1544179243971
20
8.71440107305293
30
0
41
1
10
91.1538717014443
20
8.71443982835086
30
0
41
1
10
91.1528711663333
20
8.71451017679337
30
0
41
1
10
91.1501565504825
20
8.71469974898562
30
0
41
1
10
91.146065752816
20
8.71498604654872
30
0
41
1
10
91.1387550859679
20
8.7154989386037
30
0
41
1
10
91.1295743969173
20
8.7161444056598
30
0
41
1
10
91.1185830896826
20
8.71691634400921
30
0
41
1
10
91.0966259948393
20
8.71845759859016
30
0
41
1
10
91.0714668236646
20
8.72022361946415
30
0
41
1
10
91.043320000913
20
8.72219935531692
30
0
41
1
10
91.0295967876224
20
8.72316284449585
30
0
41
1
10
91.0222777250604
20
8.72367681475973
30
0
41
1
10
91.0211484163416
20
8.72375612044388
30
0
41
1
10
91.0194181160119
20
8.72387732365218
30
0
41
1
10
91.0181453359286
20
8.72396584650525
30
0
41
1
10
91.0173299594518
20
8.7240219887945
30
0
0
SPLINE
5
237
100
AcDbEntity
8
1
62
256
6
ByLayer
370
18
48
1
60
0
100
AcDbSpline
70
4
71
3
72
22
73
18
40
0
40
0
40
0
40
0
40
0.0178234039225359
40
0.0278216291116507
40
0.0378198543007654
40
0.112806543219126
40
0.187793232137486
40
0.337766609974207
40
0.497738213000043
40
0.657709816025879
40
0.817681419051715
40
0.897667220564633
40
0.977653022077551
40
0.982652134672108
40
0.987651247266665
40
0.99764947245578
40
1
40
1
40
1
40
1
41
1
10
85.9062738178415
20
3.22214901964358
30
0
41
1
10
85.9063864880408
20
3.22133643865243
30
0
41
1
10
85.9065632438715
20
3.22006808406951
30
0
41
1
10
85.9068043913931
20
3.21834386000697
30
0
41
1
10
85.9074108061544
20
3.21401348020268
30
0
41
1
10
85.9084320730906
20
3.2067202134815
30
0
41
1
10
85.910346791787
20
3.19304534961631
30
0
41
1
10
85.9128038128758
20
3.17549595541013
30
0
41
1
10
85.9158032931662
20
3.15407201962597
30
0
41
1
10
85.918866592186
20
3.13219225542085
30
0
41
1
10
85.9214193413692
20
3.11395911858327
30
0
41
1
10
85.9234703125879
20
3.09932186552283
30
0
41
1
10
85.9245198372435
20
3.09182085305906
30
0
41
1
10
85.9250867908366
20
3.08776129146184
30
0
41
1
10
85.9252124813722
20
3.08686197681834
30
0
41
1
10
85.9253209328728
20
3.08608800743485
30
0
41
1
10
85.9253975492355
20
3.08554373708623
30
0
41
1
10
85.9254121162695
20
3.08544036677364
30
0
0
SPLINE
5
238
100
AcDbEntity
8
1
62
256
6
ByLayer
370
18
48
1
60
0
100
AcDbSpline
70
4
71
3
72
22
73
18
40
0
40
0
40
0
40
0
40
0.0023505275438916
40
0.0123487527330123
40
0.0223469779221329
40
0.0623398786786154
40
0.102332779435089
40
0.182318580948063
40
0.262304382461023
40
0.342290183973993
40
0.662233390025853
40
0.812206767862662
40
0.957493477642058
40
0.962180145699471
40
0.972178370888588
40
0.982176596077713
40
1
40
1
40
1
40
1
41
1
10
86.3380660834188
20
2.69916442045673
30
0
41
1
10
86.3381698256744
20
2.69915704414765
30
0
41
1
10
86.3387160486272
20
2.69911828884975
30
0
41
1
10
86.3397165837381
20
2.69904794040721
30
0
41
1
10
86.342431199589
20
2.69885836821499
30
0
41
1
10
86.3465219972554
20
2.69857207065189
30
0
41
1
10
86.3538326641036
20
2.69805917859691
30
0
41
1
10
86.3630133531541
20
2.6974137115408
30
0
41
1
10
86.3740046603888
20
2.69664177319137
30
0
41
1
10
86.3959617552322
20
2.69510051861044
30
0
41
1
10
86.4211209264068
20
2.69333449773646
30
0
41
1
10
86.4492677491585
20
2.69135876188369
30
0
41
1
10
86.4629909624489
20
2.69039527270476
30
0
41
1
10
86.470310025011
20
2.68988130244085
30
0
41
1
10
86.4714393337298
20
2.6898019967567
30
0
41
1
10
86.4731696340596
20
2.68968079354843
30
0
41
1
10
86.4744424141428
20
2.68959227069533
30
0
41
1
10
86.4752577906195
20
2.6895361284061
30
0
0
SPLINE
5
239
100
AcDbEntity
8
1
62
256
6
ByLayer
370
18
48
1
60
0
100
AcDbSpline
70
4
71
3
72
13
73
9
40
0
40
0
40
0
40
0
40
0.312317913031033
40
0.624635826062065
40
0.936953739093098
40
0.975993478221977
40
0.994903351862528
40
1
40
1
40
1
40
1
41
1
10
88.8485158920301
20
2.7683418481349
30
0
41
1
10
89.0831537960319
20
2.77656688303557
30
0
41
1
10
89.5524296040356
20
2.79301695283692
30
0
41
1
10
90.2563433160412
20
2.81769205753895
30
0
41
1
10
90.7549488620451
20
2.8351702567029
30
0
41
1
10
91.033123095891
20
2.84492142112617
30
0
41
1
10
91.0804884306897
20
2.84658177320551
30
0
41
1
10
91.0985240521794
20
2.84721388205003
30
0
41
1
10
91.1023530637888
20
2.84734807391558
30
0
0
SPLINE
5
23A
100
AcDbEntity
8
1
62
256
6
ByLayer
370
18
48
1
60
0
100
AcDbSpline
70
4
71
3
72
79
73
75
40
0
40
0
40
0
40
0
40
0.0017245864916184
40
0.0039792263717458
40
0.0084885061320006
40
0.0129977858922555
40
0.0220163454127652
40
0.0310349049332749
40
0.0671091430153137
40
0.139257619179391
40
0.211406095343469
40
0.220424654863978
40
0.224933934624233
40
0.228315894444424
40
0.229443214384488
40
0.231697854264616
40
0.233952494144743
40
0.237334453964934
40
0.238461773904998
40
0.240716413785125
40
0.242971053665253
40
0.247480333425508
40
0.249734973305635
40
0.256498892946017
40
0.265517452466527
40
0.283554571507546
40
0.292573131028056
40
0.319628809589585
40
0.355703047671624
40
0.391777285753663
40
0.409814404794682
40
0.427851523835702
40
0.445888642876721
40
0.46392576191774
40
0.48196288095876
40
0.499999999999779
40
0.518037119040799
40
0.536074238081818
40
0.554111357122836
40
0.572148476163857
40
0.590185595204875
40
0.608222714245895
40
0.626259833286914
40
0.644296952327934
40
0.662334071368954
40
0.680371190409974
40
0.716445428492012
40
0.72546398801252
40
0.734482547533032
40
0.751392346633986
40
0.752519666574051
40
0.754774306454178
40
0.757028946334306
40
0.7604109061545
40
0.76153822609456
40
0.76379286597469
40
0.766047505854814
40
0.769429465675008
40
0.77055678561507
40
0.771684105555133
40
0.775066065375326
40
0.77957534513558
40
0.784084624895835
40
0.788593904656089
40
0.824668142738128
40
0.860742380820167
40
0.932890856984245
40
0.968965095066283
40
0.987002214107303
40
0.991511493867559
40
0.994893453687748
40
0.996020773627812
40
0.99827541350794
40
1
40
1
40
1
40
1
41
1
10
85.9254121162695
20
3.08544036677364
30
0
41
1
10
85.9254595117027
20
3.08510404019111
30
0
41
1
10
85.925568465759
20
3.08433361046477
30
0
41
1
10
85.9258006917224
20
3.08271277738461
30
0
41
1
10
85.9261139491039
20
3.08059695147429
30
0
41
1
10
85.9266313273913
20
3.07724177014336
30
0
41
1
10
85.9273192800249
20
3.07301390344458
30
0
41
1
10
85.9290973922168
20
3.06281090877127
30
0
41
1
10
85.9336114328151
20
3.04068393946321
30
0
41
1
10
85.9431150533345
20
3.00641040288016
30
0
41
1
10
85.9542067591712
20
2.97749473421422
30
0
41
1
10
85.9613648138909
20
2.9615459483847
30
0
41
1
10
85.9628090894839
20
2.95840568498105
30
0
41
1
10
85.9635891595694
20
2.95673331428441
30
0
41
1
10
85.9641784042968
20
2.95548011127357
30
0
41
1
10
85.9646720609526
20
2.95443645373391
30
0
41
1
10
85.9653680671008
20
2.95297662331294
30
0
41
1
10
85.9659698768118
20
2.95172674806358
30
0
41
1
10
85.9665758694809
20
2.95047803000711
30
0
41
1
10
85.9670834770014
20
2.94943816129268
30
0
41
1
10
85.967901221709
20
2.94777595536399
30
0
41
1
10
85.9687273208262
20
2.94611616654754
30
0
41
1
10
85.9699789873084
20
2.9436302322631
30
0
41
1
10
85.9716701175554
20
2.9403224275747
30
0
41
1
10
85.974913846213
20
2.93414360077293
30
0
41
1
10
85.9785067575764
20
2.92759810047738
30
0
41
1
10
85.9840946421056
20
2.91785561186981
30
0
41
1
10
85.9918958533404
20
2.90500724048349
30
0
41
1
10
86.0034503510853
20
2.88773148213812
30
0
41
1
10
86.0147923110223
20
2.87250148086216
30
0
41
1
10
86.0243467620217
20
2.86064142891152
30
0
41
1
10
86.031747581897
20
2.85191806671367
30
0
41
1
10
86.0393779234988
20
2.84337608351092
30
0
41
1
10
86.0472304085343
20
2.8350239601061
30
0
41
1
10
86.0552976587106
20
2.82687017730194
30
0
41
1
10
86.063572295735
20
2.81892321590127
30
0
41
1
10
86.0720469413147
20
2.81119155670683
30
0
41
1
10
86.0807126528152
20
2.80368199656269
30
0
41
1
10
86.0895604876025
20
2.79640133231277
30
0
41
1
10
86.0985815030422
20
2.78935636080112
30
0
41
1
10
86.1077667565002
20
2.78255387887171
30
0
41
1
10
86.117106225347
20
2.77599867713551
30
0
41
1
10
86.1265898869536
20
2.76969554620345
30
0
41
1
10
86.1362077186907
20
2.76364927668646
30
0
41
1
10
86.1459496979292
20
2.75786465919549
30
0
41
1
10
86.1590904585528
20
2.75050418800748
30
0
41
1
10
86.1707689352735
20
2.74453080902234
30
0
41
1
10
86.1808814611932
20
2.73975089529443
30
0
41
1
10
86.1874372205309
20
2.7367518054366
30
0
41
1
10
86.1925383016674
20
2.73452787579373
30
0
41
1
10
86.1963756455019
20
2.73291110943751
30
0
41
1
10
86.1974421685903
20
2.7324646736148
30
0
41
1
10
86.1989363861653
20
2.73184464090633
30
0
41
1
10
86.2002182811333
20
2.7313185183632
30
0
41
1
10
86.201501054872
20
2.73079666437832
30
0
41
1
10
86.2025705757887
20
2.73036445417881
30
0
41
1
10
86.2040688942934
20
2.72976434140895
30
0
41
1
10
86.205354201455
20
2.72925529745552
30
0
41
1
10
86.2064259544727
20
2.7288346541973
30
0
41
1
10
86.2074980350613
20
2.72841579113876
30
0
41
1
10
86.2092143985121
20
2.72775130746493
30
0
41
1
10
86.2115767885133
20
2.72685135554187
30
0
41
1
10
86.2141567566794
20
2.72588669366562
30
0
41
1
10
86.2227654866169
20
2.7227281901734
30
0
41
1
10
86.2374637254258
20
2.71779523811458
30
0
41
1
10
86.2652383150972
20
2.70995366347876
30
0
41
1
10
86.2930166219539
20
2.70425295709589
30
0
41
1
10
86.3170362690151
20
2.70104723045381
30
0
41
1
10
86.3281483512346
20
2.6999554242189
30
0
41
1
10
86.3329932471642
20
2.69954711118694
30
0
41
1
10
86.3346910391093
20
2.69941309164875
30
0
41
1
10
86.3359765827479
20
2.69931565960474
30
0
41
1
10
86.3369553180065
20
2.69924378144418
30
0
41
1
10
86.3377285466793
20
2.69918842008252
30
0
41
1
10
86.338066083419
20
2.69916442045673
30
0
0
SPLINE
5
23B
100
AcDbEntity
8
1
62
256
6
ByLayer
370
18
48
1
60
0
100
AcDbSpline
70
4
71
3
72
13
73
9
40
0
40
0
40
0
40
0
40
0.312317913031033
40
0.624635826062067
40
0.9369537390931
40
0.975993478221979
40
0.99490335186253
40
1
40
1
40
1
40
1
41
1
10
91.6735494447769
20
5.80939154709293
30
0
41
1
10
91.6653557086172
20
6.04492572976957
30
0
41
1
10
91.6489682362978
20
6.51599409512286
30
0
41
1
10
91.6243870278188
20
7.2225966431528
30
0
41
1
10
91.6069753384795
20
7.72310678134068
30
0
41
1
10
91.5972612801808
20
8.00234359556865
30
0
41
1
10
91.5956072462424
20
8.04988985825148
30
0
41
1
10
91.5949775427629
20
8.06799437288521
30
0
41
1
10
91.5948438615379
20
8.07183801069698
30
0
0
SPLINE
5
23C
100
AcDbEntity
8
1
62
256
6
ByLayer
370
18
48
1
60
0
100
AcDbSpline
70
4
71
3
72
19
73
15
40
0
40
0
40
0
40
0
40
0.04036573361566
40
0.106300330648707
40
0.172234927681754
40
0.238169524714801
40
0.370038718780895
40
0.501907912846989
40
0.765646300979177
40
0.831580898012224
40
0.897515495045272
40
0.930482793561795
40
0.963450092078319
40
1
40
1
40
1
40
1
41
1
10
91.1383677562752
20
2.84861223239457
30
0
41
1
10
91.1394897411882
20
2.84865308387108
30
0
41
1
10
91.1424440723859
20
2.84876351859523
30
0
41
1
10
91.1472294154219
20
2.84896349033085
30
0
41
1
10
91.1527246546988
20
2.84923619987288
30
0
41
1
10
91.1600500903301
20
2.84965328550061
30
0
41
1
10
91.1692023328029
20
2.85026753763142
30
0
41
1
10
91.1838321025018
20
2.85145200881806
30
0
41
1
10
91.1966096238477
20
2.85275769275273
30
0
41
1
10
91.2075384614628
20
2.85406105372911
30
0
41
1
10
91.2120873090882
20
2.85463733657963
30
0
41
1
10
91.2157229178853
20
2.85511980146069
30
0
41
1
10
91.2185471135626
20
2.85550400701123
30
0
41
1
10
91.2204622703727
20
2.85576990692454
30
0
41
1
10
91.2214691465639
20
2.85591058616777
30
0
0
SPLINE
5
23D
100
AcDbEntity
8
1
62
256
6
ByLayer
370
18
48
1
60
0
100
AcDbSpline
70
4
71
3
72
13
73
9
40
0
40
0
40
0
40
0
40
0.312317913031033
40
0.624635826062066
40
0.9369537390931
40
0.975993478221979
40
0.99490335186253
40
1
40
1
40
1
40
1
41
1
10
85.8190383052946
20
5.60416657010765
30
0
41
1
10
85.8272320414542
20
5.36863238743101
30
0
41
1
10
85.8436195137736
20
4.89756402207772
30
0
41
1
10
85.8682007222527
20
4.19096147404778
30
0
41
1
10
85.8856124115919
20
3.69045133585991
30
0
41
1
10
85.8953264698906
20
3.41121452163193
30
0
41
1
10
85.896980503829
20
3.3636682589491
30
0
41
1
10
85.8976102073086
20
3.34556374431537
30
0
41
1
10
85.8977438885335
20
3.34172010650363
30
0
0
SPLINE
5
23E
100
AcDbEntity
8
1
62
256
6
ByLayer
370
18
48
1
60
0
100
AcDbSpline
70
4
71
3
72
13
73
9
40
0
40
0
40
0
40
0
40
0.312317913031032
40
0.624635826062064
40
0.936953739093096
40
0.975993478221975
40
0.994903351862526
40
1
40
1
40
1
40
1
41
1
10
88.6440718580413
20
8.64521626906571
30
0
41
1
10
88.4094339540395
20
8.63699123416504
30
0
41
1
10
87.9401581460358
20
8.62054116436369
30
0
41
1
10
87.2362444340303
20
8.59586605966163
30
0
41
1
10
86.7376388880264
20
8.57838786049768
30
0
41
1
10
86.4594646541804
20
8.56863669607444
30
0
41
1
10
86.4120993193817
20
8.56697634399509
30
0
41
1
10
86.394063697892
20
8.56634423515058
30
0
41
1
10
86.3902346862826
20
8.56621004328503
30
0
0
SPLINE
5
23F
100
AcDbEntity
8
1
62
256
6
ByLayer
370
18
48
1
60
0
100
AcDbSpline
70
4
71
3
72
23
73
19
40
0
40
0
40
0
40
0
40
0.036549907921712
40
0.0695172064382461
40
0.10248450495478
40
0.135451803471314
40
0.168419101987848
40
0.234353699020916
40
0.300288296053969
40
0.366222893087052
40
0.498092087153188
40
0.629961281219317
40
0.76183047528546
40
0.827765072318525
40
0.893699669351597
40
0.926666967868131
40
0.959634266384665
40
1
40
1
40
1
40
1
41
1
10
86.4752577906195
20
2.6895361284061
30
0
41
1
10
86.4762719900564
20
2.68946629627365
30
0
41
1
10
86.4782009592994
20
2.68933514897455
30
0
41
1
10
86.4810449742172
20
2.68914963779167
30
0
41
1
10
86.4837901839306
20
2.68897960256709
30
0
41
1
10
86.486536379175
20
2.68882038199655
30
0
41
1
10
86.4901991328024
20
2.68862199235303
30
0
41
1
10
86.4947794608907
20
2.68839911035312
30
0
41
1
10
86.5002779478456
20
2.68816872951132
30
0
41
1
10
86.5076115835997
20
2.6879115022877
30
0
41
1
10
86.5167820944725
20
2.68768457648323
30
0
41
1
10
86.5277894263004
20
2.68756670160562
30
0
41
1
10
86.5369620593834
20
2.68759481261574
30
0
41
1
10
86.5442986343311
20
2.68769169146972
30
0
41
1
10
86.5488826376787
20
2.68778564774615
30
0
41
1
10
86.5525485960426
20
2.68788230364703
30
0
41
1
10
86.5555034061081
20
2.68797002967113
30
0
41
1
10
86.5575418295888
20
2.68803674335987
30
0
41
1
10
86.558663920214
20
2.68807455606893
30
0
0
SPLINE
5
240
100
AcDbEntity
8
1
62
256
6
ByLayer
370
18
48
1
60
0
100
AcDbSpline
70
4
71
3
72
153
73
149
40
0
40
0
40
0
40
0
40
0.125
40
0.25
40
0.375
40
0.3828125
40
0.390625
40
0.398193359375
40
0.4019775390625
40
0.405643463134766
40
0.40576171875
40
0.406005859375
40
0.40625
40
0.4072265625
40
0.40771484375
40
0.408203125
40
0.4091796875
40
0.41015625
40
0.412109375
40
0.4140625
40
0.416015625
40
0.4169921875
40
0.41796875
40
0.4189453125
40
0.41943359375
40
0.419921875
40
0.42041015625
40
0.4208984375
40
0.421875
40
0.422119140625
40
0.42236328125
40
0.422477722167969
40
0.426025390625
40
0.4296875
40
0.4375
40
0.439453125
40
0.44140625
40
0.443359375
40
0.4443359375
40
0.4453125
40
0.445556640625
40
0.44580078125
40
0.446044921875
40
0.4462890625
40
0.4464111328125
40
0.44677734375
40
0.447265625
40
0.44921875
40
0.453125
40
0.4609375
40
0.46484375
40
0.46875
40
0.46923828125
40
0.4697265625
40
0.47021484375
40
0.4705810546875
40
0.470703125
40
0.4708251953125
40
0.47119140625
40
0.471435546875
40
0.4716796875
40
0.4718017578125
40
0.47216796875
40
0.472412109375
40
0.47265625
40
0.4727783203125
40
0.474609375
40
0.4755859375
40
0.4765625
40
0.48046875
40
0.482421875
40
0.484375
40
0.486328125
40
0.48828125
40
0.490234375
40
0.4921875
40
0.494140625
40
0.49609375
40
0.498046875
40
0.5
40
0.501953125
40
0.50390625
40
0.505859375
40
0.5078125
40
0.509765625
40
0.51171875
40
0.515625
40
0.51953125
40
0.5224609375
40
0.5234375
40
0.525390625
40
0.5263671875
40
0.527099609375
40
0.52734375
40
0.52783203125
40
0.528076171875
40
0.5283203125
40
0.5284423828125
40
0.52880859375
40
0.529052734375
40
0.529296875
40
0.5294189453125
40
0.52978515625
40
0.5302734375
40
0.53125
40
0.5390625
40
0.546875
40
0.55078125
40
0.5517578125
40
0.552734375
40
0.55322265625
40
0.5537109375
40
0.553955078125
40
0.55419921875
40
0.554443359375
40
0.5545654296875
40
0.5546875
40
0.556640625
40
0.55859375
40
0.5625
40
0.56640625
40
0.5703125
40
0.573974609375
40
0.5758056640625
40
0.57763671875
40
0.577880859375
40
0.578125
40
0.5791015625
40
0.57958984375
40
0.580078125
40
0.5810546875
40
0.58203125
40
0.5859375
40
0.587890625
40
0.58984375
40
0.5908203125
40
0.591796875
40
0.5927734375
40
0.59375
40
0.593994140625
40
0.59423828125
40
0.594380187988281
40
0.601806640625
40
0.609375
40
0.625
40
0.75
40
0.875
40
1
40
1
40
1
40
1
41
1
10
88.6555260629567
20
7.8279896480397
30
0
41
1
10
88.8289502709391
20
7.83406888817501
30
0
41
1
10
89.1757986869037
20
7.84622736844568
30
0
41
1
10
89.6960713108508
20
7.86446508885166
30
0
41
1
10
90.0537587398143
20
7.87700352163077
30
0
41
1
10
90.2488609737945
20
7.88384266678301
30
0
41
1
10
90.281039293635
20
7.8849706507925
30
0
41
1
10
90.3076287473979
20
7.88590272178982
30
0
41
1
10
90.3284652679919
20
7.88663312854069
30
0
41
1
10
90.3389655618346
20
7.88700120753327
30
0
41
1
10
90.3445544279122
20
7.88719712054544
30
0
41
1
10
90.3453959333159
20
7.88722661881147
30
0
41
1
10
90.3474282482532
20
7.88729785990682
30
0
41
1
10
90.3497992823467
20
7.88738097451804
30
0
41
1
10
90.3525090355964
20
7.88747596264514
30
0
41
1
10
90.3552187888462
20
7.88757095077227
30
0
41
1
10
90.3586059804083
20
7.88768968593115
30
0
41
1
10
90.3640254869078
20
7.88787966218538
30
0
41
1
10
90.3707998700321
20
7.88811713250317
30
0
41
1
10
90.3789291297813
20
7.88840209688451
30
0
41
1
10
90.3857035129055
20
7.88863956720229
30
0
41
1
10
90.391123019405
20
7.88882954345652
30
0
41
1
10
90.3951876492796
20
7.88897202564721
30
0
41
1
10
90.3985748408417
20
7.88909076080611
30
0
41
1
10
90.4012845940915
20
7.88918574893322
30
0
41
1
10
90.4033169090288
20
7.88925699002854
30
0
41
1
10
90.4053492239661
20
7.8893282311239
30
0
41
1
10
90.4080589772158
20
7.889423219251
30
0
41
1
10
90.4104300113093
20
7.88950633386222
30
0
41
1
10
90.4124623262466
20
7.88957757495757
30
0
41
1
10
90.4132985391635
20
7.8896068876999
30
0
41
1
10
90.418718045663
20
7.88979686395413
30
0
41
1
10
90.4288796203494
20
7.89015306943082
30
0
41
1
10
90.4497214334303
20
7.89088366170537
30
0
41
1
10
90.4683509870221
20
7.89153670507929
30
0
41
1
10
90.4846095065205
20
7.89210663384199
30
0
41
1
10
90.4927389637621
20
7.89239161202821
30
0
41
1
10
90.4995138406172
20
7.89262911685819
30
0
41
1
10
90.50493403834
20
7.89281914142947
30
0
41
1
10
90.5079830291634
20
7.89292603931028
30
0
41
1
10
90.5100157514287
20
7.89299730887819
30
0
41
1
10
90.5110321252903
20
7.89303294455189
30
0
41
1
10
90.5120485122667
20
7.89306858114233
30
0
41
1
10
90.5128955126641
20
7.89309827908747
30
0
41
1
10
90.5139119235556
20
7.89313391734959
30
0
41
1
10
90.5152671568496
20
7.89318143634461
30
0
41
1
10
90.5191635508982
20
7.89331806032854
30
0
41
1
10
90.5279734582107
20
7.89362699607091
30
0
41
1
10
90.5469527905314
20
7.89429268603382
30
0
41
1
10
90.5686560955521
20
7.89505435807502
30
0
41
1
10
90.5903265626264
20
7.89581373471702
30
0
41
1
10
90.6018193148537
20
7.89621577767201
30
0
41
1
10
90.6085705797539
20
7.89645163200711
30
0
41
1
10
90.6105980067551
20
7.89652253143174
30
0
41
1
10
90.6124607961659
20
7.89658782416919
30
0
41
1
10
90.6138251620246
20
7.89663598153794
30
0
41
1
10
90.6146831614354
20
7.89666644832303
30
0
41
1
10
90.6155441026594
20
7.89669712074328
30
0
41
1
10
90.6165790318273
20
7.89673400591977
30
0
41
1
10
90.6177660583924
20
7.8967753360445
30
0
41
1
10
90.6185935148707
20
7.89680319257172
30
0
41
1
10
90.6195601939892
20
7.89683449903475
30
0
41
1
10
90.6204967550283
20
7.89686258160552
30
0
41
1
10
90.6215669546017
20
7.89688891322277
30
0
41
1
10
90.6223267294468
20
7.89690338744634
30
0
41
1
10
90.6250714352271
20
7.89694201335288
30
0
41
1
10
90.6287972492724
20
7.89689747701547
30
0
41
1
10
90.6336918754613
20
7.8966568815186
30
0
41
1
10
90.6413356558753
20
7.89608442683101
30
0
41
1
10
90.6503746105691
20
7.8948255055092
30
0
41
1
10
90.6607639797955
20
7.89251988644537
30
0
41
1
10
90.668558800168
20
7.89034318156081
30
0
41
1
10
90.6763296398007
20
7.88770492142226
30
0
41
1
10
90.6840319822268
20
7.88460553604378
30
0
41
1
10
90.6916213109795
20
7.88104545543931
30
0
41
1
10
90.6990582761999
20
7.8770316490095
30
0
41
1
10
90.706303528029
20
7.87257108615486
30
0
41
1
10
90.7133185633431
20
7.86768040893492
30
0
41
1
10
90.7200648790184
20
7.8623762594091
30
0
41
1
10
90.726508288076
20
7.8566839390038
30
0
41
1
10
90.7326146035371
20
7.85062874914533
30
0
41
1
10
90.7383562968902
20
7.84424315886719
30
0
41
1
10
90.7437058396238
20
7.83755963720279
30
0
41
1
10
90.7486440075494
20
7.83061557931026
30
0
41
1
10
90.7531515764785
20
7.82344838034768
30
0
41
1
10
90.7585746418887
20
7.81364648402126
30
0
41
1
10
90.7642286217859
20
7.80103084987709
30
0
41
1
10
90.7687723108668
20
7.78694754836073
30
0
41
1
10
90.7710669748629
20
7.77670368664886
30
0
41
1
10
90.7723733495233
20
7.76906185253586
30
0
41
1
10
90.7730399816311
20
7.76399477557038
30
0
41
1
10
90.7734754502224
20
7.75931453182156
30
0
41
1
10
90.7736490587317
20
7.75684712687493
30
0
41
1
10
90.7737542339601
20
7.7550111028639
30
0
41
1
10
90.7738118520151
20
7.75379472153304
30
0
41
1
10
90.7738628530342
20
7.75254688721608
30
0
41
1
10
90.7738931969329
20
7.75174574209405
30
0
41
1
10
90.7739293338707
20
7.75075791520436
30
0
41
1
10
90.7739651488542
20
7.74974011484133
30
0
41
1
10
90.7740066634209
20
7.74853214349233
30
0
41
1
10
90.774036238803
20
7.74766639913253
30
0
41
1
10
90.7740717277191
20
7.74663283426349
30
0
41
1
10
90.7741190438175
20
7.74526323368252
30
0
41
1
10
90.7742077562534
20
7.74271336382762
30
0
41
1
10
90.7746572195705
20
7.72983901829258
30
0
41
1
10
90.7754615405267
20
7.70673791808233
30
0
41
1
10
90.776407816417
20
7.67950508112256
30
0
41
1
10
90.7770228927543
20
7.66181407089314
30
0
41
1
10
90.7773067737093
20
7.65365047969991
30
0
41
1
10
90.7774250573747
20
7.65024921107721
30
0
41
1
10
90.777519684271
20
7.64752832038332
30
0
41
1
10
90.7775788260669
20
7.64582781286379
30
0
41
1
10
90.7776261394956
20
7.64446743479417
30
0
41
1
10
90.7776616245632
20
7.64344716482677
30
0
41
1
10
90.7776911954497
20
7.64259695085119
30
0
41
1
10
90.777714852157
20
7.641916786075
30
0
41
1
10
90.7778213073345
20
7.63885606350397
30
0
41
1
10
90.7780164750758
20
7.63324502911783
30
0
41
1
10
90.7783949819803
20
7.62236381794287
30
0
41
1
10
90.7788681153234
20
7.60876329760828
30
0
41
1
10
90.7794358753351
20
7.59244267320673
30
0
41
1
10
90.7799918070132
20
7.57646206181357
30
0
41
1
10
90.7804471978559
20
7.56337156099153
30
0
41
1
10
90.7808020478632
20
7.55317117074057
30
0
41
1
10
90.7809913012004
20
7.54773096260675
30
0
41
1
10
90.7811036703694
20
7.54450083902728
30
0
41
1
10
90.7811746403708
20
7.54246076097706
30
0
41
1
10
90.7812574387058
20
7.54008066991852
30
0
41
1
10
90.7813520653745
20
7.5373605658516
30
0
41
1
10
90.7814466920431
20
7.53464046178468
30
0
41
1
10
90.7815649753789
20
7.53124033170104
30
0
41
1
10
90.7818488553847
20
7.52308001950027
30
0
41
1
10
90.7821800487249
20
7.51355965526605
30
0
41
1
10
90.7825585553993
20
7.50267923899835
30
0
41
1
10
90.7827951220708
20
7.49587897883106
30
0
41
1
10
90.782984375408
20
7.49043877069721
30
0
41
1
10
90.783126315411
20
7.48635861459684
30
0
41
1
10
90.7832682554139
20
7.48227845849647
30
0
41
1
10
90.7833747104161
20
7.47921834142116
30
0
41
1
10
90.7834456804175
20
7.47717826337097
30
0
41
1
10
90.7834762123036
20
7.47630060479315
30
0
41
1
10
90.783854718978
20
7.46542018852546
30
0
41
1
10
90.7845880756598
20
7.44433938200683
30
0
41
1
10
90.7860715704716
20
7.40169537551392
30
0
41
1
10
90.7932513689526
20
7.19530747943634
30
0
41
1
10
90.806120595884
20
6.82537332633513
30
0
41
1
10
90.8242889162577
20
6.30311334548634
30
0
41
1
10
90.8364011298402
20
5.95494002492049
30
0
41
1
10
90.8424572366314
20
5.78085336463758
30
0
0
SPLINE
5
241
100
AcDbEntity
8
1
62
256
6
ByLayer
370
18
48
1
60
0
100
AcDbSpline
70
4
71
3
72
153
73
149
40
0
40
0
40
0
40
0
40
0.125
40
0.25
40
0.375
40
0.3828125
40
0.390625
40
0.398193359375
40
0.4019775390625
40
0.405643463134766
40
0.40576171875
40
0.406005859375
40
0.40625
40
0.4072265625
40
0.40771484375
40
0.408203125
40
0.4091796875
40
0.41015625
40
0.412109375
40
0.4140625
40
0.416015625
40
0.4169921875
40
0.41796875
40
0.4189453125
40
0.41943359375
40
0.419921875
40
0.42041015625
40
0.4208984375
40
0.421875
40
0.422119140625
40
0.42236328125
40
0.422477722167969
40
0.426025390625
40
0.4296875
40
0.4375
40
0.439453125
40
0.44140625
40
0.443359375
40
0.4443359375
40
0.4453125
40
0.445556640625
40
0.44580078125
40
0.446044921875
40
0.4462890625
40
0.4464111328125
40
0.44677734375
40
0.447265625
40
0.44921875
40
0.453125
40
0.4609375
40
0.46484375
40
0.46875
40
0.46923828125
40
0.4697265625
40
0.47021484375
40
0.4705810546875
40
0.470703125
40
0.4708251953125
40
0.47119140625
40
0.471435546875
40
0.4716796875
40
0.4718017578125
40
0.47216796875
40
0.472412109375
40
0.47265625
40
0.4727783203125
40
0.474609375
40
0.4755859375
40
0.4765625
40
0.48046875
40
0.482421875
40
0.484375
40
0.486328125
40
0.48828125
40
0.490234375
40
0.4921875
40
0.494140625
40
0.49609375
40
0.498046875
40
0.5
40
0.501953125
40
0.50390625
40
0.505859375
40
0.5078125
40
0.509765625
40
0.51171875
40
0.515625
40
0.51953125
40
0.5224609375
40
0.5234375
40
0.525390625
40
0.5263671875
40
0.527099609375
40
0.52734375
40
0.52783203125
40
0.528076171875
40
0.5283203125
40
0.5284423828125
40
0.52880859375
40
0.529052734375
40
0.529296875
40
0.5294189453125
40
0.52978515625
40
0.5302734375
40
0.53125
40
0.5390625
40
0.546875
40
0.55078125
40
0.5517578125
40
0.552734375
40
0.55322265625
40
0.5537109375
40
0.553955078125
40
0.55419921875
40
0.554443359375
40
0.5545654296875
40
0.5546875
40
0.556640625
40
0.55859375
40
0.5625
40
0.56640625
40
0.5703125
40
0.573974609375
40
0.5758056640625
40
0.57763671875
40
0.577880859375
40
0.578125
40
0.5791015625
40
0.57958984375
40
0.580078125
40
0.5810546875
40
0.58203125
40
0.5859375
40
0.587890625
40
0.58984375
40
0.5908203125
40
0.591796875
40
0.5927734375
40
0.59375
40
0.593994140625
40
0.59423828125
40
0.594380187988281
40
0.601806640625
40
0.609375
40
0.625
40
0.75
40
0.875
40
1
40
1
40
1
40
1
41
1
10
88.803110924835
20
3.5855684691609
30
0
41
1
10
88.6296867168526
20
3.57948922902557
30
0
41
1
10
88.2828383008879
20
3.56733074875493
30
0
41
1
10
87.7625656769409
20
3.54909302834892
30
0
41
1
10
87.4048782479773
20
3.53655459556981
30
0
41
1
10
87.2097760139972
20
3.52971545041757
30
0
41
1
10
87.1775976941566
20
3.52858746640808
30
0
41
1
10
87.1510082403938
20
3.52765539541079
30
0
41
1
10
87.1301717197997
20
3.52692498865989
30
0
41
1
10
87.119671425957
20
3.52655690966734
30
0
41
1
10
87.1140825598795
20
3.52636099665514
30
0
41
1
10
87.1132410544757
20
3.52633149838911
30
0
41
1
10
87.1112087395384
20
3.52626025729379
30
0
41
1
10
87.1088377054449
20
3.52617714268257
30
0
41
1
10
87.1061279521952
20
3.52608215455544
30
0
41
1
10
87.1034181989455
20
3.52598716642834
30
0
41
1
10
87.1000310073833
20
3.52586843126943
30
0
41
1
10
87.0946115008839
20
3.5256784550152
30
0
41
1
10
87.0878371177595
20
3.52544098469741
30
0
41
1
10
87.0797078580104
20
3.52515602031608
30
0
41
1
10
87.0729334748861
20
3.52491854999829
30
0
41
1
10
87.0675139683867
20
3.52472857374406
30
0
41
1
10
87.063449338512
20
3.5245860915534
30
0
41
1
10
87.0600621469499
20
3.5244673563945
30
0
41
1
10
87.0573523937002
20
3.52437236826739
30
0
41
1
10
87.0553200787629
20
3.52430112717204
30
0
41
1
10
87.0532877638256
20
3.52422988607671
30
0
41
1
10
87.0505780105759
20
3.52413489794961
30
0
41
1
10
87.0482069764823
20
3.52405178333836
30
0
41
1
10
87.0461746615451
20
3.52398054224304
30
0
41
1
10
87.0453384486281
20
3.52395122950068
30
0
41
1
10
87.0399189421287
20
3.52376125324645
30
0
41
1
10
87.0297573674422
20
3.52340504776978
30
0
41
1
10
87.0089155543614
20
3.52267445549521
30
0
41
1
10
86.9902860007695
20
3.52202141212129
30
0
41
1
10
86.9740274812712
20
3.52145148335862
30
0
41
1
10
86.9658980240296
20
3.5211665051724
30
0
41
1
10
86.9591231471744
20
3.52092900034242
30
0
41
1
10
86.9537029494517
20
3.52073897577111
30
0
41
1
10
86.9506539586283
20
3.5206320778903
30
0
41
1
10
86.948621236363
20
3.52056080832241
30
0
41
1
10
86.9476048625013
20
3.52052517264869
30
0
41
1
10
86.9465884755249
20
3.52048953605825
30
0
41
1
10
86.9457414751276
20
3.52045983811314
30
0
41
1
10
86.9447250642361
20
3.52042419985102
30
0
41
1
10
86.9433698309421
20
3.52037668085597
30
0
41
1
10
86.9394734368935
20
3.52024005687207
30
0
41
1
10
86.9306635295809
20
3.5199311211297
30
0
41
1
10
86.9116841972603
20
3.51926543116679
30
0
41
1
10
86.8899808922395
20
3.51850375912559
30
0
41
1
10
86.8683104251652
20
3.51774438248358
30
0
41
1
10
86.856817672938
20
3.5173423395286
30
0
41
1
10
86.8500664080378
20
3.51710648519349
30
0
41
1
10
86.8480389810366
20
3.51703558576887
30
0
41
1
10
86.8461761916258
20
3.51697029303139
30
0
41
1
10
86.844811825767
20
3.51692213566267
30
0
41
1
10
86.8439538263563
20
3.51689166887758
30
0
41
1
10
86.8430928851322
20
3.51686099645733
30
0
41
1
10
86.8420579559644
20
3.51682411128081
30
0
41
1
10
86.8408709293993
20
3.51678278115608
30
0
41
1
10
86.8400434729209
20
3.51675492462888
30
0
41
1
10
86.8390767938024
20
3.51672361816586
30
0
41
1
10
86.8381402327633
20
3.51669553559506
30
0
41
1
10
86.8370700331899
20
3.51666920397784
30
0
41
1
10
86.8363102583448
20
3.51665472975424
30
0
41
1
10
86.8335655525646
20
3.5166161038477
30
0
41
1
10
86.8298397385193
20
3.51666064018514
30
0
41
1
10
86.8249451123303
20
3.51690123568201
30
0
41
1
10
86.8173013319164
20
3.51747369036957
30
0
41
1
10
86.8082623772225
20
3.51873261169141
30
0
41
1
10
86.7978730079962
20
3.52103823075524
30
0
41
1
10
86.7900781876236
20
3.5232149356398
30
0
41
1
10
86.782307347991
20
3.52585319577832
30
0
41
1
10
86.7746050055649
20
3.52895258115683
30
0
41
1
10
86.7670156768122
20
3.53251266176127
30
0
41
1
10
86.7595787115917
20
3.53652646819111
30
0
41
1
10
86.7523334597626
20
3.54098703104575
30
0
41
1
10
86.7453184244485
20
3.54587770826569
30
0
41
1
10
86.7385721087732
20
3.55118185779151
30
0
41
1
10
86.7321286997156
20
3.55687417819681
30
0
41
1
10
86.7260223842545
20
3.56292936805525
30
0
41
1
10
86.7202806909015
20
3.56931495833342
30
0
41
1
10
86.7149311481679
20
3.57599847999779
30
0
41
1
10
86.7099929802422
20
3.58294253789032
30
0
41
1
10
86.7054854113131
20
3.5901097368529
30
0
41
1
10
86.700062345903
20
3.59991163317935
30
0
41
1
10
86.6944083660057
20
3.61252726732351
30
0
41
1
10
86.6898646769249
20
3.62661056883988
30
0
41
1
10
86.6875700129287
20
3.63685443055175
30
0
41
1
10
86.6862636382683
20
3.64449626466472
30
0
41
1
10
86.6855970061605
20
3.64956334163023
30
0
41
1
10
86.6851615375692
20
3.65424358537905
30
0
41
1
10
86.68498792906
20
3.65671099032565
30
0
41
1
10
86.6848827538316
20
3.65854701433668
30
0
41
1
10
86.6848251357765
20
3.65976339566754
30
0
41
1
10
86.6847741347574
20
3.66101122998452
30
0
41
1
10
86.6847437908588
20
3.66181237510654
30
0
41
1
10
86.684707653921
20
3.66280020199622
30
0
41
1
10
86.6846718389374
20
3.66381800235925
30
0
41
1
10
86.6846303243707
20
3.66502597370828
30
0
41
1
10
86.6846007489886
20
3.66589171806808
30
0
41
1
10
86.6845652600725
20
3.66692528293709
30
0
41
1
10
86.6845179439742
20
3.66829488351806
30
0
41
1
10
86.6844292315383
20
3.67084475337299
30
0
41
1
10
86.6839797682212
20
3.68371909890803
30
0
41
1
10
86.6831754472649
20
3.70682019911826
30
0
41
1
10
86.6822291713747
20
3.73405303607805
30
0
41
1
10
86.6816140950373
20
3.75174404630746
30
0
41
1
10
86.6813302140823
20
3.7599076375007
30
0
41
1
10
86.681211930417
20
3.7633089061234
30
0
41
1
10
86.6811173035207
20
3.76602979681729
30
0
41
1
10
86.6810581617247
20
3.76773030433679
30
0
41
1
10
86.681010848296
20
3.76909068240644
30
0
41
1
10
86.6809753632285
20
3.77011095237384
30
0
41
1
10
86.680945792342
20
3.77096116634939
30
0
41
1
10
86.6809221356347
20
3.77164133112558
30
0
41
1
10
86.6808156804572
20
3.77470205369664
30
0
41
1
10
86.6806205127158
20
3.78031308808278
30
0
41
1
10
86.6802420058113
20
3.79119429925771
30
0
41
1
10
86.6797688724683
20
3.80479481959233
30
0
41
1
10
86.6792011124566
20
3.82111544399385
30
0
41
1
10
86.6786451807785
20
3.83709605538701
30
0
41
1
10
86.6781897899357
20
3.85018655620905
30
0
41
1
10
86.6778349399285
20
3.86038694646001
30
0
41
1
10
86.6776456865912
20
3.86582715459386
30
0
41
1
10
86.6775333174223
20
3.86905727817333
30
0
41
1
10
86.6774623474208
20
3.87109735622351
30
0
41
1
10
86.6773795490857
20
3.87347744728209
30
0
41
1
10
86.6772849224172
20
3.87619755134898
30
0
41
1
10
86.6771902957485
20
3.8789176554159
30
0
41
1
10
86.6770720124128
20
3.88231778549957
30
0
41
1
10
86.676788132407
20
3.89047809770034
30
0
41
1
10
86.6764569390668
20
3.89999846193456
30
0
41
1
10
86.6760784323923
20
3.91087887820223
30
0
41
1
10
86.6758418657208
20
3.91767913836952
30
0
41
1
10
86.6756526123836
20
3.92311934650337
30
0
41
1
10
86.6755106723807
20
3.92719950260377
30
0
41
1
10
86.6753687323778
20
3.93127965870414
30
0
41
1
10
86.6752622773756
20
3.93433977577942
30
0
41
1
10
86.6751913073741
20
3.93637985382961
30
0
41
1
10
86.6751607754881
20
3.93725751240746
30
0
41
1
10
86.6747822688136
20
3.94813792867515
30
0
41
1
10
86.6740489121319
20
3.96921873519378
30
0
41
1
10
86.6725654173201
20
4.01186274168666
30
0
41
1
10
86.6653856188391
20
4.21825063776427
30
0
41
1
10
86.6525163919077
20
4.58818479086548
30
0
41
1
10
86.634348071534
20
5.11044477171427
30
0
41
1
10
86.6222358579515
20
5.45861809228009
30
0
41
1
10
86.6161797511602
20
5.63270475256303
30
0
0
SPLINE
5
242
100
AcDbEntity
8
1
62
256
6
ByLayer
370
18
48
1
60
0
100
AcDbSpline
70
4
71
3
72
48
73
44
40
0
40
0
40
0
40
0
40
0.015625
40
0.0234375
40
0.02734375
40
0.029296875
40
0.0302734375
40
0.03125
40
0.03173828125
40
0.046875
40
0.0625
40
0.125
40
0.1875
40
0.25
40
0.3125
40
0.375
40
0.390625
40
0.40625
40
0.4140625
40
0.421875
40
0.4375
40
0.5
40
0.5625
40
0.59375
40
0.6015625
40
0.60546875
40
0.609375
40
0.6171875
40
0.625
40
0.65625
40
0.671875
40
0.6796875
40
0.6875
40
0.71875
40
0.75
40
0.78125
40
0.7890625
40
0.79296875
40
0.796875
40
0.8046875
40
0.8125
40
0.875
40
1
40
1
40
1
40
1
41
1
10
88.8031109248354
20
3.5855684691609
30
0
41
1
10
88.8032677912121
20
3.5810592449044
30
0
41
1
10
88.8035889712512
20
3.5741717678836
30
0
41
1
10
88.8040884575178
20
3.56659888876311
30
0
41
1
10
88.8043634733962
20
3.56300168864521
30
0
41
1
10
88.8045059764561
20
3.56126537710628
30
0
41
1
10
88.804589517922
20
3.56028111869304
30
0
41
1
10
88.8046421127388
20
3.55966557928201
30
0
41
1
10
88.8049994271469
20
3.55546844487932
30
0
41
1
10
88.8056720289712
20
3.54756830359875
30
0
41
1
10
88.8076793250406
20
3.52399131946456
30
0
41
1
10
88.8107060332499
20
3.48844068370201
30
0
41
1
10
88.8147416441957
20
3.44103983601863
30
0
41
1
10
88.8187772551416
20
3.39363898833523
30
0
41
1
10
88.8228128660874
20
3.34623814065185
30
0
41
1
10
88.8258390117226
20
3.31069721437532
30
0
41
1
10
88.8278579423438
20
3.28697737156162
30
0
41
1
10
88.8286986008618
20
3.27710381320856
30
0
41
1
10
88.8293693274389
20
3.26923603688135
30
0
41
1
10
88.8300280346308
20
3.26130997570112
30
0
41
1
10
88.8318079839646
20
3.23914434066083
30
0
41
1
10
88.8345197626625
20
3.20106118239224
30
0
41
1
10
88.8370861605863
20
3.15663858301647
30
0
41
1
10
88.8385022559774
20
3.12738503578859
30
0
41
1
10
88.8390563200585
20
3.1149720558856
30
0
41
1
10
88.8392517056143
20
3.11048040985577
30
0
41
1
10
88.8394446563897
20
3.10595932861867
30
0
41
1
10
88.839685506521
20
3.10027201813139
30
0
41
1
10
88.8402637062462
20
3.08664040999057
30
0
41
1
10
88.8409384360709
20
3.070740149568
30
0
41
1
10
88.8416126696894
20
3.05482992607054
30
0
41
1
10
88.8419987670087
20
3.04575485354474
30
0
41
1
10
88.8425565285574
20
3.03213291726328
30
0
41
1
10
88.8433210406848
20
3.01159481063257
30
0
41
1
10
88.8441782060795
20
2.98418469375034
30
0
41
1
10
88.8446932109443
20
2.96375970188905
30
0
41
1
10
88.844959156176
20
2.95137497865133
30
0
41
1
10
88.8450497653851
20
2.94688980300245
30
0
41
1
10
88.8451374630947
20
2.94240284647654
30
0
41
1
10
88.8452462807777
20
2.9367863955392
30
0
41
1
10
88.8456822289448
20
2.91432712255198
30
0
41
1
10
88.8467720993624
20
2.85817894008386
30
0
41
1
10
88.8478183749633
20
2.8042766849145
30
0
41
1
10
88.8485158920306
20
2.7683418481349
30
0
0
SPLINE
5
243
100
AcDbEntity
8
1
62
256
6
ByLayer
370
18
48
1
60
0
100
AcDbSpline
70
4
71
3
72
79
73
75
40
0
40
0
40
0
40
0
40
0.0017245864916102
40
0.0039792263717377
40
0.0084885061319926
40
0.0129977858922476
40
0.0220163454127575
40
0.0310349049332674
40
0.067109143015307
40
0.139257619179386
40
0.211406095343466
40
0.220424654863976
40
0.22493393462423
40
0.228315894444422
40
0.229443214384485
40
0.231697854264613
40
0.23395249414474
40
0.237334453964932
40
0.238461773904995
40
0.240716413785123
40
0.24297105366525
40
0.247480333425505
40
0.249734973305633
40
0.256498892946015
40
0.265517452466525
40
0.283554571507545
40
0.292573131028055
40
0.319628809589585
40
0.355703047671624
40
0.391777285753664
40
0.409814404794684
40
0.427851523835703
40
0.445888642876723
40
0.463925761917743
40
0.481962880958763
40
0.499999999999783
40
0.518037119040802
40
0.536074238081822
40
0.554111357122842
40
0.572148476163862
40
0.59018559520488
40
0.608222714245902
40
0.626259833286921
40
0.644296952327941
40
0.662334071368961
40
0.680371190409983
40
0.71644542849202
40
0.725463988012529
40
0.734482547533041
40
0.751392346633996
40
0.75251966657406
40
0.754774306454188
40
0.757028946334315
40
0.760410906154509
40
0.76153822609457
40
0.7637928659747
40
0.766047505854824
40
0.769429465675018
40
0.77055678561508
40
0.771684105555142
40
0.775066065375337
40
0.77957534513559
40
0.784084624895845
40
0.7885939046561
40
0.824668142738139
40
0.860742380820179
40
0.932890856984258
40
0.968965095066298
40
0.987002214107318
40
0.991511493867573
40
0.994893453687763
40
0.996020773627828
40
0.998275413507955
40
1
40
1
40
1
40
1
41
1
10
91.3576575817362
20
2.87512198978655
30
0
41
1
10
91.3579926284945
20
2.87516956626268
30
0
41
1
10
91.3587601265032
20
2.87527893650574
30
0
41
1
10
91.3603747918241
20
2.87551204953456
30
0
41
1
10
91.362482566378
20
2.87582650350842
30
0
41
1
10
91.3658249802311
20
2.87634585809684
30
0
41
1
10
91.3700367586206
20
2.87703643859774
30
0
41
1
10
91.3802009278188
20
2.8788213428893
30
0
41
1
10
91.4022436973284
20
2.88335262638935
30
0
41
1
10
91.4363868127572
20
2.89289254919521
30
0
41
1
10
91.465192448574
20
2.90402662354629
30
0
41
1
10
91.4810805444584
20
2.91121202087217
30
0
41
1
10
91.4842088582117
20
2.91266181336329
30
0
41
1
10
91.485874865033
20
2.91344486318974
30
0
41
1
10
91.487123299228
20
2.91403635873635
30
0
41
1
10
91.4881629853356
20
2.91453190108041
30
0
41
1
10
91.4896172606611
20
2.91523056585896
30
0
41
1
10
91.4908623797578
20
2.91583467438531
30
0
41
1
10
91.4921063460651
20
2.91644298184792
30
0
41
1
10
91.4931422577651
20
2.91695252834671
30
0
41
1
10
91.4947981384984
20
2.91777339670631
30
0
41
1
10
91.4964516113173
20
2.91860265138791
30
0
41
1
10
91.4989280858712
20
2.91985909903266
30
0
41
1
10
91.5022233033642
20
2.92155668912255
30
0
41
1
10
91.5083786178645
20
2.92481280829665
30
0
41
1
10
91.5148992105553
20
2.92841944399777
30
0
41
1
10
91.5246046260524
20
2.93402867333808
30
0
41
1
10
91.5374041055065
20
2.94185968393236
30
0
41
1
10
91.5546141243757
20
2.95345831798164
30
0
41
1
10
91.5697861708988
20
2.96484360236295
30
0
41
1
10
91.5816010917711
20
2.97443454981303
30
0
41
1
10
91.5902912589421
20
2.9818636396179
30
0
41
1
10
91.5988007373199
20
2.98952312788504
30
0
41
1
10
91.6071210783736
20
2.99740560813766
30
0
41
1
10
91.6152438335725
20
3.00550367389911
30
0
41
1
10
91.6231605543858
20
3.01380991869266
30
0
41
1
10
91.6308627922827
20
3.02231693604162
30
0
41
1
10
91.6383437762833
20
3.03101574915235
30
0
41
1
10
91.6455967354077
20
3.03989738123113
30
0
41
1
10
91.6526148986758
20
3.04895285548432
30
0
41
1
10
91.6593914951077
20
3.0581731951182
30
0
41
1
10
91.6659217523223
20
3.0675483392188
30
0
41
1
10
91.6722008979381
20
3.07706822687206
30
0
41
1
10
91.6782241595742
20
3.08672279716399
30
0
41
1
10
91.6839867648492
20
3.0965019891805
30
0
41
1
10
91.6913192272221
20
3.10969294537489
30
0
41
1
10
91.6972698756968
20
3.12141603197938
30
0
41
1
10
91.7020316004099
20
3.13156718610517
30
0
41
1
10
91.7050192778254
20
3.13814798737855
30
0
41
1
10
91.7072347447445
20
3.14326855381626
30
0
41
1
10
91.7088453588166
20
3.1471205556808
30
0
41
1
10
91.7092900958162
20
3.14819115271422
30
0
41
1
10
91.7099077691131
20
3.14969107795753
30
0
41
1
10
91.7104318896011
20
3.1509778695561
30
0
41
1
10
91.710951757774
20
3.15226554328208
30
0
41
1
10
91.7113823232833
20
3.15333914959493
30
0
41
1
10
91.7119801524428
20
3.15484319143283
30
0
41
1
10
91.7124872593303
20
3.15613340825905
30
0
41
1
10
91.712906301914
20
3.15720925519909
30
0
41
1
10
91.7133235710721
20
3.15828543096146
30
0
41
1
10
91.713985526185
20
3.16000835064179
30
0
41
1
10
91.7148820535193
20
3.16237976458902
30
0
41
1
10
91.7158430445658
20
3.1649695878144
30
0
41
1
10
91.7189895289987
20
3.17361120170168
30
0
41
1
10
91.7239037096856
20
3.18836558539499
30
0
41
1
10
91.7317154447625
20
3.21624626948676
30
0
41
1
10
91.7373944582365
20
3.24413068496295
30
0
41
1
10
91.7405879861208
20
3.26824208317373
30
0
41
1
10
91.7416756377034
20
3.27939661174213
30
0
41
1
10
91.742082396981
20
3.28426001438703
30
0
41
1
10
91.7422159065344
20
3.28596429162153
30
0
41
1
10
91.7423129678201
20
3.28725474582811
30
0
41
1
10
91.7423845724625
20
3.28823721969624
30
0
41
1
10
91.7424397231575
20
3.28901340197706
30
0
41
1
10
91.7424636314575
20
3.28935222805222
30
0
0
SPLINE
5
244
100
AcDbEntity
8
1
62
256
6
ByLayer
370
18
48
1
60
0
100
AcDbSpline
70
4
71
3
72
8
73
4
40
0
40
0
40
0
40
0
40
1
40
1
40
1
40
1
41
1
10
91.7522551729471
20
3.54694508856818
30
0
41
1
10
91.7526743921048
20
3.53489436594748
30
0
41
1
10
91.7530717673503
20
3.52284287760679
30
0
41
1
10
91.7534472960519
20
3.51079070334836
30
0
0
SPLINE
5
245
100
AcDbEntity
8
1
62
256
6
ByLayer
370
18
48
1
60
0
100
AcDbSpline
70
4
71
3
72
8
73
4
40
0
40
0
40
0
40
0
40
1
40
1
40
1
40
1
41
1
10
86.5946787253313
20
2.68933547686933
30
0
41
1
10
86.5826738593483
20
2.68891465636247
30
0
41
1
10
86.5706682305592
20
2.68851576320822
30
0
41
1
10
86.5586619184625
20
2.68813880004791
30
0
0
SPLINE
5
246
100
AcDbEntity
8
1
62
256
6
ByLayer
370
18
48
1
60
0
100
AcDbSpline
70
4
71
3
72
19
73
15
40
0
40
0
40
0
40
0
40
0.0403657336152353
40
0.106300330648311
40
0.172234927681387
40
0.238169524714462
40
0.370038718780614
40
0.501907912846765
40
0.765646300979068
40
0.831580898012144
40
0.897515495045219
40
0.930482793561757
40
0.963450092078295
40
1
40
1
40
1
40
1
41
1
10
86.3542199937962
20
8.56494588480604
30
0
41
1
10
86.3530980088833
20
8.56490503332952
30
0
41
1
10
86.3501436776855
20
8.56479459860535
30
0
41
1
10
86.3453583346496
20
8.56459462686976
30
0
41
1
10
86.3398630953726
20
8.56432191732773
30
0
41
1
10
86.3325376597414
20
8.56390483169997
30
0
41
1
10
86.3233854172686
20
8.56329057956916
30
0
41
1
10
86.3087556475696
20
8.56210610838252
30
0
41
1
10
86.2959781262238
20
8.56080042444788
30
0
41
1
10
86.2850492886086
20
8.5594970634715
30
0
41
1
10
86.2805004409832
20
8.55892078062095
30
0
41
1
10
86.2768648321862
20
8.55843831573989
30
0
41
1
10
86.2740406365089
20
8.55805411018935
30
0
41
1
10
86.2721254796987
20
8.55778821027607
30
0
41
1
10
86.2711186035075
20
8.55764753103284
30
0
0
SPLINE
5
247
100
AcDbEntity
8
1
62
256
6
ByLayer
370
18
48
1
60
0
100
AcDbSpline
70
4
71
3
72
8
73
4
40
0
40
0
40
0
40
0
40
1
40
1
40
1
40
1
41
1
10
91.1383654044729
20
2.84867646452605
30
0
41
1
10
91.1263621050289
20
2.84821179061188
30
0
41
1
10
91.1143579632845
20
2.84776904125943
30
0
41
1
10
91.1023530587289
20
2.84734821940046
30
0
0
SPLINE
5
248
100
AcDbEntity
8
1
62
256
6
ByLayer
370
18
48
1
60
0
100
AcDbSpline
70
4
71
3
72
153
73
149
40
0
40
0
40
0
40
0
40
0.125
40
0.25
40
0.375
40
0.3828125
40
0.390625
40
0.398193359375
40
0.4019775390625
40
0.405643463134766
40
0.40576171875
40
0.406005859375
40
0.40625
40
0.4072265625
40
0.40771484375
40
0.408203125
40
0.4091796875
40
0.41015625
40
0.412109375
40
0.4140625
40
0.416015625
40
0.4169921875
40
0.41796875
40
0.4189453125
40
0.41943359375
40
0.419921875
40
0.42041015625
40
0.4208984375
40
0.421875
40
0.422119140625
40
0.42236328125
40
0.422477722167969
40
0.426025390625
40
0.4296875
40
0.4375
40
0.439453125
40
0.44140625
40
0.443359375
40
0.4443359375
40
0.4453125
40
0.445556640625
40
0.44580078125
40
0.446044921875
40
0.4462890625
40
0.4464111328125
40
0.44677734375
40
0.447265625
40
0.44921875
40
0.453125
40
0.4609375
40
0.46484375
40
0.46875
40
0.46923828125
40
0.4697265625
40
0.47021484375
40
0.4705810546875
40
0.470703125
40
0.4708251953125
40
0.47119140625
40
0.471435546875
40
0.4716796875
40
0.4718017578125
40
0.47216796875
40
0.472412109375
40
0.47265625
40
0.4727783203125
40
0.474609375
40
0.4755859375
40
0.4765625
40
0.48046875
40
0.482421875
40
0.484375
40
0.486328125
40
0.48828125
40
0.490234375
40
0.4921875
40
0.494140625
40
0.49609375
40
0.498046875
40
0.5
40
0.501953125
40
0.50390625
40
0.505859375
40
0.5078125
40
0.509765625
40
0.51171875
40
0.515625
40
0.51953125
40
0.5224609375
40
0.5234375
40
0.525390625
40
0.5263671875
40
0.527099609375
40
0.52734375
40
0.52783203125
40
0.528076171875
40
0.5283203125
40
0.5284423828125
40
0.52880859375
40
0.529052734375
40
0.529296875
40
0.5294189453125
40
0.52978515625
40
0.5302734375
40
0.53125
40
0.5390625
40
0.546875
40
0.55078125
40
0.5517578125
40
0.552734375
40
0.55322265625
40
0.5537109375
40
0.553955078125
40
0.55419921875
40
0.554443359375
40
0.5545654296875
40
0.5546875
40
0.556640625
40
0.55859375
40
0.5625
40
0.56640625
40
0.5703125
40
0.573974609375
40
0.5758056640625
40
0.57763671875
40
0.577880859375
40
0.578125
40
0.5791015625
40
0.57958984375
40
0.580078125
40
0.5810546875
40
0.58203125
40
0.5859375
40
0.587890625
40
0.58984375
40
0.5908203125
40
0.591796875
40
0.5927734375
40
0.59375
40
0.593994140625
40
0.59423828125
40
0.594380187988281
40
0.601806640625
40
0.609375
40
0.625
40
0.75
40
0.875
40
1
40
1
40
1
40
1
41
1
10
86.6161797511602
20
5.63270475256303
30
0
41
1
10
86.610123644369
20
5.80679141284594
30
0
41
1
10
86.5980114307865
20
6.15496473341179
30
0
41
1
10
86.5798431104128
20
6.67722471426058
30
0
41
1
10
86.5673523901559
20
7.03627845109409
30
0
41
1
10
86.5605392700157
20
7.23212594391239
30
0
41
1
10
86.5594155783259
20
7.26442717970707
30
0
41
1
10
86.5584870541402
20
7.29111820086374
30
0
41
1
10
86.5577594268075
20
7.31203431358145
30
0
41
1
10
86.5573927484666
20
7.32257471684076
30
0
41
1
10
86.5571975809626
20
7.32818493147877
30
0
41
1
10
86.5571681949464
20
7.32902965129645
30
0
41
1
10
86.5570972249449
20
7.33106972934664
30
0
41
1
10
86.5570144266099
20
7.33344982040518
30
0
41
1
10
86.5569197999413
20
7.3361699244721
30
0
41
1
10
86.5568251732727
20
7.33889002853903
30
0
41
1
10
86.5567068899369
20
7.34229015862269
30
0
41
1
10
86.5565176365997
20
7.34773036675651
30
0
41
1
10
86.5562810699281
20
7.35453062692383
30
0
41
1
10
86.5559971899223
20
7.36269093912458
30
0
41
1
10
86.5557606232508
20
7.3694911992919
30
0
41
1
10
86.5555713699135
20
7.37493140742572
30
0
41
1
10
86.5554294299106
20
7.37901156352612
30
0
41
1
10
86.5553111465749
20
7.38241169360975
30
0
41
1
10
86.5552165199062
20
7.38513179767668
30
0
41
1
10
86.5551455499048
20
7.38717187572686
30
0
41
1
10
86.5550745799033
20
7.38921195377705
30
0
41
1
10
86.5549799532347
20
7.39193205784397
30
0
41
1
10
86.5548971548997
20
7.39431214890254
30
0
41
1
10
86.5548261848982
20
7.39635222695273
30
0
41
1
10
86.5547969836996
20
7.39719163406713
30
0
41
1
10
86.5546077303625
20
7.40263184220098
30
0
41
1
10
86.5542528803551
20
7.41283223245193
30
0
41
1
10
86.5535250682047
20
7.4337536578729
30
0
41
1
10
86.552874509858
20
7.45245437333296
30
0
41
1
10
86.5523067498464
20
7.4687749977345
30
0
41
1
10
86.5520228560882
20
7.47693550818201
30
0
41
1
10
86.5517862550358
20
7.48373626396619
30
0
41
1
10
86.5515969535654
20
7.4891771659637
30
0
41
1
10
86.5514904624633
20
7.49223780343669
30
0
41
1
10
86.5514194640976
20
7.49427829037083
30
0
41
1
10
86.5513839640284
20
7.49529854661552
30
0
41
1
10
86.5513484630459
20
7.49631881602502
30
0
41
1
10
86.5513188781104
20
7.49716905182629
30
0
41
1
10
86.5512833754627
20
7.49818934524225
30
0
41
1
10
86.5512360372917
20
7.4995497553073
30
0
41
1
10
86.5510999332034
20
7.50346103294817
30
0
41
1
10
86.5507921730547
20
7.51230459267546
30
0
41
1
10
86.5501290162431
20
7.53135642296221
30
0
41
1
10
86.549370242594
20
7.5531426310823
30
0
41
1
10
86.5486137556094
20
7.57489587582029
30
0
41
1
10
86.5482132425492
20
7.58643252849402
30
0
41
1
10
86.5479782857111
20
7.59320958212933
30
0
41
1
10
86.5479076560802
20
7.5952447535723
30
0
41
1
10
86.5478426118013
20
7.59711465853599
30
0
41
1
10
86.5477946376859
20
7.59848423605069
30
0
41
1
10
86.5477642868361
20
7.59934551287978
30
0
41
1
10
86.5477337311336
20
7.60020974275952
30
0
41
1
10
86.5476969863163
20
7.60124862518856
30
0
41
1
10
86.5476558134653
20
7.60244018600235
30
0
41
1
10
86.5476280629405
20
7.60327080323003
30
0
41
1
10
86.5475968756081
20
7.60424117490572
30
0
41
1
10
86.5475688998999
20
7.60518131345586
30
0
41
1
10
86.5475426684824
20
7.60625560101772
30
0
41
1
10
86.5475282493376
20
7.60701827807932
30
0
41
1
10
86.5474897704144
20
7.60977346818976
30
0
41
1
10
86.5475341372776
20
7.6135135142394
30
0
41
1
10
86.5477738172359
20
7.61842683710523
30
0
41
1
10
86.5483440935606
20
7.62609981551853
30
0
41
1
10
86.5495982243067
20
7.63517329755089
30
0
41
1
10
86.5518950697939
20
7.64560235247993
30
0
41
1
10
86.5540634916592
20
7.65342694779994
30
0
41
1
10
86.5566917124214
20
7.66122747077759
30
0
41
1
10
86.5597793037028
20
7.66895923490046
30
0
41
1
10
86.5633258371258
20
7.67657755365607
30
0
41
1
10
86.5673243698103
20
7.68404292687543
30
0
41
1
10
86.5717679588766
20
7.69131585438953
30
0
41
1
10
86.5766400255932
20
7.69835768599887
30
0
41
1
10
86.5819239912287
20
7.70512977150409
30
0
41
1
10
86.5875946506363
20
7.71159779333755
30
0
41
1
10
86.5936267986692
20
7.71772743393163
30
0
41
1
10
86.5999880898485
20
7.72349105962053
30
0
41
1
10
86.6066461786951
20
7.72886103673835
30
0
41
1
10
86.6135638123509
20
7.73381806766321
30
0
41
1
10
86.6207037379576
20
7.73834285477329
30
0
41
1
10
86.6304683351092
20
7.74378663541231
30
0
41
1
10
86.6430359629567
20
7.74946221259424
30
0
41
1
10
86.657065673259
20
7.7540232578292
30
0
41
1
10
86.6672705539843
20
7.75632668706905
30
0
41
1
10
86.6748833086114
20
7.75763805186847
30
0
41
1
10
86.6799311038192
20
7.75830723040261
30
0
41
1
10
86.6845935378276
20
7.75874436241315
30
0
41
1
10
86.6870515535534
20
7.75891863407873
30
0
41
1
10
86.6888805909388
20
7.75902421105937
30
0
41
1
10
86.6900923435715
20
7.75908204920606
30
0
41
1
10
86.6913354295021
20
7.75913324504077
30
0
41
1
10
86.6921335260251
20
7.75916370484816
30
0
41
1
10
86.6931175939353
20
7.75919997982322
30
0
41
1
10
86.6941315212606
20
7.75923593161414
30
0
41
1
10
86.695334895914
20
7.75927760475983
30
0
41
1
10
86.6961973458551
20
7.75930729311506
30
0
41
1
10
86.6972269776977
20
7.75934291759302
30
0
41
1
10
86.698591366535
20
7.75939041443118
30
0
41
1
10
86.7011315333653
20
7.75947946573419
30
0
41
1
10
86.7139568881287
20
7.75993064592819
30
0
41
1
10
86.7369700816782
20
7.76073803925979
30
0
41
1
10
86.7640992894715
20
7.7616879297702
30
0
41
1
10
86.781722980066
20
7.76230535559921
30
0
41
1
10
86.7898555063301
20
7.76259032093336
30
0
41
1
10
86.7932438320988
20
7.76270905642309
30
0
41
1
10
86.7959543689821
20
7.76280404477876
30
0
41
1
10
86.7976484055571
20
7.76286341248678
30
0
41
1
10
86.7990036069775
20
7.76291090664509
30
0
41
1
10
86.8000199945096
20
7.76294652725986
30
0
41
1
10
86.8008669731643
20
7.76297621110231
30
0
41
1
10
86.8015445497082
20
7.76299995817442
30
0
41
1
10
86.8045936253058
20
7.76310681999337
30
0
41
1
10
86.8101833080121
20
7.76330273324373
30
0
41
1
10
86.8210231128934
20
7.76368268598318
30
0
41
1
10
86.834571879142
20
7.76415762661875
30
0
41
1
10
86.8508303986404
20
7.76472755538143
30
0
41
1
10
86.8667501989825
20
7.76528561062824
30
0
41
1
10
86.8797908864968
20
7.76574274098996
30
0
41
1
10
86.8899524611833
20
7.76609894646666
30
0
41
1
10
86.8953719676827
20
7.76628892272086
30
0
41
1
10
86.8985897996668
20
7.76640172112181
30
0
41
1
10
86.9006221146041
20
7.76647296221716
30
0
41
1
10
86.9029931486975
20
7.76655607682838
30
0
41
1
10
86.9057029019473
20
7.76665106495551
30
0
41
1
10
86.908412655197
20
7.76674605308261
30
0
41
1
10
86.9117998467592
20
7.76686478824152
30
0
41
1
10
86.9199291065083
20
7.76714975262286
30
0
41
1
10
86.9294132428824
20
7.76748221106774
30
0
41
1
10
86.9402522558813
20
7.76786216357621
30
0
41
1
10
86.9470266390056
20
7.768099633894
30
0
41
1
10
86.952446145505
20
7.76828961014823
30
0
41
1
10
86.9565107753796
20
7.76843209233888
30
0
41
1
10
86.9605754052542
20
7.76857457452957
30
0
41
1
10
86.9636238776602
20
7.76868143617259
30
0
41
1
10
86.9656561925974
20
7.76875267726791
30
0
41
1
10
86.9665305114194
20
7.76878332578079
30
0
41
1
10
86.9773695244183
20
7.76916327828925
30
0
41
1
10
86.9983701121037
20
7.76989943627439
30
0
41
1
10
87.0408518452773
20
7.77138859779532
30
0
41
1
10
87.2464543731001
20
7.77859582194014
30
0
41
1
10
87.6149808150626
20
7.79151420722772
30
0
41
1
10
88.1352534390097
20
7.8097519276337
30
0
41
1
10
88.4821018549743
20
7.82191040790437
30
0
41
1
10
88.6555260629567
20
7.8279896480397
30
0
0
SPLINE
5
249
100
AcDbEntity
8
1
62
256
6
ByLayer
370
18
48
1
60
0
100
AcDbSpline
70
4
71
3
72
79
73
75
40
0
40
0
40
0
40
0
40
0.0017245864915969
40
0.0039792263717244
40
0.0084885061319794
40
0.0129977858922345
40
0.0220163454127445
40
0.0310349049332545
40
0.0671091430152947
40
0.139257619179375
40
0.211406095343455
40
0.220424654863965
40
0.22493393462422
40
0.228315894444412
40
0.229443214384476
40
0.231697854264603
40
0.23395249414473
40
0.237334453964922
40
0.238461773904985
40
0.240716413785113
40
0.24297105366524
40
0.247480333425496
40
0.249734973305623
40
0.256498892946006
40
0.265517452466516
40
0.283554571507536
40
0.292573131028046
40
0.319628809589576
40
0.355703047671616
40
0.391777285753656
40
0.409814404794676
40
0.427851523835696
40
0.445888642876716
40
0.463925761917736
40
0.481962880958757
40
0.499999999999777
40
0.518037119040796
40
0.536074238081816
40
0.554111357122836
40
0.572148476163857
40
0.590185595204876
40
0.608222714245897
40
0.626259833286917
40
0.644296952327937
40
0.662334071368957
40
0.680371190409979
40
0.716445428492017
40
0.725463988012527
40
0.734482547533039
40
0.751392346633994
40
0.752519666574057
40
0.754774306454185
40
0.757028946334312
40
0.760410906154508
40
0.761538226094567
40
0.763792865974697
40
0.766047505854822
40
0.769429465675016
40
0.770556785615077
40
0.77168410555514
40
0.775066065375335
40
0.779575345135587
40
0.784084624895843
40
0.788593904656098
40
0.824668142738138
40
0.860742380820178
40
0.932890856984258
40
0.968965095066298
40
0.987002214107318
40
0.991511493867575
40
0.994893453687765
40
0.996020773627828
40
0.998275413507956
40
1
40
1
40
1
40
1
41
1
10
86.1349301683352
20
8.53843612741403
30
0
41
1
10
86.1345951215769
20
8.53838855093792
30
0
41
1
10
86.1338276235683
20
8.53827918069484
30
0
41
1
10
86.1322129582474
20
8.53804606766604
30
0
41
1
10
86.1301051836934
20
8.53773161369219
30
0
41
1
10
86.1267627698404
20
8.53721225910377
30
0
41
1
10
86.1225509914508
20
8.53652167860287
30
0
41
1
10
86.1123868222526
20
8.53473677431131
30
0
41
1
10
86.0903440527431
20
8.53020549081123
30
0
41
1
10
86.0562009373142
20
8.5206655680054
30
0
41
1
10
86.0273953014974
20
8.50953149365429
30
0
41
1
10
86.011507205613
20
8.50234609632844
30
0
41
1
10
86.0083788918597
20
8.50089630383729
30
0
41
1
10
86.0067128850384
20
8.50011325401084
30
0
41
1
10
86.0054644508434
20
8.49952175846425
30
0
41
1
10
86.0044247647358
20
8.49902621612017
30
0
41
1
10
86.0029704894103
20
8.49832755134162
30
0
41
1
10
86.0017253703136
20
8.4977234428153
30
0
41
1
10
86.0004814040064
20
8.49711513535269
30
0
41
1
10
85.9994454923063
20
8.49660558885387
30
0
41
1
10
85.9977896115731
20
8.4957847204943
30
0
41
1
10
85.9961361387541
20
8.49495546581269
30
0
41
1
10
85.9936596642002
20
8.49369901816794
30
0
41
1
10
85.9903644467072
20
8.49200142807805
30
0
41
1
10
85.9842091322069
20
8.48874530890393
30
0
41
1
10
85.9776885395161
20
8.48513867320284
30
0
41
1
10
85.967983124019
20
8.47952944386253
30
0
41
1
10
85.9551836445649
20
8.47169843326822
30
0
41
1
10
85.9379736256957
20
8.46009979921897
30
0
41
1
10
85.9228015791726
20
8.44871451483763
30
0
41
1
10
85.9109866583004
20
8.43912356738758
30
0
41
1
10
85.9022964911293
20
8.43169447758268
30
0
41
1
10
85.8937870127515
20
8.42403498931557
30
0
41
1
10
85.8854666716979
20
8.41615250906293
30
0
41
1
10
85.877343916499
20
8.4080544433015
30
0
41
1
10
85.8694271956857
20
8.39974819850792
30
0
41
1
10
85.8617249577887
20
8.39124118115896
30
0
41
1
10
85.8542439737881
20
8.38254236804826
30
0
41
1
10
85.8469910146638
20
8.37366073596948
30
0
41
1
10
85.8399728513957
20
8.36460526171629
30
0
41
1
10
85.8331962549638
20
8.35538492208238
30
0
41
1
10
85.8266659977492
20
8.34600977798181
30
0
41
1
10
85.8203868521333
20
8.33648989032852
30
0
41
1
10
85.8143635904972
20
8.32683532003662
30
0
41
1
10
85.8086009852223
20
8.31705612802011
30
0
41
1
10
85.8012685228493
20
8.30386517182572
30
0
41
1
10
85.7953178743746
20
8.2921420852212
30
0
41
1
10
85.7905561496615
20
8.28199093109541
30
0
41
1
10
85.7875684722461
20
8.27541012982206
30
0
41
1
10
85.7853530053269
20
8.27028956338435
30
0
41
1
10
85.7837423912548
20
8.26643756151981
30
0
41
1
10
85.7832976542552
20
8.26536696448636
30
0
41
1
10
85.7826799809583
20
8.26386703924305
30
0
41
1
10
85.7821558604703
20
8.26258024764448
30
0
41
1
10
85.7816359922974
20
8.2612925739185
30
0
41
1
10
85.7812054267882
20
8.26021896760568
30
0
41
1
10
85.7806075976286
20
8.25871492576775
30
0
41
1
10
85.7801004907411
20
8.25742470894153
30
0
41
1
10
85.7796814481575
20
8.25634886200149
30
0
41
1
10
85.7792641789993
20
8.25527268623912
30
0
41
1
10
85.7786022238865
20
8.25354976655879
30
0
41
1
10
85.7777056965522
20
8.25117835261156
30
0
41
1
10
85.7767447055056
20
8.24858852938621
30
0
41
1
10
85.7735982210727
20
8.23994691549893
30
0
41
1
10
85.7686840403858
20
8.22519253180559
30
0
41
1
10
85.760872305309
20
8.19731184771385
30
0
41
1
10
85.7551932918349
20
8.16942743223765
30
0
41
1
10
85.7519997639506
20
8.14531603402688
30
0
41
1
10
85.750912112368
20
8.13416150545848
30
0
41
1
10
85.7505053530904
20
8.12929810281355
30
0
41
1
10
85.750371843537
20
8.12759382557906
30
0
41
1
10
85.7502747822513
20
8.1263033713725
30
0
41
1
10
85.7502031776089
20
8.12532089750434
30
0
41
1
10
85.750148026914
20
8.12454471522352
30
0
41
1
10
85.750124118614
20
8.12420588914836
30
0
0
SPLINE
5
24A
100
AcDbEntity
8
1
62
256
6
ByLayer
370
18
48
1
60
0
100
AcDbSpline
70
4
71
3
72
23
73
19
40
0
40
0
40
0
40
0
40
0.0365499079217563
40
0.0695172064382829
40
0.102484504954809
40
0.135451803471336
40
0.168419101987863
40
0.234353699020916
40
0.300288296053954
40
0.366222893087022
40
0.498092087153129
40
0.629961281219228
40
0.761830475285342
40
0.827765072318391
40
0.893699669351448
40
0.926666967867975
40
0.959634266384501
40
1
40
1
40
1
40
1
41
1
10
85.7405324651215
20
7.986490131914
30
0
41
1
10
85.7404628987213
20
7.98547205840012
30
0
41
1
10
85.7403322504773
20
7.98353572080791
30
0
41
1
10
85.7401474452205
20
7.98068084221518
30
0
41
1
10
85.7399780570313
20
7.97792514624661
30
0
41
1
10
85.7398194423431
20
7.97516846098256
30
0
41
1
10
85.7396218076321
20
7.9714917162313
30
0
41
1
10
85.7393997737655
20
7.96689389203388
30
0
41
1
10
85.7391702695923
20
7.96137440175201
30
0
41
1
10
85.738914021196
20
7.95401275270078
30
0
41
1
10
85.7386879589126
20
7.94480721196624
30
0
41
1
10
85.7385705325846
20
7.93375783391897
30
0
41
1
10
85.7385985366238
20
7.9245501628678
30
0
41
1
10
85.7386950468245
20
7.91718556339563
30
0
41
1
10
85.7387886455689
20
7.91258404989998
30
0
41
1
10
85.7388849336649
20
7.9089040881706
30
0
41
1
10
85.738972325865
20
7.90593799121072
30
0
41
1
10
85.739038785688
20
7.90389178128348
30
0
41
1
10
85.7390764545083
20
7.90276540445436
30
0
0
SPLINE
5
24B
100
AcDbEntity
8
1
62
256
6
ByLayer
370
18
48
1
60
0
100
AcDbSpline
70
4
71
3
72
8
73
4
40
0
40
0
40
0
40
0
40
1
40
1
40
1
40
1
41
1
10
85.8990672242167
20
3.30557020452858
30
0
41
1
10
85.898604318527
20
3.31761935462646
30
0
41
1
10
85.8981632539695
20
3.3296693502422
30
0
41
1
10
85.8977440334648
20
3.3417201115829
30
0
0
SPLINE
5
24C
100
AcDbEntity
8
1
62
256
6
ByLayer
370
18
48
1
60
0
100
AcDbSpline
70
4
71
3
72
8
73
4
40
0
40
0
40
0
40
0
40
1
40
1
40
1
40
1
41
1
10
86.3542223455985
20
8.56488165267456
30
0
41
1
10
86.3662256450426
20
8.5653463265887
30
0
41
1
10
86.378229786787
20
8.56578907594115
30
0
41
1
10
86.3902346913425
20
8.56620989780015
30
0
0
SPLINE
5
24D
100
AcDbEntity
8
1
62
256
6
ByLayer
370
18
48
1
60
0
100
AcDbSpline
70
4
71
3
72
22
73
18
40
0
40
0
40
0
40
0
40
0.01782340392249
40
0.0278216291116044
40
0.0378198543007189
40
0.112806543219077
40
0.187793232137436
40
0.337766609974153
40
0.497738212999984
40
0.657709816025816
40
0.817681419051647
40
0.897667220564563
40
0.977653022077479
40
0.982652134672036
40
0.987651247266593
40
0.997649472455708
40
1
40
1
40
1
40
1
41
1
10
91.2214691465639
20
2.85591058616777
30
0
41
1
10
91.2222786354391
20
2.8560236867489
30
0
41
1
10
91.2235421635498
20
2.85620111775816
30
0
41
1
10
91.2252598264193
20
2.85644318642412
30
0
41
1
10
91.229573727821
20
2.85705191759132
30
0
41
1
10
91.2368392414604
20
2.85807708560128
30
0
41
1
10
91.2504620683401
20
2.85999911821202
30
0
41
1
10
91.267944681803
20
2.8624655247223
30
0
41
1
10
91.2892870930434
20
2.86547646254002
30
0
41
1
10
91.31108359814
20
2.86855146286447
30
0
41
1
10
91.3292473523872
20
2.87111396313489
30
0
41
1
10
91.3438289062807
20
2.8731727687304
30
0
41
1
10
91.3513013751274
20
2.87422630239965
30
0
41
1
10
91.3553454888672
20
2.87479542166338
30
0
41
1
10
91.3562413813469
20
2.87492159231647
30
0
41
1
10
91.3570124055432
20
2.87503045808415
30
0
41
1
10
91.3575546047788
20
2.87510736710888
30
0
41
1
10
91.3576575817362
20
2.87512198978655
30
0
0
SPLINE
5
24E
100
AcDbEntity
8
1
62
256
6
ByLayer
370
18
48
1
60
0
100
AcDbSpline
70
4
71
3
72
8
73
4
40
0
40
0
40
0
40
0
40
1
40
1
40
1
40
1
41
1
10
91.5935205258548
20
8.107987912672
30
0
41
1
10
91.5939834315444
20
8.09593876257412
30
0
41
1
10
91.5944244961019
20
8.08388876695841
30
0
41
1
10
91.5948437166066
20
8.07183800561771
30
0
0
SPLINE
5
24F
100
AcDbEntity
8
1
62
256
6
ByLayer
370
18
48
1
60
0
100
AcDbSpline
70
4
71
3
72
48
73
44
40
0
40
0
40
0
40
0
40
0.125
40
0.1875
40
0.1953125
40
0.203125
40
0.20703125
40
0.2109375
40
0.21875
40
0.25
40
0.28125
40
0.3125
40
0.3203125
40
0.328125
40
0.34375
40
0.375
40
0.3828125
40
0.390625
40
0.39453125
40
0.3984375
40
0.40625
40
0.4375
40
0.5
40
0.5625
40
0.578125
40
0.5859375
40
0.59375
40
0.609375
40
0.625
40
0.6875
40
0.75
40
0.8125
40
0.875
40
0.9375
40
0.953125
40
0.96826171875
40
0.96875
40
0.9697265625
40
0.970703125
40
0.97265625
40
0.9765625
40
0.984375
40
1
40
1
40
1
40
1
41
1
10
88.6440718580414
20
8.64521626906571
30
0
41
1
10
88.6458745349432
20
8.60928143228611
30
0
41
1
10
88.6485785502958
20
8.55537917711675
30
0
41
1
10
88.6513952329547
20
8.49923099464863
30
0
41
1
10
88.6525219060183
20
8.47677172166141
30
0
41
1
10
88.6528038572387
20
8.47115527072407
30
0
41
1
10
88.6530283429881
20
8.46666831419816
30
0
41
1
10
88.6532497933321
20
8.46218313854928
30
0
41
1
10
88.6538455247664
20
8.44979841531156
30
0
41
1
10
88.6547516044548
20
8.42937342345027
30
0
41
1
10
88.655801519071
20
8.40196330656804
30
0
41
1
10
88.6564659615441
20
8.38142519993733
30
0
41
1
10
88.6568559567125
20
8.36780326365587
30
0
41
1
10
88.6571012645597
20
8.3587281911301
30
0
41
1
10
88.6575339970053
20
8.34281796763261
30
0
41
1
10
88.657965540056
20
8.32691770721004
30
0
41
1
10
88.6583357699751
20
8.31328609906922
30
0
41
1
10
88.658490618855
20
8.30759878858194
30
0
41
1
10
88.6586122257917
20
8.30307770734487
30
0
41
1
10
88.6587293499708
20
8.29858606131501
30
0
41
1
10
88.6590389285349
20
8.28617308141202
30
0
41
1
10
88.659658171242
20
8.25691953418414
30
0
41
1
10
88.6601825099125
20
8.21249693480837
30
0
41
1
10
88.6601203963072
20
8.17441377653981
30
0
41
1
10
88.6598826381176
20
8.15224814149948
30
0
41
1
10
88.6597753927421
20
8.14432208031926
30
0
41
1
10
88.6596520727678
20
8.13645430399205
30
0
41
1
10
88.6594983746831
20
8.12658074563902
30
0
41
1
10
88.6591297704099
20
8.10286090282531
30
0
41
1
10
88.6585764121168
20
8.06731997654876
30
0
41
1
10
88.6578387516872
20
8.01991912886538
30
0
41
1
10
88.6571010912575
20
7.97251828118198
30
0
41
1
10
88.6563634308279
20
7.9251174334986
30
0
41
1
10
88.6558101855056
20
7.88956679773605
30
0
41
1
10
88.6554432762815
20
7.86598981360186
30
0
41
1
10
88.6553203328765
20
7.85808967232129
30
0
41
1
10
88.6552550373298
20
7.8538925379186
30
0
41
1
10
88.655245269142
20
7.85327699850757
30
0
41
1
10
88.655230208214
20
7.85229274009433
30
0
41
1
10
88.6552085103678
20
7.85055642855539
30
0
41
1
10
88.6551837724605
20
7.8469592284375
30
0
41
1
10
88.6552111750962
20
7.83938634931701
30
0
41
1
10
88.65536919658
20
7.83249887229621
30
0
41
1
10
88.6555260629567
20
7.8279896480397
30
0
0
SPLINE
5
250
100
AcDbEntity
8
1
62
256
6
ByLayer
370
18
48
1
60
0
100
AcDbSpline
70
4
71
3
72
8
73
4
40
0
40
0
40
0
40
0
40
1
40
1
40
1
40
1
41
1
10
85.7403325771244
20
7.86661302863243
30
0
41
1
10
85.7399133579666
20
7.87866375125313
30
0
41
1
10
85.7395159827212
20
7.89071523959379
30
0
41
1
10
85.7391404540195
20
7.90276741385222
30
0
0
SPLINE
5
251
100
AcDbEntity
8
1
62
256
6
ByLayer
370
18
48
1
60
0
100
AcDbSpline
70
4
71
3
72
22
73
18
40
0
40
0
40
0
40
0
40
0.0178234039225278
40
0.0278216291116431
40
0.0378198543007584
40
0.112806543219123
40
0.187793232137488
40
0.337766609974217
40
0.497738213000061
40
0.657709816025906
40
0.81768141905175
40
0.897667220564673
40
0.977653022077595
40
0.982652134672153
40
0.98765124726671
40
0.997649472455825
40
1
40
1
40
1
40
1
41
1
10
86.2711186035075
20
8.55764753103284
30
0
41
1
10
86.2703091146324
20
8.55753443045171
30
0
41
1
10
86.2690455865216
20
8.55735699944245
30
0
41
1
10
86.2673279236521
20
8.55711493077649
30
0
41
1
10
86.2630140222504
20
8.55650619960926
30
0
41
1
10
86.255748508611
20
8.5554810315993
30
0
41
1
10
86.2421256817314
20
8.55355899898856
30
0
41
1
10
86.2246430682684
20
8.55109259247831
30
0
41
1
10
86.203300657028
20
8.54808165466059
30
0
41
1
10
86.1815041519314
20
8.54500665433611
30
0
41
1
10
86.1633403976842
20
8.54244415406572
30
0
41
1
10
86.1487588437907
20
8.54038534847021
30
0
41
1
10
86.1412863749441
20
8.53933181480096
30
0
41
1
10
86.1372422612043
20
8.5387626955372
30
0
41
1
10
86.1363463687246
20
8.53863652488411
30
0
41
1
10
86.1355753445282
20
8.53852765911645
30
0
41
1
10
86.1350331452926
20
8.5384507500917
30
0
41
1
10
86.1349301683352
20
8.53843612741403
30
0
0
SPLINE
5
252
100
AcDbEntity
8
1
62
256
6
ByLayer
370
18
48
1
60
0
100
AcDbSpline
70
4
71
3
72
14
73
10
40
0
40
0
40
0
40
0
40
0.0050966481374696
40
0.0240065217780202
40
0.0435263913424598
40
0.0630462609068994
40
0.375364173937933
40
0.687682086968966
40
1
40
1
40
1
40
1
41
1
10
90.8979090196779
20
8.72422278581607
30
0
41
1
10
90.8940800102174
20
8.72408853217689
30
0
41
1
10
90.876044396701
20
8.72345619413633
30
0
41
1
10
90.8433439309024
20
8.72230990673827
30
0
41
1
10
90.7998076010583
20
8.7207837772157
30
0
41
1
10
90.5358399590563
20
8.71153061295243
30
0
41
1
10
90.0518992820524
20
8.6945664784698
30
0
41
1
10
89.3479855700469
20
8.66989137376774
30
0
41
1
10
88.8787097620432
20
8.65344130396639
30
0
41
1
10
88.6440718580413
20
8.64521626906571
30
0
0
SPLINE
5
253
100
AcDbEntity
8
1
62
256
6
ByLayer
370
18
48
1
60
0
100
AcDbSpline
70
4
71
3
72
22
73
18
40
0
40
0
40
0
40
0
40
0.0023505275440433
40
0.0123487527331611
40
0.022346977922279
40
0.0623398786787503
40
0.102332779435213
40
0.182318580948164
40
0.262304382461102
40
0.342290183974049
40
0.66223339002582
40
0.812206767862587
40
0.957493477641942
40
0.962180145699355
40
0.972178370888468
40
0.98217659607759
40
1
40
1
40
1
40
1
41
1
10
85.750124118614
20
8.12420588914858
30
0
41
1
10
85.750116770374
20
8.12410175061447
30
0
41
1
10
85.7500781625517
20
8.1235534411787
30
0
41
1
10
85.7500080818062
20
8.1225490841862
30
0
41
1
10
85.7498192309934
20
8.11982409894378
30
0
41
1
10
85.749534022879
20
8.11571767509483
30
0
41
1
10
85.7490230825331
20
8.10837908268701
30
0
41
1
10
85.748380071674
20
8.09916332489567
30
0
41
1
10
85.7476110707831
20
8.08813003265297
30
0
41
1
10
85.7460756811411
20
8.06608906527438
30
0
41
1
10
85.7443163805098
20
8.0408337901531
30
0
41
1
10
85.7423481629284
20
8.01257945111118
30
0
41
1
10
85.7413883401167
20
7.99880381737538
30
0
41
1
10
85.7408763256648
20
7.99145679718336
30
0
41
1
10
85.7407973217627
20
7.99032317468877
30
0
41
1
10
85.7406765797692
20
7.98858626489283
30
0
41
1
10
85.7405883937723
20
7.98730862299644
30
0
41
1
10
85.7405324651215
20
7.986490131914
30
0
0
SPLINE
5
254
100
AcDbEntity
8
1
62
256
6
ByLayer
370
18
48
1
60
0
100
AcDbSpline
70
4
71
3
72
10
73
6
40
0
40
0
40
0
40
0
40
0.500000000000001
40
0.500000000000001
40
1
40
1
40
1
40
1
41
1
10
91.4574227575841
20
-0.566587504786554
30
0
41
1
10
91.4561273917442
20
-0.541916554421135
30
0
41
1
10
91.4553613262589
20
-0.518285277627143
30
0
41
1
10
91.4546912551614
20
-0.472716017572026
30
0
41
1
10
91.4547970610247
20
-0.450827337103902
30
0
41
1
10
91.4552129450807
20
-0.430490372466124
30
0
0
SPLINE
5
255
100
AcDbEntity
8
1
62
256
6
ByLayer
370
18
48
1
60
0
100
AcDbSpline
70
4
71
3
72
14
73
10
40
0
40
0
40
0
40
0
40
0.25
40
0.25
40
0.5
40
0.5
40
0.75
40
0.75
40
1
40
1
40
1
40
1
41
1
10
91.4311710382909
20
-0.287539568212537
30
0
41
1
10
91.4160038914699
20
-0.245866307585999
30
0
41
1
10
91.402548095554
20
-0.204969930168829
30
0
41
1
10
91.3805708989726
20
-0.132369245143082
30
0
41
1
10
91.3716478678566
20
-0.0996545934541757
30
0
41
1
10
91.3565500506004
20
-0.040385102996936
30
0
41
1
10
91.3502219078146
20
-0.013214401664186
30
0
41
1
10
91.3390788490812
20
0.0377301646191199
30
0
41
1
10
91.3342927253845
20
0.0613919853559821
30
0
41
1
10
91.3299829206571
20
0.0839558288062676
30
0
0
SPLINE
5
256
100
AcDbEntity
8
1
62
256
6
ByLayer
370
18
48
1
60
0
100
AcDbSpline
70
4
71
3
72
12
73
8
40
0
40
0
40
0
40
0
40
0.25
40
0.25
40
0.5
40
0.5
40
1
40
1
40
1
40
1
41
1
10
91.1632702490348
20
0.633172722078854
30
0
41
1
10
91.1803660532786
20
0.616252294647097
30
0
41
1
10
91.195653234405
20
0.597278434708699
30
0
41
1
10
91.2195009085431
20
0.561291904377811
30
0
41
1
10
91.2282099890556
20
0.544586883235809
30
0
41
1
10
91.2490536771959
20
0.497772638365888
30
0
41
1
10
91.255946332897
20
0.471571992749318
30
0
41
1
10
91.260631413762
20
0.447043403201519
30
0
0
SPLINE
5
257
100
AcDbEntity
8
1
62
256
6
ByLayer
370
18
48
1
60
0
100
AcDbSpline
70
4
71
3
72
16
73
12
40
0
40
0
40
0
40
0
40
0.249999999999999
40
0.249999999999999
40
0.499999999999999
40
0.499999999999999
40
0.749999999999997
40
0.749999999999997
40
0.874999999999999
40
0.874999999999999
40
1
40
1
40
1
40
1
41
1
10
91.8543735090022
20
-4.11210875478446
30
0
41
1
10
91.8472667077288
20
-4.07238901422735
30
0
41
1
10
91.8402932644687
20
-4.03142121791473
30
0
41
1
10
91.8268045127746
20
-3.94519808536361
30
0
41
1
10
91.8202608557823
20
-3.8999234050217
30
0
41
1
10
91.8081720627508
20
-3.80138803341822
30
0
41
1
10
91.8025349534314
20
-3.7481531167052
30
0
41
1
10
91.7964025554555
20
-3.65628163619667
30
0
41
1
10
91.7947334082487
20
-3.6230113312572
30
0
41
1
10
91.7930837578337
20
-3.55127928299655
30
0
41
1
10
91.7931703919205
20
-3.51221484457633
30
0
41
1
10
91.7945146107958
20
-3.47379325033174
30
0
0
SPLINE
5
258
100
AcDbEntity
8
1
62
256
6
ByLayer
370
18
48
1
60
0
100
AcDbSpline
70
4
71
3
72
12
73
8
40
0
40
0
40
0
40
0
40
0.250000000000025
40
0.250000000000025
40
0.500000000000051
40
0.500000000000051
40
1
40
1
40
1
40
1
41
1
10
91.7608681154002
20
-4.52433667441429
30
0
41
1
10
91.7441884013494
20
-4.54167241594692
30
0
41
1
10
91.72494384397
20
-4.55669628093673
30
0
41
1
10
91.6877274141916
20
-4.5793389910514
30
0
41
1
10
91.6701227737916
20
-4.58716504431823
30
0
41
1
10
91.6202914473133
20
-4.60504571863899
30
0
41
1
10
91.591737747885
20
-4.60962572274136
30
0
41
1
10
91.5647601773693
20
-4.61190340262525
30
0
0
SPLINE
5
259
100
AcDbEntity
8
1
62
256
6
ByLayer
370
18
48
1
60
0
100
AcDbSpline
70
4
71
3
72
8
73
4
40
0
40
0
40
0
40
0
40
1
40
1
40
1
40
1
41
1
10
91.4311710382886
20
-0.287539568212395
30
0
41
1
10
91.4492382357047
20
-0.337181009387535
30
0
41
1
10
91.4561083364014
20
-0.386705232444854
30
0
41
1
10
91.4552129450809
20
-0.430490372466636
30
0
0
SPLINE
5
25A
100
AcDbEntity
8
1
62
256
6
ByLayer
370
18
48
1
60
0
100
AcDbSpline
70
4
71
3
72
16
73
12
40
0
40
0
40
0
40
0
40
0.249999999999999
40
0.249999999999999
40
0.499999999999998
40
0.499999999999998
40
0.749999999999998
40
0.749999999999998
40
0.874999999999999
40
0.874999999999999
40
1
40
1
40
1
40
1
41
1
10
91.8543735090026
20
-4.11210875478102
30
0
41
1
10
91.8593772587968
20
-4.14007459144852
30
0
41
1
10
91.862991867215
20
-4.16901149282094
30
0
41
1
10
91.8661434239519
20
-4.22961657200784
30
0
41
1
10
91.8657533439651
20
-4.26124076819912
30
0
41
1
10
91.857933869739
20
-4.32901689512445
30
0
41
1
10
91.8506616671571
20
-4.36513860123296
30
0
41
1
10
91.8287299837153
20
-4.42300948358903
30
0
41
1
10
91.8196340091617
20
-4.4427503985261
30
0
41
1
10
91.7951345424827
20
-4.48375502735527
30
0
41
1
10
91.7798431606283
20
-4.5046153243573
30
0
41
1
10
91.7608681154002
20
-4.52433667441429
30
0
0
SPLINE
5
25B
100
AcDbEntity
8
1
62
256
6
ByLayer
370
18
48
1
60
0
100
AcDbSpline
70
4
71
3
72
8
73
4
40
0
40
0
40
0
40
0
40
1
40
1
40
1
40
1
41
1
10
91.7324044720272
20
-2.6718297064981
30
0
41
1
10
91.7290650926411
20
-2.66502057339983
30
0
41
1
10
91.7258120871139
20
-2.65818332029588
30
0
41
1
10
91.7226800638672
20
-2.65139440478134
30
0
0
SPLINE
5
25C
100
AcDbEntity
8
1
62
256
6
ByLayer
370
18
48
1
60
0
100
AcDbSpline
70
4
71
3
72
8
73
4
40
0
40
0
40
0
40
0
40
1
40
1
40
1
40
1
41
1
10
91.8083925983471
20
-3.07712094016708
30
0
41
1
10
91.8087599223753
20
-3.06662177591636
30
0
41
1
10
91.809215729604
20
-3.05616283588264
30
0
41
1
10
91.8097600627047
20
-3.04574413946418
30
0
0
SPLINE
5
25D
100
AcDbEntity
8
1
62
256
6
ByLayer
370
18
48
1
60
0
100
AcDbSpline
70
4
71
3
72
12
73
8
40
0
40
0
40
0
40
0
40
0.250000000000005
40
0.250000000000005
40
0.500000000000011
40
0.500000000000011
40
1
40
1
40
1
40
1
41
1
10
91.7324044720272
20
-2.6718297064981
30
0
41
1
10
91.7465384352054
20
-2.70064944374837
30
0
41
1
10
91.7588891277686
20
-2.73032855510743
30
0
41
1
10
91.7799099896266
20
-2.79145822866815
30
0
41
1
10
91.7885983174829
20
-2.82311802062526
30
0
41
1
10
91.8081994699594
20
-2.9179070301052
30
0
41
1
10
91.8130988621073
20
-2.98183853215184
30
0
41
1
10
91.8097600627045
20
-3.04574413946415
30
0
0
SPLINE
5
25E
100
AcDbEntity
8
SK1
62
256
6
ByLayer
370
18
48
1
60
0
100
AcDbSpline
70
4
71
3
72
8
73
4
40
0
40
0
40
0
40
0
40
1
40
1
40
1
40
1
41
1
10
-1.30710678118655
20
-3.5887172715492
30
0
41
1
10
-1.37540888210663
20
-3.25160142453237
30
0
41
1
10
-1.44078730620282
20
-2.90751932877146
30
0
41
1
10
-1.49999999999989
20
-2.55452633951475
30
0
0
SPLINE
5
25F
100
AcDbEntity
8
SK1
62
256
6
ByLayer
370
18
48
1
60
0
100
AcDbSpline
70
4
71
3
72
26
73
22
40
0
40
0
40
0
40
0
40
0.25
40
0.25
40
0.499999999999999
40
0.499999999999999
40
0.624999999999999
40
0.624999999999999
40
0.749999999999999
40
0.749999999999999
40
0.812499999999999
40
0.812499999999999
40
0.843749999999999
40
0.843749999999999
40
0.874999999999999
40
0.874999999999999
40
0.90625
40
0.90625
40
0.9375
40
0.9375
40
1
40
1
40
1
40
1
41
1
10
-1.30710678118675
20
-3.58871727154821
30
0
41
1
10
-1.2770410479724
20
-3.73711146414564
30
0
41
1
10
-1.24290752413313
20
-3.88311142945619
30
0
41
1
10
-1.16210117950382
20
-4.16971195256144
30
0
41
1
10
-1.11567257229956
20
-4.31079630719424
30
0
41
1
10
-1.02833804242206
20
-4.51460953007248
30
0
41
1
10
-0.996091765097134
20
-4.58154434196089
30
0
41
1
10
-0.92170556029248
20
-4.70963530812213
30
0
41
1
10
-0.880235112913937
20
-4.77112026309476
30
0
41
1
10
-0.800265069156637
20
-4.85374621074735
30
0
41
1
10
-0.770443849397282
20
-4.87963350079767
30
0
41
1
10
-0.719001618424358
20
-4.91087235041408
30
0
41
1
10
-0.700626848346559
20
-4.92000200725136
30
0
41
1
10
-0.662017238182784
20
-4.9339055463663
30
0
41
1
10
-0.641280119564868
20
-4.93876771710427
30
0
41
1
10
-0.599568848505072
20
-4.9425262217311
30
0
41
1
10
-0.578082049698907
20
-4.94143807412283
30
0
41
1
10
-0.537045222159946
20
-4.93374887482733
30
0
41
1
10
-0.517080767182222
20
-4.92714534439065
30
0
41
1
10
-0.461393647242801
20
-4.90206528999568
30
0
41
1
10
-0.429024530142669
20
-4.87851306287462
30
0
41
1
10
-0.39999999999992
20
-4.85227456455002
30
0
0
SPLINE
5
260
100
AcDbEntity
8
SK1
62
256
6
ByLayer
370
18
48
1
60
0
100
AcDbSpline
70
4
71
3
72
8
73
4
40
0
40
0
40
0
40
0
40
1
40
1
40
1
40
1
41
1
10
-1.50000000000063
20
2.55452876951017
30
0
41
1
10
-1.44078675385307
20
2.90752061837338
30
0
41
1
10
-1.37540853169585
20
3.2516020134309
30
0
41
1
10
-1.30710678118652
20
3.58871725126212
30
0
0
SPLINE
5
261
100
AcDbEntity
8
SK1
62
256
6
ByLayer
370
18
48
1
60
0
100
AcDbSpline
70
4
71
3
72
24
73
20
40
0
40
0
40
0
40
0
40
0.0625000000000002
40
0.0625000000000002
40
0.125
40
0.125
40
0.187500000000001
40
0.187500000000001
40
0.250000000000001
40
0.250000000000001
40
0.312500000000001
40
0.312500000000001
40
0.375000000000001
40
0.375000000000001
40
0.5
40
0.5
40
0.75
40
0.75
40
1
40
1
40
1
40
1
41
1
10
-0.399999999999892
20
4.85227506835235
30
0
41
1
10
-0.429028522387654
20
4.87851715893601
30
0
41
1
10
-0.461669517108362
20
4.9022122740283
30
0
41
1
10
-0.535635842083423
20
4.93548015393125
30
0
41
1
10
-0.578042687204231
20
4.94445593383577
30
0
41
1
10
-0.662695203082052
20
4.936848854717
30
0
41
1
10
-0.701977887727935
20
4.92120757612898
30
0
41
1
10
-0.770280811796994
20
4.87973605687952
30
0
41
1
10
-0.800192972747141
20
4.85380950611167
30
0
41
1
10
-0.853469820313023
20
4.79878665655178
30
0
41
1
10
-0.877345244832242
20
4.76909028975203
30
0
41
1
10
-0.921269196330456
20
4.70771179233338
30
0
41
1
10
-0.941162707941658
20
4.6762162425587
30
0
41
1
10
-0.996843936527853
20
4.5800735638295
30
0
41
1
10
-1.02870604240499
20
4.51379601608861
30
0
41
1
10
-1.11562010765073
20
4.31082835787518
30
0
41
1
10
-1.16210693251719
20
4.16969559228221
30
0
41
1
10
-1.24292111111839
20
3.88305937901257
30
0
41
1
10
-1.27704897241461
20
3.73707282454211
30
0
41
1
10
-1.30710678118675
20
3.58871725126116
30
0
0
SPLINE
5
262
100
AcDbEntity
8
SK1
62
256
6
ByLayer
370
18
48
1
60
0
100
AcDbSpline
70
4
71
3
72
28
73
24
40
0
40
0
40
0
40
0
40
0.250000000000011
40
0.250000000000011
40
0.375000000000018
40
0.375000000000018
40
0.437500000000021
40
0.437500000000021
40
0.468750000000022
40
0.468750000000022
40
0.500000000000024
40
0.500000000000024
40
0.515625000000023
40
0.515625000000023
40
0.531250000000022
40
0.531250000000022
40
0.56250000000002
40
0.56250000000002
40
0.625000000000017
40
0.625000000000017
40
0.750000000000011
40
0.750000000000011
40
1
40
1
40
1
40
1
41
1
10
-1.49999999999989
20
-2.55452633951475
30
0
41
1
10
-1.51517199566123
20
-2.46407938028932
30
0
41
1
10
-1.53136110460483
20
-2.37385196693896
30
0
41
1
10
-1.55981324196594
20
-2.24028158751409
30
0
41
1
10
-1.56995056306621
20
-2.19594811744051
30
0
41
1
10
-1.58796518920624
20
-2.1311657311102
30
0
41
1
10
-1.59441566991623
20
-2.10980654354705
30
0
41
1
10
-1.60591133452704
20
-2.07918416873096
30
0
41
1
10
-1.61004231989739
20
-2.06919519846659
30
0
41
1
10
-1.61967450688274
20
-2.05064590043739
30
0
41
1
10
-1.62504919799494
20
-2.04142660694535
30
0
41
1
10
-1.6364017768548
20
-2.03441195821586
30
0
41
1
10
-1.64099020656781
20
-2.03383680716846
30
0
41
1
10
-1.64923629291991
20
-2.038784943228
30
0
41
1
10
-1.65255399964531
20
-2.0435312415232
30
0
41
1
10
-1.66063967690013
20
-2.05871495105521
30
0
41
1
10
-1.66406773388874
20
-2.07036152075671
30
0
41
1
10
-1.67295327541402
20
-2.10521389033298
30
0
41
1
10
-1.67664822107099
20
-2.12914935367809
30
0
41
1
10
-1.68601976866213
20
-2.20039030781453
30
0
41
1
10
-1.68959945108364
20
-2.24810000899228
30
0
41
1
10
-1.69789374352146
20
-2.3912602075379
30
0
41
1
10
-1.69966348304169
20
-2.48612756096904
30
0
41
1
10
-1.69996145716266
20
-2.58068890323881
30
0
0
SPLINE
5
263
100
AcDbEntity
8
SK1
62
256
6
ByLayer
370
18
48
1
60
0
100
AcDbSpline
70
4
71
3
72
28
73
24
40
0
40
0
40
0
40
0
40
0.249999999999998
40
0.249999999999998
40
0.374999999999996
40
0.374999999999996
40
0.437499999999995
40
0.437499999999995
40
0.468749999999995
40
0.468749999999995
40
0.484374999999995
40
0.484374999999995
40
0.499999999999995
40
0.499999999999995
40
0.531249999999994
40
0.531249999999994
40
0.562499999999994
40
0.562499999999994
40
0.624999999999994
40
0.624999999999994
40
0.749999999999995
40
0.749999999999995
40
1
40
1
40
1
40
1
41
1
10
-1.69996145737014
20
2.58069190327927
30
0
41
1
10
-1.69966082572924
20
2.4852880584769
30
0
41
1
10
-1.69786774013505
20
2.38961915098
30
0
41
1
10
-1.68940593614445
20
2.2453867587985
30
0
41
1
10
-1.68574462899301
20
2.19700570840237
30
0
41
1
10
-1.67599695382782
20
2.1249364253261
30
0
41
1
10
-1.67216972725893
20
2.10077755320236
30
0
41
1
10
-1.66272403248817
20
2.06599013940286
30
0
41
1
10
-1.65906888566519
20
2.05420805594815
30
0
41
1
10
-1.64993183086071
20
2.03993783982096
30
0
41
1
10
-1.64600859456112
20
2.03592067906061
30
0
41
1
10
-1.63743284430143
20
2.03388667347628
30
0
41
1
10
-1.63318667655162
20
2.03591143131484
30
0
41
1
10
-1.62270815487443
20
2.04494307123124
30
0
41
1
10
-1.61759766930601
20
2.05422387946916
30
0
41
1
10
-1.60839312671521
20
2.07302163226029
30
0
41
1
10
-1.60436560886294
20
2.083083020088
30
0
41
1
10
-1.59320608402808
20
2.11364429054081
30
0
41
1
10
-1.58690532487131
20
2.13477582008474
30
0
41
1
10
-1.56924690509348
20
2.198952707839
30
0
41
1
10
-1.55923242562812
20
2.24288446323848
30
0
41
1
10
-1.53109034368467
20
2.37539687024329
30
0
41
1
10
-1.51504209864746
20
2.46485730987436
30
0
41
1
10
-1.49999999999937
20
2.55452876952231
30
0
0
SPLINE
5
264
100
AcDbEntity
8
SK1
62
256
6
ByLayer
370
18
48
1
60
0
100
AcDbSpline
70
4
71
3
72
20
73
16
40
0
40
0
40
0
40
0
40
0.125
40
0.125
40
0.1875
40
0.1875
40
0.25
40
0.25
40
0.5
40
0.5
40
0.625
40
0.625
40
0.75
40
0.75
40
1
40
1
40
1
40
1
41
1
10
-1.69996145737096
20
2.5806919032795
30
0
41
1
10
-1.73263695710787
20
2.37550257646083
30
0
41
1
10
-1.76326516119118
20
2.16745376297365
30
0
41
1
10
-1.80483241468929
20
1.85028411027173
30
0
41
1
10
-1.81795721932767
20
1.74370985221802
30
0
41
1
10
-1.84246895166319
20
1.52868290002465
30
0
41
1
10
-1.85383416245216
20
1.42032814794894
30
0
41
1
10
-1.90513167589589
20
0.878984125790311
30
0
41
1
10
-1.92842891958412
20
0.443177729960439
30
0
41
1
10
-1.92863936176101
20
-0.215364275303813
30
0
41
1
10
-1.92302599023012
20
-0.435675602004039
30
0
41
1
10
-1.9008609918707
20
-0.877872368403501
30
0
41
1
10
-1.88448389754703
20
-1.09701544141257
30
0
41
1
10
-1.82304312112112
20
-1.74499641140687
30
0
41
1
10
-1.76589710310134
20
-2.16663380543864
30
0
41
1
10
-1.69996145715962
20
-2.58068890323847
30
0
0
SPLINE
5
265
100
AcDbEntity
8
SK1
62
256
6
ByLayer
370
18
48
1
60
0
100
AcDbSpline
70
4
71
3
72
26
73
22
40
0
40
0
40
0
40
0
40
0.0312500000000001
40
0.0312500000000001
40
0.0625000000000003
40
0.0625000000000003
40
0.0937500000000004
40
0.0937500000000004
40
0.125000000000001
40
0.125000000000001
40
0.187500000000001
40
0.187500000000001
40
0.250000000000001
40
0.250000000000001
40
0.375000000000002
40
0.375000000000002
40
0.500000000000002
40
0.500000000000002
40
0.750000000000001
40
0.750000000000001
40
1
40
1
40
1
40
1
41
1
10
-0.39999999999992
20
-4.85227456454999
30
0
41
1
10
-0.39376328779295
20
-4.84663650729328
30
0
41
1
10
-0.387019774317395
20
-4.84161680761804
30
0
41
1
10
-0.371803166997239
20
-4.83402988774014
30
0
41
1
10
-0.363361086088162
20
-4.83161196307762
30
0
41
1
10
-0.345926111920136
20
-4.83181330146459
30
0
41
1
10
-0.337033054187316
20
-4.83460547128513
30
0
41
1
10
-0.32147566133537
20
-4.84385857307521
30
0
41
1
10
-0.314735971519241
20
-4.85007481180139
30
0
41
1
10
-0.296994303249903
20
-4.87040355371243
30
0
41
1
10
-0.288166478250474
20
-4.88618386504783
30
0
41
1
10
-0.273212056316083
20
-4.91801622041677
30
0
41
1
10
-0.267127706470149
20
-4.93430736823274
30
0
41
1
10
-0.251022454987464
20
-4.98373448763203
30
0
41
1
10
-0.243149974278282
20
-5.01751323233989
30
0
41
1
10
-0.230204703014522
20
-5.0844364593234
30
0
41
1
10
-0.225172325676738
20
-5.11781324740099
30
0
41
1
10
-0.21263992444031
20
-5.2177046835458
30
0
41
1
10
-0.207671426663865
20
-5.28398101409357
30
0
41
1
10
-0.201305754211575
20
-5.4159585743279
30
0
41
1
10
-0.199999999999932
20
-5.48171544544959
30
0
41
1
10
-0.199999999999932
20
-5.54704286105718
30
0
0
SPLINE
5
266
100
AcDbEntity
8
SK1
62
256
6
ByLayer
370
18
48
1
60
0
100
AcDbSpline
70
4
71
3
72
26
73
22
40
0
40
0
40
0
40
0
40
0.250000000000003
40
0.250000000000003
40
0.500000000000005
40
0.500000000000005
40
0.625000000000005
40
0.625000000000005
40
0.750000000000005
40
0.750000000000005
40
0.812500000000005
40
0.812500000000005
40
0.875000000000005
40
0.875000000000005
40
0.906250000000003
40
0.906250000000003
40
0.937500000000002
40
0.937500000000002
40
0.968750000000001
40
0.968750000000001
40
1
40
1
40
1
40
1
41
1
10
-0.199999999999903
20
5.54704287025544
30
0
41
1
10
-0.199999999999903
20
5.48162882321526
30
0
41
1
10
-0.201304969107213
20
5.41586490599749
30
0
41
1
10
-0.207698725150607
20
5.28352555216813
30
0
41
1
10
-0.212702118403314
20
5.21686290430191
30
0
41
1
10
-0.225372797443157
20
5.11639354963779
30
0
41
1
10
-0.230458701357264
20
5.08288973618465
30
0
41
1
10
-0.243504629141455
20
5.01592530726893
30
0
41
1
10
-0.251375408222884
20
4.98240276248384
30
0
41
1
10
-0.267548604682986
20
4.93314759425931
30
0
41
1
10
-0.273702791653733
20
4.91680607655076
30
0
41
1
10
-0.288769973838811
20
4.88507830219544
30
0
41
1
10
-0.297431313447731
20
4.86972146335862
30
0
41
1
10
-0.315312325469875
20
4.8495120628609
30
0
41
1
10
-0.322119716796465
20
4.84337403126676
30
0
41
1
10
-0.337500265830784
20
4.83443774480057
30
0
41
1
10
-0.346263053746242
20
4.83174638192023
30
0
41
1
10
-0.363716126367905
20
4.83167449719483
30
0
41
1
10
-0.372125684789609
20
4.83416445387314
30
0
41
1
10
-0.387061221247677
20
4.84166539782822
30
0
41
1
10
-0.39380700445173
20
4.84667653502061
30
0
41
1
10
-0.39999999999992
20
4.85227506835235
30
0
0
LINE
5
70
100
AcDbEntity
8
80
62
256
6
ByLayer
370
18
48
1
60
0
100
AcDbLine
10
0
20
0
30
0
11
-7
21
0
31
0
39
0
210
0
220
0
230
1
0
LINE
5
71
100
AcDbEntity
8
81
62
256
6
ByLayer
370
18
48
1
60
0
100
AcDbLine
10
92
20
0
30
0
11
99
21
0
31
0
39
0
210
0
220
0
230
1
0
LINE
5
72
100
AcDbEntity
8
1
62
256
6
ByLayer
370
18
48
1
60
0
100
AcDbLine
10
19.4
20
20
30
0
11
0.3
21
20
31
0
39
0
210
0
220
0
230
1
0
LINE
5
74
100
AcDbEntity
8
1
62
256
6
ByLayer
370
18
48
1
60
0
100
AcDbLine
10
0.3
20
-20
30
0
11
19.4
21
-20
31
0
39
0
210
0
220
0
230
1
0
LINE
5
75
100
AcDbEntity
8
1
62
256
6
ByLayer
370
18
48
1
60
0
100
AcDbLine
10
0.3
20
20
30
0
11
0
21
19.7
31
0
39
0
210
0
220
0
230
1
0
LINE
5
76
100
AcDbEntity
8
1
62
256
6
ByLayer
370
18
48
1
60
0
100
AcDbLine
10
0
20
-19.7
30
0
11
0.3
21
-20
31
0
39
0
210
0
220
0
230
1
0
LINE
5
77
100
AcDbEntity
8
1
62
256
6
ByLayer
370
18
48
1
60
0
100
AcDbLine
10
19.4
20
-20
30
0
11
19.7
21
-19.7
31
0
39
0
210
0
220
0
230
1
0
LINE
5
78
100
AcDbEntity
8
1
62
256
6
ByLayer
370
18
48
1
60
0
100
AcDbLine
10
25.4
20
16
30
0
11
20.1
21
16
31
0
39
0
210
0
220
0
230
1
0
LINE
5
79
100
AcDbEntity
8
1
62
256
6
ByLayer
370
18
48
1
60
0
100
AcDbLine
10
20.1
20
-16
30
0
11
25.4
21
-16
31
0
39
0
210
0
220
0
230
1
0
LINE
5
7A
100
AcDbEntity
8
1
62
256
6
ByLayer
370
18
48
1
60
0
100
AcDbLine
10
19.7
20
-16
30
0
11
20
21
-16
31
0
39
0
210
0
220
0
230
1
0
LINE
5
7B
100
AcDbEntity
8
1
62
256
6
ByLayer
370
18
48
1
60
0
100
AcDbLine
10
25.525882
20
15.903407
30
0
11
25.4
21
16
31
0
39
0
210
0
220
0
230
1
0
LINE
5
7C
100
AcDbEntity
8
1
62
256
6
ByLayer
370
18
48
1
60
0
100
AcDbLine
10
20
20
-15.9
30
0
11
20.1
21
-16
31
0
39
0
210
0
220
0
230
1
0
LINE
5
7D
100
AcDbEntity
8
1
62
256
6
ByLayer
370
18
48
1
60
0
100
AcDbLine
10
25.743045
20
15.092945
30
0
11
25.525882
21
15.903407
31
0
39
0
210
0
220
0
230
1
0
LINE
5
7E
100
AcDbEntity
8
1
62
256
6
ByLayer
370
18
48
1
60
0
100
AcDbLine
10
85.498246
20
8.45
30
0
11
83.325281
21
8.45
31
0
39
0
210
0
220
0
230
1
0
LINE
5
7F
100
AcDbEntity
8
1
62
256
6
ByLayer
370
18
48
1
60
0
100
AcDbLine
10
36
20
-8.45
30
0
11
48.073884
21
-8.45
31
0
39
0
210
0
220
0
230
1
0
LINE
5
80
100
AcDbEntity
8
1
62
256
6
ByLayer
370
18
48
1
60
0
100
AcDbLine
10
56.199289
20
8.45
30
0
11
36
21
8.45
31
0
39
0
210
0
220
0
230
1
0
LINE
5
81
100
AcDbEntity
8
1
62
256
6
ByLayer
370
18
48
1
60
0
100
AcDbLine
10
19.7
20
19.7
30
0
11
19.4
21
20
31
0
39
0
210
0
220
0
230
1
0
LINE
5
82
100
AcDbEntity
8
1
62
256
6
ByLayer
370
18
48
1
60
0
100
AcDbLine
10
25.4
20
-16
30
0
11
25.525882
21
-15.903407
31
0
39
0
210
0
220
0
230
1
0
LINE
5
83
100
AcDbEntity
8
1
62
256
6
ByLayer
370
18
48
1
60
0
100
AcDbLine
10
20.1
20
16
30
0
11
20
21
15.9
31
0
39
0
210
0
220
0
230
1
0
LINE
5
84
100
AcDbEntity
8
1
62
256
6
ByLayer
370
18
48
1
60
0
100
AcDbLine
10
20
20
16
30
0
11
19.7
21
16
31
0
39
0
210
0
220
0
230
1
0
LINE
5
85
100
AcDbEntity
8
1
62
256
6
ByLayer
370
18
48
1
60
0
100
AcDbLine
10
25.525882
20
-15.903407
30
0
11
25.743045
21
-15.092945
31
0
39
0
210
0
220
0
230
1
0
LINE
5
86
100
AcDbEntity
8
1
62
256
6
ByLayer
370
18
48
1
60
0
100
AcDbLine
10
26.515785
20
-14.5
30
0
11
27
21
-14.5
31
0
39
0
210
0
220
0
230
1
0
LINE
5
87
100
AcDbEntity
8
1
62
256
6
ByLayer
370
18
48
1
60
0
100
AcDbLine
10
27
20
14.5
30
0
11
26.515785
21
14.5
31
0
39
0
210
0
220
0
230
1
0
LINE
5
88
100
AcDbEntity
8
SK4
62
256
6
ByLayer
370
13
48
0.05
60
0
100
AcDbLine
10
92
20
0
30
0
11
-24
21
0
31
0
39
0
210
0
220
0
230
1
0
LINE
5
8A
100
AcDbEntity
8
4
62
256
6
ByLayer
370
18
48
0.05
60
0
100
AcDbLine
10
92
20
0
30
0
11
0
21
0
31
0
39
0
210
0
220
0
230
1
0
LINE
5
8C
100
AcDbEntity
8
1
62
256
6
ByLayer
370
18
48
1
60
0
100
AcDbLine
10
91.168154
20
-3.760216
30
0
11
91.181081
21
-3.748692
31
0
39
0
210
0
220
0
230
1
0
LINE
5
8D
100
AcDbEntity
8
1
62
256
6
ByLayer
370
18
48
1
60
0
100
AcDbLine
10
91.066146
20
-1.81737
30
0
11
91.075499
21
-1.816894
31
0
39
0
210
0
220
0
230
1
0
LINE
5
8E
100
AcDbEntity
8
1
62
256
6
ByLayer
370
18
48
1
60
0
100
AcDbLine
10
91.174867
20
-3.888056
30
0
11
91.247692
21
-3.823139
31
0
39
0
210
0
220
0
230
1
0
LINE
5
8F
100
AcDbEntity
8
1
62
256
6
ByLayer
370
18
48
1
60
0
100
AcDbLine
10
91.17017
20
-4.645218
30
0
11
91.56476
21
-4.611903
31
0
39
0
210
0
220
0
230
1
0
LINE
5
90
100
AcDbEntity
8
1
62
256
6
ByLayer
370
18
48
1
60
0
100
AcDbLine
10
90.998687
20
-0.532574
30
0
11
91.008039
21
-0.532099
31
0
39
0
210
0
220
0
230
1
0
LINE
5
91
100
AcDbEntity
8
1
62
256
6
ByLayer
370
18
48
1
60
0
100
AcDbLine
10
91.329983
20
0.083956
30
0
11
90.978662
21
-0.151167
31
0
39
0
210
0
220
0
230
1
0
LINE
5
92
100
AcDbEntity
8
1
62
256
6
ByLayer
370
18
48
1
60
0
100
AcDbLine
10
91.16327
20
0.633173
30
0
11
90.96388
21
0.49973
31
0
39
0
210
0
220
0
230
1
0
LINE
5
93
100
AcDbEntity
8
1
62
256
6
ByLayer
370
18
48
1
60
0
100
AcDbLine
10
91.171963
20
-4.863043
30
0
11
91.632621
21
-4.69569
31
0
39
0
210
0
220
0
230
1
0
LINE
5
94
100
AcDbEntity
8
1
62
256
6
ByLayer
370
18
48
1
60
0
100
AcDbLine
10
0.3
20
-20
30
0
11
0.3
21
20
31
0
39
0
210
0
220
0
230
1
0
LINE
5
95
100
AcDbEntity
8
1
62
256
6
ByLayer
370
18
48
1
60
0
100
AcDbLine
10
19.4
20
20
30
0
11
19.4
21
-20
31
0
39
0
210
0
220
0
230
1
0
LINE
5
96
100
AcDbEntity
8
1
62
256
6
ByLayer
370
18
48
1
60
0
100
AcDbLine
10
0
20
-19.7
30
0
11
0
21
19.7
31
0
39
0
210
0
220
0
230
1
0
LINE
5
97
100
AcDbEntity
8
1
62
256
6
ByLayer
370
18
48
1
60
0
100
AcDbLine
10
19.7
20
19.7
30
0
11
19.7
21
-19.7
31
0
39
0
210
0
220
0
230
1
0
LINE
5
98
100
AcDbEntity
8
1
62
256
6
ByLayer
370
18
48
1
60
0
100
AcDbLine
10
20.1
20
16
30
0
11
20.1
21
-16
31
0
39
0
210
0
220
0
230
1
0
LINE
5
99
100
AcDbEntity
8
1
62
256
6
ByLayer
370
18
48
1
60
0
100
AcDbLine
10
25.4
20
16
30
0
11
25.4
21
-16
31
0
39
0
210
0
220
0
230
1
0
LINE
5
9A
100
AcDbEntity
8
1
62
256
6
ByLayer
370
18
48
1
60
0
100
AcDbLine
10
20
20
16
30
0
11
20
21
-16
31
0
39
0
210
0
220
0
230
1
0
LINE
5
9B
100
AcDbEntity
8
1
62
256
6
ByLayer
370
18
48
1
60
0
100
AcDbLine
10
25.525882
20
15.903407
30
0
11
25.525882
21
-15.903407
31
0
39
0
210
0
220
0
230
1
0
LINE
5
9C
100
AcDbEntity
8
1
62
256
6
ByLayer
370
18
48
1
60
0
100
AcDbLine
10
25.743045
20
-15.092945
30
0
11
25.743045
21
15.092945
31
0
39
0
210
0
220
0
230
1
0
LINE
5
9D
100
AcDbEntity
8
SK1
62
256
6
ByLayer
370
18
48
1
60
0
100
AcDbLine
10
-0.2
20
-14.083485
30
0
11
-0.2
21
-5.547043
31
0
39
0
210
0
220
0
230
1
0
LINE
5
9F
100
AcDbEntity
8
SK1
62
256
6
ByLayer
370
18
48
1
60
0
100
AcDbLine
10
-0.2
20
14.083485
30
0
11
-0.2
21
5.547043
31
0
39
0
210
0
220
0
230
1
0
LINE
5
A0
100
AcDbEntity
8
1
62
256
6
ByLayer
370
18
48
1
60
0
100
AcDbLine
10
26.515785
20
6.545397
30
0
11
26.515785
21
-14.5
31
0
39
0
210
0
220
0
230
1
0
LINE
5
A1
100
AcDbEntity
8
1
62
256
6
ByLayer
370
18
48
1
60
0
100
AcDbLine
10
26.515785
20
14.5
30
0
11
26.515785
21
8.468991
31
0
39
0
210
0
220
0
230
1
0
LINE
5
A2
100
AcDbEntity
8
1
62
256
6
ByLayer
370
18
48
1
60
0
100
AcDbLine
10
27
20
5.22532
30
0
11
27
21
-14.5
31
0
39
0
210
0
220
0
230
1
0
LINE
5
A3
100
AcDbEntity
8
1
62
256
6
ByLayer
370
18
48
1
60
0
100
AcDbLine
10
36
20
-8.45
30
0
11
36
21
-7.088006
31
0
39
0
210
0
220
0
230
1
0
LINE
5
A4
100
AcDbEntity
8
1
62
256
6
ByLayer
370
18
48
1
60
0
100
AcDbLine
10
27
20
14.5
30
0
11
27
21
9.511476
31
0
39
0
210
0
220
0
230
1
0
LINE
5
A5
100
AcDbEntity
8
1
62
256
6
ByLayer
370
18
48
1
60
0
100
AcDbLine
10
36
20
8.45
30
0
11
36
21
6.006915
31
0
39
0
210
0
220
0
230
1
0
LINE
5
A6
100
AcDbEntity
8
1
62
256
6
ByLayer
370
18
48
1
60
0
100
AcDbLine
10
91.021148
20
0.742596
30
0
11
91.012235
21
0.742907
31
0
39
0
210
0
220
0
230
1
0
LINE
5
A7
100
AcDbEntity
8
1
62
256
6
ByLayer
370
18
48
1
60
0
100
AcDbLine
10
90.996255
20
0.719044
30
0
11
91.03138
21
0.71782
31
0
39
0
210
0
220
0
230
1
0
LINE
5
A8
100
AcDbEntity
8
1
62
256
6
ByLayer
370
18
48
1
60
0
100
AcDbLine
10
85.756307
20
5.707803
30
0
11
85.645502
21
5.707803
31
0
39
0
210
0
220
0
230
1
0
LINE
5
A9
100
AcDbEntity
8
1
62
256
6
ByLayer
370
18
48
1
60
0
100
AcDbLine
10
85.782029
20
8.434042
30
0
11
85.781872
21
8.438969
31
0
39
0
210
0
220
0
230
1
0
LINE
5
AA
100
AcDbEntity
8
1
62
256
6
ByLayer
370
18
48
1
60
0
100
AcDbLine
10
6.663397
20
19.024574
30
0
11
6.663397
21
6.16973
31
0
39
0
210
0
220
0
230
1
0
LINE
5
AB
100
AcDbEntity
8
1
62
256
6
ByLayer
370
18
48
1
60
0
100
AcDbLine
10
84.465514
20
0.601935
30
0
11
84.76733
21
1.640246
31
0
39
0
210
0
220
0
230
1
0
LINE
5
AC
100
AcDbEntity
8
1
62
256
6
ByLayer
370
18
48
1
60
0
100
AcDbLine
10
90.957091
20
0.277076
30
0
11
90.247476
21
0.593261
31
0
39
0
210
0
220
0
230
1
0
LINE
5
AD
100
AcDbEntity
8
1
62
256
6
ByLayer
370
18
48
1
60
0
100
AcDbLine
10
6.923205
20
19.122283
30
0
11
6.923205
21
5.85989
31
0
39
0
210
0
220
0
230
1
0
LINE
5
AE
100
AcDbEntity
8
1
62
256
6
ByLayer
370
18
48
1
60
0
100
AcDbLine
10
91.03138
20
0.71782
30
0
11
91.036862
21
0.734236
31
0
39
0
210
0
220
0
230
1
0
LINE
5
AF
100
AcDbEntity
8
1
62
256
6
ByLayer
370
18
48
1
60
0
100
AcDbLine
10
75.297708
20
6.102354
30
0
11
77.746351
21
5.869863
31
0
39
0
210
0
220
0
230
1
0
LINE
5
B0
100
AcDbEntity
8
1
62
256
6
ByLayer
370
18
48
1
60
0
100
AcDbLine
10
85.578965
20
5.655885
30
0
11
85.489872
21
8.449939
31
0
39
0
210
0
220
0
230
1
0
LINE
5
B1
100
AcDbEntity
8
1
62
256
6
ByLayer
370
18
48
1
60
0
100
AcDbLine
10
85.234636
20
4.737123
30
0
11
85.275487
21
3.562838
31
0
39
0
210
0
220
0
230
1
0
LINE
5
B2
100
AcDbEntity
8
1
62
256
6
ByLayer
370
18
48
1
60
0
100
AcDbLine
10
80.980216
20
8.4164
30
0
11
80.980216
21
5.562818
31
0
39
0
210
0
220
0
230
1
0
LINE
5
B3
100
AcDbEntity
8
1
62
256
6
ByLayer
370
18
48
1
60
0
100
AcDbLine
10
9.076795
20
-5.85989
30
0
11
9.076795
21
-19.122283
31
0
39
0
210
0
220
0
230
1
0
LINE
5
B4
100
AcDbEntity
8
1
62
256
6
ByLayer
370
18
48
1
60
0
100
AcDbLine
10
91.110825
20
2.579752
30
0
11
91.036862
21
0.734236
31
0
39
0
210
0
220
0
230
1
0
LINE
5
B5
100
AcDbEntity
8
1
62
256
6
ByLayer
370
18
48
1
60
0
100
AcDbLine
10
80.980216
20
5.562818
30
0
11
83.995487
21
5.276528
31
0
39
0
210
0
220
0
230
1
0
LINE
5
B6
100
AcDbEntity
8
1
62
256
6
ByLayer
370
18
48
1
60
0
100
AcDbLine
10
6.923205
20
-5.85989
30
0
11
6.923205
21
-19.122283
31
0
39
0
210
0
220
0
230
1
0
LINE
5
B7
100
AcDbEntity
8
1
62
256
6
ByLayer
370
18
48
1
60
0
100
AcDbLine
10
91.188684
20
-4.336791
30
0
11
91.194807
21
-4.267764
31
0
39
0
210
0
220
0
230
1
0
LINE
5
B8
100
AcDbEntity
8
1
62
256
6
ByLayer
370
18
48
1
60
0
100
AcDbLine
10
81.843175
20
1.572655
30
0
11
81.715658
21
1.133973
31
0
39
0
210
0
220
0
230
1
0
LINE
5
B9
100
AcDbEntity
8
1
62
256
6
ByLayer
370
18
48
1
60
0
100
AcDbLine
10
85.484661
20
3.562838
30
0
11
85.275487
21
3.562838
31
0
39
0
210
0
220
0
230
1
0
LINE
5
BA
100
AcDbEntity
8
1
62
256
6
ByLayer
370
18
48
1
60
0
100
AcDbLine
10
91.110825
20
2.579752
30
0
11
91.10414
21
2.581904
31
0
39
0
210
0
220
0
230
1
0
LINE
5
BB
100
AcDbEntity
8
1
62
256
6
ByLayer
370
18
48
1
60
0
100
AcDbLine
10
90.720847
20
2.602065
30
0
11
90.571348
21
2.602065
31
0
39
0
210
0
220
0
230
1
0
LINE
5
BC
100
AcDbEntity
8
1
62
256
6
ByLayer
370
18
48
1
60
0
100
AcDbLine
10
9.076795
20
5.85989
30
0
11
6.923205
21
5.85989
31
0
39
0
210
0
220
0
230
1
0
LINE
5
BD
100
AcDbEntity
8
1
62
256
6
ByLayer
370
18
48
1
60
0
100
AcDbLine
10
84.813152
20
-8.447951
30
0
11
91.206423
21
-8.447951
31
0
39
0
210
0
220
0
230
1
0
LINE
5
BE
100
AcDbEntity
8
1
62
256
6
ByLayer
370
18
48
1
60
0
100
AcDbLine
10
91.194807
20
-4.267764
30
0
11
90.961165
21
0.18207
31
0
39
0
210
0
220
0
230
1
0
LINE
5
BF
100
AcDbEntity
8
1
62
256
6
ByLayer
370
18
48
1
60
0
100
AcDbLine
10
91.021148
20
0.742596
30
0
11
91.036862
21
0.734236
31
0
39
0
210
0
220
0
230
1
0
LINE
5
C0
100
AcDbEntity
8
1
62
256
6
ByLayer
370
18
48
1
60
0
100
AcDbLine
10
9.076795
20
19.122283
30
0
11
9.076795
21
5.85989
31
0
39
0
210
0
220
0
230
1
0
LINE
5
C1
100
AcDbEntity
8
1
62
256
6
ByLayer
370
18
48
1
60
0
100
AcDbLine
10
9.336603
20
-6.16973
30
0
11
9.336603
21
-19.024574
31
0
39
0
210
0
220
0
230
1
0
LINE
5
C2
100
AcDbEntity
8
1
62
256
6
ByLayer
370
18
48
1
60
0
100
AcDbLine
10
6.923205
20
-5.85989
30
0
11
9.076795
21
-5.85989
31
0
39
0
210
0
220
0
230
1
0
LINE
5
C3
100
AcDbEntity
8
1
62
256
6
ByLayer
370
18
48
1
60
0
100
AcDbLine
10
6.923205
20
19.122283
30
0
11
9.076795
21
19.122283
31
0
39
0
210
0
220
0
230
1
0
LINE
5
C4
100
AcDbEntity
8
1
62
256
6
ByLayer
370
18
48
1
60
0
100
AcDbLine
10
85.804926
20
2.45699
30
0
11
85.850214
21
2.45699
31
0
39
0
210
0
220
0
230
1
0
LINE
5
C5
100
AcDbEntity
8
1
62
256
6
ByLayer
370
18
48
1
60
0
100
AcDbLine
10
87.241251
20
2.485331
30
0
11
90.571348
21
2.602065
31
0
39
0
210
0
220
0
230
1
0
LINE
5
C6
100
AcDbEntity
8
1
62
256
6
ByLayer
370
18
48
1
60
0
100
AcDbLine
10
85.44381
20
4.737123
30
0
11
85.234636
21
4.737123
31
0
39
0
210
0
220
0
230
1
0
LINE
5
C7
100
AcDbEntity
8
1
62
256
6
ByLayer
370
18
48
1
60
0
100
AcDbLine
10
91.194807
20
-4.267764
30
0
11
90.64277
21
-4.021791
31
0
39
0
210
0
220
0
230
1
0
LINE
5
C8
100
AcDbEntity
8
1
62
256
6
ByLayer
370
18
48
1
60
0
100
AcDbLine
10
91.206423
20
-8.447951
30
0
11
91.508607
21
-5.041028
31
0
39
0
210
0
220
0
230
1
0
LINE
5
C9
100
AcDbEntity
8
1
62
256
6
ByLayer
370
18
48
1
60
0
100
AcDbLine
10
85.327094
20
3.236696
30
0
11
85.028683
21
3.226235
31
0
39
0
210
0
220
0
230
1
0
LINE
5
CA
100
AcDbEntity
8
1
62
256
6
ByLayer
370
18
48
1
60
0
100
AcDbLine
10
9.336603
20
19.024574
30
0
11
9.336603
21
6.16973
31
0
39
0
210
0
220
0
230
1
0
LINE
5
CB
100
AcDbEntity
8
1
62
256
6
ByLayer
370
18
48
1
60
0
100
AcDbLine
10
6.663397
20
-6.16973
30
0
11
6.663397
21
-19.024574
31
0
39
0
210
0
220
0
230
1
0
LINE
5
CC
100
AcDbEntity
8
1
62
256
6
ByLayer
370
18
48
1
60
0
100
AcDbLine
10
83.995487
20
5.276528
30
0
11
83.995487
21
8.447261
31
0
39
0
210
0
220
0
230
1
0
LINE
5
CD
100
AcDbEntity
8
1
62
256
6
ByLayer
370
18
48
1
60
0
100
AcDbLine
10
85.484661
20
3.562838
30
0
11
85.44381
21
4.737123
31
0
39
0
210
0
220
0
230
1
0
LINE
5
CE
100
AcDbEntity
8
1
62
256
6
ByLayer
370
18
48
1
60
0
100
AcDbLine
10
85.804926
20
2.45699
30
0
11
84.996504
21
2.428651
31
0
39
0
210
0
220
0
230
1
0
LINE
5
CF
100
AcDbEntity
8
1
62
256
6
ByLayer
370
18
48
1
60
0
100
AcDbLine
10
84.958285
20
2.297169
30
0
11
84.996504
21
2.428651
31
0
39
0
210
0
220
0
230
1
0
LINE
5
D0
100
AcDbEntity
8
1
62
256
6
ByLayer
370
18
48
1
60
0
100
AcDbLine
10
81.158947
20
4.93
30
0
11
80.04007
21
4.93
31
0
39
0
210
0
220
0
230
1
0
LINE
5
D1
100
AcDbEntity
8
1
62
256
6
ByLayer
370
18
48
1
60
0
100
AcDbLine
10
91.10414
20
2.581904
30
0
11
90.720902
21
2.602065
31
0
39
0
210
0
220
0
230
1
0
LINE
5
D2
100
AcDbEntity
8
1
62
256
6
ByLayer
370
18
48
1
60
0
100
AcDbLine
10
85.578965
20
5.655885
30
0
11
85.551715
21
5.655885
31
0
39
0
210
0
220
0
230
1
0
LINE
5
D3
100
AcDbEntity
8
1
62
256
6
ByLayer
370
18
48
1
60
0
100
AcDbLine
10
90.936294
20
2.582302
30
0
11
90.571348
21
2.602065
31
0
39
0
210
0
220
0
230
1
0
LINE
5
D4
100
AcDbEntity
8
1
62
256
6
ByLayer
370
18
48
1
60
0
100
AcDbLine
10
91.508607
20
-5.041028
30
0
11
91.205941
21
-5.004467
31
0
39
0
210
0
220
0
230
1
0
LINE
5
D5
100
AcDbEntity
8
1
62
256
6
ByLayer
370
18
48
1
60
0
100
AcDbLine
10
90.242696
20
0.946276
30
0
11
90.936294
21
2.582302
31
0
39
0
210
0
220
0
230
1
0
LINE
5
D6
100
AcDbEntity
8
1
62
256
6
ByLayer
370
18
48
1
60
0
100
AcDbLine
10
9.076795
20
-19.122283
30
0
11
6.923205
21
-19.122283
31
0
39
0
210
0
220
0
230
1
0
LINE
5
D7
100
AcDbEntity
8
1
62
256
6
ByLayer
370
18
48
1
60
0
100
AcDbLine
10
85.551715
20
5.655885
30
0
11
85.462843
21
8.443014
31
0
39
0
210
0
220
0
230
1
0
LINE
5
D8
100
AcDbEntity
8
1
62
256
6
ByLayer
370
18
48
1
60
0
100
AcDbLine
10
91.110825
20
2.579752
30
0
11
90.936294
21
2.582302
31
0
39
0
210
0
220
0
230
1
0
LINE
5
D9
100
AcDbEntity
8
1
62
256
6
ByLayer
370
18
48
1
60
0
100
AcDbLine
10
82.740914
20
3.672631
30
0
11
82.446022
21
3.804427
31
0
39
0
210
0
220
0
230
1
0
LINE
5
DA
100
AcDbEntity
8
1
62
256
6
ByLayer
370
18
48
1
60
0
100
AcDbLine
10
91.812219
20
3.549031
30
0
11
91.654807
21
8.073924
31
0
39
0
210
0
220
0
230
1
0
LINE
5
DB
100
AcDbEntity
8
1
62
256
6
ByLayer
370
18
48
1
60
0
100
AcDbLine
10
90.896287
20
8.783958
30
0
11
86.388612
21
8.625945
31
0
39
0
210
0
220
0
230
1
0
LINE
5
DC
100
AcDbEntity
8
1
62
256
6
ByLayer
370
18
48
1
60
0
100
AcDbLine
10
91.195476
20
2.791203
30
0
11
91.192401
21
2.850917
31
0
39
0
210
0
220
0
230
1
0
LINE
5
DD
100
AcDbEntity
8
1
62
256
6
ByLayer
370
18
48
1
60
0
100
AcDbLine
10
85.683892
20
8.232018
30
0
11
85.741454
21
8.218573
31
0
39
0
210
0
220
0
230
1
0
LINE
5
DE
100
AcDbEntity
8
1
62
256
6
ByLayer
370
18
48
1
60
0
100
AcDbLine
10
91.814971
20
3.458067
30
0
11
91.75499
21
3.456525
31
0
39
0
210
0
220
0
230
1
0
LINE
5
DF
100
AcDbEntity
8
1
62
256
6
ByLayer
370
18
48
1
60
0
100
AcDbLine
10
90.986905
20
8.78672
30
0
11
90.987985
21
8.726968
31
0
39
0
210
0
220
0
230
1
0
LINE
5
E0
100
AcDbEntity
8
1
62
256
6
ByLayer
370
18
48
1
60
0
100
AcDbLine
10
91.244231
20
2.793598
30
0
11
91.240573
21
2.853283
31
0
39
0
210
0
220
0
230
1
0
LINE
5
E1
100
AcDbEntity
8
1
62
256
6
ByLayer
370
18
48
1
60
0
100
AcDbLine
10
86.457792
20
2.625814
30
0
11
86.456383
21
2.685578
31
0
39
0
210
0
220
0
230
1
0
LINE
5
E2
100
AcDbEntity
8
1
62
256
6
ByLayer
370
18
48
1
60
0
100
AcDbLine
10
86.249268
20
8.61996
30
0
11
86.252015
21
8.560275
31
0
39
0
210
0
220
0
230
1
0
LINE
5
E3
100
AcDbEntity
8
1
62
256
6
ByLayer
370
18
48
1
60
0
100
AcDbLine
10
86.298348
20
2.624533
30
0
11
86.297892
21
2.684304
31
0
39
0
210
0
220
0
230
1
0
LINE
5
E4
100
AcDbEntity
8
1
62
256
6
ByLayer
370
18
48
1
60
0
100
AcDbLine
10
91.812219
20
3.549031
30
0
11
91.752255
21
3.546945
31
0
39
0
210
0
220
0
230
1
0
LINE
5
E5
100
AcDbEntity
8
1
62
256
6
ByLayer
370
18
48
1
60
0
100
AcDbLine
10
85.68128
20
7.864527
30
0
11
85.838692
21
3.339634
31
0
39
0
210
0
220
0
230
1
0
LINE
5
E6
100
AcDbEntity
8
1
62
256
6
ByLayer
370
18
48
1
60
0
100
AcDbLine
10
86.298023
20
8.622355
30
0
11
86.300187
21
8.562641
31
0
39
0
210
0
220
0
230
1
0
LINE
5
E7
100
AcDbEntity
8
1
62
256
6
ByLayer
370
18
48
1
60
0
100
AcDbLine
10
85.854504
20
3.040006
30
0
11
85.913447
21
3.044175
31
0
39
0
210
0
220
0
230
1
0
LINE
5
E8
100
AcDbEntity
8
1
62
256
6
ByLayer
370
18
48
1
60
0
100
AcDbLine
10
91.817267
20
3.249025
30
0
11
91.757267
21
3.249025
31
0
39
0
210
0
220
0
230
1
0
LINE
5
E9
100
AcDbEntity
8
1
62
256
6
ByLayer
370
18
48
1
60
0
100
AcDbLine
10
91.638996
20
8.373553
30
0
11
91.579141
21
8.369383
31
0
39
0
210
0
220
0
230
1
0
LINE
5
EA
100
AcDbEntity
8
1
62
256
6
ByLayer
370
18
48
1
60
0
100
AcDbLine
10
91.648845
20
8.2138
30
0
11
91.588931
21
8.210586
31
0
39
0
210
0
220
0
230
1
0
LINE
5
EB
100
AcDbEntity
8
1
62
256
6
ByLayer
370
18
48
1
60
0
100
AcDbLine
10
91.809607
20
3.18154
30
0
11
91.751133
21
3.194986
31
0
39
0
210
0
220
0
230
1
0
LINE
5
EC
100
AcDbEntity
8
1
62
256
6
ByLayer
370
18
48
1
60
0
100
AcDbLine
10
85.866834
20
2.973221
30
0
11
85.923321
21
2.990696
31
0
39
0
210
0
220
0
230
1
0
LINE
5
ED
100
AcDbEntity
8
1
62
256
6
ByLayer
370
18
48
1
60
0
100
AcDbLine
10
86.023594
20
8.597695
30
0
11
86.040547
21
8.540535
31
0
39
0
210
0
220
0
230
1
0
LINE
5
EE
100
AcDbEntity
8
1
62
256
6
ByLayer
370
18
48
1
60
0
100
AcDbLine
10
91.626665
20
8.440337
30
0
11
91.569267
21
8.422862
31
0
39
0
210
0
220
0
230
1
0
LINE
5
EF
100
AcDbEntity
8
1
62
256
6
ByLayer
370
18
48
1
60
0
100
AcDbLine
10
91.035707
20
8.787744
30
0
11
91.036205
21
8.72798
31
0
39
0
210
0
220
0
230
1
0
LINE
5
F0
100
AcDbEntity
8
1
62
256
6
ByLayer
370
18
48
1
60
0
100
AcDbLine
10
86.090124
20
8.610073
30
0
11
86.093822
21
8.550447
31
0
39
0
210
0
220
0
230
1
0
LINE
5
F1
100
AcDbEntity
8
1
62
256
6
ByLayer
370
18
48
1
60
0
100
AcDbLine
10
85.676232
20
8.164533
30
0
11
85.735321
21
8.164533
31
0
39
0
210
0
220
0
230
1
0
LINE
5
F2
100
AcDbEntity
8
1
62
256
6
ByLayer
370
18
48
1
60
0
100
AcDbLine
10
86.388612
20
8.625945
30
0
11
86.390235
21
8.56621
31
0
39
0
210
0
220
0
230
1
0
LINE
5
F3
100
AcDbEntity
8
1
62
256
6
ByLayer
370
18
48
1
60
0
100
AcDbLine
10
91.469906
20
2.815863
30
0
11
91.452041
21
2.873023
31
0
39
0
210
0
220
0
230
1
0
LINE
5
F4
100
AcDbEntity
8
1
62
256
6
ByLayer
370
18
48
1
60
0
100
AcDbLine
10
86.597213
20
2.6296
30
0
11
91.104887
21
2.787613
31
0
39
0
210
0
220
0
230
1
0
LINE
5
F5
100
AcDbEntity
8
1
62
256
6
ByLayer
370
18
48
1
60
0
100
AcDbLine
10
85.68128
20
7.864527
30
0
11
85.740333
21
7.866613
31
0
39
0
210
0
220
0
230
1
0
LINE
5
F6
100
AcDbEntity
8
1
62
256
6
ByLayer
370
18
48
1
60
0
100
AcDbLine
10
91.104887
20
2.787613
30
0
11
91.102353
21
2.847348
31
0
39
0
210
0
220
0
230
1
0
LINE
5
F7
100
AcDbEntity
8
1
62
256
6
ByLayer
370
18
48
1
60
0
100
AcDbLine
10
91.654807
20
8.073924
30
0
11
91.594844
21
8.071838
31
0
39
0
210
0
220
0
230
1
0
LINE
5
F8
100
AcDbEntity
8
1
62
256
6
ByLayer
370
18
48
1
60
0
100
AcDbLine
10
85.842268
20
3.248699
30
0
11
85.901299
21
3.251329
31
0
39
0
210
0
220
0
230
1
0
LINE
5
F9
100
AcDbEntity
8
1
62
256
6
ByLayer
370
18
48
1
60
0
100
AcDbLine
10
85.838692
20
3.339634
30
0
11
85.897744
21
3.34172
31
0
39
0
210
0
220
0
230
1
0
LINE
5
FA
100
AcDbEntity
8
1
62
256
6
ByLayer
370
18
48
1
60
0
100
AcDbLine
10
91.651231
20
8.164859
30
0
11
91.591289
21
8.16223
31
0
39
0
210
0
220
0
230
1
0
LINE
5
FB
100
AcDbEntity
8
1
62
256
6
ByLayer
370
18
48
1
60
0
100
AcDbLine
10
86.23112
20
2.632222
30
0
11
86.244059
21
2.690462
31
0
39
0
210
0
220
0
230
1
0
LINE
5
FC
100
AcDbEntity
8
1
62
256
6
ByLayer
370
18
48
1
60
0
100
AcDbLine
10
91.26238
20
8.781336
30
0
11
91.248529
21
8.723097
31
0
39
0
210
0
220
0
230
1
0
LINE
5
FD
100
AcDbEntity
8
1
62
256
6
ByLayer
370
18
48
1
60
0
100
AcDbLine
10
86.506595
20
2.626838
30
0
11
86.504602
21
2.68659
31
0
39
0
210
0
220
0
230
1
0
LINE
5
FE
100
AcDbEntity
8
1
62
256
6
ByLayer
370
18
48
1
60
0
100
AcDbLine
10
86.597213
20
2.6296
30
0
11
86.594679
21
2.689335
31
0
39
0
210
0
220
0
230
1
0
LINE
5
FF
100
AcDbEntity
8
1
62
256
6
ByLayer
370
18
48
1
60
0
100
AcDbLine
10
85.678529
20
7.955491
30
0
11
85.737597
21
7.957033
31
0
39
0
210
0
220
0
230
1
0
LINE
5
100
100
AcDbEntity
8
1
62
256
6
ByLayer
370
18
48
1
60
0
100
AcDbLine
10
90.896287
20
8.783958
30
0
11
90.897909
21
8.724223
31
0
39
0
210
0
220
0
230
1
0
LINE
5
101
100
AcDbEntity
8
1
62
256
6
ByLayer
370
18
48
1
60
0
100
AcDbLine
10
91.195151
20
8.789025
30
0
11
91.194695
21
8.729254
31
0
39
0
210
0
220
0
230
1
0
LINE
5
102
100
AcDbEntity
8
1
62
256
6
ByLayer
370
18
48
1
60
0
100
AcDbLine
10
91.403375
20
2.803485
30
0
11
91.398766
21
2.863111
31
0
39
0
210
0
220
0
230
1
0
LINE
5
103
100
AcDbEntity
8
1
62
256
6
ByLayer
370
18
48
1
60
0
100
AcDbLine
10
85.844654
20
3.199758
30
0
11
85.903657
21
3.202972
31
0
39
0
210
0
220
0
230
1
0
LINE
5
104
100
AcDbEntity
8
1
62
256
6
ByLayer
370
18
48
1
60
0
100
AcDbLine
10
85.677508
20
8.00448
30
0
11
85.736589
21
8.005437
31
0
39
0
210
0
220
0
230
1
0
LINE
5
105
100
AcDbEntity
8
1
62
256
6
ByLayer
370
18
48
1
60
0
100
AcDbLine
10
91.815991
20
3.409078
30
0
11
91.755999
21
3.408121
31
0
39
0
210
0
220
0
230
1
0
LINE
5
106
100
AcDbEntity
8
1
62
256
6
ByLayer
370
18
48
1
60
0
100
AcDbLine
10
91.632621
20
-4.69569
30
0
11
91.56476
21
-4.611903
31
0
39
0
210
0
220
0
230
1
0
LINE
5
107
100
AcDbEntity
8
1
62
256
6
ByLayer
370
18
48
1
60
0
100
AcDbLine
10
91.609296
20
-0.340753
30
0
11
91.309935
21
0.480202
31
0
39
0
210
0
220
0
230
1
0
LINE
5
108
100
AcDbEntity
8
1
62
256
6
ByLayer
370
18
48
1
60
0
100
AcDbLine
10
91.185567
20
-2.991311
30
0
11
91.171689
21
-3.387983
31
0
39
0
210
0
220
0
230
1
0
LINE
5
109
100
AcDbEntity
8
1
62
256
6
ByLayer
370
18
48
1
60
0
100
AcDbLine
10
91.175362
20
-1.81167
30
0
11
91.107902
21
-0.526875
31
0
39
0
210
0
220
0
230
1
0
LINE
5
10A
100
AcDbEntity
8
1
62
256
6
ByLayer
370
18
48
1
60
0
100
AcDbLine
10
91.329983
20
0.083956
30
0
11
91.260631
21
0.447043
31
0
39
0
210
0
220
0
230
1
0
LINE
5
10B
100
AcDbEntity
8
1
62
256
6
ByLayer
370
18
48
1
60
0
100
AcDbLine
10
91.999695
20
-3.146858
30
0
11
91.80976
21
-3.045744
31
0
39
0
210
0
220
0
230
1
0
LINE
5
10C
100
AcDbEntity
8
1
62
256
6
ByLayer
370
18
48
1
60
0
100
AcDbLine
10
91.444728
20
-3.403605
30
0
11
91.458606
21
-3.006933
31
0
39
0
210
0
220
0
230
1
0
LINE
5
10D
100
AcDbEntity
8
1
62
256
6
ByLayer
370
18
48
1
60
0
100
AcDbLine
10
91.457423
20
-0.566588
30
0
11
91.107902
21
-0.526875
31
0
39
0
210
0
220
0
230
1
0
LINE
5
10E
100
AcDbEntity
8
1
62
256
6
ByLayer
370
18
48
1
60
0
100
AcDbLine
10
91.075499
20
-1.816894
30
0
11
91.008039
21
-0.532099
31
0
39
0
210
0
220
0
230
1
0
LINE
5
10F
100
AcDbEntity
8
1
62
256
6
ByLayer
370
18
48
1
60
0
100
AcDbLine
10
91.524882
20
-1.851383
30
0
11
91.175362
21
-1.81167
31
0
39
0
210
0
220
0
230
1
0
LINE
5
110
100
AcDbEntity
8
1
62
256
6
ByLayer
370
18
48
1
60
0
100
AcDbLine
10
91.808393
20
-3.077121
30
0
11
91.458606
21
-3.006933
31
0
39
0
210
0
220
0
230
1
0
LINE
5
111
100
AcDbEntity
8
1
62
256
6
ByLayer
370
18
48
1
60
0
100
AcDbLine
10
91.175362
20
-1.81167
30
0
11
91.075499
21
-1.816894
31
0
39
0
210
0
220
0
230
1
0
LINE
5
112
100
AcDbEntity
8
1
62
256
6
ByLayer
370
18
48
1
60
0
100
AcDbLine
10
91.524882
20
-1.851383
30
0
11
91.457423
21
-0.566588
31
0
39
0
210
0
220
0
230
1
0
LINE
5
113
100
AcDbEntity
8
1
62
256
6
ByLayer
370
18
48
1
60
0
100
AcDbLine
10
91.72268
20
-2.651394
30
0
11
91.404767
21
-2.739519
31
0
39
0
210
0
220
0
230
1
0
LINE
5
114
100
AcDbEntity
8
1
62
256
6
ByLayer
370
18
48
1
60
0
100
AcDbLine
10
91.309935
20
0.480202
30
0
11
91.260631
21
0.447043
31
0
39
0
210
0
220
0
230
1
0
LINE
5
115
100
AcDbEntity
8
1
62
256
6
ByLayer
370
18
48
1
60
0
100
AcDbLine
10
91.638765
20
-0.485325
30
0
11
91.455213
21
-0.43049
31
0
39
0
210
0
220
0
230
1
0
LINE
5
116
100
AcDbEntity
8
1
62
256
6
ByLayer
370
18
48
1
60
0
100
AcDbLine
10
91.760868
20
-4.524337
30
0
11
91.247692
21
-3.823139
31
0
39
0
210
0
220
0
230
1
0
LINE
5
117
100
AcDbEntity
8
1
62
256
6
ByLayer
370
18
48
1
60
0
100
AcDbLine
10
91.961306
20
-4.244137
30
0
11
91.999695
21
-3.146858
31
0
39
0
210
0
220
0
230
1
0
LINE
5
118
100
AcDbEntity
8
1
62
256
6
ByLayer
370
18
48
1
60
0
100
AcDbLine
10
91.794515
20
-3.473793
30
0
11
91.444728
21
-3.403605
31
0
39
0
210
0
220
0
230
1
0
LINE
5
119
100
AcDbEntity
8
1
62
256
6
ByLayer
370
18
48
1
60
0
100
AcDbLine
10
91.961306
20
-4.244137
30
0
11
91.854374
21
-4.112109
31
0
39
0
210
0
220
0
230
1
0
LINE
5
11A
100
AcDbEntity
8
1
62
256
6
ByLayer
370
18
48
1
60
0
100
AcDbLine
10
91.344789
20
-3.400122
30
0
11
91.358667
21
-3.003449
31
0
39
0
210
0
220
0
230
1
0
LINE
5
11B
100
AcDbEntity
8
1
62
256
6
ByLayer
370
18
48
1
60
0
100
AcDbLine
10
91.714937
20
-1.936066
30
0
11
91.638765
21
-0.485325
31
0
39
0
210
0
220
0
230
1
0
LINE
5
11C
100
AcDbEntity
8
1
62
256
6
ByLayer
370
18
48
1
60
0
100
AcDbLine
10
91.609296
20
-0.340753
30
0
11
91.431171
21
-0.28754
31
0
39
0
210
0
220
0
230
1
0
LINE
5
11D
100
AcDbEntity
8
1
62
256
6
ByLayer
370
18
48
1
60
0
100
AcDbLine
10
91.904268
20
-2.685212
30
0
11
91.732404
21
-2.67183
31
0
39
0
210
0
220
0
230
1
0
LINE
5
11E
100
AcDbEntity
8
1
62
256
6
ByLayer
370
18
48
1
60
0
100
AcDbLine
10
91.794515
20
-3.473793
30
0
11
91.808393
21
-3.077121
31
0
39
0
210
0
220
0
230
1
0
LINE
5
11F
100
AcDbEntity
8
1
62
256
6
ByLayer
370
18
48
1
60
0
100
AcDbLine
10
91.714937
20
-1.936066
30
0
11
91.524882
21
-1.851383
31
0
39
0
210
0
220
0
230
1
0
LINE
5
120
100
AcDbEntity
8
SK1
62
256
6
ByLayer
370
18
48
1
60
0
100
AcDbLine
10
-1.307107
20
3.588717
30
0
11
-1.307107
21
-3.588717
31
0
39
0
210
0
220
0
230
1
0
MTEXT
5
267
100
AcDbEntity
8
SK6
62
256
6
ByLayer
370
18
48
1
60
0
100
AcDbMText
10
0.875
20
-80.875
30
0
210
0
220
0
230
1
1
\W0.7295;880-D1750C4-03
40
3.5
41
0
44
1.084337
50
0
71
7
72
5
7
iso_b_vert
0
DIMENSION
5
275
100
AcDbEntity
8
SK2
62
256
6
ByLayer
370
13
48
1
60
0
100
AcDbDimension
2
DimnDraft3D1
10
92
20
-58.81875
30
0
11
34
21
-58.81875
31
0
70
32
71
5
72
1
41
1
210
0
220
0
230
1
3
Standard
100
AcDbAlignedDimension
13
-24
23
-3.5875
33
0
14
92
24
-10.3375
34
0
50
0
100
AcDbRotatedDimension
1001
ACAD
1000
DSTYLE
1002
{
1070
   279
1070
     0
1070
   172
1070
     1
1070
   173
1070
     1
1070
   340
1005
268
1070
   271
1070
     1
1070
   272
1070
     2
1070
    77
1070
     1
1070
    73
1070
     0
1070
   171
1070
     3
1070
   274
1070
     4
1070
   177
1070
   150
1070
   176
1070
     9
1070
   178
1070
    43
1070
    78
1070
     8
1070
    48
1040
-0.005
1070
    41
1041
4.175
1070
   147
1041
2.25
1070
    42
1041
1.5875
1070
    44
1041
3.175
1070
   140
1041
4.5
1070
   343
1005
0
1070
   344
1005
0
1002
}
0
DIMENSION
5
27F
100
AcDbEntity
8
SK2
62
256
6
ByLayer
370
13
48
1
60
0
100
AcDbDimension
2
DimnDraft3D2
10
0
20
-46.85
30
0
11
-12
21
-46.85
31
0
70
32
71
5
72
1
41
1
210
0
220
0
230
1
3
Standard
100
AcDbAlignedDimension
13
-24
23
-3.5875
33
0
14
0
24
-21.5875
34
0
50
0
100
AcDbRotatedDimension
1001
ACAD
1000
DSTYLE
1002
{
1070
   279
1070
     0
1070
   172
1070
     1
1070
   173
1070
     1
1070
   340
1005
268
1070
   271
1070
     1
1070
   272
1070
     2
1070
    77
1070
     1
1070
    73
1070
     0
1070
   171
1070
     3
1070
   274
1070
     4
1070
   177
1070
   150
1070
   176
1070
     9
1070
   178
1070
    43
1070
    78
1070
     8
1070
    48
1040
-0.005
1070
    41
1041
4.175
1070
   147
1041
2.25
1070
    42
1041
1.5875
1070
    44
1041
3.175
1070
   140
1041
4.5
1070
   343
1005
0
1070
   344
1005
0
1002
}
0
DIMENSION
5
28A
100
AcDbEntity
8
2
62
256
6
ByLayer
370
13
48
1
60
0
100
AcDbDimension
2
DimnDraft3D3
10
92
20
-46.85
30
0
11
46
21
-46.85
31
0
70
32
71
5
72
1
41
1
210
0
220
0
230
1
3
Standard
100
AcDbAlignedDimension
13
0
23
-21.5875
33
0
14
92
24
-10.3375
34
0
50
0
100
AcDbRotatedDimension
1001
ACAD
1000
DSTYLE
1002
{
1070
   279
1070
     0
1070
   172
1070
     1
1070
   173
1070
     1
1070
   340
1005
268
1070
   271
1070
     1
1070
   272
1070
     2
1070
    77
1070
     1
1070
    73
1070
     0
1070
   171
1070
     3
1070
   274
1070
     4
1070
   177
1070
   150
1070
   176
1070
     9
1070
   178
1070
    43
1070
    78
1070
     8
1070
    48
1040
-0.005
1070
    41
1041
4.175
1070
   147
1041
2.25
1070
    42
1041
1.5875
1070
    44
1041
3.175
1070
   140
1041
4.5
1070
   343
1005
0
1070
   344
1005
0
1002
}
0
DIMENSION
5
294
100
AcDbEntity
8
SK2
62
256
6
ByLayer
370
13
48
1
60
0
100
AcDbDimension
2
DimnDraft3D4
10
92
20
-36.85
30
0
11
64
21
-36.85
31
0
70
32
71
5
72
1
41
1
210
0
220
0
230
1
3
Standard
100
AcDbAlignedDimension
13
36
23
-11.5875
33
0
14
92
24
-10.3375
34
0
50
0
100
AcDbRotatedDimension
1001
ACAD
1000
DSTYLE
1002
{
1070
   279
1070
     0
1070
   172
1070
     1
1070
   173
1070
     1
1070
   340
1005
268
1070
   271
1070
     1
1070
   272
1070
     2
1070
    77
1070
     1
1070
    73
1070
     0
1070
   171
1070
     3
1070
   274
1070
     4
1070
   177
1070
   150
1070
   176
1070
     9
1070
   178
1070
    43
1070
    78
1070
     8
1070
    48
1040
-0.005
1070
    41
1041
4.175
1070
   147
1041
2.25
1070
    42
1041
1.5875
1070
    44
1041
3.175
1070
   140
1041
4.5
1070
   343
1005
0
1070
   344
1005
0
1002
}
0
DIMENSION
5
29F
100
AcDbEntity
8
SK2
62
256
6
ByLayer
370
13
48
1
60
0
100
AcDbDimension
2
DimnDraft3D5
10
-46.078766
20
20
30
0
11
-46.278766
21
3.825
31
0
70
33
71
5
72
1
41
1
210
0
220
0
230
1
3
Standard
100
AcDbAlignedDimension
13
-1.5875
23
-20
33
0
14
-1.5875
24
20
34
0
1001
ACAD
1000
DSTYLE
1002
{
1070
   279
1070
     0
1070
    74
1070
     0
1070
   173
1070
     1
1070
   340
1005
268
1070
   271
1070
     1
1070
   272
1070
     2
1070
    77
1070
     1
1070
    73
1070
     0
1070
   171
1070
     3
1070
   274
1070
     4
1070
   177
1070
   150
1070
   176
1070
     9
1070
   178
1070
    43
1070
    78
1070
     8
1070
    48
1040
-0.005
1070
    41
1041
4.175
1070
   147
1041
2.25
1070
    42
1041
1.5875
1070
    44
1041
3.175
1070
   140
1041
4.5
1070
   343
1005
0
1070
   344
1005
0
1002
}
0
DIMENSION
5
2AA
100
AcDbEntity
8
2
62
256
6
ByLayer
370
13
48
1
60
0
100
AcDbDimension
2
DimnDraft3D6
10
122.15
20
-8.75
30
0
11
115.6
21
-30.300658
31
0
70
33
71
5
72
1
41
1
210
0
220
0
230
1
3
Standard
100
AcDbAlignedDimension
13
93.5875
23
8.75
33
0
14
93.5875
24
-8.75
34
0
1001
ACAD
1000
DSTYLE
1002
{
1070
   279
1070
     0
1070
    74
1070
     0
1070
   173
1070
     1
1070
   340
1005
268
1070
   271
1070
     2
1070
   272
1070
     2
1070
    77
1070
     1
1070
    73
1070
     0
1070
   171
1070
     3
1070
   274
1070
     4
1070
   177
1070
   150
1070
   176
1070
     9
1070
   178
1070
    43
1070
    78
1070
     8
1070
    48
1040
-0.005
1070
    41
1041
4.175
1070
   147
1041
2.25
1070
    42
1041
1.5875
1070
    44
1041
3.175
1070
   140
1041
4.5
1070
   343
1005
0
1070
   344
1005
0
1002
}
0
ENDSEC
0
SECTION
2
OBJECTS
0
DICTIONARY
5
315
330
0
100
AcDbDictionary
280
0
281
1
3
ACAD_GROUP
350
316
3
ACAD_MLINESTYLE
350
317
0
DICTIONARY
5
316
330
0
100
AcDbDictionary
280
0
281
1
0
DICTIONARY
5
317
330
0
100
AcDbDictionary
280
0
281
1
3
Standard
350
18
0
MLINESTYLE
5
18
330
317
100
AcDbMlineStyle
2
Standard
70
0
3

62
256
51
90
52
90
71
2
49
-0.5
62
256
6
ByLayer
49
0.5
62
256
6
ByLayer
0
RASTERVARIABLES
5
303
330

100
AcDbRasterVariables
90
0
70
1
71
1
72
1
0
ENDSEC
0
EOF
