0
SECTION
2
HEADER
9
$ACADVER
1
AC1015
9
$DWGCODEPAGE
3
ANSI_1252
9
$HANDSEED
5
2bc
9
$ANGBASE
50
0
9
$ANGDIR
70
0
9
$ATTMODE
70
1
9
$AUNITS
70
0
9
$AUPREC
70
0
9
$CECOLOR
62
256
9
$CELTSCALE
40
1
9
$CELTYPE
6
ByLayer
9
$CELWEIGHT
370
-1
9
$CLAYER
8
0
9
$CMLJUST
70
0
9
$CMLSCALE
40
1
9
$CMLSTYLE
2
Standard
9
$DIMSTYLE
2
Standard
9
$TEXTSIZE
40
0.2
9
$TEXTSTYLE
7
Standard
9
$LUNITS
70
2
9
$LUPREC
70
4
9
$EXTNAMES
290
1
9
$INSUNITS
70
4
9
$LTSCALE
40
1
9
$LWDISPLAY
290
0
9
$PDMODE
70
0
9
$PDSIZE
40
0
9
$PLINEGEN
70
0
0
ENDSEC
0
SECTION
2
CLASSES
0
CLASS
1
RASTERVARIABLES
2
AcDbRasterVariables
3
ISM
90
0
280
0
281
0
0
ENDSEC
0
SECTION
2
TABLES
0
TABLE
2
VPORT
5
2b2
100
AcDbSymbolTable
0
VPORT
5
1
100
AcDbSymbolTableRecord
100
AcDbViewportTableRecord
2
*Active
70
0
10
0
20
0
11
1
21
1
12
-1
22
1
13
0
23
0
14
0.5
24
0.5
15
10
25
10
16
0
26
0
36
1
17
0
27
0
37
0
0
ENDTAB
0
TABLE
2
LTYPE
5
2b3
100
AcDbSymbolTable
0
LTYPE
5
14
100
AcDbSymbolTableRecord
100
AcDbLinetypeTableRecord
70
0
2
ByBlock
3

72
65
73
0
40
0
0
LTYPE
5
15
100
AcDbSymbolTableRecord
100
AcDbLinetypeTableRecord
70
0
2
ByLayer
3

72
65
73
0
40
0
0
LTYPE
5
16
100
AcDbSymbolTableRecord
100
AcDbLinetypeTableRecord
70
0
2
CONTINUOUS
3
Solid line
72
65
73
0
40
0
0
LTYPE
5
3B
100
AcDbSymbolTableRecord
100
AcDbLinetypeTableRecord
70
0
2
DASHED
3
__ __ __ __ __ __ __ __ __
72
65
73
2
40
25.72
49
12.86
74
0
49
-12.86
74
0
0
LTYPE
5
3C
100
AcDbSymbolTableRecord
100
AcDbLinetypeTableRecord
70
0
2
HIDDEN
3
_ _ _ _ _ _ _ _ _ _ _ _ _ _ _
72
65
73
2
40
0.5
49
0.25
74
0
49
-0.25
74
0
0
LTYPE
5
3D
100
AcDbSymbolTableRecord
100
AcDbLinetypeTableRecord
70
0
2
PHANTOM
3
____ _ _ ____ _ _ _____ _ _ ____
72
65
73
6
40
50.5
49
18
74
0
49
-6.5
74
0
49
6.5
74
0
49
-6.5
74
0
49
6.5
74
0
49
-6.5
74
0
0
LTYPE
5
3E
100
AcDbSymbolTableRecord
100
AcDbLinetypeTableRecord
70
0
2
CENTER
3
____ _ ____ _ ____ _ ____
72
65
73
4
40
47.5
49
22
74
0
49
-8.5
74
0
49
8.5
74
0
49
-8.5
74
0
0
LTYPE
5
3F
100
AcDbSymbolTableRecord
100
AcDbLinetypeTableRecord
70
0
2
DOT
3
.........................
72
65
73
2
40
10
49
0
74
0
49
-10
74
0
0
LTYPE
5
40
100
AcDbSymbolTableRecord
100
AcDbLinetypeTableRecord
70
0
2
DASHDOT
3
_._._._._._._._._._._._._._._._.
72
65
73
4
40
70
49
31
74
0
49
-13
74
0
49
13
74
0
49
-13
74
0
0
ENDTAB
0
TABLE
2
LAYER
5
2b4
100
AcDbSymbolTable
0
LAYER
5
10
100
AcDbSymbolTableRecord
100
AcDbLayerTableRecord
2
0
70
0
62
7
6
CONTINUOUS
290
1
370
-3
390
0
0
LAYER
5
42
100
AcDbSymbolTableRecord
100
AcDbLayerTableRecord
2
81
70
0
62
-3
6
CONTINUOUS
290
1
370
-3
390
0
0
LAYER
5
44
100
AcDbSymbolTableRecord
100
AcDbLayerTableRecord
2
80
70
0
62
-6
6
CONTINUOUS
290
1
370
-3
390
0
0
LAYER
5
57
100
AcDbSymbolTableRecord
100
AcDbLayerTableRecord
2
1
70
0
62
4
6
CONTINUOUS
290
1
370
-3
390
0
0
LAYER
5
61
100
AcDbSymbolTableRecord
100
AcDbLayerTableRecord
2
4
70
0
62
-2
6
CENTER
290
1
370
-3
390
0
0
LAYER
5
24B
100
AcDbSymbolTableRecord
100
AcDbLayerTableRecord
2
2
70
0
62
7
6
CONTINUOUS
290
1
370
-3
390
0
0
LAYER
5
29e
100
AcDbSymbolTableRecord
100
AcDbLayerTableRecord
2
SK1
70
0
62
4
6
CONTINUOUS
290
1
370
-3
390
0
0
LAYER
5
29f
100
AcDbSymbolTableRecord
100
AcDbLayerTableRecord
2
SK4
70
0
62
2
6
CENTER
290
1
370
-3
390
0
0
LAYER
5
2a0
100
AcDbSymbolTableRecord
100
AcDbLayerTableRecord
2
SK6
70
0
62
5
6
CONTINUOUS
290
1
370
-3
390
0
0
LAYER
5
2a1
100
AcDbSymbolTableRecord
100
AcDbLayerTableRecord
2
SK2
70
0
62
7
6
CONTINUOUS
290
1
370
-3
390
0
0
ENDTAB
0
TABLE
2
STYLE
5
2b5
100
AcDbSymbolTable
0
STYLE
5
11
100
AcDbSymbolTableRecord
100
AcDbTextStyleTableRecord
2
Standard
3
txt
70
0
71
0
40
0
41
1
42
0
50
0
0
STYLE
5
20F
100
AcDbSymbolTableRecord
100
AcDbTextStyleTableRecord
2
DEFAULT
3
simplex.shx
70
0
71
0
40
0
41
1
42
0
50
0
0
STYLE
5
232
100
AcDbSymbolTableRecord
100
AcDbTextStyleTableRecord
2
DWGDirectTextStyle
3
SIMPLEX
70
0
71
0
40
0
41
1
42
0
50
0
0
ENDTAB
0
TABLE
2
DIMSTYLE
5
2b6
100
AcDbSymbolTable
100
AcDbDimStyleTable
0
DIMSTYLE
105
27
100
AcDbSymbolTableRecord
100
AcDbDimStyleTableRecord
2
Standard
70
0
3
<>
41
0.18
42
0.0625
44
0.18
140
0.18
147
0.09
73
0
74
0
77
1
271
2
275
0
278
52
280
0
340
11
0
ENDTAB
0
TABLE
2
VIEW
5
2b7
100
AcDbSymbolTable
0
ENDTAB
0
TABLE
2
UCS
5
2b8
100
AcDbSymbolTable
0
ENDTAB
0
TABLE
2
APPID
5
2b9
100
AcDbSymbolTable
0
APPID
5
12
100
AcDbSymbolTableRecord
100
AcDbRegAppTableRecord
2
ACAD
70
0
0
ENDTAB
0
TABLE
2
BLOCK_RECORD
5
2ba
100
AcDbSymbolTable
0
BLOCK_RECORD
5
1F
100
AcDbSymbolTableRecord
100
AcDbBlockTableRecord
2
*Model_Space
340
0
70
0
0
BLOCK_RECORD
5
1B
100
AcDbSymbolTableRecord
100
AcDbBlockTableRecord
2
*Paper_Space
340
0
70
0
0
BLOCK_RECORD
5
23
100
AcDbSymbolTableRecord
100
AcDbBlockTableRecord
2
*Paper_Space0
340
0
70
0
0
BLOCK_RECORD
5
234
100
AcDbSymbolTableRecord
100
AcDbBlockTableRecord
2
DimnDraft3D1
340
0
70
0
0
BLOCK_RECORD
5
23F
100
AcDbSymbolTableRecord
100
AcDbBlockTableRecord
2
DimnDraft3D2
340
0
70
0
0
BLOCK_RECORD
5
249
100
AcDbSymbolTableRecord
100
AcDbBlockTableRecord
2
DimnDraft3D3
340
0
70
0
0
BLOCK_RECORD
5
254
100
AcDbSymbolTableRecord
100
AcDbBlockTableRecord
2
DimnDraft3D4
340
0
70
0
0
BLOCK_RECORD
5
25E
100
AcDbSymbolTableRecord
100
AcDbBlockTableRecord
2
DimnDraft3D5
340
0
70
0
0
BLOCK_RECORD
5
269
100
AcDbSymbolTableRecord
100
AcDbBlockTableRecord
2
DimnDraft3D6
340
0
70
0
0
BLOCK_RECORD
5
274
100
AcDbSymbolTableRecord
100
AcDbBlockTableRecord
2
DimnDraft3D7
340
0
70
0
0
ENDTAB
0
ENDSEC
0
SECTION
2
BLOCKS
0
BLOCK
5
20
100
AcDbEntity
8
0
100
AcDbBlockBegin
2
*Model_Space
70
0
10
0
20
0
30
0
3
*Model_Space
0
ENDBLK
5
21
100
AcDbEntity
8
0
100
AcDbBlockEnd
0
BLOCK
5
1C
100
AcDbEntity
8
0
100
AcDbBlockBegin
2
*Paper_Space
70
0
10
0
20
0
30
0
3
*Paper_Space
0
ENDBLK
5
1D
100
AcDbEntity
8
0
100
AcDbBlockEnd
0
BLOCK
5
24
100
AcDbEntity
8
0
100
AcDbBlockBegin
2
*Paper_Space0
70
0
10
0
20
0
30
0
3
*Paper_Space0
0
ENDBLK
5
25
100
AcDbEntity
8
0
100
AcDbBlockEnd
0
BLOCK
5
23C
100
AcDbEntity
8
0
100
AcDbBlockBegin
2
DimnDraft3D1
70
0
10
0
20
0
30
0
3
DimnDraft3D1
0
MTEXT
5
235
100
AcDbEntity
8
SK2
62
256
6
ByLayer
370
-1
48
1
60
0
100
AcDbMText
10
2.969079
20
-48.2758
30
0
210
0
220
0
230
1
1
\W01.000;\fsimplex.shx,bigfont.shx;(119) 
40
4.5
41
0
44
1.084337
50
0
71
7
72
5
7
DEFAULT
0
LINE
5
237
100
AcDbEntity
8
SK2
62
256
6
ByLayer
370
-1
48
1
60
0
100
AcDbLine
10
-50
20
-11.5875
30
0
11
-50
21
-54.54455
31
0
39
0
210
0
220
0
230
1
0
LINE
5
238
100
AcDbEntity
8
SK2
62
256
6
ByLayer
370
-1
48
1
60
0
100
AcDbLine
10
69
20
-10.0875
30
0
11
69
21
-54.54455
31
0
39
0
210
0
220
0
230
1
0
LINE
5
239
100
AcDbEntity
8
SK2
62
256
6
ByLayer
370
-1
48
1
60
0
100
AcDbLine
10
-50
20
-51.36955
30
0
11
69
21
-51.36955
31
0
39
0
210
0
220
0
230
1
0
SOLID
5
23A
100
AcDbEntity
8
SK2
62
256
6
ByLayer
370
-1
48
1
60
0
100
AcDbTrace
10
-50
20
-51.36955
30
0
11
-45.825003
21
-50.443975
31
0
12
-45.824997
22
-52.295125
32
0
13
-50
23
-51.36955
33
0
39
0
210
0
220
0
230
1
0
SOLID
5
23B
100
AcDbEntity
8
SK2
62
256
6
ByLayer
370
-1
48
1
60
0
100
AcDbTrace
10
69
20
-51.36955
30
0
11
64.825003
21
-52.295125
31
0
12
64.824997
22
-50.443975
32
0
13
69
23
-51.36955
33
0
39
0
210
0
220
0
230
1
0
ENDBLK
5
23D
100
AcDbEntity
8
0
100
AcDbBlockEnd
0
BLOCK
5
246
100
AcDbEntity
8
0
100
AcDbBlockBegin
2
DimnDraft3D2
70
0
10
0
20
0
30
0
3
DimnDraft3D2
0
MTEXT
5
240
100
AcDbEntity
8
SK2
62
256
6
ByLayer
370
-1
48
1
60
0
100
AcDbMText
10
-26.503947
20
-38.2758
30
0
210
0
220
0
230
1
1
\W01.000;\fsimplex.shx,bigfont.shx;50 
40
4.5
41
0
44
1.084337
50
0
71
7
72
5
7
DEFAULT
0
LINE
5
241
100
AcDbEntity
8
SK2
62
256
6
ByLayer
370
-1
48
1
60
0
100
AcDbLine
10
-50
20
-11.5875
30
0
11
-50
21
-42.5758
31
0
39
0
210
0
220
0
230
1
0
LINE
5
242
100
AcDbEntity
8
SK2
62
256
6
ByLayer
370
-1
48
1
60
0
100
AcDbLine
10
0
20
-14.0875
30
0
11
0
21
-42.5758
31
0
39
0
210
0
220
0
230
1
0
LINE
5
243
100
AcDbEntity
8
SK2
62
256
6
ByLayer
370
-1
48
1
60
0
100
AcDbLine
10
-50
20
-39.4008
30
0
11
0
21
-39.4008
31
0
39
0
210
0
220
0
230
1
0
SOLID
5
244
100
AcDbEntity
8
SK2
62
256
6
ByLayer
370
-1
48
1
60
0
100
AcDbTrace
10
-50
20
-39.4008
30
0
11
-45.825003
21
-38.475225
31
0
12
-45.824997
22
-40.326375
32
0
13
-50
23
-39.4008
33
0
39
0
210
0
220
0
230
1
0
SOLID
5
245
100
AcDbEntity
8
SK2
62
256
6
ByLayer
370
-1
48
1
60
0
100
AcDbTrace
10
0
20
-39.4008
30
0
11
-4.174997
21
-40.326375
31
0
12
-4.175003
22
-38.475225
32
0
13
0
23
-39.4008
33
0
39
0
210
0
220
0
230
1
0
ENDBLK
5
247
100
AcDbEntity
8
0
100
AcDbBlockEnd
0
BLOCK
5
251
100
AcDbEntity
8
0
100
AcDbBlockBegin
2
DimnDraft3D3
70
0
10
0
20
0
30
0
3
DimnDraft3D3
0
MTEXT
5
24A
100
AcDbEntity
8
2
62
256
6
ByLayer
370
-1
48
1
60
0
100
AcDbMText
10
32.996053
20
-38.2758
30
0
210
0
220
0
230
1
1
\W01.000;\fsimplex.shx,bigfont.shx;69 
40
4.5
41
0
44
1.084337
50
0
71
7
72
5
7
DEFAULT
0
LINE
5
24C
100
AcDbEntity
8
2
62
256
6
ByLayer
370
-1
48
1
60
0
100
AcDbLine
10
0
20
-14.0875
30
0
11
0
21
-42.5758
31
0
39
0
210
0
220
0
230
1
0
LINE
5
24D
100
AcDbEntity
8
2
62
256
6
ByLayer
370
-1
48
1
60
0
100
AcDbLine
10
69
20
-10.0875
30
0
11
69
21
-42.5758
31
0
39
0
210
0
220
0
230
1
0
LINE
5
24E
100
AcDbEntity
8
2
62
256
6
ByLayer
370
-1
48
1
60
0
100
AcDbLine
10
0
20
-39.4008
30
0
11
69
21
-39.4008
31
0
39
0
210
0
220
0
230
1
0
SOLID
5
24F
100
AcDbEntity
8
2
62
256
6
ByLayer
370
-1
48
1
60
0
100
AcDbTrace
10
0
20
-39.4008
30
0
11
4.174997
21
-38.475225
31
0
12
4.175003
22
-40.326375
32
0
13
0
23
-39.4008
33
0
39
0
210
0
220
0
230
1
0
SOLID
5
250
100
AcDbEntity
8
2
62
256
6
ByLayer
370
-1
48
1
60
0
100
AcDbTrace
10
69
20
-39.4008
30
0
11
64.825003
21
-40.326375
31
0
12
64.824997
22
-38.475225
32
0
13
69
23
-39.4008
33
0
39
0
210
0
220
0
230
1
0
ENDBLK
5
252
100
AcDbEntity
8
0
100
AcDbBlockEnd
0
BLOCK
5
25B
100
AcDbEntity
8
0
100
AcDbBlockBegin
2
DimnDraft3D4
70
0
10
0
20
0
30
0
3
DimnDraft3D4
0
MTEXT
5
255
100
AcDbEntity
8
SK2
62
256
6
ByLayer
370
-1
48
1
60
0
100
AcDbMText
10
40.259211
20
-28.2758
30
0
210
0
220
0
230
1
1
\W01.000;\fsimplex.shx,bigfont.shx;54 
40
4.5
41
0
44
1.084337
50
0
71
7
72
5
7
DEFAULT
0
LINE
5
256
100
AcDbEntity
8
SK2
62
256
6
ByLayer
370
-1
48
1
60
0
100
AcDbLine
10
15
20
-11.5875
30
0
11
15
21
-32.5758
31
0
39
0
210
0
220
0
230
1
0
LINE
5
257
100
AcDbEntity
8
SK2
62
256
6
ByLayer
370
-1
48
1
60
0
100
AcDbLine
10
69
20
-10.0875
30
0
11
69
21
-32.5758
31
0
39
0
210
0
220
0
230
1
0
LINE
5
258
100
AcDbEntity
8
SK2
62
256
6
ByLayer
370
-1
48
1
60
0
100
AcDbLine
10
15
20
-29.4008
30
0
11
69
21
-29.4008
31
0
39
0
210
0
220
0
230
1
0
SOLID
5
259
100
AcDbEntity
8
SK2
62
256
6
ByLayer
370
-1
48
1
60
0
100
AcDbTrace
10
15
20
-29.4008
30
0
11
19.174997
21
-28.475225
31
0
12
19.175003
22
-30.326375
32
0
13
15
23
-29.4008
33
0
39
0
210
0
220
0
230
1
0
SOLID
5
25A
100
AcDbEntity
8
SK2
62
256
6
ByLayer
370
-1
48
1
60
0
100
AcDbTrace
10
69
20
-29.4008
30
0
11
64.825003
21
-30.326375
31
0
12
64.824997
22
-28.475225
32
0
13
69
23
-29.4008
33
0
39
0
210
0
220
0
230
1
0
ENDBLK
5
25C
100
AcDbEntity
8
0
100
AcDbBlockEnd
0
BLOCK
5
266
100
AcDbEntity
8
0
100
AcDbBlockBegin
2
DimnDraft3D5
70
0
10
0
20
0
30
0
3
DimnDraft3D5
0
MTEXT
5
25F
100
AcDbEntity
8
SK2
62
256
6
ByLayer
370
-1
48
1
60
0
100
AcDbMText
10
-60.975
20
-26.245395
30
0
210
0
220
0
230
1
1
\W01.000;\fsimplex.shx,bigfont.shx;20 
40
4.5
41
0
44
1.084337
50
90
71
7
72
5
7
DEFAULT
0
MTEXT
5
260
100
AcDbEntity
8
SK2
62
256
6
ByLayer
370
-1
48
1
60
0
100
AcDbMText
10
-60.975
20
-39.745395
30
0
210
0
220
0
230
1
1
\W01.000;\fsimplex.shx,bigfont.shx;%%c 
40
4.5
41
0
44
1.084337
50
90
71
7
72
5
7
DEFAULT
0
LINE
5
261
100
AcDbEntity
8
SK2
62
256
6
ByLayer
370
-1
48
1
60
0
100
AcDbLine
10
-51.5875
20
10
30
0
11
-61.9
21
10
31
0
39
0
210
0
220
0
230
1
0
LINE
5
262
100
AcDbEntity
8
SK2
62
256
6
ByLayer
370
-1
48
1
60
0
100
AcDbLine
10
-51.5875
20
-10
30
0
11
-61.9
21
-10
31
0
39
0
210
0
220
0
230
1
0
LINE
5
263
100
AcDbEntity
8
SK2
62
256
6
ByLayer
370
-1
48
1
60
0
100
AcDbLine
10
-58.725
20
10
30
0
11
-58.725
21
-40.870395
31
0
39
0
210
0
220
0
230
1
0
SOLID
5
264
100
AcDbEntity
8
SK2
62
256
6
ByLayer
370
-1
48
1
60
0
100
AcDbTrace
10
-58.725
20
10
30
0
11
-57.799425
21
5.825003
31
0
12
-59.650575
22
5.824997
32
0
13
-58.725
23
10
33
0
39
0
210
0
220
0
230
1
0
SOLID
5
265
100
AcDbEntity
8
SK2
62
256
6
ByLayer
370
-1
48
1
60
0
100
AcDbTrace
10
-58.725
20
-10
30
0
11
-59.650575
21
-5.825003
31
0
12
-57.799425
22
-5.824997
32
0
13
-58.725
23
-10
33
0
39
0
210
0
220
0
230
1
0
ENDBLK
5
267
100
AcDbEntity
8
0
100
AcDbBlockEnd
0
BLOCK
5
271
100
AcDbEntity
8
0
100
AcDbBlockBegin
2
DimnDraft3D6
70
0
10
0
20
0
30
0
3
DimnDraft3D6
0
MTEXT
5
26A
100
AcDbEntity
8
SK2
62
256
6
ByLayer
370
-1
48
1
60
0
100
AcDbMText
10
-70.975
20
5.246053
30
0
210
0
220
0
230
1
1
\W01.000;\fsimplex.shx,bigfont.shx;25 
40
4.5
41
0
44
1.084337
50
90
71
7
72
5
7
DEFAULT
0
MTEXT
5
26B
100
AcDbEntity
8
SK2
62
256
6
ByLayer
370
-1
48
1
60
0
100
AcDbMText
10
-70.975
20
-8.253947
30
0
210
0
220
0
230
1
1
\W01.000;\fsimplex.shx,bigfont.shx;%%c 
40
4.5
41
0
44
1.084337
50
90
71
7
72
5
7
DEFAULT
0
LINE
5
26C
100
AcDbEntity
8
SK2
62
256
6
ByLayer
370
-1
48
1
60
0
100
AcDbLine
10
-1.5875
20
-12.5
30
0
11
-71.9
21
-12.5
31
0
39
0
210
0
220
0
230
1
0
LINE
5
26D
100
AcDbEntity
8
SK2
62
256
6
ByLayer
370
-1
48
1
60
0
100
AcDbLine
10
-1.5875
20
12.5
30
0
11
-71.9
21
12.5
31
0
39
0
210
0
220
0
230
1
0
LINE
5
26E
100
AcDbEntity
8
SK2
62
256
6
ByLayer
370
-1
48
1
60
0
100
AcDbLine
10
-68.725
20
-23.75
30
0
11
-68.725
21
23.75
31
0
39
0
210
0
220
0
230
1
0
SOLID
5
26F
100
AcDbEntity
8
SK2
62
256
6
ByLayer
370
-1
48
1
60
0
100
AcDbTrace
10
-68.725
20
-12.5
30
0
11
-67.799425
21
-16.674997
31
0
12
-69.650575
22
-16.675003
32
0
13
-68.725
23
-12.5
33
0
39
0
210
0
220
0
230
1
0
SOLID
5
270
100
AcDbEntity
8
SK2
62
256
6
ByLayer
370
-1
48
1
60
0
100
AcDbTrace
10
-68.725
20
12.5
30
0
11
-69.650575
21
16.674997
31
0
12
-67.799425
22
16.675003
32
0
13
-68.725
23
12.5
33
0
39
0
210
0
220
0
230
1
0
ENDBLK
5
272
100
AcDbEntity
8
0
100
AcDbBlockEnd
0
BLOCK
5
27C
100
AcDbEntity
8
0
100
AcDbBlockBegin
2
DimnDraft3D7
70
0
10
0
20
0
30
0
3
DimnDraft3D7
0
MTEXT
5
275
100
AcDbEntity
8
2
62
256
6
ByLayer
370
-1
48
1
60
0
100
AcDbMText
10
93.725
20
-23.620395
30
0
210
0
220
0
230
1
1
\W01.000;\fsimplex.shx,bigfont.shx;17 
40
4.5
41
0
44
1.084337
50
90
71
7
72
5
7
DEFAULT
0
MTEXT
5
276
100
AcDbEntity
8
2
62
256
6
ByLayer
370
-1
48
1
60
0
100
AcDbMText
10
93.725
20
-37.120395
30
0
210
0
220
0
230
1
1
\W01.000;\fsimplex.shx,bigfont.shx;%%c 
40
4.5
41
0
44
1.084337
50
90
71
7
72
5
7
DEFAULT
0
LINE
5
277
100
AcDbEntity
8
2
62
256
6
ByLayer
370
-1
48
1
60
0
100
AcDbLine
10
70.5875
20
8.5
30
0
11
99.15
21
8.5
31
0
39
0
210
0
220
0
230
1
0
LINE
5
278
100
AcDbEntity
8
2
62
256
6
ByLayer
370
-1
48
1
60
0
100
AcDbLine
10
70.5875
20
-8.5
30
0
11
99.15
21
-8.5
31
0
39
0
210
0
220
0
230
1
0
LINE
5
279
100
AcDbEntity
8
2
62
256
6
ByLayer
370
-1
48
1
60
0
100
AcDbLine
10
95.975
20
8.5
30
0
11
95.975
21
-38.245395
31
0
39
0
210
0
220
0
230
1
0
SOLID
5
27A
100
AcDbEntity
8
2
62
256
6
ByLayer
370
-1
48
1
60
0
100
AcDbTrace
10
95.975
20
8.5
30
0
11
96.900575
21
4.325003
31
0
12
95.049425
22
4.324997
32
0
13
95.975
23
8.5
33
0
39
0
210
0
220
0
230
1
0
SOLID
5
27B
100
AcDbEntity
8
2
62
256
6
ByLayer
370
-1
48
1
60
0
100
AcDbTrace
10
95.975
20
-8.5
30
0
11
95.049425
21
-4.325003
31
0
12
96.900575
22
-4.324997
32
0
13
95.975
23
-8.5
33
0
39
0
210
0
220
0
230
1
0
ENDBLK
5
27D
100
AcDbEntity
8
0
100
AcDbBlockEnd
0
ENDSEC
0
SECTION
2
ENTITIES
0
ARC
5
F3
100
AcDbEntity
8
SK1
62
256
6
ByLayer
370
-1
48
1
60
0
100
AcDbCircle
39
0
10
1.382165
20
10.15
30
0
40
0.4
210
0
220
0
230
-1
100
AcDbArc
50
270
51
295
0
ARC
5
F4
100
AcDbEntity
8
SK1
62
256
6
ByLayer
370
-1
48
1
60
0
100
AcDbCircle
39
0
10
1.382165
20
-10.15
30
0
40
0.4
210
0
220
0
230
-1
100
AcDbArc
50
65
51
90
0
ARC
5
F5
100
AcDbEntity
8
SK1
62
256
6
ByLayer
370
-1
48
1
60
0
100
AcDbCircle
39
0
10
0.15
20
10.15
30
0
40
0.4
210
0
220
0
230
-1
100
AcDbArc
50
247.975687
51
270
0
ARC
5
F6
100
AcDbEntity
8
SK1
62
256
6
ByLayer
370
-1
48
1
60
0
100
AcDbCircle
39
0
10
0.15
20
-10.15
30
0
40
0.4
210
0
220
0
230
-1
100
AcDbArc
50
90
51
112.024313
0
ARC
5
F7
100
AcDbEntity
8
SK1
62
256
6
ByLayer
370
-1
48
1
60
0
100
AcDbCircle
39
0
10
47.894506
20
10.39675
30
0
40
0.8
210
0
220
0
230
-1
100
AcDbArc
50
250.982048
51
321
0
ARC
5
F8
100
AcDbEntity
8
SK1
62
256
6
ByLayer
370
-1
48
1
60
0
100
AcDbCircle
39
0
10
47.894506
20
-10.39675
30
0
40
0.8
210
0
220
0
230
-1
100
AcDbArc
50
39
51
109.017952
0
ELLIPSE
5
F9
100
AcDbEntity
8
1
62
256
6
ByLayer
370
-1
48
1
60
0
100
AcDbEllipse
10
59.884346
20
3.328407
30
0
11
-0.326425640836806
21
-0.730374082922087
31
0
210
0
220
0
230
1
40
0.079621
41
0.473134521321849
42
1.60636616336575
0
ELLIPSE
5
FA
100
AcDbEntity
8
1
62
256
6
ByLayer
370
-1
48
1
60
0
100
AcDbEllipse
10
63.450319
20
4.72
30
0
11
-4.72234419950628
21
-2.9964712300232
31
0
210
0
220
0
230
-1
40
0.382995
41
-0.983376934168609
42
-0.933060311194014
0
ELLIPSE
5
FB
100
AcDbEntity
8
1
62
256
6
ByLayer
370
-1
48
1
60
0
100
AcDbEllipse
10
58.794057
20
2.821524
30
0
11
-8.93003931676054
21
0.469769796404376
31
0
210
0
220
0
230
-1
40
0.000351
41
-3.13592361613904
42
-3.13492433080341
0
ELLIPSE
5
FC
100
AcDbEntity
8
1
62
256
6
ByLayer
370
-1
48
1
60
0
100
AcDbEllipse
10
63.165408
20
6.032453
30
0
11
-0.579980162549582
21
-0.618336926366154
31
0
210
0
220
0
230
-1
40
0.04503
41
-0.73991613851737
42
-0.421202239130211
0
ELLIPSE
5
FD
100
AcDbEntity
8
1
62
256
6
ByLayer
370
-1
48
1
60
0
100
AcDbEllipse
10
65.857049
20
5.251694
30
0
11
1.2885986765479E-15
21
1.1
31
0
210
0
220
0
230
1
40
0.996195
41
-2.42668389129718
42
0
0
ELLIPSE
5
FE
100
AcDbEntity
8
1
62
256
6
ByLayer
370
-1
48
1
60
0
100
AcDbEllipse
10
65.857049
20
5.251694
30
0
11
1.2885986765479E-15
21
1.1
31
0
210
0
220
0
230
1
40
0.996195
41
0
42
1.57079634372637
0
ELLIPSE
5
FF
100
AcDbEntity
8
1
62
256
6
ByLayer
370
-1
48
1
60
0
100
AcDbEllipse
10
65.857049
20
5.251694
30
0
11
1.2885986765479E-15
21
1.1
31
0
210
0
220
0
230
1
40
0.996195
41
1.5707962760005
42
1.74584211605793
0
ELLIPSE
5
100
100
AcDbEntity
8
1
62
256
6
ByLayer
370
-1
48
1
60
0
100
AcDbEllipse
10
61.732159
20
2.967857
30
0
11
0.0280261150489165
21
-0.799508934831416
31
0
210
0
220
0
230
1
40
0.087103
41
0.0630727813209161
42
1.56774302595899
0
ELLIPSE
5
101
100
AcDbEntity
8
1
62
256
6
ByLayer
370
-1
48
1
60
0
100
AcDbEllipse
10
68.264351
20
-4.221165
30
0
11
-0.0581290992933961
21
-0.658564973950493
31
0
210
0
220
0
230
-1
40
0.115224
41
0.00370845515643358
42
1.574504781947
0
ELLIPSE
5
102
100
AcDbEntity
8
1
62
256
6
ByLayer
370
-1
48
1
60
0
100
AcDbEllipse
10
67.995817
20
-4.693669
30
0
11
-0.0606459485180565
21
1.00988975050576
31
0
210
0
220
0
230
-1
40
0.117109
41
-0.803392937911865
42
0.924925923305487
0
ELLIPSE
5
103
100
AcDbEntity
8
1
62
256
6
ByLayer
370
-1
48
1
60
0
100
AcDbEllipse
10
67.905278
20
-4.68519
30
0
11
-0.0806236709325295
21
-0.99682383773353
31
0
210
0
220
0
230
-1
40
0.125822
41
-2.23317194807299
42
2.32169449788911
0
ELLIPSE
5
104
100
AcDbEntity
8
1
62
256
6
ByLayer
370
-1
48
1
60
0
100
AcDbEllipse
10
63.790904
20
4.533916
30
0
11
-1.4470236532442E-15
21
-1.35
31
0
210
0
220
0
230
1
40
0.996195
41
-2.26960617922759
42
-1.53588974175501
0
ELLIPSE
5
105
100
AcDbEntity
8
1
62
256
6
ByLayer
370
-1
48
1
60
0
100
AcDbEllipse
10
65.72822
20
-1.518534
30
0
11
-1.1
21
1.1117029605906E-15
31
0
210
0
220
0
230
1
40
0.998135
41
0
42
6.28318530717959
0
ELLIPSE
5
106
100
AcDbEntity
8
1
62
256
6
ByLayer
370
-1
48
1
60
0
100
AcDbEllipse
10
68.035072
20
0.267632
30
0
11
-0.0367903389290053
21
0.601607558634984
31
0
210
0
220
0
230
-1
40
0.118733
41
-1.49832362976453
42
-1.33856144319826
0
ELLIPSE
5
107
100
AcDbEntity
8
1
62
256
6
ByLayer
370
-1
48
1
60
0
100
AcDbEllipse
10
60.341699
20
4.620406
30
0
11
-0.317477113199968
21
-3.38514523803547
31
0
210
0
220
0
230
1
40
0.265059
41
0.197764347842904
42
0.811816346331424
0
ELLIPSE
5
108
100
AcDbEntity
8
1
62
256
6
ByLayer
370
-1
48
1
60
0
100
AcDbEllipse
10
68.297002
20
0
30
0
11
-0.497561979485929
21
8.19978589754256
31
0
210
0
220
0
230
-1
40
0.119092
41
-2.0604495540108
42
-1.47757991926082
0
ELLIPSE
5
109
100
AcDbEntity
8
1
62
256
6
ByLayer
370
-1
48
1
60
0
100
AcDbEllipse
10
66.061865
20
5.251694
30
0
11
1.2885986765479E-15
21
1.1
31
0
210
0
220
0
230
1
40
0.996195
41
0.0936589268668741
42
1.57079627600051
0
ELLIPSE
5
10A
100
AcDbEntity
8
1
62
256
6
ByLayer
370
-1
48
1
60
0
100
AcDbEllipse
10
66.061865
20
5.251694
30
0
11
1.2885986765479E-15
21
1.1
31
0
210
0
220
0
230
1
40
0.996195
41
1.57079627600051
42
2.67447725026751
0
ELLIPSE
5
10B
100
AcDbEntity
8
1
62
256
6
ByLayer
370
-1
48
1
60
0
100
AcDbEllipse
10
60.271988
20
0
30
0
11
-29.6996746147147
21
-3.36526921128326E-14
31
0
210
0
220
0
230
-1
40
0.276097
41
1.48241013509742
42
1.59785991518959
0
ELLIPSE
5
10C
100
AcDbEntity
8
1
62
256
6
ByLayer
370
-1
48
1
60
0
100
AcDbEllipse
10
63.622581
20
3.359632
30
0
11
1.58146201212697E-15
21
1.35
31
0
210
0
220
0
230
1
40
0.996195
41
1.60570291183479
42
1.85093280967831
0
ELLIPSE
5
10D
100
AcDbEntity
8
1
62
256
6
ByLayer
370
-1
48
1
60
0
100
AcDbEllipse
10
60.076886
20
2.169951
30
0
11
-5.25485351633818
21
-0.165313609798362
31
0
210
0
220
0
230
-1
40
0.010629
41
-1.89661239475034
42
-1.88740149890388
0
ELLIPSE
5
10E
100
AcDbEntity
8
1
62
256
6
ByLayer
370
-1
48
1
60
0
100
AcDbEllipse
10
66.199245
20
0
30
0
11
-18.6591848806043
21
7.94639694187872
31
0
210
0
220
0
230
-1
40
0.108448
41
-1.2186185030792
42
-0.514511945103477
0
ELLIPSE
5
10F
100
AcDbEntity
8
1
62
256
6
ByLayer
370
-1
48
1
60
0
100
AcDbEllipse
10
62.764511
20
0
30
0
11
-0.26550239870319
21
8.19996706309901
31
0
210
0
220
0
230
-1
40
0.087398
41
-0.0391319386775917
42
-0.00102979314101771
0
ELLIPSE
5
110
100
AcDbEntity
8
1
62
256
6
ByLayer
370
-1
48
1
60
0
100
AcDbEllipse
10
10.2
20
3.516343
30
0
11
-4.50000000000001
21
4.54787574787064E-15
31
0
210
0
220
0
230
1
40
0.674369
41
-1.82153493117917
42
-0.390515482508013
0
ELLIPSE
5
111
100
AcDbEntity
8
1
62
256
6
ByLayer
370
-1
48
1
60
0
100
AcDbEllipse
10
61.586139
20
7.165298
30
0
11
-5.35934686386741E-15
21
-5
31
0
210
0
220
0
230
1
40
0.996195
41
-0.272884779617829
42
-3.62506540568811E-06
0
ELLIPSE
5
112
100
AcDbEntity
8
1
62
256
6
ByLayer
370
-1
48
1
60
0
100
AcDbEllipse
10
65.857049
20
5.251694
30
0
11
1.46431667789534E-15
21
1.25
31
0
210
0
220
0
230
1
40
0.996195
41
0
42
1.01571642045175
0
ELLIPSE
5
113
100
AcDbEntity
8
1
62
256
6
ByLayer
370
-1
48
1
60
0
100
AcDbEllipse
10
63.874392
20
3.359632
30
0
11
-1.17794646133823
21
-1.04893007471895
31
0
210
0
220
0
230
-1
40
0.721468
41
-1.26712593957072
42
-0.133853100320822
0
ELLIPSE
5
114
100
AcDbEntity
8
1
62
256
6
ByLayer
370
-1
48
1
60
0
100
AcDbEllipse
10
65.843976
20
5.251694
30
0
11
1.46431667789534E-15
21
1.25
31
0
210
0
220
0
230
1
40
0.996195
41
-1.80160505545351
42
0
0
ELLIPSE
5
115
100
AcDbEntity
8
1
62
256
6
ByLayer
370
-1
48
1
60
0
100
AcDbEllipse
10
65.843976
20
5.251694
30
0
11
1.46431667789534E-15
21
1.25
31
0
210
0
220
0
230
1
40
0.996195
41
0
42
0.963290731159636
0
ELLIPSE
5
116
100
AcDbEntity
8
1
62
256
6
ByLayer
370
-1
48
1
60
0
100
AcDbEllipse
10
53.199561
20
5.273431
30
0
11
-7.32416379872412
21
4.01255171619067
31
0
210
0
220
0
230
-1
40
0.112704
41
-2.57349375434912
42
-1.34945541321751
0
ELLIPSE
5
117
100
AcDbEntity
8
1
62
256
6
ByLayer
370
-1
48
1
60
0
100
AcDbEllipse
10
63.085064
20
3.333457
30
0
11
-0.599637270106163
21
-0.0208601126465927
31
0
210
0
220
0
230
1
40
0.003042
41
0.0872135714661154
42
1.13795433213008
0
ELLIPSE
5
118
100
AcDbEntity
8
1
62
256
6
ByLayer
370
-1
48
1
60
0
100
AcDbEllipse
10
68.304313
20
0.001714
30
0
11
-0.810337149374157
21
8.18977508589404
31
0
210
0
220
0
230
-1
40
0.116198
41
-1.47341773704268
42
-1.46672512921418
0
ELLIPSE
5
119
100
AcDbEntity
8
1
62
256
6
ByLayer
370
-1
48
1
60
0
100
AcDbEllipse
10
63.044213
20
4.507741
30
0
11
-0.599637270106163
21
-0.0208601126465927
31
0
210
0
220
0
230
1
40
0.003042
41
0.0872135714661154
42
1.13795433213008
0
ELLIPSE
5
11A
100
AcDbEntity
8
1
62
256
6
ByLayer
370
-1
48
1
60
0
100
AcDbEllipse
10
65.72822
20
-1.518534
30
0
11
1.2
21
0
31
0
210
0
220
0
230
1
40
0.998135
41
0
42
3.14159250110337
0
ELLIPSE
5
11B
100
AcDbEntity
8
1
62
256
6
ByLayer
370
-1
48
1
60
0
100
AcDbEllipse
10
17.153574
20
0
30
0
11
-145.834019135336
21
-7.92989701084363
31
0
210
0
220
0
230
-1
40
0.014313
41
-1.92084952926568
42
-1.87717527965499
0
ELLIPSE
5
11C
100
AcDbEntity
8
1
62
256
6
ByLayer
370
-1
48
1
60
0
100
AcDbEllipse
10
68.038947
20
0.267497
30
0
11
-0.0598839754903252
21
0.602378565523004
31
0
210
0
220
0
230
-1
40
0.115825
41
-1.3343802929079
42
0.0766538434300113
0
ELLIPSE
5
11D
100
AcDbEntity
8
1
62
256
6
ByLayer
370
-1
48
1
60
0
100
AcDbEllipse
10
58.539405
20
-1E-06
30
0
11
-93.7264328108009
21
-1.0620139200627E-13
31
0
210
0
220
0
230
-1
40
0.087489
41
1.59785991405831
42
1.61275806111519
0
ELLIPSE
5
11E
100
AcDbEntity
8
1
62
256
6
ByLayer
370
-1
48
1
60
0
100
AcDbEllipse
10
60.718028
20
0
30
0
11
-27.9529731112122
21
0.54751185015494
31
0
210
0
220
0
230
-1
40
0.292695
41
-1.61518895961032
42
-1.55699851196083
0
ELLIPSE
5
11F
100
AcDbEntity
8
1
62
256
6
ByLayer
370
-1
48
1
60
0
100
AcDbEllipse
10
63.58173
20
4.533916
30
0
11
1.58146201212697E-15
21
1.35
31
0
210
0
220
0
230
1
40
0.996195
41
0.863056052375924
42
1.60570291183479
0
ELLIPSE
5
120
100
AcDbEntity
8
1
62
256
6
ByLayer
370
-1
48
1
60
0
100
AcDbEllipse
10
68.902602
20
0
30
0
11
-0.67431425816492
21
-8.19955713326754
31
0
210
0
220
0
230
-1
40
0.126383
41
0.010438615793178
42
1.06352359988682
0
ELLIPSE
5
121
100
AcDbEntity
8
1
62
256
6
ByLayer
370
-1
48
1
60
0
100
AcDbEllipse
10
65.72822
20
-1.784096
30
0
11
-1.1
21
1.1117029605906E-15
31
0
210
0
220
0
230
1
40
0.998135
41
-3.02044521600466
42
-0.121245951291246
0
ELLIPSE
5
122
100
AcDbEntity
8
1
62
256
6
ByLayer
370
-1
48
1
60
0
100
AcDbEllipse
10
61.655864
20
7.165298
30
0
11
4.92010403772836E-15
21
4.2
31
0
210
0
220
0
230
1
40
0.996195
41
2.72271363311116
42
-3.1066860685499
0
ELLIPSE
5
123
100
AcDbEntity
8
1
62
256
6
ByLayer
370
-1
48
1
60
0
100
AcDbEllipse
10
63.831754
20
3.359632
30
0
11
-1.4470236532442E-15
21
-1.35
31
0
210
0
220
0
230
1
40
0.996195
41
-1.53588974175501
42
-0.146913134865275
0
ELLIPSE
5
124
100
AcDbEntity
8
1
62
256
6
ByLayer
370
-1
48
1
60
0
100
AcDbEllipse
10
67.959847
20
2.940157
30
0
11
-0.0592469143478625
21
0.603855611457854
31
0
210
0
220
0
230
-1
40
0.114862
41
2.31684886009769
42
-3.12877115104338
0
ELLIPSE
5
125
100
AcDbEntity
8
1
62
256
6
ByLayer
370
-1
48
1
60
0
100
AcDbEllipse
10
42.374454
20
6.305471
30
0
11
-18.698604562722
21
1.72584509083184
31
0
210
0
220
0
230
-1
40
0.181056
41
3.1248830574422
42
-2.76670683175717
0
ELLIPSE
5
126
100
AcDbEntity
8
1
62
256
6
ByLayer
370
-1
48
1
60
0
100
AcDbEllipse
10
63.114021
20
8.060482
30
0
11
-3.21560811832048E-16
21
-0.300000000000003
31
0
210
0
220
0
230
1
40
0.996195
41
-3.07177948351006
42
-2.84488668075082
0
ELLIPSE
5
127
100
AcDbEntity
8
1
62
256
6
ByLayer
370
-1
48
1
60
0
100
AcDbEllipse
10
67.711515
20
12.528805
30
0
11
-1.07186937277344E-14
21
-9.99999999999964
31
0
210
0
220
0
230
1
40
0.996195
41
0.0538072070448948
42
0.069813170079785
0
ELLIPSE
5
128
100
AcDbEntity
8
1
62
256
6
ByLayer
370
-1
48
1
60
0
100
AcDbEllipse
10
68.343459
20
8.102304
30
0
11
2.81416266174359E-16
21
0.240228318114594
31
0
210
0
220
0
230
1
40
0.996195
41
-1.50098315671512
42
-1.27409035395586
0
ELLIPSE
5
129
100
AcDbEntity
8
1
62
256
6
ByLayer
370
-1
48
1
60
0
100
AcDbEllipse
10
58.701523
20
7.474608
30
0
11
1.16445136866421E-14
21
9.9402283181145
31
0
210
0
220
0
230
1
40
0.996195
41
-1.53225055769574
42
-1.52678911283681
0
ELLIPSE
5
12A
100
AcDbEntity
8
1
62
256
6
ByLayer
370
-1
48
1
60
0
100
AcDbEllipse
10
67.660438
20
7.834185
30
0
11
5.78724697506073E-15
21
4.94022831811449
31
0
210
0
220
0
230
1
40
0.996195
41
1.58680228982978
42
1.59660228291657
0
ELLIPSE
5
12B
100
AcDbEntity
8
1
62
256
6
ByLayer
370
-1
48
1
60
0
100
AcDbEllipse
10
63.345762
20
2.869086
30
0
11
5.15706934637614E-16
21
0.440228318114594
31
0
210
0
220
0
230
1
40
0.996195
41
1.86750229963392
42
2.91469985083049
0
ELLIPSE
5
12C
100
AcDbEntity
8
1
62
256
6
ByLayer
370
-1
48
1
60
0
100
AcDbEllipse
10
58.70391
20
7.425667
30
0
11
1.16445136866418E-14
21
9.94022831811422
31
0
210
0
220
0
230
1
40
0.996195
41
-1.51698911975
42
-1.50098315671511
0
ELLIPSE
5
12D
100
AcDbEntity
8
1
62
256
6
ByLayer
370
-1
48
1
60
0
100
AcDbEllipse
10
63.380664
20
7.374852
30
0
11
5.78724697506073E-15
21
4.94022831811449
31
0
210
0
220
0
230
1
40
0.996195
41
-3.12558669055491
42
-3.11578669746812
0
ELLIPSE
5
12E
100
AcDbEntity
8
1
62
256
6
ByLayer
370
-1
48
1
60
0
100
AcDbEllipse
10
68.153382
20
8.04383
30
0
11
-5.35934686386747E-16
21
-0.500000000000006
31
0
210
0
220
0
230
1
40
0.996195
41
1.8675022996339
42
2.91469985083048
0
ELLIPSE
5
12F
100
AcDbEntity
8
1
62
256
6
ByLayer
370
-1
48
1
60
0
100
AcDbEllipse
10
58.858935
20
2.949715
30
0
11
1.16445136866421E-14
21
9.9402283181145
31
0
210
0
220
0
230
1
40
0.996195
41
-1.54499037067321
42
-1.5395289141213
0
ELLIPSE
5
130
100
AcDbEntity
8
1
62
256
6
ByLayer
370
-1
48
1
60
0
100
AcDbEllipse
10
63.300942
20
2.674212
30
0
11
2.81416266174359E-16
21
0.240228318114594
31
0
210
0
220
0
230
1
40
0.996195
41
2.91469985083056
42
-3.14159265358973
0
ELLIPSE
5
131
100
AcDbEntity
8
1
62
256
6
ByLayer
370
-1
48
1
60
0
100
AcDbEllipse
10
63.113566
20
8.060482
30
0
11
2.81416266174359E-16
21
0.240228318114594
31
0
210
0
220
0
230
1
40
0.996195
41
0.0698131700797568
42
0.296705972838983
0
ELLIPSE
5
132
100
AcDbEntity
8
1
62
256
6
ByLayer
370
-1
48
1
60
0
100
AcDbEllipse
10
63.519746
20
3.376875
30
0
11
5.78724697506073E-15
21
4.94022831811449
31
0
210
0
220
0
230
1
40
0.996195
41
0.0440072139581095
42
0.0538072070448983
0
ELLIPSE
5
133
100
AcDbEntity
8
1
62
256
6
ByLayer
370
-1
48
1
60
0
100
AcDbEllipse
10
68.521459
20
2.998704
30
0
11
-3.21560811832048E-16
21
-0.300000000000003
31
0
210
0
220
0
230
1
40
0.996195
41
1.34390352403567
42
1.5707963267949
0
ELLIPSE
5
134
100
AcDbEntity
8
1
62
256
6
ByLayer
370
-1
48
1
60
0
100
AcDbEllipse
10
68.197745
20
8.238704
30
0
11
2.81416266174359E-16
21
0.240228318114594
31
0
210
0
220
0
230
1
40
0.996195
41
-0.226892802759214
42
0
0
ELLIPSE
5
135
100
AcDbEntity
8
1
62
256
6
ByLayer
370
-1
48
1
60
0
100
AcDbEllipse
10
58.85939
20
2.949715
30
0
11
-1.07186937277348E-14
21
-9.99999999999999
31
0
210
0
220
0
230
1
40
0.996195
41
1.59660228291658
42
1.60570291183479
0
ELLIPSE
5
136
100
AcDbEntity
8
1
62
256
6
ByLayer
370
-1
48
1
60
0
100
AcDbEllipse
10
63.838706
20
3.07873
30
0
11
-5.35934686386771E-15
21
-5.00000000000028
31
0
210
0
220
0
230
1
40
0.996195
41
1.58680228982978
42
1.59660228291657
0
ELLIPSE
5
137
100
AcDbEntity
8
1
62
256
6
ByLayer
370
-1
48
1
60
0
100
AcDbEllipse
10
65.775843
20
5.456458
30
0
11
-1.77841723412775E-15
21
-1.65917347701247
31
0
210
0
220
0
230
1
40
0.996195
41
2.21551000470675
42
0
0
ELLIPSE
5
138
100
AcDbEntity
8
1
62
256
6
ByLayer
370
-1
48
1
60
0
100
AcDbEllipse
10
65.775843
20
5.456458
30
0
11
-1.77841723412775E-15
21
-1.65917347701247
31
0
210
0
220
0
230
1
40
0.996195
41
0
42
0.926082326066338
0
ELLIPSE
5
139
100
AcDbEntity
8
1
62
256
6
ByLayer
370
-1
48
1
60
0
100
AcDbEllipse
10
63.788084
20
-1.615889
30
0
11
-1.07186937277344E-14
21
-9.99999999999964
31
0
210
0
220
0
230
1
40
0.996195
41
-3.0877854465449
42
-3.07177948351001
0
ELLIPSE
5
13A
100
AcDbEntity
8
1
62
256
6
ByLayer
370
-1
48
1
60
0
100
AcDbEllipse
10
67.660894
20
7.834185
30
0
11
-5.35934686386771E-15
21
-5.00000000000028
31
0
210
0
220
0
230
1
40
0.996195
41
-1.55479036376002
42
-1.54499037067323
0
ELLIPSE
5
13B
100
AcDbEntity
8
1
62
256
6
ByLayer
370
-1
48
1
60
0
100
AcDbEllipse
10
63.67813
20
7.694573
30
0
11
-5.35934686386771E-15
21
-5.00000000000028
31
0
210
0
220
0
230
1
40
0.996195
41
1.61480354075301
42
1.62460353383979
0
ELLIPSE
5
13C
100
AcDbEntity
8
1
62
256
6
ByLayer
370
-1
48
1
60
0
100
AcDbEllipse
10
72.794778
20
3.487249
30
0
11
1.16445136866418E-14
21
9.94022831811422
31
0
210
0
220
0
230
1
40
0.996195
41
1.62460353383979
42
1.64060949687468
0
ELLIPSE
5
13D
100
AcDbEntity
8
1
62
256
6
ByLayer
370
-1
48
1
60
0
100
AcDbEllipse
10
68.152926
20
8.04383
30
0
11
5.15706934637614E-16
21
0.440228318114594
31
0
210
0
220
0
230
1
40
0.996195
41
-1.27409035395587
42
-0.226892802759292
0
ELLIPSE
5
13E
100
AcDbEntity
8
1
62
256
6
ByLayer
370
-1
48
1
60
0
100
AcDbEllipse
10
68.521003
20
2.998704
30
0
11
2.81416266174359E-16
21
0.240228318114594
31
0
210
0
220
0
230
1
40
0.996195
41
-1.79768912955413
42
-1.5707963267949
0
ELLIPSE
5
13F
100
AcDbEntity
8
1
62
256
6
ByLayer
370
-1
48
1
60
0
100
AcDbEllipse
10
63.155684
20
2.810611
30
0
11
-3.21560811832048E-16
21
-0.300000000000003
31
0
210
0
220
0
230
1
40
0.996195
41
-1.50098315671514
42
-1.27409035395589
0
ELLIPSE
5
140
100
AcDbEntity
8
1
62
256
6
ByLayer
370
-1
48
1
60
0
100
AcDbEllipse
10
72.79762
20
3.438308
30
0
11
-1.07186937277348E-14
21
-9.99999999999999
31
0
210
0
220
0
230
1
40
0.996195
41
-1.53588974175501
42
-1.52678911283681
0
ELLIPSE
5
141
100
AcDbEntity
8
1
62
256
6
ByLayer
370
-1
48
1
60
0
100
AcDbEllipse
10
67.821469
20
3.218343
30
0
11
-5.35934686386771E-15
21
-5.00000000000028
31
0
210
0
220
0
230
1
40
0.996195
41
-1.52678911283679
42
-1.51698911975
0
ELLIPSE
5
142
100
AcDbEntity
8
1
62
256
6
ByLayer
370
-1
48
1
60
0
100
AcDbEllipse
10
63.300942
20
12.374212
30
0
11
1.16445136866418E-14
21
9.94022831811422
31
0
210
0
220
0
230
1
40
0.996195
41
3.14159265358979
42
-3.12558669055491
0
ELLIPSE
5
143
100
AcDbEntity
8
1
62
256
6
ByLayer
370
-1
48
1
60
0
100
AcDbEllipse
10
63.677674
20
7.694573
30
0
11
5.78724697506073E-15
21
4.94022831811449
31
0
210
0
220
0
230
1
40
0.996195
41
-1.52678911283679
42
-1.51698911975
0
ELLIPSE
5
144
100
AcDbEntity
8
1
62
256
6
ByLayer
370
-1
48
1
60
0
100
AcDbEllipse
10
62.978141
20
7.914212
30
0
11
-3.21560811832048E-16
21
-0.300000000000003
31
0
210
0
220
0
230
1
40
0.996195
41
-1.79768912955414
42
-1.57079632679487
0
ELLIPSE
5
145
100
AcDbEntity
8
1
62
256
6
ByLayer
370
-1
48
1
60
0
100
AcDbEllipse
10
68.118023
20
3.538064
30
0
11
5.78724697506073E-15
21
4.94022831811449
31
0
210
0
220
0
230
1
40
0.996195
41
0.0160059630348785
42
0.0258059561216684
0
ELLIPSE
5
146
100
AcDbEntity
8
1
62
256
6
ByLayer
370
-1
48
1
60
0
100
AcDbEllipse
10
65.795899
20
5.456458
30
0
11
-1.69826236850985E-15
21
-1.58439303486727
31
0
210
0
220
0
230
1
40
0.996195
41
0
42
6.28318530717959
0
ELLIPSE
5
147
100
AcDbEntity
8
1
62
256
6
ByLayer
370
-1
48
1
60
0
100
AcDbEllipse
10
67.821013
20
3.218343
30
0
11
5.78724697506073E-15
21
4.94022831811449
31
0
210
0
220
0
230
1
40
0.996195
41
1.61480354075301
42
1.62460353383979
0
ELLIPSE
5
148
100
AcDbEntity
8
1
62
256
6
ByLayer
370
-1
48
1
60
0
100
AcDbEllipse
10
68.197745
20
-1.461296
30
0
11
1.16445136866418E-14
21
9.94022831811422
31
0
210
0
220
0
230
1
40
0.996195
41
0
42
0.016005963034882
0
ELLIPSE
5
149
100
AcDbEntity
8
1
62
256
6
ByLayer
370
-1
48
1
60
0
100
AcDbEllipse
10
63.738874
20
-1.618284
30
0
11
1.16445136866421E-14
21
9.9402283181145
31
0
210
0
220
0
230
1
40
0.996195
41
0.0385457690991531
42
0.0440072139580902
0
ELLIPSE
5
14A
100
AcDbEntity
8
1
62
256
6
ByLayer
370
-1
48
1
60
0
100
AcDbEllipse
10
63.172273
20
7.869222
30
0
11
-5.35934686386747E-16
21
-0.500000000000006
31
0
210
0
220
0
230
1
40
0.996195
41
-2.84488668075077
42
-1.79768912955417
0
ELLIPSE
5
14B
100
AcDbEntity
8
1
62
256
6
ByLayer
370
-1
48
1
60
0
100
AcDbEllipse
10
63.83825
20
3.07873
30
0
11
5.78724697506073E-15
21
4.94022831811449
31
0
210
0
220
0
230
1
40
0.996195
41
-1.55479036376002
42
-1.54499037067323
0
ELLIPSE
5
14C
100
AcDbEntity
8
1
62
256
6
ByLayer
370
-1
48
1
60
0
100
AcDbEllipse
10
68.198201
20
8.238704
30
0
11
-3.21560811832048E-16
21
-0.300000000000003
31
0
210
0
220
0
230
1
40
0.996195
41
2.91469985083057
42
-3.14159265358975
0
ELLIPSE
5
14D
100
AcDbEntity
8
1
62
256
6
ByLayer
370
-1
48
1
60
0
100
AcDbEllipse
10
63.252596
20
12.373187
30
0
11
-1.07186937277348E-14
21
-9.99999999999999
31
0
210
0
220
0
230
1
40
0.996195
41
0.0258059561216886
42
0.0349065850398896
0
ELLIPSE
5
14E
100
AcDbEntity
8
1
62
256
6
ByLayer
370
-1
48
1
60
0
100
AcDbEllipse
10
63.346217
20
2.869086
30
0
11
-5.35934686386747E-16
21
-0.500000000000006
31
0
210
0
220
0
230
1
40
0.996195
41
-1.27409035395588
42
-0.22689280275926
0
ELLIPSE
5
14F
100
AcDbEntity
8
1
62
256
6
ByLayer
370
-1
48
1
60
0
100
AcDbEllipse
10
65.958973
20
5.456458
30
0
11
1.46431667789534E-15
21
1.25
31
0
210
0
220
0
230
1
40
0.996195
41
0.0349500371117705
42
1.57079634872777
0
ELLIPSE
5
150
100
AcDbEntity
8
1
62
256
6
ByLayer
370
-1
48
1
60
0
100
AcDbEllipse
10
65.958973
20
5.456458
30
0
11
1.46431667789534E-15
21
1.25
31
0
210
0
220
0
230
1
40
0.996195
41
1.57079634872777
42
3.1168526777092
0
ELLIPSE
5
151
100
AcDbEntity
8
1
62
256
6
ByLayer
370
-1
48
1
60
0
100
AcDbEllipse
10
72.640209
20
7.963201
30
0
11
-1.07186937277348E-14
21
-9.99999999999999
31
0
210
0
220
0
230
1
40
0.996195
41
-1.54499037067321
42
-1.53588974175501
0
ELLIPSE
5
152
100
AcDbEntity
8
1
62
256
6
ByLayer
370
-1
48
1
60
0
100
AcDbEllipse
10
68.327326
20
3.043694
30
0
11
-5.35934686386747E-16
21
-0.500000000000006
31
0
210
0
220
0
230
1
40
0.996195
41
0.296705972839069
42
1.34390352403562
0
ELLIPSE
5
153
100
AcDbEntity
8
1
62
256
6
ByLayer
370
-1
48
1
60
0
100
AcDbEllipse
10
68.385578
20
2.852433
30
0
11
-3.21560811832048E-16
21
-0.300000000000003
31
0
210
0
220
0
230
1
40
0.996195
41
0.0698131700797046
42
0.296705972839008
0
ELLIPSE
5
154
100
AcDbEntity
8
1
62
256
6
ByLayer
370
-1
48
1
60
0
100
AcDbEllipse
10
58.85837
20
2.998704
30
0
11
-1.07186937277344E-14
21
-9.99999999999964
31
0
210
0
220
0
230
1
40
0.996195
41
1.57079632679489
42
1.58680228982978
0
ELLIPSE
5
155
100
AcDbEntity
8
1
62
256
6
ByLayer
370
-1
48
1
60
0
100
AcDbEllipse
10
68.246548
20
-1.460272
30
0
11
1.16445136866421E-14
21
9.9402283181145
31
0
210
0
220
0
230
1
40
0.996195
41
0.025805956121689
42
0.0312674126735999
0
ELLIPSE
5
156
100
AcDbEntity
8
1
62
256
6
ByLayer
370
-1
48
1
60
0
100
AcDbEllipse
10
67.711059
20
12.528805
30
0
11
1.16445136866418E-14
21
9.94022831811422
31
0
210
0
220
0
230
1
40
0.996195
41
-3.0877854465449
42
-3.07177948351001
0
ELLIPSE
5
157
100
AcDbEntity
8
1
62
256
6
ByLayer
370
-1
48
1
60
0
100
AcDbEllipse
10
65.897521
20
5.456458
30
0
11
-1.33983671596685E-15
21
-1.25
31
0
210
0
220
0
230
1
40
0.996195
41
3.14149442776612
42
0
0
ELLIPSE
5
158
100
AcDbEntity
8
1
62
256
6
ByLayer
370
-1
48
1
60
0
100
AcDbEllipse
10
65.897521
20
5.456458
30
0
11
-1.33983671596685E-15
21
-1.25
31
0
210
0
220
0
230
1
40
0.996195
41
0
42
0.0349505431244582
0
ELLIPSE
5
159
100
AcDbEntity
8
1
62
256
6
ByLayer
370
-1
48
1
60
0
100
AcDbEllipse
10
72.795234
20
3.487249
30
0
11
-1.07186937277344E-14
21
-9.99999999999964
31
0
210
0
220
0
230
1
40
0.996195
41
-1.51698911975
42
-1.50098315671511
0
ELLIPSE
5
15A
100
AcDbEntity
8
1
62
256
6
ByLayer
370
-1
48
1
60
0
100
AcDbEllipse
10
68.118479
20
3.538064
30
0
11
-5.35934686386771E-15
21
-5.00000000000028
31
0
210
0
220
0
230
1
40
0.996195
41
-3.12558669055492
42
-3.11578669746812
0
ELLIPSE
5
15B
100
AcDbEntity
8
1
62
256
6
ByLayer
370
-1
48
1
60
0
100
AcDbEllipse
10
63.155228
20
2.810611
30
0
11
2.81416266174359E-16
21
0.240228318114594
31
0
210
0
220
0
230
1
40
0.996195
41
1.64060949687468
42
1.86750229963393
0
ELLIPSE
5
15C
100
AcDbEntity
8
1
62
256
6
ByLayer
370
-1
48
1
60
0
100
AcDbEllipse
10
58.857914
20
2.998704
30
0
11
1.16445136866418E-14
21
9.94022831811422
31
0
210
0
220
0
230
1
40
0.996195
41
-1.5707963267949
42
-1.55479036376001
0
ELLIPSE
5
15D
100
AcDbEntity
8
1
62
256
6
ByLayer
370
-1
48
1
60
0
100
AcDbEllipse
10
58.701979
20
7.474608
30
0
11
-1.07186937277348E-14
21
-9.99999999999999
31
0
210
0
220
0
230
1
40
0.996195
41
1.60570291183479
42
1.61480354075299
0
ELLIPSE
5
15E
100
AcDbEntity
8
1
62
256
6
ByLayer
370
-1
48
1
60
0
100
AcDbEllipse
10
63.787629
20
-1.615889
30
0
11
1.16445136866418E-14
21
9.94022831811422
31
0
210
0
220
0
230
1
40
0.996195
41
0.0538072070448971
42
0.0698131700797852
0
ELLIPSE
5
15F
100
AcDbEntity
8
1
62
256
6
ByLayer
370
-1
48
1
60
0
100
AcDbEllipse
10
63.520201
20
3.376875
30
0
11
-5.35934686386771E-15
21
-5.00000000000028
31
0
210
0
220
0
230
1
40
0.996195
41
-3.09758543963168
42
-3.08778544654489
0
ELLIPSE
5
160
100
AcDbEntity
8
1
62
256
6
ByLayer
370
-1
48
1
60
0
100
AcDbEllipse
10
67.76027
20
12.5312
30
0
11
-1.07186937277348E-14
21
-9.99999999999999
31
0
210
0
220
0
230
1
40
0.996195
41
0.0349065850398881
42
0.0440072139580911
0
ELLIPSE
5
161
100
AcDbEntity
8
1
62
256
6
ByLayer
370
-1
48
1
60
0
100
AcDbEllipse
10
68.385122
20
2.852433
30
0
11
2.81416266174359E-16
21
0.240228318114594
31
0
210
0
220
0
230
1
40
0.996195
41
-3.07177948351013
42
-2.8448866807508
0
ELLIPSE
5
162
100
AcDbEntity
8
1
62
256
6
ByLayer
370
-1
48
1
60
0
100
AcDbEllipse
10
72.797165
20
3.438308
30
0
11
1.16445136866421E-14
21
9.9402283181145
31
0
210
0
220
0
230
1
40
0.996195
41
1.60934209589405
42
1.61480354075299
0
ELLIPSE
5
163
100
AcDbEntity
8
1
62
256
6
ByLayer
370
-1
48
1
60
0
100
AcDbEllipse
10
67.979398
20
7.536041
30
0
11
-5.35934686386771E-15
21
-5.00000000000028
31
0
210
0
220
0
230
1
40
0.996195
41
0.0440072139581072
42
0.0538072070448959
0
ELLIPSE
5
164
100
AcDbEntity
8
1
62
256
6
ByLayer
370
-1
48
1
60
0
100
AcDbEllipse
10
68.247004
20
-1.460272
30
0
11
-1.07186937277348E-14
21
-9.99999999999999
31
0
210
0
220
0
230
1
40
0.996195
41
-3.1157866974681
42
-3.1066860685499
0
ELLIPSE
5
165
100
AcDbEntity
8
1
62
256
6
ByLayer
370
-1
48
1
60
0
100
AcDbEllipse
10
63.25214
20
12.373187
30
0
11
1.16445136866421E-14
21
9.9402283181145
31
0
210
0
220
0
230
1
40
0.996195
41
-3.11578669746811
42
-3.11032524091619
0
ELLIPSE
5
166
100
AcDbEntity
8
1
62
256
6
ByLayer
370
-1
48
1
60
0
100
AcDbEllipse
10
63.301398
20
2.674212
30
0
11
-3.21560811832048E-16
21
-0.300000000000003
31
0
210
0
220
0
230
1
40
0.996195
41
-0.226892802759247
42
0
0
ELLIPSE
5
167
100
AcDbEntity
8
1
62
256
6
ByLayer
370
-1
48
1
60
0
100
AcDbEllipse
10
68.343915
20
8.102304
30
0
11
-3.21560811832048E-16
21
-0.300000000000003
31
0
210
0
220
0
230
1
40
0.996195
41
1.64060949687463
42
1.86750229963385
0
ELLIPSE
5
168
100
AcDbEntity
8
1
62
256
6
ByLayer
370
-1
48
1
60
0
100
AcDbEllipse
10
62.977685
20
7.914212
30
0
11
2.81416266174359E-16
21
0.240228318114594
31
0
210
0
220
0
230
1
40
0.996195
41
1.34390352403567
42
1.57079632679493
0
ELLIPSE
5
169
100
AcDbEntity
8
1
62
256
6
ByLayer
370
-1
48
1
60
0
100
AcDbEllipse
10
67.759814
20
12.5312
30
0
11
1.16445136866421E-14
21
9.9402283181145
31
0
210
0
220
0
230
1
40
0.996195
41
-3.10304688449064
42
-3.0975854396317
0
ELLIPSE
5
16A
100
AcDbEntity
8
1
62
256
6
ByLayer
370
-1
48
1
60
0
100
AcDbEllipse
10
72.639753
20
7.963201
30
0
11
1.16445136866421E-14
21
9.9402283181145
31
0
210
0
220
0
230
1
40
0.996195
41
1.59660228291658
42
1.6020637394685
0
ELLIPSE
5
16B
100
AcDbEntity
8
1
62
256
6
ByLayer
370
-1
48
1
60
0
100
AcDbEllipse
10
72.641229
20
7.914212
30
0
11
-1.07186937277344E-14
21
-9.99999999999964
31
0
210
0
220
0
230
1
40
0.996195
41
-1.5707963267949
42
-1.55479036376002
0
ELLIPSE
5
16C
100
AcDbEntity
8
1
62
256
6
ByLayer
370
-1
48
1
60
0
100
AcDbEllipse
10
72.640773
20
7.914212
30
0
11
1.16445136866418E-14
21
9.94022831811422
31
0
210
0
220
0
230
1
40
0.996195
41
1.57079632679489
42
1.58680228982978
0
ELLIPSE
5
16D
100
AcDbEntity
8
1
62
256
6
ByLayer
370
-1
48
1
60
0
100
AcDbEllipse
10
63.301398
20
12.374212
30
0
11
-1.07186937277344E-14
21
-9.99999999999964
31
0
210
0
220
0
230
1
40
0.996195
41
0
42
0.0160059630348809
0
ELLIPSE
5
16E
100
AcDbEntity
8
1
62
256
6
ByLayer
370
-1
48
1
60
0
100
AcDbEllipse
10
58.704365
20
7.425667
30
0
11
-1.07186937277344E-14
21
-9.99999999999964
31
0
210
0
220
0
230
1
40
0.996195
41
1.62460353383979
42
1.64060949687468
0
ELLIPSE
5
16F
100
AcDbEntity
8
1
62
256
6
ByLayer
370
-1
48
1
60
0
100
AcDbEllipse
10
68.32687
20
3.043694
30
0
11
5.15706934637614E-16
21
0.440228318114594
31
0
210
0
220
0
230
1
40
0.996195
41
-2.84488668075078
42
-1.79768912955418
0
ELLIPSE
5
170
100
AcDbEntity
8
1
62
256
6
ByLayer
370
-1
48
1
60
0
100
AcDbEllipse
10
63.171817
20
7.869222
30
0
11
5.15706934637614E-16
21
0.440228318114594
31
0
210
0
220
0
230
1
40
0.996195
41
0.296705972839038
42
1.34390352403561
0
ELLIPSE
5
171
100
AcDbEntity
8
1
62
256
6
ByLayer
370
-1
48
1
60
0
100
AcDbEllipse
10
63.739329
20
-1.618284
30
0
11
-1.07186937277348E-14
21
-9.99999999999999
31
0
210
0
220
0
230
1
40
0.996195
41
-3.1066860685499
42
-3.0975854396317
0
ELLIPSE
5
172
100
AcDbEntity
8
1
62
256
6
ByLayer
370
-1
48
1
60
0
100
AcDbEllipse
10
67.978942
20
7.536041
30
0
11
5.78724697506073E-15
21
4.94022831811449
31
0
210
0
220
0
230
1
40
0.996195
41
-3.09758543963168
42
-3.0877854465449
0
ELLIPSE
5
173
100
AcDbEntity
8
1
62
256
6
ByLayer
370
-1
48
1
60
0
100
AcDbEllipse
10
63.38112
20
7.374852
30
0
11
-5.35934686386771E-15
21
-5.00000000000028
31
0
210
0
220
0
230
1
40
0.996195
41
0.0160059630348794
42
0.0258059561216723
0
ELLIPSE
5
174
100
AcDbEntity
8
1
62
256
6
ByLayer
370
-1
48
1
60
0
100
AcDbEllipse
10
65.732368
20
5.456458
30
0
11
1.98450509329016E-15
21
1.69405389152441
31
0
210
0
220
0
230
1
40
0.996195
41
0
42
6.28318530717959
0
ELLIPSE
5
175
100
AcDbEntity
8
1
62
256
6
ByLayer
370
-1
48
1
60
0
100
AcDbEllipse
10
68.198201
20
-1.461296
30
0
11
-1.07186937277344E-14
21
-9.99999999999964
31
0
210
0
220
0
230
1
40
0.996195
41
3.14159265358979
42
-3.12558669055491
0
ELLIPSE
5
176
100
AcDbEntity
8
1
62
256
6
ByLayer
370
-1
48
1
60
0
100
AcDbEllipse
10
67.853886
20
-3.258244
30
0
11
-0.591202245038341
21
5.97492078288121E-16
31
0
210
0
220
0
230
1
40
0.998135
41
2.29977787734967
42
3.10668606854989
0
ELLIPSE
5
177
100
AcDbEntity
8
1
62
256
6
ByLayer
370
-1
48
1
60
0
100
AcDbEllipse
10
67.51751
20
-0.432991
30
0
11
-0.49120224503834
21
4.96428172779883E-16
31
0
210
0
220
0
230
1
40
0.998135
41
-3.08923277602998
42
-2.89365829183897
0
ELLIPSE
5
178
100
AcDbEntity
8
1
62
256
6
ByLayer
370
-1
48
1
60
0
100
AcDbEllipse
10
70.712196
20
-1.612198
30
0
11
2.19031606939965
21
0
31
0
210
0
220
0
230
1
40
0.998135
41
-3.08923277510136
42
-2.71005519262056
0
ELLIPSE
5
179
100
AcDbEntity
8
1
62
256
6
ByLayer
370
-1
48
1
60
0
100
AcDbEllipse
10
68.313934
20
-2.644291
30
0
11
-0.18160533389647
21
-0.0837824725127617
31
0
210
0
220
0
230
1
40
0.055452
41
0.498021999161339
42
1.54521955035876
0
ELLIPSE
5
17A
100
AcDbEntity
8
1
62
256
6
ByLayer
370
-1
48
1
60
0
100
AcDbEllipse
10
65.878496
20
-1.997503
30
0
11
1.25
21
0
31
0
210
0
220
0
230
1
40
0.998135
41
1.31249859227146
42
2.94269080533633
0
ELLIPSE
5
17B
100
AcDbEntity
8
1
62
256
6
ByLayer
370
-1
48
1
60
0
100
AcDbEllipse
10
65.878496
20
-1.997503
30
0
11
1.35
21
0
31
0
210
0
220
0
230
1
40
0.998135
41
1.91754943129525
42
2.44945998222059
0
ELLIPSE
5
17C
100
AcDbEntity
8
1
62
256
6
ByLayer
370
-1
48
1
60
0
100
AcDbEllipse
10
70.712196
20
-1.548097
30
0
11
-2.81352115015638
21
2.84345435664829E-15
31
0
210
0
220
0
230
1
40
0.998135
41
0.394970503341745
42
0.431537460969232
0
ELLIPSE
5
17D
100
AcDbEntity
8
1
62
256
6
ByLayer
370
-1
48
1
60
0
100
AcDbEllipse
10
68.358667
20
-2.866473
30
0
11
-0.199877710054841
21
0.00699292665720333
31
0
210
0
220
0
230
1
40
0.061011
41
0.525733317016705
42
1.57293086821329
0
ELLIPSE
5
17E
100
AcDbEntity
8
1
62
256
6
ByLayer
370
-1
48
1
60
0
100
AcDbEllipse
10
68.344789
20
-3.263145
30
0
11
-0.199877710054841
21
0.00699292665720333
31
0
210
0
220
0
230
1
40
0.061011
41
0.525733317016638
42
1.57293086821329
0
ELLIPSE
5
17F
100
AcDbEntity
8
1
62
256
6
ByLayer
370
-1
48
1
60
0
100
AcDbEllipse
10
68.000305
20
-2.987257
30
0
11
1.00000000000004
21
0
31
0
210
0
220
0
230
1
40
0.998135
41
-0.034906585040106
42
0.441845940492526
0
ELLIPSE
5
180
100
AcDbEntity
8
1
62
256
6
ByLayer
370
-1
48
1
60
0
100
AcDbEllipse
10
70.712196
20
-1.706823
30
0
11
2.00000000000009
21
0
31
0
210
0
220
0
230
1
40
0.998135
41
-3.08923277501295
42
-2.6997467130969
0
ELLIPSE
5
181
100
AcDbEntity
8
1
62
256
6
ByLayer
370
-1
48
1
60
0
100
AcDbEllipse
10
67.853886
20
-3.252139
30
0
11
0.317997164281453
21
0
31
0
210
0
220
0
230
1
40
0.998135
41
-0.340738738996758
42
-0.034906585039903
0
ELLIPSE
5
182
100
AcDbEntity
8
1
62
256
6
ByLayer
370
-1
48
1
60
0
100
AcDbEllipse
10
68.461611
20
-4.101953
30
0
11
0.500000000000144
21
0
31
0
210
0
220
0
230
1
40
0.998135
41
-1.22173047639544
42
-0.0349065850401105
0
ELLIPSE
5
183
100
AcDbEntity
8
1
62
256
6
ByLayer
370
-1
48
1
60
0
100
AcDbEllipse
10
68.181081
20
-3.611716
30
0
11
-0.133083669611859
21
0.149294128761454
31
0
210
0
220
0
230
1
40
0.040665
41
1.50826161297239
42
1.61638305710823
0
ELLIPSE
5
184
100
AcDbEntity
8
1
62
256
6
ByLayer
370
-1
48
1
60
0
100
AcDbEllipse
10
67.853886
20
-3.258244
30
0
11
-0.49120224503834
21
4.96428172779883E-16
31
0
210
0
220
0
230
1
40
0.998135
41
2.29977787734963
42
3.10668606854989
0
ELLIPSE
5
185
100
AcDbEntity
8
1
62
256
6
ByLayer
370
-1
48
1
60
0
100
AcDbEllipse
10
70.712196
20
-1.554202
30
0
11
2.64031606939949
21
0
31
0
210
0
220
0
230
1
40
0.998135
41
-3.08923277525973
42
-2.71005519262056
0
ELLIPSE
5
186
100
AcDbEntity
8
1
62
256
6
ByLayer
370
-1
48
1
60
0
100
AcDbEllipse
10
67.867764
20
-2.861572
30
0
11
-0.49120224503834
21
4.96428172779883E-16
31
0
210
0
220
0
230
1
40
0.998135
41
3.10668606854989
42
-2.71005519262057
0
ELLIPSE
5
187
100
AcDbEntity
8
1
62
256
6
ByLayer
370
-1
48
1
60
0
100
AcDbEllipse
10
68.13945
20
-0.386677
30
0
11
0.49999999999999
21
0
31
0
210
0
220
0
230
1
40
0.998135
41
0.0523598775598214
42
0.349065850399591
0
ELLIPSE
5
188
100
AcDbEntity
8
1
62
256
6
ByLayer
370
-1
48
1
60
0
100
AcDbEllipse
10
67.867764
20
-2.861572
30
0
11
-0.59120224503834
21
5.97492078288119E-16
31
0
210
0
220
0
230
1
40
0.998135
41
3.10668606854989
42
-2.71005519262056
0
ELLIPSE
5
189
100
AcDbEntity
8
1
62
256
6
ByLayer
370
-1
48
1
60
0
100
AcDbEllipse
10
67.867764
20
-2.855467
30
0
11
0.317997164281453
21
0
31
0
210
0
220
0
230
1
40
0.998135
41
-0.0349065850398988
42
0.43153746096925
0
ELLIPSE
5
18A
100
AcDbEntity
8
1
62
256
6
ByLayer
370
-1
48
1
60
0
100
AcDbEllipse
10
67.51751
20
-0.432991
30
0
11
-0.59120224503834
21
5.97492078288119E-16
31
0
210
0
220
0
230
1
40
0.998135
41
-3.08923277602998
42
-2.47119166742836
0
ELLIPSE
5
18B
100
AcDbEntity
8
1
62
256
6
ByLayer
370
-1
48
1
60
0
100
AcDbEllipse
10
65.878496
20
-2.034442
30
0
11
1.25
21
0
31
0
210
0
220
0
230
1
40
0.998135
41
1.18231861927854
42
2.92708051709958
0
ELLIPSE
5
18C
100
AcDbEntity
8
1
62
256
6
ByLayer
370
-1
48
1
60
0
100
AcDbEllipse
10
70.712196
20
-1.554202
30
0
11
2.54031606939949
21
0
31
0
210
0
220
0
230
1
40
0.998135
41
-3.08923277522941
42
-2.71005519262056
0
ELLIPSE
5
18D
100
AcDbEntity
8
1
62
256
6
ByLayer
370
-1
48
1
60
0
100
AcDbEllipse
10
67.840089
20
0.434278
30
0
11
0.500000000000144
21
0
31
0
210
0
220
0
230
1
40
0.998135
41
0.349065850399469
42
1.16786384682442
0
POINT
5
41
100
AcDbEntity
8
81
62
256
6
ByLayer
370
-1
48
1
60
0
100
AcDbPoint
10
69
20
0
30
0
39
0
210
0
220
0
230
1
50
360
0
POINT
5
43
100
AcDbEntity
8
80
62
256
6
ByLayer
370
-1
48
1
60
0
100
AcDbPoint
10
0
20
0
30
0
39
0
210
0
220
0
230
1
50
360
0
SPLINE
5
18E
100
AcDbEntity
8
1
62
256
6
ByLayer
370
-1
48
1
60
0
100
AcDbSpline
70
4
71
3
72
11
73
7
40
0
40
0
40
0
40
0
40
0.293253557133379
40
0.59433616117978
40
0.894473367932319
40
1
40
1
40
1
40
1
41
1
10
64.8723105083491
20
-1.29653689167253
30
0
41
1
10
64.935749803253
20
-1.21044818369472
30
0
41
1
10
65.088659086018
20
-1.05235408620607
30
0
41
1
10
65.3722368535961
20
-0.881255855291471
30
0
41
1
10
65.6257731301847
20
-0.809251645994806
30
0
41
1
10
65.7738993528019
20
-0.794648072760936
30
0
41
1
10
65.8128614820956
20
-0.792592832360668
30
0
0
SPLINE
5
18F
100
AcDbEntity
8
1
62
256
6
ByLayer
370
-1
48
1
60
0
100
AcDbSpline
70
4
71
3
72
10
73
6
40
0
40
0
40
0
40
0
40
0.177508561998444
40
0.734232776728285
40
1
40
1
40
1
40
1
41
1
10
65.8128614820956
20
-0.792592832360668
30
0
41
1
10
65.8479895995645
20
-0.790766690428796
30
0
41
1
10
65.992527255013
20
-0.789213963085672
30
0
41
1
10
66.1899729515576
20
-0.821575899885431
30
0
41
1
10
66.342462449083
20
-0.878524975292152
30
0
41
1
10
66.3903514731778
20
-0.899912433180646
30
0
0
SPLINE
5
190
100
AcDbEntity
8
1
62
256
6
ByLayer
370
-1
48
1
60
0
100
AcDbSpline
70
4
71
3
72
20
73
16
40
0
40
0
40
0
40
0
40
0.0347374990023921
40
0.120502631827193
40
0.206067200958317
40
0.291145710003053
40
0.37562889856498
40
0.459578796341645
40
0.543191442056246
40
0.626736727364867
40
0.710411131649121
40
0.79445610568198
40
0.87903773660567
40
0.964188749141068
40
1
40
1
40
1
40
1
41
1
10
65.8685413402318
20
6.69551428555781
30
0
41
1
10
65.9130578417647
20
6.70110421801184
30
0
41
1
10
66.0661593486994
20
6.70968065324109
30
0
41
1
10
66.3267619356794
20
6.64210708622787
30
0
41
1
10
66.6206202007445
20
6.48948246216179
30
0
41
1
10
66.8638510525924
20
6.26005807981696
30
0
41
1
10
67.0387344911733
20
5.97557576424222
30
0
41
1
10
67.1333917886885
20
5.65509733557209
30
0
41
1
10
67.1417262373661
20
5.32159161102828
30
0
41
1
10
67.0637268923602
20
4.99814678075418
30
0
41
1
10
66.9052668780721
20
4.70691591266404
30
0
41
1
10
66.6773148032615
20
4.46756761694311
30
0
41
1
10
66.395623613322
20
4.29630630701158
30
0
41
1
10
66.1395867613201
20
4.22278383905402
30
0
41
1
10
65.9863243875123
20
4.20883915130815
30
0
41
1
10
65.9403941515957
20
4.20720907827274
30
0
0
SPLINE
5
191
100
AcDbEntity
8
1
62
256
6
ByLayer
370
-1
48
1
60
0
100
AcDbSpline
70
4
71
3
72
15
73
11
40
0
40
0
40
0
40
0
40
0.112758351823613
40
0.227282128755151
40
0.340013136849323
40
0.453389249021617
40
0.565892697155605
40
0.711367836924431
40
0.855326497626935
40
1
40
1
40
1
40
1
41
1
10
15
20
8.19999999999996
30
0
41
1
10
14.571651553584
20
8.201669713103
30
0
41
1
10
13.7406487620632
20
8.30833571497675
30
0
41
1
10
12.5416889585811
20
8.77263151872498
30
0
41
1
10
11.5447421091174
20
9.56325070794733
30
0
41
1
10
10.6226795211791
20
10.4170780012388
30
0
41
1
10
9.48205685698554
20
11.1993787280236
30
0
41
1
10
8.15699374260544
20
11.8935195105145
30
0
41
1
10
6.60757055587567
20
12.385464152749
30
0
41
1
10
5.54475272496492
20
12.49551159826
30
0
41
1
10
5.00000000000003
20
12.5
30
0
0
SPLINE
5
192
100
AcDbEntity
8
1
62
256
6
ByLayer
370
-1
48
1
60
0
100
AcDbSpline
70
4
71
3
72
16
73
12
40
0
40
0
40
0
40
0
40
0.138105464990185
40
0.27543387069303
40
0.414037936577419
40
0.554491026175478
40
0.643541248163959
40
0.73191781363148
40
0.821668675507723
40
0.911621448956724
40
1
40
1
40
1
40
1
41
1
10
4.99999999999997
20
-12.5
30
0
41
1
10
5.51965012825664
20
-12.4961875887006
30
0
41
1
10
6.53498237530818
20
-12.3957111624231
30
0
41
1
10
8.01799639736461
20
-11.9455258392218
30
0
41
1
10
9.40577536696924
20
-11.2541291593937
30
0
41
1
10
10.5375886933542
20
-10.4774838422253
30
0
41
1
10
11.4249747584795
20
-9.70020635652068
30
0
41
1
10
12.1640803897798
20
-9.03243314750654
30
0
41
1
10
13.051010873528
20
-8.56108165531472
30
0
41
1
10
14.0096608764043
20
-8.26486799566922
30
0
41
1
10
14.6670771360303
20
-8.20063180344306
30
0
41
1
10
15
20
-8.20000000000002
30
0
0
SPLINE
5
193
100
AcDbEntity
8
1
62
256
6
ByLayer
370
-1
48
1
60
0
100
AcDbSpline
70
4
71
1
72
4
73
2
40
0
40
0
40
1
40
1
41
1
10
28.1979232203665
20
0.748878299570805
30
0
41
1
10
28.1979266977354
20
0.74889169396954
30
0
0
SPLINE
5
194
100
AcDbEntity
8
1
62
256
6
ByLayer
370
-1
48
1
60
0
100
AcDbSpline
70
4
71
3
72
8
73
4
40
0
40
0
40
0
40
0
40
1
40
1
40
1
40
1
41
1
10
62.0085303953946
20
1.64136856977132
30
0
41
1
10
62.0274650250114
20
1.65179233300646
30
0
41
1
10
62.0463274292746
20
1.66240580823984
30
0
41
1
10
62.0651196909738
20
1.67320717696319
30
0
0
SPLINE
5
195
100
AcDbEntity
8
1
62
256
6
ByLayer
370
-1
48
1
60
0
100
AcDbSpline
70
4
71
3
72
24
73
20
40
0
40
0
40
0
40
0
40
0.124999999999987
40
0.124999999999987
40
0.187499999999988
40
0.187499999999988
40
0.249999999999988
40
0.249999999999988
40
0.374999999999991
40
0.374999999999991
40
0.437499999999992
40
0.437499999999992
40
0.499999999999993
40
0.499999999999993
40
0.624999999999995
40
0.624999999999995
40
0.749999999999996
40
0.749999999999996
40
1
40
1
40
1
40
1
41
1
10
59.6600119108618
20
3.45983045345625
30
0
41
1
10
59.6145644140405
20
3.44379470204459
30
0
41
1
10
59.5704573490315
20
3.42398435106716
30
0
41
1
10
59.5090780348582
20
3.38566502711197
30
0
41
1
10
59.4897714736516
20
3.37164922346054
30
0
41
1
10
59.4539652395843
20
3.34060894110243
30
0
41
1
10
59.4372701991813
20
3.3233229110588
30
0
41
1
10
59.3940909776805
20
3.26785684585363
30
0
41
1
10
59.3746948244023
20
3.22566036903243
30
0
41
1
10
59.3612289859995
20
3.1621233420521
30
0
41
1
10
59.3591668289117
20
3.14060878455652
30
0
41
1
10
59.3591416638389
20
3.09884140008671
30
0
41
1
10
59.3611111649523
20
3.07842678063145
30
0
41
1
10
59.3716695610236
20
3.01831723391524
30
0
41
1
10
59.3849018565705
20
2.97995758297006
30
0
41
1
10
59.4181496832971
20
2.90828508690618
30
0
41
1
10
59.4383429621314
20
2.87445781516041
30
0
41
1
10
59.506526629616
20
2.77728372475343
30
0
41
1
10
59.5608589454702
20
2.71964179731253
30
0
41
1
10
59.6202787088836
20
2.66642561687209
30
0
0
SPLINE
5
196
100
AcDbEntity
8
1
62
256
6
ByLayer
370
-1
48
1
60
0
100
AcDbSpline
70
4
71
3
72
12
73
8
40
0
40
0
40
0
40
0
40
0.513479072101206
40
0.513479072101206
40
0.770218608151809
40
0.770218608151809
40
1
40
1
40
1
40
1
41
1
10
64.9865713251071
20
5.20981436971707
30
0
41
1
10
65.0017909614303
20
5.06762055646718
30
0
41
1
10
65.0408706939717
20
4.9261907052435
30
0
41
1
10
65.1418935834585
20
4.71762590311883
30
0
41
1
10
65.1827000608557
20
4.64923566139905
30
0
41
1
10
65.2724315219486
20
4.52641353197191
30
0
41
1
10
65.3202445793745
20
4.47078915723799
30
0
41
1
10
65.3742680989284
20
4.41811591148411
30
0
0
SPLINE
5
197
100
AcDbEntity
8
1
62
256
6
ByLayer
370
-1
48
1
60
0
100
AcDbSpline
70
4
71
3
72
8
73
4
40
0
40
0
40
0
40
0
40
1
40
1
40
1
40
1
41
1
10
64.9795647050038
20
5.33160745059189
30
0
41
1
10
64.9798838273585
20
5.29130431168431
30
0
41
1
10
64.9821994823373
20
5.25065956346359
30
0
41
1
10
64.9865713251072
20
5.20981436971707
30
0
0
SPLINE
5
198
100
AcDbEntity
8
1
62
256
6
ByLayer
370
-1
48
1
60
0
100
AcDbSpline
70
4
71
3
72
11
73
7
40
0
40
0
40
0
40
0
40
0.477326888520675
40
0.715990332781012
40
0.954653777041349
40
1
40
1
40
1
40
1
41
1
10
56.7699607448634
20
3.91999999999993
30
0
41
1
10
56.3471308014524
20
3.89808344832866
30
0
41
1
10
55.7127504744336
20
3.86166516598749
30
0
41
1
10
54.8671351515713
20
3.80568702828751
30
0
41
1
10
54.4043949245765
20
3.7722943563609
30
0
41
1
10
54.1529470346186
20
3.7532477252816
30
0
41
1
10
54.1127987838148
20
3.75018371715615
30
0
0
SPLINE
5
199
100
AcDbEntity
8
1
62
256
6
ByLayer
370
-1
48
1
60
0
100
AcDbSpline
70
4
71
3
72
34
73
30
40
0
40
0
40
0
40
0
40
0.0332990592645942
40
0.0332990592645942
40
0.10234912645998
40
0.10234912645998
40
0.171399193655366
40
0.171399193655366
40
0.240449260850753
40
0.240449260850753
40
0.309499328046139
40
0.309499328046139
40
0.447599462436911
40
0.447599462436911
40
0.516649529632297
40
0.516649529632297
40
0.585699596827683
40
0.585699596827683
40
0.654749664023069
40
0.654749664023069
40
0.723799731218456
40
0.723799731218456
40
0.792849798413842
40
0.792849798413842
40
0.861899865609228
40
0.861899865609228
40
0.930949932804614
40
0.930949932804614
40
1
40
1
40
1
40
1
41
1
10
45.5482995490127
20
-5.6738353232312
30
0
41
1
10
45.2040754667152
20
-5.76106456829615
30
0
41
1
10
44.8599281978395
20
-5.84583079462305
30
0
41
1
10
43.8022345073516
20
-6.09855385073428
30
0
41
1
10
43.0888078016374
20
-6.25795166311275
30
0
41
1
10
41.6612548085821
20
-6.55391096677516
30
0
41
1
10
40.9471334679462
20
-6.69056857287868
30
0
41
1
10
39.5172901997458
20
-6.93914964458122
30
0
41
1
10
38.802278854758
20
-7.05103932228312
30
0
41
1
10
37.3743776813171
20
-7.24731964098248
30
0
41
1
10
36.6609607424762
20
-7.33216352187563
30
0
41
1
10
34.5208819631236
20
-7.54336819583125
30
0
41
1
10
33.0939806123547
20
-7.62768339122997
30
0
41
1
10
30.9484539616087
20
-7.66842024327815
30
0
41
1
10
30.2342313626019
20
-7.6676853377885
30
0
41
1
10
28.8067148971136
20
-7.63748369928325
30
0
41
1
10
28.0933490791724
20
-7.60849373796765
30
0
41
1
10
26.6663505456318
20
-7.52553022555773
30
0
41
1
10
25.9527539271037
20
-7.47149871919717
30
0
41
1
10
24.524734749483
20
-7.33553804682515
30
0
41
1
10
23.8101211088722
20
-7.25295096997607
30
0
41
1
10
22.3799236270329
20
-7.05531495520455
30
0
41
1
10
21.6658853950723
20
-6.942489545396
30
0
41
1
10
20.238215199363
20
-6.69637547801503
30
0
41
1
10
19.5248279370654
20
-6.56152466292951
30
0
41
1
10
18.09832223551
20
-6.26481389292479
30
0
41
1
10
17.3849950461463
20
-6.10502945409351
30
0
41
1
10
15.9572358363525
20
-5.76400376885488
30
0
41
1
10
15.2428440432462
20
-5.58169107157559
30
0
41
1
10
14.5273813558276
20
-5.38959064728729
30
0
0
SPLINE
5
19A
100
AcDbEntity
8
1
62
256
6
ByLayer
370
-1
48
1
60
0
100
AcDbSpline
70
4
71
3
72
22
73
18
40
0
40
0
40
0
40
0
40
0.125
40
0.125
40
0.25
40
0.25
40
0.375
40
0.375
40
0.5
40
0.5
40
0.625
40
0.625
40
0.75
40
0.75
40
0.875
40
0.875
40
1
40
1
40
1
40
1
41
1
10
62.8532635150971
20
2.20666835769518
30
0
41
1
10
62.858396580976
20
2.20666835769518
30
0
41
1
10
62.8531636032105
20
2.21277743943639
30
0
41
1
10
62.8275690984367
20
2.23545456553725
30
0
41
1
10
62.8080760740784
20
2.25145098356259
30
0
41
1
10
62.7621291232913
20
2.29140149182936
30
0
41
1
10
62.7357600852711
20
2.31529727725473
30
0
41
1
10
62.6811993954798
20
2.36926122343152
30
0
41
1
10
62.652735609479
20
2.39952364870945
30
0
41
1
10
62.5951163283335
20
2.46729939798337
30
0
41
1
10
62.566111799284
20
2.50469172032143
30
0
41
1
10
62.5104160157523
20
2.58500864545519
30
0
41
1
10
62.4834750411925
20
2.62819177103495
30
0
41
1
10
62.4322189859367
20
2.72172158166893
30
0
41
1
10
62.4079996823113
20
2.77210290829922
30
0
41
1
10
62.3652143978616
20
2.87594500195152
30
0
41
1
10
62.3463119314285
20
2.92996158846654
30
0
41
1
10
62.3301436283398
20
2.98637432715714
30
0
0
SPLINE
5
19B
100
AcDbEntity
8
1
62
256
6
ByLayer
370
-1
48
1
60
0
100
AcDbSpline
70
4
71
3
72
24
73
20
40
0
40
0
40
0
40
0
40
0.0653012539922937
40
0.0653012539922937
40
0.150273867265721
40
0.150273867265721
40
0.320219093812576
40
0.320219093812576
40
0.405191707086004
40
0.405191707086004
40
0.490164320359432
40
0.490164320359432
40
0.660109546906288
40
0.660109546906288
40
0.745082160179716
40
0.745082160179716
40
0.830054773453144
40
0.830054773453144
40
1
40
1
40
1
40
1
41
1
10
58.5811414648139
20
1.61890222653935
30
0
41
1
10
58.5905126125479
20
1.64548092439625
30
0
41
1
10
58.5988589179687
20
1.67432480828273
30
0
41
1
10
58.6156077039717
20
1.74591397226527
30
0
41
1
10
58.6232910358179
20
1.79048028585274
30
0
41
1
10
58.6402124434456
20
1.93358850059502
30
0
41
1
10
58.6435080826419
20
2.04142943019846
30
0
41
1
10
58.6354965698063
20
2.22025779785585
30
0
41
1
10
58.6306515966964
20
2.282726072922
30
0
41
1
10
58.6162398792945
20
2.41325528587953
30
0
41
1
10
58.606639384245
20
2.48137828553345
30
0
41
1
10
58.5707735600802
20
2.69000202511487
30
0
41
1
10
58.5374318601619
20
2.83594551608437
30
0
41
1
10
58.4709423287212
20
3.0629010987816
30
0
41
1
10
58.4460128495564
20
3.13989474212431
30
0
41
1
10
58.3899072771917
20
3.29614282752431
30
0
41
1
10
58.3588042223435
20
3.37512873765957
30
0
41
1
10
58.256530556234
20
3.61082045877137
30
0
41
1
10
58.176259323455
20
3.7675347347631
30
0
41
1
10
58.0795388146543
20
3.9199999999806
30
0
0
SPLINE
5
19C
100
AcDbEntity
8
1
62
256
6
ByLayer
370
-1
48
1
60
0
100
AcDbSpline
70
4
71
3
72
8
73
4
40
0
40
0
40
0
40
0
40
1
40
1
40
1
40
1
41
1
10
11.3165379060068
20
6.45610989694902
30
0
41
1
10
11.3165379060068
20
6.87850733249491
30
0
41
1
10
11.3165379060068
20
7.30090476804082
30
0
41
1
10
11.3165379060068
20
7.72330220358674
30
0
0
SPLINE
5
19D
100
AcDbEntity
8
1
62
256
6
ByLayer
370
-1
48
1
60
0
100
AcDbSpline
70
4
71
3
72
10
73
6
40
0
40
0
40
0
40
0
40
0.5
40
0.5
40
1
40
1
40
1
40
1
41
1
10
58.8165379059567
20
-8.1031892641669
30
0
41
1
10
59.0592175505188
20
-8.11275340227874
30
0
41
1
10
59.2933175571944
20
-8.12462063753421
30
0
41
1
10
59.7451435964924
20
-8.14937794010186
30
0
41
1
10
59.9628693869099
20
-8.16228762262577
30
0
41
1
10
60.1721110285084
20
-8.17336794066119
30
0
0
SPLINE
5
19E
100
AcDbEntity
8
1
62
256
6
ByLayer
370
-1
48
1
60
0
100
AcDbSpline
70
4
71
3
72
18
73
14
40
0
40
0
40
0
40
0
40
0.25
40
0.25
40
0.375
40
0.375
40
0.5
40
0.5
40
0.75
40
0.75
40
0.875
40
0.875
40
1
40
1
40
1
40
1
41
1
10
11.7359321218088
20
-5.05639313657724
30
0
41
1
10
11.8892710760761
20
-5.1882712897611
30
0
41
1
10
12.064393546836
20
-5.28950998203476
30
0
41
1
10
12.3587197838562
20
-5.41715952128237
30
0
41
1
10
12.462146765098
20
-5.45551385817166
30
0
41
1
10
12.6799754658571
20
-5.5261484275656
30
0
41
1
10
12.7949432740923
20
-5.55854197617094
30
0
41
1
10
13.1508066103671
20
-5.64792549294722
30
0
41
1
10
13.4035702042429
20
-5.69774616969966
30
0
41
1
10
13.8072037867863
20
-5.76824680425406
30
0
41
1
10
13.9458569290185
20
-5.79100212143146
30
0
41
1
10
14.2319636770543
20
-5.83650821924277
30
0
41
1
10
14.3784222138772
20
-5.859101041798
30
0
41
1
10
14.5273813558736
20
-5.88208148557857
30
0
0
SPLINE
5
19F
100
AcDbEntity
8
1
62
256
6
ByLayer
370
-1
48
1
60
0
100
AcDbSpline
70
4
71
3
72
74
73
70
40
-0.0312500000000031
40
-0.0312500000000031
40
0
40
0
40
0.0312499999999943
40
0.0312499999999943
40
0.0468749999999918
40
0.0468749999999918
40
0.0624999999999894
40
0.0624999999999894
40
0.0937499999999828
40
0.0937499999999828
40
0.124999999999976
40
0.124999999999976
40
0.15624999999997
40
0.15624999999997
40
0.187499999999963
40
0.187499999999963
40
0.218749999999957
40
0.218749999999957
40
0.24999999999995
40
0.24999999999995
40
0.281249999999943
40
0.281249999999943
40
0.312499999999937
40
0.312499999999937
40
0.328124999999936
40
0.328124999999936
40
0.343749999999935
40
0.343749999999935
40
0.374999999999938
40
0.374999999999938
40
0.406249999999941
40
0.406249999999941
40
0.437499999999944
40
0.437499999999944
40
0.468749999999947
40
0.468749999999947
40
0.499999999999951
40
0.499999999999951
40
0.531249999999954
40
0.531249999999954
40
0.562499999999957
40
0.562499999999957
40
0.59374999999996
40
0.59374999999996
40
0.624999999999963
40
0.624999999999963
40
0.656249999999966
40
0.656249999999966
40
0.687499999999969
40
0.687499999999969
40
0.718749999999972
40
0.718749999999972
40
0.749999999999975
40
0.749999999999975
40
0.781249999999978
40
0.781249999999978
40
0.812499999999981
40
0.812499999999981
40
0.843749999999984
40
0.843749999999984
40
0.874999999999987
40
0.874999999999987
40
0.906249999999991
40
0.906249999999991
40
0.937499999999994
40
0.937499999999994
40
0.968749999999997
40
0.968749999999997
40
1
40
1
40
1.03124999999999
40
1.03124999999999
41
1
10
64.5339516219347
20
-1.61285638549373
30
0
41
1
10
64.5257780393162
20
-1.45476253274072
30
0
41
1
10
64.5292828968641
20
-1.37637563729399
30
0
41
1
10
64.5457154784038
20
-1.25978000436476
30
0
41
1
10
64.5530684193588
20
-1.22108033913156
30
0
41
1
10
64.571648545775
20
-1.14402903435476
30
0
41
1
10
64.5829427686325
20
-1.1055390726718
30
0
41
1
10
64.6220360181542
20
-0.993077592376409
30
0
41
1
10
64.6551160857276
20
-0.921351591364299
30
0
41
1
10
64.7353649453115
20
-0.784483750649201
30
0
41
1
10
64.783078713496
20
-0.71894254455259
30
0
41
1
10
64.8889665301803
20
-0.60041215035605
30
0
41
1
10
64.9474342762498
20
-0.546685481582728
30
0
41
1
10
65.0757001948863
20
-0.450645704787917
30
0
41
1
10
65.1447470212221
20
-0.409092752746687
30
0
41
1
10
65.2883658574869
20
-0.34107607734444
30
0
41
1
10
65.3641130527126
20
-0.314022416499483
30
0
41
1
10
65.5199622420978
20
-0.275594266847691
30
0
41
1
10
65.5987076503862
20
-0.264419373167186
30
0
41
1
10
65.757800200143
20
-0.257763870989749
30
0
41
1
10
65.8389335208703
20
-0.262519240355232
30
0
41
1
10
65.9963235515185
20
-0.287775954678267
30
0
41
1
10
66.0731702574153
20
-0.308100554957861
30
0
41
1
10
66.1856267066674
20
-0.350293315683587
30
0
41
1
10
66.2227496425808
20
-0.366400808411214
30
0
41
1
10
66.2944120464904
20
-0.401876600908082
30
0
41
1
10
66.3291493170201
20
-0.421304830727536
30
0
41
1
10
66.4301416772414
20
-0.484557931159486
30
0
41
1
10
66.4935333462217
20
-0.533615165259761
30
0
41
1
10
66.6099572819514
20
-0.644156400713655
30
0
41
1
10
66.661763995123
20
-0.704350197777671
30
0
41
1
10
66.7530311515407
20
-0.834166336512851
30
0
41
1
10
66.7927588834835
20
-0.904613976881961
30
0
41
1
10
66.8566959553768
20
-1.04975355012724
30
0
41
1
10
66.8812907165585
20
-1.12469612641496
30
0
41
1
10
66.9158964039013
20
-1.27921679831812
30
0
41
1
10
66.9256425072349
20
-1.3584840322257
30
0
41
1
10
66.9298915162852
20
-1.51502580198277
30
0
41
1
10
66.9245937538699
20
-1.59319275528424
30
0
41
1
10
66.8989221628457
20
-1.74884441011946
30
0
41
1
10
66.8789363265362
20
-1.82409113809513
30
0
41
1
10
66.8253403295101
20
-1.96973394650013
30
0
41
1
10
66.7913125039785
20
-2.04077470074438
30
0
41
1
10
66.7108031024068
20
-2.17441793528079
30
0
41
1
10
66.6647063554508
20
-2.23671133048847
30
0
41
1
10
66.5607586502847
20
-2.35236195101487
30
0
41
1
10
66.502174795901
20
-2.40616940428731
30
0
41
1
10
66.3770116017964
20
-2.50027868576831
30
0
41
1
10
66.3102577381266
20
-2.54102288522802
30
0
41
1
10
66.1679939196533
20
-2.6094723830646
30
0
41
1
10
66.0920963396085
20
-2.63705119642341
30
0
41
1
10
65.9385420711664
20
-2.67576934556624
30
0
41
1
10
65.8600243487583
20
-2.68741919075279
30
0
41
1
10
65.6993051298569
20
-2.6944785109803
30
0
41
1
10
65.6192656411188
20
-2.68969961004132
30
0
41
1
10
65.4624494859727
20
-2.66432873074217
30
0
41
1
10
65.3843667995694
20
-2.64336306931403
30
0
41
1
10
65.235960717233
20
-2.58694160744224
30
0
41
1
10
65.1655200466254
20
-2.55170973737879
30
0
41
1
10
65.0318779882357
20
-2.46755079481133
30
0
41
1
10
64.9692666114494
20
-2.41879545261762
30
0
41
1
10
64.8559885964393
20
-2.31166595805683
30
0
41
1
10
64.8043991896398
20
-2.25252037933311
30
0
41
1
10
64.713181891973
20
-2.12509669257199
30
0
41
1
10
64.6742621289029
20
-2.05796583686688
30
0
41
1
10
64.6092793437234
20
-1.91699456088074
30
0
41
1
10
64.5830870050602
20
-1.84243823956464
30
0
41
1
10
64.5455189131277
20
-1.69038840007571
30
0
41
1
10
64.5339516219347
20
-1.61285638549373
30
0
41
1
10
64.5257780393162
20
-1.45476253274072
30
0
0
SPLINE
5
1A0
100
AcDbEntity
8
1
62
256
6
ByLayer
370
-1
48
1
60
0
100
AcDbSpline
70
4
71
3
72
30
73
26
40
0
40
0
40
0
40
0
40
0.0382439303351558
40
0.094817816786029
40
0.151391703236902
40
0.207965589687775
40
0.264539476138649
40
0.321113362589522
40
0.377687249040395
40
0.434261135491268
40
0.490835021942141
40
0.547408908393015
40
0.575695851618451
40
0.603982794843888
40
0.632269738069324
40
0.660556681294761
40
0.688843624520198
40
0.717130567745634
40
0.773704454196507
40
0.83027834064738
40
0.858565283872817
40
0.886852227098254
40
0.900995698710972
40
0.943426113549127
40
1
40
1
40
1
40
1
41
1
10
28.1978538338169
20
0.748891298573966
30
0
41
1
10
28.0489833881557
20
0.776780955899852
30
0
41
1
10
27.679880908523
20
0.845860202470163
30
0
41
1
10
27.0905297897656
20
0.955596645977863
30
0
41
1
10
26.4298881179007
20
1.07758870827755
30
0
41
1
10
25.7694344349564
20
1.19731470673807
30
0
41
1
10
25.1089263628944
20
1.31454149712587
30
0
41
1
10
24.4477108422305
20
1.42990791645138
30
0
41
1
10
23.7855317785173
20
1.54442482818001
30
0
41
1
10
23.1230239350769
20
1.65830986295313
30
0
41
1
10
22.4613591931252
20
1.77097544189337
30
0
41
1
10
21.9111244196039
20
1.86303716198211
30
0
41
1
10
21.4714722742474
20
1.93515379055677
30
0
41
1
10
21.1416451082943
20
1.98853111496291
30
0
41
1
10
20.8114387868612
20
2.04132040401956
30
0
41
1
10
20.4806309571507
20
2.0936763138215
30
0
41
1
10
20.1495398502452
20
2.14564363239228
30
0
41
1
10
19.7083383478866
20
2.21416839619428
30
0
41
1
10
19.1572786323624
20
2.29841316936827
30
0
41
1
10
18.6070086588956
20
2.38056754427095
30
0
41
1
10
18.1672320840506
20
2.44481679808078
30
0
41
1
10
17.8925619243354
20
2.48430783657426
30
0
41
1
10
17.5629514268557
20
2.53109454612323
30
0
41
1
10
17.1229499948503
20
2.59258493442888
30
0
41
1
10
16.7372157204742
20
2.64531511168704
30
0
41
1
10
16.5165379060093
20
2.67512666090019
30
0
0
SPLINE
5
1A1
100
AcDbEntity
8
1
62
256
6
ByLayer
370
-1
48
1
60
0
100
AcDbSpline
70
4
71
3
72
10
73
6
40
0
40
0
40
0
40
0
40
0.5
40
0.5
40
1
40
1
40
1
40
1
41
1
10
59.6202787088822
20
2.66642561687067
30
0
41
1
10
59.7037575449099
20
2.59166219564835
30
0
41
1
10
59.8003046214186
20
2.53043996662322
30
0
41
1
10
60.013111426956
20
2.42593248740573
30
0
41
1
10
60.1259701039919
20
2.38446728442759
30
0
41
1
10
60.2437138198802
20
2.35031096052134
30
0
0
SPLINE
5
1A2
100
AcDbEntity
8
1
62
256
6
ByLayer
370
-1
48
1
60
0
100
AcDbSpline
70
4
71
3
72
12
73
8
40
0
40
0
40
0
40
0
40
0.249999999999997
40
0.249999999999997
40
0.499999999999994
40
0.499999999999994
40
1
40
1
40
1
40
1
41
1
10
51.1320628857933
20
5.35969293145317
30
0
41
1
10
51.0012283994743
20
5.40159125578236
30
0
41
1
10
50.8685386711375
20
5.44526043305166
30
0
41
1
10
50.6028318207871
20
5.53484388939046
30
0
41
1
10
50.4696390034366
20
5.5808079458802
30
0
41
1
10
50.0691453191049
20
5.72186151033557
30
0
41
1
10
49.8009332612328
20
5.82009845352295
30
0
41
1
10
49.5317213872851
20
5.92178896101046
30
0
0
SPLINE
5
1A3
100
AcDbEntity
8
1
62
256
6
ByLayer
370
-1
48
1
60
0
100
AcDbSpline
70
4
71
4
72
10
73
5
40
0
40
0
40
0
40
0
40
0
40
1
40
1
40
1
40
1
40
1
41
0.98628104477159
10
56.703391513708
20
2.49639492517078
30
0
41
0.990521901879738
10
56.7378927986781
20
2.84863745196711
30
0
41
0.995634539099047
10
56.7601224438136
20
3.21471645809559
30
0
41
1
10
56.7699607448634
20
3.57811943345985
30
0
41
1
10
56.7699607448634
20
3.91999999999993
30
0
0
SPLINE
5
1A4
100
AcDbEntity
8
1
62
256
6
ByLayer
370
-1
48
1
60
0
100
AcDbSpline
70
4
71
3
72
26
73
22
40
0
40
0
40
0
40
0
40
0.124999999999999
40
0.124999999999999
40
0.249999999999999
40
0.249999999999999
40
0.374999999999998
40
0.374999999999998
40
0.437499999999998
40
0.437499999999998
40
0.499999999999998
40
0.499999999999998
40
0.624999999999997
40
0.624999999999997
40
0.749999999999996
40
0.749999999999996
40
0.812499999999996
40
0.812499999999996
40
0.874999999999996
40
0.874999999999996
40
1
40
1
40
1
40
1
41
1
10
61.7883864617407
20
1.55385106538611
30
0
41
1
10
61.8625421011534
20
1.57807512729417
30
0
41
1
10
61.9284405383887
20
1.60342949711401
30
0
41
1
10
62.0437855198481
20
1.65639029555439
30
0
41
1
10
62.0933617069925
20
1.6842172045844
30
0
41
1
10
62.1715380506611
20
1.73989498882679
30
0
41
1
10
62.200808928199
20
1.76798500129169
30
0
41
1
10
62.2297156958116
20
1.81050369920962
30
0
41
1
10
62.2368266959975
20
1.82479209767521
30
0
41
1
10
62.2456612122356
20
1.85290173304401
30
0
41
1
10
62.2474483243124
20
1.8667894114497
30
0
41
1
10
62.2450799644
20
1.90796124358636
30
0
41
1
10
62.2332467639316
20
1.93478110931687
30
0
41
1
10
62.1883446806093
20
1.98697595463665
30
0
41
1
10
62.1559873849494
20
2.01154595999665
30
0
41
1
10
62.0932625669202
20
2.04621322558231
30
0
41
1
10
62.0699729413452
20
2.057401806706
30
0
41
1
10
62.0185496145273
20
2.07903207461993
30
0
41
1
10
61.9902950351768
20
2.08950361105394
30
0
41
1
10
61.8998175779327
20
2.11919203018209
30
0
41
1
10
61.8315601156271
20
2.13689013010102
30
0
41
1
10
61.7554681734588
20
2.15252166222987
30
0
0
SPLINE
5
1A5
100
AcDbEntity
8
1
62
256
6
ByLayer
370
-1
48
1
60
0
100
AcDbSpline
70
4
71
3
72
14
73
10
40
0
40
0
40
0
40
0
40
0.2468932880333
40
0.2468932880333
40
0.497928858688866
40
0.497928858688866
40
0.748964429344433
40
0.748964429344433
40
1
40
1
40
1
40
1
41
1
10
46.6710832776207
20
6.64408253786814
30
0
41
1
10
47.5045373643643
20
6.84131994214215
30
0
41
1
10
48.3365716435046
20
7.02126054193749
30
0
41
1
10
50.0124009366995
20
7.34757738019152
30
0
41
1
10
50.8559304584537
20
7.49372558138998
30
0
41
1
10
52.5433498916574
20
7.7459225928867
30
0
41
1
10
53.3875585517802
20
7.85181678272579
30
0
41
1
10
55.0771548511042
20
8.02309976792947
30
0
41
1
10
55.9223998112022
20
8.08840418247257
30
0
41
1
10
56.7699607449029
20
8.1322883766687
30
0
0
SPLINE
5
1A6
100
AcDbEntity
8
1
62
256
6
ByLayer
370
-1
48
1
60
0
100
AcDbSpline
70
4
71
3
72
12
73
8
40
0
40
0
40
0
40
0
40
0.249999999999995
40
0.249999999999995
40
0.499999999999991
40
0.499999999999991
40
1
40
1
40
1
40
1
41
1
10
60.7742156717984
20
2.22975688373467
30
0
41
1
10
60.8522800261712
20
2.21676217879946
30
0
41
1
10
60.9300834320443
20
2.2057816491677
30
0
41
1
10
61.0850725218745
20
2.18775343643509
30
0
41
1
10
61.1625057688221
20
2.18069376350542
30
0
41
1
10
61.3914244956203
20
2.16542094952141
30
0
41
1
10
61.5396196896585
20
2.16303888125418
30
0
41
1
10
61.6827738830777
20
2.16733302511852
30
0
0
SPLINE
5
1A7
100
AcDbEntity
8
1
62
256
6
ByLayer
370
-1
48
1
60
0
100
AcDbSpline
70
4
71
3
72
10
73
6
40
0
40
0
40
0
40
0
40
0.5
40
0.5
40
1
40
1
40
1
40
1
41
1
10
62.5871829093475
20
5.41157561225055
30
0
41
1
10
62.5905976318988
20
5.41157561225055
30
0
41
1
10
62.5975651112343
20
5.41589711040243
30
0
41
1
10
62.6179651879932
20
5.43182895687016
30
0
41
1
10
62.6314588050599
20
5.44348811567198
30
0
41
1
10
62.6475033828897
20
5.45748165329536
30
0
0
SPLINE
5
1A8
100
AcDbEntity
8
1
62
256
6
ByLayer
370
-1
48
1
60
0
100
AcDbSpline
70
4
71
3
72
18
73
14
40
0
40
0
40
0
40
0
40
0.165824760555002
40
0.165824760555002
40
0.443883173703336
40
0.443883173703336
40
0.72194158685167
40
0.72194158685167
40
0.791456190138753
40
0.791456190138753
40
0.860970793425836
40
0.860970793425836
40
1
40
1
40
1
40
1
41
1
10
34.0030841714398
20
8.19997185439769
30
0
41
1
10
34.8603687051315
20
8.19997588801937
30
0
41
1
10
35.7160939684978
20
8.17807166338434
30
0
41
1
10
38.0052360164066
20
8.06135584546928
30
0
41
1
10
39.4378288362044
20
7.92732399069163
30
0
41
1
10
42.309370559619
20
7.54328091235323
30
0
41
1
10
43.7481476931105
20
7.29323314574935
30
0
41
1
10
45.5553458053255
20
6.91198429474707
30
0
41
1
10
45.9174581918392
20
6.83226255319698
30
0
41
1
10
46.6410224699939
20
6.66654261855385
30
0
41
1
10
47.0025947976887
20
6.58052356240759
30
0
41
1
10
48.0869174602232
20
6.31336485472301
30
0
41
1
10
48.8092757646048
20
6.12312198034536
30
0
41
1
10
49.5317213872851
20
5.92178896101046
30
0
0
SPLINE
5
1A9
100
AcDbEntity
8
1
62
256
6
ByLayer
370
-1
48
1
60
0
100
AcDbSpline
70
4
71
3
72
48
73
44
40
0
40
0
40
0
40
0
40
0.124999999999999
40
0.124999999999999
40
0.187499999999999
40
0.187499999999999
40
0.218749999999999
40
0.218749999999999
40
0.249999999999999
40
0.249999999999999
40
0.312499999999999
40
0.312499999999999
40
0.343749999999999
40
0.343749999999999
40
0.374999999999999
40
0.374999999999999
40
0.4375
40
0.4375
40
0.468749999999999
40
0.468749999999999
40
0.499999999999999
40
0.499999999999999
40
0.562499999999999
40
0.562499999999999
40
0.593749999999999
40
0.593749999999999
40
0.624999999999999
40
0.624999999999999
40
0.687499999999999
40
0.687499999999999
40
0.749999999999999
40
0.749999999999999
40
0.781249999999999
40
0.781249999999999
40
0.812499999999999
40
0.812499999999999
40
0.875
40
0.875
40
0.90625
40
0.90625
40
0.9375
40
0.9375
40
1
40
1
40
1
40
1
41
1
10
11.3165379060068
20
7.72330220358674
30
0
41
1
10
10.9557257697051
20
8.02109227424032
30
0
41
1
10
10.5791711918553
20
8.27633676769389
30
0
41
1
10
9.9888687932673
20
8.58608054740546
30
0
41
1
10
9.78781829517501
20
8.67702496526081
30
0
41
1
10
9.47911000819119
20
8.79215469116025
30
0
41
1
10
9.3750663622875
20
8.82690313149124
30
0
41
1
10
9.16793382983698
20
8.88772794631092
30
0
41
1
10
9.06443399822504
20
8.91396727946633
30
0
41
1
10
8.75425188894243
20
8.97973128936019
30
0
41
1
10
8.5478752734584
20
9.00638765059759
30
0
41
1
10
8.23956254222477
20
9.01757029683543
30
0
41
1
10
8.13657197285016
20
9.01641523216747
30
0
41
1
10
7.93505468330937
20
9.00404139385236
30
0
41
1
10
7.83616417607223
20
8.99287760438716
30
0
41
1
10
7.54531508670607
20
8.94442594632108
30
0
41
1
10
7.35913480233907
20
8.8922707250527
30
0
41
1
10
7.09299237802836
20
8.78265433635414
30
0
41
1
10
7.00602723899326
20
8.74059931757873
30
0
41
1
10
6.83913869029161
20
8.64669622328069
30
0
41
1
10
6.75960622177826
20
8.59515183820707
30
0
41
1
10
6.53260656396316
20
8.42724144489131
30
0
41
1
10
6.39666100814065
20
8.29769283770602
30
0
41
1
10
6.21661875770297
20
8.07723555413349
30
0
41
1
10
6.16045127729484
20
7.99903203733456
30
0
41
1
10
6.05848967896671
20
7.83716652625068
30
0
41
1
10
6.0123894034995
20
7.75319816123439
30
0
41
1
10
5.88826849613682
20
7.49260162481841
30
0
41
1
10
5.82429468230637
20
7.30716601098831
30
0
41
1
10
5.73403881594112
20
6.91438729117226
30
0
41
1
10
5.70889188476468
20
6.71222807988977
30
0
41
1
10
5.69850323626002
20
6.40094835097679
30
0
41
1
10
5.69962250529076
20
6.29583725914534
30
0
41
1
10
5.71086059534773
20
6.08289625255145
30
0
41
1
10
5.72105440002318
20
5.97462903555149
30
0
41
1
10
5.76442385761374
20
5.65008337121364
30
0
41
1
10
5.81018407505366
20
5.43351389044255
30
0
41
1
10
5.90163143437999
20
5.10784314507217
30
0
41
1
10
5.93593338707586
20
4.99914859769322
30
0
41
1
10
6.01194754778476
20
4.78137919220291
30
0
41
1
10
6.05382586636827
20
4.67193578410661
30
0
41
1
10
6.1886435289191
20
4.34684312469918
30
0
41
1
10
6.29085059564756
20
4.13373993050138
30
0
41
1
10
6.40379877783036
20
3.92348298830632
30
0
0
SPLINE
5
1AA
100
AcDbEntity
8
1
62
256
6
ByLayer
370
-1
48
1
60
0
100
AcDbSpline
70
4
71
2
72
6
73
3
40
0
40
0
40
0
40
1
40
1
40
1
41
1
10
14.5273813558276
20
-5.38959064729193
30
0
41
1
10
14.5273813558276
20
-5.63583606643149
30
0
41
1
10
14.5273813558276
20
-5.88208148557104
30
0
0
SPLINE
5
1AB
100
AcDbEntity
8
1
62
256
6
ByLayer
370
-1
48
1
60
0
100
AcDbSpline
70
4
71
3
72
20
73
16
40
0
40
0
40
0
40
0
40
0.150890475617584
40
0.150890475617584
40
0.301780951235168
40
0.301780951235168
40
0.452671426852751
40
0.452671426852751
40
0.603561902470335
40
0.603561902470335
40
0.754452378087919
40
0.754452378087919
40
0.905342853705502
40
0.905342853705502
40
1
40
1
40
1
40
1
41
1
10
16.5165379060093
20
2.67512666090019
30
0
41
1
10
16.2025631909158
20
2.52965446126598
30
0
41
1
10
15.8670610033273
20
2.31343106202195
30
0
41
1
10
15.1909186177117
20
1.76391845155803
30
0
41
1
10
14.8504265465216
20
1.43074962558038
30
0
41
1
10
14.2030815159267
20
0.685240160744854
30
0
41
1
10
13.8963703745383
20
0.27306284541379
30
0
41
1
10
13.3515339407595
20
-0.583554541580725
30
0
41
1
10
13.1135280091716
20
-1.02780694859425
30
0
41
1
10
12.7332390667891
20
-1.89799179887186
30
0
41
1
10
12.5910393683255
20
-2.32373360517508
30
0
41
1
10
12.4186002813966
20
-3.10840057340965
30
0
41
1
10
12.388398670265
20
-3.46715383332955
30
0
41
1
10
12.4331874075255
20
-3.96332592280254
30
0
41
1
10
12.4731650761552
20
-4.13335187963025
30
0
41
1
10
12.5346655644368
20
-4.27863208121587
30
0
0
SPLINE
5
1AC
100
AcDbEntity
8
1
62
256
6
ByLayer
370
-1
48
1
60
0
100
AcDbSpline
70
4
71
3
72
12
73
8
40
0
40
0
40
0
40
0
40
0.5
40
0.5
40
0.75
40
0.75
40
1
40
1
40
1
40
1
41
1
10
8.11511005965994
20
0.0077133694127838
30
0
41
1
10
7.9323265279904
20
0.191916734271615
30
0
41
1
10
7.75605964557928
20
0.394315821563254
30
0
41
1
10
7.4996703180008
20
0.723984258882354
30
0
41
1
10
7.41545642749318
20
0.838408543035087
30
0
41
1
10
7.25006189901404
20
1.07574242846016
30
0
41
1
10
7.16977952124685
20
1.19734641331166
30
0
41
1
10
7.09183767599191
20
1.32186142307364
30
0
0
SPLINE
5
1AD
100
AcDbEntity
8
1
62
256
6
ByLayer
370
-1
48
1
60
0
100
AcDbSpline
70
4
71
3
72
8
73
4
40
0
40
0
40
0
40
0
40
1
40
1
40
1
40
1
41
1
10
59.2878135163886
20
1.39635177753027
30
0
41
1
10
59.2348157447999
20
1.41246061545803
30
0
41
1
10
59.1822085691747
20
1.42934207883693
30
0
41
1
10
59.1299708826778
20
1.44702619363508
30
0
0
SPLINE
5
1AE
100
AcDbEntity
8
1
62
256
6
ByLayer
370
-1
48
1
60
0
100
AcDbSpline
70
4
71
4
72
13
73
8
40
0
40
0
40
0
40
0
40
0
40
0.668814889361903
40
0.668814889361903
40
0.668814889361903
40
1
40
1
40
1
40
1
40
1
41
1
10
16.5165379060093
20
2.67512666090019
30
0
41
1
10
16.5165379060093
20
1.81059286081791
30
0
41
0.942809041582063
10
16.319160024812
20
0.0152044853439019
30
0
41
1
10
15.7947557623971
20
-2.13582985035356
30
0
41
1
10
15.2045240425692
20
-4.07035085302439
30
0
41
0.985976477489405
10
14.9843181312221
20
-4.69073582364425
30
0
41
0.978762021252109
10
14.7800043240364
20
-5.1110140436796
30
0
41
0.978557373111018
10
14.6168159504695
20
-5.2941445495295
30
0
0
SPLINE
5
1AF
100
AcDbEntity
8
1
62
256
6
ByLayer
370
-1
48
1
60
0
100
AcDbSpline
70
4
71
3
72
24
73
20
40
0
40
0
40
0
40
0
40
0.250000000000001
40
0.250000000000001
40
0.375000000000001
40
0.375000000000001
40
0.500000000000001
40
0.500000000000001
40
0.625000000000001
40
0.625000000000001
40
0.750000000000001
40
0.750000000000001
40
0.875000000000001
40
0.875000000000001
40
0.937500000000001
40
0.937500000000001
40
0.968750000000001
40
0.968750000000001
40
1
40
1
40
1
40
1
41
1
10
7.03593212180857
20
-0.359765470423582
30
0
41
1
10
7.39440622524469
20
-0.937357324180795
30
0
41
1
10
7.7624849328663
20
-1.48341985956742
30
0
41
1
10
8.33633513238451
20
-2.2500679795854
30
0
41
1
10
8.53209448509205
20
-2.49760849912568
30
0
41
1
10
8.92325845082468
20
-2.96224372865092
30
0
41
1
10
9.11965159075621
20
-3.18077665052638
30
0
41
1
10
9.51542409792313
20
-3.58960649515731
30
0
41
1
10
9.71479827234722
20
-3.77991038819755
30
0
41
1
10
10.1180999826803
20
-4.13046707239891
30
0
41
1
10
10.3230612396039
20
-4.29125712049719
30
0
41
1
10
10.7286314299877
20
-4.5727384458375
30
0
41
1
10
10.9303290577127
20
-4.69455267974104
30
0
41
1
10
11.2323277303736
20
-4.84832025370326
30
0
41
1
10
11.3329017550041
20
-4.8947380379191
30
0
41
1
10
11.4837562375542
20
-4.95691548721101
30
0
41
1
10
11.5340379135813
20
-4.97635053841398
30
0
41
1
10
11.6347413134693
20
-5.01458552195584
30
0
41
1
10
11.6852580232144
20
-5.03484494199176
30
0
41
1
10
11.7359321218087
20
-5.0563931365775
30
0
0
SPLINE
5
1B0
100
AcDbEntity
8
1
62
256
6
ByLayer
370
-1
48
1
60
0
100
AcDbSpline
70
4
71
3
72
14
73
10
40
0
40
0
40
0
40
0
40
0.25
40
0.25
40
0.5
40
0.5
40
0.75
40
0.75
40
1
40
1
40
1
40
1
41
1
10
62.4982708556714
20
8.19993892466763
30
0
41
1
10
62.5024241827367
20
8.20012241103544
30
0
41
1
10
62.5121018853936
20
8.19988757288343
30
0
41
1
10
62.5421056309463
20
8.19872443566774
30
0
41
1
10
62.5627306763146
20
8.19778061704332
30
0
41
1
10
62.6127896800648
20
8.19549834413527
30
0
41
1
10
62.6426515978203
20
8.19414249163003
30
0
41
1
10
62.7105968368209
20
8.19134899259953
30
0
41
1
10
62.7480507273008
20
8.18993713845845
30
0
41
1
10
62.7890315505336
20
8.18865149484421
30
0
0
SPLINE
5
1B1
100
AcDbEntity
8
1
62
256
6
ByLayer
370
-1
48
1
60
0
100
AcDbSpline
70
4
71
3
72
8
73
4
40
0
40
0
40
0
40
0
40
1
40
1
40
1
40
1
41
1
10
7.03593212180854
20
1.41175043963412
30
0
41
1
10
7.0544903247457
20
1.38171619441891
30
0
41
1
10
7.07312730978941
20
1.3517519321158
30
0
41
1
10
7.09183767599618
20
1.32186142306685
30
0
0
SPLINE
5
1B2
100
AcDbEntity
8
1
62
256
6
ByLayer
370
-1
48
1
60
0
100
AcDbSpline
70
4
71
3
72
14
73
10
40
0
40
0
40
0
40
0
40
0.25
40
0.25
40
0.5
40
0.5
40
0.75
40
0.75
40
1
40
1
40
1
40
1
41
1
10
60.4925067826679
20
1.26513670530477
30
0
41
1
10
60.4058906429247
20
1.25511848273331
30
0
41
1
10
60.3140036282211
20
1.25021609290675
30
0
41
1
10
60.1227918120606
20
1.25062656063471
30
0
41
1
10
60.0234323860634
20
1.25594970818281
30
0
41
1
10
59.8189389138636
20
1.27737702917156
30
0
41
1
10
59.7133213989
20
1.29361488854158
30
0
41
1
10
59.5014358009207
20
1.3368467579449
30
0
41
1
10
59.3947971853108
20
1.36383375777359
30
0
41
1
10
59.2878135163886
20
1.39635177753027
30
0
0
SPLINE
5
1B3
100
AcDbEntity
8
1
62
256
6
ByLayer
370
-1
48
1
60
0
100
AcDbSpline
70
4
71
3
72
12
73
8
40
0
40
0
40
0
40
0
40
0.5
40
0.5
40
0.75
40
0.75
40
1
40
1
40
1
40
1
41
1
10
11.7359321218087
20
-3.46345327694095
30
0
41
1
10
11.9261619712016
20
-3.68072186452326
30
0
41
1
10
12.149798174812
20
-3.90167915834428
30
0
41
1
10
12.5277278390162
20
-4.24923534122428
30
0
41
1
10
12.6616609365172
20
-4.36830398813802
30
0
41
1
10
12.9384639742018
20
-4.60729813520607
30
0
41
1
10
13.08146825759
20
-4.72738567506843
30
0
41
1
10
13.2289229223263
20
-4.84766122378127
30
0
0
SPLINE
5
1B4
100
AcDbEntity
8
1
62
256
6
ByLayer
370
-1
48
1
60
0
100
AcDbSpline
70
4
71
1
72
4
73
2
40
0
40
0
40
1
40
1
41
1
10
16.5165379060065
20
2.67512666090093
30
0
41
1
10
16.5165379060066
20
5.07408478266132
30
0
0
SPLINE
5
1B5
100
AcDbEntity
8
1
62
256
6
ByLayer
370
-1
48
1
60
0
100
AcDbSpline
70
4
71
3
72
14
73
10
40
0
40
0
40
0
40
0
40
0.500000000000013
40
0.500000000000013
40
0.625000000000012
40
0.625000000000012
40
0.75000000000001
40
0.75000000000001
40
1
40
1
40
1
40
1
41
1
10
61.2465229302939
20
0.401643818953715
30
0
41
1
10
60.8512785807777
20
0.378356670410426
30
0
41
1
10
60.4612437877282
20
0.403540100870458
30
0
41
1
10
59.9801494771024
20
0.494925839452748
30
0
41
1
10
59.8842581726128
20
0.516244253100353
30
0
41
1
10
59.6931502774261
20
0.56513713941149
30
0
41
1
10
59.597877962556
20
0.592750694911985
30
0
41
1
10
59.3161730279406
20
0.684247630918946
30
0
41
1
10
59.1328127169364
20
0.756986226408884
30
0
41
1
10
58.9540132914999
20
0.841695361143707
30
0
0
SPLINE
5
1B6
100
AcDbEntity
8
1
62
256
6
ByLayer
370
-1
48
1
60
0
100
AcDbSpline
70
4
71
3
72
16
73
12
40
0
40
0
40
0
40
0
40
0.250000000000001
40
0.250000000000001
40
0.500000000000001
40
0.500000000000001
40
0.750000000000002
40
0.750000000000002
40
0.875000000000001
40
0.875000000000001
40
1
40
1
40
1
40
1
41
1
10
58.0795388146894
20
3.91999999999993
30
0
41
1
10
58.0307094666701
20
3.99697208780628
30
0
41
1
10
57.9824317180209
20
4.07516765210559
30
0
41
1
10
57.889070470693
20
4.23543025139233
30
0
41
1
10
57.8439101746968
20
4.31744112323781
30
0
41
1
10
57.7611413740393
20
4.48841126382604
30
0
41
1
10
57.7238796165656
20
4.57642103366103
30
0
41
1
10
57.6821220581034
20
4.71500948241373
30
0
41
1
10
57.670556701954
20
4.76271827491462
30
0
41
1
10
57.6546765938282
20
4.8593999549575
30
0
41
1
10
57.65036288992
20
4.90824259141709
30
0
41
1
10
57.65036288992
20
4.95767817790733
30
0
0
SPLINE
5
1B7
100
AcDbEntity
8
1
62
256
6
ByLayer
370
-1
48
1
60
0
100
AcDbSpline
70
4
71
3
72
8
73
4
40
0
40
0
40
0
40
0
40
1
40
1
40
1
40
1
41
1
10
11.3165379060092
20
6.45610989695544
30
0
41
1
10
13.0778470704237
20
5.19193233529757
30
0
41
1
10
14.8040190500289
20
3.92483265502511
30
0
41
1
10
16.5165379060065
20
2.67512666090093
30
0
0
SPLINE
5
1B8
100
AcDbEntity
8
1
62
256
6
ByLayer
370
-1
48
1
60
0
100
AcDbSpline
70
4
71
3
72
8
73
4
40
0
40
0
40
0
40
0
40
1
40
1
40
1
40
1
41
1
10
15
20
5.69772650800184
30
0
41
1
10
15.5178309219555
20
5.51526770672155
30
0
41
1
10
16.0222187514383
20
5.30726659958705
30
0
41
1
10
16.5165379060066
20
5.07408478266134
30
0
0
SPLINE
5
1B9
100
AcDbEntity
8
1
62
256
6
ByLayer
370
-1
48
1
60
0
100
AcDbSpline
70
4
71
3
72
57
73
53
40
0
40
0
40
0
40
0
40
0.0286266292023355
40
0.0572532584046711
40
0.0858798876070064
40
0.114506516809342
40
0.143133146011678
40
0.171759775214013
40
0.186073089815181
40
0.200386404416349
40
0.229013033618684
40
0.243326348219852
40
0.25763966282102
40
0.286266292023355
40
0.300579606624523
40
0.314892921225691
40
0.343519550428026
40
0.357832865029194
40
0.372146179630362
40
0.400772808832697
40
0.415086123433865
40
0.429399438035033
40
0.458026067237368
40
0.472339381838536
40
0.486652696439704
40
0.515279325642039
40
0.529592640243207
40
0.543905954844375
40
0.57253258404671
40
0.586845898647878
40
0.601159213249046
40
0.629785842451381
40
0.644099157052549
40
0.658412471653717
40
0.687039100856052
40
0.70135241545722
40
0.715665730058388
40
0.744292359260723
40
0.772918988463059
40
0.801545617665394
40
0.83017224686773
40
0.858798876070065
40
0.873112190671233
40
0.887425505272401
40
0.901738819873568
40
0.916052134474736
40
0.92320879177532
40
0.930365449075904
40
0.944678763677072
40
0.958992078278239
40
0.973305392879407
40
1
40
1
40
1
40
1
41
1
10
11.3165379060092
20
6.45610989695544
30
0
41
1
10
11.2756138754765
20
6.42545614040421
30
0
41
1
10
11.1922848072639
20
6.36166841215865
30
0
41
1
10
11.0630707160139
20
6.25850042999406
30
0
41
1
10
10.9298586683437
20
6.14780031366655
30
0
41
1
10
10.7929630889746
20
6.02962939925007
30
0
41
1
10
10.6526984026277
20
5.90404902281847
30
0
41
1
10
10.5333420072062
20
5.79337767769007
30
0
41
1
10
10.436578456199
20
5.70132009487241
30
0
41
1
10
10.3390441800317
20
5.60696798941717
30
0
41
1
10
10.240476163054
20
5.5092528227641
30
0
41
1
10
10.1411190991255
20
5.40833204043028
30
0
41
1
10
10.0413288158497
20
5.30534833886153
30
0
41
1
10
9.94102792148266
20
5.19938149526877
30
0
41
1
10
9.84049485188382
20
5.0906539833087
30
0
41
1
10
9.73990707002648
20
4.98017983993293
30
0
41
1
10
9.6393873266253
20
4.86722647067719
30
0
41
1
10
9.5392358353682
20
4.75207531802894
30
0
41
1
10
9.43943228238547
20
4.6355687737742
30
0
41
1
10
9.34030429208167
20
4.51719383809257
30
0
41
1
10
9.24215917499163
20
4.39727990294972
30
0
41
1
10
9.14476866570328
20
4.27646041859427
30
0
41
1
10
9.04865910660635
20
4.15446328606222
30
0
41
1
10
8.95412857467841
20
4.03164985663818
30
0
41
1
10
8.86074162970749
20
3.90841705156549
30
0
41
1
10
8.76920641843859
20
3.78474241643878
30
0
41
1
10
8.67979564740475
20
3.66100041809602
30
0
41
1
10
8.59187895932709
20
3.53733605002034
30
0
41
1
10
8.50632007988284
20
3.41397193596194
30
0
41
1
10
8.42335237747039
20
3.29127569315415
30
0
41
1
10
8.34217322817119
20
3.16913865774092
30
0
41
1
10
8.26376856117997
20
3.04801137326081
30
0
41
1
10
8.18832168177289
20
2.92823571939638
30
0
41
1
10
8.11488909957012
20
2.8094613514881
30
0
41
1
10
8.04454162139615
20
2.69233921083267
30
0
41
1
10
7.97740656369558
20
2.57716989406725
30
0
41
1
10
7.91243636394887
20
2.4633850911153
30
0
41
1
10
7.8353263060005
20
2.32390498436334
30
0
41
1
10
7.74949800906782
20
2.1614260786825
30
0
41
1
10
7.67040385614621
20
2.00422286681396
30
0
41
1
10
7.59807421864144
20
1.85267382014851
30
0
41
1
10
7.54338119414177
20
1.73130997178237
30
0
41
1
10
7.50294252493873
20
1.63730423911403
30
0
41
1
10
7.47427209706549
20
1.56841052004043
30
0
41
1
10
7.44726094205197
20
1.5011952888099
30
0
41
1
10
7.42600880004349
20
1.44630576578879
30
0
41
1
10
7.40968603461027
20
1.4029027070556
30
0
41
1
10
7.39380247648191
20
1.35979233027939
30
0
41
1
10
7.37474637099777
20
1.30636621704335
30
0
41
1
10
7.35307584303399
20
1.24271570654218
30
0
41
1
10
7.32678998745072
20
1.16146109726566
30
0
41
1
10
7.30913620424593
20
1.10218955306402
30
0
41
1
10
7.29847338500753
20
1.06409429171893
30
0
0
SPLINE
5
1BA
100
AcDbEntity
8
1
62
256
6
ByLayer
370
-1
48
1
60
0
100
AcDbSpline
70
4
71
3
72
8
73
4
40
0
40
0
40
0
40
0
40
1
40
1
40
1
40
1
41
1
10
11.7359321218087
20
-3.46345327694093
30
0
41
1
10
11.7359321218087
20
-3.99443323015311
30
0
41
1
10
11.7359321218087
20
-4.52541318336529
30
0
41
1
10
11.7359321218087
20
-5.05639313657747
30
0
0
SPLINE
5
1BB
100
AcDbEntity
8
1
62
256
6
ByLayer
370
-1
48
1
60
0
100
AcDbSpline
70
4
71
3
72
16
73
12
40
0
40
0
40
0
40
0
40
0.29168482734258
40
0.29168482734258
40
0.58336965468516
40
0.58336965468516
40
0.72921206835645
40
0.72921206835645
40
0.87505448202774
40
0.87505448202774
40
1
40
1
40
1
40
1
41
1
10
7.0359321218086
20
1.41175043963403
30
0
41
1
10
6.93030607676593
20
1.62647593891103
30
0
41
1
10
6.83734243506538
20
1.84399473580052
30
0
41
1
10
6.67566206406747
20
2.28150105206816
30
0
41
1
10
6.6069004479032
20
2.50152120019402
30
0
41
1
10
6.52331552367832
20
2.83036148325803
30
0
41
1
10
6.49888036395194
20
2.93935227611553
30
0
41
1
10
6.45784212518529
20
3.15214116376686
30
0
41
1
10
6.44112658285741
20
3.25635803047876
30
0
41
1
10
6.4175927500801
20
3.44480224520436
30
0
41
1
10
6.40969721253623
20
3.52977402860205
30
0
41
1
10
6.40501371235879
20
3.61237889068929
30
0
0
SPLINE
5
1BC
100
AcDbEntity
8
1
62
256
6
ByLayer
370
-1
48
1
60
0
100
AcDbSpline
70
4
71
3
72
8
73
4
40
0
40
0
40
0
40
0
40
1
40
1
40
1
40
1
41
1
10
61.6827738830777
20
2.16733302511852
30
0
41
1
10
61.6933874921639
20
2.16763611689476
30
0
41
1
10
61.7040007032926
20
2.16797308654259
30
0
41
1
10
61.7146135173144
20
2.16834395440409
30
0
0
SPLINE
5
1BD
100
AcDbEntity
8
1
62
256
6
ByLayer
370
-1
48
1
60
0
100
AcDbSpline
70
4
71
3
72
8
73
4
40
0
40
0
40
0
40
0
40
1
40
1
40
1
40
1
41
1
10
61.6827738830777
20
2.16733302511852
30
0
41
1
10
61.7074282146571
20
2.16233933251797
30
0
41
1
10
61.7316681861132
20
2.15741088251045
30
0
41
1
10
61.7554681734579
20
2.15252166222962
30
0
0
SPLINE
5
1BE
100
AcDbEntity
8
1
62
256
6
ByLayer
370
-1
48
1
60
0
100
AcDbSpline
70
4
71
3
72
10
73
6
40
0
40
0
40
0
40
0
40
0.5
40
0.5
40
1
40
1
40
1
40
1
41
1
10
8.11511019413928
20
0.0077137934156895
30
0
41
1
10
8.72252606623437
20
-0.572894949230459
30
0
41
1
10
9.33018397435333
20
-1.15297932284679
30
0
41
1
10
10.5391258409069
20
-2.31093566504998
30
0
41
1
10
11.1403715256372
20
-2.88881888805668
30
0
41
1
10
11.7359321218087
20
-3.46345327694093
30
0
0
SPLINE
5
1BF
100
AcDbEntity
8
1
62
256
6
ByLayer
370
-1
48
1
60
0
100
AcDbSpline
70
4
71
3
72
20
73
16
40
0
40
0
40
0
40
0
40
0.25
40
0.25
40
0.375
40
0.375
40
0.5
40
0.5
40
0.75
40
0.75
40
0.875
40
0.875
40
0.9375
40
0.9375
40
1
40
1
40
1
40
1
41
1
10
15
20
5.69772650800184
30
0
41
1
10
14.6745933222872
20
5.81238422701151
30
0
41
1
10
14.3472548141968
20
5.93496414517708
30
0
41
1
10
13.8562820467319
20
6.13867562791748
30
0
41
1
10
13.6926407880288
20
6.20991529508808
30
0
41
1
10
13.3660258724557
20
6.36079663426699
30
0
41
1
10
13.2022567412596
20
6.44089597748362
30
0
41
1
10
12.7238664040028
20
6.69101260216709
30
0
41
1
10
12.4193802930163
20
6.87188056156083
30
0
41
1
10
11.9879707359613
20
7.17160453963567
30
0
41
1
10
11.848398283704
20
7.27625768851914
30
0
41
1
10
11.6460207109664
20
7.4414309686812
30
0
41
1
10
11.5804263160504
20
7.49806953964696
30
0
41
1
10
11.4491515710908
20
7.61110382834744
30
0
41
1
10
11.3832046033406
20
7.66744102900677
30
0
41
1
10
11.3165379060088
20
7.72330220359021
30
0
0
SPLINE
5
1C0
100
AcDbEntity
8
1
62
256
6
ByLayer
370
-1
48
1
60
0
100
AcDbSpline
70
4
71
3
72
8
73
4
40
0
40
0
40
0
40
0
40
1
40
1
40
1
40
1
41
1
10
60.2437138198803
20
2.35031096052134
30
0
41
1
10
60.4153104756955
20
2.30053241469378
30
0
41
1
10
60.591810283542
20
2.26012034754646
30
0
41
1
10
60.7742156717984
20
2.22975688373467
30
0
0
SPLINE
5
1C1
100
AcDbEntity
8
1
62
256
6
ByLayer
370
-1
48
1
60
0
100
AcDbSpline
70
4
71
3
72
16
73
12
40
0
40
0
40
0
40
0
40
0.25
40
0.25
40
0.375
40
0.375
40
0.5
40
0.5
40
0.75
40
0.75
40
1
40
1
40
1
40
1
41
1
10
7.0359321218086
20
-0.359765470423668
30
0
41
1
10
6.88347022662742
20
-0.0210367174232715
30
0
41
1
10
6.77070480050543
20
0.328978301665842
30
0
41
1
10
6.63947810125075
20
0.864893269006302
30
0
41
1
10
6.60224437907442
20
1.04540029068969
30
0
41
1
10
6.53864802398255
20
1.40955883832817
30
0
41
1
10
6.51224277333938
20
1.59387209746379
30
0
41
1
10
6.44766877929104
20
2.1421408282952
30
0
41
1
10
6.42340260279315
20
2.50370745056347
30
0
41
1
10
6.39829981734098
20
3.21929439624915
30
0
41
1
10
6.39758390989175
20
3.57330376684627
30
0
41
1
10
6.40379877783025
20
3.92348298829819
30
0
0
SPLINE
5
1C2
100
AcDbEntity
8
1
62
256
6
ByLayer
370
-1
48
1
60
0
100
AcDbSpline
70
4
71
3
72
14
73
10
40
0
40
0
40
0
40
0
40
0.25
40
0.25
40
0.5
40
0.5
40
0.75
40
0.75
40
1
40
1
40
1
40
1
41
1
10
64.6720165583714
20
2.43893373944241
30
0
41
1
10
64.6427001057739
20
2.40978972209959
30
0
41
1
10
64.6134080093656
20
2.38347007269698
30
0
41
1
10
64.5559448543691
20
2.33599825512548
30
0
41
1
10
64.5277336887162
20
2.31483085726046
30
0
41
1
10
64.4745559076215
20
2.2780934261651
30
0
41
1
10
64.4499341600263
20
2.26279618670793
30
0
41
1
10
64.4113349987989
20
2.2411134900766
30
0
41
1
10
64.3979770962844
20
2.23500974523316
30
0
41
1
10
64.3937993914887
20
2.23500974523316
30
0
0
SPLINE
5
1C3
100
AcDbEntity
8
1
62
256
6
ByLayer
370
-1
48
1
60
0
100
AcDbSpline
70
4
71
4
72
10
73
5
40
0
40
0
40
0
40
0
40
0
40
1
40
1
40
1
40
1
40
1
41
1
10
56.7699607448634
20
3.91999999999993
30
0
41
1
10
56.7699607448808
20
4.97307209416712
30
0
41
1
10
56.7699607448918
20
6.02614418833431
30
0
41
1
10
56.7699607448986
20
7.0792162825015
30
0
41
1
10
56.7699607449029
20
8.1322883766687
30
0
0
SPLINE
5
1C4
100
AcDbEntity
8
1
62
256
6
ByLayer
370
-1
48
1
60
0
100
AcDbSpline
70
4
71
2
72
6
73
3
40
0
40
0
40
0
40
1
40
1
40
1
41
1
10
7.03593212180851
20
1.41175044002497
30
0
41
1
10
7.03593212180854
20
0.525992484800668
30
0
41
1
10
7.03593212180857
20
-0.359765470423639
30
0
0
SPLINE
5
1C5
100
AcDbEntity
8
1
62
256
6
ByLayer
370
-1
48
1
60
0
100
AcDbSpline
70
4
71
3
72
46
73
42
40
0
40
0
40
0
40
0
40
0.0625000000000001
40
0.0625000000000001
40
0.125
40
0.125
40
0.15625
40
0.15625
40
0.1875
40
0.1875
40
0.21875
40
0.21875
40
0.25
40
0.25
40
0.3125
40
0.3125
40
0.34375
40
0.34375
40
0.375
40
0.375
40
0.499999999999999
40
0.499999999999999
40
0.531249999999999
40
0.531249999999999
40
0.5625
40
0.5625
40
0.625
40
0.625
40
0.6875
40
0.6875
40
0.75
40
0.75
40
0.8125
40
0.8125
40
0.875
40
0.875
40
0.9375
40
0.9375
40
0.96875
40
0.96875
40
1
40
1
40
1
40
1
41
1
10
16.5165379060069
20
5.07408478266123
30
0
41
1
10
17.3997923617203
20
4.79376596573852
30
0
41
1
10
18.2816284282198
20
4.49968109459937
30
0
41
1
10
20.0444526553192
20
3.88829331406421
30
0
41
1
10
20.9258766882541
20
3.57198267402012
30
0
41
1
10
22.2477838122225
20
3.08094918514752
30
0
41
1
10
22.6884574960994
20
2.91466425025502
30
0
41
1
10
23.5706719346869
20
2.57872085050732
30
0
41
1
10
24.0124617525003
20
2.40903472070727
30
0
41
1
10
24.8958774751825
20
2.06708528911241
30
0
41
1
10
25.3372814530509
20
1.89476994980146
30
0
41
1
10
26.2190360698075
20
1.54636391774108
30
0
41
1
10
26.6593544198391
20
1.37019097853039
30
0
41
1
10
27.9797497269797
20
0.838471922763375
30
0
41
1
10
28.8594244733239
20
0.480105444768043
30
0
41
1
10
30.1812554391589
20
-0.0553028266233184
30
0
41
1
10
30.6222341556084
20
-0.233456760392045
30
0
41
1
10
31.5050543649219
20
-0.588806350903837
30
0
41
1
10
31.9470733128294
20
-0.766168772614094
30
0
41
1
10
34.1545713208647
20
-1.64927971417882
30
0
41
1
10
35.915248183099
20
-2.34383556810448
30
0
41
1
10
38.1191658976223
20
-3.17333269567328
30
0
41
1
10
38.5600609821687
20
-3.33739567889273
30
0
41
1
10
39.4424931848143
20
-3.66085517718886
30
0
41
1
10
39.8840187246005
20
-3.82013590972986
30
0
41
1
10
41.2072183500398
20
-4.28841288818879
30
0
41
1
10
42.0883635063516
20
-4.58853079159331
30
0
41
1
10
43.8512574554785
20
-5.15964957645014
30
0
41
1
10
44.7329163072329
20
-5.43089602803411
30
0
41
1
10
46.4972126520204
20
-5.9435386127098
30
0
41
1
10
47.3809520621411
20
-6.18500634389792
30
0
41
1
10
49.1438719641142
20
-6.62904215685472
30
0
41
1
10
50.0237339089174
20
-6.83219863061362
30
0
41
1
10
51.7813880258348
20
-7.19949500981835
30
0
41
1
10
52.6595708678014
20
-7.36314274087206
30
0
41
1
10
54.4153943660803
20
-7.64933043745697
30
0
41
1
10
55.2934035968891
20
-7.77137295799346
30
0
41
1
10
56.6130253997272
20
-7.92079634624076
30
0
41
1
10
57.0531836434906
20
-7.96512814183001
30
0
41
1
10
57.9341106416133
20
-8.04267796196888
30
0
41
1
10
58.3748961181228
20
-8.07585948126544
30
0
41
1
10
58.8165379059968
20
-8.10318926416846
30
0
0
SPLINE
5
1C6
100
AcDbEntity
8
1
62
256
6
ByLayer
370
-1
48
1
60
0
100
AcDbSpline
70
4
71
3
72
8
73
4
40
0
40
0
40
0
40
0
40
1
40
1
40
1
40
1
41
1
10
15
20
-5.99418666447059
30
0
41
1
10
14.8427602028406
20
-5.95085333966108
30
0
41
1
10
14.6851637789349
20
-5.91351014495146
30
0
41
1
10
14.5273813558276
20
-5.88208148557189
30
0
0
SPLINE
5
1C7
100
AcDbEntity
8
1
62
256
6
ByLayer
370
-1
48
1
60
0
100
AcDbSpline
70
4
71
3
72
8
73
4
40
0
40
0
40
0
40
0
40
1
40
1
40
1
40
1
41
1
10
61.5608012873261
20
1.48282695076898
30
0
41
1
10
61.2070735035601
20
1.37769981877861
30
0
41
1
10
60.8468285922395
20
1.30611838332376
30
0
41
1
10
60.4925067826678
20
1.26513670530474
30
0
0
SPLINE
5
1C8
100
AcDbEntity
8
1
62
256
6
ByLayer
370
-1
48
1
60
0
100
AcDbSpline
70
4
71
3
72
8
73
4
40
0
40
0
40
0
40
0
40
1
40
1
40
1
40
1
41
1
10
14.40752739203
20
-5.3575438121656
30
0
41
1
10
14.4473244404812
20
-5.36826233958146
30
0
41
1
10
14.4872842238024
20
-5.37894383769185
30
0
41
1
10
14.5273813558737
20
-5.38959064729946
30
0
0
SPLINE
5
1C9
100
AcDbEntity
8
1
62
256
6
ByLayer
370
-1
48
1
60
0
100
AcDbSpline
70
4
71
3
72
8
73
4
40
0
40
0
40
0
40
0
40
1
40
1
40
1
40
1
41
1
10
61.7984298991117
20
-8.19793794169004
30
0
41
1
10
61.8130287336709
20
-8.19803404818873
30
0
41
1
10
61.8276059737294
20
-8.19812846176902
30
0
41
1
10
61.8421604838084
20
-8.19822082084855
30
0
0
SPLINE
5
1CA
100
AcDbEntity
8
1
62
256
6
ByLayer
370
-1
48
1
60
0
100
AcDbSpline
70
4
71
3
72
26
73
22
40
0
40
0
40
0
40
0
40
0.131373076297951
40
0.131373076297951
40
0.262746152595903
40
0.262746152595903
40
0.394119228893854
40
0.394119228893854
40
0.459805767042829
40
0.459805767042829
40
0.525492305191805
40
0.525492305191805
40
0.656865381489756
40
0.656865381489756
40
0.788238457787708
40
0.788238457787708
40
0.91961153408566
40
0.91961153408566
40
0.985298072234636
40
0.985298072234636
40
1
40
1
40
1
40
1
41
1
10
15
20
-5.99418666447059
30
0
41
1
10
16.3713599026081
20
-6.37211633090374
30
0
41
1
10
17.735374563548
20
-6.70732457341776
30
0
41
1
10
20.4567235175275
20
-7.28164967962536
30
0
41
1
10
21.8141062842398
20
-7.52071663295038
30
0
41
1
10
24.5301385139615
20
-7.89498926360358
30
0
41
1
10
25.8887308136119
20
-8.03029934275835
30
0
41
1
10
27.9328348118924
20
-8.15147683315567
30
0
41
1
10
28.6152489071549
20
-8.17823999021246
30
0
41
1
10
29.9831375003134
20
-8.20395846751498
30
0
41
1
10
30.6696292667061
20
-8.20286037873564
30
0
41
1
10
32.7222578073412
20
-8.1577134533099
30
0
41
1
10
34.0845295447895
20
-8.07203282249728
30
0
41
1
10
36.803812550932
20
-7.79423662952959
30
0
41
1
10
38.1607540123877
20
-7.6020002913757
30
0
41
1
10
40.8771996199691
20
-7.11780567457188
30
0
41
1
10
42.2367483452784
20
-6.82591363799691
30
0
41
1
10
44.2838777122409
20
-6.32038700425756
30
0
41
1
10
44.9675489343137
20
-6.14060955346338
30
0
41
1
10
45.8063501162687
20
-5.90750156663646
30
0
41
1
10
45.9597353707204
20
-5.86436130160817
30
0
41
1
10
46.113091428845
20
-5.82072749013642
30
0
0
SPLINE
5
1CB
100
AcDbEntity
8
1
62
256
6
ByLayer
370
-1
48
1
60
0
100
AcDbSpline
70
4
71
3
72
10
73
6
40
0
40
0
40
0
40
0
40
0.5
40
0.5
40
1
40
1
40
1
40
1
41
1
10
13.228922261061
20
-4.84766419529811
30
0
41
1
10
13.4078701636251
20
-4.96376322914244
30
0
41
1
10
13.5954386748218
20
-5.06410690968593
30
0
41
1
10
13.98805765395
20
-5.23418354914517
30
0
41
1
10
14.1934495868733
20
-5.30401279850994
30
0
41
1
10
14.40752739203
20
-5.35754381216563
30
0
0
SPLINE
5
1CC
100
AcDbEntity
8
1
62
256
6
ByLayer
370
-1
48
1
60
0
100
AcDbSpline
70
4
71
3
72
8
73
4
40
0
40
0
40
0
40
0
40
1
40
1
40
1
40
1
41
1
10
56.7699607448634
20
8.13228837666753
30
0
41
1
10
57.0797577468613
20
8.14132261970238
30
0
41
1
10
57.3730097050058
20
8.15484896599099
30
0
41
1
10
57.65036288992
20
8.16799115880241
30
0
0
SPLINE
5
1CD
100
AcDbEntity
8
1
62
256
6
ByLayer
370
-1
48
1
60
0
100
AcDbSpline
70
4
71
3
72
14
73
10
40
0
40
0
40
0
40
0
40
0.0705200632888079
40
0.0705200632888079
40
0.380346708859205
40
0.380346708859205
40
0.690173354429603
40
0.690173354429603
40
1
40
1
40
1
40
1
41
1
10
67.7540845935373
20
2.51895643452318
30
0
41
1
10
67.7536123671471
20
2.51153782542644
30
0
41
1
10
67.7531107031065
20
2.50432330170801
30
0
41
1
10
67.7502732464136
20
2.46650451669703
30
0
41
1
10
67.747431810209
20
2.43957463303343
30
0
41
1
10
67.7413064487655
20
2.39652236534261
30
0
41
1
10
67.7379604802245
20
2.37985370272796
30
0
41
1
10
67.7310228246314
20
2.35743333284111
30
0
41
1
10
67.7274912645252
20
2.35177645754118
30
0
41
1
10
67.7239517498996
20
2.35174374184726
30
0
0
SPLINE
5
1CE
100
AcDbEntity
8
1
62
256
6
ByLayer
370
-1
48
1
60
0
100
AcDbSpline
70
4
71
3
72
79
73
75
40
0
40
0
40
0
40
0
40
0.0017245864916082
40
0.0039792263717356
40
0.0084885061319906
40
0.0129977858922455
40
0.0220163454127554
40
0.0310349049332654
40
0.067109143015305
40
0.139257619179384
40
0.211406095343463
40
0.220424654863973
40
0.224933934624228
40
0.22831589444442
40
0.229443214384483
40
0.231697854264611
40
0.233952494144738
40
0.237334453964929
40
0.238461773904993
40
0.240716413785121
40
0.242971053665248
40
0.247480333425503
40
0.249734973305631
40
0.256498892946013
40
0.265517452466523
40
0.283554571507543
40
0.292573131028053
40
0.319628809589582
40
0.355703047671622
40
0.391777285753662
40
0.409814404794682
40
0.427851523835701
40
0.445888642876721
40
0.463925761917741
40
0.481962880958761
40
0.499999999999781
40
0.5180371190408
40
0.53607423808182
40
0.55411135712284
40
0.57214847616386
40
0.590185595204878
40
0.608222714245899
40
0.626259833286919
40
0.644296952327939
40
0.662334071368959
40
0.680371190409981
40
0.716445428492018
40
0.725463988012527
40
0.734482547533039
40
0.751392346633994
40
0.752519666574058
40
0.754774306454186
40
0.757028946334313
40
0.760410906154507
40
0.761538226094568
40
0.763792865974697
40
0.766047505854822
40
0.769429465675016
40
0.770556785615078
40
0.77168410555514
40
0.775066065375335
40
0.779575345135588
40
0.784084624895843
40
0.788593904656098
40
0.824668142738137
40
0.860742380820177
40
0.932890856984256
40
0.968965095066296
40
0.987002214107316
40
0.991511493867571
40
0.994893453687761
40
0.996020773627826
40
0.998275413507953
40
1
40
1
40
1
40
1
41
1
10
63.1379801683353
20
8.28811492951598
30
0
41
1
10
63.137645121577
20
8.28806735303985
30
0
41
1
10
63.1368776235683
20
8.2879579827968
30
0
41
1
10
63.1352629582474
20
8.28772486976797
30
0
41
1
10
63.1331551836934
20
8.28741041579411
30
0
41
1
10
63.1298127698404
20
8.28689106120569
30
0
41
1
10
63.1256009914508
20
8.28620048070479
30
0
41
1
10
63.1154368222527
20
8.28441557641324
30
0
41
1
10
63.0933940527431
20
8.27988429291318
30
0
41
1
10
63.0592509373142
20
8.27034437010732
30
0
41
1
10
63.0304453014974
20
8.25921029575625
30
0
41
1
10
63.0145572056131
20
8.25202489843036
30
0
41
1
10
63.0114288918597
20
8.25057510593925
30
0
41
1
10
63.0097628850385
20
8.2497920561128
30
0
41
1
10
63.0085144508435
20
8.24920056056618
30
0
41
1
10
63.0074747647358
20
8.2487050182221
30
0
41
1
10
63.0060204894103
20
8.24800635344354
30
0
41
1
10
63.0047753703137
20
8.24740224491723
30
0
41
1
10
63.0035314040064
20
8.24679393745461
30
0
41
1
10
63.0024954923064
20
8.24628439095582
30
0
41
1
10
63.000839611573
20
8.24546352259622
30
0
41
1
10
62.9991861387542
20
8.24463426791462
30
0
41
1
10
62.9967096642002
20
8.24337782026987
30
0
41
1
10
62.9934144467073
20
8.24168023017998
30
0
41
1
10
62.987259132207
20
8.23842411100588
30
0
41
1
10
62.9807385395162
20
8.23481747530477
30
0
41
1
10
62.9710331240191
20
8.22920824596446
30
0
41
1
10
62.9582336445649
20
8.22137723537017
30
0
41
1
10
62.9410236256957
20
8.20977860132089
30
0
41
1
10
62.9258515791727
20
8.19839331693956
30
0
41
1
10
62.9140366583004
20
8.18880236948951
30
0
41
1
10
62.9053464911294
20
8.18137327968461
30
0
41
1
10
62.8968370127516
20
8.1737137914175
30
0
41
1
10
62.8885166716979
20
8.16583131116488
30
0
41
1
10
62.880393916499
20
8.15773324540342
30
0
41
1
10
62.8724771956857
20
8.14942700060988
30
0
41
1
10
62.8647749577888
20
8.14091998326089
30
0
41
1
10
62.8572939737882
20
8.13222117015019
30
0
41
1
10
62.8500410146638
20
8.12333953807141
30
0
41
1
10
62.8430228513957
20
8.11428406381822
30
0
41
1
10
62.8362462549637
20
8.10506372418433
30
0
41
1
10
62.8297159977492
20
8.09568858008373
30
0
41
1
10
62.8234368521333
20
8.08616869243048
30
0
41
1
10
62.8174135904973
20
8.07651412213855
30
0
41
1
10
62.8116509852223
20
8.06673493012204
30
0
41
1
10
62.8043185228493
20
8.05354397392765
30
0
41
1
10
62.7983678743747
20
8.04182088732315
30
0
41
1
10
62.7936061496616
20
8.03166973319736
30
0
41
1
10
62.7906184722461
20
8.02508893192399
30
0
41
1
10
62.7884030053269
20
8.01996836548628
30
0
41
1
10
62.7867923912548
20
8.01611636362173
30
0
41
1
10
62.7863476542552
20
8.01504576658832
30
0
41
1
10
62.7857299809584
20
8.01354584134501
30
0
41
1
10
62.7852058604703
20
8.01225904974643
30
0
41
1
10
62.7846859922974
20
8.01097137602045
30
0
41
1
10
62.7842554267882
20
8.00989776970761
30
0
41
1
10
62.7836575976286
20
8.0083937278697
30
0
41
1
10
62.7831504907412
20
8.00710351104348
30
0
41
1
10
62.7827314481575
20
8.00602766410344
30
0
41
1
10
62.7823141789993
20
8.00495148834108
30
0
41
1
10
62.7816522238865
20
8.00322856866072
30
0
41
1
10
62.7807556965522
20
8.00085715471351
30
0
41
1
10
62.7797947055057
20
7.99826733148814
30
0
41
1
10
62.7766482210728
20
7.98962571760086
30
0
41
1
10
62.7717340403859
20
7.97487133390754
30
0
41
1
10
62.7639223053089
20
7.94699064981577
30
0
41
1
10
62.758243291835
20
7.91910623433958
30
0
41
1
10
62.7550497639506
20
7.8949948361288
30
0
41
1
10
62.7539621123681
20
7.8838403075604
30
0
41
1
10
62.7535553530904
20
7.8789769049155
30
0
41
1
10
62.7534218435371
20
7.87727262768101
30
0
41
1
10
62.7533247822513
20
7.87598217347443
30
0
41
1
10
62.7532531776089
20
7.87499969960629
30
0
41
1
10
62.753198026914
20
7.87422351732548
30
0
41
1
10
62.753174118614
20
7.87388469125031
30
0
0
SPLINE
5
1CF
100
AcDbEntity
8
1
62
256
6
ByLayer
370
-1
48
1
60
0
100
AcDbSpline
70
4
71
3
72
22
73
18
40
0
40
0
40
0
40
0
40
0.017823403922487
40
0.0278216291116023
40
0.0378198543007176
40
0.112806543219083
40
0.187793232137448
40
0.337766609974178
40
0.497738213000023
40
0.657709816025868
40
0.817681419051713
40
0.897667220564636
40
0.977653022077559
40
0.982652134672116
40
0.987651247266674
40
0.997649472455789
40
1
40
1
40
1
40
1
41
1
10
63.2741686035076
20
8.30732633313477
30
0
41
1
10
63.2733591146324
20
8.30721323255364
30
0
41
1
10
63.2720955865216
20
8.30703580154437
30
0
41
1
10
63.2703779236522
20
8.30679373287842
30
0
41
1
10
63.2660640222505
20
8.30618500171121
30
0
41
1
10
63.2587985086111
20
8.30515983370125
30
0
41
1
10
63.2451756817314
20
8.30323780109049
30
0
41
1
10
63.2276930682685
20
8.30077139458024
30
0
41
1
10
63.206350657028
20
8.29776045676252
30
0
41
1
10
63.1845541519314
20
8.29468545643806
30
0
41
1
10
63.1663903976842
20
8.29212295616765
30
0
41
1
10
63.1518088437908
20
8.29006415057214
30
0
41
1
10
63.144336374944
20
8.28901061690289
30
0
41
1
10
63.1402922612043
20
8.28844149763916
30
0
41
1
10
63.1393963687246
20
8.28831532698607
30
0
41
1
10
63.1386253445282
20
8.28820646121838
30
0
41
1
10
63.1380831452926
20
8.28812955219365
30
0
41
1
10
63.1379801683353
20
8.28811492951598
30
0
0
SPLINE
5
1D0
100
AcDbEntity
8
1
62
256
6
ByLayer
370
-1
48
1
60
0
100
AcDbSpline
70
4
71
3
72
8
73
4
40
0
40
0
40
0
40
0
40
1
40
1
40
1
40
1
41
1
10
63.5977287253313
20
2.43901427897126
30
0
41
1
10
63.5857238593484
20
2.43859345846443
30
0
41
1
10
63.5737182305593
20
2.43819456531014
30
0
41
1
10
63.5617119184625
20
2.43781760214983
30
0
0
SPLINE
5
1D1
100
AcDbEntity
8
1
62
256
6
ByLayer
370
-1
48
1
60
0
100
AcDbSpline
70
4
71
3
72
22
73
18
40
0
40
0
40
0
40
0
40
0.0023505275439775
40
0.012348752733096
40
0.0223469779222145
40
0.0623398786786883
40
0.102332779435153
40
0.18231858094811
40
0.262304382461053
40
0.342290183974005
40
0.662233390025796
40
0.812206767862573
40
0.957493477641937
40
0.96218014569935
40
0.972178370888464
40
0.982176596077587
40
1
40
1
40
1
40
1
41
1
10
63.3411160834188
20
2.44884322255868
30
0
41
1
10
63.3412198256744
20
2.44883584624961
30
0
41
1
10
63.3417660486272
20
2.44879709095167
30
0
41
1
10
63.3427665837381
20
2.44872674250917
30
0
41
1
10
63.345481199589
20
2.44853717031691
30
0
41
1
10
63.3495719972555
20
2.44825087275382
30
0
41
1
10
63.3568826641036
20
2.44773798069883
30
0
41
1
10
63.3660633531542
20
2.44709251364273
30
0
41
1
10
63.3770546603889
20
2.44632057529333
30
0
41
1
10
63.3990117552322
20
2.44477932071237
30
0
41
1
10
63.4241709264069
20
2.44301329983838
30
0
41
1
10
63.4523177491586
20
2.44103756398562
30
0
41
1
10
63.466040962449
20
2.44007407480669
30
0
41
1
10
63.4733600250111
20
2.43956010454281
30
0
41
1
10
63.4744893337298
20
2.43948079885865
30
0
41
1
10
63.4762196340596
20
2.43935959565036
30
0
41
1
10
63.4774924141428
20
2.43927107279728
30
0
41
1
10
63.4783077906196
20
2.43921493050803
30
0
0
SPLINE
5
1D2
100
AcDbEntity
8
1
62
256
6
ByLayer
370
-1
48
1
60
0
100
AcDbSpline
70
4
71
3
72
23
73
19
40
0
40
0
40
0
40
0
40
0.0365499079217281
40
0.0695172064382563
40
0.102484504954785
40
0.135451803471313
40
0.168419101987841
40
0.234353699020897
40
0.300288296053939
40
0.36622289308701
40
0.498092087153123
40
0.629961281219228
40
0.761830475285349
40
0.827765072318401
40
0.893699669351462
40
0.92666696786799
40
0.959634266384518
40
1
40
1
40
1
40
1
41
1
10
62.7435824651215
20
7.73616893401592
30
0
41
1
10
62.7435128987214
20
7.73515086050207
30
0
41
1
10
62.7433822504773
20
7.73321452290983
30
0
41
1
10
62.7431974452205
20
7.73035964431713
30
0
41
1
10
62.7430280570313
20
7.72760394834853
30
0
41
1
10
62.7428694423431
20
7.72484726308451
30
0
41
1
10
62.7426718076321
20
7.72117051833325
30
0
41
1
10
62.7424497737655
20
7.71657269413581
30
0
41
1
10
62.7422202695923
20
7.71105320385394
30
0
41
1
10
62.7419640211959
20
7.7036915548027
30
0
41
1
10
62.7417379589127
20
7.69448601406816
30
0
41
1
10
62.7416205325846
20
7.68343663602093
30
0
41
1
10
62.7416485366238
20
7.67422896496976
30
0
41
1
10
62.7417450468245
20
7.66686436549756
30
0
41
1
10
62.7418386455689
20
7.6622628520019
30
0
41
1
10
62.7419349336649
20
7.65858289027256
30
0
41
1
10
62.742022325865
20
7.65561679331265
30
0
41
1
10
62.742088785688
20
7.6535705833854
30
0
41
1
10
62.7421264545083
20
7.65244420655628
30
0
0
SPLINE
5
1D3
100
AcDbEntity
8
1
62
256
6
ByLayer
370
-1
48
1
60
0
100
AcDbSpline
70
4
71
3
72
22
73
18
40
0
40
0
40
0
40
0
40
0.0023505275440251
40
0.0123487527331431
40
0.022346977922261
40
0.0623398786787328
40
0.102332779435196
40
0.182318580948148
40
0.262304382461087
40
0.342290183974035
40
0.662233390025809
40
0.812206767862578
40
0.957493477641935
40
0.962180145699348
40
0.972178370888461
40
0.982176596077583
40
1
40
1
40
1
40
1
41
1
10
62.753174118614
20
7.87388469125054
30
0
41
1
10
62.753166770374
20
7.8737805527164
30
0
41
1
10
62.7531281625517
20
7.87323224328063
30
0
41
1
10
62.7530580818063
20
7.87222788628813
30
0
41
1
10
62.7528692309934
20
7.86950290104571
30
0
41
1
10
62.752584022879
20
7.86539647719678
30
0
41
1
10
62.7520730825331
20
7.85805788478893
30
0
41
1
10
62.7514300716741
20
7.84884212699762
30
0
41
1
10
62.7506610707831
20
7.8378088347549
30
0
41
1
10
62.7491256811412
20
7.81576786737631
30
0
41
1
10
62.7473663805098
20
7.79051259225503
30
0
41
1
10
62.7453981629284
20
7.7622582532131
30
0
41
1
10
62.7444383401167
20
7.7484826194773
30
0
41
1
10
62.7439263256648
20
7.74113559928531
30
0
41
1
10
62.7438473217628
20
7.74000197679072
30
0
41
1
10
62.7437265797693
20
7.73826506699479
30
0
41
1
10
62.7436383937724
20
7.73698742509836
30
0
41
1
10
62.7435824651215
20
7.73616893401595
30
0
0
SPLINE
5
1D4
100
AcDbEntity
8
1
62
256
6
ByLayer
370
-1
48
1
60
0
100
AcDbSpline
70
4
71
3
72
8
73
4
40
0
40
0
40
0
40
0
40
1
40
1
40
1
40
1
41
1
10
68.5965705258548
20
7.85766671477396
30
0
41
1
10
68.5970334315444
20
7.84561756467608
30
0
41
1
10
68.5974744961019
20
7.83356756906036
30
0
41
1
10
68.5978937166067
20
7.82151680771966
30
0
0
SPLINE
5
1D5
100
AcDbEntity
8
1
62
256
6
ByLayer
370
-1
48
1
60
0
100
AcDbSpline
70
4
71
3
72
22
73
18
40
0
40
0
40
0
40
0
40
0.0178234039224877
40
0.0278216291116034
40
0.0378198543007192
40
0.112806543219087
40
0.187793232137455
40
0.337766609974191
40
0.497738213000043
40
0.657709816025895
40
0.817681419051747
40
0.897667220564673
40
0.977653022077598
40
0.982652134672156
40
0.987651247266714
40
0.99764947245583
40
1
40
1
40
1
40
1
41
1
10
68.2245191465639
20
2.60558938826969
30
0
41
1
10
68.2253286354391
20
2.60570248885085
30
0
41
1
10
68.2265921635499
20
2.60587991986012
30
0
41
1
10
68.2283098264193
20
2.60612198852604
30
0
41
1
10
68.2326237278211
20
2.60673071969328
30
0
41
1
10
68.2398892414604
20
2.60775588770324
30
0
41
1
10
68.2535120683401
20
2.60967792031397
30
0
41
1
10
68.270994681803
20
2.61214432682422
30
0
41
1
10
68.2923370930434
20
2.61515526464194
30
0
41
1
10
68.3141335981401
20
2.61823026496643
30
0
41
1
10
68.3322973523873
20
2.62079276523681
30
0
41
1
10
68.3468789062807
20
2.62285157083232
30
0
41
1
10
68.3543513751275
20
2.62390510450157
30
0
41
1
10
68.3583954888672
20
2.62447422376533
30
0
41
1
10
68.3592913813469
20
2.62460039441842
30
0
41
1
10
68.3600624055433
20
2.62470926018611
30
0
41
1
10
68.3606046047789
20
2.62478616921084
30
0
41
1
10
68.3607075817362
20
2.6248007918885
30
0
0
SPLINE
5
1D6
100
AcDbEntity
8
1
62
256
6
ByLayer
370
-1
48
1
60
0
100
AcDbSpline
70
4
71
3
72
22
73
18
40
0
40
0
40
0
40
0
40
0.0178234039225402
40
0.0278216291116548
40
0.0378198543007694
40
0.112806543219129
40
0.187793232137488
40
0.337766609974207
40
0.497738213000041
40
0.657709816025875
40
0.817681419051708
40
0.897667220564625
40
0.977653022077542
40
0.982652134672099
40
0.987651247266656
40
0.997649472455771
40
1
40
1
40
1
40
1
41
1
10
62.9093238178415
20
2.97182782174551
30
0
41
1
10
62.9094364880409
20
2.97101524075436
30
0
41
1
10
62.9096132438715
20
2.96974688617146
30
0
41
1
10
62.9098543913931
20
2.96802266210889
30
0
41
1
10
62.9104608061544
20
2.96369228230464
30
0
41
1
10
62.9114820730907
20
2.95639901558343
30
0
41
1
10
62.913396791787
20
2.94272415171824
30
0
41
1
10
62.9158538128759
20
2.92517475751205
30
0
41
1
10
62.9188532931662
20
2.9037508217279
30
0
41
1
10
62.9219165921861
20
2.8818710575228
30
0
41
1
10
62.9244693413693
20
2.86363792068522
30
0
41
1
10
62.9265203125879
20
2.84900066762475
30
0
41
1
10
62.9275698372435
20
2.84149965516099
30
0
41
1
10
62.9281367908366
20
2.83744009356377
30
0
41
1
10
62.9282624813723
20
2.8365407789203
30
0
41
1
10
62.9283709328728
20
2.83576680953678
30
0
41
1
10
62.9284475492356
20
2.83522253918815
30
0
41
1
10
62.9284621162695
20
2.83511916887556
30
0
0
SPLINE
5
1D7
100
AcDbEntity
8
1
62
256
6
ByLayer
370
-1
48
1
60
0
100
AcDbSpline
70
4
71
3
72
22
73
18
40
0
40
0
40
0
40
0
40
0.0178234039225271
40
0.0278216291116421
40
0.037819854300757
40
0.112806543219119
40
0.187793232137481
40
0.337766609974204
40
0.497738213000043
40
0.657709816025882
40
0.817681419051721
40
0.89766722056464
40
0.977653022077559
40
0.982652134672117
40
0.987651247266674
40
0.997649472455789
40
1
40
1
40
1
40
1
41
1
10
68.58936393223
20
7.94108789965895
30
0
41
1
10
68.5892512620306
20
7.94190048065013
30
0
41
1
10
68.5890745062
20
7.94316883523302
30
0
41
1
10
68.5888333586784
20
7.94489305929559
30
0
41
1
10
68.5882269439171
20
7.94922343909985
30
0
41
1
10
68.5872056769808
20
7.95651670582103
30
0
41
1
10
68.5852909582845
20
7.97019156968625
30
0
41
1
10
68.5828339371956
20
7.98774096389241
30
0
41
1
10
68.5798344569054
20
8.00916489967659
30
0
41
1
10
68.5767711578854
20
8.03104466388169
30
0
41
1
10
68.5742184087022
20
8.04927780071927
30
0
41
1
10
68.5721674374836
20
8.06391505377974
30
0
41
1
10
68.571117912828
20
8.0714160662435
30
0
41
1
10
68.5705509592349
20
8.07547562784069
30
0
41
1
10
68.5704252686992
20
8.07637494248419
30
0
41
1
10
68.5703168171987
20
8.07714891186771
30
0
41
1
10
68.570240200836
20
8.07769318221634
30
0
41
1
10
68.570225633802
20
8.07779655252889
30
0
0
SPLINE
5
1D8
100
AcDbEntity
8
1
62
256
6
ByLayer
370
-1
48
1
60
0
100
AcDbSpline
70
4
71
3
72
8
73
4
40
0
40
0
40
0
40
0
40
1
40
1
40
1
40
1
41
1
10
67.9009590247402
20
8.4739014424332
30
0
41
1
10
67.9129638907231
20
8.47432226294006
30
0
41
1
10
67.9249695195122
20
8.47472115609435
30
0
41
1
10
67.9369758316089
20
8.47509811925465
30
0
0
SPLINE
5
1D9
100
AcDbEntity
8
1
62
256
6
ByLayer
370
-1
48
1
60
0
100
AcDbSpline
70
4
71
3
72
153
73
149
40
0
40
0
40
0
40
0
40
0.125
40
0.25
40
0.375
40
0.3828125
40
0.390625
40
0.398193359375
40
0.4019775390625
40
0.405643463134766
40
0.40576171875
40
0.406005859375
40
0.40625
40
0.4072265625
40
0.40771484375
40
0.408203125
40
0.4091796875
40
0.41015625
40
0.412109375
40
0.4140625
40
0.416015625
40
0.4169921875
40
0.41796875
40
0.4189453125
40
0.41943359375
40
0.419921875
40
0.42041015625
40
0.4208984375
40
0.421875
40
0.422119140625
40
0.42236328125
40
0.422477722167969
40
0.426025390625
40
0.4296875
40
0.4375
40
0.439453125
40
0.44140625
40
0.443359375
40
0.4443359375
40
0.4453125
40
0.445556640625
40
0.44580078125
40
0.446044921875
40
0.4462890625
40
0.4464111328125
40
0.44677734375
40
0.447265625
40
0.44921875
40
0.453125
40
0.4609375
40
0.46484375
40
0.46875
40
0.46923828125
40
0.4697265625
40
0.47021484375
40
0.4705810546875
40
0.470703125
40
0.4708251953125
40
0.47119140625
40
0.471435546875
40
0.4716796875
40
0.4718017578125
40
0.47216796875
40
0.472412109375
40
0.47265625
40
0.4727783203125
40
0.474609375
40
0.4755859375
40
0.4765625
40
0.48046875
40
0.482421875
40
0.484375
40
0.486328125
40
0.48828125
40
0.490234375
40
0.4921875
40
0.494140625
40
0.49609375
40
0.498046875
40
0.5
40
0.501953125
40
0.50390625
40
0.505859375
40
0.5078125
40
0.509765625
40
0.51171875
40
0.515625
40
0.51953125
40
0.5224609375
40
0.5234375
40
0.525390625
40
0.5263671875
40
0.527099609375
40
0.52734375
40
0.52783203125
40
0.528076171875
40
0.5283203125
40
0.5284423828125
40
0.52880859375
40
0.529052734375
40
0.529296875
40
0.5294189453125
40
0.52978515625
40
0.5302734375
40
0.53125
40
0.5390625
40
0.546875
40
0.55078125
40
0.5517578125
40
0.552734375
40
0.55322265625
40
0.5537109375
40
0.553955078125
40
0.55419921875
40
0.554443359375
40
0.5545654296875
40
0.5546875
40
0.556640625
40
0.55859375
40
0.5625
40
0.56640625
40
0.5703125
40
0.573974609375
40
0.5758056640625
40
0.57763671875
40
0.577880859375
40
0.578125
40
0.5791015625
40
0.57958984375
40
0.580078125
40
0.5810546875
40
0.58203125
40
0.5859375
40
0.587890625
40
0.58984375
40
0.5908203125
40
0.591796875
40
0.5927734375
40
0.59375
40
0.593994140625
40
0.59423828125
40
0.594380187988281
40
0.601806640625
40
0.609375
40
0.625
40
0.75
40
0.875
40
1
40
1
40
1
40
1
41
1
10
65.806160924835
20
3.33524727126283
30
0
41
1
10
65.6327367168527
20
3.32916803112752
30
0
41
1
10
65.285888300888
20
3.31700955085685
30
0
41
1
10
64.7656156769409
20
3.29877183045088
30
0
41
1
10
64.4079282479773
20
3.28623339767177
30
0
41
1
10
64.2128260139972
20
3.27939425251952
30
0
41
1
10
64.1806476941567
20
3.27826626851004
30
0
41
1
10
64.1540582403938
20
3.27733419751271
30
0
41
1
10
64.1332217197997
20
3.27660379076184
30
0
41
1
10
64.122721425957
20
3.27623571176926
30
0
41
1
10
64.1171325598795
20
3.2760397987571
30
0
41
1
10
64.1162910544758
20
3.27601030049107
30
0
41
1
10
64.1142587395385
20
3.27593905939571
30
0
41
1
10
64.1118877054449
20
3.2758559447845
30
0
41
1
10
64.1091779521952
20
3.27576095665739
30
0
41
1
10
64.1064681989455
20
3.27566596853026
30
0
41
1
10
64.1030810073834
20
3.27554723337138
30
0
41
1
10
64.0976615008839
20
3.27535725711715
30
0
41
1
10
64.0908871177596
20
3.27511978679936
30
0
41
1
10
64.0827578580104
20
3.27483482241803
30
0
41
1
10
64.0759834748861
20
3.27459735210022
30
0
41
1
10
64.0705639683867
20
3.27440737584601
30
0
41
1
10
64.0664993385121
20
3.27426489365533
30
0
41
1
10
64.0631121469499
20
3.27414615849642
30
0
41
1
10
64.0604023937002
20
3.27405117036932
30
0
41
1
10
64.0583700787629
20
3.27397992927399
30
0
41
1
10
64.0563377638256
20
3.27390868817864
30
0
41
1
10
64.0536280105759
20
3.27381370005153
30
0
41
1
10
64.0512569764824
20
3.27373058544032
30
0
41
1
10
64.0492246615451
20
3.27365934434496
30
0
41
1
10
64.0483884486282
20
3.27363003160264
30
0
41
1
10
64.0429689421287
20
3.2734400553484
30
0
41
1
10
64.0328073674423
20
3.27308384987171
30
0
41
1
10
64.0119655543614
20
3.27235325759716
30
0
41
1
10
63.9933360007696
20
3.27170021422325
30
0
41
1
10
63.9770774812712
20
3.27113028546054
30
0
41
1
10
63.9689480240297
20
3.27084530727433
30
0
41
1
10
63.9621731471744
20
3.27060780244435
30
0
41
1
10
63.9567529494517
20
3.27041777787306
30
0
41
1
10
63.9537039586283
20
3.27031087999225
30
0
41
1
10
63.951671236363
20
3.27023961042434
30
0
41
1
10
63.9506548625013
20
3.27020397475064
30
0
41
1
10
63.949638475525
20
3.2701683381602
30
0
41
1
10
63.9487914751276
20
3.27013864021507
30
0
41
1
10
63.9477750642361
20
3.27010300195295
30
0
41
1
10
63.9464198309421
20
3.27005548295793
30
0
41
1
10
63.9425234368935
20
3.269918858974
30
0
41
1
10
63.9337135295809
20
3.26960992323163
30
0
41
1
10
63.9147341972603
20
3.26894423326871
30
0
41
1
10
63.8930308922396
20
3.26818256122752
30
0
41
1
10
63.8713604251653
20
3.26742318458551
30
0
41
1
10
63.859867672938
20
3.26702114163052
30
0
41
1
10
63.8531164080378
20
3.26678528729542
30
0
41
1
10
63.8510889810366
20
3.26671438787079
30
0
41
1
10
63.8492261916259
20
3.26664909513335
30
0
41
1
10
63.847861825767
20
3.26660093776459
30
0
41
1
10
63.8470038263563
20
3.2665704709795
30
0
41
1
10
63.8461428851322
20
3.26653979855925
30
0
41
1
10
63.8451079559645
20
3.26650291338277
30
0
41
1
10
63.8439209293993
20
3.26646158325803
30
0
41
1
10
63.8430934729209
20
3.26643372673081
30
0
41
1
10
63.8421267938024
20
3.26640242026778
30
0
41
1
10
63.8411902327633
20
3.26637433769702
30
0
41
1
10
63.84012003319
20
3.26634800607977
30
0
41
1
10
63.8393602583449
20
3.26633353185619
30
0
41
1
10
63.8366155525646
20
3.26629490594965
30
0
41
1
10
63.8328897385193
20
3.26633944228706
30
0
41
1
10
63.8279951123304
20
3.26658003778394
30
0
41
1
10
63.8203513319165
20
3.26715249247152
30
0
41
1
10
63.8113123772226
20
3.26841141379333
30
0
41
1
10
63.8009230079962
20
3.27071703285716
30
0
41
1
10
63.7931281876237
20
3.27289373774172
30
0
41
1
10
63.785357347991
20
3.27553199788028
30
0
41
1
10
63.7776550055649
20
3.27863138325875
30
0
41
1
10
63.7700656768122
20
3.28219146386323
30
0
41
1
10
63.7626287115918
20
3.28620527029304
30
0
41
1
10
63.7553834597626
20
3.29066583314767
30
0
41
1
10
63.7483684244486
20
3.29555651036762
30
0
41
1
10
63.7416221087732
20
3.30086065989343
30
0
41
1
10
63.7351786997156
20
3.30655298029873
30
0
41
1
10
63.7290723842546
20
3.31260817015721
30
0
41
1
10
63.7233306909015
20
3.31899376043535
30
0
41
1
10
63.7179811481679
20
3.32567728209975
30
0
41
1
10
63.7130429802422
20
3.33262133999227
30
0
41
1
10
63.7085354113132
20
3.33978853895485
30
0
41
1
10
63.703112345903
20
3.34959043528127
30
0
41
1
10
63.6974583660058
20
3.36220606942544
30
0
41
1
10
63.6929146769249
20
3.37628937094181
30
0
41
1
10
63.6906200129288
20
3.38653323265368
30
0
41
1
10
63.6893136382684
20
3.39417506676665
30
0
41
1
10
63.6886470061605
20
3.39924214373215
30
0
41
1
10
63.6882115375693
20
3.40392238748098
30
0
41
1
10
63.68803792906
20
3.4063897924276
30
0
41
1
10
63.6879327538317
20
3.40822581643863
30
0
41
1
10
63.6878751357766
20
3.40944219776949
30
0
41
1
10
63.6878241347575
20
3.41069003208645
30
0
41
1
10
63.6877937908588
20
3.41149117720849
30
0
41
1
10
63.687757653921
20
3.41247900409817
30
0
41
1
10
63.6877218389375
20
3.4134968044612
30
0
41
1
10
63.6876803243707
20
3.41470477581021
30
0
41
1
10
63.6876507489886
20
3.41557052017001
30
0
41
1
10
63.6876152600726
20
3.41660408503904
30
0
41
1
10
63.6875679439742
20
3.41797368562001
30
0
41
1
10
63.6874792315383
20
3.42052355547492
30
0
41
1
10
63.6870297682212
20
3.43339790100995
30
0
41
1
10
63.686225447265
20
3.45649900122021
30
0
41
1
10
63.6852791713747
20
3.48373183817998
30
0
41
1
10
63.6846640950374
20
3.50142284840939
30
0
41
1
10
63.6843802140824
20
3.50958643960263
30
0
41
1
10
63.6842619304171
20
3.51298770822532
30
0
41
1
10
63.6841673035207
20
3.51570859891922
30
0
41
1
10
63.6841081617247
20
3.51740910643872
30
0
41
1
10
63.684060848296
20
3.51876948450837
30
0
41
1
10
63.6840253632285
20
3.51978975447577
30
0
41
1
10
63.683995792342
20
3.52063996845135
30
0
41
1
10
63.6839721356347
20
3.5213201332275
30
0
41
1
10
63.6838656804573
20
3.52438085579857
30
0
41
1
10
63.6836705127159
20
3.5299918901847
30
0
41
1
10
63.6832920058114
20
3.54087310135967
30
0
41
1
10
63.6828188724683
20
3.55447362169426
30
0
41
1
10
63.6822511124566
20
3.5707942460958
30
0
41
1
10
63.6816951807785
20
3.58677485748893
30
0
41
1
10
63.6812397899358
20
3.59986535831101
30
0
41
1
10
63.6808849399286
20
3.61006574856196
30
0
41
1
10
63.6806956865913
20
3.61550595669579
30
0
41
1
10
63.6805833174223
20
3.61873608027526
30
0
41
1
10
63.6805123474209
20
3.62077615832544
30
0
41
1
10
63.6804295490858
20
3.62315624938401
30
0
41
1
10
63.6803349224172
20
3.62587635345093
30
0
41
1
10
63.6802402957486
20
3.62859645751786
30
0
41
1
10
63.6801220124128
20
3.63199658760149
30
0
41
1
10
63.679838132407
20
3.64015689980226
30
0
41
1
10
63.6795069390668
20
3.64967726403648
30
0
41
1
10
63.6791284323924
20
3.66055768030418
30
0
41
1
10
63.6788918657209
20
3.66735794047148
30
0
41
1
10
63.6787026123836
20
3.67279814860532
30
0
41
1
10
63.6785606723807
20
3.6768783047057
30
0
41
1
10
63.6784187323778
20
3.68095846080607
30
0
41
1
10
63.6783122773756
20
3.68401857788135
30
0
41
1
10
63.6782413073742
20
3.68605865593156
30
0
41
1
10
63.6782107754881
20
3.68693631450938
30
0
41
1
10
63.6778322688136
20
3.69781673077708
30
0
41
1
10
63.6770989121319
20
3.7188975372957
30
0
41
1
10
63.6756154173201
20
3.76154154378861
30
0
41
1
10
63.6684356188391
20
3.9679294398662
30
0
41
1
10
63.6555663919077
20
4.33786359296741
30
0
41
1
10
63.637398071534
20
4.8601235738162
30
0
41
1
10
63.6252858579515
20
5.20829689438204
30
0
41
1
10
63.6192297511603
20
5.38238355466495
30
0
0
SPLINE
5
1DA
100
AcDbEntity
8
1
62
256
6
ByLayer
370
-1
48
1
60
0
100
AcDbSpline
70
4
71
3
72
48
73
44
40
0
40
0
40
0
40
0
40
0.015625
40
0.0234375
40
0.02734375
40
0.029296875
40
0.0302734375
40
0.03125
40
0.03173828125
40
0.046875
40
0.0625
40
0.125
40
0.1875
40
0.25
40
0.3125
40
0.375
40
0.390625
40
0.40625
40
0.4140625
40
0.421875
40
0.4375
40
0.5
40
0.5625
40
0.59375
40
0.6015625
40
0.60546875
40
0.609375
40
0.6171875
40
0.625
40
0.65625
40
0.671875
40
0.6796875
40
0.6875
40
0.71875
40
0.75
40
0.78125
40
0.7890625
40
0.79296875
40
0.796875
40
0.8046875
40
0.8125
40
0.875
40
1
40
1
40
1
40
1
41
1
10
67.8455072366314
20
5.53053216673945
30
0
41
1
10
67.8499993019283
20
5.5306896323203
30
0
41
1
10
67.8569421492973
20
5.53093014831771
30
0
41
1
10
67.8647222531419
20
5.53119459908388
30
0
41
1
10
67.8684556417202
20
5.53132021608002
30
0
41
1
10
67.8702674465225
20
5.53138084941503
30
0
41
1
10
67.8712972607323
20
5.53141522047619
30
0
41
1
10
67.8719416393324
20
5.53143671558607
30
0
41
1
10
67.8763341073489
20
5.5315832827491
30
0
41
1
10
67.8846019588214
20
5.5318591617617
30
0
41
1
10
67.9092763280596
20
5.53268248818995
30
0
41
1
10
67.9464816596858
20
5.53392394374671
30
0
41
1
10
67.9960887685208
20
5.53557921782237
30
0
41
1
10
68.0456958773558
20
5.53723449189803
30
0
41
1
10
68.0953029861909
20
5.53888976597369
30
0
41
1
10
68.1324984204769
20
5.54013088246771
30
0
41
1
10
68.1573217695747
20
5.540959197631
30
0
41
1
10
68.1676549343586
20
5.5413039898863
30
0
41
1
10
68.1758897946973
20
5.54157873868985
30
0
41
1
10
68.1841686711055
20
5.54185552284531
30
0
41
1
10
68.2072588129741
20
5.54262956387717
30
0
41
1
10
68.2465839994795
20
5.54395945706858
30
0
41
1
10
68.2918585870797
20
5.54551072842162
30
0
41
1
10
68.3213992420705
20
5.54653228480117
30
0
41
1
10
68.3338872295959
20
5.54696575561107
30
0
41
1
10
68.3384009142449
20
5.54712260734672
30
0
41
1
10
68.3429404633222
20
5.54728048698246
30
0
41
1
10
68.3486491325018
20
5.54747909224099
30
0
41
1
10
68.3623328531611
20
5.5479551184867
30
0
41
1
10
68.3782942016794
20
5.54851036781577
30
0
41
1
10
68.3942646325595
20
5.54906596506308
30
0
41
1
10
68.4033755664306
20
5.54938287357888
30
0
41
1
10
68.417029550322
20
5.5498585620758
30
0
41
1
10
68.4375395380835
20
5.55057576856325
30
0
41
1
10
68.4647489765849
20
5.55153295093663
30
0
41
1
10
68.4849007077739
20
5.55224620736928
30
0
41
1
10
68.4970734102994
20
5.55267869143469
30
0
41
1
10
68.5014760979333
20
5.55283531721966
30
0
41
1
10
68.5058775862151
20
5.5529920051942
30
0
41
1
10
68.5113860980923
20
5.55318813598277
30
0
41
1
10
68.5334145443169
20
5.55397243107771
30
0
41
1
10
68.5884856598784
20
5.55593316881505
30
0
41
1
10
68.6413539308175
20
5.55781547704291
30
0
41
1
10
68.6765994447769
20
5.5590703491948
30
0
0
SPLINE
5
1DB
100
AcDbEntity
8
1
62
256
6
ByLayer
370
-1
48
1
60
0
100
AcDbSpline
70
4
71
3
72
8
73
4
40
0
40
0
40
0
40
0
40
1
40
1
40
1
40
1
41
1
10
68.1414154044729
20
2.59835526662798
30
0
41
1
10
68.129412105029
20
2.59789059271384
30
0
41
1
10
68.1174079632845
20
2.59744784336138
30
0
41
1
10
68.1054030587289
20
2.59702702150239
30
0
0
SPLINE
5
1DC
100
AcDbEntity
8
1
62
256
6
ByLayer
370
-1
48
1
60
0
100
AcDbSpline
70
4
71
3
72
8
73
4
40
0
40
0
40
0
40
0
40
1
40
1
40
1
40
1
41
1
10
62.7433825771244
20
7.61629183073435
30
0
41
1
10
62.7429633579666
20
7.62834255335505
30
0
41
1
10
62.7425659827212
20
7.64039404169574
30
0
41
1
10
62.7421904540196
20
7.65244621595417
30
0
0
SPLINE
5
1DD
100
AcDbEntity
8
1
62
256
6
ByLayer
370
-1
48
1
60
0
100
AcDbSpline
70
4
71
3
72
23
73
19
40
0
40
0
40
0
40
0
40
0.0365499079217368
40
0.0695172064382661
40
0.102484504954795
40
0.135451803471325
40
0.168419101987854
40
0.234353699020913
40
0.300288296053956
40
0.36622289308703
40
0.498092087153147
40
0.629961281219257
40
0.761830475285382
40
0.827765072318437
40
0.893699669351499
40
0.926666967868028
40
0.959634266384558
40
1
40
1
40
1
40
1
41
1
10
63.4783077906196
20
2.43921493050803
30
0
41
1
10
63.4793219900564
20
2.43914509837558
30
0
41
1
10
63.4812509592995
20
2.43901395107648
30
0
41
1
10
63.4840949742172
20
2.4388284398936
30
0
41
1
10
63.4868401839307
20
2.43865840466904
30
0
41
1
10
63.489586379175
20
2.4384991840985
30
0
41
1
10
63.4932491328025
20
2.43830079445499
30
0
41
1
10
63.4978294608907
20
2.43807791245504
30
0
41
1
10
63.5033279478457
20
2.43784753161327
30
0
41
1
10
63.5106615835998
20
2.43759030438963
30
0
41
1
10
63.5198320944726
20
2.43736337858519
30
0
41
1
10
63.5308394263004
20
2.43724550370757
30
0
41
1
10
63.5400120593834
20
2.4372736147177
30
0
41
1
10
63.5473486343311
20
2.43737049357168
30
0
41
1
10
63.5519326376787
20
2.43746444984808
30
0
41
1
10
63.5555985960427
20
2.43756110574898
30
0
41
1
10
63.5585534061082
20
2.43764883177309
30
0
41
1
10
63.5605918295889
20
2.4377155454618
30
0
41
1
10
63.5617139202141
20
2.43775335817085
30
0
0
SPLINE
5
1DE
100
AcDbEntity
8
1
62
256
6
ByLayer
370
-1
48
1
60
0
100
AcDbSpline
70
4
71
3
72
153
73
149
40
0
40
0
40
0
40
0
40
0.125
40
0.25
40
0.375
40
0.3828125
40
0.390625
40
0.398193359375
40
0.4019775390625
40
0.405643463134766
40
0.40576171875
40
0.406005859375
40
0.40625
40
0.4072265625
40
0.40771484375
40
0.408203125
40
0.4091796875
40
0.41015625
40
0.412109375
40
0.4140625
40
0.416015625
40
0.4169921875
40
0.41796875
40
0.4189453125
40
0.41943359375
40
0.419921875
40
0.42041015625
40
0.4208984375
40
0.421875
40
0.422119140625
40
0.42236328125
40
0.422477722167969
40
0.426025390625
40
0.4296875
40
0.4375
40
0.439453125
40
0.44140625
40
0.443359375
40
0.4443359375
40
0.4453125
40
0.445556640625
40
0.44580078125
40
0.446044921875
40
0.4462890625
40
0.4464111328125
40
0.44677734375
40
0.447265625
40
0.44921875
40
0.453125
40
0.4609375
40
0.46484375
40
0.46875
40
0.46923828125
40
0.4697265625
40
0.47021484375
40
0.4705810546875
40
0.470703125
40
0.4708251953125
40
0.47119140625
40
0.471435546875
40
0.4716796875
40
0.4718017578125
40
0.47216796875
40
0.472412109375
40
0.47265625
40
0.4727783203125
40
0.474609375
40
0.4755859375
40
0.4765625
40
0.48046875
40
0.482421875
40
0.484375
40
0.486328125
40
0.48828125
40
0.490234375
40
0.4921875
40
0.494140625
40
0.49609375
40
0.498046875
40
0.5
40
0.501953125
40
0.50390625
40
0.505859375
40
0.5078125
40
0.509765625
40
0.51171875
40
0.515625
40
0.51953125
40
0.5224609375
40
0.5234375
40
0.525390625
40
0.5263671875
40
0.527099609375
40
0.52734375
40
0.52783203125
40
0.528076171875
40
0.5283203125
40
0.5284423828125
40
0.52880859375
40
0.529052734375
40
0.529296875
40
0.5294189453125
40
0.52978515625
40
0.5302734375
40
0.53125
40
0.5390625
40
0.546875
40
0.55078125
40
0.5517578125
40
0.552734375
40
0.55322265625
40
0.5537109375
40
0.553955078125
40
0.55419921875
40
0.554443359375
40
0.5545654296875
40
0.5546875
40
0.556640625
40
0.55859375
40
0.5625
40
0.56640625
40
0.5703125
40
0.573974609375
40
0.5758056640625
40
0.57763671875
40
0.577880859375
40
0.578125
40
0.5791015625
40
0.57958984375
40
0.580078125
40
0.5810546875
40
0.58203125
40
0.5859375
40
0.587890625
40
0.58984375
40
0.5908203125
40
0.591796875
40
0.5927734375
40
0.59375
40
0.593994140625
40
0.59423828125
40
0.594380187988281
40
0.601806640625
40
0.609375
40
0.625
40
0.75
40
0.875
40
1
40
1
40
1
40
1
41
1
10
65.6585760629567
20
7.57766845014163
30
0
41
1
10
65.832000270939
20
7.58374769027697
30
0
41
1
10
66.1788486869037
20
7.59590617054761
30
0
41
1
10
66.6991213108508
20
7.61414389095361
30
0
41
1
10
67.0568087398144
20
7.62668232373272
30
0
41
1
10
67.2519109737945
20
7.63352146888496
30
0
41
1
10
67.284089293635
20
7.63464945289445
30
0
41
1
10
67.3106787473979
20
7.63558152389177
30
0
41
1
10
67.331515267992
20
7.63631193064265
30
0
41
1
10
67.3420155618347
20
7.6366800096352
30
0
41
1
10
67.3476044279122
20
7.63687592264739
30
0
41
1
10
67.3484459333159
20
7.63690542091342
30
0
41
1
10
67.3504782482532
20
7.63697666200875
30
0
41
1
10
67.3528492823468
20
7.63705977661999
30
0
41
1
10
67.3555590355965
20
7.63715476474709
30
0
41
1
10
67.3582687888462
20
7.6372497528742
30
0
41
1
10
67.3616559804083
20
7.6373684880331
30
0
41
1
10
67.3670754869078
20
7.63755846428734
30
0
41
1
10
67.3738498700321
20
7.63779593460512
30
0
41
1
10
67.3819791297813
20
7.63808089898646
30
0
41
1
10
67.3887535129056
20
7.63831836930424
30
0
41
1
10
67.394173019405
20
7.63850834555848
30
0
41
1
10
67.3982376492796
20
7.63865082774916
30
0
41
1
10
67.4016248408418
20
7.63876956290804
30
0
41
1
10
67.4043345940915
20
7.63886455103517
30
0
41
1
10
67.4063669090288
20
7.6389357921305
30
0
41
1
10
67.4083992239661
20
7.63900703322582
30
0
41
1
10
67.4111089772158
20
7.63910202135295
30
0
41
1
10
67.4134800113093
20
7.63918513596417
30
0
41
1
10
67.4155123262466
20
7.6392563770595
30
0
41
1
10
67.4163485391636
20
7.63928568980185
30
0
41
1
10
67.421768045663
20
7.63947566605609
30
0
41
1
10
67.4319296203494
20
7.63983187153275
30
0
41
1
10
67.4527714334303
20
7.64056246380733
30
0
41
1
10
67.4714009870222
20
7.64121550718124
30
0
41
1
10
67.4876595065205
20
7.64178543594392
30
0
41
1
10
67.495788963762
20
7.64207041413016
30
0
41
1
10
67.5025638406173
20
7.64230791896011
30
0
41
1
10
67.50798403834
20
7.64249794353142
30
0
41
1
10
67.5110330291634
20
7.64260484141224
30
0
41
1
10
67.5130657514287
20
7.64267611098012
30
0
41
1
10
67.5140821252904
20
7.64271174665384
30
0
41
1
10
67.5150985122667
20
7.64274738324428
30
0
41
1
10
67.5159455126641
20
7.64277708118939
30
0
41
1
10
67.5169619235556
20
7.64281271945154
30
0
41
1
10
67.5183171568496
20
7.64286023844656
30
0
41
1
10
67.5222135508982
20
7.64299686243046
30
0
41
1
10
67.5310234582108
20
7.64330579817283
30
0
41
1
10
67.5500027905314
20
7.64397148813578
30
0
41
1
10
67.5717060955521
20
7.64473316017694
30
0
41
1
10
67.5933765626264
20
7.64549253681895
30
0
41
1
10
67.6048693148537
20
7.64589457977394
30
0
41
1
10
67.6116205797539
20
7.64613043410907
30
0
41
1
10
67.6136480067551
20
7.6462013335337
30
0
41
1
10
67.6155107961658
20
7.64626662627114
30
0
41
1
10
67.6168751620247
20
7.64631478363987
30
0
41
1
10
67.6177331614354
20
7.64634525042496
30
0
41
1
10
67.6185941026595
20
7.64637592284521
30
0
41
1
10
67.6196290318272
20
7.64641280802172
30
0
41
1
10
67.6208160583924
20
7.64645413814645
30
0
41
1
10
67.6216435148708
20
7.64648199467368
30
0
41
1
10
67.6226101939893
20
7.64651330113671
30
0
41
1
10
67.6235467550284
20
7.64654138370747
30
0
41
1
10
67.6246169546017
20
7.64656771532472
30
0
41
1
10
67.6253767294468
20
7.6465821895483
30
0
41
1
10
67.6281214352271
20
7.64662081545484
30
0
41
1
10
67.6318472492724
20
7.6465762791174
30
0
41
1
10
67.6367418754613
20
7.64633568362052
30
0
41
1
10
67.6443856558752
20
7.64576322893296
30
0
41
1
10
67.6534246105691
20
7.64450430761113
30
0
41
1
10
67.6638139797955
20
7.64219868854733
30
0
41
1
10
67.671608800168
20
7.64002198366273
30
0
41
1
10
67.6793796398007
20
7.63738372352421
30
0
41
1
10
67.6870819822268
20
7.6342843381457
30
0
41
1
10
67.6946713109795
20
7.63072425754126
30
0
41
1
10
67.7021082762
20
7.62671045111142
30
0
41
1
10
67.7093535280291
20
7.62224988825679
30
0
41
1
10
67.7163685633432
20
7.61735921103684
30
0
41
1
10
67.7231148790185
20
7.61205506151103
30
0
41
1
10
67.7295582880761
20
7.60636274110573
30
0
41
1
10
67.7356646035371
20
7.60030755124728
30
0
41
1
10
67.7414062968902
20
7.59392196096914
30
0
41
1
10
67.7467558396238
20
7.58723843930474
30
0
41
1
10
67.7516940075495
20
7.58029438141222
30
0
41
1
10
67.7562015764785
20
7.57312718244964
30
0
41
1
10
67.7616246418887
20
7.56332528612322
30
0
41
1
10
67.7672786217859
20
7.55070965197902
30
0
41
1
10
67.7718223108668
20
7.53662635046268
30
0
41
1
10
67.7741169748629
20
7.52638248875078
30
0
41
1
10
67.7754233495234
20
7.51874065463781
30
0
41
1
10
67.7760899816312
20
7.51367357767234
30
0
41
1
10
67.7765254502224
20
7.50899333392348
30
0
41
1
10
67.7766990587317
20
7.50652592897688
30
0
41
1
10
67.7768042339601
20
7.50468990496586
30
0
41
1
10
67.7768618520151
20
7.503473523635
30
0
41
1
10
67.7769128530342
20
7.50222568931801
30
0
41
1
10
67.7769431969328
20
7.501424544196
30
0
41
1
10
67.7769793338707
20
7.50043671730631
30
0
41
1
10
67.7770151488542
20
7.49941891694328
30
0
41
1
10
67.777056663421
20
7.49821094559428
30
0
41
1
10
67.7770862388031
20
7.49734520123445
30
0
41
1
10
67.7771217277191
20
7.49631163636545
30
0
41
1
10
67.7771690438175
20
7.49494203578448
30
0
41
1
10
67.7772577562534
20
7.49239216592954
30
0
41
1
10
67.7777072195705
20
7.47951782039453
30
0
41
1
10
67.7785115405268
20
7.45641672018428
30
0
41
1
10
67.779457816417
20
7.42918388322448
30
0
41
1
10
67.7800728927543
20
7.41149287299507
30
0
41
1
10
67.7803567737093
20
7.40332928180186
30
0
41
1
10
67.7804750573747
20
7.39992801317914
30
0
41
1
10
67.780569684271
20
7.39720712248524
30
0
41
1
10
67.780628826067
20
7.39550661496574
30
0
41
1
10
67.7806761394957
20
7.39414623689609
30
0
41
1
10
67.7807116245633
20
7.39312596692872
30
0
41
1
10
67.7807411954497
20
7.39227575295314
30
0
41
1
10
67.780764852157
20
7.39159558817695
30
0
41
1
10
67.7808713073345
20
7.38853486560589
30
0
41
1
10
67.7810664750758
20
7.38292383121976
30
0
41
1
10
67.7814449819804
20
7.37204262004482
30
0
41
1
10
67.7819181153234
20
7.3584420997102
30
0
41
1
10
67.7824858753351
20
7.34212147530869
30
0
41
1
10
67.7830418070132
20
7.32614086391553
30
0
41
1
10
67.7834971978559
20
7.31305036309348
30
0
41
1
10
67.7838520478632
20
7.30284997284252
30
0
41
1
10
67.7840413012004
20
7.29740976470868
30
0
41
1
10
67.7841536703694
20
7.2941796411292
30
0
41
1
10
67.7842246403708
20
7.29213956307902
30
0
41
1
10
67.7843074387059
20
7.28975947202048
30
0
41
1
10
67.7844020653745
20
7.28703936795355
30
0
41
1
10
67.7844966920431
20
7.28431926388663
30
0
41
1
10
67.7846149753789
20
7.28091913380297
30
0
41
1
10
67.7848988553847
20
7.27275882160222
30
0
41
1
10
67.7852300487249
20
7.26323845736798
30
0
41
1
10
67.7856085553993
20
7.25235804110031
30
0
41
1
10
67.7858451220709
20
7.24555778093301
30
0
41
1
10
67.7860343754081
20
7.24011757279916
30
0
41
1
10
67.786176315411
20
7.23603741669879
30
0
41
1
10
67.7863182554139
20
7.23195726059839
30
0
41
1
10
67.7864247104161
20
7.22889714352311
30
0
41
1
10
67.7864956804176
20
7.22685706547293
30
0
41
1
10
67.7865262123036
20
7.22597940689508
30
0
41
1
10
67.7869047189781
20
7.21509899062741
30
0
41
1
10
67.7876380756599
20
7.19401818410876
30
0
41
1
10
67.7891215704716
20
7.15137417761588
30
0
41
1
10
67.7963013689526
20
6.94498628153826
30
0
41
1
10
67.809170595884
20
6.57505212843705
30
0
41
1
10
67.8273389162578
20
6.05279214758829
30
0
41
1
10
67.8394511298402
20
5.70461882702244
30
0
41
1
10
67.8455072366314
20
5.5305321667395
30
0
0
SPLINE
5
1DF
100
AcDbEntity
8
1
62
256
6
ByLayer
370
-1
48
1
60
0
100
AcDbSpline
70
4
71
3
72
79
73
75
40
0
40
0
40
0
40
0
40
0.0017245864916511
40
0.0039792263717785
40
0.0084885061320333
40
0.012997785892288
40
0.0220163454127976
40
0.0310349049333071
40
0.0671091430153452
40
0.139257619179421
40
0.211406095343497
40
0.220424654864007
40
0.224933934624262
40
0.228315894444453
40
0.229443214384517
40
0.231697854264644
40
0.233952494144771
40
0.237334453964962
40
0.238461773905026
40
0.240716413785153
40
0.242971053665281
40
0.247480333425535
40
0.249734973305663
40
0.256498892946045
40
0.265517452466555
40
0.283554571507574
40
0.292573131028083
40
0.319628809589612
40
0.35570304767165
40
0.391777285753688
40
0.409814404794707
40
0.427851523835726
40
0.445888642876745
40
0.463925761917764
40
0.481962880958783
40
0.499999999999802
40
0.518037119040821
40
0.53607423808184
40
0.554111357122859
40
0.572148476163878
40
0.590185595204895
40
0.608222714245916
40
0.626259833286935
40
0.644296952327954
40
0.662334071368973
40
0.680371190409995
40
0.716445428492031
40
0.725463988012539
40
0.734482547533051
40
0.751392346634005
40
0.752519666574069
40
0.754774306454196
40
0.757028946334323
40
0.760410906154518
40
0.761538226094578
40
0.763792865974708
40
0.766047505854832
40
0.769429465675026
40
0.770556785615088
40
0.771684105555149
40
0.775066065375345
40
0.779575345135597
40
0.784084624895852
40
0.788593904656107
40
0.824668142738145
40
0.860742380820183
40
0.932890856984259
40
0.968965095066297
40
0.987002214107316
40
0.991511493867571
40
0.994893453687761
40
0.996020773627826
40
0.998275413507953
40
1
40
1
40
1
40
1
41
1
10
68.3607075817362
20
2.6248007918885
30
0
41
1
10
68.3610426284945
20
2.62484836836461
30
0
41
1
10
68.3618101265032
20
2.62495773860769
30
0
41
1
10
68.3634247918242
20
2.62519085163652
30
0
41
1
10
68.3655325663781
20
2.62550530561038
30
0
41
1
10
68.3688749802311
20
2.62602466019879
30
0
41
1
10
68.3730867586207
20
2.6267152406997
30
0
41
1
10
68.3832509278188
20
2.62850014499125
30
0
41
1
10
68.4052936973284
20
2.63303142849131
30
0
41
1
10
68.4394368127573
20
2.64257135129716
30
0
41
1
10
68.4682424485741
20
2.65370542564824
30
0
41
1
10
68.4841305444585
20
2.66089082297413
30
0
41
1
10
68.4872588582118
20
2.66234061546524
30
0
41
1
10
68.488924865033
20
2.66312366529169
30
0
41
1
10
68.490173299228
20
2.66371516083828
30
0
41
1
10
68.4912129853357
20
2.66421070318236
30
0
41
1
10
68.4926672606612
20
2.66490936796092
30
0
41
1
10
68.4939123797578
20
2.66551347648723
30
0
41
1
10
68.4951563460651
20
2.66612178394988
30
0
41
1
10
68.4961922577652
20
2.66663133044867
30
0
41
1
10
68.4978481384985
20
2.66745219880824
30
0
41
1
10
68.4995016113173
20
2.66828145348984
30
0
41
1
10
68.5019780858713
20
2.66953790113459
30
0
41
1
10
68.5052733033642
20
2.67123549122448
30
0
41
1
10
68.5114286178646
20
2.6744916103986
30
0
41
1
10
68.5179492105553
20
2.67809824609972
30
0
41
1
10
68.5276546260524
20
2.68370747544
30
0
41
1
10
68.5404541055066
20
2.69153848603432
30
0
41
1
10
68.5576641243758
20
2.7031371200836
30
0
41
1
10
68.5728361708988
20
2.7145224044649
30
0
41
1
10
68.5846510917711
20
2.72411335191495
30
0
41
1
10
68.5933412589421
20
2.73154244171985
30
0
41
1
10
68.6018507373199
20
2.73920192998696
30
0
41
1
10
68.6101710783736
20
2.74708441023961
30
0
41
1
10
68.6182938335725
20
2.75518247600104
30
0
41
1
10
68.6262105543858
20
2.76348872079461
30
0
41
1
10
68.6339127922827
20
2.77199573814357
30
0
41
1
10
68.6413937762834
20
2.7806945512543
30
0
41
1
10
68.6486467354077
20
2.78957618333308
30
0
41
1
10
68.6556648986758
20
2.79863165758624
30
0
41
1
10
68.6624414951078
20
2.80785199722016
30
0
41
1
10
68.6689717523223
20
2.81722714132076
30
0
41
1
10
68.6752508979382
20
2.82674702897401
30
0
41
1
10
68.6812741595742
20
2.83640159926591
30
0
41
1
10
68.6870367648493
20
2.84618079128245
30
0
41
1
10
68.6943692272222
20
2.85937174747684
30
0
41
1
10
68.7003198756969
20
2.87109483408133
30
0
41
1
10
68.7050816004099
20
2.88124598820713
30
0
41
1
10
68.7080692778254
20
2.88782678948047
30
0
41
1
10
68.7102847447446
20
2.89294735591818
30
0
41
1
10
68.7118953588167
20
2.89679935778273
30
0
41
1
10
68.7123400958163
20
2.89786995481617
30
0
41
1
10
68.7129577691131
20
2.89936988005948
30
0
41
1
10
68.7134818896012
20
2.90065667165806
30
0
41
1
10
68.714001757774
20
2.90194434538404
30
0
41
1
10
68.7144323232833
20
2.90301795169685
30
0
41
1
10
68.7150301524429
20
2.90452199353479
30
0
41
1
10
68.7155372593304
20
2.90581221036101
30
0
41
1
10
68.715956301914
20
2.90688805730105
30
0
41
1
10
68.7163735710722
20
2.90796423306341
30
0
41
1
10
68.717035526185
20
2.90968715274374
30
0
41
1
10
68.7179320535193
20
2.91205856669097
30
0
41
1
10
68.7188930445658
20
2.91464838991635
30
0
41
1
10
68.7220395289987
20
2.9232900038036
30
0
41
1
10
68.7269537096856
20
2.93804438749694
30
0
41
1
10
68.7347654447625
20
2.96592507158869
30
0
41
1
10
68.7404444582365
20
2.99380948706488
30
0
41
1
10
68.7436379861209
20
3.01792088527569
30
0
41
1
10
68.7447256377035
20
3.02907541384406
30
0
41
1
10
68.745132396981
20
3.03393881648898
30
0
41
1
10
68.7452659065344
20
3.03564309372348
30
0
41
1
10
68.7453629678201
20
3.03693354793003
30
0
41
1
10
68.7454345724626
20
3.0379160217982
30
0
41
1
10
68.7454897231576
20
3.03869220407901
30
0
41
1
10
68.7455136314575
20
3.03903103015418
30
0
0
SPLINE
5
1E0
100
AcDbEntity
8
1
62
256
6
ByLayer
370
-1
48
1
60
0
100
AcDbSpline
70
4
71
3
72
19
73
15
40
0
40
0
40
0
40
0
40
0.0403657336154643
40
0.106300330648522
40
0.17223492768158
40
0.238169524714638
40
0.370038718780754
40
0.50190791284687
40
0.765646300979101
40
0.831580898012159
40
0.897515495045217
40
0.930482793561746
40
0.963450092078275
40
1
40
1
40
1
40
1
41
1
10
68.5966345135636
20
7.85766907555978
30
0
41
1
10
68.5965938175393
20
7.85879534627281
30
0
41
1
10
68.5964838030526
20
7.86176096253578
30
0
41
1
10
68.5962845922699
20
7.86656458480471
30
0
41
1
10
68.5960129204699
20
7.87208081500302
30
0
41
1
10
68.5955974219789
20
7.87943423260825
30
0
41
1
10
68.5949855072629
20
7.88862143516047
30
0
41
1
10
68.5938055433468
20
7.90330708820295
30
0
41
1
10
68.5925048279337
20
7.91613341760456
30
0
41
1
10
68.5912064266393
20
7.92710400160394
30
0
41
1
10
68.590632336719
20
7.93167022508825
30
0
41
1
10
68.5901517077625
20
7.9353197213203
30
0
41
1
10
68.58976896423
20
7.93815470496628
30
0
41
1
10
68.5895040761462
20
7.94007717736434
30
0
41
1
10
68.58936393223
20
7.94108789965895
30
0
0
SPLINE
5
1E1
100
AcDbEntity
8
1
62
256
6
ByLayer
370
-1
48
1
60
0
100
AcDbSpline
70
4
71
3
72
23
73
19
40
0
40
0
40
0
40
0
40
0.0365499079216497
40
0.0695172064381817
40
0.102484504954714
40
0.135451803471245
40
0.168419101987777
40
0.234353699020841
40
0.30028829605389
40
0.366222893086969
40
0.498092087153097
40
0.629961281219217
40
0.761830475285352
40
0.827765072318412
40
0.893699669351479
40
0.926666967868011
40
0.959634266384543
40
1
40
1
40
1
40
1
41
1
10
68.0203799594519
20
8.47370079089643
30
0
41
1
10
68.0193657600151
20
8.47377062302888
30
0
41
1
10
68.017436790772
20
8.47390177032798
30
0
41
1
10
68.0145927758543
20
8.47408728151086
30
0
41
1
10
68.0118475661408
20
8.47425731673545
30
0
41
1
10
68.0091013708965
20
8.47441653730598
30
0
41
1
10
68.005438617269
20
8.4746149269495
30
0
41
1
10
68.0008582891808
20
8.47483780894942
30
0
41
1
10
67.9953598022258
20
8.47506818979122
30
0
41
1
10
67.9880261664717
20
8.47532541701483
30
0
41
1
10
67.978855655599
20
8.4755523428193
30
0
41
1
10
67.9678483237711
20
8.47567021769692
30
0
41
1
10
67.9586756906881
20
8.47564210668679
30
0
41
1
10
67.9513391157404
20
8.47554522783281
30
0
41
1
10
67.9467551123928
20
8.47545127155638
30
0
41
1
10
67.9430891540288
20
8.4753546156555
30
0
41
1
10
67.9401343439633
20
8.4752668896314
30
0
41
1
10
67.9380959204826
20
8.47520017594266
30
0
41
1
10
67.9369738298574
20
8.47516236323361
30
0
0
SPLINE
5
1E2
100
AcDbEntity
8
1
62
256
6
ByLayer
370
-1
48
1
60
0
100
AcDbSpline
70
4
71
3
72
19
73
15
40
0
40
0
40
0
40
0
40
0.0403657336154942
40
0.106300330648552
40
0.17223492768161
40
0.238169524714668
40
0.370038718780784
40
0.5019079128469
40
0.765646300979131
40
0.831580898012189
40
0.897515495045247
40
0.930482793561776
40
0.963450092078305
40
1
40
1
40
1
40
1
41
1
10
62.9020532365079
20
3.05524664584468
30
0
41
1
10
62.9020939325322
20
3.05412037513165
30
0
41
1
10
62.9022039470189
20
3.05115475886871
30
0
41
1
10
62.9024031578017
20
3.04635113659975
30
0
41
1
10
62.9026748296016
20
3.04083490640147
30
0
41
1
10
62.9030903280926
20
3.03348148879621
30
0
41
1
10
62.9037022428086
20
3.02429428624402
30
0
41
1
10
62.9048822067248
20
3.00960863320154
30
0
41
1
10
62.9061829221379
20
2.9967823037999
30
0
41
1
10
62.9074813234322
20
2.98581171980055
30
0
41
1
10
62.9080554133525
20
2.9812454963162
30
0
41
1
10
62.908536042309
20
2.97759600008419
30
0
41
1
10
62.9089187858415
20
2.97476101643818
30
0
41
1
10
62.9091836739253
20
2.97283854404014
30
0
41
1
10
62.9093238178415
20
2.97182782174551
30
0
0
SPLINE
5
1E3
100
AcDbEntity
8
1
62
256
6
ByLayer
370
-1
48
1
60
0
100
AcDbSpline
70
4
71
3
72
19
73
15
40
0
40
0
40
0
40
0
40
0.0403657336156645
40
0.106300330648719
40
0.172234927681773
40
0.238169524714828
40
0.370038718780937
40
0.501907912847046
40
0.765646300979263
40
0.831580898012318
40
0.897515495045372
40
0.9304827935619
40
0.963450092078427
40
1
40
1
40
1
40
1
41
1
10
68.1414177562752
20
2.5982910344965
30
0
41
1
10
68.1425397411882
20
2.59833188597301
30
0
41
1
10
68.145494072386
20
2.59844232069719
30
0
41
1
10
68.1502794154219
20
2.59864229243277
30
0
41
1
10
68.1557746546989
20
2.5989150019748
30
0
41
1
10
68.1631000903301
20
2.59933208760256
30
0
41
1
10
68.1722523328029
20
2.59994633973338
30
0
41
1
10
68.1868821025018
20
2.60113081092001
30
0
41
1
10
68.1996596238477
20
2.60243649485469
30
0
41
1
10
68.2105884614629
20
2.60373985583107
30
0
41
1
10
68.2151373090883
20
2.60431613868158
30
0
41
1
10
68.2187729178853
20
2.60479860356264
30
0
41
1
10
68.2215971135626
20
2.60518280911319
30
0
41
1
10
68.2235122703728
20
2.60544870902646
30
0
41
1
10
68.2245191465639
20
2.60558938826969
30
0
0
SPLINE
5
1E4
100
AcDbEntity
8
1
62
256
6
ByLayer
370
-1
48
1
60
0
100
AcDbSpline
70
4
71
3
72
13
73
9
40
0
40
0
40
0
40
0
40
0.312317913031033
40
0.624635826062065
40
0.936953739093098
40
0.975993478221977
40
0.994903351862528
40
1
40
1
40
1
40
1
41
1
10
65.6471218580414
20
8.39489507116764
30
0
41
1
10
65.4124839540395
20
8.38667003626696
30
0
41
1
10
64.9432081460358
20
8.37021996646561
30
0
41
1
10
64.2392944340303
20
8.34554486176359
30
0
41
1
10
63.7406888880264
20
8.32806666259964
30
0
41
1
10
63.4625146541804
20
8.31831549817636
30
0
41
1
10
63.4151493193817
20
8.31665514609702
30
0
41
1
10
63.3971136978921
20
8.31602303725251
30
0
41
1
10
63.3932846862826
20
8.31588884538695
30
0
0
SPLINE
5
1E5
100
AcDbEntity
8
1
62
256
6
ByLayer
370
-1
48
1
60
0
100
AcDbSpline
70
4
71
3
72
22
73
18
40
0
40
0
40
0
40
0
40
0.0023505275439435
40
0.0123487527330621
40
0.0223469779221808
40
0.0623398786786553
40
0.102332779435121
40
0.182318580948079
40
0.262304382461024
40
0.342290183973977
40
0.662233390025774
40
0.812206767862554
40
0.95749347764192
40
0.962180145699333
40
0.972178370888448
40
0.982176596077571
40
1
40
1
40
1
40
1
41
1
10
68.1575716666526
20
8.46407249884581
30
0
41
1
10
68.1574679243971
20
8.46407987515488
30
0
41
1
10
68.1569217014443
20
8.46411863045282
30
0
41
1
10
68.1559211663334
20
8.46418897889532
30
0
41
1
10
68.1532065504825
20
8.46437855108758
30
0
41
1
10
68.1491157528161
20
8.46466484865064
30
0
41
1
10
68.1418050859679
20
8.46517774070566
30
0
41
1
10
68.1326243969173
20
8.46582320776173
30
0
41
1
10
68.1216330896826
20
8.46659514611116
30
0
41
1
10
68.0996759948393
20
8.46813640069209
30
0
41
1
10
68.0745168236646
20
8.46990242156608
30
0
41
1
10
68.0463700009129
20
8.47187815741884
30
0
41
1
10
68.0326467876225
20
8.4728416465978
30
0
41
1
10
68.0253277250604
20
8.47335561686168
30
0
41
1
10
68.0241984163417
20
8.47343492254583
30
0
41
1
10
68.0224681160119
20
8.47355612575413
30
0
41
1
10
68.0211953359286
20
8.47364464860721
30
0
41
1
10
68.0203799594519
20
8.47370079089643
30
0
0
SPLINE
5
1E6
100
AcDbEntity
8
1
62
256
6
ByLayer
370
-1
48
1
60
0
100
AcDbSpline
70
4
71
3
72
48
73
44
40
0
40
0
40
0
40
0
40
0.125
40
0.1875
40
0.1953125
40
0.203125
40
0.20703125
40
0.2109375
40
0.21875
40
0.25
40
0.28125
40
0.3125
40
0.3203125
40
0.328125
40
0.34375
40
0.375
40
0.3828125
40
0.390625
40
0.39453125
40
0.3984375
40
0.40625
40
0.4375
40
0.5
40
0.5625
40
0.578125
40
0.5859375
40
0.59375
40
0.609375
40
0.625
40
0.6875
40
0.75
40
0.8125
40
0.875
40
0.9375
40
0.953125
40
0.96826171875
40
0.96875
40
0.9697265625
40
0.970703125
40
0.97265625
40
0.9765625
40
0.984375
40
1
40
1
40
1
40
1
41
1
10
65.6471218580411
20
8.39489507116764
30
0
41
1
10
65.6489245349429
20
8.35896023438806
30
0
41
1
10
65.6516285502955
20
8.30505797921867
30
0
41
1
10
65.6544452329545
20
8.24890979675058
30
0
41
1
10
65.6555719060181
20
8.22645052376333
30
0
41
1
10
65.6558538572385
20
8.22083407282599
30
0
41
1
10
65.6560783429878
20
8.21634711630009
30
0
41
1
10
65.6562997933319
20
8.2118619406512
30
0
41
1
10
65.6568955247662
20
8.19947721741349
30
0
41
1
10
65.6578016044546
20
8.1790522255522
30
0
41
1
10
65.6588515190708
20
8.15164210866996
30
0
41
1
10
65.6595159615439
20
8.13110400203925
30
0
41
1
10
65.6599059567124
20
8.1174820657578
30
0
41
1
10
65.6601512645595
20
8.10840699323202
30
0
41
1
10
65.6605839970051
20
8.09249676973454
30
0
41
1
10
65.6610155400558
20
8.07659650931197
30
0
41
1
10
65.6613857699749
20
8.06296490117114
30
0
41
1
10
65.6615406188548
20
8.05727759068387
30
0
41
1
10
65.6616622257915
20
8.05275650944679
30
0
41
1
10
65.6617793499705
20
8.04826486341693
30
0
41
1
10
65.6620889285347
20
8.03585188351394
30
0
41
1
10
65.6627081712418
20
8.00659833628606
30
0
41
1
10
65.6632325099123
20
7.9621757369103
30
0
41
1
10
65.663170396307
20
7.92409257864173
30
0
41
1
10
65.6629326381175
20
7.90192694360144
30
0
41
1
10
65.6628253927419
20
7.89400088242118
30
0
41
1
10
65.6627020727676
20
7.88613310609398
30
0
41
1
10
65.6625483746829
20
7.87625954774094
30
0
41
1
10
65.6621797704097
20
7.85253970492724
30
0
41
1
10
65.6616264121167
20
7.81699877865069
30
0
41
1
10
65.660888751687
20
7.76959793096731
30
0
41
1
10
65.6601510912573
20
7.7221970832839
30
0
41
1
10
65.6594134308277
20
7.67479623560052
30
0
41
1
10
65.6588601855054
20
7.63924559983798
30
0
41
1
10
65.6584932762813
20
7.61566861570378
30
0
41
1
10
65.6583703328763
20
7.60776847442324
30
0
41
1
10
65.6583050373296
20
7.60357134002055
30
0
41
1
10
65.6582952691418
20
7.60295580060949
30
0
41
1
10
65.6582802082138
20
7.60197154219625
30
0
41
1
10
65.6582585103677
20
7.60023523065735
30
0
41
1
10
65.6582337724603
20
7.59663803053942
30
0
41
1
10
65.658261175096
20
7.58906515141896
30
0
41
1
10
65.6584191965798
20
7.58217767439814
30
0
41
1
10
65.6585760629565
20
7.57766845014163
30
0
0
SPLINE
5
1E7
100
AcDbEntity
8
1
62
256
6
ByLayer
370
-1
48
1
60
0
100
AcDbSpline
70
4
71
3
72
8
73
4
40
0
40
0
40
0
40
0
40
1
40
1
40
1
40
1
41
1
10
68.7553051729471
20
3.29662389067011
30
0
41
1
10
68.7557243921049
20
3.28457316804943
30
0
41
1
10
68.7561217673503
20
3.27252167970875
30
0
41
1
10
68.756497296052
20
3.26046950545032
30
0
0
SPLINE
5
1E8
100
AcDbEntity
8
1
62
256
6
ByLayer
370
-1
48
1
60
0
100
AcDbSpline
70
4
71
3
72
48
73
44
40
0
40
0
40
0
40
0
40
0.015625
40
0.0234375
40
0.02734375
40
0.029296875
40
0.0302734375
40
0.03125
40
0.03173828125
40
0.046875
40
0.0625
40
0.125
40
0.1875
40
0.25
40
0.3125
40
0.375
40
0.390625
40
0.40625
40
0.4140625
40
0.421875
40
0.4375
40
0.5
40
0.5625
40
0.59375
40
0.6015625
40
0.60546875
40
0.609375
40
0.6171875
40
0.625
40
0.65625
40
0.671875
40
0.6796875
40
0.6875
40
0.71875
40
0.75
40
0.78125
40
0.7890625
40
0.79296875
40
0.796875
40
0.8046875
40
0.8125
40
0.875
40
1
40
1
40
1
40
1
41
1
10
65.8061609248351
20
3.33524727126286
30
0
41
1
10
65.8063177912118
20
3.33073804700635
30
0
41
1
10
65.8066389712509
20
3.32385056998552
30
0
41
1
10
65.8071384575176
20
3.31627769086504
30
0
41
1
10
65.807413473396
20
3.31268049074714
30
0
41
1
10
65.8075559764559
20
3.31094417920824
30
0
41
1
10
65.8076395179216
20
3.30995992079497
30
0
41
1
10
65.8076921127385
20
3.30934438138394
30
0
41
1
10
65.8080494271466
20
3.30514724698125
30
0
41
1
10
65.8087220289709
20
3.29724710570068
30
0
41
1
10
65.8107293250403
20
3.27367012156648
30
0
41
1
10
65.8137560332497
20
3.23811948580394
30
0
41
1
10
65.8177916441954
20
3.19071863812056
30
0
41
1
10
65.8218272551413
20
3.14331779043715
30
0
41
1
10
65.8258628660871
20
3.09591694275377
30
0
41
1
10
65.8288890117223
20
3.06037601647725
30
0
41
1
10
65.8309079423435
20
3.03665617366355
30
0
41
1
10
65.8317486008615
20
3.02678261531048
30
0
41
1
10
65.8324193274386
20
3.01891483898328
30
0
41
1
10
65.8330780346305
20
3.01098877780305
30
0
41
1
10
65.8348579839642
20
2.98882314276276
30
0
41
1
10
65.8375697626622
20
2.95073998449416
30
0
41
1
10
65.8401361605859
20
2.9063173851184
30
0
41
1
10
65.841552255977
20
2.87706383789055
30
0
41
1
10
65.8421063200582
20
2.86465085798753
30
0
41
1
10
65.842301705614
20
2.86015921195769
30
0
41
1
10
65.8424946563894
20
2.85563813072059
30
0
41
1
10
65.8427355065206
20
2.84995082023332
30
0
41
1
10
65.8433137062457
20
2.83631921209249
30
0
41
1
10
65.8439884360705
20
2.82041895166992
30
0
41
1
10
65.844662669689
20
2.80450872817247
30
0
41
1
10
65.8450487670083
20
2.79543365564666
30
0
41
1
10
65.845606528557
20
2.78181171936521
30
0
41
1
10
65.8463710406844
20
2.7612736127345
30
0
41
1
10
65.8472282060791
20
2.73386349585226
30
0
41
1
10
65.8477432109439
20
2.71343850399097
30
0
41
1
10
65.8480091561756
20
2.70105378075326
30
0
41
1
10
65.8480997653847
20
2.69656860510438
30
0
41
1
10
65.8481874630943
20
2.69208164857847
30
0
41
1
10
65.8482962807773
20
2.68646519764113
30
0
41
1
10
65.8487322289444
20
2.66400592465391
30
0
41
1
10
65.849822099362
20
2.60785774218579
30
0
41
1
10
65.8508683749629
20
2.55395548701642
30
0
41
1
10
65.8515658920302
20
2.51802065023682
30
0
0
SPLINE
5
1E9
100
AcDbEntity
8
1
62
256
6
ByLayer
370
-1
48
1
60
0
100
AcDbSpline
70
4
71
3
72
8
73
4
40
0
40
0
40
0
40
0
40
1
40
1
40
1
40
1
41
1
10
62.9021172242167
20
3.05524900663053
30
0
41
1
10
62.9016543185271
20
3.06729815672838
30
0
41
1
10
62.9012132539696
20
3.07934815234412
30
0
41
1
10
62.9007940334648
20
3.09139891368483
30
0
0
SPLINE
5
1EA
100
AcDbEntity
8
1
62
256
6
ByLayer
370
-1
48
1
60
0
100
AcDbSpline
70
4
71
3
72
13
73
9
40
0
40
0
40
0
40
0
40
0.312317913031033
40
0.624635826062065
40
0.936953739093098
40
0.975993478221977
40
0.994903351862528
40
1
40
1
40
1
40
1
41
1
10
68.6765994447769
20
5.55907034919488
30
0
41
1
10
68.6684057086172
20
5.79460453187153
30
0
41
1
10
68.6520182362979
20
6.26567289722482
30
0
41
1
10
68.6274370278188
20
6.97227544525475
30
0
41
1
10
68.6100253384795
20
7.47278558344263
30
0
41
1
10
68.6003112801808
20
7.7520223976706
30
0
41
1
10
68.5986572462425
20
7.79956866035343
30
0
41
1
10
68.5980275427629
20
7.81767317498716
30
0
41
1
10
68.597893861538
20
7.82151681279893
30
0
0
SPLINE
5
1EB
100
AcDbEntity
8
1
62
256
6
ByLayer
370
-1
48
1
60
0
100
AcDbSpline
70
4
71
3
72
19
73
15
40
0
40
0
40
0
40
0
40
0.0403657336155087
40
0.106300330648578
40
0.172234927681647
40
0.238169524714717
40
0.370038718780855
40
0.501907912846994
40
0.765646300979271
40
0.83158089801234
40
0.897515495045409
40
0.930482793561944
40
0.963450092078478
40
1
40
1
40
1
40
1
41
1
10
63.3572699937963
20
8.31462468690796
30
0
41
1
10
63.3561480088833
20
8.31458383543145
30
0
41
1
10
63.3531936776856
20
8.3144734007073
30
0
41
1
10
63.3484083346496
20
8.31427342897169
30
0
41
1
10
63.3429130953726
20
8.31400071942966
30
0
41
1
10
63.3355876597414
20
8.31358363380193
30
0
41
1
10
63.3264354172686
20
8.31296938167111
30
0
41
1
10
63.3118056475697
20
8.31178491048448
30
0
41
1
10
63.2990281262238
20
8.3104792265498
30
0
41
1
10
63.2880992886086
20
8.30917586557342
30
0
41
1
10
63.2835504409833
20
8.30859958272291
30
0
41
1
10
63.2799148321862
20
8.30811711784185
30
0
41
1
10
63.2770906365089
20
8.3077329122913
30
0
41
1
10
63.2751754796988
20
8.307467012378
30
0
41
1
10
63.2741686035076
20
8.30732633313477
30
0
0
SPLINE
5
1EC
100
AcDbEntity
8
1
62
256
6
ByLayer
370
-1
48
1
60
0
100
AcDbSpline
70
4
71
3
72
79
73
75
40
0
40
0
40
0
40
0
40
0.0017245864916224
40
0.0039792263717498
40
0.0084885061320045
40
0.0129977858922593
40
0.0220163454127687
40
0.0310349049332782
40
0.0671091430153161
40
0.139257619179392
40
0.211406095343468
40
0.220424654863977
40
0.224933934624232
40
0.228315894444423
40
0.229443214384487
40
0.231697854264614
40
0.233952494144742
40
0.237334453964933
40
0.238461773904996
40
0.240716413785124
40
0.242971053665251
40
0.247480333425506
40
0.249734973305633
40
0.256498892946015
40
0.265517452466525
40
0.283554571507544
40
0.292573131028053
40
0.319628809589582
40
0.355703047671619
40
0.391777285753657
40
0.409814404794676
40
0.427851523835695
40
0.445888642876714
40
0.463925761917733
40
0.481962880958752
40
0.499999999999771
40
0.518037119040791
40
0.53607423808181
40
0.554111357122827
40
0.572148476163847
40
0.590185595204864
40
0.608222714245885
40
0.626259833286903
40
0.644296952327923
40
0.662334071368942
40
0.680371190409962
40
0.716445428491999
40
0.725463988012507
40
0.734482547533018
40
0.751392346633972
40
0.752519666574037
40
0.754774306454164
40
0.757028946334292
40
0.760410906154485
40
0.761538226094546
40
0.763792865974676
40
0.766047505854799
40
0.769429465674994
40
0.770556785615056
40
0.771684105555118
40
0.775066065375312
40
0.779575345135565
40
0.78408462489582
40
0.788593904656075
40
0.824668142738113
40
0.860742380820151
40
0.932890856984227
40
0.968965095066264
40
0.987002214107283
40
0.991511493867538
40
0.994893453687727
40
0.996020773627793
40
0.99827541350792
40
1
40
1
40
1
40
1
41
1
10
68.570225633802
20
8.07779655252889
30
0
41
1
10
68.5701782383687
20
8.07813287911142
30
0
41
1
10
68.5700692843125
20
8.07890330883777
30
0
41
1
10
68.5698370583491
20
8.08052414191792
30
0
41
1
10
68.5695238009675
20
8.08263996782824
30
0
41
1
10
68.5690064226802
20
8.08599514915917
30
0
41
1
10
68.5683184700466
20
8.09022301585799
30
0
41
1
10
68.5665403578547
20
8.10042601053127
30
0
41
1
10
68.5620263172564
20
8.12255297983933
30
0
41
1
10
68.552522696737
20
8.1568265164224
30
0
41
1
10
68.5414309909003
20
8.18574218508832
30
0
41
1
10
68.5342729361806
20
8.20169097091784
30
0
41
1
10
68.5328286605876
20
8.20483123432149
30
0
41
1
10
68.5320485905021
20
8.20650360501816
30
0
41
1
10
68.5314593457746
20
8.20775680802896
30
0
41
1
10
68.5309656891188
20
8.20880046556863
30
0
41
1
10
68.5302696829706
20
8.21026029598963
30
0
41
1
10
68.5296678732597
20
8.21151017123896
30
0
41
1
10
68.5290618805906
20
8.21275888929543
30
0
41
1
10
68.5285542730701
20
8.21379875800989
30
0
41
1
10
68.5277365283624
20
8.21546096393857
30
0
41
1
10
68.5269104292452
20
8.21712075275499
30
0
41
1
10
68.5256587627631
20
8.21960668703943
30
0
41
1
10
68.523967632516
20
8.22291449172783
30
0
41
1
10
68.5207239038584
20
8.22909331852961
30
0
41
1
10
68.517130992495
20
8.23563881882518
30
0
41
1
10
68.5115431079658
20
8.24538130743272
30
0
41
1
10
68.5037418967311
20
8.25822967881905
30
0
41
1
10
68.4921873989861
20
8.27550543716444
30
0
41
1
10
68.4808454390492
20
8.29073543844041
30
0
41
1
10
68.4712909880498
20
8.30259549039101
30
0
41
1
10
68.4638901681744
20
8.31131885258887
30
0
41
1
10
68.4562598265726
20
8.31986083579162
30
0
41
1
10
68.4484073415372
20
8.32821295919646
30
0
41
1
10
68.4403400913608
20
8.33636674200059
30
0
41
1
10
68.4320654543365
20
8.34431370340127
30
0
41
1
10
68.4235908087568
20
8.3520453625957
30
0
41
1
10
68.4149250972562
20
8.35955492273987
30
0
41
1
10
68.406077262469
20
8.36683558698977
30
0
41
1
10
68.3970562470292
20
8.37388055850144
30
0
41
1
10
68.3878709935713
20
8.38068304043082
30
0
41
1
10
68.3785315247245
20
8.38723824216703
30
0
41
1
10
68.3690478631178
20
8.39354137309911
30
0
41
1
10
68.3594300313807
20
8.3995876426161
30
0
41
1
10
68.3496880521422
20
8.40537226010704
30
0
41
1
10
68.3365472915186
20
8.41273273129505
30
0
41
1
10
68.3248688147979
20
8.4187061102802
30
0
41
1
10
68.3147562888783
20
8.4234860240081
30
0
41
1
10
68.3082005295406
20
8.42648511386597
30
0
41
1
10
68.3030994484041
20
8.42870904350883
30
0
41
1
10
68.2992621045696
20
8.43032580986502
30
0
41
1
10
68.2981955814811
20
8.43077224568773
30
0
41
1
10
68.2967013639062
20
8.4313922783962
30
0
41
1
10
68.2954194689381
20
8.43191840093934
30
0
41
1
10
68.2941366951994
20
8.43244025492422
30
0
41
1
10
68.2930671742828
20
8.43287246512372
30
0
41
1
10
68.2915688557781
20
8.43347257789358
30
0
41
1
10
68.2902835486165
20
8.43398162184701
30
0
41
1
10
68.2892117955988
20
8.43440226510523
30
0
41
1
10
68.2881397150102
20
8.43482112816378
30
0
41
1
10
68.2864233515594
20
8.43548561183763
30
0
41
1
10
68.2840609615581
20
8.43638556376069
30
0
41
1
10
68.2814809933921
20
8.43735022563692
30
0
41
1
10
68.2728722634546
20
8.44050872912916
30
0
41
1
10
68.2581740246457
20
8.44544168118799
30
0
41
1
10
68.2303994349743
20
8.45328325582378
30
0
41
1
10
68.2026211281175
20
8.45898396220667
30
0
41
1
10
68.1786014810564
20
8.46218968884872
30
0
41
1
10
68.1674893988368
20
8.46328149508363
30
0
41
1
10
68.1626445029073
20
8.46368980811562
30
0
41
1
10
68.1609467109622
20
8.46382382765378
30
0
41
1
10
68.1596611673235
20
8.46392125969783
30
0
41
1
10
68.158682432065
20
8.46399313785835
30
0
41
1
10
68.1579092033921
20
8.46404849922004
30
0
41
1
10
68.1575716666524
20
8.46407249884584
30
0
0
SPLINE
5
1ED
100
AcDbEntity
8
1
62
256
6
ByLayer
370
-1
48
1
60
0
100
AcDbSpline
70
4
71
3
72
14
73
10
40
0
40
0
40
0
40
0
40
0.0050966481374757
40
0.0240065217780261
40
0.0435263913424656
40
0.0630462609069051
40
0.375364173937937
40
0.687682086968968
40
1
40
1
40
1
40
1
41
1
10
63.5977287303936
20
2.43901413348647
30
0
41
1
10
63.6015577398541
20
2.43914838712564
30
0
41
1
10
63.6195933533705
20
2.4397807251662
30
0
41
1
10
63.6522938191691
20
2.44092701256426
30
0
41
1
10
63.6958301490131
20
2.44245314208683
30
0
41
1
10
63.9597977910153
20
2.4517063063501
30
0
41
1
10
64.443738468019
20
2.46867044083277
30
0
41
1
10
65.1476521800246
20
2.49334554553479
30
0
41
1
10
65.6169279880283
20
2.50979561533615
30
0
41
1
10
65.8515658920301
20
2.51802065023682
30
0
0
SPLINE
5
1EE
100
AcDbEntity
8
1
62
256
6
ByLayer
370
-1
48
1
60
0
100
AcDbSpline
70
4
71
3
72
14
73
10
40
0
40
0
40
0
40
0
40
0.0050966481374705
40
0.0240065217780211
40
0.0435263913424607
40
0.0630462609069003
40
0.375364173937933
40
0.687682086968967
40
1
40
1
40
1
40
1
41
1
10
68.7553053178783
20
3.29662389575174
30
0
41
1
10
68.7551715751148
20
3.3004675314063
30
0
41
1
10
68.7545416433113
20
3.31857203803634
30
0
41
1
10
68.7533997178829
20
3.35139741430189
30
0
41
1
10
68.7518793957439
20
3.39510004585321
30
0
41
1
10
68.7426614425643
20
3.66007600136442
30
0
41
1
10
68.725761861735
20
4.14586525313501
30
0
41
1
10
68.7011806532559
20
4.85246780116495
30
0
41
1
10
68.6847931809366
20
5.32353616651824
30
0
41
1
10
68.6765994447769
20
5.55907034919488
30
0
0
SPLINE
5
1EF
100
AcDbEntity
8
1
62
256
6
ByLayer
370
-1
48
1
60
0
100
AcDbSpline
70
4
71
3
72
22
73
18
40
0
40
0
40
0
40
0
40
0.0023505275440161
40
0.0123487527331343
40
0.0223469779222524
40
0.0623398786787251
40
0.102332779435189
40
0.182318580948143
40
0.262304382461084
40
0.342290183974034
40
0.662233390025815
40
0.812206767862588
40
0.957493477641947
40
0.96218014569936
40
0.972178370888474
40
0.982176596077597
40
1
40
1
40
1
40
1
41
1
10
68.7455136314575
20
3.03903103015395
30
0
41
1
10
68.7455209796975
20
3.03913516868806
30
0
41
1
10
68.7455595875198
20
3.03968347812383
30
0
41
1
10
68.7456296682652
20
3.04068783511633
30
0
41
1
10
68.7458185190781
20
3.04341282035878
30
0
41
1
10
68.7461037271925
20
3.04751924420771
30
0
41
1
10
68.7466146675384
20
3.05485783661553
30
0
41
1
10
68.7472576783974
20
3.06407359440686
30
0
41
1
10
68.7480266792884
20
3.07510688664959
30
0
41
1
10
68.7495620689303
20
3.09714785402815
30
0
41
1
10
68.7513213695617
20
3.12240312914943
30
0
41
1
10
68.7532895871431
20
3.15065746819135
30
0
41
1
10
68.7542494099548
20
3.16443310192716
30
0
41
1
10
68.7547614244067
20
3.17178012211917
30
0
41
1
10
68.7548404283087
20
3.17291374461377
30
0
41
1
10
68.7549611703022
20
3.1746506544097
30
0
41
1
10
68.7550493562991
20
3.17592829630612
30
0
41
1
10
68.75510528495
20
3.17674678738854
30
0
0
SPLINE
5
1F0
100
AcDbEntity
8
1
62
256
6
ByLayer
370
-1
48
1
60
0
100
AcDbSpline
70
4
71
3
72
14
73
10
40
0
40
0
40
0
40
0
40
0.0050966481374705
40
0.0240065217780211
40
0.0435263913424607
40
0.0630462609069003
40
0.375364173937933
40
0.687682086968967
40
1
40
1
40
1
40
1
41
1
10
62.7433824321932
20
7.61629182565275
30
0
41
1
10
62.7435161749568
20
7.61244818999816
30
0
41
1
10
62.7441461067602
20
7.59434368336812
30
0
41
1
10
62.7452880321886
20
7.5615183071026
30
0
41
1
10
62.7468083543276
20
7.51781567555128
30
0
41
1
10
62.7560263075072
20
7.25283972004004
30
0
41
1
10
62.7729258883365
20
6.76705046826947
30
0
41
1
10
62.7975070968156
20
6.06044792023954
30
0
41
1
10
62.813894569135
20
5.58937955488625
30
0
41
1
10
62.8220883052946
20
5.35384537220961
30
0
0
SPLINE
5
1F1
100
AcDbEntity
8
1
62
256
6
ByLayer
370
-1
48
1
60
0
100
AcDbSpline
70
4
71
3
72
153
73
149
40
0
40
0
40
0
40
0
40
0.125
40
0.25
40
0.375
40
0.3828125
40
0.390625
40
0.398193359375
40
0.4019775390625
40
0.405643463134766
40
0.40576171875
40
0.406005859375
40
0.40625
40
0.4072265625
40
0.40771484375
40
0.408203125
40
0.4091796875
40
0.41015625
40
0.412109375
40
0.4140625
40
0.416015625
40
0.4169921875
40
0.41796875
40
0.4189453125
40
0.41943359375
40
0.419921875
40
0.42041015625
40
0.4208984375
40
0.421875
40
0.422119140625
40
0.42236328125
40
0.422477722167969
40
0.426025390625
40
0.4296875
40
0.4375
40
0.439453125
40
0.44140625
40
0.443359375
40
0.4443359375
40
0.4453125
40
0.445556640625
40
0.44580078125
40
0.446044921875
40
0.4462890625
40
0.4464111328125
40
0.44677734375
40
0.447265625
40
0.44921875
40
0.453125
40
0.4609375
40
0.46484375
40
0.46875
40
0.46923828125
40
0.4697265625
40
0.47021484375
40
0.4705810546875
40
0.470703125
40
0.4708251953125
40
0.47119140625
40
0.471435546875
40
0.4716796875
40
0.4718017578125
40
0.47216796875
40
0.472412109375
40
0.47265625
40
0.4727783203125
40
0.474609375
40
0.4755859375
40
0.4765625
40
0.48046875
40
0.482421875
40
0.484375
40
0.486328125
40
0.48828125
40
0.490234375
40
0.4921875
40
0.494140625
40
0.49609375
40
0.498046875
40
0.5
40
0.501953125
40
0.50390625
40
0.505859375
40
0.5078125
40
0.509765625
40
0.51171875
40
0.515625
40
0.51953125
40
0.5224609375
40
0.5234375
40
0.525390625
40
0.5263671875
40
0.527099609375
40
0.52734375
40
0.52783203125
40
0.528076171875
40
0.5283203125
40
0.5284423828125
40
0.52880859375
40
0.529052734375
40
0.529296875
40
0.5294189453125
40
0.52978515625
40
0.5302734375
40
0.53125
40
0.5390625
40
0.546875
40
0.55078125
40
0.5517578125
40
0.552734375
40
0.55322265625
40
0.5537109375
40
0.553955078125
40
0.55419921875
40
0.554443359375
40
0.5545654296875
40
0.5546875
40
0.556640625
40
0.55859375
40
0.5625
40
0.56640625
40
0.5703125
40
0.573974609375
40
0.5758056640625
40
0.57763671875
40
0.577880859375
40
0.578125
40
0.5791015625
40
0.57958984375
40
0.580078125
40
0.5810546875
40
0.58203125
40
0.5859375
40
0.587890625
40
0.58984375
40
0.5908203125
40
0.591796875
40
0.5927734375
40
0.59375
40
0.593994140625
40
0.59423828125
40
0.594380187988281
40
0.601806640625
40
0.609375
40
0.625
40
0.75
40
0.875
40
1
40
1
40
1
40
1
41
1
10
67.8455072366314
20
5.5305321667395
30
0
41
1
10
67.8515633434227
20
5.35644550645659
30
0
41
1
10
67.8636755570052
20
5.00827218589075
30
0
41
1
10
67.8818438773789
20
4.48601220504196
30
0
41
1
10
67.8943345976359
20
4.12695846820844
30
0
41
1
10
67.901147717776
20
3.93111097539014
30
0
41
1
10
67.9022714094658
20
3.89880973959546
30
0
41
1
10
67.9031999336515
20
3.8721187184388
30
0
41
1
10
67.9039275609842
20
3.85120260572109
30
0
41
1
10
67.9042942393251
20
3.84066220246177
30
0
41
1
10
67.9044894068291
20
3.83505198782376
30
0
41
1
10
67.9045187928453
20
3.83420726800608
30
0
41
1
10
67.9045897628467
20
3.8321671899559
30
0
41
1
10
67.9046725611818
20
3.82978709889736
30
0
41
1
10
67.9047671878504
20
3.82706699483043
30
0
41
1
10
67.9048618145191
20
3.82434689076351
30
0
41
1
10
67.9049800978548
20
3.82094676067985
30
0
41
1
10
67.9051693511921
20
3.81550655254603
30
0
41
1
10
67.9054059178636
20
3.8087062923787
30
0
41
1
10
67.9056897978694
20
3.80054598017796
30
0
41
1
10
67.905926364541
20
3.79374572001066
30
0
41
1
10
67.9061156178782
20
3.78830551187681
30
0
41
1
10
67.9062575578811
20
3.78422535577644
30
0
41
1
10
67.9063758412169
20
3.78082522569278
30
0
41
1
10
67.9064704678855
20
3.77810512162586
30
0
41
1
10
67.9065414378869
20
3.77606504357567
30
0
41
1
10
67.9066124078884
20
3.77402496552548
30
0
41
1
10
67.906707034557
20
3.77130486145856
30
0
41
1
10
67.9067898328921
20
3.76892477039999
30
0
41
1
10
67.9068608028935
20
3.76688469234981
30
0
41
1
10
67.906890004092
20
3.76604528523541
30
0
41
1
10
67.9070792574292
20
3.76060507710156
30
0
41
1
10
67.9074341074365
20
3.7504046868506
30
0
41
1
10
67.9081619195869
20
3.72948326142966
30
0
41
1
10
67.9088124779336
20
3.71078254596958
30
0
41
1
10
67.9093802379454
20
3.69446192156804
30
0
41
1
10
67.9096641317035
20
3.68630141112053
30
0
41
1
10
67.9099007327559
20
3.67950065533634
30
0
41
1
10
67.9100900342264
20
3.67405975333884
30
0
41
1
10
67.9101965253284
20
3.67099911586584
30
0
41
1
10
67.9102675236941
20
3.6689586289317
30
0
41
1
10
67.9103030237633
20
3.66793837268702
30
0
41
1
10
67.9103385247458
20
3.66691810327751
30
0
41
1
10
67.9103681096813
20
3.66606786747624
30
0
41
1
10
67.910403612329
20
3.66504757406028
30
0
41
1
10
67.9104509504999
20
3.66368716399526
30
0
41
1
10
67.9105870545883
20
3.65977588635437
30
0
41
1
10
67.9108948147369
20
3.6509323266271
30
0
41
1
10
67.9115579715486
20
3.63188049634033
30
0
41
1
10
67.9123167451977
20
3.61009428822024
30
0
41
1
10
67.9130732321823
20
3.58834104348227
30
0
41
1
10
67.9134737452425
20
3.57680439080852
30
0
41
1
10
67.9137087020806
20
3.57002733717323
30
0
41
1
10
67.9137793317116
20
3.56799216573023
30
0
41
1
10
67.9138443759904
20
3.56612226076658
30
0
41
1
10
67.9138923501058
20
3.56475268325184
30
0
41
1
10
67.9139227009556
20
3.56389140642275
30
0
41
1
10
67.913953256658
20
3.56302717654305
30
0
41
1
10
67.9139900014753
20
3.56198829411397
30
0
41
1
10
67.9140311743265
20
3.56079673330018
30
0
41
1
10
67.9140589248511
20
3.5599661160725
30
0
41
1
10
67.9140901121837
20
3.55899574439681
30
0
41
1
10
67.9141180878918
20
3.55805560584668
30
0
41
1
10
67.9141443193092
20
3.55698131828481
30
0
41
1
10
67.914158738454
20
3.55621864122324
30
0
41
1
10
67.9141972173774
20
3.55346345111278
30
0
41
1
10
67.9141528505141
20
3.54972340506313
30
0
41
1
10
67.9139131705558
20
3.5448100821973
30
0
41
1
10
67.9133428942311
20
3.537137103784
30
0
41
1
10
67.912088763485
20
3.52806362175164
30
0
41
1
10
67.9097919179978
20
3.51763456682264
30
0
41
1
10
67.9076234961325
20
3.50980997150259
30
0
41
1
10
67.9049952753703
20
3.50200944852494
30
0
41
1
10
67.9019076840889
20
3.49427768440208
30
0
41
1
10
67.8983611506659
20
3.48665936564646
30
0
41
1
10
67.8943626179814
20
3.4791939924271
30
0
41
1
10
67.8899190289151
20
3.47192106491303
30
0
41
1
10
67.8850469621985
20
3.46487923330366
30
0
41
1
10
67.879762996563
20
3.45810714779847
30
0
41
1
10
67.8740923371554
20
3.45163912596502
30
0
41
1
10
67.8680601891224
20
3.44550948537091
30
0
41
1
10
67.8616988979431
20
3.43974585968203
30
0
41
1
10
67.8550408090965
20
3.43437588256421
30
0
41
1
10
67.8481231754408
20
3.42941885163933
30
0
41
1
10
67.840983249834
20
3.42489406452927
30
0
41
1
10
67.8312186526824
20
3.41945028389023
30
0
41
1
10
67.8186510248349
20
3.41377470670832
30
0
41
1
10
67.8046213145327
20
3.40921366147333
30
0
41
1
10
67.7944164338073
20
3.40691023223351
30
0
41
1
10
67.7868036791803
20
3.40559886743406
30
0
41
1
10
67.7817558839724
20
3.40492968889993
30
0
41
1
10
67.7770934499641
20
3.40449255688941
30
0
41
1
10
67.7746354342382
20
3.40431828522381
30
0
41
1
10
67.7728063968529
20
3.40421270824316
30
0
41
1
10
67.7715946442202
20
3.40415487009648
30
0
41
1
10
67.7703515582896
20
3.40410367426176
30
0
41
1
10
67.7695534617666
20
3.40407321445437
30
0
41
1
10
67.7685693938565
20
3.40403693947931
30
0
41
1
10
67.7675554665311
20
3.40400098768839
30
0
41
1
10
67.7663520918778
20
3.4039593145427
30
0
41
1
10
67.7654896419366
20
3.40392962618748
30
0
41
1
10
67.764460010094
20
3.40389400170952
30
0
41
1
10
67.7630956212567
20
3.40384650487135
30
0
41
1
10
67.7605554544264
20
3.40375745356838
30
0
41
1
10
67.747730099663
20
3.40330627337434
30
0
41
1
10
67.7247169061135
20
3.40249888004277
30
0
41
1
10
67.6975876983201
20
3.40154898953233
30
0
41
1
10
67.6799640077257
20
3.40093156370332
30
0
41
1
10
67.6718314814616
20
3.40064659836918
30
0
41
1
10
67.6684431556929
20
3.40052786287947
30
0
41
1
10
67.6657326188096
20
3.40043287452377
30
0
41
1
10
67.6640385822346
20
3.40037350681575
30
0
41
1
10
67.6626833808142
20
3.40032601265745
30
0
41
1
10
67.661666993282
20
3.40029039204268
30
0
41
1
10
67.6608200146273
20
3.40026070820022
30
0
41
1
10
67.6601424380835
20
3.40023696112811
30
0
41
1
10
67.6570933624859
20
3.4001300993092
30
0
41
1
10
67.6515036797796
20
3.3999341860588
30
0
41
1
10
67.6406638748983
20
3.39955423331938
30
0
41
1
10
67.6271151086497
20
3.39907929268381
30
0
41
1
10
67.6108565891514
20
3.39850936392111
30
0
41
1
10
67.5949367888092
20
3.39795130867432
30
0
41
1
10
67.5818961012949
20
3.39749417831257
30
0
41
1
10
67.5717345266085
20
3.39713797283588
30
0
41
1
10
67.566315020109
20
3.39694799658167
30
0
41
1
10
67.5630971881249
20
3.39683519818073
30
0
41
1
10
67.5610648731877
20
3.39676395708537
30
0
41
1
10
67.5586938390941
20
3.39668084247415
30
0
41
1
10
67.5559840858444
20
3.39658585434705
30
0
41
1
10
67.5532743325947
20
3.39649086621992
30
0
41
1
10
67.5498871410325
20
3.39637213106104
30
0
41
1
10
67.5417578812833
20
3.39608716667968
30
0
41
1
10
67.5322737449093
20
3.39575470823479
30
0
41
1
10
67.5214347319104
20
3.39537475572632
30
0
41
1
10
67.5146603487861
20
3.39513728540854
30
0
41
1
10
67.5092408422867
20
3.3949473091543
30
0
41
1
10
67.505176212412
20
3.39480482696365
30
0
41
1
10
67.5011115825375
20
3.39466234477297
30
0
41
1
10
67.4980631101316
20
3.39455548312998
30
0
41
1
10
67.4960307951943
20
3.39448424203462
30
0
41
1
10
67.4951564763722
20
3.39445359352175
30
0
41
1
10
67.4843174633734
20
3.39407364101328
30
0
41
1
10
67.463316875688
20
3.39333748302815
30
0
41
1
10
67.4208351425144
20
3.39184832150721
30
0
41
1
10
67.2152326146916
20
3.38464109736239
30
0
41
1
10
66.8467061727291
20
3.37172271207481
30
0
41
1
10
66.3264335487821
20
3.35348499166884
30
0
41
1
10
65.9795851328174
20
3.34132651139817
30
0
41
1
10
65.806160924835
20
3.33524727126283
30
0
0
SPLINE
5
1F2
100
AcDbEntity
8
1
62
256
6
ByLayer
370
-1
48
1
60
0
100
AcDbSpline
70
4
71
3
72
23
73
19
40
0
40
0
40
0
40
0
40
0.0365499079217356
40
0.0695172064382638
40
0.102484504954792
40
0.13545180347132
40
0.168419101987848
40
0.234353699020905
40
0.300288296053946
40
0.366222893087018
40
0.498092087153131
40
0.629961281219236
40
0.761830475285356
40
0.827765072318409
40
0.893699669351469
40
0.926666967867997
40
0.959634266384525
40
1
40
1
40
1
40
1
41
1
10
68.75510528495
20
3.17674678738854
30
0
41
1
10
68.7551748513501
20
3.17776486090241
30
0
41
1
10
68.7553054995942
20
3.17970119849463
30
0
41
1
10
68.755490304851
20
3.18255607708736
30
0
41
1
10
68.7556596930402
20
3.18531177305593
30
0
41
1
10
68.7558183077284
20
3.18806845831998
30
0
41
1
10
68.7560159424394
20
3.19174520307124
30
0
41
1
10
68.756237976306
20
3.19634302726868
30
0
41
1
10
68.7564674804792
20
3.20186251755055
30
0
41
1
10
68.7567237288756
20
3.20922416660179
30
0
41
1
10
68.7569497911588
20
3.2184297073363
30
0
41
1
10
68.7570672174869
20
3.22947908538356
30
0
41
1
10
68.7570392134477
20
3.23868675643473
30
0
41
1
10
68.756942703247
20
3.2460513559069
30
0
41
1
10
68.7568491045026
20
3.25065286940256
30
0
41
1
10
68.7567528164066
20
3.25433283113193
30
0
41
1
10
68.7566654242065
20
3.25729892809181
30
0
41
1
10
68.7565989643834
20
3.25934513801906
30
0
41
1
10
68.7565612955632
20
3.26047151484818
30
0
0
SPLINE
5
1F3
100
AcDbEntity
8
1
62
256
6
ByLayer
370
-1
48
1
60
0
100
AcDbSpline
70
4
71
3
72
153
73
149
40
0
40
0
40
0
40
0
40
0.125
40
0.25
40
0.375
40
0.3828125
40
0.390625
40
0.398193359375
40
0.4019775390625
40
0.405643463134766
40
0.40576171875
40
0.406005859375
40
0.40625
40
0.4072265625
40
0.40771484375
40
0.408203125
40
0.4091796875
40
0.41015625
40
0.412109375
40
0.4140625
40
0.416015625
40
0.4169921875
40
0.41796875
40
0.4189453125
40
0.41943359375
40
0.419921875
40
0.42041015625
40
0.4208984375
40
0.421875
40
0.422119140625
40
0.42236328125
40
0.422477722167969
40
0.426025390625
40
0.4296875
40
0.4375
40
0.439453125
40
0.44140625
40
0.443359375
40
0.4443359375
40
0.4453125
40
0.445556640625
40
0.44580078125
40
0.446044921875
40
0.4462890625
40
0.4464111328125
40
0.44677734375
40
0.447265625
40
0.44921875
40
0.453125
40
0.4609375
40
0.46484375
40
0.46875
40
0.46923828125
40
0.4697265625
40
0.47021484375
40
0.4705810546875
40
0.470703125
40
0.4708251953125
40
0.47119140625
40
0.471435546875
40
0.4716796875
40
0.4718017578125
40
0.47216796875
40
0.472412109375
40
0.47265625
40
0.4727783203125
40
0.474609375
40
0.4755859375
40
0.4765625
40
0.48046875
40
0.482421875
40
0.484375
40
0.486328125
40
0.48828125
40
0.490234375
40
0.4921875
40
0.494140625
40
0.49609375
40
0.498046875
40
0.5
40
0.501953125
40
0.50390625
40
0.505859375
40
0.5078125
40
0.509765625
40
0.51171875
40
0.515625
40
0.51953125
40
0.5224609375
40
0.5234375
40
0.525390625
40
0.5263671875
40
0.527099609375
40
0.52734375
40
0.52783203125
40
0.528076171875
40
0.5283203125
40
0.5284423828125
40
0.52880859375
40
0.529052734375
40
0.529296875
40
0.5294189453125
40
0.52978515625
40
0.5302734375
40
0.53125
40
0.5390625
40
0.546875
40
0.55078125
40
0.5517578125
40
0.552734375
40
0.55322265625
40
0.5537109375
40
0.553955078125
40
0.55419921875
40
0.554443359375
40
0.5545654296875
40
0.5546875
40
0.556640625
40
0.55859375
40
0.5625
40
0.56640625
40
0.5703125
40
0.573974609375
40
0.5758056640625
40
0.57763671875
40
0.577880859375
40
0.578125
40
0.5791015625
40
0.57958984375
40
0.580078125
40
0.5810546875
40
0.58203125
40
0.5859375
40
0.587890625
40
0.58984375
40
0.5908203125
40
0.591796875
40
0.5927734375
40
0.59375
40
0.593994140625
40
0.59423828125
40
0.594380187988281
40
0.601806640625
40
0.609375
40
0.625
40
0.75
40
0.875
40
1
40
1
40
1
40
1
41
1
10
63.6192297511603
20
5.38238355466495
30
0
41
1
10
63.613173644369
20
5.55647021494789
30
0
41
1
10
63.6010614307866
20
5.90464353551374
30
0
41
1
10
63.5828931104128
20
6.4269035163625
30
0
41
1
10
63.5704023901559
20
6.78595725319605
30
0
41
1
10
63.5635892700157
20
6.98180474601432
30
0
41
1
10
63.5624655783259
20
7.01410598180902
30
0
41
1
10
63.5615370541402
20
7.04079700296566
30
0
41
1
10
63.5608094268075
20
7.06171311568338
30
0
41
1
10
63.5604427484666
20
7.07225351894269
30
0
41
1
10
63.5602475809626
20
7.07786373358073
30
0
41
1
10
63.5602181949464
20
7.07870845339838
30
0
41
1
10
63.560147224945
20
7.08074853144856
30
0
41
1
10
63.5600644266099
20
7.08312862250713
30
0
41
1
10
63.5599697999413
20
7.08584872657406
30
0
41
1
10
63.5598751732726
20
7.08856883064098
30
0
41
1
10
63.5597568899369
20
7.09196896072461
30
0
41
1
10
63.5595676365997
20
7.09740916885846
30
0
41
1
10
63.5593310699281
20
7.10420942902576
30
0
41
1
10
63.5590471899223
20
7.11236974122653
30
0
41
1
10
63.5588106232508
20
7.11917000139383
30
0
41
1
10
63.5586213699136
20
7.12461020952767
30
0
41
1
10
63.5584794299106
20
7.12869036562805
30
0
41
1
10
63.5583611465748
20
7.13209049571171
30
0
41
1
10
63.5582665199062
20
7.13481059977863
30
0
41
1
10
63.5581955499048
20
7.13685067782882
30
0
41
1
10
63.5581245799033
20
7.138890755879
30
0
41
1
10
63.5580299532347
20
7.14161085994593
30
0
41
1
10
63.5579471548997
20
7.14399095100447
30
0
41
1
10
63.5578761848982
20
7.14603102905465
30
0
41
1
10
63.5578469836997
20
7.14687043616908
30
0
41
1
10
63.5576577303625
20
7.1523106443029
30
0
41
1
10
63.5573028803552
20
7.16251103455386
30
0
41
1
10
63.5565750682048
20
7.18343245997482
30
0
41
1
10
63.5559245098581
20
7.20213317543491
30
0
41
1
10
63.5553567498464
20
7.21845379983642
30
0
41
1
10
63.5550728560882
20
7.22661431028394
30
0
41
1
10
63.5548362550358
20
7.23341506606815
30
0
41
1
10
63.5546469535654
20
7.23885596806562
30
0
41
1
10
63.5545404624633
20
7.24191660553865
30
0
41
1
10
63.5544694640976
20
7.24395709247275
30
0
41
1
10
63.5544339640284
20
7.24497734871744
30
0
41
1
10
63.5543984630459
20
7.24599761812695
30
0
41
1
10
63.5543688781104
20
7.24684785392824
30
0
41
1
10
63.5543333754626
20
7.24786814734418
30
0
41
1
10
63.5542860372918
20
7.24922855740923
30
0
41
1
10
63.5541499332033
20
7.25313983505012
30
0
41
1
10
63.5538421730548
20
7.26198339477739
30
0
41
1
10
63.5531790162431
20
7.28103522506416
30
0
41
1
10
63.552420242594
20
7.30282143318425
30
0
41
1
10
63.5516637556094
20
7.32457467792222
30
0
41
1
10
63.5512632425492
20
7.33611133059594
30
0
41
1
10
63.5510282857111
20
7.34288838423126
30
0
41
1
10
63.5509576560802
20
7.34492355567426
30
0
41
1
10
63.5508926118013
20
7.34679346063791
30
0
41
1
10
63.5508446376859
20
7.34816303815265
30
0
41
1
10
63.5508142868361
20
7.34902431498173
30
0
41
1
10
63.5507837311337
20
7.34988854486144
30
0
41
1
10
63.5507469863164
20
7.35092742729052
30
0
41
1
10
63.5507058134652
20
7.35211898810428
30
0
41
1
10
63.5506780629406
20
7.35294960533199
30
0
41
1
10
63.5506468756081
20
7.35391997700765
30
0
41
1
10
63.5506188999
20
7.35486011555778
30
0
41
1
10
63.5505926684825
20
7.35593440311968
30
0
41
1
10
63.5505782493377
20
7.35669708018125
30
0
41
1
10
63.5505397704144
20
7.35945227029171
30
0
41
1
10
63.5505841372776
20
7.36319231634135
30
0
41
1
10
63.5508238172359
20
7.36810563920716
30
0
41
1
10
63.5513940935606
20
7.37577861762048
30
0
41
1
10
63.5526482243067
20
7.38485209965282
30
0
41
1
10
63.5549450697939
20
7.39528115458185
30
0
41
1
10
63.5571134916593
20
7.40310574990187
30
0
41
1
10
63.5597417124214
20
7.41090627287954
30
0
41
1
10
63.5628293037029
20
7.41863803700238
30
0
41
1
10
63.5663758371258
20
7.42625635575803
30
0
41
1
10
63.5703743698103
20
7.43372172897739
30
0
41
1
10
63.5748179588766
20
7.44099465649145
30
0
41
1
10
63.5796900255932
20
7.4480364881008
30
0
41
1
10
63.5849739912287
20
7.45480857360602
30
0
41
1
10
63.5906446506363
20
7.46127659543947
30
0
41
1
10
63.5966767986693
20
7.46740623603355
30
0
41
1
10
63.6030380898486
20
7.47316986172245
30
0
41
1
10
63.6096961786952
20
7.47853983884028
30
0
41
1
10
63.616613812351
20
7.48349686976516
30
0
41
1
10
63.6237537379577
20
7.48802165687522
30
0
41
1
10
63.6335183351093
20
7.49346543751426
30
0
41
1
10
63.6460859629568
20
7.49914101469616
30
0
41
1
10
63.660115673259
20
7.50370205993116
30
0
41
1
10
63.6703205539844
20
7.50600548917097
30
0
41
1
10
63.6779333086114
20
7.50731685397039
30
0
41
1
10
63.6829811038193
20
7.50798603250453
30
0
41
1
10
63.6876435378276
20
7.50842316451508
30
0
41
1
10
63.6901015535535
20
7.50859743618065
30
0
41
1
10
63.6919305909388
20
7.50870301316132
30
0
41
1
10
63.6931423435715
20
7.50876085130798
30
0
41
1
10
63.6943854295022
20
7.50881204714273
30
0
41
1
10
63.6951835260251
20
7.50884250695009
30
0
41
1
10
63.6961675939352
20
7.50887878192515
30
0
41
1
10
63.6971815212606
20
7.50891473371607
30
0
41
1
10
63.6983848959139
20
7.50895640686178
30
0
41
1
10
63.6992473458551
20
7.50898609521698
30
0
41
1
10
63.7002769776977
20
7.50902171969497
30
0
41
1
10
63.701641366535
20
7.50906921653311
30
0
41
1
10
63.7041815333653
20
7.50915826783611
30
0
41
1
10
63.7170068881287
20
7.50960944803012
30
0
41
1
10
63.7400200816782
20
7.51041684136172
30
0
41
1
10
63.7671492894715
20
7.51136673187213
30
0
41
1
10
63.784772980066
20
7.51198415770114
30
0
41
1
10
63.7929055063301
20
7.51226912303528
30
0
41
1
10
63.7962938320988
20
7.51238785852502
30
0
41
1
10
63.7990043689821
20
7.51248284688072
30
0
41
1
10
63.8006984055572
20
7.51254221458873
30
0
41
1
10
63.8020536069776
20
7.51258970874702
30
0
41
1
10
63.8030699945097
20
7.51262532936181
30
0
41
1
10
63.8039169731643
20
7.51265501320424
30
0
41
1
10
63.8045945497082
20
7.51267876027634
30
0
41
1
10
63.8076436253058
20
7.51278562209529
30
0
41
1
10
63.8132333080121
20
7.51298153534566
30
0
41
1
10
63.8240731128934
20
7.51336148808511
30
0
41
1
10
63.837621879142
20
7.51383642872068
30
0
41
1
10
63.8538803986404
20
7.51440635748338
30
0
41
1
10
63.8698001989825
20
7.51496441273017
30
0
41
1
10
63.8828408864968
20
7.51542154309192
30
0
41
1
10
63.8930024611833
20
7.51577774856858
30
0
41
1
10
63.8984219676827
20
7.51596772482281
30
0
41
1
10
63.9016397996668
20
7.51608052322376
30
0
41
1
10
63.9036721146041
20
7.51615176431909
30
0
41
1
10
63.9060431486976
20
7.51623487893033
30
0
41
1
10
63.9087529019473
20
7.51632986705744
30
0
41
1
10
63.911462655197
20
7.51642485518454
30
0
41
1
10
63.9148498467592
20
7.51654359034345
30
0
41
1
10
63.9229791065084
20
7.51682855472478
30
0
41
1
10
63.9324632428824
20
7.5171610131697
30
0
41
1
10
63.9433022558813
20
7.51754096567814
30
0
41
1
10
63.9500766390056
20
7.51777843599592
30
0
41
1
10
63.955496145505
20
7.51796841225016
30
0
41
1
10
63.9595607753797
20
7.51811089444084
30
0
41
1
10
63.9636254052542
20
7.51825337663149
30
0
41
1
10
63.9666738776601
20
7.51836023827451
30
0
41
1
10
63.9687061925974
20
7.51843147936984
30
0
41
1
10
63.9695805114195
20
7.51846212788274
30
0
41
1
10
63.9804195244183
20
7.51884208039118
30
0
41
1
10
64.0014201121037
20
7.51957823837634
30
0
41
1
10
64.0439018452773
20
7.52106739989728
30
0
41
1
10
64.2495043731001
20
7.5282746240421
30
0
41
1
10
64.6180308150626
20
7.54119300932967
30
0
41
1
10
65.1383034390096
20
7.55943072973565
30
0
41
1
10
65.4851518549743
20
7.57158921000629
30
0
41
1
10
65.6585760629567
20
7.57766845014163
30
0
0
SPLINE
5
1F4
100
AcDbEntity
8
1
62
256
6
ByLayer
370
-1
48
1
60
0
100
AcDbSpline
70
4
71
3
72
13
73
9
40
0
40
0
40
0
40
0
40
0.312317913031035
40
0.624635826062069
40
0.936953739093104
40
0.975993478221983
40
0.994903351862534
40
1
40
1
40
1
40
1
41
1
10
65.8515658920301
20
2.51802065023682
30
0
41
1
10
66.086203796032
20
2.5262456851375
30
0
41
1
10
66.5554796040357
20
2.54269575493888
30
0
41
1
10
67.2593933160412
20
2.5673708596409
30
0
41
1
10
67.7579988620452
20
2.58484905880485
30
0
41
1
10
68.0361730958911
20
2.5946002232281
30
0
41
1
10
68.0835384306898
20
2.59626057530744
30
0
41
1
10
68.1015740521794
20
2.59689268415195
30
0
41
1
10
68.1054030637889
20
2.59702687601751
30
0
0
SPLINE
5
1F5
100
AcDbEntity
8
1
62
256
6
ByLayer
370
-1
48
1
60
0
100
AcDbSpline
70
4
71
3
72
14
73
10
40
0
40
0
40
0
40
0
40
0.0050966481374645
40
0.0240065217780152
40
0.0435263913424549
40
0.0630462609068946
40
0.37536417393793
40
0.687682086968965
40
1
40
1
40
1
40
1
41
1
10
67.9009590196779
20
8.47390158791802
30
0
41
1
10
67.8971300102174
20
8.47376733427882
30
0
41
1
10
67.879094396701
20
8.47313499623829
30
0
41
1
10
67.8463939309024
20
8.47198870884023
30
0
41
1
10
67.8028576010583
20
8.47046257931763
30
0
41
1
10
67.5388899590563
20
8.46120941505438
30
0
41
1
10
67.0549492820525
20
8.44424528057172
30
0
41
1
10
66.3510355700469
20
8.41957017586969
30
0
41
1
10
65.8817597620432
20
8.40312010606831
30
0
41
1
10
65.6471218580414
20
8.39489507116764
30
0
0
SPLINE
5
1F6
100
AcDbEntity
8
1
62
256
6
ByLayer
370
-1
48
1
60
0
100
AcDbSpline
70
4
71
3
72
79
73
75
40
0
40
0
40
0
40
0
40
0.0017245864916194
40
0.0039792263717469
40
0.0084885061320018
40
0.0129977858922567
40
0.0220163454127665
40
0.0310349049332763
40
0.0671091430153155
40
0.139257619179394
40
0.211406095343472
40
0.220424654863982
40
0.224933934624237
40
0.228315894444428
40
0.229443214384492
40
0.23169785426462
40
0.233952494144747
40
0.237334453964938
40
0.238461773905002
40
0.240716413785129
40
0.242971053665257
40
0.247480333425512
40
0.249734973305639
40
0.256498892946022
40
0.265517452466531
40
0.283554571507551
40
0.292573131028061
40
0.31962880958959
40
0.355703047671629
40
0.391777285753669
40
0.409814404794688
40
0.427851523835708
40
0.445888642876728
40
0.463925761917747
40
0.481962880958767
40
0.499999999999786
40
0.518037119040806
40
0.536074238081826
40
0.554111357122844
40
0.572148476163865
40
0.590185595204883
40
0.608222714245904
40
0.626259833286923
40
0.644296952327943
40
0.662334071368963
40
0.680371190409984
40
0.716445428492022
40
0.72546398801253
40
0.734482547533042
40
0.751392346633996
40
0.752519666574061
40
0.754774306454188
40
0.757028946334316
40
0.76041090615451
40
0.761538226094571
40
0.7637928659747
40
0.766047505854825
40
0.769429465675019
40
0.770556785615081
40
0.771684105555143
40
0.775066065375337
40
0.77957534513559
40
0.784084624895845
40
0.7885939046561
40
0.824668142738139
40
0.860742380820179
40
0.932890856984257
40
0.968965095066296
40
0.987002214107316
40
0.991511493867572
40
0.994893453687761
40
0.996020773627826
40
0.998275413507953
40
1
40
1
40
1
40
1
41
1
10
62.9284621162695
20
2.83511916887556
30
0
41
1
10
62.9285095117028
20
2.83478284229304
30
0
41
1
10
62.928618465759
20
2.83401241256672
30
0
41
1
10
62.9288506917224
20
2.83239157948657
30
0
41
1
10
62.929163949104
20
2.83027575357624
30
0
41
1
10
62.9296813273913
20
2.82692057224531
30
0
41
1
10
62.9303692800249
20
2.8226927055465
30
0
41
1
10
62.9321473922168
20
2.81248971087322
30
0
41
1
10
62.9366614328151
20
2.79036274156513
30
0
41
1
10
62.9461650533345
20
2.75608920498209
30
0
41
1
10
62.9572567591712
20
2.72717353631614
30
0
41
1
10
62.9644148138909
20
2.71122475048662
30
0
41
1
10
62.965859089484
20
2.70808448708297
30
0
41
1
10
62.9666391595694
20
2.70641211638633
30
0
41
1
10
62.9672284042969
20
2.7051589133755
30
0
41
1
10
62.9677220609527
20
2.70411525583583
30
0
41
1
10
62.9684180671009
20
2.70265542541486
30
0
41
1
10
62.9690198768118
20
2.7014055501655
30
0
41
1
10
62.9696258694809
20
2.70015683210903
30
0
41
1
10
62.9701334770015
20
2.6991169633946
30
0
41
1
10
62.9709512217091
20
2.69745475746592
30
0
41
1
10
62.9717773208263
20
2.69579496864949
30
0
41
1
10
62.9730289873084
20
2.69330903436503
30
0
41
1
10
62.9747201175555
20
2.69000122967662
30
0
41
1
10
62.9779638462131
20
2.68382240287488
30
0
41
1
10
62.9815567575765
20
2.67727690257931
30
0
41
1
10
62.9871446421056
20
2.66753441397177
30
0
41
1
10
62.9949458533404
20
2.65468604258541
30
0
41
1
10
63.0065003510854
20
2.63741028424005
30
0
41
1
10
63.0178423110224
20
2.62218028296408
30
0
41
1
10
63.0273967620218
20
2.61032023101348
30
0
41
1
10
63.0347975818971
20
2.60159686881559
30
0
41
1
10
63.0424279234988
20
2.59305488561287
30
0
41
1
10
63.0502804085343
20
2.58470276220803
30
0
41
1
10
63.0583476587107
20
2.57654897940387
30
0
41
1
10
63.0666222957351
20
2.56860201800319
30
0
41
1
10
63.0750969413147
20
2.56087035880878
30
0
41
1
10
63.0837626528153
20
2.55336079866461
30
0
41
1
10
63.0926104876025
20
2.54608013441469
30
0
41
1
10
63.1016315030423
20
2.53903516290305
30
0
41
1
10
63.1108167565002
20
2.53223268097363
30
0
41
1
10
63.1201562253471
20
2.52567747923743
30
0
41
1
10
63.1296398869537
20
2.51937434830538
30
0
41
1
10
63.1392577186908
20
2.51332807878839
30
0
41
1
10
63.1489996979293
20
2.50754346129742
30
0
41
1
10
63.1621404585529
20
2.50018299010944
30
0
41
1
10
63.1738189352736
20
2.49420961112426
30
0
41
1
10
63.1839314611932
20
2.48942969739639
30
0
41
1
10
63.1904872205309
20
2.48643060753852
30
0
41
1
10
63.1955883016674
20
2.48420667789566
30
0
41
1
10
63.1994256455019
20
2.48258991153944
30
0
41
1
10
63.2004921685904
20
2.48214347571675
30
0
41
1
10
63.2019863861653
20
2.48152344300826
30
0
41
1
10
63.2032682811333
20
2.48099732046512
30
0
41
1
10
63.2045510548721
20
2.48047546648027
30
0
41
1
10
63.2056205757887
20
2.48004325628074
30
0
41
1
10
63.2071188942934
20
2.47944314351091
30
0
41
1
10
63.208404201455
20
2.47893409955748
30
0
41
1
10
63.2094759544726
20
2.47851345629925
30
0
41
1
10
63.2105480350614
20
2.47809459324068
30
0
41
1
10
63.2122643985122
20
2.47743010956685
30
0
41
1
10
63.2146267885133
20
2.47653015764379
30
0
41
1
10
63.2172067566795
20
2.47556549576754
30
0
41
1
10
63.2258154866169
20
2.47240699227532
30
0
41
1
10
63.2405137254258
20
2.4674740402165
30
0
41
1
10
63.2682883150972
20
2.45963246558068
30
0
41
1
10
63.296066621954
20
2.45393175919782
30
0
41
1
10
63.3200862690151
20
2.45072603255576
30
0
41
1
10
63.3311983512347
20
2.44963422632082
30
0
41
1
10
63.3360432471642
20
2.44922591328887
30
0
41
1
10
63.3377410391093
20
2.44909189375071
30
0
41
1
10
63.339026582748
20
2.44899446170666
30
0
41
1
10
63.3400053180065
20
2.44892258354614
30
0
41
1
10
63.3407785466794
20
2.44886722218445
30
0
41
1
10
63.341116083419
20
2.44884322255865
30
0
0
SPLINE
5
1F7
100
AcDbEntity
8
1
62
256
6
ByLayer
370
-1
48
1
60
0
100
AcDbSpline
70
4
71
3
72
48
73
44
40
0
40
0
40
0
40
0
40
0.015625
40
0.0234375
40
0.02734375
40
0.029296875
40
0.0302734375
40
0.03125
40
0.03173828125
40
0.046875
40
0.0625
40
0.125
40
0.1875
40
0.25
40
0.3125
40
0.375
40
0.390625
40
0.40625
40
0.4140625
40
0.421875
40
0.4375
40
0.5
40
0.5625
40
0.59375
40
0.6015625
40
0.60546875
40
0.609375
40
0.6171875
40
0.625
40
0.65625
40
0.671875
40
0.6796875
40
0.6875
40
0.71875
40
0.75
40
0.78125
40
0.7890625
40
0.79296875
40
0.796875
40
0.8046875
40
0.8125
40
0.875
40
1
40
1
40
1
40
1
41
1
10
63.6192297511603
20
5.38238355466498
30
0
41
1
10
63.6147376858634
20
5.38222608908413
30
0
41
1
10
63.6079579970497
20
5.38198557308672
30
0
41
1
10
63.6006499768361
20
5.38172112232056
30
0
41
1
10
63.5972163420435
20
5.38159550532444
30
0
41
1
10
63.5955687381473
20
5.3815348719894
30
0
41
1
10
63.5946375263313
20
5.38150050092824
30
0
41
1
10
63.5940555107359
20
5.38147900581836
30
0
41
1
10
63.5900856526741
20
5.38133243865536
30
0
41
1
10
63.582613346431
20
5.38105655964276
30
0
41
1
10
63.5603131824862
20
5.38023323321448
30
0
41
1
10
63.5266878043916
20
5.37899177765775
30
0
41
1
10
63.4818539669321
20
5.37733650358206
30
0
41
1
10
63.4370201294726
20
5.3756812295064
30
0
41
1
10
63.392186292013
20
5.37402595543074
30
0
41
1
10
63.3585703616552
20
5.37278483893672
30
0
41
1
10
63.3361345474518
20
5.37195652377343
30
0
41
1
10
63.3267957392706
20
5.37161173151813
30
0
41
1
10
63.3193549254834
20
5.37133698271458
30
0
41
1
10
63.3118420016426
20
5.37106019855915
30
0
41
1
10
63.2907695672972
20
5.37028615752726
30
0
41
1
10
63.2542182730951
20
5.36895626433585
30
0
41
1
10
63.2109857447481
20
5.36740499298281
30
0
41
1
10
63.1822419424414
20
5.36638343660326
30
0
41
1
10
63.1699984404329
20
5.36594996579336
30
0
41
1
10
63.1655630171607
20
5.36579311405771
30
0
41
1
10
63.161094811922
20
5.36563523442197
30
0
41
1
10
63.1554721439939
20
5.36543662916344
30
0
41
1
10
63.1419963931405
20
5.36496060291773
30
0
41
1
10
63.1262782313963
20
5.36440535358867
30
0
41
1
10
63.1105493016892
20
5.36384975634135
30
0
41
1
10
63.1015791572903
20
5.36353284782555
30
0
41
1
10
63.088092939779
20
5.36305715932863
30
0
41
1
10
63.0676830216718
20
5.36233995284118
30
0
41
1
10
63.0402808339489
20
5.3613827704678
30
0
41
1
10
63.0197380279363
20
5.36066951403515
30
0
41
1
10
63.0072355392083
20
5.36023702996974
30
0
41
1
10
63.0027020104394
20
5.36008040418477
30
0
41
1
10
62.9981637341178
20
5.3599237162102
30
0
41
1
10
62.9924820887033
20
5.35972758542167
30
0
41
1
10
62.9697629175822
20
5.35894329032672
30
0
41
1
10
62.9129649897792
20
5.35698255258939
30
0
41
1
10
62.8584389790885
20
5.35510024436152
30
0
41
1
10
62.8220883052946
20
5.35384537220963
30
0
0
SPLINE
5
1F8
100
AcDbEntity
8
1
62
256
6
ByLayer
370
-1
48
1
60
0
100
AcDbSpline
70
4
71
3
72
8
73
4
40
0
40
0
40
0
40
0
40
1
40
1
40
1
40
1
41
1
10
63.3572723455985
20
8.31456045477648
30
0
41
1
10
63.3692756450425
20
8.31502512869062
30
0
41
1
10
63.381279786787
20
8.31546787804311
30
0
41
1
10
63.3932846913426
20
8.31588869990208
30
0
0
SPLINE
5
1F9
100
AcDbEntity
8
1
62
256
6
ByLayer
370
-1
48
1
60
0
100
AcDbSpline
70
4
71
3
72
13
73
9
40
0
40
0
40
0
40
0
40
0.312317913031033
40
0.624635826062066
40
0.9369537390931
40
0.975993478221979
40
0.99490335186253
40
1
40
1
40
1
40
1
41
1
10
62.8220883052946
20
5.35384537220961
30
0
41
1
10
62.8302820414543
20
5.11831118953296
30
0
41
1
10
62.8466695137736
20
4.64724282417967
30
0
41
1
10
62.8712507222527
20
3.94064027614971
30
0
41
1
10
62.888662411592
20
3.44013013796186
30
0
41
1
10
62.8983764698907
20
3.16089332373389
30
0
41
1
10
62.900030503829
20
3.11334706105106
30
0
41
1
10
62.9006602073086
20
3.09524254641733
30
0
41
1
10
62.9007938885335
20
3.09139890860556
30
0
0
SPLINE
5
1FA
100
AcDbEntity
8
1
62
256
6
ByLayer
370
-1
48
1
60
0
100
AcDbSpline
70
4
71
3
72
12
73
8
40
0
40
0
40
0
40
0
40
0.250000000000025
40
0.250000000000025
40
0.50000000000005
40
0.50000000000005
40
1
40
1
40
1
40
1
41
1
10
68.7608681154001
20
-4.39956982461152
30
0
41
1
10
68.7441884013493
20
-4.41690556614415
30
0
41
1
10
68.7249438439699
20
-4.43192943113397
30
0
41
1
10
68.6877274141913
20
-4.45457214124863
30
0
41
1
10
68.6701227737914
20
-4.46239819451546
30
0
41
1
10
68.6202914473132
20
-4.48027886883625
30
0
41
1
10
68.591737747885
20
-4.48485887293859
30
0
41
1
10
68.5647601773691
20
-4.48713655282251
30
0
0
SPLINE
5
1FB
100
AcDbEntity
8
1
62
256
6
ByLayer
370
-1
48
1
60
0
100
AcDbSpline
70
4
71
3
72
8
73
4
40
0
40
0
40
0
40
0
40
1
40
1
40
1
40
1
41
1
10
68.8083925983469
20
-2.95235409036431
30
0
41
1
10
68.8087599223751
20
-2.94185492611359
30
0
41
1
10
68.8092157296039
20
-2.93139598607988
30
0
41
1
10
68.8097600627045
20
-2.92097728966141
30
0
0
SPLINE
5
1FC
100
AcDbEntity
8
1
62
256
6
ByLayer
370
-1
48
1
60
0
100
AcDbSpline
70
4
71
3
72
12
73
8
40
0
40
0
40
0
40
0
40
0.24999999999999
40
0.24999999999999
40
0.499999999999979
40
0.499999999999979
40
1
40
1
40
1
40
1
41
1
10
68.1632702490347
20
0.757939571881622
30
0
41
1
10
68.1803660532784
20
0.741019144449865
30
0
41
1
10
68.1956532344048
20
0.722045284511466
30
0
41
1
10
68.219500908543
20
0.68605875418055
30
0
41
1
10
68.2282099890555
20
0.669353733038577
30
0
41
1
10
68.2490536771958
20
0.622539488168655
30
0
41
1
10
68.2559463328968
20
0.596338842552058
30
0
41
1
10
68.2606314137619
20
0.571810253004287
30
0
0
SPLINE
5
1FD
100
AcDbEntity
8
1
62
256
6
ByLayer
370
-1
48
1
60
0
100
AcDbSpline
70
4
71
3
72
12
73
8
40
0
40
0
40
0
40
0
40
0.108391791962
40
0.108391791962
40
0.554195895981
40
0.554195895981
40
1
40
1
40
1
40
1
41
1
10
68.0342185979607
20
0.843744711664669
30
0
41
1
10
68.0385571784131
20
0.841892783881832
30
0
41
1
10
68.042936433854
20
0.839944262062062
30
0
41
1
10
68.0655396803517
20
0.829453773486051
30
0
41
1
10
68.0842713954786
20
0.819330626523765
30
0
41
1
10
68.1236010482618
20
0.793128522512205
30
0
41
1
10
68.1438218545509
20
0.777188455574645
30
0
41
1
10
68.1632702490347
20
0.757939571881622
30
0
0
SPLINE
5
1FE
100
AcDbEntity
8
1
62
256
6
ByLayer
370
-1
48
1
60
0
100
AcDbSpline
70
4
71
3
72
16
73
12
40
0
40
0
40
0
40
0
40
0.249999999999999
40
0.249999999999999
40
0.499999999999999
40
0.499999999999999
40
0.749999999999998
40
0.749999999999998
40
0.874999999999999
40
0.874999999999999
40
1
40
1
40
1
40
1
41
1
10
68.8543735090024
20
-3.98734190497825
30
0
41
1
10
68.8593772587966
20
-4.01530774164576
30
0
41
1
10
68.8629918672149
20
-4.04424464301817
30
0
41
1
10
68.8661434239518
20
-4.10484972220507
30
0
41
1
10
68.865753343965
20
-4.13647391839635
30
0
41
1
10
68.8579338697389
20
-4.20425004532169
30
0
41
1
10
68.850661667157
20
-4.24037175143019
30
0
41
1
10
68.8287299837152
20
-4.29824263378629
30
0
41
1
10
68.8196340091616
20
-4.31798354872336
30
0
41
1
10
68.7951345424825
20
-4.3589881775525
30
0
41
1
10
68.7798431606282
20
-4.37984847455456
30
0
41
1
10
68.7608681154001
20
-4.39956982461152
30
0
0
SPLINE
5
1FF
100
AcDbEntity
8
1
62
256
6
ByLayer
370
-1
48
1
60
0
100
AcDbSpline
70
4
71
3
72
12
73
8
40
0
40
0
40
0
40
0
40
0.250000000000005
40
0.250000000000005
40
0.500000000000011
40
0.500000000000011
40
1
40
1
40
1
40
1
41
1
10
68.732404472027
20
-2.54706285669533
30
0
41
1
10
68.7465384352053
20
-2.57588259394561
30
0
41
1
10
68.7588891277684
20
-2.60556170530467
30
0
41
1
10
68.7799099896265
20
-2.66669137886538
30
0
41
1
10
68.7885983174828
20
-2.69835117082249
30
0
41
1
10
68.8081994699593
20
-2.79314018030243
30
0
41
1
10
68.8130988621071
20
-2.85707168234907
30
0
41
1
10
68.8097600627044
20
-2.92097728966138
30
0
0
SPLINE
5
200
100
AcDbEntity
8
1
62
256
6
ByLayer
370
-1
48
1
60
0
100
AcDbSpline
70
4
71
3
72
16
73
12
40
0
40
0
40
0
40
0
40
0.25
40
0.25
40
0.5
40
0.5
40
0.749999999999999
40
0.749999999999999
40
0.875
40
0.875
40
1
40
1
40
1
40
1
41
1
10
68.854373509002
20
-3.98734190498169
30
0
41
1
10
68.8472667077286
20
-3.94762216442459
30
0
41
1
10
68.8402932644685
20
-3.90665436811196
30
0
41
1
10
68.8268045127744
20
-3.82043123556087
30
0
41
1
10
68.8202608557821
20
-3.77515655521893
30
0
41
1
10
68.8081720627507
20
-3.67662118361545
30
0
41
1
10
68.8025349534313
20
-3.62338626690243
30
0
41
1
10
68.7964025554553
20
-3.5315147863939
30
0
41
1
10
68.7947334082486
20
-3.49824448145444
30
0
41
1
10
68.7930837578336
20
-3.42651243319378
30
0
41
1
10
68.7931703919203
20
-3.38744799477357
30
0
41
1
10
68.7945146107956
20
-3.34902640052897
30
0
0
SPLINE
5
201
100
AcDbEntity
8
1
62
256
6
ByLayer
370
-1
48
1
60
0
100
AcDbSpline
70
4
71
3
72
14
73
10
40
0
40
0
40
0
40
0
40
0.25
40
0.25
40
0.5
40
0.5
40
0.75
40
0.75
40
1
40
1
40
1
40
1
41
1
10
68.4311710382908
20
-0.162772718409798
30
0
41
1
10
68.4160038914697
20
-0.121099457783231
30
0
41
1
10
68.4025480955538
20
-0.0802030803660898
30
0
41
1
10
68.3805708989725
20
-0.0076023953403421
30
0
41
1
10
68.3716478678564
20
0.0251122563485922
30
0
41
1
10
68.3565500506003
20
0.0843817468058319
30
0
41
1
10
68.3502219078144
20
0.111552448138554
30
0
41
1
10
68.339078849081
20
0.162497014421888
30
0
41
1
10
68.3342927253843
20
0.18615883515875
30
0
41
1
10
68.3299829206569
20
0.208722678609036
30
0
0
SPLINE
5
202
100
AcDbEntity
8
1
62
256
6
ByLayer
370
-1
48
1
60
0
100
AcDbSpline
70
4
71
3
72
8
73
4
40
0
40
0
40
0
40
0
40
1
40
1
40
1
40
1
41
1
10
68.4311710382884
20
-0.162772718409656
30
0
41
1
10
68.4492382357045
20
-0.212414159584768
30
0
41
1
10
68.4561083364013
20
-0.261938382642086
30
0
41
1
10
68.4552129450807
20
-0.305723522663897
30
0
0
SPLINE
5
203
100
AcDbEntity
8
1
62
256
6
ByLayer
370
-1
48
1
60
0
100
AcDbSpline
70
4
71
3
72
10
73
6
40
0
40
0
40
0
40
0
40
0.5
40
0.5
40
1
40
1
40
1
40
1
41
1
10
68.457422757584
20
-0.441820654983786
30
0
41
1
10
68.4561273917441
20
-0.417149704618367
30
0
41
1
10
68.4553613262588
20
-0.393518427824375
30
0
41
1
10
68.4546912551613
20
-0.347949167769258
30
0
41
1
10
68.4547970610246
20
-0.326060487301135
30
0
41
1
10
68.4552129450806
20
-0.305723522663385
30
0
0
SPLINE
5
204
100
AcDbEntity
8
1
62
256
6
ByLayer
370
-1
48
1
60
0
100
AcDbSpline
70
4
71
3
72
8
73
4
40
0
40
0
40
0
40
0
40
1
40
1
40
1
40
1
41
1
10
68.732404472027
20
-2.54706285669533
30
0
41
1
10
68.7290650926409
20
-2.54025372359706
30
0
41
1
10
68.7258120871138
20
-2.53341647049311
30
0
41
1
10
68.7226800638671
20
-2.52662755497858
30
0
0
SPLINE
5
205
100
AcDbEntity
8
SK1
62
256
6
ByLayer
370
-1
48
1
60
0
100
AcDbSpline
70
4
71
3
72
8
73
4
40
0
40
0
40
0
40
0
40
1
40
1
40
1
40
1
41
1
10
-46.6000000000004
20
-5.92285193129203
30
0
41
1
10
-46.94738484153
20
-5.72075834496076
30
0
41
1
10
-47.2923417749157
20
-5.51343483034259
30
0
41
1
10
-47.6338144512151
20
-5.29932072668743
30
0
0
SPLINE
5
206
100
AcDbEntity
8
SK1
62
256
6
ByLayer
370
-1
48
1
60
0
100
AcDbSpline
70
4
71
3
72
8
73
4
40
0
40
0
40
0
40
0
40
1
40
1
40
1
40
1
41
1
10
-47.6338144512151
20
5.29932072668754
30
0
41
1
10
-47.2923417749157
20
5.5134348303427
30
0
41
1
10
-46.94738484153
20
5.72075834496087
30
0
41
1
10
-46.6000000000004
20
5.92285193129214
30
0
0
SPLINE
5
207
100
AcDbEntity
8
SK1
62
256
6
ByLayer
370
-1
48
1
60
0
100
AcDbSpline
70
4
71
3
72
20
73
16
40
0
40
0
40
0
40
0
40
0.124999999999999
40
0.124999999999999
40
0.249999999999997
40
0.249999999999997
40
0.374999999999996
40
0.374999999999996
40
0.499999999999994
40
0.499999999999994
40
0.624999999999993
40
0.624999999999993
40
0.749999999999992
40
0.749999999999992
40
1
40
1
40
1
40
1
41
1
10
-47.633814451215
20
-5.29932072668728
30
0
41
1
10
-47.6738922636715
20
-5.27419067826415
30
0
41
1
10
-47.7166430277408
20
-5.2536833095611
30
0
41
1
10
-47.8080113883237
20
-5.22561624608014
30
0
41
1
10
-47.8558086398442
20
-5.21864267878075
30
0
41
1
10
-47.9498238136525
20
-5.22043840528849
30
0
41
1
10
-47.9974643733847
20
-5.22930496216131
30
0
41
1
10
-48.0869190094971
20
-5.26009470978795
30
0
41
1
10
-48.1294303248595
20
-5.28196037105604
30
0
41
1
10
-48.2086279314314
20
-5.33453450915434
30
0
41
1
10
-48.2447916817791
20
-5.36473843771279
30
0
41
1
10
-48.3120993158946
20
-5.43087025673137
30
0
41
1
10
-48.3433839743252
20
-5.46708425266206
30
0
41
1
10
-48.4290137419149
20
-5.57994089637941
30
0
41
1
10
-48.4760766654538
20
-5.66116280030394
30
0
41
1
10
-48.5162227297291
20
-5.74651411012809
30
0
0
SPLINE
5
208
100
AcDbEntity
8
SK1
62
256
6
ByLayer
370
-1
48
1
60
0
100
AcDbSpline
70
4
71
3
72
8
73
4
40
0
40
0
40
0
40
0
40
1
40
1
40
1
40
1
41
1
10
-48.6
20
5.92285193129126
30
0
41
1
10
-48.5718597554103
20
5.86419941966201
30
0
41
1
10
-48.5439308119344
20
5.80542202928868
30
0
41
1
10
-48.516222729729
20
5.74651411012826
30
0
0
SPLINE
5
209
100
AcDbEntity
8
SK1
62
256
6
ByLayer
370
-1
48
1
60
0
100
AcDbSpline
70
4
71
3
72
70
73
66
40
0
40
0
40
0
40
0
40
0.015625
40
0.015625
40
0.0312499999999999
40
0.0312499999999999
40
0.0468749999999999
40
0.0468749999999999
40
0.0624999999999998
40
0.0624999999999998
40
0.0937499999999997
40
0.0937499999999997
40
0.125
40
0.125
40
0.156249999999999
40
0.156249999999999
40
0.187499999999999
40
0.187499999999999
40
0.249999999999999
40
0.249999999999999
40
0.281249999999999
40
0.281249999999999
40
0.312499999999999
40
0.312499999999999
40
0.374999999999999
40
0.374999999999999
40
0.406249999999999
40
0.406249999999999
40
0.437499999999999
40
0.437499999999999
40
0.499999999999999
40
0.499999999999999
40
0.562499999999999
40
0.562499999999999
40
0.593749999999999
40
0.593749999999999
40
0.624999999999999
40
0.624999999999999
40
0.687499999999999
40
0.687499999999999
40
0.749999999999999
40
0.749999999999999
40
0.781249999999999
40
0.781249999999999
40
0.812499999999999
40
0.812499999999999
40
0.828124999999999
40
0.828124999999999
40
0.843749999999999
40
0.843749999999999
40
0.874999999999999
40
0.874999999999999
40
0.890624999999999
40
0.890624999999999
40
0.906249999999999
40
0.906249999999999
40
0.9375
40
0.9375
40
0.953125
40
0.953125
40
0.96875
40
0.96875
40
0.984375
40
0.984375
40
1
40
1
40
1
40
1
41
1
10
-6.5
20
-5.92285193129121
30
0
41
1
10
-6.4207001561935
20
-5.92285193129121
30
0
41
1
10
-6.34086123714724
20
-5.9185668895135
30
0
41
1
10
-6.18144914173817
20
-5.90119679294747
30
0
41
1
10
-6.10329779169277
20
-5.88829240949369
30
0
41
1
10
-5.94990088501589
20
-5.85451305048375
30
0
41
1
10
-5.87465633133542
20
-5.83363525531988
30
0
41
1
10
-5.72696960000087
20
-5.78406116811425
30
0
41
1
10
-5.65429253457478
20
-5.75520748082337
30
0
41
1
10
-5.44519110301013
20
-5.65925614820594
30
0
41
1
10
-5.31596620096835
20
-5.58241846129397
30
0
41
1
10
-5.07484414087321
20
-5.40540504402466
30
0
41
1
10
-4.96593256698816
20
-5.30735528286371
30
0
41
1
10
-4.76784635237644
20
-5.09639651205995
30
0
41
1
10
-4.67840953317994
20
-4.983217129438
30
0
41
1
10
-4.51537314962405
20
-4.74292412211906
30
0
41
1
10
-4.44295328505657
20
-4.61746994914878
30
0
41
1
10
-4.24868198160985
20
-4.23068443115997
30
0
41
1
10
-4.14844766983134
20
-3.95746366364494
30
0
41
1
10
-4.0262637687357
20
-3.52851959599104
30
0
41
1
10
-3.99045707400202
20
-3.38261304841748
30
0
41
1
10
-3.92745056712241
20
-3.08915292017716
30
0
41
1
10
-3.90009723356329
20
-2.94105776320953
30
0
41
1
10
-3.8278752392381
20
-2.49297350515943
30
0
41
1
10
-3.79269532434782
20
-2.18920722447757
30
0
41
1
10
-3.75266975157555
20
-1.72668593189553
30
0
41
1
10
-3.74149452812992
20
-1.57136096042274
30
0
41
1
10
-3.7227914524648
20
-1.25845966931755
30
0
41
1
10
-3.71525523181913
20
-1.10051711083781
30
0
41
1
10
-3.69757555686806
20
-0.627542985956865
30
0
41
1
10
-3.69216291533115
20
-0.312549998346725
30
0
41
1
10
-3.69221342580033
20
0.316814481428594
30
0
41
1
10
-3.69767917852337
20
0.631185932377917
30
0
41
1
10
-3.71533699604186
20
1.10226412810465
30
0
41
1
10
-3.72282689544929
20
1.25921004505511
30
0
41
1
10
-3.74159811083336
20
1.57293530507485
30
0
41
1
10
-3.75286596385365
20
1.72931583567794
30
0
41
1
10
-3.7931360613473
20
2.19356375631057
30
0
41
1
10
-3.82851600359484
20
2.49788201632404
30
0
41
1
10
-3.92509289084615
20
3.09518912355421
30
0
41
1
10
-3.98613026108981
20
3.38819589012314
30
0
41
1
10
-4.10872562486918
20
3.81772380638489
30
0
41
1
10
-4.15457050303766
20
3.95816262372668
30
0
41
1
10
-4.25798900802536
20
4.23138581985137
30
0
41
1
10
-4.31562107045932
20
4.36443286751282
30
0
41
1
10
-4.41324202900785
20
4.55806429666799
30
0
41
1
10
-4.44765197842653
20
4.62161604232489
30
0
41
1
10
-4.52071677173481
20
4.74659993544324
30
0
41
1
10
-4.55949059300505
20
4.80819083961242
30
0
41
1
10
-4.68167362759087
20
4.98750932801642
30
0
41
1
10
-4.77111361192291
20
5.10028531412462
30
0
41
1
10
-4.91992617419712
20
5.25814375735854
30
0
41
1
10
-4.97198266212237
20
5.3088730991264
30
0
41
1
10
-5.08163619478131
20
5.40624856211491
30
0
41
1
10
-5.13955477027798
20
5.4531151519183
30
0
41
1
10
-5.31981523628792
20
5.58481269193101
30
0
41
1
10
-5.44864000404647
20
5.66109472307599
30
0
41
1
10
-5.65716976919146
20
5.75639550475049
30
0
41
1
10
-5.7298085887667
20
5.78512422111541
30
0
41
1
10
-5.87748335724046
20
5.83446980910264
30
0
41
1
10
-5.95248390556498
20
5.85515796054099
30
0
41
1
10
-6.10485268754977
20
5.88855660979888
30
0
41
1
10
-6.18222037802389
20
5.90126892263172
30
0
41
1
10
-6.3394359509619
20
5.91842344284453
30
0
41
1
10
-6.41995776294141
20
5.92285193129121
30
0
41
1
10
-6.5
20
5.92285193129121
30
0
0
SPLINE
5
20A
100
AcDbEntity
8
SK1
62
256
6
ByLayer
370
-1
48
1
60
0
100
AcDbSpline
70
4
71
3
72
8
73
4
40
0
40
0
40
0
40
0
40
1
40
1
40
1
40
1
41
1
10
-49
20
-5.92285193129115
30
0
41
1
10
-49.3676239342109
20
-5.30236629245442
30
0
41
1
10
-49.7070222547918
20
-4.66800398302257
30
0
41
1
10
-50
20
-4.01081974164879
30
0
0
SPLINE
5
20B
100
AcDbEntity
8
SK1
62
256
6
ByLayer
370
-1
48
1
60
0
100
AcDbSpline
70
4
71
3
72
20
73
16
40
0
40
0
40
0
40
0
40
0.249999999999993
40
0.249999999999993
40
0.374999999999994
40
0.374999999999994
40
0.499999999999995
40
0.499999999999995
40
0.624999999999996
40
0.624999999999996
40
0.749999999999998
40
0.749999999999998
40
0.874999999999999
40
0.874999999999999
40
1
40
1
40
1
40
1
41
1
10
-48.516222729729
20
5.74651411012826
30
0
41
1
10
-48.4762911096295
20
5.66161871277322
30
0
41
1
10
-48.4283722366634
20
5.57893837743811
30
0
41
1
10
-48.3426850116238
20
5.46624297823843
30
0
41
1
10
-48.3114261194144
20
5.43013690581458
30
0
41
1
10
-48.2441155430023
20
5.36414748183782
30
0
41
1
10
-48.2081109043675
20
5.33418916709314
30
0
41
1
10
-48.1299068985677
20
5.28227885986365
30
0
41
1
10
-48.0869527159662
20
5.26011190276751
30
0
41
1
10
-47.9975349560404
20
5.22932367138964
30
0
41
1
10
-47.9502203463448
20
5.22040015827844
30
0
41
1
10
-47.8545747664299
20
5.21866533516589
30
0
41
1
10
-47.8075489790091
20
5.22575417310171
30
0
41
1
10
-47.7170288270798
20
5.25356891952413
30
0
41
1
10
-47.6737128978907
20
5.27430314624814
30
0
41
1
10
-47.6338144512151
20
5.29932072668754
30
0
0
SPLINE
5
20C
100
AcDbEntity
8
SK1
62
256
6
ByLayer
370
-1
48
1
60
0
100
AcDbSpline
70
4
71
3
72
8
73
4
40
0
40
0
40
0
40
0
40
1
40
1
40
1
40
1
41
1
10
-50
20
4.0108197416489
30
0
41
1
10
-49.7054172377832
20
4.67160422878337
30
0
41
1
10
-49.3659298245044
20
5.30522565672777
30
0
41
1
10
-49
20
5.92285193129126
30
0
0
SPLINE
5
20D
100
AcDbEntity
8
SK1
62
256
6
ByLayer
370
-1
48
1
60
0
100
AcDbSpline
70
4
71
3
72
8
73
4
40
0
40
0
40
0
40
0
40
1
40
1
40
1
40
1
41
1
10
-48.516222729729
20
-5.74651411012815
30
0
41
1
10
-48.5439308119344
20
-5.80542202928857
30
0
41
1
10
-48.5718597554103
20
-5.8641994196619
30
0
41
1
10
-48.6
20
-5.92285193129118
30
0
0
LINE
5
45
100
AcDbEntity
8
80
62
256
6
ByLayer
370
-1
48
1
60
0
100
AcDbLine
10
0
20
0
30
0
11
-7
21
0
31
0
39
0
210
0
220
0
230
1
0
LINE
5
46
100
AcDbEntity
8
81
62
256
6
ByLayer
370
-1
48
1
60
0
100
AcDbLine
10
69
20
0
30
0
11
76
21
0
31
0
39
0
210
0
220
0
230
1
0
LINE
5
47
100
AcDbEntity
8
SK1
62
256
6
ByLayer
370
-1
48
1
60
0
100
AcDbLine
10
-2
20
9.99675
30
0
11
-46.6
21
9.99675
31
0
39
0
210
0
220
0
230
1
0
LINE
5
49
100
AcDbEntity
8
SK1
62
256
6
ByLayer
370
-1
48
1
60
0
100
AcDbLine
10
-46.6
20
-9.99675
30
0
11
-2
21
-9.99675
31
0
39
0
210
0
220
0
230
1
0
LINE
5
4A
100
AcDbEntity
8
SK1
62
256
6
ByLayer
370
-1
48
1
60
0
100
AcDbLine
10
-2
20
-9.99675
30
0
11
-1.551212
21
-9.787477
31
0
39
0
210
0
220
0
230
1
0
LINE
5
4B
100
AcDbEntity
8
SK1
62
256
6
ByLayer
370
-1
48
1
60
0
100
AcDbLine
10
-1.551212
20
9.787477
30
0
11
-2
21
9.99675
31
0
39
0
210
0
220
0
230
1
0
LINE
5
4C
100
AcDbEntity
8
SK1
62
256
6
ByLayer
370
-1
48
1
60
0
100
AcDbLine
10
-0.15
20
9.75
30
0
11
-1.382165
21
9.75
31
0
39
0
210
0
220
0
230
1
0
LINE
5
4D
100
AcDbEntity
8
SK1
62
256
6
ByLayer
370
-1
48
1
60
0
100
AcDbLine
10
-1.382165
20
-9.75
30
0
11
-0.15
21
-9.75
31
0
39
0
210
0
220
0
230
1
0
LINE
5
4E
100
AcDbEntity
8
SK1
62
256
6
ByLayer
370
-1
48
1
60
0
100
AcDbLine
10
-48.6
20
-9.99675
30
0
11
-48.516223
21
-9.893294
31
0
39
0
210
0
220
0
230
1
0
LINE
5
4F
100
AcDbEntity
8
SK1
62
256
6
ByLayer
370
-1
48
1
60
0
100
AcDbLine
10
-48.516223
20
9.893294
30
0
11
-48.6
21
9.99675
31
0
39
0
210
0
220
0
230
1
0
LINE
5
50
100
AcDbEntity
8
SK1
62
256
6
ByLayer
370
-1
48
1
60
0
100
AcDbLine
10
-46.6
20
9.99675
30
0
11
-47.633814
21
9.640417
31
0
39
0
210
0
220
0
230
1
0
LINE
5
51
100
AcDbEntity
8
SK1
62
256
6
ByLayer
370
-1
48
1
60
0
100
AcDbLine
10
-47.633814
20
-9.640417
30
0
11
-46.6
21
-9.99675
31
0
39
0
210
0
220
0
230
1
0
LINE
5
52
100
AcDbEntity
8
SK1
62
256
6
ByLayer
370
-1
48
1
60
0
100
AcDbLine
10
-48.6
20
9.99675
30
0
11
-49
21
9.99675
31
0
39
0
210
0
220
0
230
1
0
LINE
5
53
100
AcDbEntity
8
SK1
62
256
6
ByLayer
370
-1
48
1
60
0
100
AcDbLine
10
-49
20
-9.99675
30
0
11
-48.6
21
-9.99675
31
0
39
0
210
0
220
0
230
1
0
LINE
5
54
100
AcDbEntity
8
SK1
62
256
6
ByLayer
370
-1
48
1
60
0
100
AcDbLine
10
-49
20
9.99675
30
0
11
-50
21
8.99675
31
0
39
0
210
0
220
0
230
1
0
LINE
5
55
100
AcDbEntity
8
SK1
62
256
6
ByLayer
370
-1
48
1
60
0
100
AcDbLine
10
-50
20
-8.99675
30
0
11
-49
21
-9.99675
31
0
39
0
210
0
220
0
230
1
0
LINE
5
56
100
AcDbEntity
8
1
62
256
6
ByLayer
370
-1
48
1
60
0
100
AcDbLine
10
5
20
12.5
30
0
11
0.2
21
12.5
31
0
39
0
210
0
220
0
230
1
0
LINE
5
58
100
AcDbEntity
8
1
62
256
6
ByLayer
370
-1
48
1
60
0
100
AcDbLine
10
0.2
20
-12.5
30
0
11
5
21
-12.5
31
0
39
0
210
0
220
0
230
1
0
LINE
5
59
100
AcDbEntity
8
1
62
256
6
ByLayer
370
-1
48
1
60
0
100
AcDbLine
10
0.2
20
12.5
30
0
11
0
21
12.3
31
0
39
0
210
0
220
0
230
1
0
LINE
5
5A
100
AcDbEntity
8
1
62
256
6
ByLayer
370
-1
48
1
60
0
100
AcDbLine
10
0
20
-12.3
30
0
11
0.2
21
-12.5
31
0
39
0
210
0
220
0
230
1
0
LINE
5
5B
100
AcDbEntity
8
1
62
256
6
ByLayer
370
-1
48
1
60
0
100
AcDbLine
10
34.004463
20
8.2
30
0
11
15
21
8.2
31
0
39
0
210
0
220
0
230
1
0
LINE
5
5C
100
AcDbEntity
8
1
62
256
6
ByLayer
370
-1
48
1
60
0
100
AcDbLine
10
62.506544
20
8.2
30
0
11
60.271988
21
8.2
31
0
39
0
210
0
220
0
230
1
0
LINE
5
5D
100
AcDbEntity
8
1
62
256
6
ByLayer
370
-1
48
1
60
0
100
AcDbLine
10
15
20
-8.2
30
0
11
30.246301
21
-8.2
31
0
39
0
210
0
220
0
230
1
0
LINE
5
5E
100
AcDbEntity
8
SK4
62
256
6
ByLayer
370
-1
48
0.05
60
0
100
AcDbLine
10
69
20
0
30
0
11
-50
21
0
31
0
39
0
210
0
220
0
230
1
0
LINE
5
60
100
AcDbEntity
8
4
62
256
6
ByLayer
370
-1
48
0.05
60
0
100
AcDbLine
10
69
20
0
30
0
11
0
21
0
31
0
39
0
210
0
220
0
230
1
0
LINE
5
62
100
AcDbEntity
8
1
62
256
6
ByLayer
370
-1
48
1
60
0
100
AcDbLine
10
62.559859
20
5.411576
30
0
11
62.471175
21
8.192782
31
0
39
0
210
0
220
0
230
1
0
LINE
5
63
100
AcDbEntity
8
1
62
256
6
ByLayer
370
-1
48
1
60
0
100
AcDbLine
10
62.237686
20
4.486801
30
0
11
62.44686
21
4.486801
31
0
39
0
210
0
220
0
230
1
0
LINE
5
64
100
AcDbEntity
8
1
62
256
6
ByLayer
370
-1
48
1
60
0
100
AcDbLine
10
68.508607
20
-4.916261
30
0
11
68.205941
21
-4.8797
31
0
39
0
210
0
220
0
230
1
0
LINE
5
65
100
AcDbEntity
8
1
62
256
6
ByLayer
370
-1
48
1
60
0
100
AcDbLine
10
62.237686
20
4.486801
30
0
11
62.278537
21
3.312517
31
0
39
0
210
0
220
0
230
1
0
LINE
5
66
100
AcDbEntity
8
1
62
256
6
ByLayer
370
-1
48
1
60
0
100
AcDbLine
10
15
20
-8.2
30
0
11
15
21
-5.994187
31
0
39
0
210
0
220
0
230
1
0
LINE
5
67
100
AcDbEntity
8
1
62
256
6
ByLayer
370
-1
48
1
60
0
100
AcDbLine
10
62.807976
20
2.206668
30
0
11
61.760535
21
2.169951
31
0
39
0
210
0
220
0
230
1
0
LINE
5
68
100
AcDbEntity
8
1
62
256
6
ByLayer
370
-1
48
1
60
0
100
AcDbLine
10
62.647503
20
5.457482
30
0
11
62.759358
21
5.457482
31
0
39
0
210
0
220
0
230
1
0
LINE
5
69
100
AcDbEntity
8
1
62
256
6
ByLayer
370
-1
48
1
60
0
100
AcDbLine
10
15
20
8.2
30
0
11
15
21
5.697727
31
0
39
0
210
0
220
0
230
1
0
LINE
5
6A
100
AcDbEntity
8
1
62
256
6
ByLayer
370
-1
48
1
60
0
100
AcDbLine
10
68.194807
20
-4.142997
30
0
11
67.961165
21
0.306837
31
0
39
0
210
0
220
0
230
1
0
LINE
5
6B
100
AcDbEntity
8
1
62
256
6
ByLayer
370
-1
48
1
60
0
100
AcDbLine
10
0
20
12.3
30
0
11
0
21
-12.3
31
0
39
0
210
0
220
0
230
1
0
LINE
5
6C
100
AcDbEntity
8
1
62
256
6
ByLayer
370
-1
48
1
60
0
100
AcDbLine
10
67.957091
20
0.401842
30
0
11
67.278398
21
0.70425
31
0
39
0
210
0
220
0
230
1
0
LINE
5
6D
100
AcDbEntity
8
1
62
256
6
ByLayer
370
-1
48
1
60
0
100
AcDbLine
10
67.574398
20
2.351744
30
0
11
67.723897
21
2.351744
31
0
39
0
210
0
220
0
230
1
0
LINE
5
6E
100
AcDbEntity
8
1
62
256
6
ByLayer
370
-1
48
1
60
0
100
AcDbLine
10
61.246523
20
0.401644
30
0
11
61.560801
21
1.482827
31
0
39
0
210
0
220
0
230
1
0
LINE
5
6F
100
AcDbEntity
8
1
62
256
6
ByLayer
370
-1
48
1
60
0
100
AcDbLine
10
67.80847
20
2.339068
30
0
11
67.574398
21
2.351744
31
0
39
0
210
0
220
0
230
1
0
LINE
5
70
100
AcDbEntity
8
1
62
256
6
ByLayer
370
-1
48
1
60
0
100
AcDbLine
10
62.789032
20
8.188651
30
0
11
62.789034
21
8.188573
31
0
39
0
210
0
220
0
230
1
0
LINE
5
71
100
AcDbEntity
8
1
62
256
6
ByLayer
370
-1
48
1
60
0
100
AcDbLine
10
62.498271
20
8.199939
30
0
11
62.587183
21
5.411576
31
0
39
0
210
0
220
0
230
1
0
LINE
5
72
100
AcDbEntity
8
1
62
256
6
ByLayer
370
-1
48
1
60
0
100
AcDbLine
10
59.129971
20
1.447026
30
0
11
58.954013
21
0.841695
31
0
39
0
210
0
220
0
230
1
0
LINE
5
73
100
AcDbEntity
8
1
62
256
6
ByLayer
370
-1
48
1
60
0
100
AcDbLine
10
68.194807
20
-4.142997
30
0
11
68.05376
21
-4.080151
31
0
39
0
210
0
220
0
230
1
0
LINE
5
74
100
AcDbEntity
8
1
62
256
6
ByLayer
370
-1
48
1
60
0
100
AcDbLine
10
51.132063
20
5.359693
30
0
11
51.150431
21
5.349016
31
0
39
0
210
0
220
0
230
1
0
LINE
5
75
100
AcDbEntity
8
1
62
256
6
ByLayer
370
-1
48
1
60
0
100
AcDbLine
10
67.97594
20
0.868939
30
0
11
67.984582
21
0.868637
31
0
39
0
210
0
220
0
230
1
0
LINE
5
76
100
AcDbEntity
8
1
62
256
6
ByLayer
370
-1
48
1
60
0
100
AcDbLine
10
67.723952
20
2.351744
30
0
11
68.018199
21
2.336264
31
0
39
0
210
0
220
0
230
1
0
LINE
5
77
100
AcDbEntity
8
1
62
256
6
ByLayer
370
-1
48
1
60
0
100
AcDbLine
10
64.244301
20
2.23501
30
0
11
67.574398
21
2.351744
31
0
39
0
210
0
220
0
230
1
0
LINE
5
78
100
AcDbEntity
8
1
62
256
6
ByLayer
370
-1
48
1
60
0
100
AcDbLine
10
68.034017
20
0.842495
30
0
11
68.034316
21
0.842616
31
0
39
0
210
0
220
0
230
1
0
LINE
5
79
100
AcDbEntity
8
1
62
256
6
ByLayer
370
-1
48
1
60
0
100
AcDbLine
10
62.807976
20
2.206668
30
0
11
62.853264
21
2.206668
31
0
39
0
210
0
220
0
230
1
0
LINE
5
7A
100
AcDbEntity
8
1
62
256
6
ByLayer
370
-1
48
1
60
0
100
AcDbLine
10
62.330144
20
2.986374
30
0
11
61.801884
21
2.967857
31
0
39
0
210
0
220
0
230
1
0
LINE
5
7B
100
AcDbEntity
8
1
62
256
6
ByLayer
370
-1
48
1
60
0
100
AcDbLine
10
68.034017
20
0.842495
30
0
11
67.962249
21
0.844996
31
0
39
0
210
0
220
0
230
1
0
LINE
5
7C
100
AcDbEntity
8
1
62
256
6
ByLayer
370
-1
48
1
60
0
100
AcDbLine
10
56.769961
20
3.92
30
0
11
58.079539
21
3.92
31
0
39
0
210
0
220
0
230
1
0
LINE
5
7D
100
AcDbEntity
8
1
62
256
6
ByLayer
370
-1
48
1
60
0
100
AcDbLine
10
59.95407
20
3.328407
30
0
11
59.660012
21
3.45983
31
0
39
0
210
0
220
0
230
1
0
LINE
5
7E
100
AcDbEntity
8
1
62
256
6
ByLayer
370
-1
48
1
60
0
100
AcDbLine
10
67.984582
20
0.868637
30
0
11
68.034017
21
0.842495
31
0
39
0
210
0
220
0
230
1
0
LINE
5
7F
100
AcDbEntity
8
1
62
256
6
ByLayer
370
-1
48
1
60
0
100
AcDbLine
10
62.44686
20
4.486801
30
0
11
62.487711
21
3.312517
31
0
39
0
210
0
220
0
230
1
0
LINE
5
80
100
AcDbEntity
8
1
62
256
6
ByLayer
370
-1
48
1
60
0
100
AcDbLine
10
61.075669
20
4.636435
30
0
11
61.075669
21
8.196997
31
0
39
0
210
0
220
0
230
1
0
LINE
5
81
100
AcDbEntity
8
1
62
256
6
ByLayer
370
-1
48
1
60
0
100
AcDbLine
10
61.755468
20
2.152522
30
0
11
61.760535
21
2.169951
31
0
39
0
210
0
220
0
230
1
0
LINE
5
82
100
AcDbEntity
8
1
62
256
6
ByLayer
370
-1
48
1
60
0
100
AcDbLine
10
68.188684
20
-4.212025
30
0
11
68.194807
21
-4.142997
31
0
39
0
210
0
220
0
230
1
0
LINE
5
83
100
AcDbEntity
8
1
62
256
6
ByLayer
370
-1
48
1
60
0
100
AcDbLine
10
67.273643
20
0.758846
30
0
11
67.80847
21
2.339068
31
0
39
0
210
0
220
0
230
1
0
LINE
5
84
100
AcDbEntity
8
1
62
256
6
ByLayer
370
-1
48
1
60
0
100
AcDbLine
10
68.217507
20
-8.198221
30
0
11
68.508607
21
-4.916261
31
0
39
0
210
0
220
0
230
1
0
LINE
5
85
100
AcDbEntity
8
1
62
256
6
ByLayer
370
-1
48
1
60
0
100
AcDbLine
10
0.2
20
12.5
30
0
11
0.2
21
-12.5
31
0
39
0
210
0
220
0
230
1
0
LINE
5
86
100
AcDbEntity
8
1
62
256
6
ByLayer
370
-1
48
1
60
0
100
AcDbLine
10
57.650363
20
8.167991
30
0
11
57.650363
21
4.957678
31
0
39
0
210
0
220
0
230
1
0
LINE
5
87
100
AcDbEntity
8
1
62
256
6
ByLayer
370
-1
48
1
60
0
100
AcDbLine
10
68.018199
20
2.336264
30
0
11
67.80847
21
2.339068
31
0
39
0
210
0
220
0
230
1
0
LINE
5
88
100
AcDbEntity
8
1
62
256
6
ByLayer
370
-1
48
1
60
0
100
AcDbLine
10
68.034316
20
0.842616
30
0
11
68.095368
21
2.536831
31
0
39
0
210
0
220
0
230
1
0
LINE
5
89
100
AcDbEntity
8
1
62
256
6
ByLayer
370
-1
48
1
60
0
100
AcDbLine
10
5
20
12.5
30
0
11
5
21
-12.5
31
0
39
0
210
0
220
0
230
1
0
LINE
5
8A
100
AcDbEntity
8
1
62
256
6
ByLayer
370
-1
48
1
60
0
100
AcDbLine
10
61.075669
20
4.636435
30
0
11
57.650363
21
4.957678
31
0
39
0
210
0
220
0
230
1
0
LINE
5
8B
100
AcDbEntity
8
1
62
256
6
ByLayer
370
-1
48
1
60
0
100
AcDbLine
10
61.84216
20
-8.198221
30
0
11
68.217507
21
-8.198221
31
0
39
0
210
0
220
0
230
1
0
LINE
5
8C
100
AcDbEntity
8
1
62
256
6
ByLayer
370
-1
48
1
60
0
100
AcDbLine
10
62.559859
20
5.411576
30
0
11
62.587183
21
5.411576
31
0
39
0
210
0
220
0
230
1
0
LINE
5
8D
100
AcDbEntity
8
1
62
256
6
ByLayer
370
-1
48
1
60
0
100
AcDbLine
10
62.278537
20
3.312517
30
0
11
62.487711
21
3.312517
31
0
39
0
210
0
220
0
230
1
0
LINE
5
8E
100
AcDbEntity
8
1
62
256
6
ByLayer
370
-1
48
1
60
0
100
AcDbLine
10
67.868593
20
-3.997645
30
0
11
67.669232
21
-3.908815
31
0
39
0
210
0
220
0
230
1
0
LINE
5
8F
100
AcDbEntity
8
1
62
256
6
ByLayer
370
-1
48
1
60
0
100
AcDbLine
10
68.812657
20
2.931219
30
0
11
68.754183
21
2.944664
31
0
39
0
210
0
220
0
230
1
0
LINE
5
90
100
AcDbEntity
8
1
62
256
6
ByLayer
370
-1
48
1
60
0
100
AcDbLine
10
68.198526
20
2.540882
30
0
11
68.195451
21
2.600595
31
0
39
0
210
0
220
0
230
1
0
LINE
5
91
100
AcDbEntity
8
1
62
256
6
ByLayer
370
-1
48
1
60
0
100
AcDbLine
10
68.657857
20
7.823603
30
0
11
68.597894
21
7.821517
31
0
39
0
210
0
220
0
230
1
0
LINE
5
92
100
AcDbEntity
8
1
62
256
6
ByLayer
370
-1
48
1
60
0
100
AcDbLine
10
63.301398
20
2.374212
30
0
11
63.300942
21
2.433983
31
0
39
0
210
0
220
0
230
1
0
LINE
5
93
100
AcDbEntity
8
1
62
256
6
ByLayer
370
-1
48
1
60
0
100
AcDbLine
10
68.818021
20
3.207746
30
0
11
68.75804
21
3.206204
31
0
39
0
210
0
220
0
230
1
0
LINE
5
94
100
AcDbEntity
8
1
62
256
6
ByLayer
370
-1
48
1
60
0
100
AcDbLine
10
68.107937
20
2.537292
30
0
11
68.105403
21
2.597027
31
0
39
0
210
0
220
0
230
1
0
LINE
5
95
100
AcDbEntity
8
1
62
256
6
ByLayer
370
-1
48
1
60
0
100
AcDbLine
10
62.68433
20
7.614206
30
0
11
62.841742
21
3.089313
31
0
39
0
210
0
220
0
230
1
0
LINE
5
96
100
AcDbEntity
8
1
62
256
6
ByLayer
370
-1
48
1
60
0
100
AcDbLine
10
68.819041
20
3.158757
30
0
11
68.759049
21
3.1578
31
0
39
0
210
0
220
0
230
1
0
LINE
5
97
100
AcDbEntity
8
1
62
256
6
ByLayer
370
-1
48
1
60
0
100
AcDbLine
10
63.600263
20
2.379279
30
0
11
63.597729
21
2.439014
31
0
39
0
210
0
220
0
230
1
0
LINE
5
98
100
AcDbEntity
8
1
62
256
6
ByLayer
370
-1
48
1
60
0
100
AcDbLine
10
68.472956
20
2.565542
30
0
11
68.455091
21
2.622702
31
0
39
0
210
0
220
0
230
1
0
LINE
5
99
100
AcDbEntity
8
1
62
256
6
ByLayer
370
-1
48
1
60
0
100
AcDbLine
10
68.629715
20
8.190016
30
0
11
68.572317
21
8.17254
31
0
39
0
210
0
220
0
230
1
0
LINE
5
9A
100
AcDbEntity
8
1
62
256
6
ByLayer
370
-1
48
1
60
0
100
AcDbLine
10
62.869884
20
2.7229
30
0
11
62.926371
21
2.740375
31
0
39
0
210
0
220
0
230
1
0
LINE
5
9B
100
AcDbEntity
8
1
62
256
6
ByLayer
370
-1
48
1
60
0
100
AcDbLine
10
62.681579
20
7.70517
30
0
11
62.740647
21
7.706712
31
0
39
0
210
0
220
0
230
1
0
LINE
5
9C
100
AcDbEntity
8
1
62
256
6
ByLayer
370
-1
48
1
60
0
100
AcDbLine
10
68.642046
20
8.123231
30
0
11
68.582191
21
8.119062
31
0
39
0
210
0
220
0
230
1
0
LINE
5
9D
100
AcDbEntity
8
1
62
256
6
ByLayer
370
-1
48
1
60
0
100
AcDbLine
10
67.899337
20
8.533637
30
0
11
63.391662
21
8.375624
31
0
39
0
210
0
220
0
230
1
0
LINE
5
9E
100
AcDbEntity
8
1
62
256
6
ByLayer
370
-1
48
1
60
0
100
AcDbLine
10
63.509645
20
2.376517
30
0
11
63.507652
21
2.436269
31
0
39
0
210
0
220
0
230
1
0
LINE
5
9F
100
AcDbEntity
8
1
62
256
6
ByLayer
370
-1
48
1
60
0
100
AcDbLine
10
63.391662
20
8.375624
30
0
11
63.393285
21
8.315889
31
0
39
0
210
0
220
0
230
1
0
LINE
5
A0
100
AcDbEntity
8
1
62
256
6
ByLayer
370
-1
48
1
60
0
100
AcDbLine
10
62.679282
20
7.914212
30
0
11
62.738371
21
7.914212
31
0
39
0
210
0
220
0
230
1
0
LINE
5
A1
100
AcDbEntity
8
1
62
256
6
ByLayer
370
-1
48
1
60
0
100
AcDbLine
10
68.654281
20
7.914538
30
0
11
68.594339
21
7.911908
31
0
39
0
210
0
220
0
230
1
0
LINE
5
A2
100
AcDbEntity
8
1
62
256
6
ByLayer
370
-1
48
1
60
0
100
AcDbLine
10
67.989955
20
8.536399
30
0
11
67.991035
21
8.476647
31
0
39
0
210
0
220
0
230
1
0
LINE
5
A3
100
AcDbEntity
8
1
62
256
6
ByLayer
370
-1
48
1
60
0
100
AcDbLine
10
68.038757
20
8.537423
30
0
11
68.039255
21
8.477659
31
0
39
0
210
0
220
0
230
1
0
LINE
5
A4
100
AcDbEntity
8
1
62
256
6
ByLayer
370
-1
48
1
60
0
100
AcDbLine
10
62.857554
20
2.789684
30
0
11
62.916497
21
2.793854
31
0
39
0
210
0
220
0
230
1
0
LINE
5
A5
100
AcDbEntity
8
1
62
256
6
ByLayer
370
-1
48
1
60
0
100
AcDbLine
10
68.815269
20
3.29871
30
0
11
68.755305
21
3.296624
31
0
39
0
210
0
220
0
230
1
0
LINE
5
A6
100
AcDbEntity
8
1
62
256
6
ByLayer
370
-1
48
1
60
0
100
AcDbLine
10
63.600263
20
2.379279
30
0
11
68.107937
21
2.537292
31
0
39
0
210
0
220
0
230
1
0
LINE
5
A7
100
AcDbEntity
8
1
62
256
6
ByLayer
370
-1
48
1
60
0
100
AcDbLine
10
63.460842
20
2.375493
30
0
11
63.459433
21
2.435257
31
0
39
0
210
0
220
0
230
1
0
LINE
5
A8
100
AcDbEntity
8
1
62
256
6
ByLayer
370
-1
48
1
60
0
100
AcDbLine
10
68.198201
20
8.538704
30
0
11
68.197745
21
8.478932
31
0
39
0
210
0
220
0
230
1
0
LINE
5
A9
100
AcDbEntity
8
1
62
256
6
ByLayer
370
-1
48
1
60
0
100
AcDbLine
10
63.252318
20
8.369639
30
0
11
63.255065
21
8.309953
31
0
39
0
210
0
220
0
230
1
0
LINE
5
AA
100
AcDbEntity
8
1
62
256
6
ByLayer
370
-1
48
1
60
0
100
AcDbLine
10
62.847704
20
2.949437
30
0
11
62.906707
21
2.952651
31
0
39
0
210
0
220
0
230
1
0
LINE
5
AB
100
AcDbEntity
8
1
62
256
6
ByLayer
370
-1
48
1
60
0
100
AcDbLine
10
62.680558
20
7.754159
30
0
11
62.739639
21
7.755116
31
0
39
0
210
0
220
0
230
1
0
LINE
5
AC
100
AcDbEntity
8
1
62
256
6
ByLayer
370
-1
48
1
60
0
100
AcDbLine
10
63.301073
20
8.372034
30
0
11
63.303237
21
8.31232
31
0
39
0
210
0
220
0
230
1
0
LINE
5
AD
100
AcDbEntity
8
1
62
256
6
ByLayer
370
-1
48
1
60
0
100
AcDbLine
10
68.26543
20
8.531015
30
0
11
68.251579
21
8.472775
31
0
39
0
210
0
220
0
230
1
0
LINE
5
AE
100
AcDbEntity
8
1
62
256
6
ByLayer
370
-1
48
1
60
0
100
AcDbLine
10
62.841742
20
3.089313
30
0
11
62.900794
21
3.091399
31
0
39
0
210
0
220
0
230
1
0
LINE
5
AF
100
AcDbEntity
8
1
62
256
6
ByLayer
370
-1
48
1
60
0
100
AcDbLine
10
62.845318
20
2.998378
30
0
11
62.904349
21
3.001007
31
0
39
0
210
0
220
0
230
1
0
LINE
5
B0
100
AcDbEntity
8
1
62
256
6
ByLayer
370
-1
48
1
60
0
100
AcDbLine
10
68.820317
20
2.998704
30
0
11
68.760317
21
2.998704
31
0
39
0
210
0
220
0
230
1
0
LINE
5
B1
100
AcDbEntity
8
1
62
256
6
ByLayer
370
-1
48
1
60
0
100
AcDbLine
10
67.899337
20
8.533637
30
0
11
67.900959
21
8.473901
31
0
39
0
210
0
220
0
230
1
0
LINE
5
B2
100
AcDbEntity
8
1
62
256
6
ByLayer
370
-1
48
1
60
0
100
AcDbLine
10
62.68433
20
7.614206
30
0
11
62.743383
21
7.616292
31
0
39
0
210
0
220
0
230
1
0
LINE
5
B3
100
AcDbEntity
8
1
62
256
6
ByLayer
370
-1
48
1
60
0
100
AcDbLine
10
63.093174
20
8.359752
30
0
11
63.096872
21
8.300126
31
0
39
0
210
0
220
0
230
1
0
LINE
5
B4
100
AcDbEntity
8
1
62
256
6
ByLayer
370
-1
48
1
60
0
100
AcDbLine
10
62.686942
20
7.981697
30
0
11
62.744504
21
7.968251
31
0
39
0
210
0
220
0
230
1
0
LINE
5
B5
100
AcDbEntity
8
1
62
256
6
ByLayer
370
-1
48
1
60
0
100
AcDbLine
10
63.026644
20
8.347374
30
0
11
63.043597
21
8.290214
31
0
39
0
210
0
220
0
230
1
0
LINE
5
B6
100
AcDbEntity
8
1
62
256
6
ByLayer
370
-1
48
1
60
0
100
AcDbLine
10
68.247281
20
2.543277
30
0
11
68.243623
21
2.602962
31
0
39
0
210
0
220
0
230
1
0
LINE
5
B7
100
AcDbEntity
8
1
62
256
6
ByLayer
370
-1
48
1
60
0
100
AcDbLine
10
68.406425
20
2.553164
30
0
11
68.401816
21
2.61279
31
0
39
0
210
0
220
0
230
1
0
LINE
5
B8
100
AcDbEntity
8
1
62
256
6
ByLayer
370
-1
48
1
60
0
100
AcDbLine
10
63.23417
20
2.381901
30
0
11
63.247109
21
2.44014
31
0
39
0
210
0
220
0
230
1
0
LINE
5
B9
100
AcDbEntity
8
1
62
256
6
ByLayer
370
-1
48
1
60
0
100
AcDbLine
10
68.815269
20
3.29871
30
0
11
68.657857
21
7.823603
31
0
39
0
210
0
220
0
230
1
0
LINE
5
BA
100
AcDbEntity
8
1
62
256
6
ByLayer
370
-1
48
1
60
0
100
AcDbLine
10
68.651895
20
7.963479
30
0
11
68.591981
21
7.960265
31
0
39
0
210
0
220
0
230
1
0
LINE
5
BB
100
AcDbEntity
8
1
62
256
6
ByLayer
370
-1
48
1
60
0
100
AcDbLine
10
68.066146
20
-1.692603
30
0
11
68.075499
21
-1.692127
31
0
39
0
210
0
220
0
230
1
0
LINE
5
BC
100
AcDbEntity
8
1
62
256
6
ByLayer
370
-1
48
1
60
0
100
AcDbLine
10
68.524882
20
-1.726616
30
0
11
68.457423
21
-0.441821
31
0
39
0
210
0
220
0
230
1
0
LINE
5
BD
100
AcDbEntity
8
1
62
256
6
ByLayer
370
-1
48
1
60
0
100
AcDbLine
10
68.168154
20
-3.635449
30
0
11
68.181081
21
-3.623925
31
0
39
0
210
0
220
0
230
1
0
LINE
5
BE
100
AcDbEntity
8
1
62
256
6
ByLayer
370
-1
48
1
60
0
100
AcDbLine
10
68.329983
20
0.208723
30
0
11
67.978662
21
-0.0264
31
0
39
0
210
0
220
0
230
1
0
LINE
5
BF
100
AcDbEntity
8
1
62
256
6
ByLayer
370
-1
48
1
60
0
100
AcDbLine
10
68.185567
20
-2.866544
30
0
11
68.171689
21
-3.263216
31
0
39
0
210
0
220
0
230
1
0
LINE
5
C0
100
AcDbEntity
8
1
62
256
6
ByLayer
370
-1
48
1
60
0
100
AcDbLine
10
68.632621
20
-4.570923
30
0
11
68.56476
21
-4.487137
31
0
39
0
210
0
220
0
230
1
0
LINE
5
C1
100
AcDbEntity
8
1
62
256
6
ByLayer
370
-1
48
1
60
0
100
AcDbLine
10
68.075499
20
-1.692127
30
0
11
68.008039
21
-0.407332
31
0
39
0
210
0
220
0
230
1
0
LINE
5
C2
100
AcDbEntity
8
1
62
256
6
ByLayer
370
-1
48
1
60
0
100
AcDbLine
10
68.714937
20
-1.8113
30
0
11
68.638765
21
-0.360558
31
0
39
0
210
0
220
0
230
1
0
LINE
5
C3
100
AcDbEntity
8
1
62
256
6
ByLayer
370
-1
48
1
60
0
100
AcDbLine
10
68.17017
20
-4.520451
30
0
11
68.56476
21
-4.487137
31
0
39
0
210
0
220
0
230
1
0
LINE
5
C4
100
AcDbEntity
8
1
62
256
6
ByLayer
370
-1
48
1
60
0
100
AcDbLine
10
68.961306
20
-4.119371
30
0
11
68.854374
21
-3.987342
31
0
39
0
210
0
220
0
230
1
0
LINE
5
C5
100
AcDbEntity
8
1
62
256
6
ByLayer
370
-1
48
1
60
0
100
AcDbLine
10
68.457423
20
-0.441821
30
0
11
68.107902
21
-0.402108
31
0
39
0
210
0
220
0
230
1
0
LINE
5
C6
100
AcDbEntity
8
1
62
256
6
ByLayer
370
-1
48
1
60
0
100
AcDbLine
10
68.794515
20
-3.349026
30
0
11
68.808393
21
-2.952354
31
0
39
0
210
0
220
0
230
1
0
LINE
5
C7
100
AcDbEntity
8
1
62
256
6
ByLayer
370
-1
48
1
60
0
100
AcDbLine
10
68.72268
20
-2.526628
30
0
11
68.404767
21
-2.614752
31
0
39
0
210
0
220
0
230
1
0
LINE
5
C8
100
AcDbEntity
8
1
62
256
6
ByLayer
370
-1
48
1
60
0
100
AcDbLine
10
68.609296
20
-0.215986
30
0
11
68.309935
21
0.604969
31
0
39
0
210
0
220
0
230
1
0
LINE
5
C9
100
AcDbEntity
8
1
62
256
6
ByLayer
370
-1
48
1
60
0
100
AcDbLine
10
68.16327
20
0.75794
30
0
11
67.947333
21
0.613423
31
0
39
0
210
0
220
0
230
1
0
LINE
5
CA
100
AcDbEntity
8
1
62
256
6
ByLayer
370
-1
48
1
60
0
100
AcDbLine
10
68.174867
20
-3.763289
30
0
11
68.247692
21
-3.698372
31
0
39
0
210
0
220
0
230
1
0
LINE
5
CB
100
AcDbEntity
8
1
62
256
6
ByLayer
370
-1
48
1
60
0
100
AcDbLine
10
68.344789
20
-3.275355
30
0
11
68.358667
21
-2.878682
31
0
39
0
210
0
220
0
230
1
0
LINE
5
CC
100
AcDbEntity
8
1
62
256
6
ByLayer
370
-1
48
1
60
0
100
AcDbLine
10
68.171963
20
-4.738276
30
0
11
68.632621
21
-4.570923
31
0
39
0
210
0
220
0
230
1
0
LINE
5
CD
100
AcDbEntity
8
1
62
256
6
ByLayer
370
-1
48
1
60
0
100
AcDbLine
10
68.524882
20
-1.726616
30
0
11
68.175362
21
-1.686903
31
0
39
0
210
0
220
0
230
1
0
LINE
5
CE
100
AcDbEntity
8
1
62
256
6
ByLayer
370
-1
48
1
60
0
100
AcDbLine
10
68.904268
20
-2.560445
30
0
11
68.732404
21
-2.547063
31
0
39
0
210
0
220
0
230
1
0
LINE
5
CF
100
AcDbEntity
8
1
62
256
6
ByLayer
370
-1
48
1
60
0
100
AcDbLine
10
68.808393
20
-2.952354
30
0
11
68.458606
21
-2.882166
31
0
39
0
210
0
220
0
230
1
0
LINE
5
D0
100
AcDbEntity
8
1
62
256
6
ByLayer
370
-1
48
1
60
0
100
AcDbLine
10
68.329983
20
0.208723
30
0
11
68.260631
21
0.57181
31
0
39
0
210
0
220
0
230
1
0
LINE
5
D1
100
AcDbEntity
8
1
62
256
6
ByLayer
370
-1
48
1
60
0
100
AcDbLine
10
68.309935
20
0.604969
30
0
11
68.260631
21
0.57181
31
0
39
0
210
0
220
0
230
1
0
LINE
5
D2
100
AcDbEntity
8
1
62
256
6
ByLayer
370
-1
48
1
60
0
100
AcDbLine
10
68.760868
20
-4.39957
30
0
11
68.247692
21
-3.698372
31
0
39
0
210
0
220
0
230
1
0
LINE
5
D3
100
AcDbEntity
8
1
62
256
6
ByLayer
370
-1
48
1
60
0
100
AcDbLine
10
68.714937
20
-1.8113
30
0
11
68.524882
21
-1.726616
31
0
39
0
210
0
220
0
230
1
0
LINE
5
D4
100
AcDbEntity
8
1
62
256
6
ByLayer
370
-1
48
1
60
0
100
AcDbLine
10
68.961306
20
-4.119371
30
0
11
68.999695
21
-3.022091
31
0
39
0
210
0
220
0
230
1
0
LINE
5
D5
100
AcDbEntity
8
1
62
256
6
ByLayer
370
-1
48
1
60
0
100
AcDbLine
10
68.175362
20
-1.686903
30
0
11
68.107902
21
-0.402108
31
0
39
0
210
0
220
0
230
1
0
LINE
5
D6
100
AcDbEntity
8
1
62
256
6
ByLayer
370
-1
48
1
60
0
100
AcDbLine
10
68.794515
20
-3.349026
30
0
11
68.444728
21
-3.278838
31
0
39
0
210
0
220
0
230
1
0
LINE
5
D7
100
AcDbEntity
8
1
62
256
6
ByLayer
370
-1
48
1
60
0
100
AcDbLine
10
68.175362
20
-1.686903
30
0
11
68.075499
21
-1.692127
31
0
39
0
210
0
220
0
230
1
0
LINE
5
D8
100
AcDbEntity
8
1
62
256
6
ByLayer
370
-1
48
1
60
0
100
AcDbLine
10
68.638765
20
-0.360558
30
0
11
68.455213
21
-0.305724
31
0
39
0
210
0
220
0
230
1
0
LINE
5
D9
100
AcDbEntity
8
1
62
256
6
ByLayer
370
-1
48
1
60
0
100
AcDbLine
10
68.999695
20
-3.022091
30
0
11
68.80976
21
-2.920977
31
0
39
0
210
0
220
0
230
1
0
LINE
5
DA
100
AcDbEntity
8
1
62
256
6
ByLayer
370
-1
48
1
60
0
100
AcDbLine
10
67.998687
20
-0.407808
30
0
11
68.008039
21
-0.407332
31
0
39
0
210
0
220
0
230
1
0
LINE
5
DB
100
AcDbEntity
8
1
62
256
6
ByLayer
370
-1
48
1
60
0
100
AcDbLine
10
68.609296
20
-0.215986
30
0
11
68.431171
21
-0.162773
31
0
39
0
210
0
220
0
230
1
0
LINE
5
DC
100
AcDbEntity
8
1
62
256
6
ByLayer
370
-1
48
1
60
0
100
AcDbLine
10
68.444728
20
-3.278838
30
0
11
68.458606
21
-2.882166
31
0
39
0
210
0
220
0
230
1
0
LINE
5
DD
100
AcDbEntity
8
SK1
62
256
6
ByLayer
370
-1
48
1
60
0
100
AcDbLine
10
-47.633814
20
-5.299321
30
0
11
-47.633814
21
-9.640417
31
0
39
0
210
0
220
0
230
1
0
LINE
5
DE
100
AcDbEntity
8
SK1
62
256
6
ByLayer
370
-1
48
1
60
0
100
AcDbLine
10
-47.633814
20
9.640417
30
0
11
-47.633814
21
5.299321
31
0
39
0
210
0
220
0
230
1
0
LINE
5
DF
100
AcDbEntity
8
SK1
62
256
6
ByLayer
370
-1
48
1
60
0
100
AcDbLine
10
-2
20
-9.99675
30
0
11
-2
21
9.99675
31
0
39
0
210
0
220
0
230
1
0
LINE
5
E0
100
AcDbEntity
8
SK1
62
256
6
ByLayer
370
-1
48
1
60
0
100
AcDbLine
10
-0.15
20
9.75
30
0
11
-0.15
21
-9.75
31
0
39
0
210
0
220
0
230
1
0
LINE
5
E1
100
AcDbEntity
8
SK1
62
256
6
ByLayer
370
-1
48
1
60
0
100
AcDbLine
10
-50
20
-4.01082
30
0
11
-50
21
-8.99675
31
0
39
0
210
0
220
0
230
1
0
LINE
5
E2
100
AcDbEntity
8
SK1
62
256
6
ByLayer
370
-1
48
1
60
0
100
AcDbLine
10
-50
20
8.99675
30
0
11
-50
21
4.01082
31
0
39
0
210
0
220
0
230
1
0
LINE
5
E3
100
AcDbEntity
8
SK1
62
256
6
ByLayer
370
-1
48
1
60
0
100
AcDbLine
10
-1.382165
20
9.75
30
0
11
-1.382165
21
-9.75
31
0
39
0
210
0
220
0
230
1
0
LINE
5
E4
100
AcDbEntity
8
SK1
62
256
6
ByLayer
370
-1
48
1
60
0
100
AcDbLine
10
-49
20
-5.922852
30
0
11
-49
21
-9.99675
31
0
39
0
210
0
220
0
230
1
0
LINE
5
E5
100
AcDbEntity
8
SK1
62
256
6
ByLayer
370
-1
48
1
60
0
100
AcDbLine
10
-49
20
9.99675
30
0
11
-49
21
5.922852
31
0
39
0
210
0
220
0
230
1
0
LINE
5
E6
100
AcDbEntity
8
SK1
62
256
6
ByLayer
370
-1
48
1
60
0
100
AcDbLine
10
-6.5
20
-5.922852
30
0
11
-46.6
21
-5.922852
31
0
39
0
210
0
220
0
230
1
0
LINE
5
E7
100
AcDbEntity
8
SK1
62
256
6
ByLayer
370
-1
48
1
60
0
100
AcDbLine
10
-6.5
20
5.922852
30
0
11
-6.5
21
-5.922852
31
0
39
0
210
0
220
0
230
1
0
LINE
5
E8
100
AcDbEntity
8
SK1
62
256
6
ByLayer
370
-1
48
1
60
0
100
AcDbLine
10
-50
20
4.01082
30
0
11
-50
21
-4.01082
31
0
39
0
210
0
220
0
230
1
0
LINE
5
E9
100
AcDbEntity
8
SK1
62
256
6
ByLayer
370
-1
48
1
60
0
100
AcDbLine
10
-48.516223
20
-5.746514
30
0
11
-48.516223
21
-9.893294
31
0
39
0
210
0
220
0
230
1
0
LINE
5
EA
100
AcDbEntity
8
SK1
62
256
6
ByLayer
370
-1
48
1
60
0
100
AcDbLine
10
-48.516223
20
9.893294
30
0
11
-48.516223
21
5.746514
31
0
39
0
210
0
220
0
230
1
0
LINE
5
EB
100
AcDbEntity
8
SK1
62
256
6
ByLayer
370
-1
48
1
60
0
100
AcDbLine
10
-1.551212
20
9.787477
30
0
11
-1.551212
21
-9.787477
31
0
39
0
210
0
220
0
230
1
0
LINE
5
EC
100
AcDbEntity
8
SK1
62
256
6
ByLayer
370
-1
48
1
60
0
100
AcDbLine
10
-49
20
5.922852
30
0
11
-48.6
21
5.922852
31
0
39
0
210
0
220
0
230
1
0
LINE
5
ED
100
AcDbEntity
8
SK1
62
256
6
ByLayer
370
-1
48
1
60
0
100
AcDbLine
10
-48.6
20
-5.922852
30
0
11
-49
21
-5.922852
31
0
39
0
210
0
220
0
230
1
0
LINE
5
EE
100
AcDbEntity
8
SK1
62
256
6
ByLayer
370
-1
48
1
60
0
100
AcDbLine
10
-48.6
20
-9.99675
30
0
11
-48.6
21
-5.922852
31
0
39
0
210
0
220
0
230
1
0
LINE
5
EF
100
AcDbEntity
8
SK1
62
256
6
ByLayer
370
-1
48
1
60
0
100
AcDbLine
10
-48.6
20
5.922852
30
0
11
-48.6
21
9.99675
31
0
39
0
210
0
220
0
230
1
0
LINE
5
F0
100
AcDbEntity
8
SK1
62
256
6
ByLayer
370
-1
48
1
60
0
100
AcDbLine
10
-46.6
20
5.922852
30
0
11
-46.6
21
9.99675
31
0
39
0
210
0
220
0
230
1
0
LINE
5
F1
100
AcDbEntity
8
SK1
62
256
6
ByLayer
370
-1
48
1
60
0
100
AcDbLine
10
-46.6
20
-9.99675
30
0
11
-46.6
21
-5.922852
31
0
39
0
210
0
220
0
230
1
0
LINE
5
F2
100
AcDbEntity
8
SK1
62
256
6
ByLayer
370
-1
48
1
60
0
100
AcDbLine
10
-46.6
20
5.922852
30
0
11
-6.5
21
5.922852
31
0
39
0
210
0
220
0
230
1
0
MTEXT
5
20E
100
AcDbEntity
8
SK6
62
256
6
ByLayer
370
-1
48
1
60
0
100
AcDbMText
10
0.79375
20
-80.79375
30
0
210
0
220
0
230
1
1
\W00.723;\fsimplex.shx,bigfont.shx;880-D1700L20-03 
40
3.175
41
0
44
1.084337
50
0
71
7
72
5
7
DEFAULT
0
DIMENSION
5
23E
100
AcDbEntity
8
SK2
62
256
6
ByLayer
370
-3
48
1
60
0
100
AcDbDimension
2
DimnDraft3D1
10
69
20
-51.36955
30
0
11
9.5
21
-51.36955
31
0
70
32
71
5
72
1
41
1
210
0
220
0
230
1
3
Standard
100
AcDbAlignedDimension
13
-50
23
-11.5875
33
0
14
69
24
-10.0875
34
0
50
0
100
AcDbRotatedDimension
1001
ACAD
1000
DSTYLE
1002
{
1070
   279
1070
     0
1070
   172
1070
     1
1070
   173
1070
     1
1070
   340
1005
20F
1070
   271
1070
     1
1070
   272
1070
     2
1070
    77
1070
     1
1070
    73
1070
     0
1070
   171
1070
     3
1070
   274
1070
     4
1070
   177
1070
   150
1070
   176
1070
     9
1070
   178
1070
    43
1070
    78
1070
     8
1070
    48
1040
-0.005
1070
    41
1041
4.175
1070
   147
1041
2.25
1070
    42
1041
1.5875
1070
    44
1041
3.175
1070
   140
1041
4.5
1070
   343
1005
0
1070
   344
1005
0
1002
}
0
DIMENSION
5
248
100
AcDbEntity
8
SK2
62
256
6
ByLayer
370
-3
48
1
60
0
100
AcDbDimension
2
DimnDraft3D2
10
0
20
-39.4008
30
0
11
-25
21
-39.4008
31
0
70
32
71
5
72
1
41
1
210
0
220
0
230
1
3
Standard
100
AcDbAlignedDimension
13
-50
23
-11.5875
33
0
14
0
24
-14.0875
34
0
50
0
100
AcDbRotatedDimension
1001
ACAD
1000
DSTYLE
1002
{
1070
   279
1070
     0
1070
   172
1070
     1
1070
   173
1070
     1
1070
   340
1005
20F
1070
   271
1070
     1
1070
   272
1070
     2
1070
    77
1070
     1
1070
    73
1070
     0
1070
   171
1070
     3
1070
   274
1070
     4
1070
   177
1070
   150
1070
   176
1070
     9
1070
   178
1070
    43
1070
    78
1070
     8
1070
    48
1040
-0.005
1070
    41
1041
4.175
1070
   147
1041
2.25
1070
    42
1041
1.5875
1070
    44
1041
3.175
1070
   140
1041
4.5
1070
   343
1005
0
1070
   344
1005
0
1002
}
0
DIMENSION
5
253
100
AcDbEntity
8
2
62
256
6
ByLayer
370
-3
48
1
60
0
100
AcDbDimension
2
DimnDraft3D3
10
69
20
-39.4008
30
0
11
34.5
21
-39.4008
31
0
70
32
71
5
72
1
41
1
210
0
220
0
230
1
3
Standard
100
AcDbAlignedDimension
13
0
23
-14.0875
33
0
14
69
24
-10.0875
34
0
50
0
100
AcDbRotatedDimension
1001
ACAD
1000
DSTYLE
1002
{
1070
   279
1070
     0
1070
   172
1070
     1
1070
   173
1070
     1
1070
   340
1005
20F
1070
   271
1070
     1
1070
   272
1070
     2
1070
    77
1070
     1
1070
    73
1070
     0
1070
   171
1070
     3
1070
   274
1070
     4
1070
   177
1070
   150
1070
   176
1070
     9
1070
   178
1070
    43
1070
    78
1070
     8
1070
    48
1040
-0.005
1070
    41
1041
4.175
1070
   147
1041
2.25
1070
    42
1041
1.5875
1070
    44
1041
3.175
1070
   140
1041
4.5
1070
   343
1005
0
1070
   344
1005
0
1002
}
0
DIMENSION
5
25D
100
AcDbEntity
8
SK2
62
256
6
ByLayer
370
-3
48
1
60
0
100
AcDbDimension
2
DimnDraft3D4
10
69
20
-29.4008
30
0
11
42
21
-29.4008
31
0
70
32
71
5
72
1
41
1
210
0
220
0
230
1
3
Standard
100
AcDbAlignedDimension
13
15
23
-11.5875
33
0
14
69
24
-10.0875
34
0
50
0
100
AcDbRotatedDimension
1001
ACAD
1000
DSTYLE
1002
{
1070
   279
1070
     0
1070
   172
1070
     1
1070
   173
1070
     1
1070
   340
1005
20F
1070
   271
1070
     1
1070
   272
1070
     2
1070
    77
1070
     1
1070
    73
1070
     0
1070
   171
1070
     3
1070
   274
1070
     4
1070
   177
1070
   150
1070
   176
1070
     9
1070
   178
1070
    43
1070
    78
1070
     8
1070
    48
1040
-0.005
1070
    41
1041
4.175
1070
   147
1041
2.25
1070
    42
1041
1.5875
1070
    44
1041
3.175
1070
   140
1041
4.5
1070
   343
1005
0
1070
   344
1005
0
1002
}
0
DIMENSION
5
268
100
AcDbEntity
8
SK2
62
256
6
ByLayer
370
-3
48
1
60
0
100
AcDbDimension
2
DimnDraft3D5
10
-61.9
20
-10
30
0
11
-62.1
21
-27.370395
31
0
70
33
71
5
72
1
41
1
210
0
220
0
230
1
3
Standard
100
AcDbAlignedDimension
13
-51.5875
23
10
33
0
14
-51.5875
24
-10
34
0
1001
ACAD
1000
DSTYLE
1002
{
1070
   279
1070
     0
1070
    74
1070
     0
1070
   173
1070
     1
1070
   340
1005
20F
1070
   271
1070
     2
1070
   272
1070
     2
1070
    77
1070
     1
1070
    73
1070
     0
1070
   171
1070
     3
1070
   274
1070
     4
1070
   177
1070
   150
1070
   176
1070
     9
1070
   178
1070
    43
1070
    78
1070
     8
1070
    48
1040
-0.005
1070
    41
1041
4.175
1070
   147
1041
2.25
1070
    42
1041
1.5875
1070
    44
1041
3.175
1070
   140
1041
4.5
1070
   343
1005
0
1070
   344
1005
0
1002
}
0
DIMENSION
5
273
100
AcDbEntity
8
SK2
62
256
6
ByLayer
370
-3
48
1
60
0
100
AcDbDimension
2
DimnDraft3D6
10
-71.9
20
12.5
30
0
11
-72.1
21
4.121053
31
0
70
33
71
5
72
1
41
1
210
0
220
0
230
1
3
Standard
100
AcDbAlignedDimension
13
-1.5875
23
-12.5
33
0
14
-1.5875
24
12.5
34
0
1001
ACAD
1000
DSTYLE
1002
{
1070
   279
1070
     0
1070
    74
1070
     0
1070
   173
1070
     1
1070
   340
1005
20F
1070
   271
1070
     1
1070
   272
1070
     2
1070
    77
1070
     1
1070
    73
1070
     0
1070
   171
1070
     3
1070
   274
1070
     4
1070
   177
1070
   150
1070
   176
1070
     9
1070
   178
1070
    43
1070
    78
1070
     8
1070
    48
1040
-0.005
1070
    41
1041
4.175
1070
   147
1041
2.25
1070
    42
1041
1.5875
1070
    44
1041
3.175
1070
   140
1041
4.5
1070
   343
1005
0
1070
   344
1005
0
1002
}
0
DIMENSION
5
27E
100
AcDbEntity
8
2
62
256
6
ByLayer
370
-3
48
1
60
0
100
AcDbDimension
2
DimnDraft3D7
10
99.15
20
-8.5
30
0
11
92.6
21
-24.745395
31
0
70
33
71
5
72
1
41
1
210
0
220
0
230
1
3
Standard
100
AcDbAlignedDimension
13
70.5875
23
8.5
33
0
14
70.5875
24
-8.5
34
0
1001
ACAD
1000
DSTYLE
1002
{
1070
   279
1070
     0
1070
    74
1070
     0
1070
   173
1070
     1
1070
   340
1005
20F
1070
   271
1070
     2
1070
   272
1070
     2
1070
    77
1070
     1
1070
    73
1070
     0
1070
   171
1070
     3
1070
   274
1070
     4
1070
   177
1070
   150
1070
   176
1070
     9
1070
   178
1070
    43
1070
    78
1070
     8
1070
    48
1040
-0.005
1070
    41
1041
4.175
1070
   147
1041
2.25
1070
    42
1041
1.5875
1070
    44
1041
3.175
1070
   140
1041
4.5
1070
   343
1005
0
1070
   344
1005
0
1002
}
0
ENDSEC
0
SECTION
2
OBJECTS
0
DICTIONARY
5
2af
330
0
100
AcDbDictionary
280
0
281
1
3
ACAD_GROUP
350
2b0
3
ACAD_MLINESTYLE
350
2b1
0
DICTIONARY
5
2b0
330
0
100
AcDbDictionary
280
0
281
1
0
DICTIONARY
5
2b1
330
0
100
AcDbDictionary
280
0
281
1
3
Standard
350
18
0
MLINESTYLE
5
18
330
2b1
100
AcDbMlineStyle
2
Standard
70
0
3

62
256
51
90
52
90
71
2
49
-0.5
62
256
6
ByLayer
49
0.5
62
256
6
ByLayer
0
RASTERVARIABLES
5
29d
330

100
AcDbRasterVariables
90
0
70
1
71
1
72
1
0
ENDSEC
0
EOF
