0
SECTION
2
HEADER
9
$ACADVER
1
AC1015
9
$DWGCODEPAGE
3
ANSI_1252
9
$HANDSEED
5
2e1
9
$ANGBASE
50
0
9
$ANGDIR
70
0
9
$ATTMODE
70
1
9
$AUNITS
70
0
9
$AUPREC
70
0
9
$CECOLOR
62
256
9
$CELTSCALE
40
1
9
$CELTYPE
6
ByLayer
9
$CELWEIGHT
370
-1
9
$CLAYER
8
0
9
$CMLJUST
70
0
9
$CMLSCALE
40
1
9
$CMLSTYLE
2
Standard
9
$DIMSTYLE
2
Standard
9
$TEXTSIZE
40
0.2
9
$TEXTSTYLE
7
Standard
9
$LUNITS
70
2
9
$LUPREC
70
4
9
$EXTNAMES
290
1
9
$INSUNITS
70
4
9
$LTSCALE
40
1
9
$LWDISPLAY
290
0
9
$PDMODE
70
0
9
$PDSIZE
40
0
9
$PLINEGEN
70
0
0
ENDSEC
0
SECTION
2
CLASSES
0
CLASS
1
RASTERVARIABLES
2
AcDbRasterVariables
3
ISM
90
0
280
0
281
0
0
ENDSEC
0
SECTION
2
TABLES
0
TABLE
2
VPORT
5
2d7
100
AcDbSymbolTable
0
VPORT
5
1
100
AcDbSymbolTableRecord
100
AcDbViewportTableRecord
2
*Active
70
0
10
0
20
0
11
1
21
1
12
-1
22
1
13
0
23
0
14
0.5
24
0.5
15
10
25
10
16
0
26
0
36
1
17
0
27
0
37
0
0
ENDTAB
0
TABLE
2
LTYPE
5
2d8
100
AcDbSymbolTable
0
LTYPE
5
14
100
AcDbSymbolTableRecord
100
AcDbLinetypeTableRecord
70
0
2
ByBlock
3

72
65
73
0
40
0
0
LTYPE
5
15
100
AcDbSymbolTableRecord
100
AcDbLinetypeTableRecord
70
0
2
ByLayer
3

72
65
73
0
40
0
0
LTYPE
5
16
100
AcDbSymbolTableRecord
100
AcDbLinetypeTableRecord
70
0
2
CONTINUOUS
3
Solid line
72
65
73
0
40
0
0
LTYPE
5
3B
100
AcDbSymbolTableRecord
100
AcDbLinetypeTableRecord
70
0
2
DASHED
3
__ __ __ __ __ __ __ __ __
72
65
73
2
40
25.72
49
12.86
74
0
49
-12.86
74
0
0
LTYPE
5
3C
100
AcDbSymbolTableRecord
100
AcDbLinetypeTableRecord
70
0
2
HIDDEN
3
_ _ _ _ _ _ _ _ _ _ _ _ _ _ _
72
65
73
2
40
0.5
49
0.25
74
0
49
-0.25
74
0
0
LTYPE
5
3D
100
AcDbSymbolTableRecord
100
AcDbLinetypeTableRecord
70
0
2
PHANTOM
3
____ _ _ ____ _ _ _____ _ _ ____
72
65
73
6
40
50.5
49
18
74
0
49
-6.5
74
0
49
6.5
74
0
49
-6.5
74
0
49
6.5
74
0
49
-6.5
74
0
0
LTYPE
5
3E
100
AcDbSymbolTableRecord
100
AcDbLinetypeTableRecord
70
0
2
CENTER
3
____ _ ____ _ ____ _ ____
72
65
73
4
40
47.5
49
22
74
0
49
-8.5
74
0
49
8.5
74
0
49
-8.5
74
0
0
LTYPE
5
3F
100
AcDbSymbolTableRecord
100
AcDbLinetypeTableRecord
70
0
2
DOT
3
.........................
72
65
73
2
40
10
49
0
74
0
49
-10
74
0
0
LTYPE
5
40
100
AcDbSymbolTableRecord
100
AcDbLinetypeTableRecord
70
0
2
DASHDOT
3
_._._._._._._._._._._._._._._._.
72
65
73
4
40
70
49
31
74
0
49
-13
74
0
49
13
74
0
49
-13
74
0
0
ENDTAB
0
TABLE
2
LAYER
5
2d9
100
AcDbSymbolTable
0
LAYER
5
10
100
AcDbSymbolTableRecord
100
AcDbLayerTableRecord
2
0
70
0
62
7
6
CONTINUOUS
290
1
370
-3
390
0
0
LAYER
5
42
100
AcDbSymbolTableRecord
100
AcDbLayerTableRecord
2
81
70
0
62
-3
6
CONTINUOUS
290
1
370
-3
390
0
0
LAYER
5
44
100
AcDbSymbolTableRecord
100
AcDbLayerTableRecord
2
80
70
0
62
-6
6
CONTINUOUS
290
1
370
-3
390
0
0
LAYER
5
4B
100
AcDbSymbolTableRecord
100
AcDbLayerTableRecord
2
1
70
0
62
4
6
CONTINUOUS
290
1
370
-3
390
0
0
LAYER
5
65
100
AcDbSymbolTableRecord
100
AcDbLayerTableRecord
2
4
70
0
62
-2
6
CENTER
290
1
370
-3
390
0
0
LAYER
5
27B
100
AcDbSymbolTableRecord
100
AcDbLayerTableRecord
2
2
70
0
62
7
6
CONTINUOUS
290
1
370
-3
390
0
0
LAYER
5
2c3
100
AcDbSymbolTableRecord
100
AcDbLayerTableRecord
2
SK1
70
0
62
4
6
CONTINUOUS
290
1
370
-3
390
0
0
LAYER
5
2c4
100
AcDbSymbolTableRecord
100
AcDbLayerTableRecord
2
SK4
70
0
62
2
6
CENTER
290
1
370
-3
390
0
0
LAYER
5
2c5
100
AcDbSymbolTableRecord
100
AcDbLayerTableRecord
2
SK6
70
0
62
5
6
CONTINUOUS
290
1
370
-3
390
0
0
LAYER
5
2c6
100
AcDbSymbolTableRecord
100
AcDbLayerTableRecord
2
SK2
70
0
62
7
6
CONTINUOUS
290
1
370
-3
390
0
0
ENDTAB
0
TABLE
2
STYLE
5
2da
100
AcDbSymbolTable
0
STYLE
5
11
100
AcDbSymbolTableRecord
100
AcDbTextStyleTableRecord
2
Standard
3
txt
70
0
71
0
40
0
41
1
42
0
50
0
0
STYLE
5
23F
100
AcDbSymbolTableRecord
100
AcDbTextStyleTableRecord
2
DEFAULT
3
simplex.shx
70
0
71
0
40
0
41
1
42
0
50
0
0
STYLE
5
262
100
AcDbSymbolTableRecord
100
AcDbTextStyleTableRecord
2
DWGDirectTextStyle
3
SIMPLEX
70
0
71
0
40
0
41
1
42
0
50
0
0
ENDTAB
0
TABLE
2
DIMSTYLE
5
2db
100
AcDbSymbolTable
100
AcDbDimStyleTable
0
DIMSTYLE
105
27
100
AcDbSymbolTableRecord
100
AcDbDimStyleTableRecord
2
Standard
70
0
3
<>
41
0.18
42
0.0625
44
0.18
140
0.18
147
0.09
73
0
74
0
77
1
271
2
275
0
278
52
280
0
340
11
0
ENDTAB
0
TABLE
2
VIEW
5
2dc
100
AcDbSymbolTable
0
ENDTAB
0
TABLE
2
UCS
5
2dd
100
AcDbSymbolTable
0
ENDTAB
0
TABLE
2
APPID
5
2de
100
AcDbSymbolTable
0
APPID
5
12
100
AcDbSymbolTableRecord
100
AcDbRegAppTableRecord
2
ACAD
70
0
0
ENDTAB
0
TABLE
2
BLOCK_RECORD
5
2df
100
AcDbSymbolTable
0
BLOCK_RECORD
5
1F
100
AcDbSymbolTableRecord
100
AcDbBlockTableRecord
2
*Model_Space
340
0
70
0
0
BLOCK_RECORD
5
1B
100
AcDbSymbolTableRecord
100
AcDbBlockTableRecord
2
*Paper_Space
340
0
70
0
0
BLOCK_RECORD
5
23
100
AcDbSymbolTableRecord
100
AcDbBlockTableRecord
2
*Paper_Space0
340
0
70
0
0
BLOCK_RECORD
5
264
100
AcDbSymbolTableRecord
100
AcDbBlockTableRecord
2
DimnDraft3D1
340
0
70
0
0
BLOCK_RECORD
5
26F
100
AcDbSymbolTableRecord
100
AcDbBlockTableRecord
2
DimnDraft3D2
340
0
70
0
0
BLOCK_RECORD
5
279
100
AcDbSymbolTableRecord
100
AcDbBlockTableRecord
2
DimnDraft3D3
340
0
70
0
0
BLOCK_RECORD
5
284
100
AcDbSymbolTableRecord
100
AcDbBlockTableRecord
2
DimnDraft3D4
340
0
70
0
0
BLOCK_RECORD
5
28E
100
AcDbSymbolTableRecord
100
AcDbBlockTableRecord
2
DimnDraft3D5
340
0
70
0
0
BLOCK_RECORD
5
299
100
AcDbSymbolTableRecord
100
AcDbBlockTableRecord
2
DimnDraft3D6
340
0
70
0
0
ENDTAB
0
ENDSEC
0
SECTION
2
BLOCKS
0
BLOCK
5
20
100
AcDbEntity
8
0
100
AcDbBlockBegin
2
*Model_Space
70
0
10
0
20
0
30
0
3
*Model_Space
0
ENDBLK
5
21
100
AcDbEntity
8
0
100
AcDbBlockEnd
0
BLOCK
5
1C
100
AcDbEntity
8
0
100
AcDbBlockBegin
2
*Paper_Space
70
0
10
0
20
0
30
0
3
*Paper_Space
0
ENDBLK
5
1D
100
AcDbEntity
8
0
100
AcDbBlockEnd
0
BLOCK
5
24
100
AcDbEntity
8
0
100
AcDbBlockBegin
2
*Paper_Space0
70
0
10
0
20
0
30
0
3
*Paper_Space0
0
ENDBLK
5
25
100
AcDbEntity
8
0
100
AcDbBlockEnd
0
BLOCK
5
26C
100
AcDbEntity
8
0
100
AcDbBlockBegin
2
DimnDraft3D1
70
0
10
0
20
0
30
0
3
DimnDraft3D1
0
MTEXT
5
265
100
AcDbEntity
8
SK2
62
256
6
ByLayer
370
-1
48
1
60
0
100
AcDbMText
10
19.406579
20
-67.225
30
0
210
0
220
0
230
1
1
\W01.000;\fsimplex.shx,bigfont.shx;(129) 
40
4.5
41
0
44
1.084337
50
0
71
7
72
5
7
DEFAULT
0
LINE
5
267
100
AcDbEntity
8
SK2
62
256
6
ByLayer
370
-1
48
1
60
0
100
AcDbLine
10
-38
20
-4.5875
30
0
11
-38
21
-73.49375
31
0
39
0
210
0
220
0
230
1
0
LINE
5
268
100
AcDbEntity
8
SK2
62
256
6
ByLayer
370
-1
48
1
60
0
100
AcDbLine
10
91
20
-10.0875
30
0
11
91
21
-73.49375
31
0
39
0
210
0
220
0
230
1
0
LINE
5
269
100
AcDbEntity
8
SK2
62
256
6
ByLayer
370
-1
48
1
60
0
100
AcDbLine
10
-38
20
-70.31875
30
0
11
91
21
-70.31875
31
0
39
0
210
0
220
0
230
1
0
SOLID
5
26A
100
AcDbEntity
8
SK2
62
256
6
ByLayer
370
-1
48
1
60
0
100
AcDbTrace
10
-38
20
-70.31875
30
0
11
-33.825003
21
-69.393175
31
0
12
-33.824997
22
-71.244325
32
0
13
-38
23
-70.31875
33
0
39
0
210
0
220
0
230
1
0
SOLID
5
26B
100
AcDbEntity
8
SK2
62
256
6
ByLayer
370
-1
48
1
60
0
100
AcDbTrace
10
91
20
-70.31875
30
0
11
86.825003
21
-71.244325
31
0
12
86.824997
22
-69.393175
32
0
13
91
23
-70.31875
33
0
39
0
210
0
220
0
230
1
0
ENDBLK
5
26D
100
AcDbEntity
8
0
100
AcDbBlockEnd
0
BLOCK
5
276
100
AcDbEntity
8
0
100
AcDbBlockBegin
2
DimnDraft3D2
70
0
10
0
20
0
30
0
3
DimnDraft3D2
0
MTEXT
5
270
100
AcDbEntity
8
SK2
62
256
6
ByLayer
370
-1
48
1
60
0
100
AcDbMText
10
-20.503947
20
-57.225
30
0
210
0
220
0
230
1
1
\W01.000;\fsimplex.shx,bigfont.shx;38 
40
4.5
41
0
44
1.084337
50
0
71
7
72
5
7
DEFAULT
0
LINE
5
271
100
AcDbEntity
8
SK2
62
256
6
ByLayer
370
-1
48
1
60
0
100
AcDbLine
10
-38
20
-4.5875
30
0
11
-38
21
-61.525
31
0
39
0
210
0
220
0
230
1
0
LINE
5
272
100
AcDbEntity
8
SK2
62
256
6
ByLayer
370
-1
48
1
60
0
100
AcDbLine
10
0
20
-33.0875
30
0
11
0
21
-61.525
31
0
39
0
210
0
220
0
230
1
0
LINE
5
273
100
AcDbEntity
8
SK2
62
256
6
ByLayer
370
-1
48
1
60
0
100
AcDbLine
10
-38
20
-58.35
30
0
11
0
21
-58.35
31
0
39
0
210
0
220
0
230
1
0
SOLID
5
274
100
AcDbEntity
8
SK2
62
256
6
ByLayer
370
-1
48
1
60
0
100
AcDbTrace
10
-38
20
-58.35
30
0
11
-33.825003
21
-57.424425
31
0
12
-33.824997
22
-59.275575
32
0
13
-38
23
-58.35
33
0
39
0
210
0
220
0
230
1
0
SOLID
5
275
100
AcDbEntity
8
SK2
62
256
6
ByLayer
370
-1
48
1
60
0
100
AcDbTrace
10
0
20
-58.35
30
0
11
-4.174997
21
-59.275575
31
0
12
-4.175003
22
-57.424425
32
0
13
0
23
-58.35
33
0
39
0
210
0
220
0
230
1
0
ENDBLK
5
277
100
AcDbEntity
8
0
100
AcDbBlockEnd
0
BLOCK
5
281
100
AcDbEntity
8
0
100
AcDbBlockBegin
2
DimnDraft3D3
70
0
10
0
20
0
30
0
3
DimnDraft3D3
0
MTEXT
5
27A
100
AcDbEntity
8
2
62
256
6
ByLayer
370
-1
48
1
60
0
100
AcDbMText
10
44.558553
20
-57.225
30
0
210
0
220
0
230
1
1
\W01.000;\fsimplex.shx,bigfont.shx;91 
40
4.5
41
0
44
1.084337
50
0
71
7
72
5
7
DEFAULT
0
LINE
5
27C
100
AcDbEntity
8
2
62
256
6
ByLayer
370
-1
48
1
60
0
100
AcDbLine
10
0
20
-33.0875
30
0
11
0
21
-61.525
31
0
39
0
210
0
220
0
230
1
0
LINE
5
27D
100
AcDbEntity
8
2
62
256
6
ByLayer
370
-1
48
1
60
0
100
AcDbLine
10
91
20
-10.0875
30
0
11
91
21
-61.525
31
0
39
0
210
0
220
0
230
1
0
LINE
5
27E
100
AcDbEntity
8
2
62
256
6
ByLayer
370
-1
48
1
60
0
100
AcDbLine
10
0
20
-58.35
30
0
11
91
21
-58.35
31
0
39
0
210
0
220
0
230
1
0
SOLID
5
27F
100
AcDbEntity
8
2
62
256
6
ByLayer
370
-1
48
1
60
0
100
AcDbTrace
10
0
20
-58.35
30
0
11
4.174997
21
-57.424425
31
0
12
4.175003
22
-59.275575
32
0
13
0
23
-58.35
33
0
39
0
210
0
220
0
230
1
0
SOLID
5
280
100
AcDbEntity
8
2
62
256
6
ByLayer
370
-1
48
1
60
0
100
AcDbTrace
10
91
20
-58.35
30
0
11
86.825003
21
-59.275575
31
0
12
86.824997
22
-57.424425
32
0
13
91
23
-58.35
33
0
39
0
210
0
220
0
230
1
0
ENDBLK
5
282
100
AcDbEntity
8
0
100
AcDbBlockEnd
0
BLOCK
5
28B
100
AcDbEntity
8
0
100
AcDbBlockBegin
2
DimnDraft3D4
70
0
10
0
20
0
30
0
3
DimnDraft3D4
0
MTEXT
5
285
100
AcDbEntity
8
SK2
62
256
6
ByLayer
370
-1
48
1
60
0
100
AcDbMText
10
62.259211
20
-47.225
30
0
210
0
220
0
230
1
1
\W01.000;\fsimplex.shx,bigfont.shx;54 
40
4.5
41
0
44
1.084337
50
0
71
7
72
5
7
DEFAULT
0
LINE
5
286
100
AcDbEntity
8
SK2
62
256
6
ByLayer
370
-1
48
1
60
0
100
AcDbLine
10
37
20
-11.5875
30
0
11
37
21
-51.525
31
0
39
0
210
0
220
0
230
1
0
LINE
5
287
100
AcDbEntity
8
SK2
62
256
6
ByLayer
370
-1
48
1
60
0
100
AcDbLine
10
91
20
-10.0875
30
0
11
91
21
-51.525
31
0
39
0
210
0
220
0
230
1
0
LINE
5
288
100
AcDbEntity
8
SK2
62
256
6
ByLayer
370
-1
48
1
60
0
100
AcDbLine
10
37
20
-48.35
30
0
11
91
21
-48.35
31
0
39
0
210
0
220
0
230
1
0
SOLID
5
289
100
AcDbEntity
8
SK2
62
256
6
ByLayer
370
-1
48
1
60
0
100
AcDbTrace
10
37
20
-48.35
30
0
11
41.174997
21
-47.424425
31
0
12
41.175003
22
-49.275575
32
0
13
37
23
-48.35
33
0
39
0
210
0
220
0
230
1
0
SOLID
5
28A
100
AcDbEntity
8
SK2
62
256
6
ByLayer
370
-1
48
1
60
0
100
AcDbTrace
10
91
20
-48.35
30
0
11
86.825003
21
-49.275575
31
0
12
86.824997
22
-47.424425
32
0
13
91
23
-48.35
33
0
39
0
210
0
220
0
230
1
0
ENDBLK
5
28C
100
AcDbEntity
8
0
100
AcDbBlockEnd
0
BLOCK
5
296
100
AcDbEntity
8
0
100
AcDbBlockBegin
2
DimnDraft3D5
70
0
10
0
20
0
30
0
3
DimnDraft3D5
0
MTEXT
5
28F
100
AcDbEntity
8
SK2
62
256
6
ByLayer
370
-1
48
1
60
0
100
AcDbMText
10
-59.164798
20
5.246053
30
0
210
0
220
0
230
1
1
\W01.000;\fsimplex.shx,bigfont.shx;63 
40
4.5
41
0
44
1.084337
50
90
71
7
72
5
7
DEFAULT
0
MTEXT
5
290
100
AcDbEntity
8
SK2
62
256
6
ByLayer
370
-1
48
1
60
0
100
AcDbMText
10
-59.164798
20
-8.253947
30
0
210
0
220
0
230
1
1
\W01.000;\fsimplex.shx,bigfont.shx;%%c 
40
4.5
41
0
44
1.084337
50
90
71
7
72
5
7
DEFAULT
0
LINE
5
291
100
AcDbEntity
8
SK2
62
256
6
ByLayer
370
-1
48
1
60
0
100
AcDbLine
10
-1.5875
20
-31.5
30
0
11
-60.089798
21
-31.5
31
0
39
0
210
0
220
0
230
1
0
LINE
5
292
100
AcDbEntity
8
SK2
62
256
6
ByLayer
370
-1
48
1
60
0
100
AcDbLine
10
-1.5875
20
31.5
30
0
11
-60.089798
21
31.5
31
0
39
0
210
0
220
0
230
1
0
LINE
5
293
100
AcDbEntity
8
SK2
62
256
6
ByLayer
370
-1
48
1
60
0
100
AcDbLine
10
-56.914798
20
-31.5
30
0
11
-56.914798
21
31.5
31
0
39
0
210
0
220
0
230
1
0
SOLID
5
294
100
AcDbEntity
8
SK2
62
256
6
ByLayer
370
-1
48
1
60
0
100
AcDbTrace
10
-56.914798
20
-31.5
30
0
11
-57.840373
21
-27.325003
31
0
12
-55.989223
22
-27.324997
32
0
13
-56.914798
23
-31.5
33
0
39
0
210
0
220
0
230
1
0
SOLID
5
295
100
AcDbEntity
8
SK2
62
256
6
ByLayer
370
-1
48
1
60
0
100
AcDbTrace
10
-56.914798
20
31.5
30
0
11
-55.989223
21
27.325003
31
0
12
-57.840373
22
27.324997
32
0
13
-56.914798
23
31.5
33
0
39
0
210
0
220
0
230
1
0
ENDBLK
5
297
100
AcDbEntity
8
0
100
AcDbBlockEnd
0
BLOCK
5
2A1
100
AcDbEntity
8
0
100
AcDbBlockBegin
2
DimnDraft3D6
70
0
10
0
20
0
30
0
3
DimnDraft3D6
0
MTEXT
5
29A
100
AcDbEntity
8
2
62
256
6
ByLayer
370
-1
48
1
60
0
100
AcDbMText
10
115.725
20
-23.620395
30
0
210
0
220
0
230
1
1
\W01.000;\fsimplex.shx,bigfont.shx;17 
40
4.5
41
0
44
1.084337
50
90
71
7
72
5
7
DEFAULT
0
MTEXT
5
29B
100
AcDbEntity
8
2
62
256
6
ByLayer
370
-1
48
1
60
0
100
AcDbMText
10
115.725
20
-37.120395
30
0
210
0
220
0
230
1
1
\W01.000;\fsimplex.shx,bigfont.shx;%%c 
40
4.5
41
0
44
1.084337
50
90
71
7
72
5
7
DEFAULT
0
LINE
5
29C
100
AcDbEntity
8
2
62
256
6
ByLayer
370
-1
48
1
60
0
100
AcDbLine
10
92.5875
20
8.5
30
0
11
121.15
21
8.5
31
0
39
0
210
0
220
0
230
1
0
LINE
5
29D
100
AcDbEntity
8
2
62
256
6
ByLayer
370
-1
48
1
60
0
100
AcDbLine
10
92.5875
20
-8.5
30
0
11
121.15
21
-8.5
31
0
39
0
210
0
220
0
230
1
0
LINE
5
29E
100
AcDbEntity
8
2
62
256
6
ByLayer
370
-1
48
1
60
0
100
AcDbLine
10
117.975
20
8.5
30
0
11
117.975
21
-38.245395
31
0
39
0
210
0
220
0
230
1
0
SOLID
5
29F
100
AcDbEntity
8
2
62
256
6
ByLayer
370
-1
48
1
60
0
100
AcDbTrace
10
117.975
20
8.5
30
0
11
118.900575
21
4.325003
31
0
12
117.049425
22
4.324997
32
0
13
117.975
23
8.5
33
0
39
0
210
0
220
0
230
1
0
SOLID
5
2A0
100
AcDbEntity
8
2
62
256
6
ByLayer
370
-1
48
1
60
0
100
AcDbTrace
10
117.975
20
-8.5
30
0
11
117.049425
21
-4.325003
31
0
12
118.900575
22
-4.324997
32
0
13
117.975
23
-8.5
33
0
39
0
210
0
220
0
230
1
0
ENDBLK
5
2A2
100
AcDbEntity
8
0
100
AcDbBlockEnd
0
ENDSEC
0
SECTION
2
ENTITIES
0
ARC
5
FC
100
AcDbEntity
8
1
62
256
6
ByLayer
370
-1
48
1
60
0
100
AcDbCircle
39
0
10
-28.015785
20
11.8
30
0
40
0.8
210
0
220
0
230
-1
100
AcDbArc
50
270
51
345
0
ARC
5
FD
100
AcDbEntity
8
1
62
256
6
ByLayer
370
-1
48
1
60
0
100
AcDbCircle
39
0
10
-28.015785
20
-11.8
30
0
40
0.8
210
0
220
0
230
-1
100
AcDbArc
50
15
51
90
0
ELLIPSE
5
FE
100
AcDbEntity
8
1
62
256
6
ByLayer
370
-1
48
1
60
0
100
AcDbEllipse
10
-2.347154
20
0
30
0
11
-14.7536831606564
21
-31.0932549155813
31
0
210
0
220
0
230
-1
40
0.341999
41
-2.98378646694437
42
-2.05035306783697
0
ELLIPSE
5
FF
100
AcDbEntity
8
1
62
256
6
ByLayer
370
-1
48
1
60
0
100
AcDbEllipse
10
90.264351
20
-4.221165
30
0
11
-0.058129099292587
21
-0.65856497394582
31
0
210
0
220
0
230
-1
40
0.115224
41
0.00370845515576049
42
1.57450478195427
0
ELLIPSE
5
100
100
AcDbEntity
8
1
62
256
6
ByLayer
370
-1
48
1
60
0
100
AcDbEllipse
10
90.902602
20
0
30
0
11
-0.674314258163286
21
-8.19955713325364
31
0
210
0
220
0
230
-1
40
0.126383
41
0.0104386157931689
42
1.06352359988784
0
ELLIPSE
5
101
100
AcDbEntity
8
1
62
256
6
ByLayer
370
-1
48
1
60
0
100
AcDbEllipse
10
87.857049
20
5.251694
30
0
11
1.46431667789534E-15
21
1.25
31
0
210
0
220
0
230
1
40
0.996195
41
0
42
1.01581412355465
0
ELLIPSE
5
102
100
AcDbEntity
8
1
62
256
6
ByLayer
370
-1
48
1
60
0
100
AcDbEllipse
10
87.843976
20
5.251694
30
0
11
1.46431667789534E-15
21
1.25
31
0
210
0
220
0
230
1
40
0.996195
41
-1.80160505545351
42
0
0
ELLIPSE
5
103
100
AcDbEntity
8
1
62
256
6
ByLayer
370
-1
48
1
60
0
100
AcDbEllipse
10
87.843976
20
5.251694
30
0
11
1.46431667789534E-15
21
1.25
31
0
210
0
220
0
230
1
40
0.996195
41
0
42
0.963290731159636
0
ELLIPSE
5
104
100
AcDbEntity
8
1
62
256
6
ByLayer
370
-1
48
1
60
0
100
AcDbEllipse
10
88.061865
20
5.251694
30
0
11
1.2885986765479E-15
21
1.1
31
0
210
0
220
0
230
1
40
0.996195
41
0.0936589268668741
42
1.57079627600051
0
ELLIPSE
5
105
100
AcDbEntity
8
1
62
256
6
ByLayer
370
-1
48
1
60
0
100
AcDbEllipse
10
88.061865
20
5.251694
30
0
11
1.2885986765479E-15
21
1.1
31
0
210
0
220
0
230
1
40
0.996195
41
1.57079627600051
42
2.67447725026751
0
ELLIPSE
5
106
100
AcDbEntity
8
1
62
256
6
ByLayer
370
-1
48
1
60
0
100
AcDbEllipse
10
85.831754
20
3.359632
30
0
11
-1.4470236532442E-15
21
-1.35
31
0
210
0
220
0
230
1
40
0.996195
41
-1.53588974175501
42
-0.146913134865279
0
ELLIPSE
5
107
100
AcDbEntity
8
1
62
256
6
ByLayer
370
-1
48
1
60
0
100
AcDbEllipse
10
26.347154
20
0
30
0
11
-14.7536831606566
21
31.0932549155814
31
0
210
0
220
0
230
-1
40
0.341999
41
-1.09123958575282
42
-0.157806186645427
0
ELLIPSE
5
108
100
AcDbEntity
8
1
62
256
6
ByLayer
370
-1
48
1
60
0
100
AcDbEllipse
10
82.718028
20
0
30
0
11
-27.9529732444962
21
0.547511854072375
31
0
210
0
220
0
230
-1
40
0.292695
41
-1.61518895955825
42
-1.55699851218629
0
ELLIPSE
5
109
100
AcDbEntity
8
1
62
256
6
ByLayer
370
-1
48
1
60
0
100
AcDbEllipse
10
84.764511
20
0
30
0
11
-0.265502409641779
21
8.19996738413835
31
0
210
0
220
0
230
-1
40
0.087398
41
-0.0391319379056164
42
-0.00102979311511363
0
ELLIPSE
5
10A
100
AcDbEntity
8
1
62
256
6
ByLayer
370
-1
48
1
60
0
100
AcDbEllipse
10
26.347154
20
0
30
0
11
-14.7536831606558
21
-31.0932549155805
31
0
210
0
220
0
230
-1
40
0.341999
41
0.157806186645431
42
1.09123958575284
0
ELLIPSE
5
10B
100
AcDbEntity
8
1
62
256
6
ByLayer
370
-1
48
1
60
0
100
AcDbEllipse
10
80.539405
20
0
30
0
11
-93.7264316133098
21
-1.06201390649393E-13
31
0
210
0
220
0
230
-1
40
0.087489
41
1.59785991440319
42
1.61275806165064
0
ELLIPSE
5
10C
100
AcDbEntity
8
1
62
256
6
ByLayer
370
-1
48
1
60
0
100
AcDbEllipse
10
-2.347154
20
0
30
0
11
-14.753683160657
21
31.093254915582
31
0
210
0
220
0
230
-1
40
0.341999
41
2.05035306783699
42
2.98378646694437
0
ELLIPSE
5
10D
100
AcDbEntity
8
1
62
256
6
ByLayer
370
-1
48
1
60
0
100
AcDbEllipse
10
83.732159
20
2.967857
30
0
11
0.0280261150489236
21
-0.799508934831416
31
0
210
0
220
0
230
1
40
0.087103
41
0.0630727813209479
42
1.56774302595898
0
ELLIPSE
5
10E
100
AcDbEntity
8
1
62
256
6
ByLayer
370
-1
48
1
60
0
100
AcDbEllipse
10
85.450319
20
4.72
30
0
11
-4.72234377493756
21
-2.99647072388417
31
0
210
0
220
0
230
-1
40
0.382995
41
-0.983376989742524
42
-0.933060362507954
0
ELLIPSE
5
10F
100
AcDbEntity
8
1
62
256
6
ByLayer
370
-1
48
1
60
0
100
AcDbEllipse
10
64.374454
20
6.305471
30
0
11
-18.6986045625248
21
1.72584509080806
31
0
210
0
220
0
230
-1
40
0.181056
41
3.12488305744217
42
-2.76670683175508
0
ELLIPSE
5
110
100
AcDbEntity
8
1
62
256
6
ByLayer
370
-1
48
1
60
0
100
AcDbEllipse
10
85.085064
20
3.333457
30
0
11
-0.599637270106163
21
-0.0208601126465925
31
0
210
0
220
0
230
1
40
0.003042
41
0.0872135714663609
42
1.13795433213009
0
ELLIPSE
5
111
100
AcDbEntity
8
1
62
256
6
ByLayer
370
-1
48
1
60
0
100
AcDbEllipse
10
82.077219
20
2.169951
30
0
11
-5.25427517977945
21
-0.165298771619606
31
0
210
0
220
0
230
-1
40
0.010628
41
-1.89658277759993
42
-1.88737096025744
0
ELLIPSE
5
112
100
AcDbEntity
8
1
62
256
6
ByLayer
370
-1
48
1
60
0
100
AcDbEllipse
10
85.874392
20
3.359632
30
0
11
-1.17794646133818
21
-1.04893007471889
31
0
210
0
220
0
230
-1
40
0.721468
41
-1.26712593957076
42
-0.13385310032085
0
ELLIPSE
5
113
100
AcDbEntity
8
1
62
256
6
ByLayer
370
-1
48
1
60
0
100
AcDbEllipse
10
32.2
20
3.516343
30
0
11
-4.49999999999999
21
4.54787574787062E-15
31
0
210
0
220
0
230
1
40
0.674369
41
-1.82153493117917
42
-0.216984888971751
0
ELLIPSE
5
114
100
AcDbEntity
8
1
62
256
6
ByLayer
370
-1
48
1
60
0
100
AcDbEllipse
10
90.304327
20
0.001704
30
0
11
-0.810344063614536
21
8.18983145731285
31
0
210
0
220
0
230
-1
40
0.116199
41
-1.47341700653345
42
-1.46672444441207
0
ELLIPSE
5
115
100
AcDbEntity
8
1
62
256
6
ByLayer
370
-1
48
1
60
0
100
AcDbEllipse
10
81.884346
20
3.328407
30
0
11
-0.326425640836806
21
-0.730374082922088
31
0
210
0
220
0
230
1
40
0.079621
41
0.473134521321549
42
1.60636616336575
0
ELLIPSE
5
116
100
AcDbEntity
8
1
62
256
6
ByLayer
370
-1
48
1
60
0
100
AcDbEllipse
10
90.038947
20
0.267497
30
0
11
-0.0598839754911538
21
0.602378565527374
31
0
210
0
220
0
230
-1
40
0.115825
41
-1.33438029290198
42
0.0766538434289682
0
ELLIPSE
5
117
100
AcDbEntity
8
1
62
256
6
ByLayer
370
-1
48
1
60
0
100
AcDbEllipse
10
83.655864
20
7.165298
30
0
11
4.92010403772836E-15
21
4.2
31
0
210
0
220
0
230
1
40
0.996195
41
2.72271363311116
42
-3.10668606854991
0
ELLIPSE
5
118
100
AcDbEntity
8
1
62
256
6
ByLayer
370
-1
48
1
60
0
100
AcDbEllipse
10
82.341699
20
4.620406
30
0
11
-0.317477113199974
21
-3.38514523803547
31
0
210
0
220
0
230
1
40
0.265059
41
0.197764347842619
42
0.8118163463313
0
ELLIPSE
5
119
100
AcDbEntity
8
1
62
256
6
ByLayer
370
-1
48
1
60
0
100
AcDbEllipse
10
89.905278
20
-4.68519
30
0
11
-0.0806236709326087
21
-0.996823837733441
31
0
210
0
220
0
230
-1
40
0.125822
41
-2.23317194813972
42
2.32169449795579
0
ELLIPSE
5
11A
100
AcDbEntity
8
1
62
256
6
ByLayer
370
-1
48
1
60
0
100
AcDbEllipse
10
87.72822
20
-1.784096
30
0
11
-1.1
21
1.1117029605906E-15
31
0
210
0
220
0
230
1
40
0.998135
41
-3.02044521600466
42
-0.121245951291246
0
ELLIPSE
5
11B
100
AcDbEntity
8
1
62
256
6
ByLayer
370
-1
48
1
60
0
100
AcDbEllipse
10
82.271988
20
0
30
0
11
-29.6996746146081
21
-3.36526921127118E-14
31
0
210
0
220
0
230
-1
40
0.276097
41
1.4824101350971
42
1.59785991518968
0
ELLIPSE
5
11C
100
AcDbEntity
8
1
62
256
6
ByLayer
370
-1
48
1
60
0
100
AcDbEllipse
10
85.044213
20
4.507741
30
0
11
-0.599637270106163
21
-0.0208601126465925
31
0
210
0
220
0
230
1
40
0.003042
41
0.0872135714656276
42
1.13795433213004
0
ELLIPSE
5
11D
100
AcDbEntity
8
1
62
256
6
ByLayer
370
-1
48
1
60
0
100
AcDbEllipse
10
90.297002
20
0
30
0
11
-0.497561979483641
21
8.19978589741996
31
0
210
0
220
0
230
-1
40
0.119092
41
-2.06044955401283
42
-1.47757991925417
0
ELLIPSE
5
11E
100
AcDbEntity
8
1
62
256
6
ByLayer
370
-1
48
1
60
0
100
AcDbEllipse
10
89.959847
20
2.940157
30
0
11
-0.05924691434936
21
0.603855611468566
31
0
210
0
220
0
230
-1
40
0.114862
41
2.31684886010563
42
-3.12877115104319
0
ELLIPSE
5
11F
100
AcDbEntity
8
1
62
256
6
ByLayer
370
-1
48
1
60
0
100
AcDbEllipse
10
89.995817
20
-4.693669
30
0
11
-0.0606459485179178
21
1.00988975050571
31
0
210
0
220
0
230
-1
40
0.117109
41
-0.803392937844521
42
0.924925923238162
0
ELLIPSE
5
120
100
AcDbEntity
8
1
62
256
6
ByLayer
370
-1
48
1
60
0
100
AcDbEllipse
10
85.58173
20
4.533916
30
0
11
1.58146201212697E-15
21
1.35
31
0
210
0
220
0
230
1
40
0.996195
41
0.863056052375931
42
1.60570291183478
0
ELLIPSE
5
121
100
AcDbEntity
8
1
62
256
6
ByLayer
370
-1
48
1
60
0
100
AcDbEllipse
10
88.199245
20
0
30
0
11
-18.6591848805676
21
7.94639694186635
31
0
210
0
220
0
230
-1
40
0.108448
41
-1.21861850308046
42
-0.514511945103857
0
ELLIPSE
5
122
100
AcDbEntity
8
1
62
256
6
ByLayer
370
-1
48
1
60
0
100
AcDbEllipse
10
75.199561
20
5.273431
30
0
11
-7.32416379872627
21
4.0125517161921
31
0
210
0
220
0
230
-1
40
0.112704
41
-2.57349375434904
42
-1.34945541321778
0
ELLIPSE
5
123
100
AcDbEntity
8
1
62
256
6
ByLayer
370
-1
48
1
60
0
100
AcDbEllipse
10
83.586139
20
7.165298
30
0
11
-5.35934686386741E-15
21
-5
31
0
210
0
220
0
230
1
40
0.996195
41
-0.272884779617873
42
-3.62506545204979E-06
0
ELLIPSE
5
124
100
AcDbEntity
8
1
62
256
6
ByLayer
370
-1
48
1
60
0
100
AcDbEllipse
10
85.622581
20
3.359632
30
0
11
1.58146201212697E-15
21
1.35
31
0
210
0
220
0
230
1
40
0.996195
41
1.60570291183478
42
1.8509328096783
0
ELLIPSE
5
125
100
AcDbEntity
8
1
62
256
6
ByLayer
370
-1
48
1
60
0
100
AcDbEllipse
10
87.72822
20
-1.518534
30
0
11
-1.1
21
1.1117029605906E-15
31
0
210
0
220
0
230
1
40
0.998135
41
0
42
6.28318530717959
0
ELLIPSE
5
126
100
AcDbEntity
8
1
62
256
6
ByLayer
370
-1
48
1
60
0
100
AcDbEllipse
10
39.153575
20
0
30
0
11
-145.834017987716
21
-7.92989695750709
31
0
210
0
220
0
230
-1
40
0.014313
41
-1.9208495272655
42
-1.87717527734328
0
ELLIPSE
5
127
100
AcDbEntity
8
1
62
256
6
ByLayer
370
-1
48
1
60
0
100
AcDbEllipse
10
85.790904
20
4.533916
30
0
11
-1.4470236532442E-15
21
-1.35
31
0
210
0
220
0
230
1
40
0.996195
41
-2.26960617922759
42
-1.53588974175501
0
ELLIPSE
5
128
100
AcDbEntity
8
1
62
256
6
ByLayer
370
-1
48
1
60
0
100
AcDbEllipse
10
90.035072
20
0.267632
30
0
11
-0.0367903320381167
21
0.601607487810596
31
0
210
0
220
0
230
-1
40
0.118733
41
-1.49832365734565
42
-1.3385614523286
0
ELLIPSE
5
129
100
AcDbEntity
8
1
62
256
6
ByLayer
370
-1
48
1
60
0
100
AcDbEllipse
10
87.72822
20
-1.518534
30
0
11
1.2
21
0
31
0
210
0
220
0
230
1
40
0.998135
41
0
42
3.14159250110337
0
ELLIPSE
5
12A
100
AcDbEntity
8
1
62
256
6
ByLayer
370
-1
48
1
60
0
100
AcDbEllipse
10
79.878564
20
2.869686
30
0
11
-9.84553223805371
21
0.517931703567048
31
0
210
0
220
0
230
-1
40
0.000334
41
-3.13619361382887
42
-3.13524192217831
0
ELLIPSE
5
12B
100
AcDbEntity
8
1
62
256
6
ByLayer
370
-1
48
1
60
0
100
AcDbEllipse
10
85.165408
20
6.032453
30
0
11
-0.579980162587933
21
-0.618336926409604
31
0
210
0
220
0
230
-1
40
0.04503
41
-0.739916138495856
42
-0.421202239123895
0
ELLIPSE
5
12C
100
AcDbEntity
8
1
62
256
6
ByLayer
370
-1
48
1
60
0
100
AcDbEllipse
10
87.857049
20
5.251694
30
0
11
1.2885986765479E-15
21
1.1
31
0
210
0
220
0
230
1
40
0.996195
41
-2.42668389129718
42
0
0
ELLIPSE
5
12D
100
AcDbEntity
8
1
62
256
6
ByLayer
370
-1
48
1
60
0
100
AcDbEllipse
10
87.857049
20
5.251694
30
0
11
1.2885986765479E-15
21
1.1
31
0
210
0
220
0
230
1
40
0.996195
41
0
42
1.57079634372637
0
ELLIPSE
5
12E
100
AcDbEntity
8
1
62
256
6
ByLayer
370
-1
48
1
60
0
100
AcDbEllipse
10
87.857049
20
5.251694
30
0
11
1.2885986765479E-15
21
1.1
31
0
210
0
220
0
230
1
40
0.996195
41
1.5707962760005
42
1.74584211605793
0
ELLIPSE
5
12F
100
AcDbEntity
8
1
62
256
6
ByLayer
370
-1
48
1
60
0
100
AcDbEllipse
10
90.32687
20
3.043694
30
0
11
5.15706934637614E-16
21
0.440228318114594
31
0
210
0
220
0
230
1
40
0.996195
41
-2.84488668075078
42
-1.79768912955418
0
ELLIPSE
5
130
100
AcDbEntity
8
1
62
256
6
ByLayer
370
-1
48
1
60
0
100
AcDbEllipse
10
90.246548
20
-1.460272
30
0
11
1.16445136866421E-14
21
9.9402283181145
31
0
210
0
220
0
230
1
40
0.996195
41
0.025805956121689
42
0.0312674126735999
0
ELLIPSE
5
131
100
AcDbEntity
8
1
62
256
6
ByLayer
370
-1
48
1
60
0
100
AcDbEllipse
10
90.198201
20
8.238704
30
0
11
-3.21560811832048E-16
21
-0.300000000000003
31
0
210
0
220
0
230
1
40
0.996195
41
2.91469985083052
42
3.14159265358979
0
ELLIPSE
5
132
100
AcDbEntity
8
1
62
256
6
ByLayer
370
-1
48
1
60
0
100
AcDbEllipse
10
90.521003
20
2.998704
30
0
11
2.81416266174359E-16
21
0.240228318114594
31
0
210
0
220
0
230
1
40
0.996195
41
-1.79768912955413
42
-1.5707963267949
0
ELLIPSE
5
133
100
AcDbEntity
8
1
62
256
6
ByLayer
370
-1
48
1
60
0
100
AcDbEllipse
10
90.118023
20
3.538064
30
0
11
5.78724697506073E-15
21
4.94022831811449
31
0
210
0
220
0
230
1
40
0.996195
41
0.0160059630348813
42
0.0258059561216742
0
ELLIPSE
5
134
100
AcDbEntity
8
1
62
256
6
ByLayer
370
-1
48
1
60
0
100
AcDbEllipse
10
85.38112
20
7.374852
30
0
11
-5.35934686386771E-15
21
-5.00000000000028
31
0
210
0
220
0
230
1
40
0.996195
41
0.016005963034878
42
0.0258059561216735
0
ELLIPSE
5
135
100
AcDbEntity
8
1
62
256
6
ByLayer
370
-1
48
1
60
0
100
AcDbEllipse
10
85.301398
20
12.374212
30
0
11
-1.07186937277344E-14
21
-9.99999999999964
31
0
210
0
220
0
230
1
40
0.996195
41
0
42
0.0160059630348808
0
ELLIPSE
5
136
100
AcDbEntity
8
1
62
256
6
ByLayer
370
-1
48
1
60
0
100
AcDbEllipse
10
85.787629
20
-1.615889
30
0
11
1.16445136866418E-14
21
9.94022831811422
31
0
210
0
220
0
230
1
40
0.996195
41
0.0538072070448971
42
0.0698131700797859
0
ELLIPSE
5
137
100
AcDbEntity
8
1
62
256
6
ByLayer
370
-1
48
1
60
0
100
AcDbEllipse
10
85.113566
20
8.060482
30
0
11
2.81416266174359E-16
21
0.240228318114594
31
0
210
0
220
0
230
1
40
0.996195
41
0.0698131700797251
42
0.296705972838996
0
ELLIPSE
5
138
100
AcDbEntity
8
1
62
256
6
ByLayer
370
-1
48
1
60
0
100
AcDbEllipse
10
85.25214
20
12.373187
30
0
11
1.16445136866421E-14
21
9.9402283181145
31
0
210
0
220
0
230
1
40
0.996195
41
-3.11578669746811
42
-3.11032524091619
0
ELLIPSE
5
139
100
AcDbEntity
8
1
62
256
6
ByLayer
370
-1
48
1
60
0
100
AcDbEllipse
10
90.521459
20
2.998704
30
0
11
-3.21560811832048E-16
21
-0.300000000000003
31
0
210
0
220
0
230
1
40
0.996195
41
1.34390352403567
42
1.5707963267949
0
ELLIPSE
5
13A
100
AcDbEntity
8
1
62
256
6
ByLayer
370
-1
48
1
60
0
100
AcDbEllipse
10
90.198201
20
-1.461296
30
0
11
-1.07186937277344E-14
21
-9.99999999999964
31
0
210
0
220
0
230
1
40
0.996195
41
3.14159265358979
42
-3.12558669055491
0
ELLIPSE
5
13B
100
AcDbEntity
8
1
62
256
6
ByLayer
370
-1
48
1
60
0
100
AcDbEllipse
10
85.346217
20
2.869086
30
0
11
-5.35934686386747E-16
21
-0.500000000000006
31
0
210
0
220
0
230
1
40
0.996195
41
-1.27409035395586
42
-0.226892802759289
0
ELLIPSE
5
13C
100
AcDbEntity
8
1
62
256
6
ByLayer
370
-1
48
1
60
0
100
AcDbEllipse
10
85.838706
20
3.07873
30
0
11
-5.35934686386771E-15
21
-5.00000000000028
31
0
210
0
220
0
230
1
40
0.996195
41
1.58680228982978
42
1.59660228291657
0
ELLIPSE
5
13D
100
AcDbEntity
8
1
62
256
6
ByLayer
370
-1
48
1
60
0
100
AcDbEllipse
10
85.172273
20
7.869222
30
0
11
-5.35934686386747E-16
21
-0.500000000000006
31
0
210
0
220
0
230
1
40
0.996195
41
-2.84488668075078
42
-1.7976891295542
0
ELLIPSE
5
13E
100
AcDbEntity
8
1
62
256
6
ByLayer
370
-1
48
1
60
0
100
AcDbEllipse
10
85.67813
20
7.694573
30
0
11
-5.35934686386771E-15
21
-5.00000000000028
31
0
210
0
220
0
230
1
40
0.996195
41
1.614803540753
42
1.62460353383979
0
ELLIPSE
5
13F
100
AcDbEntity
8
1
62
256
6
ByLayer
370
-1
48
1
60
0
100
AcDbEllipse
10
89.660894
20
7.834185
30
0
11
-5.35934686386771E-15
21
-5.00000000000028
31
0
210
0
220
0
230
1
40
0.996195
41
-1.55479036376002
42
-1.54499037067323
0
ELLIPSE
5
140
100
AcDbEntity
8
1
62
256
6
ByLayer
370
-1
48
1
60
0
100
AcDbEllipse
10
87.897521
20
5.456458
30
0
11
-1.33983671596685E-15
21
-1.25
31
0
210
0
220
0
230
1
40
0.996195
41
3.14159240058226
42
0
0
ELLIPSE
5
141
100
AcDbEntity
8
1
62
256
6
ByLayer
370
-1
48
1
60
0
100
AcDbEllipse
10
87.897521
20
5.456458
30
0
11
-1.33983671596685E-15
21
-1.25
31
0
210
0
220
0
230
1
40
0.996195
41
0
42
0.0349505431244582
0
ELLIPSE
5
142
100
AcDbEntity
8
1
62
256
6
ByLayer
370
-1
48
1
60
0
100
AcDbEllipse
10
89.978942
20
7.536041
30
0
11
5.78724697506073E-15
21
4.94022831811449
31
0
210
0
220
0
230
1
40
0.996195
41
-3.09758543963168
42
-3.0877854465449
0
ELLIPSE
5
143
100
AcDbEntity
8
1
62
256
6
ByLayer
370
-1
48
1
60
0
100
AcDbEllipse
10
89.660438
20
7.834185
30
0
11
5.78724697506073E-15
21
4.94022831811449
31
0
210
0
220
0
230
1
40
0.996195
41
1.58680228982978
42
1.59660228291657
0
ELLIPSE
5
144
100
AcDbEntity
8
1
62
256
6
ByLayer
370
-1
48
1
60
0
100
AcDbEllipse
10
90.197745
20
8.238704
30
0
11
2.81416266174359E-16
21
0.240228318114594
31
0
210
0
220
0
230
1
40
0.996195
41
-0.226892802759265
42
5.93815652555542E-14
0
ELLIPSE
5
145
100
AcDbEntity
8
1
62
256
6
ByLayer
370
-1
48
1
60
0
100
AcDbEllipse
10
85.301398
20
2.674212
30
0
11
-3.21560811832048E-16
21
-0.300000000000003
31
0
210
0
220
0
230
1
40
0.996195
41
-0.226892802759267
42
0
0
ELLIPSE
5
146
100
AcDbEntity
8
1
62
256
6
ByLayer
370
-1
48
1
60
0
100
AcDbEllipse
10
94.640773
20
7.914212
30
0
11
1.16445136866418E-14
21
9.94022831811422
31
0
210
0
220
0
230
1
40
0.996195
41
1.57079632679489
42
1.58680228982978
0
ELLIPSE
5
147
100
AcDbEntity
8
1
62
256
6
ByLayer
370
-1
48
1
60
0
100
AcDbEllipse
10
94.795234
20
3.487249
30
0
11
-1.07186937277344E-14
21
-9.99999999999964
31
0
210
0
220
0
230
1
40
0.996195
41
-1.51698911975
42
-1.50098315671511
0
ELLIPSE
5
148
100
AcDbEntity
8
1
62
256
6
ByLayer
370
-1
48
1
60
0
100
AcDbEllipse
10
94.639753
20
7.963201
30
0
11
1.16445136866421E-14
21
9.9402283181145
31
0
210
0
220
0
230
1
40
0.996195
41
1.59660228291658
42
1.6020637394685
0
ELLIPSE
5
149
100
AcDbEntity
8
1
62
256
6
ByLayer
370
-1
48
1
60
0
100
AcDbEllipse
10
80.85837
20
2.998704
30
0
11
-1.07186937277344E-14
21
-9.99999999999964
31
0
210
0
220
0
230
1
40
0.996195
41
1.57079632679489
42
1.58680228982978
0
ELLIPSE
5
14A
100
AcDbEntity
8
1
62
256
6
ByLayer
370
-1
48
1
60
0
100
AcDbEllipse
10
94.641229
20
7.914212
30
0
11
-1.07186937277344E-14
21
-9.99999999999964
31
0
210
0
220
0
230
1
40
0.996195
41
-1.5707963267949
42
-1.55479036376002
0
ELLIPSE
5
14B
100
AcDbEntity
8
1
62
256
6
ByLayer
370
-1
48
1
60
0
100
AcDbEllipse
10
80.701523
20
7.474608
30
0
11
1.16445136866421E-14
21
9.9402283181145
31
0
210
0
220
0
230
1
40
0.996195
41
-1.53225055769574
42
-1.52678911283681
0
ELLIPSE
5
14C
100
AcDbEntity
8
1
62
256
6
ByLayer
370
-1
48
1
60
0
100
AcDbEllipse
10
85.83825
20
3.07873
30
0
11
5.78724697506073E-15
21
4.94022831811449
31
0
210
0
220
0
230
1
40
0.996195
41
-1.55479036376002
42
-1.54499037067323
0
ELLIPSE
5
14D
100
AcDbEntity
8
1
62
256
6
ByLayer
370
-1
48
1
60
0
100
AcDbEllipse
10
90.197745
20
-1.461296
30
0
11
1.16445136866418E-14
21
9.94022831811422
31
0
210
0
220
0
230
1
40
0.996195
41
0
42
0.0160059630348805
0
ELLIPSE
5
14E
100
AcDbEntity
8
1
62
256
6
ByLayer
370
-1
48
1
60
0
100
AcDbEllipse
10
90.385122
20
2.852433
30
0
11
2.81416266174359E-16
21
0.240228318114594
31
0
210
0
220
0
230
1
40
0.996195
41
-3.07177948351007
42
-2.8448866807508
0
ELLIPSE
5
14F
100
AcDbEntity
8
1
62
256
6
ByLayer
370
-1
48
1
60
0
100
AcDbEllipse
10
85.300942
20
2.674212
30
0
11
2.81416266174359E-16
21
0.240228318114594
31
0
210
0
220
0
230
1
40
0.996195
41
2.91469985083058
42
3.14159265358979
0
ELLIPSE
5
150
100
AcDbEntity
8
1
62
256
6
ByLayer
370
-1
48
1
60
0
100
AcDbEllipse
10
89.821013
20
3.218343
30
0
11
5.78724697506073E-15
21
4.94022831811449
31
0
210
0
220
0
230
1
40
0.996195
41
1.61480354075301
42
1.62460353383979
0
ELLIPSE
5
151
100
AcDbEntity
8
1
62
256
6
ByLayer
370
-1
48
1
60
0
100
AcDbEllipse
10
80.857914
20
2.998704
30
0
11
1.16445136866418E-14
21
9.94022831811422
31
0
210
0
220
0
230
1
40
0.996195
41
-1.5707963267949
42
-1.55479036376002
0
ELLIPSE
5
152
100
AcDbEntity
8
1
62
256
6
ByLayer
370
-1
48
1
60
0
100
AcDbEllipse
10
90.152926
20
8.04383
30
0
11
5.15706934637614E-16
21
0.440228318114594
31
0
210
0
220
0
230
1
40
0.996195
41
-1.27409035395587
42
-0.226892802759292
0
ELLIPSE
5
153
100
AcDbEntity
8
1
62
256
6
ByLayer
370
-1
48
1
60
0
100
AcDbEllipse
10
85.788084
20
-1.615889
30
0
11
-1.07186937277344E-14
21
-9.99999999999964
31
0
210
0
220
0
230
1
40
0.996195
41
-3.0877854465449
42
-3.07177948351001
0
ELLIPSE
5
154
100
AcDbEntity
8
1
62
256
6
ByLayer
370
-1
48
1
60
0
100
AcDbEllipse
10
94.640209
20
7.963201
30
0
11
-1.07186937277348E-14
21
-9.99999999999999
31
0
210
0
220
0
230
1
40
0.996195
41
-1.54499037067321
42
-1.53588974175501
0
ELLIPSE
5
155
100
AcDbEntity
8
1
62
256
6
ByLayer
370
-1
48
1
60
0
100
AcDbEllipse
10
85.677674
20
7.694573
30
0
11
5.78724697506073E-15
21
4.94022831811449
31
0
210
0
220
0
230
1
40
0.996195
41
-1.52678911283679
42
-1.51698911975
0
ELLIPSE
5
156
100
AcDbEntity
8
1
62
256
6
ByLayer
370
-1
48
1
60
0
100
AcDbEllipse
10
90.343915
20
8.102304
30
0
11
-3.21560811832048E-16
21
-0.300000000000003
31
0
210
0
220
0
230
1
40
0.996195
41
1.64060949687463
42
1.8675022996339
0
ELLIPSE
5
157
100
AcDbEntity
8
1
62
256
6
ByLayer
370
-1
48
1
60
0
100
AcDbEllipse
10
85.520201
20
3.376875
30
0
11
-5.35934686386771E-15
21
-5.00000000000028
31
0
210
0
220
0
230
1
40
0.996195
41
-3.09758543963169
42
-3.0877854465449
0
ELLIPSE
5
158
100
AcDbEntity
8
1
62
256
6
ByLayer
370
-1
48
1
60
0
100
AcDbEllipse
10
85.114021
20
8.060482
30
0
11
-3.21560811832048E-16
21
-0.300000000000003
31
0
210
0
220
0
230
1
40
0.996195
41
-3.07177948351004
42
-2.84488668075075
0
ELLIPSE
5
159
100
AcDbEntity
8
1
62
256
6
ByLayer
370
-1
48
1
60
0
100
AcDbEllipse
10
87.775843
20
5.456458
30
0
11
-1.77841723412775E-15
21
-1.65917347701247
31
0
210
0
220
0
230
1
40
0.996195
41
2.21551000470675
42
0
0
ELLIPSE
5
15A
100
AcDbEntity
8
1
62
256
6
ByLayer
370
-1
48
1
60
0
100
AcDbEllipse
10
87.775843
20
5.456458
30
0
11
-1.77841723412775E-15
21
-1.65917347701247
31
0
210
0
220
0
230
1
40
0.996195
41
0
42
0.926082326066338
0
ELLIPSE
5
15B
100
AcDbEntity
8
1
62
256
6
ByLayer
370
-1
48
1
60
0
100
AcDbEllipse
10
90.118479
20
3.538064
30
0
11
-5.35934686386771E-15
21
-5.00000000000028
31
0
210
0
220
0
230
1
40
0.996195
41
-3.12558669055491
42
-3.11578669746812
0
ELLIPSE
5
15C
100
AcDbEntity
8
1
62
256
6
ByLayer
370
-1
48
1
60
0
100
AcDbEllipse
10
85.155684
20
2.810611
30
0
11
-3.21560811832048E-16
21
-0.300000000000003
31
0
210
0
220
0
230
1
40
0.996195
41
-1.50098315671517
42
-1.27409035395589
0
ELLIPSE
5
15D
100
AcDbEntity
8
1
62
256
6
ByLayer
370
-1
48
1
60
0
100
AcDbEllipse
10
85.171817
20
7.869222
30
0
11
5.15706934637614E-16
21
0.440228318114594
31
0
210
0
220
0
230
1
40
0.996195
41
0.29670597283899
42
1.34390352403561
0
ELLIPSE
5
15E
100
AcDbEntity
8
1
62
256
6
ByLayer
370
-1
48
1
60
0
100
AcDbEllipse
10
89.711059
20
12.528805
30
0
11
1.16445136866418E-14
21
9.94022831811422
31
0
210
0
220
0
230
1
40
0.996195
41
-3.0877854465449
42
-3.07177948351001
0
ELLIPSE
5
15F
100
AcDbEntity
8
1
62
256
6
ByLayer
370
-1
48
1
60
0
100
AcDbEllipse
10
89.979398
20
7.536041
30
0
11
-5.35934686386771E-15
21
-5.00000000000028
31
0
210
0
220
0
230
1
40
0.996195
41
0.0440072139581043
42
0.0538072070448959
0
ELLIPSE
5
160
100
AcDbEntity
8
1
62
256
6
ByLayer
370
-1
48
1
60
0
100
AcDbEllipse
10
84.978141
20
7.914212
30
0
11
-3.21560811832048E-16
21
-0.300000000000003
31
0
210
0
220
0
230
1
40
0.996195
41
-1.79768912955412
42
-1.5707963267949
0
ELLIPSE
5
161
100
AcDbEntity
8
1
62
256
6
ByLayer
370
-1
48
1
60
0
100
AcDbEllipse
10
80.70391
20
7.425667
30
0
11
1.16445136866418E-14
21
9.94022831811422
31
0
210
0
220
0
230
1
40
0.996195
41
-1.51698911975
42
-1.50098315671511
0
ELLIPSE
5
162
100
AcDbEntity
8
1
62
256
6
ByLayer
370
-1
48
1
60
0
100
AcDbEllipse
10
94.794778
20
3.487249
30
0
11
1.16445136866418E-14
21
9.94022831811422
31
0
210
0
220
0
230
1
40
0.996195
41
1.62460353383979
42
1.64060949687468
0
ELLIPSE
5
163
100
AcDbEntity
8
1
62
256
6
ByLayer
370
-1
48
1
60
0
100
AcDbEllipse
10
87.732368
20
5.456458
30
0
11
1.98450509329016E-15
21
1.69405389152441
31
0
210
0
220
0
230
1
40
0.996195
41
0
42
6.28318530717959
0
ELLIPSE
5
164
100
AcDbEntity
8
1
62
256
6
ByLayer
370
-1
48
1
60
0
100
AcDbEllipse
10
89.759814
20
12.5312
30
0
11
1.16445136866421E-14
21
9.9402283181145
31
0
210
0
220
0
230
1
40
0.996195
41
-3.10304688449064
42
-3.0975854396317
0
ELLIPSE
5
165
100
AcDbEntity
8
1
62
256
6
ByLayer
370
-1
48
1
60
0
100
AcDbEllipse
10
85.519746
20
3.376875
30
0
11
5.78724697506073E-15
21
4.94022831811449
31
0
210
0
220
0
230
1
40
0.996195
41
0.0440072139581067
42
0.0538072070448955
0
ELLIPSE
5
166
100
AcDbEntity
8
1
62
256
6
ByLayer
370
-1
48
1
60
0
100
AcDbEllipse
10
80.701979
20
7.474608
30
0
11
-1.07186937277348E-14
21
-9.99999999999999
31
0
210
0
220
0
230
1
40
0.996195
41
1.60570291183478
42
1.61480354075299
0
ELLIPSE
5
167
100
AcDbEntity
8
1
62
256
6
ByLayer
370
-1
48
1
60
0
100
AcDbEllipse
10
85.738874
20
-1.618284
30
0
11
1.16445136866421E-14
21
9.9402283181145
31
0
210
0
220
0
230
1
40
0.996195
41
0.0385457690991545
42
0.0440072139580909
0
ELLIPSE
5
168
100
AcDbEntity
8
1
62
256
6
ByLayer
370
-1
48
1
60
0
100
AcDbEllipse
10
87.958973
20
5.456458
30
0
11
1.46431667789534E-15
21
1.25
31
0
210
0
220
0
230
1
40
0.996195
41
0.0349500371117705
42
1.57079634872777
0
ELLIPSE
5
169
100
AcDbEntity
8
1
62
256
6
ByLayer
370
-1
48
1
60
0
100
AcDbEllipse
10
87.958973
20
5.456458
30
0
11
1.46431667789534E-15
21
1.25
31
0
210
0
220
0
230
1
40
0.996195
41
1.57079634872777
42
3.1168526777092
0
ELLIPSE
5
16A
100
AcDbEntity
8
1
62
256
6
ByLayer
370
-1
48
1
60
0
100
AcDbEllipse
10
89.76027
20
12.5312
30
0
11
-1.07186937277348E-14
21
-9.99999999999999
31
0
210
0
220
0
230
1
40
0.996195
41
0.0349065850398881
42
0.0440072139580882
0
ELLIPSE
5
16B
100
AcDbEntity
8
1
62
256
6
ByLayer
370
-1
48
1
60
0
100
AcDbEllipse
10
89.711515
20
12.528805
30
0
11
-1.07186937277344E-14
21
-9.99999999999964
31
0
210
0
220
0
230
1
40
0.996195
41
0.0538072070448962
42
0.0698131700797864
0
ELLIPSE
5
16C
100
AcDbEntity
8
1
62
256
6
ByLayer
370
-1
48
1
60
0
100
AcDbEllipse
10
90.385578
20
2.852433
30
0
11
-3.21560811832048E-16
21
-0.300000000000003
31
0
210
0
220
0
230
1
40
0.996195
41
0.0698131700797995
42
0.296705972839048
0
ELLIPSE
5
16D
100
AcDbEntity
8
1
62
256
6
ByLayer
370
-1
48
1
60
0
100
AcDbEllipse
10
80.858935
20
2.949715
30
0
11
1.16445136866421E-14
21
9.9402283181145
31
0
210
0
220
0
230
1
40
0.996195
41
-1.54499037067321
42
-1.5395289141213
0
ELLIPSE
5
16E
100
AcDbEntity
8
1
62
256
6
ByLayer
370
-1
48
1
60
0
100
AcDbEllipse
10
84.977685
20
7.914212
30
0
11
2.81416266174359E-16
21
0.240228318114594
31
0
210
0
220
0
230
1
40
0.996195
41
1.34390352403567
42
1.5707963267949
0
ELLIPSE
5
16F
100
AcDbEntity
8
1
62
256
6
ByLayer
370
-1
48
1
60
0
100
AcDbEllipse
10
90.153382
20
8.04383
30
0
11
-5.35934686386747E-16
21
-0.500000000000006
31
0
210
0
220
0
230
1
40
0.996195
41
1.8675022996339
42
2.91469985083048
0
ELLIPSE
5
170
100
AcDbEntity
8
1
62
256
6
ByLayer
370
-1
48
1
60
0
100
AcDbEllipse
10
94.79762
20
3.438308
30
0
11
-1.07186937277348E-14
21
-9.99999999999999
31
0
210
0
220
0
230
1
40
0.996195
41
-1.53588974175501
42
-1.52678911283681
0
ELLIPSE
5
171
100
AcDbEntity
8
1
62
256
6
ByLayer
370
-1
48
1
60
0
100
AcDbEllipse
10
80.85939
20
2.949715
30
0
11
-1.07186937277348E-14
21
-9.99999999999999
31
0
210
0
220
0
230
1
40
0.996195
41
1.59660228291658
42
1.60570291183478
0
ELLIPSE
5
172
100
AcDbEntity
8
1
62
256
6
ByLayer
370
-1
48
1
60
0
100
AcDbEllipse
10
85.380664
20
7.374852
30
0
11
5.78724697506073E-15
21
4.94022831811449
31
0
210
0
220
0
230
1
40
0.996195
41
-3.12558669055491
42
-3.11578669746812
0
ELLIPSE
5
173
100
AcDbEntity
8
1
62
256
6
ByLayer
370
-1
48
1
60
0
100
AcDbEllipse
10
85.155228
20
2.810611
30
0
11
2.81416266174359E-16
21
0.240228318114594
31
0
210
0
220
0
230
1
40
0.996195
41
1.64060949687468
42
1.86750229963393
0
ELLIPSE
5
174
100
AcDbEntity
8
1
62
256
6
ByLayer
370
-1
48
1
60
0
100
AcDbEllipse
10
94.797165
20
3.438308
30
0
11
1.16445136866421E-14
21
9.9402283181145
31
0
210
0
220
0
230
1
40
0.996195
41
1.60934209589405
42
1.61480354075299
0
ELLIPSE
5
175
100
AcDbEntity
8
1
62
256
6
ByLayer
370
-1
48
1
60
0
100
AcDbEllipse
10
90.247004
20
-1.460272
30
0
11
-1.07186937277348E-14
21
-9.99999999999999
31
0
210
0
220
0
230
1
40
0.996195
41
-3.11578669746811
42
-3.10668606854991
0
ELLIPSE
5
176
100
AcDbEntity
8
1
62
256
6
ByLayer
370
-1
48
1
60
0
100
AcDbEllipse
10
89.821469
20
3.218343
30
0
11
-5.35934686386771E-15
21
-5.00000000000028
31
0
210
0
220
0
230
1
40
0.996195
41
-1.52678911283679
42
-1.51698911975
0
ELLIPSE
5
177
100
AcDbEntity
8
1
62
256
6
ByLayer
370
-1
48
1
60
0
100
AcDbEllipse
10
87.795899
20
5.456458
30
0
11
-1.69826236850985E-15
21
-1.58439303486727
31
0
210
0
220
0
230
1
40
0.996195
41
0
42
6.28318530717959
0
ELLIPSE
5
178
100
AcDbEntity
8
1
62
256
6
ByLayer
370
-1
48
1
60
0
100
AcDbEllipse
10
85.252596
20
12.373187
30
0
11
-1.07186937277348E-14
21
-9.99999999999999
31
0
210
0
220
0
230
1
40
0.996195
41
0.0258059561216895
42
0.0349065850398896
0
ELLIPSE
5
179
100
AcDbEntity
8
1
62
256
6
ByLayer
370
-1
48
1
60
0
100
AcDbEllipse
10
90.343459
20
8.102304
30
0
11
2.81416266174359E-16
21
0.240228318114594
31
0
210
0
220
0
230
1
40
0.996195
41
-1.50098315671512
42
-1.27409035395586
0
ELLIPSE
5
17A
100
AcDbEntity
8
1
62
256
6
ByLayer
370
-1
48
1
60
0
100
AcDbEllipse
10
85.739329
20
-1.618284
30
0
11
-1.07186937277348E-14
21
-9.99999999999999
31
0
210
0
220
0
230
1
40
0.996195
41
-3.10668606854991
42
-3.09758543963171
0
ELLIPSE
5
17B
100
AcDbEntity
8
1
62
256
6
ByLayer
370
-1
48
1
60
0
100
AcDbEllipse
10
80.704365
20
7.425667
30
0
11
-1.07186937277344E-14
21
-9.99999999999964
31
0
210
0
220
0
230
1
40
0.996195
41
1.62460353383979
42
1.64060949687468
0
ELLIPSE
5
17C
100
AcDbEntity
8
1
62
256
6
ByLayer
370
-1
48
1
60
0
100
AcDbEllipse
10
90.327326
20
3.043694
30
0
11
-5.35934686386747E-16
21
-0.500000000000006
31
0
210
0
220
0
230
1
40
0.996195
41
0.296705972839069
42
1.34390352403562
0
ELLIPSE
5
17D
100
AcDbEntity
8
1
62
256
6
ByLayer
370
-1
48
1
60
0
100
AcDbEllipse
10
85.300942
20
12.374212
30
0
11
1.16445136866418E-14
21
9.94022831811422
31
0
210
0
220
0
230
1
40
0.996195
41
3.14159265358979
42
-3.12558669055491
0
ELLIPSE
5
17E
100
AcDbEntity
8
1
62
256
6
ByLayer
370
-1
48
1
60
0
100
AcDbEllipse
10
85.345762
20
2.869086
30
0
11
5.15706934637614E-16
21
0.440228318114594
31
0
210
0
220
0
230
1
40
0.996195
41
1.86750229963392
42
2.91469985083053
0
ELLIPSE
5
17F
100
AcDbEntity
8
1
62
256
6
ByLayer
370
-1
48
1
60
0
100
AcDbEllipse
10
90.13945
20
-0.386677
30
0
11
0.49999999999999
21
0
31
0
210
0
220
0
230
1
40
0.998135
41
0.0523598775598214
42
0.349065850399588
0
ELLIPSE
5
180
100
AcDbEntity
8
1
62
256
6
ByLayer
370
-1
48
1
60
0
100
AcDbEllipse
10
92.712196
20
-1.612198
30
0
11
2.19031606939965
21
0
31
0
210
0
220
0
230
1
40
0.998135
41
-3.08923277510136
42
-2.71005519262056
0
ELLIPSE
5
181
100
AcDbEntity
8
1
62
256
6
ByLayer
370
-1
48
1
60
0
100
AcDbEllipse
10
89.867764
20
-2.861572
30
0
11
-0.59120224503834
21
5.97492078288119E-16
31
0
210
0
220
0
230
1
40
0.998135
41
3.10668606854989
42
-2.71005519262056
0
ELLIPSE
5
182
100
AcDbEntity
8
1
62
256
6
ByLayer
370
-1
48
1
60
0
100
AcDbEllipse
10
89.51751
20
-0.432991
30
0
11
-0.59120224503834
21
5.97492078288119E-16
31
0
210
0
220
0
230
1
40
0.998135
41
-3.08923277602998
42
-2.47119166742836
0
ELLIPSE
5
183
100
AcDbEntity
8
1
62
256
6
ByLayer
370
-1
48
1
60
0
100
AcDbEllipse
10
92.712196
20
-1.706823
30
0
11
2.00000000000009
21
0
31
0
210
0
220
0
230
1
40
0.998135
41
-3.08923277501295
42
-2.6997467130969
0
ELLIPSE
5
184
100
AcDbEntity
8
1
62
256
6
ByLayer
370
-1
48
1
60
0
100
AcDbEllipse
10
92.712196
20
-1.554202
30
0
11
2.64031606939949
21
0
31
0
210
0
220
0
230
1
40
0.998135
41
-3.08923277525973
42
-2.71005519262056
0
ELLIPSE
5
185
100
AcDbEntity
8
1
62
256
6
ByLayer
370
-1
48
1
60
0
100
AcDbEllipse
10
87.878496
20
-1.997503
30
0
11
1.35
21
0
31
0
210
0
220
0
230
1
40
0.998135
41
1.91754943129525
42
2.44945998222059
0
ELLIPSE
5
186
100
AcDbEntity
8
1
62
256
6
ByLayer
370
-1
48
1
60
0
100
AcDbEllipse
10
90.344789
20
-3.263145
30
0
11
-0.199877710054841
21
0.00699292665720333
31
0
210
0
220
0
230
1
40
0.061011
41
0.525733317016705
42
1.57293086821329
0
ELLIPSE
5
187
100
AcDbEntity
8
1
62
256
6
ByLayer
370
-1
48
1
60
0
100
AcDbEllipse
10
92.712196
20
-1.548097
30
0
11
-2.81352115015638
21
2.84345435664829E-15
31
0
210
0
220
0
230
1
40
0.998135
41
0.394970503341746
42
0.431537460969236
0
ELLIPSE
5
188
100
AcDbEntity
8
1
62
256
6
ByLayer
370
-1
48
1
60
0
100
AcDbEllipse
10
90.313934
20
-2.644291
30
0
11
-0.18160533389647
21
-0.0837824725127617
31
0
210
0
220
0
230
1
40
0.055452
41
0.498021999162246
42
1.54521955035883
0
ELLIPSE
5
189
100
AcDbEntity
8
1
62
256
6
ByLayer
370
-1
48
1
60
0
100
AcDbEllipse
10
89.867764
20
-2.855467
30
0
11
0.317997164281453
21
0
31
0
210
0
220
0
230
1
40
0.998135
41
-0.0349065850398988
42
0.431537460969237
0
ELLIPSE
5
18A
100
AcDbEntity
8
1
62
256
6
ByLayer
370
-1
48
1
60
0
100
AcDbEllipse
10
87.878496
20
-2.034442
30
0
11
1.25
21
0
31
0
210
0
220
0
230
1
40
0.998135
41
1.18231861927854
42
2.92708051709958
0
ELLIPSE
5
18B
100
AcDbEntity
8
1
62
256
6
ByLayer
370
-1
48
1
60
0
100
AcDbEllipse
10
89.853886
20
-3.258244
30
0
11
-0.591202245038341
21
5.97492078288121E-16
31
0
210
0
220
0
230
1
40
0.998135
41
2.29977787734964
42
3.10668606854989
0
ELLIPSE
5
18C
100
AcDbEntity
8
1
62
256
6
ByLayer
370
-1
48
1
60
0
100
AcDbEllipse
10
87.878496
20
-1.997503
30
0
11
1.25
21
0
31
0
210
0
220
0
230
1
40
0.998135
41
1.31249859227146
42
2.94269080533633
0
ELLIPSE
5
18D
100
AcDbEntity
8
1
62
256
6
ByLayer
370
-1
48
1
60
0
100
AcDbEllipse
10
90.358667
20
-2.866473
30
0
11
-0.199877710054841
21
0.00699292665720333
31
0
210
0
220
0
230
1
40
0.061011
41
0.525733317016674
42
1.57293086821329
0
ELLIPSE
5
18E
100
AcDbEntity
8
1
62
256
6
ByLayer
370
-1
48
1
60
0
100
AcDbEllipse
10
90.461611
20
-4.101953
30
0
11
0.500000000000144
21
0
31
0
210
0
220
0
230
1
40
0.998135
41
-1.22173047639538
42
-0.0349065850401087
0
ELLIPSE
5
18F
100
AcDbEntity
8
1
62
256
6
ByLayer
370
-1
48
1
60
0
100
AcDbEllipse
10
89.853886
20
-3.252139
30
0
11
0.317997164281453
21
0
31
0
210
0
220
0
230
1
40
0.998135
41
-0.340738738996756
42
-0.0349065850398988
0
ELLIPSE
5
190
100
AcDbEntity
8
1
62
256
6
ByLayer
370
-1
48
1
60
0
100
AcDbEllipse
10
89.853886
20
-3.258244
30
0
11
-0.49120224503834
21
4.96428172779883E-16
31
0
210
0
220
0
230
1
40
0.998135
41
2.29977787734966
42
3.10668606854989
0
ELLIPSE
5
191
100
AcDbEntity
8
1
62
256
6
ByLayer
370
-1
48
1
60
0
100
AcDbEllipse
10
92.712196
20
-1.554202
30
0
11
2.54031606939949
21
0
31
0
210
0
220
0
230
1
40
0.998135
41
-3.08923277522941
42
-2.71005519262056
0
ELLIPSE
5
192
100
AcDbEntity
8
1
62
256
6
ByLayer
370
-1
48
1
60
0
100
AcDbEllipse
10
89.840089
20
0.434278
30
0
11
0.500000000000144
21
0
31
0
210
0
220
0
230
1
40
0.998135
41
0.349065850399471
42
1.16786384682442
0
ELLIPSE
5
193
100
AcDbEntity
8
1
62
256
6
ByLayer
370
-1
48
1
60
0
100
AcDbEllipse
10
89.867764
20
-2.861572
30
0
11
-0.49120224503834
21
4.96428172779883E-16
31
0
210
0
220
0
230
1
40
0.998135
41
3.10668606854989
42
-2.71005519262057
0
ELLIPSE
5
194
100
AcDbEntity
8
1
62
256
6
ByLayer
370
-1
48
1
60
0
100
AcDbEllipse
10
90.181081
20
-3.611716
30
0
11
-0.133083669611859
21
0.149294128761454
31
0
210
0
220
0
230
1
40
0.040665
41
1.50826161297239
42
1.61638305710823
0
ELLIPSE
5
195
100
AcDbEntity
8
1
62
256
6
ByLayer
370
-1
48
1
60
0
100
AcDbEllipse
10
89.51751
20
-0.432991
30
0
11
-0.49120224503834
21
4.96428172779883E-16
31
0
210
0
220
0
230
1
40
0.998135
41
-3.08923277602998
42
-2.89365829183897
0
ELLIPSE
5
196
100
AcDbEntity
8
1
62
256
6
ByLayer
370
-1
48
1
60
0
100
AcDbEllipse
10
90.000305
20
-2.987257
30
0
11
1.00000000000004
21
0
31
0
210
0
220
0
230
1
40
0.998135
41
-0.0349065850401069
42
0.441845940492531
0
POINT
5
41
100
AcDbEntity
8
81
62
256
6
ByLayer
370
-1
48
1
60
0
100
AcDbPoint
10
91
20
0
30
0
39
0
210
0
220
0
230
1
50
360
0
POINT
5
43
100
AcDbEntity
8
80
62
256
6
ByLayer
370
-1
48
1
60
0
100
AcDbPoint
10
0
20
0
30
0
39
0
210
0
220
0
230
1
50
360
0
SPLINE
5
197
100
AcDbEntity
8
SK1
62
256
6
ByLayer
370
-1
48
1
60
0
100
AcDbSpline
70
4
71
2
72
6
73
3
40
0
40
0
40
0
40
1
40
1
40
1
41
1
10
-2.99999999999997
20
22.0000004375346
30
0
41
1
10
-19.7502365839533
20
21.5791761834949
30
0
41
1
10
-36.5004731679066
20
21.1583519294553
30
0
0
SPLINE
5
198
100
AcDbEntity
8
SK1
62
256
6
ByLayer
370
-1
48
1
60
0
100
AcDbSpline
70
4
71
2
72
6
73
3
40
0
40
0
40
0
40
1
40
1
40
1
41
1
10
-36.5004731679067
20
-21.1583519212895
30
0
41
1
10
-19.7502365839533
20
-21.5791761751668
30
0
41
1
10
-3.00000000000003
20
-22.0000004290441
30
0
0
SPLINE
5
199
100
AcDbEntity
8
SK1
62
256
6
ByLayer
370
-1
48
1
60
0
100
AcDbSpline
70
4
71
2
72
6
73
3
40
0
40
0
40
0
40
1
40
1
40
1
41
1
10
-2.194957664024
20
22.0202259035338
30
0
41
1
10
-2.59747883201197
20
22.0101131705342
30
0
41
1
10
-2.99999999999997
20
22.0000004375346
30
0
0
SPLINE
5
19A
100
AcDbEntity
8
SK1
62
256
6
ByLayer
370
-1
48
1
60
0
100
AcDbSpline
70
4
71
2
72
6
73
3
40
0
40
0
40
0
40
1
40
1
40
1
41
1
10
-3.00000000000003
20
-22.0000004290441
30
0
41
1
10
-2.59747883201203
20
-22.0101131620398
30
0
41
1
10
-2.19495766402406
20
-22.0202258950355
30
0
0
SPLINE
5
19B
100
AcDbEntity
8
SK1
62
256
6
ByLayer
370
-1
48
1
60
0
100
AcDbSpline
70
4
71
3
72
11
73
7
40
0
40
0
40
0
40
0
40
0.249492416334384
40
0.502620150888757
40
0.754490317554652
40
1
40
1
40
1
40
1
41
1
10
-1.99999999999997
20
21.8251283290969
30
0
41
1
10
-2.02566317500015
20
21.8248652661896
30
0
41
1
10
-2.07419248796035
20
21.8338651331165
30
0
41
1
10
-2.1456847237913
20
21.8776777449266
30
0
41
1
10
-2.19087628909409
20
21.94711747353
30
0
41
1
10
-2.20015150570092
20
21.9940928028999
30
0
41
1
10
-2.19999999999999
20
22.0188171515827
30
0
0
SPLINE
5
19C
100
AcDbEntity
8
SK1
62
256
6
ByLayer
370
-1
48
1
60
0
100
AcDbSpline
70
4
71
3
72
11
73
7
40
0
40
0
40
0
40
0
40
0.245509649063842
40
0.497380451392467
40
0.750508528879147
40
1
40
1
40
1
40
1
41
1
10
-2.20000000000005
20
-22.018818627264
30
0
41
1
10
-2.2001514801947
20
-21.9940939827203
30
0
41
1
10
-2.1908762502039
20
-21.9471180993486
30
0
41
1
10
-2.1456847418911
20
-21.8776780717056
30
0
41
1
10
-2.0741926967537
20
-21.8338652086853
30
0
41
1
10
-2.02566322896234
20
-21.8248652923094
30
0
41
1
10
-2.00000000000003
20
-21.8251283225343
30
0
0
SPLINE
5
19D
100
AcDbEntity
8
SK1
62
256
6
ByLayer
370
-1
48
1
60
0
100
AcDbSpline
70
4
71
2
72
6
73
3
40
0
40
0
40
0
40
1
40
1
40
1
41
1
10
-36.5004321682704
20
21.1581061531923
30
0
41
1
10
-37.250216097561
20
20.6997323883078
30
0
41
1
10
-38
20
20.2413583528791
30
0
0
SPLINE
5
19E
100
AcDbEntity
8
SK1
62
256
6
ByLayer
370
-1
48
1
60
0
100
AcDbSpline
70
4
71
2
72
6
73
3
40
0
40
0
40
0
40
1
40
1
40
1
41
1
10
-38
20
-20.2397162883158
30
0
41
1
10
-37.2502068935607
20
-20.6982812567357
30
0
41
1
10
-36.5004138730271
20
-21.1568446673337
30
0
0
SPLINE
5
19F
100
AcDbEntity
8
SK1
62
256
6
ByLayer
370
-1
48
1
60
0
100
AcDbSpline
70
4
71
2
72
6
73
3
40
0
40
0
40
0
40
1
40
1
40
1
41
1
10
-2.00000000000003
20
-21.7816074020814
30
0
41
1
10
-1.38101983309073
20
-21.7816074020814
30
0
41
1
10
-0.762039666181437
20
-21.7816074020814
30
0
0
SPLINE
5
1A0
100
AcDbEntity
8
SK1
62
256
6
ByLayer
370
-1
48
1
60
0
100
AcDbSpline
70
4
71
2
72
6
73
3
40
0
40
0
40
0
40
1
40
1
40
1
41
1
10
-0.751598707448096
20
21.7816065919818
30
0
41
1
10
-1.37579935372403
20
21.7816065919818
30
0
41
1
10
-1.99999999999997
20
21.7816065919818
30
0
0
SPLINE
5
1A1
100
AcDbEntity
8
1
62
256
6
ByLayer
370
-1
48
1
60
0
100
AcDbSpline
70
4
71
3
72
14
73
10
40
0
40
0
40
0
40
0
40
0.184134342826181
40
0.368713596533836
40
0.555875672853571
40
0.667004617985611
40
0.777665243487706
40
0.889284977025225
40
1
40
1
40
1
40
1
41
1
10
28.5
20
-11
30
0
41
1
10
29.0637268590237
20
-10.9914872311846
30
0
41
1
10
30.1697714366662
20
-10.8756087744827
30
0
41
1
10
31.7805884260586
20
-10.3586455423537
30
0
41
1
10
33.0985145143445
20
-9.7250805680377
30
0
41
1
10
34.1532287028646
20
-9.08282212743921
30
0
41
1
10
35.0202642243455
20
-8.56321382357584
30
0
41
1
10
35.9954429344351
20
-8.26934599362676
30
0
41
1
10
36.6604857919695
20
-8.20067870449574
30
0
41
1
10
37
20
-8.20000000000005
30
0
0
SPLINE
5
1A2
100
AcDbEntity
8
1
62
256
6
ByLayer
370
-1
48
1
60
0
100
AcDbSpline
70
4
71
3
72
14
73
10
40
0
40
0
40
0
40
0
40
0.141012868615297
40
0.282489440056159
40
0.423682327489719
40
0.564503687076059
40
0.710493093467651
40
0.855102784505971
40
1
40
1
40
1
40
1
41
1
10
37
20
8.19999999999993
30
0
41
1
10
36.5636532431238
20
8.20178176186516
30
0
41
1
10
35.7199413945198
20
8.30626486291186
30
0
41
1
10
34.521211135389
20
8.8075863813053
30
0
41
1
10
33.4637677319282
20
9.52923121820635
30
0
41
1
10
32.3055503117442
20
10.1117999961717
30
0
41
1
10
31.0943781458902
20
10.5968901589209
30
0
41
1
10
29.8119403892228
20
10.9225891757989
30
0
41
1
10
28.9417698891879
20
10.9961355508461
30
0
41
1
10
28.5
20
11
30
0
0
SPLINE
5
1A3
100
AcDbEntity
8
1
62
256
6
ByLayer
370
-1
48
1
60
0
100
AcDbSpline
70
4
71
1
72
4
73
2
40
0
40
0
40
1
40
1
41
1
10
50.1979232203663
20
0.748878299570862
30
0
41
1
10
50.1979266977352
20
0.748891693969568
30
0
0
SPLINE
5
1A4
100
AcDbEntity
8
1
62
256
6
ByLayer
370
-1
48
1
60
0
100
AcDbSpline
70
4
71
3
72
8
73
4
40
0
40
0
40
0
40
0
40
1
40
1
40
1
40
1
41
1
10
84.0085303953849
20
1.64136856976611
30
0
41
1
10
84.0274650250049
20
1.65179233300293
30
0
41
1
10
84.0463274292713
20
1.66240580823805
30
0
41
1
10
84.0651196909736
20
1.67320717696322
30
0
0
SPLINE
5
1A5
100
AcDbEntity
8
1
62
256
6
ByLayer
370
-1
48
1
60
0
100
AcDbSpline
70
4
71
3
72
20
73
16
40
0
40
0
40
0
40
0
40
0.0347374990023589
40
0.120502631827161
40
0.206067200958282
40
0.291145710003035
40
0.375628898564936
40
0.459578796341604
40
0.543191442056208
40
0.626736727364833
40
0.710411131649091
40
0.794456105681953
40
0.879037736605644
40
0.96418874914106
40
1
40
1
40
1
40
1
41
1
10
87.8685413402317
20
6.69551428555781
30
0
41
1
10
87.9130578417647
20
6.70110421801181
30
0
41
1
10
88.0661593486993
20
6.70968065324109
30
0
41
1
10
88.3267619356792
20
6.64210708622787
30
0
41
1
10
88.6206202007444
20
6.48948246216182
30
0
41
1
10
88.8638510525922
20
6.26005807981704
30
0
41
1
10
89.0387344911732
20
5.97557576424231
30
0
41
1
10
89.1333917886884
20
5.65509733557224
30
0
41
1
10
89.1417262373661
20
5.3215916110284
30
0
41
1
10
89.0637268923603
20
4.9981467807543
30
0
41
1
10
88.9052668780722
20
4.7069159126641
30
0
41
1
10
88.6773148032615
20
4.46756761694314
30
0
41
1
10
88.3956236133221
20
4.29630630701158
30
0
41
1
10
88.1395867613201
20
4.22278383905402
30
0
41
1
10
87.9863243875124
20
4.20883915130813
30
0
41
1
10
87.9403941515956
20
4.20720907827271
30
0
0
SPLINE
5
1A6
100
AcDbEntity
8
1
62
256
6
ByLayer
370
-1
48
1
60
0
100
AcDbSpline
70
4
71
3
72
13
73
9
40
0
40
0
40
0
40
0
40
0.0981281036399272
40
0.306416864117321
40
0.514123450575057
40
0.721112786315566
40
0.927452176973829
40
1
40
1
40
1
40
1
41
1
10
86.6602588829007
20
-1.74412993305407
30
0
41
1
10
86.6730892609497
20
-1.69359477427824
30
0
41
1
10
86.7255025642937
20
-1.5379634052793
30
0
41
1
10
86.8535146295451
20
-1.2961072115522
30
0
41
1
10
87.0858462577502
20
-1.0540512218617
30
0
41
1
10
87.3722368535961
20
-0.881255855291499
30
0
41
1
10
87.6257731301845
20
-0.809251645994834
30
0
41
1
10
87.7738993528019
20
-0.794648072760964
30
0
41
1
10
87.8128614820956
20
-0.792592832360697
30
0
0
SPLINE
5
1A7
100
AcDbEntity
8
1
62
256
6
ByLayer
370
-1
48
1
60
0
100
AcDbSpline
70
4
71
3
72
10
73
6
40
0
40
0
40
0
40
0
40
0.17750856199836
40
0.734232776727963
40
1
40
1
40
1
40
1
41
1
10
87.8128614820956
20
-0.792592832360697
30
0
41
1
10
87.8479895995645
20
-0.790766690428853
30
0
41
1
10
87.992527255013
20
-0.7892139630857
30
0
41
1
10
88.1899729515577
20
-0.82157589988546
30
0
41
1
10
88.3424624490831
20
-0.878524975292294
30
0
41
1
10
88.390351473178
20
-0.899912433180816
30
0
0
SPLINE
5
1A8
100
AcDbEntity
8
SK1
62
256
6
ByLayer
370
-1
48
1
60
0
100
AcDbSpline
70
4
71
3
72
26
73
22
40
0
40
0
40
0
40
0
40
0.0312500000000001
40
0.0312500000000001
40
0.0625000000000002
40
0.0625000000000002
40
0.0937500000000002
40
0.0937500000000002
40
0.125
40
0.125
40
0.187500000000001
40
0.187500000000001
40
0.250000000000001
40
0.250000000000001
40
0.375000000000001
40
0.375000000000001
40
0.500000000000001
40
0.500000000000001
40
0.750000000000001
40
0.750000000000001
40
1
40
1
40
1
40
1
41
1
10
-0.400000000000006
20
21.7837956106232
30
0
41
1
10
-0.393726825128965
20
21.7842001525046
30
0
41
1
10
-0.386919878064447
20
21.7848461279868
30
0
41
1
10
-0.371522667408129
20
21.7870460733647
30
0
41
1
10
-0.362927849773115
20
21.7886293082576
30
0
41
1
10
-0.345183809992534
20
21.7929309114553
30
0
41
1
10
-0.336147993566044
20
21.7956576127002
30
0
41
1
10
-0.32059569352586
20
21.8011562525066
30
0
41
1
10
-0.313856465635752
20
21.8039479004068
30
0
41
1
10
-0.296259184571227
20
21.8119227552706
30
0
41
1
10
-0.287500521713014
20
21.8168723194731
30
0
41
1
10
-0.272700764442845
20
21.8260241370079
30
0
41
1
10
-0.26666439316179
20
21.8302849791048
30
0
41
1
10
-0.250679249280324
20
21.8424921500485
30
0
41
1
10
-0.242879422992331
20
21.8498514535513
30
0
41
1
10
-0.230042561972169
20
21.8634070974587
30
0
41
1
10
-0.225044043144692
20
21.8696386364566
30
0
41
1
10
-0.212590110184209
20
21.8871551189044
30
0
41
1
10
-0.207642307811398
20
21.8972719196379
30
0
41
1
10
-0.2013021178727
20
21.915325775428
30
0
41
1
10
-0.200000000000017
20
21.9232437308696
30
0
41
1
10
-0.200000000000017
20
21.9302323563458
30
0
0
SPLINE
5
1A9
100
AcDbEntity
8
SK1
62
256
6
ByLayer
370
-1
48
1
60
0
100
AcDbSpline
70
4
71
3
72
14
73
10
40
0
40
0
40
0
40
0
40
0.119777021792309
40
0.278046745112675
40
0.436316468433041
40
0.594586191753408
40
0.752855915073774
40
0.91112563839414
40
1
40
1
40
1
40
1
41
1
10
-2.20000000000005
20
-13.0172198859358
30
0
41
1
10
-2.20000000000005
20
-13.2789204459097
30
0
41
1
10
-2.20000000000005
20
-13.8834372227989
30
0
41
1
10
-2.20000000000005
20
-14.8135248894266
30
0
41
1
10
-2.20000000000005
20
-15.7904214898648
30
0
41
1
10
-2.20000000000005
20
-16.7204320226197
30
0
41
1
10
-2.20000000000005
20
-17.5929249336309
30
0
41
1
10
-2.20000000000005
20
-18.2808591322616
30
0
41
1
10
-2.20000000000005
20
-18.6699624614618
30
0
41
1
10
-2.20000000000005
20
-18.8057994984197
30
0
0
SPLINE
5
1AA
100
AcDbEntity
8
SK1
62
256
6
ByLayer
370
-1
48
1
60
0
100
AcDbSpline
70
4
71
3
72
37
73
33
40
0
40
0
40
0
40
0
40
0.0014326115339296
40
0.0111574011282176
40
0.0208821907225056
40
0.0306069803167937
40
0.0500565595053697
40
0.0695061386939457
40
0.108405297071098
40
0.14730445544825
40
0.186203613825402
40
0.225102772202554
40
0.264001930579706
40
0.302901088956858
40
0.34180024733401
40
0.380699405711162
40
0.419598564088314
40
0.458497722465466
40
0.497396880842619
40
0.536296039219771
40
0.575195197596923
40
0.614094355974075
40
0.652993514351227
40
0.691892672728379
40
0.730791831105531
40
0.769690989482683
40
0.808590147859835
40
0.847489306236987
40
0.886388464614139
40
0.925287622991291
40
0.964186781368443
40
1
40
1
40
1
40
1
41
1
10
-1.99999999999994
20
21.8239181464676
30
0
41
1
10
-1.99999999999997
20
21.8237782818229
30
0
41
1
10
-2
20
21.822593634461
30
0
41
1
10
-1.99999999999997
20
21.8189793414588
30
0
41
1
10
-1.99999999999997
20
21.8103813172626
30
0
41
1
10
-1.99999999999997
20
21.7940462079955
30
0
41
1
10
-1.99999999999997
20
21.7642160490035
30
0
41
1
10
-1.99999999999997
20
21.6949779936854
30
0
41
1
10
-1.99999999999997
20
21.5661676526815
30
0
41
1
10
-1.99999999999997
20
21.3371910810194
30
0
41
1
10
-1.99999999999997
20
21.0285622078674
30
0
41
1
10
-1.99999999999997
20
20.6365187777369
30
0
41
1
10
-1.99999999999997
20
20.1589996983693
30
0
41
1
10
-2
20
19.5958617698656
30
0
41
1
10
-2
20
18.9489598758679
30
0
41
1
10
-2
20
18.2221705966385
30
0
41
1
10
-2
20
17.4213307857328
30
0
41
1
10
-2
20
16.5541009338831
30
0
41
1
10
-2
20
15.6297568996197
30
0
41
1
10
-2
20
14.6589138549468
30
0
41
1
10
-2
20
13.6532009067709
30
0
41
1
10
-2
20
12.6248857298215
30
0
41
1
10
-2.00000000000003
20
11.5864803035381
30
0
41
1
10
-2.00000000000003
20
10.5503219390466
30
0
41
1
10
-2.00000000000003
20
9.5281693138144
30
0
41
1
10
-2.00000000000003
20
8.53080274713156
30
0
41
1
10
-2.00000000000003
20
7.56767168233321
30
0
41
1
10
-2.00000000000003
20
6.64657466016962
30
0
41
1
10
-2.00000000000003
20
5.77341249237057
30
0
41
1
10
-2.00000000000003
20
4.95199325849538
30
0
41
1
10
-2.00000000000003
20
4.20424996648165
30
0
41
1
10
-2.00000000000003
20
3.74495934699039
30
0
41
1
10
-2.00000000000003
20
3.53189014643684
30
0
0
SPLINE
5
1AB
100
AcDbEntity
8
SK1
62
256
6
ByLayer
370
-1
48
1
60
0
100
AcDbSpline
70
4
71
3
72
77
73
73
40
0
40
0
40
0
40
0
40
0.0022824633437761
40
0.0177381240208807
40
0.0331937846979853
40
0.0486494453750898
40
0.0563772757136421
40
0.0641051060521944
40
0.0679690212214706
40
0.0718329363907467
40
0.079560766729299
40
0.0872885970678512
40
0.0950164274064035
40
0.110472088083508
40
0.125927748760613
40
0.141383409437717
40
0.156839070114822
40
0.172294730791926
40
0.187750391469031
40
0.203206052146135
40
0.21866171282324
40
0.234117373500345
40
0.249573034177449
40
0.265028694854554
40
0.280484355531658
40
0.295940016208763
40
0.311395676885867
40
0.326851337562972
40
0.342306998240077
40
0.357762658917181
40
0.373218319594286
40
0.38867398027139
40
0.404129640948495
40
0.419585301625599
40
0.435040962302704
40
0.450496622979809
40
0.465952283656913
40
0.481407944334018
40
0.496863605011122
40
0.512319265688227
40
0.527774926365331
40
0.543230587042436
40
0.55868624771954
40
0.574141908396645
40
0.589597569073749
40
0.605053229750854
40
0.620508890427959
40
0.635964551105063
40
0.651420211782168
40
0.666875872459272
40
0.682331533136377
40
0.697787193813482
40
0.713242854490586
40
0.728698515167691
40
0.744154175844795
40
0.7596098365219
40
0.775065497199004
40
0.790521157876109
40
0.805976818553213
40
0.821432479230318
40
0.836888139907423
40
0.852343800584527
40
0.867799461261632
40
0.883255121938736
40
0.898710782615841
40
0.914166443292945
40
0.92962210397005
40
0.945077764647155
40
0.960533425324259
40
0.975989086001364
40
0.991444746678468
40
1
40
1
40
1
40
1
41
1
10
-36.5004731679066
20
20.808534332019
30
0
41
1
10
-36.5004731679066
20
20.8158530879457
30
0
41
1
10
-36.5004731679066
20
20.872097010648
30
0
41
1
10
-36.5004731679066
20
20.9678459995099
30
0
41
1
10
-36.5004731679066
20
21.0725443050818
30
0
41
1
10
-36.5004731679066
20
21.1298848333405
30
0
41
1
10
-36.5004731679066
20
21.1541047357203
30
0
41
1
10
-36.5004731679066
20
21.1594141733556
30
0
41
1
10
-36.5004731679066
20
21.1572893290471
30
0
41
1
10
-36.5004731679066
20
21.1507604524732
30
0
41
1
10
-36.5004731679066
20
21.1340271127651
30
0
41
1
10
-36.5004731679066
20
21.0993443437175
30
0
41
1
10
-36.5004731679066
20
21.0323574718579
30
0
41
1
10
-36.5004731679066
20
20.9076510853334
30
0
41
1
10
-36.5004731679066
20
20.6861768635696
30
0
41
1
10
-36.5004731679066
20
20.3877899097529
30
0
41
1
10
-36.5004731679066
20
20.0088910104846
30
0
41
1
10
-36.5004731679066
20
19.5475117391119
30
0
41
1
10
-36.5004731679066
20
19.0035240314005
30
0
41
1
10
-36.5004731679066
20
18.3787159166599
30
0
41
1
10
-36.5004731679066
20
17.6768145225053
30
0
41
1
10
-36.5004731679066
20
16.9034270453042
30
0
41
1
10
-36.5004731679066
20
16.0659098298205
30
0
41
1
10
-36.5004731679066
20
15.1731686563964
30
0
41
1
10
-36.5004731679066
20
14.235394189438
30
0
41
1
10
-36.5004731679066
20
13.2637500116936
30
0
41
1
10
-36.5004731679066
20
12.2700128928829
30
0
41
1
10
-36.5004731679066
20
11.266194793172
30
0
41
1
10
-36.5004731679066
20
10.2641413514587
30
0
41
1
10
-36.5004731679066
20
9.2751445842122
30
0
41
1
10
-36.5004731679066
20
8.30955984641457
30
0
41
1
10
-36.5004731679066
20
7.37646783866535
30
0
41
1
10
-36.5004731679066
20
6.48336798664187
30
0
41
1
10
-36.5004731679067
20
5.6359413325186
30
0
41
1
10
-36.5004731679067
20
4.83786714148405
30
0
41
1
10
-36.5004731679067
20
4.09072334425366
30
0
41
1
10
-36.5004731679067
20
3.39395488654748
30
0
41
1
10
-36.5004731679067
20
2.74492785973811
30
0
41
1
10
-36.5004731679067
20
2.13905542595018
30
0
41
1
10
-36.5004731679067
20
1.56999873250982
30
0
41
1
10
-36.5004731679067
20
1.02993260778024
30
0
41
1
10
-36.5004731679067
20
0.509864295014552
30
0
41
1
10
-36.5004731679067
20
1.062999786E-07
30
0
41
1
10
-36.5004731679067
20
-0.509864720214296
30
0
41
1
10
-36.5004731679067
20
-1.02993241209063
30
0
41
1
10
-36.5004731679067
20
-1.56999909006819
30
0
41
1
10
-36.5004731679067
20
-2.13905527849678
30
0
41
1
10
-36.5004731679067
20
-2.74492809199302
30
0
41
1
10
-36.5004731679067
20
-3.39395481155859
30
0
41
1
10
-36.5004731679067
20
-4.09072341195395
30
0
41
1
10
-36.5004731679067
20
-4.83786715253976
30
0
41
1
10
-36.5004731679067
20
-5.63594122059504
30
0
41
1
10
-36.5004731679066
20
-6.48336808473238
30
0
41
1
10
-36.5004731679066
20
-7.37646755822644
30
0
41
1
10
-36.5004731679066
20
-8.30956001989293
30
0
41
1
10
-36.5004731679066
20
-9.27514417073726
30
0
41
1
10
-36.5004731679066
20
-10.2641415778871
30
0
41
1
10
-36.5004731679066
20
-11.2661943009328
30
0
41
1
10
-36.5004731679067
20
-12.2700131424643
30
0
41
1
10
-36.5004731679067
20
-13.2637495056069
30
0
41
1
10
-36.5004731679067
20
-14.235394429552
30
0
41
1
10
-36.5004731679067
20
-15.1731682020267
30
0
41
1
10
-36.5004731679067
20
-16.0659100299384
30
0
41
1
10
-36.5004731679067
20
-16.903426699202
30
0
41
1
10
-36.5004731679067
20
-17.6768146587256
30
0
41
1
10
-36.5004731679067
20
-18.3787157178805
30
0
41
1
10
-36.5004731679067
20
-19.0035240899898
30
0
41
1
10
-36.5004731679067
20
-19.5475117035335
30
0
41
1
10
-36.5004731679067
20
-20.0088907018653
30
0
41
1
10
-36.5004731679067
20
-20.3877911798079
30
0
41
1
10
-36.5004731679067
20
-20.6417674230512
30
0
41
1
10
-36.5004731679067
20
-20.765349293839
30
0
41
1
10
-36.5004731679067
20
-20.805598473079
30
0
0
SPLINE
5
1AC
100
AcDbEntity
8
SK1
62
256
6
ByLayer
370
-1
48
1
60
0
100
AcDbSpline
70
4
71
3
72
10
73
6
40
0
40
0
40
0
40
0
40
0.5
40
0.5
40
1
40
1
40
1
40
1
41
1
10
-2.00000000000008
20
3.53189014643519
30
0
41
1
10
-1.90393337443695
20
4.17254949139414
30
0
41
1
10
-1.79296688652977
20
4.79344204858279
30
0
41
1
10
-1.55766021047049
20
6.00594034292695
30
0
41
1
10
-1.43293995753825
20
6.59828030673893
30
0
41
1
10
-1.30710678118655
20
7.17535191129488
30
0
0
SPLINE
5
1AD
100
AcDbEntity
8
SK1
62
256
6
ByLayer
370
-1
48
1
60
0
100
AcDbSpline
70
4
71
3
72
16
73
12
40
0
40
0
40
0
40
0
40
0.125
40
0.125
40
0.25
40
0.25
40
0.5
40
0.5
40
0.75
40
0.75
40
1
40
1
40
1
40
1
41
1
10
-2.19996216443241
20
-3.54983930763259
30
0
41
1
10
-2.19996657738898
20
-4.0041634529737
30
0
41
1
10
-2.19997072345427
20
-4.45236980864419
30
0
41
1
10
-2.19997797636591
20
-5.33337228979659
30
0
41
1
10
-2.199981116614
20
-5.76662570138805
30
0
41
1
10
-2.19998914270215
20
-7.04409517492741
30
0
41
1
10
-2.1999926307073
20
-7.86507069861446
30
0
41
1
10
-2.19999730472935
20
-9.44492451930091
30
0
41
1
10
-2.19999850693478
20
-10.2038896103293
30
0
41
1
10
-2.1999998554673
20
-11.6586646600846
30
0
41
1
10
-2.20000000000005
20
-12.3549228627444
30
0
41
1
10
-2.20000000000005
20
-13.0172198859358
30
0
0
SPLINE
5
1AE
100
AcDbEntity
8
SK1
62
256
6
ByLayer
370
-1
48
1
60
0
100
AcDbSpline
70
4
71
3
72
14
73
10
40
0
40
0
40
0
40
0
40
0.088874344109091
40
0.247144108645392
40
0.405413873181692
40
0.563683637717993
40
0.721953402254293
40
0.880223166790594
40
1
40
1
40
1
40
1
41
1
10
-2.19999999999999
20
18.805799359705
30
0
41
1
10
-2.19999999999999
20
18.6699623491753
30
0
41
1
10
-2.19999999999999
20
18.2808589940163
30
0
41
1
10
-2.19999999999999
20
17.5929252949648
30
0
41
1
10
-2.19999999999999
20
16.7204318129083
30
0
41
1
10
-2.19999999999999
20
15.7904219641236
30
0
41
1
10
-2.19999999999999
20
14.8135246379527
30
0
41
1
10
-2.19999999999999
20
13.8834381562974
30
0
41
1
10
-2.19999999999999
20
13.2789215159481
30
0
41
1
10
-2.19999999999999
20
13.0172213664454
30
0
0
SPLINE
5
1AF
100
AcDbEntity
8
SK1
62
256
6
ByLayer
370
-1
48
1
60
0
100
AcDbSpline
70
4
71
3
72
22
73
18
40
0
40
0
40
0
40
0
40
0.0131641098221325
40
0.0131641098221325
40
0.17763675818511
40
0.17763675818511
40
0.342109406548089
40
0.342109406548089
40
0.506582054911066
40
0.506582054911066
40
0.671054703274044
40
0.671054703274044
40
0.753291027455533
40
0.753291027455533
40
0.835527351637022
40
0.835527351637022
40
1
40
1
40
1
40
1
41
1
10
-2.19993720649916
20
22.0201003465238
30
0
41
1
10
-2.19993814031668
20
22.0200629239814
30
0
41
1
10
-2.19993905754629
20
22.0197960599891
30
0
41
1
10
-2.19995121410292
20
22.0131437163277
30
0
41
1
10
-2.1999599730359
20
21.9715850022846
30
0
41
1
10
-2.19997398518322
20
21.826510152625
30
0
41
1
10
-2.19997935061687
20
21.72295622244
30
0
41
1
10
-2.19998770707491
20
21.4599995385209
30
0
41
1
10
-2.19999070960964
20
21.3005486624664
30
0
41
1
10
-2.19999518626713
20
20.9304827925966
30
0
41
1
10
-2.19999666325779
20
20.7198119052019
30
0
41
1
10
-2.19999819294227
20
20.3679602304212
30
0
41
1
10
-2.19999858811516
20
20.2447397512041
30
0
41
1
10
-2.19999920479347
20
19.9866598067965
30
0
41
1
10
-2.19999942770272
20
19.851793617257
30
0
41
1
10
-2.19999991431348
20
19.4311388245235
30
0
41
1
10
-2.19999999999999
20
19.1290219240742
30
0
41
1
10
-2.19999999999999
20
18.8057993597053
30
0
0
SPLINE
5
1B0
100
AcDbEntity
8
SK1
62
256
6
ByLayer
370
-1
48
1
60
0
100
AcDbSpline
70
4
71
3
72
26
73
22
40
0
40
0
40
0
40
0
40
0.03125
40
0.03125
40
0.0625
40
0.0625
40
0.09375
40
0.09375
40
0.125
40
0.125
40
0.1875
40
0.1875
40
0.25
40
0.25
40
0.375
40
0.375
40
0.5
40
0.5
40
0.75
40
0.75
40
1
40
1
40
1
40
1
41
1
10
-0.400000000000034
20
-8.400500696617
30
0
41
1
10
-0.393725252963606
20
-8.39483264189755
30
0
41
1
10
-0.386915609950421
20
-8.38978004226055
30
0
41
1
10
-0.371510025045922
20
-8.38222431343416
30
0
41
1
10
-0.362908121619085
20
-8.37986418265822
30
0
41
1
10
-0.345148544913059
20
-8.38044759995859
30
0
41
1
10
-0.336106054502125
20
-8.3835846509011
30
0
41
1
10
-0.320552744636444
20
-8.3933811877732
30
0
41
1
10
-0.31381365174434
20
-8.39987112448955
30
0
41
1
10
-0.296222214851525
20
-8.4207588666431
30
0
41
1
10
-0.287467109392168
20
-8.4368184032987
30
0
41
1
10
-0.272674392185735
20
-8.46902466173046
30
0
41
1
10
-0.266640241246137
20
-8.48549026676815
30
0
41
1
10
-0.250660660648435
20
-8.5354288503442
30
0
41
1
10
-0.242864654673042
20
-8.56941536674472
30
0
41
1
10
-0.23003310146629
20
-8.6367185673958
30
0
41
1
10
-0.225036302071857
20
-8.67029480205611
30
0
41
1
10
-0.212586509005035
20
-8.77081535448806
30
0
41
1
10
-0.207640079074878
20
-8.8375521937113
30
0
41
1
10
-0.201301686428508
20
-8.97054022399988
30
0
41
1
10
-0.200000000000074
20
-9.03683050663383
30
0
41
1
10
-0.200000000000074
20
-9.10270278820403
30
0
0
SPLINE
5
1B1
100
AcDbEntity
8
SK1
62
256
6
ByLayer
370
-1
48
1
60
0
100
AcDbSpline
70
4
71
3
72
24
73
20
40
0
40
0
40
0
40
0
40
0.249999999999999
40
0.249999999999999
40
0.499999999999998
40
0.499999999999998
40
0.624999999999999
40
0.624999999999999
40
0.750000000000001
40
0.750000000000001
40
0.812500000000002
40
0.812500000000002
40
0.875000000000002
40
0.875000000000002
40
0.906250000000001
40
0.906250000000001
40
0.9375
40
0.9375
40
1
40
1
40
1
40
1
41
1
10
-0.200000000000046
20
9.10270310524561
30
0
41
1
10
-0.200000000000046
20
9.03673878663002
30
0
41
1
10
-0.201300944691838
20
8.97046489993102
30
0
41
1
10
-0.2076625267851
20
8.83717267131343
30
0
41
1
10
-0.212640606030817
20
8.77006095372801
30
0
41
1
10
-0.225219355684885
20
8.66897966689041
30
0
41
1
10
-0.230267342932194
20
8.63526504879556
30
0
41
1
10
-0.243209081854872
20
8.56784399996224
30
0
41
1
10
-0.25100686287638
20
8.53408819622612
30
0
41
1
10
-0.267081479681622
20
8.48424829339385
30
0
41
1
10
-0.273198880997086
20
8.46771587246189
30
0
41
1
10
-0.288041640105234
20
8.43574737526444
30
0
41
1
10
-0.296816000011518
20
8.41986795455836
30
0
41
1
10
-0.314334579263743
20
8.39935228306197
30
0
41
1
10
-0.321047059761611
20
8.39297862418408
30
0
41
1
10
-0.336578489168517
20
8.38338430370857
30
0
41
1
10
-0.345411194560029
20
8.38038004294395
30
0
41
1
10
-0.372193276142099
20
8.37968037405631
30
0
41
1
10
-0.387527453193997
20
8.38923416170084
30
0
41
1
10
-0.399999999985937
20
8.40050075606717
30
0
0
SPLINE
5
1B2
100
AcDbEntity
8
SK1
62
256
6
ByLayer
370
-1
48
1
60
0
100
AcDbSpline
70
4
71
3
72
87
73
83
40
0
40
0
40
0
40
0
40
0.0064304546318047
40
0.0205324394994655
40
0.0346344243671262
40
0.0416854168009566
40
0.048736409234787
40
0.0522619054517022
40
0.0557874016686174
40
0.0628383941024477
40
0.0698893865362781
40
0.0769403789701085
40
0.0910423638377693
40
0.10514434870543
40
0.119246333573091
40
0.133348318440752
40
0.147450303308412
40
0.161552288176073
40
0.175654273043734
40
0.189756257911395
40
0.203858242779055
40
0.217960227646716
40
0.232062212514377
40
0.246164197382038
40
0.260266182249698
40
0.274368167117359
40
0.28847015198502
40
0.302572136852681
40
0.316674121720341
40
0.330776106588002
40
0.344878091455663
40
0.358980076323324
40
0.373082061190984
40
0.387184046058645
40
0.401286030926306
40
0.415388015793967
40
0.429490000661627
40
0.443591985529288
40
0.457693970396949
40
0.47179595526461
40
0.485897940132271
40
0.499999924999931
40
0.514101909867592
40
0.528203894735253
40
0.542305879602914
40
0.556407864470574
40
0.570509849338235
40
0.584611834205896
40
0.598713819073557
40
0.612815803941217
40
0.626917788808878
40
0.641019773676539
40
0.6551217585442
40
0.66922374341186
40
0.683325728279521
40
0.697427713147182
40
0.711529698014843
40
0.725631682882503
40
0.739733667750164
40
0.753835652617825
40
0.767937637485486
40
0.782039622353146
40
0.796141607220807
40
0.810243592088468
40
0.824345576956129
40
0.838447561823789
40
0.85254954669145
40
0.866651531559111
40
0.880753516426772
40
0.894855501294432
40
0.908957486162093
40
0.923059471029754
40
0.930110463463584
40
0.937161455897415
40
0.944212448331245
40
0.94773794454816
40
0.951263440765076
40
0.958314433198906
40
0.965365425632736
40
0.979467410500397
40
0.993569395368058
40
1
40
1
40
1
40
1
41
1
10
-3
20
-21.7373117324389
30
0
41
1
10
-3.00000000000003
20
-21.7581505761792
30
0
41
1
10
-3.00000000000003
20
-21.8216572694924
30
0
41
1
10
-3.00000000000003
20
-21.9107797633372
30
0
41
1
10
-3.00000000000003
20
-21.9704004421262
30
0
41
1
10
-3.00000000000003
20
-21.9955838514163
30
0
41
1
10
-3.00000000000003
20
-22.0011048464384
30
0
41
1
10
-3.00000000000003
20
-21.9988957932114
30
0
41
1
10
-3.00000000000003
20
-21.9921074341117
30
0
41
1
10
-3.00000000000003
20
-21.9747088550401
30
0
41
1
10
-3.00000000000003
20
-21.9386456245555
30
0
41
1
10
-3.00000000000003
20
-21.868993702256
30
0
41
1
10
-3.00000000000003
20
-21.7393283758615
30
0
41
1
10
-3.00000000000003
20
-21.5090390087807
30
0
41
1
10
-3.00000000000003
20
-21.1987879004755
30
0
41
1
10
-3.00000000000003
20
-20.8048153118584
30
0
41
1
10
-3.00000000000003
20
-20.3250833271079
30
0
41
1
10
-3.00000000000003
20
-19.7594566764181
30
0
41
1
10
-3.00000000000003
20
-19.1097943347758
30
0
41
1
10
-3.00000000000003
20
-18.3799726709714
30
0
41
1
10
-3.00000000000003
20
-17.5758204617336
30
0
41
1
10
-3.00000000000003
20
-16.7049885958267
30
0
41
1
10
-3.00000000000003
20
-15.7767347946731
30
0
41
1
10
-3.00000000000003
20
-14.8016577436088
30
0
41
1
10
-3.00000000000003
20
-13.7913621958654
30
0
41
1
10
-3.00000000000003
20
-12.7580964435599
30
0
41
1
10
-3
20
-11.7143471465197
30
0
41
1
10
-3.00000000000003
20
-10.6724342215934
30
0
41
1
10
-3.00000000000003
20
-9.64409593406697
30
0
41
1
10
-3.00000000000003
20
-8.64010224817511
30
0
41
1
10
-3.00000000000003
20
-7.66989272366362
30
0
41
1
10
-3.00000000000003
20
-6.74126705030582
30
0
41
1
10
-3.00000000000003
20
-5.86013077636733
30
0
41
1
10
-3.00000000000003
20
-5.03031048105601
30
0
41
1
10
-3.00000000000003
20
-4.25344644766659
30
0
41
1
10
-3.00000000000003
20
-3.5289614043765
30
0
41
1
10
-3.00000000000003
20
-2.85411734459242
30
0
41
1
10
-3.00000000000003
20
-2.22414379058173
30
0
41
1
10
-3.00000000000003
20
-1.63245137350921
30
0
41
1
10
-3.00000000000003
20
-1.07090162750731
30
0
41
1
10
-3.00000000000003
20
-0.530146398226037
30
0
41
1
10
-3.00000000000003
20
1.1052839E-07
30
0
41
1
10
-3.00000000000003
20
0.530145956112307
30
0
41
1
10
-3.00000000000003
20
1.07090183098106
30
0
41
1
10
-3.00000000000003
20
1.63245100172756
30
0
41
1
10
-3.00000000000003
20
2.22414394390051
30
0
41
1
10
-3.00000000000003
20
2.85411710309862
30
0
41
1
10
-3.00000000000003
20
3.52896148234822
30
0
41
1
10
-3.00000000000003
20
4.25344637727321
30
0
41
1
10
-3.00000000000003
20
5.03031046956039
30
0
41
1
10
-3.00000000000003
20
5.86013089274294
30
0
41
1
10
-3.00000000000003
20
6.7412669483133
30
0
41
1
10
-3.00000000000003
20
7.66989301525788
30
0
41
1
10
-3.00000000000003
20
8.64010206779591
30
0
41
1
10
-3.00000000000003
20
9.64409636398926
30
0
41
1
10
-3.00000000000003
20
10.6724339861579
30
0
41
1
10
-3.00000000000003
20
11.7143476583394
30
0
41
1
10
-2.99999999999997
20
12.7580961840504
30
0
41
1
10
-2.99999999999997
20
13.7913627220832
30
0
41
1
10
-2.99999999999997
20
14.8016574939434
30
0
41
1
10
-2.99999999999997
20
15.7767352671169
30
0
41
1
10
-2.99999999999997
20
16.7049883877483
30
0
41
1
10
-2.99999999999997
20
17.5758208216031
30
0
41
1
10
-2.99999999999997
20
18.3799725293323
30
0
41
1
10
-2.99999999999997
20
19.1097945414623
30
0
41
1
10
-2.99999999999997
20
19.759456615498
30
0
41
1
10
-2.99999999999997
20
20.3250833641014
30
0
41
1
10
-2.99999999999997
20
20.804815632754
30
0
41
1
10
-2.99999999999997
20
21.1987865798995
30
0
41
1
10
-2.99999999999997
20
21.5090429333437
30
0
41
1
10
-2.99999999999997
20
21.7393270779667
30
0
41
1
10
-2.99999999999997
20
21.868994103416
30
0
41
1
10
-2.99999999999997
20
21.9386456157424
30
0
41
1
10
-2.99999999999997
20
21.9747080149673
30
0
41
1
10
-2.99999999999997
20
21.9921069826245
30
0
41
1
10
-2.99999999999997
20
21.9988955684255
30
0
41
1
10
-2.99999999999997
20
22.0011049359544
30
0
41
1
10
-2.99999999999997
20
21.9955842966017
30
0
41
1
10
-2.99999999999997
20
21.9704009616837
30
0
41
1
10
-2.99999999999997
20
21.9107795104958
30
0
41
1
10
-2.99999999999997
20
21.8216567023923
30
0
41
1
10
-2.99999999999997
20
21.7581493937909
30
0
41
1
10
-2.99999999999997
20
21.7373100004082
30
0
0
SPLINE
5
1B3
100
AcDbEntity
8
SK1
62
256
6
ByLayer
370
-1
48
1
60
0
100
AcDbSpline
70
4
71
3
72
24
73
20
40
0
40
0
40
0
40
0
40
0.25
40
0.25
40
0.5
40
0.5
40
0.625000000000001
40
0.625000000000001
40
0.750000000000003
40
0.750000000000003
40
0.812500000000004
40
0.812500000000004
40
0.875000000000005
40
0.875000000000005
40
0.906250000000004
40
0.906250000000004
40
0.937500000000002
40
0.937500000000002
40
1
40
1
40
1
40
1
41
1
10
-0.19999999999925
20
-21.9302322813768
30
0
41
1
10
-0.199999999999449
20
-21.9232339651778
30
0
41
1
10
-0.201301358458665
20
-21.9153179215732
30
0
41
1
10
-0.207664989911962
20
-21.8972173346818
30
0
41
1
10
-0.212644598959713
20
-21.8870405217581
30
0
41
1
10
-0.225227696864863
20
-21.8693999123201
30
0
41
1
10
-0.230277419646939
20
-21.8631298937617
30
0
41
1
10
-0.243223761357427
20
-21.8495186811203
30
0
41
1
10
-0.251024371908272
20
-21.8421906584754
30
0
41
1
10
-0.267105241071562
20
-21.8299687499399
30
0
41
1
10
-0.273224961098009
20
-21.825673656047
30
0
41
1
10
-0.288072610556895
20
-21.8165474607427
30
0
41
1
10
-0.296850963424532
20
-21.8116226471018
30
0
41
1
10
-0.314371903809558
20
-21.8037318707459
30
0
41
1
10
-0.321082879564614
20
-21.8009678791633
30
0
41
1
10
-0.336612671282779
20
-21.7955111151383
30
0
41
1
10
-0.345443540956296
20
-21.7928573480961
30
0
41
1
10
-0.372191316488198
20
-21.7864063266207
30
0
41
1
10
-0.387529346728002
20
-21.7846001195613
30
0
41
1
10
-0.400000000000148
20
-21.7837959067602
30
0
0
SPLINE
5
1B4
100
AcDbEntity
8
SK1
62
256
6
ByLayer
370
-1
48
1
60
0
100
AcDbSpline
70
4
71
3
72
12
73
8
40
0
40
0
40
0
40
0
40
0.5
40
0.5
40
0.75
40
0.75
40
1
40
1
40
1
40
1
41
1
10
-1.30710678118655
20
-7.17535139798747
30
0
41
1
10
-1.43288857909613
20
-6.59851617694682
30
0
41
1
10
-1.55712887502457
20
-6.00852912527773
30
0
41
1
10
-1.73364643499025
20
-5.09918734693227
30
0
41
1
10
-1.7908223366141
20
-4.79199066182511
30
0
41
1
10
-1.90003742445902
20
-4.16818032247807
30
0
41
1
10
-1.9520007528466
20
-3.85198363140074
30
0
41
1
10
-2.00000000000003
20
-3.53188087205282
30
0
0
SPLINE
5
1B5
100
AcDbEntity
8
SK1
62
256
6
ByLayer
370
-1
48
1
60
0
100
AcDbSpline
70
4
71
3
72
24
73
20
40
0
40
0
40
0
40
0
40
0.0624999999999988
40
0.0624999999999988
40
0.124999999999998
40
0.124999999999998
40
0.187499999999997
40
0.187499999999997
40
0.249999999999995
40
0.249999999999995
40
0.312499999999994
40
0.312499999999994
40
0.374999999999993
40
0.374999999999993
40
0.499999999999993
40
0.499999999999993
40
0.749999999999997
40
0.749999999999997
40
1
40
1
40
1
40
1
41
1
10
-0.399999999999977
20
8.40050075607752
30
0
41
1
10
-0.428748657929049
20
8.42646974805379
30
0
41
1
10
-0.461092792360148
20
8.45004754780291
30
0
41
1
10
-0.53469614337908
20
8.48344444311505
30
0
41
1
10
-0.577276309511831
20
8.49266054941435
30
0
41
1
10
-0.661890296836418
20
8.48533654515427
30
0
41
1
10
-0.701188831910571
20
8.46979005189974
30
0
41
1
10
-0.769336783097401
20
8.42865211789649
30
0
41
1
10
-0.798978874053716
20
8.40309258948946
30
0
41
1
10
-0.851909268909765
20
8.34886836972623
30
0
41
1
10
-0.875684410509848
20
8.31956817153312
30
0
41
1
10
-0.919182189240132
20
8.25948327662036
30
0
41
1
10
-0.938915819266924
20
8.22867081352976
30
0
41
1
10
-0.994217607513406
20
8.13468100281005
30
0
41
1
10
-1.02595937845055
20
8.06997690482359
30
0
41
1
10
-1.11276217093032
20
7.87216389617441
30
0
41
1
10
-1.15944811388903
20
7.7352394303455
30
0
41
1
10
-1.24118572933583
20
7.45830145730505
30
0
41
1
10
-1.27606628011537
20
7.31770381147493
30
0
41
1
10
-1.30710678118655
20
7.17535191129485
30
0
0
SPLINE
5
1B6
100
AcDbEntity
8
SK1
62
256
6
ByLayer
370
-1
48
1
60
0
100
AcDbSpline
70
4
71
3
72
16
73
12
40
0
40
0
40
0
40
0
40
0.25
40
0.25
40
0.375
40
0.375
40
0.5
40
0.5
40
0.75
40
0.75
40
1
40
1
40
1
40
1
41
1
10
-2.19999999999999
20
13.0172213664454
30
0
41
1
10
-2.19999999999999
20
12.3545615205847
30
0
41
1
10
-2.19999985626441
20
11.6614371833872
30
0
41
1
10
-2.1999988488023
20
10.5717452872467
30
0
41
1
10
-2.19999837677909
20
10.199816975702
30
0
41
1
10
-2.19999702437667
20
9.4406799864114
30
0
41
1
10
-2.19999614446726
20
9.05321708532739
30
0
41
1
10
-2.19999264094986
20
7.86759925883197
30
0
41
1
10
-2.19998915267331
20
7.04598606643992
30
0
41
1
10
-2.19997845071697
20
5.34200368623476
30
0
41
1
10
-2.19997100300878
20
4.45970904065132
30
0
41
1
10
-2.19996216441135
20
3.54984866401668
30
0
0
SPLINE
5
1B7
100
AcDbEntity
8
SK1
62
256
6
ByLayer
370
-1
48
1
60
0
100
AcDbSpline
70
4
71
3
72
24
73
20
40
0
40
0
40
0
40
0
40
0.250000000000001
40
0.250000000000001
40
0.500000000000002
40
0.500000000000002
40
0.625000000000001
40
0.625000000000001
40
0.75
40
0.75
40
0.8125
40
0.8125
40
0.875
40
0.875
40
0.906249999999999
40
0.906249999999999
40
0.937499999999999
40
0.937499999999999
40
1
40
1
40
1
40
1
41
1
10
-1.30710678118655
20
-7.17535139798744
30
0
41
1
10
-1.27615597528373
20
-7.31729176822424
30
0
41
1
10
-1.24138384105765
20
-7.45750086997342
30
0
41
1
10
-1.15993244771892
20
-7.73372504411506
30
0
41
1
10
-1.1134075928062
20
-7.87028036498683
30
0
41
1
10
-1.02728970090624
20
-8.06714497948138
30
0
41
1
10
-0.995833617387149
20
-8.13150432457093
30
0
41
1
10
-0.923025329445665
20
-8.25608372870087
30
0
41
1
10
-0.882451073902956
20
-8.31659508201719
30
0
41
1
10
-0.802506521816582
20
-8.39992138277344
30
0
41
1
10
-0.773356045581323
20
-8.42553185032085
30
0
41
1
10
-0.705637492175896
20
-8.46771689364368
30
0
41
1
10
-0.665462710483411
20
-8.48434730897324
30
0
41
1
10
-0.601869302403912
20
-8.4908315660592
30
0
41
1
10
-0.58033260536854
20
-8.48996824466451
30
0
41
1
10
-0.538315588391839
20
-8.48240901438624
30
0
41
1
10
-0.518222522250682
20
-8.47584498230663
30
0
41
1
10
-0.461481328405654
20
-8.45045968426285
30
0
41
1
10
-0.429154943577061
20
-8.42683670898191
30
0
41
1
10
-0.400000000000034
20
-8.4005006966172
30
0
0
SPLINE
5
1B8
100
AcDbEntity
8
SK1
62
256
6
ByLayer
370
-1
48
1
60
0
100
AcDbSpline
70
4
71
3
72
14
73
10
40
0
40
0
40
0
40
0
40
0.302631457227097
40
0.302631457227097
40
0.605262914454194
40
0.605262914454194
40
0.907894371681291
40
0.907894371681291
40
1
40
1
40
1
40
1
41
1
10
-0.400000000000063
20
-21.7837959067596
30
0
41
1
10
-0.428735574831961
20
-21.7819427947676
30
0
41
1
10
-0.461059788286974
20
-21.7801927483554
30
0
41
1
10
-0.534595439579334
20
-21.7776710636351
30
0
41
1
10
-0.577101677921974
20
-21.7769534913561
30
0
41
1
10
-0.661662996642207
20
-21.7775107288212
30
0
41
1
10
-0.700946344724656
20
-21.7787044180075
30
0
41
1
10
-0.745383570654582
20
-21.7806975769428
30
0
41
1
10
-0.75534371832839
20
-21.7811931735646
30
0
41
1
10
-0.764929807327832
20
-21.7817109983213
30
0
0
SPLINE
5
1B9
100
AcDbEntity
8
SK1
62
256
6
ByLayer
370
-1
48
1
60
0
100
AcDbSpline
70
4
71
3
72
59
73
55
40
0
40
0
40
0
40
0
40
0.0032825070072177
40
0.0090187595047328
40
0.0148173272604824
40
0.0206803756493659
40
0.0266099994057571
40
0.0326082235149354
40
0.0386770042924142
40
0.0448182306256365
40
0.0510337253538324
40
0.0728344686506542
40
0.0948683801662477
40
0.117209433993619
40
0.139928604238492
40
0.163093389758132
40
0.200662620842911
40
0.237908379186826
40
0.275111862741841
40
0.304434864407879
40
0.332798703393448
40
0.360361851614142
40
0.387296917239021
40
0.403635521946414
40
0.419213332805997
40
0.434082452315738
40
0.448302774929469
40
0.461942744574149
40
0.475079879155271
40
0.487800892264409
40
0.500201230181932
40
0.525185308534011
40
0.551818562691145
40
0.580711112719638
40
0.612342613340926
40
0.627621007436124
40
0.643077984031572
40
0.658746485018039
40
0.674658138583909
40
0.690843147499082
40
0.707330212317141
40
0.724146487094634
40
0.752011402741456
40
0.779849716305529
40
0.807779723098854
40
0.835918562025776
40
0.864709024361515
40
0.89285120045583
40
0.920478909259355
40
0.947733548804436
40
0.965515247434317
40
0.982622323802609
40
0.999102445039259
40
1
40
1
40
1
40
1
41
1
10
-38.0000000000001
20
-20.2401497218393
30
0
41
1
10
-38
20
-20.2399763430556
30
0
41
1
10
-38
20
-20.2382552563001
30
0
41
1
10
-38
20
-20.2299101333514
30
0
41
1
10
-38
20
-20.2120908676544
30
0
41
1
10
-38
20
-20.1861457443342
30
0
41
1
10
-38
20
-20.1520753502644
30
0
41
1
10
-38
20
-20.1098786348532
30
0
41
1
10
-38
20
-20.0595607012881
30
0
41
1
10
-38
20
-20.0011032096712
30
0
41
1
10
-38
20
-19.8792486892016
30
0
41
1
10
-38
20
-19.6560149747605
30
0
41
1
10
-38
20
-19.2711243760813
30
0
41
1
10
-38
20
-18.7936710623444
30
0
41
1
10
-38
20
-18.223548856156
30
0
41
1
10
-38
20
-17.4288759196868
30
0
41
1
10
-38
20
-16.3544924132952
30
0
41
1
10
-38.0000000000001
20
-14.9276445318439
30
0
41
1
10
-38.0000000000001
20
-13.4296501474763
30
0
41
1
10
-38
20
-11.9288756258108
30
0
41
1
10
-38
20
-10.4759268368282
30
0
41
1
10
-38
20
-8.96323644819535
30
0
41
1
10
-38
20
-7.58726637310823
30
0
41
1
10
-38
20
-6.39449029412319
30
0
41
1
10
-38
20
-5.41659594783596
30
0
41
1
10
-38
20
-4.4547870297263
30
0
41
1
10
-38
20
-3.5090765736185
30
0
41
1
10
-38
20
-2.57939132255686
30
0
41
1
10
-38
20
-1.66572746441938
30
0
41
1
10
-38
20
-0.768056548049486
30
0
41
1
10
-38
20
0.415831457948514
30
0
41
1
10
-38
20
1.9272295144481
30
0
41
1
10
-38
20
3.76642172397726
30
0
41
1
10
-38
20
5.65944965610282
30
0
41
1
10
-38
20
7.21053645631747
30
0
41
1
10
-38
20
8.4294251924504
30
0
41
1
10
-38
20
9.30633459126378
30
0
41
1
10
-38
20
10.1639471319464
30
0
41
1
10
-38
20
11.0021898492274
30
0
41
1
10
-38
20
11.8210991219975
30
0
41
1
10
-38
20
12.6206224179574
30
0
41
1
10
-38
20
13.5663001829272
30
0
41
1
10
-38
20
14.6201752586453
30
0
41
1
10
-38
20
15.7307919285947
30
0
41
1
10
-38
20
16.7360193481202
30
0
41
1
10
-38
20
17.6388814361707
30
0
41
1
10
-38
20
18.4289537488606
30
0
41
1
10
-38
20
19.0886370818297
30
0
41
1
10
-38
20
19.6045510408328
30
0
41
1
10
-38
20
19.9336739677254
30
0
41
1
10
-38
20
20.1275636137558
30
0
41
1
10
-38
20
20.2271964574402
30
0
41
1
10
-38
20
20.2494474605773
30
0
41
1
10
-38
20
20.2476818784703
30
0
41
1
10
-38
20
20.247555857894
30
0
0
SPLINE
5
1BA
100
AcDbEntity
8
SK1
62
256
6
ByLayer
370
-1
48
1
60
0
100
AcDbSpline
70
4
71
3
72
18
73
14
40
0
40
0
40
0
40
0
40
0.164461910623753
40
0.164461910623753
40
0.328923821247507
40
0.328923821247507
40
0.657847642495013
40
0.657847642495013
40
0.822309553118766
40
0.822309553118766
40
0.986771463742519
40
0.986771463742519
40
1
40
1
40
1
40
1
41
1
10
-2.20000000000005
20
-18.80579949842
30
0
41
1
10
-2.20000000000005
20
-19.129695530799
30
0
41
1
10
-2.19999991383656
20
-19.432115266424
30
0
41
1
10
-2.19999926362902
20
-19.9930629332167
30
0
41
1
10
-2.19999870008468
20
-20.2515480764309
30
0
41
1
10
-2.19999564044511
20
-20.9545919350817
30
0
41
1
10
-2.19999187964982
20
-21.3288356060147
30
0
41
1
10
-2.19997934279718
20
-21.7231461874623
30
0
41
1
10
-2.19997397516337
20
-21.8266671330472
30
0
41
1
10
-2.19995995834907
20
-21.9716817908412
30
0
41
1
10
-2.19995119755549
20
-22.0131826869451
30
0
41
1
10
-2.19993903881365
20
-22.0198035027518
30
0
41
1
10
-2.1999381170385
20
-22.0200679082175
30
0
41
1
10
-2.19993717844002
20
-22.0201004848422
30
0
0
SPLINE
5
1BB
100
AcDbEntity
8
SK1
62
256
6
ByLayer
370
-1
48
1
60
0
100
AcDbSpline
70
4
71
3
72
28
73
24
40
0
40
0
40
0
40
0
40
0.0073506936623785
40
0.0601992338133586
40
0.113047773964339
40
0.165896314115319
40
0.218744854266299
40
0.271593394417279
40
0.324441934568259
40
0.377290474719239
40
0.430139014870219
40
0.482987555021199
40
0.535836095172179
40
0.58868463532316
40
0.64153317547414
40
0.69438171562512
40
0.7472302557761
40
0.80007879592708
40
0.85292733607806
40
0.90577587622904
40
0.95862441638002
40
0.98504868645551
40
1
40
1
40
1
40
1
41
1
10
-0.400000000000034
20
-8.40050069661757
30
0
41
1
10
-0.400000000000034
20
-8.44572397118418
30
0
41
1
10
-0.400000000000034
20
-8.81701709973368
30
0
41
1
10
-0.400000000000034
20
-9.52816888083231
30
0
41
1
10
-0.400000000000034
20
-10.5503221797328
30
0
41
1
10
-0.400000000000034
20
-11.5864797887658
30
0
41
1
10
-0.400000000000063
20
-12.6248859949608
30
0
41
1
10
-0.400000000000063
20
-13.6532003777634
30
0
41
1
10
-0.400000000000063
20
-14.6589141102144
30
0
41
1
10
-0.400000000000063
20
-15.6297564245795
30
0
41
1
10
-0.400000000000063
20
-16.5541011472568
30
0
41
1
10
-0.400000000000063
20
-17.4213304234775
30
0
41
1
10
-0.400000000000063
20
-18.2221707430851
30
0
41
1
10
-0.400000000000063
20
-18.9489596670075
30
0
41
1
10
-0.400000000000063
20
-19.5958618349948
30
0
41
1
10
-0.400000000000063
20
-20.1589996510313
30
0
41
1
10
-0.400000000000063
20
-20.6365184914532
30
0
41
1
10
-0.400000000000063
20
-21.0285634421464
30
0
41
1
10
-0.400000000000063
20
-21.337187169909
30
0
41
1
10
-0.400000000000063
20
-21.5661689793568
30
0
41
1
10
-0.400000000000063
20
-21.694977581428
30
0
41
1
10
-0.400000000000063
20
-21.7567005396733
30
0
41
1
10
-0.400000000000063
20
-21.7772122547681
30
0
41
1
10
-0.400000000000063
20
-21.7837959067598
30
0
0
SPLINE
5
1BC
100
AcDbEntity
8
SK1
62
256
6
ByLayer
370
-1
48
1
60
0
100
AcDbSpline
70
4
71
3
72
16
73
12
40
0
40
0
40
0
40
0
40
0.073347578898009
40
0.073347578898009
40
0.382231719265339
40
0.382231719265339
40
0.536673789449004
40
0.536673789449004
40
0.691115859632669
40
0.691115859632669
40
1
40
1
40
1
40
1
41
1
10
-0.762537993971989
20
21.7815820580195
30
0
41
1
10
-0.754999509122655
20
21.7811808512187
30
0
41
1
10
-0.747224067583716
20
21.7807931779348
30
0
41
1
10
-0.70530946824303
20
21.778858124759
30
0
41
1
10
-0.665128580634359
20
21.777584484496
30
0
41
1
10
-0.601638648244574
20
21.7770923826734
30
0
41
1
10
-0.580109902589328
20
21.7771608348045
30
0
41
1
10
-0.538170853177576
20
21.7777424802776
30
0
41
1
10
-0.518095619094623
20
21.7782455008475
30
0
41
1
10
-0.461443317534645
20
21.7801625837693
30
0
41
1
10
-0.42913438724716
20
21.781916804425
30
0
41
1
10
-0.399999999999977
20
21.7837956106232
30
0
0
SPLINE
5
1BD
100
AcDbEntity
8
SK1
62
256
6
ByLayer
370
-1
48
1
60
0
100
AcDbSpline
70
4
71
3
72
20
73
16
40
0
40
0
40
0
40
0
40
0.0625
40
0.0625
40
0.125
40
0.125
40
0.25
40
0.25
40
0.5
40
0.5
40
0.625
40
0.625
40
0.75
40
0.75
40
1
40
1
40
1
40
1
41
1
10
-2.19996216443258
20
-3.54983930763265
30
0
41
1
10
-2.22044840143087
20
-3.40695670462844
30
0
41
1
10
-2.24021230184059
20
-3.26305777471006
30
0
41
1
10
-2.27803379469174
20
-2.97304584798116
30
0
41
1
10
-2.2961290249122
20
-2.82664512825193
30
0
41
1
10
-2.34720400178199
20
-2.38608927555839
30
0
41
1
10
-2.37689006379998
20
-2.0913414023224
30
0
41
1
10
-2.45003363011682
20
-1.20362048849589
30
0
41
1
10
-2.4771922892763
20
-0.607128851196308
30
0
41
1
10
-2.47741959906745
20
0.295725665164952
30
0
41
1
10
-2.47084183993451
20
0.598295142845728
30
0
41
1
10
-2.44464665854522
20
1.20498874144644
30
0
41
1
10
-2.42528670432401
20
1.50489082545869
30
0
41
1
10
-2.35167309829586
20
2.39552637501163
30
0
41
1
10
-2.28205772926171
20
2.97726686878858
30
0
41
1
10
-2.19996216441007
20
3.54984866401654
30
0
0
SPLINE
5
1BE
100
AcDbEntity
8
SK1
62
256
6
ByLayer
370
-1
48
1
60
0
100
AcDbSpline
70
4
71
3
72
28
73
24
40
0
40
0
40
0
40
0
40
0.0149514183161537
40
0.0413756856699937
40
0.0942242203776738
40
0.147072755085354
40
0.199921289793034
40
0.252769824500714
40
0.305618359208394
40
0.358466893916074
40
0.411315428623754
40
0.464163963331434
40
0.517012498039114
40
0.569861032746794
40
0.622709567454474
40
0.675558102162154
40
0.728406636869834
40
0.781255171577515
40
0.834103706285195
40
0.886952240992875
40
0.939800775700555
40
0.992649310408235
40
1
40
1
40
1
40
1
41
1
10
-0.400000000000006
20
21.7837956106232
30
0
41
1
10
-0.400000000000006
20
21.7772120307969
30
0
41
1
10
-0.400000000000006
20
21.7567006300735
30
0
41
1
10
-0.400000000000006
20
21.6949779936854
30
0
41
1
10
-0.400000000000006
20
21.5661676526815
30
0
41
1
10
-0.400000000000006
20
21.3371910810194
30
0
41
1
10
-0.400000000000006
20
21.0285622078674
30
0
41
1
10
-0.400000000000006
20
20.6365187777369
30
0
41
1
10
-0.400000000000006
20
20.1589996983693
30
0
41
1
10
-0.400000000000006
20
19.5958617698656
30
0
41
1
10
-0.400000000000006
20
18.9489598758679
30
0
41
1
10
-0.400000000000006
20
18.2221705966385
30
0
41
1
10
-0.400000000000006
20
17.4213307857328
30
0
41
1
10
-0.400000000000006
20
16.5541009338831
30
0
41
1
10
-0.400000000000006
20
15.6297568996197
30
0
41
1
10
-0.400000000000006
20
14.6589138549468
30
0
41
1
10
-0.400000000000006
20
13.6532009067709
30
0
41
1
10
-0.400000000000006
20
12.6248857298215
30
0
41
1
10
-0.400000000000034
20
11.5864803035381
30
0
41
1
10
-0.400000000000034
20
10.5503219390466
30
0
41
1
10
-0.400000000000034
20
9.5281693138144
30
0
41
1
10
-0.400000000000034
20
8.81701711318559
30
0
41
1
10
-0.400000000000034
20
8.44572400735871
30
0
41
1
10
-0.400000000000034
20
8.4005007560547
30
0
0
SPLINE
5
1BF
100
AcDbEntity
8
SK1
62
256
6
ByLayer
370
-1
48
1
60
0
100
AcDbSpline
70
4
71
3
72
28
73
24
40
0
40
0
40
0
40
0
40
0.24999999999997
40
0.24999999999997
40
0.374999999999954
40
0.374999999999954
40
0.437499999999947
40
0.437499999999947
40
0.468749999999943
40
0.468749999999943
40
0.499999999999939
40
0.499999999999939
40
0.51562499999994
40
0.51562499999994
40
0.53124999999994
40
0.53124999999994
40
0.562499999999944
40
0.562499999999944
40
0.624999999999952
40
0.624999999999952
40
0.749999999999968
40
0.749999999999968
40
1
40
1
40
1
40
1
41
1
10
-2.00000000000003
20
-3.5318808720528
30
0
41
1
10
-2.01495367663023
20
-3.43215611727859
30
0
41
1
10
-2.03093074136544
20
-3.33270202367439
30
0
41
1
10
-2.05913381766928
20
-3.18523173447792
30
0
41
1
10
-2.06919540801943
20
-3.13627601240742
30
0
41
1
10
-2.08711697283871
20
-3.06447112741
30
0
41
1
10
-2.09354615320441
20
-3.0407352426725
30
0
41
1
10
-2.10500754339574
20
-3.00649558647135
30
0
41
1
10
-2.10913389451733
20
-2.99526415536084
30
0
41
1
10
-2.11879461576237
20
-2.97412719489222
30
0
41
1
10
-2.12410430532523
20
-2.9634541147345
30
0
41
1
10
-2.135994733063
20
-2.95444828312577
30
0
41
1
10
-2.14100969668752
20
-2.95345522109784
30
0
41
1
10
-2.14977436658612
20
-2.95915337420564
30
0
41
1
10
-2.15315484292654
20
-2.96467370301431
30
0
41
1
10
-2.16124639126005
20
-2.98162665342264
30
0
41
1
10
-2.16462863808897
20
-2.99443080041198
30
0
41
1
10
-2.17336674456095
20
-3.03234894515953
30
0
41
1
10
-2.177024266888
20
-3.05841003977531
30
0
41
1
10
-2.18628317238893
20
-3.13606460897245
30
0
41
1
10
-2.18979354091806
20
-3.18786417566517
30
0
41
1
10
-2.19793222121803
20
-3.34326676178742
30
0
41
1
10
-2.19967024790282
20
-3.44676918631768
30
0
41
1
10
-2.19996216443241
20
-3.54983930763262
30
0
0
SPLINE
5
1C0
100
AcDbEntity
8
SK1
62
256
6
ByLayer
370
-1
48
1
60
0
100
AcDbSpline
70
4
71
3
72
37
73
33
40
0
40
0
40
0
40
0
40
0.0358137777949071
40
0.0747129801457967
40
0.113612182496686
40
0.152511384847576
40
0.191410587198465
40
0.230309789549355
40
0.269208991900245
40
0.308108194251134
40
0.347007396602024
40
0.385906598952913
40
0.424805801303803
40
0.463705003654693
40
0.502604206005582
40
0.541503408356472
40
0.580402610707361
40
0.619301813058251
40
0.65820101540914
40
0.69710021776003
40
0.73599942011092
40
0.774898622461809
40
0.813797824812699
40
0.852697027163588
40
0.891596229514478
40
0.930495431865368
40
0.949945033040812
40
0.969394634216257
40
0.97911943480398
40
0.988844235391702
40
0.998569035979424
40
1
40
1
40
1
40
1
41
1
10
-2.00000000000003
20
-3.5318808720528
30
0
41
1
10
-2.00000000000003
20
-3.74495302120394
30
0
41
1
10
-2.00000000000003
20
-4.2042470499967
30
0
41
1
10
-2.00000000000003
20
-4.95199329354998
30
0
41
1
10
-2.00000000000003
20
-5.77341227102076
30
0
41
1
10
-2.00000000000003
20
-6.64657476441815
30
0
41
1
10
-2.00000000000003
20
-7.56767138772486
30
0
41
1
10
-2.00000000000003
20
-8.53080293175961
30
0
41
1
10
-2.00000000000003
20
-9.52816888083231
30
0
41
1
10
-2.00000000000003
20
-10.5503221797328
30
0
41
1
10
-2.00000000000003
20
-11.5864797887658
30
0
41
1
10
-2.00000000000006
20
-12.6248859949608
30
0
41
1
10
-2.00000000000006
20
-13.6532003777634
30
0
41
1
10
-2.00000000000006
20
-14.6589141102143
30
0
41
1
10
-2.00000000000006
20
-15.6297564245795
30
0
41
1
10
-2.00000000000006
20
-16.5541011472568
30
0
41
1
10
-2.00000000000006
20
-17.4213304234775
30
0
41
1
10
-2.00000000000006
20
-18.2221707430851
30
0
41
1
10
-2.00000000000006
20
-18.9489596670075
30
0
41
1
10
-2.00000000000006
20
-19.5958618349948
30
0
41
1
10
-2.00000000000003
20
-20.1589996510313
30
0
41
1
10
-2.00000000000003
20
-20.6365184914532
30
0
41
1
10
-2.00000000000003
20
-21.0285634421464
30
0
41
1
10
-2.00000000000003
20
-21.337187169909
30
0
41
1
10
-2.00000000000003
20
-21.5661689793568
30
0
41
1
10
-2.00000000000003
20
-21.694977581428
30
0
41
1
10
-2.00000000000003
20
-21.7642160759136
30
0
41
1
10
-2.00000000000003
20
-21.7940468728384
30
0
41
1
10
-2.00000000000003
20
-21.810382005051
30
0
41
1
10
-2.00000000000003
20
-21.8189797158788
30
0
41
1
10
-2.00000000000006
20
-21.8225936454567
30
0
41
1
10
-2.00000000000003
20
-21.8237781505223
30
0
41
1
10
-2.00000000000003
20
-21.8239178718768
30
0
0
SPLINE
5
1C1
100
AcDbEntity
8
SK1
62
256
6
ByLayer
370
-1
48
1
60
0
100
AcDbSpline
70
4
71
3
72
30
73
26
40
0
40
0
40
0
40
0
40
0.250000000000023
40
0.250000000000023
40
0.375000000000035
40
0.375000000000035
40
0.437500000000041
40
0.437500000000041
40
0.468750000000045
40
0.468750000000045
40
0.484375000000045
40
0.484375000000045
40
0.500000000000045
40
0.500000000000045
40
0.515625000000045
40
0.515625000000045
40
0.531250000000046
40
0.531250000000046
40
0.562500000000042
40
0.562500000000042
40
0.625000000000036
40
0.625000000000036
40
0.750000000000023
40
0.750000000000023
40
1
40
1
40
1
40
1
41
1
10
-2.19996216441137
20
3.54984866401682
30
0
41
1
10
-2.19967154607937
20
3.44723681521549
30
0
41
1
10
-2.1979517919398
20
3.34441231087811
30
0
41
1
10
-2.18990134272281
20
3.18955543261532
30
0
41
1
10
-2.18639724056257
20
3.13771585983838
30
0
41
1
10
-2.17733543673811
20
3.0607007286294
30
0
41
1
10
-2.17379732403157
20
3.03511088069038
30
0
41
1
10
-2.16535653562107
20
2.99721939402676
30
0
41
1
10
-2.16207662613317
20
2.98431022920485
30
0
41
1
10
-2.15427700223896
20
2.96668457309295
30
0
41
1
10
-2.15108129190185
20
2.96089180614197
30
0
41
1
10
-2.14260059754056
20
2.95386542132181
30
0
41
1
10
-2.13736392673485
20
2.95393198208558
30
0
41
1
10
-2.12904051266403
20
2.95932950428878
30
0
41
1
10
-2.12565158991075
20
2.96372984352658
30
0
41
1
10
-2.11964083848361
20
2.97306578643287
30
0
41
1
10
-2.11700376214691
20
2.97815840455317
30
0
41
1
10
-2.10961390483706
20
2.99403462877069
30
0
41
1
10
-2.10542925070641
20
3.00533063146418
30
0
41
1
10
-2.09386940597537
20
3.03960648373706
30
0
41
1
10
-2.08743121666586
20
3.06329695250975
30
0
41
1
10
-2.06942678678826
20
3.13520105220164
30
0
41
1
10
-2.05931825894646
20
3.18432265089729
30
0
41
1
10
-2.03101594001578
20
3.33216899238906
30
0
41
1
10
-2.01499457923356
20
3.43189269931764
30
0
41
1
10
-2.00000000000003
20
3.53189014643689
30
0
0
SPLINE
5
1C2
100
AcDbEntity
8
1
62
256
6
ByLayer
370
-1
48
1
60
0
100
AcDbSpline
70
4
71
3
72
14
73
10
40
0
40
0
40
0
40
0
40
0.25
40
0.25
40
0.5
40
0.5
40
0.75
40
0.75
40
1
40
1
40
1
40
1
41
1
10
84.4982708556714
20
8.19993892466763
30
0
41
1
10
84.5024241827367
20
8.20012241103544
30
0
41
1
10
84.5121018853936
20
8.19988757288343
30
0
41
1
10
84.5421056309463
20
8.19872443566774
30
0
41
1
10
84.5627306763146
20
8.19778061704332
30
0
41
1
10
84.6127896800648
20
8.19549834413527
30
0
41
1
10
84.6426515978203
20
8.19414249163003
30
0
41
1
10
84.7105968368208
20
8.19134899259953
30
0
41
1
10
84.7480507273008
20
8.18993713845845
30
0
41
1
10
84.7890315505336
20
8.18865149484421
30
0
0
SPLINE
5
1C3
100
AcDbEntity
8
1
62
256
6
ByLayer
370
-1
48
1
60
0
100
AcDbSpline
70
4
71
3
72
16
73
12
40
0
40
0
40
0
40
0
40
0.249999999999999
40
0.249999999999999
40
0.499999999999997
40
0.499999999999997
40
0.749999999999996
40
0.749999999999996
40
0.874999999999998
40
0.874999999999998
40
1
40
1
40
1
40
1
41
1
10
13.8943375672974
20
29.9139548464691
30
0
41
1
10
13.8787501654513
20
29.9327542695084
30
0
41
1
10
13.8600981524864
20
29.9510098933135
30
0
41
1
10
13.8145135903111
20
29.9862144781928
30
0
41
1
10
13.7875017792166
20
30.0032856662985
30
0
41
1
10
13.720820003123
20
30.0350501233766
30
0
41
1
10
13.6810618560869
20
30.0498069467437
30
0
41
1
10
13.6084081576259
20
30.0668840803112
30
0
41
1
10
13.5814155034803
20
30.0718038277879
30
0
41
1
10
13.5238105256953
20
30.0786461490401
30
0
41
1
10
13.4927587974109
20
30.0805927603169
30
0
41
1
10
13.4613248654052
20
30.0805927603169
30
0
0
SPLINE
5
1C4
100
AcDbEntity
8
1
62
256
6
ByLayer
370
-1
48
1
60
0
100
AcDbSpline
70
4
71
3
72
8
73
4
40
0
40
0
40
0
40
0
40
1
40
1
40
1
40
1
41
1
10
29.0359321218086
20
1.41175043963403
30
0
41
1
10
28.8943037324562
20
1.69966452941378
30
0
41
1
10
28.7752842502136
20
1.99264345950496
30
0
41
1
10
28.6781113171439
20
2.28678283867603
30
0
0
SPLINE
5
1C5
100
AcDbEntity
8
1
62
256
6
ByLayer
370
-1
48
1
60
0
100
AcDbSpline
70
4
71
3
72
24
73
20
40
0
40
0
40
0
40
0
40
0.0653012539911583
40
0.0653012539911583
40
0.150273867264689
40
0.150273867264689
40
0.320219093811751
40
0.320219093811751
40
0.405191707085281
40
0.405191707085281
40
0.490164320358812
40
0.490164320358812
40
0.660109546905873
40
0.660109546905873
40
0.745082160179404
40
0.745082160179404
40
0.830054773452935
40
0.830054773452935
40
1
40
1
40
1
40
1
41
1
10
80.5811414648145
20
1.61890222654088
30
0
41
1
10
80.5905126125483
20
1.64548092439742
30
0
41
1
10
80.5988589179689
20
1.67432480828339
30
0
41
1
10
80.6156077039718
20
1.7459139722653
30
0
41
1
10
80.6232910358179
20
1.79048028585277
30
0
41
1
10
80.6402124434457
20
1.93358850059505
30
0
41
1
10
80.643508082642
20
2.04142943019849
30
0
41
1
10
80.6354965698064
20
2.22025779785585
30
0
41
1
10
80.6306515966964
20
2.282726072922
30
0
41
1
10
80.6162398792946
20
2.4132552858795
30
0
41
1
10
80.606639384245
20
2.48137828553342
30
0
41
1
10
80.5707735600802
20
2.69000202511484
30
0
41
1
10
80.537431860162
20
2.83594551608431
30
0
41
1
10
80.4709423287213
20
3.06290109878151
30
0
41
1
10
80.4460128495565
20
3.13989474212425
30
0
41
1
10
80.3899072771918
20
3.29614282752422
30
0
41
1
10
80.3588042223435
20
3.37512873765948
30
0
41
1
10
80.2565305562341
20
3.61082045877129
30
0
41
1
10
80.1762593234551
20
3.76753473476299
30
0
41
1
10
80.0795388146544
20
3.91999999998049
30
0
0
SPLINE
5
1C6
100
AcDbEntity
8
1
62
256
6
ByLayer
370
-1
48
1
60
0
100
AcDbSpline
70
4
71
3
72
14
73
10
40
0
40
0
40
0
40
0
40
0.0705200632895323
40
0.0705200632895323
40
0.380346708859688
40
0.380346708859688
40
0.690173354429844
40
0.690173354429844
40
1
40
1
40
1
40
1
41
1
10
89.7540845935374
20
2.5189564345234
30
0
41
1
10
89.7536123671471
20
2.51153782542659
30
0
41
1
10
89.7531107031065
20
2.5043233017081
30
0
41
1
10
89.7502732464136
20
2.466504516697
30
0
41
1
10
89.747431810209
20
2.4395746330334
30
0
41
1
10
89.7413064487654
20
2.39652236534258
30
0
41
1
10
89.7379604802245
20
2.37985370272793
30
0
41
1
10
89.7310228246313
20
2.35743333284108
30
0
41
1
10
89.7274912645252
20
2.35177645754115
30
0
41
1
10
89.7239517498996
20
2.35174374184723
30
0
0
SPLINE
5
1C7
100
AcDbEntity
8
1
62
256
6
ByLayer
370
-1
48
1
60
0
100
AcDbSpline
70
4
71
3
72
16
73
12
40
0
40
0
40
0
40
0
40
0.125000000000001
40
0.125000000000001
40
0.250000000000001
40
0.250000000000001
40
0.500000000000001
40
0.500000000000001
40
0.75
40
0.75
40
1
40
1
40
1
40
1
41
1
10
10.5386751345948
20
-9.34922131452504
30
0
41
1
10
10.5071959726827
20
-9.34922131452504
30
0
41
1
10
10.4765695733598
20
-9.35536120669448
30
0
41
1
10
10.4184736929998
20
-9.37748487924958
30
0
41
1
10
10.3920418953324
20
-9.39290424748299
30
0
41
1
10
10.3182367311259
20
-9.44829073160841
30
0
41
1
10
10.2791703657593
20
-9.49467220053404
30
0
41
1
10
10.2125137122668
20
-9.59453680346894
30
0
41
1
10
10.1857347330744
20
-9.64728479257926
30
0
41
1
10
10.1400559187761
20
-9.75611455014871
30
0
41
1
10
10.1212556944726
20
-9.81241059371422
30
0
41
1
10
10.1056624327025
20
-9.86941261896612
30
0
0
SPLINE
5
1C8
100
AcDbEntity
8
1
62
256
6
ByLayer
370
-1
48
1
60
0
100
AcDbSpline
70
4
71
3
72
16
73
12
40
0
40
0
40
0
40
0
40
0.125000000000001
40
0.125000000000001
40
0.250000000000002
40
0.250000000000002
40
0.500000000000001
40
0.500000000000001
40
0.750000000000001
40
0.750000000000001
40
1
40
1
40
1
40
1
41
1
10
13.4613248654051
20
-30.080592760317
30
0
41
1
10
13.4928040273172
20
-30.0805927603169
30
0
41
1
10
13.5234304266402
20
-30.0786859906591
30
0
41
1
10
13.5815263070002
20
-30.0717959485602
30
0
41
1
10
13.6079581046675
20
-30.0669872793662
30
0
41
1
10
13.681763268874
20
-30.049647240705
30
0
41
1
10
13.7208296342407
20
-30.0350452819075
30
0
41
1
10
13.7874862877331
20
-30.0032932993815
30
0
41
1
10
13.8142652669256
20
-29.9863830332717
30
0
41
1
10
13.8599440812239
20
-29.9511519005795
30
0
41
1
10
13.8787443055274
20
-29.9327613369588
30
0
41
1
10
13.8943375672974
20
-29.9139548464691
30
0
0
SPLINE
5
1C9
100
AcDbEntity
8
1
62
256
6
ByLayer
370
-1
48
1
60
0
100
AcDbSpline
70
4
71
3
72
10
73
6
40
0
40
0
40
0
40
0
40
0.5
40
0.5
40
1
40
1
40
1
40
1
41
1
10
80.8165379059568
20
-8.10318926416693
30
0
41
1
10
81.0592175505188
20
-8.11275340227877
30
0
41
1
10
81.2933175571945
20
-8.12462063753424
30
0
41
1
10
81.7451435964924
20
-8.14937794010191
30
0
41
1
10
81.9628693869099
20
-8.1622876226258
30
0
41
1
10
82.1721110285084
20
-8.17336794066122
30
0
0
SPLINE
5
1CA
100
AcDbEntity
8
1
62
256
6
ByLayer
370
-1
48
1
60
0
100
AcDbSpline
70
4
71
3
72
26
73
22
40
0
40
0
40
0
40
0
40
0.124999999999999
40
0.124999999999999
40
0.249999999999999
40
0.249999999999999
40
0.374999999999998
40
0.374999999999998
40
0.437499999999998
40
0.437499999999998
40
0.499999999999997
40
0.499999999999997
40
0.624999999999996
40
0.624999999999996
40
0.749999999999995
40
0.749999999999995
40
0.812499999999994
40
0.812499999999994
40
0.874999999999993
40
0.874999999999993
40
1
40
1
40
1
40
1
41
1
10
83.7883864617406
20
1.55385106538611
30
0
41
1
10
83.8625421011532
20
1.5780751272942
30
0
41
1
10
83.9284405383885
20
1.60342949711398
30
0
41
1
10
84.0437855198479
20
1.65639029555439
30
0
41
1
10
84.0933617069923
20
1.6842172045844
30
0
41
1
10
84.171538050661
20
1.73989498882676
30
0
41
1
10
84.2008089281989
20
1.76798500129166
30
0
41
1
10
84.2297156958114
20
1.81050369920962
30
0
41
1
10
84.2368266959974
20
1.82479209767519
30
0
41
1
10
84.2456612122355
20
1.85290173304398
30
0
41
1
10
84.2474483243123
20
1.86678941144967
30
0
41
1
10
84.2450799643998
20
1.90796124358633
30
0
41
1
10
84.2332467639315
20
1.93478110931684
30
0
41
1
10
84.1883446806092
20
1.98697595463659
30
0
41
1
10
84.1559873849493
20
2.0115459599966
30
0
41
1
10
84.0932625669201
20
2.04621322558225
30
0
41
1
10
84.0699729413452
20
2.05740180670594
30
0
41
1
10
84.0185496145273
20
2.0790320746199
30
0
41
1
10
83.9902950351768
20
2.08950361105391
30
0
41
1
10
83.8998175779327
20
2.11919203018206
30
0
41
1
10
83.8315601156271
20
2.13689013010097
30
0
41
1
10
83.7554681734588
20
2.15252166222982
30
0
0
SPLINE
5
1CB
100
AcDbEntity
8
1
62
256
6
ByLayer
370
-1
48
1
60
0
100
AcDbSpline
70
4
71
3
72
57
73
53
40
0
40
0
40
0
40
0
40
0.0286266292024584
40
0.0572532584049169
40
0.0858798876073753
40
0.114506516809834
40
0.143133146012292
40
0.171759775214751
40
0.18607308981598
40
0.200386404417209
40
0.229013033619667
40
0.243326348220897
40
0.257639662822126
40
0.286266292024584
40
0.300579606625813
40
0.314892921227043
40
0.343519550429501
40
0.357832865030731
40
0.37214617963196
40
0.400772808834418
40
0.415086123435647
40
0.429399438036876
40
0.458026067239335
40
0.472339381840564
40
0.486652696441793
40
0.515279325644252
40
0.529592640245481
40
0.54390595484671
40
0.572532584049168
40
0.586845898650398
40
0.601159213251627
40
0.629785842454085
40
0.644099157055315
40
0.658412471656544
40
0.687039100859002
40
0.701352415460231
40
0.715665730061461
40
0.744292359263919
40
0.772918988466377
40
0.801545617668836
40
0.830172246871294
40
0.858798876073752
40
0.873112190674982
40
0.887425505276211
40
0.90173881987744
40
0.916052134478669
40
0.923208791779284
40
0.930365449079899
40
0.944678763681128
40
0.958992078282357
40
0.973305392883586
40
1
40
1
40
1
40
1
41
1
10
33.3165379060093
20
6.45610989695575
30
0
41
1
10
33.2756138754766
20
6.42545614040455
30
0
41
1
10
33.1922848072639
20
6.36166841215896
30
0
41
1
10
33.0630707160139
20
6.25850042999437
30
0
41
1
10
32.9298586683438
20
6.14780031366686
30
0
41
1
10
32.7929630889746
20
6.02962939925038
30
0
41
1
10
32.6526984026277
20
5.90404902281878
30
0
41
1
10
32.5333420072062
20
5.79337767769039
30
0
41
1
10
32.436578456199
20
5.70132009487273
30
0
41
1
10
32.3390441800317
20
5.60696798941748
30
0
41
1
10
32.240476163054
20
5.50925282276441
30
0
41
1
10
32.1411190991255
20
5.40833204043059
30
0
41
1
10
32.0413288158497
20
5.30534833886185
30
0
41
1
10
31.9410279214827
20
5.19938149526908
30
0
41
1
10
31.8404948518839
20
5.09065398330904
30
0
41
1
10
31.7399070700265
20
4.98017983993324
30
0
41
1
10
31.6393873266253
20
4.86722647067751
30
0
41
1
10
31.5392358353682
20
4.75207531802926
30
0
41
1
10
31.4394322823855
20
4.63556877377451
30
0
41
1
10
31.3403042920817
20
4.51719383809288
30
0
41
1
10
31.2421591749917
20
4.39727990295006
30
0
41
1
10
31.1447686657033
20
4.27646041859461
30
0
41
1
10
31.0486591066064
20
4.15446328606257
30
0
41
1
10
30.9541285746784
20
4.03164985663852
30
0
41
1
10
30.8607416297075
20
3.90841705156583
30
0
41
1
10
30.7692064184386
20
3.78474241643912
30
0
41
1
10
30.6797956474048
20
3.66100041809636
30
0
41
1
10
30.5918789593271
20
3.53733605002068
30
0
41
1
10
30.5063200798829
20
3.41397193596228
30
0
41
1
10
30.4233523774704
20
3.29127569315446
30
0
41
1
10
30.3421732281713
20
3.16913865774123
30
0
41
1
10
30.26376856118
20
3.04801137326115
30
0
41
1
10
30.1883216817729
20
2.9282357193967
30
0
41
1
10
30.1148890995701
20
2.80946135148844
30
0
41
1
10
30.0445416213962
20
2.69233921083298
30
0
41
1
10
29.9774065636956
20
2.57716989406757
30
0
41
1
10
29.9124363639489
20
2.46338509111561
30
0
41
1
10
29.8353263060005
20
2.32390498436365
30
0
41
1
10
29.7494980090679
20
2.16142607868281
30
0
41
1
10
29.6704038561462
20
2.0042228668143
30
0
41
1
10
29.5980742186415
20
1.85267382014882
30
0
41
1
10
29.5433811941418
20
1.73130997178271
30
0
41
1
10
29.5029425249388
20
1.63730423911434
30
0
41
1
10
29.4742720970655
20
1.56841052004077
30
0
41
1
10
29.447260942052
20
1.50119528881024
30
0
41
1
10
29.4260088000435
20
1.44630576578913
30
0
41
1
10
29.4096860346103
20
1.40290270705592
30
0
41
1
10
29.3938024764819
20
1.3597923302797
30
0
41
1
10
29.3747463709978
20
1.30636621704366
30
0
41
1
10
29.353075843034
20
1.2427157065425
30
0
41
1
10
29.3267899874528
20
1.16146109727234
30
0
41
1
10
29.3091362042497
20
1.10218955307675
30
0
41
1
10
29.2984733850127
20
1.06409429173763
30
0
0
SPLINE
5
1CC
100
AcDbEntity
8
1
62
256
6
ByLayer
370
-1
48
1
60
0
100
AcDbSpline
70
4
71
3
72
8
73
4
40
0
40
0
40
0
40
0
40
1
40
1
40
1
40
1
41
1
10
82.24371381988
20
2.3503109605214
30
0
41
1
10
82.4153104756953
20
2.30053241469381
30
0
41
1
10
82.5918102835419
20
2.26012034754646
30
0
41
1
10
82.7742156717985
20
2.22975688373467
30
0
0
SPLINE
5
1CD
100
AcDbEntity
8
1
62
256
6
ByLayer
370
-1
48
1
60
0
100
AcDbSpline
70
4
71
3
72
18
73
14
40
0
40
0
40
0
40
0
40
0.165824760554799
40
0.165824760554799
40
0.443883173703198
40
0.443883173703198
40
0.721941586851598
40
0.721941586851598
40
0.791456190138698
40
0.791456190138698
40
0.860970793425798
40
0.860970793425798
40
1
40
1
40
1
40
1
41
1
10
56.0030841714439
20
8.19997185439775
30
0
41
1
10
56.8603687051343
20
8.19997588801937
30
0
41
1
10
57.7160939684994
20
8.17807166338432
30
0
41
1
10
60.0052360164069
20
8.06135584546939
30
0
41
1
10
61.4378288362047
20
7.92732399069172
30
0
41
1
10
64.3093705596193
20
7.54328091235325
30
0
41
1
10
65.7481476931106
20
7.29323314574938
30
0
41
1
10
67.5553458053257
20
6.91198429474707
30
0
41
1
10
67.9174581918393
20
6.83226255319696
30
0
41
1
10
68.6410224699941
20
6.66654261855385
30
0
41
1
10
69.0025947976889
20
6.58052356240756
30
0
41
1
10
70.0869174602234
20
6.31336485472298
30
0
41
1
10
70.8092757646049
20
6.1231219803453
30
0
41
1
10
71.5317213872853
20
5.92178896101041
30
0
0
SPLINE
5
1CE
100
AcDbEntity
8
1
62
256
6
ByLayer
370
-1
48
1
60
0
100
AcDbSpline
70
4
71
3
72
8
73
4
40
0
40
0
40
0
40
0
40
1
40
1
40
1
40
1
41
1
10
33.3165379060093
20
6.45610989695575
30
0
41
1
10
35.0778470704157
20
5.19193233529319
30
0
41
1
10
36.804019050029
20
3.92483265502531
30
0
41
1
10
38.5165379060064
20
2.67512666090096
30
0
0
SPLINE
5
1CF
100
AcDbEntity
8
1
62
256
6
ByLayer
370
-1
48
1
60
0
100
AcDbSpline
70
4
71
3
72
8
73
4
40
0
40
0
40
0
40
0
40
1
40
1
40
1
40
1
41
1
10
83.6827738830776
20
2.16733302511852
30
0
41
1
10
83.707428214657
20
2.16233933251795
30
0
41
1
10
83.7316681861132
20
2.15741088251042
30
0
41
1
10
83.7554681734579
20
2.15252166222959
30
0
0
SPLINE
5
1D0
100
AcDbEntity
8
1
62
256
6
ByLayer
370
-1
48
1
60
0
100
AcDbSpline
70
4
71
3
72
12
73
8
40
0
40
0
40
0
40
0
40
0.513479072100216
40
0.513479072100216
40
0.770218608150326
40
0.770218608150326
40
1
40
1
40
1
40
1
41
1
10
86.9865713251072
20
5.20981436971704
30
0
41
1
10
87.0017909614303
20
5.06762055646718
30
0
41
1
10
87.0408706939717
20
4.92619070524347
30
0
41
1
10
87.1418935834585
20
4.7176259031188
30
0
41
1
10
87.1827000608557
20
4.64923566139902
30
0
41
1
10
87.272431521949
20
4.5264135319714
30
0
41
1
10
87.3202445793753
20
4.47078915723708
30
0
41
1
10
87.3742680989297
20
4.41811591148283
30
0
0
SPLINE
5
1D1
100
AcDbEntity
8
1
62
256
6
ByLayer
370
-1
48
1
60
0
100
AcDbSpline
70
4
71
3
72
8
73
4
40
0
40
0
40
0
40
0
40
1
40
1
40
1
40
1
41
1
10
86.9795647050038
20
5.33160745061417
30
0
41
1
10
86.9798838273578
20
5.29130431169932
30
0
41
1
10
86.9821994823365
20
5.25065956347112
30
0
41
1
10
86.9865713251072
20
5.20981436971704
30
0
0
SPLINE
5
1D2
100
AcDbEntity
8
1
62
256
6
ByLayer
370
-1
48
1
60
0
100
AcDbSpline
70
4
71
3
72
14
73
10
40
0
40
0
40
0
40
0
40
0.25
40
0.25
40
0.5
40
0.5
40
0.75
40
0.75
40
1
40
1
40
1
40
1
41
1
10
86.6720165583714
20
2.43893373944238
30
0
41
1
10
86.6427001057739
20
2.40978972209956
30
0
41
1
10
86.6134080093656
20
2.38347007269695
30
0
41
1
10
86.5559448543691
20
2.33599825512545
30
0
41
1
10
86.5277336887162
20
2.31483085726043
30
0
41
1
10
86.4745559076214
20
2.27809342616507
30
0
41
1
10
86.4499341600263
20
2.2627961867079
30
0
41
1
10
86.4113349987989
20
2.24111349007657
30
0
41
1
10
86.3979770962844
20
2.23500974523313
30
0
41
1
10
86.3937993914887
20
2.23500974523313
30
0
0
SPLINE
5
1D3
100
AcDbEntity
8
1
62
256
6
ByLayer
370
-1
48
1
60
0
100
AcDbSpline
70
4
71
3
72
20
73
16
40
0
40
0
40
0
40
0
40
0.150890475612804
40
0.150890475612804
40
0.301780951225607
40
0.301780951225607
40
0.452671426838411
40
0.452671426838411
40
0.603561902451214
40
0.603561902451214
40
0.754452378064018
40
0.754452378064018
40
0.905342853676821
40
0.905342853676821
40
1
40
1
40
1
40
1
41
1
10
38.5165379060093
20
2.67512666090022
30
0
41
1
10
38.2025631909587
20
2.52965446123682
30
0
41
1
10
37.8670610034115
20
2.31343106196482
30
0
41
1
10
37.1909186178705
20
1.76391845145022
30
0
41
1
10
36.8504265467137
20
1.43074962544998
30
0
41
1
10
36.2030815161743
20
0.685240160576853
30
0
41
1
10
35.896370374808
20
0.273062845230726
30
0
41
1
10
35.3515339410608
20
-0.583554541785134
30
0
41
1
10
35.1135280094822
20
-1.02780694880497
30
0
41
1
10
34.7332390671054
20
-1.89799179908647
30
0
41
1
10
34.5910393686382
20
-2.32373360538725
30
0
41
1
10
34.4186002816909
20
-3.10840057360935
30
0
41
1
10
34.3883986705445
20
-3.46715383351915
30
0
41
1
10
34.4331874077796
20
-3.96332592303503
30
0
41
1
10
34.4731650764165
20
-4.13335187990322
30
0
41
1
10
34.5346655647182
20
-4.27863208151075
30
0
0
SPLINE
5
1D4
100
AcDbEntity
8
1
62
256
6
ByLayer
370
-1
48
1
60
0
100
AcDbSpline
70
4
71
3
72
8
73
4
40
0
40
0
40
0
40
0
40
1
40
1
40
1
40
1
41
1
10
36.4075273920301
20
-5.35754381216557
30
0
41
1
10
36.4473244404812
20
-5.36826233958143
30
0
41
1
10
36.4872842238025
20
-5.37894383769182
30
0
41
1
10
36.5273813558737
20
-5.38959064729943
30
0
0
SPLINE
5
1D5
100
AcDbEntity
8
1
62
256
6
ByLayer
370
-1
48
1
60
0
100
AcDbSpline
70
4
71
3
72
10
73
6
40
0
40
0
40
0
40
0
40
0.5
40
0.5
40
1
40
1
40
1
40
1
41
1
10
35.2289222611765
20
-4.847664195373
30
0
41
1
10
35.4078701637314
20
-4.9637632292021
30
0
41
1
10
35.5954386749144
20
-5.06410690973075
30
0
41
1
10
35.9880576540043
20
-5.23418354916384
30
0
41
1
10
36.1934495868933
20
-5.30401279851489
30
0
41
1
10
36.40752739203
20
-5.35754381216557
30
0
0
SPLINE
5
1D6
100
AcDbEntity
8
1
62
256
6
ByLayer
370
-1
48
1
60
0
100
AcDbSpline
70
4
71
1
72
4
73
2
40
0
40
0
40
1
40
1
41
1
10
38.5165379060064
20
2.67512666090096
30
0
41
1
10
38.5165379060065
20
5.07408478266129
30
0
0
SPLINE
5
1D7
100
AcDbEntity
8
1
62
256
6
ByLayer
370
-1
48
1
60
0
100
AcDbSpline
70
4
71
3
72
28
73
24
40
0
40
0
40
0
40
0
40
0.124999999999996
40
0.124999999999996
40
0.249999999999993
40
0.249999999999993
40
0.312499999999992
40
0.312499999999992
40
0.374999999999992
40
0.374999999999992
40
0.499999999999993
40
0.499999999999993
40
0.562499999999994
40
0.562499999999994
40
0.624999999999995
40
0.624999999999995
40
0.749999999999996
40
0.749999999999996
40
0.812499999999997
40
0.812499999999997
40
0.874999999999998
40
0.874999999999998
40
1
40
1
40
1
40
1
41
1
10
33.3165379060067
20
7.56314689853727
30
0
41
1
10
33.1096332071199
20
7.68081202522168
30
0
41
1
10
32.899944910819
20
7.78590394949865
30
0
41
1
10
32.4745533627956
20
7.97020131393833
30
0
41
1
10
32.2588519811343
20
8.04941778844983
30
0
41
1
10
31.9300845476428
20
8.14679645110863
30
0
41
1
10
31.819218536014
20
8.17575223618985
30
0
41
1
10
31.5974916015079
20
8.22548743758614
30
0
41
1
10
31.4871762585781
20
8.24617469644659
30
0
41
1
10
31.157833311524
20
8.29553629022533
30
0
41
1
10
30.9403938354002
20
8.31158157531524
30
0
41
1
10
30.6175093011265
20
8.30851461414173
30
0
41
1
10
30.5104304655916
20
8.30295306479223
30
0
41
1
10
30.297435999117
20
8.28220444176199
30
0
41
1
10
30.1909078451401
20
8.26688131934549
30
0
41
1
10
29.8786567357677
20
8.20650454951104
30
0
41
1
10
29.6802783049919
20
8.14743801376648
30
0
41
1
10
29.3974997954877
20
8.03095440489568
30
0
41
1
10
29.3057163920131
20
7.98746174796045
30
0
41
1
10
29.1272619207482
20
7.89097824610548
30
0
41
1
10
29.0403439327038
20
7.83781529398101
30
0
41
1
10
28.7893317659569
20
7.66473452635023
30
0
41
1
10
28.6371400971086
20
7.53301626785546
30
0
41
1
10
28.5
20
7.38553847809081
30
0
0
SPLINE
5
1D8
100
AcDbEntity
8
1
62
256
6
ByLayer
370
-1
48
1
60
0
100
AcDbSpline
70
4
71
3
72
8
73
4
40
0
40
0
40
0
40
0
40
1
40
1
40
1
40
1
41
1
10
29.0359321218086
20
1.41175043963409
30
0
41
1
10
29.054490324745
20
1.38171619442019
30
0
41
1
10
29.0731273097879
20
1.35175193211833
30
0
41
1
10
29.0918376759939
20
1.32186142307066
30
0
0
SPLINE
5
1D9
100
AcDbEntity
8
1
62
256
6
ByLayer
370
-1
48
1
60
0
100
AcDbSpline
70
4
71
3
72
8
73
4
40
0
40
0
40
0
40
0
40
1
40
1
40
1
40
1
41
1
10
33.3165379060068
20
6.4561098969493
30
0
41
1
10
33.3165379060068
20
6.8251222308119
30
0
41
1
10
33.3165379060068
20
7.19413456467453
30
0
41
1
10
33.3165379060068
20
7.56314689853715
30
0
0
SPLINE
5
1DA
100
AcDbEntity
8
1
62
256
6
ByLayer
370
-1
48
1
60
0
100
AcDbSpline
70
4
71
3
72
8
73
4
40
0
40
0
40
0
40
0
40
1
40
1
40
1
40
1
41
1
10
81.2878135163887
20
1.39635177753027
30
0
41
1
10
81.2348157447999
20
1.41246061545803
30
0
41
1
10
81.1822085691747
20
1.42934207883693
30
0
41
1
10
81.1299708826778
20
1.44702619363508
30
0
0
SPLINE
5
1DB
100
AcDbEntity
8
1
62
256
6
ByLayer
370
-1
48
1
60
0
100
AcDbSpline
70
4
71
3
72
14
73
10
40
0
40
0
40
0
40
0
40
0.25
40
0.25
40
0.5
40
0.5
40
0.75
40
0.75
40
1
40
1
40
1
40
1
41
1
10
82.4925067826674
20
1.26513670530474
30
0
41
1
10
82.4058906429241
20
1.25511848273331
30
0
41
1
10
82.3140036282208
20
1.25021609290678
30
0
41
1
10
82.1227918120605
20
1.25062656063477
30
0
41
1
10
82.0234323860632
20
1.25594970818284
30
0
41
1
10
81.8189389138635
20
1.27737702917162
30
0
41
1
10
81.7133213988999
20
1.29361488854164
30
0
41
1
10
81.5014358009208
20
1.33684675794493
30
0
41
1
10
81.3947971853109
20
1.36383375777362
30
0
41
1
10
81.2878135163887
20
1.3963517775303
30
0
0
SPLINE
5
1DC
100
AcDbEntity
8
1
62
256
6
ByLayer
370
-1
48
1
60
0
100
AcDbSpline
70
4
71
4
72
10
73
5
40
0
40
0
40
0
40
0
40
0
40
1
40
1
40
1
40
1
40
1
41
0.98628104477159
10
78.703391513708
20
2.4963949251707
30
0
41
0.990521901879738
10
78.7378927986781
20
2.84863745196708
30
0
41
0.995634539099047
10
78.7601224438137
20
3.21471645809556
30
0
41
1
10
78.7699607448634
20
3.57811943345982
30
0
41
1
10
78.7699607448634
20
3.91999999999987
30
0
0
SPLINE
5
1DD
100
AcDbEntity
8
1
62
256
6
ByLayer
370
-1
48
1
60
0
100
AcDbSpline
70
4
71
3
72
8
73
4
40
0
40
0
40
0
40
0
40
1
40
1
40
1
40
1
41
1
10
28.0157853790298
20
3.59064780218606
30
0
41
1
10
28.1439922067342
20
3.24208803379668
30
0
41
1
10
28.3058394299923
20
2.90289625556392
30
0
41
1
10
28.5
20
2.57371338151302
30
0
0
SPLINE
5
1DE
100
AcDbEntity
8
1
62
256
6
ByLayer
370
-1
48
1
60
0
100
AcDbSpline
70
4
71
3
72
8
73
4
40
0
40
0
40
0
40
0
40
1
40
1
40
1
40
1
41
1
10
78.7699607448633
20
8.1322883766675
30
0
41
1
10
79.0797577468613
20
8.14132261970235
30
0
41
1
10
79.3730097050058
20
8.15484896599096
30
0
41
1
10
79.65036288992
20
8.16799115880238
30
0
0
SPLINE
5
1DF
100
AcDbEntity
8
1
62
256
6
ByLayer
370
-1
48
1
60
0
100
AcDbSpline
70
4
71
3
72
8
73
4
40
0
40
0
40
0
40
0
40
1
40
1
40
1
40
1
41
1
10
83.6827738830776
20
2.16733302511852
30
0
41
1
10
83.6933874921638
20
2.16763611689476
30
0
41
1
10
83.7040007032925
20
2.16797308654259
30
0
41
1
10
83.7146135173143
20
2.16834395440409
30
0
0
SPLINE
5
1E0
100
AcDbEntity
8
1
62
256
6
ByLayer
370
-1
48
1
60
0
100
AcDbSpline
70
4
71
3
72
12
73
8
40
0
40
0
40
0
40
0
40
0.5
40
0.5
40
0.75
40
0.75
40
1
40
1
40
1
40
1
41
1
10
33.7359321218087
20
-3.46345327693936
30
0
41
1
10
33.9261619712016
20
-3.68072186452201
30
0
41
1
10
34.149798174812
20
-3.90167915834334
30
0
41
1
10
34.5277278390162
20
-4.24923534122377
30
0
41
1
10
34.6616609365172
20
-4.36830398813765
30
0
41
1
10
34.9384639742017
20
-4.60729813520589
30
0
41
1
10
35.0814682575901
20
-4.72738567506835
30
0
41
1
10
35.2289229223263
20
-4.84766122378122
30
0
0
SPLINE
5
1E1
100
AcDbEntity
8
1
62
256
6
ByLayer
370
-1
48
1
60
0
100
AcDbSpline
70
4
71
3
72
16
73
12
40
0
40
0
40
0
40
0
40
0.25
40
0.25
40
0.5
40
0.5
40
0.75
40
0.75
40
0.875
40
0.875
40
1
40
1
40
1
40
1
41
1
10
80.0795388146897
20
3.9199999999999
30
0
41
1
10
80.0307094666703
20
3.99697208780626
30
0
41
1
10
79.982431718021
20
4.07516765210551
30
0
41
1
10
79.889070470693
20
4.23543025139227
30
0
41
1
10
79.8439101746969
20
4.31744112323779
30
0
41
1
10
79.7611413740394
20
4.48841126382604
30
0
41
1
10
79.7238796165656
20
4.57642103366103
30
0
41
1
10
79.6821220581033
20
4.71500948241376
30
0
41
1
10
79.670556701954
20
4.76271827491465
30
0
41
1
10
79.6546765938282
20
4.85939995495755
30
0
41
1
10
79.65036288992
20
4.90824259141715
30
0
41
1
10
79.65036288992
20
4.95767817790741
30
0
0
SPLINE
5
1E2
100
AcDbEntity
8
1
62
256
6
ByLayer
370
-1
48
1
60
0
100
AcDbSpline
70
4
71
3
72
8
73
4
40
0
40
0
40
0
40
0
40
1
40
1
40
1
40
1
41
1
10
28.5
20
2.57371338151302
30
0
41
1
10
28.5572325386225
20
2.47668043835554
30
0
41
1
10
28.6166537047893
20
2.38107468647419
30
0
41
1
10
28.6781113171439
20
2.28678283867606
30
0
0
SPLINE
5
1E3
100
AcDbEntity
8
1
62
256
6
ByLayer
370
-1
48
1
60
0
100
AcDbSpline
70
4
71
3
72
30
73
26
40
0
40
0
40
0
40
0
40
0.0382439302758718
40
0.0948178167302322
40
0.151391703184593
40
0.207965589638953
40
0.264539476093314
40
0.321113362547674
40
0.377687249002035
40
0.434261135456395
40
0.490835021910755
40
0.547408908365116
40
0.575695851592296
40
0.603982794819477
40
0.632269738046657
40
0.660556681273837
40
0.688843624501017
40
0.717130567728198
40
0.773704454182558
40
0.830278340636919
40
0.858565283864099
40
0.886852227091279
40
0.900995698704869
40
0.94342611354564
40
1
40
1
40
1
40
1
41
1
10
50.1978538330967
20
0.748891298708855
30
0
41
1
10
50.0489833876756
20
0.776780955989722
30
0
41
1
10
49.6798809082828
20
0.845860202514871
30
0
41
1
10
49.0905297897655
20
0.955596645977863
30
0
41
1
10
48.4298881179012
20
1.07758870827743
30
0
41
1
10
47.7694344349549
20
1.19731470673838
30
0
41
1
10
47.1089263628925
20
1.31454149712627
30
0
41
1
10
46.4477108422294
20
1.42990791645172
30
0
41
1
10
45.7855317785172
20
1.54442482818004
30
0
41
1
10
45.1230239350767
20
1.65830986295319
30
0
41
1
10
44.4613591931259
20
1.77097544189303
30
0
41
1
10
43.911124419604
20
1.86303716198202
30
0
41
1
10
43.4714722742472
20
1.93515379055688
30
0
41
1
10
43.1416451082942
20
1.98853111496288
30
0
41
1
10
42.8114387868616
20
2.04132040401939
30
0
41
1
10
42.4806309571507
20
2.09367631382148
30
0
41
1
10
42.1495398502448
20
2.14564363239234
30
0
41
1
10
41.7083383478868
20
2.21416839619425
30
0
41
1
10
41.1572786323634
20
2.29841316936805
30
0
41
1
10
40.6070086588955
20
2.38056754427097
30
0
41
1
10
40.1672320840513
20
2.44481679808058
30
0
41
1
10
39.8925619243356
20
2.48430783657415
30
0
41
1
10
39.5629514268547
20
2.53109454612348
30
0
41
1
10
39.1229499948493
20
2.59258493442908
30
0
41
1
10
38.7372157204741
20
2.64531511168701
30
0
41
1
10
38.5165379060093
20
2.67512666090019
30
0
0
SPLINE
5
1E4
100
AcDbEntity
8
1
62
256
6
ByLayer
370
-1
48
1
60
0
100
AcDbSpline
70
4
71
3
72
8
73
4
40
0
40
0
40
0
40
0
40
1
40
1
40
1
40
1
41
1
10
37
20
5.69772650800044
30
0
41
1
10
37.5178309219555
20
5.51526770672072
30
0
41
1
10
38.0222187514385
20
5.30726659958682
30
0
41
1
10
38.5165379060065
20
5.07408478266129
30
0
0
SPLINE
5
1E5
100
AcDbEntity
8
1
62
256
6
ByLayer
370
-1
48
1
60
0
100
AcDbSpline
70
4
71
3
72
8
73
4
40
0
40
0
40
0
40
0
40
1
40
1
40
1
40
1
41
1
10
83.5608012873262
20
1.48282695076907
30
0
41
1
10
83.2070735035601
20
1.37769981877867
30
0
41
1
10
82.8468285922393
20
1.30611838332379
30
0
41
1
10
82.4925067826675
20
1.26513670530477
30
0
0
SPLINE
5
1E6
100
AcDbEntity
8
1
62
256
6
ByLayer
370
-1
48
1
60
0
100
AcDbSpline
70
4
71
3
72
12
73
8
40
0
40
0
40
0
40
0
40
0.250000000000005
40
0.250000000000005
40
0.50000000000001
40
0.50000000000001
40
1
40
1
40
1
40
1
41
1
10
73.1320628857934
20
5.35969293145311
30
0
41
1
10
73.0012283994745
20
5.40159125578228
30
0
41
1
10
72.8685386711377
20
5.4452604330516
30
0
41
1
10
72.6028318207873
20
5.5348438893904
30
0
41
1
10
72.4696390034368
20
5.58080794588014
30
0
41
1
10
72.0691453191051
20
5.72186151033551
30
0
41
1
10
71.800933261233
20
5.82009845352289
30
0
41
1
10
71.5317213872853
20
5.92178896101041
30
0
0
SPLINE
5
1E7
100
AcDbEntity
8
1
62
256
6
ByLayer
370
-1
48
1
60
0
100
AcDbSpline
70
4
71
3
72
20
73
16
40
0
40
0
40
0
40
0
40
0.249999999999999
40
0.249999999999999
40
0.374999999999998
40
0.374999999999998
40
0.499999999999998
40
0.499999999999998
40
0.624999999999997
40
0.624999999999997
40
0.687499999999997
40
0.687499999999997
40
0.749999999999996
40
0.749999999999996
40
1
40
1
40
1
40
1
41
1
10
37
20
5.69772650800044
30
0
41
1
10
36.6837242373606
20
5.80916693011179
30
0
41
1
10
36.3656266740424
20
5.92809987042429
30
0
41
1
10
35.8884264399614
20
6.12500657349099
30
0
41
1
10
35.729360072723
20
6.19375252097413
30
0
41
1
10
35.4118039335343
20
6.33903387734546
30
0
41
1
10
35.2524930190193
20
6.41601180012063
30
0
41
1
10
34.9405183552975
20
6.57676707240725
30
0
41
1
10
34.7876502457604
20
6.66058483372572
30
0
41
1
10
34.5634560733743
20
6.79234304701336
30
0
41
1
10
34.4895765446297
20
6.83726824489182
30
0
41
1
10
34.3436011544088
20
6.92928453174306
30
0
41
1
10
34.271698113817
20
6.97662463487003
30
0
41
1
10
33.9099640985241
20
7.21031652672798
30
0
41
1
10
33.6161093890545
20
7.39093944177301
30
0
41
1
10
33.3165379060088
20
7.56314689854131
30
0
0
SPLINE
5
1E8
100
AcDbEntity
8
1
62
256
6
ByLayer
370
-1
48
1
60
0
100
AcDbSpline
70
4
71
4
72
10
73
5
40
0
40
0
40
0
40
0
40
0
40
1
40
1
40
1
40
1
40
1
41
1
10
78.7699607448634
20
3.91999999999987
30
0
41
1
10
78.7699607448808
20
4.97307209416707
30
0
41
1
10
78.7699607448918
20
6.02614418833428
30
0
41
1
10
78.7699607448986
20
7.07921628250148
30
0
41
1
10
78.7699607449029
20
8.13228837666867
30
0
0
SPLINE
5
1E9
100
AcDbEntity
8
1
62
256
6
ByLayer
370
-1
48
1
60
0
100
AcDbSpline
70
4
71
3
72
10
73
6
40
0
40
0
40
0
40
0
40
0.5
40
0.5
40
1
40
1
40
1
40
1
41
1
10
29.0359321218086
20
0.958870550930357
30
0
41
1
10
28.9559155647177
20
1.17792440981287
30
0
41
1
10
28.8879804412673
20
1.39850029426358
30
0
41
1
10
28.7703331979219
20
1.84148364614862
30
0
41
1
10
28.720663431919
20
2.06389846265734
30
0
41
1
10
28.6781113171439
20
2.28678283867603
30
0
0
SPLINE
5
1EA
100
AcDbEntity
8
1
62
256
6
ByLayer
370
-1
48
1
60
0
100
AcDbSpline
70
4
71
3
72
24
73
20
40
0
40
0
40
0
40
0
40
0.12500000000001
40
0.12500000000001
40
0.1875
40
0.1875
40
0.24999999999999
40
0.24999999999999
40
0.374999999999992
40
0.374999999999992
40
0.437499999999992
40
0.437499999999992
40
0.499999999999993
40
0.499999999999993
40
0.624999999999999
40
0.624999999999999
40
0.750000000000005
40
0.750000000000005
40
1
40
1
40
1
40
1
41
1
10
81.6600119108616
20
3.45983045345628
30
0
41
1
10
81.6145644140403
20
3.44379470204461
30
0
41
1
10
81.5704573490313
20
3.42398435106713
30
0
41
1
10
81.5090780348581
20
3.38566502711191
30
0
41
1
10
81.4897714736514
20
3.37164922346051
30
0
41
1
10
81.4539652395841
20
3.34060894110237
30
0
41
1
10
81.4372701991811
20
3.32332291105874
30
0
41
1
10
81.3940909776803
20
3.26785684585354
30
0
41
1
10
81.3746948244021
20
3.22566036903231
30
0
41
1
10
81.3612289859993
20
3.16212334205198
30
0
41
1
10
81.3591668289116
20
3.14060878455638
30
0
41
1
10
81.3591416638388
20
3.09884140008657
30
0
41
1
10
81.3611111649521
20
3.0784267806313
30
0
41
1
10
81.3716695610235
20
3.0183172339151
30
0
41
1
10
81.3849018565704
20
2.97995758296992
30
0
41
1
10
81.418149683297
20
2.90828508690603
30
0
41
1
10
81.4383429621313
20
2.87445781516027
30
0
41
1
10
81.506526629616
20
2.77728372475326
30
0
41
1
10
81.5608589454699
20
2.71964179731268
30
0
41
1
10
81.6202787088833
20
2.6664256168722
30
0
0
SPLINE
5
1EB
100
AcDbEntity
8
1
62
256
6
ByLayer
370
-1
48
1
60
0
100
AcDbSpline
70
4
71
3
72
22
73
18
40
0
40
0
40
0
40
0
40
0.125
40
0.125
40
0.25
40
0.25
40
0.375
40
0.375
40
0.5
40
0.5
40
0.625
40
0.625
40
0.75
40
0.75
40
0.875
40
0.875
40
1
40
1
40
1
40
1
41
1
10
28.0157853790298
20
3.59064780218606
30
0
41
1
10
27.9660643824253
20
3.72582577492662
30
0
41
1
10
27.9227050117469
20
3.8627928347241
30
0
41
1
10
27.8472721325672
20
4.13796381354709
30
0
41
1
10
27.8152189391638
20
4.27619264365543
30
0
41
1
10
27.7622668976323
20
4.55239197853223
30
0
41
1
10
27.74137059108
20
4.69036640637336
30
0
41
1
10
27.7115253781738
20
4.96491597334563
30
0
41
1
10
27.7026053045441
20
5.10235149987264
30
0
41
1
10
27.698386955846
20
5.3689953809654
30
0
41
1
10
27.7029772397065
20
5.49852108057229
30
0
41
1
10
27.7262150594506
20
5.75039361071632
30
0
41
1
10
27.7448710571666
20
5.872740528908
30
0
41
1
10
27.797049033347
20
6.11202650693454
30
0
41
1
10
27.8307606587693
20
6.22939927786899
30
0
41
1
10
27.9126010972142
20
6.4588995292219
30
0
41
1
10
27.9606973098932
20
6.5711980957407
30
0
41
1
10
28.0157853790292
20
6.68351807984681
30
0
0
SPLINE
5
1EC
100
AcDbEntity
8
1
62
256
6
ByLayer
370
-1
48
1
60
0
100
AcDbSpline
70
4
71
3
72
10
73
6
40
0
40
0
40
0
40
0
40
0.5
40
0.5
40
1
40
1
40
1
40
1
41
1
10
30.1151101941393
20
0.0077137934160021
30
0
41
1
10
30.7225260662345
20
-0.572894949228299
30
0
41
1
10
31.3301839743531
20
-1.15297932284383
30
0
41
1
10
32.5391258409062
20
-2.31093566504686
30
0
41
1
10
33.1403715256365
20
-2.88881888805415
30
0
41
1
10
33.7359321218087
20
-3.46345327693933
30
0
0
SPLINE
5
1ED
100
AcDbEntity
8
1
62
256
6
ByLayer
370
-1
48
1
60
0
100
AcDbSpline
70
4
71
3
72
46
73
42
40
0
40
0
40
0
40
0
40
0.0625000000000001
40
0.0625000000000001
40
0.125
40
0.125
40
0.15625
40
0.15625
40
0.1875
40
0.1875
40
0.21875
40
0.21875
40
0.250000000000001
40
0.250000000000001
40
0.3125
40
0.3125
40
0.34375
40
0.34375
40
0.375
40
0.375
40
0.5
40
0.5
40
0.531250000000001
40
0.531250000000001
40
0.562500000000001
40
0.562500000000001
40
0.625000000000001
40
0.625000000000001
40
0.687500000000001
40
0.687500000000001
40
0.75
40
0.75
40
0.8125
40
0.8125
40
0.875
40
0.875
40
0.9375
40
0.9375
40
0.96875
40
0.96875
40
1
40
1
40
1
40
1
41
1
10
38.5165379060069
20
5.07408478266117
30
0
41
1
10
39.3997923617202
20
4.7937659657384
30
0
41
1
10
40.2816284282198
20
4.49968109459942
30
0
41
1
10
42.0444526553192
20
3.88829331406427
30
0
41
1
10
42.9258766882541
20
3.57198267402015
30
0
41
1
10
44.2477838122225
20
3.08094918514746
30
0
41
1
10
44.6884574960994
20
2.91466425025496
30
0
41
1
10
45.570671934687
20
2.57872085050732
30
0
41
1
10
46.0124617525004
20
2.40903472070724
30
0
41
1
10
46.8958774751824
20
2.06708528911218
30
0
41
1
10
47.3372814530508
20
1.89476994980117
30
0
41
1
10
48.2190360698075
20
1.54636391774102
30
0
41
1
10
48.6593544198391
20
1.37019097853039
30
0
41
1
10
49.9797497269797
20
0.838471922763262
30
0
41
1
10
50.8594244733239
20
0.480105444767901
30
0
41
1
10
52.1812554391589
20
-0.0553028266234605
30
0
41
1
10
52.6222341556084
20
-0.233456760392102
30
0
41
1
10
53.5050543649219
20
-0.588806350903837
30
0
41
1
10
53.9470733128295
20
-0.766168772614094
30
0
41
1
10
56.1545713208646
20
-1.64927971417907
30
0
41
1
10
57.9152481830991
20
-2.34383556810425
30
0
41
1
10
60.1191658976223
20
-3.17333269567337
30
0
41
1
10
60.5600609821687
20
-3.33739567889279
30
0
41
1
10
61.4424931848143
20
-3.66085517718889
30
0
41
1
10
61.8840187246005
20
-3.82013590972988
30
0
41
1
10
63.2072183500398
20
-4.28841288818882
30
0
41
1
10
64.088363506352
20
-4.58853079159277
30
0
41
1
10
65.8512574554782
20
-5.15964957645085
30
0
41
1
10
66.7329163072332
20
-5.43089602803383
30
0
41
1
10
68.4972126520202
20
-5.9435386127102
30
0
41
1
10
69.380952062141
20
-6.18500634389801
30
0
41
1
10
71.1438719641143
20
-6.62904215685464
30
0
41
1
10
72.0237339089174
20
-6.83219863061376
30
0
41
1
10
73.7813880258349
20
-7.19949500981835
30
0
41
1
10
74.6595708678017
20
-7.36314274087187
30
0
41
1
10
76.41539436608
20
-7.64933043745722
30
0
41
1
10
77.2934035968892
20
-7.77137295799346
30
0
41
1
10
78.6130253997273
20
-7.92079634624076
30
0
41
1
10
79.0531836434907
20
-7.96512814182998
30
0
41
1
10
79.9341106416134
20
-8.04267796196885
30
0
41
1
10
80.3748961181228
20
-8.0758594812655
30
0
41
1
10
80.8165379059968
20
-8.10318926416849
30
0
0
SPLINE
5
1EE
100
AcDbEntity
8
1
62
256
6
ByLayer
370
-1
48
1
60
0
100
AcDbSpline
70
4
71
3
72
10
73
6
40
0
40
0
40
0
40
0
40
0.5
40
0.5
40
1
40
1
40
1
40
1
41
1
10
84.5871829093475
20
5.41157561225055
30
0
41
1
10
84.5905976318988
20
5.41157561225055
30
0
41
1
10
84.5975651112343
20
5.41589711040243
30
0
41
1
10
84.6179651879932
20
5.43182895687016
30
0
41
1
10
84.6314588050599
20
5.44348811567201
30
0
41
1
10
84.6475033828896
20
5.45748165329536
30
0
0
SPLINE
5
1EF
100
AcDbEntity
8
1
62
256
6
ByLayer
370
-1
48
1
60
0
100
AcDbSpline
70
4
71
2
72
6
73
3
40
0
40
0
40
0
40
1
40
1
40
1
41
1
10
29.0359321218085
20
1.41175044002497
30
0
41
1
10
29.0359321218086
20
1.18531049547772
30
0
41
1
10
29.0359321218086
20
0.958870550930499
30
0
0
SPLINE
5
1F0
100
AcDbEntity
8
1
62
256
6
ByLayer
370
-1
48
1
60
0
100
AcDbSpline
70
4
71
3
72
16
73
12
40
0
40
0
40
0
40
0
40
0.125000000000001
40
0.125000000000001
40
0.250000000000002
40
0.250000000000002
40
0.500000000000001
40
0.500000000000001
40
0.750000000000001
40
0.750000000000001
40
1
40
1
40
1
40
1
41
1
10
10.5386751345948
20
30.0805927603169
30
0
41
1
10
10.5071959726827
20
30.0805927603169
30
0
41
1
10
10.4765695733598
20
30.078685990659
30
0
41
1
10
10.4184736929998
20
30.0717959485601
30
0
41
1
10
10.3920418953325
20
30.0669872793662
30
0
41
1
10
10.3182367311259
20
30.049647240705
30
0
41
1
10
10.2791703657593
20
30.0350452819075
30
0
41
1
10
10.2125137122669
20
30.0032932993815
30
0
41
1
10
10.1857347330744
20
29.9863830332716
30
0
41
1
10
10.1400559187761
20
29.9511519005795
30
0
41
1
10
10.1212556944726
20
29.9327613369588
30
0
41
1
10
10.1056624327026
20
29.9139548464691
30
0
0
SPLINE
5
1F1
100
AcDbEntity
8
1
62
256
6
ByLayer
370
-1
48
1
60
0
100
AcDbSpline
70
4
71
3
72
8
73
4
40
0
40
0
40
0
40
0
40
1
40
1
40
1
40
1
41
1
10
83.7984298991117
20
-8.19793794169004
30
0
41
1
10
83.8130287336709
20
-8.19803404818873
30
0
41
1
10
83.8276059737294
20
-8.19812846176902
30
0
41
1
10
83.8421604838084
20
-8.19822082084855
30
0
0
SPLINE
5
1F2
100
AcDbEntity
8
1
62
256
6
ByLayer
370
-1
48
1
60
0
100
AcDbSpline
70
4
71
3
72
22
73
18
40
0
40
0
40
0
40
0
40
0.25
40
0.25
40
0.312500000000001
40
0.312500000000001
40
0.375000000000001
40
0.375000000000001
40
0.500000000000001
40
0.500000000000001
40
0.625000000000001
40
0.625000000000001
40
0.6875
40
0.6875
40
0.75
40
0.75
40
1
40
1
40
1
40
1
41
1
10
29.0359321218086
20
0.95887055093047
30
0
41
1
10
29.3661467857938
20
0.330336091318912
30
0
41
1
10
29.7148351767463
20
-0.279466439681869
30
0
41
1
10
30.1780387410696
20
-1.01594448377171
30
0
41
1
10
30.272327455017
20
-1.16232250479081
30
0
41
1
10
30.4625973460605
20
-1.45039766947988
30
0
41
1
10
30.5583342106326
20
-1.59174652298157
30
0
41
1
10
30.8475187775642
20
-2.00780285556422
30
0
41
1
10
31.0429324937335
20
-2.27454193035808
30
0
41
1
10
31.4400826236033
20
-2.78660301940232
30
0
41
1
10
31.6418165507112
20
-3.03192493172824
30
0
41
1
10
31.9501762677863
20
-3.38320237538812
30
0
41
1
10
32.0542208155534
20
-3.49780637903842
30
0
41
1
10
32.2622181152021
20
-3.71895067437492
30
0
41
1
10
32.3663197411276
20
-3.82568421022393
30
0
41
1
10
32.887746031264
20
-4.34053631246536
30
0
41
1
10
33.3078041821631
20
-4.69270462489121
30
0
41
1
10
33.7359321218087
20
-4.98570786770668
30
0
0
SPLINE
5
1F3
100
AcDbEntity
8
1
62
256
6
ByLayer
370
-1
48
1
60
0
100
AcDbSpline
70
4
71
3
72
12
73
8
40
0
40
0
40
0
40
0
40
0.5
40
0.5
40
0.75
40
0.75
40
1
40
1
40
1
40
1
41
1
10
30.1151100593038
20
0.0077133697721194
30
0
41
1
10
29.9323265276979
20
0.191916734599431
30
0
41
1
10
29.7560596453485
20
0.394315821844174
30
0
41
1
10
29.4996703178612
20
0.723984259070448
30
0
41
1
10
29.4154564273856
20
0.83840854318575
30
0
41
1
10
29.250061898962
20
1.07574242853931
30
0
41
1
10
29.1697795212213
20
1.19734641335268
30
0
41
1
10
29.0918376759917
20
1.32186142307407
30
0
0
SPLINE
5
1F4
100
AcDbEntity
8
1
62
256
6
ByLayer
370
-1
48
1
60
0
100
AcDbSpline
70
4
71
3
72
74
73
70
40
-0.0312499999999986
40
-0.0312499999999986
40
0
40
0
40
0.0312500000000021
40
0.0312500000000021
40
0.0468750000000028
40
0.0468750000000028
40
0.0625000000000035
40
0.0625000000000035
40
0.0937500000000066
40
0.0937500000000066
40
0.12500000000001
40
0.12500000000001
40
0.156250000000013
40
0.156250000000013
40
0.187500000000016
40
0.187500000000016
40
0.218750000000019
40
0.218750000000019
40
0.250000000000022
40
0.250000000000022
40
0.281250000000025
40
0.281250000000025
40
0.312500000000028
40
0.312500000000028
40
0.32812500000003
40
0.32812500000003
40
0.343750000000031
40
0.343750000000031
40
0.37500000000003
40
0.37500000000003
40
0.406250000000028
40
0.406250000000028
40
0.437500000000027
40
0.437500000000027
40
0.468750000000025
40
0.468750000000025
40
0.500000000000024
40
0.500000000000024
40
0.531250000000022
40
0.531250000000022
40
0.562500000000021
40
0.562500000000021
40
0.593750000000019
40
0.593750000000019
40
0.625000000000018
40
0.625000000000018
40
0.656250000000016
40
0.656250000000016
40
0.687500000000015
40
0.687500000000015
40
0.718750000000013
40
0.718750000000013
40
0.750000000000012
40
0.750000000000012
40
0.78125000000001
40
0.78125000000001
40
0.812500000000009
40
0.812500000000009
40
0.843750000000007
40
0.843750000000007
40
0.875000000000006
40
0.875000000000006
40
0.906250000000004
40
0.906250000000004
40
0.937500000000003
40
0.937500000000003
40
0.968750000000001
40
0.968750000000001
40
1
40
1
40
1.03125
40
1.03125
41
1
10
86.5339516219347
20
-1.61285638549373
30
0
41
1
10
86.5257780393162
20
-1.45476253274074
30
0
41
1
10
86.5292828968642
20
-1.37637563729402
30
0
41
1
10
86.5457154784037
20
-1.25978000436479
30
0
41
1
10
86.5530684193588
20
-1.22108033913159
30
0
41
1
10
86.571648545775
20
-1.14402903435479
30
0
41
1
10
86.5829427686324
20
-1.10553907267183
30
0
41
1
10
86.6220360181541
20
-0.993077592376437
30
0
41
1
10
86.6551160857277
20
-0.921351591364328
30
0
41
1
10
86.7353649453115
20
-0.78448375064923
30
0
41
1
10
86.783078713496
20
-0.718942544552618
30
0
41
1
10
86.8889665301803
20
-0.600412150356078
30
0
41
1
10
86.9474342762498
20
-0.546685481582784
30
0
41
1
10
87.0757001948863
20
-0.450645704787945
30
0
41
1
10
87.1447470212221
20
-0.409092752746716
30
0
41
1
10
87.2883658574869
20
-0.341076077344468
30
0
41
1
10
87.3641130527126
20
-0.314022416499512
30
0
41
1
10
87.5199622420978
20
-0.275594266847719
30
0
41
1
10
87.5987076503862
20
-0.264419373167215
30
0
41
1
10
87.757800200143
20
-0.257763870989805
30
0
41
1
10
87.8389335208703
20
-0.26251924035526
30
0
41
1
10
87.9963235515185
20
-0.287775954678295
30
0
41
1
10
88.0731702574152
20
-0.308100554957889
30
0
41
1
10
88.1856267066674
20
-0.350293315683615
30
0
41
1
10
88.2227496425808
20
-0.366400808411243
30
0
41
1
10
88.2944120464904
20
-0.401876600908111
30
0
41
1
10
88.32914931702
20
-0.421304830727564
30
0
41
1
10
88.4301416772414
20
-0.484557931159543
30
0
41
1
10
88.4935333462217
20
-0.533615165259818
30
0
41
1
10
88.6099572819514
20
-0.644156400713683
30
0
41
1
10
88.661763995123
20
-0.7043501977777
30
0
41
1
10
88.7530311515407
20
-0.83416633651288
30
0
41
1
10
88.7927588834836
20
-0.90461397688199
30
0
41
1
10
88.8566959553768
20
-1.04975355012726
30
0
41
1
10
88.8812907165585
20
-1.12469612641499
30
0
41
1
10
88.9158964039013
20
-1.27921679831815
30
0
41
1
10
88.9256425072349
20
-1.35848403222573
30
0
41
1
10
88.9298915162853
20
-1.5150258019828
30
0
41
1
10
88.9245937538699
20
-1.59319275528426
30
0
41
1
10
88.8989221628457
20
-1.74884441011949
30
0
41
1
10
88.8789363265362
20
-1.82409113809516
30
0
41
1
10
88.8253403295101
20
-1.96973394650016
30
0
41
1
10
88.7913125039785
20
-2.04077470074441
30
0
41
1
10
88.7108031024068
20
-2.17441793528082
30
0
41
1
10
88.6647063554508
20
-2.2367113304885
30
0
41
1
10
88.5607586502847
20
-2.3523619510149
30
0
41
1
10
88.502174795901
20
-2.40616940428734
30
0
41
1
10
88.3770116017964
20
-2.50027868576834
30
0
41
1
10
88.3102577381266
20
-2.54102288522805
30
0
41
1
10
88.1679939196533
20
-2.60947238306463
30
0
41
1
10
88.0920963396085
20
-2.63705119642344
30
0
41
1
10
87.9385420711664
20
-2.67576934556627
30
0
41
1
10
87.8600243487583
20
-2.68741919075285
30
0
41
1
10
87.699305129857
20
-2.69447851098033
30
0
41
1
10
87.6192656411189
20
-2.68969961004135
30
0
41
1
10
87.4624494859727
20
-2.6643287307422
30
0
41
1
10
87.3843667995694
20
-2.64336306931406
30
0
41
1
10
87.235960717233
20
-2.58694160744227
30
0
41
1
10
87.1655200466254
20
-2.55170973737882
30
0
41
1
10
87.0318779882357
20
-2.46755079481136
30
0
41
1
10
86.9692666114494
20
-2.41879545261764
30
0
41
1
10
86.8559885964393
20
-2.31166595805686
30
0
41
1
10
86.8043991896398
20
-2.25252037933316
30
0
41
1
10
86.713181891973
20
-2.12509669257204
30
0
41
1
10
86.6742621289029
20
-2.05796583686694
30
0
41
1
10
86.6092793437234
20
-1.91699456088077
30
0
41
1
10
86.5830870050602
20
-1.84243823956467
30
0
41
1
10
86.5455189131277
20
-1.69038840007573
30
0
41
1
10
86.5339516219347
20
-1.61285638549373
30
0
41
1
10
86.5257780393162
20
-1.45476253274074
30
0
0
SPLINE
5
1F5
100
AcDbEntity
8
1
62
256
6
ByLayer
370
-1
48
1
60
0
100
AcDbSpline
70
4
71
3
72
14
73
10
40
0
40
0
40
0
40
0
40
0.246893288078024
40
0.246893288078024
40
0.497928858718683
40
0.497928858718683
40
0.748964429359341
40
0.748964429359341
40
1
40
1
40
1
40
1
41
1
10
68.6710832770245
20
6.64408253771865
30
0
41
1
10
69.5045373639692
20
6.84131994204898
30
0
41
1
10
70.3365716433103
20
7.02126054189165
30
0
41
1
10
72.0124009367052
20
7.3475773801853
30
0
41
1
10
72.8559304584597
20
7.49372558138407
30
0
41
1
10
74.543349891664
20
7.74592259288133
30
0
41
1
10
75.3875585517864
20
7.85181678272119
30
0
41
1
10
77.0771548511111
20
8.02309976792574
30
0
41
1
10
77.9223998112106
20
8.08840418246976
30
0
41
1
10
78.7699607449029
20
8.13228837666867
30
0
0
SPLINE
5
1F6
100
AcDbEntity
8
1
62
256
6
ByLayer
370
-1
48
1
60
0
100
AcDbSpline
70
4
71
3
72
34
73
30
40
0
40
0
40
0
40
0
40
0.0332990591798257
40
0.0332990591798257
40
0.102349126381267
40
0.102349126381267
40
0.171399193582709
40
0.171399193582709
40
0.24044926078415
40
0.24044926078415
40
0.309499327985591
40
0.309499327985591
40
0.447599462388472
40
0.447599462388472
40
0.516649529589914
40
0.516649529589914
40
0.585699596791354
40
0.585699596791354
40
0.654749663992795
40
0.654749663992795
40
0.723799731194236
40
0.723799731194236
40
0.792849798395677
40
0.792849798395677
40
0.861899865597118
40
0.861899865597118
40
0.930949932798559
40
0.930949932798559
40
1
40
1
40
1
40
1
41
1
10
67.5482995462945
20
-5.67383532391997
30
0
41
1
10
67.2040754649038
20
-5.76106456874223
30
0
41
1
10
66.8599281969345
20
-5.84583079483926
30
0
41
1
10
65.8022345073526
20
-6.09855385073416
30
0
41
1
10
65.0888078016384
20
-6.25795166311252
30
0
41
1
10
63.6612548085831
20
-6.55391096677496
30
0
41
1
10
62.9471334679472
20
-6.6905685728785
30
0
41
1
10
61.5172901997467
20
-6.93914964458105
30
0
41
1
10
60.8022788547589
20
-7.05103932228289
30
0
41
1
10
59.3743776813179
20
-7.2473196409822
30
0
41
1
10
58.660960742477
20
-7.33216352187526
30
0
41
1
10
56.5208819631242
20
-7.54336819583111
30
0
41
1
10
55.0939806123552
20
-7.62768339122974
30
0
41
1
10
52.9484539616091
20
-7.66842024327798
30
0
41
1
10
52.2342313626023
20
-7.6676853377883
30
0
41
1
10
50.8067148971139
20
-7.63748369928317
30
0
41
1
10
50.0933490791726
20
-7.60849373796751
30
0
41
1
10
48.666350545632
20
-7.52553022555767
30
0
41
1
10
47.9527539271039
20
-7.47149871919714
30
0
41
1
10
46.5247347494831
20
-7.33553804682512
30
0
41
1
10
45.8101211088723
20
-7.25295096997593
30
0
41
1
10
44.3799236270329
20
-7.05531495520452
30
0
41
1
10
43.6658853950722
20
-6.94248954539609
30
0
41
1
10
42.2382151993629
20
-6.69637547801489
30
0
41
1
10
41.5248279370653
20
-6.56152466292949
30
0
41
1
10
40.0983222355099
20
-6.26481389292471
30
0
41
1
10
39.3849950461461
20
-6.10502945409351
30
0
41
1
10
37.9572358363523
20
-5.76400376885482
30
0
41
1
10
37.2428440432462
20
-5.58169107157553
30
0
41
1
10
36.5273813558276
20
-5.38959064728726
30
0
0
SPLINE
5
1F7
100
AcDbEntity
8
1
62
256
6
ByLayer
370
-1
48
1
60
0
100
AcDbSpline
70
4
71
3
72
16
73
12
40
0
40
0
40
0
40
0
40
0.249999999999999
40
0.249999999999999
40
0.499999999999998
40
0.499999999999998
40
0.749999999999997
40
0.749999999999997
40
0.874999999999998
40
0.874999999999998
40
1
40
1
40
1
40
1
41
1
10
13.8943375672974
20
-9.86941261896612
30
0
41
1
10
13.8787501654512
20
-9.81243201498799
30
0
41
1
10
13.8600981524864
20
-9.75655023082965
30
0
41
1
10
13.8145135903111
20
-9.64780841973388
30
0
41
1
10
13.7875017792165
20
-9.59456078532605
30
0
41
1
10
13.720820003123
20
-9.49465699870623
30
0
41
1
10
13.6810618560869
20
-9.44778039735203
30
0
41
1
10
13.6084081576259
20
-9.39323398486454
30
0
41
1
10
13.5814155034803
20
-9.37745951316339
30
0
41
1
10
13.5238105256953
20
-9.35548920253848
30
0
41
1
10
13.4927587974109
20
-9.34922131452501
30
0
41
1
10
13.4613248654052
20
-9.34922131452498
30
0
0
SPLINE
5
1F8
100
AcDbEntity
8
1
62
256
6
ByLayer
370
-1
48
1
60
0
100
AcDbSpline
70
4
71
3
72
8
73
4
40
0
40
0
40
0
40
0
40
1
40
1
40
1
40
1
41
1
10
28.5
20
7.38553847809081
30
0
41
1
10
28.3029577261961
20
7.17364305404294
30
0
41
1
10
28.1418348304406
20
6.9405224112945
30
0
41
1
10
28.0157853790298
20
6.68351807984678
30
0
0
SPLINE
5
1F9
100
AcDbEntity
8
1
62
256
6
ByLayer
370
-1
48
1
60
0
100
AcDbSpline
70
4
71
4
72
13
73
8
40
0
40
0
40
0
40
0
40
0
40
0.668814889358489
40
0.668814889358489
40
0.668814889358489
40
1
40
1
40
1
40
1
40
1
41
1
10
38.5165379060093
20
2.67512666090019
30
0
41
1
10
38.5165379060092
20
1.81059286081791
30
0
41
0.942809041582063
10
38.3191600248119
20
0.0152044853439019
30
0
41
1
10
37.7947557623971
20
-2.13582985035353
30
0
41
1
10
37.2045240425661
20
-4.07035085303426
30
0
41
0.985976477488973
10
36.9843181312152
20
-4.69073582366366
30
0
41
0.978762021251775
10
36.7800043240269
20
-5.11101404369917
30
0
41
0.978557373111006
10
36.6168159504594
20
-5.29414454954078
30
0
0
SPLINE
5
1FA
100
AcDbEntity
8
1
62
256
6
ByLayer
370
-1
48
1
60
0
100
AcDbSpline
70
4
71
3
72
16
73
12
40
0
40
0
40
0
40
0
40
0.249999999999999
40
0.249999999999999
40
0.499999999999999
40
0.499999999999999
40
0.749999999999998
40
0.749999999999998
40
0.874999999999999
40
0.874999999999999
40
1
40
1
40
1
40
1
41
1
10
10.1056624327026
20
-29.9139548464691
30
0
41
1
10
10.1212498345487
20
-29.9327542695084
30
0
41
1
10
10.1399018475135
20
-29.9510098933136
30
0
41
1
10
10.1854864096889
20
-29.9862144781928
30
0
41
1
10
10.2124982207834
20
-30.0032856662985
30
0
41
1
10
10.279179996877
20
-30.0350501233767
30
0
41
1
10
10.318938143913
20
-30.0498069467438
30
0
41
1
10
10.3915918423741
20
-30.0668840803113
30
0
41
1
10
10.4185844965196
20
-30.0718038277879
30
0
41
1
10
10.4761894743047
20
-30.0786461490401
30
0
41
1
10
10.5072412025891
20
-30.080592760317
30
0
41
1
10
10.5386751345948
20
-30.080592760317
30
0
0
SPLINE
5
1FB
100
AcDbEntity
8
1
62
256
6
ByLayer
370
-1
48
1
60
0
100
AcDbSpline
70
4
71
3
72
20
73
16
40
0
40
0
40
0
40
0
40
0.250000000000003
40
0.250000000000003
40
0.312500000000003
40
0.312500000000003
40
0.375000000000003
40
0.375000000000003
40
0.500000000000003
40
0.500000000000003
40
0.750000000000001
40
0.750000000000001
40
0.875000000000001
40
0.875000000000001
40
1
40
1
40
1
40
1
41
1
10
33.7359321218086
20
-4.98570786770668
30
0
41
1
10
33.8885927640097
20
-5.15745029565966
30
0
41
1
10
34.064086178455
20
-5.28485399446117
30
0
41
1
10
34.3108660733306
20
-5.39673580359616
30
0
41
1
10
34.3616037739921
20
-5.41672171017029
30
0
41
1
10
34.4659785168273
20
-5.4556308961636
30
0
41
1
10
34.5196116994782
20
-5.47419274082225
30
0
41
1
10
34.6833242790361
20
-5.5271405155533
30
0
41
1
10
34.7967049437151
20
-5.55899940777277
30
0
41
1
10
35.1496026583042
20
-5.64759305097797
30
0
41
1
10
35.4017362950945
20
-5.69742211990246
30
0
41
1
10
35.8077383622442
20
-5.76834203829472
30
0
41
1
10
35.9478850515173
20
-5.79132978344879
30
0
41
1
10
36.2330625470877
20
-5.83667785825906
30
0
41
1
10
36.3786645758667
20
-5.8591384318232
30
0
41
1
10
36.5273813558738
20
-5.88208148557859
30
0
0
SPLINE
5
1FC
100
AcDbEntity
8
1
62
256
6
ByLayer
370
-1
48
1
60
0
100
AcDbSpline
70
4
71
2
72
6
73
3
40
0
40
0
40
0
40
1
40
1
40
1
41
1
10
36.5273813558276
20
-5.38959064729193
30
0
41
1
10
36.5273813558276
20
-5.63583606643149
30
0
41
1
10
36.5273813558276
20
-5.88208148557106
30
0
0
SPLINE
5
1FD
100
AcDbEntity
8
1
62
256
6
ByLayer
370
-1
48
1
60
0
100
AcDbSpline
70
4
71
3
72
8
73
4
40
0
40
0
40
0
40
0
40
1
40
1
40
1
40
1
41
1
10
37
20
-5.99418666447062
30
0
41
1
10
36.8427602028407
20
-5.95085333966111
30
0
41
1
10
36.6851637789349
20
-5.91351014495149
30
0
41
1
10
36.5273813558276
20
-5.88208148557192
30
0
0
SPLINE
5
1FE
100
AcDbEntity
8
1
62
256
6
ByLayer
370
-1
48
1
60
0
100
AcDbSpline
70
4
71
3
72
11
73
7
40
0
40
0
40
0
40
0
40
0.477326888496611
40
0.715990332744917
40
0.954653776993222
40
1
40
1
40
1
40
1
41
1
10
78.7699607448634
20
3.91999999999987
30
0
41
1
10
78.3471308015336
20
3.89808344831764
30
0
41
1
10
77.7127504745615
20
3.86166516596822
30
0
41
1
10
76.8671351516972
20
3.80568702826568
30
0
41
1
10
76.4043949246528
20
3.77229435633637
30
0
41
1
10
76.1529470346491
20
3.75324772525386
30
0
41
1
10
76.1127987838004
20
3.750183717125
30
0
0
SPLINE
5
1FF
100
AcDbEntity
8
1
62
256
6
ByLayer
370
-1
48
1
60
0
100
AcDbSpline
70
4
71
3
72
16
73
12
40
0
40
0
40
0
40
0
40
0.249999999999999
40
0.249999999999999
40
0.499999999999999
40
0.499999999999999
40
0.749999999999998
40
0.749999999999998
40
0.874999999999999
40
0.874999999999999
40
1
40
1
40
1
40
1
41
1
10
10.1056624327026
20
9.86941261896612
30
0
41
1
10
10.1212498345488
20
9.81243201498799
30
0
41
1
10
10.1399018475136
20
9.75655023082965
30
0
41
1
10
10.1854864096889
20
9.64780841973388
30
0
41
1
10
10.2124982207834
20
9.59456078532602
30
0
41
1
10
10.279179996877
20
9.4946569987062
30
0
41
1
10
10.3189381439131
20
9.44778039735201
30
0
41
1
10
10.3915918423741
20
9.39323398486451
30
0
41
1
10
10.4185844965197
20
9.37745951316336
30
0
41
1
10
10.4761894743047
20
9.35548920253845
30
0
41
1
10
10.5072412025891
20
9.34922131452495
30
0
41
1
10
10.5386751345948
20
9.34922131452495
30
0
0
SPLINE
5
200
100
AcDbEntity
8
1
62
256
6
ByLayer
370
-1
48
1
60
0
100
AcDbSpline
70
4
71
3
72
14
73
10
40
0
40
0
40
0
40
0
40
0.499999999999965
40
0.499999999999965
40
0.62499999999997
40
0.62499999999997
40
0.749999999999974
40
0.749999999999974
40
1
40
1
40
1
40
1
41
1
10
83.2465229302939
20
0.401643818953744
30
0
41
1
10
82.8512785807777
20
0.378356670410426
30
0
41
1
10
82.4612437877283
20
0.403540100870458
30
0
41
1
10
81.9801494771024
20
0.494925839452719
30
0
41
1
10
81.8842581726128
20
0.516244253100325
30
0
41
1
10
81.6931502774261
20
0.565137139411462
30
0
41
1
10
81.5978779625561
20
0.592750694911956
30
0
41
1
10
81.3161730279406
20
0.684247630918918
30
0
41
1
10
81.1328127169365
20
0.756986226408856
30
0
41
1
10
80.9540132915
20
0.841695361143707
30
0
0
SPLINE
5
201
100
AcDbEntity
8
1
62
256
6
ByLayer
370
-1
48
1
60
0
100
AcDbSpline
70
4
71
3
72
12
73
8
40
0
40
0
40
0
40
0
40
0.25
40
0.25
40
0.5
40
0.5
40
1
40
1
40
1
40
1
41
1
10
82.7742156717984
20
2.22975688373467
30
0
41
1
10
82.8522800261712
20
2.21676217879946
30
0
41
1
10
82.9300834320443
20
2.2057816491677
30
0
41
1
10
83.0850725218744
20
2.18775343643509
30
0
41
1
10
83.1625057688221
20
2.18069376350542
30
0
41
1
10
83.3914244956201
20
2.16542094952141
30
0
41
1
10
83.5396196896584
20
2.16303888125421
30
0
41
1
10
83.6827738830776
20
2.16733302511852
30
0
0
SPLINE
5
202
100
AcDbEntity
8
1
62
256
6
ByLayer
370
-1
48
1
60
0
100
AcDbSpline
70
4
71
3
72
16
73
12
40
0
40
0
40
0
40
0
40
0.125000000000001
40
0.125000000000001
40
0.250000000000002
40
0.250000000000002
40
0.500000000000001
40
0.500000000000001
40
0.750000000000001
40
0.750000000000001
40
1
40
1
40
1
40
1
41
1
10
13.4613248654052
20
9.34922131452501
30
0
41
1
10
13.4928040273173
20
9.34922131452501
30
0
41
1
10
13.5234304266402
20
9.35536120669445
30
0
41
1
10
13.5815263070002
20
9.37748487924955
30
0
41
1
10
13.6079581046676
20
9.39290424748296
30
0
41
1
10
13.6817632688741
20
9.44829073160838
30
0
41
1
10
13.7208296342407
20
9.49467220053401
30
0
41
1
10
13.7874862877331
20
9.59453680346888
30
0
41
1
10
13.8142652669256
20
9.64728479257923
30
0
41
1
10
13.8599440812239
20
9.75611455014862
30
0
41
1
10
13.8787443055274
20
9.81241059371416
30
0
41
1
10
13.8943375672974
20
9.86941261896607
30
0
0
SPLINE
5
203
100
AcDbEntity
8
1
62
256
6
ByLayer
370
-1
48
1
60
0
100
AcDbSpline
70
4
71
3
72
22
73
18
40
0
40
0
40
0
40
0
40
0.125
40
0.125
40
0.25
40
0.25
40
0.375
40
0.375
40
0.5
40
0.5
40
0.625
40
0.625
40
0.75
40
0.75
40
0.875
40
0.875
40
1
40
1
40
1
40
1
41
1
10
84.853263515097
20
2.20666835769518
30
0
41
1
10
84.858396580976
20
2.20666835769518
30
0
41
1
10
84.8531636032106
20
2.21277743943639
30
0
41
1
10
84.8275690984367
20
2.23545456553725
30
0
41
1
10
84.8080760740784
20
2.25145098356259
30
0
41
1
10
84.7621291232913
20
2.29140149182936
30
0
41
1
10
84.735760085271
20
2.31529727725473
30
0
41
1
10
84.6811993954798
20
2.36926122343152
30
0
41
1
10
84.652735609479
20
2.39952364870945
30
0
41
1
10
84.5951163283335
20
2.46729939798337
30
0
41
1
10
84.566111799284
20
2.50469172032143
30
0
41
1
10
84.5104160157523
20
2.58500864545519
30
0
41
1
10
84.4834750411925
20
2.62819177103495
30
0
41
1
10
84.4322189859367
20
2.72172158166893
30
0
41
1
10
84.4079996823113
20
2.77210290829922
30
0
41
1
10
84.3652143978616
20
2.87594500195152
30
0
41
1
10
84.3463119314285
20
2.92996158846651
30
0
41
1
10
84.3301436283398
20
2.98637432715714
30
0
0
SPLINE
5
204
100
AcDbEntity
8
1
62
256
6
ByLayer
370
-1
48
1
60
0
100
AcDbSpline
70
4
71
3
72
8
73
4
40
0
40
0
40
0
40
0
40
1
40
1
40
1
40
1
41
1
10
33.7359321218087
20
-3.46345327693933
30
0
41
1
10
33.7359321218087
20
-3.97087147386179
30
0
41
1
10
33.7359321218087
20
-4.47828967078422
30
0
41
1
10
33.7359321218087
20
-4.98570786770668
30
0
0
SPLINE
5
205
100
AcDbEntity
8
1
62
256
6
ByLayer
370
-1
48
1
60
0
100
AcDbSpline
70
4
71
3
72
10
73
6
40
0
40
0
40
0
40
0
40
0.5
40
0.5
40
1
40
1
40
1
40
1
41
1
10
81.6202787088823
20
2.66642561687053
30
0
41
1
10
81.7037575449099
20
2.59166219564827
30
0
41
1
10
81.8003046214186
20
2.53043996662316
30
0
41
1
10
82.0131114269558
20
2.42593248740573
30
0
41
1
10
82.1259701039917
20
2.38446728442762
30
0
41
1
10
82.24371381988
20
2.35031096052137
30
0
0
SPLINE
5
206
100
AcDbEntity
8
1
62
256
6
ByLayer
370
-1
48
1
60
0
100
AcDbSpline
70
4
71
3
72
26
73
22
40
0
40
0
40
0
40
0
40
0.131373076299076
40
0.131373076299076
40
0.262746152598152
40
0.262746152598152
40
0.394119228897228
40
0.394119228897228
40
0.459805767046766
40
0.459805767046766
40
0.525492305196304
40
0.525492305196304
40
0.65686538149538
40
0.65686538149538
40
0.788238457794456
40
0.788238457794456
40
0.919611534093531
40
0.919611534093531
40
0.985298072243069
40
0.985298072243069
40
1
40
1
40
1
40
1
41
1
10
37
20
-5.99418666447062
30
0
41
1
10
38.3713599026082
20
-6.37211633090379
30
0
41
1
10
39.735374563548
20
-6.70732457341779
30
0
41
1
10
42.4567235175276
20
-7.28164967962542
30
0
41
1
10
43.8141062842398
20
-7.52071663295044
30
0
41
1
10
46.5301385139616
20
-7.89498926360363
30
0
41
1
10
47.888730813612
20
-8.03029934275844
30
0
41
1
10
49.9328348118926
20
-8.15147683315573
30
0
41
1
10
50.615248907155
20
-8.17823999021252
30
0
41
1
10
51.9831375003135
20
-8.20395846751501
30
0
41
1
10
52.6696292667062
20
-8.20286037873566
30
0
41
1
10
54.7222578073413
20
-8.1577134533099
30
0
41
1
10
56.0845295447897
20
-8.07203282249725
30
0
41
1
10
58.8038125509323
20
-7.79423662952951
30
0
41
1
10
60.160754012388
20
-7.60200029137559
30
0
41
1
10
62.8771996199695
20
-7.11780567457183
30
0
41
1
10
64.2367483452788
20
-6.82591363799685
30
0
41
1
10
66.2838777122413
20
-6.32038700425747
30
0
41
1
10
66.9675489343142
20
-6.14060955346326
30
0
41
1
10
67.8063501161799
20
-5.90750156666113
30
0
41
1
10
67.9597353705423
20
-5.86436130165825
30
0
41
1
10
68.1130914285776
20
-5.82072749021248
30
0
0
SPLINE
5
207
100
AcDbEntity
8
1
62
256
6
ByLayer
370
-1
48
1
60
0
100
AcDbSpline
70
4
71
3
72
14
73
10
40
0
40
0
40
0
40
0
40
0.005096648137471
40
0.0240065217780215
40
0.0435263913424611
40
0.0630462609069007
40
0.375364173937934
40
0.687682086968967
40
1
40
1
40
1
40
1
41
1
10
84.7433824321932
20
7.61629182565275
30
0
41
1
10
84.7435161749568
20
7.61244818999819
30
0
41
1
10
84.7441461067602
20
7.59434368336815
30
0
41
1
10
84.7452880321886
20
7.5615183071026
30
0
41
1
10
84.7468083543276
20
7.51781567555128
30
0
41
1
10
84.7560263075072
20
7.25283972004004
30
0
41
1
10
84.7729258883365
20
6.76705046826947
30
0
41
1
10
84.7975070968156
20
6.06044792023954
30
0
41
1
10
84.8138945691349
20
5.58937955488625
30
0
41
1
10
84.8220883052946
20
5.35384537220961
30
0
0
SPLINE
5
208
100
AcDbEntity
8
1
62
256
6
ByLayer
370
-1
48
1
60
0
100
AcDbSpline
70
4
71
3
72
14
73
10
40
0
40
0
40
0
40
0
40
0.0050966481374758
40
0.0240065217780263
40
0.0435263913424657
40
0.0630462609069052
40
0.375364173937937
40
0.687682086968968
40
1
40
1
40
1
40
1
41
1
10
85.5977287303936
20
2.43901413348644
30
0
41
1
10
85.6015577398541
20
2.43914838712561
30
0
41
1
10
85.6195933533705
20
2.43978072516617
30
0
41
1
10
85.6522938191691
20
2.44092701256423
30
0
41
1
10
85.6958301490131
20
2.44245314208681
30
0
41
1
10
85.9597977910152
20
2.45170630635008
30
0
41
1
10
86.443738468019
20
2.46867044083274
30
0
41
1
10
87.1476521800246
20
2.49334554553477
30
0
41
1
10
87.6169279880283
20
2.50979561533612
30
0
41
1
10
87.8515658920301
20
2.51802065023679
30
0
0
SPLINE
5
209
100
AcDbEntity
8
1
62
256
6
ByLayer
370
-1
48
1
60
0
100
AcDbSpline
70
4
71
3
72
48
73
44
40
0
40
0
40
0
40
0
40
0.125
40
0.1875
40
0.1953125
40
0.203125
40
0.20703125
40
0.2109375
40
0.21875
40
0.25
40
0.28125
40
0.3125
40
0.3203125
40
0.328125
40
0.34375
40
0.375
40
0.3828125
40
0.390625
40
0.39453125
40
0.3984375
40
0.40625
40
0.4375
40
0.5
40
0.5625
40
0.578125
40
0.5859375
40
0.59375
40
0.609375
40
0.625
40
0.6875
40
0.75
40
0.8125
40
0.875
40
0.9375
40
0.953125
40
0.96826171875
40
0.96875
40
0.9697265625
40
0.970703125
40
0.97265625
40
0.9765625
40
0.984375
40
1
40
1
40
1
40
1
41
1
10
87.647121858041
20
8.39489507116761
30
0
41
1
10
87.6489245349428
20
8.35896023438804
30
0
41
1
10
87.6516285502954
20
8.30505797921865
30
0
41
1
10
87.6544452329544
20
8.24890979675055
30
0
41
1
10
87.655571906018
20
8.2264505237633
30
0
41
1
10
87.6558538572384
20
8.22083407282597
30
0
41
1
10
87.6560783429877
20
8.21634711630006
30
0
41
1
10
87.6562997933318
20
8.21186194065118
30
0
41
1
10
87.656895524766
20
8.19947721741346
30
0
41
1
10
87.6578016044544
20
8.17905222555217
30
0
41
1
10
87.6588515190707
20
8.15164210866993
30
0
41
1
10
87.6595159615437
20
8.13110400203922
30
0
41
1
10
87.6599059567122
20
8.11748206575777
30
0
41
1
10
87.6601512645593
20
8.10840699323199
30
0
41
1
10
87.6605839970049
20
8.09249676973451
30
0
41
1
10
87.6610155400556
20
8.07659650931194
30
0
41
1
10
87.6613857699747
20
8.06296490117111
30
0
41
1
10
87.6615406188546
20
8.05727759068384
30
0
41
1
10
87.6616622257914
20
8.05275650944677
30
0
41
1
10
87.6617793499704
20
8.0482648634169
30
0
41
1
10
87.6620889285345
20
8.03585188351391
30
0
41
1
10
87.6627081712416
20
8.00659833628603
30
0
41
1
10
87.6632325099122
20
7.96217573691027
30
0
41
1
10
87.6631703963069
20
7.92409257864171
30
0
41
1
10
87.6629326381173
20
7.90192694360141
30
0
41
1
10
87.6628253927418
20
7.89400088242115
30
0
41
1
10
87.6627020727674
20
7.88613310609395
30
0
41
1
10
87.6625483746828
20
7.87625954774092
30
0
41
1
10
87.6621797704096
20
7.85253970492721
30
0
41
1
10
87.6616264121165
20
7.81699877865066
30
0
41
1
10
87.6608887516869
20
7.76959793096728
30
0
41
1
10
87.6601510912572
20
7.72219708328387
30
0
41
1
10
87.6594134308276
20
7.6747962356005
30
0
41
1
10
87.6588601855053
20
7.63924559983795
30
0
41
1
10
87.6584932762811
20
7.61566861570375
30
0
41
1
10
87.6583703328762
20
7.60776847442321
30
0
41
1
10
87.6583050373295
20
7.60357134002052
30
0
41
1
10
87.6582952691417
20
7.60295580060946
30
0
41
1
10
87.6582802082137
20
7.60197154219622
30
0
41
1
10
87.6582585103675
20
7.60023523065732
30
0
41
1
10
87.6582337724602
20
7.59663803053939
30
0
41
1
10
87.6582611750959
20
7.58906515141894
30
0
41
1
10
87.6584191965797
20
7.58217767439811
30
0
41
1
10
87.6585760629565
20
7.5776684501416
30
0
0
SPLINE
5
20A
100
AcDbEntity
8
1
62
256
6
ByLayer
370
-1
48
1
60
0
100
AcDbSpline
70
4
71
3
72
8
73
4
40
0
40
0
40
0
40
0
40
1
40
1
40
1
40
1
41
1
10
90.1414154044729
20
2.59835526662795
30
0
41
1
10
90.1294121050289
20
2.59789059271381
30
0
41
1
10
90.1174079632845
20
2.59744784336135
30
0
41
1
10
90.1054030587289
20
2.59702702150236
30
0
0
SPLINE
5
20B
100
AcDbEntity
8
1
62
256
6
ByLayer
370
-1
48
1
60
0
100
AcDbSpline
70
4
71
3
72
13
73
9
40
0
40
0
40
0
40
0
40
0.312317913031033
40
0.624635826062066
40
0.9369537390931
40
0.975993478221979
40
0.99490335186253
40
1
40
1
40
1
40
1
41
1
10
84.8220883052946
20
5.35384537220961
30
0
41
1
10
84.8302820414543
20
5.11831118953296
30
0
41
1
10
84.8466695137736
20
4.64724282417967
30
0
41
1
10
84.8712507222527
20
3.94064027614974
30
0
41
1
10
84.888662411592
20
3.44013013796186
30
0
41
1
10
84.8983764698907
20
3.16089332373389
30
0
41
1
10
84.900030503829
20
3.11334706105106
30
0
41
1
10
84.9006602073086
20
3.09524254641733
30
0
41
1
10
84.9007938885335
20
3.09139890860556
30
0
0
SPLINE
5
20C
100
AcDbEntity
8
1
62
256
6
ByLayer
370
-1
48
1
60
0
100
AcDbSpline
70
4
71
3
72
23
73
19
40
0
40
0
40
0
40
0
40
0.0365499079217136
40
0.0695172064382423
40
0.102484504954771
40
0.1354518034713
40
0.168419101987828
40
0.234353699020886
40
0.300288296053928
40
0.366222893087001
40
0.498092087153115
40
0.629961281219223
40
0.761830475285345
40
0.827765072318399
40
0.89369966935146
40
0.926666967867989
40
0.959634266384517
40
1
40
1
40
1
40
1
41
1
10
84.7435824651215
20
7.73616893401592
30
0
41
1
10
84.7435128987213
20
7.73515086050207
30
0
41
1
10
84.7433822504773
20
7.73321452290983
30
0
41
1
10
84.7431974452205
20
7.73035964431713
30
0
41
1
10
84.7430280570313
20
7.72760394834853
30
0
41
1
10
84.7428694423431
20
7.72484726308451
30
0
41
1
10
84.7426718076321
20
7.72117051833325
30
0
41
1
10
84.7424497737655
20
7.71657269413581
30
0
41
1
10
84.7422202695923
20
7.71105320385394
30
0
41
1
10
84.7419640211959
20
7.7036915548027
30
0
41
1
10
84.7417379589127
20
7.69448601406816
30
0
41
1
10
84.7416205325846
20
7.68343663602093
30
0
41
1
10
84.7416485366238
20
7.67422896496976
30
0
41
1
10
84.7417450468245
20
7.66686436549756
30
0
41
1
10
84.7418386455689
20
7.6622628520019
30
0
41
1
10
84.7419349336649
20
7.65858289027256
30
0
41
1
10
84.742022325865
20
7.65561679331265
30
0
41
1
10
84.7420887856881
20
7.6535705833854
30
0
41
1
10
84.7421264545083
20
7.65244420655628
30
0
0
SPLINE
5
20D
100
AcDbEntity
8
1
62
256
6
ByLayer
370
-1
48
1
60
0
100
AcDbSpline
70
4
71
3
72
19
73
15
40
0
40
0
40
0
40
0
40
0.0403657336155023
40
0.106300330648561
40
0.17223492768162
40
0.238169524714679
40
0.370038718780797
40
0.501907912846914
40
0.76564630097915
40
0.831580898012209
40
0.897515495045268
40
0.930482793561797
40
0.963450092078327
40
1
40
1
40
1
40
1
41
1
10
85.3572699937963
20
8.31462468690793
30
0
41
1
10
85.3561480088833
20
8.31458383543142
30
0
41
1
10
85.3531936776855
20
8.31447340070727
30
0
41
1
10
85.3484083346496
20
8.31427342897166
30
0
41
1
10
85.3429130953726
20
8.31400071942963
30
0
41
1
10
85.3355876597414
20
8.3135836338019
30
0
41
1
10
85.3264354172686
20
8.31296938167108
30
0
41
1
10
85.3118056475697
20
8.31178491048445
30
0
41
1
10
85.2990281262238
20
8.31047922654977
30
0
41
1
10
85.2880992886086
20
8.30917586557339
30
0
41
1
10
85.2835504409832
20
8.30859958272288
30
0
41
1
10
85.2799148321862
20
8.30811711784182
30
0
41
1
10
85.2770906365089
20
8.30773291229127
30
0
41
1
10
85.2751754796987
20
8.30746701237797
30
0
41
1
10
85.2741686035076
20
8.30732633313474
30
0
0
SPLINE
5
20E
100
AcDbEntity
8
1
62
256
6
ByLayer
370
-1
48
1
60
0
100
AcDbSpline
70
4
71
3
72
22
73
18
40
0
40
0
40
0
40
0
40
0.0178234039223911
40
0.0278216291115062
40
0.0378198543006213
40
0.112806543218985
40
0.187793232137348
40
0.337766609974074
40
0.497738212999916
40
0.657709816025758
40
0.817681419051599
40
0.89766722056452
40
0.977653022077441
40
0.982652134671998
40
0.987651247266556
40
0.997649472455671
40
1
40
1
40
1
40
1
41
1
10
90.224519146564
20
2.60558938826966
30
0
41
1
10
90.2253286354391
20
2.60570248885082
30
0
41
1
10
90.2265921635499
20
2.60587991986009
30
0
41
1
10
90.2283098264193
20
2.60612198852601
30
0
41
1
10
90.232623727821
20
2.60673071969325
30
0
41
1
10
90.2398892414604
20
2.60775588770321
30
0
41
1
10
90.2535120683401
20
2.60967792031394
30
0
41
1
10
90.270994681803
20
2.61214432682419
30
0
41
1
10
90.2923370930434
20
2.61515526464191
30
0
41
1
10
90.3141335981401
20
2.6182302649664
30
0
41
1
10
90.3322973523872
20
2.62079276523679
30
0
41
1
10
90.3468789062807
20
2.6228515708323
30
0
41
1
10
90.3543513751275
20
2.62390510450155
30
0
41
1
10
90.3583954888672
20
2.6244742237653
30
0
41
1
10
90.3592913813469
20
2.62460039441839
30
0
41
1
10
90.3600624055433
20
2.62470926018608
30
0
41
1
10
90.3606046047789
20
2.62478616921081
30
0
41
1
10
90.3607075817362
20
2.62480079188847
30
0
0
SPLINE
5
20F
100
AcDbEntity
8
1
62
256
6
ByLayer
370
-1
48
1
60
0
100
AcDbSpline
70
4
71
3
72
23
73
19
40
0
40
0
40
0
40
0
40
0.0365499079217396
40
0.0695172064382714
40
0.102484504954803
40
0.135451803471335
40
0.168419101987867
40
0.23435369902093
40
0.300288296053979
40
0.366222893087058
40
0.498092087153185
40
0.629961281219304
40
0.761830475285439
40
0.827765072318499
40
0.893699669351566
40
0.926666967868098
40
0.95963426638463
40
1
40
1
40
1
40
1
41
1
10
85.4783077906196
20
2.439214930508
30
0
41
1
10
85.4793219900563
20
2.43914509837555
30
0
41
1
10
85.4812509592995
20
2.43901395107645
30
0
41
1
10
85.4840949742172
20
2.4388284398936
30
0
41
1
10
85.4868401839307
20
2.43865840466901
30
0
41
1
10
85.489586379175
20
2.43849918409847
30
0
41
1
10
85.4932491328025
20
2.43830079445496
30
0
41
1
10
85.4978294608907
20
2.43807791245501
30
0
41
1
10
85.5033279478457
20
2.43784753161324
30
0
41
1
10
85.5106615835998
20
2.4375903043896
30
0
41
1
10
85.5198320944725
20
2.43736337858516
30
0
41
1
10
85.5308394263004
20
2.43724550370754
30
0
41
1
10
85.5400120593834
20
2.43727361471767
30
0
41
1
10
85.5473486343311
20
2.43737049357165
30
0
41
1
10
85.5519326376787
20
2.43746444984805
30
0
41
1
10
85.5555985960427
20
2.43756110574896
30
0
41
1
10
85.5585534061082
20
2.43764883177306
30
0
41
1
10
85.5605918295889
20
2.4377155454618
30
0
41
1
10
85.5617139202141
20
2.43775335817082
30
0
0
SPLINE
5
210
100
AcDbEntity
8
1
62
256
6
ByLayer
370
-1
48
1
60
0
100
AcDbSpline
70
4
71
3
72
19
73
15
40
0
40
0
40
0
40
0
40
0.0403657336155054
40
0.106300330648569
40
0.172234927681633
40
0.238169524714697
40
0.370038718780825
40
0.501907912846952
40
0.765646300979207
40
0.831580898012271
40
0.897515495045335
40
0.930482793561867
40
0.963450092078399
40
1
40
1
40
1
40
1
41
1
10
90.1414177562753
20
2.59829103449647
30
0
41
1
10
90.1425397411882
20
2.59833188597301
30
0
41
1
10
90.1454940723859
20
2.59844232069716
30
0
41
1
10
90.1502794154219
20
2.59864229243274
30
0
41
1
10
90.1557746546989
20
2.59891500197477
30
0
41
1
10
90.1631000903301
20
2.59933208760253
30
0
41
1
10
90.1722523328029
20
2.59994633973335
30
0
41
1
10
90.1868821025018
20
2.60113081091998
30
0
41
1
10
90.1996596238477
20
2.60243649485466
30
0
41
1
10
90.2105884614629
20
2.60373985583104
30
0
41
1
10
90.2151373090882
20
2.60431613868155
30
0
41
1
10
90.2187729178853
20
2.60479860356261
30
0
41
1
10
90.2215971135626
20
2.60518280911316
30
0
41
1
10
90.2235122703727
20
2.60544870902643
30
0
41
1
10
90.2245191465639
20
2.60558938826966
30
0
0
SPLINE
5
211
100
AcDbEntity
8
1
62
256
6
ByLayer
370
-1
48
1
60
0
100
AcDbSpline
70
4
71
3
72
48
73
44
40
0
40
0
40
0
40
0
40
0.015625
40
0.0234375
40
0.02734375
40
0.029296875
40
0.0302734375
40
0.03125
40
0.03173828125
40
0.046875
40
0.0625
40
0.125
40
0.1875
40
0.25
40
0.3125
40
0.375
40
0.390625
40
0.40625
40
0.4140625
40
0.421875
40
0.4375
40
0.5
40
0.5625
40
0.59375
40
0.6015625
40
0.60546875
40
0.609375
40
0.6171875
40
0.625
40
0.65625
40
0.671875
40
0.6796875
40
0.6875
40
0.71875
40
0.75
40
0.78125
40
0.7890625
40
0.79296875
40
0.796875
40
0.8046875
40
0.8125
40
0.875
40
1
40
1
40
1
40
1
41
1
10
85.6192297511603
20
5.38238355466493
30
0
41
1
10
85.6147376858634
20
5.38222608908407
30
0
41
1
10
85.6079579970497
20
5.38198557308667
30
0
41
1
10
85.6006499768361
20
5.3817211223205
30
0
41
1
10
85.5972163420435
20
5.38159550532436
30
0
41
1
10
85.5955687381473
20
5.38153487198935
30
0
41
1
10
85.5946375263313
20
5.38150050092818
30
0
41
1
10
85.5940555107359
20
5.38147900581831
30
0
41
1
10
85.5900856526742
20
5.38133243865528
30
0
41
1
10
85.5826133464309
20
5.38105655964267
30
0
41
1
10
85.5603131824862
20
5.38023323321443
30
0
41
1
10
85.5266878043915
20
5.37899177765766
30
0
41
1
10
85.4818539669321
20
5.377336503582
30
0
41
1
10
85.4370201294725
20
5.37568122950634
30
0
41
1
10
85.392186292013
20
5.37402595543068
30
0
41
1
10
85.3585703616552
20
5.37278483893664
30
0
41
1
10
85.3361345474518
20
5.37195652377338
30
0
41
1
10
85.3267957392706
20
5.37161173151804
30
0
41
1
10
85.3193549254834
20
5.37133698271452
30
0
41
1
10
85.3118420016426
20
5.37106019855906
30
0
41
1
10
85.2907695672972
20
5.37028615752718
30
0
41
1
10
85.2542182730951
20
5.36895626433576
30
0
41
1
10
85.2109857447481
20
5.36740499298276
30
0
41
1
10
85.1822419424414
20
5.36638343660317
30
0
41
1
10
85.1699984404329
20
5.36594996579328
30
0
41
1
10
85.1655630171608
20
5.36579311405765
30
0
41
1
10
85.161094811922
20
5.36563523442192
30
0
41
1
10
85.1554721439939
20
5.36543662916336
30
0
41
1
10
85.1419963931405
20
5.36496060291768
30
0
41
1
10
85.1262782313963
20
5.36440535358858
30
0
41
1
10
85.1105493016891
20
5.36384975634127
30
0
41
1
10
85.1015791572902
20
5.36353284782547
30
0
41
1
10
85.088092939779
20
5.36305715932858
30
0
41
1
10
85.0676830216718
20
5.36233995284113
30
0
41
1
10
85.0402808339489
20
5.36138277046771
30
0
41
1
10
85.0197380279363
20
5.36066951403507
30
0
41
1
10
85.0072355392084
20
5.36023702996965
30
0
41
1
10
85.0027020104394
20
5.36008040418469
30
0
41
1
10
84.9981637341178
20
5.35992371621015
30
0
41
1
10
84.9924820887033
20
5.35972758542158
30
0
41
1
10
84.9697629175822
20
5.35894329032666
30
0
41
1
10
84.9129649897793
20
5.35698255258933
30
0
41
1
10
84.8584389790885
20
5.35510024436147
30
0
41
1
10
84.8220883052946
20
5.35384537220958
30
0
0
SPLINE
5
212
100
AcDbEntity
8
1
62
256
6
ByLayer
370
-1
48
1
60
0
100
AcDbSpline
70
4
71
3
72
19
73
15
40
0
40
0
40
0
40
0
40
0.0403657336155089
40
0.106300330648566
40
0.172234927681624
40
0.238169524714681
40
0.370038718780796
40
0.501907912846911
40
0.76564630097914
40
0.831580898012198
40
0.897515495045255
40
0.930482793561784
40
0.963450092078313
40
1
40
1
40
1
40
1
41
1
10
90.5966345135636
20
7.85766907555976
30
0
41
1
10
90.5965938175393
20
7.85879534627279
30
0
41
1
10
90.5964838030526
20
7.86176096253576
30
0
41
1
10
90.5962845922698
20
7.86656458480468
30
0
41
1
10
90.5960129204699
20
7.87208081500299
30
0
41
1
10
90.5955974219789
20
7.87943423260822
30
0
41
1
10
90.5949855072629
20
7.88862143516045
30
0
41
1
10
90.5938055433467
20
7.90330708820292
30
0
41
1
10
90.5925048279336
20
7.91613341760453
30
0
41
1
10
90.5912064266393
20
7.92710400160391
30
0
41
1
10
90.590632336719
20
7.93167022508823
30
0
41
1
10
90.5901517077625
20
7.93531972132027
30
0
41
1
10
90.58976896423
20
7.93815470496625
30
0
41
1
10
90.5895040761462
20
7.94007717736429
30
0
41
1
10
90.58936393223
20
7.94108789965892
30
0
0
SPLINE
5
213
100
AcDbEntity
8
1
62
256
6
ByLayer
370
-1
48
1
60
0
100
AcDbSpline
70
4
71
3
72
8
73
4
40
0
40
0
40
0
40
0
40
1
40
1
40
1
40
1
41
1
10
89.9009590247402
20
8.47390144243317
30
0
41
1
10
89.9129638907231
20
8.47432226294004
30
0
41
1
10
89.9249695195122
20
8.47472115609432
30
0
41
1
10
89.9369758316089
20
8.47509811925462
30
0
0
SPLINE
5
214
100
AcDbEntity
8
1
62
256
6
ByLayer
370
-1
48
1
60
0
100
AcDbSpline
70
4
71
3
72
22
73
18
40
0
40
0
40
0
40
0
40
0.0023505275440429
40
0.0123487527331592
40
0.0223469779222756
40
0.0623398786787408
40
0.102332779435197
40
0.182318580948136
40
0.262304382461062
40
0.342290183973997
40
0.662233390025719
40
0.812206767862464
40
0.957493477641796
40
0.962180145699208
40
0.97217837088832
40
0.982176596077441
40
1
40
1
40
1
40
1
41
1
10
90.1575716666527
20
8.46407249884578
30
0
41
1
10
90.1574679243972
20
8.46407987515485
30
0
41
1
10
90.1569217014443
20
8.46411863045279
30
0
41
1
10
90.1559211663334
20
8.46418897889529
30
0
41
1
10
90.1532065504825
20
8.46437855108755
30
0
41
1
10
90.149115752816
20
8.46466484865061
30
0
41
1
10
90.1418050859679
20
8.46517774070563
30
0
41
1
10
90.1326243969173
20
8.4658232077617
30
0
41
1
10
90.1216330896826
20
8.46659514611113
30
0
41
1
10
90.0996759948393
20
8.46813640069206
30
0
41
1
10
90.0745168236646
20
8.46990242156605
30
0
41
1
10
90.0463700009129
20
8.47187815741881
30
0
41
1
10
90.0326467876225
20
8.47284164659777
30
0
41
1
10
90.0253277250604
20
8.47335561686165
30
0
41
1
10
90.0241984163417
20
8.47343492254581
30
0
41
1
10
90.0224681160119
20
8.4735561257541
30
0
41
1
10
90.0211953359286
20
8.47364464860718
30
0
41
1
10
90.0203799594519
20
8.4737007908964
30
0
0
SPLINE
5
215
100
AcDbEntity
8
1
62
256
6
ByLayer
370
-1
48
1
60
0
100
AcDbSpline
70
4
71
3
72
79
73
75
40
0
40
0
40
0
40
0
40
0.0017245864916245
40
0.0039792263717519
40
0.0084885061320067
40
0.0129977858922615
40
0.0220163454127711
40
0.0310349049332807
40
0.0671091430153192
40
0.139257619179396
40
0.211406095343473
40
0.220424654863983
40
0.224933934624237
40
0.228315894444429
40
0.229443214384492
40
0.23169785426462
40
0.233952494144747
40
0.237334453964938
40
0.238461773905002
40
0.240716413785129
40
0.242971053665257
40
0.247480333425512
40
0.249734973305639
40
0.256498892946021
40
0.265517452466531
40
0.28355457150755
40
0.292573131028059
40
0.319628809589588
40
0.355703047671627
40
0.391777285753665
40
0.409814404794685
40
0.427851523835704
40
0.445888642876723
40
0.463925761917742
40
0.481962880958761
40
0.499999999999781
40
0.5180371190408
40
0.536074238081819
40
0.554111357122838
40
0.572148476163858
40
0.590185595204875
40
0.608222714245896
40
0.626259833286915
40
0.644296952327934
40
0.662334071368954
40
0.680371190409975
40
0.716445428492011
40
0.72546398801252
40
0.734482547533032
40
0.751392346633986
40
0.75251966657405
40
0.754774306454177
40
0.757028946334305
40
0.760410906154499
40
0.76153822609456
40
0.763792865974689
40
0.766047505854813
40
0.769429465675007
40
0.770556785615069
40
0.771684105555131
40
0.775066065375326
40
0.779575345135579
40
0.784084624895834
40
0.788593904656088
40
0.824668142738127
40
0.860742380820165
40
0.932890856984242
40
0.968965095066281
40
0.9870022141073
40
0.991511493867555
40
0.994893453687745
40
0.996020773627809
40
0.998275413507937
40
1
40
1
40
1
40
1
41
1
10
90.570225633802
20
8.07779655252887
30
0
41
1
10
90.5701782383687
20
8.07813287911139
30
0
41
1
10
90.5700692843125
20
8.07890330883774
30
0
41
1
10
90.5698370583491
20
8.08052414191789
30
0
41
1
10
90.5695238009675
20
8.08263996782821
30
0
41
1
10
90.5690064226802
20
8.08599514915915
30
0
41
1
10
90.5683184700466
20
8.09022301585796
30
0
41
1
10
90.5665403578547
20
8.10042601053124
30
0
41
1
10
90.5620263172564
20
8.1225529798393
30
0
41
1
10
90.552522696737
20
8.15682651642237
30
0
41
1
10
90.5414309909003
20
8.18574218508829
30
0
41
1
10
90.5342729361806
20
8.20169097091781
30
0
41
1
10
90.5328286605875
20
8.20483123432146
30
0
41
1
10
90.5320485905021
20
8.20650360501813
30
0
41
1
10
90.5314593457746
20
8.20775680802893
30
0
41
1
10
90.5309656891188
20
8.2088004655686
30
0
41
1
10
90.5302696829706
20
8.2102602959896
30
0
41
1
10
90.5296678732597
20
8.21151017123893
30
0
41
1
10
90.5290618805906
20
8.2127588892954
30
0
41
1
10
90.52855427307
20
8.21379875800986
30
0
41
1
10
90.5277365283624
20
8.21546096393854
30
0
41
1
10
90.5269104292452
20
8.21712075275497
30
0
41
1
10
90.5256587627631
20
8.2196066870394
30
0
41
1
10
90.523967632516
20
8.22291449172781
30
0
41
1
10
90.5207239038584
20
8.22909331852958
30
0
41
1
10
90.517130992495
20
8.23563881882515
30
0
41
1
10
90.5115431079658
20
8.24538130743269
30
0
41
1
10
90.5037418967311
20
8.25822967881902
30
0
41
1
10
90.4921873989861
20
8.27550543716441
30
0
41
1
10
90.4808454390491
20
8.29073543844038
30
0
41
1
10
90.4712909880497
20
8.30259549039098
30
0
41
1
10
90.4638901681744
20
8.31131885258884
30
0
41
1
10
90.4562598265726
20
8.31986083579159
30
0
41
1
10
90.4484073415372
20
8.32821295919643
30
0
41
1
10
90.4403400913608
20
8.33636674200056
30
0
41
1
10
90.4320654543364
20
8.34431370340124
30
0
41
1
10
90.4235908087568
20
8.35204536259567
30
0
41
1
10
90.4149250972562
20
8.35955492273985
30
0
41
1
10
90.406077262469
20
8.36683558698974
30
0
41
1
10
90.3970562470292
20
8.37388055850141
30
0
41
1
10
90.3878709935713
20
8.3806830404308
30
0
41
1
10
90.3785315247245
20
8.387238242167
30
0
41
1
10
90.3690478631178
20
8.39354137309908
30
0
41
1
10
90.3594300313807
20
8.39958764261607
30
0
41
1
10
90.3496880521422
20
8.40537226010701
30
0
41
1
10
90.3365472915186
20
8.41273273129502
30
0
41
1
10
90.3248688147979
20
8.41870611028017
30
0
41
1
10
90.3147562888783
20
8.42348602400807
30
0
41
1
10
90.3082005295406
20
8.42648511386594
30
0
41
1
10
90.3030994484041
20
8.4287090435088
30
0
41
1
10
90.2992621045696
20
8.430325809865
30
0
41
1
10
90.2981955814811
20
8.43077224568771
30
0
41
1
10
90.2967013639062
20
8.43139227839617
30
0
41
1
10
90.2954194689382
20
8.43191840093931
30
0
41
1
10
90.2941366951995
20
8.43244025492419
30
0
41
1
10
90.2930671742828
20
8.43287246512369
30
0
41
1
10
90.2915688557782
20
8.43347257789355
30
0
41
1
10
90.2902835486165
20
8.43398162184698
30
0
41
1
10
90.2892117955988
20
8.43440226510521
30
0
41
1
10
90.2881397150101
20
8.43482112816375
30
0
41
1
10
90.2864233515593
20
8.43548561183761
30
0
41
1
10
90.2840609615582
20
8.43638556376067
30
0
41
1
10
90.2814809933921
20
8.43735022563689
30
0
41
1
10
90.2728722634546
20
8.44050872912914
30
0
41
1
10
90.2581740246457
20
8.44544168118796
30
0
41
1
10
90.2303994349743
20
8.45328325582375
30
0
41
1
10
90.2026211281175
20
8.45898396220664
30
0
41
1
10
90.1786014810564
20
8.4621896888487
30
0
41
1
10
90.1674893988368
20
8.46328149508361
30
0
41
1
10
90.1626445029073
20
8.46368980811559
30
0
41
1
10
90.1609467109622
20
8.46382382765376
30
0
41
1
10
90.1596611673235
20
8.4639212596978
30
0
41
1
10
90.158682432065
20
8.46399313785832
30
0
41
1
10
90.1579092033921
20
8.46404849922001
30
0
41
1
10
90.1575716666525
20
8.46407249884581
30
0
0
SPLINE
5
216
100
AcDbEntity
8
1
62
256
6
ByLayer
370
-1
48
1
60
0
100
AcDbSpline
70
4
71
3
72
48
73
44
40
0
40
0
40
0
40
0
40
0.015625
40
0.0234375
40
0.02734375
40
0.029296875
40
0.0302734375
40
0.03125
40
0.03173828125
40
0.046875
40
0.0625
40
0.125
40
0.1875
40
0.25
40
0.3125
40
0.375
40
0.390625
40
0.40625
40
0.4140625
40
0.421875
40
0.4375
40
0.5
40
0.5625
40
0.59375
40
0.6015625
40
0.60546875
40
0.609375
40
0.6171875
40
0.625
40
0.65625
40
0.671875
40
0.6796875
40
0.6875
40
0.71875
40
0.75
40
0.78125
40
0.7890625
40
0.79296875
40
0.796875
40
0.8046875
40
0.8125
40
0.875
40
1
40
1
40
1
40
1
41
1
10
89.8455072366315
20
5.53053216673945
30
0
41
1
10
89.8499993019283
20
5.5306896323203
30
0
41
1
10
89.8569421492973
20
5.53093014831774
30
0
41
1
10
89.8647222531419
20
5.53119459908388
30
0
41
1
10
89.8684556417202
20
5.53132021608002
30
0
41
1
10
89.8702674465225
20
5.53138084941503
30
0
41
1
10
89.8712972607323
20
5.53141522047619
30
0
41
1
10
89.8719416393323
20
5.5314367155861
30
0
41
1
10
89.8763341073489
20
5.5315832827491
30
0
41
1
10
89.8846019588214
20
5.5318591617617
30
0
41
1
10
89.9092763280596
20
5.53268248818998
30
0
41
1
10
89.9464816596858
20
5.53392394374671
30
0
41
1
10
89.9960887685208
20
5.53557921782237
30
0
41
1
10
90.0456958773558
20
5.53723449189803
30
0
41
1
10
90.0953029861908
20
5.53888976597372
30
0
41
1
10
90.1324984204769
20
5.54013088246774
30
0
41
1
10
90.1573217695747
20
5.540959197631
30
0
41
1
10
90.1676549343586
20
5.54130398988633
30
0
41
1
10
90.1758897946973
20
5.54157873868985
30
0
41
1
10
90.1841686711055
20
5.54185552284531
30
0
41
1
10
90.2072588129741
20
5.5426295638772
30
0
41
1
10
90.2465839994795
20
5.54395945706861
30
0
41
1
10
90.2918585870797
20
5.54551072842162
30
0
41
1
10
90.3213992420705
20
5.5465322848012
30
0
41
1
10
90.3338872295959
20
5.5469657556111
30
0
41
1
10
90.338400914245
20
5.54712260734672
30
0
41
1
10
90.3429404633222
20
5.54728048698246
30
0
41
1
10
90.3486491325017
20
5.54747909224102
30
0
41
1
10
90.3623328531611
20
5.5479551184867
30
0
41
1
10
90.3782942016794
20
5.54851036781579
30
0
41
1
10
90.3942646325595
20
5.54906596506311
30
0
41
1
10
90.4033755664306
20
5.54938287357891
30
0
41
1
10
90.417029550322
20
5.54985856207583
30
0
41
1
10
90.4375395380835
20
5.55057576856325
30
0
41
1
10
90.4647489765849
20
5.55153295093663
30
0
41
1
10
90.4849007077739
20
5.55224620736931
30
0
41
1
10
90.4970734102994
20
5.55267869143469
30
0
41
1
10
90.5014760979333
20
5.55283531721966
30
0
41
1
10
90.5058775862151
20
5.55299200519423
30
0
41
1
10
90.5113860980923
20
5.55318813598277
30
0
41
1
10
90.5334145443169
20
5.55397243107771
30
0
41
1
10
90.5884856598785
20
5.55593316881507
30
0
41
1
10
90.6413539308175
20
5.55781547704291
30
0
41
1
10
90.6765994447769
20
5.55907034919483
30
0
0
SPLINE
5
217
100
AcDbEntity
8
1
62
256
6
ByLayer
370
-1
48
1
60
0
100
AcDbSpline
70
4
71
3
72
153
73
149
40
0
40
0
40
0
40
0
40
0.125
40
0.25
40
0.375
40
0.3828125
40
0.390625
40
0.398193359375
40
0.4019775390625
40
0.405643463134766
40
0.40576171875
40
0.406005859375
40
0.40625
40
0.4072265625
40
0.40771484375
40
0.408203125
40
0.4091796875
40
0.41015625
40
0.412109375
40
0.4140625
40
0.416015625
40
0.4169921875
40
0.41796875
40
0.4189453125
40
0.41943359375
40
0.419921875
40
0.42041015625
40
0.4208984375
40
0.421875
40
0.422119140625
40
0.42236328125
40
0.422477722167969
40
0.426025390625
40
0.4296875
40
0.4375
40
0.439453125
40
0.44140625
40
0.443359375
40
0.4443359375
40
0.4453125
40
0.445556640625
40
0.44580078125
40
0.446044921875
40
0.4462890625
40
0.4464111328125
40
0.44677734375
40
0.447265625
40
0.44921875
40
0.453125
40
0.4609375
40
0.46484375
40
0.46875
40
0.46923828125
40
0.4697265625
40
0.47021484375
40
0.4705810546875
40
0.470703125
40
0.4708251953125
40
0.47119140625
40
0.471435546875
40
0.4716796875
40
0.4718017578125
40
0.47216796875
40
0.472412109375
40
0.47265625
40
0.4727783203125
40
0.474609375
40
0.4755859375
40
0.4765625
40
0.48046875
40
0.482421875
40
0.484375
40
0.486328125
40
0.48828125
40
0.490234375
40
0.4921875
40
0.494140625
40
0.49609375
40
0.498046875
40
0.5
40
0.501953125
40
0.50390625
40
0.505859375
40
0.5078125
40
0.509765625
40
0.51171875
40
0.515625
40
0.51953125
40
0.5224609375
40
0.5234375
40
0.525390625
40
0.5263671875
40
0.527099609375
40
0.52734375
40
0.52783203125
40
0.528076171875
40
0.5283203125
40
0.5284423828125
40
0.52880859375
40
0.529052734375
40
0.529296875
40
0.5294189453125
40
0.52978515625
40
0.5302734375
40
0.53125
40
0.5390625
40
0.546875
40
0.55078125
40
0.5517578125
40
0.552734375
40
0.55322265625
40
0.5537109375
40
0.553955078125
40
0.55419921875
40
0.554443359375
40
0.5545654296875
40
0.5546875
40
0.556640625
40
0.55859375
40
0.5625
40
0.56640625
40
0.5703125
40
0.573974609375
40
0.5758056640625
40
0.57763671875
40
0.577880859375
40
0.578125
40
0.5791015625
40
0.57958984375
40
0.580078125
40
0.5810546875
40
0.58203125
40
0.5859375
40
0.587890625
40
0.58984375
40
0.5908203125
40
0.591796875
40
0.5927734375
40
0.59375
40
0.593994140625
40
0.59423828125
40
0.594380187988281
40
0.601806640625
40
0.609375
40
0.625
40
0.75
40
0.875
40
1
40
1
40
1
40
1
41
1
10
89.8455072366315
20
5.53053216673948
30
0
41
1
10
89.8515633434227
20
5.35644550645657
30
0
41
1
10
89.8636755570051
20
5.00827218589072
30
0
41
1
10
89.8818438773789
20
4.48601220504193
30
0
41
1
10
89.8943345976358
20
4.12695846820841
30
0
41
1
10
89.901147717776
20
3.93111097539011
30
0
41
1
10
89.9022714094658
20
3.89880973959544
30
0
41
1
10
89.9031999336515
20
3.87211871843877
30
0
41
1
10
89.9039275609842
20
3.85120260572106
30
0
41
1
10
89.9042942393251
20
3.84066220246174
30
0
41
1
10
89.9044894068291
20
3.83505198782373
30
0
41
1
10
89.9045187928453
20
3.83420726800605
30
0
41
1
10
89.9045897628468
20
3.83216718995587
30
0
41
1
10
89.9046725611818
20
3.82978709889733
30
0
41
1
10
89.9047671878504
20
3.8270669948304
30
0
41
1
10
89.9048618145191
20
3.82434689076348
30
0
41
1
10
89.9049800978548
20
3.82094676067982
30
0
41
1
10
89.905169351192
20
3.815506552546
30
0
41
1
10
89.9054059178636
20
3.80870629237867
30
0
41
1
10
89.9056897978694
20
3.80054598017793
30
0
41
1
10
89.9059263645409
20
3.79374572001063
30
0
41
1
10
89.9061156178781
20
3.78830551187679
30
0
41
1
10
89.9062575578811
20
3.78422535577641
30
0
41
1
10
89.9063758412169
20
3.78082522569275
30
0
41
1
10
89.9064704678855
20
3.77810512162583
30
0
41
1
10
89.9065414378869
20
3.77606504357564
30
0
41
1
10
89.9066124078884
20
3.77402496552546
30
0
41
1
10
89.906707034557
20
3.77130486145853
30
0
41
1
10
89.906789832892
20
3.76892477039996
30
0
41
1
10
89.9068608028935
20
3.76688469234978
30
0
41
1
10
89.906890004092
20
3.76604528523538
30
0
41
1
10
89.9070792574292
20
3.76060507710153
30
0
41
1
10
89.9074341074365
20
3.75040468685057
30
0
41
1
10
89.9081619195869
20
3.72948326142963
30
0
41
1
10
89.9088124779336
20
3.71078254596955
30
0
41
1
10
89.9093802379453
20
3.69446192156801
30
0
41
1
10
89.9096641317035
20
3.6863014111205
30
0
41
1
10
89.9099007327559
20
3.67950065533631
30
0
41
1
10
89.9100900342264
20
3.67405975333881
30
0
41
1
10
89.9101965253284
20
3.67099911586581
30
0
41
1
10
89.9102675236941
20
3.66895862893168
30
0
41
1
10
89.9103030237633
20
3.66793837268699
30
0
41
1
10
89.9103385247458
20
3.66691810327748
30
0
41
1
10
89.9103681096813
20
3.66606786747621
30
0
41
1
10
89.910403612329
20
3.66504757406025
30
0
41
1
10
89.9104509504999
20
3.66368716399524
30
0
41
1
10
89.9105870545883
20
3.65977588635434
30
0
41
1
10
89.9108948147369
20
3.65093232662707
30
0
41
1
10
89.9115579715486
20
3.6318804963403
30
0
41
1
10
89.9123167451977
20
3.61009428822021
30
0
41
1
10
89.9130732321823
20
3.58834104348225
30
0
41
1
10
89.9134737452425
20
3.57680439080849
30
0
41
1
10
89.9137087020806
20
3.5700273371732
30
0
41
1
10
89.9137793317115
20
3.5679921657302
30
0
41
1
10
89.9138443759904
20
3.56612226076655
30
0
41
1
10
89.9138923501058
20
3.56475268325181
30
0
41
1
10
89.9139227009556
20
3.56389140642273
30
0
41
1
10
89.913953256658
20
3.56302717654302
30
0
41
1
10
89.9139900014753
20
3.56198829411395
30
0
41
1
10
89.9140311743265
20
3.56079673330015
30
0
41
1
10
89.9140589248511
20
3.55996611607247
30
0
41
1
10
89.9140901121837
20
3.55899574439678
30
0
41
1
10
89.9141180878917
20
3.55805560584665
30
0
41
1
10
89.9141443193092
20
3.55698131828478
30
0
41
1
10
89.914158738454
20
3.55621864122321
30
0
41
1
10
89.9141972173773
20
3.55346345111275
30
0
41
1
10
89.9141528505141
20
3.54972340506311
30
0
41
1
10
89.9139131705558
20
3.54481008219727
30
0
41
1
10
89.9133428942311
20
3.53713710378398
30
0
41
1
10
89.912088763485
20
3.52806362175161
30
0
41
1
10
89.9097919179978
20
3.51763456682261
30
0
41
1
10
89.9076234961324
20
3.50980997150256
30
0
41
1
10
89.9049952753703
20
3.50200944852492
30
0
41
1
10
89.9019076840888
20
3.49427768440205
30
0
41
1
10
89.8983611506659
20
3.48665936564643
30
0
41
1
10
89.8943626179814
20
3.47919399242707
30
0
41
1
10
89.8899190289151
20
3.471921064913
30
0
41
1
10
89.8850469621985
20
3.46487923330363
30
0
41
1
10
89.879762996563
20
3.45810714779844
30
0
41
1
10
89.8740923371554
20
3.45163912596499
30
0
41
1
10
89.8680601891224
20
3.44550948537088
30
0
41
1
10
89.8616988979432
20
3.43974585968201
30
0
41
1
10
89.8550408090965
20
3.43437588256418
30
0
41
1
10
89.8481231754408
20
3.4294188516393
30
0
41
1
10
89.840983249834
20
3.42489406452924
30
0
41
1
10
89.8312186526824
20
3.4194502838902
30
0
41
1
10
89.8186510248349
20
3.4137747067083
30
0
41
1
10
89.8046213145327
20
3.4092136614733
30
0
41
1
10
89.7944164338074
20
3.40691023223349
30
0
41
1
10
89.7868036791803
20
3.40559886743404
30
0
41
1
10
89.7817558839724
20
3.4049296888999
30
0
41
1
10
89.7770934499641
20
3.40449255688938
30
0
41
1
10
89.7746354342382
20
3.40431828522378
30
0
41
1
10
89.7728063968529
20
3.40421270824314
30
0
41
1
10
89.7715946442202
20
3.40415487009645
30
0
41
1
10
89.7703515582895
20
3.40410367426173
30
0
41
1
10
89.7695534617666
20
3.40407321445434
30
0
41
1
10
89.7685693938565
20
3.40403693947928
30
0
41
1
10
89.7675554665311
20
3.40400098768836
30
0
41
1
10
89.7663520918778
20
3.40395931454268
30
0
41
1
10
89.7654896419366
20
3.40392962618745
30
0
41
1
10
89.764460010094
20
3.40389400170949
30
0
41
1
10
89.7630956212567
20
3.40384650487132
30
0
41
1
10
89.7605554544264
20
3.40375745356835
30
0
41
1
10
89.747730099663
20
3.40330627337431
30
0
41
1
10
89.7247169061135
20
3.40249888004274
30
0
41
1
10
89.6975876983201
20
3.4015489895323
30
0
41
1
10
89.6799640077257
20
3.4009315637033
30
0
41
1
10
89.6718314814616
20
3.40064659836915
30
0
41
1
10
89.6684431556929
20
3.40052786287944
30
0
41
1
10
89.6657326188096
20
3.40043287452374
30
0
41
1
10
89.6640385822346
20
3.40037350681573
30
0
41
1
10
89.6626833808141
20
3.40032601265742
30
0
41
1
10
89.661666993282
20
3.40029039204265
30
0
41
1
10
89.6608200146273
20
3.40026070820019
30
0
41
1
10
89.6601424380835
20
3.40023696112809
30
0
41
1
10
89.6570933624859
20
3.40013009930917
30
0
41
1
10
89.6515036797796
20
3.39993418605877
30
0
41
1
10
89.6406638748983
20
3.39955423331935
30
0
41
1
10
89.6271151086497
20
3.39907929268378
30
0
41
1
10
89.6108565891513
20
3.39850936392108
30
0
41
1
10
89.5949367888092
20
3.39795130867429
30
0
41
1
10
89.5818961012949
20
3.39749417831254
30
0
41
1
10
89.5717345266084
20
3.39713797283585
30
0
41
1
10
89.566315020109
20
3.39694799658165
30
0
41
1
10
89.5630971881249
20
3.3968351981807
30
0
41
1
10
89.5610648731876
20
3.39676395708534
30
0
41
1
10
89.5586938390941
20
3.39668084247413
30
0
41
1
10
89.5559840858444
20
3.39658585434702
30
0
41
1
10
89.5532743325947
20
3.39649086621989
30
0
41
1
10
89.5498871410325
20
3.39637213106101
30
0
41
1
10
89.5417578812833
20
3.39608716667965
30
0
41
1
10
89.5322737449093
20
3.39575470823476
30
0
41
1
10
89.5214347319104
20
3.39537475572629
30
0
41
1
10
89.5146603487861
20
3.39513728540851
30
0
41
1
10
89.5092408422867
20
3.39494730915428
30
0
41
1
10
89.5051762124121
20
3.39480482696362
30
0
41
1
10
89.5011115825375
20
3.39466234477294
30
0
41
1
10
89.4980631101316
20
3.39455548312995
30
0
41
1
10
89.4960307951943
20
3.39448424203459
30
0
41
1
10
89.4951564763723
20
3.39445359352172
30
0
41
1
10
89.4843174633734
20
3.39407364101325
30
0
41
1
10
89.463316875688
20
3.39333748302812
30
0
41
1
10
89.4208351425144
20
3.39184832150718
30
0
41
1
10
89.2152326146916
20
3.38464109736236
30
0
41
1
10
88.8467061727291
20
3.37172271207479
30
0
41
1
10
88.3264335487821
20
3.35348499166881
30
0
41
1
10
87.9795851328174
20
3.34132651139814
30
0
41
1
10
87.806160924835
20
3.33524727126283
30
0
0
SPLINE
5
218
100
AcDbEntity
8
1
62
256
6
ByLayer
370
-1
48
1
60
0
100
AcDbSpline
70
4
71
3
72
13
73
9
40
0
40
0
40
0
40
0
40
0.312317913031035
40
0.624635826062069
40
0.936953739093104
40
0.975993478221983
40
0.994903351862534
40
1
40
1
40
1
40
1
41
1
10
87.6471218580414
20
8.39489507116761
30
0
41
1
10
87.4124839540395
20
8.38667003626693
30
0
41
1
10
86.9432081460358
20
8.37021996646558
30
0
41
1
10
86.2392944340303
20
8.34554486176356
30
0
41
1
10
85.7406888880263
20
8.32806666259961
30
0
41
1
10
85.4625146541804
20
8.31831549817633
30
0
41
1
10
85.4151493193817
20
8.31665514609699
30
0
41
1
10
85.3971136978921
20
8.31602303725248
30
0
41
1
10
85.3932846862826
20
8.31588884538692
30
0
0
SPLINE
5
219
100
AcDbEntity
8
1
62
256
6
ByLayer
370
-1
48
1
60
0
100
AcDbSpline
70
4
71
3
72
8
73
4
40
0
40
0
40
0
40
0
40
1
40
1
40
1
40
1
41
1
10
90.7553051729471
20
3.29662389067008
30
0
41
1
10
90.7557243921049
20
3.28457316804941
30
0
41
1
10
90.7561217673503
20
3.27252167970872
30
0
41
1
10
90.7564972960519
20
3.26046950545029
30
0
0
SPLINE
5
21A
100
AcDbEntity
8
1
62
256
6
ByLayer
370
-1
48
1
60
0
100
AcDbSpline
70
4
71
3
72
22
73
18
40
0
40
0
40
0
40
0
40
0.0178234039225863
40
0.0278216291117012
40
0.0378198543008161
40
0.112806543219178
40
0.18779323213754
40
0.337766609974264
40
0.497738213000102
40
0.657709816025941
40
0.81768141905178
40
0.897667220564699
40
0.977653022077619
40
0.982652134672176
40
0.987651247266733
40
0.997649472455848
40
1
40
1
40
1
40
1
41
1
10
85.2741686035076
20
8.30732633313474
30
0
41
1
10
85.2733591146324
20
8.30721323255361
30
0
41
1
10
85.2720955865216
20
8.30703580154434
30
0
41
1
10
85.2703779236522
20
8.30679373287839
30
0
41
1
10
85.2660640222504
20
8.30618500171119
30
0
41
1
10
85.2587985086111
20
8.30515983370123
30
0
41
1
10
85.2451756817314
20
8.30323780109046
30
0
41
1
10
85.2276930682685
20
8.30077139458021
30
0
41
1
10
85.2063506570281
20
8.29776045676249
30
0
41
1
10
85.1845541519314
20
8.29468545643803
30
0
41
1
10
85.1663903976842
20
8.29212295616762
30
0
41
1
10
85.1518088437908
20
8.29006415057211
30
0
41
1
10
85.144336374944
20
8.28901061690286
30
0
41
1
10
85.1402922612043
20
8.28844149763913
30
0
41
1
10
85.1393963687246
20
8.28831532698604
30
0
41
1
10
85.1386253445282
20
8.28820646121835
30
0
41
1
10
85.1380831452926
20
8.28812955219362
30
0
41
1
10
85.1379801683353
20
8.28811492951596
30
0
0
SPLINE
5
21B
100
AcDbEntity
8
1
62
256
6
ByLayer
370
-1
48
1
60
0
100
AcDbSpline
70
4
71
3
72
8
73
4
40
0
40
0
40
0
40
0
40
1
40
1
40
1
40
1
41
1
10
84.9021172242167
20
3.05524900663053
30
0
41
1
10
84.9016543185271
20
3.06729815672841
30
0
41
1
10
84.9012132539696
20
3.07934815234412
30
0
41
1
10
84.9007940334648
20
3.09139891368483
30
0
0
SPLINE
5
21C
100
AcDbEntity
8
1
62
256
6
ByLayer
370
-1
48
1
60
0
100
AcDbSpline
70
4
71
3
72
79
73
75
40
0
40
0
40
0
40
0
40
0.001724586491645
40
0.0039792263717724
40
0.0084885061320272
40
0.012997785892282
40
0.0220163454127916
40
0.0310349049333013
40
0.0671091430153397
40
0.139257619179417
40
0.211406095343494
40
0.220424654864003
40
0.224933934624258
40
0.228315894444449
40
0.229443214384513
40
0.23169785426464
40
0.233952494144768
40
0.237334453964959
40
0.238461773905022
40
0.24071641378515
40
0.242971053665277
40
0.247480333425532
40
0.249734973305659
40
0.256498892946042
40
0.265517452466551
40
0.283554571507571
40
0.29257313102808
40
0.319628809589609
40
0.355703047671648
40
0.391777285753686
40
0.409814404794705
40
0.427851523835724
40
0.445888642876744
40
0.463925761917763
40
0.481962880958782
40
0.499999999999801
40
0.51803711904082
40
0.536074238081839
40
0.554111357122859
40
0.572148476163878
40
0.590185595204896
40
0.608222714245916
40
0.626259833286935
40
0.644296952327955
40
0.662334071368974
40
0.680371190409995
40
0.716445428492032
40
0.725463988012541
40
0.734482547533053
40
0.751392346634006
40
0.75251966657407
40
0.754774306454198
40
0.757028946334325
40
0.76041090615452
40
0.76153822609458
40
0.763792865974709
40
0.766047505854835
40
0.769429465675028
40
0.770556785615089
40
0.771684105555152
40
0.775066065375346
40
0.779575345135599
40
0.784084624895854
40
0.788593904656109
40
0.824668142738147
40
0.860742380820186
40
0.932890856984262
40
0.968965095066301
40
0.98700221410732
40
0.991511493867576
40
0.994893453687766
40
0.99602077362783
40
0.998275413507957
40
1
40
1
40
1
40
1
41
1
10
85.1379801683353
20
8.28811492951596
30
0
41
1
10
85.137645121577
20
8.28806735303982
30
0
41
1
10
85.1368776235683
20
8.28795798279677
30
0
41
1
10
85.1352629582473
20
8.28772486976794
30
0
41
1
10
85.1331551836934
20
8.28741041579408
30
0
41
1
10
85.1298127698404
20
8.28689106120567
30
0
41
1
10
85.1256009914508
20
8.28620048070476
30
0
41
1
10
85.1154368222527
20
8.28441557641321
30
0
41
1
10
85.0933940527431
20
8.27988429291315
30
0
41
1
10
85.0592509373142
20
8.2703443701073
30
0
41
1
10
85.0304453014974
20
8.25921029575622
30
0
41
1
10
85.014557205613
20
8.25202489843034
30
0
41
1
10
85.0114288918597
20
8.25057510593922
30
0
41
1
10
85.0097628850385
20
8.24979205611277
30
0
41
1
10
85.0085144508435
20
8.24920056056615
30
0
41
1
10
85.0074747647358
20
8.2487050182221
30
0
41
1
10
85.0060204894103
20
8.24800635344351
30
0
41
1
10
85.0047753703137
20
8.2474022449172
30
0
41
1
10
85.0035314040064
20
8.24679393745458
30
0
41
1
10
85.0024954923064
20
8.24628439095579
30
0
41
1
10
85.000839611573
20
8.2454635225962
30
0
41
1
10
84.9991861387542
20
8.24463426791459
30
0
41
1
10
84.9967096642002
20
8.24337782026984
30
0
41
1
10
84.9934144467073
20
8.24168023017995
30
0
41
1
10
84.9872591322069
20
8.23842411100586
30
0
41
1
10
84.9807385395162
20
8.23481747530474
30
0
41
1
10
84.9710331240191
20
8.22920824596443
30
0
41
1
10
84.9582336445649
20
8.22137723537014
30
0
41
1
10
84.9410236256957
20
8.20977860132086
30
0
41
1
10
84.9258515791727
20
8.19839331693953
30
0
41
1
10
84.9140366583004
20
8.18880236948951
30
0
41
1
10
84.9053464911294
20
8.18137327968464
30
0
41
1
10
84.8968370127516
20
8.1737137914175
30
0
41
1
10
84.8885166716979
20
8.16583131116488
30
0
41
1
10
84.880393916499
20
8.15773324540342
30
0
41
1
10
84.8724771956857
20
8.14942700060988
30
0
41
1
10
84.8647749577888
20
8.14091998326089
30
0
41
1
10
84.8572939737881
20
8.13222117015019
30
0
41
1
10
84.8500410146638
20
8.12333953807141
30
0
41
1
10
84.8430228513957
20
8.11428406381822
30
0
41
1
10
84.8362462549637
20
8.10506372418433
30
0
41
1
10
84.8297159977492
20
8.09568858008373
30
0
41
1
10
84.8234368521333
20
8.08616869243048
30
0
41
1
10
84.8174135904973
20
8.07651412213855
30
0
41
1
10
84.8116509852223
20
8.06673493012204
30
0
41
1
10
84.8043185228493
20
8.05354397392765
30
0
41
1
10
84.7983678743746
20
8.04182088732315
30
0
41
1
10
84.7936061496616
20
8.03166973319736
30
0
41
1
10
84.7906184722461
20
8.02508893192399
30
0
41
1
10
84.7884030053269
20
8.01996836548628
30
0
41
1
10
84.7867923912548
20
8.01611636362173
30
0
41
1
10
84.7863476542552
20
8.01504576658832
30
0
41
1
10
84.7857299809584
20
8.01354584134501
30
0
41
1
10
84.7852058604703
20
8.01225904974643
30
0
41
1
10
84.7846859922975
20
8.01097137602045
30
0
41
1
10
84.7842554267882
20
8.00989776970761
30
0
41
1
10
84.7836575976286
20
8.0083937278697
30
0
41
1
10
84.7831504907412
20
8.00710351104348
30
0
41
1
10
84.7827314481575
20
8.00602766410344
30
0
41
1
10
84.7823141789993
20
8.00495148834108
30
0
41
1
10
84.7816522238865
20
8.00322856866072
30
0
41
1
10
84.7807556965522
20
8.00085715471351
30
0
41
1
10
84.7797947055057
20
7.99826733148814
30
0
41
1
10
84.7766482210728
20
7.98962571760086
30
0
41
1
10
84.7717340403859
20
7.97487133390754
30
0
41
1
10
84.763922305309
20
7.94699064981577
30
0
41
1
10
84.758243291835
20
7.91910623433958
30
0
41
1
10
84.7550497639506
20
7.8949948361288
30
0
41
1
10
84.753962112368
20
7.8838403075604
30
0
41
1
10
84.7535553530904
20
7.8789769049155
30
0
41
1
10
84.7534218435371
20
7.87727262768101
30
0
41
1
10
84.7533247822514
20
7.87598217347443
30
0
41
1
10
84.7532531776089
20
7.87499969960629
30
0
41
1
10
84.7531980269139
20
7.87422351732548
30
0
41
1
10
84.753174118614
20
7.87388469125031
30
0
0
SPLINE
5
21D
100
AcDbEntity
8
1
62
256
6
ByLayer
370
-1
48
1
60
0
100
AcDbSpline
70
4
71
3
72
8
73
4
40
0
40
0
40
0
40
0
40
1
40
1
40
1
40
1
41
1
10
90.5965705258548
20
7.85766671477393
30
0
41
1
10
90.5970334315444
20
7.84561756467605
30
0
41
1
10
90.5974744961019
20
7.83356756906034
30
0
41
1
10
90.5978937166067
20
7.82151680771963
30
0
0
SPLINE
5
21E
100
AcDbEntity
8
1
62
256
6
ByLayer
370
-1
48
1
60
0
100
AcDbSpline
70
4
71
3
72
22
73
18
40
0
40
0
40
0
40
0
40
0.0023505275440206
40
0.0123487527331387
40
0.0223469779222568
40
0.0623398786787292
40
0.102332779435193
40
0.182318580948147
40
0.262304382461087
40
0.342290183974036
40
0.662233390025815
40
0.812206767862587
40
0.957493477641946
40
0.962180145699358
40
0.972178370888472
40
0.982176596077595
40
1
40
1
40
1
40
1
41
1
10
90.7455136314575
20
3.03903103015392
30
0
41
1
10
90.7455209796975
20
3.03913516868803
30
0
41
1
10
90.7455595875198
20
3.03968347812381
30
0
41
1
10
90.7456296682652
20
3.0406878351163
30
0
41
1
10
90.7458185190781
20
3.04341282035875
30
0
41
1
10
90.7461037271925
20
3.04751924420768
30
0
41
1
10
90.7466146675384
20
3.0548578366155
30
0
41
1
10
90.7472576783974
20
3.06407359440683
30
0
41
1
10
90.7480266792884
20
3.07510688664956
30
0
41
1
10
90.7495620689303
20
3.09714785402812
30
0
41
1
10
90.7513213695617
20
3.1224031291494
30
0
41
1
10
90.7532895871431
20
3.15065746819133
30
0
41
1
10
90.7542494099548
20
3.16443310192713
30
0
41
1
10
90.7547614244067
20
3.17178012211915
30
0
41
1
10
90.7548404283087
20
3.17291374461374
30
0
41
1
10
90.7549611703022
20
3.17465065440968
30
0
41
1
10
90.7550493562991
20
3.1759282963061
30
0
41
1
10
90.75510528495
20
3.17674678738851
30
0
0
SPLINE
5
21F
100
AcDbEntity
8
1
62
256
6
ByLayer
370
-1
48
1
60
0
100
AcDbSpline
70
4
71
3
72
22
73
18
40
0
40
0
40
0
40
0
40
0.0178234039225405
40
0.0278216291116552
40
0.0378198543007699
40
0.112806543219131
40
0.187793232137491
40
0.337766609974212
40
0.497738213000048
40
0.657709816025884
40
0.817681419051719
40
0.897667220564637
40
0.977653022077555
40
0.982652134672113
40
0.98765124726667
40
0.997649472455785
40
1
40
1
40
1
40
1
41
1
10
84.9093238178415
20
2.97182782174551
30
0
41
1
10
84.9094364880409
20
2.97101524075436
30
0
41
1
10
84.9096132438715
20
2.96974688617146
30
0
41
1
10
84.9098543913931
20
2.96802266210889
30
0
41
1
10
84.9104608061544
20
2.96369228230464
30
0
41
1
10
84.9114820730907
20
2.95639901558346
30
0
41
1
10
84.913396791787
20
2.94272415171824
30
0
41
1
10
84.9158538128759
20
2.92517475751205
30
0
41
1
10
84.9188532931662
20
2.90375082172787
30
0
41
1
10
84.9219165921861
20
2.88187105752277
30
0
41
1
10
84.9244693413693
20
2.86363792068519
30
0
41
1
10
84.9265203125879
20
2.84900066762472
30
0
41
1
10
84.9275698372435
20
2.84149965516096
30
0
41
1
10
84.9281367908366
20
2.83744009356374
30
0
41
1
10
84.9282624813723
20
2.83654077892027
30
0
41
1
10
84.9283709328728
20
2.83576680953675
30
0
41
1
10
84.9284475492355
20
2.83522253918812
30
0
41
1
10
84.9284621162695
20
2.83511916887554
30
0
0
SPLINE
5
220
100
AcDbEntity
8
1
62
256
6
ByLayer
370
-1
48
1
60
0
100
AcDbSpline
70
4
71
3
72
14
73
10
40
0
40
0
40
0
40
0
40
0.0050966481374694
40
0.02400652177802
40
0.0435263913424596
40
0.0630462609068992
40
0.375364173937933
40
0.687682086968966
40
1
40
1
40
1
40
1
41
1
10
89.9009590196779
20
8.47390158791799
30
0
41
1
10
89.8971300102174
20
8.47376733427879
30
0
41
1
10
89.879094396701
20
8.47313499623826
30
0
41
1
10
89.8463939309024
20
8.4719887088402
30
0
41
1
10
89.8028576010583
20
8.4704625793176
30
0
41
1
10
89.5388899590562
20
8.46120941505436
30
0
41
1
10
89.0549492820525
20
8.44424528057169
30
0
41
1
10
88.3510355700469
20
8.41957017586967
30
0
41
1
10
87.8817597620433
20
8.40312010606829
30
0
41
1
10
87.6471218580414
20
8.39489507116761
30
0
0
SPLINE
5
221
100
AcDbEntity
8
1
62
256
6
ByLayer
370
-1
48
1
60
0
100
AcDbSpline
70
4
71
3
72
8
73
4
40
0
40
0
40
0
40
0
40
1
40
1
40
1
40
1
41
1
10
84.7433825771244
20
7.61629183073435
30
0
41
1
10
84.7429633579666
20
7.62834255335505
30
0
41
1
10
84.7425659827212
20
7.64039404169574
30
0
41
1
10
84.7421904540195
20
7.65244621595417
30
0
0
SPLINE
5
222
100
AcDbEntity
8
1
62
256
6
ByLayer
370
-1
48
1
60
0
100
AcDbSpline
70
4
71
3
72
22
73
18
40
0
40
0
40
0
40
0
40
0.0023505275440206
40
0.0123487527331386
40
0.0223469779222566
40
0.0623398786787285
40
0.102332779435191
40
0.182318580948144
40
0.262304382461084
40
0.342290183974032
40
0.662233390025808
40
0.812206767862578
40
0.957493477641935
40
0.962180145699348
40
0.972178370888461
40
0.982176596077583
40
1
40
1
40
1
40
1
41
1
10
84.753174118614
20
7.87388469125054
30
0
41
1
10
84.753166770374
20
7.8737805527164
30
0
41
1
10
84.7531281625517
20
7.87323224328065
30
0
41
1
10
84.7530580818063
20
7.87222788628813
30
0
41
1
10
84.7528692309934
20
7.86950290104571
30
0
41
1
10
84.752584022879
20
7.86539647719678
30
0
41
1
10
84.7520730825331
20
7.85805788478896
30
0
41
1
10
84.7514300716741
20
7.84884212699762
30
0
41
1
10
84.7506610707831
20
7.8378088347549
30
0
41
1
10
84.7491256811412
20
7.81576786737631
30
0
41
1
10
84.7473663805098
20
7.79051259225506
30
0
41
1
10
84.7453981629284
20
7.7622582532131
30
0
41
1
10
84.7444383401167
20
7.7484826194773
30
0
41
1
10
84.7439263256649
20
7.74113559928531
30
0
41
1
10
84.7438473217628
20
7.74000197679072
30
0
41
1
10
84.7437265797693
20
7.73826506699479
30
0
41
1
10
84.7436383937724
20
7.73698742509836
30
0
41
1
10
84.7435824651215
20
7.73616893401595
30
0
0
SPLINE
5
223
100
AcDbEntity
8
1
62
256
6
ByLayer
370
-1
48
1
60
0
100
AcDbSpline
70
4
71
3
72
153
73
149
40
0
40
0
40
0
40
0
40
0.125
40
0.25
40
0.375
40
0.3828125
40
0.390625
40
0.398193359375
40
0.4019775390625
40
0.405643463134766
40
0.40576171875
40
0.406005859375
40
0.40625
40
0.4072265625
40
0.40771484375
40
0.408203125
40
0.4091796875
40
0.41015625
40
0.412109375
40
0.4140625
40
0.416015625
40
0.4169921875
40
0.41796875
40
0.4189453125
40
0.41943359375
40
0.419921875
40
0.42041015625
40
0.4208984375
40
0.421875
40
0.422119140625
40
0.42236328125
40
0.422477722167969
40
0.426025390625
40
0.4296875
40
0.4375
40
0.439453125
40
0.44140625
40
0.443359375
40
0.4443359375
40
0.4453125
40
0.445556640625
40
0.44580078125
40
0.446044921875
40
0.4462890625
40
0.4464111328125
40
0.44677734375
40
0.447265625
40
0.44921875
40
0.453125
40
0.4609375
40
0.46484375
40
0.46875
40
0.46923828125
40
0.4697265625
40
0.47021484375
40
0.4705810546875
40
0.470703125
40
0.4708251953125
40
0.47119140625
40
0.471435546875
40
0.4716796875
40
0.4718017578125
40
0.47216796875
40
0.472412109375
40
0.47265625
40
0.4727783203125
40
0.474609375
40
0.4755859375
40
0.4765625
40
0.48046875
40
0.482421875
40
0.484375
40
0.486328125
40
0.48828125
40
0.490234375
40
0.4921875
40
0.494140625
40
0.49609375
40
0.498046875
40
0.5
40
0.501953125
40
0.50390625
40
0.505859375
40
0.5078125
40
0.509765625
40
0.51171875
40
0.515625
40
0.51953125
40
0.5224609375
40
0.5234375
40
0.525390625
40
0.5263671875
40
0.527099609375
40
0.52734375
40
0.52783203125
40
0.528076171875
40
0.5283203125
40
0.5284423828125
40
0.52880859375
40
0.529052734375
40
0.529296875
40
0.5294189453125
40
0.52978515625
40
0.5302734375
40
0.53125
40
0.5390625
40
0.546875
40
0.55078125
40
0.5517578125
40
0.552734375
40
0.55322265625
40
0.5537109375
40
0.553955078125
40
0.55419921875
40
0.554443359375
40
0.5545654296875
40
0.5546875
40
0.556640625
40
0.55859375
40
0.5625
40
0.56640625
40
0.5703125
40
0.573974609375
40
0.5758056640625
40
0.57763671875
40
0.577880859375
40
0.578125
40
0.5791015625
40
0.57958984375
40
0.580078125
40
0.5810546875
40
0.58203125
40
0.5859375
40
0.587890625
40
0.58984375
40
0.5908203125
40
0.591796875
40
0.5927734375
40
0.59375
40
0.593994140625
40
0.59423828125
40
0.594380187988281
40
0.601806640625
40
0.609375
40
0.625
40
0.75
40
0.875
40
1
40
1
40
1
40
1
41
1
10
85.6192297511603
20
5.38238355466493
30
0
41
1
10
85.613173644369
20
5.55647021494786
30
0
41
1
10
85.6010614307866
20
5.90464353551371
30
0
41
1
10
85.5828931104128
20
6.42690351636247
30
0
41
1
10
85.5704023901558
20
6.78595725319602
30
0
41
1
10
85.5635892700157
20
6.98180474601429
30
0
41
1
10
85.5624655783259
20
7.014105981809
30
0
41
1
10
85.5615370541402
20
7.04079700296563
30
0
41
1
10
85.5608094268075
20
7.06171311568335
30
0
41
1
10
85.5604427484666
20
7.07225351894266
30
0
41
1
10
85.5602475809627
20
7.0778637335807
30
0
41
1
10
85.5602181949464
20
7.07870845339835
30
0
41
1
10
85.560147224945
20
7.08074853144853
30
0
41
1
10
85.5600644266099
20
7.0831286225071
30
0
41
1
10
85.5599697999413
20
7.08584872657403
30
0
41
1
10
85.5598751732727
20
7.08856883064095
30
0
41
1
10
85.5597568899369
20
7.09196896072459
30
0
41
1
10
85.5595676365996
20
7.09740916885843
30
0
41
1
10
85.5593310699281
20
7.10420942902573
30
0
41
1
10
85.5590471899223
20
7.1123697412265
30
0
41
1
10
85.5588106232507
20
7.1191700013938
30
0
41
1
10
85.5586213699135
20
7.12461020952765
30
0
41
1
10
85.5584794299106
20
7.12869036562802
30
0
41
1
10
85.5583611465748
20
7.13209049571168
30
0
41
1
10
85.5582665199062
20
7.1348105997786
30
0
41
1
10
85.5581955499048
20
7.13685067782879
30
0
41
1
10
85.5581245799033
20
7.13889075587898
30
0
41
1
10
85.5580299532347
20
7.1416108599459
30
0
41
1
10
85.5579471548996
20
7.14399095100444
30
0
41
1
10
85.5578761848982
20
7.14603102905463
30
0
41
1
10
85.5578469836997
20
7.14687043616905
30
0
41
1
10
85.5576577303625
20
7.15231064430287
30
0
41
1
10
85.5573028803552
20
7.16251103455383
30
0
41
1
10
85.5565750682048
20
7.1834324599748
30
0
41
1
10
85.5559245098581
20
7.20213317543488
30
0
41
1
10
85.5553567498464
20
7.2184537998364
30
0
41
1
10
85.5550728560882
20
7.22661431028391
30
0
41
1
10
85.5548362550358
20
7.23341506606812
30
0
41
1
10
85.5546469535654
20
7.23885596806559
30
0
41
1
10
85.5545404624633
20
7.24191660553862
30
0
41
1
10
85.5544694640976
20
7.24395709247275
30
0
41
1
10
85.5544339640284
20
7.24497734871741
30
0
41
1
10
85.5543984630459
20
7.24599761812692
30
0
41
1
10
85.5543688781104
20
7.24684785392822
30
0
41
1
10
85.5543333754627
20
7.24786814734418
30
0
41
1
10
85.5542860372918
20
7.2492285574092
30
0
41
1
10
85.5541499332034
20
7.25313983505009
30
0
41
1
10
85.5538421730548
20
7.26198339477736
30
0
41
1
10
85.5531790162431
20
7.28103522506413
30
0
41
1
10
85.552420242594
20
7.30282143318422
30
0
41
1
10
85.5516637556094
20
7.32457467792219
30
0
41
1
10
85.5512632425492
20
7.33611133059591
30
0
41
1
10
85.5510282857111
20
7.34288838423123
30
0
41
1
10
85.5509576560801
20
7.34492355567423
30
0
41
1
10
85.5508926118013
20
7.34679346063788
30
0
41
1
10
85.5508446376859
20
7.34816303815262
30
0
41
1
10
85.5508142868361
20
7.3490243149817
30
0
41
1
10
85.5507837311337
20
7.34988854486141
30
0
41
1
10
85.5507469863164
20
7.35092742729049
30
0
41
1
10
85.5507058134652
20
7.35211898810425
30
0
41
1
10
85.5506780629406
20
7.35294960533196
30
0
41
1
10
85.550646875608
20
7.35391997700762
30
0
41
1
10
85.5506188999
20
7.35486011555778
30
0
41
1
10
85.5505926684825
20
7.35593440311965
30
0
41
1
10
85.5505782493377
20
7.35669708018122
30
0
41
1
10
85.5505397704143
20
7.35945227029168
30
0
41
1
10
85.5505841372776
20
7.36319231634133
30
0
41
1
10
85.5508238172359
20
7.36810563920716
30
0
41
1
10
85.5513940935606
20
7.37577861762045
30
0
41
1
10
85.5526482243067
20
7.38485209965282
30
0
41
1
10
85.5549450697939
20
7.39528115458182
30
0
41
1
10
85.5571134916592
20
7.40310574990184
30
0
41
1
10
85.5597417124214
20
7.41090627287952
30
0
41
1
10
85.5628293037028
20
7.41863803700235
30
0
41
1
10
85.5663758371258
20
7.426256355758
30
0
41
1
10
85.5703743698103
20
7.43372172897736
30
0
41
1
10
85.5748179588766
20
7.44099465649143
30
0
41
1
10
85.5796900255932
20
7.44803648810077
30
0
41
1
10
85.5849739912287
20
7.45480857360599
30
0
41
1
10
85.5906446506363
20
7.46127659543944
30
0
41
1
10
85.5966767986693
20
7.46740623603355
30
0
41
1
10
85.6030380898486
20
7.47316986172243
30
0
41
1
10
85.6096961786952
20
7.47853983884025
30
0
41
1
10
85.616613812351
20
7.48349686976513
30
0
41
1
10
85.6237537379577
20
7.48802165687519
30
0
41
1
10
85.6335183351093
20
7.49346543751423
30
0
41
1
10
85.6460859629568
20
7.49914101469614
30
0
41
1
10
85.660115673259
20
7.50370205993113
30
0
41
1
10
85.6703205539844
20
7.50600548917095
30
0
41
1
10
85.6779333086114
20
7.50731685397037
30
0
41
1
10
85.6829811038193
20
7.5079860325045
30
0
41
1
10
85.6876435378276
20
7.50842316451505
30
0
41
1
10
85.6901015535535
20
7.50859743618062
30
0
41
1
10
85.6919305909388
20
7.50870301316129
30
0
41
1
10
85.6931423435715
20
7.50876085130795
30
0
41
1
10
85.6943854295021
20
7.5088120471427
30
0
41
1
10
85.6951835260251
20
7.50884250695006
30
0
41
1
10
85.6961675939353
20
7.50887878192512
30
0
41
1
10
85.6971815212606
20
7.50891473371604
30
0
41
1
10
85.6983848959139
20
7.50895640686176
30
0
41
1
10
85.6992473458551
20
7.50898609521698
30
0
41
1
10
85.7002769776977
20
7.50902171969494
30
0
41
1
10
85.701641366535
20
7.50906921653308
30
0
41
1
10
85.7041815333653
20
7.50915826783609
30
0
41
1
10
85.7170068881287
20
7.50960944803009
30
0
41
1
10
85.7400200816782
20
7.51041684136169
30
0
41
1
10
85.7671492894715
20
7.5113667318721
30
0
41
1
10
85.784772980066
20
7.51198415770111
30
0
41
1
10
85.7929055063301
20
7.51226912303525
30
0
41
1
10
85.7962938320988
20
7.51238785852499
30
0
41
1
10
85.7990043689821
20
7.51248284688069
30
0
41
1
10
85.8006984055572
20
7.51254221458871
30
0
41
1
10
85.8020536069775
20
7.51258970874699
30
0
41
1
10
85.8030699945097
20
7.51262532936178
30
0
41
1
10
85.8039169731643
20
7.51265501320421
30
0
41
1
10
85.8045945497082
20
7.51267876027632
30
0
41
1
10
85.8076436253058
20
7.51278562209527
30
0
41
1
10
85.8132333080121
20
7.51298153534563
30
0
41
1
10
85.8240731128934
20
7.51336148808508
30
0
41
1
10
85.837621879142
20
7.51383642872065
30
0
41
1
10
85.8538803986404
20
7.51440635748335
30
0
41
1
10
85.8698001989825
20
7.51496441273014
30
0
41
1
10
85.8828408864968
20
7.51542154309189
30
0
41
1
10
85.8930024611833
20
7.51577774856855
30
0
41
1
10
85.8984219676827
20
7.51596772482279
30
0
41
1
10
85.9016397996668
20
7.51608052322374
30
0
41
1
10
85.903672114604
20
7.51615176431906
30
0
41
1
10
85.9060431486976
20
7.51623487893031
30
0
41
1
10
85.9087529019473
20
7.51632986705741
30
0
41
1
10
85.911462655197
20
7.51642485518454
30
0
41
1
10
85.9148498467592
20
7.51654359034342
30
0
41
1
10
85.9229791065084
20
7.51682855472475
30
0
41
1
10
85.9324632428824
20
7.51716101316967
30
0
41
1
10
85.9433022558813
20
7.51754096567811
30
0
41
1
10
85.9500766390056
20
7.51777843599589
30
0
41
1
10
85.955496145505
20
7.51796841225013
30
0
41
1
10
85.9595607753797
20
7.51811089444081
30
0
41
1
10
85.9636254052542
20
7.51825337663149
30
0
41
1
10
85.9666738776601
20
7.51836023827448
30
0
41
1
10
85.9687061925974
20
7.51843147936981
30
0
41
1
10
85.9695805114195
20
7.51846212788271
30
0
41
1
10
85.9804195244183
20
7.51884208039115
30
0
41
1
10
86.0014201121037
20
7.51957823837631
30
0
41
1
10
86.0439018452773
20
7.52106739989725
30
0
41
1
10
86.2495043731001
20
7.52827462404207
30
0
41
1
10
86.6180308150626
20
7.54119300932965
30
0
41
1
10
87.1383034390096
20
7.55943072973562
30
0
41
1
10
87.4851518549743
20
7.57158921000627
30
0
41
1
10
87.6585760629567
20
7.5776684501416
30
0
0
SPLINE
5
224
100
AcDbEntity
8
1
62
256
6
ByLayer
370
-1
48
1
60
0
100
AcDbSpline
70
4
71
3
72
13
73
9
40
0
40
0
40
0
40
0
40
0.312317913031033
40
0.624635826062065
40
0.936953739093098
40
0.975993478221977
40
0.994903351862528
40
1
40
1
40
1
40
1
41
1
10
87.8515658920301
20
2.51802065023679
30
0
41
1
10
88.086203796032
20
2.52624568513747
30
0
41
1
10
88.5554796040357
20
2.54269575493885
30
0
41
1
10
89.2593933160412
20
2.56737085964087
30
0
41
1
10
89.7579988620451
20
2.58484905880482
30
0
41
1
10
90.0361730958911
20
2.59460022322807
30
0
41
1
10
90.0835384306898
20
2.59626057530741
30
0
41
1
10
90.1015740521794
20
2.59689268415192
30
0
41
1
10
90.1054030637889
20
2.59702687601748
30
0
0
SPLINE
5
225
100
AcDbEntity
8
1
62
256
6
ByLayer
370
-1
48
1
60
0
100
AcDbSpline
70
4
71
3
72
8
73
4
40
0
40
0
40
0
40
0
40
1
40
1
40
1
40
1
41
1
10
85.5977287253313
20
2.43901427897123
30
0
41
1
10
85.5857238593484
20
2.4385934584644
30
0
41
1
10
85.5737182305593
20
2.43819456531011
30
0
41
1
10
85.5617119184625
20
2.43781760214981
30
0
0
SPLINE
5
226
100
AcDbEntity
8
1
62
256
6
ByLayer
370
-1
48
1
60
0
100
AcDbSpline
70
4
71
3
72
22
73
18
40
0
40
0
40
0
40
0
40
0.0023505275440887
40
0.0123487527332064
40
0.022346977922324
40
0.0623398786787946
40
0.102332779435256
40
0.182318580948206
40
0.262304382461143
40
0.342290183974089
40
0.662233390025853
40
0.812206767862618
40
0.95749347764197
40
0.962180145699383
40
0.972178370888496
40
0.982176596077618
40
1
40
1
40
1
40
1
41
1
10
85.3411160834188
20
2.44884322255865
30
0
41
1
10
85.3412198256744
20
2.44883584624958
30
0
41
1
10
85.3417660486272
20
2.44879709095164
30
0
41
1
10
85.3427665837381
20
2.44872674250914
30
0
41
1
10
85.345481199589
20
2.44853717031688
30
0
41
1
10
85.3495719972554
20
2.44825087275379
30
0
41
1
10
85.3568826641036
20
2.4477379806988
30
0
41
1
10
85.3660633531542
20
2.4470925136427
30
0
41
1
10
85.3770546603889
20
2.4463205752933
30
0
41
1
10
85.3990117552322
20
2.44477932071234
30
0
41
1
10
85.4241709264069
20
2.44301329983836
30
0
41
1
10
85.4523177491586
20
2.44103756398559
30
0
41
1
10
85.466040962449
20
2.44007407480666
30
0
41
1
10
85.4733600250111
20
2.43956010454278
30
0
41
1
10
85.4744893337298
20
2.43948079885863
30
0
41
1
10
85.4762196340596
20
2.43935959565033
30
0
41
1
10
85.4774924141428
20
2.43927107279725
30
0
41
1
10
85.4783077906196
20
2.439214930508
30
0
0
SPLINE
5
227
100
AcDbEntity
8
1
62
256
6
ByLayer
370
-1
48
1
60
0
100
AcDbSpline
70
4
71
3
72
19
73
15
40
0
40
0
40
0
40
0
40
0.040365733615487
40
0.106300330648545
40
0.172234927681604
40
0.238169524714662
40
0.370038718780779
40
0.501907912846896
40
0.76564630097913
40
0.831580898012188
40
0.897515495045246
40
0.930482793561775
40
0.963450092078305
40
1
40
1
40
1
40
1
41
1
10
84.9020532365079
20
3.05524664584468
30
0
41
1
10
84.9020939325322
20
3.05412037513165
30
0
41
1
10
84.9022039470189
20
3.05115475886871
30
0
41
1
10
84.9024031578016
20
3.04635113659978
30
0
41
1
10
84.9026748296016
20
3.04083490640147
30
0
41
1
10
84.9030903280926
20
3.03348148879621
30
0
41
1
10
84.9037022428086
20
3.02429428624402
30
0
41
1
10
84.9048822067247
20
3.00960863320154
30
0
41
1
10
84.9061829221378
20
2.99678230379993
30
0
41
1
10
84.9074813234322
20
2.98581171980055
30
0
41
1
10
84.9080554133525
20
2.9812454963162
30
0
41
1
10
84.908536042309
20
2.97759600008419
30
0
41
1
10
84.9089187858415
20
2.97476101643818
30
0
41
1
10
84.9091836739253
20
2.97283854404014
30
0
41
1
10
84.9093238178415
20
2.97182782174551
30
0
0
SPLINE
5
228
100
AcDbEntity
8
1
62
256
6
ByLayer
370
-1
48
1
60
0
100
AcDbSpline
70
4
71
3
72
153
73
149
40
0
40
0
40
0
40
0
40
0.125
40
0.25
40
0.375
40
0.3828125
40
0.390625
40
0.398193359375
40
0.4019775390625
40
0.405643463134766
40
0.40576171875
40
0.406005859375
40
0.40625
40
0.4072265625
40
0.40771484375
40
0.408203125
40
0.4091796875
40
0.41015625
40
0.412109375
40
0.4140625
40
0.416015625
40
0.4169921875
40
0.41796875
40
0.4189453125
40
0.41943359375
40
0.419921875
40
0.42041015625
40
0.4208984375
40
0.421875
40
0.422119140625
40
0.42236328125
40
0.422477722167969
40
0.426025390625
40
0.4296875
40
0.4375
40
0.439453125
40
0.44140625
40
0.443359375
40
0.4443359375
40
0.4453125
40
0.445556640625
40
0.44580078125
40
0.446044921875
40
0.4462890625
40
0.4464111328125
40
0.44677734375
40
0.447265625
40
0.44921875
40
0.453125
40
0.4609375
40
0.46484375
40
0.46875
40
0.46923828125
40
0.4697265625
40
0.47021484375
40
0.4705810546875
40
0.470703125
40
0.4708251953125
40
0.47119140625
40
0.471435546875
40
0.4716796875
40
0.4718017578125
40
0.47216796875
40
0.472412109375
40
0.47265625
40
0.4727783203125
40
0.474609375
40
0.4755859375
40
0.4765625
40
0.48046875
40
0.482421875
40
0.484375
40
0.486328125
40
0.48828125
40
0.490234375
40
0.4921875
40
0.494140625
40
0.49609375
40
0.498046875
40
0.5
40
0.501953125
40
0.50390625
40
0.505859375
40
0.5078125
40
0.509765625
40
0.51171875
40
0.515625
40
0.51953125
40
0.5224609375
40
0.5234375
40
0.525390625
40
0.5263671875
40
0.527099609375
40
0.52734375
40
0.52783203125
40
0.528076171875
40
0.5283203125
40
0.5284423828125
40
0.52880859375
40
0.529052734375
40
0.529296875
40
0.5294189453125
40
0.52978515625
40
0.5302734375
40
0.53125
40
0.5390625
40
0.546875
40
0.55078125
40
0.5517578125
40
0.552734375
40
0.55322265625
40
0.5537109375
40
0.553955078125
40
0.55419921875
40
0.554443359375
40
0.5545654296875
40
0.5546875
40
0.556640625
40
0.55859375
40
0.5625
40
0.56640625
40
0.5703125
40
0.573974609375
40
0.5758056640625
40
0.57763671875
40
0.577880859375
40
0.578125
40
0.5791015625
40
0.57958984375
40
0.580078125
40
0.5810546875
40
0.58203125
40
0.5859375
40
0.587890625
40
0.58984375
40
0.5908203125
40
0.591796875
40
0.5927734375
40
0.59375
40
0.593994140625
40
0.59423828125
40
0.594380187988281
40
0.601806640625
40
0.609375
40
0.625
40
0.75
40
0.875
40
1
40
1
40
1
40
1
41
1
10
87.6585760629567
20
7.5776684501416
30
0
41
1
10
87.832000270939
20
7.58374769027694
30
0
41
1
10
88.1788486869037
20
7.59590617054758
30
0
41
1
10
88.6991213108508
20
7.61414389095359
30
0
41
1
10
89.0568087398144
20
7.62668232373269
30
0
41
1
10
89.2519109737945
20
7.63352146888494
30
0
41
1
10
89.284089293635
20
7.63464945289442
30
0
41
1
10
89.3106787473979
20
7.63558152389174
30
0
41
1
10
89.331515267992
20
7.63631193064262
30
0
41
1
10
89.3420155618347
20
7.63668000963517
30
0
41
1
10
89.3476044279122
20
7.63687592264736
30
0
41
1
10
89.3484459333159
20
7.63690542091339
30
0
41
1
10
89.3504782482532
20
7.63697666200872
30
0
41
1
10
89.3528492823468
20
7.63705977661996
30
0
41
1
10
89.3555590355965
20
7.63715476474707
30
0
41
1
10
89.3582687888462
20
7.63724975287417
30
0
41
1
10
89.3616559804083
20
7.63736848803308
30
0
41
1
10
89.3670754869078
20
7.63755846428731
30
0
41
1
10
89.3738498700321
20
7.63779593460509
30
0
41
1
10
89.3819791297813
20
7.63808089898643
30
0
41
1
10
89.3887535129056
20
7.63831836930422
30
0
41
1
10
89.3941730194051
20
7.63850834555845
30
0
41
1
10
89.3982376492796
20
7.63865082774913
30
0
41
1
10
89.4016248408417
20
7.63876956290801
30
0
41
1
10
89.4043345940915
20
7.63886455103514
30
0
41
1
10
89.4063669090288
20
7.63893579213047
30
0
41
1
10
89.4083992239661
20
7.63900703322579
30
0
41
1
10
89.4111089772158
20
7.63910202135293
30
0
41
1
10
89.4134800113093
20
7.63918513596414
30
0
41
1
10
89.4155123262466
20
7.63925637705947
30
0
41
1
10
89.4163485391635
20
7.63928568980182
30
0
41
1
10
89.421768045663
20
7.63947566605606
30
0
41
1
10
89.4319296203494
20
7.63983187153272
30
0
41
1
10
89.4527714334303
20
7.6405624638073
30
0
41
1
10
89.4714009870222
20
7.64121550718122
30
0
41
1
10
89.4876595065205
20
7.64178543594389
30
0
41
1
10
89.495788963762
20
7.64207041413013
30
0
41
1
10
89.5025638406173
20
7.64230791896009
30
0
41
1
10
89.50798403834
20
7.6424979435314
30
0
41
1
10
89.5110330291635
20
7.64260484141221
30
0
41
1
10
89.5130657514287
20
7.64267611098009
30
0
41
1
10
89.5140821252904
20
7.64271174665382
30
0
41
1
10
89.5150985122668
20
7.64274738324426
30
0
41
1
10
89.5159455126641
20
7.64277708118937
30
0
41
1
10
89.5169619235556
20
7.64281271945151
30
0
41
1
10
89.5183171568496
20
7.64286023844653
30
0
41
1
10
89.5222135508982
20
7.64299686243044
30
0
41
1
10
89.5310234582108
20
7.6433057981728
30
0
41
1
10
89.5500027905314
20
7.64397148813575
30
0
41
1
10
89.5717060955521
20
7.64473316017691
30
0
41
1
10
89.5933765626264
20
7.64549253681892
30
0
41
1
10
89.6048693148537
20
7.64589457977391
30
0
41
1
10
89.6116205797539
20
7.64613043410904
30
0
41
1
10
89.6136480067551
20
7.64620133353367
30
0
41
1
10
89.6155107961658
20
7.64626662627111
30
0
41
1
10
89.6168751620247
20
7.64631478363984
30
0
41
1
10
89.6177331614354
20
7.64634525042493
30
0
41
1
10
89.6185941026595
20
7.64637592284518
30
0
41
1
10
89.6196290318272
20
7.64641280802169
30
0
41
1
10
89.6208160583924
20
7.64645413814642
30
0
41
1
10
89.6216435148708
20
7.64648199467365
30
0
41
1
10
89.6226101939893
20
7.64651330113668
30
0
41
1
10
89.6235467550284
20
7.64654138370744
30
0
41
1
10
89.6246169546017
20
7.64656771532469
30
0
41
1
10
89.6253767294468
20
7.64658218954827
30
0
41
1
10
89.6281214352271
20
7.64662081545481
30
0
41
1
10
89.6318472492724
20
7.64657627911737
30
0
41
1
10
89.6367418754613
20
7.64633568362049
30
0
41
1
10
89.6443856558752
20
7.64576322893294
30
0
41
1
10
89.6534246105691
20
7.6445043076111
30
0
41
1
10
89.6638139797955
20
7.6421986885473
30
0
41
1
10
89.671608800168
20
7.64002198366271
30
0
41
1
10
89.6793796398007
20
7.63738372352418
30
0
41
1
10
89.6870819822268
20
7.63428433814568
30
0
41
1
10
89.6946713109795
20
7.63072425754123
30
0
41
1
10
89.7021082761999
20
7.62671045111139
30
0
41
1
10
89.7093535280291
20
7.62224988825676
30
0
41
1
10
89.7163685633431
20
7.61735921103681
30
0
41
1
10
89.7231148790185
20
7.612055061511
30
0
41
1
10
89.7295582880761
20
7.6063627411057
30
0
41
1
10
89.7356646035371
20
7.60030755124725
30
0
41
1
10
89.7414062968901
20
7.59392196096911
30
0
41
1
10
89.7467558396239
20
7.58723843930471
30
0
41
1
10
89.7516940075495
20
7.58029438141219
30
0
41
1
10
89.7562015764785
20
7.57312718244961
30
0
41
1
10
89.7616246418887
20
7.56332528612319
30
0
41
1
10
89.7672786217859
20
7.55070965197899
30
0
41
1
10
89.7718223108668
20
7.53662635046266
30
0
41
1
10
89.7741169748629
20
7.52638248875076
30
0
41
1
10
89.7754233495234
20
7.51874065463778
30
0
41
1
10
89.7760899816312
20
7.51367357767231
30
0
41
1
10
89.7765254502224
20
7.50899333392346
30
0
41
1
10
89.7766990587317
20
7.50652592897686
30
0
41
1
10
89.77680423396
20
7.50468990496583
30
0
41
1
10
89.7768618520151
20
7.50347352363497
30
0
41
1
10
89.7769128530343
20
7.50222568931798
30
0
41
1
10
89.7769431969329
20
7.50142454419597
30
0
41
1
10
89.7769793338707
20
7.50043671730629
30
0
41
1
10
89.7770151488542
20
7.49941891694326
30
0
41
1
10
89.777056663421
20
7.49821094559425
30
0
41
1
10
89.7770862388031
20
7.49734520123442
30
0
41
1
10
89.7771217277191
20
7.49631163636542
30
0
41
1
10
89.7771690438175
20
7.49494203578445
30
0
41
1
10
89.7772577562534
20
7.49239216592952
30
0
41
1
10
89.7777072195706
20
7.47951782039451
30
0
41
1
10
89.7785115405267
20
7.45641672018425
30
0
41
1
10
89.779457816417
20
7.42918388322445
30
0
41
1
10
89.7800728927543
20
7.41149287299504
30
0
41
1
10
89.7803567737093
20
7.40332928180183
30
0
41
1
10
89.7804750573746
20
7.39992801317911
30
0
41
1
10
89.780569684271
20
7.39720712248521
30
0
41
1
10
89.780628826067
20
7.39550661496571
30
0
41
1
10
89.7806761394957
20
7.39414623689606
30
0
41
1
10
89.7807116245633
20
7.39312596692869
30
0
41
1
10
89.7807411954497
20
7.39227575295311
30
0
41
1
10
89.780764852157
20
7.39159558817693
30
0
41
1
10
89.7808713073345
20
7.38853486560586
30
0
41
1
10
89.7810664750758
20
7.38292383121973
30
0
41
1
10
89.7814449819803
20
7.37204262004479
30
0
41
1
10
89.7819181153234
20
7.35844209971017
30
0
41
1
10
89.7824858753351
20
7.34212147530866
30
0
41
1
10
89.7830418070132
20
7.3261408639155
30
0
41
1
10
89.7834971978559
20
7.31305036309345
30
0
41
1
10
89.7838520478632
20
7.30284997284249
30
0
41
1
10
89.7840413012004
20
7.29740976470865
30
0
41
1
10
89.7841536703694
20
7.29417964112918
30
0
41
1
10
89.7842246403708
20
7.29213956307899
30
0
41
1
10
89.7843074387059
20
7.28975947202045
30
0
41
1
10
89.7844020653745
20
7.28703936795352
30
0
41
1
10
89.7844966920431
20
7.2843192638866
30
0
41
1
10
89.7846149753789
20
7.28091913380294
30
0
41
1
10
89.7848988553847
20
7.2727588216022
30
0
41
1
10
89.7852300487249
20
7.26323845736795
30
0
41
1
10
89.7856085553993
20
7.25235804110028
30
0
41
1
10
89.7858451220708
20
7.24555778093298
30
0
41
1
10
89.7860343754081
20
7.24011757279914
30
0
41
1
10
89.786176315411
20
7.23603741669876
30
0
41
1
10
89.7863182554139
20
7.23195726059836
30
0
41
1
10
89.7864247104161
20
7.22889714352308
30
0
41
1
10
89.7864956804175
20
7.2268570654729
30
0
41
1
10
89.7865262123036
20
7.22597940689505
30
0
41
1
10
89.7869047189781
20
7.21509899062738
30
0
41
1
10
89.7876380756598
20
7.19401818410873
30
0
41
1
10
89.7891215704716
20
7.15137417761585
30
0
41
1
10
89.7963013689526
20
6.94498628153823
30
0
41
1
10
89.809170595884
20
6.57505212843702
30
0
41
1
10
89.8273389162577
20
6.05279214758826
30
0
41
1
10
89.8394511298402
20
5.70461882702242
30
0
41
1
10
89.8455072366315
20
5.53053216673948
30
0
0
SPLINE
5
229
100
AcDbEntity
8
1
62
256
6
ByLayer
370
-1
48
1
60
0
100
AcDbSpline
70
4
71
3
72
153
73
149
40
0
40
0
40
0
40
0
40
0.125
40
0.25
40
0.375
40
0.3828125
40
0.390625
40
0.398193359375
40
0.4019775390625
40
0.405643463134766
40
0.40576171875
40
0.406005859375
40
0.40625
40
0.4072265625
40
0.40771484375
40
0.408203125
40
0.4091796875
40
0.41015625
40
0.412109375
40
0.4140625
40
0.416015625
40
0.4169921875
40
0.41796875
40
0.4189453125
40
0.41943359375
40
0.419921875
40
0.42041015625
40
0.4208984375
40
0.421875
40
0.422119140625
40
0.42236328125
40
0.422477722167969
40
0.426025390625
40
0.4296875
40
0.4375
40
0.439453125
40
0.44140625
40
0.443359375
40
0.4443359375
40
0.4453125
40
0.445556640625
40
0.44580078125
40
0.446044921875
40
0.4462890625
40
0.4464111328125
40
0.44677734375
40
0.447265625
40
0.44921875
40
0.453125
40
0.4609375
40
0.46484375
40
0.46875
40
0.46923828125
40
0.4697265625
40
0.47021484375
40
0.4705810546875
40
0.470703125
40
0.4708251953125
40
0.47119140625
40
0.471435546875
40
0.4716796875
40
0.4718017578125
40
0.47216796875
40
0.472412109375
40
0.47265625
40
0.4727783203125
40
0.474609375
40
0.4755859375
40
0.4765625
40
0.48046875
40
0.482421875
40
0.484375
40
0.486328125
40
0.48828125
40
0.490234375
40
0.4921875
40
0.494140625
40
0.49609375
40
0.498046875
40
0.5
40
0.501953125
40
0.50390625
40
0.505859375
40
0.5078125
40
0.509765625
40
0.51171875
40
0.515625
40
0.51953125
40
0.5224609375
40
0.5234375
40
0.525390625
40
0.5263671875
40
0.527099609375
40
0.52734375
40
0.52783203125
40
0.528076171875
40
0.5283203125
40
0.5284423828125
40
0.52880859375
40
0.529052734375
40
0.529296875
40
0.5294189453125
40
0.52978515625
40
0.5302734375
40
0.53125
40
0.5390625
40
0.546875
40
0.55078125
40
0.5517578125
40
0.552734375
40
0.55322265625
40
0.5537109375
40
0.553955078125
40
0.55419921875
40
0.554443359375
40
0.5545654296875
40
0.5546875
40
0.556640625
40
0.55859375
40
0.5625
40
0.56640625
40
0.5703125
40
0.573974609375
40
0.5758056640625
40
0.57763671875
40
0.577880859375
40
0.578125
40
0.5791015625
40
0.57958984375
40
0.580078125
40
0.5810546875
40
0.58203125
40
0.5859375
40
0.587890625
40
0.58984375
40
0.5908203125
40
0.591796875
40
0.5927734375
40
0.59375
40
0.593994140625
40
0.59423828125
40
0.594380187988281
40
0.601806640625
40
0.609375
40
0.625
40
0.75
40
0.875
40
1
40
1
40
1
40
1
41
1
10
87.806160924835
20
3.33524727126283
30
0
41
1
10
87.6327367168527
20
3.32916803112749
30
0
41
1
10
87.285888300888
20
3.31700955085682
30
0
41
1
10
86.7656156769409
20
3.29877183045085
30
0
41
1
10
86.4079282479773
20
3.28623339767174
30
0
41
1
10
86.2128260139972
20
3.2793942525195
30
0
41
1
10
86.1806476941567
20
3.27826626851001
30
0
41
1
10
86.1540582403938
20
3.27733419751269
30
0
41
1
10
86.1332217197997
20
3.27660379076181
30
0
41
1
10
86.122721425957
20
3.27623571176923
30
0
41
1
10
86.1171325598795
20
3.27603979875707
30
0
41
1
10
86.1162910544758
20
3.27601030049104
30
0
41
1
10
86.1142587395385
20
3.27593905939568
30
0
41
1
10
86.111887705445
20
3.27585594478447
30
0
41
1
10
86.1091779521952
20
3.27576095665736
30
0
41
1
10
86.1064681989455
20
3.27566596853023
30
0
41
1
10
86.1030810073834
20
3.27554723337136
30
0
41
1
10
86.0976615008839
20
3.27535725711712
30
0
41
1
10
86.0908871177596
20
3.27511978679934
30
0
41
1
10
86.0827578580104
20
3.274834822418
30
0
41
1
10
86.0759834748861
20
3.27459735210022
30
0
41
1
10
86.0705639683867
20
3.27440737584598
30
0
41
1
10
86.0664993385121
20
3.2742648936553
30
0
41
1
10
86.0631121469499
20
3.27414615849642
30
0
41
1
10
86.0604023937002
20
3.27405117036929
30
0
41
1
10
86.0583700787629
20
3.27397992927396
30
0
41
1
10
86.0563377638256
20
3.27390868817861
30
0
41
1
10
86.0536280105759
20
3.2738137000515
30
0
41
1
10
86.0512569764824
20
3.27373058544029
30
0
41
1
10
86.0492246615451
20
3.27365934434494
30
0
41
1
10
86.0483884486281
20
3.27363003160261
30
0
41
1
10
86.0429689421288
20
3.27344005534837
30
0
41
1
10
86.0328073674423
20
3.27308384987168
30
0
41
1
10
86.0119655543614
20
3.27235325759713
30
0
41
1
10
85.9933360007695
20
3.27170021422322
30
0
41
1
10
85.9770774812712
20
3.27113028546052
30
0
41
1
10
85.9689480240297
20
3.2708453072743
30
0
41
1
10
85.9621731471744
20
3.27060780244432
30
0
41
1
10
85.9567529494517
20
3.27041777787304
30
0
41
1
10
85.9537039586283
20
3.27031087999222
30
0
41
1
10
85.951671236363
20
3.27023961042431
30
0
41
1
10
85.9506548625013
20
3.27020397475061
30
0
41
1
10
85.949638475525
20
3.27016833816017
30
0
41
1
10
85.9487914751276
20
3.27013864021504
30
0
41
1
10
85.9477750642361
20
3.27010300195292
30
0
41
1
10
85.9464198309421
20
3.2700554829579
30
0
41
1
10
85.9425234368935
20
3.26991885897397
30
0
41
1
10
85.9337135295809
20
3.2696099232316
30
0
41
1
10
85.9147341972603
20
3.26894423326868
30
0
41
1
10
85.8930308922396
20
3.26818256122749
30
0
41
1
10
85.8713604251653
20
3.26742318458548
30
0
41
1
10
85.859867672938
20
3.26702114163049
30
0
41
1
10
85.8531164080378
20
3.26678528729539
30
0
41
1
10
85.8510889810366
20
3.26671438787076
30
0
41
1
10
85.8492261916259
20
3.26664909513332
30
0
41
1
10
85.847861825767
20
3.26660093776457
30
0
41
1
10
85.8470038263563
20
3.26657047097947
30
0
41
1
10
85.8461428851322
20
3.26653979855922
30
0
41
1
10
85.8451079559645
20
3.26650291338274
30
0
41
1
10
85.8439209293993
20
3.26646158325801
30
0
41
1
10
85.8430934729209
20
3.26643372673078
30
0
41
1
10
85.8421267938024
20
3.26640242026775
30
0
41
1
10
85.8411902327633
20
3.26637433769699
30
0
41
1
10
85.84012003319
20
3.26634800607974
30
0
41
1
10
85.8393602583449
20
3.26633353185616
30
0
41
1
10
85.8366155525646
20
3.26629490594962
30
0
41
1
10
85.8328897385193
20
3.26633944228706
30
0
41
1
10
85.8279951123304
20
3.26658003778391
30
0
41
1
10
85.8203513319165
20
3.2671524924715
30
0
41
1
10
85.8113123772226
20
3.2684114137933
30
0
41
1
10
85.8009230079962
20
3.27071703285714
30
0
41
1
10
85.7931281876237
20
3.2728937377417
30
0
41
1
10
85.785357347991
20
3.27553199788025
30
0
41
1
10
85.7776550055649
20
3.27863138325873
30
0
41
1
10
85.7700656768122
20
3.2821914638632
30
0
41
1
10
85.7626287115917
20
3.28620527029301
30
0
41
1
10
85.7553834597626
20
3.29066583314764
30
0
41
1
10
85.7483684244485
20
3.29555651036759
30
0
41
1
10
85.7416221087732
20
3.3008606598934
30
0
41
1
10
85.7351786997156
20
3.3065529802987
30
0
41
1
10
85.7290723842546
20
3.31260817015718
30
0
41
1
10
85.7233306909015
20
3.31899376043532
30
0
41
1
10
85.7179811481679
20
3.32567728209972
30
0
41
1
10
85.7130429802422
20
3.33262133999224
30
0
41
1
10
85.7085354113132
20
3.33978853895482
30
0
41
1
10
85.703112345903
20
3.34959043528124
30
0
41
1
10
85.6974583660058
20
3.36220606942541
30
0
41
1
10
85.6929146769249
20
3.37628937094178
30
0
41
1
10
85.6906200129288
20
3.38653323265365
30
0
41
1
10
85.6893136382683
20
3.39417506676665
30
0
41
1
10
85.6886470061605
20
3.39924214373212
30
0
41
1
10
85.6882115375693
20
3.40392238748095
30
0
41
1
10
85.68803792906
20
3.40638979242758
30
0
41
1
10
85.6879327538316
20
3.4082258164386
30
0
41
1
10
85.6878751357766
20
3.40944219776947
30
0
41
1
10
85.6878241347575
20
3.41069003208642
30
0
41
1
10
85.6877937908588
20
3.41149117720846
30
0
41
1
10
85.687757653921
20
3.41247900409815
30
0
41
1
10
85.6877218389375
20
3.41349680446117
30
0
41
1
10
85.6876803243707
20
3.41470477581018
30
0
41
1
10
85.6876507489886
20
3.41557052017001
30
0
41
1
10
85.6876152600726
20
3.41660408503901
30
0
41
1
10
85.6875679439742
20
3.41797368561998
30
0
41
1
10
85.6874792315383
20
3.42052355547489
30
0
41
1
10
85.6870297682212
20
3.43339790100993
30
0
41
1
10
85.6862254472649
20
3.45649900122018
30
0
41
1
10
85.6852791713747
20
3.48373183817995
30
0
41
1
10
85.6846640950374
20
3.50142284840936
30
0
41
1
10
85.6843802140824
20
3.5095864396026
30
0
41
1
10
85.684261930417
20
3.5129877082253
30
0
41
1
10
85.6841673035207
20
3.51570859891922
30
0
41
1
10
85.6841081617247
20
3.51740910643872
30
0
41
1
10
85.684060848296
20
3.51876948450834
30
0
41
1
10
85.6840253632285
20
3.51978975447574
30
0
41
1
10
85.683995792342
20
3.52063996845132
30
0
41
1
10
85.6839721356347
20
3.5213201332275
30
0
41
1
10
85.6838656804572
20
3.52438085579854
30
0
41
1
10
85.6836705127159
20
3.52999189018468
30
0
41
1
10
85.6832920058113
20
3.54087310135964
30
0
41
1
10
85.6828188724683
20
3.55447362169423
30
0
41
1
10
85.6822511124566
20
3.57079424609577
30
0
41
1
10
85.6816951807785
20
3.5867748574889
30
0
41
1
10
85.6812397899358
20
3.59986535831098
30
0
41
1
10
85.6808849399285
20
3.61006574856194
30
0
41
1
10
85.6806956865913
20
3.61550595669576
30
0
41
1
10
85.6805833174223
20
3.61873608027523
30
0
41
1
10
85.6805123474209
20
3.62077615832544
30
0
41
1
10
85.6804295490858
20
3.62315624938398
30
0
41
1
10
85.6803349224172
20
3.62587635345091
30
0
41
1
10
85.6802402957486
20
3.62859645751783
30
0
41
1
10
85.6801220124128
20
3.63199658760146
30
0
41
1
10
85.679838132407
20
3.64015689980224
30
0
41
1
10
85.6795069390668
20
3.64967726403646
30
0
41
1
10
85.6791284323924
20
3.66055768030415
30
0
41
1
10
85.6788918657208
20
3.66735794047145
30
0
41
1
10
85.6787026123836
20
3.6727981486053
30
0
41
1
10
85.6785606723807
20
3.67687830470567
30
0
41
1
10
85.6784187323778
20
3.68095846080604
30
0
41
1
10
85.6783122773756
20
3.68401857788135
30
0
41
1
10
85.6782413073741
20
3.68605865593153
30
0
41
1
10
85.6782107754881
20
3.68693631450935
30
0
41
1
10
85.6778322688136
20
3.69781673077705
30
0
41
1
10
85.6770989121319
20
3.71889753729568
30
0
41
1
10
85.6756154173201
20
3.76154154378858
30
0
41
1
10
85.6684356188391
20
3.96792943986617
30
0
41
1
10
85.6555663919077
20
4.33786359296738
30
0
41
1
10
85.637398071534
20
4.86012357381617
30
0
41
1
10
85.6252858579515
20
5.20829689438202
30
0
41
1
10
85.6192297511603
20
5.38238355466493
30
0
0
SPLINE
5
22A
100
AcDbEntity
8
1
62
256
6
ByLayer
370
-1
48
1
60
0
100
AcDbSpline
70
4
71
3
72
79
73
75
40
0
40
0
40
0
40
0
40
0.0017245864915979
40
0.0039792263717254
40
0.0084885061319804
40
0.0129977858922355
40
0.0220163454127455
40
0.0310349049332555
40
0.0671091430152956
40
0.139257619179376
40
0.211406095343456
40
0.220424654863966
40
0.224933934624221
40
0.228315894444412
40
0.229443214384476
40
0.231697854264603
40
0.233952494144731
40
0.237334453964922
40
0.238461773904986
40
0.240716413785114
40
0.242971053665241
40
0.247480333425496
40
0.249734973305624
40
0.256498892946006
40
0.265517452466516
40
0.283554571507536
40
0.292573131028046
40
0.319628809589576
40
0.355703047671616
40
0.391777285753657
40
0.409814404794677
40
0.427851523835697
40
0.445888642876717
40
0.463925761917737
40
0.481962880958757
40
0.499999999999777
40
0.518037119040796
40
0.536074238081816
40
0.554111357122836
40
0.572148476163856
40
0.590185595204875
40
0.608222714245897
40
0.626259833286917
40
0.644296952327937
40
0.662334071368957
40
0.680371190409979
40
0.716445428492017
40
0.725463988012527
40
0.734482547533039
40
0.751392346633993
40
0.752519666574057
40
0.754774306454184
40
0.757028946334312
40
0.760410906154507
40
0.761538226094567
40
0.763792865974697
40
0.766047505854822
40
0.769429465675015
40
0.770556785615077
40
0.77168410555514
40
0.775066065375334
40
0.779575345135587
40
0.784084624895842
40
0.788593904656097
40
0.824668142738137
40
0.860742380820177
40
0.932890856984257
40
0.968965095066298
40
0.987002214107318
40
0.991511493867574
40
0.994893453687764
40
0.996020773627828
40
0.998275413507955
40
1
40
1
40
1
40
1
41
1
10
90.3607075817362
20
2.62480079188847
30
0
41
1
10
90.3610426284945
20
2.62484836836458
30
0
41
1
10
90.3618101265032
20
2.62495773860766
30
0
41
1
10
90.3634247918241
20
2.62519085163649
30
0
41
1
10
90.3655325663781
20
2.62550530561035
30
0
41
1
10
90.3688749802311
20
2.62602466019874
30
0
41
1
10
90.3730867586207
20
2.62671524069967
30
0
41
1
10
90.3832509278189
20
2.62850014499122
30
0
41
1
10
90.4052936973284
20
2.63303142849128
30
0
41
1
10
90.4394368127573
20
2.64257135129714
30
0
41
1
10
90.4682424485741
20
2.65370542564821
30
0
41
1
10
90.4841305444584
20
2.6608908229741
30
0
41
1
10
90.4872588582118
20
2.66234061546521
30
0
41
1
10
90.488924865033
20
2.66312366529166
30
0
41
1
10
90.490173299228
20
2.66371516083825
30
0
41
1
10
90.4912129853357
20
2.66421070318233
30
0
41
1
10
90.4926672606612
20
2.66490936796089
30
0
41
1
10
90.4939123797578
20
2.66551347648721
30
0
41
1
10
90.4951563460651
20
2.66612178394985
30
0
41
1
10
90.4961922577651
20
2.66663133044864
30
0
41
1
10
90.4978481384985
20
2.66745219880821
30
0
41
1
10
90.4995016113173
20
2.66828145348981
30
0
41
1
10
90.5019780858713
20
2.66953790113456
30
0
41
1
10
90.5052733033642
20
2.67123549122445
30
0
41
1
10
90.5114286178645
20
2.67449161039858
30
0
41
1
10
90.5179492105553
20
2.67809824609969
30
0
41
1
10
90.5276546260524
20
2.68370747543997
30
0
41
1
10
90.5404541055066
20
2.69153848603429
30
0
41
1
10
90.5576641243758
20
2.70313712008357
30
0
41
1
10
90.5728361708988
20
2.71452240446487
30
0
41
1
10
90.5846510917711
20
2.72411335191492
30
0
41
1
10
90.5933412589421
20
2.73154244171982
30
0
41
1
10
90.6018507373199
20
2.73920192998693
30
0
41
1
10
90.6101710783736
20
2.74708441023958
30
0
41
1
10
90.6182938335725
20
2.75518247600101
30
0
41
1
10
90.6262105543858
20
2.76348872079458
30
0
41
1
10
90.6339127922827
20
2.77199573814354
30
0
41
1
10
90.6413937762833
20
2.78069455125427
30
0
41
1
10
90.6486467354077
20
2.78957618333305
30
0
41
1
10
90.6556648986758
20
2.79863165758621
30
0
41
1
10
90.6624414951078
20
2.80785199722013
30
0
41
1
10
90.6689717523223
20
2.81722714132073
30
0
41
1
10
90.6752508979382
20
2.82674702897398
30
0
41
1
10
90.6812741595742
20
2.83640159926588
30
0
41
1
10
90.6870367648492
20
2.84618079128242
30
0
41
1
10
90.6943692272221
20
2.85937174747681
30
0
41
1
10
90.7003198756968
20
2.87109483408131
30
0
41
1
10
90.7050816004099
20
2.8812459882071
30
0
41
1
10
90.7080692778254
20
2.88782678948044
30
0
41
1
10
90.7102847447446
20
2.89294735591815
30
0
41
1
10
90.7118953588167
20
2.8967993577827
30
0
41
1
10
90.7123400958163
20
2.89786995481614
30
0
41
1
10
90.7129577691131
20
2.89936988005945
30
0
41
1
10
90.7134818896012
20
2.90065667165803
30
0
41
1
10
90.714001757774
20
2.90194434538401
30
0
41
1
10
90.7144323232833
20
2.90301795169683
30
0
41
1
10
90.7150301524429
20
2.90452199353476
30
0
41
1
10
90.7155372593303
20
2.90581221036098
30
0
41
1
10
90.715956301914
20
2.90688805730102
30
0
41
1
10
90.7163735710722
20
2.90796423306338
30
0
41
1
10
90.717035526185
20
2.90968715274371
30
0
41
1
10
90.7179320535193
20
2.91205856669094
30
0
41
1
10
90.7188930445658
20
2.91464838991632
30
0
41
1
10
90.7220395289987
20
2.92329000380357
30
0
41
1
10
90.7269537096856
20
2.93804438749692
30
0
41
1
10
90.7347654447626
20
2.96592507158866
30
0
41
1
10
90.7404444582365
20
2.99380948706485
30
0
41
1
10
90.7436379861209
20
3.01792088527566
30
0
41
1
10
90.7447256377034
20
3.02907541384403
30
0
41
1
10
90.745132396981
20
3.03393881648896
30
0
41
1
10
90.7452659065344
20
3.03564309372345
30
0
41
1
10
90.7453629678201
20
3.03693354793
30
0
41
1
10
90.7454345724626
20
3.03791602179817
30
0
41
1
10
90.7454897231575
20
3.03869220407898
30
0
41
1
10
90.7455136314575
20
3.03903103015415
30
0
0
SPLINE
5
22B
100
AcDbEntity
8
1
62
256
6
ByLayer
370
-1
48
1
60
0
100
AcDbSpline
70
4
71
3
72
14
73
10
40
0
40
0
40
0
40
0
40
0.0050966481374707
40
0.0240065217780212
40
0.0435263913424608
40
0.0630462609069004
40
0.375364173937934
40
0.687682086968967
40
1
40
1
40
1
40
1
41
1
10
90.7553053178783
20
3.29662389575171
30
0
41
1
10
90.7551715751147
20
3.30046753140627
30
0
41
1
10
90.7545416433113
20
3.31857203803631
30
0
41
1
10
90.7533997178829
20
3.35139741430186
30
0
41
1
10
90.7518793957439
20
3.39510004585318
30
0
41
1
10
90.7426614425643
20
3.66007600136439
30
0
41
1
10
90.725761861735
20
4.14586525313499
30
0
41
1
10
90.7011806532559
20
4.85246780116492
30
0
41
1
10
90.6847931809365
20
5.32353616651821
30
0
41
1
10
90.6765994447769
20
5.55907034919486
30
0
0
SPLINE
5
22C
100
AcDbEntity
8
1
62
256
6
ByLayer
370
-1
48
1
60
0
100
AcDbSpline
70
4
71
3
72
79
73
75
40
0
40
0
40
0
40
0
40
0.0017245864916174
40
0.0039792263717449
40
0.0084885061319999
40
0.0129977858922549
40
0.0220163454127649
40
0.0310349049332749
40
0.067109143015315
40
0.139257619179395
40
0.211406095343475
40
0.220424654863985
40
0.22493393462424
40
0.228315894444432
40
0.229443214384495
40
0.231697854264623
40
0.23395249414475
40
0.237334453964941
40
0.238461773905005
40
0.240716413785133
40
0.24297105366526
40
0.247480333425515
40
0.249734973305643
40
0.256498892946025
40
0.265517452466535
40
0.283554571507555
40
0.292573131028065
40
0.319628809589595
40
0.355703047671636
40
0.391777285753675
40
0.409814404794696
40
0.427851523835716
40
0.445888642876736
40
0.463925761917756
40
0.481962880958776
40
0.499999999999796
40
0.518037119040816
40
0.536074238081836
40
0.554111357122855
40
0.572148476163876
40
0.590185595204894
40
0.608222714245916
40
0.626259833286935
40
0.644296952327956
40
0.662334071368976
40
0.680371190409997
40
0.716445428492037
40
0.725463988012545
40
0.734482547533057
40
0.751392346634012
40
0.752519666574077
40
0.754774306454204
40
0.757028946334332
40
0.760410906154525
40
0.761538226094587
40
0.763792865974716
40
0.76604750585484
40
0.769429465675035
40
0.770556785615097
40
0.771684105555158
40
0.775066065375353
40
0.779575345135607
40
0.784084624895862
40
0.788593904656117
40
0.824668142738157
40
0.860742380820197
40
0.932890856984277
40
0.968965095066317
40
0.987002214107337
40
0.991511493867592
40
0.994893453687781
40
0.996020773627847
40
0.998275413507974
40
1
40
1
40
1
40
1
41
1
10
84.9284621162695
20
2.83511916887554
30
0
41
1
10
84.9285095117028
20
2.83478284229301
30
0
41
1
10
84.928618465759
20
2.83401241256669
30
0
41
1
10
84.9288506917224
20
2.83239157948654
30
0
41
1
10
84.929163949104
20
2.83027575357622
30
0
41
1
10
84.9296813273913
20
2.82692057224528
30
0
41
1
10
84.9303692800249
20
2.82269270554647
30
0
41
1
10
84.9321473922168
20
2.81248971087319
30
0
41
1
10
84.9366614328151
20
2.7903627415651
30
0
41
1
10
84.9461650533345
20
2.75608920498206
30
0
41
1
10
84.9572567591712
20
2.72717353631612
30
0
41
1
10
84.9644148138909
20
2.71122475048659
30
0
41
1
10
84.9658590894839
20
2.70808448708294
30
0
41
1
10
84.9666391595694
20
2.7064121163863
30
0
41
1
10
84.9672284042969
20
2.70515891337547
30
0
41
1
10
84.9677220609527
20
2.7041152558358
30
0
41
1
10
84.9684180671009
20
2.70265542541483
30
0
41
1
10
84.9690198768118
20
2.7014055501655
30
0
41
1
10
84.9696258694809
20
2.70015683210903
30
0
41
1
10
84.9701334770014
20
2.69911696339457
30
0
41
1
10
84.9709512217091
20
2.69745475746589
30
0
41
1
10
84.9717773208263
20
2.69579496864947
30
0
41
1
10
84.9730289873084
20
2.69330903436503
30
0
41
1
10
84.9747201175555
20
2.6900012296766
30
0
41
1
10
84.9779638462131
20
2.68382240287485
30
0
41
1
10
84.9815567575765
20
2.67727690257928
30
0
41
1
10
84.9871446421056
20
2.66753441397174
30
0
41
1
10
84.9949458533404
20
2.65468604258538
30
0
41
1
10
85.0065003510854
20
2.63741028424002
30
0
41
1
10
85.0178423110223
20
2.62218028296405
30
0
41
1
10
85.0273967620217
20
2.61032023101345
30
0
41
1
10
85.0347975818971
20
2.60159686881559
30
0
41
1
10
85.0424279234988
20
2.59305488561284
30
0
41
1
10
85.0502804085343
20
2.584702762208
30
0
41
1
10
85.0583476587107
20
2.57654897940384
30
0
41
1
10
85.066622295735
20
2.56860201800316
30
0
41
1
10
85.0750969413147
20
2.56087035880876
30
0
41
1
10
85.0837626528153
20
2.55336079866459
30
0
41
1
10
85.0926104876025
20
2.54608013441467
30
0
41
1
10
85.1016315030423
20
2.53903516290302
30
0
41
1
10
85.1108167565002
20
2.53223268097361
30
0
41
1
10
85.120156225347
20
2.5256774792374
30
0
41
1
10
85.1296398869536
20
2.51937434830535
30
0
41
1
10
85.1392577186908
20
2.51332807878836
30
0
41
1
10
85.1489996979292
20
2.50754346129739
30
0
41
1
10
85.1621404585529
20
2.50018299010941
30
0
41
1
10
85.1738189352736
20
2.49420961112423
30
0
41
1
10
85.1839314611932
20
2.48942969739636
30
0
41
1
10
85.1904872205309
20
2.4864306075385
30
0
41
1
10
85.1955883016674
20
2.48420667789563
30
0
41
1
10
85.1994256455019
20
2.48258991153944
30
0
41
1
10
85.2004921685904
20
2.48214347571672
30
0
41
1
10
85.2019863861653
20
2.48152344300826
30
0
41
1
10
85.2032682811333
20
2.48099732046509
30
0
41
1
10
85.2045510548721
20
2.48047546648024
30
0
41
1
10
85.2056205757887
20
2.48004325628071
30
0
41
1
10
85.2071188942934
20
2.47944314351088
30
0
41
1
10
85.208404201455
20
2.47893409955745
30
0
41
1
10
85.2094759544727
20
2.47851345629923
30
0
41
1
10
85.2105480350613
20
2.47809459324065
30
0
41
1
10
85.2122643985121
20
2.47743010956683
30
0
41
1
10
85.2146267885133
20
2.47653015764377
30
0
41
1
10
85.2172067566794
20
2.47556549576751
30
0
41
1
10
85.2258154866169
20
2.4724069922753
30
0
41
1
10
85.2405137254258
20
2.46747404021647
30
0
41
1
10
85.2682883150972
20
2.45963246558065
30
0
41
1
10
85.296066621954
20
2.45393175919779
30
0
41
1
10
85.3200862690151
20
2.45072603255574
30
0
41
1
10
85.3311983512347
20
2.44963422632082
30
0
41
1
10
85.3360432471642
20
2.44922591328884
30
0
41
1
10
85.3377410391093
20
2.44909189375068
30
0
41
1
10
85.339026582748
20
2.44899446170663
30
0
41
1
10
85.3400053180065
20
2.44892258354611
30
0
41
1
10
85.3407785466794
20
2.44886722218442
30
0
41
1
10
85.341116083419
20
2.44884322255862
30
0
0
SPLINE
5
22D
100
AcDbEntity
8
1
62
256
6
ByLayer
370
-1
48
1
60
0
100
AcDbSpline
70
4
71
3
72
22
73
18
40
0
40
0
40
0
40
0
40
0.0178234039225269
40
0.0278216291116417
40
0.0378198543007565
40
0.112806543219117
40
0.187793232137478
40
0.3377666099742
40
0.497738213000037
40
0.657709816025873
40
0.817681419051709
40
0.897667220564628
40
0.977653022077546
40
0.982652134672103
40
0.987651247266661
40
0.997649472455776
40
1
40
1
40
1
40
1
41
1
10
90.58936393223
20
7.94108789965892
30
0
41
1
10
90.5892512620307
20
7.94190048065011
30
0
41
1
10
90.5890745062
20
7.943168835233
30
0
41
1
10
90.5888333586784
20
7.94489305929557
30
0
41
1
10
90.5882269439171
20
7.94922343909982
30
0
41
1
10
90.5872056769808
20
7.956516705821
30
0
41
1
10
90.5852909582845
20
7.97019156968622
30
0
41
1
10
90.5828339371956
20
7.98774096389238
30
0
41
1
10
90.5798344569053
20
8.00916489967656
30
0
41
1
10
90.5767711578854
20
8.03104466388166
30
0
41
1
10
90.5742184087022
20
8.04927780071924
30
0
41
1
10
90.5721674374836
20
8.06391505377971
30
0
41
1
10
90.571117912828
20
8.07141606624347
30
0
41
1
10
90.5705509592349
20
8.07547562784066
30
0
41
1
10
90.5704252686992
20
8.07637494248416
30
0
41
1
10
90.5703168171987
20
8.07714891186768
30
0
41
1
10
90.5702402008359
20
8.07769318221631
30
0
41
1
10
90.570225633802
20
8.07779655252887
30
0
0
SPLINE
5
22E
100
AcDbEntity
8
1
62
256
6
ByLayer
370
-1
48
1
60
0
100
AcDbSpline
70
4
71
3
72
8
73
4
40
0
40
0
40
0
40
0
40
1
40
1
40
1
40
1
41
1
10
85.3572723455986
20
8.31456045477645
30
0
41
1
10
85.3692756450425
20
8.31502512869062
30
0
41
1
10
85.381279786787
20
8.31546787804308
30
0
41
1
10
85.3932846913426
20
8.31588869990205
30
0
0
SPLINE
5
22F
100
AcDbEntity
8
1
62
256
6
ByLayer
370
-1
48
1
60
0
100
AcDbSpline
70
4
71
3
72
48
73
44
40
0
40
0
40
0
40
0
40
0.015625
40
0.0234375
40
0.02734375
40
0.029296875
40
0.0302734375
40
0.03125
40
0.03173828125
40
0.046875
40
0.0625
40
0.125
40
0.1875
40
0.25
40
0.3125
40
0.375
40
0.390625
40
0.40625
40
0.4140625
40
0.421875
40
0.4375
40
0.5
40
0.5625
40
0.59375
40
0.6015625
40
0.60546875
40
0.609375
40
0.6171875
40
0.625
40
0.65625
40
0.671875
40
0.6796875
40
0.6875
40
0.71875
40
0.75
40
0.78125
40
0.7890625
40
0.79296875
40
0.796875
40
0.8046875
40
0.8125
40
0.875
40
1
40
1
40
1
40
1
41
1
10
87.8061609248357
20
3.33524727126283
30
0
41
1
10
87.8063177912125
20
3.33073804700632
30
0
41
1
10
87.8066389712516
20
3.3238505699855
30
0
41
1
10
87.8071384575182
20
3.31627769086504
30
0
41
1
10
87.8074134733966
20
3.31268049074714
30
0
41
1
10
87.8075559764565
20
3.31094417920821
30
0
41
1
10
87.8076395179223
20
3.30995992079497
30
0
41
1
10
87.8076921127392
20
3.30934438138394
30
0
41
1
10
87.8080494271473
20
3.30514724698125
30
0
41
1
10
87.8087220289715
20
3.29724710570068
30
0
41
1
10
87.8107293250409
20
3.27367012156648
30
0
41
1
10
87.8137560332503
20
3.23811948580394
30
0
41
1
10
87.8177916441961
20
3.19071863812056
30
0
41
1
10
87.821827255142
20
3.14331779043715
30
0
41
1
10
87.8258628660877
20
3.09591694275377
30
0
41
1
10
87.828889011723
20
3.06037601647725
30
0
41
1
10
87.8309079423442
20
3.03665617366355
30
0
41
1
10
87.8317486008622
20
3.02678261531048
30
0
41
1
10
87.8324193274394
20
3.01891483898328
30
0
41
1
10
87.8330780346312
20
3.01098877780305
30
0
41
1
10
87.8348579839649
20
2.98882314276276
30
0
41
1
10
87.8375697626629
20
2.95073998449416
30
0
41
1
10
87.8401361605867
20
2.9063173851184
30
0
41
1
10
87.8415522559779
20
2.87706383789055
30
0
41
1
10
87.8421063200589
20
2.86465085798753
30
0
41
1
10
87.8423017056148
20
2.86015921195769
30
0
41
1
10
87.8424946563901
20
2.85563813072059
30
0
41
1
10
87.8427355065215
20
2.84995082023332
30
0
41
1
10
87.8433137062465
20
2.83631921209249
30
0
41
1
10
87.8439884360713
20
2.82041895166992
30
0
41
1
10
87.8446626696898
20
2.80450872817247
30
0
41
1
10
87.8450487670091
20
2.79543365564666
30
0
41
1
10
87.8456065285578
20
2.78181171936521
30
0
41
1
10
87.8463710406852
20
2.7612736127345
30
0
41
1
10
87.8472282060799
20
2.73386349585226
30
0
41
1
10
87.8477432109448
20
2.71343850399097
30
0
41
1
10
87.8480091561764
20
2.70105378075328
30
0
41
1
10
87.8480997653855
20
2.69656860510438
30
0
41
1
10
87.8481874630951
20
2.69208164857847
30
0
41
1
10
87.8482962807781
20
2.68646519764113
30
0
41
1
10
87.8487322289452
20
2.66400592465391
30
0
41
1
10
87.8498220993628
20
2.60785774218579
30
0
41
1
10
87.8508683749638
20
2.55395548701642
30
0
41
1
10
87.8515658920311
20
2.51802065023682
30
0
0
SPLINE
5
230
100
AcDbEntity
8
1
62
256
6
ByLayer
370
-1
48
1
60
0
100
AcDbSpline
70
4
71
3
72
13
73
9
40
0
40
0
40
0
40
0
40
0.312317913031033
40
0.624635826062066
40
0.936953739093099
40
0.975993478221978
40
0.994903351862529
40
1
40
1
40
1
40
1
41
1
10
90.6765994447769
20
5.55907034919486
30
0
41
1
10
90.6684057086172
20
5.7946045318715
30
0
41
1
10
90.6520182362979
20
6.26567289722479
30
0
41
1
10
90.6274370278189
20
6.97227544525472
30
0
41
1
10
90.6100253384795
20
7.4727855834426
30
0
41
1
10
90.6003112801808
20
7.75202239767057
30
0
41
1
10
90.5986572462425
20
7.7995686603534
30
0
41
1
10
90.5980275427629
20
7.81767317498714
30
0
41
1
10
90.5978938615379
20
7.82151681279891
30
0
0
SPLINE
5
231
100
AcDbEntity
8
1
62
256
6
ByLayer
370
-1
48
1
60
0
100
AcDbSpline
70
4
71
3
72
23
73
19
40
0
40
0
40
0
40
0
40
0.0365499079215511
40
0.0695172064380819
40
0.102484504954613
40
0.135451803471143
40
0.168419101987674
40
0.234353699020736
40
0.300288296053782
40
0.366222893086859
40
0.498092087152982
40
0.629961281219098
40
0.761830475285229
40
0.827765072318287
40
0.893699669351352
40
0.926666967867883
40
0.959634266384414
40
1
40
1
40
1
40
1
41
1
10
90.0203799594519
20
8.4737007908964
30
0
41
1
10
90.0193657600151
20
8.47377062302886
30
0
41
1
10
90.017436790772
20
8.47390177032796
30
0
41
1
10
90.0145927758543
20
8.47408728151083
30
0
41
1
10
90.0118475661408
20
8.47425731673542
30
0
41
1
10
90.0091013708965
20
8.47441653730596
30
0
41
1
10
90.005438617269
20
8.47461492694947
30
0
41
1
10
90.0008582891808
20
8.47483780894939
30
0
41
1
10
89.9953598022258
20
8.47506818979119
30
0
41
1
10
89.9880261664717
20
8.4753254170148
30
0
41
1
10
89.9788556555989
20
8.47555234281927
30
0
41
1
10
89.9678483237711
20
8.47567021769689
30
0
41
1
10
89.9586756906882
20
8.47564210668676
30
0
41
1
10
89.9513391157404
20
8.47554522783278
30
0
41
1
10
89.9467551123928
20
8.47545127155635
30
0
41
1
10
89.9430891540288
20
8.47535461565548
30
0
41
1
10
89.9401343439633
20
8.47526688963137
30
0
41
1
10
89.9380959204826
20
8.47520017594263
30
0
41
1
10
89.9369738298574
20
8.47516236323358
30
0
0
SPLINE
5
232
100
AcDbEntity
8
1
62
256
6
ByLayer
370
-1
48
1
60
0
100
AcDbSpline
70
4
71
3
72
23
73
19
40
0
40
0
40
0
40
0
40
0.0365499079217249
40
0.0695172064382536
40
0.102484504954782
40
0.135451803471311
40
0.16841910198784
40
0.234353699020897
40
0.300288296053939
40
0.366222893087012
40
0.498092087153127
40
0.629961281219234
40
0.761830475285356
40
0.82776507231841
40
0.893699669351471
40
0.926666967868
40
0.959634266384529
40
1
40
1
40
1
40
1
41
1
10
90.75510528495
20
3.17674678738851
30
0
41
1
10
90.7551748513501
20
3.17776486090239
30
0
41
1
10
90.7553054995942
20
3.1797011984946
30
0
41
1
10
90.755490304851
20
3.18255607708733
30
0
41
1
10
90.7556596930402
20
3.1853117730559
30
0
41
1
10
90.7558183077284
20
3.18806845831995
30
0
41
1
10
90.7560159424394
20
3.19174520307121
30
0
41
1
10
90.756237976306
20
3.19634302726865
30
0
41
1
10
90.7564674804792
20
3.2018625175505
30
0
41
1
10
90.7567237288756
20
3.20922416660176
30
0
41
1
10
90.7569497911588
20
3.21842970733627
30
0
41
1
10
90.7570672174869
20
3.22947908538353
30
0
41
1
10
90.7570392134477
20
3.2386867564347
30
0
41
1
10
90.756942703247
20
3.24605135590687
30
0
41
1
10
90.7568491045026
20
3.25065286940253
30
0
41
1
10
90.7567528164066
20
3.2543328311319
30
0
41
1
10
90.7566654242065
20
3.25729892809178
30
0
41
1
10
90.7565989643834
20
3.25934513801903
30
0
41
1
10
90.7565612955632
20
3.26047151484815
30
0
0
SPLINE
5
233
100
AcDbEntity
8
1
62
256
6
ByLayer
370
-1
48
1
60
0
100
AcDbSpline
70
4
71
3
72
8
73
4
40
0
40
0
40
0
40
0
40
1
40
1
40
1
40
1
41
1
10
90.8083925983469
20
-2.95235409036434
30
0
41
1
10
90.8087599223751
20
-2.94185492611362
30
0
41
1
10
90.8092157296039
20
-2.93139598607991
30
0
41
1
10
90.8097600627045
20
-2.92097728966144
30
0
0
SPLINE
5
234
100
AcDbEntity
8
1
62
256
6
ByLayer
370
-1
48
1
60
0
100
AcDbSpline
70
4
71
3
72
8
73
4
40
0
40
0
40
0
40
0
40
1
40
1
40
1
40
1
41
1
10
90.4311710382884
20
-0.162772718409684
30
0
41
1
10
90.4492382357045
20
-0.212414159584796
30
0
41
1
10
90.4561083364013
20
-0.261938382642114
30
0
41
1
10
90.4552129450807
20
-0.305723522663925
30
0
0
SPLINE
5
235
100
AcDbEntity
8
1
62
256
6
ByLayer
370
-1
48
1
60
0
100
AcDbSpline
70
4
71
3
72
12
73
8
40
0
40
0
40
0
40
0
40
0.249999999999975
40
0.249999999999975
40
0.499999999999949
40
0.499999999999949
40
1
40
1
40
1
40
1
41
1
10
90.7608681154001
20
-4.39956982461155
30
0
41
1
10
90.7441884013493
20
-4.41690556614421
30
0
41
1
10
90.7249438439699
20
-4.431929431134
30
0
41
1
10
90.6877274141914
20
-4.45457214124866
30
0
41
1
10
90.6701227737914
20
-4.46239819451549
30
0
41
1
10
90.6202914473132
20
-4.48027886883628
30
0
41
1
10
90.591737747885
20
-4.48485887293862
30
0
41
1
10
90.5647601773691
20
-4.48713655282253
30
0
0
SPLINE
5
236
100
AcDbEntity
8
1
62
256
6
ByLayer
370
-1
48
1
60
0
100
AcDbSpline
70
4
71
3
72
8
73
4
40
0
40
0
40
0
40
0
40
1
40
1
40
1
40
1
41
1
10
90.732404472027
20
-2.54706285669536
30
0
41
1
10
90.7290650926409
20
-2.54025372359712
30
0
41
1
10
90.7258120871138
20
-2.53341647049314
30
0
41
1
10
90.722680063867
20
-2.5266275549786
30
0
0
SPLINE
5
237
100
AcDbEntity
8
1
62
256
6
ByLayer
370
-1
48
1
60
0
100
AcDbSpline
70
4
71
3
72
12
73
8
40
0
40
0
40
0
40
0
40
0.249999999999995
40
0.249999999999995
40
0.499999999999989
40
0.499999999999989
40
1
40
1
40
1
40
1
41
1
10
90.732404472027
20
-2.54706285669536
30
0
41
1
10
90.7465384352053
20
-2.57588259394564
30
0
41
1
10
90.7588891277684
20
-2.60556170530469
30
0
41
1
10
90.7799099896265
20
-2.66669137886541
30
0
41
1
10
90.7885983174828
20
-2.69835117082252
30
0
41
1
10
90.8081994699593
20
-2.79314018030246
30
0
41
1
10
90.8130988621071
20
-2.8570716823491
30
0
41
1
10
90.8097600627044
20
-2.92097728966141
30
0
0
SPLINE
5
238
100
AcDbEntity
8
1
62
256
6
ByLayer
370
-1
48
1
60
0
100
AcDbSpline
70
4
71
3
72
16
73
12
40
0
40
0
40
0
40
0
40
0.249999999999999
40
0.249999999999999
40
0.499999999999998
40
0.499999999999998
40
0.749999999999998
40
0.749999999999998
40
0.874999999999999
40
0.874999999999999
40
1
40
1
40
1
40
1
41
1
10
90.8543735090024
20
-3.98734190497828
30
0
41
1
10
90.8593772587967
20
-4.01530774164578
30
0
41
1
10
90.8629918672149
20
-4.04424464301823
30
0
41
1
10
90.8661434239518
20
-4.1048497222051
30
0
41
1
10
90.865753343965
20
-4.1364739183964
30
0
41
1
10
90.8579338697389
20
-4.20425004532174
30
0
41
1
10
90.8506616671571
20
-4.24037175143022
30
0
41
1
10
90.8287299837152
20
-4.29824263378632
30
0
41
1
10
90.8196340091616
20
-4.31798354872339
30
0
41
1
10
90.7951345424825
20
-4.35898817755256
30
0
41
1
10
90.7798431606282
20
-4.37984847455459
30
0
41
1
10
90.7608681154001
20
-4.39956982461155
30
0
0
SPLINE
5
239
100
AcDbEntity
8
1
62
256
6
ByLayer
370
-1
48
1
60
0
100
AcDbSpline
70
4
71
3
72
10
73
6
40
0
40
0
40
0
40
0
40
0.5
40
0.5
40
1
40
1
40
1
40
1
41
1
10
90.457422757584
20
-0.441820654983815
30
0
41
1
10
90.4561273917441
20
-0.417149704618396
30
0
41
1
10
90.4553613262588
20
-0.393518427824404
30
0
41
1
10
90.4546912551613
20
-0.347949167769286
30
0
41
1
10
90.4547970610246
20
-0.326060487301163
30
0
41
1
10
90.4552129450806
20
-0.305723522663413
30
0
0
SPLINE
5
23A
100
AcDbEntity
8
1
62
256
6
ByLayer
370
-1
48
1
60
0
100
AcDbSpline
70
4
71
3
72
14
73
10
40
0
40
0
40
0
40
0
40
0.25
40
0.25
40
0.5
40
0.5
40
0.75
40
0.75
40
1
40
1
40
1
40
1
41
1
10
90.4311710382908
20
-0.162772718409826
30
0
41
1
10
90.4160038914697
20
-0.121099457783259
30
0
41
1
10
90.4025480955538
20
-0.0802030803661182
30
0
41
1
10
90.3805708989725
20
-0.0076023953403705
30
0
41
1
10
90.3716478678563
20
0.0251122563485637
30
0
41
1
10
90.3565500506003
20
0.084381746805775
30
0
41
1
10
90.3502219078145
20
0.111552448138525
30
0
41
1
10
90.3390788490811
20
0.162497014421859
30
0
41
1
10
90.3342927253844
20
0.186158835158722
30
0
41
1
10
90.3299829206569
20
0.208722678609007
30
0
0
SPLINE
5
23B
100
AcDbEntity
8
1
62
256
6
ByLayer
370
-1
48
1
60
0
100
AcDbSpline
70
4
71
3
72
16
73
12
40
0
40
0
40
0
40
0
40
0.250000000000001
40
0.250000000000001
40
0.500000000000002
40
0.500000000000002
40
0.750000000000002
40
0.750000000000002
40
0.875000000000001
40
0.875000000000001
40
1
40
1
40
1
40
1
41
1
10
90.854373509002
20
-3.98734190498172
30
0
41
1
10
90.8472667077286
20
-3.94762216442462
30
0
41
1
10
90.8402932644685
20
-3.90665436811199
30
0
41
1
10
90.8268045127744
20
-3.8204312355609
30
0
41
1
10
90.8202608557821
20
-3.77515655521896
30
0
41
1
10
90.8081720627507
20
-3.67662118361548
30
0
41
1
10
90.8025349534313
20
-3.62338626690246
30
0
41
1
10
90.7964025554553
20
-3.53151478639393
30
0
41
1
10
90.7947334082485
20
-3.49824448145446
30
0
41
1
10
90.7930837578336
20
-3.42651243319381
30
0
41
1
10
90.7931703919203
20
-3.38744799477359
30
0
41
1
10
90.7945146107956
20
-3.349026400529
30
0
0
SPLINE
5
23C
100
AcDbEntity
8
1
62
256
6
ByLayer
370
-1
48
1
60
0
100
AcDbSpline
70
4
71
3
72
12
73
8
40
0
40
0
40
0
40
0
40
0.25000000000001
40
0.25000000000001
40
0.50000000000002
40
0.50000000000002
40
1
40
1
40
1
40
1
41
1
10
90.1632702490347
20
0.757939571881565
30
0
41
1
10
90.1803660532784
20
0.741019144449837
30
0
41
1
10
90.1956532344049
20
0.722045284511438
30
0
41
1
10
90.219500908543
20
0.686058754180522
30
0
41
1
10
90.2282099890554
20
0.669353733038548
30
0
41
1
10
90.2490536771958
20
0.622539488168627
30
0
41
1
10
90.2559463328968
20
0.596338842552029
30
0
41
1
10
90.2606314137619
20
0.571810253004259
30
0
0
SPLINE
5
23D
100
AcDbEntity
8
1
62
256
6
ByLayer
370
-1
48
1
60
0
100
AcDbSpline
70
4
71
3
72
12
73
8
40
0
40
0
40
0
40
0
40
0.109285623367195
40
0.109285623367195
40
0.554642811683597
40
0.554642811683597
40
1
40
1
40
1
40
1
41
1
10
90.0340981076936
20
0.843796122697739
30
0
41
1
10
90.0384760950154
20
0.841928854159107
30
0
41
1
10
90.0428955054638
20
0.839963257510732
30
0
41
1
10
90.0655396803517
20
0.829453773486023
30
0
41
1
10
90.0842713954786
20
0.819330626523737
30
0
41
1
10
90.1236010482618
20
0.793128522512177
30
0
41
1
10
90.1438218545509
20
0.777188455574617
30
0
41
1
10
90.1632702490347
20
0.757939571881565
30
0
0
LINE
5
45
100
AcDbEntity
8
80
62
256
6
ByLayer
370
-1
48
1
60
0
100
AcDbLine
10
0
20
0
30
0
11
-7
21
0
31
0
39
0
210
0
220
0
230
1
0
LINE
5
46
100
AcDbEntity
8
81
62
256
6
ByLayer
370
-1
48
1
60
0
100
AcDbLine
10
91
20
0
30
0
11
98
21
0
31
0
39
0
210
0
220
0
230
1
0
LINE
5
47
100
AcDbEntity
8
SK1
62
256
6
ByLayer
370
-1
48
1
60
0
100
AcDbLine
10
-0.2
20
-22.45
30
0
11
-0.001
21
-22.45
31
0
39
0
210
0
220
0
230
1
0
LINE
5
49
100
AcDbEntity
8
SK1
62
256
6
ByLayer
370
-1
48
1
60
0
100
AcDbLine
10
-0.001
20
22.45
30
0
11
-0.2
21
22.45
31
0
39
0
210
0
220
0
230
1
0
LINE
5
4A
100
AcDbEntity
8
1
62
256
6
ByLayer
370
-1
48
1
60
0
100
AcDbLine
10
21.399
20
-31.5
30
0
11
21.699
21
-31.2
31
0
39
0
210
0
220
0
230
1
0
LINE
5
4C
100
AcDbEntity
8
1
62
256
6
ByLayer
370
-1
48
1
60
0
100
AcDbLine
10
21.699
20
31.2
30
0
11
21.399
21
31.5
31
0
39
0
210
0
220
0
230
1
0
LINE
5
4D
100
AcDbEntity
8
1
62
256
6
ByLayer
370
-1
48
1
60
0
100
AcDbLine
10
21.399
20
31.5
30
0
11
0.3
21
31.5
31
0
39
0
210
0
220
0
230
1
0
LINE
5
4E
100
AcDbEntity
8
1
62
256
6
ByLayer
370
-1
48
1
60
0
100
AcDbLine
10
0.3
20
-31.5
30
0
11
21.399
21
-31.5
31
0
39
0
210
0
220
0
230
1
0
LINE
5
4F
100
AcDbEntity
8
1
62
256
6
ByLayer
370
-1
48
1
60
0
100
AcDbLine
10
0.3
20
31.5
30
0
11
0
21
31.2
31
0
39
0
210
0
220
0
230
1
0
LINE
5
50
100
AcDbEntity
8
1
62
256
6
ByLayer
370
-1
48
1
60
0
100
AcDbLine
10
0
20
-31.2
30
0
11
0.3
21
-31.5
31
0
39
0
210
0
220
0
230
1
0
LINE
5
51
100
AcDbEntity
8
1
62
256
6
ByLayer
370
-1
48
1
60
0
100
AcDbLine
10
26.9
20
12.5
30
0
11
22.1
21
12.5
31
0
39
0
210
0
220
0
230
1
0
LINE
5
52
100
AcDbEntity
8
1
62
256
6
ByLayer
370
-1
48
1
60
0
100
AcDbLine
10
22.1
20
-12.5
30
0
11
26.9
21
-12.5
31
0
39
0
210
0
220
0
230
1
0
LINE
5
53
100
AcDbEntity
8
1
62
256
6
ByLayer
370
-1
48
1
60
0
100
AcDbLine
10
22.1
20
12.5
30
0
11
22
21
12.4
31
0
39
0
210
0
220
0
230
1
0
LINE
5
54
100
AcDbEntity
8
1
62
256
6
ByLayer
370
-1
48
1
60
0
100
AcDbLine
10
22
20
-12.4
30
0
11
22.1
21
-12.5
31
0
39
0
210
0
220
0
230
1
0
LINE
5
55
100
AcDbEntity
8
1
62
256
6
ByLayer
370
-1
48
1
60
0
100
AcDbLine
10
21.999
20
12.5
30
0
11
21.699
21
12.5
31
0
39
0
210
0
220
0
230
1
0
LINE
5
56
100
AcDbEntity
8
1
62
256
6
ByLayer
370
-1
48
1
60
0
100
AcDbLine
10
21.699
20
-12.5
30
0
11
21.999
21
-12.5
31
0
39
0
210
0
220
0
230
1
0
LINE
5
57
100
AcDbEntity
8
1
62
256
6
ByLayer
370
-1
48
1
60
0
100
AcDbLine
10
26.9
20
-12.5
30
0
11
27.025882
21
-12.403407
31
0
39
0
210
0
220
0
230
1
0
LINE
5
58
100
AcDbEntity
8
1
62
256
6
ByLayer
370
-1
48
1
60
0
100
AcDbLine
10
27.025882
20
12.403407
30
0
11
26.9
21
12.5
31
0
39
0
210
0
220
0
230
1
0
LINE
5
59
100
AcDbEntity
8
1
62
256
6
ByLayer
370
-1
48
1
60
0
100
AcDbLine
10
27.025882
20
-12.403407
30
0
11
27.243045
21
-11.592945
31
0
39
0
210
0
220
0
230
1
0
LINE
5
5A
100
AcDbEntity
8
1
62
256
6
ByLayer
370
-1
48
1
60
0
100
AcDbLine
10
27.243045
20
11.592945
30
0
11
27.025882
21
12.403407
31
0
39
0
210
0
220
0
230
1
0
LINE
5
5B
100
AcDbEntity
8
1
62
256
6
ByLayer
370
-1
48
1
60
0
100
AcDbLine
10
28.015785
20
-11
30
0
11
28.5
21
-11
31
0
39
0
210
0
220
0
230
1
0
LINE
5
5C
100
AcDbEntity
8
1
62
256
6
ByLayer
370
-1
48
1
60
0
100
AcDbLine
10
28.5
20
11
30
0
11
28.015785
21
11
31
0
39
0
210
0
220
0
230
1
0
LINE
5
5D
100
AcDbEntity
8
1
62
256
6
ByLayer
370
-1
48
1
60
0
100
AcDbLine
10
56.004463
20
8.2
30
0
11
37
21
8.2
31
0
39
0
210
0
220
0
230
1
0
LINE
5
5E
100
AcDbEntity
8
1
62
256
6
ByLayer
370
-1
48
1
60
0
100
AcDbLine
10
84.506544
20
8.2
30
0
11
82.271988
21
8.2
31
0
39
0
210
0
220
0
230
1
0
LINE
5
5F
100
AcDbEntity
8
1
62
256
6
ByLayer
370
-1
48
1
60
0
100
AcDbLine
10
37
20
-8.2
30
0
11
52.246323
21
-8.2
31
0
39
0
210
0
220
0
230
1
0
LINE
5
60
100
AcDbEntity
8
1
62
256
6
ByLayer
370
-1
48
1
60
0
100
AcDbLine
10
0
20
31.2
30
0
11
-0.001
21
31.2
31
0
39
0
210
0
220
0
230
1
0
LINE
5
61
100
AcDbEntity
8
1
62
256
6
ByLayer
370
-1
48
1
60
0
100
AcDbLine
10
-0.001
20
-31.2
30
0
11
0
21
-31.2
31
0
39
0
210
0
220
0
230
1
0
LINE
5
62
100
AcDbEntity
8
SK4
62
256
6
ByLayer
370
-1
48
0.05
60
0
100
AcDbLine
10
91
20
0
30
0
11
-38
21
0
31
0
39
0
210
0
220
0
230
1
0
LINE
5
64
100
AcDbEntity
8
4
62
256
6
ByLayer
370
-1
48
0.05
60
0
100
AcDbLine
10
91
20
0
30
0
11
0
21
0
31
0
39
0
210
0
220
0
230
1
0
LINE
5
66
100
AcDbEntity
8
1
62
256
6
ByLayer
370
-1
48
1
60
0
100
AcDbLine
10
84.869884
20
2.7229
30
0
11
84.926371
21
2.740375
31
0
39
0
210
0
220
0
230
1
0
LINE
5
67
100
AcDbEntity
8
SK1
62
256
6
ByLayer
370
-1
48
1
60
0
100
AcDbLine
10
-0.2
20
-22.45
30
0
11
-0.2
21
22.45
31
0
39
0
210
0
220
0
230
1
0
LINE
5
68
100
AcDbEntity
8
SK1
62
256
6
ByLayer
370
-1
48
1
60
0
100
AcDbLine
10
-1.307107
20
7.175352
30
0
11
-1.307107
21
-7.175351
31
0
39
0
210
0
220
0
230
1
0
LINE
5
69
100
AcDbEntity
8
1
62
256
6
ByLayer
370
-1
48
1
60
0
100
AcDbLine
10
85.600263
20
2.379279
30
0
11
85.597729
21
2.439014
31
0
39
0
210
0
220
0
230
1
0
LINE
5
6A
100
AcDbEntity
8
1
62
256
6
ByLayer
370
-1
48
1
60
0
100
AcDbLine
10
10.538675
20
9.349221
30
0
11
10.538675
21
30.080593
31
0
39
0
210
0
220
0
230
1
0
LINE
5
6B
100
AcDbEntity
8
1
62
256
6
ByLayer
370
-1
48
1
60
0
100
AcDbLine
10
10.105662
20
9.869413
30
0
11
10.105662
21
29.913955
31
0
39
0
210
0
220
0
230
1
0
LINE
5
6C
100
AcDbEntity
8
1
62
256
6
ByLayer
370
-1
48
1
60
0
100
AcDbLine
10
84.237686
20
4.486801
30
0
11
84.44686
21
4.486801
31
0
39
0
210
0
220
0
230
1
0
LINE
5
6D
100
AcDbEntity
8
1
62
256
6
ByLayer
370
-1
48
1
60
0
100
AcDbLine
10
13.894338
20
9.869413
30
0
11
13.894338
21
29.913955
31
0
39
0
210
0
220
0
230
1
0
LINE
5
6E
100
AcDbEntity
8
1
62
256
6
ByLayer
370
-1
48
1
60
0
100
AcDbLine
10
84.807976
20
2.206668
30
0
11
84.853264
21
2.206668
31
0
39
0
210
0
220
0
230
1
0
LINE
5
6F
100
AcDbEntity
8
1
62
256
6
ByLayer
370
-1
48
1
60
0
100
AcDbLine
10
84.278537
20
3.312517
30
0
11
84.487711
21
3.312517
31
0
39
0
210
0
220
0
230
1
0
LINE
5
70
100
AcDbEntity
8
1
62
256
6
ByLayer
370
-1
48
1
60
0
100
AcDbLine
10
27.243045
20
-11.592945
30
0
11
27.243045
21
11.592945
31
0
39
0
210
0
220
0
230
1
0
LINE
5
71
100
AcDbEntity
8
1
62
256
6
ByLayer
370
-1
48
1
60
0
100
AcDbLine
10
13.894338
20
-29.913955
30
0
11
13.894338
21
-9.869413
31
0
39
0
210
0
220
0
230
1
0
LINE
5
72
100
AcDbEntity
8
1
62
256
6
ByLayer
370
-1
48
1
60
0
100
AcDbLine
10
84.237686
20
4.486801
30
0
11
84.278537
21
3.312517
31
0
39
0
210
0
220
0
230
1
0
LINE
5
73
100
AcDbEntity
8
1
62
256
6
ByLayer
370
-1
48
1
60
0
100
AcDbLine
10
10.538675
20
-9.349221
30
0
11
13.461325
21
-9.349221
31
0
39
0
210
0
220
0
230
1
0
LINE
5
74
100
AcDbEntity
8
1
62
256
6
ByLayer
370
-1
48
1
60
0
100
AcDbLine
10
90.508607
20
-4.916261
30
0
11
90.205941
21
-4.8797
31
0
39
0
210
0
220
0
230
1
0
LINE
5
75
100
AcDbEntity
8
1
62
256
6
ByLayer
370
-1
48
1
60
0
100
AcDbLine
10
86.244301
20
2.23501
30
0
11
89.574398
21
2.351744
31
0
39
0
210
0
220
0
230
1
0
LINE
5
76
100
AcDbEntity
8
1
62
256
6
ByLayer
370
-1
48
1
60
0
100
AcDbLine
10
90.217507
20
-8.198221
30
0
11
90.508607
21
-4.916261
31
0
39
0
210
0
220
0
230
1
0
LINE
5
77
100
AcDbEntity
8
1
62
256
6
ByLayer
370
-1
48
1
60
0
100
AcDbLine
10
83.246523
20
0.401644
30
0
11
83.560801
21
1.482827
31
0
39
0
210
0
220
0
230
1
0
LINE
5
78
100
AcDbEntity
8
1
62
256
6
ByLayer
370
-1
48
1
60
0
100
AcDbLine
10
83.075669
20
4.636435
30
0
11
83.075669
21
8.196997
31
0
39
0
210
0
220
0
230
1
0
LINE
5
79
100
AcDbEntity
8
1
62
256
6
ByLayer
370
-1
48
1
60
0
100
AcDbLine
10
89.574398
20
2.351744
30
0
11
89.723897
21
2.351744
31
0
39
0
210
0
220
0
230
1
0
LINE
5
7A
100
AcDbEntity
8
1
62
256
6
ByLayer
370
-1
48
1
60
0
100
AcDbLine
10
89.273643
20
0.758846
30
0
11
89.80847
21
2.339068
31
0
39
0
210
0
220
0
230
1
0
LINE
5
7B
100
AcDbEntity
8
1
62
256
6
ByLayer
370
-1
48
1
60
0
100
AcDbLine
10
90.194807
20
-4.142997
30
0
11
89.961165
21
0.306837
31
0
39
0
210
0
220
0
230
1
0
LINE
5
7C
100
AcDbEntity
8
1
62
256
6
ByLayer
370
-1
48
1
60
0
100
AcDbLine
10
0
20
-31.2
30
0
11
0
21
31.2
31
0
39
0
210
0
220
0
230
1
0
LINE
5
7D
100
AcDbEntity
8
1
62
256
6
ByLayer
370
-1
48
1
60
0
100
AcDbLine
10
28.5
20
2.573713
30
0
11
28.5
21
-11
31
0
39
0
210
0
220
0
230
1
0
LINE
5
7E
100
AcDbEntity
8
1
62
256
6
ByLayer
370
-1
48
1
60
0
100
AcDbLine
10
28.015785
20
3.590648
30
0
11
28.015785
21
-11
31
0
39
0
210
0
220
0
230
1
0
LINE
5
7F
100
AcDbEntity
8
1
62
256
6
ByLayer
370
-1
48
1
60
0
100
AcDbLine
10
22.1
20
12.5
30
0
11
22.1
21
-12.5
31
0
39
0
210
0
220
0
230
1
0
LINE
5
80
100
AcDbEntity
8
1
62
256
6
ByLayer
370
-1
48
1
60
0
100
AcDbLine
10
83.075669
20
4.636435
30
0
11
79.650363
21
4.957678
31
0
39
0
210
0
220
0
230
1
0
LINE
5
81
100
AcDbEntity
8
1
62
256
6
ByLayer
370
-1
48
1
60
0
100
AcDbLine
10
90.018199
20
2.336264
30
0
11
89.80847
21
2.339068
31
0
39
0
210
0
220
0
230
1
0
LINE
5
82
100
AcDbEntity
8
1
62
256
6
ByLayer
370
-1
48
1
60
0
100
AcDbLine
10
28.5
20
11
30
0
11
28.5
21
7.385538
31
0
39
0
210
0
220
0
230
1
0
LINE
5
83
100
AcDbEntity
8
1
62
256
6
ByLayer
370
-1
48
1
60
0
100
AcDbLine
10
83.755468
20
2.152522
30
0
11
83.760535
21
2.169951
31
0
39
0
210
0
220
0
230
1
0
LINE
5
84
100
AcDbEntity
8
1
62
256
6
ByLayer
370
-1
48
1
60
0
100
AcDbLine
10
84.559859
20
5.411576
30
0
11
84.471175
21
8.192782
31
0
39
0
210
0
220
0
230
1
0
LINE
5
85
100
AcDbEntity
8
1
62
256
6
ByLayer
370
-1
48
1
60
0
100
AcDbLine
10
28.015785
20
11
30
0
11
28.015785
21
6.683518
31
0
39
0
210
0
220
0
230
1
0
LINE
5
86
100
AcDbEntity
8
1
62
256
6
ByLayer
370
-1
48
1
60
0
100
AcDbLine
10
84.44686
20
4.486801
30
0
11
84.487711
21
3.312517
31
0
39
0
210
0
220
0
230
1
0
LINE
5
87
100
AcDbEntity
8
1
62
256
6
ByLayer
370
-1
48
1
60
0
100
AcDbLine
10
73.132063
20
5.359693
30
0
11
73.150431
21
5.349016
31
0
39
0
210
0
220
0
230
1
0
LINE
5
88
100
AcDbEntity
8
1
62
256
6
ByLayer
370
-1
48
1
60
0
100
AcDbLine
10
90.034316
20
0.842616
30
0
11
90.095368
21
2.536831
31
0
39
0
210
0
220
0
230
1
0
LINE
5
89
100
AcDbEntity
8
1
62
256
6
ByLayer
370
-1
48
1
60
0
100
AcDbLine
10
89.80847
20
2.339068
30
0
11
89.574398
21
2.351744
31
0
39
0
210
0
220
0
230
1
0
LINE
5
8A
100
AcDbEntity
8
1
62
256
6
ByLayer
370
-1
48
1
60
0
100
AcDbLine
10
90.194807
20
-4.142997
30
0
11
90.05376
21
-4.080151
31
0
39
0
210
0
220
0
230
1
0
LINE
5
8B
100
AcDbEntity
8
1
62
256
6
ByLayer
370
-1
48
1
60
0
100
AcDbLine
10
78.769961
20
3.92
30
0
11
80.079539
21
3.92
31
0
39
0
210
0
220
0
230
1
0
LINE
5
8C
100
AcDbEntity
8
1
62
256
6
ByLayer
370
-1
48
1
60
0
100
AcDbLine
10
89.868593
20
-3.997645
30
0
11
89.669232
21
-3.908815
31
0
39
0
210
0
220
0
230
1
0
LINE
5
8D
100
AcDbEntity
8
1
62
256
6
ByLayer
370
-1
48
1
60
0
100
AcDbLine
10
84.647503
20
5.457482
30
0
11
84.759358
21
5.457482
31
0
39
0
210
0
220
0
230
1
0
LINE
5
8E
100
AcDbEntity
8
1
62
256
6
ByLayer
370
-1
48
1
60
0
100
AcDbLine
10
13.461325
20
9.349221
30
0
11
10.538675
21
9.349221
31
0
39
0
210
0
220
0
230
1
0
LINE
5
8F
100
AcDbEntity
8
1
62
256
6
ByLayer
370
-1
48
1
60
0
100
AcDbLine
10
84.807976
20
2.206668
30
0
11
83.760535
21
2.169951
31
0
39
0
210
0
220
0
230
1
0
LINE
5
90
100
AcDbEntity
8
1
62
256
6
ByLayer
370
-1
48
1
60
0
100
AcDbLine
10
13.461325
20
9.349221
30
0
11
13.461325
21
30.080593
31
0
39
0
210
0
220
0
230
1
0
LINE
5
91
100
AcDbEntity
8
1
62
256
6
ByLayer
370
-1
48
1
60
0
100
AcDbLine
10
26.9
20
12.5
30
0
11
26.9
21
-12.5
31
0
39
0
210
0
220
0
230
1
0
LINE
5
92
100
AcDbEntity
8
1
62
256
6
ByLayer
370
-1
48
1
60
0
100
AcDbLine
10
90.188684
20
-4.212025
30
0
11
90.194807
21
-4.142997
31
0
39
0
210
0
220
0
230
1
0
LINE
5
93
100
AcDbEntity
8
1
62
256
6
ByLayer
370
-1
48
1
60
0
100
AcDbLine
10
27.025882
20
12.403407
30
0
11
27.025882
21
-12.403407
31
0
39
0
210
0
220
0
230
1
0
LINE
5
94
100
AcDbEntity
8
1
62
256
6
ByLayer
370
-1
48
1
60
0
100
AcDbLine
10
84.330144
20
2.986374
30
0
11
83.801884
21
2.967857
31
0
39
0
210
0
220
0
230
1
0
LINE
5
95
100
AcDbEntity
8
1
62
256
6
ByLayer
370
-1
48
1
60
0
100
AcDbLine
10
21.399
20
31.5
30
0
11
21.399
21
-31.5
31
0
39
0
210
0
220
0
230
1
0
LINE
5
96
100
AcDbEntity
8
1
62
256
6
ByLayer
370
-1
48
1
60
0
100
AcDbLine
10
81.129971
20
1.447026
30
0
11
80.954013
21
0.841695
31
0
39
0
210
0
220
0
230
1
0
LINE
5
97
100
AcDbEntity
8
1
62
256
6
ByLayer
370
-1
48
1
60
0
100
AcDbLine
10
83.84216
20
-8.198221
30
0
11
90.217507
21
-8.198221
31
0
39
0
210
0
220
0
230
1
0
LINE
5
98
100
AcDbEntity
8
1
62
256
6
ByLayer
370
-1
48
1
60
0
100
AcDbLine
10
21.999
20
12.5
30
0
11
21.999
21
-12.5
31
0
39
0
210
0
220
0
230
1
0
LINE
5
99
100
AcDbEntity
8
1
62
256
6
ByLayer
370
-1
48
1
60
0
100
AcDbLine
10
89.984582
20
0.868637
30
0
11
90.034017
21
0.842495
31
0
39
0
210
0
220
0
230
1
0
LINE
5
9A
100
AcDbEntity
8
1
62
256
6
ByLayer
370
-1
48
1
60
0
100
AcDbLine
10
0.3
20
-31.5
30
0
11
0.3
21
31.5
31
0
39
0
210
0
220
0
230
1
0
LINE
5
9B
100
AcDbEntity
8
1
62
256
6
ByLayer
370
-1
48
1
60
0
100
AcDbLine
10
10.538675
20
30.080593
30
0
11
13.461325
21
30.080593
31
0
39
0
210
0
220
0
230
1
0
LINE
5
9C
100
AcDbEntity
8
1
62
256
6
ByLayer
370
-1
48
1
60
0
100
AcDbLine
10
89.97594
20
0.868939
30
0
11
89.984582
21
0.868637
31
0
39
0
210
0
220
0
230
1
0
LINE
5
9D
100
AcDbEntity
8
1
62
256
6
ByLayer
370
-1
48
1
60
0
100
AcDbLine
10
84.498271
20
8.199939
30
0
11
84.587183
21
5.411576
31
0
39
0
210
0
220
0
230
1
0
LINE
5
9E
100
AcDbEntity
8
1
62
256
6
ByLayer
370
-1
48
1
60
0
100
AcDbLine
10
90.034017
20
0.842495
30
0
11
89.962249
21
0.844996
31
0
39
0
210
0
220
0
230
1
0
LINE
5
9F
100
AcDbEntity
8
1
62
256
6
ByLayer
370
-1
48
1
60
0
100
AcDbLine
10
13.461325
20
-30.080593
30
0
11
13.461325
21
-9.349221
31
0
39
0
210
0
220
0
230
1
0
LINE
5
A0
100
AcDbEntity
8
1
62
256
6
ByLayer
370
-1
48
1
60
0
100
AcDbLine
10
37
20
8.2
30
0
11
37
21
5.697727
31
0
39
0
210
0
220
0
230
1
0
LINE
5
A1
100
AcDbEntity
8
1
62
256
6
ByLayer
370
-1
48
1
60
0
100
AcDbLine
10
37
20
-8.2
30
0
11
37
21
-5.994187
31
0
39
0
210
0
220
0
230
1
0
LINE
5
A2
100
AcDbEntity
8
1
62
256
6
ByLayer
370
-1
48
1
60
0
100
AcDbLine
10
13.461325
20
-30.080593
30
0
11
10.538675
21
-30.080593
31
0
39
0
210
0
220
0
230
1
0
LINE
5
A3
100
AcDbEntity
8
1
62
256
6
ByLayer
370
-1
48
1
60
0
100
AcDbLine
10
90.034017
20
0.842495
30
0
11
90.034316
21
0.842616
31
0
39
0
210
0
220
0
230
1
0
LINE
5
A4
100
AcDbEntity
8
1
62
256
6
ByLayer
370
-1
48
1
60
0
100
AcDbLine
10
81.95407
20
3.328407
30
0
11
81.660012
21
3.45983
31
0
39
0
210
0
220
0
230
1
0
LINE
5
A5
100
AcDbEntity
8
1
62
256
6
ByLayer
370
-1
48
1
60
0
100
AcDbLine
10
21.699
20
31.2
30
0
11
21.699
21
-31.2
31
0
39
0
210
0
220
0
230
1
0
LINE
5
A6
100
AcDbEntity
8
1
62
256
6
ByLayer
370
-1
48
1
60
0
100
AcDbLine
10
89.957091
20
0.401842
30
0
11
89.278398
21
0.70425
31
0
39
0
210
0
220
0
230
1
0
LINE
5
A7
100
AcDbEntity
8
1
62
256
6
ByLayer
370
-1
48
1
60
0
100
AcDbLine
10
79.650363
20
8.167991
30
0
11
79.650363
21
4.957678
31
0
39
0
210
0
220
0
230
1
0
LINE
5
A8
100
AcDbEntity
8
1
62
256
6
ByLayer
370
-1
48
1
60
0
100
AcDbLine
10
22
20
12.4
30
0
11
22
21
-12.4
31
0
39
0
210
0
220
0
230
1
0
LINE
5
A9
100
AcDbEntity
8
1
62
256
6
ByLayer
370
-1
48
1
60
0
100
AcDbLine
10
89.723952
20
2.351744
30
0
11
90.018199
21
2.336264
31
0
39
0
210
0
220
0
230
1
0
LINE
5
AA
100
AcDbEntity
8
1
62
256
6
ByLayer
370
-1
48
1
60
0
100
AcDbLine
10
10.538675
20
-30.080593
30
0
11
10.538675
21
-9.349221
31
0
39
0
210
0
220
0
230
1
0
LINE
5
AB
100
AcDbEntity
8
1
62
256
6
ByLayer
370
-1
48
1
60
0
100
AcDbLine
10
84.559859
20
5.411576
30
0
11
84.587183
21
5.411576
31
0
39
0
210
0
220
0
230
1
0
LINE
5
AC
100
AcDbEntity
8
1
62
256
6
ByLayer
370
-1
48
1
60
0
100
AcDbLine
10
84.789032
20
8.188651
30
0
11
84.789034
21
8.188573
31
0
39
0
210
0
220
0
230
1
0
LINE
5
AD
100
AcDbEntity
8
1
62
256
6
ByLayer
370
-1
48
1
60
0
100
AcDbLine
10
10.105662
20
-29.913955
30
0
11
10.105662
21
-9.869413
31
0
39
0
210
0
220
0
230
1
0
LINE
5
AE
100
AcDbEntity
8
1
62
256
6
ByLayer
370
-1
48
1
60
0
100
AcDbLine
10
90.815269
20
3.29871
30
0
11
90.755305
21
3.296624
31
0
39
0
210
0
220
0
230
1
0
LINE
5
AF
100
AcDbEntity
8
1
62
256
6
ByLayer
370
-1
48
1
60
0
100
AcDbLine
10
90.038757
20
8.537423
30
0
11
90.039255
21
8.477659
31
0
39
0
210
0
220
0
230
1
0
LINE
5
B0
100
AcDbEntity
8
1
62
256
6
ByLayer
370
-1
48
1
60
0
100
AcDbLine
10
85.301073
20
8.372034
30
0
11
85.303237
21
8.31232
31
0
39
0
210
0
220
0
230
1
0
LINE
5
B1
100
AcDbEntity
8
1
62
256
6
ByLayer
370
-1
48
1
60
0
100
AcDbLine
10
85.391662
20
8.375624
30
0
11
85.393285
21
8.315889
31
0
39
0
210
0
220
0
230
1
0
LINE
5
B2
100
AcDbEntity
8
1
62
256
6
ByLayer
370
-1
48
1
60
0
100
AcDbLine
10
84.681579
20
7.70517
30
0
11
84.740647
21
7.706712
31
0
39
0
210
0
220
0
230
1
0
LINE
5
B3
100
AcDbEntity
8
1
62
256
6
ByLayer
370
-1
48
1
60
0
100
AcDbLine
10
90.654281
20
7.914538
30
0
11
90.594339
21
7.911908
31
0
39
0
210
0
220
0
230
1
0
LINE
5
B4
100
AcDbEntity
8
1
62
256
6
ByLayer
370
-1
48
1
60
0
100
AcDbLine
10
85.600263
20
2.379279
30
0
11
90.107937
21
2.537292
31
0
39
0
210
0
220
0
230
1
0
LINE
5
B5
100
AcDbEntity
8
1
62
256
6
ByLayer
370
-1
48
1
60
0
100
AcDbLine
10
89.899337
20
8.533637
30
0
11
85.391662
21
8.375624
31
0
39
0
210
0
220
0
230
1
0
LINE
5
B6
100
AcDbEntity
8
1
62
256
6
ByLayer
370
-1
48
1
60
0
100
AcDbLine
10
85.026644
20
8.347374
30
0
11
85.043597
21
8.290214
31
0
39
0
210
0
220
0
230
1
0
LINE
5
B7
100
AcDbEntity
8
1
62
256
6
ByLayer
370
-1
48
1
60
0
100
AcDbLine
10
90.247281
20
2.543277
30
0
11
90.243623
21
2.602962
31
0
39
0
210
0
220
0
230
1
0
LINE
5
B8
100
AcDbEntity
8
1
62
256
6
ByLayer
370
-1
48
1
60
0
100
AcDbLine
10
90.642046
20
8.123231
30
0
11
90.582191
21
8.119062
31
0
39
0
210
0
220
0
230
1
0
LINE
5
B9
100
AcDbEntity
8
1
62
256
6
ByLayer
370
-1
48
1
60
0
100
AcDbLine
10
89.989955
20
8.536399
30
0
11
89.991035
21
8.476647
31
0
39
0
210
0
220
0
230
1
0
LINE
5
BA
100
AcDbEntity
8
1
62
256
6
ByLayer
370
-1
48
1
60
0
100
AcDbLine
10
90.107937
20
2.537292
30
0
11
90.105403
21
2.597027
31
0
39
0
210
0
220
0
230
1
0
LINE
5
BB
100
AcDbEntity
8
1
62
256
6
ByLayer
370
-1
48
1
60
0
100
AcDbLine
10
85.509645
20
2.376517
30
0
11
85.507652
21
2.436269
31
0
39
0
210
0
220
0
230
1
0
LINE
5
BC
100
AcDbEntity
8
1
62
256
6
ByLayer
370
-1
48
1
60
0
100
AcDbLine
10
90.198201
20
8.538704
30
0
11
90.197745
21
8.478932
31
0
39
0
210
0
220
0
230
1
0
LINE
5
BD
100
AcDbEntity
8
1
62
256
6
ByLayer
370
-1
48
1
60
0
100
AcDbLine
10
90.819041
20
3.158757
30
0
11
90.759049
21
3.1578
31
0
39
0
210
0
220
0
230
1
0
LINE
5
BE
100
AcDbEntity
8
1
62
256
6
ByLayer
370
-1
48
1
60
0
100
AcDbLine
10
84.680558
20
7.754159
30
0
11
84.739639
21
7.755116
31
0
39
0
210
0
220
0
230
1
0
LINE
5
BF
100
AcDbEntity
8
1
62
256
6
ByLayer
370
-1
48
1
60
0
100
AcDbLine
10
85.093174
20
8.359752
30
0
11
85.096872
21
8.300126
31
0
39
0
210
0
220
0
230
1
0
LINE
5
C0
100
AcDbEntity
8
1
62
256
6
ByLayer
370
-1
48
1
60
0
100
AcDbLine
10
90.818021
20
3.207746
30
0
11
90.75804
21
3.206204
31
0
39
0
210
0
220
0
230
1
0
LINE
5
C1
100
AcDbEntity
8
1
62
256
6
ByLayer
370
-1
48
1
60
0
100
AcDbLine
10
90.26543
20
8.531015
30
0
11
90.251579
21
8.472775
31
0
39
0
210
0
220
0
230
1
0
LINE
5
C2
100
AcDbEntity
8
1
62
256
6
ByLayer
370
-1
48
1
60
0
100
AcDbLine
10
89.899337
20
8.533637
30
0
11
89.900959
21
8.473901
31
0
39
0
210
0
220
0
230
1
0
LINE
5
C3
100
AcDbEntity
8
1
62
256
6
ByLayer
370
-1
48
1
60
0
100
AcDbLine
10
84.857554
20
2.789684
30
0
11
84.916497
21
2.793854
31
0
39
0
210
0
220
0
230
1
0
LINE
5
C4
100
AcDbEntity
8
1
62
256
6
ByLayer
370
-1
48
1
60
0
100
AcDbLine
10
84.679282
20
7.914212
30
0
11
84.738371
21
7.914212
31
0
39
0
210
0
220
0
230
1
0
LINE
5
C5
100
AcDbEntity
8
1
62
256
6
ByLayer
370
-1
48
1
60
0
100
AcDbLine
10
85.252318
20
8.369639
30
0
11
85.255065
21
8.309953
31
0
39
0
210
0
220
0
230
1
0
LINE
5
C6
100
AcDbEntity
8
1
62
256
6
ByLayer
370
-1
48
1
60
0
100
AcDbLine
10
84.68433
20
7.614206
30
0
11
84.841742
21
3.089313
31
0
39
0
210
0
220
0
230
1
0
LINE
5
C7
100
AcDbEntity
8
1
62
256
6
ByLayer
370
-1
48
1
60
0
100
AcDbLine
10
84.845318
20
2.998378
30
0
11
84.904349
21
3.001007
31
0
39
0
210
0
220
0
230
1
0
LINE
5
C8
100
AcDbEntity
8
1
62
256
6
ByLayer
370
-1
48
1
60
0
100
AcDbLine
10
90.629715
20
8.190016
30
0
11
90.572317
21
8.17254
31
0
39
0
210
0
220
0
230
1
0
LINE
5
C9
100
AcDbEntity
8
1
62
256
6
ByLayer
370
-1
48
1
60
0
100
AcDbLine
10
90.815269
20
3.29871
30
0
11
90.657857
21
7.823603
31
0
39
0
210
0
220
0
230
1
0
LINE
5
CA
100
AcDbEntity
8
1
62
256
6
ByLayer
370
-1
48
1
60
0
100
AcDbLine
10
85.460842
20
2.375493
30
0
11
85.459433
21
2.435257
31
0
39
0
210
0
220
0
230
1
0
LINE
5
CB
100
AcDbEntity
8
1
62
256
6
ByLayer
370
-1
48
1
60
0
100
AcDbLine
10
90.657857
20
7.823603
30
0
11
90.597894
21
7.821517
31
0
39
0
210
0
220
0
230
1
0
LINE
5
CC
100
AcDbEntity
8
1
62
256
6
ByLayer
370
-1
48
1
60
0
100
AcDbLine
10
84.847704
20
2.949437
30
0
11
84.906707
21
2.952651
31
0
39
0
210
0
220
0
230
1
0
LINE
5
CD
100
AcDbEntity
8
1
62
256
6
ByLayer
370
-1
48
1
60
0
100
AcDbLine
10
90.472956
20
2.565542
30
0
11
90.455091
21
2.622702
31
0
39
0
210
0
220
0
230
1
0
LINE
5
CE
100
AcDbEntity
8
1
62
256
6
ByLayer
370
-1
48
1
60
0
100
AcDbLine
10
90.812657
20
2.931219
30
0
11
90.754183
21
2.944664
31
0
39
0
210
0
220
0
230
1
0
LINE
5
CF
100
AcDbEntity
8
1
62
256
6
ByLayer
370
-1
48
1
60
0
100
AcDbLine
10
84.68433
20
7.614206
30
0
11
84.743383
21
7.616292
31
0
39
0
210
0
220
0
230
1
0
LINE
5
D0
100
AcDbEntity
8
1
62
256
6
ByLayer
370
-1
48
1
60
0
100
AcDbLine
10
90.406425
20
2.553164
30
0
11
90.401816
21
2.61279
31
0
39
0
210
0
220
0
230
1
0
LINE
5
D1
100
AcDbEntity
8
1
62
256
6
ByLayer
370
-1
48
1
60
0
100
AcDbLine
10
84.686942
20
7.981697
30
0
11
84.744504
21
7.968251
31
0
39
0
210
0
220
0
230
1
0
LINE
5
D2
100
AcDbEntity
8
1
62
256
6
ByLayer
370
-1
48
1
60
0
100
AcDbLine
10
90.198526
20
2.540882
30
0
11
90.195451
21
2.600595
31
0
39
0
210
0
220
0
230
1
0
LINE
5
D3
100
AcDbEntity
8
1
62
256
6
ByLayer
370
-1
48
1
60
0
100
AcDbLine
10
90.820317
20
2.998704
30
0
11
90.760317
21
2.998704
31
0
39
0
210
0
220
0
230
1
0
LINE
5
D4
100
AcDbEntity
8
1
62
256
6
ByLayer
370
-1
48
1
60
0
100
AcDbLine
10
90.651895
20
7.963479
30
0
11
90.591981
21
7.960265
31
0
39
0
210
0
220
0
230
1
0
LINE
5
D5
100
AcDbEntity
8
1
62
256
6
ByLayer
370
-1
48
1
60
0
100
AcDbLine
10
84.841742
20
3.089313
30
0
11
84.900794
21
3.091399
31
0
39
0
210
0
220
0
230
1
0
LINE
5
D6
100
AcDbEntity
8
1
62
256
6
ByLayer
370
-1
48
1
60
0
100
AcDbLine
10
85.23417
20
2.381901
30
0
11
85.247109
21
2.44014
31
0
39
0
210
0
220
0
230
1
0
LINE
5
D7
100
AcDbEntity
8
1
62
256
6
ByLayer
370
-1
48
1
60
0
100
AcDbLine
10
85.301398
20
2.374212
30
0
11
85.300942
21
2.433983
31
0
39
0
210
0
220
0
230
1
0
LINE
5
D8
100
AcDbEntity
8
1
62
256
6
ByLayer
370
-1
48
1
60
0
100
AcDbLine
10
90.175362
20
-1.686903
30
0
11
90.075499
21
-1.692127
31
0
39
0
210
0
220
0
230
1
0
LINE
5
D9
100
AcDbEntity
8
1
62
256
6
ByLayer
370
-1
48
1
60
0
100
AcDbLine
10
90.961306
20
-4.119371
30
0
11
90.999695
21
-3.022091
31
0
39
0
210
0
220
0
230
1
0
LINE
5
DA
100
AcDbEntity
8
1
62
256
6
ByLayer
370
-1
48
1
60
0
100
AcDbLine
10
90.524882
20
-1.726616
30
0
11
90.175362
21
-1.686903
31
0
39
0
210
0
220
0
230
1
0
LINE
5
DB
100
AcDbEntity
8
1
62
256
6
ByLayer
370
-1
48
1
60
0
100
AcDbLine
10
90.999695
20
-3.022091
30
0
11
90.80976
21
-2.920977
31
0
39
0
210
0
220
0
230
1
0
LINE
5
DC
100
AcDbEntity
8
1
62
256
6
ByLayer
370
-1
48
1
60
0
100
AcDbLine
10
90.760868
20
-4.39957
30
0
11
90.247692
21
-3.698372
31
0
39
0
210
0
220
0
230
1
0
LINE
5
DD
100
AcDbEntity
8
1
62
256
6
ByLayer
370
-1
48
1
60
0
100
AcDbLine
10
90.17017
20
-4.520451
30
0
11
90.56476
21
-4.487137
31
0
39
0
210
0
220
0
230
1
0
LINE
5
DE
100
AcDbEntity
8
1
62
256
6
ByLayer
370
-1
48
1
60
0
100
AcDbLine
10
90.609296
20
-0.215986
30
0
11
90.431171
21
-0.162773
31
0
39
0
210
0
220
0
230
1
0
LINE
5
DF
100
AcDbEntity
8
1
62
256
6
ByLayer
370
-1
48
1
60
0
100
AcDbLine
10
90.794515
20
-3.349026
30
0
11
90.444728
21
-3.278838
31
0
39
0
210
0
220
0
230
1
0
LINE
5
E0
100
AcDbEntity
8
1
62
256
6
ByLayer
370
-1
48
1
60
0
100
AcDbLine
10
90.175362
20
-1.686903
30
0
11
90.107902
21
-0.402108
31
0
39
0
210
0
220
0
230
1
0
LINE
5
E1
100
AcDbEntity
8
1
62
256
6
ByLayer
370
-1
48
1
60
0
100
AcDbLine
10
90.16327
20
0.75794
30
0
11
89.947333
21
0.613423
31
0
39
0
210
0
220
0
230
1
0
LINE
5
E2
100
AcDbEntity
8
1
62
256
6
ByLayer
370
-1
48
1
60
0
100
AcDbLine
10
90.714937
20
-1.8113
30
0
11
90.638765
21
-0.360558
31
0
39
0
210
0
220
0
230
1
0
LINE
5
E3
100
AcDbEntity
8
1
62
256
6
ByLayer
370
-1
48
1
60
0
100
AcDbLine
10
90.714937
20
-1.8113
30
0
11
90.524882
21
-1.726616
31
0
39
0
210
0
220
0
230
1
0
LINE
5
E4
100
AcDbEntity
8
1
62
256
6
ByLayer
370
-1
48
1
60
0
100
AcDbLine
10
90.344789
20
-3.275355
30
0
11
90.358667
21
-2.878682
31
0
39
0
210
0
220
0
230
1
0
LINE
5
E5
100
AcDbEntity
8
1
62
256
6
ByLayer
370
-1
48
1
60
0
100
AcDbLine
10
90.457423
20
-0.441821
30
0
11
90.107902
21
-0.402108
31
0
39
0
210
0
220
0
230
1
0
LINE
5
E6
100
AcDbEntity
8
1
62
256
6
ByLayer
370
-1
48
1
60
0
100
AcDbLine
10
90.632621
20
-4.570923
30
0
11
90.56476
21
-4.487137
31
0
39
0
210
0
220
0
230
1
0
LINE
5
E7
100
AcDbEntity
8
1
62
256
6
ByLayer
370
-1
48
1
60
0
100
AcDbLine
10
90.329983
20
0.208723
30
0
11
89.978662
21
-0.0264
31
0
39
0
210
0
220
0
230
1
0
LINE
5
E8
100
AcDbEntity
8
1
62
256
6
ByLayer
370
-1
48
1
60
0
100
AcDbLine
10
90.329983
20
0.208723
30
0
11
90.260631
21
0.57181
31
0
39
0
210
0
220
0
230
1
0
LINE
5
E9
100
AcDbEntity
8
1
62
256
6
ByLayer
370
-1
48
1
60
0
100
AcDbLine
10
90.961306
20
-4.119371
30
0
11
90.854374
21
-3.987342
31
0
39
0
210
0
220
0
230
1
0
LINE
5
EA
100
AcDbEntity
8
1
62
256
6
ByLayer
370
-1
48
1
60
0
100
AcDbLine
10
90.808393
20
-2.952354
30
0
11
90.458606
21
-2.882166
31
0
39
0
210
0
220
0
230
1
0
LINE
5
EB
100
AcDbEntity
8
1
62
256
6
ByLayer
370
-1
48
1
60
0
100
AcDbLine
10
90.309935
20
0.604969
30
0
11
90.260631
21
0.57181
31
0
39
0
210
0
220
0
230
1
0
LINE
5
EC
100
AcDbEntity
8
1
62
256
6
ByLayer
370
-1
48
1
60
0
100
AcDbLine
10
90.075499
20
-1.692127
30
0
11
90.008039
21
-0.407332
31
0
39
0
210
0
220
0
230
1
0
LINE
5
ED
100
AcDbEntity
8
1
62
256
6
ByLayer
370
-1
48
1
60
0
100
AcDbLine
10
90.444728
20
-3.278838
30
0
11
90.458606
21
-2.882166
31
0
39
0
210
0
220
0
230
1
0
LINE
5
EE
100
AcDbEntity
8
1
62
256
6
ByLayer
370
-1
48
1
60
0
100
AcDbLine
10
90.638765
20
-0.360558
30
0
11
90.455213
21
-0.305724
31
0
39
0
210
0
220
0
230
1
0
LINE
5
EF
100
AcDbEntity
8
1
62
256
6
ByLayer
370
-1
48
1
60
0
100
AcDbLine
10
89.998687
20
-0.407808
30
0
11
90.008039
21
-0.407332
31
0
39
0
210
0
220
0
230
1
0
LINE
5
F0
100
AcDbEntity
8
1
62
256
6
ByLayer
370
-1
48
1
60
0
100
AcDbLine
10
90.904268
20
-2.560445
30
0
11
90.732404
21
-2.547063
31
0
39
0
210
0
220
0
230
1
0
LINE
5
F1
100
AcDbEntity
8
1
62
256
6
ByLayer
370
-1
48
1
60
0
100
AcDbLine
10
90.72268
20
-2.526628
30
0
11
90.404767
21
-2.614752
31
0
39
0
210
0
220
0
230
1
0
LINE
5
F2
100
AcDbEntity
8
1
62
256
6
ByLayer
370
-1
48
1
60
0
100
AcDbLine
10
90.185567
20
-2.866544
30
0
11
90.171689
21
-3.263216
31
0
39
0
210
0
220
0
230
1
0
LINE
5
F3
100
AcDbEntity
8
1
62
256
6
ByLayer
370
-1
48
1
60
0
100
AcDbLine
10
90.794515
20
-3.349026
30
0
11
90.808393
21
-2.952354
31
0
39
0
210
0
220
0
230
1
0
LINE
5
F4
100
AcDbEntity
8
1
62
256
6
ByLayer
370
-1
48
1
60
0
100
AcDbLine
10
90.171963
20
-4.738276
30
0
11
90.632621
21
-4.570923
31
0
39
0
210
0
220
0
230
1
0
LINE
5
F5
100
AcDbEntity
8
1
62
256
6
ByLayer
370
-1
48
1
60
0
100
AcDbLine
10
90.168154
20
-3.635449
30
0
11
90.181081
21
-3.623925
31
0
39
0
210
0
220
0
230
1
0
LINE
5
F6
100
AcDbEntity
8
1
62
256
6
ByLayer
370
-1
48
1
60
0
100
AcDbLine
10
90.609296
20
-0.215986
30
0
11
90.309935
21
0.604969
31
0
39
0
210
0
220
0
230
1
0
LINE
5
F7
100
AcDbEntity
8
1
62
256
6
ByLayer
370
-1
48
1
60
0
100
AcDbLine
10
90.524882
20
-1.726616
30
0
11
90.457423
21
-0.441821
31
0
39
0
210
0
220
0
230
1
0
LINE
5
F8
100
AcDbEntity
8
1
62
256
6
ByLayer
370
-1
48
1
60
0
100
AcDbLine
10
90.066146
20
-1.692603
30
0
11
90.075499
21
-1.692127
31
0
39
0
210
0
220
0
230
1
0
LINE
5
F9
100
AcDbEntity
8
1
62
256
6
ByLayer
370
-1
48
1
60
0
100
AcDbLine
10
90.174867
20
-3.763289
30
0
11
90.247692
21
-3.698372
31
0
39
0
210
0
220
0
230
1
0
LINE
5
FA
100
AcDbEntity
8
1
62
256
6
ByLayer
370
-1
48
1
60
0
100
AcDbLine
10
0
20
-31.2
30
0
11
0
21
31.2
31
0
39
0
210
0
220
0
230
1
0
LINE
5
FB
100
AcDbEntity
8
1
62
256
6
ByLayer
370
-1
48
1
60
0
100
AcDbLine
10
-0.001
20
-31.2
30
0
11
-0.001
21
31.2
31
0
39
0
210
0
220
0
230
1
0
MTEXT
5
23E
100
AcDbEntity
8
SK6
62
256
6
ByLayer
370
-1
48
1
60
0
100
AcDbMText
10
0.79375
20
-80.79375
30
0
210
0
220
0
230
1
1
\W00.709;\fsimplex.shx,bigfont.shx;880-D1700C6-03 
40
3.175
41
0
44
1.084337
50
0
71
7
72
5
7
DEFAULT
0
DIMENSION
5
26E
100
AcDbEntity
8
SK2
62
256
6
ByLayer
370
-3
48
1
60
0
100
AcDbDimension
2
DimnDraft3D1
10
91
20
-70.31875
30
0
11
26.5
21
-70.31875
31
0
70
32
71
5
72
1
41
1
210
0
220
0
230
1
3
Standard
100
AcDbAlignedDimension
13
-38
23
-4.5875
33
0
14
91
24
-10.0875
34
0
50
0
100
AcDbRotatedDimension
1001
ACAD
1000
DSTYLE
1002
{
1070
   279
1070
     0
1070
   172
1070
     1
1070
   173
1070
     1
1070
   340
1005
23F
1070
   271
1070
     1
1070
   272
1070
     2
1070
    77
1070
     1
1070
    73
1070
     0
1070
   171
1070
     3
1070
   274
1070
     4
1070
   177
1070
   150
1070
   176
1070
     9
1070
   178
1070
    43
1070
    78
1070
     8
1070
    48
1040
-0.005
1070
    41
1041
4.175
1070
   147
1041
2.25
1070
    42
1041
1.5875
1070
    44
1041
3.175
1070
   140
1041
4.5
1070
   343
1005
0
1070
   344
1005
0
1002
}
0
DIMENSION
5
278
100
AcDbEntity
8
SK2
62
256
6
ByLayer
370
-3
48
1
60
0
100
AcDbDimension
2
DimnDraft3D2
10
0
20
-58.35
30
0
11
-19
21
-58.35
31
0
70
32
71
5
72
1
41
1
210
0
220
0
230
1
3
Standard
100
AcDbAlignedDimension
13
-38
23
-4.5875
33
0
14
0
24
-33.0875
34
0
50
0
100
AcDbRotatedDimension
1001
ACAD
1000
DSTYLE
1002
{
1070
   279
1070
     0
1070
   172
1070
     1
1070
   173
1070
     1
1070
   340
1005
23F
1070
   271
1070
     1
1070
   272
1070
     2
1070
    77
1070
     1
1070
    73
1070
     0
1070
   171
1070
     3
1070
   274
1070
     4
1070
   177
1070
   150
1070
   176
1070
     9
1070
   178
1070
    43
1070
    78
1070
     8
1070
    48
1040
-0.005
1070
    41
1041
4.175
1070
   147
1041
2.25
1070
    42
1041
1.5875
1070
    44
1041
3.175
1070
   140
1041
4.5
1070
   343
1005
0
1070
   344
1005
0
1002
}
0
DIMENSION
5
283
100
AcDbEntity
8
2
62
256
6
ByLayer
370
-3
48
1
60
0
100
AcDbDimension
2
DimnDraft3D3
10
91
20
-58.35
30
0
11
45.5
21
-58.35
31
0
70
32
71
5
72
1
41
1
210
0
220
0
230
1
3
Standard
100
AcDbAlignedDimension
13
0
23
-33.0875
33
0
14
91
24
-10.0875
34
0
50
0
100
AcDbRotatedDimension
1001
ACAD
1000
DSTYLE
1002
{
1070
   279
1070
     0
1070
   172
1070
     1
1070
   173
1070
     1
1070
   340
1005
23F
1070
   271
1070
     1
1070
   272
1070
     2
1070
    77
1070
     1
1070
    73
1070
     0
1070
   171
1070
     3
1070
   274
1070
     4
1070
   177
1070
   150
1070
   176
1070
     9
1070
   178
1070
    43
1070
    78
1070
     8
1070
    48
1040
-0.005
1070
    41
1041
4.175
1070
   147
1041
2.25
1070
    42
1041
1.5875
1070
    44
1041
3.175
1070
   140
1041
4.5
1070
   343
1005
0
1070
   344
1005
0
1002
}
0
DIMENSION
5
28D
100
AcDbEntity
8
SK2
62
256
6
ByLayer
370
-3
48
1
60
0
100
AcDbDimension
2
DimnDraft3D4
10
91
20
-48.35
30
0
11
64
21
-48.35
31
0
70
32
71
5
72
1
41
1
210
0
220
0
230
1
3
Standard
100
AcDbAlignedDimension
13
37
23
-11.5875
33
0
14
91
24
-10.0875
34
0
50
0
100
AcDbRotatedDimension
1001
ACAD
1000
DSTYLE
1002
{
1070
   279
1070
     0
1070
   172
1070
     1
1070
   173
1070
     1
1070
   340
1005
23F
1070
   271
1070
     1
1070
   272
1070
     2
1070
    77
1070
     1
1070
    73
1070
     0
1070
   171
1070
     3
1070
   274
1070
     4
1070
   177
1070
   150
1070
   176
1070
     9
1070
   178
1070
    43
1070
    78
1070
     8
1070
    48
1040
-0.005
1070
    41
1041
4.175
1070
   147
1041
2.25
1070
    42
1041
1.5875
1070
    44
1041
3.175
1070
   140
1041
4.5
1070
   343
1005
0
1070
   344
1005
0
1002
}
0
DIMENSION
5
298
100
AcDbEntity
8
SK2
62
256
6
ByLayer
370
-3
48
1
60
0
100
AcDbDimension
2
DimnDraft3D5
10
-60.089798
20
31.5
30
0
11
-60.289798
21
4.121053
31
0
70
33
71
5
72
1
41
1
210
0
220
0
230
1
3
Standard
100
AcDbAlignedDimension
13
-1.5875
23
-31.5
33
0
14
-1.5875
24
31.5
34
0
1001
ACAD
1000
DSTYLE
1002
{
1070
   279
1070
     0
1070
    74
1070
     0
1070
   173
1070
     1
1070
   340
1005
23F
1070
   271
1070
     1
1070
   272
1070
     2
1070
    77
1070
     1
1070
    73
1070
     0
1070
   171
1070
     3
1070
   274
1070
     4
1070
   177
1070
   150
1070
   176
1070
     9
1070
   178
1070
    43
1070
    78
1070
     8
1070
    48
1040
-0.005
1070
    41
1041
4.175
1070
   147
1041
2.25
1070
    42
1041
1.5875
1070
    44
1041
3.175
1070
   140
1041
4.5
1070
   343
1005
0
1070
   344
1005
0
1002
}
0
DIMENSION
5
2A3
100
AcDbEntity
8
2
62
256
6
ByLayer
370
-3
48
1
60
0
100
AcDbDimension
2
DimnDraft3D6
10
121.15
20
-8.5
30
0
11
114.6
21
-24.745395
31
0
70
33
71
5
72
1
41
1
210
0
220
0
230
1
3
Standard
100
AcDbAlignedDimension
13
92.5875
23
8.5
33
0
14
92.5875
24
-8.5
34
0
1001
ACAD
1000
DSTYLE
1002
{
1070
   279
1070
     0
1070
    74
1070
     0
1070
   173
1070
     1
1070
   340
1005
23F
1070
   271
1070
     2
1070
   272
1070
     2
1070
    77
1070
     1
1070
    73
1070
     0
1070
   171
1070
     3
1070
   274
1070
     4
1070
   177
1070
   150
1070
   176
1070
     9
1070
   178
1070
    43
1070
    78
1070
     8
1070
    48
1040
-0.005
1070
    41
1041
4.175
1070
   147
1041
2.25
1070
    42
1041
1.5875
1070
    44
1041
3.175
1070
   140
1041
4.5
1070
   343
1005
0
1070
   344
1005
0
1002
}
0
ENDSEC
0
SECTION
2
OBJECTS
0
DICTIONARY
5
2d4
330
0
100
AcDbDictionary
280
0
281
1
3
ACAD_GROUP
350
2d5
3
ACAD_MLINESTYLE
350
2d6
0
DICTIONARY
5
2d5
330
0
100
AcDbDictionary
280
0
281
1
0
DICTIONARY
5
2d6
330
0
100
AcDbDictionary
280
0
281
1
3
Standard
350
18
0
MLINESTYLE
5
18
330
2d6
100
AcDbMlineStyle
2
Standard
70
0
3

62
256
51
90
52
90
71
2
49
-0.5
62
256
6
ByLayer
49
0.5
62
256
6
ByLayer
0
RASTERVARIABLES
5
2c2
330

100
AcDbRasterVariables
90
0
70
1
71
1
72
1
0
ENDSEC
0
EOF
