0
SECTION
2
HEADER
9
$ACADVER
1
AC1015
9
$DWGCODEPAGE
3
ANSI_1252
9
$HANDSEED
5
32a
9
$ANGBASE
50
0
9
$ANGDIR
70
0
9
$ATTMODE
70
1
9
$AUNITS
70
0
9
$AUPREC
70
0
9
$CECOLOR
62
256
9
$CELTSCALE
40
1
9
$CELTYPE
6
ByLayer
9
$CELWEIGHT
370
18
9
$CLAYER
8
0
9
$CMLJUST
70
0
9
$CMLSCALE
40
1
9
$CMLSTYLE
2
Standard
9
$DIMSTYLE
2
Standard
9
$TEXTSIZE
40
0.2
9
$TEXTSTYLE
7
Standard
9
$LUNITS
70
2
9
$LUPREC
70
4
9
$EXTNAMES
290
1
9
$INSUNITS
70
4
9
$LTSCALE
40
1
9
$LWDISPLAY
290
1
9
$PDMODE
70
0
9
$PDSIZE
40
0
9
$PLINEGEN
70
0
0
ENDSEC
0
SECTION
2
CLASSES
0
CLASS
1
RASTERVARIABLES
2
AcDbRasterVariables
3
ISM
90
0
280
0
281
0
0
ENDSEC
0
SECTION
2
TABLES
0
TABLE
2
VPORT
5
320
100
AcDbSymbolTable
0
VPORT
5
1
100
AcDbSymbolTableRecord
100
AcDbViewportTableRecord
2
*Active
70
0
10
0
20
0
11
1
21
1
12
-1
22
1
13
0
23
0
14
0.5
24
0.5
15
10
25
10
16
0
26
0
36
1
17
0
27
0
37
0
0
ENDTAB
0
TABLE
2
LTYPE
5
321
100
AcDbSymbolTable
0
LTYPE
5
14
100
AcDbSymbolTableRecord
100
AcDbLinetypeTableRecord
70
0
2
ByBlock
3

72
65
73
0
40
0
0
LTYPE
5
15
100
AcDbSymbolTableRecord
100
AcDbLinetypeTableRecord
70
0
2
ByLayer
3

72
65
73
0
40
0
0
LTYPE
5
16
100
AcDbSymbolTableRecord
100
AcDbLinetypeTableRecord
70
0
2
CONTINUOUS
3
Solid line
72
65
73
0
40
0
0
LTYPE
5
6A
100
AcDbSymbolTableRecord
100
AcDbLinetypeTableRecord
70
0
2
CENTER
3
____ _ ____ _ ____ _ ____
72
65
73
4
40
47.5
49
22
74
0
49
-8.5
74
0
49
8.5
74
0
49
-8.5
74
0
0
LTYPE
5
6B
100
AcDbSymbolTableRecord
100
AcDbLinetypeTableRecord
70
0
2
DASHED
3
__ __ __ __ __ __ __ __ __
72
65
73
2
40
25.72
49
12.86
74
0
49
-12.86
74
0
0
ENDTAB
0
TABLE
2
LAYER
5
322
100
AcDbSymbolTable
0
LAYER
5
10
100
AcDbSymbolTableRecord
100
AcDbLayerTableRecord
2
0
70
0
62
7
6
CONTINUOUS
290
1
370
-3
390
0
0
LAYER
5
6D
100
AcDbSymbolTableRecord
100
AcDbLayerTableRecord
2
81
70
0
62
-3
6
CONTINUOUS
290
1
370
-3
390
0
0
LAYER
5
6F
100
AcDbSymbolTableRecord
100
AcDbLayerTableRecord
2
80
70
0
62
-6
6
CONTINUOUS
290
1
370
-3
390
0
0
LAYER
5
73
100
AcDbSymbolTableRecord
100
AcDbLayerTableRecord
2
1
70
0
62
4
6
CONTINUOUS
290
1
370
-3
390
0
0
LAYER
5
8B
100
AcDbSymbolTableRecord
100
AcDbLayerTableRecord
2
4
70
0
62
-2
6
CENTER
290
1
370
-3
390
0
0
LAYER
5
28A
100
AcDbSymbolTableRecord
100
AcDbLayerTableRecord
2
2
70
0
62
7
6
CONTINUOUS
290
1
370
-3
390
0
0
LAYER
5
30c
100
AcDbSymbolTableRecord
100
AcDbLayerTableRecord
2
SK4
70
0
62
2
6
CENTER
290
1
370
-3
390
0
0
LAYER
5
30d
100
AcDbSymbolTableRecord
100
AcDbLayerTableRecord
2
SK1
70
0
62
4
6
CONTINUOUS
290
1
370
-3
390
0
0
LAYER
5
30e
100
AcDbSymbolTableRecord
100
AcDbLayerTableRecord
2
SK6
70
0
62
5
6
CONTINUOUS
290
1
370
-3
390
0
0
LAYER
5
30f
100
AcDbSymbolTableRecord
100
AcDbLayerTableRecord
2
SK2
70
0
62
7
6
CONTINUOUS
290
1
370
-3
390
0
0
ENDTAB
0
TABLE
2
STYLE
5
323
100
AcDbSymbolTable
0
STYLE
5
11
100
AcDbSymbolTableRecord
100
AcDbTextStyleTableRecord
2
Standard
3
txt
70
0
71
0
40
0
41
1
42
0
50
0
0
STYLE
5
270
100
AcDbSymbolTableRecord
100
AcDbTextStyleTableRecord
2
iso_b_vert
3
simplex.shx
70
0
71
0
40
0
41
1
42
0
50
0
0
STYLE
5
271
100
AcDbSymbolTableRecord
100
AcDbTextStyleTableRecord
2
DWGDirectTextStyle
3
simplex
70
0
71
0
40
0
41
1
42
0
50
0
0
ENDTAB
0
TABLE
2
DIMSTYLE
5
324
100
AcDbSymbolTable
100
AcDbDimStyleTable
0
DIMSTYLE
105
27
100
AcDbSymbolTableRecord
100
AcDbDimStyleTableRecord
2
Standard
70
0
3
<>
41
0.18
42
0.0625
44
0.18
140
0.18
147
0.09
73
0
74
0
77
1
271
2
275
0
278
52
280
0
340
11
0
ENDTAB
0
TABLE
2
VIEW
5
325
100
AcDbSymbolTable
0
ENDTAB
0
TABLE
2
UCS
5
326
100
AcDbSymbolTable
0
ENDTAB
0
TABLE
2
APPID
5
327
100
AcDbSymbolTable
0
APPID
5
12
100
AcDbSymbolTableRecord
100
AcDbRegAppTableRecord
2
ACAD
70
0
0
ENDTAB
0
TABLE
2
BLOCK_RECORD
5
328
100
AcDbSymbolTable
0
BLOCK_RECORD
5
1F
100
AcDbSymbolTableRecord
100
AcDbBlockTableRecord
2
*Model_Space
340
0
70
0
0
BLOCK_RECORD
5
1B
100
AcDbSymbolTableRecord
100
AcDbBlockTableRecord
2
*Paper_Space
340
0
70
0
0
BLOCK_RECORD
5
23
100
AcDbSymbolTableRecord
100
AcDbBlockTableRecord
2
*Paper_Space0
340
0
70
0
0
BLOCK_RECORD
5
273
100
AcDbSymbolTableRecord
100
AcDbBlockTableRecord
2
DimnDraft3D1
340
0
70
0
0
BLOCK_RECORD
5
27E
100
AcDbSymbolTableRecord
100
AcDbBlockTableRecord
2
DimnDraft3D2
340
0
70
0
0
BLOCK_RECORD
5
288
100
AcDbSymbolTableRecord
100
AcDbBlockTableRecord
2
DimnDraft3D3
340
0
70
0
0
BLOCK_RECORD
5
293
100
AcDbSymbolTableRecord
100
AcDbBlockTableRecord
2
DimnDraft3D4
340
0
70
0
0
BLOCK_RECORD
5
29D
100
AcDbSymbolTableRecord
100
AcDbBlockTableRecord
2
DimnDraft3D5
340
0
70
0
0
BLOCK_RECORD
5
2A8
100
AcDbSymbolTableRecord
100
AcDbBlockTableRecord
2
DimnDraft3D6
340
0
70
0
0
ENDTAB
0
ENDSEC
0
SECTION
2
BLOCKS
0
BLOCK
5
20
100
AcDbEntity
8
0
100
AcDbBlockBegin
2
*Model_Space
70
0
10
0
20
0
30
0
3
*Model_Space
0
ENDBLK
5
21
100
AcDbEntity
8
0
100
AcDbBlockEnd
0
BLOCK
5
1C
100
AcDbEntity
8
0
100
AcDbBlockBegin
2
*Paper_Space
70
0
10
0
20
0
30
0
3
*Paper_Space
0
ENDBLK
5
1D
100
AcDbEntity
8
0
100
AcDbBlockEnd
0
BLOCK
5
24
100
AcDbEntity
8
0
100
AcDbBlockBegin
2
*Paper_Space0
70
0
10
0
20
0
30
0
3
*Paper_Space0
0
ENDBLK
5
25
100
AcDbEntity
8
0
100
AcDbBlockEnd
0
BLOCK
5
27B
100
AcDbEntity
8
0
100
AcDbBlockBegin
2
DimnDraft3D1
70
0
10
0
20
0
30
0
3
DimnDraft3D1
0
MTEXT
5
274
100
AcDbEntity
8
SK2
62
256
6
ByLayer
370
18
48
1
60
0
100
AcDbMText
10
24.380263
20
-55.725
30
0
210
0
220
0
230
1
1
\W0.8594;(110)
40
4.5
41
0
44
1.084337
50
0
71
7
72
5
7
iso_b_vert
0
LINE
5
276
100
AcDbEntity
8
SK2
62
256
6
ByLayer
370
13
48
1
60
0
100
AcDbLine
10
-24
20
-3.5875
30
0
11
-24
21
-61.99375
31
0
39
0
210
0
220
0
230
1
0
LINE
5
277
100
AcDbEntity
8
SK2
62
256
6
ByLayer
370
13
48
1
60
0
100
AcDbLine
10
86
20
-9.5875
30
0
11
86
21
-61.99375
31
0
39
0
210
0
220
0
230
1
0
LINE
5
278
100
AcDbEntity
8
SK2
62
256
6
ByLayer
370
13
48
1
60
0
100
AcDbLine
10
-24
20
-58.81875
30
0
11
86
21
-58.81875
31
0
39
0
210
0
220
0
230
1
0
SOLID
5
279
100
AcDbEntity
8
SK2
62
256
6
ByLayer
370
13
48
1
60
0
100
AcDbTrace
10
-24
20
-58.81875
30
0
11
-19.825003
21
-57.893175
31
0
12
-19.824997
22
-59.744325
32
0
13
-24
23
-58.81875
33
0
39
0
210
0
220
0
230
1
0
SOLID
5
27A
100
AcDbEntity
8
SK2
62
256
6
ByLayer
370
13
48
1
60
0
100
AcDbTrace
10
86
20
-58.81875
30
0
11
81.825003
21
-59.744325
31
0
12
81.824997
22
-57.893175
32
0
13
86
23
-58.81875
33
0
39
0
210
0
220
0
230
1
0
ENDBLK
5
27C
100
AcDbEntity
8
0
100
AcDbBlockEnd
0
BLOCK
5
285
100
AcDbEntity
8
0
100
AcDbBlockBegin
2
DimnDraft3D2
70
0
10
0
20
0
30
0
3
DimnDraft3D2
0
MTEXT
5
27F
100
AcDbEntity
8
SK2
62
256
6
ByLayer
370
18
48
1
60
0
100
AcDbMText
10
-13.8
20
-45.725
30
0
210
0
220
0
230
1
1
\W0.7167;24
40
4.5
41
0
44
1.084337
50
0
71
7
72
5
7
iso_b_vert
0
LINE
5
280
100
AcDbEntity
8
SK2
62
256
6
ByLayer
370
13
48
1
60
0
100
AcDbLine
10
-24
20
-3.5875
30
0
11
-24
21
-50.025
31
0
39
0
210
0
220
0
230
1
0
LINE
5
281
100
AcDbEntity
8
SK2
62
256
6
ByLayer
370
13
48
1
60
0
100
AcDbLine
10
0
20
-21.5875
30
0
11
0
21
-50.025
31
0
39
0
210
0
220
0
230
1
0
LINE
5
282
100
AcDbEntity
8
SK2
62
256
6
ByLayer
370
13
48
1
60
0
100
AcDbLine
10
-24
20
-46.85
30
0
11
0
21
-46.85
31
0
39
0
210
0
220
0
230
1
0
SOLID
5
283
100
AcDbEntity
8
SK2
62
256
6
ByLayer
370
13
48
1
60
0
100
AcDbTrace
10
-24
20
-46.85
30
0
11
-19.825003
21
-45.924425
31
0
12
-19.824997
22
-47.775575
32
0
13
-24
23
-46.85
33
0
39
0
210
0
220
0
230
1
0
SOLID
5
284
100
AcDbEntity
8
SK2
62
256
6
ByLayer
370
13
48
1
60
0
100
AcDbTrace
10
0
20
-46.85
30
0
11
-4.174997
21
-47.775575
31
0
12
-4.175003
22
-45.924425
32
0
13
0
23
-46.85
33
0
39
0
210
0
220
0
230
1
0
ENDBLK
5
286
100
AcDbEntity
8
0
100
AcDbBlockEnd
0
BLOCK
5
290
100
AcDbEntity
8
0
100
AcDbBlockBegin
2
DimnDraft3D3
70
0
10
0
20
0
30
0
3
DimnDraft3D3
0
MTEXT
5
289
100
AcDbEntity
8
2
62
256
6
ByLayer
370
18
48
1
60
0
100
AcDbMText
10
41.436842
20
-45.725
30
0
210
0
220
0
230
1
1
\W0.6740;86
40
4.5
41
0
44
1.084337
50
0
71
7
72
5
7
iso_b_vert
0
LINE
5
28B
100
AcDbEntity
8
2
62
256
6
ByLayer
370
13
48
1
60
0
100
AcDbLine
10
0
20
-21.5875
30
0
11
0
21
-50.025
31
0
39
0
210
0
220
0
230
1
0
LINE
5
28C
100
AcDbEntity
8
2
62
256
6
ByLayer
370
13
48
1
60
0
100
AcDbLine
10
86
20
-9.5875
30
0
11
86
21
-50.025
31
0
39
0
210
0
220
0
230
1
0
LINE
5
28D
100
AcDbEntity
8
2
62
256
6
ByLayer
370
13
48
1
60
0
100
AcDbLine
10
0
20
-46.85
30
0
11
86
21
-46.85
31
0
39
0
210
0
220
0
230
1
0
SOLID
5
28E
100
AcDbEntity
8
2
62
256
6
ByLayer
370
13
48
1
60
0
100
AcDbTrace
10
0
20
-46.85
30
0
11
4.174997
21
-45.924425
31
0
12
4.175003
22
-47.775575
32
0
13
0
23
-46.85
33
0
39
0
210
0
220
0
230
1
0
SOLID
5
28F
100
AcDbEntity
8
2
62
256
6
ByLayer
370
13
48
1
60
0
100
AcDbTrace
10
86
20
-46.85
30
0
11
81.825003
21
-47.775575
31
0
12
81.824997
22
-45.924425
32
0
13
86
23
-46.85
33
0
39
0
210
0
220
0
230
1
0
ENDBLK
5
291
100
AcDbEntity
8
0
100
AcDbBlockEnd
0
BLOCK
5
29A
100
AcDbEntity
8
0
100
AcDbBlockBegin
2
DimnDraft3D4
70
0
10
0
20
0
30
0
3
DimnDraft3D4
0
MTEXT
5
294
100
AcDbEntity
8
SK2
62
256
6
ByLayer
370
18
48
1
60
0
100
AcDbMText
10
59.499342
20
-35.725
30
0
210
0
220
0
230
1
1
\W0.6351;51
40
4.5
41
0
44
1.084337
50
0
71
7
72
5
7
iso_b_vert
0
LINE
5
295
100
AcDbEntity
8
SK2
62
256
6
ByLayer
370
13
48
1
60
0
100
AcDbLine
10
35
20
-11.5875
30
0
11
35
21
-40.025
31
0
39
0
210
0
220
0
230
1
0
LINE
5
296
100
AcDbEntity
8
SK2
62
256
6
ByLayer
370
13
48
1
60
0
100
AcDbLine
10
86
20
-9.5875
30
0
11
86
21
-40.025
31
0
39
0
210
0
220
0
230
1
0
LINE
5
297
100
AcDbEntity
8
SK2
62
256
6
ByLayer
370
13
48
1
60
0
100
AcDbLine
10
35
20
-36.85
30
0
11
86
21
-36.85
31
0
39
0
210
0
220
0
230
1
0
SOLID
5
298
100
AcDbEntity
8
SK2
62
256
6
ByLayer
370
13
48
1
60
0
100
AcDbTrace
10
35
20
-36.85
30
0
11
39.174997
21
-35.924425
31
0
12
39.175003
22
-37.775575
32
0
13
35
23
-36.85
33
0
39
0
210
0
220
0
230
1
0
SOLID
5
299
100
AcDbEntity
8
SK2
62
256
6
ByLayer
370
13
48
1
60
0
100
AcDbTrace
10
86
20
-36.85
30
0
11
81.825003
21
-37.775575
31
0
12
81.824997
22
-35.924425
32
0
13
86
23
-36.85
33
0
39
0
210
0
220
0
230
1
0
ENDBLK
5
29B
100
AcDbEntity
8
0
100
AcDbBlockEnd
0
BLOCK
5
2A5
100
AcDbEntity
8
0
100
AcDbBlockBegin
2
DimnDraft3D5
70
0
10
0
20
0
30
0
3
DimnDraft3D5
0
MTEXT
5
29E
100
AcDbEntity
8
SK2
62
256
6
ByLayer
370
18
48
1
60
0
100
AcDbMText
10
-45.153766
20
4.95
30
0
210
0
220
0
230
1
1
\W0.7361;40
40
4.5
41
0
44
1.084337
50
90
71
7
72
5
7
iso_b_vert
0
MTEXT
5
29F
100
AcDbEntity
8
SK2
62
256
6
ByLayer
370
18
48
1
60
0
100
AcDbMText
10
-45.153766
20
-6.264844
30
0
210
0
220
0
230
1
1
%%c
40
4.5
41
0
44
1.084337
50
90
71
7
72
5
7
iso_b_vert
0
LINE
5
2A0
100
AcDbEntity
8
SK2
62
256
6
ByLayer
370
13
48
1
60
0
100
AcDbLine
10
-1.5875
20
-20
30
0
11
-46.078766
21
-20
31
0
39
0
210
0
220
0
230
1
0
LINE
5
2A1
100
AcDbEntity
8
SK2
62
256
6
ByLayer
370
13
48
1
60
0
100
AcDbLine
10
-1.5875
20
20
30
0
11
-46.078766
21
20
31
0
39
0
210
0
220
0
230
1
0
LINE
5
2A2
100
AcDbEntity
8
SK2
62
256
6
ByLayer
370
13
48
1
60
0
100
AcDbLine
10
-42.903766
20
-20
30
0
11
-42.903766
21
20
31
0
39
0
210
0
220
0
230
1
0
SOLID
5
2A3
100
AcDbEntity
8
SK2
62
256
6
ByLayer
370
13
48
1
60
0
100
AcDbTrace
10
-42.903766
20
-20
30
0
11
-43.829341
21
-15.825003
31
0
12
-41.97819
22
-15.824997
32
0
13
-42.903766
23
-20
33
0
39
0
210
0
220
0
230
1
0
SOLID
5
2A4
100
AcDbEntity
8
SK2
62
256
6
ByLayer
370
13
48
1
60
0
100
AcDbTrace
10
-42.903766
20
20
30
0
11
-41.97819
21
15.825003
31
0
12
-43.829341
22
15.824997
32
0
13
-42.903766
23
20
33
0
39
0
210
0
220
0
230
1
0
ENDBLK
5
2A6
100
AcDbEntity
8
0
100
AcDbBlockEnd
0
BLOCK
5
2B0
100
AcDbEntity
8
0
100
AcDbBlockBegin
2
DimnDraft3D6
70
0
10
0
20
0
30
0
3
DimnDraft3D6
0
MTEXT
5
2A9
100
AcDbEntity
8
2
62
256
6
ByLayer
370
18
48
1
60
0
100
AcDbMText
10
110.725
20
-23.238816
30
0
210
0
220
0
230
1
1
\W0.5321;16
40
4.5
41
0
44
1.084337
50
90
71
7
72
5
7
iso_b_vert
0
MTEXT
5
2AA
100
AcDbEntity
8
2
62
256
6
ByLayer
370
18
48
1
60
0
100
AcDbMText
10
110.725
20
-34.45366
30
0
210
0
220
0
230
1
1
%%c
40
4.5
41
0
44
1.084337
50
90
71
7
72
5
7
iso_b_vert
0
LINE
5
2AB
100
AcDbEntity
8
2
62
256
6
ByLayer
370
13
48
1
60
0
100
AcDbLine
10
87.5875
20
8
30
0
11
116.15
21
8
31
0
39
0
210
0
220
0
230
1
0
LINE
5
2AC
100
AcDbEntity
8
2
62
256
6
ByLayer
370
13
48
1
60
0
100
AcDbLine
10
87.5875
20
-8
30
0
11
116.15
21
-8
31
0
39
0
210
0
220
0
230
1
0
LINE
5
2AD
100
AcDbEntity
8
2
62
256
6
ByLayer
370
13
48
1
60
0
100
AcDbLine
10
112.975
20
8
30
0
11
112.975
21
-37.863816
31
0
39
0
210
0
220
0
230
1
0
SOLID
5
2AE
100
AcDbEntity
8
2
62
256
6
ByLayer
370
13
48
1
60
0
100
AcDbTrace
10
112.975
20
8
30
0
11
113.900575
21
3.825003
31
0
12
112.049425
22
3.824997
32
0
13
112.975
23
8
33
0
39
0
210
0
220
0
230
1
0
SOLID
5
2AF
100
AcDbEntity
8
2
62
256
6
ByLayer
370
13
48
1
60
0
100
AcDbTrace
10
112.975
20
-8
30
0
11
112.049425
21
-3.825003
31
0
12
113.900575
22
-3.824997
32
0
13
112.975
23
-8
33
0
39
0
210
0
220
0
230
1
0
ENDBLK
5
2B1
100
AcDbEntity
8
0
100
AcDbBlockEnd
0
ENDSEC
0
SECTION
2
ENTITIES
0
ARC
5
125
100
AcDbEntity
8
1
62
256
6
ByLayer
370
18
48
1
60
0
100
AcDbCircle
39
0
10
-26.415785
20
11.8
30
0
40
0.8
210
0
220
0
230
-1
100
AcDbArc
50
270
51
345
0
ARC
5
126
100
AcDbEntity
8
1
62
256
6
ByLayer
370
18
48
1
60
0
100
AcDbCircle
39
0
10
-26.415785
20
-11.8
30
0
40
0.8
210
0
220
0
230
-1
100
AcDbArc
50
15
51
90
0
ARC
5
127
100
AcDbEntity
8
SK1
62
256
6
ByLayer
370
18
48
1
60
0
100
AcDbCircle
39
0
10
0.6
20
-15
30
0
40
1
210
0
220
0
230
-1
100
AcDbArc
50
113.578178
51
126.869898
0
ARC
5
128
100
AcDbEntity
8
SK1
62
256
6
ByLayer
370
18
48
1
60
0
100
AcDbCircle
39
0
10
0.6
20
15
30
0
40
1
210
0
220
0
230
-1
100
AcDbArc
50
233.130102
51
246.421822
0
ELLIPSE
5
129
100
AcDbEntity
8
1
62
256
6
ByLayer
370
18
48
1
60
0
100
AcDbEllipse
10
87.328238
20
-1.792453
30
0
11
-2.38650854675769
21
2.41189874264117E-15
31
0
210
0
220
0
230
1
40
0.998135
41
0.39222011297396
42
0.44971209231464
0
ELLIPSE
5
12A
100
AcDbEntity
8
1
62
256
6
ByLayer
370
18
48
1
60
0
100
AcDbEllipse
10
84.981338
20
-3.228403
30
0
11
0.220452855499508
21
0
31
0
210
0
220
0
230
1
40
0.998135
41
-0.645064363711194
42
-0.0349065850400126
0
ELLIPSE
5
12B
100
AcDbEntity
8
1
62
256
6
ByLayer
370
18
48
1
60
0
100
AcDbEllipse
10
85.19924
20
-3.549536
30
0
11
-0.110562988479032
21
0.166660809966186
31
0
210
0
220
0
230
1
40
0.033792
41
1.31050756241317
42
1.62169029006599
0
ELLIPSE
5
12C
100
AcDbEntity
8
1
62
256
6
ByLayer
370
18
48
1
60
0
100
AcDbEllipse
10
83.29306
20
-2.186112
30
0
11
1.21732050807568
21
0
31
0
210
0
220
0
230
1
40
0.998135
41
1.680162865217
42
2.70284936470236
0
ELLIPSE
5
12D
100
AcDbEntity
8
1
62
256
6
ByLayer
370
18
48
1
60
0
100
AcDbEllipse
10
83.29306
20
-2.186112
30
0
11
1.21732050807568
21
0
31
0
210
0
220
0
230
1
40
0.998135
41
-3.14159230060804
42
-3.65490419986507E-16
0
ELLIPSE
5
12E
100
AcDbEntity
8
1
62
256
6
ByLayer
370
18
48
1
60
0
100
AcDbEllipse
10
85.117967
20
-1.901967
30
0
11
-0.19972488372022
21
-0.0104866974279142
31
0
210
0
220
0
230
1
40
0.060965
41
1.38463087094562
42
1.56759533351589
0
ELLIPSE
5
12F
100
AcDbEntity
8
1
62
256
6
ByLayer
370
18
48
1
60
0
100
AcDbEllipse
10
83.29306
20
-2.186722
30
0
11
1.19999999999999
21
0
31
0
210
0
220
0
230
1
40
0.998135
41
1.57383988844872
42
2.80642389110094
0
ELLIPSE
5
130
100
AcDbEntity
8
1
62
256
6
ByLayer
370
18
48
1
60
0
100
AcDbEllipse
10
83.29306
20
-2.186722
30
0
11
1.19999999999999
21
0
31
0
210
0
220
0
230
1
40
0.998135
41
-3.14159250110339
42
-3.70765819795641E-16
0
ELLIPSE
5
131
100
AcDbEntity
8
1
62
256
6
ByLayer
370
18
48
1
60
0
100
AcDbEllipse
10
85.070413
20
-0.996273
30
0
11
-0.19972488372022
21
-0.0104866974279142
31
0
210
0
220
0
230
1
40
0.060965
41
1.38463087094562
42
1.56759533351589
0
ELLIPSE
5
132
100
AcDbEntity
8
1
62
256
6
ByLayer
370
18
48
1
60
0
100
AcDbEllipse
10
83.29306
20
-2.186722
30
0
11
-1.09999999999999
21
1.11170296059059E-15
31
0
210
0
220
0
230
1
40
0.998135
41
-2.01444855296731
42
-0.107207380154832
0
ELLIPSE
5
133
100
AcDbEntity
8
1
62
256
6
ByLayer
370
18
48
1
60
0
100
AcDbEllipse
10
83.29306
20
-2.238954
30
0
11
1.09999999999998
21
0
31
0
210
0
220
0
230
1
40
0.998135
41
0.988816217699232
42
2.99894459803591
0
ELLIPSE
5
134
100
AcDbEntity
8
1
62
256
6
ByLayer
370
18
48
1
60
0
100
AcDbEllipse
10
83.29306
20
-2.238954
30
0
11
1.09999999999998
21
0
31
0
210
0
220
0
230
1
40
0.998135
41
3.14159250247959
42
-4.0447180341343E-16
0
ELLIPSE
5
135
100
AcDbEntity
8
1
62
256
6
ByLayer
370
18
48
1
60
0
100
AcDbEllipse
10
84.577432
20
-1.03427
30
0
11
-0.493657936256395
21
4.98909990232072E-16
31
0
210
0
220
0
230
1
40
0.998135
41
-3.08923277603005
42
-2.70294549918415
0
ELLIPSE
5
136
100
AcDbEntity
8
1
62
256
6
ByLayer
370
18
48
1
60
0
100
AcDbEllipse
10
84.917796
20
-0.055848
30
0
11
0.399999999999934
21
0
31
0
210
0
220
0
230
1
40
0.998135
41
0.69813170079765
42
1.17986762866936
0
ELLIPSE
5
137
100
AcDbEntity
8
1
62
256
6
ByLayer
370
18
48
1
60
0
100
AcDbEllipse
10
83.237541
20
5.421035
30
0
11
-1.62148435039036E-15
21
-1.51276302092179
31
0
210
0
220
0
230
1
40
0.996195
41
2.21551012181543
42
0
0
ELLIPSE
5
138
100
AcDbEntity
8
1
62
256
6
ByLayer
370
18
48
1
60
0
100
AcDbEllipse
10
83.237541
20
5.421035
30
0
11
-1.62148435039036E-15
21
-1.51276302092179
31
0
210
0
220
0
230
1
40
0.996195
41
0
42
0.926082652221571
0
ELLIPSE
5
139
100
AcDbEntity
8
1
62
256
6
ByLayer
370
18
48
1
60
0
100
AcDbEllipse
10
83.331403
20
5.421035
30
0
11
-1.17905631005081E-15
21
-1.09999999999998
31
0
210
0
220
0
230
1
40
0.996195
41
2.38957414604377
42
0
0
ELLIPSE
5
13A
100
AcDbEntity
8
1
62
256
6
ByLayer
370
18
48
1
60
0
100
AcDbEllipse
10
83.331403
20
5.421035
30
0
11
-1.17905631005081E-15
21
-1.09999999999998
31
0
210
0
220
0
230
1
40
0.996195
41
0
42
0.302868754877696
0
ELLIPSE
5
13B
100
AcDbEntity
8
1
62
256
6
ByLayer
370
18
48
1
60
0
100
AcDbEllipse
10
83.414687
20
5.421035
30
0
11
1.28859867654789E-15
21
1.09999999999999
31
0
210
0
220
0
230
1
40
0.996195
41
0.0349501466188296
42
1.57079627600046
0
ELLIPSE
5
13C
100
AcDbEntity
8
1
62
256
6
ByLayer
370
18
48
1
60
0
100
AcDbEllipse
10
83.414687
20
5.421035
30
0
11
1.28859867654789E-15
21
1.09999999999999
31
0
210
0
220
0
230
1
40
0.996195
41
1.57079627600046
42
3.10350046494412
0
ELLIPSE
5
13D
100
AcDbEntity
8
1
62
256
6
ByLayer
370
18
48
1
60
0
100
AcDbEllipse
10
83.308495
20
5.216271
30
0
11
1.17145334231628E-15
21
1
31
0
210
0
220
0
230
1
40
0.996195
41
-2.02995977248644
42
0
0
ELLIPSE
5
13E
100
AcDbEntity
8
1
62
256
6
ByLayer
370
18
48
1
60
0
100
AcDbEllipse
10
83.308495
20
5.216271
30
0
11
1.17145334231628E-15
21
1
31
0
210
0
220
0
230
1
40
0.996195
41
0
42
1.43718024345187
0
ELLIPSE
5
13F
100
AcDbEntity
8
1
62
256
6
ByLayer
370
18
48
1
60
0
100
AcDbEllipse
10
30.8
20
3.91716
30
0
11
4.49999999999999
21
0
31
0
210
0
220
0
230
1
40
0.701166
41
1.36637467714467
42
2.9845291585874
0
ELLIPSE
5
140
100
AcDbEntity
8
1
62
256
6
ByLayer
370
18
48
1
60
0
100
AcDbEllipse
10
83.491432
20
5.216271
30
0
11
-1.07186937277348E-15
21
-1
31
0
210
0
220
0
230
1
40
0.996195
41
-3.04970081388258
42
-0.831343272153538
0
ELLIPSE
5
141
100
AcDbEntity
8
1
62
256
6
ByLayer
370
18
48
1
60
0
100
AcDbEllipse
10
83.142785
20
-1.738278
30
0
11
-1.1
21
1.1117029605906E-15
31
0
210
0
220
0
230
1
40
0.998135
41
3.14159250247964
42
-2.02235901706713E-16
0
ELLIPSE
5
142
100
AcDbEntity
8
1
62
256
6
ByLayer
370
18
48
1
60
0
100
AcDbEllipse
10
83.142785
20
-1.976305
30
0
11
-1
21
1.01063905508236E-15
31
0
210
0
220
0
230
1
40
0.998135
41
-3.02211437534154
42
-0.11957697418078
0
ELLIPSE
5
143
100
AcDbEntity
8
1
62
256
6
ByLayer
370
18
48
1
60
0
100
AcDbEllipse
10
81.711122
20
3.78964
30
0
11
1.58146201212697E-15
21
1.35
31
0
210
0
220
0
230
1
40
0.996195
41
1.43116998663535
42
3.00109398759622
0
ELLIPSE
5
144
100
AcDbEntity
8
1
62
256
6
ByLayer
370
18
48
1
60
0
100
AcDbEllipse
10
78.98375
20
7.577808
30
0
11
-5.35934686386741E-15
21
-5
31
0
210
0
220
0
230
1
40
0.996195
41
-0.293337131562861
42
-2.20220096127339E-08
0
ELLIPSE
5
145
100
AcDbEntity
8
1
62
256
6
ByLayer
370
18
48
1
60
0
100
AcDbEllipse
10
85.212039
20
3.325139
30
0
11
-0.032263408051676
21
-0.599132394109919
31
0
210
0
220
0
230
-1
40
0.017262
41
0.341428963593617
42
0.869028180944386
0
ELLIPSE
5
146
100
AcDbEntity
8
1
62
256
6
ByLayer
370
18
48
1
60
0
100
AcDbEllipse
10
83.299689
20
5.216271
30
0
11
1.37645767722162E-15
21
1.175
31
0
210
0
220
0
230
1
40
0.996195
41
0
42
0.636270966134703
0
ELLIPSE
5
147
100
AcDbEntity
8
1
62
256
6
ByLayer
370
18
48
1
60
0
100
AcDbEllipse
10
81.837826
20
4.69463
30
0
11
1.58146201212697E-15
21
1.35
31
0
210
0
220
0
230
1
40
0.996195
41
1.0457488531361
42
1.43116998663535
0
ELLIPSE
5
148
100
AcDbEntity
8
1
62
256
6
ByLayer
370
18
48
1
60
0
100
AcDbEllipse
10
80.971247
20
3.89402
30
0
11
0.594204555650944
21
-0.0831922234566713
31
0
210
0
220
0
230
1
40
0.01213
41
2.00153480164787
42
3.05517121932164
0
ELLIPSE
5
149
100
AcDbEntity
8
1
62
256
6
ByLayer
370
18
48
1
60
0
100
AcDbEllipse
10
81.097951
20
4.79901
30
0
11
0.594204555650944
21
-0.0831922234566713
31
0
210
0
220
0
230
1
40
0.01213
41
2.32492338389029
42
3.05517121932158
0
ELLIPSE
5
14A
100
AcDbEntity
8
1
62
256
6
ByLayer
370
18
48
1
60
0
100
AcDbEllipse
10
83.290974
20
5.216271
30
0
11
1.37645767722162E-15
21
1.175
31
0
210
0
220
0
230
1
40
0.996195
41
-1.34931405700986
42
0
0
ELLIPSE
5
14B
100
AcDbEntity
8
1
62
256
6
ByLayer
370
18
48
1
60
0
100
AcDbEllipse
10
83.290974
20
5.216271
30
0
11
1.37645767722162E-15
21
1.175
31
0
210
0
220
0
230
1
40
0.996195
41
0
42
0.608585300115599
0
ELLIPSE
5
14C
100
AcDbEntity
8
1
62
256
6
ByLayer
370
18
48
1
60
0
100
AcDbEllipse
10
83.004139
20
3.290396
30
0
11
-0.692616116858437
21
-0.624046904123477
31
0
210
0
220
0
230
-1
40
0.037579
41
-0.861380547057371
42
-0.673538939329808
0
ELLIPSE
5
14D
100
AcDbEntity
8
1
62
256
6
ByLayer
370
18
48
1
60
0
100
AcDbEllipse
10
-0.948929
20
0
30
0
11
-9.36741787978217
21
-19.7417491527504
31
0
210
0
220
0
230
-1
40
0.341999
41
-2.98886640869145
42
-2.0452731260899
0
ELLIPSE
5
14E
100
AcDbEntity
8
1
62
256
6
ByLayer
370
18
48
1
60
0
100
AcDbEllipse
10
85.276812
20
0
30
0
11
-0.467222834394781
21
7.69979895251237
31
0
210
0
220
0
230
-1
40
0.119092
41
-2.08319561883459
42
-1.54376939083425
0
ELLIPSE
5
14F
100
AcDbEntity
8
1
62
256
6
ByLayer
370
18
48
1
60
0
100
AcDbEllipse
10
85.140392
20
3.328909
30
0
11
-0.0150198847700529
21
0.601593668631254
31
0
210
0
220
0
230
-1
40
0.120236
41
2.80948160685246
42
-3.13683212475016
0
ELLIPSE
5
150
100
AcDbEntity
8
1
62
256
6
ByLayer
370
18
48
1
60
0
100
AcDbEllipse
10
84.518837
20
0
30
0
11
-17.5214297046355
21
7.4618605428755
31
0
210
0
220
0
230
-1
40
0.108448
41
-1.13573625464528
42
-0.720507779188249
0
ELLIPSE
5
151
100
AcDbEntity
8
1
62
256
6
ByLayer
370
18
48
1
60
0
100
AcDbEllipse
10
70.026841
20
6.013868
30
0
11
-7.84247599112732
21
4.25445117686502
31
0
210
0
220
0
230
-1
40
0.104986
41
-2.60732309049877
42
-1.88134792861021
0
ELLIPSE
5
152
100
AcDbEntity
8
1
62
256
6
ByLayer
370
18
48
1
60
0
100
AcDbEllipse
10
84.899157
20
-4.821742
30
0
11
-0.0802406427413352
21
-0.998072753205354
31
0
210
0
220
0
230
-1
40
0.126037
41
-2.60599156452796
42
2.69480137460016
0
ELLIPSE
5
153
100
AcDbEntity
8
1
62
256
6
ByLayer
370
18
48
1
60
0
100
AcDbEllipse
10
79.161142
20
0
30
0
11
-25.7355107961015
21
0.516073066279108
31
0
210
0
220
0
230
-1
40
0.298525
41
-1.56421319512063
42
-1.48866642247225
0
ELLIPSE
5
154
100
AcDbEntity
8
1
62
256
6
ByLayer
370
18
48
1
60
0
100
AcDbEllipse
10
75.540035
20
-3E-06
30
0
11
-88.0114196268191
21
-1.41514094388016E-07
31
0
210
0
220
0
230
-1
40
0.087489
41
1.6081746697794
42
1.62597351407202
0
ELLIPSE
5
155
100
AcDbEntity
8
1
62
256
6
ByLayer
370
18
48
1
60
0
100
AcDbEllipse
10
78.589324
20
5.030634
30
0
11
0.397056406371764
21
3.37673602909069
31
0
210
0
220
0
230
1
40
0.271091
41
-3.1097269862222
42
-2.35144742452275
0
ELLIPSE
5
156
100
AcDbEntity
8
1
62
256
6
ByLayer
370
18
48
1
60
0
100
AcDbEllipse
10
77.281956
20
3.740917
30
0
11
-0.326425640836806
21
-0.730374082922088
31
0
210
0
220
0
230
1
40
0.079621
41
0.535420962757353
42
1.60636616336575
0
ELLIPSE
5
157
100
AcDbEntity
8
1
62
256
6
ByLayer
370
18
48
1
60
0
100
AcDbEllipse
10
85.286263
20
0
30
0
11
-0.192669448258021
21
7.69996449426089
31
0
210
0
220
0
230
-1
40
0.121373
41
-1.5479587456784
42
-1.39635652989846
0
ELLIPSE
5
158
100
AcDbEntity
8
1
62
256
6
ByLayer
370
18
48
1
60
0
100
AcDbEllipse
10
83.142785
20
-1.738278
30
0
11
1
21
0
31
0
210
0
220
0
230
1
40
0.998135
41
0
42
6.28318530717959
0
ELLIPSE
5
159
100
AcDbEntity
8
1
62
256
6
ByLayer
370
18
48
1
60
0
100
AcDbEllipse
10
60.806218
20
7.121676
30
0
11
-18.0185392236894
21
2.08383372271586
31
0
210
0
220
0
230
-1
40
0.187436
41
3.11991920611634
42
-2.72367609324644
0
ELLIPSE
5
15A
100
AcDbEntity
8
1
62
256
6
ByLayer
370
18
48
1
60
0
100
AcDbEllipse
10
-0.948929
20
0
30
0
11
-9.36741787978237
21
19.7417491527507
31
0
210
0
220
0
230
-1
40
0.341999
41
2.04527312608991
42
2.98886640869146
0
ELLIPSE
5
15B
100
AcDbEntity
8
1
62
256
6
ByLayer
370
18
48
1
60
0
100
AcDbEllipse
10
16.948929
20
0
30
0
11
-9.36741787978239
21
19.7417491527506
31
0
210
0
220
0
230
-1
40
0.341999
41
-1.09631952749988
42
-0.152726244898338
0
ELLIPSE
5
15C
100
AcDbEntity
8
1
62
256
6
ByLayer
370
18
48
1
60
0
100
AcDbEllipse
10
81.646083
20
4.69463
30
0
11
1.58146201212697E-15
21
1.35
31
0
210
0
220
0
230
1
40
0.996195
41
1.06676879439714
42
1.43116998663536
0
ELLIPSE
5
15D
100
AcDbEntity
8
1
62
256
6
ByLayer
370
18
48
1
60
0
100
AcDbEllipse
10
81.519379
20
3.78964
30
0
11
1.58146201212697E-15
21
1.35
31
0
210
0
220
0
230
1
40
0.996195
41
1.43116998663535
42
1.8509328096783
0
ELLIPSE
5
15E
100
AcDbEntity
8
1
62
256
6
ByLayer
370
18
48
1
60
0
100
AcDbEllipse
10
85.866362
20
0
30
0
11
-0.633197535106442
21
-7.69958413733601
31
0
210
0
220
0
230
-1
40
0.126383
41
0.0078231158914511
42
1.04077753506308
0
ELLIPSE
5
15F
100
AcDbEntity
8
1
62
256
6
ByLayer
370
18
48
1
60
0
100
AcDbEllipse
10
77.814289
20
0
30
0
11
-27.1530709811921
21
-3.07671363239521E-14
31
0
210
0
220
0
230
-1
40
0.283578
41
1.45944191754953
42
1.60817465854866
0
ELLIPSE
5
160
100
AcDbEntity
8
1
62
256
6
ByLayer
370
18
48
1
60
0
100
AcDbEllipse
10
81.771191
20
3.78964
30
0
11
-1.17794646133815
21
-1.04893007471807
31
0
210
0
220
0
230
-1
40
0.721468
41
-1.26712593957128
42
-0.13385310032108
0
ELLIPSE
5
161
100
AcDbEntity
8
1
62
256
6
ByLayer
370
18
48
1
60
0
100
AcDbEllipse
10
77.18283
20
3.146713
30
0
11
-7.53758939708655
21
0.396516111157071
31
0
210
0
220
0
230
-1
40
0.000382
41
-3.13547542107916
42
-3.13433448783602
0
ELLIPSE
5
162
100
AcDbEntity
8
1
62
256
6
ByLayer
370
18
48
1
60
0
100
AcDbEllipse
10
16.948929
20
0
30
0
11
-9.36741787978098
21
-19.7417491527488
31
0
210
0
220
0
230
-1
40
0.341999
41
0.152726244898349
42
1.09631952749995
0
ELLIPSE
5
163
100
AcDbEntity
8
1
62
256
6
ByLayer
370
18
48
1
60
0
100
AcDbEllipse
10
85.26995
20
-4.036857
30
0
11
-0.0581290992927193
21
-0.658564973946398
31
0
210
0
220
0
230
-1
40
0.115224
41
0.00370845515590879
42
1.55546312997244
0
ELLIPSE
5
164
100
AcDbEntity
8
1
62
256
6
ByLayer
370
18
48
1
60
0
100
AcDbEllipse
10
85.023389
20
-4.838168
30
0
11
-0.0624502670850785
21
1.01669933336577
31
0
210
0
220
0
230
-1
40
0.116591
41
-0.430496124868399
42
0.551896243182282
0
ELLIPSE
5
165
100
AcDbEntity
8
1
62
256
6
ByLayer
370
18
48
1
60
0
100
AcDbEllipse
10
79.053474
20
7.577808
30
0
11
4.92010403772836E-15
21
4.2
31
0
210
0
220
0
230
1
40
0.996195
41
2.72271363311116
42
-3.10668606854991
0
ELLIPSE
5
166
100
AcDbEntity
8
1
62
256
6
ByLayer
370
18
48
1
60
0
100
AcDbEllipse
10
81.77276
20
5.13
30
0
11
-4.79327013446622
21
-3.00468484230032
31
0
210
0
220
0
230
-1
40
0.374474
41
-0.98108568621981
42
-0.716575634052449
0
ELLIPSE
5
167
100
AcDbEntity
8
1
62
256
6
ByLayer
370
18
48
1
60
0
100
AcDbEllipse
10
80.677977
20
1E-06
30
0
11
-0.249313204765296
21
7.69996841423389
31
0
210
0
220
0
230
-1
40
0.087398
41
-0.0523473843996534
42
-0.0118652567579914
0
ELLIPSE
5
168
100
AcDbEntity
8
1
62
256
6
ByLayer
370
18
48
1
60
0
100
AcDbEllipse
10
27.300266
20
0
30
0
11
-136.941700946702
21
-7.4463667091911
31
0
210
0
220
0
230
-1
40
0.014313
41
-1.9995775065954
42
-1.9547023686693
0
ELLIPSE
5
169
100
AcDbEntity
8
1
62
256
6
ByLayer
370
18
48
1
60
0
100
AcDbEllipse
10
79.12977
20
3.380366
30
0
11
0.0280261150489236
21
-0.799508934831416
31
0
210
0
220
0
230
1
40
0.087103
41
-0.00305330083576589
42
1.56774302595898
0
ELLIPSE
5
16A
100
AcDbEntity
8
1
62
256
6
ByLayer
370
18
48
1
60
0
100
AcDbEllipse
10
85.069208
20
-0.31089
30
0
11
-0.0367903378037699
21
0.601607546472777
31
0
210
0
220
0
230
-1
40
0.118733
41
-1.49832363366289
42
-1.26478371710093
0
ELLIPSE
5
16B
100
AcDbEntity
8
1
62
256
6
ByLayer
370
18
48
1
60
0
100
AcDbEllipse
10
85.264896
20
-4.038676
30
0
11
-0.0344695993788636
21
0.625275385924442
31
0
210
0
220
0
230
-1
40
0.114478
41
-1.56701534787122
42
-1.54796809192483
0
ELLIPSE
5
16C
100
AcDbEntity
8
1
62
256
6
ByLayer
370
18
48
1
60
0
100
AcDbEllipse
10
85.064083
20
-0.310711
30
0
11
-0.0153379046634585
21
0.600882882582231
31
0
210
0
220
0
230
-1
40
0.121159
41
-1.26888487251229
42
0.06837153668762
0
ELLIPSE
5
16D
100
AcDbEntity
8
1
62
256
6
ByLayer
370
18
48
1
60
0
100
AcDbEllipse
10
85.230261
20
-1.962149
30
0
11
-1.07186937277344E-14
21
-9.99999999999964
31
0
210
0
220
0
230
1
40
0.996195
41
3.14159265358979
42
-3.12558669055491
0
ELLIPSE
5
16E
100
AcDbEntity
8
1
62
256
6
ByLayer
370
18
48
1
60
0
100
AcDbEllipse
10
90.691577
20
3.917257
30
0
11
1.16445136866418E-14
21
9.94022831811422
31
0
210
0
220
0
230
1
40
0.996195
41
1.62460353383979
42
1.64060949687468
0
ELLIPSE
5
16F
100
AcDbEntity
8
1
62
256
6
ByLayer
370
18
48
1
60
0
100
AcDbEllipse
10
85.328096
20
3.442293
30
0
11
-5.35934686386747E-16
21
-0.500000000000006
31
0
210
0
220
0
230
1
40
0.996195
41
0.296705972839045
42
1.34390352403565
0
ELLIPSE
5
170
100
AcDbEntity
8
1
62
256
6
ByLayer
370
18
48
1
60
0
100
AcDbEllipse
10
85.185442
20
7.542977
30
0
11
-5.35934686386747E-16
21
-0.500000000000006
31
0
210
0
220
0
230
1
40
0.996195
41
1.8675022996339
42
2.91469985083053
0
ELLIPSE
5
171
100
AcDbEntity
8
1
62
256
6
ByLayer
370
18
48
1
60
0
100
AcDbEllipse
10
85.386348
20
3.251032
30
0
11
-3.21560811832037E-16
21
-0.299999999999993
31
0
210
0
220
0
230
1
40
0.996195
41
0.0698131700798028
42
0.296705972839062
0
ELLIPSE
5
172
100
AcDbEntity
8
1
62
256
6
ByLayer
370
18
48
1
60
0
100
AcDbEllipse
10
85.717812
20
3.648351
30
0
11
5.78724697506073E-15
21
4.94022831811449
31
0
210
0
220
0
230
1
40
0.996195
41
1.61480354075305
42
1.62460353383979
0
ELLIPSE
5
173
100
AcDbEntity
8
1
62
256
6
ByLayer
370
18
48
1
60
0
100
AcDbEllipse
10
81.24256
20
3.299094
30
0
11
5.15706934637621E-16
21
0.4402283181146
31
0
210
0
220
0
230
1
40
0.996195
41
1.86750229963388
42
2.9146998508305
0
ELLIPSE
5
174
100
AcDbEntity
8
1
62
256
6
ByLayer
370
18
48
1
60
0
100
AcDbEllipse
10
85.522228
20
3.397303
30
0
11
-3.21560811832037E-16
21
-0.299999999999993
31
0
210
0
220
0
230
1
40
0.996195
41
1.34390352403571
42
1.5707963267949
0
ELLIPSE
5
175
100
AcDbEntity
8
1
62
256
6
ByLayer
370
18
48
1
60
0
100
AcDbEllipse
10
81.198197
20
12.80422
30
0
11
-1.07186937277344E-14
21
-9.99999999999964
31
0
210
0
220
0
230
1
40
0.996195
41
0
42
0.0160059630348839
0
ELLIPSE
5
176
100
AcDbEntity
8
1
62
256
6
ByLayer
370
18
48
1
60
0
100
AcDbEllipse
10
83.263002
20
5.421035
30
0
11
-1.49227999261524E-15
21
-1.3922218793825
31
0
210
0
220
0
230
1
40
0.996195
41
0
42
6.28318530717959
0
ELLIPSE
5
177
100
AcDbEntity
8
1
62
256
6
ByLayer
370
18
48
1
60
0
100
AcDbEllipse
10
84.761039
20
12.929799
30
0
11
-1.07186937277348E-14
21
-9.99999999999999
31
0
210
0
220
0
230
1
40
0.996195
41
0.0349065850398896
42
0.0440072139581125
0
ELLIPSE
5
178
100
AcDbEntity
8
1
62
256
6
ByLayer
370
18
48
1
60
0
100
AcDbEllipse
10
81.667418
20
-2.087728
30
0
11
-1.07186937277348E-14
21
-9.99999999999999
31
0
210
0
220
0
230
1
40
0.996195
41
-3.1066860685499
42
-3.09758543963168
0
ELLIPSE
5
179
100
AcDbEntity
8
1
62
256
6
ByLayer
370
18
48
1
60
0
100
AcDbEllipse
10
85.184986
20
7.542977
30
0
11
5.15706934637621E-16
21
0.4402283181146
31
0
210
0
220
0
230
1
40
0.996195
41
-1.27409035395591
42
-0.226892802759294
0
ELLIPSE
5
17A
100
AcDbEntity
8
1
62
256
6
ByLayer
370
18
48
1
60
0
100
AcDbEllipse
10
81.149394
20
12.803195
30
0
11
-1.07186937277348E-14
21
-9.99999999999999
31
0
210
0
220
0
230
1
40
0.996195
41
0.0258059561216665
42
0.0349065850398896
0
ELLIPSE
5
17B
100
AcDbEntity
8
1
62
256
6
ByLayer
370
18
48
1
60
0
100
AcDbEllipse
10
81.44829
20
2.907431
30
0
11
-5.35934686386771E-15
21
-5.00000000000028
31
0
210
0
220
0
230
1
40
0.996195
41
-3.09758543963165
42
-3.0877854465449
0
ELLIPSE
5
17C
100
AcDbEntity
8
1
62
256
6
ByLayer
370
18
48
1
60
0
100
AcDbEllipse
10
85.521772
20
3.397303
30
0
11
2.81416266174359E-16
21
0.240228318114594
31
0
210
0
220
0
230
1
40
0.996195
41
-1.79768912955413
42
-1.5707963267949
0
ELLIPSE
5
17D
100
AcDbEntity
8
1
62
256
6
ByLayer
370
18
48
1
60
0
100
AcDbEllipse
10
85.229805
20
7.737851
30
0
11
2.81416266174359E-16
21
0.240228318114594
31
0
210
0
220
0
230
1
40
0.996195
41
-0.226892802759211
42
0
0
ELLIPSE
5
17E
100
AcDbEntity
8
1
62
256
6
ByLayer
370
18
48
1
60
0
100
AcDbEllipse
10
90.692032
20
3.917257
30
0
11
-1.07186937277344E-14
21
-9.99999999999964
31
0
210
0
220
0
230
1
40
0.996195
41
-1.51698911975
42
-1.50098315671511
0
ELLIPSE
5
17F
100
AcDbEntity
8
1
62
256
6
ByLayer
370
18
48
1
60
0
100
AcDbEllipse
10
75.735969
20
6.924814
30
0
11
1.16445136866418E-14
21
9.94022831811422
31
0
210
0
220
0
230
1
40
0.996195
41
-1.51698911975
42
-1.50098315671511
0
ELLIPSE
5
180
100
AcDbEntity
8
1
62
256
6
ByLayer
370
18
48
1
60
0
100
AcDbEllipse
10
85.385892
20
3.251032
30
0
11
2.81416266174357E-16
21
0.240228318114593
31
0
210
0
220
0
230
1
40
0.996195
41
-3.07177948351001
42
-2.84488668075081
0
ELLIPSE
5
181
100
AcDbEntity
8
1
62
256
6
ByLayer
370
18
48
1
60
0
100
AcDbEllipse
10
83.201155
20
5.421035
30
0
11
1.80632961201567E-15
21
1.54195608716611
31
0
210
0
220
0
230
1
40
0.996195
41
0
42
6.28318530717959
0
ELLIPSE
5
182
100
AcDbEntity
8
1
62
256
6
ByLayer
370
18
48
1
60
0
100
AcDbEllipse
10
85.375975
20
7.601451
30
0
11
-3.21560811832037E-16
21
-0.299999999999993
31
0
210
0
220
0
230
1
40
0.996195
41
1.64060949687463
42
1.86750229963386
0
ELLIPSE
5
183
100
AcDbEntity
8
1
62
256
6
ByLayer
370
18
48
1
60
0
100
AcDbEllipse
10
81.715717
20
-2.085332
30
0
11
1.16445136866418E-14
21
9.94022831811422
31
0
210
0
220
0
230
1
40
0.996195
41
0.0538072070448956
42
0.0698131700797859
0
ELLIPSE
5
184
100
AcDbEntity
8
1
62
256
6
ByLayer
370
18
48
1
60
0
100
AcDbEllipse
10
75.85914
20
3.397303
30
0
11
-1.07186937277344E-14
21
-9.99999999999964
31
0
210
0
220
0
230
1
40
0.996195
41
1.57079632679489
42
1.58680228982978
0
ELLIPSE
5
185
100
AcDbEntity
8
1
62
256
6
ByLayer
370
18
48
1
60
0
100
AcDbEllipse
10
80.709734
20
7.19372
30
0
11
5.78724697506073E-15
21
4.94022831811449
31
0
210
0
220
0
230
1
40
0.996195
41
-1.52678911283675
42
-1.51698911975
0
ELLIPSE
5
186
100
AcDbEntity
8
1
62
256
6
ByLayer
370
18
48
1
60
0
100
AcDbEllipse
10
80.839019
20
3.477329
30
0
11
5.78724697506073E-15
21
4.94022831811449
31
0
210
0
220
0
230
1
40
0.996195
41
-1.55479036376002
42
-1.54499037067327
0
ELLIPSE
5
187
100
AcDbEntity
8
1
62
256
6
ByLayer
370
18
48
1
60
0
100
AcDbEllipse
10
81.447834
20
2.907431
30
0
11
5.78724697506073E-15
21
4.94022831811449
31
0
210
0
220
0
230
1
40
0.996195
41
0.0440072139581469
42
0.0538072070448926
0
ELLIPSE
5
188
100
AcDbEntity
8
1
62
256
6
ByLayer
370
18
48
1
60
0
100
AcDbEllipse
10
81.277919
20
7.80486
30
0
11
-5.35934686386771E-15
21
-5.00000000000028
31
0
210
0
220
0
230
1
40
0.996195
41
0.0160059630348837
42
0.0258059561216281
0
ELLIPSE
5
189
100
AcDbEntity
8
1
62
256
6
ByLayer
370
18
48
1
60
0
100
AcDbEllipse
10
85.230261
20
7.737851
30
0
11
-3.21560811832037E-16
21
-0.299999999999993
31
0
210
0
220
0
230
1
40
0.996195
41
2.91469985083057
42
-3.14159265358975
0
ELLIPSE
5
18A
100
AcDbEntity
8
1
62
256
6
ByLayer
370
18
48
1
60
0
100
AcDbEllipse
10
84.760584
20
12.929799
30
0
11
1.16445136866421E-14
21
9.94022831811449
31
0
210
0
220
0
230
1
40
0.996195
41
-3.1066860685499
42
-3.09758543963168
0
ELLIPSE
5
18B
100
AcDbEntity
8
1
62
256
6
ByLayer
370
18
48
1
60
0
100
AcDbEllipse
10
84.979712
20
7.934639
30
0
11
5.78724697506073E-15
21
4.94022831811449
31
0
210
0
220
0
230
1
40
0.996195
41
-3.09758543963165
42
-3.0877854465449
0
ELLIPSE
5
18C
100
AcDbEntity
8
1
62
256
6
ByLayer
370
18
48
1
60
0
100
AcDbEllipse
10
81.277463
20
7.80486
30
0
11
5.78724697506073E-15
21
4.94022831811449
31
0
210
0
220
0
230
1
40
0.996195
41
-3.12558669055491
42
-3.11578669746817
0
ELLIPSE
5
18D
100
AcDbEntity
8
1
62
256
6
ByLayer
370
18
48
1
60
0
100
AcDbEllipse
10
85.278607
20
-1.961125
30
0
11
1.16445136866421E-14
21
9.9402283181145
31
0
210
0
220
0
230
1
40
0.996195
41
0.025805956121666
42
0.0349065850398897
0
ELLIPSE
5
18E
100
AcDbEntity
8
1
62
256
6
ByLayer
370
18
48
1
60
0
100
AcDbEllipse
10
90.693963
20
3.868316
30
0
11
1.16445136866421E-14
21
9.94022831811449
31
0
210
0
220
0
230
1
40
0.996195
41
1.60570291183479
42
1.61480354075301
0
ELLIPSE
5
18F
100
AcDbEntity
8
1
62
256
6
ByLayer
370
18
48
1
60
0
100
AcDbEllipse
10
90.568297
20
7.493757
30
0
11
-1.07186937277348E-14
21
-9.99999999999999
31
0
210
0
220
0
230
1
40
0.996195
41
-1.54499037067323
42
-1.53588974175501
0
ELLIPSE
5
190
100
AcDbEntity
8
1
62
256
6
ByLayer
370
18
48
1
60
0
100
AcDbEllipse
10
75.736425
20
6.924814
30
0
11
-1.07186937277344E-14
21
-9.99999999999964
31
0
210
0
220
0
230
1
40
0.996195
41
1.62460353383979
42
1.64060949687468
0
ELLIPSE
5
191
100
AcDbEntity
8
1
62
256
6
ByLayer
370
18
48
1
60
0
100
AcDbEllipse
10
75.734039
20
6.973755
30
0
11
-1.07186937277348E-14
21
-9.99999999999999
31
0
210
0
220
0
230
1
40
0.996195
41
1.60570291183479
42
1.61480354075301
0
ELLIPSE
5
192
100
AcDbEntity
8
1
62
256
6
ByLayer
370
18
48
1
60
0
100
AcDbEllipse
10
90.694419
20
3.868316
30
0
11
-1.07186937277348E-14
21
-9.99999999999999
31
0
210
0
220
0
230
1
40
0.996195
41
-1.53588974175501
42
-1.52678911283678
0
ELLIPSE
5
193
100
AcDbEntity
8
1
62
256
6
ByLayer
370
18
48
1
60
0
100
AcDbEllipse
10
90.567842
20
7.493757
30
0
11
1.16445136866421E-14
21
9.9402283181145
31
0
210
0
220
0
230
1
40
0.996195
41
1.59660228291656
42
1.60570291183479
0
ELLIPSE
5
194
100
AcDbEntity
8
1
62
256
6
ByLayer
370
18
48
1
60
0
100
AcDbEllipse
10
81.243016
20
3.299094
30
0
11
-5.35934686386747E-16
21
-0.500000000000006
31
0
210
0
220
0
230
1
40
0.996195
41
-1.27409035395589
42
-0.226892802759263
0
ELLIPSE
5
195
100
AcDbEntity
8
1
62
256
6
ByLayer
370
18
48
1
60
0
100
AcDbEllipse
10
81.041654
20
7.591039
30
0
11
2.81416266174357E-16
21
0.240228318114593
31
0
210
0
220
0
230
1
40
0.996195
41
0.0698131700797806
42
0.296705972838989
0
ELLIPSE
5
196
100
AcDbEntity
8
1
62
256
6
ByLayer
370
18
48
1
60
0
100
AcDbEllipse
10
85.588982
20
7.364742
30
0
11
-5.35934686386771E-15
21
-5.00000000000028
31
0
210
0
220
0
230
1
40
0.996195
41
-1.55479036376001
42
-1.54499037067327
0
ELLIPSE
5
197
100
AcDbEntity
8
1
62
256
6
ByLayer
370
18
48
1
60
0
100
AcDbEllipse
10
81.198197
20
3.10422
30
0
11
-3.21560811832037E-16
21
-0.299999999999993
31
0
210
0
220
0
230
1
40
0.996195
41
-0.226892802759174
42
9.51008903223575E-14
0
ELLIPSE
5
198
100
AcDbEntity
8
1
62
256
6
ByLayer
370
18
48
1
60
0
100
AcDbEllipse
10
90.568862
20
7.444768
30
0
11
1.16445136866418E-14
21
9.94022831811422
31
0
210
0
220
0
230
1
40
0.996195
41
1.57079632679489
42
1.58680228982978
0
ELLIPSE
5
199
100
AcDbEntity
8
1
62
256
6
ByLayer
370
18
48
1
60
0
100
AcDbEllipse
10
75.858684
20
3.397303
30
0
11
1.16445136866418E-14
21
9.94022831811422
31
0
210
0
220
0
230
1
40
0.996195
41
-1.5707963267949
42
-1.55479036376002
0
ELLIPSE
5
19A
100
AcDbEntity
8
1
62
256
6
ByLayer
370
18
48
1
60
0
100
AcDbEllipse
10
81.197741
20
12.80422
30
0
11
1.16445136866418E-14
21
9.94022831811422
31
0
210
0
220
0
230
1
40
0.996195
41
3.14159265358979
42
-3.12558669055491
0
ELLIPSE
5
19B
100
AcDbEntity
8
1
62
256
6
ByLayer
370
18
48
1
60
0
100
AcDbEllipse
10
81.04211
20
7.591039
30
0
11
-3.21560811832037E-16
21
-0.299999999999993
31
0
210
0
220
0
230
1
40
0.996195
41
-3.07177948351004
42
-2.84488668075083
0
ELLIPSE
5
19C
100
AcDbEntity
8
1
62
256
6
ByLayer
370
18
48
1
60
0
100
AcDbEllipse
10
85.718268
20
3.648351
30
0
11
-5.35934686386771E-15
21
-5.00000000000028
31
0
210
0
220
0
230
1
40
0.996195
41
-1.52678911283675
42
-1.51698911975
0
ELLIPSE
5
19D
100
AcDbEntity
8
1
62
256
6
ByLayer
370
18
48
1
60
0
100
AcDbEllipse
10
81.052027
20
3.240619
30
0
11
2.81416266174357E-16
21
0.240228318114593
31
0
210
0
220
0
230
1
40
0.996195
41
1.64060949687462
42
1.86750229963387
0
ELLIPSE
5
19E
100
AcDbEntity
8
1
62
256
6
ByLayer
370
18
48
1
60
0
100
AcDbEllipse
10
85.588527
20
7.364742
30
0
11
5.78724697506073E-15
21
4.94022831811449
31
0
210
0
220
0
230
1
40
0.996195
41
1.58680228982978
42
1.59660228291652
0
ELLIPSE
5
19F
100
AcDbEntity
8
1
62
256
6
ByLayer
370
18
48
1
60
0
100
AcDbEllipse
10
85.229805
20
-1.962149
30
0
11
1.16445136866418E-14
21
9.94022831811422
31
0
210
0
220
0
230
1
40
0.996195
41
0
42
0.0160059630348834
0
ELLIPSE
5
1A0
100
AcDbEntity
8
1
62
256
6
ByLayer
370
18
48
1
60
0
100
AcDbEllipse
10
85.279063
20
-1.961125
30
0
11
-1.07186937277348E-14
21
-9.99999999999999
31
0
210
0
220
0
230
1
40
0.996195
41
-3.11578669746813
42
-3.1066860685499
0
ELLIPSE
5
1A1
100
AcDbEntity
8
1
62
256
6
ByLayer
370
18
48
1
60
0
100
AcDbEllipse
10
81.099906
20
7.399778
30
0
11
5.15706934637621E-16
21
0.4402283181146
31
0
210
0
220
0
230
1
40
0.996195
41
0.296705972839018
42
1.34390352403562
0
ELLIPSE
5
1A2
100
AcDbEntity
8
1
62
256
6
ByLayer
370
18
48
1
60
0
100
AcDbEllipse
10
81.666962
20
-2.087728
30
0
11
1.16445136866421E-14
21
9.94022831811449
31
0
210
0
220
0
230
1
40
0.996195
41
0.0349065850398912
42
0.0440072139581125
0
ELLIPSE
5
1A3
100
AcDbEntity
8
1
62
256
6
ByLayer
370
18
48
1
60
0
100
AcDbEllipse
10
81.052483
20
3.240619
30
0
11
-3.21560811832037E-16
21
-0.299999999999993
31
0
210
0
220
0
230
1
40
0.996195
41
-1.50098315671516
42
-1.27409035395593
0
ELLIPSE
5
1A4
100
AcDbEntity
8
1
62
256
6
ByLayer
370
18
48
1
60
0
100
AcDbEllipse
10
81.148938
20
12.803195
30
0
11
1.16445136866421E-14
21
9.9402283181145
31
0
210
0
220
0
230
1
40
0.996195
41
-3.11578669746813
42
-3.1066860685499
0
ELLIPSE
5
1A5
100
AcDbEntity
8
1
62
256
6
ByLayer
370
18
48
1
60
0
100
AcDbEllipse
10
80.839475
20
3.477329
30
0
11
-5.35934686386771E-15
21
-5.00000000000028
31
0
210
0
220
0
230
1
40
0.996195
41
1.58680228982978
42
1.59660228291653
0
ELLIPSE
5
1A6
100
AcDbEntity
8
1
62
256
6
ByLayer
370
18
48
1
60
0
100
AcDbEllipse
10
80.906229
20
7.444768
30
0
11
-3.21560811832037E-16
21
-0.299999999999993
31
0
210
0
220
0
230
1
40
0.996195
41
-1.79768912955408
42
-1.5707963267949
0
ELLIPSE
5
1A7
100
AcDbEntity
8
1
62
256
6
ByLayer
370
18
48
1
60
0
100
AcDbEllipse
10
84.711829
20
12.927403
30
0
11
1.16445136866418E-14
21
9.94022831811422
31
0
210
0
220
0
230
1
40
0.996195
41
-3.0877854465449
42
-3.07177948351001
0
ELLIPSE
5
1A8
100
AcDbEntity
8
1
62
256
6
ByLayer
370
18
48
1
60
0
100
AcDbEllipse
10
75.86016
20
3.348314
30
0
11
-1.07186937277348E-14
21
-9.99999999999999
31
0
210
0
220
0
230
1
40
0.996195
41
1.59660228291656
42
1.60570291183479
0
ELLIPSE
5
1A9
100
AcDbEntity
8
1
62
256
6
ByLayer
370
18
48
1
60
0
100
AcDbEllipse
10
84.980167
20
7.934639
30
0
11
-5.35934686386771E-15
21
-5.00000000000028
31
0
210
0
220
0
230
1
40
0.996195
41
0.0440072139581497
42
0.0538072070448955
0
ELLIPSE
5
1AA
100
AcDbEntity
8
1
62
256
6
ByLayer
370
18
48
1
60
0
100
AcDbEllipse
10
75.859704
20
3.348314
30
0
11
1.16445136866421E-14
21
9.9402283181145
31
0
210
0
220
0
230
1
40
0.996195
41
-1.54499037067323
42
-1.53588974175501
0
ELLIPSE
5
1AB
100
AcDbEntity
8
1
62
256
6
ByLayer
370
18
48
1
60
0
100
AcDbEllipse
10
75.733583
20
6.973755
30
0
11
1.16445136866421E-14
21
9.94022831811449
31
0
210
0
220
0
230
1
40
0.996195
41
-1.53588974175501
42
-1.52678911283678
0
ELLIPSE
5
1AC
100
AcDbEntity
8
1
62
256
6
ByLayer
370
18
48
1
60
0
100
AcDbEllipse
10
80.71019
20
7.19372
30
0
11
-5.35934686386771E-15
21
-5.00000000000028
31
0
210
0
220
0
230
1
40
0.996195
41
1.61480354075304
42
1.62460353383979
0
ELLIPSE
5
1AD
100
AcDbEntity
8
1
62
256
6
ByLayer
370
18
48
1
60
0
100
AcDbEllipse
10
84.712285
20
12.927403
30
0
11
-1.07186937277344E-14
21
-9.99999999999964
31
0
210
0
220
0
230
1
40
0.996195
41
0.0538072070448962
42
0.069813170079785
0
ELLIPSE
5
1AE
100
AcDbEntity
8
1
62
256
6
ByLayer
370
18
48
1
60
0
100
AcDbEllipse
10
90.569318
20
7.444768
30
0
11
-1.07186937277344E-14
21
-9.99999999999964
31
0
210
0
220
0
230
1
40
0.996195
41
-1.5707963267949
42
-1.55479036376001
0
ELLIPSE
5
1AF
100
AcDbEntity
8
1
62
256
6
ByLayer
370
18
48
1
60
0
100
AcDbEllipse
10
81.100362
20
7.399778
30
0
11
-5.35934686386747E-16
21
-0.500000000000006
31
0
210
0
220
0
230
1
40
0.996195
41
-2.84488668075079
42
-1.79768912955417
0
ELLIPSE
5
1B0
100
AcDbEntity
8
1
62
256
6
ByLayer
370
18
48
1
60
0
100
AcDbEllipse
10
80.905773
20
7.444768
30
0
11
2.81416266174359E-16
21
0.240228318114594
31
0
210
0
220
0
230
1
40
0.996195
41
1.34390352403567
42
1.5707963267949
0
ELLIPSE
5
1B1
100
AcDbEntity
8
1
62
256
6
ByLayer
370
18
48
1
60
0
100
AcDbEllipse
10
81.716173
20
-2.085332
30
0
11
-1.07186937277344E-14
21
-9.99999999999964
31
0
210
0
220
0
230
1
40
0.996195
41
-3.0877854465449
42
-3.07177948351001
0
ELLIPSE
5
1B2
100
AcDbEntity
8
1
62
256
6
ByLayer
370
18
48
1
60
0
100
AcDbEllipse
10
85.32764
20
3.442293
30
0
11
5.15706934637621E-16
21
0.4402283181146
31
0
210
0
220
0
230
1
40
0.996195
41
-2.84488668075075
42
-1.79768912955418
0
ELLIPSE
5
1B3
100
AcDbEntity
8
1
62
256
6
ByLayer
370
18
48
1
60
0
100
AcDbEllipse
10
85.375519
20
7.601451
30
0
11
2.81416266174357E-16
21
0.240228318114593
31
0
210
0
220
0
230
1
40
0.996195
41
-1.50098315671518
42
-1.27409035395592
0
ELLIPSE
5
1B4
100
AcDbEntity
8
1
62
256
6
ByLayer
370
18
48
1
60
0
100
AcDbEllipse
10
85.150083
20
3.037211
30
0
11
5.78724697506073E-15
21
4.94022831811449
31
0
210
0
220
0
230
1
40
0.996195
41
0.0160059630348813
42
0.0258059561216249
0
ELLIPSE
5
1B5
100
AcDbEntity
8
1
62
256
6
ByLayer
370
18
48
1
60
0
100
AcDbEllipse
10
81.197741
20
3.10422
30
0
11
2.81416266174359E-16
21
0.240228318114594
31
0
210
0
220
0
230
1
40
0.996195
41
2.91469985083058
42
-3.14159265358973
0
ELLIPSE
5
1B6
100
AcDbEntity
8
1
62
256
6
ByLayer
370
18
48
1
60
0
100
AcDbEllipse
10
85.150539
20
3.037211
30
0
11
-5.35934686386771E-15
21
-5.00000000000028
31
0
210
0
220
0
230
1
40
0.996195
41
-3.12558669055491
42
-3.11578669746817
0
ELLIPSE
5
1B7
100
AcDbEntity
8
1
62
256
6
ByLayer
370
18
48
1
60
0
100
AcDbEllipse
10
85.250213
20
-3.038873
30
0
11
0.749999999999771
21
0
31
0
210
0
220
0
230
1
40
0.998135
41
-0.034906585038557
42
0.44505895925872
0
ELLIPSE
5
1B8
100
AcDbEntity
8
1
62
256
6
ByLayer
370
18
48
1
60
0
100
AcDbEllipse
10
85.078493
20
-0.247002
30
0
11
0.399999999999944
21
0
31
0
210
0
220
0
230
1
40
0.998135
41
0.349065850398813
42
0.698131700797625
0
ELLIPSE
5
1B9
100
AcDbEntity
8
1
62
256
6
ByLayer
370
18
48
1
60
0
100
AcDbEllipse
10
87.328238
20
-1.798557
30
0
11
2.1133034660008
21
0
31
0
210
0
220
0
230
1
40
0.998135
41
-3.08923277603042
42
-2.69188056127515
0
ELLIPSE
5
1BA
100
AcDbEntity
8
1
62
256
6
ByLayer
370
18
48
1
60
0
100
AcDbEllipse
10
84.577432
20
-1.03427
30
0
11
-0.593657936256395
21
5.99973895740309E-16
31
0
210
0
220
0
230
1
40
0.998135
41
-3.08923277603005
42
-2.55499379307999
0
ELLIPSE
5
1BB
100
AcDbEntity
8
1
62
256
6
ByLayer
370
18
48
1
60
0
100
AcDbEllipse
10
84.890423
20
-2.966991
30
0
11
0.320452855499508
21
0
31
0
210
0
220
0
230
1
40
0.998135
41
-0.0349065850400276
42
0.449712092314632
0
ELLIPSE
5
1BC
100
AcDbEntity
8
1
62
256
6
ByLayer
370
18
48
1
60
0
100
AcDbEllipse
10
87.328238
20
-1.798557
30
0
11
2.2133034660008
21
0
31
0
210
0
220
0
230
1
40
0.998135
41
-3.0892327760304
42
-2.69188056127515
0
ELLIPSE
5
1BD
100
AcDbEntity
8
1
62
256
6
ByLayer
370
18
48
1
60
0
100
AcDbEllipse
10
84.890423
20
-2.973096
30
0
11
-0.593657936256395
21
5.99973895740309E-16
31
0
210
0
220
0
230
1
40
0.998135
41
3.10668606854978
42
-2.69188056127516
0
ELLIPSE
5
1BE
100
AcDbEntity
8
1
62
256
6
ByLayer
370
18
48
1
60
0
100
AcDbEllipse
10
87.328238
20
-1.938969
30
0
11
1.60000000000014
21
0
31
0
210
0
220
0
230
1
40
0.998135
41
-3.08923277602866
42
-2.69653369433138
0
ELLIPSE
5
1BF
100
AcDbEntity
8
1
62
256
6
ByLayer
370
18
48
1
60
0
100
AcDbEllipse
10
85.334998
20
-2.74669
30
0
11
-0.18005083038928
21
-0.0870729491640802
31
0
210
0
220
0
230
1
40
0.054979
41
0.497017263497909
42
1.54421481469499
0
ELLIPSE
5
1C0
100
AcDbEntity
8
1
62
256
6
ByLayer
370
18
48
1
60
0
100
AcDbEllipse
10
85.377079
20
-4.109237
30
0
11
0.399999999999944
21
0
31
0
210
0
220
0
230
1
40
0.998135
41
-1.22173047639609
42
-0.87266462599731
0
ELLIPSE
5
1C1
100
AcDbEntity
8
1
62
256
6
ByLayer
370
18
48
1
60
0
100
AcDbEllipse
10
87.328238
20
-1.857775
30
0
11
1.76330346600111
21
0
31
0
210
0
220
0
230
1
40
0.998135
41
-3.08923277602879
42
-2.69653369433138
0
ELLIPSE
5
1C2
100
AcDbEntity
8
1
62
256
6
ByLayer
370
18
48
1
60
0
100
AcDbEllipse
10
85.374756
20
-3.236011
30
0
11
-0.19987771005484
21
0.00699292665722507
31
0
210
0
220
0
230
1
40
0.061011
41
0.525733317016705
42
1.57293086821329
0
ELLIPSE
5
1C3
100
AcDbEntity
8
1
62
256
6
ByLayer
370
18
48
1
60
0
100
AcDbEllipse
10
84.890423
20
-2.973096
30
0
11
-0.493657936256395
21
4.98909990232072E-16
31
0
210
0
220
0
230
1
40
0.998135
41
3.10668606854979
42
-2.69188056127514
0
ELLIPSE
5
1C4
100
AcDbEntity
8
1
62
256
6
ByLayer
370
18
48
1
60
0
100
AcDbEllipse
10
85.56859
20
-3.948839
30
0
11
0.399999999999934
21
0
31
0
210
0
220
0
230
1
40
0.998135
41
-0.872664625997289
42
-0.0349065850396989
0
ELLIPSE
5
1C5
100
AcDbEntity
8
1
62
256
6
ByLayer
370
18
48
1
60
0
100
AcDbEllipse
10
84.981338
20
-3.234508
30
0
11
-0.493657936256395
21
4.98909990232072E-16
31
0
210
0
220
0
230
1
40
0.998135
41
2.15739518730472
42
3.1066860685498
0
ELLIPSE
5
1C6
100
AcDbEntity
8
1
62
256
6
ByLayer
370
18
48
1
60
0
100
AcDbEllipse
10
85.263259
20
-0.753696
30
0
11
0.39999999999998
21
0
31
0
210
0
220
0
230
1
40
0.998135
41
0.0523598775595866
42
0.349065850398704
0
ELLIPSE
5
1C7
100
AcDbEntity
8
1
62
256
6
ByLayer
370
18
48
1
60
0
100
AcDbEllipse
10
84.981338
20
-3.234508
30
0
11
-0.393657936256395
21
3.97846084723836E-16
31
0
210
0
220
0
230
1
40
0.998135
41
2.15739518730472
42
3.10668606854978
0
ELLIPSE
5
1C8
100
AcDbEntity
8
1
62
256
6
ByLayer
370
18
48
1
60
0
100
AcDbEllipse
10
85.38378
20
-2.978082
30
0
11
-0.19987771005484
21
0.00699292665722507
31
0
210
0
220
0
230
1
40
0.061011
41
0.525733317016737
42
1.57293086821336
0
POINT
5
6C
100
AcDbEntity
8
81
62
256
6
ByLayer
370
18
48
1
60
0
100
AcDbPoint
10
86
20
0
30
0
39
0
210
0
220
0
230
1
50
360
0
POINT
5
6E
100
AcDbEntity
8
80
62
256
6
ByLayer
370
18
48
1
60
0
100
AcDbPoint
10
0
20
0
30
0
39
0
210
0
220
0
230
1
50
360
0
SPLINE
5
1C9
100
AcDbEntity
8
1
62
256
6
ByLayer
370
18
48
1
60
0
100
AcDbSpline
70
4
71
3
72
15
73
11
40
0
40
0
40
0
40
0
40
0.0683513766299373
40
0.204004700966089
40
0.339209781763197
40
0.474126778685956
40
0.608984659091671
40
0.743962084356496
40
0.879279528072037
40
1
40
1
40
1
40
1
41
1
10
84.0670347283144
20
6.21845142702597
30
0
41
1
10
84.1086758845295
20
6.18607109592057
30
0
41
1
10
84.2219873615367
20
6.08117266119271
30
0
41
1
10
84.3507244658946
20
5.8491612457224
30
0
41
1
10
84.4306998816509
20
5.54626806425233
30
0
41
1
10
84.4211130687854
20
5.23140238064906
30
0
41
1
10
84.3254353095244
20
4.93253086200107
30
0
41
1
10
84.1511855927482
20
4.67318439257579
30
0
41
1
10
83.920149559909
20
4.47808749601938
30
0
41
1
10
83.7438645806448
20
4.40106038595246
30
0
41
1
10
83.6541135594862
20
4.3747514921873
30
0
0
SPLINE
5
1CA
100
AcDbEntity
8
1
62
256
6
ByLayer
370
18
48
1
60
0
100
AcDbSpline
70
4
71
3
72
15
73
11
40
0
40
0
40
0
40
0
40
0.109627080593903
40
0.217780235428895
40
0.328081489410738
40
0.440958609308703
40
0.555104641511208
40
0.703716834516839
40
0.850451285309313
40
1
40
1
40
1
40
1
41
1
10
26.9
20
-11
30
0
41
1
10
27.2300634551542
20
-10.9944167097442
30
0
41
1
10
27.8690711341641
20
-10.9193488495872
30
0
41
1
10
28.7897555968204
20
-10.5822321730894
30
0
41
1
10
29.6527589662405
20
-10.1142491466672
30
0
41
1
10
30.4901955213937
20
-9.56926679888554
30
0
41
1
10
31.4113064163183
20
-8.94619549193797
30
0
41
1
10
32.4449661189777
20
-8.31253357474444
30
0
41
1
10
33.678529928296
20
-7.80594453008916
30
0
41
1
10
34.5472427413148
20
-7.70226340818496
30
0
41
1
10
35
20
-7.70000000000004
30
0
0
SPLINE
5
1CB
100
AcDbEntity
8
1
62
256
6
ByLayer
370
18
48
1
60
0
100
AcDbSpline
70
4
71
3
72
15
73
11
40
0
40
0
40
0
40
0
40
0.142884599436646
40
0.282927702096055
40
0.424546442193502
40
0.567186228467395
40
0.677909572227348
40
0.786112324847035
40
0.892300689081313
40
1
40
1
40
1
40
1
41
1
10
35
20
7.69999999999996
30
0
41
1
10
34.5680200872901
20
7.70132641464608
30
0
41
1
10
33.7379691890471
20
7.79625525585467
30
0
41
1
10
32.5534897412478
20
8.25932299231624
30
0
41
1
10
31.4730352132091
20
8.90178782350333
30
0
41
1
10
30.5066038620016
20
9.56035228770364
30
0
41
1
10
29.6069105963439
20
10.1415068687268
30
0
41
1
10
28.7574775156552
20
10.5962076172779
30
0
41
1
10
27.851932304311
20
10.9221925439805
30
0
41
1
10
27.2241537972642
20
10.9947714014025
30
0
41
1
10
26.9
20
11
30
0
0
SPLINE
5
1CC
100
AcDbEntity
8
1
62
256
6
ByLayer
370
18
48
1
60
0
100
AcDbSpline
70
4
71
2
72
6
73
3
40
0
40
0
40
0
40
1
40
1
40
1
41
1
10
82.9881527781327
20
-1.18638040116866
30
0
41
1
10
83.102444302838
20
-1.13513796089728
30
0
41
1
10
83.235374019883
20
-1.14475155223968
30
0
0
SPLINE
5
1CD
100
AcDbEntity
8
1
62
256
6
ByLayer
370
18
48
1
60
0
100
AcDbSpline
70
4
71
2
72
6
73
3
40
0
40
0
40
0
40
1
40
1
40
1
41
1
10
83.235374019883
20
-1.14475155223968
30
0
41
1
10
83.4089333339928
20
-1.13379992593406
30
0
41
1
10
83.5761413658451
20
-1.18861052641313
30
0
0
SPLINE
5
1CE
100
AcDbEntity
8
SK1
62
256
6
ByLayer
370
18
48
1
60
0
100
AcDbSpline
70
4
71
2
72
6
73
3
40
0
40
0
40
0
40
1
40
1
40
1
41
1
10
-2.5
20
14.0000000000425
30
0
41
1
10
-12.5002365839528
20
13.7487592491499
30
0
41
1
10
-22.5004731679057
20
13.4975184982574
30
0
0
SPLINE
5
1CF
100
AcDbEntity
8
SK1
62
256
6
ByLayer
370
18
48
1
60
0
100
AcDbSpline
70
4
71
2
72
6
73
3
40
0
40
0
40
0
40
1
40
1
40
1
41
1
10
-22.5004731679057
20
-13.4975184982324
30
0
41
1
10
-12.5002365839529
20
-13.7487592491244
30
0
41
1
10
-2.50000000000003
20
-14.0000000000165
30
0
0
SPLINE
5
1D0
100
AcDbEntity
8
SK1
62
256
6
ByLayer
370
18
48
1
60
0
100
AcDbSpline
70
4
71
2
72
6
73
3
40
0
40
0
40
0
40
1
40
1
40
1
41
1
10
-1.69501459340779
20
14.0202240353752
30
0
41
1
10
-2.0975072967039
20
14.0101120177089
30
0
41
1
10
-2.5
20
14.0000000000425
30
0
0
SPLINE
5
1D1
100
AcDbEntity
8
SK1
62
256
6
ByLayer
370
18
48
1
60
0
100
AcDbSpline
70
4
71
2
72
6
73
3
40
0
40
0
40
0
40
1
40
1
40
1
41
1
10
-2.50000000000003
20
-14.0000000000165
30
0
41
1
10
-2.09750729670392
20
-14.0101120176829
30
0
41
1
10
-1.69501459340782
20
-14.0202240353492
30
0
0
SPLINE
5
1D2
100
AcDbEntity
8
SK1
62
256
6
ByLayer
370
18
48
1
60
0
100
AcDbSpline
70
4
71
2
72
6
73
3
40
0
40
0
40
0
40
1
40
1
40
1
41
1
10
-22.5003908351881
20
13.4978822065961
30
0
41
1
10
-23.250195418969
20
13.0391711516489
30
0
41
1
10
-24
20
12.5804569169116
30
0
0
SPLINE
5
1D3
100
AcDbEntity
8
SK1
62
256
6
ByLayer
370
18
48
1
60
0
100
AcDbSpline
70
4
71
2
72
6
73
3
40
0
40
0
40
0
40
1
40
1
40
1
41
1
10
-24
20
-12.5792497909748
30
0
41
1
10
-23.2502022101313
20
-13.0377782366816
30
0
41
1
10
-22.5004044650254
20
-13.4963063059167
30
0
0
SPLINE
5
1D4
100
AcDbEntity
8
SK1
62
256
6
ByLayer
370
18
48
1
60
0
100
AcDbSpline
70
4
71
1
72
4
73
2
40
0
40
0
40
1
40
1
41
1
10
-1.53130590457357
20
13.618315394559
30
0
41
1
10
-1.53248549198227
20
13.6035488735108
30
0
0
SPLINE
5
1D5
100
AcDbEntity
8
SK1
62
256
6
ByLayer
370
18
48
1
60
0
100
AcDbSpline
70
4
71
3
72
12
73
8
40
0
40
0
40
0
40
0
40
0.206082366692305
40
0.448551004323562
40
0.70136808861964
40
0.955628443573868
40
1
40
1
40
1
40
1
41
1
10
-1.6732373831
20
-7.03173855039418
30
0
41
1
10
-1.66891584747063
20
-7.49703771035641
30
0
41
1
10
-1.65896818437474
20
-8.46121732402418
30
0
41
1
10
-1.64147446563652
20
-9.80884739238272
30
0
41
1
10
-1.62081384062992
20
-11.0423654429251
30
0
41
1
10
-1.60470593089275
20
-11.8486552107853
30
0
41
1
10
-1.5949251842994
20
-12.1743433075456
30
0
41
1
10
-1.59345638303472
20
-12.2210841903316
30
0
0
SPLINE
5
1D6
100
AcDbEntity
8
SK1
62
256
6
ByLayer
370
18
48
1
60
0
100
AcDbSpline
70
4
71
2
72
6
73
3
40
0
40
0
40
0
40
1
40
1
40
1
41
1
10
-1.49999999999997
20
-13.7870504860688
30
0
41
1
10
-0.94999999999996
20
-13.7870504860688
30
0
41
1
10
-0.399999999999977
20
-13.7870504860688
30
0
0
SPLINE
5
1D7
100
AcDbEntity
8
SK1
62
256
6
ByLayer
370
18
48
1
60
0
100
AcDbSpline
70
4
71
2
72
6
73
3
40
0
40
0
40
0
40
1
40
1
40
1
41
1
10
-0.399999999999949
20
13.7870502939328
30
0
41
1
10
-0.949999999999932
20
13.7870502939328
30
0
41
1
10
-1.49999999999994
20
13.7870502939328
30
0
0
SPLINE
5
1D8
100
AcDbEntity
8
1
62
256
6
ByLayer
370
18
48
1
60
0
100
AcDbSpline
70
4
71
3
72
12
73
8
40
0
40
0
40
0
40
0
40
0.310616742727014
40
0.310616742727014
40
0.655308371363507
40
0.655308371363507
40
1
40
1
40
1
40
1
41
1
10
85.065238219492
20
0.272470498011529
30
0
41
1
10
85.0782089377742
20
0.267250949023179
30
0
41
1
10
85.0917529768374
20
0.260845130308667
30
0
41
1
10
85.1216626412984
20
0.24391227350074
30
0
41
1
10
85.1381097075691
20
0.232879953346128
30
0
41
1
10
85.1701708819015
20
0.206197376427213
30
0
41
1
10
85.1853108195506
20
0.190854205046179
30
0
41
1
10
85.1984116311597
20
0.174718032366684
30
0
0
SPLINE
5
1D9
100
AcDbEntity
8
1
62
256
6
ByLayer
370
18
48
1
60
0
100
AcDbSpline
70
4
71
3
72
18
73
14
40
0
40
0
40
0
40
0
40
0.031740800182469
40
0.031740800182469
40
0.273805600136851
40
0.273805600136851
40
0.515870400091234
40
0.515870400091234
40
0.636902800068425
40
0.636902800068425
40
0.757935200045617
40
0.757935200045617
40
1
40
1
40
1
40
1
41
1
10
52.3157715898179
20
7.70000006972242
30
0
41
1
10
52.5114309770981
20
7.70001046441314
30
0
41
1
10
52.7069929541253
20
7.69880669221629
30
0
41
1
10
54.3932221630321
20
7.6779735538986
30
0
41
1
10
55.8787264112164
20
7.58880796463106
30
0
41
1
10
58.8517773850464
20
7.27423274783555
30
0
41
1
10
60.339444166099
20
7.04904362295443
30
0
41
1
10
62.5809376980564
20
6.61653656127834
30
0
41
1
10
63.3301496804754
20
6.4564536256471
30
0
41
1
10
64.831249656064
20
6.10622094963571
30
0
41
1
10
65.5803838823182
20
5.9167589788473
30
0
41
1
10
67.8258251767006
20
5.30917839593124
30
0
41
1
10
69.3202182183118
20
4.85184437040724
30
0
41
1
10
70.8180939785241
20
4.35370371285205
30
0
0
SPLINE
5
1DA
100
AcDbEntity
8
SK1
62
256
6
ByLayer
370
18
48
1
60
0
100
AcDbSpline
70
4
71
3
72
24
73
20
40
0
40
0
40
0
40
0
40
0.0566760783907113
40
0.0566760783907113
40
0.292507058793032
40
0.292507058793032
40
0.528338039195353
40
0.528338039195353
40
0.646253529396515
40
0.646253529396515
40
0.764169019597677
40
0.764169019597677
40
0.823126764698257
40
0.823126764698257
40
0.882084509798838
40
0.882084509798838
40
0.941042254899419
40
0.941042254899419
40
1
40
1
40
1
40
1
41
1
10
-0.218262967664543
20
-13.9259756044899
30
0
41
1
10
-0.219182198007161
20
-13.9243663193602
30
0
41
1
10
-0.220148374140706
20
-13.9227324215875
30
0
41
1
10
-0.22539182130518
20
-13.9141687233657
30
0
41
1
10
-0.2304827160483
20
-13.9068356660934
30
0
41
1
10
-0.243543515905088
20
-13.891029693572
30
0
41
1
10
-0.25142390994651
20
-13.8825628910797
30
0
41
1
10
-0.267620190121903
20
-13.8686743036801
30
0
41
1
10
-0.27378263345841
20
-13.8638193425138
30
0
41
1
10
-0.288879054648476
20
-13.8535372444218
30
0
41
1
10
-0.297539482613246
20
-13.8481844775088
30
0
41
1
10
-0.315471101946542
20
-13.8395368680739
30
0
41
1
10
-0.32229182569094
20
-13.8365782388304
30
0
41
1
10
-0.337698531233258
20
-13.8309872537491
30
0
41
1
10
-0.34648400026407
20
-13.8283381842761
30
0
41
1
10
-0.363738539634682
20
-13.8243096436096
30
0
41
1
10
-0.372122595374435
20
-13.8229165631
30
0
41
1
10
-0.387163049046109
20
-13.821141567135
30
0
41
1
10
-0.393815287664467
20
-13.8207254794661
30
0
41
1
10
-0.399999999999977
20
-13.8205593061294
30
0
0
SPLINE
5
1DB
100
AcDbEntity
8
SK1
62
256
6
ByLayer
370
18
48
1
60
0
100
AcDbSpline
70
4
71
3
72
20
73
16
40
0
40
0
40
0
40
0
40
0.0998383909819438
40
0.0998383909819438
40
0.199676781963888
40
0.199676781963888
40
0.299515172945832
40
0.299515172945832
40
0.399353563927775
40
0.399353563927775
40
0.599030345891653
40
0.599030345891653
40
0.798707127855532
40
0.798707127855532
40
1
40
1
40
1
40
1
41
1
10
-0.399999999999949
20
13.8205590132786
30
0
41
1
10
-0.39376584134564
20
13.8207265187753
30
0
41
1
10
-0.387027117241104
20
13.8211499115544
30
0
41
1
10
-0.371824577325583
20
13.8229590799712
30
0
41
1
10
-0.363395045486499
20
13.824372072028
30
0
41
1
10
-0.34598546816116
20
13.8284726621792
30
0
41
1
10
-0.337106206851047
20
13.8311746690827
30
0
41
1
10
-0.321547617318544
20
13.8368777277562
30
0
41
1
10
-0.314808664695903
20
13.8398348619912
30
0
41
1
10
-0.2970529040835
20
13.8484646203001
30
0
41
1
10
-0.288219391107304
20
13.8539513653589
30
0
41
1
10
-0.273250362863962
20
13.864219309884
30
0
41
1
10
-0.267161640943357
20
13.8690434744368
30
0
41
1
10
-0.256374276517335
20
13.8783434335059
30
0
41
1
10
-0.251686990651962
20
13.8828203854394
30
0
41
1
10
-0.247540221313073
20
13.8871216556949
30
0
0
SPLINE
5
1DC
100
AcDbEntity
8
SK1
62
256
6
ByLayer
370
18
48
1
60
0
100
AcDbSpline
70
4
71
3
72
34
73
30
40
0
40
0
40
0
40
0
40
0.0691487353632072
40
0.0691487353632072
40
0.103723103044811
40
0.103723103044811
40
0.138297470726414
40
0.138297470726414
40
0.276594941452829
40
0.276594941452829
40
0.345743676816036
40
0.345743676816036
40
0.414892412179243
40
0.414892412179243
40
0.553189882905658
40
0.553189882905658
40
0.622338618268865
40
0.622338618268865
40
0.691487353632072
40
0.691487353632072
40
0.760636088995279
40
0.760636088995279
40
0.829784824358486
40
0.829784824358486
40
0.898933559721693
40
0.898933559721693
40
0.9680822950849
40
0.9680822950849
40
1
40
1
40
1
40
1
41
1
10
-1.69996145737016
20
2.58069190327939
30
0
41
1
10
-1.69996733344885
20
3.05509930631811
30
0
41
1
10
-1.69997243482129
20
3.51761528130072
30
0
41
1
10
-1.69997865337851
20
4.19092322032554
30
0
41
1
10
-1.69998050405434
20
4.41234322785277
30
0
41
1
10
-1.69998380142843
20
4.84743867361578
30
0
41
1
10
-1.69998525071335
20
5.06131925165261
30
0
41
1
10
-1.69999166856414
20
6.11382700256573
30
0
41
1
10
-1.69999423902317
20
6.90428314753061
30
0
41
1
10
-1.69999661083062
20
8.0054717157181
30
0
41
1
10
-1.69999714066637
20
8.35873938181228
30
0
41
1
10
-1.69999789766095
20
9.03705178077976
30
0
41
1
10
-1.69999812321308
20
9.36174331820493
30
0
41
1
10
-1.69999851418865
20
10.2923620885299
30
0
41
1
10
-1.69999843654321
20
10.8567565013492
30
0
41
1
10
-1.69999767337529
20
11.609217294373
30
0
41
1
10
-1.69999730051998
20
11.8445810270417
30
0
41
1
10
-1.69999615550935
20
12.283924450631
30
0
41
1
10
-1.69999538395524
20
12.4873992298258
30
0
41
1
10
-1.69999318283217
20
12.8602942255247
30
0
41
1
10
-1.69999175218271
20
13.0297885744734
30
0
41
1
10
-1.69998784953967
20
13.3318809933356
30
0
41
1
10
-1.69998537605034
20
13.4646455358602
30
0
41
1
10
-1.69997883083784
20
13.6911630512906
30
0
41
1
10
-1.69997475891142
20
13.7846945374618
30
0
41
1
10
-1.69996425447641
20
13.9277532746907
30
0
41
1
10
-1.69995785433565
20
13.977282564264
30
0
41
1
10
-1.69994833162727
20
14.0135163639541
30
0
41
1
10
-1.69994322325098
20
14.0196779314721
30
0
41
1
10
-1.69993757160967
20
14.0200998896391
30
0
0
SPLINE
5
1DD
100
AcDbEntity
8
SK1
62
256
6
ByLayer
370
18
48
1
60
0
100
AcDbSpline
70
4
71
3
72
32
73
28
40
0
40
0
40
0
40
0
40
0.0318901005864405
40
0.0318901005864405
40
0.101040807687409
40
0.101040807687409
40
0.170191514788378
40
0.170191514788378
40
0.308492928990315
40
0.308492928990315
40
0.446794343192252
40
0.446794343192252
40
0.585095757394189
40
0.585095757394189
40
0.723397171596126
40
0.723397171596126
40
0.792547878697094
40
0.792547878697094
40
0.861698585798063
40
0.861698585798063
40
0.896273939348547
40
0.896273939348547
40
0.930849292899032
40
0.930849292899032
40
0.965424646449516
40
0.965424646449516
40
1
40
1
40
1
40
1
41
1
10
-1.69993734667173
20
-14.0200998926381
30
0
41
1
10
-1.69994186768864
20
-14.0197056805385
30
0
41
1
10
-1.69994597192186
20
-14.0135858453431
30
0
41
1
10
-1.69995782891479
20
-13.9774503250364
30
0
41
1
10
-1.6999642517909
20
-13.9277695406165
30
0
41
1
10
-1.69997475382922
20
-13.7847828609722
30
0
41
1
10
-1.6999788250202
20
-13.6912957588325
30
0
41
1
10
-1.69998863922478
20
-13.3518485205222
30
0
41
1
10
-1.69999208307536
20
-13.0465849013762
30
0
41
1
10
-1.699996483229
20
-12.3011915217478
30
0
41
1
10
-1.69999741875159
20
-11.8602971411697
30
0
41
1
10
-1.69999843685463
20
-10.8564210971593
30
0
41
1
10
-1.69999851438988
20
-10.2927022373387
30
0
41
1
10
-1.69999799256735
20
-9.05091124162109
30
0
41
1
10
-1.69999740061834
20
-8.3721061456593
30
0
41
1
10
-1.69999502958709
20
-7.2713543324295
30
0
41
1
10
-1.69999397669187
20
-6.89040184870717
30
0
41
1
10
-1.69999101652976
20
-6.10141020276637
30
0
41
1
10
-1.6999891033789
20
-5.69306646653774
30
0
41
1
10
-1.69998524495594
20
-5.06041750139286
30
0
41
1
10
-1.69998379350474
20
-4.84631038003562
30
0
41
1
10
-1.69998049429259
20
-4.4111320962962
30
0
41
1
10
-1.69997864360511
20
-4.18980776264149
30
0
41
1
10
-1.69997449922675
20
-3.74119667368481
30
0
41
1
10
-1.69997220400032
20
-3.51385665934996
30
0
41
1
10
-1.69996715777285
20
-3.05243159507233
30
0
41
1
10
-1.69996439693625
20
-2.81803866041682
30
0
41
1
10
-1.6999614571626
20
-2.58068890323889
30
0
0
SPLINE
5
1DE
100
AcDbEntity
8
SK1
62
256
6
ByLayer
370
18
48
1
60
0
100
AcDbSpline
70
4
71
3
72
79
73
75
40
0
40
0
40
0
40
0
40
0.0043177006711251
40
0.0184424549640358
40
0.0325672092569465
40
0.0466919635498572
40
0.0608167178427679
40
0.0749414721356786
40
0.0890662264285893
40
0.1031909807215
40
0.117315735014411
40
0.131440489307321
40
0.145565243600232
40
0.159689997893143
40
0.173814752186053
40
0.187939506478964
40
0.202064260771875
40
0.216189015064786
40
0.230313769357696
40
0.244438523650607
40
0.258563277943518
40
0.272688032236428
40
0.286812786529339
40
0.30093754082225
40
0.31506229511516
40
0.329187049408071
40
0.343311803700982
40
0.357436557993893
40
0.371561312286803
40
0.385686066579714
40
0.399810820872624
40
0.413935575165535
40
0.428060329458446
40
0.442185083751357
40
0.456309838044267
40
0.470434592337178
40
0.484559346630089
40
0.498684100922999
40
0.51280885521591
40
0.526933609508821
40
0.541058363801732
40
0.555183118094642
40
0.569307872387553
40
0.583432626680464
40
0.597557380973374
40
0.611682135266285
40
0.625806889559196
40
0.639931643852106
40
0.654056398145017
40
0.668181152437928
40
0.682305906730838
40
0.696430661023749
40
0.71055541531666
40
0.72468016960957
40
0.738804923902481
40
0.752929678195392
40
0.767054432488303
40
0.781179186781213
40
0.795303941074124
40
0.809428695367035
40
0.823553449659945
40
0.837678203952856
40
0.851802958245767
40
0.865927712538678
40
0.880052466831588
40
0.894177221124499
40
0.90830197541741
40
0.92242672971032
40
0.936551484003231
40
0.950676238296142
40
0.964800992589052
40
0.978925746881963
40
0.993050501174874
40
1
40
1
40
1
40
1
41
1
10
-2.50000000000003
20
-13.8460520008658
30
0
41
1
10
-2.50000000000003
20
-13.8546426979683
30
0
41
1
10
-2.50000000000003
20
-13.890148056014
30
0
41
1
10
-2.50000000000003
20
-13.9432745301022
30
0
41
1
10
-2.50000000000003
20
-13.9887542441536
30
0
41
1
10
-2.50000000000003
20
-14.0056234056246
30
0
41
1
10
-2.5
20
-13.988752133348
30
0
41
1
10
-2.5
20
-13.9330904587156
30
0
41
1
10
-2.5
20
-13.8339177083708
30
0
41
1
10
-2.5
20
-13.6870701821128
30
0
41
1
10
-2.5
20
-13.4891606659135
30
0
41
1
10
-2.5
20
-13.2377634553435
30
0
41
1
10
-2.5
20
-12.9315646731672
30
0
41
1
10
-2.5
20
-12.5704720586786
30
0
41
1
10
-2.49999999999997
20
-12.1556745862519
30
0
41
1
10
-2.49999999999997
20
-11.6896573582757
30
0
41
1
10
-2.49999999999997
20
-11.1761598486008
30
0
41
1
10
-2.49999999999997
20
-10.6200921552756
30
0
41
1
10
-2.49999999999997
20
-10.0273966309962
30
0
41
1
10
-2.49999999999997
20
-9.40487698463008
30
0
41
1
10
-2.49999999999997
20
-8.75998301936997
30
0
41
1
10
-2.49999999999997
20
-8.10057759802723
30
0
41
1
10
-2.49999999999994
20
-7.43467620819112
30
0
41
1
10
-2.49999999999994
20
-6.77018655593477
30
0
41
1
10
-2.49999999999994
20
-6.11464187468977
30
0
41
1
10
-2.49999999999994
20
-5.47495238907831
30
0
41
1
10
-2.49999999999994
20
-4.85717257311447
30
0
41
1
10
-2.49999999999994
20
-4.26630223424849
30
0
41
1
10
-2.49999999999994
20
-3.70612309484702
30
0
41
1
10
-2.49999999999994
20
-3.17908000235968
30
0
41
1
10
-2.49999999999994
20
-2.68621197756718
30
0
41
1
10
-2.49999999999994
20
-2.22713214869714
30
0
41
1
10
-2.49999999999994
20
-1.80006432484655
30
0
41
1
10
-2.49999999999994
20
-1.40192548161284
30
0
41
1
10
-2.49999999999994
20
-1.02846311010666
30
0
41
1
10
-2.49999999999994
20
-0.674428687296569
30
0
41
1
10
-2.49999999999994
20
-0.333795915844547
30
0
41
1
10
-2.49999999999994
20
7.12340693E-08
30
0
41
1
10
-2.49999999999994
20
0.333795630908241
30
0
41
1
10
-2.49999999999994
20
0.674428818459575
30
0
41
1
10
-2.49999999999994
20
1.02846287039082
30
0
41
1
10
-2.49999999999994
20
1.40192558052763
30
0
41
1
10
-2.49999999999994
20
1.80006416890296
30
0
41
1
10
-2.49999999999994
20
2.22713219916599
30
0
41
1
10
-2.49999999999994
20
2.68621193163514
30
0
41
1
10
-2.49999999999994
20
3.17907999530164
30
0
41
1
10
-2.49999999999994
20
3.70612316901105
30
0
41
1
10
-2.49999999999994
20
4.26630216899858
30
0
41
1
10
-2.49999999999994
20
4.85717275994992
30
0
41
1
10
-2.49999999999994
20
5.47495227341935
30
0
41
1
10
-2.49999999999994
20
6.11464215048997
30
0
41
1
10
-2.49999999999994
20
6.7701864048623
30
0
41
1
10
-2.49999999999994
20
7.43467653668063
30
0
41
1
10
-2.49999999999994
20
8.10057743145504
30
0
41
1
10
-2.49999999999994
20
8.75998335716918
30
0
41
1
10
-2.49999999999994
20
9.40487682435958
30
0
41
1
10
-2.49999999999994
20
10.027396934279
30
0
41
1
10
-2.49999999999994
20
10.6200920217111
30
0
41
1
10
-2.49999999999994
20
11.1761600795757
30
0
41
1
10
-2.49999999999994
20
11.6896572673894
30
0
41
1
10
-2.49999999999994
20
12.1556747188218
30
0
41
1
10
-2.49999999999997
20
12.5704720196537
30
0
41
1
10
-2.49999999999997
20
12.931564696697
30
0
41
1
10
-2.49999999999997
20
13.2377634692878
30
0
41
1
10
-2.49999999999997
20
13.4891605866066
30
0
41
1
10
-2.49999999999997
20
13.6870702420279
30
0
41
1
10
-2.49999999999997
20
13.8339175480175
30
0
41
1
10
-2.49999999999997
20
13.9330908491367
30
0
41
1
10
-2.49999999999997
20
13.9887513430622
30
0
41
1
10
-2.49999999999997
20
14.0056234821498
30
0
41
1
10
-2.49999999999997
20
13.9887547283385
30
0
41
1
10
-2.5
20
13.9432743681012
30
0
41
1
10
-2.5
20
13.8858546593185
30
0
41
1
10
-2.49999999999997
20
13.8443987701481
30
0
41
1
10
-2.49999999999997
20
13.8300369986856
30
0
0
SPLINE
5
1DF
100
AcDbEntity
8
SK1
62
256
6
ByLayer
370
18
48
1
60
0
100
AcDbSpline
70
4
71
3
72
72
73
68
40
0
40
0
40
0
40
0
40
0.0150365755596474
40
0.03051010127764
40
0.0459836269956325
40
0.0614571527136251
40
0.0769306784316176
40
0.0924042041496101
40
0.107877729867603
40
0.123351255585595
40
0.138824781303588
40
0.154298307021581
40
0.169771832739573
40
0.185245358457566
40
0.200718884175558
40
0.216192409893551
40
0.231665935611543
40
0.247139461329536
40
0.262612987047528
40
0.278086512765521
40
0.293560038483513
40
0.309033564201506
40
0.324507089919499
40
0.339980615637491
40
0.355454141355484
40
0.370927667073476
40
0.386401192791469
40
0.401874718509461
40
0.417348244227454
40
0.432821769945446
40
0.448295295663439
40
0.463768821381432
40
0.479242347099424
40
0.494715872817417
40
0.510189398535409
40
0.525662924253402
40
0.541136449971394
40
0.556609975689387
40
0.57208350140738
40
0.587557027125372
40
0.603030552843364
40
0.618504078561357
40
0.63397760427935
40
0.649451129997342
40
0.664924655715335
40
0.680398181433327
40
0.69587170715132
40
0.711345232869312
40
0.726818758587305
40
0.742292284305297
40
0.75776581002329
40
0.773239335741283
40
0.788712861459275
40
0.804186387177268
40
0.81965991289526
40
0.835133438613253
40
0.850606964331245
40
0.866080490049238
40
0.88155401576723
40
0.897027541485223
40
0.912501067203216
40
0.927974592921208
40
0.943448118639201
40
0.958921644357193
40
0.974395170075186
40
0.989868695793178
40
1
40
1
40
1
40
1
41
1
10
-22.5004731679057
20
13.2913209175295
30
0
41
1
10
-22.5004731679057
20
13.3210932341281
30
0
41
1
10
-22.5004731679057
20
13.3768125167869
30
0
41
1
10
-22.5004731679057
20
13.4428288363681
30
0
41
1
10
-22.5004731679057
20
13.4866768366259
30
0
41
1
10
-22.5004731679057
20
13.5029401449552
30
0
41
1
10
-22.5004731679057
20
13.4866735728523
30
0
41
1
10
-22.5004731679057
20
13.4330108195395
30
0
41
1
10
-22.5004731679057
20
13.3373970005121
30
0
41
1
10
-22.5004731679057
20
13.1958202698686
30
0
41
1
10
-22.5004731679057
20
13.0050138959383
30
0
41
1
10
-22.5004731679057
20
12.7626398072662
30
0
41
1
10
-22.5004731679057
20
12.4674309788965
30
0
41
1
10
-22.5004731679056
20
12.1192984726134
30
0
41
1
10
-22.5004731679056
20
11.7193888839714
30
0
41
1
10
-22.5004731679056
20
11.2700975146
30
0
41
1
10
-22.5004731679056
20
10.7750305295073
30
0
41
1
10
-22.5004731679056
20
10.2389206082719
30
0
41
1
10
-22.5004731679056
20
9.66749825781361
30
0
41
1
10
-22.5004731679056
20
9.0673213507315
30
0
41
1
10
-22.5004731679056
20
8.44557410053284
30
0
41
1
10
-22.5004731679056
20
7.80983526623567
30
0
41
1
10
-22.5004731679056
20
7.16783457729309
30
0
41
1
10
-22.5004731679056
20
6.52719401685735
30
0
41
1
10
-22.5004731679056
20
5.89517825258662
30
0
41
1
10
-22.5004731679056
20
5.27844782766644
30
0
41
1
10
-22.5004731679056
20
4.68284136974697
30
0
41
1
10
-22.5004731679056
20
4.11317803178855
30
0
41
1
10
-22.5004731679056
20
3.57310471645681
30
0
41
1
10
-22.5004731679056
20
3.06497793170672
30
0
41
1
10
-22.5004731679056
20
2.58979965981254
30
0
41
1
10
-22.5004731679056
20
2.14719700401548
30
0
41
1
10
-22.5004731679056
20
1.73545710126749
30
0
41
1
10
-22.5004731679056
20
1.35160831830677
30
0
41
1
10
-22.5004731679056
20
0.991549758416369
30
0
41
1
10
-22.5004731679056
20
0.650222532349176
30
0
41
1
10
-22.5004731679056
20
0.321815193057716
30
0
41
1
10
-22.5004731679056
20
6.86773944E-08
30
0
41
1
10
-22.5004731679056
20
-0.321815467767181
30
0
41
1
10
-22.5004731679056
20
-0.6502224058938
30
0
41
1
10
-22.5004731679056
20
-0.99154998952838
30
0
41
1
10
-22.5004731679056
20
-1.35160822294213
30
0
41
1
10
-22.5004731679056
20
-1.73545725161395
30
0
41
1
10
-22.5004731679056
20
-2.147196955358
30
0
41
1
10
-22.5004731679056
20
-2.58979970409595
30
0
41
1
10
-22.5004731679056
20
-3.06497793851139
30
0
41
1
10
-22.5004731679056
20
-3.57310464495461
30
0
41
1
10
-22.5004731679056
20
-4.11317809469651
30
0
41
1
10
-22.5004731679056
20
-4.68284118961725
30
0
41
1
10
-22.5004731679056
20
-5.27844793917419
30
0
41
1
10
-22.5004731679056
20
-5.89517798668527
30
0
41
1
10
-22.5004731679056
20
-6.52719416250753
30
0
41
1
10
-22.5004731679056
20
-7.16783426059351
30
0
41
1
10
-22.5004731679057
20
-7.8098354268293
30
0
41
1
10
-22.5004731679057
20
-8.44557377485771
30
0
41
1
10
-22.5004731679057
20
-9.06732150524962
30
0
41
1
10
-22.5004731679057
20
-9.667497965416
30
0
41
1
10
-22.5004731679057
20
-10.2389207370425
30
0
41
1
10
-22.5004731679057
20
-10.7750303068223
30
0
41
1
10
-22.5004731679057
20
-11.2700976022241
30
0
41
1
10
-22.5004731679057
20
-11.7193887561596
30
0
41
1
10
-22.5004731679057
20
-12.1192985102377
30
0
41
1
10
-22.5004731679057
20
-12.4674309562112
30
0
41
1
10
-22.5004731679057
20
-12.7626397938223
30
0
41
1
10
-22.5004731679057
20
-13.0050139723987
30
0
41
1
10
-22.5004731679057
20
-13.1738616484515
30
0
41
1
10
-22.5004731679057
20
-13.2566406313252
30
0
41
1
10
-22.5004731679057
20
-13.2860299212734
30
0
0
SPLINE
5
1E0
100
AcDbEntity
8
SK1
62
256
6
ByLayer
370
18
48
1
60
0
100
AcDbSpline
70
4
71
3
72
53
73
49
40
0
40
0
40
0
40
0
40
0.0009015193746167
40
0.0080239562360817
40
0.0152429704248288
40
0.0225627430941064
40
0.0299872851717886
40
0.037520440238389
40
0.0451658880678113
40
0.0529271487146514
40
0.0802072100760792
40
0.107887533908892
40
0.136107123180198
40
0.164997197969626
40
0.221222022738541
40
0.277014628227447
40
0.306338666575135
40
0.334691910501004
40
0.362228645150814
40
0.389117214602899
40
0.410870120719345
40
0.431237756425149
40
0.450352152768407
40
0.468372907871325
40
0.485490237831952
40
0.501925756049277
40
0.526652465746316
40
0.553195769198824
40
0.582181780559291
40
0.614093155673714
40
0.631894224101699
40
0.649963182754918
40
0.668350919583493
40
0.687105727867598
40
0.706273126520034
40
0.725895763388216
40
0.753753728495308
40
0.781593581879872
40
0.809530719871306
40
0.837679342358795
40
0.866493078870823
40
0.894647645348612
40
0.922273632099422
40
0.949509233855134
40
0.96488210488651
40
0.979800925795743
40
0.994296164401004
40
1
40
1
40
1
40
1
41
1
10
-24
20
-12.5794716105389
30
0
41
1
10
-24
20
-12.579444121901
30
0
41
1
10
-24
20
-12.5790106287372
30
0
41
1
10
-24
20
-12.5750102454912
30
0
41
1
10
-24
20
-12.5615745885518
30
0
41
1
10
-24
20
-12.5403129223796
30
0
41
1
10
-24
20
-12.5112243715907
30
0
41
1
10
-24
20
-12.4743144356193
30
0
41
1
10
-24
20
-12.4295641486956
30
0
41
1
10
-24
20
-12.3332983728988
30
0
41
1
10
-24
20
-12.1488140883502
30
0
41
1
10
-24
20
-11.8183666241033
30
0
41
1
10
-24
20
-11.3988068147615
30
0
41
1
10
-24
20
-10.7351621337747
30
0
41
1
10
-24
20
-9.73480607524854
30
0
41
1
10
-24
20
-8.50289855695533
30
0
41
1
10
-24
20
-7.39075627731413
30
0
41
1
10
-24
20
-6.49127914507179
30
0
41
1
10
-24
20
-5.5556849882195
30
0
41
1
10
-24
20
-4.63955568105783
30
0
41
1
10
-24
20
-3.76913729325929
30
0
41
1
10
-23.9999999999999
20
-2.96447783194304
30
0
41
1
10
-24
20
-2.1790530124172
30
0
41
1
10
-23.9999999999999
20
-1.41279480441605
30
0
41
1
10
-23.9999999999999
20
-0.665594437609201
30
0
41
1
10
-23.9999999999999
20
0.190530582996331
30
0
41
1
10
-24
20
1.1838590283013
30
0
41
1
10
-23.9999999999999
20
2.32153593904502
30
0
41
1
10
-23.9999999999999
20
3.49834713164501
30
0
41
1
10
-23.9999999999999
20
4.49575550939699
30
0
41
1
10
-23.9999999999999
20
5.31422162579241
30
0
41
1
10
-23.9999999999999
20
5.94369174685866
30
0
41
1
10
-23.9999999999999
20
6.55748161513671
30
0
41
1
10
-23.9999999999999
20
7.15551399202425
30
0
41
1
10
-24
20
7.73777017421654
30
0
41
1
10
-23.9999999999999
20
8.37891321215074
30
0
41
1
10
-24
20
9.05789466220696
30
0
41
1
10
-24
20
9.74741392450429
30
0
41
1
10
-24
20
10.3724214375753
30
0
41
1
10
-24
20
10.9348709055083
30
0
41
1
10
-24
20
11.4282187860647
30
0
41
1
10
-24
20
11.841530117034
30
0
41
1
10
-24
20
12.1662204954186
30
0
41
1
10
-24
20
12.3685088187021
30
0
41
1
10
-24
20
12.4863667597008
30
0
41
1
10
-24
20
12.5496478387326
30
0
41
1
10
-24
20
12.5753276015826
30
0
41
1
10
-24
20
12.5798034646193
30
0
41
1
10
-24
20
12.580218389636
30
0
0
SPLINE
5
1E1
100
AcDbEntity
8
SK1
62
256
6
ByLayer
370
18
48
1
60
0
100
AcDbSpline
70
4
71
3
72
26
73
22
40
0
40
0
40
0
40
0
40
0.030791325645693
40
0.030791325645693
40
0.12771219308114
40
0.12771219308114
40
0.176172626798863
40
0.176172626798863
40
0.224633060516586
40
0.224633060516586
40
0.248863277375445
40
0.248863277375445
40
0.273093494234305
40
0.273093494234305
40
0.321553927952022
40
0.321553927952022
40
0.418474795387449
40
0.418474795387449
40
0.6123165302583
40
0.6123165302583
40
1
40
1
40
1
40
1
41
1
10
-1.57433614775943
20
13.5697408402977
30
0
41
1
10
-1.57608698429797
20
13.5688168376521
30
0
41
1
10
-1.57787595635423
20
13.5679297492289
30
0
41
1
10
-1.58547170222769
20
13.5644238104942
30
0
41
1
10
-1.59163473346519
20
13.5621602929549
30
0
41
1
10
-1.60238757652306
20
13.5604200520529
30
0
41
1
10
-1.60622023568951
20
13.5601161512167
30
0
41
1
10
-1.61487977434197
20
13.5607220760426
30
0
41
1
10
-1.61966061650892
20
13.5615054149213
30
0
41
1
10
-1.62874276649825
20
13.5655264252002
30
0
41
1
10
-1.63222251279362
20
13.5674114022669
30
0
41
1
10
-1.64030398611317
20
13.573619849459
30
0
41
1
10
-1.64480166471762
20
13.5781096216329
30
0
41
1
10
-1.6556911619829
20
13.5916302553316
30
0
41
1
10
-1.65990888395672
20
13.5997016412416
30
0
41
1
10
-1.67042770926656
20
13.6213807422026
30
0
41
1
10
-1.67437774883194
20
13.6335041506938
30
0
41
1
10
-1.68468937018747
20
13.6684047051555
30
0
41
1
10
-1.68844996321826
20
13.6887386799271
30
0
41
1
10
-1.69734030571792
20
13.7470295418718
30
0
41
1
10
-1.69934373531291
20
13.7816465515501
30
0
41
1
10
-1.6998763996223
20
13.8139891097877
30
0
0
SPLINE
5
1E2
100
AcDbEntity
8
SK1
62
256
6
ByLayer
370
18
48
1
60
0
100
AcDbSpline
70
4
71
3
72
33
73
29
40
0
40
0
40
0
40
0
40
0.0059995898399567
40
0.0460651672944133
40
0.08613074474887
40
0.126196322203327
40
0.166261899657783
40
0.20632747711224
40
0.246393054566697
40
0.286458632021153
40
0.32652420947561
40
0.366589786930067
40
0.406655364384523
40
0.44672094183898
40
0.486786519293436
40
0.526852096747893
40
0.56691767420235
40
0.606983251656806
40
0.647048829111263
40
0.68711440656572
40
0.727179984020176
40
0.767245561474633
40
0.80731113892909
40
0.847376716383546
40
0.887442293838003
40
0.927507871292459
40
0.967573448746916
40
1
40
1
40
1
40
1
41
1
10
-1.49999999999989
20
2.55452876952208
30
0
41
1
10
-1.49999999999989
20
2.57759088989684
30
0
41
1
10
-1.49999999999989
20
2.7556344787354
30
0
41
1
10
-1.49999999999989
20
3.10259083011954
30
0
41
1
10
-1.49999999999989
20
3.62131845460991
30
0
41
1
10
-1.49999999999989
20
4.17356939352865
30
0
41
1
10
-1.49999999999989
20
4.75691763797596
30
0
41
1
10
-1.49999999999989
20
5.36758867042255
30
0
41
1
10
-1.49999999999989
20
6.00058612356241
30
0
41
1
10
-1.49999999999989
20
6.64985041554641
30
0
41
1
10
-1.49999999999989
20
7.30846469728445
30
0
41
1
10
-1.49999999999989
20
7.96888164701966
30
0
41
1
10
-1.49999999999989
20
8.62318069742537
30
0
41
1
10
-1.49999999999989
20
9.26332794093628
30
0
41
1
10
-1.49999999999989
20
9.88144573908428
30
0
41
1
10
-1.49999999999991
20
10.470066387995
30
0
41
1
10
-1.49999999999991
20
11.0223736645665
30
0
41
1
10
-1.49999999999991
20
11.5324121673266
30
0
41
1
10
-1.49999999999991
20
11.9952649527342
30
0
41
1
10
-1.49999999999991
20
12.4071875173709
30
0
41
1
10
-1.49999999999991
20
12.765695711353
30
0
41
1
10
-1.49999999999991
20
13.0696050793313
30
0
41
1
10
-1.49999999999991
20
13.3190171661248
30
0
41
1
10
-1.49999999999991
20
13.5152595834079
30
0
41
1
10
-1.49999999999991
20
13.6607745146452
30
0
41
1
10
-1.49999999999991
20
13.7589702687857
30
0
41
1
10
-1.49999999999994
20
13.8105308239154
30
0
41
1
10
-1.49999999999994
20
13.8227927556879
30
0
41
1
10
-1.49999999999991
20
13.8245347695506
30
0
0
SPLINE
5
1E3
100
AcDbEntity
8
SK1
62
256
6
ByLayer
370
18
48
1
60
0
100
AcDbSpline
70
4
71
3
72
33
73
29
40
0
40
0
40
0
40
0
40
0.0324112044302648
40
0.0724774076953728
40
0.112543610960481
40
0.152609814225589
40
0.192676017490697
40
0.232742220755805
40
0.272808424020913
40
0.312874627286021
40
0.352940830551129
40
0.393007033816237
40
0.433073237081345
40
0.473139440346454
40
0.513205643611562
40
0.55327184687667
40
0.593338050141778
40
0.633404253406886
40
0.673470456671994
40
0.713536659937102
40
0.75360286320221
40
0.793669066467318
40
0.833735269732426
40
0.873801472997534
40
0.913867676262642
40
0.95393387952775
40
0.994000082792858
40
1
40
1
40
1
40
1
41
1
10
-1.5
20
-13.8245323394426
30
0
41
1
10
-1.49999999999997
20
-13.8227877018024
30
0
41
1
10
-1.49999999999997
20
-13.8105242754917
30
0
41
1
10
-1.49999999999997
20
-13.7589698929487
30
0
41
1
10
-1.49999999999997
20
-13.6607746658667
30
0
41
1
10
-1.49999999999994
20
-13.5152595263794
30
0
41
1
10
-1.49999999999994
20
-13.3190172436223
30
0
41
1
10
-1.49999999999994
20
-13.0696050688166
30
0
41
1
10
-1.49999999999994
20
-12.7656956859389
30
0
41
1
10
-1.49999999999994
20
-12.4071875603976
30
0
41
1
10
-1.49999999999994
20
-11.9952648181666
30
0
41
1
10
-1.49999999999994
20
-11.5324122627522
30
0
41
1
10
-1.49999999999994
20
-11.022373431452
30
0
41
1
10
-1.49999999999991
20
-10.4700665265398
30
0
41
1
10
-1.49999999999991
20
-9.88144543350359
30
0
41
1
10
-1.49999999999991
20
-9.26332810646636
30
0
41
1
10
-1.49999999999991
20
-8.62318035716163
30
0
41
1
10
-1.49999999999991
20
-7.96888181888042
30
0
41
1
10
-1.49999999999991
20
-7.30846436616247
30
0
41
1
10
-1.49999999999991
20
-6.64985057156352
30
0
41
1
10
-1.49999999999991
20
-6.00058584498379
30
0
41
1
10
-1.49999999999991
20
-5.36758879010387
30
0
41
1
10
-1.49999999999989
20
-4.75691744833273
30
0
41
1
10
-1.49999999999989
20
-4.17356946094313
30
0
41
1
10
-1.49999999999989
20
-3.62131828040256
30
0
41
1
10
-1.49999999999989
20
-3.10259085919483
30
0
41
1
10
-1.49999999999989
20
-2.75563386385181
30
0
41
1
10
-1.49999999999989
20
-2.57758935777625
30
0
41
1
10
-1.49999999999989
20
-2.55452633951475
30
0
0
SPLINE
5
1E4
100
AcDbEntity
8
SK1
62
256
6
ByLayer
370
18
48
1
60
0
100
AcDbSpline
70
4
71
3
72
27
73
23
40
0
40
0
40
0
40
0
40
0.037333348839777
40
0.0884074674628125
40
0.139481586085848
40
0.190555704708883
40
0.241629823331919
40
0.292703941954954
40
0.34377806057799
40
0.394852179201025
40
0.445926297824061
40
0.497000416447096
40
0.548074535070131
40
0.599148653693167
40
0.650222772316202
40
0.701296890939238
40
0.752371009562273
40
0.803445128185309
40
0.854519246808344
40
0.90559336543138
40
0.956667484054415
40
1
40
1
40
1
40
1
41
1
10
-0.399999999999977
20
-13.7965785644578
30
0
41
1
10
-0.399999999999949
20
-13.7852812983138
30
0
41
1
10
-0.399999999999977
20
-13.7501638802654
30
0
41
1
10
-0.399999999999977
20
-13.6607746658667
30
0
41
1
10
-0.399999999999977
20
-13.5152595263794
30
0
41
1
10
-0.399999999999977
20
-13.3190172436223
30
0
41
1
10
-0.399999999999977
20
-13.0696050688166
30
0
41
1
10
-0.399999999999949
20
-12.7656956859389
30
0
41
1
10
-0.399999999999949
20
-12.4071875603976
30
0
41
1
10
-0.399999999999949
20
-11.9952648181666
30
0
41
1
10
-0.399999999999949
20
-11.5324122627522
30
0
41
1
10
-0.399999999999949
20
-11.022373431452
30
0
41
1
10
-0.399999999999949
20
-10.4700665265398
30
0
41
1
10
-0.399999999999949
20
-9.88144543350359
30
0
41
1
10
-0.399999999999949
20
-9.26332810646636
30
0
41
1
10
-0.39999999999992
20
-8.62318035716166
30
0
41
1
10
-0.39999999999992
20
-7.96888181888042
30
0
41
1
10
-0.39999999999992
20
-7.30846436616247
30
0
41
1
10
-0.39999999999992
20
-6.64985057156352
30
0
41
1
10
-0.39999999999992
20
-6.00058584498379
30
0
41
1
10
-0.39999999999992
20
-5.3995711445526
30
0
41
1
10
-0.39999999999992
20
-5.02226873502781
30
0
41
1
10
-0.39999999999992
20
-4.85227456455004
30
0
0
SPLINE
5
1E5
100
AcDbEntity
8
SK1
62
256
6
ByLayer
370
18
48
1
60
0
100
AcDbSpline
70
4
71
3
72
27
73
23
40
0
40
0
40
0
40
0
40
0.0433317729095595
40
0.094405057638901
40
0.145478342368243
40
0.196551627097584
40
0.247624911826926
40
0.298698196556267
40
0.349771481285609
40
0.40084476601495
40
0.451918050744292
40
0.502991335473633
40
0.554064620202975
40
0.605137904932316
40
0.656211189661658
40
0.707284474390999
40
0.758357759120341
40
0.809431043849682
40
0.860504328579024
40
0.911577613308365
40
0.962650898037707
40
1
40
1
40
1
40
1
41
1
10
-0.39999999999992
20
4.85227506835241
30
0
41
1
10
-0.39999999999992
20
5.02226907709917
30
0
41
1
10
-0.39999999999992
20
5.39957119182191
30
0
41
1
10
-0.39999999999992
20
6.00058612356241
30
0
41
1
10
-0.39999999999992
20
6.64985041554641
30
0
41
1
10
-0.39999999999992
20
7.30846469728448
30
0
41
1
10
-0.39999999999992
20
7.96888164701966
30
0
41
1
10
-0.39999999999992
20
8.62318069742537
30
0
41
1
10
-0.39999999999992
20
9.26332794093628
30
0
41
1
10
-0.39999999999992
20
9.88144573908428
30
0
41
1
10
-0.39999999999992
20
10.470066387995
30
0
41
1
10
-0.39999999999992
20
11.0223736645665
30
0
41
1
10
-0.39999999999992
20
11.5324121673266
30
0
41
1
10
-0.39999999999992
20
11.9952649527342
30
0
41
1
10
-0.39999999999992
20
12.4071875173709
30
0
41
1
10
-0.39999999999992
20
12.765695711353
30
0
41
1
10
-0.39999999999992
20
13.0696050793313
30
0
41
1
10
-0.399999999999949
20
13.3190171661248
30
0
41
1
10
-0.399999999999949
20
13.5152595834079
30
0
41
1
10
-0.399999999999949
20
13.6607745146452
30
0
41
1
10
-0.399999999999949
20
13.7501746953666
30
0
41
1
10
-0.399999999999977
20
13.7852940852798
30
0
41
1
10
-0.400000000000006
20
13.7965930685277
30
0
0
SPLINE
5
1E6
100
AcDbEntity
8
1
62
256
6
ByLayer
370
18
48
1
60
0
100
AcDbSpline
70
4
71
3
72
16
73
12
40
0
40
0
40
0
40
0
40
0.197391533060762
40
0.197391533060762
40
0.398043649795571
40
0.398043649795571
40
0.598695766530381
40
0.598695766530381
40
0.79934788326519
40
0.79934788326519
40
1
40
1
40
1
40
1
41
1
10
27.5295871678373
20
1.87345942596048
30
0
41
1
10
27.6079110815363
20
2.18243773344543
30
0
41
1
10
27.7468268661369
20
2.52923126738361
30
0
41
1
10
28.1340504108485
20
3.26693248701994
30
0
41
1
10
28.3840432476973
20
3.65831422227868
30
0
41
1
10
28.9656165690888
20
4.43625707479694
30
0
41
1
10
29.2970719262233
20
4.82265081509948
30
0
41
1
10
30.0041926142422
20
5.54700167328519
30
0
41
1
10
30.3797058057906
20
5.88480294470475
30
0
41
1
10
31.1325753999831
20
6.47381892606464
30
0
41
1
10
31.5097698202638
20
6.72490690728412
30
0
41
1
10
31.8665984617216
20
6.91851227828016
30
0
0
SPLINE
5
1E7
100
AcDbEntity
8
1
62
256
6
ByLayer
370
18
48
1
60
0
100
AcDbSpline
70
4
71
3
72
73
73
69
40
0
40
0
40
0
40
0
40
0.0018811804576359
40
0.0240615986696885
40
0.046242016881741
40
0.051787121434754
40
0.0573322259877672
40
0.06287733054078
40
0.0684224350937935
40
0.090602853305846
40
0.112783271517899
40
0.134963689729951
40
0.146053898835977
40
0.157144107942004
40
0.179324526154056
40
0.190414735260082
40
0.201504944366109
40
0.223685362578161
40
0.234775571684187
40
0.245865780790214
40
0.25695598989624
40
0.268046199002266
40
0.279136408108292
40
0.290226617214319
40
0.301316826320345
40
0.312407035426371
40
0.334587453638424
40
0.356767871850476
40
0.378948290062529
40
0.401128708274582
40
0.412218917380608
40
0.423309126486634
40
0.445489544698687
40
0.456579753804713
40
0.467669962910739
40
0.489850381122792
40
0.512030799334844
40
0.523121008440871
40
0.528666112993884
40
0.534211217546897
40
0.545301426652923
40
0.556391635758949
40
0.578572053971002
40
0.600752472183054
40
0.622932890395107
40
0.634023099501133
40
0.645113308607159
40
0.667293726819212
40
0.678383935925238
40
0.689474145031265
40
0.711654563243317
40
0.722744772349343
40
0.73383498145537
40
0.756015399667422
40
0.767105608773448
40
0.778195817879475
40
0.800376236091527
40
0.811466445197553
40
0.82255665430358
40
0.844737072515632
40
0.855827281621659
40
0.866917490727685
40
0.889097908939737
40
0.91127832715179
40
0.933458745363842
40
0.955639163575895
40
0.977819581787948
40
1
40
1
40
1
40
1
41
1
10
32.1859012333515
20
-3.66373675561238
30
0
41
1
10
32.1845470375518
20
-3.66019453445335
30
0
41
1
10
32.1673592464945
20
-3.6147752368702
30
0
41
1
10
32.1376070581896
20
-3.52475734116342
30
0
41
1
10
32.1120860824887
20
-3.42261828613491
30
0
41
1
10
32.0977998098
20
-3.35265647159375
30
0
41
1
10
32.0912013389986
20
-3.31731221803153
30
0
41
1
10
32.0851466570608
20
-3.28161509412379
30
0
41
1
10
32.0741231175532
20
-3.20953605750961
30
0
41
1
10
32.0616530745767
20
-3.09892811418899
30
0
41
1
10
32.0535147451143
20
-2.94685035806103
30
0
41
1
10
32.0536529880105
20
-2.81687697671899
30
0
41
1
10
32.0577695282094
20
-2.71130881753697
30
0
41
1
10
32.0645079774675
20
-2.60479958782696
30
0
41
1
10
32.0751062080207
20
-2.49705660064134
30
0
41
1
10
32.0893768715953
20
-2.38841920749084
30
0
41
1
10
32.1060333744263
20
-2.27929866086731
30
0
41
1
10
32.1261749620048
20
-2.16962305978964
30
0
41
1
10
32.1495869288654
20
-2.05970172284953
30
0
41
1
10
32.1687274172856
20
-1.97721518186114
30
0
41
1
10
32.1893957426142
20
-1.89476043223738
30
0
41
1
10
32.2115152139582
20
-1.81246771895724
30
0
41
1
10
32.2350091404249
20
-1.73046728699976
30
0
41
1
10
32.2599576596776
20
-1.64838744110708
30
0
41
1
10
32.28644090938
20
-1.56585648602143
30
0
41
1
10
32.3240107643335
20
-1.45468707179472
30
0
41
1
10
32.375606964465
20
-1.31262254907173
30
0
41
1
10
32.4449572749796
20
-1.13803626466372
30
0
41
1
10
32.5218330425635
20
-0.959806915401856
30
0
41
1
10
32.5922428853685
20
-0.808634730544213
30
0
41
1
10
32.6523705195716
20
-0.686395058351479
30
0
41
1
10
32.7150285731034
20
-0.563383007280066
30
0
41
1
10
32.7814781246622
20
-0.439355743879133
30
0
41
1
10
32.851650152437
20
-0.314646289910314
30
0
41
1
10
32.9242808237519
20
-0.189593049483392
30
0
41
1
10
33.0196359809015
20
-0.0328400379418952
30
0
41
1
10
33.1208575199464
20
0.123882741597242
30
0
41
1
10
33.1946755256637
20
0.233251420966639
30
0
41
1
10
33.237679176921
20
0.295603338487609
30
0
41
1
10
33.281222578227
20
0.357842905919256
30
0
41
1
10
33.3366484754117
20
0.435401640736444
30
0
41
1
10
33.4273904420509
20
0.558853780535287
30
0
41
1
10
33.5445583099302
20
0.711724968516165
30
0
41
1
10
33.6906361878988
20
0.892094262624568
30
0
41
1
10
33.8165079342883
20
1.03920043762412
30
0
41
1
10
33.9193897379709
20
1.15460430657222
30
0
41
1
10
34.0236279119413
20
1.26836741848695
30
0
41
1
10
34.1297507902044
20
1.37948933035304
30
0
41
1
10
34.2374283886812
20
1.48765234969437
30
0
41
1
10
34.3460324726074
20
1.59373687652717
30
0
41
1
10
34.4558612926684
20
1.69654481835909
30
0
41
1
10
34.5665724831779
20
1.79581698006947
30
0
41
1
10
34.6777577987578
20
1.89264555665872
30
0
41
1
10
34.7894831191001
20
1.98567915800584
30
0
41
1
10
34.9014119658904
20
2.07472846284367
30
0
41
1
10
35.0133643375412
20
2.16105846291958
30
0
41
1
10
35.1251837573255
20
2.243214845219
30
0
41
1
10
35.2365562259992
20
2.32108307547594
30
0
41
1
10
35.3475260608508
20
2.39605435961593
30
0
41
1
10
35.4577349453473
20
2.4666229574475
30
0
41
1
10
35.5669050267907
20
2.53274850009402
30
0
41
1
10
35.6752899552993
20
2.59589854965824
30
0
41
1
10
35.8091252962461
20
2.66923183153645
30
0
41
1
10
35.9666293832664
20
2.74832000120225
30
0
41
1
10
36.1205701375574
20
2.81855148181541
30
0
41
1
10
36.2705834707939
20
2.88009765676543
30
0
41
1
10
36.4163052946509
20
2.93312990944196
30
0
41
1
10
36.5104174085886
20
2.96298378590117
30
0
41
1
10
36.556670832804
20
2.9765792318471
30
0
0
SPLINE
5
1E8
100
AcDbEntity
8
1
62
256
6
ByLayer
370
18
48
1
60
0
100
AcDbSpline
70
4
71
3
72
11
73
7
40
0
40
0
40
0
40
0
40
0.466309169917106
40
0.699463754875659
40
0.932618339834212
40
1
40
1
40
1
40
1
41
1
10
36.5566708328067
20
2.9765792318463
30
0
41
1
10
38.1876587759449
20
2.73997665133399
30
0
41
1
10
40.6426217375673
20
2.33942839658903
30
0
41
1
10
43.9222091346169
20
1.73802690518207
30
0
41
1
10
45.7991550948594
20
1.36848689517211
30
0
41
1
10
46.8559049617325
20
1.1534701071904
30
0
41
1
10
47.0928175140193
20
1.10495954343122
30
0
0
SPLINE
5
1E9
100
AcDbEntity
8
1
62
256
6
ByLayer
370
18
48
1
60
0
100
AcDbSpline
70
4
71
3
72
26
73
22
40
0
40
0
40
0
40
0
40
0.144229858655844
40
0.144229858655844
40
0.288459717311687
40
0.288459717311687
40
0.432689575967531
40
0.432689575967531
40
0.468747040631491
40
0.468747040631491
40
0.504804505295452
40
0.504804505295452
40
0.576919434623373
40
0.576919434623373
40
0.721149293279217
40
0.721149293279217
40
0.86537915193506
40
0.86537915193506
40
0.937494081262982
40
0.937494081262982
40
1
40
1
40
1
40
1
41
1
10
35
20
-5.65087996385444
30
0
41
1
10
36.427723880375
20
-6.0425523822386
30
0
41
1
10
37.8469314903011
20
-6.38476235204573
30
0
41
1
10
40.678687675917
20
-6.95670638385354
30
0
41
1
10
42.0913134704089
20
-7.18639421053044
30
0
41
1
10
44.9198711658121
20
-7.52422631508898
30
0
41
1
10
46.3356580210609
20
-7.63250482500135
30
0
41
1
10
48.1132247898188
20
-7.68801489350838
30
0
41
1
10
48.4691322768427
20
-7.69513022264314
30
0
41
1
10
49.1818899430529
20
-7.70131212757056
30
0
41
1
10
49.5390696372221
20
-7.70037042651086
30
0
41
1
10
50.6088014461363
20
-7.68544766197761
30
0
41
1
10
51.3200381045102
20
-7.65940420536381
30
0
41
1
10
53.4497491532788
20
-7.53405917791579
30
0
41
1
10
54.8640996680073
20
-7.38741279314701
30
0
41
1
10
57.6914003325261
20
-6.97501782687047
30
0
41
1
10
59.1044828790391
20
-6.70933501180616
30
0
41
1
10
61.2308901223092
20
-6.22997697421772
30
0
41
1
10
61.9408171570465
20
-6.05674611281515
30
0
41
1
10
63.2692329960971
20
-5.70963892377438
30
0
41
1
10
63.8881037563181
20
-5.53864903862041
30
0
41
1
10
64.5062482861034
20
-5.35931152919974
30
0
0
SPLINE
5
1EA
100
AcDbEntity
8
1
62
256
6
ByLayer
370
18
48
1
60
0
100
AcDbSpline
70
4
71
3
72
32
73
28
40
0
40
0
40
0
40
0
40
0.0411154877336207
40
0.0411154877336207
40
0.114875834831035
40
0.114875834831035
40
0.188636181928448
40
0.188636181928448
40
0.262396529025862
40
0.262396529025862
40
0.336156876123276
40
0.336156876123276
40
0.373037049671983
40
0.373037049671983
40
0.40991722322069
40
0.40991722322069
40
0.483677570318103
40
0.483677570318103
40
0.557437917415517
40
0.557437917415517
40
0.704958611610345
40
0.704958611610345
40
0.778718958707759
40
0.778718958707759
40
0.852479305805173
40
0.852479305805173
40
1
40
1
40
1
40
1
41
1
10
64.1325806867725
20
-5.24844125807127
30
0
41
1
10
63.7250880356568
20
-5.35611241442462
30
0
41
1
10
63.317785460241
20
-5.45998351644846
30
0
41
1
10
62.1806583490358
20
-5.73896527259819
30
0
41
1
10
61.4510623588478
20
-5.90546782335869
30
0
41
1
10
59.9916984640259
20
-6.21290967034867
30
0
41
1
10
59.2619478149928
20
-6.35380505934017
30
0
41
1
10
57.8012247890996
20
-6.60859621461077
30
0
41
1
10
57.069725263489
20
-6.72259174916934
30
0
41
1
10
55.606807455954
20
-6.92179450384253
30
0
41
1
10
54.8763176548653
20
-7.0069233565051
30
0
41
1
10
53.7813287620702
20
-7.11069688371086
30
0
41
1
10
53.4165527970497
20
-7.14044473255308
30
0
41
1
10
52.6869720447813
20
-7.19257972839873
30
0
41
1
10
52.3222137090781
20
-7.21463188001744
30
0
41
1
10
51.2278085550217
20
-7.26876903794056
30
0
41
1
10
50.4980316235957
20
-7.28888884275369
30
0
41
1
10
49.0369352574172
20
-7.29664513903208
30
0
41
1
10
48.3049513396693
20
-7.28419543958228
30
0
41
1
10
46.1124219871103
20
-7.19797740267319
30
0
41
1
10
44.6537874475124
20
-7.07524070674046
30
0
41
1
10
42.4627762878035
20
-6.79783789890334
30
0
41
1
10
41.7313418810446
20
-6.68983154850719
30
0
41
1
10
40.2693004100371
20
-6.44517708525072
30
0
41
1
10
39.5390630895391
20
-6.30876026156497
30
0
41
1
10
37.3487141693421
20
-5.86143594169346
30
0
41
1
10
35.8890427795711
20
-5.51243514648849
30
0
41
1
10
34.4253954070318
20
-5.11673298817959
30
0
0
SPLINE
5
1EB
100
AcDbEntity
8
1
62
256
6
ByLayer
370
18
48
1
60
0
100
AcDbSpline
70
4
71
3
72
14
73
10
40
0
40
0
40
0
40
0
40
0.0538709763478691
40
0.0538709763478691
40
0.290403232260902
40
0.290403232260902
40
0.526935488173936
40
0.526935488173936
40
1
40
1
40
1
40
1
41
1
10
64.6091238943667
20
6.14288443320768
30
0
41
1
10
64.7925281231024
20
6.18743441519638
30
0
41
1
10
64.9760475642211
20
6.23117919559988
30
0
41
1
10
65.9660171171637
20
6.46255993029123
30
0
41
1
10
66.7705529137801
20
6.63473115260311
30
0
41
1
10
68.3764033999634
20
6.94236060954984
30
0
41
1
10
69.1780895243851
20
7.07788845808079
30
0
41
1
10
71.582953788529
20
7.42612637981838
30
0
41
1
10
73.1862278866869
20
7.58015102877127
30
0
41
1
10
74.7969200590436
20
7.65231006223263
30
0
0
SPLINE
5
1EC
100
AcDbEntity
8
1
62
256
6
ByLayer
370
18
48
1
60
0
100
AcDbSpline
70
4
71
3
72
8
73
4
40
0
40
0
40
0
40
0
40
1
40
1
40
1
40
1
41
1
10
80.420696331886
20
7.69916862822706
30
0
41
1
10
80.4241196856804
20
7.69974679455495
30
0
41
1
10
80.4313271713706
20
7.70000935951654
30
0
41
1
10
80.4422081339016
20
7.69999980005278
30
0
0
SPLINE
5
1ED
100
AcDbEntity
8
1
62
256
6
ByLayer
370
18
48
1
60
0
100
AcDbSpline
70
4
71
3
72
12
73
8
40
0
40
0
40
0
40
0
40
0.225953557808593
40
0.225953557808593
40
0.612976778904296
40
0.612976778904296
40
1
40
1
40
1
40
1
41
1
10
80.4712360852648
20
7.69957533662475
30
0
41
1
10
80.4826468963693
20
7.69930948054852
30
0
41
1
10
80.4958103479561
20
7.69892864787914
30
0
41
1
10
80.5356143843329
20
7.69766503636927
30
0
41
1
10
80.5656219968521
20
7.69660817310765
30
0
41
1
10
80.6338344979788
20
7.69432912457575
30
0
41
1
10
80.6714341943867
20
7.69312856382484
30
0
41
1
10
80.712575028198
20
7.69201778355605
30
0
0
SPLINE
5
1EE
100
AcDbEntity
8
1
62
256
6
ByLayer
370
18
48
1
60
0
100
AcDbSpline
70
4
71
3
72
22
73
18
40
0
40
0
40
0
40
0
40
0.111703024537055
40
0.111703024537055
40
0.238602592460333
40
0.238602592460333
40
0.365502160383611
40
0.365502160383611
40
0.492401728306889
40
0.492401728306889
40
0.619301296230167
40
0.619301296230167
40
0.746200864153444
40
0.746200864153444
40
0.873100432076722
40
0.873100432076722
40
1
40
1
40
1
40
1
41
1
10
34.4068413103379
20
-5.11443140212552
30
0
41
1
10
34.4643348978654
20
-5.12692379564066
30
0
41
1
10
34.5358698004487
20
-5.07734751102359
30
0
41
1
10
34.7124418019751
20
-4.84254505708876
30
0
41
1
10
34.8206756132553
20
-4.63983140320482
30
0
41
1
10
35.0541701057801
20
-4.10050259849399
30
0
41
1
10
35.1793846684218
20
-3.76399397305318
30
0
41
1
10
35.4333019902807
20
-2.99342498136207
30
0
41
1
10
35.5619545970852
20
-2.55951681384215
30
0
41
1
10
35.808832064465
20
-1.64104930095445
30
0
41
1
10
35.9270081631026
20
-1.15667136645433
30
0
41
1
10
36.1401444947452
20
-0.189643111748296
30
0
41
1
10
36.2350626301841
20
0.292816206127924
30
0
41
1
10
36.3914058513674
20
1.20381528730906
30
0
41
1
10
36.4528000570219
20
1.63217511487162
30
0
41
1
10
36.5354407091148
20
2.38861499890663
30
0
41
1
10
36.5566708328067
20
2.71654564735567
30
0
41
1
10
36.5566708328067
20
2.97657923184633
30
0
0
SPLINE
5
1EF
100
AcDbEntity
8
1
62
256
6
ByLayer
370
18
48
1
60
0
100
AcDbSpline
70
4
71
3
72
8
73
4
40
0
40
0
40
0
40
0
40
1
40
1
40
1
40
1
41
1
10
71.5414428015789
20
4.11396993972772
30
0
41
1
10
72.9004913870252
20
4.21914641441612
30
0
41
1
10
74.2595915409729
20
4.2926027330368
30
0
41
1
10
75.6187398754672
20
4.32999999999993
30
0
0
SPLINE
5
1F0
100
AcDbEntity
8
1
62
256
6
ByLayer
370
18
48
1
60
0
100
AcDbSpline
70
4
71
3
72
10
73
6
40
0
40
0
40
0
40
0
40
0.651797057618914
40
0.651797057618914
40
1
40
1
40
1
40
1
41
1
10
75.6187398754672
20
4.3299999999999
30
0
41
1
10
75.6187398754672
20
3.87185107135141
30
0
41
1
10
75.5948275356695
20
3.41388240474242
30
0
41
1
10
75.5242187955886
20
2.76448638020898
30
0
41
1
10
75.4933329025493
20
2.54836125386333
30
0
41
1
10
75.456929716274
20
2.34669356113122
30
0
0
SPLINE
5
1F1
100
AcDbEntity
8
1
62
256
6
ByLayer
370
18
48
1
60
0
100
AcDbSpline
70
4
71
3
72
18
73
14
40
0
40
0
40
0
40
0
40
0.103083235499625
40
0.103083235499625
40
0.402055490333083
40
0.402055490333083
40
0.551541617749812
40
0.551541617749812
40
0.701027745166542
40
0.701027745166542
40
0.850513872583271
40
0.850513872583271
40
1
40
1
40
1
40
1
41
1
10
77.1469645911284
20
1.82745310721921
30
0
41
1
10
77.1601110968586
20
1.84037129352464
30
0
41
1
10
77.172164745365
20
1.85651733725319
30
0
41
1
10
77.2147303484615
20
1.93211626378718
30
0
41
1
10
77.2355583201613
20
2.01339284413424
30
0
41
1
10
77.2489516640117
20
2.16947292510449
30
0
41
1
10
77.2504013387233
20
2.2274125668059
30
0
41
1
10
77.2465399288165
20
2.35402803368484
30
0
41
1
10
77.2412691311149
20
2.42187925880114
30
0
41
1
10
77.2236342741896
20
2.56582622112171
30
0
41
1
10
77.2112726575687
20
2.64192635182405
30
0
41
1
10
77.1786644452738
20
2.80171857280243
30
0
41
1
10
77.1583505102189
20
2.88566849364517
30
0
41
1
10
77.1336075690294
20
2.97256304688926
30
0
0
SPLINE
5
1F2
100
AcDbEntity
8
1
62
256
6
ByLayer
370
18
48
1
60
0
100
AcDbSpline
70
4
71
3
72
14
73
10
40
0
40
0
40
0
40
0
40
0.0774697885126506
40
0.0774697885126506
40
0.384979859008434
40
0.384979859008434
40
0.692489929504217
40
0.692489929504217
40
1
40
1
40
1
40
1
41
1
10
84.7501747392469
20
2.91956072355435
30
0
41
1
10
84.749670171141
20
2.91125848175901
30
0
41
1
10
84.749127164291
20
2.90320127039709
30
0
41
1
10
84.7462720851902
20
2.8643765082889
30
0
41
1
10
84.7434997908982
20
2.8378246977025
30
0
41
1
10
84.7374478628554
20
2.79482592600627
30
0
41
1
10
84.734094752184
20
2.77803937098256
30
0
41
1
10
84.7272737305908
20
2.75587817185351
30
0
41
1
10
84.7237863391456
20
2.75022088275654
30
0
41
1
10
84.7202775131283
20
2.75018656761034
30
0
0
SPLINE
5
1F3
100
AcDbEntity
8
1
62
256
6
ByLayer
370
18
48
1
60
0
100
AcDbSpline
70
4
71
3
72
14
73
10
40
0
40
0
40
0
40
0
40
0.30312827628967
40
0.30312827628967
40
0.651564138144849
40
0.651564138144849
40
0.825782069072424
40
0.825782069072424
40
1
40
1
40
1
40
1
41
1
10
80.6636832424393
20
5.54645412732197
30
0
41
1
10
80.6375659435208
20
5.51735260428646
30
0
41
1
10
80.6138824948806
20
5.48903137104207
30
0
41
1
10
80.5679307799787
20
5.43175933036085
30
0
41
1
10
80.5463492728329
20
5.4031680286221
30
0
41
1
10
80.521101474558
20
5.37112187772544
30
0
41
1
10
80.5137471760187
20
5.36213719961174
30
0
41
1
10
80.5022952433436
20
5.34992874263378
30
0
41
1
10
80.4981321103673
20
5.34662060807224
30
0
41
1
10
80.4957116194965
20
5.34662060807224
30
0
0
SPLINE
5
1F4
100
AcDbEntity
8
1
62
256
6
ByLayer
370
18
48
1
60
0
100
AcDbSpline
70
4
71
3
72
12
73
8
40
0
40
0
40
0
40
0
40
0.25
40
0.25
40
0.5
40
0.5
40
1
40
1
40
1
40
1
41
1
10
32.9922472955767
20
-4.46012610489262
30
0
41
1
10
33.0961099701788
20
-4.53683421823598
30
0
41
1
10
33.2043335257821
20
-4.60845782176668
30
0
41
1
10
33.4299433186282
20
-4.74137968536422
30
0
41
1
10
33.5480121985646
20
-4.80295176646348
30
0
41
1
10
33.9098836293072
20
-4.96842443907155
30
0
41
1
10
34.1620478518797
20
-5.05410736725833
30
0
41
1
10
34.4253955817211
20
-5.11537382889529
30
0
0
SPLINE
5
1F5
100
AcDbEntity
8
1
62
256
6
ByLayer
370
18
48
1
60
0
100
AcDbSpline
70
4
71
3
72
12
73
8
40
0
40
0
40
0
40
0
40
0.499999999999944
40
0.499999999999944
40
0.749999999999972
40
0.749999999999972
40
1
40
1
40
1
40
1
41
1
10
77.1154965007773
20
3.84647457323143
30
0
41
1
10
77.0640355590193
20
3.83143926558083
30
0
41
1
10
77.0137173593168
20
3.81268551814273
30
0
41
1
10
76.9421069109878
20
3.77564012388913
30
0
41
1
10
76.9192903685776
20
3.76197982490243
30
0
41
1
10
76.8763034909421
20
3.7313840789906
30
0
41
1
10
76.8559354500035
20
3.71425504936971
30
0
41
1
10
76.8377730251892
20
3.69542615950357
30
0
0
SPLINE
5
1F6
100
AcDbEntity
8
1
62
256
6
ByLayer
370
18
48
1
60
0
100
AcDbSpline
70
2053
71
3
72
70
73
66
40
0
40
0
40
0
40
0
40
0.0312499999999999
40
0.0312499999999999
40
0.0624999999999999
40
0.0624999999999999
40
0.0937499999999998
40
0.0937499999999998
40
0.125
40
0.125
40
0.15625
40
0.15625
40
0.1875
40
0.1875
40
0.21875
40
0.21875
40
0.25
40
0.25
40
0.28125
40
0.28125
40
0.312499999999999
40
0.312499999999999
40
0.343749999999999
40
0.343749999999999
40
0.374999999999999
40
0.374999999999999
40
0.406249999999999
40
0.406249999999999
40
0.437499999999999
40
0.437499999999999
40
0.468749999999999
40
0.468749999999999
40
0.499999999999999
40
0.499999999999999
40
0.531249999999999
40
0.531249999999999
40
0.562499999999999
40
0.562499999999999
40
0.593749999999999
40
0.593749999999999
40
0.624999999999999
40
0.624999999999999
40
0.656249999999999
40
0.656249999999999
40
0.687499999999999
40
0.687499999999999
40
0.718749999999999
40
0.718749999999999
40
0.75
40
0.75
40
0.78125
40
0.78125
40
0.8125
40
0.8125
40
0.84375
40
0.84375
40
0.875
40
0.875
40
0.90625
40
0.90625
40
0.9375
40
0.9375
40
0.96875
40
0.96875
40
1
40
1
40
1
40
1
41
1
10
82.0442925779763
20
-1.74636792970759
30
0
41
1
10
82.0405677229707
20
-1.67413179426046
30
0
41
1
10
82.0437210146234
20
-1.60244466294833
30
0
41
1
10
82.0635803809489
20
-1.46017317063718
30
0
41
1
10
82.0805566052712
20
-1.38886769633231
30
0
41
1
10
82.1280133570244
20
-1.25125121445751
30
0
41
1
10
82.1581671805777
20
-1.18536844975483
30
0
41
1
10
82.2314027289837
20
-1.05956683312607
30
0
41
1
10
82.2750445727549
20
-0.999179225973506
30
0
41
1
10
82.3721189573345
20
-0.889822336547894
30
0
41
1
10
82.4257500995743
20
-0.840248173310528
30
0
41
1
10
82.543444144922
20
-0.751627892449477
30
0
41
1
10
82.6071106561227
20
-0.713103530430914
30
0
41
1
10
82.7393419442998
20
-0.650226629352147
30
0
41
1
10
82.8089406545985
20
-0.625280341227011
30
0
41
1
10
82.9527709738022
20
-0.589779791146952
30
0
41
1
10
83.0253949910704
20
-0.579529122388749
30
0
41
1
10
83.1720201257462
20
-0.573610894369921
30
0
41
1
10
83.2467998438651
20
-0.578161830564056
30
0
41
1
10
83.3918759829872
20
-0.601908480354183
30
0
41
1
10
83.4626328558994
20
-0.620927559554247
30
0
41
1
10
83.600541189145
20
-0.673403744890521
30
0
41
1
10
83.6670780403338
20
-0.706821358182765
30
0
41
1
10
83.7906534085286
20
-0.785237760269155
30
0
41
1
10
83.8487509379916
20
-0.830805476439252
30
0
41
1
10
83.9551654718841
20
-0.933205347810429
30
0
41
1
10
84.0024167629692
20
-0.988885126072518
30
0
41
1
10
84.0854745037544
20
-1.10877112907826
30
0
41
1
10
84.121498149971
20
-1.17370456764206
30
0
41
1
10
84.1792621110772
20
-1.3071704216045
30
0
41
1
10
84.2013835223904
20
-1.37600271146835
30
0
41
1
10
84.2322991969503
20
-1.51773764528011
30
0
41
1
10
84.2408401671345
20
-1.59022493338276
30
0
41
1
10
84.2441306478145
20
-1.7333647161154
30
0
41
1
10
84.2390357327348
20
-1.80483703021443
30
0
41
1
10
84.2152272093311
20
-1.94689560879462
30
0
41
1
10
84.1968577791101
20
-2.01558037695818
30
0
41
1
10
84.1477803793615
20
-2.1485419592158
30
0
41
1
10
84.1167109565101
20
-2.21338355051302
30
0
41
1
10
84.0431557171939
20
-2.33559632881938
30
0
41
1
10
84.001061562858
20
-2.39259807585924
30
0
41
1
10
83.9061404136812
20
-2.49849634688078
30
0
41
1
10
83.8526075923959
20
-2.54785831924701
30
0
41
1
10
83.7378789750331
20
-2.63443324897412
30
0
41
1
10
83.6766803190783
20
-2.67192420207164
30
0
41
1
10
83.5462163382225
20
-2.73492455097713
30
0
41
1
10
83.4763050963291
20
-2.76043314993621
30
0
41
1
10
83.3347984598248
20
-2.7961541819063
30
0
41
1
10
83.2624880896121
20
-2.80684047182257
30
0
41
1
10
83.1145834037507
20
-2.81316039919489
30
0
41
1
10
83.0404934725354
20
-2.80858871281444
30
0
41
1
10
82.8960482496385
20
-2.78476728477165
30
0
41
1
10
82.8242505118228
20
-2.7651896566538
30
0
41
1
10
82.6878725890833
20
-2.71265564928066
30
0
41
1
10
82.623282966756
20
-2.67993979648153
30
0
41
1
10
82.5009598830879
20
-2.60203074268242
30
0
41
1
10
82.4438207727456
20
-2.55704086324761
30
0
41
1
10
82.3405277951756
20
-2.45836033527959
30
0
41
1
10
82.2935198682906
20
-2.40391504477464
30
0
41
1
10
82.2106761549094
20
-2.28710636087604
30
0
41
1
10
82.175340650722
20
-2.22561837890507
30
0
41
1
10
82.116354740731
20
-2.09657930708579
30
0
41
1
10
82.0925975303712
20
-2.02839593094916
30
0
41
1
10
82.0585248885254
20
-1.88946921649691
30
0
41
1
10
82.048017432982
20
-1.81860406515472
30
0
41
1
10
82.0442925779763
20
-1.74636792970759
30
0
0
SPLINE
5
1F7
100
AcDbEntity
8
1
62
256
6
ByLayer
370
18
48
1
60
0
100
AcDbSpline
70
4
71
3
72
22
73
18
40
0
40
0
40
0
40
0
40
0.250000000000001
40
0.250000000000001
40
0.312500000000001
40
0.312500000000001
40
0.375000000000001
40
0.375000000000001
40
0.500000000000001
40
0.500000000000001
40
0.5625
40
0.5625
40
0.625
40
0.625
40
0.75
40
0.75
40
1
40
1
40
1
40
1
41
1
10
27.484532204361
20
1.99318799687208
30
0
41
1
10
27.7426481734756
20
1.33084538551546
30
0
41
1
10
28.0272047550611
20
0.684777676246483
30
0
41
1
10
28.4218587400369
20
-0.0994604912172008
30
0
41
1
10
28.503125832699
20
-0.255772075678181
30
0
41
1
10
28.6679229216166
20
-0.56226233487277
30
0
41
1
10
28.7513455501208
20
-0.712293905202841
30
0
41
1
10
29.0047650928256
20
-1.15303449481107
30
0
41
1
10
29.177919767854
20
-1.43438112624051
30
0
41
1
10
29.4442500284058
20
-1.83880521480515
30
0
41
1
10
29.5341254397184
20
-1.97068170722756
30
0
41
1
10
29.7160955951608
20
-2.22879654128235
30
0
41
1
10
29.8082549018924
20
-2.35508850215638
30
0
41
1
10
30.0844941215347
20
-2.72138116771373
30
0
41
1
10
30.2695546622189
20
-2.95058056671283
30
0
41
1
10
30.8278780259338
20
-3.60285978337427
30
0
41
1
10
31.2043876284226
20
-3.99112979429796
30
0
41
1
10
31.5845322043612
20
-4.35382715922933
30
0
0
SPLINE
5
1F8
100
AcDbEntity
8
1
62
256
6
ByLayer
370
18
48
1
60
0
100
AcDbSpline
70
4
71
3
72
8
73
4
40
0
40
0
40
0
40
0
40
1
40
1
40
1
40
1
41
1
10
36.556670832804
20
2.9765792318471
30
0
41
1
10
35.1525082966911
20
4.20372336977093
30
0
41
1
10
33.7317046971082
20
5.45017288073649
30
0
41
1
10
32.2724984239326
20
6.69704403771328
30
0
0
SPLINE
5
1F9
100
AcDbEntity
8
1
62
256
6
ByLayer
370
18
48
1
60
0
100
AcDbSpline
70
4
71
3
72
14
73
10
40
0
40
0
40
0
40
0
40
0.25
40
0.25
40
0.5
40
0.5
40
0.75
40
0.75
40
1
40
1
40
1
40
1
41
1
10
6.66339745962154
20
-19.0245744101322
30
0
41
1
10
6.67278813956517
20
-19.0356144845436
30
0
41
1
10
6.68402554771032
20
-19.0463346141653
30
0
41
1
10
6.71147628110015
20
-19.0670039094876
30
0
41
1
10
6.7277377534439
20
-19.0770249518319
30
0
41
1
10
6.76785100487527
20
-19.0956617404786
30
0
41
1
10
6.79175708052526
20
-19.1043106800553
30
0
41
1
10
6.84983063386522
20
-19.1176210455322
30
0
41
1
10
6.88568264759596
20
-19.1222825906926
30
0
41
1
10
6.92320508075687
20
-19.1222825906926
30
0
0
SPLINE
5
1FA
100
AcDbEntity
8
1
62
256
6
ByLayer
370
18
48
1
60
0
100
AcDbSpline
70
4
71
3
72
8
73
4
40
0
40
0
40
0
40
0
40
1
40
1
40
1
40
1
41
1
10
31.7135039853259
20
7.00671176731245
30
0
41
1
10
31.7644913391592
20
6.97777535227917
30
0
41
1
10
31.8155158459816
20
6.94836759518
30
0
41
1
10
31.8665982096623
20
6.9185121415197
30
0
0
SPLINE
5
1FB
100
AcDbEntity
8
1
62
256
6
ByLayer
370
18
48
1
60
0
100
AcDbSpline
70
4
71
3
72
44
73
40
40
0
40
0
40
0
40
0
40
0.25
40
0.25
40
0.375
40
0.375
40
0.500000000000001
40
0.500000000000001
40
0.562499999999998
40
0.562499999999998
40
0.624999999999994
40
0.624999999999994
40
0.687499999999991
40
0.687499999999991
40
0.718749999999993
40
0.718749999999993
40
0.734374999999993
40
0.734374999999993
40
0.749999999999994
40
0.749999999999994
40
0.757812499999995
40
0.757812499999995
40
0.765624999999996
40
0.765624999999996
40
0.773437499999998
40
0.773437499999998
40
0.781249999999999
40
0.781249999999999
40
0.796875000000001
40
0.796875000000001
40
0.812500000000004
40
0.812500000000004
40
0.843750000000003
40
0.843750000000003
40
0.875000000000002
40
0.875000000000002
40
0.937500000000001
40
0.937500000000001
40
1
40
1
40
1
40
1
41
1
10
75.6187398755105
20
4.69098000915324
30
0
41
1
10
75.0923218696099
20
4.66954780839754
30
0
41
1
10
74.5657847510967
20
4.65751387755759
30
0
41
1
10
73.7775367461489
20
4.66335956297374
30
0
41
1
10
73.5150530629324
20
4.66931483753899
30
0
41
1
10
72.9910975101359
20
4.69251569935929
30
0
41
1
10
72.729610417487
20
4.70958508815067
30
0
41
1
10
72.3387787024832
20
4.74904349848683
30
0
41
1
10
72.2087521696673
20
4.76454411822667
30
0
41
1
10
71.9507040961803
20
4.80228215362231
30
0
41
1
10
71.8225288078475
20
4.82441343631726
30
0
41
1
10
71.5691176832424
20
4.88026050484834
30
0
41
1
10
71.4433722538353
20
4.91335310853822
30
0
41
1
10
71.2642427293484
20
4.98320557065898
30
0
41
1
10
71.2053768416868
20
5.010028545404
30
0
41
1
10
71.1247237314881
20
5.06205824439311
30
0
41
1
10
71.099123529053
20
5.08138378359629
30
0
41
1
10
71.0541896229726
20
5.12732218112279
30
0
41
1
10
71.0349165796916
20
5.15407317921239
30
0
41
1
10
71.0201738209776
20
5.20058419425055
30
0
41
1
10
71.0177805451812
20
5.21724454999037
30
0
41
1
10
71.0190681304261
20
5.25030236656701
30
0
41
1
10
71.0227661868824
20
5.26720352258212
30
0
41
1
10
71.0347541066878
20
5.29902507924382
30
0
41
1
10
71.0430703049005
20
5.31429903936382
30
0
41
1
10
71.0620813127612
20
5.34258617244083
30
0
41
1
10
71.0728589844088
20
5.35582100055444
30
0
41
1
10
71.1078163652878
20
5.39365140500229
30
0
41
1
10
71.1336571126269
20
5.4155363247657
30
0
41
1
10
71.1875073417031
20
5.45582777268402
30
0
41
1
10
71.2156538757885
20
5.47419995923053
30
0
41
1
10
71.3023720000026
20
5.52599855963265
30
0
41
1
10
71.3620770980793
20
5.5555599666246
30
0
41
1
10
71.4826299859253
20
5.60957043336546
30
0
41
1
10
71.5436869092062
20
5.63395206922758
30
0
41
1
10
71.7283129844441
20
5.70215114167237
30
0
41
1
10
71.8534001739208
20
5.7411262928448
30
0
41
1
10
72.10526958278
20
5.81185104182217
30
0
41
1
10
72.2317887945476
20
5.84337561224262
30
0
41
1
10
72.3586983204791
20
5.87233844797692
30
0
0
SPLINE
5
1FC
100
AcDbEntity
8
1
62
256
6
ByLayer
370
18
48
1
60
0
100
AcDbSpline
70
4
71
3
72
8
73
4
40
0
40
0
40
0
40
0
40
1
40
1
40
1
40
1
41
1
10
34.4253954068477
20
-5.5205597551018
30
0
41
1
10
34.4253954068477
20
-5.38529856201228
30
0
41
1
10
34.4253954068477
20
-5.25003736892276
30
0
41
1
10
34.4253954068477
20
-5.11477617583324
30
0
0
SPLINE
5
1FD
100
AcDbEntity
8
1
62
256
6
ByLayer
370
18
48
1
60
0
100
AcDbSpline
70
4
71
3
72
8
73
4
40
0
40
0
40
0
40
0
40
1
40
1
40
1
40
1
41
1
10
35
20
-5.65087996385444
30
0
41
1
10
34.8089083978051
20
-5.5984571452735
30
0
41
1
10
34.6172639842748
20
-5.555067158225
30
0
41
1
10
34.4253954070317
20
-5.52055975513051
30
0
0
SPLINE
5
1FE
100
AcDbEntity
8
1
62
256
6
ByLayer
370
18
48
1
60
0
100
AcDbSpline
70
4
71
3
72
27
73
23
40
0
40
0
40
0
40
0
40
0.0624999999999969
40
0.0624999999999969
40
0.124999999999994
40
0.124999999999994
40
0.249999999999995
40
0.249999999999995
40
0.312499999999995
40
0.312499999999995
40
0.374999999999995
40
0.437499999999996
40
0.437499999999996
40
0.499999999999996
40
0.499999999999996
40
0.624999999999997
40
0.624999999999997
40
0.749999999999998
40
0.749999999999998
40
0.874999999999999
40
0.874999999999999
40
1
40
1
40
1
40
1
41
1
10
80.0422603082432
20
1.96724167034628
30
0
41
1
10
80.0833672343582
20
1.98060964249316
30
0
41
1
10
80.1222406596237
20
1.99441763202194
30
0
41
1
10
80.1954010159604
20
2.02293718681267
30
0
41
1
10
80.2297532246619
20
2.03769845942244
30
0
41
1
10
80.3234088475604
20
2.08230928219555
30
0
41
1
10
80.3743074719446
20
2.11279529978123
30
0
41
1
10
80.4333143744477
20
2.1596446842747
30
0
41
1
10
80.4501377760388
20
2.17554660133914
30
0
41
1
10
80.4771766624531
20
2.20712206105324
30
0
41
1
10
80.4977455011908
20
2.23850467672335
30
0
41
1
10
80.5056832349301
20
2.26951081396706
30
0
41
1
10
80.5072470259859
20
2.30032697163952
30
0
41
1
10
80.504810105335
20
2.31571555674969
30
0
41
1
10
80.4877543728344
20
2.36103961148766
30
0
41
1
10
80.4637827122574
20
2.38977664989113
30
0
41
1
10
80.3914209802277
20
2.44438474071581
30
0
41
1
10
80.3423002489484
20
2.47042472745702
30
0
41
1
10
80.2235076976703
20
2.51730523269353
30
0
41
1
10
80.1536646342339
20
2.53844278062067
30
0
41
1
10
79.992735485675
20
2.5760354413917
30
0
41
1
10
79.903317773984
20
2.59206105703222
30
0
41
1
10
79.8062541349436
20
2.60517968321494
30
0
0
SPLINE
5
1FF
100
AcDbEntity
8
1
62
256
6
ByLayer
370
18
48
1
60
0
100
AcDbSpline
70
4
71
3
72
14
73
10
40
0
40
0
40
0
40
0
40
0.25
40
0.25
40
0.5
40
0.5
40
0.75
40
0.75
40
1
40
1
40
1
40
1
41
1
10
9.0767949192431
20
-19.1222825906926
30
0
41
1
10
9.11436698667103
20
-19.1222825906926
30
0
41
1
10
9.14968727595803
20
-19.1177281115534
30
0
41
1
10
9.20863486580109
20
-19.1042242696216
30
0
41
1
10
9.23213528231517
20
-19.0956673725615
30
0
41
1
10
9.2722584598985
20
-19.0770274497584
30
0
41
1
10
9.28838045037784
20
-19.06709867989
30
0
41
1
10
9.31588453947558
20
-19.0464153092313
30
0
41
1
10
9.32720842156814
20
-19.0356185274185
30
0
41
1
10
9.33660254037844
20
-19.0245744101322
30
0
0
SPLINE
5
200
100
AcDbEntity
8
1
62
256
6
ByLayer
370
18
48
1
60
0
100
AcDbSpline
70
4
71
3
72
40
73
36
40
0
40
0
40
0
40
0
40
0.125
40
0.125
40
0.1875
40
0.1875
40
0.249999999999999
40
0.249999999999999
40
0.312499999999999
40
0.312499999999999
40
0.343749999999999
40
0.343749999999999
40
0.374999999999999
40
0.374999999999999
40
0.437499999999999
40
0.437499999999999
40
0.46875
40
0.46875
40
0.5
40
0.5
40
0.531250000000001
40
0.531250000000001
40
0.562500000000001
40
0.562500000000001
40
0.625000000000002
40
0.625000000000002
40
0.687500000000002
40
0.687500000000002
40
0.718750000000002
40
0.718750000000002
40
0.750000000000002
40
0.750000000000002
40
0.875000000000001
40
0.875000000000001
40
1
40
1
40
1
40
1
41
1
10
36.5566708328043
20
4.93445014659653
30
0
41
1
10
38.1962567284027
20
4.42256844107413
30
0
41
1
10
39.8325906823214
20
3.86153355670749
30
0
41
1
10
42.2911867436245
20
2.96765131883683
30
0
41
1
10
43.1118072596749
20
2.66080797018464
30
0
41
1
10
44.7534993969955
20
2.0321101622217
30
0
41
1
10
45.5727099017299
20
1.71098065163275
30
0
41
1
10
47.209761617978
20
1.05972374897777
30
0
41
1
10
48.0275937325987
20
0.729571584467749
30
0
41
1
10
49.2550254878803
20
0.23176454459022
30
0
41
1
10
49.6642848330707
20
0.0654035593127844
30
0
41
1
10
50.4833375704635
20
-0.267417821482695
30
0
41
1
10
50.893364569057
20
-0.433971923389976
30
0
41
1
10
52.1225602974827
20
-0.931794220555616
30
0
41
1
10
52.9408976092886
20
-1.26121331149605
30
0
41
1
10
54.1685739753371
20
-1.74717291661244
30
0
41
1
10
54.5778258315167
20
-1.90780536789771
30
0
41
1
10
55.396592201113
20
-2.22587536274773
30
0
41
1
10
55.8062406794758
20
-2.38299732369029
30
0
41
1
10
56.6254080178424
20
-2.6949788362617
30
0
41
1
10
57.0350080296697
20
-2.84963704511935
30
0
41
1
10
57.8551080629746
20
-3.15425186525917
30
0
41
1
10
58.2656677747785
20
-3.30450868462123
30
0
41
1
10
59.4961319547388
20
-3.74723994622991
30
0
41
1
10
60.3155411043487
20
-4.0319657936856
30
0
41
1
10
61.9539091730594
20
-4.57785741722358
30
0
41
1
10
62.7728693582957
20
-4.83900802341427
30
0
41
1
10
64.0022840026255
20
-5.21035300124998
30
0
41
1
10
64.4122508880761
20
-5.33074055915279
30
0
41
1
10
65.2326473115698
20
-5.56442202715778
30
0
41
1
10
65.6430486819155
20
-5.67770147632967
30
0
41
1
10
67.6908609305101
20
-6.22408358347715
30
0
41
1
10
69.3199591439542
20
-6.59801950671135
30
0
41
1
10
72.5816255981578
20
-7.18880375716398
30
0
41
1
10
74.2144773886868
20
-7.40599090107986
30
0
41
1
10
75.8566708327916
20
-7.53990025345183
30
0
0
SPLINE
5
201
100
AcDbEntity
8
1
62
256
6
ByLayer
370
18
48
1
60
0
100
AcDbSpline
70
4
71
3
72
14
73
10
40
0
40
0
40
0
40
0
40
0.25
40
0.25
40
0.5
40
0.5
40
0.75
40
0.75
40
1
40
1
40
1
40
1
41
1
10
9.33660254037844
20
-6.16973001948566
30
0
41
1
10
9.3272118604348
20
-6.13568757087461
30
0
41
1
10
9.31597445228965
20
-6.10231901184943
30
0
41
1
10
9.28852371889982
20
-6.03742672607427
30
0
41
1
10
9.27226224655607
20
-6.00567161829602
30
0
41
1
10
9.2321489951247
20
-5.94614793734939
30
0
41
1
10
9.20824291947471
20
-5.91826181931597
30
0
41
1
10
9.15016936613478
20
-5.87512340989326
30
0
41
1
10
9.11431735240402
20
-5.85988980456935
30
0
41
1
10
9.0767949192431
20
-5.85988980456935
30
0
0
SPLINE
5
202
100
AcDbEntity
8
1
62
256
6
ByLayer
370
18
48
1
60
0
100
AcDbSpline
70
4
71
3
72
18
73
14
40
0
40
0
40
0
40
0
40
0.125
40
0.125
40
0.25
40
0.25
40
0.375
40
0.375
40
0.5
40
0.5
40
0.75
40
0.75
40
1
40
1
40
1
40
1
41
1
10
35
20
5.57372649195392
30
0
41
1
10
34.8869971629796
20
5.6114025692859
30
0
41
1
10
34.7733431653065
20
5.64979584802859
30
0
41
1
10
34.5448453417562
20
5.72854102582178
30
0
41
1
10
34.4300422786878
20
5.76956759822727
30
0
41
1
10
34.1991338543409
20
5.84993564671683
30
0
41
1
10
34.0831555762445
20
5.89168228629273
30
0
41
1
10
33.8503209967789
20
5.9787800598539
30
0
41
1
10
33.7334098708608
20
6.02417129758044
30
0
41
1
10
33.3867411788997
20
6.16411206243001
30
0
41
1
10
33.1593172083224
20
6.26313453034666
30
0
41
1
10
32.711228271794
20
6.47231700437609
30
0
41
1
10
32.4905545106407
20
6.58246235556837
30
0
41
1
10
32.2724984230074
20
6.69704403850383
30
0
0
SPLINE
5
203
100
AcDbEntity
8
1
62
256
6
ByLayer
370
18
48
1
60
0
100
AcDbSpline
70
4
71
4
72
10
73
5
40
0
40
0
40
0
40
0
40
0
40
1
40
1
40
1
40
1
40
1
41
1
10
36.5566708328048
20
4.9344501465965
30
0
41
1
10
36.556670832805
20
4.44498241790905
30
0
41
1
10
36.5566708328054
20
3.95551468922153
30
0
41
1
10
36.5566708328059
20
3.46604696053396
30
0
41
1
10
36.5566708328067
20
2.9765792318463
30
0
0
SPLINE
5
204
100
AcDbEntity
8
1
62
256
6
ByLayer
370
18
48
1
60
0
100
AcDbSpline
70
4
71
3
72
10
73
6
40
0
40
0
40
0
40
0
40
0.5
40
0.5
40
1
40
1
40
1
40
1
41
1
10
28.4808803717608
20
0.468365935628668
30
0
41
1
10
29.0017299680436
20
-0.110169427829902
30
0
41
1
10
29.5225766416257
20
-0.687567617845133
30
0
41
1
10
30.5587575201521
20
-1.83819563831742
30
0
41
1
10
31.0740619435063
20
-2.41143002852309
30
0
41
1
10
31.5845322043611
20
-2.98059815169776
30
0
0
SPLINE
5
205
100
AcDbEntity
8
1
62
256
6
ByLayer
370
18
48
1
60
0
100
AcDbSpline
70
4
71
3
72
8
73
4
40
0
40
0
40
0
40
0
40
1
40
1
40
1
40
1
41
1
10
78.8376661273327
20
-7.67912246096037
30
0
41
1
10
79.1820722652683
20
-7.68670596717834
30
0
41
1
10
79.5094216240349
20
-7.6954139929104
30
0
41
1
10
79.8196858690386
20
-7.6987224829553
30
0
0
SPLINE
5
206
100
AcDbEntity
8
1
62
256
6
ByLayer
370
18
48
1
60
0
100
AcDbSpline
70
4
71
3
72
14
73
10
40
0
40
0
40
0
40
0
40
0.25
40
0.25
40
0.5
40
0.5
40
0.75
40
0.75
40
1
40
1
40
1
40
1
41
1
10
9.33660254037846
20
19.0245744101322
30
0
41
1
10
9.32721186043483
20
19.0356144845436
30
0
41
1
10
9.31597445228968
20
19.0463346141653
30
0
41
1
10
9.28852371889985
20
19.0670039094876
30
0
41
1
10
9.2722622465561
20
19.0770249518318
30
0
41
1
10
9.23214899512473
20
19.0956617404786
30
0
41
1
10
9.20824291947474
20
19.1043106800553
30
0
41
1
10
9.1501693661348
20
19.1176210455321
30
0
41
1
10
9.11431735240404
20
19.1222825906926
30
0
41
1
10
9.07679491924313
20
19.1222825906926
30
0
0
SPLINE
5
207
100
AcDbEntity
8
1
62
256
6
ByLayer
370
18
48
1
60
0
100
AcDbSpline
70
4
71
3
72
22
73
18
40
0
40
0
40
0
40
0
40
0.125
40
0.125
40
0.25
40
0.25
40
0.375
40
0.375
40
0.5
40
0.5
40
0.625
40
0.625
40
0.75
40
0.75
40
0.875
40
0.875
40
1
40
1
40
1
40
1
41
1
10
80.7500620967844
20
2.63667656595709
30
0
41
1
10
80.7551951626634
20
2.63667656595712
30
0
41
1
10
80.7499621848979
20
2.6427856476983
30
0
41
1
10
80.7243676801241
20
2.66546277379916
30
0
41
1
10
80.7048746557658
20
2.6814591918245
30
0
41
1
10
80.6589277049787
20
2.72140970009127
30
0
41
1
10
80.6325586669584
20
2.74530548551664
30
0
41
1
10
80.5779979771671
20
2.79926943169343
30
0
41
1
10
80.5495341911664
20
2.82953185697136
30
0
41
1
10
80.4919149100209
20
2.89730760624528
30
0
41
1
10
80.4629103809714
20
2.93469992858334
30
0
41
1
10
80.4072145974397
20
3.0150168537171
30
0
41
1
10
80.3802736228799
20
3.05819997929686
30
0
41
1
10
80.3290175676241
20
3.15172978993087
30
0
41
1
10
80.3047982639987
20
3.20211111656113
30
0
41
1
10
80.262012979549
20
3.30595321021343
30
0
41
1
10
80.2431105131159
20
3.35996979672845
30
0
41
1
10
80.2269422100272
20
3.41638253541907
30
0
0
SPLINE
5
208
100
AcDbEntity
8
1
62
256
6
ByLayer
370
18
48
1
60
0
100
AcDbSpline
70
4
71
3
72
10
73
6
40
0
40
0
40
0
40
0
40
0.5
40
0.5
40
1
40
1
40
1
40
1
41
1
10
77.543509180224
20
2.79138628323076
30
0
41
1
10
77.7644945479529
20
2.72208251910584
30
0
41
1
10
77.992187996824
20
2.66897983267521
30
0
41
1
10
78.4637133411583
20
2.59671872338117
30
0
41
1
10
78.7075890160386
20
2.57756176959035
30
0
41
1
10
78.9602509237729
20
2.57781005667957
30
0
0
SPLINE
5
209
100
AcDbEntity
8
1
62
256
6
ByLayer
370
18
48
1
60
0
100
AcDbSpline
70
4
71
3
72
8
73
4
40
0
40
0
40
0
40
0
40
1
40
1
40
1
40
1
41
1
10
75.6187398755134
20
4.69098000915307
30
0
41
1
10
75.6187398755134
20
4.57065333943535
30
0
41
1
10
75.6187398755134
20
4.45032666971764
30
0
41
1
10
75.6187398755134
20
4.3299999999999
30
0
0
SPLINE
5
20A
100
AcDbEntity
8
1
62
256
6
ByLayer
370
18
48
1
60
0
100
AcDbSpline
70
4
71
3
72
14
73
10
40
0
40
0
40
0
40
0
40
0.25
40
0.25
40
0.5
40
0.5
40
0.75
40
0.75
40
1
40
1
40
1
40
1
41
1
10
9.07679491924313
20
5.85988980456935
30
0
41
1
10
9.11436698667106
20
5.85988980456932
30
0
41
1
10
9.14968727595806
20
5.87477627667431
30
0
41
1
10
9.20863486580112
20
5.91854200832057
30
0
41
1
10
9.2321352823152
20
5.9461298781217
30
0
41
1
10
9.27225845989852
20
6.00566371121198
30
0
41
1
10
9.28838045037787
20
6.0371275598302
30
0
41
1
10
9.31588453947563
20
6.1020672817173
30
0
41
1
10
9.32720842156817
20
6.13567510453109
30
0
41
1
10
9.33660254037846
20
6.16973001948563
30
0
0
SPLINE
5
20B
100
AcDbEntity
8
1
62
256
6
ByLayer
370
18
48
1
60
0
100
AcDbSpline
70
4
71
3
72
14
73
10
40
0
40
0
40
0
40
0
40
0.25
40
0.25
40
0.5
40
0.5
40
0.75
40
0.75
40
1
40
1
40
1
40
1
41
1
10
6.92320508075693
20
19.1222825906925
30
0
41
1
10
6.88563301332897
20
19.1222825906926
30
0
41
1
10
6.850312724042
20
19.1177281115534
30
0
41
1
10
6.79136513419891
20
19.1042242696216
30
0
41
1
10
6.76786471768483
20
19.0956673725615
30
0
41
1
10
6.7277415401015
20
19.0770274497583
30
0
41
1
10
6.71161954962218
20
19.06709867989
30
0
41
1
10
6.68411546052442
20
19.0464153092313
30
0
41
1
10
6.67279157843186
20
19.0356185274184
30
0
41
1
10
6.66339745962156
20
19.0245744101322
30
0
0
SPLINE
5
20C
100
AcDbEntity
8
1
62
256
6
ByLayer
370
18
48
1
60
0
100
AcDbSpline
70
4
71
3
72
12
73
8
40
0
40
0
40
0
40
0
40
0.250000000000005
40
0.250000000000005
40
0.500000000000011
40
0.500000000000011
40
1
40
1
40
1
40
1
41
1
10
76.8377730251892
20
3.69542615950357
30
0
41
1
10
76.8063567137821
20
3.75215306728572
30
0
41
1
10
76.7724267269928
20
3.80909845292822
30
0
41
1
10
76.699951599463
20
3.92097443888801
30
0
41
1
10
76.6614114502204
20
3.97594380787507
30
0
41
1
10
76.5379070768497
20
4.1367188261971
30
0
41
1
10
76.4453242485079
20
4.23863710432065
30
0
41
1
10
76.3377144543829
20
4.33000000000061
30
0
0
SPLINE
5
20D
100
AcDbEntity
8
1
62
256
6
ByLayer
370
18
48
1
60
0
100
AcDbSpline
70
4
71
3
72
12
73
8
40
0
40
0
40
0
40
0
40
0.499999999999991
40
0.499999999999991
40
0.749999999999996
40
0.749999999999996
40
1
40
1
40
1
40
1
41
1
10
78.6899193690624
20
0.971665443823014
30
0
41
1
10
78.2944615471295
20
0.947868096961372
30
0
41
1
10
77.904244193363
20
0.973582011460309
30
0
41
1
10
77.3267635153604
20
1.08596715518976
30
0
41
1
10
77.1345501966662
20
1.13630167977041
30
0
41
1
10
76.760351521774
20
1.26101081351195
30
0
41
1
10
76.577928731853
20
1.33531303341925
30
0
41
1
10
76.400327609901
20
1.42175510085241
30
0
0
SPLINE
5
20E
100
AcDbEntity
8
1
62
256
6
ByLayer
370
18
48
1
60
0
100
AcDbSpline
70
4
71
3
72
10
73
6
40
0
40
0
40
0
40
0
40
0.5
40
0.5
40
1
40
1
40
1
40
1
41
1
10
77.0308825794329
20
3.09949536197433
30
0
41
1
10
77.0465244908705
20
3.07504059047932
30
0
41
1
10
77.0628997079507
20
3.05219115148552
30
0
41
1
10
77.0971651783734
20
3.00978273700352
30
0
41
1
10
77.115163483677
20
2.99013356832498
30
0
41
1
10
77.1336075690292
20
2.97256304688929
30
0
0
SPLINE
5
20F
100
AcDbEntity
8
1
62
256
6
ByLayer
370
18
48
1
60
0
100
AcDbSpline
70
4
71
3
72
12
73
8
40
0
40
0
40
0
40
0
40
0.25
40
0.25
40
0.5
40
0.5
40
1
40
1
40
1
40
1
41
1
10
82.2905979731761
20
2.66501795349504
30
0
41
1
10
82.2936686254875
20
2.66501795349504
30
0
41
1
10
82.3017054079418
20
2.66832436796318
30
0
41
1
10
82.3254075129242
20
2.68058279344027
30
0
41
1
10
82.3406616046563
20
2.68932242421158
30
0
41
1
10
82.3929018025764
20
2.72198694842828
30
0
41
1
10
82.4344615061528
20
2.75121686119041
30
0
41
1
10
82.4774049827205
20
2.7863942193942
30
0
0
SPLINE
5
210
100
AcDbEntity
8
1
62
256
6
ByLayer
370
18
48
1
60
0
100
AcDbSpline
70
4
71
3
72
8
73
4
40
0
40
0
40
0
40
0
40
1
40
1
40
1
40
1
41
1
10
71.9980823699095
20
3.92980905487681
30
0
41
1
10
71.6090942368408
20
4.05993104070956
30
0
41
1
10
71.2152456859485
20
4.20256558729614
30
0
41
1
10
70.818093978524
20
4.35370371285205
30
0
0
SPLINE
5
211
100
AcDbEntity
8
1
62
256
6
ByLayer
370
18
48
1
60
0
100
AcDbSpline
70
4
71
3
72
12
73
8
40
0
40
0
40
0
40
0
40
0.25
40
0.25
40
0.5
40
0.5
40
1
40
1
40
1
40
1
41
1
10
77.7289944178012
20
1.66642354796855
30
0
41
1
10
77.6241838993373
20
1.68155767533773
30
0
41
1
10
77.5217012779788
20
1.6978196298478
30
0
41
1
10
77.3200041339777
20
1.73377568439079
30
0
41
1
10
77.2208025523636
20
1.75346189239579
30
0
41
1
10
76.9269982908238
20
1.81878952211201
30
0
41
1
10
76.7361263808652
20
1.87072469376469
30
0
41
1
10
76.5489515772834
20
1.93305256350556
30
0
0
SPLINE
5
212
100
AcDbEntity
8
1
62
256
6
ByLayer
370
18
48
1
60
0
100
AcDbSpline
70
4
71
3
72
12
73
8
40
0
40
0
40
0
40
0
40
0.5
40
0.5
40
0.75
40
0.75
40
1
40
1
40
1
40
1
41
1
10
28.4808800388131
20
0.468364588776609
30
0
41
1
10
28.3366656378244
20
0.635638828661769
30
0
41
1
10
28.1972189616816
20
0.8182825195276
30
0
41
1
10
27.9939961937193
20
1.11440399431942
30
0
41
1
10
27.9272571424687
20
1.21683339712703
30
0
41
1
10
27.7957015928837
20
1.42935595649288
30
0
41
1
10
27.7310602009178
20
1.53920937705252
30
0
41
1
10
27.6682961882058
20
1.65135893044851
30
0
0
SPLINE
5
213
100
AcDbEntity
8
1
62
256
6
ByLayer
370
18
48
1
60
0
100
AcDbSpline
70
4
71
2
72
6
73
3
40
0
40
0
40
0
40
1
40
1
40
1
41
1
10
31.5845322043612
20
-4.35382715922933
30
0
41
1
10
31.5845322043612
20
-3.66721265546354
30
0
41
1
10
31.5845322043612
20
-2.98059815169776
30
0
0
SPLINE
5
214
100
AcDbEntity
8
1
62
256
6
ByLayer
370
18
48
1
60
0
100
AcDbSpline
70
4
71
3
72
8
73
4
40
0
40
0
40
0
40
0
40
1
40
1
40
1
40
1
41
1
10
32.2724984230074
20
6.69704403850383
30
0
41
1
10
32.1357255917117
20
6.76960039150697
30
0
41
1
10
32.0005632590142
20
6.84352810276317
30
0
41
1
10
31.8665980906027
20
6.91851123135629
30
0
0
SPLINE
5
215
100
AcDbEntity
8
1
62
256
6
ByLayer
370
18
48
1
60
0
100
AcDbSpline
70
4
71
3
72
8
73
4
40
0
40
0
40
0
40
0
40
1
40
1
40
1
40
1
41
1
10
79.1279471086179
20
2.58085355502027
30
0
41
1
10
79.3661800320319
20
2.58928182997076
30
0
41
1
10
79.5922755815231
20
2.59739036042558
30
0
41
1
10
79.8062541349429
20
2.60517968321469
30
0
0
SPLINE
5
216
100
AcDbEntity
8
1
62
256
6
ByLayer
370
18
48
1
60
0
100
AcDbSpline
70
4
71
3
72
12
73
8
40
0
40
0
40
0
40
0
40
0.5
40
0.5
40
0.75
40
0.75
40
1
40
1
40
1
40
1
41
1
10
31.5845322043612
20
-2.98059815169782
30
0
41
1
10
31.7559072927484
20
-3.20417752522909
30
0
41
1
10
31.9638017815774
20
-3.43734834952798
30
0
41
1
10
32.3212825730538
20
-3.81059436171967
30
0
41
1
10
32.4488357253022
20
-3.93939149785018
30
0
41
1
10
32.7130535831334
20
-4.19830896321989
30
0
41
1
10
32.8501965370584
20
-4.32894906202682
30
0
41
1
10
32.9922476597075
20
-4.46012426411104
30
0
0
SPLINE
5
217
100
AcDbEntity
8
1
62
256
6
ByLayer
370
18
48
1
60
0
100
AcDbSpline
70
4
71
3
72
8
73
4
40
0
40
0
40
0
40
0
40
1
40
1
40
1
40
1
41
1
10
78.3113974522115
20
1.63176124059618
30
0
41
1
10
78.1203678220579
20
1.62645678707267
30
0
41
1
10
77.9257342302955
20
1.63801527917528
30
0
41
1
10
77.7289944178012
20
1.66642354796849
30
0
0
SPLINE
5
218
100
AcDbEntity
8
1
62
256
6
ByLayer
370
18
48
1
60
0
100
AcDbSpline
70
4
71
3
72
12
73
8
40
0
40
0
40
0
40
0
40
0.49999999999998
40
0.49999999999998
40
0.74999999999999
40
0.74999999999999
40
1
40
1
40
1
40
1
41
1
10
76.3377144544251
20
4.3299999999999
30
0
41
1
10
76.235226595945
20
4.41701426853285
30
0
41
1
10
76.1275802672465
20
4.49891932882818
30
0
41
1
10
75.9484700930813
20
4.59901343137571
30
0
41
1
10
75.8859067645631
20
4.62811466123259
30
0
41
1
10
75.7565262865102
20
4.67153016179842
30
0
41
1
10
75.6892848644575
20
4.68600970179597
30
0
41
1
10
75.6187398754662
20
4.69098000915395
30
0
0
SPLINE
5
219
100
AcDbEntity
8
1
62
256
6
ByLayer
370
18
48
1
60
0
100
AcDbSpline
70
4
71
3
72
14
73
10
40
0
40
0
40
0
40
0
40
0.25
40
0.25
40
0.5
40
0.5
40
0.75
40
0.75
40
1
40
1
40
1
40
1
41
1
10
26.4157853790299
20
4.23974885766751
30
0
41
1
10
26.3782499043495
20
4.40216776287067
30
0
41
1
10
26.3499044913486
20
4.56424856630358
30
0
41
1
10
26.3112027115342
20
4.88507677794647
30
0
41
1
10
26.3008661581056
20
5.04382840456432
30
0
41
1
10
26.2992376665026
20
5.3569614546135
30
0
41
1
10
26.3079626797489
20
5.51132598301123
30
0
41
1
10
26.3463967113235
20
5.81645824112312
30
0
41
1
10
26.375917849936
20
5.96527577129268
30
0
41
1
10
26.415785379029
20
6.11161856620177
30
0
0
SPLINE
5
21A
100
AcDbEntity
8
1
62
256
6
ByLayer
370
18
48
1
60
0
100
AcDbSpline
70
4
71
3
72
10
73
6
40
0
40
0
40
0
40
0
40
0.5
40
0.5
40
1
40
1
40
1
40
1
41
1
10
77.1336075690294
20
2.97256304688926
30
0
41
1
10
77.1946419426308
20
2.93449674258883
30
0
41
1
10
77.2598122640176
20
2.90104593857615
30
0
41
1
10
77.3969650042106
20
2.84115982871847
30
0
41
1
10
77.469297210379
20
2.81466008142945
30
0
41
1
10
77.5435091802247
20
2.79138628323054
30
0
0
SPLINE
5
21B
100
AcDbEntity
8
1
62
256
6
ByLayer
370
18
48
1
60
0
100
AcDbSpline
70
4
71
3
72
14
73
10
40
0
40
0
40
0
40
0
40
0.25
40
0.25
40
0.5
40
0.5
40
0.75
40
0.75
40
1
40
1
40
1
40
1
41
1
10
6.92320508075687
20
-5.85988980456935
30
0
41
1
10
6.88563301332894
20
-5.85988980456935
30
0
41
1
10
6.85031272404197
20
-5.87477627667434
30
0
41
1
10
6.79136513419888
20
-5.9185420083206
30
0
41
1
10
6.7678647176848
20
-5.94612987812172
30
0
41
1
10
6.72774154010148
20
-6.00566371121201
30
0
41
1
10
6.71161954962216
20
-6.03712755983022
30
0
41
1
10
6.6841154605244
20
-6.10206728171732
30
0
41
1
10
6.67279157843183
20
-6.13567510453112
30
0
41
1
10
6.66339745962154
20
-6.16973001948568
30
0
0
SPLINE
5
21C
100
AcDbEntity
8
1
62
256
6
ByLayer
370
18
48
1
60
0
100
AcDbSpline
70
4
71
3
72
8
73
4
40
0
40
0
40
0
40
0
40
1
40
1
40
1
40
1
41
1
10
26.9
20
2.94137058497941
30
0
41
1
10
27.0734245331407
20
2.60625993271748
30
0
41
1
10
27.274287357283
20
2.28431393926923
30
0
41
1
10
27.4938286027945
20
1.96936990186703
30
0
0
SPLINE
5
21D
100
AcDbEntity
8
1
62
256
6
ByLayer
370
18
48
1
60
0
100
AcDbSpline
70
4
71
3
72
22
73
18
40
0
40
0
40
0
40
0
40
0.249999999999999
40
0.249999999999999
40
0.374999999999998
40
0.374999999999998
40
0.499999999999997
40
0.499999999999997
40
0.624999999999997
40
0.624999999999997
40
0.749999999999996
40
0.749999999999996
40
0.874999999999996
40
0.874999999999996
40
0.937499999999998
40
0.937499999999998
40
1
40
1
40
1
40
1
41
1
10
31.5845322043611
20
-4.3538271592293
30
0
41
1
10
31.7238850864992
20
-4.56265886789876
30
0
41
1
10
31.8909584526242
20
-4.72721855221337
30
0
41
1
10
32.1831298570899
20
-4.92642685059641
30
0
41
1
10
32.2878922989482
20
-4.98504728417072
30
0
41
1
10
32.5099802195599
20
-5.08864272892316
30
0
41
1
10
32.6260418769737
20
-5.13314618963261
30
0
41
1
10
32.8681645054518
20
-5.21212838440914
30
0
41
1
10
32.9942259199766
20
-5.2465969089692
30
0
41
1
10
33.2567077952427
20
-5.30947600229322
30
0
41
1
10
33.3937264488431
20
-5.33799075095502
30
0
41
1
10
33.6756310156071
20
-5.39199338624863
30
0
41
1
10
33.8202652284201
20
-5.41747080270315
30
0
41
1
10
34.0428859823831
20
-5.45587497051915
30
0
41
1
10
34.1180395259596
20
-5.46870256581829
30
0
41
1
10
34.2702852750277
20
-5.49476605784946
30
0
41
1
10
34.3474196285209
20
-5.50859104345366
30
0
41
1
10
34.4253954068478
20
-5.5205597551018
30
0
0
SPLINE
5
21E
100
AcDbEntity
8
1
62
256
6
ByLayer
370
18
48
1
60
0
100
AcDbSpline
70
4
71
3
72
14
73
10
40
0
40
0
40
0
40
0
40
0.25
40
0.25
40
0.5
40
0.5
40
0.75
40
0.75
40
1
40
1
40
1
40
1
41
1
10
6.66339745962156
20
6.16973001948566
30
0
41
1
10
6.6727881395652
20
6.13568757087461
30
0
41
1
10
6.68402554771035
20
6.10231901184943
30
0
41
1
10
6.71147628110018
20
6.03742672607427
30
0
41
1
10
6.72773775344393
20
6.00567161829602
30
0
41
1
10
6.7678510048753
20
5.94614793734937
30
0
41
1
10
6.79175708052529
20
5.91826181931594
30
0
41
1
10
6.84983063386525
20
5.87512340989323
30
0
41
1
10
6.88568264759598
20
5.85988980456932
30
0
41
1
10
6.9232050807569
20
5.85988980456932
30
0
0
SPLINE
5
21F
100
AcDbEntity
8
1
62
256
6
ByLayer
370
18
48
1
60
0
100
AcDbSpline
70
4
71
3
72
8
73
4
40
0
40
0
40
0
40
0
40
1
40
1
40
1
40
1
41
1
10
78.8973734039368
20
1.68535061531026
30
0
41
1
10
78.7044535869006
20
1.65542372396573
30
0
41
1
10
78.509111633385
20
1.63725130872953
30
0
41
1
10
78.3113974522145
20
1.63176124059635
30
0
0
SPLINE
5
220
100
AcDbEntity
8
1
62
256
6
ByLayer
370
18
48
1
60
0
100
AcDbSpline
70
4
71
3
72
8
73
4
40
0
40
0
40
0
40
0
40
1
40
1
40
1
40
1
41
1
10
35
20
5.57372649195392
30
0
41
1
10
35.5372830925927
20
5.39459188012071
30
0
41
1
10
36.0542234579918
20
5.18138007320297
30
0
41
1
10
36.556670832804
20
4.93445014659665
30
0
0
SPLINE
5
221
100
AcDbEntity
8
1
62
256
6
ByLayer
370
18
48
1
60
0
100
AcDbSpline
70
4
71
3
72
8
73
4
40
0
40
0
40
0
40
0
40
1
40
1
40
1
40
1
41
1
10
75.856670832754
20
-7.53990025344979
30
0
41
1
10
76.2229233152245
20
-7.55986591032922
30
0
41
1
10
76.569163283902
20
-7.58715146194902
30
0
41
1
10
76.8963214966342
20
-7.61445235815654
30
0
0
SPLINE
5
222
100
AcDbEntity
8
1
62
256
6
ByLayer
370
18
48
1
60
0
100
AcDbSpline
70
4
71
3
72
8
73
4
40
0
40
0
40
0
40
0
40
1
40
1
40
1
40
1
41
1
10
27.484532204361
20
1.98668827159557
30
0
41
1
10
27.5450162352212
20
1.87388111297585
30
0
41
1
10
27.6062977137322
20
1.76214058578108
30
0
41
1
10
27.6682961882065
20
1.65135893044882
30
0
0
SPLINE
5
223
100
AcDbEntity
8
1
62
256
6
ByLayer
370
18
48
1
60
0
100
AcDbSpline
70
4
71
3
72
14
73
10
40
0
40
0
40
0
40
0
40
0.25
40
0.25
40
0.5
40
0.5
40
0.75
40
0.75
40
1
40
1
40
1
40
1
41
1
10
76.8377730251892
20
3.69542615950357
30
0
41
1
10
76.8422749083775
20
3.63543418740582
30
0
41
1
10
76.8512146843635
20
3.57658211211401
30
0
41
1
10
76.8748148256954
20
3.46578742381479
30
0
41
1
10
76.8895001644518
20
3.41327186324122
30
0
41
1
10
76.9234183696842
20
3.31324589098182
30
0
41
1
10
76.9427750124204
20
3.26560822763827
30
0
41
1
10
76.9844722442796
20
3.17764243841407
30
0
41
1
10
77.006919815194
20
3.13695906493618
30
0
41
1
10
77.0308825794329
20
3.09949536197433
30
0
0
SPLINE
5
224
100
AcDbEntity
8
1
62
256
6
ByLayer
370
18
48
1
60
0
100
AcDbSpline
70
4
71
3
72
20
73
16
40
0
40
0
40
0
40
0
40
0.250000000000008
40
0.250000000000008
40
0.375000000000009
40
0.375000000000009
40
0.50000000000001
40
0.50000000000001
40
0.56250000000001
40
0.56250000000001
40
0.62500000000001
40
0.62500000000001
40
0.750000000000011
40
0.750000000000011
40
1
40
1
40
1
40
1
41
1
10
74.7969200590433
20
7.6523100622463
30
0
41
1
10
74.7038848421484
20
7.39571037979567
30
0
41
1
10
74.5854092077083
20
7.15347244744407
30
0
41
1
10
74.3391658320296
20
6.82880239992079
30
0
41
1
10
74.2481709232953
20
6.73073255962709
30
0
41
1
10
74.0506259664775
20
6.55495686903805
30
0
41
1
10
73.9439271790002
20
6.47696234171823
30
0
41
1
10
73.7740024603227
20
6.37229806973284
30
0
41
1
10
73.715734655725
20
6.33948984588736
30
0
41
1
10
73.598371039952
20
6.27842935067343
30
0
41
1
10
73.5390092647497
20
6.25000494966986
30
0
41
1
10
73.3592624109142
20
6.16987746983611
30
0
41
1
10
73.237234846492
20
6.12326114008866
30
0
41
1
10
72.8667549089132
20
5.99703033775512
30
0
41
1
10
72.6140415800677
20
5.93061196865276
30
0
41
1
10
72.3586983204791
20
5.87233844797694
30
0
0
SPLINE
5
225
100
AcDbEntity
8
1
62
256
6
ByLayer
370
18
48
1
60
0
100
AcDbSpline
70
4
71
3
72
10
73
6
40
0
40
0
40
0
40
0
40
0.5
40
0.5
40
1
40
1
40
1
40
1
41
1
10
26.4157853790299
20
4.23974885766751
30
0
41
1
10
26.4669373829803
20
4.01841017602496
30
0
41
1
10
26.5336128257671
20
3.79956580573517
30
0
41
1
10
26.6954560996196
20
3.3667110541929
30
0
41
1
10
26.7906339434264
20
3.15270014654706
30
0
41
1
10
26.9
20
2.94137058497944
30
0
0
SPLINE
5
226
100
AcDbEntity
8
1
62
256
6
ByLayer
370
18
48
1
60
0
100
AcDbSpline
70
4
71
3
72
26
73
22
40
0
40
0
40
0
40
0
40
0.125000000000002
40
0.125000000000002
40
0.250000000000002
40
0.250000000000002
40
0.375000000000002
40
0.375000000000002
40
0.500000000000003
40
0.500000000000003
40
0.562500000000003
40
0.562500000000003
40
0.625000000000003
40
0.625000000000003
40
0.750000000000001
40
0.750000000000001
40
0.812500000000001
40
0.812500000000001
40
0.875000000000001
40
0.875000000000001
40
1
40
1
40
1
40
1
41
1
10
31.7135039853259
20
7.00671176731245
30
0
41
1
10
31.4916633201502
20
7.13261109481581
30
0
41
1
10
31.2747589664139
20
7.25088959940695
30
0
41
1
10
30.8453949523068
20
7.47044830540611
30
0
41
1
10
30.6329464864349
20
7.57171031462326
30
0
41
1
10
30.2073864200296
20
7.75202871782602
30
0
41
1
10
29.9940231572141
20
7.83120602360461
30
0
41
1
10
29.5624922479849
20
7.95817797228679
30
0
41
1
10
29.348486073839
20
8.00468859792656
30
0
41
1
10
29.0280993033371
20
8.04217724795564
30
0
41
1
10
28.9214207640873
20
8.04927119485151
30
0
41
1
10
28.7081320225126
20
8.05118092908657
30
0
41
1
10
28.600928020106
20
8.04589585501174
30
0
41
1
10
28.2854245404751
20
8.00985819632743
30
0
41
1
10
28.0824286137587
20
7.95926950949766
30
0
41
1
10
27.7909321976752
20
7.84059747297278
30
0
41
1
10
27.695332778594
20
7.7934946373652
30
0
41
1
10
27.5130696281541
20
7.68688908021844
30
0
41
1
10
27.4262455429265
20
7.6274639729335
30
0
41
1
10
27.1785681096958
20
7.43208941423129
30
0
41
1
10
27.0304140919037
20
7.27916989118529
30
0
41
1
10
26.9
20
7.10549675095822
30
0
0
SPLINE
5
227
100
AcDbEntity
8
1
62
256
6
ByLayer
370
18
48
1
60
0
100
AcDbSpline
70
4
71
3
72
8
73
4
40
0
40
0
40
0
40
0
40
1
40
1
40
1
40
1
41
1
10
26.9
20
7.1054967509582
30
0
41
1
10
26.6758608716133
20
6.80700948085993
30
0
41
1
10
26.5153495955213
20
6.47709157257523
30
0
41
1
10
26.4157853790299
20
6.11161856620154
30
0
0
SPLINE
5
228
100
AcDbEntity
8
1
62
256
6
ByLayer
370
18
48
1
60
0
100
AcDbSpline
70
4
71
3
72
8
73
4
40
0
40
0
40
0
40
0
40
1
40
1
40
1
40
1
41
1
10
78.960250923772
20
2.57781005667957
30
0
41
1
10
79.0161988335051
20
2.57786503585621
30
0
41
1
10
79.072098210626
20
2.57887771615935
30
0
41
1
10
79.1279471086179
20
2.58085355502027
30
0
0
SPLINE
5
229
100
AcDbEntity
8
SK1
62
256
6
ByLayer
370
18
48
1
60
0
100
AcDbSpline
70
4
71
3
72
8
73
4
40
0
40
0
40
0
40
0
40
1
40
1
40
1
40
1
41
1
10
-1.30710678118655
20
-3.5887172715492
30
0
41
1
10
-1.37540888210663
20
-3.25160142453237
30
0
41
1
10
-1.44078730620282
20
-2.90751932877146
30
0
41
1
10
-1.49999999999989
20
-2.55452633951475
30
0
0
SPLINE
5
22A
100
AcDbEntity
8
SK1
62
256
6
ByLayer
370
18
48
1
60
0
100
AcDbSpline
70
4
71
3
72
26
73
22
40
0
40
0
40
0
40
0
40
0.25
40
0.25
40
0.499999999999999
40
0.499999999999999
40
0.624999999999999
40
0.624999999999999
40
0.749999999999999
40
0.749999999999999
40
0.812499999999999
40
0.812499999999999
40
0.843749999999999
40
0.843749999999999
40
0.874999999999999
40
0.874999999999999
40
0.90625
40
0.90625
40
0.9375
40
0.9375
40
1
40
1
40
1
40
1
41
1
10
-1.30710678118675
20
-3.58871727154821
30
0
41
1
10
-1.2770410479724
20
-3.73711146414564
30
0
41
1
10
-1.24290752413313
20
-3.88311142945619
30
0
41
1
10
-1.16210117950382
20
-4.16971195256144
30
0
41
1
10
-1.11567257229956
20
-4.31079630719424
30
0
41
1
10
-1.02833804242206
20
-4.51460953007248
30
0
41
1
10
-0.996091765097134
20
-4.58154434196089
30
0
41
1
10
-0.92170556029248
20
-4.70963530812213
30
0
41
1
10
-0.880235112913937
20
-4.77112026309476
30
0
41
1
10
-0.800265069156637
20
-4.85374621074735
30
0
41
1
10
-0.770443849397282
20
-4.87963350079767
30
0
41
1
10
-0.719001618424358
20
-4.91087235041408
30
0
41
1
10
-0.700626848346559
20
-4.92000200725136
30
0
41
1
10
-0.662017238182784
20
-4.9339055463663
30
0
41
1
10
-0.641280119564868
20
-4.93876771710427
30
0
41
1
10
-0.599568848505072
20
-4.9425262217311
30
0
41
1
10
-0.578082049698907
20
-4.94143807412283
30
0
41
1
10
-0.537045222159946
20
-4.93374887482733
30
0
41
1
10
-0.517080767182222
20
-4.92714534439065
30
0
41
1
10
-0.461393647242801
20
-4.90206528999568
30
0
41
1
10
-0.429024530142669
20
-4.87851306287462
30
0
41
1
10
-0.39999999999992
20
-4.85227456455002
30
0
0
SPLINE
5
22B
100
AcDbEntity
8
SK1
62
256
6
ByLayer
370
18
48
1
60
0
100
AcDbSpline
70
4
71
3
72
8
73
4
40
0
40
0
40
0
40
0
40
1
40
1
40
1
40
1
41
1
10
-1.50000000000063
20
2.55452876951017
30
0
41
1
10
-1.44078675385307
20
2.90752061837338
30
0
41
1
10
-1.37540853169585
20
3.2516020134309
30
0
41
1
10
-1.30710678118652
20
3.58871725126212
30
0
0
SPLINE
5
22C
100
AcDbEntity
8
SK1
62
256
6
ByLayer
370
18
48
1
60
0
100
AcDbSpline
70
4
71
3
72
24
73
20
40
0
40
0
40
0
40
0
40
0.0625000000000002
40
0.0625000000000002
40
0.125
40
0.125
40
0.187500000000001
40
0.187500000000001
40
0.250000000000001
40
0.250000000000001
40
0.312500000000001
40
0.312500000000001
40
0.375000000000001
40
0.375000000000001
40
0.5
40
0.5
40
0.75
40
0.75
40
1
40
1
40
1
40
1
41
1
10
-0.399999999999892
20
4.85227506835235
30
0
41
1
10
-0.429028522387654
20
4.87851715893601
30
0
41
1
10
-0.461669517108362
20
4.9022122740283
30
0
41
1
10
-0.535635842083423
20
4.93548015393125
30
0
41
1
10
-0.578042687204231
20
4.94445593383577
30
0
41
1
10
-0.662695203082052
20
4.936848854717
30
0
41
1
10
-0.701977887727935
20
4.92120757612898
30
0
41
1
10
-0.770280811796994
20
4.87973605687952
30
0
41
1
10
-0.800192972747141
20
4.85380950611167
30
0
41
1
10
-0.853469820313023
20
4.79878665655178
30
0
41
1
10
-0.877345244832242
20
4.76909028975203
30
0
41
1
10
-0.921269196330456
20
4.70771179233338
30
0
41
1
10
-0.941162707941658
20
4.6762162425587
30
0
41
1
10
-0.996843936527853
20
4.5800735638295
30
0
41
1
10
-1.02870604240499
20
4.51379601608861
30
0
41
1
10
-1.11562010765073
20
4.31082835787518
30
0
41
1
10
-1.16210693251719
20
4.16969559228221
30
0
41
1
10
-1.24292111111839
20
3.88305937901257
30
0
41
1
10
-1.27704897241461
20
3.73707282454211
30
0
41
1
10
-1.30710678118675
20
3.58871725126116
30
0
0
SPLINE
5
22D
100
AcDbEntity
8
SK1
62
256
6
ByLayer
370
18
48
1
60
0
100
AcDbSpline
70
4
71
3
72
28
73
24
40
0
40
0
40
0
40
0
40
0.250000000000011
40
0.250000000000011
40
0.375000000000018
40
0.375000000000018
40
0.437500000000021
40
0.437500000000021
40
0.468750000000022
40
0.468750000000022
40
0.500000000000024
40
0.500000000000024
40
0.515625000000023
40
0.515625000000023
40
0.531250000000022
40
0.531250000000022
40
0.56250000000002
40
0.56250000000002
40
0.625000000000017
40
0.625000000000017
40
0.750000000000011
40
0.750000000000011
40
1
40
1
40
1
40
1
41
1
10
-1.49999999999989
20
-2.55452633951475
30
0
41
1
10
-1.51517199566123
20
-2.46407938028932
30
0
41
1
10
-1.53136110460483
20
-2.37385196693896
30
0
41
1
10
-1.55981324196594
20
-2.24028158751409
30
0
41
1
10
-1.56995056306621
20
-2.19594811744051
30
0
41
1
10
-1.58796518920624
20
-2.1311657311102
30
0
41
1
10
-1.59441566991623
20
-2.10980654354705
30
0
41
1
10
-1.60591133452704
20
-2.07918416873096
30
0
41
1
10
-1.61004231989739
20
-2.06919519846659
30
0
41
1
10
-1.61967450688274
20
-2.05064590043739
30
0
41
1
10
-1.62504919799494
20
-2.04142660694535
30
0
41
1
10
-1.6364017768548
20
-2.03441195821586
30
0
41
1
10
-1.64099020656781
20
-2.03383680716846
30
0
41
1
10
-1.64923629291991
20
-2.038784943228
30
0
41
1
10
-1.65255399964531
20
-2.0435312415232
30
0
41
1
10
-1.66063967690013
20
-2.05871495105521
30
0
41
1
10
-1.66406773388874
20
-2.07036152075671
30
0
41
1
10
-1.67295327541402
20
-2.10521389033298
30
0
41
1
10
-1.67664822107099
20
-2.12914935367809
30
0
41
1
10
-1.68601976866213
20
-2.20039030781453
30
0
41
1
10
-1.68959945108364
20
-2.24810000899228
30
0
41
1
10
-1.69789374352146
20
-2.3912602075379
30
0
41
1
10
-1.69966348304169
20
-2.48612756096904
30
0
41
1
10
-1.69996145716266
20
-2.58068890323881
30
0
0
SPLINE
5
22E
100
AcDbEntity
8
SK1
62
256
6
ByLayer
370
18
48
1
60
0
100
AcDbSpline
70
4
71
3
72
28
73
24
40
0
40
0
40
0
40
0
40
0.249999999999998
40
0.249999999999998
40
0.374999999999996
40
0.374999999999996
40
0.437499999999995
40
0.437499999999995
40
0.468749999999995
40
0.468749999999995
40
0.484374999999995
40
0.484374999999995
40
0.499999999999995
40
0.499999999999995
40
0.531249999999994
40
0.531249999999994
40
0.562499999999994
40
0.562499999999994
40
0.624999999999994
40
0.624999999999994
40
0.749999999999995
40
0.749999999999995
40
1
40
1
40
1
40
1
41
1
10
-1.69996145737014
20
2.58069190327927
30
0
41
1
10
-1.69966082572924
20
2.4852880584769
30
0
41
1
10
-1.69786774013505
20
2.38961915098
30
0
41
1
10
-1.68940593614445
20
2.2453867587985
30
0
41
1
10
-1.68574462899301
20
2.19700570840237
30
0
41
1
10
-1.67599695382782
20
2.1249364253261
30
0
41
1
10
-1.67216972725893
20
2.10077755320236
30
0
41
1
10
-1.66272403248817
20
2.06599013940286
30
0
41
1
10
-1.65906888566519
20
2.05420805594815
30
0
41
1
10
-1.64993183086071
20
2.03993783982096
30
0
41
1
10
-1.64600859456112
20
2.03592067906061
30
0
41
1
10
-1.63743284430143
20
2.03388667347628
30
0
41
1
10
-1.63318667655162
20
2.03591143131484
30
0
41
1
10
-1.62270815487443
20
2.04494307123124
30
0
41
1
10
-1.61759766930601
20
2.05422387946916
30
0
41
1
10
-1.60839312671521
20
2.07302163226029
30
0
41
1
10
-1.60436560886294
20
2.083083020088
30
0
41
1
10
-1.59320608402808
20
2.11364429054081
30
0
41
1
10
-1.58690532487131
20
2.13477582008474
30
0
41
1
10
-1.56924690509348
20
2.198952707839
30
0
41
1
10
-1.55923242562812
20
2.24288446323848
30
0
41
1
10
-1.53109034368467
20
2.37539687024329
30
0
41
1
10
-1.51504209864746
20
2.46485730987436
30
0
41
1
10
-1.49999999999937
20
2.55452876952231
30
0
0
SPLINE
5
22F
100
AcDbEntity
8
1
62
256
6
ByLayer
370
18
48
1
60
0
100
AcDbSpline
70
4
71
1
72
4
73
2
40
0
40
0
40
1
40
1
41
1
10
83.3003499442784
20
2.93232408498261
30
0
41
1
10
81.5082918265221
20
2.86950499091813
30
0
0
SPLINE
5
230
100
AcDbEntity
8
1
62
256
6
ByLayer
370
18
48
1
60
0
100
AcDbSpline
70
4
71
1
72
4
73
2
40
0
40
0
40
1
40
1
41
1
10
80.6719518506475
20
7.13303119694729
30
0
41
1
10
80.6714711830348
20
7.14684829467907
30
0
0
SPLINE
5
231
100
AcDbEntity
8
1
62
256
6
ByLayer
370
18
48
1
60
0
100
AcDbSpline
70
4
71
3
72
25
73
21
40
0
40
0
40
0
40
0
40
0.003115964560464
40
0.0146460991234368
40
0.0204111664049231
40
0.0607666373753277
40
0.106887175627219
40
0.199128252131001
40
0.291369328634782
40
0.383610405138564
40
0.752574711153692
40
0.844815787657474
40
0.931291796879769
40
0.937056864161256
40
0.948586998724229
40
0.960117133287201
40
0.97741233513166
40
0.983177402413147
40
0.99470753697612
40
1
40
1
40
1
40
1
41
1
10
80.8009937158596
20
3.47952119748314
30
0
41
1
10
80.8010153085165
20
3.47931303301121
30
0
41
1
10
80.8011169633715
20
3.47833460125952
30
0
41
1
10
80.8012594732923
20
3.47697109784733
30
0
41
1
10
80.8016620799365
20
3.47311991205774
30
0
41
1
10
80.8023066281452
20
3.46695796123092
30
0
41
1
10
80.8035564286487
20
3.45501924562475
30
0
41
1
10
80.8051702104968
20
3.43961519407782
30
0
41
1
10
80.807105672212
20
3.42113347397165
30
0
41
1
10
80.8109772786659
20
3.3841570658546
30
0
41
1
10
80.8148576827496
20
3.34710010946358
30
0
41
1
10
80.8186719665509
20
3.31066445854887
30
0
41
1
10
80.8199644411189
20
3.29832123555187
30
0
41
1
10
80.8206966816086
20
3.29133034751294
30
0
41
1
10
80.8209003642167
20
3.28938584794608
30
0
41
1
10
80.8211846469204
20
3.2866715409796
30
0
41
1
10
80.8214258822636
20
3.28436729122618
30
0
41
1
10
80.8216633688762
20
3.28209736364502
30
0
41
1
10
80.8218163186843
20
3.2806345925535
30
0
41
1
10
80.8219299941164
20
3.27955904986817
30
0
41
1
10
80.8219657927951
20
3.27922204262174
30
0
0
SPLINE
5
232
100
AcDbEntity
8
1
62
256
6
ByLayer
370
18
48
1
60
0
100
AcDbSpline
70
4
71
3
72
24
73
20
40
0
40
0
40
0
40
0
40
0.0052924630238136
40
0.0168225975867946
40
0.0283527321497756
40
0.0398828667127487
40
0.0629431358387081
40
0.0744732704016839
40
0.109063674090622
40
0.155184212342532
40
0.247425288846362
40
0.431907441854016
40
0.61638959486167
40
0.800871747869324
40
0.89311282437315
40
0.979588833595494
40
0.985353900876978
40
0.996884035439957
40
1
40
1
40
1
40
1
41
1
10
81.2521513338525
20
2.87653519070145
30
0
41
1
10
81.2524887380654
20
2.87652285125162
30
0
41
1
10
81.2535655075852
20
2.87648404562833
30
0
41
1
10
81.2554035726005
20
2.87641987534755
30
0
41
1
10
81.2576858881872
20
2.87634001009624
30
0
41
1
10
81.2607674661039
20
2.87623200038769
30
0
41
1
10
81.2638847720248
20
2.87612257725704
30
0
41
1
10
81.2685482998199
20
2.87595893434255
30
0
41
1
10
81.2747458664255
20
2.87574155361386
30
0
41
1
10
81.28631517311
20
2.87533598750989
30
0
41
1
10
81.3078160227134
20
2.8745826965399
30
0
41
1
10
81.3386505731903
20
2.87350185684946
30
0
41
1
10
81.375715010601
20
2.87220235781803
30
0
41
1
10
81.4065482684497
20
2.87112156926474
30
0
41
1
10
81.4308357536189
20
2.87026875746761
30
0
41
1
10
81.4431729348944
20
2.86983681228119
30
0
41
1
10
81.4501124203335
20
2.86959468542526
30
0
41
1
10
81.4514773674064
20
2.86954709280272
30
0
41
1
10
81.4524567926731
20
2.86951355016348
30
0
41
1
10
81.4526651660953
20
2.86950644864524
30
0
0
SPLINE
5
233
100
AcDbEntity
8
1
62
256
6
ByLayer
370
18
48
1
60
0
100
AcDbSpline
70
4
71
1
72
4
73
2
40
0
40
0
40
1
40
1
41
1
10
81.5082918265221
20
2.86950499091813
30
0
41
1
10
81.4945273070187
20
2.86902248723317
30
0
0
SPLINE
5
234
100
AcDbEntity
8
1
62
256
6
ByLayer
370
18
48
1
60
0
100
AcDbSpline
70
4
71
3
72
14
73
10
40
0
40
0
40
0
40
0
40
0.18562115923533
40
0.627925247419604
40
0.738501269465672
40
0.849077291511741
40
0.904365302534775
40
0.959653313557809
40
1
40
1
40
1
40
1
41
1
10
85.6298340649177
20
7.3206573751167
30
0
41
1
10
85.6296990785069
20
7.3232541244279
30
0
41
1
10
85.6292000124367
20
7.33203648969362
30
0
41
1
10
85.6284407658487
20
7.34235579792678
30
0
41
1
10
85.6276288173426
20
7.3516143630697
30
0
41
1
10
85.6272668169021
20
7.35546962266145
30
0
41
1
10
85.6269617757899
20
7.35855207067516
30
0
41
1
10
85.6267480826224
20
7.36065509299877
30
0
41
1
10
85.6266104704899
20
7.36198753382732
30
0
41
1
10
85.6265521629315
20
7.36254964909574
30
0
0
SPLINE
5
235
100
AcDbEntity
8
1
62
256
6
ByLayer
370
18
48
1
60
0
100
AcDbSpline
70
4
71
3
72
14
73
10
40
0
40
0
40
0
40
0
40
0.185621159235353
40
0.627925247419621
40
0.738501269465688
40
0.849077291511755
40
0.904365302534789
40
0.959653313557822
40
1
40
1
40
1
40
1
41
1
10
80.7977118138734
20
3.52141347146218
30
0
41
1
10
80.7978468002843
20
3.51881672215097
30
0
41
1
10
80.7983458663544
20
3.51003435688526
30
0
41
1
10
80.7991051129424
20
3.49971504865209
30
0
41
1
10
80.7999170614485
20
3.49045648350918
30
0
41
1
10
80.8002790618889
20
3.48660122391743
30
0
41
1
10
80.8005841030012
20
3.48351877590372
30
0
41
1
10
80.8007977961688
20
3.48141575358011
30
0
41
1
10
80.8009354083012
20
3.48008331275156
30
0
41
1
10
80.8009937158596
20
3.47952119748314
30
0
0
SPLINE
5
236
100
AcDbEntity
8
1
62
256
6
ByLayer
370
18
48
1
60
0
100
AcDbSpline
70
4
71
3
72
14
73
10
40
0
40
0
40
0
40
0
40
0.185621159235526
40
0.627925247419639
40
0.738501269465667
40
0.849077291511695
40
0.904365302534709
40
0.959653313557723
40
1
40
1
40
1
40
1
41
1
10
85.1061662561846
20
2.99574533677296
30
0
41
1
10
85.1087531240807
20
2.99588083881002
30
0
41
1
10
85.1175020697951
20
2.99638181123143
30
0
41
1
10
85.1277821099449
20
2.99714395801809
30
0
41
1
10
85.1370054434522
20
2.99795900803559
30
0
41
1
10
85.1408460326173
20
2.99832239125891
30
0
41
1
10
85.1439167509857
20
2.9986285975786
30
0
41
1
10
85.1460117706744
20
2.99884310701935
30
0
41
1
10
85.1473391411634
20
2.99898124480779
30
0
41
1
10
85.1478991174135
20
2.99903977509163
30
0
0
SPLINE
5
237
100
AcDbEntity
8
1
62
256
6
ByLayer
370
18
48
1
60
0
100
AcDbSpline
70
4
71
3
72
14
73
10
40
0
40
0
40
0
40
0
40
0.0403466864445731
40
0.150922708497084
40
0.261498730549594
40
0.372074752602105
40
0.593226796707126
40
0.814378840812148
40
1
40
1
40
1
40
1
41
1
10
81.4526651660954
20
2.86950644864524
30
0
41
1
10
81.4532278456011
20
2.86948727211723
30
0
41
1
10
81.4553326372509
20
2.86941648582413
30
0
41
1
10
81.458979624561
20
2.86930340374667
30
0
41
1
10
81.4636074072295
20
2.869191121276
30
0
41
1
10
81.4697790769596
20
2.86907964144913
30
0
41
1
10
81.4774951542644
20
2.86900573100755
30
0
41
1
10
81.4862589613981
20
2.86902320376231
30
0
41
1
10
81.491935319488
20
2.86909632460839
30
0
41
1
10
81.4945253020791
20
2.86914229272261
30
0
0
SPLINE
5
238
100
AcDbEntity
8
1
62
256
6
ByLayer
370
18
48
1
60
0
100
AcDbSpline
70
4
71
3
72
20
73
16
40
0
40
0
40
0
40
0
40
0.0011113171582899
40
0.0024035405513581
40
0.0036957639444263
40
0.0049879873374945
40
0.0075724341236309
40
0.008089323480858
40
0.0086062128380854
40
0.0088630422374577
40
0.0907916206372224
40
0.172977028436359
40
0.338381622749087
40
0.669190811374544
40
1
40
1
40
1
40
1
41
1
10
84.9766959726001
20
6.84341446719404
30
0
41
1
10
84.9767134828421
20
6.84291116321404
30
0
41
1
10
84.9767513537076
20
6.84182262526645
30
0
41
1
10
84.9768095851021
20
6.84014885508901
30
0
41
1
10
84.9768706667701
20
6.83839315691449
30
0
41
1
10
84.9769521088076
20
6.83605222944814
30
0
41
1
10
84.9770213342869
20
6.83406244575121
30
0
41
1
10
84.9770783433194
20
6.83242380377595
30
0
41
1
10
84.9770986782156
20
6.83183930644176
30
0
41
1
10
84.9784017393446
20
6.79438467818304
30
0
41
1
10
84.9809913506735
20
6.71994770424971
30
0
41
1
10
84.9861822003031
20
6.57073320518592
30
0
41
1
10
84.9952927363264
20
6.30883549057304
30
0
41
1
10
85.0083211317481
20
5.93433000675728
30
0
41
1
10
85.0187435330522
20
5.63473142012322
30
0
41
1
10
85.0239547337042
20
5.48493212680617
30
0
0
SPLINE
5
239
100
AcDbEntity
8
1
62
256
6
ByLayer
370
18
48
1
60
0
100
AcDbSpline
70
4
71
3
72
83
73
79
40
0
40
0
40
0
40
0
40
0.001952449673442
40
0.0055614898931992
40
0.0091705301129564
40
0.0127795703327136
40
0.0163886105524708
40
0.0236066909919852
40
0.0308247714314996
40
0.038042851871014
40
0.0957874953871291
40
0.153532138903244
40
0.182404460661302
40
0.211276782419359
40
0.218494862858874
40
0.225712943298388
40
0.238344584067538
40
0.240149104177417
40
0.243758144397174
40
0.247367184616931
40
0.253683005001506
40
0.254585265056446
40
0.256389785166324
40
0.258194305276203
40
0.26180334549596
40
0.263607865605839
40
0.265412385715717
40
0.269021425935475
40
0.297893747693532
40
0.32676606945159
40
0.355638391209647
40
0.384510712967705
40
0.413383034725762
40
0.44225535648382
40
0.471127678241877
40
0.499999999999935
40
0.514436160878964
40
0.528872321757993
40
0.55774464351605
40
0.572180804395079
40
0.586616965274108
40
0.615489287032166
40
0.629925447911194
40
0.644361608790222
40
0.673233930548281
40
0.687670091427308
40
0.702106252306338
40
0.716542413185365
40
0.730978574064396
40
0.732783094174273
40
0.734587614284153
40
0.736392134394032
40
0.73819665450391
40
0.740001174613789
40
0.741805694723667
40
0.745414734943425
40
0.749023775163182
40
0.752632815382938
40
0.756241855602696
40
0.759850895822453
40
0.763459936042211
40
0.767068976261968
40
0.774287056701481
40
0.788723217580511
40
0.795941298020024
40
0.817595539338569
40
0.846467861096626
40
0.904212504612741
40
0.933084826370799
40
0.961957148128856
40
0.969175228568371
40
0.976393309007885
40
0.983611389447399
40
0.989024949777035
40
0.990829469886914
40
0.994438510106671
40
0.998047550326428
40
1
40
1
40
1
40
1
41
1
10
80.8219657927951
20
3.27922204262174
30
0
41
1
10
80.8220079849462
20
3.27882484749725
30
0
41
1
10
80.8221283099312
20
3.27769884387735
30
0
41
1
10
80.8223286845255
20
3.27586723190987
30
0
41
1
10
80.8225720743214
20
3.27372703801561
30
0
41
1
10
80.8228260885505
20
3.27159296379187
30
0
41
1
10
80.8231789513208
20
3.26875245059821
30
0
41
1
10
80.8236466329444
20
3.26520495657243
30
0
41
1
10
80.8242504832743
20
3.26093355695156
30
0
41
1
10
80.8264067728741
20
3.24665846807841
30
0
41
1
10
80.8311802035207
20
3.22219071104217
30
0
41
1
10
80.839237140788
20
3.19325556571491
30
0
41
1
10
80.8471978283504
20
3.17019758395091
30
0
41
1
10
80.8522479828168
20
3.15729757372458
30
0
41
1
10
80.8558549019485
20
3.14874190382164
30
0
41
1
10
80.8581692124758
20
3.14340667890113
30
0
41
1
10
80.8600865891424
20
3.13915285760456
30
0
41
1
10
80.8617242996912
20
3.13561785736027
30
0
41
1
10
80.862550633986
20
3.13385223503678
30
0
41
1
10
80.8638050870567
20
3.13120768021636
30
0
41
1
10
80.8648250892504
20
3.12909643826563
30
0
41
1
10
80.865685047074
20
3.1273398813737
30
0
41
1
10
80.8661168925345
20
3.12646213391116
30
0
41
1
10
80.8668118263871
20
3.12505888714475
30
0
41
1
10
80.8675127306306
20
3.12365738875229
30
0
41
1
10
80.8682196027
20
3.1222576879608
30
0
41
1
10
80.868930452465
20
3.12085920197896
30
0
41
1
10
80.8723353238369
20
3.11422516599816
30
0
41
1
10
80.8787323490344
20
3.10245043199481
30
0
41
1
10
80.8885153618156
20
3.08612068585643
30
0
41
1
10
80.899038986321
20
3.07013506017691
30
0
41
1
10
80.9102831082112
20
3.05454268898723
30
0
41
1
10
80.9222276131466
20
3.0393927063185
30
0
41
1
10
80.9348438984578
20
3.02473074820983
30
0
41
1
10
80.9481033614754
20
3.01060245070042
30
0
41
1
10
80.9596586957868
20
2.99930720180291
30
0
41
1
10
80.9691883125387
20
2.99057817121772
30
0
41
1
10
80.9789010596944
20
2.98205949890632
30
0
41
1
10
80.9888778487582
20
2.97386473288358
30
0
41
1
10
80.9990973723356
20
2.96601061090536
30
0
41
1
10
81.0094708277791
20
2.95838782805299
30
0
41
1
10
81.0200633443075
20
2.95111841853367
30
0
41
1
10
81.0308512484918
20
2.94421511163583
30
0
41
1
10
81.0417610392911
20
2.93755865891427
30
0
41
1
10
81.0528411022795
20
2.93127666609999
30
0
41
1
10
81.0640663219899
20
2.92537749047878
30
0
41
1
10
81.0725514169609
20
2.92114549044226
30
0
41
1
10
81.0810962939474
20
2.91710684516795
30
0
41
1
10
81.0871867287013
20
2.91438378698891
30
0
41
1
10
81.0907803496465
20
2.91282776171505
30
0
41
1
10
81.0918591578064
20
2.91236400549357
30
0
41
1
10
81.0929386755677
20
2.91190330041647
30
0
41
1
10
81.0940188906558
20
2.91144564626737
30
0
41
1
10
81.0950997907958
20
2.91099104283001
30
0
41
1
10
81.0965418880187
20
2.91038897224073
30
0
41
1
10
81.0983461608033
20
2.90964400970179
30
0
41
1
10
81.1005138319558
20
2.90876225404082
30
0
41
1
10
81.1026839487211
20
2.90789269603502
30
0
41
1
10
81.1048564129008
20
2.90703533395387
30
0
41
1
10
81.1070311262968
20
2.90619016606672
30
0
41
1
10
81.1092079907106
20
2.90535719064309
30
0
41
1
10
81.1121132136883
20
2.90426281105547
30
0
41
1
10
81.1172041950736
20
2.90239030828539
30
0
41
1
10
81.1230365253106
20
2.90034778944946
30
0
41
1
10
81.1318014058418
20
2.89743015462329
30
0
41
1
10
81.1435130654789
20
2.89379904882381
30
0
41
1
10
81.1655158101602
20
2.88783356130423
30
0
41
1
10
81.1889692866016
20
2.88299388251224
30
0
41
1
10
81.2122314219012
20
2.87961463975211
30
0
41
1
10
81.2252155245866
20
2.87824536564833
30
0
41
1
10
81.2338174497467
20
2.87754728140652
30
0
41
1
10
81.2381043525511
20
2.87724055880986
30
0
41
1
10
81.2420181634712
20
2.87699760861125
30
0
41
1
10
81.2448657587144
20
2.87684598622377
30
0
41
1
10
81.2470055876651
20
2.87674325480464
30
0
41
1
10
81.2487921162135
20
2.8766645614912
30
0
41
1
10
81.2506262910331
20
2.87659167825754
30
0
41
1
10
81.2517536708653
20
2.87654973391784
30
0
41
1
10
81.2521513338526
20
2.87653519070145
30
0
0
SPLINE
5
23A
100
AcDbEntity
8
1
62
256
6
ByLayer
370
18
48
1
60
0
100
AcDbSpline
70
4
71
1
72
4
73
2
40
0
40
0
40
1
40
1
41
1
10
84.919254052269
20
7.97256585566075
30
0
41
1
10
84.9330185717724
20
7.97304835934568
30
0
0
SPLINE
5
23B
100
AcDbEntity
8
1
62
256
6
ByLayer
370
18
48
1
60
0
100
AcDbSpline
70
4
71
3
72
20
73
16
40
0
40
0
40
0
40
0
40
0.0011113171582849
40
0.0024035405513531
40
0.0036957639444213
40
0.0049879873374895
40
0.0075724341236259
40
0.008089323480853
40
0.0086062128380804
40
0.0088630422374527
40
0.0907916206372178
40
0.172977028436355
40
0.338381622749084
40
0.669190811374542
40
1
40
1
40
1
40
1
41
1
10
81.7841888831785
20
7.20335832724408
30
0
41
1
10
81.7846902719349
20
7.20337590437231
30
0
41
1
10
81.7857746676669
20
7.20341391989831
30
0
41
1
10
81.7874420686435
20
7.20347237372732
30
0
41
1
10
81.7891910858564
20
7.20353368871736
30
0
41
1
10
81.7915231053871
20
7.20361544185019
30
0
41
1
10
81.7935053173563
20
7.20368493175963
30
0
41
1
10
81.7951377238041
20
7.2037421585573
30
0
41
1
10
81.7957199969495
20
7.20376257112949
30
0
41
1
10
81.8330320990398
20
7.20507060974043
30
0
41
1
10
81.9071858178142
20
7.20767011296385
30
0
41
1
10
82.05583251066
20
7.21288079079568
30
0
41
1
10
82.3167336253996
20
7.22202612758662
30
0
41
1
10
82.6898140027832
20
7.23510428936225
30
0
41
1
10
82.9882725263438
20
7.24556650254615
30
0
41
1
10
83.1375017881241
20
7.25079760913812
30
0
0
SPLINE
5
23C
100
AcDbEntity
8
1
62
256
6
ByLayer
370
18
48
1
60
0
100
AcDbSpline
70
4
71
1
72
4
73
2
40
0
40
0
40
1
40
1
41
1
10
85.6299532636389
20
7.32066372463211
30
0
41
1
10
85.6304339312516
20
7.30684662690032
30
0
0
SPLINE
5
23D
100
AcDbEntity
8
1
62
256
6
ByLayer
370
18
48
1
60
0
100
AcDbSpline
70
4
71
3
72
25
73
21
40
0
40
0
40
0
40
0
40
0.003115964560464
40
0.0146460991234367
40
0.020411166404923
40
0.0607666373753273
40
0.106887175627218
40
0.199128252130999
40
0.29136932863478
40
0.383610405138561
40
0.752574711153686
40
0.844815787657467
40
0.931291796879762
40
0.937056864161249
40
0.948586998724221
40
0.960117133287194
40
0.977412335131653
40
0.983177402413139
40
0.994707536976112
40
1
40
1
40
1
40
1
41
1
10
85.6265521629315
20
7.36254964909574
30
0
41
1
10
85.6265305702746
20
7.36275781356767
30
0
41
1
10
85.6264289154196
20
7.36373624531936
30
0
41
1
10
85.6262864054988
20
7.36509974873155
30
0
41
1
10
85.6258837988547
20
7.36895093452114
30
0
41
1
10
85.6252392506459
20
7.37511288534796
30
0
41
1
10
85.6239894501424
20
7.38705160095412
30
0
41
1
10
85.6223756682943
20
7.40245565250106
30
0
41
1
10
85.6204402065791
20
7.42093737260723
30
0
41
1
10
85.6165686001253
20
7.45791378072425
30
0
41
1
10
85.6126881960415
20
7.4949707371153
30
0
41
1
10
85.6088739122402
20
7.53140638803001
30
0
41
1
10
85.6075814376723
20
7.54374961102698
30
0
41
1
10
85.6068491971825
20
7.55074049906594
30
0
41
1
10
85.6066455145744
20
7.5526849986328
30
0
41
1
10
85.6063612318707
20
7.55539930559928
30
0
41
1
10
85.6061199965276
20
7.55770355535267
30
0
41
1
10
85.6058825099149
20
7.55997348293386
30
0
41
1
10
85.6057295601068
20
7.56143625402538
30
0
41
1
10
85.6056158846747
20
7.56251179671071
30
0
41
1
10
85.605580085996
20
7.56284880395714
30
0
0
SPLINE
5
23E
100
AcDbEntity
8
1
62
256
6
ByLayer
370
18
48
1
60
0
100
AcDbSpline
70
4
71
1
72
4
73
2
40
0
40
0
40
1
40
1
41
1
10
85.6930139796976
20
5.50794313826594
30
0
41
1
10
85.7555940281436
20
3.70903964963159
30
0
0
SPLINE
5
23F
100
AcDbEntity
8
1
62
256
6
ByLayer
370
18
48
1
60
0
100
AcDbSpline
70
4
71
1
72
4
73
2
40
0
40
0
40
1
40
1
41
1
10
80.7975926151522
20
3.52140712194677
30
0
41
1
10
80.7971119475395
20
3.53522421967855
30
0
0
SPLINE
5
240
100
AcDbEntity
8
1
62
256
6
ByLayer
370
18
48
1
60
0
100
AcDbSpline
70
4
71
3
72
40
73
36
40
0
40
0
40
0
40
0
40
0.125
40
0.1875
40
0.1953125
40
0.203125
40
0.21875
40
0.25
40
0.28125
40
0.3125
40
0.34375
40
0.3515625
40
0.359375
40
0.375
40
0.390625
40
0.3984375
40
0.40625
40
0.4375
40
0.5
40
0.5625
40
0.625
40
0.640625
40
0.6484375
40
0.65625
40
0.6875
40
0.75
40
0.8125
40
0.875
40
0.9375
40
0.953125
40
0.9609375
40
0.96484375
40
0.96875
40
0.984375
40
1
40
1
40
1
40
1
41
1
10
83.1271959345126
20
7.90974676159624
30
0
41
1
10
83.1286413878678
20
7.88093287356963
30
0
41
1
10
83.1308093408975
20
7.83771029978905
30
0
41
1
10
83.1330683441472
20
7.79269230094627
30
0
41
1
10
83.1339713694261
20
7.77468068174232
30
0
41
1
10
83.134333243952
20
7.76748729124319
30
0
41
1
10
83.1349445618678
20
7.7548675792639
30
0
41
1
10
83.1357592870742
20
7.7366830721779
30
0
41
1
10
83.1366359967423
20
7.71473596861185
30
0
41
1
10
83.1374089487232
20
7.69275708793322
30
0
41
1
10
83.1379088238888
20
7.67632537758544
30
0
41
1
10
83.1382058284439
20
7.6654200156872
30
0
41
1
10
83.1384038140711
20
7.65812929323607
30
0
41
1
10
83.1386511814439
20
7.64902476253812
30
0
41
1
10
83.1388984016679
20
7.63990721627516
30
0
41
1
10
83.1390966521628
20
7.63263992184099
30
0
41
1
10
83.1393787857405
20
7.6218047374264
30
0
41
1
10
83.1399206171075
20
7.59830190907306
30
0
41
1
10
83.140481766208
20
7.56243256103755
30
0
41
1
10
83.1407018230527
20
7.52060523349542
30
0
41
1
10
83.1405245680629
20
7.49070662241976
30
0
41
1
10
83.1402902107383
20
7.47323077307396
30
0
41
1
10
83.1401907562831
20
7.46691932321542
30
0
41
1
10
83.1400432330983
20
7.4574134553132
30
0
41
1
10
83.1397225332387
20
7.43682945235986
30
0
41
1
10
83.1392298285127
20
7.40515373544312
30
0
41
1
10
83.1386382346236
20
7.36714893440393
30
0
41
1
10
83.138046755005
20
7.32914102260258
30
0
41
1
10
83.1376033814997
20
7.30062609013356
30
0
41
1
10
83.137331949011
20
7.28321866087407
30
0
41
1
10
83.1372460508415
20
7.27766215344252
30
0
41
1
10
83.137196112817
20
7.27451951585505
30
0
41
1
10
83.1371518661314
20
7.26964156197189
30
0
41
1
10
83.137190042998
20
7.26175064906116
30
0
41
1
10
83.1373760068316
20
7.2544132727798
30
0
41
1
10
83.1375017881241
20
7.25079760913812
30
0
0
SPLINE
5
241
100
AcDbEntity
8
1
62
256
6
ByLayer
370
18
48
1
60
0
100
AcDbSpline
70
4
71
1
72
4
73
2
40
0
40
0
40
1
40
1
41
1
10
81.3351378167564
20
7.84692766753176
30
0
41
1
10
83.1271959345127
20
7.90974676159624
30
0
0
SPLINE
5
242
100
AcDbEntity
8
1
62
256
6
ByLayer
370
18
48
1
60
0
100
AcDbSpline
70
4
71
3
72
150
73
146
40
0
40
0
40
0
40
0
40
0.200919836739823
40
0.401839673479645
40
0.452069632664601
40
0.502299591849556
40
0.552215613789606
40
0.577173624759631
40
0.601975648161093
40
0.602131635729656
40
0.602445572974562
40
0.602759510219468
40
0.604329196443998
40
0.605114039556263
40
0.605898882668527
40
0.607468568893057
40
0.608253412005322
40
0.609038255117587
40
0.60943067667372
40
0.612177627566647
40
0.615317000015707
40
0.618456372464766
40
0.621595744913826
40
0.623165431138356
40
0.624735117362886
40
0.626304803587416
40
0.627089646699681
40
0.627874489811946
40
0.628266911368078
40
0.634153234710065
40
0.640431979608184
40
0.652989469404423
40
0.665546959200662
40
0.678104448996901
40
0.684383193895021
40
0.68752256634408
40
0.689877095680875
40
0.69066193879314
40
0.69223162501767
40
0.693016468129935
40
0.6938013112422
40
0.694586154354465
40
0.69537099746673
40
0.696155840578995
40
0.69694068369126
40
0.697333105247392
40
0.698510369915789
40
0.700080056140319
40
0.701649742364849
40
0.703219428589379
40
0.709498173487498
40
0.715776918385618
40
0.728334408181857
40
0.734613153079976
40
0.739322211753566
40
0.740891897978096
40
0.744031270427156
40
0.745600956651685
40
0.74638579976395
40
0.747170642876215
40
0.74795548598848
40
0.748740329100745
40
0.74952517221301
40
0.750310015325275
40
0.75109485843754
40
0.751487279993672
40
0.751879701549805
40
0.752272123105937
40
0.75266454466207
40
0.753056966218202
40
0.753449387774335
40
0.756588760223395
40
0.759728132672454
40
0.762867505121514
40
0.766006877570574
40
0.772285622468693
40
0.775424994917753
40
0.778564367366813
40
0.784843112264932
40
0.787982484713992
40
0.791121857163051
40
0.797400602061171
40
0.800539974510231
40
0.80367934695929
40
0.80995809185741
40
0.816236836755529
40
0.822515581653649
40
0.828794326551768
40
0.835073071449888
40
0.841351816348007
40
0.847630561246127
40
0.853909306144246
40
0.854694149256511
40
0.855086570812643
40
0.855478992368776
40
0.856263835481041
40
0.856656257037173
40
0.857048678593306
40
0.857244889371372
40
0.858618364817836
40
0.859403207930101
40
0.860188051042365
40
0.860580472598498
40
0.863327423491425
40
0.864897109715955
40
0.866466795940485
40
0.872745540838604
40
0.879024285736724
40
0.891581775532963
40
0.904139265329202
40
0.905708951553731
40
0.907278637778261
40
0.908848324002791
40
0.909633167115056
40
0.910418010227321
40
0.911202853339586
40
0.911987696451851
40
0.912772539564116
40
0.913557382676381
40
0.913949804232513
40
0.915127068900911
40
0.915911912013176
40
0.916696755125441
40
0.917089176681573
40
0.92297550002356
40
0.929254244921679
40
0.954369224514157
40
0.960647969412277
40
0.966926714310396
40
0.973205459208516
40
0.976344831657575
40
0.979091782550503
40
0.979484204106635
40
0.9802690472189
40
0.981053890331165
40
0.98183873344343
40
0.982623576555695
40
0.984193262780225
40
0.985762949004755
40
0.992041693902874
40
0.995181066351934
40
0.997535595688729
40
0.998320438800993
40
0.999890125025523
40
1
40
1
40
1
40
1
41
1
10
83.1375017881241
20
7.25079760913812
30
0
41
1
10
83.2867310499045
20
7.25602871573005
30
0
41
1
10
83.5851895734651
20
7.26649092891395
30
0
41
1
10
83.9209619219976
20
7.27826101904012
30
0
41
1
10
84.1447944229961
20
7.28610750341309
30
0
41
1
10
84.2564782745849
20
7.29002258388704
30
0
41
1
10
84.3493965750199
20
7.29327976152496
30
0
41
1
10
84.423433039314
20
7.29587496846864
30
0
41
1
10
84.460510924841
20
7.29717462914829
30
0
41
1
10
84.4792835794977
20
7.29783264143015
30
0
41
1
10
84.4798658527456
20
7.29785305105489
30
0
41
1
10
84.4814982594824
20
7.29791026954476
30
0
41
1
10
84.4834804718083
20
7.29797974920345
30
0
41
1
10
84.4858124917658
20
7.29806149006248
30
0
41
1
10
84.488144515148
20
7.29814323097426
30
0
41
1
10
84.4904765433473
20
7.29822497196025
30
0
41
1
10
84.492808575724
20
7.29830671301062
30
0
41
1
10
84.4942660975669
20
7.29835780119186
30
0
41
1
10
84.497181143464
20
7.29845997758841
30
0
41
1
10
84.5018452259076
20
7.29862345996168
30
0
41
1
10
84.5085498606563
20
7.29885846612342
30
0
41
1
10
84.5155460091024
20
7.29910369006515
30
0
41
1
10
84.5213761308126
20
7.29930804331917
30
0
41
1
10
84.5260402218675
20
7.29947152582514
30
0
41
1
10
84.529538285723
20
7.29959413763626
30
0
41
1
10
84.5324533341736
20
7.29969631407215
30
0
41
1
10
84.5347853694371
20
7.299778055167
30
0
41
1
10
84.5362428898865
20
7.29982914332675
30
0
41
1
10
84.5414899588509
20
7.30001306063025
30
0
41
1
10
84.5508180356265
20
7.30034002401922
30
0
41
1
10
84.5691824143908
20
7.30098372899457
30
0
41
1
10
84.5925015202179
20
7.30180112073299
30
0
41
1
10
84.6204826079656
20
7.30278196248128
30
0
41
1
10
84.6437981026444
20
7.30359929858164
30
0
41
1
10
84.6601175712226
20
7.30417141262529
30
0
41
1
10
84.6688597362769
20
7.30447789601465
30
0
41
1
10
84.6735220915907
20
7.30464135177749
30
0
41
1
10
84.6770187992794
20
7.30476394269374
30
0
41
1
10
84.6793499080206
20
7.30484566951338
30
0
41
1
10
84.6816809864042
20
7.30492739586526
30
0
41
1
10
84.6834292798531
20
7.30498869039286
30
0
41
1
10
84.6851775578036
20
7.30504998468166
30
0
41
1
10
84.6869258200955
20
7.30511127872921
30
0
41
1
10
84.6886740665692
20
7.30517257253305
30
0
41
1
10
84.6901309253154
20
7.30522365049777
30
0
41
1
10
84.6918791437072
20
7.30528494386891
30
0
41
1
10
84.694210079939
20
7.30536666803064
30
0
41
1
10
84.6974150644553
20
7.30547903793948
30
0
41
1
10
84.7009113440898
20
7.30560162226055
30
0
41
1
10
84.7079037665795
20
7.30584678879532
30
0
41
1
10
84.7183918777986
20
7.30621453054692
30
0
41
1
10
84.7370400631996
20
7.30686833455721
30
0
41
1
10
84.7556984410335
20
7.30752229560539
30
0
41
1
10
84.7732118711266
20
7.30813571073639
30
0
41
1
10
84.7825353228186
20
7.30846260286532
30
0
41
1
10
84.789513008232
20
7.30870754234147
30
0
41
1
10
84.7941560803912
20
7.30887070100286
30
0
41
1
10
84.79823783941
20
7.30901375866247
30
0
41
1
10
84.8005795361336
20
7.30909564861437
30
0
41
1
10
84.8023413937195
20
7.30915715212876
30
0
41
1
10
84.8041097898926
20
7.30921875638518
30
0
41
1
10
84.8058729143298
20
7.30928027941835
30
0
41
1
10
84.8076189567079
20
7.30934153926299
30
0
41
1
10
84.8093361067038
20
7.30940235395389
30
0
41
1
10
84.8107331461125
20
7.30945251026378
30
0
41
1
10
84.8118301937057
20
7.30948738055369
30
0
41
1
10
84.8126426292887
20
7.30950967059249
30
0
41
1
10
84.8134446566144
20
7.309526862653
30
0
41
1
10
84.8142407599992
20
7.30953931700626
30
0
41
1
10
84.8150354237598
20
7.30954739392317
30
0
41
1
10
84.8176854291968
20
7.30955993184762
30
0
41
1
10
84.8222443802636
20
7.30947277842537
30
0
41
1
10
84.8287835881228
20
7.30906397464565
30
0
41
1
10
84.8353934958752
20
7.30835587670282
30
0
41
1
10
84.8442794472233
20
7.3069970271784
30
0
41
1
10
84.8532422218199
20
7.30499260917844
30
0
41
1
10
84.8621875498778
20
7.30232117080618
30
0
41
1
10
84.8710898236475
20
7.29919790155347
30
0
41
1
10
84.8798803810914
20
7.29538616003168
30
0
41
1
10
84.8884562122298
20
7.29090268825212
30
0
41
1
10
84.8968545558383
20
7.28597697697117
30
0
41
1
10
84.904935163162
20
7.28039627744374
30
0
41
1
10
84.9126056474155
20
7.27421761666128
30
0
41
1
10
84.919971920694
20
7.2676593240393
30
0
41
1
10
84.9285516249727
20
7.25878529043229
30
0
41
1
10
84.9377160180432
20
7.24723165313026
30
0
41
1
10
84.9456229266965
20
7.23495029040814
30
0
41
1
10
84.9522247043559
20
7.22214516968899
30
0
41
1
10
84.9574737044449
20
7.20902025839578
30
0
41
1
10
84.9613994115253
20
7.19576734808356
30
0
41
1
10
84.9640313101593
20
7.18257823030734
30
0
41
1
10
84.9650388829212
20
7.17337737676598
30
0
41
1
10
84.9653525806893
20
7.16833955190916
30
0
41
1
10
84.9654101228586
20
7.16727546328687
30
0
41
1
10
84.9654619384295
20
7.1662030245719
30
0
41
1
10
84.9655050736715
20
7.1651090294944
30
0
41
1
10
84.9655444227657
20
7.16399405563558
30
0
41
1
10
84.965568458009
20
7.16328857614434
30
0
41
1
10
84.9656172210164
20
7.16186486641178
30
0
41
1
10
84.9656777919379
20
7.16011857214508
30
0
41
1
10
84.9657551040889
20
7.15790627261046
30
0
41
1
10
84.9658068847068
20
7.15642700238053
30
0
41
1
10
84.9659100009492
20
7.15347665517373
30
0
41
1
10
84.9660324202936
20
7.14996054517636
30
0
41
1
10
84.9661844246978
20
7.14558418388455
30
0
41
1
10
84.96642727575
20
7.13858856042012
30
0
41
1
10
84.9667933323012
20
7.12806235221123
30
0
41
1
10
84.9674462206079
20
7.10931003921863
30
0
41
1
10
84.968260791944
20
7.08589798504707
30
0
41
1
10
84.9689523914304
20
7.06601221364818
30
0
41
1
10
84.9693592715545
20
7.0543136534701
30
0
41
1
10
84.9694813393153
20
7.05080401685953
30
0
41
1
10
84.9695830654941
20
7.04787926362161
30
0
41
1
10
84.9696644482293
20
7.04553942803489
30
0
41
1
10
84.969725486168
20
7.04378453500695
30
0
41
1
10
84.9697865249854
20
7.0420296258014
30
0
41
1
10
84.9698475646726
20
7.04027470057846
30
0
41
1
10
84.9699086052212
20
7.03851975949849
30
0
41
1
10
84.9699594730554
20
7.0370572955178
30
0
41
1
10
84.9700205150893
20
7.03530232708863
30
0
41
1
10
84.9700815579627
20
7.03354734320305
30
0
41
1
10
84.9701527758535
20
7.03149983981325
30
0
41
1
10
84.9702036464569
20
7.03003732484555
30
0
41
1
10
84.9703867824496
20
7.02477223744717
30
0
41
1
10
84.9707123747133
20
7.01541176601293
30
0
41
1
10
84.9716790674725
20
6.98762119598877
30
0
41
1
10
84.9726561502562
20
6.95953414773032
30
0
41
1
10
84.9736333582125
20
6.93144479478471
30
0
41
1
10
84.9741219827682
20
6.91739973943601
30
0
41
1
10
84.9745291833318
20
6.90569527930018
30
0
41
1
10
84.9748447694182
20
6.89662421867399
30
0
41
1
10
84.9750076540338
20
6.89194235378741
30
0
41
1
10
84.9751094573084
20
6.88901618105515
30
0
41
1
10
84.9751603590161
20
6.88755309339322
30
0
41
1
10
84.9752214411692
20
6.88579738628584
30
0
41
1
10
84.9752825234175
20
6.88404167742576
30
0
41
1
10
84.9753639665306
20
6.88170073015567
30
0
41
1
10
84.9754657706164
20
6.87877454248755
30
0
41
1
10
84.9757101009054
20
6.87175168319098
30
0
41
1
10
84.9759951539117
20
6.86355832888623
30
0
41
1
10
84.9763005670468
20
6.85477974972198
30
0
41
1
10
84.9764634534783
20
6.85009785140184
30
0
41
1
10
84.9765856179515
20
6.84658643411399
30
0
41
1
10
84.9766495504618
20
6.84474879746682
30
0
41
1
10
84.976693122188
20
6.84349639774581
30
0
41
1
10
84.9766959726001
20
6.84341446719404
30
0
0
SPLINE
5
243
100
AcDbEntity
8
1
62
256
6
ByLayer
370
18
48
1
60
0
100
AcDbSpline
70
4
71
1
72
4
73
2
40
0
40
0
40
1
40
1
41
1
10
80.7971119475395
20
3.53522421967855
30
0
41
1
10
80.7345318990935
20
5.33412770831293
30
0
0
SPLINE
5
244
100
AcDbEntity
8
1
62
256
6
ByLayer
370
18
48
1
60
0
100
AcDbSpline
70
4
71
3
72
20
73
16
40
0
40
0
40
0
40
0
40
0.0011113171583031
40
0.0024035405513713
40
0.0036957639444395
40
0.0049879873375076
40
0.007572434123644
40
0.0080893234808711
40
0.0086062128380985
40
0.0088630422374708
40
0.0907916206372344
40
0.17297702843637
40
0.338381622749096
40
0.669190811374548
40
1
40
1
40
1
40
1
41
1
10
84.6181218076076
20
3.6387125193348
30
0
41
1
10
84.6176204188512
20
3.63869494220657
30
0
41
1
10
84.6165360231192
20
3.63865692668057
30
0
41
1
10
84.6148686221425
20
3.63859847285153
30
0
41
1
10
84.6131196049296
20
3.63853715786152
30
0
41
1
10
84.6107875853991
20
3.63845540472869
30
0
41
1
10
84.6088053734298
20
3.63838591481922
30
0
41
1
10
84.607172966982
20
3.63832868802157
30
0
41
1
10
84.6065906938367
20
3.63830827544936
30
0
41
1
10
84.5692785917463
20
3.63700023683845
30
0
41
1
10
84.4951248729719
20
3.63440073361502
30
0
41
1
10
84.3464781801262
20
3.6291900557832
30
0
41
1
10
84.0855770653865
20
3.62004471899226
30
0
41
1
10
83.7124966880029
20
3.60696655721662
30
0
41
1
10
83.4140381644423
20
3.59650434403272
30
0
41
1
10
83.264808902662
20
3.59127323744076
30
0
0
SPLINE
5
245
100
AcDbEntity
8
1
62
256
6
ByLayer
370
18
48
1
60
0
100
AcDbSpline
70
4
71
1
72
4
73
2
40
0
40
0
40
1
40
1
41
1
10
85.0924080620347
20
2.99514317904712
30
0
41
1
10
83.3003499442784
20
2.93232408498261
30
0
0
SPLINE
5
246
100
AcDbEntity
8
1
62
256
6
ByLayer
370
18
48
1
60
0
100
AcDbSpline
70
4
71
3
72
24
73
20
40
0
40
0
40
0
40
0
40
0.0052924630238029
40
0.0168225975867835
40
0.0283527321497641
40
0.0398828667127368
40
0.0629431358386953
40
0.0744732704016706
40
0.109063674090607
40
0.155184212342516
40
0.247425288846343
40
0.43190744185399
40
0.616389594861637
40
0.800871747869284
40
0.893112824373107
40
0.979588833595448
40
0.985353900876932
40
0.99688403543991
40
1
40
1
40
1
40
1
41
1
10
85.7485905803929
20
3.45192074189166
30
0
41
1
10
85.7486028728874
20
3.45225943493384
30
0
41
1
10
85.7486415308436
20
3.45334031753831
30
0
41
1
10
85.7487054569371
20
3.45518540366336
30
0
41
1
10
85.748785018277
20
3.45747643732477
30
0
41
1
10
85.748892616976
20
3.46056978636852
30
0
41
1
10
85.7490016237186
20
3.46369899989168
30
0
41
1
10
85.7491646439224
20
3.46838034160527
30
0
41
1
10
85.7493811974518
20
3.4746015819085
30
0
41
1
10
85.7497852202543
20
3.48621508146496
30
0
41
1
10
85.7505356447247
20
3.50779806082099
30
0
41
1
10
85.7516123714938
20
3.53875039427137
30
0
41
1
10
85.7529069255391
20
3.57595641181163
30
0
41
1
10
85.7539836013656
20
3.6069074476963
30
0
41
1
10
85.7548331679564
20
3.63128770711307
30
0
41
1
10
85.755263469461
20
3.64367201441687
30
0
41
1
10
85.7555046749512
20
3.650638007563
30
0
41
1
10
85.7555520864694
20
3.65200816851188
30
0
41
1
10
85.7555855014687
20
3.65299133502401
30
0
41
1
10
85.7555925759636
20
3.65320050439885
30
0
0
SPLINE
5
247
100
AcDbEntity
8
1
62
256
6
ByLayer
370
18
48
1
60
0
100
AcDbSpline
70
4
71
3
72
14
73
10
40
0
40
0
40
0
40
0
40
0.0403466864447348
40
0.150922708497258
40
0.261498730549781
40
0.372074752602304
40
0.593226796707351
40
0.814378840812397
40
1
40
1
40
1
40
1
41
1
10
84.9748807126957
20
7.97256439793364
30
0
41
1
10
84.9743180331899
20
7.97258357446165
30
0
41
1
10
84.9722132415402
20
7.97265436075475
30
0
41
1
10
84.9685662542301
20
7.97276744283221
30
0
41
1
10
84.9639384715616
20
7.97287972530287
30
0
41
1
10
84.9577668018315
20
7.97299120512974
30
0
41
1
10
84.9500507245266
20
7.97306511557133
30
0
41
1
10
84.941286917393
20
7.97304764281657
30
0
41
1
10
84.9356105593031
20
7.97297452197049
30
0
41
1
10
84.933020576712
20
7.97292855385626
30
0
0
SPLINE
5
248
100
AcDbEntity
8
1
62
256
6
ByLayer
370
18
48
1
60
0
100
AcDbSpline
70
4
71
1
72
4
73
2
40
0
40
0
40
1
40
1
41
1
10
83.1271959345127
20
7.90974676159624
30
0
41
1
10
84.919254052269
20
7.97256585566075
30
0
0
SPLINE
5
249
100
AcDbEntity
8
1
62
256
6
ByLayer
370
18
48
1
60
0
100
AcDbSpline
70
4
71
3
72
25
73
21
40
0
40
0
40
0
40
0
40
0.0031159645604352
40
0.0146460991234079
40
0.0204111664048942
40
0.0607666373752986
40
0.106887175627189
40
0.199128252130971
40
0.291369328634752
40
0.383610405138534
40
0.752574711153659
40
0.844815787657441
40
0.931291796879736
40
0.937056864161222
40
0.948586998724195
40
0.960117133287167
40
0.977412335131627
40
0.983177402413113
40
0.994707536976085
40
1
40
1
40
1
40
1
41
1
10
81.2796467613776
20
7.84303107148725
30
0
41
1
10
81.2794393890343
20
7.84300939634994
30
0
41
1
10
81.2784646805109
20
7.8429073531899
30
0
41
1
10
81.2771063656408
20
7.84276429890437
30
0
41
1
10
81.2732698347759
20
7.84236015436818
30
0
41
1
10
81.2671313320323
20
7.84171314409002
30
0
41
1
10
81.2552380468434
20
7.8404585695516
30
0
41
1
10
81.2398926123632
20
7.83883862331902
30
0
41
1
10
81.2214812207818
20
7.8368957684545
30
0
41
1
10
81.1846455190611
20
7.83300937309295
30
0
41
1
10
81.147729575577
20
7.82911414649601
30
0
41
1
10
81.1114325733143
20
7.82528529275029
30
0
41
1
10
81.0991363200073
20
7.8239878811394
30
0
41
1
10
81.092172034408
20
7.82325284360994
30
0
41
1
10
81.090234934249
20
7.82304838296741
30
0
41
1
10
81.08753095604
20
7.82276301434996
30
0
41
1
10
81.0852354746526
20
7.82252085752702
30
0
41
1
10
81.0829741848311
20
7.82228246375408
30
0
41
1
10
81.0815169800252
20
7.82212892970247
30
0
41
1
10
81.0804455301046
20
7.82201482004871
30
0
41
1
10
81.0801098052725
20
7.82197888462488
30
0
0
SPLINE
5
24A
100
AcDbEntity
8
1
62
256
6
ByLayer
370
18
48
1
60
0
100
AcDbSpline
70
4
71
3
72
40
73
36
40
0
40
0
40
0
40
0
40
0.015625
40
0.03125
40
0.03515625
40
0.0390625
40
0.046875
40
0.0625
40
0.125
40
0.1875
40
0.25
40
0.3125
40
0.34375
40
0.3515625
40
0.359375
40
0.375
40
0.4375
40
0.5
40
0.5625
40
0.59375
40
0.6015625
40
0.609375
40
0.625
40
0.640625
40
0.6484375
40
0.65625
40
0.6875
40
0.71875
40
0.75
40
0.78125
40
0.796875
40
0.8046875
40
0.8125
40
0.875
40
1
40
1
40
1
40
1
41
1
10
85.0239547337042
20
5.48493212680617
30
0
41
1
10
85.0275566386542
20
5.48505838856275
30
0
41
1
10
85.0349353819753
20
5.48531461538855
30
0
41
1
10
85.0430325988877
20
5.48559017213938
30
0
41
1
10
85.04810593107
20
5.48576051404254
30
0
41
1
10
85.0513958737135
20
5.48587025736532
30
0
41
1
10
85.0572104342701
20
5.48606429488052
30
0
41
1
10
85.075428623149
20
5.48667217570514
30
0
41
1
10
85.1052703954
20
5.48766793908896
30
0
41
1
10
85.1450473701215
20
5.48899520461583
30
0
41
1
10
85.1848212519719
20
5.49032236151251
30
0
41
1
10
85.2179710691593
20
5.49142850192143
30
0
41
1
10
85.2395135175628
20
5.49214731114378
30
0
41
1
10
85.2494614249959
20
5.49247926336562
30
0
41
1
10
85.256067874332
20
5.49269966405129
30
0
41
1
10
85.2743195279642
20
5.49330993415796
30
0
41
1
10
85.3053217302443
20
5.49435401666346
30
0
41
1
10
85.3482249196103
20
5.49581465912701
30
0
41
1
10
85.3846444436164
20
5.49706724436157
30
0
41
1
10
85.4083336189451
20
5.4978879812129
30
0
41
1
10
85.419222371788
20
5.49826635419023
30
0
41
1
10
85.4265165752839
20
5.49852013370401
30
0
41
1
10
85.4356693864613
20
5.49883852543539
30
0
41
1
10
85.4448086316692
20
5.49915646265322
30
0
41
1
10
85.4521272539104
20
5.49941106029138
30
0
41
1
10
85.4630734875392
20
5.49979188392044
30
0
41
1
10
85.4795144195595
20
5.50036569188984
30
0
41
1
10
85.5014013107634
20
5.5011332113157
30
0
41
1
10
85.5231516826304
20
5.50189962106035
30
0
41
1
10
85.5410848675195
20
5.50253463804063
30
0
41
1
10
85.5534842528633
20
5.5029753280937
30
0
41
1
10
85.5605386386585
20
5.50322652682519
30
0
41
1
10
85.5782052790797
20
5.50385550642758
30
0
41
1
10
85.6223590485815
20
5.50542756958814
30
0
41
1
10
85.6647528163342
20
5.50693693512397
30
0
41
1
10
85.6930139796976
20
5.50794313826592
30
0
0
SPLINE
5
24B
100
AcDbEntity
8
1
62
256
6
ByLayer
370
18
48
1
60
0
100
AcDbSpline
70
4
71
3
72
150
73
146
40
0
40
0
40
0
40
0
40
0.200919836739824
40
0.401839673479648
40
0.452069632664604
40
0.502299591849561
40
0.55221561378961
40
0.577173624759635
40
0.601975648161098
40
0.602131635729661
40
0.602445572974567
40
0.602759510219473
40
0.604329196444002
40
0.605114039556268
40
0.605898882668532
40
0.607468568893062
40
0.608253412005327
40
0.609038255117592
40
0.609430676673725
40
0.612177627566652
40
0.615317000015712
40
0.618456372464771
40
0.621595744913831
40
0.623165431138361
40
0.624735117362891
40
0.626304803587421
40
0.627089646699686
40
0.627874489811951
40
0.628266911368083
40
0.63415323471007
40
0.64043197960819
40
0.652989469404429
40
0.665546959200668
40
0.678104448996907
40
0.684383193895026
40
0.687522566344086
40
0.689877095680881
40
0.690661938793146
40
0.692231625017676
40
0.69301646812994
40
0.693801311242205
40
0.694586154354471
40
0.695370997466735
40
0.696155840579
40
0.696940683691265
40
0.697333105247398
40
0.698510369915795
40
0.700080056140325
40
0.701649742364855
40
0.703219428589385
40
0.709498173487504
40
0.715776918385624
40
0.728334408181863
40
0.734613153079982
40
0.739322211753572
40
0.740891897978102
40
0.744031270427162
40
0.745600956651691
40
0.746385799763956
40
0.747170642876221
40
0.747955485988486
40
0.748740329100751
40
0.749525172213016
40
0.750310015325281
40
0.751094858437546
40
0.751487279993678
40
0.751879701549811
40
0.752272123105943
40
0.752664544662076
40
0.753056966218208
40
0.753449387774341
40
0.756588760223401
40
0.75972813267246
40
0.76286750512152
40
0.76600687757058
40
0.772285622468699
40
0.775424994917759
40
0.778564367366819
40
0.784843112264938
40
0.787982484713998
40
0.791121857163058
40
0.797400602061177
40
0.800539974510237
40
0.803679346959297
40
0.809958091857416
40
0.816236836755536
40
0.822515581653655
40
0.828794326551775
40
0.835073071449894
40
0.841351816348014
40
0.847630561246133
40
0.853909306144253
40
0.854694149256518
40
0.85508657081265
40
0.855478992368783
40
0.856263835481048
40
0.85665625703718
40
0.857048678593313
40
0.857244889371379
40
0.858618364817842
40
0.859403207930107
40
0.860188051042372
40
0.860580472598505
40
0.863327423491432
40
0.864897109715962
40
0.866466795940492
40
0.872745540838611
40
0.879024285736731
40
0.89158177553297
40
0.904139265329209
40
0.905708951553739
40
0.907278637778269
40
0.908848324002798
40
0.909633167115063
40
0.910418010227328
40
0.911202853339593
40
0.911987696451858
40
0.912772539564123
40
0.913557382676388
40
0.913949804232521
40
0.915127068900918
40
0.915911912013183
40
0.916696755125448
40
0.91708917668158
40
0.922975500023567
40
0.929254244921687
40
0.954369224514165
40
0.960647969412284
40
0.966926714310404
40
0.973205459208523
40
0.976344831657583
40
0.97909178255051
40
0.979484204106643
40
0.980269047218908
40
0.981053890331173
40
0.981838733443438
40
0.982623576555703
40
0.984193262780233
40
0.985762949004762
40
0.992041693902882
40
0.995181066351942
40
0.997535595688737
40
0.998320438801001
40
0.999890125025531
40
1
40
1
40
1
40
1
41
1
10
85.0239547337042
20
5.48493212680617
30
0
41
1
10
85.0291659343563
20
5.33513283348915
30
0
41
1
10
85.0395883356604
20
5.03553424685509
30
0
41
1
10
85.0513136370402
20
4.69847930249961
30
0
41
1
10
85.0591302631711
20
4.47379179771033
30
0
41
1
10
85.0630304455819
20
4.36168133195235
30
0
41
1
10
85.0662752286756
20
4.26840809870484
30
0
41
1
10
85.0688605600733
20
4.19408882714484
30
0
41
1
10
85.0701552751516
20
4.15686931011868
30
0
41
1
10
85.0708107834981
20
4.13802494697094
30
0
41
1
10
85.0708311154581
20
4.13744044953384
30
0
41
1
10
85.0708881162143
20
4.13580180726848
30
0
41
1
10
85.070957331482
20
4.13381202321358
30
0
41
1
10
85.0710387612924
20
4.1314710953186
30
0
41
1
10
85.0711201911553
20
4.12913016398596
30
0
41
1
10
85.0712016210921
20
4.12678922781785
30
0
41
1
10
85.0712830510931
20
4.12444828745626
30
0
41
1
10
85.0713339448684
20
4.12298519811668
30
0
41
1
10
85.0714357324529
20
4.12005901721787
30
0
41
1
10
85.0715985927264
20
4.11537711873706
30
0
41
1
10
85.0718327046188
20
4.10864687337283
30
0
41
1
10
85.0720769954094
20
4.10162400077624
30
0
41
1
10
85.0722805710375
20
4.09577160894824
30
0
41
1
10
85.0724434314432
20
4.09108970182322
30
0
41
1
10
85.0725655766794
20
4.08757827593209
30
0
41
1
10
85.0726673643031
20
4.08465209246998
30
0
41
1
10
85.0727487943484
20
4.0823111492106
30
0
41
1
10
85.0727996881023
20
4.08084806126985
30
0
41
1
10
85.0729829055449
20
4.07558094935445
30
0
41
1
10
85.0733086247395
20
4.06621724084098
30
0
41
1
10
85.073949880223
20
4.04778271313324
30
0
41
1
10
85.0747641615391
20
4.02437453211024
30
0
41
1
10
85.0757412708884
20
3.99628656115303
30
0
41
1
10
85.0765554967782
20
3.97288200507234
30
0
41
1
10
85.0771254337552
20
3.95650019877533
30
0
41
1
10
85.0774307508827
20
3.94772464007076
30
0
41
1
10
85.077593584647
20
3.94304447531712
30
0
41
1
10
85.0777157090678
20
3.93953441077303
30
0
41
1
10
85.0777971248922
20
3.93719439757521
30
0
41
1
10
85.0778785402507
20
3.93485441485092
30
0
41
1
10
85.0779396015341
20
3.93309944320498
30
0
41
1
10
85.0780006625797
20
3.9313444871168
30
0
41
1
10
85.0780617233848
20
3.92958954674688
30
0
41
1
10
85.0781227839472
20
3.92783462225572
30
0
41
1
10
85.0781736675448
20
3.92637219854581
30
0
41
1
10
85.0782347276763
20
3.92461730224369
30
0
41
1
10
85.0783161408528
20
3.92227746221422
30
0
41
1
10
85.0784280831602
20
3.91906023517774
30
0
41
1
10
85.078550201011
20
3.91555060032303
30
0
41
1
10
85.0787944346131
20
3.90853146791537
30
0
41
1
10
85.0791607769963
20
3.89800329381521
30
0
41
1
10
85.0798120930849
20
3.87928387537559
30
0
41
1
10
85.0804635656139
20
3.86055422556947
30
0
41
1
10
85.0810746465151
20
3.84297389701862
30
0
41
1
10
85.0814002947208
20
3.83361483125583
30
0
41
1
10
85.0816443021283
20
3.82661049221775
30
0
41
1
10
85.0818068399217
20
3.82194968427712
30
0
41
1
10
85.0819493532038
20
3.81785233360199
30
0
41
1
10
85.0820309315396
20
3.81550169197737
30
0
41
1
10
85.0820922010146
20
3.8137331043817
30
0
41
1
10
85.0821535708482
20
3.81195795322248
30
0
41
1
10
85.0822148597676
20
3.81018809393635
30
0
41
1
10
85.0822758865001
20
3.80843538196004
30
0
41
1
10
85.0823364697728
20
3.80671167273019
30
0
41
1
10
85.0823864352228
20
3.80530929685793
30
0
41
1
10
85.0824211728207
20
3.80420805872103
30
0
41
1
10
85.0824433780392
20
3.80339251976614
30
0
41
1
10
85.0824605046787
20
3.80258742882637
30
0
41
1
10
85.0824729116393
20
3.80178828445591
30
0
41
1
10
85.0824809578212
20
3.80099058520895
30
0
41
1
10
85.082493448035
20
3.79833045718166
30
0
41
1
10
85.0824066262579
20
3.79375409166238
30
0
41
1
10
85.0819993781
20
3.78718990509151
30
0
41
1
10
85.0812939746835
20
3.78055474856535
30
0
41
1
10
85.0799402959918
20
3.77163485432663
30
0
41
1
10
85.0779435054075
20
3.76263784338712
30
0
41
1
10
85.0752822326648
20
3.75365834562925
30
0
41
1
10
85.0721708483945
20
3.74472206661997
30
0
41
1
10
85.0683736117
20
3.73589793067481
30
0
41
1
10
85.0639072008842
20
3.72728934125459
30
0
41
1
10
85.0590002334218
20
3.71885891733794
30
0
41
1
10
85.0534407701409
20
3.71074744340703
30
0
41
1
10
85.0472856210281
20
3.70304765914972
30
0
41
1
10
85.0407522846895
20
3.69565324790409
30
0
41
1
10
85.0319120194595
20
3.6870407705488
30
0
41
1
10
85.0204023472356
20
3.67784137098559
30
0
41
1
10
85.0081677188065
20
3.66990425922577
30
0
41
1
10
84.9954113254376
20
3.66327726384819
30
0
41
1
10
84.9823363583944
20
3.65800821343166
30
0
41
1
10
84.9691338794071
20
3.65406751078791
30
0
41
1
10
84.9559949502059
20
3.65142555872876
30
0
41
1
10
84.9468291086901
20
3.65041413720257
30
0
41
1
10
84.9418104542778
20
3.65009924115989
30
0
41
1
10
84.940750414834
20
3.6500414791889
30
0
41
1
10
84.9396820570722
20
3.64998946569094
30
0
41
1
10
84.9385922249762
20
3.6499461656793
30
0
41
1
10
84.9374814939295
20
3.64990666627793
30
0
41
1
10
84.9367786990007
20
3.64988253922388
30
0
41
1
10
84.9353604069135
20
3.64983358994974
30
0
41
1
10
84.9336207578237
20
3.64977278765721
30
0
41
1
10
84.9314168767568
20
3.64969518018634
30
0
41
1
10
84.9299432355967
20
3.64964320177495
30
0
41
1
10
84.9270041153517
20
3.64953969164517
30
0
41
1
10
84.9235013852144
20
3.64941680467882
30
0
41
1
10
84.9191416772986
20
3.64926421964245
30
0
41
1
10
84.9121726742935
20
3.64902044093873
30
0
41
1
10
84.9016865214847
20
3.6486529861109
30
0
41
1
10
84.8830055667046
20
3.64799760387692
30
0
41
1
10
84.8596826024674
20
3.64717992101066
30
0
41
1
10
84.8398725024324
20
3.64648567972662
30
0
41
1
10
84.8282184588077
20
3.64607724538649
30
0
41
1
10
84.824722177424
20
3.64595471134675
30
0
41
1
10
84.8218085537551
20
3.64585259659043
30
0
41
1
10
84.8194776219493
20
3.64577090298644
30
0
41
1
10
84.8177294068191
20
3.64570963189271
30
0
41
1
10
84.8159811755729
20
3.645648359917
30
0
41
1
10
84.8142329283703
20
3.64558708706801
30
0
41
1
10
84.812484665371
20
3.64552581335451
30
0
41
1
10
84.8110277665073
20
3.64547475121344
30
0
41
1
10
84.8092794762628
20
3.64541347600886
30
0
41
1
10
84.8075311706207
20
3.64535219996159
30
0
41
1
10
84.8054914585995
20
3.64528071003002
30
0
41
1
10
84.8040345089428
20
3.64522964510917
30
0
41
1
10
84.7987894567915
20
3.64504580956682
30
0
41
1
10
84.7894646047771
20
3.64471897359346
30
0
41
1
10
84.7617797862621
20
3.64374858822501
30
0
41
1
10
84.733799617702
20
3.64276777314379
30
0
41
1
10
84.7058171532247
20
3.6417868324119
30
0
41
1
10
84.6918255435519
20
3.64129634138976
30
0
41
1
10
84.6801656224206
20
3.64088758538617
30
0
41
1
10
84.6711290799187
20
3.6405707938122
30
0
41
1
10
84.6664650309415
20
3.6404072870038
30
0
41
1
10
84.66354999318
20
3.64030509485721
30
0
41
1
10
84.6620924730083
20
3.64025399871329
30
0
41
1
10
84.6603434468965
20
3.64019268323625
30
0
41
1
10
84.6585944190387
20
3.64013136766366
30
0
41
1
10
84.6562623797797
20
3.64004961345111
30
0
41
1
10
84.6533473271392
20
3.63994742049025
30
0
41
1
10
84.6463511919424
20
3.63970215689926
30
0
41
1
10
84.6381890158245
20
3.63941601503674
30
0
41
1
10
84.6294438418042
20
3.63910943527304
30
0
41
1
10
84.6247797595207
20
3.63894592664189
30
0
41
1
10
84.6212817042357
20
3.63882329552027
30
0
41
1
10
84.6194510603509
20
3.63875911879816
30
0
41
1
10
84.6182034263889
20
3.63871538063509
30
0
41
1
10
84.6181218076076
20
3.6387125193348
30
0
0
SPLINE
5
24C
100
AcDbEntity
8
1
62
256
6
ByLayer
370
18
48
1
60
0
100
AcDbSpline
70
4
71
1
72
4
73
2
40
0
40
0
40
1
40
1
41
1
10
81.321373297253
20
7.84644516384679
30
0
41
1
10
81.3351378167564
20
7.84692766753176
30
0
0
SPLINE
5
24D
100
AcDbEntity
8
1
62
256
6
ByLayer
370
18
48
1
60
0
100
AcDbSpline
70
4
71
1
72
4
73
2
40
0
40
0
40
1
40
1
41
1
10
85.6304339312516
20
7.30684662690032
30
0
41
1
10
85.6930139796976
20
5.50794313826594
30
0
0
SPLINE
5
24E
100
AcDbEntity
8
1
62
256
6
ByLayer
370
18
48
1
60
0
100
AcDbSpline
70
4
71
1
72
4
73
2
40
0
40
0
40
1
40
1
41
1
10
85.7555940281436
20
3.70903964963159
30
0
41
1
10
85.7560746957564
20
3.69522255189978
30
0
0
SPLINE
5
24F
100
AcDbEntity
8
1
62
256
6
ByLayer
370
18
48
1
60
0
100
AcDbSpline
70
4
71
3
72
83
73
79
40
0
40
0
40
0
40
0
40
0.0019524496734396
40
0.0055614898931968
40
0.009170530112954
40
0.0127795703327112
40
0.0163886105524684
40
0.0236066909919828
40
0.0308247714314972
40
0.0380428518710117
40
0.095787495387127
40
0.153532138903242
40
0.1824044606613
40
0.211276782419358
40
0.218494862858872
40
0.225712943298387
40
0.238344584067537
40
0.240149104177415
40
0.243758144397172
40
0.24736718461693
40
0.253683005001505
40
0.254585265056444
40
0.256389785166323
40
0.258194305276201
40
0.261803345495959
40
0.263607865605837
40
0.265412385715716
40
0.269021425935473
40
0.297893747693531
40
0.326766069451588
40
0.355638391209646
40
0.384510712967704
40
0.413383034725761
40
0.442255356483819
40
0.471127678241877
40
0.499999999999934
40
0.514436160878963
40
0.528872321757992
40
0.55774464351605
40
0.572180804395079
40
0.586616965274108
40
0.615489287032165
40
0.629925447911195
40
0.644361608790222
40
0.67323393054828
40
0.687670091427308
40
0.702106252306338
40
0.716542413185366
40
0.730978574064396
40
0.732783094174273
40
0.734587614284153
40
0.736392134394032
40
0.73819665450391
40
0.740001174613789
40
0.741805694723667
40
0.745414734943424
40
0.749023775163183
40
0.752632815382939
40
0.756241855602697
40
0.759850895822453
40
0.763459936042211
40
0.767068976261968
40
0.774287056701481
40
0.788723217580511
40
0.795941298020025
40
0.817595539338569
40
0.846467861096626
40
0.904212504612742
40
0.933084826370799
40
0.961957148128857
40
0.969175228568372
40
0.976393309007886
40
0.983611389447401
40
0.989024949777036
40
0.990829469886915
40
0.994438510106672
40
0.998047550326429
40
1
40
1
40
1
40
1
41
1
10
85.605580085996
20
7.56284880395714
30
0
41
1
10
85.6055378938449
20
7.56324599908163
30
0
41
1
10
85.6054175688599
20
7.5643720027015
30
0
41
1
10
85.6052171942657
20
7.56620361466901
30
0
41
1
10
85.6049738044698
20
7.56834380856327
30
0
41
1
10
85.6047197902407
20
7.570477882787
30
0
41
1
10
85.6043669274703
20
7.57331839598066
30
0
41
1
10
85.6038992458467
20
7.57686589000645
30
0
41
1
10
85.6032953955168
20
7.58113728962732
30
0
41
1
10
85.601139105917
20
7.59541237850047
30
0
41
1
10
85.5963656752704
20
7.6198801355367
30
0
41
1
10
85.588308738003
20
7.64881528086394
30
0
41
1
10
85.5803480504408
20
7.67187326262794
30
0
41
1
10
85.5752978959743
20
7.6847732728543
30
0
41
1
10
85.5716909768426
20
7.69332894275723
30
0
41
1
10
85.5693766663154
20
7.69866416767775
30
0
41
1
10
85.5674592896487
20
7.70291798897429
30
0
41
1
10
85.5658215791
20
7.7064529892186
30
0
41
1
10
85.5649952448051
20
7.70821861154209
30
0
41
1
10
85.5637407917345
20
7.71086316636251
30
0
41
1
10
85.5627207895407
20
7.71297440831324
30
0
41
1
10
85.5618608317171
20
7.71473096520518
30
0
41
1
10
85.5614289862566
20
7.71560871266772
30
0
41
1
10
85.560734052404
20
7.71701195943413
30
0
41
1
10
85.5600331481605
20
7.71841345782658
30
0
41
1
10
85.5593262760911
20
7.71981315861808
30
0
41
1
10
85.5586154263262
20
7.72121164459992
30
0
41
1
10
85.5552105549542
20
7.72784568058071
30
0
41
1
10
85.5488135297567
20
7.73962041458407
30
0
41
1
10
85.5390305169755
20
7.75595016072245
30
0
41
1
10
85.52850689247
20
7.77193578640197
30
0
41
1
10
85.5172627705799
20
7.78752815759162
30
0
41
1
10
85.5053182656445
20
7.80267814026038
30
0
41
1
10
85.4927019803333
20
7.81734009836904
30
0
41
1
10
85.4794425173157
20
7.83146839587846
30
0
41
1
10
85.4678871830043
20
7.84276364477597
30
0
41
1
10
85.4583575662523
20
7.85149267536116
30
0
41
1
10
85.4486448190967
20
7.86001134767255
30
0
41
1
10
85.4386680300329
20
7.86820611369529
30
0
41
1
10
85.4284485064555
20
7.87606023567349
30
0
41
1
10
85.418075051012
20
7.88368301852586
30
0
41
1
10
85.4074825344837
20
7.89095242804521
30
0
41
1
10
85.3966946302994
20
7.89785573494305
30
0
41
1
10
85.3857848395
20
7.90451218766461
30
0
41
1
10
85.3747047765116
20
7.91079418047889
30
0
41
1
10
85.3634795568012
20
7.9166933561001
30
0
41
1
10
85.3549944618302
20
7.92092535613662
30
0
41
1
10
85.3464495848438
20
7.92496400141093
30
0
41
1
10
85.3403591500898
20
7.92768705958997
30
0
41
1
10
85.3367655291447
20
7.92924308486383
30
0
41
1
10
85.3356867209848
20
7.92970684108531
30
0
41
1
10
85.3346072032234
20
7.93016754616241
30
0
41
1
10
85.3335269881353
20
7.93062520031151
30
0
41
1
10
85.3324460879953
20
7.93107980374887
30
0
41
1
10
85.3310039907724
20
7.93168187433815
30
0
41
1
10
85.3291997179879
20
7.93242683687708
30
0
41
1
10
85.3270320468354
20
7.93330859253805
30
0
41
1
10
85.3248619300701
20
7.93417815054383
30
0
41
1
10
85.3226894658903
20
7.93503551262501
30
0
41
1
10
85.3205147524944
20
7.93588068051213
30
0
41
1
10
85.3183378880806
20
7.93671365593579
30
0
41
1
10
85.3154326651028
20
7.9378080355234
30
0
41
1
10
85.3103416837175
20
7.93968053829346
30
0
41
1
10
85.3045093534806
20
7.94172305712942
30
0
41
1
10
85.2957444729493
20
7.94464069195558
30
0
41
1
10
85.2840328133122
20
7.94827179775504
30
0
41
1
10
85.2620300686309
20
7.95423728527464
30
0
41
1
10
85.2385765921895
20
7.95907696406664
30
0
41
1
10
85.21531445689
20
7.96245620682677
30
0
41
1
10
85.2023303542045
20
7.96382548093055
30
0
41
1
10
85.1937284290445
20
7.96452356517236
30
0
41
1
10
85.18944152624
20
7.96483028776902
30
0
41
1
10
85.1855277153199
20
7.96507323796763
30
0
41
1
10
85.1826801200767
20
7.96522486035508
30
0
41
1
10
85.180540291126
20
7.96532759177421
30
0
41
1
10
85.1787537625776
20
7.96540628508768
30
0
41
1
10
85.176919587758
20
7.96547916832134
30
0
41
1
10
85.1757922079258
20
7.96552111266104
30
0
41
1
10
85.1753945449386
20
7.96553565587743
30
0
0
SPLINE
5
250
100
AcDbEntity
8
1
62
256
6
ByLayer
370
18
48
1
60
0
100
AcDbSpline
70
4
71
1
72
4
73
2
40
0
40
0
40
1
40
1
41
1
10
85.1061725815381
20
2.99562568273205
30
0
41
1
10
85.0924080620347
20
2.99514317904712
30
0
0
SPLINE
5
251
100
AcDbEntity
8
1
62
256
6
ByLayer
370
18
48
1
60
0
100
AcDbSpline
70
4
71
3
72
83
73
79
40
0
40
0
40
0
40
0
40
0.0019524496734608
40
0.0055614898932179
40
0.009170530112975
40
0.0127795703327321
40
0.0163886105524892
40
0.0236066909920034
40
0.0308247714315176
40
0.0380428518710319
40
0.0957874953871455
40
0.153532138903259
40
0.182404460661316
40
0.211276782419373
40
0.218494862858887
40
0.225712943298401
40
0.238344584067551
40
0.240149104177429
40
0.243758144397187
40
0.247367184616944
40
0.253683005001519
40
0.254585265056458
40
0.256389785166336
40
0.258194305276215
40
0.261803345495972
40
0.263607865605851
40
0.265412385715729
40
0.269021425935486
40
0.297893747693543
40
0.3267660694516
40
0.355638391209657
40
0.384510712967714
40
0.41338303472577
40
0.442255356483827
40
0.471127678241884
40
0.499999999999941
40
0.514436160878969
40
0.528872321757998
40
0.557744643516055
40
0.572180804395083
40
0.586616965274112
40
0.615489287032168
40
0.629925447911197
40
0.644361608790224
40
0.673233930548282
40
0.687670091427309
40
0.702106252306339
40
0.716542413185365
40
0.730978574064396
40
0.732783094174272
40
0.734587614284153
40
0.736392134394031
40
0.73819665450391
40
0.740001174613788
40
0.741805694723667
40
0.745414734943424
40
0.749023775163181
40
0.752632815382937
40
0.756241855602695
40
0.759850895822452
40
0.76345993604221
40
0.767068976261967
40
0.774287056701479
40
0.788723217580509
40
0.795941298020022
40
0.817595539338566
40
0.846467861096623
40
0.904212504612736
40
0.933084826370793
40
0.96195714812885
40
0.969175228568364
40
0.976393309007878
40
0.983611389447393
40
0.989024949777028
40
0.990829469886907
40
0.994438510106664
40
0.998047550326421
40
1
40
1
40
1
40
1
41
1
10
81.0801098052725
20
7.82197888462488
30
0
41
1
10
81.0797141215954
20
7.82193653130668
30
0
41
1
10
81.0785924027592
20
7.82181574669977
30
0
41
1
10
81.0767677606282
20
7.8216146067071
30
0
41
1
10
81.0746357108179
20
7.82137028720172
30
0
41
1
10
81.0725097573908
20
7.82111530267954
30
0
41
1
10
81.0696800532074
20
7.82076109203072
30
0
41
1
10
81.0661460584674
20
7.82029162393926
30
0
41
1
10
81.0618909128117
20
7.81968546699926
30
0
41
1
10
81.0476701449614
20
7.81752094072351
30
0
41
1
10
81.0232954951277
20
7.81272927634728
30
0
41
1
10
80.9944704567642
20
7.80464156288846
30
0
41
1
10
80.9715002175822
20
7.79665046679295
30
0
41
1
10
80.9586492957894
20
7.79158102155685
30
0
41
1
10
80.9501261827935
20
7.78796032458004
30
0
41
1
10
80.9448112600145
20
7.78563717376255
30
0
41
1
10
80.9405736257923
20
7.78371247302852
30
0
41
1
10
80.9370520772912
20
7.78206850669156
30
0
41
1
10
80.9352931736937
20
7.78123901593392
30
0
41
1
10
80.9326586822028
20
7.77997977105633
30
0
41
1
10
80.9305554741651
20
7.77895587261997
30
0
41
1
10
80.9288056015025
20
7.7780926298972
30
0
41
1
10
80.927931194134
20
7.77765913485712
30
0
41
1
10
80.9265332871452
20
7.77696154647012
30
0
41
1
10
80.9251371218772
20
7.77625796488627
30
0
41
1
10
80.9237427473698
20
7.77554839268041
30
0
41
1
10
80.9223495830494
20
7.77483482758487
30
0
41
1
10
80.9157407915783
20
7.77141695015735
30
0
41
1
10
80.9040108639928
20
7.76499548936292
30
0
41
1
10
80.8877432574685
20
7.75517510706214
30
0
41
1
10
80.8718184619209
20
7.74461128402075
30
0
41
1
10
80.8562854244111
20
7.73332421141168
30
0
41
1
10
80.8411930920003
20
7.7213340804079
30
0
41
1
10
80.8265869270688
20
7.7086696029364
30
0
41
1
10
80.8125123919968
20
7.69535949092412
30
0
41
1
10
80.8012601249315
20
7.68376001711292
30
0
41
1
10
80.7925643109431
20
7.67419399877312
30
0
41
1
10
80.7840780547517
20
7.66444415050128
30
0
41
1
10
80.7759144722878
20
7.65442925172403
30
0
41
1
10
80.7680902376149
20
7.64417069122678
30
0
41
1
10
80.7604964617527
20
7.63375761086868
30
0
41
1
10
80.7532547145312
20
7.62312463264806
30
0
41
1
10
80.7463776768003
20
7.61229552042229
30
0
41
1
10
80.739746553891
20
7.60134405599445
30
0
41
1
10
80.7334884659559
20
7.59022166896548
30
0
41
1
10
80.727611738479
20
7.57895357073943
30
0
41
1
10
80.7233958424803
20
7.57043606408411
30
0
41
1
10
80.7193725654706
20
7.56185854705572
30
0
41
1
10
80.71665986935
20
7.55574484783045
30
0
41
1
10
80.7151097652221
20
7.55213749983707
30
0
41
1
10
80.714647773733
20
7.55105457080529
30
0
41
1
10
80.7141888217778
20
7.54997092946147
30
0
41
1
10
80.713732909141
20
7.5488865881272
30
0
41
1
10
80.7132800356069
20
7.54780155912425
30
0
41
1
10
80.712680256078
20
7.54635395332426
30
0
41
1
10
80.7119381283464
20
7.54454278851082
30
0
41
1
10
80.711059728032
20
7.54236683720666
30
0
41
1
10
80.7101934789569
20
7.54018843094786
30
0
41
1
10
80.7093393793973
20
7.53800766830784
30
0
41
1
10
80.7084974276291
20
7.53582464786004
30
0
41
1
10
80.7076676219285
20
7.53363946817785
30
0
41
1
10
80.7065774067856
20
7.53072314772029
30
0
41
1
10
80.7047120294539
20
7.52561271961318
30
0
41
1
10
80.7026772830188
20
7.51975811082221
30
0
41
1
10
80.699770750674
20
7.5109597498712
30
0
41
1
10
80.6961534623283
20
7.49920335359698
30
0
41
1
10
80.6902106752897
20
7.47711656200545
30
0
41
1
10
80.6853894129367
20
7.45357349709423
30
0
41
1
10
80.6820230292155
20
7.43022250421694
30
0
41
1
10
80.6806589656131
20
7.41718880436855
30
0
41
1
10
80.6799635377926
20
7.40855402125186
30
0
41
1
10
80.679657982368
20
7.40425074317511
30
0
41
1
10
80.6794159566683
20
7.40032198213316
30
0
41
1
10
80.6792649112497
20
7.39746350953868
30
0
41
1
10
80.6791625707547
20
7.39531550678902
30
0
41
1
10
80.679084176893
20
7.3935221539918
30
0
41
1
10
80.6790115710021
20
7.39168097292239
30
0
41
1
10
80.6789697862732
20
7.39054928668241
30
0
41
1
10
80.6789552983982
20
7.39015010468714
30
0
0
SPLINE
5
252
100
AcDbEntity
8
1
62
256
6
ByLayer
370
18
48
1
60
0
100
AcDbSpline
70
4
71
3
72
150
73
146
40
0
40
0
40
0
40
0
40
0.200919836739823
40
0.401839673479646
40
0.452069632664601
40
0.502299591849557
40
0.552215613789607
40
0.577173624759631
40
0.601975648161094
40
0.602131635729657
40
0.602445572974563
40
0.602759510219468
40
0.604329196443998
40
0.605114039556263
40
0.605898882668528
40
0.607468568893058
40
0.608253412005323
40
0.609038255117588
40
0.609430676673721
40
0.612177627566647
40
0.615317000015707
40
0.618456372464767
40
0.621595744913827
40
0.623165431138357
40
0.624735117362887
40
0.626304803587416
40
0.627089646699681
40
0.627874489811946
40
0.628266911368078
40
0.634153234710066
40
0.640431979608185
40
0.652989469404424
40
0.665546959200663
40
0.678104448996902
40
0.684383193895022
40
0.687522566344081
40
0.689877095680876
40
0.690661938793141
40
0.692231625017671
40
0.693016468129936
40
0.693801311242201
40
0.694586154354466
40
0.69537099746673
40
0.696155840578995
40
0.69694068369126
40
0.697333105247393
40
0.69851036991579
40
0.70008005614032
40
0.70164974236485
40
0.70321942858938
40
0.709498173487499
40
0.715776918385619
40
0.728334408181858
40
0.734613153079977
40
0.739322211753567
40
0.740891897978097
40
0.744031270427157
40
0.745600956651686
40
0.746385799763951
40
0.747170642876216
40
0.747955485988481
40
0.748740329100746
40
0.749525172213011
40
0.750310015325276
40
0.751094858437541
40
0.751487279993673
40
0.751879701549806
40
0.752272123105938
40
0.752664544662071
40
0.753056966218203
40
0.753449387774336
40
0.756588760223395
40
0.759728132672455
40
0.762867505121515
40
0.766006877570574
40
0.772285622468694
40
0.775424994917753
40
0.778564367366813
40
0.784843112264933
40
0.787982484713992
40
0.791121857163052
40
0.797400602061172
40
0.800539974510231
40
0.803679346959291
40
0.809958091857411
40
0.81623683675553
40
0.82251558165365
40
0.828794326551769
40
0.835073071449889
40
0.841351816348008
40
0.847630561246127
40
0.853909306144247
40
0.854694149256512
40
0.855086570812644
40
0.855478992368777
40
0.856263835481042
40
0.856656257037174
40
0.857048678593307
40
0.857244889371373
40
0.858618364817836
40
0.859403207930102
40
0.860188051042366
40
0.860580472598499
40
0.863327423491426
40
0.864897109715956
40
0.866466795940486
40
0.872745540838605
40
0.879024285736725
40
0.891581775532964
40
0.904139265329203
40
0.905708951553732
40
0.907278637778262
40
0.908848324002792
40
0.909633167115057
40
0.910418010227322
40
0.911202853339587
40
0.911987696451852
40
0.912772539564117
40
0.913557382676382
40
0.913949804232514
40
0.915127068900912
40
0.915911912013177
40
0.916696755125442
40
0.917089176681574
40
0.922975500023561
40
0.929254244921681
40
0.954369224514158
40
0.960647969412278
40
0.966926714310397
40
0.973205459208517
40
0.976344831657576
40
0.979091782550504
40
0.979484204106636
40
0.980269047218901
40
0.981053890331166
40
0.981838733443431
40
0.982623576555696
40
0.984193262780226
40
0.985762949004756
40
0.992041693902875
40
0.995181066351935
40
0.99753559568873
40
0.998320438800995
40
0.999890125025524
40
1
40
1
40
1
40
1
41
1
10
83.264808902662
20
3.59127323744076
30
0
41
1
10
83.1155796408817
20
3.5860421308488
30
0
41
1
10
82.817121117321
20
3.5755799176649
30
0
41
1
10
82.4813487687885
20
3.56380982753873
30
0
41
1
10
82.25751626779
20
3.55596334316579
30
0
41
1
10
82.1458324162012
20
3.55204826269184
30
0
41
1
10
82.0529141157662
20
3.54879108505389
30
0
41
1
10
81.9788776514721
20
3.54619587811024
30
0
41
1
10
81.9417997659451
20
3.54489621743059
30
0
41
1
10
81.9230271112884
20
3.54423820514873
30
0
41
1
10
81.9224448380405
20
3.54421779552399
30
0
41
1
10
81.9208124313037
20
3.54416057703412
30
0
41
1
10
81.9188302189779
20
3.54409109737543
30
0
41
1
10
81.9164981990203
20
3.5440093565164
30
0
41
1
10
81.9141661756381
20
3.54392761560462
30
0
41
1
10
81.9118341474388
20
3.54384587461863
30
0
41
1
10
81.909502115062
20
3.54376413356826
30
0
41
1
10
81.9080445932191
20
3.54371304538702
30
0
41
1
10
81.9051295473221
20
3.54361086899047
30
0
41
1
10
81.9004654648785
20
3.5434473866172
30
0
41
1
10
81.8937608301298
20
3.54321238045546
30
0
41
1
10
81.8867646816837
20
3.54296715651373
30
0
41
1
10
81.8809345599735
20
3.54276280325971
30
0
41
1
10
81.8762704689186
20
3.54259932075374
30
0
41
1
10
81.8727724050631
20
3.54247670894262
30
0
41
1
10
81.8698573566125
20
3.54237453250673
30
0
41
1
10
81.867525321349
20
3.54229279141188
30
0
41
1
10
81.8660678008995
20
3.5422417032521
30
0
41
1
10
81.8608207319352
20
3.54205778594863
30
0
41
1
10
81.8514926551596
20
3.54173082255963
30
0
41
1
10
81.8331282763953
20
3.54108711758431
30
0
41
1
10
81.8098091705683
20
3.54026972584589
30
0
41
1
10
81.7818280828205
20
3.53928888409757
30
0
41
1
10
81.7585125881417
20
3.53847154799723
30
0
41
1
10
81.7421931195635
20
3.53789943395356
30
0
41
1
10
81.7334509545092
20
3.53759295056423
30
0
41
1
10
81.7287885991954
20
3.53742949480136
30
0
41
1
10
81.7252918915066
20
3.53730690388511
30
0
41
1
10
81.7229607827655
20
3.53722517706549
30
0
41
1
10
81.720629704382
20
3.53714345071359
30
0
41
1
10
81.718881410933
20
3.53708215618602
30
0
41
1
10
81.7171331329825
20
3.53702086189719
30
0
41
1
10
81.7153848706906
20
3.53695956784966
30
0
41
1
10
81.7136366242169
20
3.53689827404583
30
0
41
1
10
81.7121797654707
20
3.53684719608111
30
0
41
1
10
81.7104315470788
20
3.53678590270994
30
0
41
1
10
81.7081006108471
20
3.53670417854823
30
0
41
1
10
81.7048956263308
20
3.5365918086394
30
0
41
1
10
81.7013993466963
20
3.53646922431832
30
0
41
1
10
81.6944069242066
20
3.53622405778356
30
0
41
1
10
81.6839188129874
20
3.53585631603195
30
0
41
1
10
81.6652706275865
20
3.53520251202167
30
0
41
1
10
81.6466122497525
20
3.53454855097348
30
0
41
1
10
81.6290988196595
20
3.53393513584246
30
0
41
1
10
81.6197753679675
20
3.53360824371356
30
0
41
1
10
81.6127976825541
20
3.53336330423741
30
0
41
1
10
81.6081546103948
20
3.53320014557599
30
0
41
1
10
81.6040728513761
20
3.5330570879164
30
0
41
1
10
81.6017311546525
20
3.5329751979645
30
0
41
1
10
81.5999692970666
20
3.53291369445012
30
0
41
1
10
81.5982009008935
20
3.5328520901937
30
0
41
1
10
81.5964377764562
20
3.53279056716053
30
0
41
1
10
81.5946917340781
20
3.53272930731589
30
0
41
1
10
81.5929745840824
20
3.53266849262499
30
0
41
1
10
81.5915775446737
20
3.5326183363151
30
0
41
1
10
81.5904804970804
20
3.53258346602519
30
0
41
1
10
81.5896680614974
20
3.53256117598639
30
0
41
1
10
81.5888660341717
20
3.53254398392588
30
0
41
1
10
81.5880699307868
20
3.53253152957262
30
0
41
1
10
81.5872752670264
20
3.53252345265568
30
0
41
1
10
81.5846252615893
20
3.53251091473123
30
0
41
1
10
81.5800663105225
20
3.5325980681535
30
0
41
1
10
81.5735271026633
20
3.5330068719332
30
0
41
1
10
81.566917194911
20
3.53371496987606
30
0
41
1
10
81.5580312435628
20
3.53507381940048
30
0
41
1
10
81.5490684689661
20
3.53707823740044
30
0
41
1
10
81.5401231409082
20
3.5397496757727
30
0
41
1
10
81.5312208671385
20
3.54287294502541
30
0
41
1
10
81.5224303096947
20
3.5466846865472
30
0
41
1
10
81.5138544785563
20
3.55116815832676
30
0
41
1
10
81.5054561349478
20
3.55609386960771
30
0
41
1
10
81.4973755276241
20
3.56167456913514
30
0
41
1
10
81.4897050433706
20
3.56785322991757
30
0
41
1
10
81.4823387700922
20
3.57441152253958
30
0
41
1
10
81.4737590658134
20
3.58328555614656
30
0
41
1
10
81.4645946727429
20
3.59483919344862
30
0
41
1
10
81.4566877640896
20
3.60712055617071
30
0
41
1
10
81.4500859864302
20
3.61992567688989
30
0
41
1
10
81.4448369863412
20
3.6330505881831
30
0
41
1
10
81.4409112792608
20
3.64630349849531
30
0
41
1
10
81.4382793806269
20
3.65949261627153
30
0
41
1
10
81.4372718078649
20
3.66869346981286
30
0
41
1
10
81.4369581100967
20
3.67373129466972
30
0
41
1
10
81.4369005679275
20
3.67479538329201
30
0
41
1
10
81.4368487523566
20
3.67586782200695
30
0
41
1
10
81.4368056171145
20
3.67696181708445
30
0
41
1
10
81.4367662680203
20
3.67807679094329
30
0
41
1
10
81.436742232777
20
3.67878227043454
30
0
41
1
10
81.4366934697696
20
3.6802059801671
30
0
41
1
10
81.4366328988482
20
3.6819522744338
30
0
41
1
10
81.4365555866972
20
3.68416457396839
30
0
41
1
10
81.4365038060793
20
3.68564384419832
30
0
41
1
10
81.4364006898368
20
3.68859419140514
30
0
41
1
10
81.4362782704926
20
3.69211030140252
30
0
41
1
10
81.4361262660883
20
3.69648666269433
30
0
41
1
10
81.4358834150361
20
3.70348228615873
30
0
41
1
10
81.4355173584849
20
3.71400849436765
30
0
41
1
10
81.4348644701781
20
3.73276080736025
30
0
41
1
10
81.434049898842
20
3.75617286153181
30
0
41
1
10
81.4333582993557
20
3.7760586329307
30
0
41
1
10
81.4329514192315
20
3.78775719310877
30
0
41
1
10
81.4328293514708
20
3.79126682971935
30
0
41
1
10
81.432727625292
20
3.79419158295727
30
0
41
1
10
81.4326462425568
20
3.79653141854396
30
0
41
1
10
81.4325852046181
20
3.7982863115719
30
0
41
1
10
81.4325241658008
20
3.80004122077747
30
0
41
1
10
81.4324631261134
20
3.80179614600041
30
0
41
1
10
81.4324020855649
20
3.80355108708039
30
0
41
1
10
81.4323512177307
20
3.80501355106105
30
0
41
1
10
81.4322901756968
20
3.80676851949025
30
0
41
1
10
81.4322291328234
20
3.80852350337582
30
0
41
1
10
81.4321579149326
20
3.81057100676563
30
0
41
1
10
81.4321070443291
20
3.81203352173333
30
0
41
1
10
81.4319239083366
20
3.81729860913171
30
0
41
1
10
81.4315983160728
20
3.82665908056595
30
0
41
1
10
81.4306316233136
20
3.85444965059011
30
0
41
1
10
81.4296545405299
20
3.88253669884855
30
0
41
1
10
81.4286773325736
20
3.91062605179417
30
0
41
1
10
81.4281887080179
20
3.92467110714284
30
0
41
1
10
81.4277815074543
20
3.9363755672787
30
0
41
1
10
81.4274659213679
20
3.94544662790486
30
0
41
1
10
81.4273030367523
20
3.95012849279146
30
0
41
1
10
81.4272012334777
20
3.95305466552372
30
0
41
1
10
81.42715033177
20
3.95451775318565
30
0
41
1
10
81.4270892496169
20
3.95627346029301
30
0
41
1
10
81.4270281673685
20
3.95802916915312
30
0
41
1
10
81.4269467242555
20
3.96037011642321
30
0
41
1
10
81.4268449201697
20
3.9632963040913
30
0
41
1
10
81.4266005898807
20
3.9703191633879
30
0
41
1
10
81.4263155368744
20
3.97851251769265
30
0
41
1
10
81.4260101237392
20
3.98729109685689
30
0
41
1
10
81.4258472373078
20
3.99197299517704
30
0
41
1
10
81.4257250728346
20
3.99548441246489
30
0
41
1
10
81.4256611403243
20
3.99732204911206
30
0
41
1
10
81.4256175685981
20
3.99857444883307
30
0
41
1
10
81.425614718186
20
3.99865637938484
30
0
0
SPLINE
5
253
100
AcDbEntity
8
1
62
256
6
ByLayer
370
18
48
1
60
0
100
AcDbSpline
70
4
71
3
72
14
73
10
40
0
40
0
40
0
40
0
40
0.0403466864445625
40
0.150922708497079
40
0.261498730549595
40
0.372074752602111
40
0.593226796707144
40
0.814378840812176
40
1
40
1
40
1
40
1
41
1
10
85.7555925759636
20
3.65320050439894
30
0
41
1
10
85.7556116795191
20
3.653765333249
30
0
41
1
10
85.755682196449
20
3.65587816486092
30
0
41
1
10
85.755794848215
20
3.65953908307009
30
0
41
1
10
85.755906703417
20
3.66418454311659
30
0
41
1
10
85.7560177590295
20
3.67037978762238
30
0
41
1
10
85.7560913882195
20
3.67812533908901
30
0
41
1
10
85.7560739819538
20
3.6869226225422
30
0
41
1
10
85.7560011393546
20
3.6926206633978
30
0
41
1
10
85.755955346163
20
3.69522053930169
30
0
0
SPLINE
5
254
100
AcDbEntity
8
1
62
256
6
ByLayer
370
18
48
1
60
0
100
AcDbSpline
70
4
71
3
72
25
73
21
40
0
40
0
40
0
40
0
40
0.0031159645604747
40
0.0146460991234481
40
0.0204111664049348
40
0.0607666373753417
40
0.106887175627235
40
0.199128252131023
40
0.29136932863481
40
0.383610405138597
40
0.752574711153746
40
0.844815787657533
40
0.931291796879834
40
0.93705686416132
40
0.948586998724294
40
0.960117133287267
40
0.977412335131727
40
0.983177402413214
40
0.994707536976187
40
1
40
1
40
1
40
1
41
1
10
85.1478991174135
20
2.99903977509163
30
0
41
1
10
85.1481064897568
20
2.99906145022894
30
0
41
1
10
85.1490811982803
20
2.99916349338898
30
0
41
1
10
85.1504395131503
20
2.99930654767451
30
0
41
1
10
85.1542760440153
20
2.99971069221067
30
0
41
1
10
85.1604145467588
20
3.00035770248886
30
0
41
1
10
85.1723078319477
20
3.00161227702725
30
0
41
1
10
85.1876532664279
20
3.00323222325983
30
0
41
1
10
85.2060646580093
20
3.00517507812435
30
0
41
1
10
85.24290035973
20
3.0090614734859
30
0
41
1
10
85.2798163032141
20
3.01295670008287
30
0
41
1
10
85.3161133054768
20
3.01678555382858
30
0
41
1
10
85.3284095587838
20
3.01808296543945
30
0
41
1
10
85.3353738443832
20
3.01881800296894
30
0
41
1
10
85.3373109445421
20
3.01902246361146
30
0
41
1
10
85.3400149227512
20
3.01930783222892
30
0
41
1
10
85.3423104041386
20
3.01954998905185
30
0
41
1
10
85.3445716939599
20
3.0197883828248
30
0
41
1
10
85.3460288987658
20
3.01994191687638
30
0
41
1
10
85.3471003486865
20
3.02005602653014
30
0
41
1
10
85.3474360735187
20
3.020091961954
30
0
0
SPLINE
5
255
100
AcDbEntity
8
1
62
256
6
ByLayer
370
18
48
1
60
0
100
AcDbSpline
70
4
71
3
72
14
73
10
40
0
40
0
40
0
40
0
40
0.0403466864445457
40
0.150922708497067
40
0.261498730549589
40
0.372074752602111
40
0.593226796707155
40
0.814378840812198
40
1
40
1
40
1
40
1
41
1
10
80.6719533028275
20
7.18887034217994
30
0
41
1
10
80.671934199272
20
7.18830551332988
30
0
41
1
10
80.6718636823421
20
7.18619268171796
30
0
41
1
10
80.6717510305761
20
7.18253176350879
30
0
41
1
10
80.6716391753741
20
7.17788630346229
30
0
41
1
10
80.6715281197617
20
7.17169105895647
30
0
41
1
10
80.6714544905716
20
7.16394550748987
30
0
41
1
10
80.6714718968373
20
7.15514822403668
30
0
41
1
10
80.6715447394365
20
7.14945018318107
30
0
41
1
10
80.6715905326282
20
7.14685030727719
30
0
0
SPLINE
5
256
100
AcDbEntity
8
1
62
256
6
ByLayer
370
18
48
1
60
0
100
AcDbSpline
70
4
71
3
72
24
73
20
40
0
40
0
40
0
40
0
40
0.0052924630237742
40
0.0168225975867552
40
0.0283527321497361
40
0.0398828667127092
40
0.0629431358386685
40
0.0744732704016441
40
0.109063674090582
40
0.155184212342492
40
0.247425288846322
40
0.431907441853975
40
0.616389594861628
40
0.800871747869281
40
0.893112824373106
40
0.97958883359545
40
0.985353900876934
40
0.996884035439912
40
1
40
1
40
1
40
1
41
1
10
85.1753945449386
20
7.96553565587743
30
0
41
1
10
85.1750571407258
20
7.96554799532726
30
0
41
1
10
85.1739803712059
20
7.96558680095055
30
0
41
1
10
85.1721423061906
20
7.96565097123133
30
0
41
1
10
85.169859990604
20
7.96573083648261
30
0
41
1
10
85.1667784126872
20
7.96583884619119
30
0
41
1
10
85.1636611067663
20
7.96594826932184
30
0
41
1
10
85.1589975789713
20
7.9661119122363
30
0
41
1
10
85.1528000123656
20
7.96632929296501
30
0
41
1
10
85.1412307056812
20
7.96673485906899
30
0
41
1
10
85.1197298560776
20
7.96748815003897
30
0
41
1
10
85.0888953056008
20
7.96856898972942
30
0
41
1
10
85.0518308681901
20
7.96986848876085
30
0
41
1
10
85.0209976103413
20
7.97094927731413
30
0
41
1
10
84.9967101251723
20
7.97180208911124
30
0
41
1
10
84.9843729438967
20
7.97223403429769
30
0
41
1
10
84.9774334584576
20
7.97247616115362
30
0
41
1
10
84.9760685113848
20
7.97252375377616
30
0
41
1
10
84.975089086118
20
7.97255729641537
30
0
41
1
10
84.9748807126958
20
7.97256439793361
30
0
0
SPLINE
5
257
100
AcDbEntity
8
1
62
256
6
ByLayer
370
18
48
1
60
0
100
AcDbSpline
70
4
71
3
72
40
73
36
40
0
40
0
40
0
40
0
40
0.015625
40
0.03125
40
0.03515625
40
0.0390625
40
0.046875
40
0.0625
40
0.125
40
0.1875
40
0.25
40
0.3125
40
0.34375
40
0.3515625
40
0.359375
40
0.375
40
0.4375
40
0.5
40
0.5625
40
0.59375
40
0.6015625
40
0.609375
40
0.625
40
0.640625
40
0.6484375
40
0.65625
40
0.6875
40
0.71875
40
0.75
40
0.78125
40
0.796875
40
0.8046875
40
0.8125
40
0.875
40
1
40
1
40
1
40
1
41
1
10
83.264808902662
20
3.59127323744076
30
0
41
1
10
83.2649346839544
20
3.58765757379908
30
0
41
1
10
83.2652592237316
20
3.58032019751772
30
0
41
1
10
83.2657700632134
20
3.57242928460698
30
0
41
1
10
83.2661536973005
20
3.56755133072383
30
0
41
1
10
83.2664222867577
20
3.56440869313636
30
0
41
1
10
83.2668947832149
20
3.55885218570481
30
0
41
1
10
83.2683773510127
20
3.54144475644532
30
0
41
1
10
83.2708046729251
20
3.51292982397627
30
0
41
1
10
83.2740405823053
20
3.47492191217492
30
0
41
1
10
83.2772763895225
20
3.43691711113576
30
0
41
1
10
83.2799729566699
20
3.40524139421902
30
0
41
1
10
83.281725804402
20
3.38465739126568
30
0
41
1
10
83.2825347056735
20
3.37515152336343
30
0
41
1
10
83.2830732841178
20
3.36884007350488
30
0
41
1
10
83.2845235371317
20
3.35136422415908
30
0
41
1
10
83.2867810110343
20
3.32146561308346
30
0
41
1
10
83.2894711227456
20
3.2796382855413
30
0
41
1
10
83.2914056111842
20
3.24376893750579
30
0
41
1
10
83.2924990072169
20
3.22026610915248
30
0
41
1
10
83.2929707399471
20
3.20943092473789
30
0
41
1
10
83.2932781170643
20
3.20216363030369
30
0
41
1
10
83.2936652571497
20
3.19304608404076
30
0
41
1
10
83.2940513445184
20
3.18394155334278
30
0
41
1
10
83.2943606165258
20
3.17665083089167
30
0
41
1
10
83.2948223609311
20
3.16574546899344
30
0
41
1
10
83.2954657346791
20
3.14931375864566
30
0
41
1
10
83.2962219802636
20
3.127334877967
30
0
41
1
10
83.2968722572439
20
3.10538777440098
30
0
41
1
10
83.2973227331354
20
3.08720326731498
30
0
41
1
10
83.2975894414084
20
3.07458355533569
30
0
41
1
10
83.2977280525715
20
3.06739016483655
30
0
41
1
10
83.2980781995828
20
3.04937854563258
30
0
41
1
10
83.2989513583044
20
3.00436054678983
30
0
41
1
10
83.2997906491633
20
2.96113797300924
30
0
41
1
10
83.3003499442784
20
2.93232408498261
30
0
0
SPLINE
5
258
100
AcDbEntity
8
1
62
256
6
ByLayer
370
18
48
1
60
0
100
AcDbSpline
70
4
71
3
72
150
73
146
40
0
40
0
40
0
40
0
40
0.200919836739822
40
0.401839673479644
40
0.452069632664599
40
0.502299591849555
40
0.552215613789604
40
0.577173624759629
40
0.601975648161091
40
0.602131635729654
40
0.60244557297456
40
0.602759510219466
40
0.604329196443996
40
0.605114039556261
40
0.605898882668526
40
0.607468568893055
40
0.60825341200532
40
0.609038255117585
40
0.609430676673718
40
0.612177627566645
40
0.615317000015705
40
0.618456372464764
40
0.621595744913824
40
0.623165431138354
40
0.624735117362884
40
0.626304803587414
40
0.627089646699679
40
0.627874489811944
40
0.628266911368076
40
0.634153234710063
40
0.640431979608183
40
0.652989469404421
40
0.66554695920066
40
0.678104448996899
40
0.684383193895019
40
0.687522566344078
40
0.689877095680873
40
0.690661938793138
40
0.692231625017668
40
0.693016468129933
40
0.693801311242198
40
0.694586154354463
40
0.695370997466728
40
0.696155840578992
40
0.696940683691258
40
0.69733310524739
40
0.698510369915787
40
0.700080056140317
40
0.701649742364847
40
0.703219428589377
40
0.709498173487496
40
0.715776918385616
40
0.728334408181855
40
0.734613153079974
40
0.739322211753564
40
0.740891897978094
40
0.744031270427154
40
0.745600956651683
40
0.746385799763948
40
0.747170642876213
40
0.747955485988478
40
0.748740329100743
40
0.749525172213008
40
0.750310015325273
40
0.751094858437538
40
0.75148727999367
40
0.751879701549803
40
0.752272123105935
40
0.752664544662067
40
0.7530569662182
40
0.753449387774332
40
0.756588760223392
40
0.759728132672452
40
0.762867505121512
40
0.766006877570571
40
0.772285622468691
40
0.77542499491775
40
0.77856436736681
40
0.784843112264929
40
0.787982484713989
40
0.791121857163049
40
0.797400602061168
40
0.800539974510228
40
0.803679346959288
40
0.809958091857407
40
0.816236836755527
40
0.822515581653646
40
0.828794326551766
40
0.835073071449885
40
0.841351816348004
40
0.847630561246124
40
0.853909306144243
40
0.854694149256508
40
0.855086570812641
40
0.855478992368773
40
0.856263835481038
40
0.856656257037171
40
0.857048678593303
40
0.857244889371369
40
0.858618364817833
40
0.859403207930098
40
0.860188051042363
40
0.860580472598495
40
0.863327423491423
40
0.864897109715952
40
0.866466795940482
40
0.872745540838602
40
0.879024285736721
40
0.89158177553296
40
0.904139265329199
40
0.905708951553729
40
0.907278637778259
40
0.908848324002788
40
0.909633167115053
40
0.910418010227318
40
0.911202853339583
40
0.911987696451848
40
0.912772539564113
40
0.913557382676378
40
0.91394980423251
40
0.915127068900908
40
0.915911912013173
40
0.916696755125438
40
0.91708917668157
40
0.922975500023557
40
0.929254244921677
40
0.954369224514154
40
0.960647969412274
40
0.966926714310393
40
0.973205459208513
40
0.976344831657572
40
0.9790917825505
40
0.979484204106632
40
0.980269047218897
40
0.981053890331162
40
0.981838733443427
40
0.982623576555692
40
0.984193262780222
40
0.985762949004752
40
0.992041693902871
40
0.995181066351931
40
0.997535595688726
40
0.99832043880099
40
0.99989012502552
40
1
40
1
40
1
40
1
41
1
10
81.3783559570819
20
5.35713871977271
30
0
41
1
10
81.3731447564298
20
5.50693801308972
30
0
41
1
10
81.3627223551256
20
5.80653659972378
30
0
41
1
10
81.3509970537459
20
6.14359154407927
30
0
41
1
10
81.3431804276149
20
6.36827904886854
30
0
41
1
10
81.3392802452042
20
6.48038951462652
30
0
41
1
10
81.3360354621105
20
6.57366274787404
30
0
41
1
10
81.3334501307128
20
6.64798201943404
30
0
41
1
10
81.3321554156344
20
6.6852015364602
30
0
41
1
10
81.3314999072879
20
6.70404589960791
30
0
41
1
10
81.331479575328
20
6.70463039704504
30
0
41
1
10
81.3314225745717
20
6.7062690393104
30
0
41
1
10
81.3313533593041
20
6.7082588233653
30
0
41
1
10
81.3312719294938
20
6.71059975126028
30
0
41
1
10
81.3311904996309
20
6.71294068259289
30
0
41
1
10
81.3311090696939
20
6.715281618761
30
0
41
1
10
81.331027639693
20
6.71762255912262
30
0
41
1
10
81.3309767459177
20
6.71908564846217
30
0
41
1
10
81.3308749583331
20
6.72201182936098
30
0
41
1
10
81.3307120980597
20
6.72669372784182
30
0
41
1
10
81.3304779861673
20
6.73342397320604
30
0
41
1
10
81.3302336953768
20
6.74044684580264
30
0
41
1
10
81.3300301197485
20
6.74629923763064
30
0
41
1
10
81.3298672593428
20
6.75098114475566
30
0
41
1
10
81.3297451141067
20
6.75449257064679
30
0
41
1
10
81.329643326483
20
6.7574187541089
30
0
41
1
10
81.3295618964377
20
6.75975969736828
30
0
41
1
10
81.3295110026838
20
6.76122278530903
30
0
41
1
10
81.3293277852412
20
6.76648989722443
30
0
41
1
10
81.3290020660466
20
6.77585360573789
30
0
41
1
10
81.3283608105631
20
6.79428813344563
30
0
41
1
10
81.3275465292469
20
6.81769631446863
30
0
41
1
10
81.3265694198976
20
6.84578428542585
30
0
41
1
10
81.3257551940079
20
6.86918884150654
30
0
41
1
10
81.3251852570309
20
6.88557064780352
30
0
41
1
10
81.3248799399034
20
6.89434620650812
30
0
41
1
10
81.3247171061391
20
6.89902637126175
30
0
41
1
10
81.3245949817182
20
6.90253643580584
30
0
41
1
10
81.3245135658938
20
6.90487644900367
30
0
41
1
10
81.3244321505354
20
6.90721643172796
30
0
41
1
10
81.324371089252
20
6.9089714033739
30
0
41
1
10
81.3243100282065
20
6.91072635946207
30
0
41
1
10
81.3242489674013
20
6.912481299832
30
0
41
1
10
81.3241879068389
20
6.91423622432316
30
0
41
1
10
81.3241370232412
20
6.91569864803307
30
0
41
1
10
81.3240759631099
20
6.91745354433519
30
0
41
1
10
81.3239945499332
20
6.91979338436465
30
0
41
1
10
81.3238826076258
20
6.92301061140114
30
0
41
1
10
81.3237604897751
20
6.92652024625585
30
0
41
1
10
81.323516256173
20
6.93353937866351
30
0
41
1
10
81.3231499137898
20
6.94406755276367
30
0
41
1
10
81.3224985977012
20
6.96278697120329
30
0
41
1
10
81.3218471251722
20
6.9815166210094
30
0
41
1
10
81.321236044271
20
6.99909694956025
30
0
41
1
10
81.3209103960653
20
7.00845601532305
30
0
41
1
10
81.3206663886578
20
7.01546035436112
30
0
41
1
10
81.3205038508644
20
7.02012116230176
30
0
41
1
10
81.3203613375824
20
7.02421851297689
30
0
41
1
10
81.3202797592464
20
7.0265691546015
30
0
41
1
10
81.3202184897715
20
7.02833774219718
30
0
41
1
10
81.3201571199378
20
7.0301128933564
30
0
41
1
10
81.3200958310184
20
7.03188275264253
30
0
41
1
10
81.320034804286
20
7.03363546461884
30
0
41
1
10
81.3199742210134
20
7.03535917384869
30
0
41
1
10
81.3199242555633
20
7.03676154972095
30
0
41
1
10
81.3198895179654
20
7.03786278785785
30
0
41
1
10
81.319867312747
20
7.03867832681271
30
0
41
1
10
81.3198501861074
20
7.03948341775251
30
0
41
1
10
81.3198377791467
20
7.04028256212297
30
0
41
1
10
81.3198297329649
20
7.0410802613699
30
0
41
1
10
81.3198172427511
20
7.04374038939721
30
0
41
1
10
81.3199040645282
20
7.0483167549165
30
0
41
1
10
81.3203113126861
20
7.05488094148737
30
0
41
1
10
81.3210167161025
20
7.06151609801353
30
0
41
1
10
81.3223703947943
20
7.07043599225224
30
0
41
1
10
81.3243671853785
20
7.07943300319175
30
0
41
1
10
81.3270284581213
20
7.08841250094963
30
0
41
1
10
81.3301398423916
20
7.09734877995891
30
0
41
1
10
81.3339370790861
20
7.10617291590407
30
0
41
1
10
81.3384034899019
20
7.11478150532429
30
0
41
1
10
81.3433104573643
20
7.12321192924094
30
0
41
1
10
81.3488699206452
20
7.13132340317185
30
0
41
1
10
81.355025069758
20
7.13902318742913
30
0
41
1
10
81.3615584060965
20
7.14641759867479
30
0
41
1
10
81.3703986713265
20
7.15503007603007
30
0
41
1
10
81.3819083435505
20
7.16422947559329
30
0
41
1
10
81.3941429719796
20
7.1721665873531
30
0
41
1
10
81.4068993653485
20
7.17879358273066
30
0
41
1
10
81.4199743323916
20
7.18406263314722
30
0
41
1
10
81.433176811379
20
7.18800333579097
30
0
41
1
10
81.4463157405801
20
7.19064528785012
30
0
41
1
10
81.455481582096
20
7.1916567093763
30
0
41
1
10
81.4605002365083
20
7.19197160541898
30
0
41
1
10
81.4615602759521
20
7.19202936738995
30
0
41
1
10
81.462628633714
20
7.19208138088791
30
0
41
1
10
81.4637184658099
20
7.19212468089958
30
0
41
1
10
81.4648291968566
20
7.19216418030092
30
0
41
1
10
81.4655319917853
20
7.192188307355
30
0
41
1
10
81.4669502838726
20
7.19223725662914
30
0
41
1
10
81.4686899329624
20
7.19229805892167
30
0
41
1
10
81.4708938140294
20
7.19237566639251
30
0
41
1
10
81.4723674551894
20
7.19242764480393
30
0
41
1
10
81.4753065754344
20
7.1925311549337
30
0
41
1
10
81.4788093055717
20
7.19265404190006
30
0
41
1
10
81.4831690134875
20
7.1928066269364
30
0
41
1
10
81.4901380164926
20
7.19305040564015
30
0
41
1
10
81.5006241693013
20
7.19341786046795
30
0
41
1
10
81.5193051240815
20
7.19407324270196
30
0
41
1
10
81.5426280883186
20
7.19489092556819
30
0
41
1
10
81.5624381883537
20
7.19558516685225
30
0
41
1
10
81.5740922319784
20
7.19599360119238
30
0
41
1
10
81.5775885133621
20
7.19611613523213
30
0
41
1
10
81.5805021370309
20
7.19621824998845
30
0
41
1
10
81.5828330688368
20
7.19629994359244
30
0
41
1
10
81.584581283967
20
7.19636121468614
30
0
41
1
10
81.5863295152132
20
7.19642248666187
30
0
41
1
10
81.5880777624158
20
7.19648375951087
30
0
41
1
10
81.5898260254152
20
7.19654503322437
30
0
41
1
10
81.5912829242789
20
7.19659609536544
30
0
41
1
10
81.5930312145233
20
7.19665737057002
30
0
41
1
10
81.5947795201654
20
7.19671864661726
30
0
41
1
10
81.5968192321866
20
7.19679013654886
30
0
41
1
10
81.5982761818433
20
7.19684120146971
30
0
41
1
10
81.6035212339946
20
7.19702503701205
30
0
41
1
10
81.612846086009
20
7.19735187298542
30
0
41
1
10
81.640530904524
20
7.19832225835387
30
0
41
1
10
81.6685110730841
20
7.19930307343509
30
0
41
1
10
81.6964935375614
20
7.20028401416698
30
0
41
1
10
81.7104851472341
20
7.20077450518912
30
0
41
1
10
81.7221450683655
20
7.20118326119271
30
0
41
1
10
81.7311816108673
20
7.20150005276668
30
0
41
1
10
81.7358456598446
20
7.20166355957505
30
0
41
1
10
81.7387606976062
20
7.20176575172167
30
0
41
1
10
81.7402182177778
20
7.20181684786559
30
0
41
1
10
81.7419672438896
20
7.20187816334263
30
0
41
1
10
81.7437162717474
20
7.20193947891522
30
0
41
1
10
81.7460483110063
20
7.20202123312777
30
0
41
1
10
81.748963363647
20
7.20212342608863
30
0
41
1
10
81.7559594988437
20
7.20236868967962
30
0
41
1
10
81.7641216749616
20
7.20265483154213
30
0
41
1
10
81.7728668489818
20
7.20296141130581
30
0
41
1
10
81.7775309312653
20
7.20312491993698
30
0
41
1
10
81.7810289865503
20
7.20324755105858
30
0
41
1
10
81.7828596304352
20
7.20331172778072
30
0
41
1
10
81.7841072643972
20
7.20335546594379
30
0
41
1
10
81.7841888831785
20
7.20335832724408
30
0
0
SPLINE
5
259
100
AcDbEntity
8
1
62
256
6
ByLayer
370
18
48
1
60
0
100
AcDbSpline
70
4
71
3
72
24
73
20
40
0
40
0
40
0
40
0
40
0.0052924630237912
40
0.0168225975867718
40
0.0283527321497525
40
0.0398828667127253
40
0.062943135838684
40
0.0744732704016594
40
0.109063674090596
40
0.155184212342506
40
0.247425288846333
40
0.431907441853981
40
0.61638959486163
40
0.800871747869279
40
0.893112824373102
40
0.979588833595444
40
0.985353900876928
40
0.996884035439906
40
1
40
1
40
1
40
1
41
1
10
80.6789552983982
20
7.39015010468719
30
0
41
1
10
80.6789430059037
20
7.38981141164504
30
0
41
1
10
80.6789043479475
20
7.38873052904057
30
0
41
1
10
80.678840421854
20
7.38688544291549
30
0
41
1
10
80.6787608605142
20
7.38459440925411
30
0
41
1
10
80.6786532618151
20
7.38150106021035
30
0
41
1
10
80.6785442550725
20
7.37837184668717
30
0
41
1
10
80.6783812348687
20
7.37369050497361
30
0
41
1
10
80.6781646813393
20
7.36746926467035
30
0
41
1
10
80.6777606585368
20
7.35585576511392
30
0
41
1
10
80.6770102340664
20
7.33427278575789
30
0
41
1
10
80.6759335072973
20
7.3033204523075
30
0
41
1
10
80.674638953252
20
7.26611443476725
30
0
41
1
10
80.6735622774254
20
7.23516339888255
30
0
41
1
10
80.6727127108347
20
7.2107831394658
30
0
41
1
10
80.6722824093301
20
7.19839883216201
30
0
41
1
10
80.67204120384
20
7.19143283901587
30
0
41
1
10
80.6719937923218
20
7.19006267806697
30
0
41
1
10
80.6719603773224
20
7.18907951155487
30
0
41
1
10
80.6719533028275
20
7.18887034218002
30
0
0
SPLINE
5
25A
100
AcDbEntity
8
1
62
256
6
ByLayer
370
18
48
1
60
0
100
AcDbSpline
70
4
71
3
72
14
73
10
40
0
40
0
40
0
40
0
40
0.185621159235228
40
0.627925247419318
40
0.738501269465341
40
0.849077291511363
40
0.904365302534375
40
0.959653313557386
40
1
40
1
40
1
40
1
41
1
10
81.3213796226066
20
7.84632550980589
30
0
41
1
10
81.3187927547104
20
7.84619000776885
30
0
41
1
10
81.3100438089961
20
7.84568903534745
30
0
41
1
10
81.2997637688462
20
7.84492688856076
30
0
41
1
10
81.2905404353389
20
7.84411183854328
30
0
41
1
10
81.2866998461738
20
7.84374845531997
30
0
41
1
10
81.2836291278055
20
7.84344224900025
30
0
41
1
10
81.2815341081167
20
7.84322773955952
30
0
41
1
10
81.2802067376277
20
7.84308960177108
30
0
41
1
10
81.2796467613776
20
7.84303107148725
30
0
0
SPLINE
5
25B
100
AcDbEntity
8
1
62
256
6
ByLayer
370
18
48
1
60
0
100
AcDbSpline
70
4
71
3
72
40
73
36
40
0
40
0
40
0
40
0
40
0.015625
40
0.03125
40
0.03515625
40
0.0390625
40
0.046875
40
0.0625
40
0.125
40
0.1875
40
0.25
40
0.3125
40
0.34375
40
0.3515625
40
0.359375
40
0.375
40
0.4375
40
0.5
40
0.5625
40
0.59375
40
0.6015625
40
0.609375
40
0.625
40
0.640625
40
0.6484375
40
0.65625
40
0.6875
40
0.71875
40
0.75
40
0.78125
40
0.796875
40
0.8046875
40
0.8125
40
0.875
40
1
40
1
40
1
40
1
41
1
10
81.3783559570819
20
5.35713871977271
30
0
41
1
10
81.3747540521319
20
5.35701245801613
30
0
41
1
10
81.3675138847543
20
5.35675623119033
30
0
41
1
10
81.3598893304571
20
5.3564806744395
30
0
41
1
10
81.3552438790475
20
5.35631033253634
30
0
41
1
10
81.3522724638857
20
5.35620058921356
30
0
41
1
10
81.3470162979558
20
5.35600655169836
30
0
41
1
10
81.3305521093633
20
5.35539867087374
30
0
41
1
10
81.3035810325301
20
5.35440290748991
30
0
41
1
10
81.2676314468075
20
5.35307564196305
30
0
41
1
10
81.2316849660634
20
5.35174848506637
30
0
41
1
10
81.2017244207494
20
5.35064234465744
30
0
41
1
10
81.1822555199377
20
5.3499235354351
30
0
41
1
10
81.1732640369608
20
5.34959158321325
30
0
41
1
10
81.1672956205242
20
5.34937118252759
30
0
41
1
10
81.1507285772306
20
5.34876091242091
30
0
41
1
10
81.1221611038429
20
5.34771682991541
30
0
41
1
10
81.0817279693433
20
5.34625618745187
30
0
41
1
10
81.0466817846754
20
5.3450036022173
30
0
41
1
10
81.0235441740125
20
5.34418286536595
30
0
41
1
10
81.0128450203221
20
5.34380449238861
30
0
41
1
10
81.0056599434484
20
5.34355071287484
30
0
41
1
10
80.9966470521324
20
5.34323232114349
30
0
41
1
10
80.9876465269204
20
5.34291438392563
30
0
41
1
10
80.9804391910594
20
5.3426597862875
30
0
41
1
10
80.9696576972808
20
5.34227896265844
30
0
41
1
10
80.953360263843
20
5.34170515468901
30
0
41
1
10
80.9314566662426
20
5.34093763526314
30
0
41
1
10
80.9094798616878
20
5.3401712255185
30
0
41
1
10
80.8911824274839
20
5.33953620853825
30
0
41
1
10
80.8784384324973
20
5.33909551848515
30
0
41
1
10
80.8711607833393
20
5.33884431975369
30
0
41
1
10
80.8529412646505
20
5.33821534015129
30
0
41
1
10
80.8074016506205
20
5.33664327699071
30
0
41
1
10
80.7636792206971
20
5.33513391145488
30
0
41
1
10
80.7345318990935
20
5.33412770831296
30
0
0
SPLINE
5
25C
100
AcDbEntity
8
1
62
256
6
ByLayer
370
18
48
1
60
0
100
AcDbSpline
70
4
71
3
72
20
73
16
40
0
40
0
40
0
40
0
40
0.0011113171582917
40
0.0024035405513599
40
0.0036957639444281
40
0.0049879873374962
40
0.0075724341236326
40
0.0080893234808597
40
0.0086062128380871
40
0.0088630422374594
40
0.090791620637224
40
0.172977028436361
40
0.338381622749089
40
0.669190811374544
40
1
40
1
40
1
40
1
41
1
10
81.425614718186
20
3.99865637938484
30
0
41
1
10
81.425597207944
20
3.99915968336484
30
0
41
1
10
81.4255593370785
20
4.0002482213124
30
0
41
1
10
81.425501105684
20
4.00192199148987
30
0
41
1
10
81.425440024016
20
4.00367768966436
30
0
41
1
10
81.4253585819785
20
4.00601861713074
30
0
41
1
10
81.4252893564992
20
4.00800840082766
30
0
41
1
10
81.4252323474668
20
4.00964704280292
30
0
41
1
10
81.4252120125705
20
4.01023154013708
30
0
41
1
10
81.4239089514414
20
4.04768616839584
30
0
41
1
10
81.4213193401126
20
4.12212314232917
30
0
41
1
10
81.4161284904831
20
4.27133764139296
30
0
41
1
10
81.4070179544597
20
4.5332353560058
30
0
41
1
10
81.3939895590379
20
4.9077408398216
30
0
41
1
10
81.3835671577339
20
5.20733942645566
30
0
41
1
10
81.3783559570819
20
5.35713871977271
30
0
0
SPLINE
5
25D
100
AcDbEntity
8
1
62
256
6
ByLayer
370
18
48
1
60
0
100
AcDbSpline
70
4
71
1
72
4
73
2
40
0
40
0
40
1
40
1
41
1
10
80.7345318990935
20
5.33412770831293
30
0
41
1
10
80.6719518506475
20
7.13303119694729
30
0
0
SPLINE
5
25E
100
AcDbEntity
8
1
62
256
6
ByLayer
370
18
48
1
60
0
100
AcDbSpline
70
4
71
3
72
83
73
79
40
0
40
0
40
0
40
0
40
0.0019524496734633
40
0.0055614898932204
40
0.0091705301129775
40
0.0127795703327346
40
0.0163886105524917
40
0.0236066909920059
40
0.0308247714315201
40
0.0380428518710344
40
0.095787495387148
40
0.153532138903262
40
0.182404460661318
40
0.211276782419375
40
0.21849486285889
40
0.225712943298404
40
0.238344584067554
40
0.240149104177432
40
0.243758144397189
40
0.247367184616946
40
0.253683005001521
40
0.254585265056461
40
0.256389785166339
40
0.258194305276218
40
0.261803345495975
40
0.263607865605853
40
0.265412385715732
40
0.269021425935489
40
0.297893747693546
40
0.326766069451603
40
0.35563839120966
40
0.384510712967716
40
0.413383034725773
40
0.44225535648383
40
0.471127678241887
40
0.499999999999944
40
0.514436160878973
40
0.528872321758001
40
0.557744643516057
40
0.572180804395087
40
0.586616965274115
40
0.615489287032171
40
0.6299254479112
40
0.644361608790227
40
0.673233930548285
40
0.687670091427312
40
0.702106252306342
40
0.716542413185369
40
0.730978574064398
40
0.732783094174276
40
0.734587614284156
40
0.736392134394035
40
0.738196654503913
40
0.740001174613791
40
0.741805694723671
40
0.745414734943427
40
0.749023775163185
40
0.75263281538294
40
0.756241855602699
40
0.759850895822455
40
0.763459936042212
40
0.76706897626197
40
0.774287056701483
40
0.788723217580512
40
0.795941298020026
40
0.817595539338569
40
0.846467861096626
40
0.90421250461274
40
0.933084826370796
40
0.961957148128853
40
0.969175228568368
40
0.976393309007882
40
0.983611389447397
40
0.989024949777031
40
0.99082946988691
40
0.994438510106667
40
0.998047550326424
40
1
40
1
40
1
40
1
41
1
10
85.3474360735187
20
3.020091961954
30
0
41
1
10
85.3478317571958
20
3.0201343152722
30
0
41
1
10
85.348953476032
20
3.02025509987911
30
0
41
1
10
85.350778118163
20
3.02045623987178
30
0
41
1
10
85.3529101679733
20
3.02070055937716
30
0
41
1
10
85.3550361214003
20
3.02095554389933
30
0
41
1
10
85.3578658255837
20
3.02130975454816
30
0
41
1
10
85.3613998203237
20
3.02177922263959
30
0
41
1
10
85.3656549659794
20
3.02238537957962
30
0
41
1
10
85.3798757338297
20
3.02454990585537
30
0
41
1
10
85.4042503836634
20
3.02934157023159
30
0
41
1
10
85.4330754220269
20
3.03742928369039
30
0
41
1
10
85.4560456612089
20
3.04542037978592
30
0
41
1
10
85.4688965830017
20
3.05048982502203
30
0
41
1
10
85.4774196959976
20
3.05411052199884
30
0
41
1
10
85.4827346187765
20
3.05643367281633
30
0
41
1
10
85.4869722529988
20
3.05835837355036
30
0
41
1
10
85.4904938015
20
3.06000233988729
30
0
41
1
10
85.4922527050974
20
3.06083183064496
30
0
41
1
10
85.4948871965883
20
3.06209107552254
30
0
41
1
10
85.496990404626
20
3.0631149739589
30
0
41
1
10
85.4987402772887
20
3.06397821668168
30
0
41
1
10
85.4996146846571
20
3.06441171172176
30
0
41
1
10
85.501012591646
20
3.06510930010876
30
0
41
1
10
85.5024087569139
20
3.06581288169261
30
0
41
1
10
85.5038031314213
20
3.06652245389847
30
0
41
1
10
85.5051962957418
20
3.06723601899401
30
0
41
1
10
85.5118050872128
20
3.07065389642153
30
0
41
1
10
85.5235350147984
20
3.07707535721596
30
0
41
1
10
85.5398026213226
20
3.08689573951673
30
0
41
1
10
85.5557274168702
20
3.09745956255813
30
0
41
1
10
85.57126045438
20
3.10874663516719
30
0
41
1
10
85.5863527867908
20
3.12073676617098
30
0
41
1
10
85.6009589517224
20
3.13340124364248
30
0
41
1
10
85.6150334867943
20
3.14671135565476
30
0
41
1
10
85.6262857538596
20
3.15831082946596
30
0
41
1
10
85.6349815678481
20
3.16787684780576
30
0
41
1
10
85.6434678240394
20
3.1776266960776
30
0
41
1
10
85.6516314065034
20
3.18764159485485
30
0
41
1
10
85.6594556411762
20
3.1979001553521
30
0
41
1
10
85.6670494170385
20
3.20831323571017
30
0
41
1
10
85.6742911642599
20
3.21894621393082
30
0
41
1
10
85.6811682019908
20
3.22977532615658
30
0
41
1
10
85.6877993249001
20
3.24072679058443
30
0
41
1
10
85.6940574128352
20
3.25184917761339
30
0
41
1
10
85.6999341403121
20
3.26311727583945
30
0
41
1
10
85.7041500363109
20
3.27163478249477
30
0
41
1
10
85.7081733133206
20
3.28021229952313
30
0
41
1
10
85.7108860094411
20
3.28632599874842
30
0
41
1
10
85.712436113569
20
3.28993334674181
30
0
41
1
10
85.7128981050581
20
3.29101627577359
30
0
41
1
10
85.7133570570133
20
3.29209991711741
30
0
41
1
10
85.7138129696502
20
3.29318425845165
30
0
41
1
10
85.7142658431842
20
3.29426928745462
30
0
41
1
10
85.7148656227131
20
3.29571689325462
30
0
41
1
10
85.7156077504447
20
3.29752805806805
30
0
41
1
10
85.7164861507592
20
3.29970400937222
30
0
41
1
10
85.7173523998342
20
3.30188241563101
30
0
41
1
10
85.7182064993938
20
3.30406317827104
30
0
41
1
10
85.719048451162
20
3.30624619871884
30
0
41
1
10
85.7198782568627
20
3.30843137840102
30
0
41
1
10
85.7209684720056
20
3.31134769885858
30
0
41
1
10
85.7228338493372
20
3.3164581269657
30
0
41
1
10
85.7248685957724
20
3.32231273575667
30
0
41
1
10
85.7277751281172
20
3.33111109670767
30
0
41
1
10
85.7313924164628
20
3.34286749298189
30
0
41
1
10
85.7373352035013
20
3.36495428457343
30
0
41
1
10
85.7421564658544
20
3.38849734948465
30
0
41
1
10
85.7455228495756
20
3.41184834236193
30
0
41
1
10
85.746886913178
20
3.42488204221033
30
0
41
1
10
85.7475823409986
20
3.43351682532702
30
0
41
1
10
85.7478878964232
20
3.43782010340374
30
0
41
1
10
85.7481299221229
20
3.44174886444571
30
0
41
1
10
85.7482809675413
20
3.4446073370402
30
0
41
1
10
85.7483833080365
20
3.44675533978986
30
0
41
1
10
85.7484617018981
20
3.44854869258705
30
0
41
1
10
85.748534307789
20
3.45038987365649
30
0
41
1
10
85.7485760925179
20
3.45152155989646
30
0
41
1
10
85.7485905803929
20
3.45192074189174
30
0
0
SPLINE
5
25F
100
AcDbEntity
8
1
62
256
6
ByLayer
370
18
48
1
60
0
100
AcDbSpline
70
4
71
3
72
16
73
12
40
0
40
0
40
0
40
0
40
0.25
40
0.25
40
0.5
40
0.5
40
0.749999999999999
40
0.749999999999999
40
0.875
40
0.875
40
1
40
1
40
1
40
1
41
1
10
85.8756279979959
20
-3.87077917347779
30
0
41
1
10
85.8695232364358
20
-3.83678414662572
30
0
41
1
10
85.8635313934178
20
-3.80166399224916
30
0
41
1
10
85.851949373885
20
-3.72764297474703
30
0
41
1
10
85.8463580548398
20
-3.6888836090275
30
0
41
1
10
85.8360314217211
20
-3.60433340978585
30
0
41
1
10
85.8312823964795
20
-3.55935593665563
30
0
41
1
10
85.8260242341802
20
-3.47972210168791
30
0
41
1
10
85.8246237275241
20
-3.45139614638143
30
0
41
1
10
85.8232357204805
20
-3.38937656651495
30
0
41
1
10
85.8233232346479
20
-3.35624156311718
30
0
41
1
10
85.8244822547796
20
-3.32311347509656
30
0
0
SPLINE
5
260
100
AcDbEntity
8
1
62
256
6
ByLayer
370
18
48
1
60
0
100
AcDbSpline
70
4
71
3
72
8
73
4
40
0
40
0
40
0
40
0
40
1
40
1
40
1
40
1
41
1
10
85.5266602312393
20
-0.583541685683969
30
0
41
1
10
85.5187098522402
20
-0.555593060344023
30
0
41
1
10
85.5120310906734
20
-0.530261461585269
30
0
41
1
10
85.5060770216427
20
-0.506421301668411
30
0
0
SPLINE
5
261
100
AcDbEntity
8
1
62
256
6
ByLayer
370
18
48
1
60
0
100
AcDbSpline
70
4
71
3
72
8
73
4
40
0
40
0
40
0
40
0
40
1
40
1
40
1
40
1
41
1
10
85.8335061620463
20
-3.06518456941456
30
0
41
1
10
85.8345390990725
20
-3.03566029473541
30
0
41
1
10
85.836336697538
20
-3.00628890744133
30
0
41
1
10
85.8386243119927
20
-2.97921904121026
30
0
0
SPLINE
5
262
100
AcDbEntity
8
1
62
256
6
ByLayer
370
18
48
1
60
0
100
AcDbSpline
70
4
71
3
72
10
73
6
40
0
40
0
40
0
40
0
40
0.5
40
0.5
40
1
40
1
40
1
40
1
41
1
10
85.6314814754313
20
-4.32606971475141
30
0
41
1
10
85.6528029438077
20
-4.30520024684327
30
0
41
1
10
85.6753362928436
20
-4.2841779346858
30
0
41
1
10
85.7231132510177
20
-4.24217379170386
30
0
41
1
10
85.7483164020232
20
-4.22130032617986
30
0
41
1
10
85.7728026143274
20
-4.20219634523579
30
0
0
SPLINE
5
263
100
AcDbEntity
8
1
62
256
6
ByLayer
370
18
48
1
60
0
100
AcDbSpline
70
4
71
3
72
16
73
12
40
0
40
0
40
0
40
0
40
0.249999999999991
40
0.249999999999991
40
0.499999999999982
40
0.499999999999982
40
0.749999999999973
40
0.749999999999973
40
0.874999999999987
40
0.874999999999987
40
1
40
1
40
1
40
1
41
1
10
85.8756279979959
20
-3.87077917347747
30
0
41
1
10
85.87953689309
20
-3.89254627975683
30
0
41
1
10
85.8822548903774
20
-3.91528461268527
30
0
41
1
10
85.8839080427663
20
-3.9636836162216
30
0
41
1
10
85.8829069839148
20
-3.98948247426344
30
0
41
1
10
85.8737381702432
20
-4.04518918630939
30
0
41
1
10
85.8658149865941
20
-4.07540580931231
30
0
41
1
10
85.8411926825963
20
-4.12465877358315
30
0
41
1
10
85.8307124351368
20
-4.14164678322913
30
0
41
1
10
85.8045854883915
20
-4.1742525192044
30
0
41
1
10
85.7892295870608
20
-4.18938012971967
30
0
41
1
10
85.7728026143274
20
-4.20219634523588
30
0
0
SPLINE
5
264
100
AcDbEntity
8
1
62
256
6
ByLayer
370
18
48
1
60
0
100
AcDbSpline
70
4
71
3
72
12
73
8
40
0
40
0
40
0
40
0
40
0.249999999999943
40
0.249999999999943
40
0.499999999999887
40
0.499999999999887
40
1
40
1
40
1
40
1
41
1
10
85.6093311651646
20
-4.34775045367201
30
0
41
1
10
85.6006705094713
20
-4.35622750942008
30
0
41
1
10
85.5909918608643
20
-4.3644655224698
30
0
41
1
10
85.5696946408003
20
-4.37959205185706
30
0
41
1
10
85.5585051119265
20
-4.38614276754092
30
0
41
1
10
85.5253509638627
20
-4.40212905873938
30
0
41
1
10
85.5050030123438
20
-4.4076700920881
30
0
41
1
10
85.4867177446162
20
-4.41083408318988
30
0
0
SPLINE
5
265
100
AcDbEntity
8
1
62
256
6
ByLayer
370
18
48
1
60
0
100
AcDbSpline
70
4
71
3
72
10
73
6
40
0
40
0
40
0
40
0
40
0.5
40
0.5
40
1
40
1
40
1
40
1
41
1
10
85.3209912348254
20
0.0321380843617476
30
0
41
1
10
85.3009162256279
20
0.0542516865511686
30
0
41
1
10
85.2804495198993
20
0.0773367873096333
30
0
41
1
10
85.2389173449365
20
0.125574065723384
30
0
41
1
10
85.2179398339287
20
0.150665289574732
30
0
41
1
10
85.1984116311597
20
0.174718032366741
30
0
0
SPLINE
5
266
100
AcDbEntity
8
1
62
256
6
ByLayer
370
18
48
1
60
0
100
AcDbSpline
70
4
71
3
72
10
73
6
40
0
40
0
40
0
40
0
40
0.5
40
0.5
40
1
40
1
40
1
40
1
41
1
10
85.5266602312394
20
-0.583541685684025
30
0
41
1
10
85.5331098249679
20
-0.606214476344263
30
0
41
1
10
85.5358312217331
20
-0.625918764174287
30
0
41
1
10
85.5377595821519
20
-0.662396308303926
30
0
41
1
10
85.5368296547529
20
-0.679122263476842
30
0
41
1
10
85.5347688267726
20
-0.69457886346845
30
0
0
SPLINE
5
267
100
AcDbEntity
8
1
62
256
6
ByLayer
370
18
48
1
60
0
100
AcDbSpline
70
4
71
3
72
8
73
4
40
0
40
0
40
0
40
0
40
1
40
1
40
1
40
1
41
1
10
85.7402292109396
20
-2.62287157870776
30
0
41
1
10
85.7390568650625
20
-2.62040632491181
30
0
41
1
10
85.7378823780672
20
-2.61794258495593
30
0
41
1
10
85.7367057588289
20
-2.61548035256499
30
0
0
SPLINE
5
268
100
AcDbEntity
8
1
62
256
6
ByLayer
370
18
48
1
60
0
100
AcDbSpline
70
4
71
3
72
14
73
10
40
0
40
0
40
0
40
0
40
0.25
40
0.25
40
0.5
40
0.5
40
0.75
40
0.75
40
1
40
1
40
1
40
1
41
1
10
85.5347688267722
20
-0.694578863465608
30
0
41
1
10
85.5319837197681
20
-0.715467693251327
30
0
41
1
10
85.5293501022803
20
-0.737405909431885
30
0
41
1
10
85.5245643486263
20
-0.784617621757235
30
0
41
1
10
85.5223950679962
20
-0.809992488157263
30
0
41
1
10
85.518967947082
20
-0.866005124122609
30
0
41
1
10
85.5176974198877
20
-0.896800364070742
30
0
41
1
10
85.5170233083538
20
-0.96555620483656
30
0
41
1
10
85.5176884531367
20
-1.00404388968064
30
0
41
1
10
85.5197964804864
20
-1.04419242263916
30
0
0
SPLINE
5
269
100
AcDbEntity
8
1
62
256
6
ByLayer
370
18
48
1
60
0
100
AcDbSpline
70
4
71
3
72
8
73
4
40
0
40
0
40
0
40
0
40
1
40
1
40
1
40
1
41
1
10
85.7816196960177
20
-2.70570982674221
30
0
41
1
10
85.7677556414332
20
-2.67922467405592
30
0
41
1
10
85.7536739835577
20
-2.65114376133377
30
0
41
1
10
85.7402292109383
20
-2.62287157870867
30
0
0
SPLINE
5
26A
100
AcDbEntity
8
1
62
256
6
ByLayer
370
18
48
1
60
0
100
AcDbSpline
70
4
71
3
72
12
73
8
40
0
40
0
40
0
40
0
40
0.250000000000006
40
0.250000000000006
40
0.500000000000012
40
0.500000000000012
40
1
40
1
40
1
40
1
41
1
10
85.7816196960179
20
-2.70570982674209
30
0
41
1
10
85.7922825825753
20
-2.72607963824461
30
0
41
1
10
85.8020188052113
20
-2.74798821399648
30
0
41
1
10
85.8182596705455
20
-2.79281632121351
30
0
41
1
10
85.8249065525447
20
-2.81597481067865
30
0
41
1
10
85.8398614487913
20
-2.88760515821349
30
0
41
1
10
85.842355894446
20
-2.93506237065148
30
0
41
1
10
85.8386243119926
20
-2.97921904121026
30
0
0
SPLINE
5
26B
100
AcDbEntity
8
1
62
256
6
ByLayer
370
18
48
1
60
0
100
AcDbSpline
70
4
71
3
72
12
73
8
40
0
40
0
40
0
40
0
40
0.25
40
0.25
40
0.5
40
0.5
40
1
40
1
40
1
40
1
41
1
10
85.3418466315779
20
0.0091648472017027
30
0
41
1
10
85.3500009828463
20
0.0001824313886516
30
0
41
1
10
85.358029171413
20
-0.0097029632608496
30
0
41
1
10
85.3730602862321
20
-0.031083910343483
30
0
41
1
10
85.3797313707882
20
-0.0421446425355043
30
0
41
1
10
85.3964921824787
20
-0.0744936932304654
30
0
41
1
10
85.403029848748
20
-0.0938192528629713
30
0
41
1
10
85.4073110417654
20
-0.110961198252653
30
0
0
SPLINE
5
26C
100
AcDbEntity
8
SK1
62
256
6
ByLayer
370
18
48
1
60
0
100
AcDbSpline
70
4
71
3
72
20
73
16
40
0
40
0
40
0
40
0
40
0.125
40
0.125
40
0.1875
40
0.1875
40
0.25
40
0.25
40
0.5
40
0.5
40
0.625
40
0.625
40
0.75
40
0.75
40
1
40
1
40
1
40
1
41
1
10
-1.69996145737096
20
2.5806919032795
30
0
41
1
10
-1.73263695710787
20
2.37550257646083
30
0
41
1
10
-1.76326516119118
20
2.16745376297365
30
0
41
1
10
-1.80483241468929
20
1.85028411027173
30
0
41
1
10
-1.81795721932767
20
1.74370985221802
30
0
41
1
10
-1.84246895166319
20
1.52868290002465
30
0
41
1
10
-1.85383416245216
20
1.42032814794894
30
0
41
1
10
-1.90513167589589
20
0.878984125790311
30
0
41
1
10
-1.92842891958412
20
0.443177729960439
30
0
41
1
10
-1.92863936176101
20
-0.215364275303813
30
0
41
1
10
-1.92302599023012
20
-0.435675602004039
30
0
41
1
10
-1.9008609918707
20
-0.877872368403501
30
0
41
1
10
-1.88448389754703
20
-1.09701544141257
30
0
41
1
10
-1.82304312112112
20
-1.74499641140687
30
0
41
1
10
-1.76589710310134
20
-2.16663380543864
30
0
41
1
10
-1.69996145715962
20
-2.58068890323847
30
0
0
SPLINE
5
26D
100
AcDbEntity
8
SK1
62
256
6
ByLayer
370
18
48
1
60
0
100
AcDbSpline
70
4
71
3
72
26
73
22
40
0
40
0
40
0
40
0
40
0.0312500000000001
40
0.0312500000000001
40
0.0625000000000003
40
0.0625000000000003
40
0.0937500000000004
40
0.0937500000000004
40
0.125000000000001
40
0.125000000000001
40
0.187500000000001
40
0.187500000000001
40
0.250000000000001
40
0.250000000000001
40
0.375000000000002
40
0.375000000000002
40
0.500000000000002
40
0.500000000000002
40
0.750000000000001
40
0.750000000000001
40
1
40
1
40
1
40
1
41
1
10
-0.39999999999992
20
-4.85227456454999
30
0
41
1
10
-0.39376328779295
20
-4.84663650729328
30
0
41
1
10
-0.387019774317395
20
-4.84161680761804
30
0
41
1
10
-0.371803166997239
20
-4.83402988774014
30
0
41
1
10
-0.363361086088162
20
-4.83161196307762
30
0
41
1
10
-0.345926111920136
20
-4.83181330146459
30
0
41
1
10
-0.337033054187316
20
-4.83460547128513
30
0
41
1
10
-0.32147566133537
20
-4.84385857307521
30
0
41
1
10
-0.314735971519241
20
-4.85007481180139
30
0
41
1
10
-0.296994303249903
20
-4.87040355371243
30
0
41
1
10
-0.288166478250474
20
-4.88618386504783
30
0
41
1
10
-0.273212056316083
20
-4.91801622041677
30
0
41
1
10
-0.267127706470149
20
-4.93430736823274
30
0
41
1
10
-0.251022454987464
20
-4.98373448763203
30
0
41
1
10
-0.243149974278282
20
-5.01751323233989
30
0
41
1
10
-0.230204703014522
20
-5.0844364593234
30
0
41
1
10
-0.225172325676738
20
-5.11781324740099
30
0
41
1
10
-0.21263992444031
20
-5.2177046835458
30
0
41
1
10
-0.207671426663865
20
-5.28398101409357
30
0
41
1
10
-0.201305754211575
20
-5.4159585743279
30
0
41
1
10
-0.199999999999932
20
-5.48171544544959
30
0
41
1
10
-0.199999999999932
20
-5.54704286105718
30
0
0
SPLINE
5
26E
100
AcDbEntity
8
SK1
62
256
6
ByLayer
370
18
48
1
60
0
100
AcDbSpline
70
4
71
3
72
26
73
22
40
0
40
0
40
0
40
0
40
0.250000000000003
40
0.250000000000003
40
0.500000000000005
40
0.500000000000005
40
0.625000000000005
40
0.625000000000005
40
0.750000000000005
40
0.750000000000005
40
0.812500000000005
40
0.812500000000005
40
0.875000000000005
40
0.875000000000005
40
0.906250000000003
40
0.906250000000003
40
0.937500000000002
40
0.937500000000002
40
0.968750000000001
40
0.968750000000001
40
1
40
1
40
1
40
1
41
1
10
-0.199999999999903
20
5.54704287025544
30
0
41
1
10
-0.199999999999903
20
5.48162882321526
30
0
41
1
10
-0.201304969107213
20
5.41586490599749
30
0
41
1
10
-0.207698725150607
20
5.28352555216813
30
0
41
1
10
-0.212702118403314
20
5.21686290430191
30
0
41
1
10
-0.225372797443157
20
5.11639354963779
30
0
41
1
10
-0.230458701357264
20
5.08288973618465
30
0
41
1
10
-0.243504629141455
20
5.01592530726893
30
0
41
1
10
-0.251375408222884
20
4.98240276248384
30
0
41
1
10
-0.267548604682986
20
4.93314759425931
30
0
41
1
10
-0.273702791653733
20
4.91680607655076
30
0
41
1
10
-0.288769973838811
20
4.88507830219544
30
0
41
1
10
-0.297431313447731
20
4.86972146335862
30
0
41
1
10
-0.315312325469875
20
4.8495120628609
30
0
41
1
10
-0.322119716796465
20
4.84337403126676
30
0
41
1
10
-0.337500265830784
20
4.83443774480057
30
0
41
1
10
-0.346263053746242
20
4.83174638192023
30
0
41
1
10
-0.363716126367905
20
4.83167449719483
30
0
41
1
10
-0.372125684789609
20
4.83416445387314
30
0
41
1
10
-0.387061221247677
20
4.84166539782822
30
0
41
1
10
-0.39380700445173
20
4.84667653502061
30
0
41
1
10
-0.39999999999992
20
4.85227506835235
30
0
0
LINE
5
70
100
AcDbEntity
8
80
62
256
6
ByLayer
370
18
48
1
60
0
100
AcDbLine
10
0
20
0
30
0
11
-7
21
0
31
0
39
0
210
0
220
0
230
1
0
LINE
5
71
100
AcDbEntity
8
81
62
256
6
ByLayer
370
18
48
1
60
0
100
AcDbLine
10
86
20
0
30
0
11
93
21
0
31
0
39
0
210
0
220
0
230
1
0
LINE
5
72
100
AcDbEntity
8
1
62
256
6
ByLayer
370
18
48
1
60
0
100
AcDbLine
10
0.3
20
20
30
0
11
0
21
19.7
31
0
39
0
210
0
220
0
230
1
0
LINE
5
74
100
AcDbEntity
8
1
62
256
6
ByLayer
370
18
48
1
60
0
100
AcDbLine
10
0
20
-19.7
30
0
11
0.3
21
-20
31
0
39
0
210
0
220
0
230
1
0
LINE
5
75
100
AcDbEntity
8
1
62
256
6
ByLayer
370
18
48
1
60
0
100
AcDbLine
10
19.4
20
-20
30
0
11
19.7
21
-19.7
31
0
39
0
210
0
220
0
230
1
0
LINE
5
76
100
AcDbEntity
8
1
62
256
6
ByLayer
370
18
48
1
60
0
100
AcDbLine
10
19.4
20
20
30
0
11
0.3
21
20
31
0
39
0
210
0
220
0
230
1
0
LINE
5
77
100
AcDbEntity
8
1
62
256
6
ByLayer
370
18
48
1
60
0
100
AcDbLine
10
0.3
20
-20
30
0
11
19.4
21
-20
31
0
39
0
210
0
220
0
230
1
0
LINE
5
78
100
AcDbEntity
8
1
62
256
6
ByLayer
370
18
48
1
60
0
100
AcDbLine
10
20
20
-12.4
30
0
11
20.1
21
-12.5
31
0
39
0
210
0
220
0
230
1
0
LINE
5
79
100
AcDbEntity
8
1
62
256
6
ByLayer
370
18
48
1
60
0
100
AcDbLine
10
19.7
20
-12.5
30
0
11
20
21
-12.5
31
0
39
0
210
0
220
0
230
1
0
LINE
5
7A
100
AcDbEntity
8
1
62
256
6
ByLayer
370
18
48
1
60
0
100
AcDbLine
10
25.425882
20
12.403407
30
0
11
25.3
21
12.5
31
0
39
0
210
0
220
0
230
1
0
LINE
5
7B
100
AcDbEntity
8
1
62
256
6
ByLayer
370
18
48
1
60
0
100
AcDbLine
10
25.425882
20
-12.403407
30
0
11
25.643045
21
-11.592945
31
0
39
0
210
0
220
0
230
1
0
LINE
5
7C
100
AcDbEntity
8
1
62
256
6
ByLayer
370
18
48
1
60
0
100
AcDbLine
10
25.643045
20
11.592945
30
0
11
25.425882
21
12.403407
31
0
39
0
210
0
220
0
230
1
0
LINE
5
7D
100
AcDbEntity
8
1
62
256
6
ByLayer
370
18
48
1
60
0
100
AcDbLine
10
26.9
20
11
30
0
11
26.415785
21
11
31
0
39
0
210
0
220
0
230
1
0
LINE
5
7E
100
AcDbEntity
8
1
62
256
6
ByLayer
370
18
48
1
60
0
100
AcDbLine
10
52.319183
20
7.7
30
0
11
35
21
7.7
31
0
39
0
210
0
220
0
230
1
0
LINE
5
7F
100
AcDbEntity
8
1
62
256
6
ByLayer
370
18
48
1
60
0
100
AcDbLine
10
80.450223
20
7.7
30
0
11
77.814289
21
7.7
31
0
39
0
210
0
220
0
230
1
0
LINE
5
80
100
AcDbEntity
8
1
62
256
6
ByLayer
370
18
48
1
60
0
100
AcDbLine
10
35
20
-7.7
30
0
11
49.236316
21
-7.7
31
0
39
0
210
0
220
0
230
1
0
LINE
5
81
100
AcDbEntity
8
1
62
256
6
ByLayer
370
18
48
1
60
0
100
AcDbLine
10
19.7
20
19.7
30
0
11
19.4
21
20
31
0
39
0
210
0
220
0
230
1
0
LINE
5
82
100
AcDbEntity
8
1
62
256
6
ByLayer
370
18
48
1
60
0
100
AcDbLine
10
20
20
12.5
30
0
11
19.7
21
12.5
31
0
39
0
210
0
220
0
230
1
0
LINE
5
83
100
AcDbEntity
8
1
62
256
6
ByLayer
370
18
48
1
60
0
100
AcDbLine
10
25.3
20
12.5
30
0
11
20.1
21
12.5
31
0
39
0
210
0
220
0
230
1
0
LINE
5
84
100
AcDbEntity
8
1
62
256
6
ByLayer
370
18
48
1
60
0
100
AcDbLine
10
20.1
20
-12.5
30
0
11
25.3
21
-12.5
31
0
39
0
210
0
220
0
230
1
0
LINE
5
85
100
AcDbEntity
8
1
62
256
6
ByLayer
370
18
48
1
60
0
100
AcDbLine
10
20.1
20
12.5
30
0
11
20
21
12.4
31
0
39
0
210
0
220
0
230
1
0
LINE
5
86
100
AcDbEntity
8
1
62
256
6
ByLayer
370
18
48
1
60
0
100
AcDbLine
10
25.3
20
-12.5
30
0
11
25.425882
21
-12.403407
31
0
39
0
210
0
220
0
230
1
0
LINE
5
87
100
AcDbEntity
8
1
62
256
6
ByLayer
370
18
48
1
60
0
100
AcDbLine
10
26.415785
20
-11
30
0
11
26.9
21
-11
31
0
39
0
210
0
220
0
230
1
0
LINE
5
88
100
AcDbEntity
8
SK4
62
256
6
ByLayer
370
13
48
0.05
60
0
100
AcDbLine
10
86
20
0
30
0
11
-24
21
0
31
0
39
0
210
0
220
0
230
1
0
LINE
5
8A
100
AcDbEntity
8
4
62
256
6
ByLayer
370
18
48
0.05
60
0
100
AcDbLine
10
86
20
0
30
0
11
0
21
0
31
0
39
0
210
0
220
0
230
1
0
LINE
5
8C
100
AcDbEntity
8
1
62
256
6
ByLayer
370
18
48
1
60
0
100
AcDbLine
10
85.169091
20
-3.581747
30
0
11
85.19924
21
-3.561746
31
0
39
0
210
0
220
0
230
1
0
LINE
5
8D
100
AcDbEntity
8
1
62
256
6
ByLayer
370
18
48
1
60
0
100
AcDbLine
10
85.175178
20
-3.697558
30
0
11
85.254594
21
-3.644873
31
0
39
0
210
0
220
0
230
1
0
LINE
5
8E
100
AcDbEntity
8
1
62
256
6
ByLayer
370
18
48
1
60
0
100
AcDbLine
10
85.174559
20
-4.464848
30
0
11
85.486718
21
-4.410834
31
0
39
0
210
0
220
0
230
1
0
LINE
5
8F
100
AcDbEntity
8
1
62
256
6
ByLayer
370
18
48
1
60
0
100
AcDbLine
10
85.071847
20
-0.706275
30
0
11
85.013515
21
-0.618675
31
0
39
0
210
0
220
0
230
1
0
LINE
5
90
100
AcDbEntity
8
1
62
256
6
ByLayer
370
18
48
1
60
0
100
AcDbLine
10
85.320991
20
0.032138
30
0
11
84.990203
21
-0.120106
31
0
39
0
210
0
220
0
230
1
0
LINE
5
91
100
AcDbEntity
8
1
62
256
6
ByLayer
370
18
48
1
60
0
100
AcDbLine
10
85.181803
20
-4.605056
30
0
11
85.513887
21
-4.484413
31
0
39
0
210
0
220
0
230
1
0
LINE
5
92
100
AcDbEntity
8
1
62
256
6
ByLayer
370
18
48
1
60
0
100
AcDbLine
10
0.3
20
-20
30
0
11
0.3
21
20
31
0
39
0
210
0
220
0
230
1
0
LINE
5
93
100
AcDbEntity
8
1
62
256
6
ByLayer
370
18
48
1
60
0
100
AcDbLine
10
0
20
-19.7
30
0
11
0
21
19.7
31
0
39
0
210
0
220
0
230
1
0
LINE
5
94
100
AcDbEntity
8
1
62
256
6
ByLayer
370
18
48
1
60
0
100
AcDbLine
10
19.7
20
19.7
30
0
11
19.7
21
-19.7
31
0
39
0
210
0
220
0
230
1
0
LINE
5
95
100
AcDbEntity
8
1
62
256
6
ByLayer
370
18
48
1
60
0
100
AcDbLine
10
19.4
20
20
30
0
11
19.4
21
-20
31
0
39
0
210
0
220
0
230
1
0
LINE
5
96
100
AcDbEntity
8
SK1
62
256
6
ByLayer
370
18
48
1
60
0
100
AcDbLine
10
-0.2
20
-14.083485
30
0
11
-0.2
21
-5.547043
31
0
39
0
210
0
220
0
230
1
0
LINE
5
98
100
AcDbEntity
8
SK1
62
256
6
ByLayer
370
18
48
1
60
0
100
AcDbLine
10
-0.2
20
14.083485
30
0
11
-0.2
21
5.547043
31
0
39
0
210
0
220
0
230
1
0
LINE
5
99
100
AcDbEntity
8
1
62
256
6
ByLayer
370
18
48
1
60
0
100
AcDbLine
10
20.1
20
12.5
30
0
11
20.1
21
-12.5
31
0
39
0
210
0
220
0
230
1
0
LINE
5
9A
100
AcDbEntity
8
1
62
256
6
ByLayer
370
18
48
1
60
0
100
AcDbLine
10
20
20
12.5
30
0
11
20
21
-12.5
31
0
39
0
210
0
220
0
230
1
0
LINE
5
9B
100
AcDbEntity
8
1
62
256
6
ByLayer
370
18
48
1
60
0
100
AcDbLine
10
25.3
20
12.5
30
0
11
25.3
21
-12.5
31
0
39
0
210
0
220
0
230
1
0
LINE
5
9C
100
AcDbEntity
8
1
62
256
6
ByLayer
370
18
48
1
60
0
100
AcDbLine
10
25.425882
20
12.403407
30
0
11
25.425882
21
-12.403407
31
0
39
0
210
0
220
0
230
1
0
LINE
5
9D
100
AcDbEntity
8
1
62
256
6
ByLayer
370
18
48
1
60
0
100
AcDbLine
10
25.643045
20
-11.592945
30
0
11
25.643045
21
11.592945
31
0
39
0
210
0
220
0
230
1
0
LINE
5
9E
100
AcDbEntity
8
1
62
256
6
ByLayer
370
18
48
1
60
0
100
AcDbLine
10
26.415785
20
4.239749
30
0
11
26.415785
21
-11
31
0
39
0
210
0
220
0
230
1
0
LINE
5
9F
100
AcDbEntity
8
1
62
256
6
ByLayer
370
18
48
1
60
0
100
AcDbLine
10
26.415785
20
11
30
0
11
26.415785
21
6.111619
31
0
39
0
210
0
220
0
230
1
0
LINE
5
A0
100
AcDbEntity
8
1
62
256
6
ByLayer
370
18
48
1
60
0
100
AcDbLine
10
26.9
20
2.941371
30
0
11
26.9
21
-11
31
0
39
0
210
0
220
0
230
1
0
LINE
5
A1
100
AcDbEntity
8
1
62
256
6
ByLayer
370
18
48
1
60
0
100
AcDbLine
10
35
20
-7.7
30
0
11
35
21
-5.65088
31
0
39
0
210
0
220
0
230
1
0
LINE
5
A2
100
AcDbEntity
8
1
62
256
6
ByLayer
370
18
48
1
60
0
100
AcDbLine
10
26.9
20
11
30
0
11
26.9
21
7.105497
31
0
39
0
210
0
220
0
230
1
0
LINE
5
A3
100
AcDbEntity
8
1
62
256
6
ByLayer
370
18
48
1
60
0
100
AcDbLine
10
35
20
7.7
30
0
11
35
21
5.573726
31
0
39
0
210
0
220
0
230
1
0
LINE
5
A4
100
AcDbEntity
8
1
62
256
6
ByLayer
370
18
48
1
60
0
100
AcDbLine
10
78.221634
20
1.652183
30
0
11
77.086193
21
1.785694
31
0
39
0
210
0
220
0
230
1
0
LINE
5
A5
100
AcDbEntity
8
1
62
256
6
ByLayer
370
18
48
1
60
0
100
AcDbLine
10
85.053754
20
0.288895
30
0
11
85.044841
21
0.289206
31
0
39
0
210
0
220
0
230
1
0
LINE
5
A6
100
AcDbEntity
8
1
62
256
6
ByLayer
370
18
48
1
60
0
100
AcDbLine
10
85.063116
20
0.264149
30
0
11
85.02886
21
0.265343
31
0
39
0
210
0
220
0
230
1
0
LINE
5
A7
100
AcDbEntity
8
1
62
256
6
ByLayer
370
18
48
1
60
0
100
AcDbLine
10
78.82899
20
5.111524
30
0
11
78.82899
21
7.694622
31
0
39
0
210
0
220
0
230
1
0
LINE
5
A8
100
AcDbEntity
8
1
62
256
6
ByLayer
370
18
48
1
60
0
100
AcDbLine
10
82.141099
20
2.665018
30
0
11
84.570721
21
2.750186
31
0
39
0
210
0
220
0
230
1
0
LINE
5
A9
100
AcDbEntity
8
1
62
256
6
ByLayer
370
18
48
1
60
0
100
AcDbLine
10
77.351681
20
3.740917
30
0
11
77.115497
21
3.846475
31
0
39
0
210
0
220
0
230
1
0
LINE
5
AA
100
AcDbEntity
8
1
62
256
6
ByLayer
370
18
48
1
60
0
100
AcDbLine
10
80.379347
20
3.977523
30
0
11
80.506051
21
4.882514
31
0
39
0
210
0
220
0
230
1
0
LINE
5
AB
100
AcDbEntity
8
1
62
256
6
ByLayer
370
18
48
1
60
0
100
AcDbLine
10
85.225571
20
-7.698722
30
0
11
85.488985
21
-4.728906
31
0
39
0
210
0
220
0
230
1
0
LINE
5
AC
100
AcDbEntity
8
1
62
256
6
ByLayer
370
18
48
1
60
0
100
AcDbLine
10
6.923205
20
19.122283
30
0
11
6.923205
21
5.85989
31
0
39
0
210
0
220
0
230
1
0
LINE
5
AD
100
AcDbEntity
8
1
62
256
6
ByLayer
370
18
48
1
60
0
100
AcDbLine
10
84.72022
20
2.750186
30
0
11
84.570721
21
2.750186
31
0
39
0
210
0
220
0
230
1
0
LINE
5
AE
100
AcDbEntity
8
1
62
256
6
ByLayer
370
18
48
1
60
0
100
AcDbLine
10
85.178175
20
2.760777
30
0
11
85.068783
21
0.2809
31
0
39
0
210
0
220
0
230
1
0
LINE
5
AF
100
AcDbEntity
8
1
62
256
6
ByLayer
370
18
48
1
60
0
100
AcDbLine
10
85.155068
20
2.727313
30
0
11
84.720278
21
2.750187
31
0
39
0
210
0
220
0
230
1
0
LINE
5
B0
100
AcDbEntity
8
1
62
256
6
ByLayer
370
18
48
1
60
0
100
AcDbLine
10
80.226942
20
3.416383
30
0
11
79.199494
21
3.380366
31
0
39
0
210
0
220
0
230
1
0
LINE
5
B1
100
AcDbEntity
8
1
62
256
6
ByLayer
370
18
48
1
60
0
100
AcDbLine
10
9.076795
20
5.85989
30
0
11
6.923205
21
5.85989
31
0
39
0
210
0
220
0
230
1
0
LINE
5
B2
100
AcDbEntity
8
1
62
256
6
ByLayer
370
18
48
1
60
0
100
AcDbLine
10
80.495712
20
5.346621
30
0
11
80.420696
21
7.699169
31
0
39
0
210
0
220
0
230
1
0
LINE
5
B3
100
AcDbEntity
8
1
62
256
6
ByLayer
370
18
48
1
60
0
100
AcDbLine
10
84.933265
20
2.730554
30
0
11
84.570721
21
2.750186
31
0
39
0
210
0
220
0
230
1
0
LINE
5
B4
100
AcDbEntity
8
1
62
256
6
ByLayer
370
18
48
1
60
0
100
AcDbLine
10
80.506051
20
4.882514
30
0
11
80.314309
21
4.882514
31
0
39
0
210
0
220
0
230
1
0
LINE
5
B5
100
AcDbEntity
8
1
62
256
6
ByLayer
370
18
48
1
60
0
100
AcDbLine
10
76.337714
20
4.33
30
0
11
75.61874
21
4.33
31
0
39
0
210
0
220
0
230
1
0
LINE
5
B6
100
AcDbEntity
8
1
62
256
6
ByLayer
370
18
48
1
60
0
100
AcDbLine
10
79.819686
20
-7.698722
30
0
11
85.225571
21
-7.698722
31
0
39
0
210
0
220
0
230
1
0
LINE
5
B7
100
AcDbEntity
8
1
62
256
6
ByLayer
370
18
48
1
60
0
100
AcDbLine
10
9.076795
20
-5.85989
30
0
11
9.076795
21
-19.122283
31
0
39
0
210
0
220
0
230
1
0
LINE
5
B8
100
AcDbEntity
8
1
62
256
6
ByLayer
370
18
48
1
60
0
100
AcDbLine
10
84.917169
20
-3.917272
30
0
11
84.706661
21
-3.823475
31
0
39
0
210
0
220
0
230
1
0
LINE
5
B9
100
AcDbEntity
8
1
62
256
6
ByLayer
370
18
48
1
60
0
100
AcDbLine
10
84.332437
20
1.313349
30
0
11
84.933265
21
2.730554
31
0
39
0
210
0
220
0
230
1
0
LINE
5
BA
100
AcDbEntity
8
1
62
256
6
ByLayer
370
18
48
1
60
0
100
AcDbLine
10
78.689919
20
0.971665
30
0
11
78.897373
21
1.685351
31
0
39
0
210
0
220
0
230
1
0
LINE
5
BB
100
AcDbEntity
8
1
62
256
6
ByLayer
370
18
48
1
60
0
100
AcDbLine
10
80.704775
20
2.636677
30
0
11
79.806254
21
2.60518
31
0
39
0
210
0
220
0
230
1
0
LINE
5
BC
100
AcDbEntity
8
1
62
256
6
ByLayer
370
18
48
1
60
0
100
AcDbLine
10
9.076795
20
19.122283
30
0
11
9.076795
21
5.85989
31
0
39
0
210
0
220
0
230
1
0
LINE
5
BD
100
AcDbEntity
8
1
62
256
6
ByLayer
370
18
48
1
60
0
100
AcDbLine
10
85.488985
20
-4.728906
30
0
11
85.21154
21
-4.695393
31
0
39
0
210
0
220
0
230
1
0
LINE
5
BE
100
AcDbEntity
8
1
62
256
6
ByLayer
370
18
48
1
60
0
100
AcDbLine
10
80.314309
20
4.882514
30
0
11
80.187604
21
3.977523
31
0
39
0
210
0
220
0
230
1
0
LINE
5
BF
100
AcDbEntity
8
1
62
256
6
ByLayer
370
18
48
1
60
0
100
AcDbLine
10
9.336603
20
-6.16973
30
0
11
9.336603
21
-19.024574
31
0
39
0
210
0
220
0
230
1
0
LINE
5
C0
100
AcDbEntity
8
1
62
256
6
ByLayer
370
18
48
1
60
0
100
AcDbLine
10
84.995301
20
-0.271684
30
0
11
85.192547
21
-4.028348
31
0
39
0
210
0
220
0
230
1
0
LINE
5
C1
100
AcDbEntity
8
1
62
256
6
ByLayer
370
18
48
1
60
0
100
AcDbLine
10
85.155068
20
2.727313
30
0
11
84.933265
21
2.730554
31
0
39
0
210
0
220
0
230
1
0
LINE
5
C2
100
AcDbEntity
8
1
62
256
6
ByLayer
370
18
48
1
60
0
100
AcDbLine
10
84.990012
20
-0.133815
30
0
11
84.347536
21
0.152454
31
0
39
0
210
0
220
0
230
1
0
LINE
5
C3
100
AcDbEntity
8
1
62
256
6
ByLayer
370
18
48
1
60
0
100
AcDbLine
10
9.076795
20
-19.122283
30
0
11
6.923205
21
-19.122283
31
0
39
0
210
0
220
0
230
1
0
LINE
5
C4
100
AcDbEntity
8
1
62
256
6
ByLayer
370
18
48
1
60
0
100
AcDbLine
10
9.336603
20
19.024574
30
0
11
9.336603
21
6.16973
31
0
39
0
210
0
220
0
230
1
0
LINE
5
C5
100
AcDbEntity
8
1
62
256
6
ByLayer
370
18
48
1
60
0
100
AcDbLine
10
6.923205
20
19.122283
30
0
11
9.076795
21
19.122283
31
0
39
0
210
0
220
0
230
1
0
LINE
5
C6
100
AcDbEntity
8
1
62
256
6
ByLayer
370
18
48
1
60
0
100
AcDbLine
10
6.663397
20
-6.16973
30
0
11
6.663397
21
-19.024574
31
0
39
0
210
0
220
0
230
1
0
LINE
5
C7
100
AcDbEntity
8
1
62
256
6
ByLayer
370
18
48
1
60
0
100
AcDbLine
10
80.704775
20
2.636677
30
0
11
80.750062
21
2.636677
31
0
39
0
210
0
220
0
230
1
0
LINE
5
C8
100
AcDbEntity
8
1
62
256
6
ByLayer
370
18
48
1
60
0
100
AcDbLine
10
80.379347
20
3.977523
30
0
11
80.187604
21
3.977523
31
0
39
0
210
0
220
0
230
1
0
LINE
5
C9
100
AcDbEntity
8
1
62
256
6
ByLayer
370
18
48
1
60
0
100
AcDbLine
10
80.468461
20
5.346621
30
0
11
80.495712
21
5.346621
31
0
39
0
210
0
220
0
230
1
0
LINE
5
CA
100
AcDbEntity
8
1
62
256
6
ByLayer
370
18
48
1
60
0
100
AcDbLine
10
80.468461
20
5.346621
30
0
11
80.393793
21
7.688282
31
0
39
0
210
0
220
0
230
1
0
LINE
5
CB
100
AcDbEntity
8
1
62
256
6
ByLayer
370
18
48
1
60
0
100
AcDbLine
10
76.548952
20
1.933053
30
0
11
76.400328
21
1.421755
31
0
39
0
210
0
220
0
230
1
0
LINE
5
CC
100
AcDbEntity
8
1
62
256
6
ByLayer
370
18
48
1
60
0
100
AcDbLine
10
6.663397
20
19.024574
30
0
11
6.663397
21
6.16973
31
0
39
0
210
0
220
0
230
1
0
LINE
5
CD
100
AcDbEntity
8
1
62
256
6
ByLayer
370
18
48
1
60
0
100
AcDbLine
10
85.053754
20
0.288895
30
0
11
85.068783
21
0.2809
31
0
39
0
210
0
220
0
230
1
0
LINE
5
CE
100
AcDbEntity
8
1
62
256
6
ByLayer
370
18
48
1
60
0
100
AcDbLine
10
6.923205
20
-5.85989
30
0
11
9.076795
21
-5.85989
31
0
39
0
210
0
220
0
230
1
0
LINE
5
CF
100
AcDbEntity
8
1
62
256
6
ByLayer
370
18
48
1
60
0
100
AcDbLine
10
85.193185
20
-4.040258
30
0
11
85.032361
21
-3.968599
31
0
39
0
210
0
220
0
230
1
0
LINE
5
D0
100
AcDbEntity
8
1
62
256
6
ByLayer
370
18
48
1
60
0
100
AcDbLine
10
6.923205
20
-5.85989
30
0
11
6.923205
21
-19.122283
31
0
39
0
210
0
220
0
230
1
0
LINE
5
D1
100
AcDbEntity
8
1
62
256
6
ByLayer
370
18
48
1
60
0
100
AcDbLine
10
85.063116
20
0.264149
30
0
11
85.068783
21
0.2809
31
0
39
0
210
0
220
0
230
1
0
LINE
5
D2
100
AcDbEntity
8
1
62
256
6
ByLayer
370
18
48
1
60
0
100
AcDbLine
10
72.358698
20
5.872338
30
0
11
78.82899
21
5.111524
31
0
39
0
210
0
220
0
230
1
0
LINE
5
D3
100
AcDbEntity
8
SK1
62
256
6
ByLayer
370
18
48
1
60
0
100
AcDbLine
10
-1.307107
20
3.588717
30
0
11
-1.307107
21
-3.588717
31
0
39
0
210
0
220
0
230
1
0
LINE
5
D4
100
AcDbEntity
8
1
62
256
6
ByLayer
370
18
48
1
60
0
100
AcDbLine
10
85.821087
20
3.397303
30
0
11
85.761087
21
3.397303
31
0
39
0
210
0
220
0
230
1
0
LINE
5
D5
100
AcDbEntity
8
1
62
256
6
ByLayer
370
18
48
1
60
0
100
AcDbLine
10
85.813427
20
3.329817
30
0
11
85.754953
21
3.343263
31
0
39
0
210
0
220
0
230
1
0
LINE
5
D6
100
AcDbEntity
8
1
62
256
6
ByLayer
370
18
48
1
60
0
100
AcDbLine
10
85.473725
20
2.96414
30
0
11
85.45586
21
3.0213
31
0
39
0
210
0
220
0
230
1
0
LINE
5
D7
100
AcDbEntity
8
1
62
256
6
ByLayer
370
18
48
1
60
0
100
AcDbLine
10
85.81879
20
3.606345
30
0
11
85.75881
21
3.604802
31
0
39
0
210
0
220
0
230
1
0
LINE
5
D8
100
AcDbEntity
8
1
62
256
6
ByLayer
370
18
48
1
60
0
100
AcDbLine
10
81.180407
20
7.900195
30
0
11
81.183154
21
7.84051
31
0
39
0
210
0
220
0
230
1
0
LINE
5
D9
100
AcDbEntity
8
1
62
256
6
ByLayer
370
18
48
1
60
0
100
AcDbLine
10
81.319751
20
7.90618
30
0
11
81.321373
21
7.846445
31
0
39
0
210
0
220
0
230
1
0
LINE
5
DA
100
AcDbEntity
8
1
62
256
6
ByLayer
370
18
48
1
60
0
100
AcDbLine
10
81.497061
20
2.809287
30
0
11
85.108706
21
2.93589
31
0
39
0
210
0
220
0
230
1
0
LINE
5
DB
100
AcDbEntity
8
1
62
256
6
ByLayer
370
18
48
1
60
0
100
AcDbLine
10
85.297489
20
8.030162
30
0
11
85.283639
21
7.971922
31
0
39
0
210
0
220
0
230
1
0
LINE
5
DC
100
AcDbEntity
8
1
62
256
6
ByLayer
370
18
48
1
60
0
100
AcDbLine
10
85.108706
20
2.93589
30
0
11
85.106173
21
2.995626
31
0
39
0
210
0
220
0
230
1
0
LINE
5
DD
100
AcDbEntity
8
1
62
256
6
ByLayer
370
18
48
1
60
0
100
AcDbLine
10
85.070817
20
8.03657
30
0
11
85.071314
21
7.976806
31
0
39
0
210
0
220
0
230
1
0
LINE
5
DE
100
AcDbEntity
8
1
62
256
6
ByLayer
370
18
48
1
60
0
100
AcDbLine
10
80.954732
20
7.87793
30
0
11
80.971685
21
7.82077
31
0
39
0
210
0
220
0
230
1
0
LINE
5
DF
100
AcDbEntity
8
1
62
256
6
ByLayer
370
18
48
1
60
0
100
AcDbLine
10
85.230261
20
8.037851
30
0
11
85.229805
21
7.978079
31
0
39
0
210
0
220
0
230
1
0
LINE
5
E0
100
AcDbEntity
8
1
62
256
6
ByLayer
370
18
48
1
60
0
100
AcDbLine
10
85.407195
20
2.951763
30
0
11
85.402585
21
3.011389
31
0
39
0
210
0
220
0
230
1
0
LINE
5
E1
100
AcDbEntity
8
1
62
256
6
ByLayer
370
18
48
1
60
0
100
AcDbLine
10
81.406443
20
2.806525
30
0
11
81.404451
21
2.866277
31
0
39
0
210
0
220
0
230
1
0
LINE
5
E2
100
AcDbEntity
8
1
62
256
6
ByLayer
370
18
48
1
60
0
100
AcDbLine
10
80.615031
20
7.512254
30
0
11
80.672593
21
7.498808
31
0
39
0
210
0
220
0
230
1
0
LINE
5
E3
100
AcDbEntity
8
1
62
256
6
ByLayer
370
18
48
1
60
0
100
AcDbLine
10
81.497061
20
2.809287
30
0
11
81.494527
21
2.869022
31
0
39
0
210
0
220
0
230
1
0
LINE
5
E4
100
AcDbEntity
8
1
62
256
6
ByLayer
370
18
48
1
60
0
100
AcDbLine
10
85.24805
20
2.941876
30
0
11
85.244392
21
3.001561
31
0
39
0
210
0
220
0
230
1
0
LINE
5
E5
100
AcDbEntity
8
1
62
256
6
ByLayer
370
18
48
1
60
0
100
AcDbLine
10
85.674105
20
7.622378
30
0
11
85.61425
21
7.618209
31
0
39
0
210
0
220
0
230
1
0
LINE
5
E6
100
AcDbEntity
8
1
62
256
6
ByLayer
370
18
48
1
60
0
100
AcDbLine
10
81.021263
20
7.890308
30
0
11
81.02496
21
7.830682
31
0
39
0
210
0
220
0
230
1
0
LINE
5
E7
100
AcDbEntity
8
1
62
256
6
ByLayer
370
18
48
1
60
0
100
AcDbLine
10
84.931396
20
8.032784
30
0
11
81.319751
21
7.90618
31
0
39
0
210
0
220
0
230
1
0
LINE
5
E8
100
AcDbEntity
8
1
62
256
6
ByLayer
370
18
48
1
60
0
100
AcDbLine
10
80.612419
20
7.144762
30
0
11
80.671471
21
7.146848
31
0
39
0
210
0
220
0
230
1
0
LINE
5
E9
100
AcDbEntity
8
1
62
256
6
ByLayer
370
18
48
1
60
0
100
AcDbLine
10
85.199296
20
2.93948
30
0
11
85.19622
21
2.999194
31
0
39
0
210
0
220
0
230
1
0
LINE
5
EA
100
AcDbEntity
8
1
62
256
6
ByLayer
370
18
48
1
60
0
100
AcDbLine
10
84.931396
20
8.032784
30
0
11
84.933019
21
7.973048
31
0
39
0
210
0
220
0
230
1
0
LINE
5
EB
100
AcDbEntity
8
1
62
256
6
ByLayer
370
18
48
1
60
0
100
AcDbLine
10
85.683954
20
7.462626
30
0
11
85.624041
21
7.459411
31
0
39
0
210
0
220
0
230
1
0
LINE
5
EC
100
AcDbEntity
8
1
62
256
6
ByLayer
370
18
48
1
60
0
100
AcDbLine
10
85.689917
20
7.32275
30
0
11
85.629953
21
7.320664
31
0
39
0
210
0
220
0
230
1
0
LINE
5
ED
100
AcDbEntity
8
1
62
256
6
ByLayer
370
18
48
1
60
0
100
AcDbLine
10
80.754352
20
3.219693
30
0
11
80.813296
21
3.223862
31
0
39
0
210
0
220
0
230
1
0
LINE
5
EE
100
AcDbEntity
8
1
62
256
6
ByLayer
370
18
48
1
60
0
100
AcDbLine
10
80.742117
20
3.428386
30
0
11
80.801147
21
3.431016
31
0
39
0
210
0
220
0
230
1
0
LINE
5
EF
100
AcDbEntity
8
1
62
256
6
ByLayer
370
18
48
1
60
0
100
AcDbLine
10
80.766683
20
3.152908
30
0
11
80.82317
21
3.170384
31
0
39
0
210
0
220
0
230
1
0
LINE
5
F0
100
AcDbEntity
8
1
62
256
6
ByLayer
370
18
48
1
60
0
100
AcDbLine
10
81.130968
20
2.811909
30
0
11
81.143907
21
2.870149
31
0
39
0
210
0
220
0
230
1
0
LINE
5
F1
100
AcDbEntity
8
1
62
256
6
ByLayer
370
18
48
1
60
0
100
AcDbLine
10
81.229162
20
7.902591
30
0
11
81.231326
21
7.842877
31
0
39
0
210
0
220
0
230
1
0
LINE
5
F2
100
AcDbEntity
8
1
62
256
6
ByLayer
370
18
48
1
60
0
100
AcDbLine
10
80.744503
20
3.379445
30
0
11
80.803505
21
3.382659
31
0
39
0
210
0
220
0
230
1
0
LINE
5
F3
100
AcDbEntity
8
1
62
256
6
ByLayer
370
18
48
1
60
0
100
AcDbLine
10
80.608647
20
7.284715
30
0
11
80.667728
21
7.285672
31
0
39
0
210
0
220
0
230
1
0
LINE
5
F4
100
AcDbEntity
8
1
62
256
6
ByLayer
370
18
48
1
60
0
100
AcDbLine
10
80.607371
20
7.444768
30
0
11
80.666459
21
7.444768
31
0
39
0
210
0
220
0
230
1
0
LINE
5
F5
100
AcDbEntity
8
1
62
256
6
ByLayer
370
18
48
1
60
0
100
AcDbLine
10
85.816038
20
3.697309
30
0
11
85.689917
21
7.32275
31
0
39
0
210
0
220
0
230
1
0
LINE
5
F6
100
AcDbEntity
8
1
62
256
6
ByLayer
370
18
48
1
60
0
100
AcDbLine
10
85.022014
20
8.035546
30
0
11
85.023095
21
7.975794
31
0
39
0
210
0
220
0
230
1
0
LINE
5
F7
100
AcDbEntity
8
1
62
256
6
ByLayer
370
18
48
1
60
0
100
AcDbLine
10
81.198197
20
2.80422
30
0
11
81.197741
21
2.863991
31
0
39
0
210
0
220
0
230
1
0
LINE
5
F8
100
AcDbEntity
8
1
62
256
6
ByLayer
370
18
48
1
60
0
100
AcDbLine
10
80.612419
20
7.144762
30
0
11
80.73854
21
3.519321
31
0
39
0
210
0
220
0
230
1
0
LINE
5
F9
100
AcDbEntity
8
1
62
256
6
ByLayer
370
18
48
1
60
0
100
AcDbLine
10
80.609667
20
7.235726
30
0
11
80.668736
21
7.237269
31
0
39
0
210
0
220
0
230
1
0
LINE
5
FA
100
AcDbEntity
8
1
62
256
6
ByLayer
370
18
48
1
60
0
100
AcDbLine
10
85.816038
20
3.697309
30
0
11
85.756075
21
3.695223
31
0
39
0
210
0
220
0
230
1
0
LINE
5
FB
100
AcDbEntity
8
1
62
256
6
ByLayer
370
18
48
1
60
0
100
AcDbLine
10
85.661774
20
7.689163
30
0
11
85.604376
21
7.671687
31
0
39
0
210
0
220
0
230
1
0
LINE
5
FC
100
AcDbEntity
8
1
62
256
6
ByLayer
370
18
48
1
60
0
100
AcDbLine
10
80.73854
20
3.519321
30
0
11
80.797593
21
3.521407
31
0
39
0
210
0
220
0
230
1
0
LINE
5
FD
100
AcDbEntity
8
1
62
256
6
ByLayer
370
18
48
1
60
0
100
AcDbLine
10
85.819811
20
3.557355
30
0
11
85.759818
21
3.556399
31
0
39
0
210
0
220
0
230
1
0
LINE
5
FE
100
AcDbEntity
8
1
62
256
6
ByLayer
370
18
48
1
60
0
100
AcDbLine
10
85.686341
20
7.413685
30
0
11
85.626398
21
7.411055
31
0
39
0
210
0
220
0
230
1
0
LINE
5
FF
100
AcDbEntity
8
1
62
256
6
ByLayer
370
18
48
1
60
0
100
AcDbLine
10
81.357641
20
2.805501
30
0
11
81.356232
21
2.865265
31
0
39
0
210
0
220
0
230
1
0
LINE
5
100
100
AcDbEntity
8
1
62
256
6
ByLayer
370
18
48
1
60
0
100
AcDbLine
10
85.73043
20
-2.02255
30
0
11
85.567351
21
-1.949887
31
0
39
0
210
0
220
0
230
1
0
LINE
5
101
100
AcDbEntity
8
1
62
256
6
ByLayer
370
18
48
1
60
0
100
AcDbLine
10
85.384911
20
0.009633
30
0
11
85.224214
21
0.200787
31
0
39
0
210
0
220
0
230
1
0
LINE
5
102
100
AcDbEntity
8
1
62
256
6
ByLayer
370
18
48
1
60
0
100
AcDbLine
10
85.513887
20
-4.484413
30
0
11
85.486718
21
-4.410834
31
0
39
0
210
0
220
0
230
1
0
LINE
5
103
100
AcDbEntity
8
1
62
256
6
ByLayer
370
18
48
1
60
0
100
AcDbLine
10
85.634194
20
-4.415083
30
0
11
85.825705
21
-4.254686
31
0
39
0
210
0
220
0
230
1
0
LINE
5
104
100
AcDbEntity
8
1
62
256
6
ByLayer
370
18
48
1
60
0
100
AcDbLine
10
85.374756
20
-3.248221
30
0
11
85.38378
21
-2.990292
31
0
39
0
210
0
220
0
230
1
0
LINE
5
105
100
AcDbEntity
8
1
62
256
6
ByLayer
370
18
48
1
60
0
100
AcDbLine
10
85.519796
20
-1.044192
30
0
11
85.567351
21
-1.949887
31
0
39
0
210
0
220
0
230
1
0
LINE
5
106
100
AcDbEntity
8
1
62
256
6
ByLayer
370
18
48
1
60
0
100
AcDbLine
10
85.662711
20
-0.7328
30
0
11
85.73043
21
-2.02255
31
0
39
0
210
0
220
0
230
1
0
LINE
5
107
100
AcDbEntity
8
1
62
256
6
ByLayer
370
18
48
1
60
0
100
AcDbLine
10
85.884101
20
-2.626502
30
0
11
85.736706
21
-2.61548
31
0
39
0
210
0
220
0
230
1
0
LINE
5
108
100
AcDbEntity
8
1
62
256
6
ByLayer
370
18
48
1
60
0
100
AcDbLine
10
85.825705
20
-4.254686
30
0
11
85.772803
21
-4.202196
31
0
39
0
210
0
220
0
230
1
0
LINE
5
109
100
AcDbEntity
8
1
62
256
6
ByLayer
370
18
48
1
60
0
100
AcDbLine
10
85.824482
20
-3.323113
30
0
11
85.833506
21
-3.065185
31
0
39
0
210
0
220
0
230
1
0
LINE
5
10A
100
AcDbEntity
8
1
62
256
6
ByLayer
370
18
48
1
60
0
100
AcDbLine
10
85.927152
20
-2.716592
30
0
11
85.884101
21
-2.626502
31
0
39
0
210
0
220
0
230
1
0
LINE
5
10B
100
AcDbEntity
8
1
62
256
6
ByLayer
370
18
48
1
60
0
100
AcDbLine
10
85.968347
20
-3.962773
30
0
11
85.875628
21
-3.870779
31
0
39
0
210
0
220
0
230
1
0
LINE
5
10C
100
AcDbEntity
8
1
62
256
6
ByLayer
370
18
48
1
60
0
100
AcDbLine
10
85.519796
20
-1.044192
30
0
11
85.170276
21
-1.003259
31
0
39
0
210
0
220
0
230
1
0
LINE
5
10D
100
AcDbEntity
8
1
62
256
6
ByLayer
370
18
48
1
60
0
100
AcDbLine
10
85.506077
20
-0.506421
30
0
11
85.407311
21
-0.110961
31
0
39
0
210
0
220
0
230
1
0
LINE
5
10E
100
AcDbEntity
8
1
62
256
6
ByLayer
370
18
48
1
60
0
100
AcDbLine
10
85.639136
20
-0.617143
30
0
11
85.45437
21
-0.110449
31
0
39
0
210
0
220
0
230
1
0
LINE
5
10F
100
AcDbEntity
8
1
62
256
6
ByLayer
370
18
48
1
60
0
100
AcDbLine
10
85.999756
20
-3.064999
30
0
11
85.838624
21
-2.979219
31
0
39
0
210
0
220
0
230
1
0
LINE
5
110
100
AcDbEntity
8
1
62
256
6
ByLayer
370
18
48
1
60
0
100
AcDbLine
10
85.45437
20
-0.110449
30
0
11
85.407311
21
-0.110961
31
0
39
0
210
0
220
0
230
1
0
LINE
5
111
100
AcDbEntity
8
1
62
256
6
ByLayer
370
18
48
1
60
0
100
AcDbLine
10
85.927152
20
-2.716592
30
0
11
85.78162
21
-2.70571
31
0
39
0
210
0
220
0
230
1
0
LINE
5
112
100
AcDbEntity
8
1
62
256
6
ByLayer
370
18
48
1
60
0
100
AcDbLine
10
85.21783
20
-1.908953
30
0
11
85.117967
21
-1.914177
31
0
39
0
210
0
220
0
230
1
0
LINE
5
113
100
AcDbEntity
8
1
62
256
6
ByLayer
370
18
48
1
60
0
100
AcDbLine
10
85.740229
20
-2.622872
30
0
11
85.425055
21
-2.71551
31
0
39
0
210
0
220
0
230
1
0
LINE
5
114
100
AcDbEntity
8
1
62
256
6
ByLayer
370
18
48
1
60
0
100
AcDbLine
10
85.506077
20
-0.506421
30
0
11
85.071847
21
-0.706275
31
0
39
0
210
0
220
0
230
1
0
LINE
5
115
100
AcDbEntity
8
1
62
256
6
ByLayer
370
18
48
1
60
0
100
AcDbLine
10
85.631481
20
-4.32607
30
0
11
85.254594
21
-3.644873
31
0
39
0
210
0
220
0
230
1
0
LINE
5
116
100
AcDbEntity
8
1
62
256
6
ByLayer
370
18
48
1
60
0
100
AcDbLine
10
85.474695
20
-3.251704
30
0
11
85.483719
21
-2.993775
31
0
39
0
210
0
220
0
230
1
0
LINE
5
117
100
AcDbEntity
8
1
62
256
6
ByLayer
370
18
48
1
60
0
100
AcDbLine
10
85.341847
20
0.009165
30
0
11
85.320991
21
0.032138
31
0
39
0
210
0
220
0
230
1
0
LINE
5
118
100
AcDbEntity
8
1
62
256
6
ByLayer
370
18
48
1
60
0
100
AcDbLine
10
85.609331
20
-4.34775
30
0
11
85.631481
21
-4.32607
31
0
39
0
210
0
220
0
230
1
0
LINE
5
119
100
AcDbEntity
8
1
62
256
6
ByLayer
370
18
48
1
60
0
100
AcDbLine
10
85.567351
20
-1.949887
30
0
11
85.21783
21
-1.908953
31
0
39
0
210
0
220
0
230
1
0
LINE
5
11A
100
AcDbEntity
8
1
62
256
6
ByLayer
370
18
48
1
60
0
100
AcDbLine
10
85.833506
20
-3.065185
30
0
11
85.483719
21
-2.993775
31
0
39
0
210
0
220
0
230
1
0
LINE
5
11B
100
AcDbEntity
8
1
62
256
6
ByLayer
370
18
48
1
60
0
100
AcDbLine
10
85.639136
20
-0.617143
30
0
11
85.52666
21
-0.583542
31
0
39
0
210
0
220
0
230
1
0
LINE
5
11C
100
AcDbEntity
8
1
62
256
6
ByLayer
370
18
48
1
60
0
100
AcDbLine
10
85.117967
20
-1.914177
30
0
11
85.070413
21
-1.008483
31
0
39
0
210
0
220
0
230
1
0
LINE
5
11D
100
AcDbEntity
8
1
62
256
6
ByLayer
370
18
48
1
60
0
100
AcDbLine
10
85.662711
20
-0.7328
30
0
11
85.534769
21
-0.694579
31
0
39
0
210
0
220
0
230
1
0
LINE
5
11E
100
AcDbEntity
8
1
62
256
6
ByLayer
370
18
48
1
60
0
100
AcDbLine
10
85.384911
20
0.009633
30
0
11
85.341847
21
0.009165
31
0
39
0
210
0
220
0
230
1
0
LINE
5
11F
100
AcDbEntity
8
1
62
256
6
ByLayer
370
18
48
1
60
0
100
AcDbLine
10
85.968347
20
-3.962773
30
0
11
85.999756
21
-3.064999
31
0
39
0
210
0
220
0
230
1
0
LINE
5
120
100
AcDbEntity
8
1
62
256
6
ByLayer
370
18
48
1
60
0
100
AcDbLine
10
85.210681
20
-2.978154
30
0
11
85.201657
21
-3.236083
31
0
39
0
210
0
220
0
230
1
0
LINE
5
121
100
AcDbEntity
8
1
62
256
6
ByLayer
370
18
48
1
60
0
100
AcDbLine
10
85.634194
20
-4.415083
30
0
11
85.609331
21
-4.34775
31
0
39
0
210
0
220
0
230
1
0
LINE
5
122
100
AcDbEntity
8
1
62
256
6
ByLayer
370
18
48
1
60
0
100
AcDbLine
10
85.824482
20
-3.323113
30
0
11
85.474695
21
-3.251704
31
0
39
0
210
0
220
0
230
1
0
LINE
5
123
100
AcDbEntity
8
1
62
256
6
ByLayer
370
18
48
1
60
0
100
AcDbLine
10
85.224214
20
0.200787
30
0
11
85.198412
21
0.174718
31
0
39
0
210
0
220
0
230
1
0
LINE
5
124
100
AcDbEntity
8
1
62
256
6
ByLayer
370
18
48
1
60
0
100
AcDbLine
10
85.21783
20
-1.908953
30
0
11
85.170276
21
-1.003259
31
0
39
0
210
0
220
0
230
1
0
MTEXT
5
26F
100
AcDbEntity
8
SK6
62
256
6
ByLayer
370
18
48
1
60
0
100
AcDbMText
10
0.875
20
-80.875
30
0
210
0
220
0
230
1
1
\W0.7295;880-D1600C4-03
40
3.5
41
0
44
1.084337
50
0
71
7
72
5
7
iso_b_vert
0
DIMENSION
5
27D
100
AcDbEntity
8
SK2
62
256
6
ByLayer
370
13
48
1
60
0
100
AcDbDimension
2
DimnDraft3D1
10
86
20
-58.81875
30
0
11
31
21
-58.81875
31
0
70
32
71
5
72
1
41
1
210
0
220
0
230
1
3
Standard
100
AcDbAlignedDimension
13
-24
23
-3.5875
33
0
14
86
24
-9.5875
34
0
50
0
100
AcDbRotatedDimension
1001
ACAD
1000
DSTYLE
1002
{
1070
   279
1070
     0
1070
   172
1070
     1
1070
   173
1070
     1
1070
   340
1005
270
1070
   271
1070
     1
1070
   272
1070
     2
1070
    77
1070
     1
1070
    73
1070
     0
1070
   171
1070
     3
1070
   274
1070
     4
1070
   177
1070
   150
1070
   176
1070
     9
1070
   178
1070
    43
1070
    78
1070
     8
1070
    48
1040
-0.005
1070
    41
1041
4.175
1070
   147
1041
2.25
1070
    42
1041
1.5875
1070
    44
1041
3.175
1070
   140
1041
4.5
1070
   343
1005
0
1070
   344
1005
0
1002
}
0
DIMENSION
5
287
100
AcDbEntity
8
SK2
62
256
6
ByLayer
370
13
48
1
60
0
100
AcDbDimension
2
DimnDraft3D2
10
0
20
-46.85
30
0
11
-12
21
-46.85
31
0
70
32
71
5
72
1
41
1
210
0
220
0
230
1
3
Standard
100
AcDbAlignedDimension
13
-24
23
-3.5875
33
0
14
0
24
-21.5875
34
0
50
0
100
AcDbRotatedDimension
1001
ACAD
1000
DSTYLE
1002
{
1070
   279
1070
     0
1070
   172
1070
     1
1070
   173
1070
     1
1070
   340
1005
270
1070
   271
1070
     1
1070
   272
1070
     2
1070
    77
1070
     1
1070
    73
1070
     0
1070
   171
1070
     3
1070
   274
1070
     4
1070
   177
1070
   150
1070
   176
1070
     9
1070
   178
1070
    43
1070
    78
1070
     8
1070
    48
1040
-0.005
1070
    41
1041
4.175
1070
   147
1041
2.25
1070
    42
1041
1.5875
1070
    44
1041
3.175
1070
   140
1041
4.5
1070
   343
1005
0
1070
   344
1005
0
1002
}
0
DIMENSION
5
292
100
AcDbEntity
8
2
62
256
6
ByLayer
370
13
48
1
60
0
100
AcDbDimension
2
DimnDraft3D3
10
86
20
-46.85
30
0
11
43
21
-46.85
31
0
70
32
71
5
72
1
41
1
210
0
220
0
230
1
3
Standard
100
AcDbAlignedDimension
13
0
23
-21.5875
33
0
14
86
24
-9.5875
34
0
50
0
100
AcDbRotatedDimension
1001
ACAD
1000
DSTYLE
1002
{
1070
   279
1070
     0
1070
   172
1070
     1
1070
   173
1070
     1
1070
   340
1005
270
1070
   271
1070
     1
1070
   272
1070
     2
1070
    77
1070
     1
1070
    73
1070
     0
1070
   171
1070
     3
1070
   274
1070
     4
1070
   177
1070
   150
1070
   176
1070
     9
1070
   178
1070
    43
1070
    78
1070
     8
1070
    48
1040
-0.005
1070
    41
1041
4.175
1070
   147
1041
2.25
1070
    42
1041
1.5875
1070
    44
1041
3.175
1070
   140
1041
4.5
1070
   343
1005
0
1070
   344
1005
0
1002
}
0
DIMENSION
5
29C
100
AcDbEntity
8
SK2
62
256
6
ByLayer
370
13
48
1
60
0
100
AcDbDimension
2
DimnDraft3D4
10
86
20
-36.85
30
0
11
60.5
21
-36.85
31
0
70
32
71
5
72
1
41
1
210
0
220
0
230
1
3
Standard
100
AcDbAlignedDimension
13
35
23
-11.5875
33
0
14
86
24
-9.5875
34
0
50
0
100
AcDbRotatedDimension
1001
ACAD
1000
DSTYLE
1002
{
1070
   279
1070
     0
1070
   172
1070
     1
1070
   173
1070
     1
1070
   340
1005
270
1070
   271
1070
     1
1070
   272
1070
     2
1070
    77
1070
     1
1070
    73
1070
     0
1070
   171
1070
     3
1070
   274
1070
     4
1070
   177
1070
   150
1070
   176
1070
     9
1070
   178
1070
    43
1070
    78
1070
     8
1070
    48
1040
-0.005
1070
    41
1041
4.175
1070
   147
1041
2.25
1070
    42
1041
1.5875
1070
    44
1041
3.175
1070
   140
1041
4.5
1070
   343
1005
0
1070
   344
1005
0
1002
}
0
DIMENSION
5
2A7
100
AcDbEntity
8
SK2
62
256
6
ByLayer
370
13
48
1
60
0
100
AcDbDimension
2
DimnDraft3D5
10
-46.078766
20
20
30
0
11
-46.278766
21
3.825
31
0
70
33
71
5
72
1
41
1
210
0
220
0
230
1
3
Standard
100
AcDbAlignedDimension
13
-1.5875
23
-20
33
0
14
-1.5875
24
20
34
0
1001
ACAD
1000
DSTYLE
1002
{
1070
   279
1070
     0
1070
    74
1070
     0
1070
   173
1070
     1
1070
   340
1005
270
1070
   271
1070
     1
1070
   272
1070
     2
1070
    77
1070
     1
1070
    73
1070
     0
1070
   171
1070
     3
1070
   274
1070
     4
1070
   177
1070
   150
1070
   176
1070
     9
1070
   178
1070
    43
1070
    78
1070
     8
1070
    48
1040
-0.005
1070
    41
1041
4.175
1070
   147
1041
2.25
1070
    42
1041
1.5875
1070
    44
1041
3.175
1070
   140
1041
4.5
1070
   343
1005
0
1070
   344
1005
0
1002
}
0
DIMENSION
5
2B2
100
AcDbEntity
8
2
62
256
6
ByLayer
370
13
48
1
60
0
100
AcDbDimension
2
DimnDraft3D6
10
116.15
20
-8
30
0
11
109.6
21
-24.363816
31
0
70
33
71
5
72
1
41
1
210
0
220
0
230
1
3
Standard
100
AcDbAlignedDimension
13
87.5875
23
8
33
0
14
87.5875
24
-8
34
0
1001
ACAD
1000
DSTYLE
1002
{
1070
   279
1070
     0
1070
    74
1070
     0
1070
   173
1070
     1
1070
   340
1005
270
1070
   271
1070
     2
1070
   272
1070
     2
1070
    77
1070
     1
1070
    73
1070
     0
1070
   171
1070
     3
1070
   274
1070
     4
1070
   177
1070
   150
1070
   176
1070
     9
1070
   178
1070
    43
1070
    78
1070
     8
1070
    48
1040
-0.005
1070
    41
1041
4.175
1070
   147
1041
2.25
1070
    42
1041
1.5875
1070
    44
1041
3.175
1070
   140
1041
4.5
1070
   343
1005
0
1070
   344
1005
0
1002
}
0
ENDSEC
0
SECTION
2
OBJECTS
0
DICTIONARY
5
31d
330
0
100
AcDbDictionary
280
0
281
1
3
ACAD_GROUP
350
31e
3
ACAD_MLINESTYLE
350
31f
0
DICTIONARY
5
31e
330
0
100
AcDbDictionary
280
0
281
1
0
DICTIONARY
5
31f
330
0
100
AcDbDictionary
280
0
281
1
3
Standard
350
18
0
MLINESTYLE
5
18
330
31f
100
AcDbMlineStyle
2
Standard
70
0
3

62
256
51
90
52
90
71
2
49
-0.5
62
256
6
ByLayer
49
0.5
62
256
6
ByLayer
0
RASTERVARIABLES
5
30b
330

100
AcDbRasterVariables
90
0
70
1
71
1
72
1
0
ENDSEC
0
EOF
