0
SECTION
2
HEADER
9
$ACADVER
1
AC1015
9
$DWGCODEPAGE
3
ANSI_1252
9
$HANDSEED
5
2de
9
$ANGBASE
50
0
9
$ANGDIR
70
0
9
$ATTMODE
70
1
9
$AUNITS
70
0
9
$AUPREC
70
0
9
$CECOLOR
62
256
9
$CELTSCALE
40
1
9
$CELTYPE
6
ByLayer
9
$CELWEIGHT
370
-1
9
$CLAYER
8
0
9
$CMLJUST
70
0
9
$CMLSCALE
40
1
9
$CMLSTYLE
2
Standard
9
$DIMSTYLE
2
Standard
9
$TEXTSIZE
40
0.2
9
$TEXTSTYLE
7
Standard
9
$LUNITS
70
2
9
$LUPREC
70
4
9
$EXTNAMES
290
1
9
$INSUNITS
70
4
9
$LTSCALE
40
1
9
$LWDISPLAY
290
0
9
$PDMODE
70
0
9
$PDSIZE
40
0
9
$PLINEGEN
70
0
0
ENDSEC
0
SECTION
2
CLASSES
0
CLASS
1
RASTERVARIABLES
2
AcDbRasterVariables
3
ISM
90
0
280
0
281
0
0
ENDSEC
0
SECTION
2
TABLES
0
TABLE
2
VPORT
5
2d4
100
AcDbSymbolTable
0
VPORT
5
1
100
AcDbSymbolTableRecord
100
AcDbViewportTableRecord
2
*Active
70
0
10
0
20
0
11
1
21
1
12
-1
22
1
13
0
23
0
14
0.5
24
0.5
15
10
25
10
16
0
26
0
36
1
17
0
27
0
37
0
0
ENDTAB
0
TABLE
2
LTYPE
5
2d5
100
AcDbSymbolTable
0
LTYPE
5
14
100
AcDbSymbolTableRecord
100
AcDbLinetypeTableRecord
70
0
2
ByBlock
3

72
65
73
0
40
0
0
LTYPE
5
15
100
AcDbSymbolTableRecord
100
AcDbLinetypeTableRecord
70
0
2
ByLayer
3

72
65
73
0
40
0
0
LTYPE
5
16
100
AcDbSymbolTableRecord
100
AcDbLinetypeTableRecord
70
0
2
CONTINUOUS
3
Solid line
72
65
73
0
40
0
0
LTYPE
5
3B
100
AcDbSymbolTableRecord
100
AcDbLinetypeTableRecord
70
0
2
DASHED
3
__ __ __ __ __ __ __ __ __
72
65
73
2
40
25.72
49
12.86
74
0
49
-12.86
74
0
0
LTYPE
5
3C
100
AcDbSymbolTableRecord
100
AcDbLinetypeTableRecord
70
0
2
HIDDEN
3
_ _ _ _ _ _ _ _ _ _ _ _ _ _ _
72
65
73
2
40
0.5
49
0.25
74
0
49
-0.25
74
0
0
LTYPE
5
3D
100
AcDbSymbolTableRecord
100
AcDbLinetypeTableRecord
70
0
2
PHANTOM
3
____ _ _ ____ _ _ _____ _ _ ____
72
65
73
6
40
50.5
49
18
74
0
49
-6.5
74
0
49
6.5
74
0
49
-6.5
74
0
49
6.5
74
0
49
-6.5
74
0
0
LTYPE
5
3E
100
AcDbSymbolTableRecord
100
AcDbLinetypeTableRecord
70
0
2
CENTER
3
____ _ ____ _ ____ _ ____
72
65
73
4
40
47.5
49
22
74
0
49
-8.5
74
0
49
8.5
74
0
49
-8.5
74
0
0
LTYPE
5
3F
100
AcDbSymbolTableRecord
100
AcDbLinetypeTableRecord
70
0
2
DOT
3
.........................
72
65
73
2
40
10
49
0
74
0
49
-10
74
0
0
LTYPE
5
40
100
AcDbSymbolTableRecord
100
AcDbLinetypeTableRecord
70
0
2
DASHDOT
3
_._._._._._._._._._._._._._._._.
72
65
73
4
40
70
49
31
74
0
49
-13
74
0
49
13
74
0
49
-13
74
0
0
ENDTAB
0
TABLE
2
LAYER
5
2d6
100
AcDbSymbolTable
0
LAYER
5
10
100
AcDbSymbolTableRecord
100
AcDbLayerTableRecord
2
0
70
0
62
7
6
CONTINUOUS
290
1
370
-3
390
0
0
LAYER
5
42
100
AcDbSymbolTableRecord
100
AcDbLayerTableRecord
2
81
70
0
62
-3
6
CONTINUOUS
290
1
370
-3
390
0
0
LAYER
5
44
100
AcDbSymbolTableRecord
100
AcDbLayerTableRecord
2
80
70
0
62
-6
6
CONTINUOUS
290
1
370
-3
390
0
0
LAYER
5
57
100
AcDbSymbolTableRecord
100
AcDbLayerTableRecord
2
1
70
0
62
4
6
CONTINUOUS
290
1
370
-3
390
0
0
LAYER
5
63
100
AcDbSymbolTableRecord
100
AcDbLayerTableRecord
2
4
70
0
62
-2
6
CENTER
290
1
370
-3
390
0
0
LAYER
5
26D
100
AcDbSymbolTableRecord
100
AcDbLayerTableRecord
2
2
70
0
62
7
6
CONTINUOUS
290
1
370
-3
390
0
0
LAYER
5
2c0
100
AcDbSymbolTableRecord
100
AcDbLayerTableRecord
2
SK1
70
0
62
4
6
CONTINUOUS
290
1
370
-3
390
0
0
LAYER
5
2c1
100
AcDbSymbolTableRecord
100
AcDbLayerTableRecord
2
SK4
70
0
62
2
6
CENTER
290
1
370
-3
390
0
0
LAYER
5
2c2
100
AcDbSymbolTableRecord
100
AcDbLayerTableRecord
2
SK6
70
0
62
5
6
CONTINUOUS
290
1
370
-3
390
0
0
LAYER
5
2c3
100
AcDbSymbolTableRecord
100
AcDbLayerTableRecord
2
SK2
70
0
62
7
6
CONTINUOUS
290
1
370
-3
390
0
0
ENDTAB
0
TABLE
2
STYLE
5
2d7
100
AcDbSymbolTable
0
STYLE
5
11
100
AcDbSymbolTableRecord
100
AcDbTextStyleTableRecord
2
Standard
3
txt
70
0
71
0
40
0
41
1
42
0
50
0
0
STYLE
5
231
100
AcDbSymbolTableRecord
100
AcDbTextStyleTableRecord
2
DEFAULT
3
simplex.shx
70
0
71
0
40
0
41
1
42
0
50
0
0
STYLE
5
254
100
AcDbSymbolTableRecord
100
AcDbTextStyleTableRecord
2
DWGDirectTextStyle
3
SIMPLEX
70
0
71
0
40
0
41
1
42
0
50
0
0
ENDTAB
0
TABLE
2
DIMSTYLE
5
2d8
100
AcDbSymbolTable
100
AcDbDimStyleTable
0
DIMSTYLE
105
27
100
AcDbSymbolTableRecord
100
AcDbDimStyleTableRecord
2
Standard
70
0
3
<>
41
0.18
42
0.0625
44
0.18
140
0.18
147
0.09
73
0
74
0
77
1
271
2
275
0
278
52
280
0
340
11
0
ENDTAB
0
TABLE
2
VIEW
5
2d9
100
AcDbSymbolTable
0
ENDTAB
0
TABLE
2
UCS
5
2da
100
AcDbSymbolTable
0
ENDTAB
0
TABLE
2
APPID
5
2db
100
AcDbSymbolTable
0
APPID
5
12
100
AcDbSymbolTableRecord
100
AcDbRegAppTableRecord
2
ACAD
70
0
0
ENDTAB
0
TABLE
2
BLOCK_RECORD
5
2dc
100
AcDbSymbolTable
0
BLOCK_RECORD
5
1F
100
AcDbSymbolTableRecord
100
AcDbBlockTableRecord
2
*Model_Space
340
0
70
0
0
BLOCK_RECORD
5
1B
100
AcDbSymbolTableRecord
100
AcDbBlockTableRecord
2
*Paper_Space
340
0
70
0
0
BLOCK_RECORD
5
23
100
AcDbSymbolTableRecord
100
AcDbBlockTableRecord
2
*Paper_Space0
340
0
70
0
0
BLOCK_RECORD
5
256
100
AcDbSymbolTableRecord
100
AcDbBlockTableRecord
2
DimnDraft3D1
340
0
70
0
0
BLOCK_RECORD
5
261
100
AcDbSymbolTableRecord
100
AcDbBlockTableRecord
2
DimnDraft3D2
340
0
70
0
0
BLOCK_RECORD
5
26B
100
AcDbSymbolTableRecord
100
AcDbBlockTableRecord
2
DimnDraft3D3
340
0
70
0
0
BLOCK_RECORD
5
276
100
AcDbSymbolTableRecord
100
AcDbBlockTableRecord
2
DimnDraft3D4
340
0
70
0
0
BLOCK_RECORD
5
280
100
AcDbSymbolTableRecord
100
AcDbBlockTableRecord
2
DimnDraft3D5
340
0
70
0
0
BLOCK_RECORD
5
28B
100
AcDbSymbolTableRecord
100
AcDbBlockTableRecord
2
DimnDraft3D6
340
0
70
0
0
BLOCK_RECORD
5
296
100
AcDbSymbolTableRecord
100
AcDbBlockTableRecord
2
DimnDraft3D7
340
0
70
0
0
ENDTAB
0
ENDSEC
0
SECTION
2
BLOCKS
0
BLOCK
5
20
100
AcDbEntity
8
0
100
AcDbBlockBegin
2
*Model_Space
70
0
10
0
20
0
30
0
3
*Model_Space
0
ENDBLK
5
21
100
AcDbEntity
8
0
100
AcDbBlockEnd
0
BLOCK
5
1C
100
AcDbEntity
8
0
100
AcDbBlockBegin
2
*Paper_Space
70
0
10
0
20
0
30
0
3
*Paper_Space
0
ENDBLK
5
1D
100
AcDbEntity
8
0
100
AcDbBlockEnd
0
BLOCK
5
24
100
AcDbEntity
8
0
100
AcDbBlockBegin
2
*Paper_Space0
70
0
10
0
20
0
30
0
3
*Paper_Space0
0
ENDBLK
5
25
100
AcDbEntity
8
0
100
AcDbBlockEnd
0
BLOCK
5
25E
100
AcDbEntity
8
0
100
AcDbBlockBegin
2
DimnDraft3D1
70
0
10
0
20
0
30
0
3
DimnDraft3D1
0
MTEXT
5
257
100
AcDbEntity
8
SK2
62
256
6
ByLayer
370
-1
48
1
60
0
100
AcDbMText
10
13.669737
20
-48.2758
30
0
210
0
220
0
230
1
1
\W01.000;\fsimplex.shx,bigfont.shx;(142) 
40
4.5
41
0
44
1.084337
50
0
71
7
72
5
7
DEFAULT
0
LINE
5
259
100
AcDbEntity
8
SK2
62
256
6
ByLayer
370
-1
48
1
60
0
100
AcDbLine
10
-50
20
-11.5875
30
0
11
-50
21
-54.54455
31
0
39
0
210
0
220
0
230
1
0
LINE
5
25A
100
AcDbEntity
8
SK2
62
256
6
ByLayer
370
-1
48
1
60
0
100
AcDbLine
10
92
20
-9.0875
30
0
11
92
21
-54.54455
31
0
39
0
210
0
220
0
230
1
0
LINE
5
25B
100
AcDbEntity
8
SK2
62
256
6
ByLayer
370
-1
48
1
60
0
100
AcDbLine
10
-50
20
-51.36955
30
0
11
92
21
-51.36955
31
0
39
0
210
0
220
0
230
1
0
SOLID
5
25C
100
AcDbEntity
8
SK2
62
256
6
ByLayer
370
-1
48
1
60
0
100
AcDbTrace
10
-50
20
-51.36955
30
0
11
-45.825003
21
-50.443975
31
0
12
-45.824997
22
-52.295125
32
0
13
-50
23
-51.36955
33
0
39
0
210
0
220
0
230
1
0
SOLID
5
25D
100
AcDbEntity
8
SK2
62
256
6
ByLayer
370
-1
48
1
60
0
100
AcDbTrace
10
92
20
-51.36955
30
0
11
87.825003
21
-52.295125
31
0
12
87.824997
22
-50.443975
32
0
13
92
23
-51.36955
33
0
39
0
210
0
220
0
230
1
0
ENDBLK
5
25F
100
AcDbEntity
8
0
100
AcDbBlockEnd
0
BLOCK
5
268
100
AcDbEntity
8
0
100
AcDbBlockBegin
2
DimnDraft3D2
70
0
10
0
20
0
30
0
3
DimnDraft3D2
0
MTEXT
5
262
100
AcDbEntity
8
SK2
62
256
6
ByLayer
370
-1
48
1
60
0
100
AcDbMText
10
-26.503947
20
-38.2758
30
0
210
0
220
0
230
1
1
\W01.000;\fsimplex.shx,bigfont.shx;50 
40
4.5
41
0
44
1.084337
50
0
71
7
72
5
7
DEFAULT
0
LINE
5
263
100
AcDbEntity
8
SK2
62
256
6
ByLayer
370
-1
48
1
60
0
100
AcDbLine
10
-50
20
-11.5875
30
0
11
-50
21
-42.5758
31
0
39
0
210
0
220
0
230
1
0
LINE
5
264
100
AcDbEntity
8
SK2
62
256
6
ByLayer
370
-1
48
1
60
0
100
AcDbLine
10
0
20
-14.0875
30
0
11
0
21
-42.5758
31
0
39
0
210
0
220
0
230
1
0
LINE
5
265
100
AcDbEntity
8
SK2
62
256
6
ByLayer
370
-1
48
1
60
0
100
AcDbLine
10
-50
20
-39.4008
30
0
11
0
21
-39.4008
31
0
39
0
210
0
220
0
230
1
0
SOLID
5
266
100
AcDbEntity
8
SK2
62
256
6
ByLayer
370
-1
48
1
60
0
100
AcDbTrace
10
-50
20
-39.4008
30
0
11
-45.825003
21
-38.475225
31
0
12
-45.824997
22
-40.326375
32
0
13
-50
23
-39.4008
33
0
39
0
210
0
220
0
230
1
0
SOLID
5
267
100
AcDbEntity
8
SK2
62
256
6
ByLayer
370
-1
48
1
60
0
100
AcDbTrace
10
0
20
-39.4008
30
0
11
-4.174997
21
-40.326375
31
0
12
-4.175003
22
-38.475225
32
0
13
0
23
-39.4008
33
0
39
0
210
0
220
0
230
1
0
ENDBLK
5
269
100
AcDbEntity
8
0
100
AcDbBlockEnd
0
BLOCK
5
273
100
AcDbEntity
8
0
100
AcDbBlockBegin
2
DimnDraft3D3
70
0
10
0
20
0
30
0
3
DimnDraft3D3
0
MTEXT
5
26C
100
AcDbEntity
8
2
62
256
6
ByLayer
370
-1
48
1
60
0
100
AcDbMText
10
44.496053
20
-38.2758
30
0
210
0
220
0
230
1
1
\W01.000;\fsimplex.shx,bigfont.shx;92 
40
4.5
41
0
44
1.084337
50
0
71
7
72
5
7
DEFAULT
0
LINE
5
26E
100
AcDbEntity
8
2
62
256
6
ByLayer
370
-1
48
1
60
0
100
AcDbLine
10
0
20
-14.0875
30
0
11
0
21
-42.5758
31
0
39
0
210
0
220
0
230
1
0
LINE
5
26F
100
AcDbEntity
8
2
62
256
6
ByLayer
370
-1
48
1
60
0
100
AcDbLine
10
92
20
-9.0875
30
0
11
92
21
-42.5758
31
0
39
0
210
0
220
0
230
1
0
LINE
5
270
100
AcDbEntity
8
2
62
256
6
ByLayer
370
-1
48
1
60
0
100
AcDbLine
10
0
20
-39.4008
30
0
11
92
21
-39.4008
31
0
39
0
210
0
220
0
230
1
0
SOLID
5
271
100
AcDbEntity
8
2
62
256
6
ByLayer
370
-1
48
1
60
0
100
AcDbTrace
10
0
20
-39.4008
30
0
11
4.174997
21
-38.475225
31
0
12
4.175003
22
-40.326375
32
0
13
0
23
-39.4008
33
0
39
0
210
0
220
0
230
1
0
SOLID
5
272
100
AcDbEntity
8
2
62
256
6
ByLayer
370
-1
48
1
60
0
100
AcDbTrace
10
92
20
-39.4008
30
0
11
87.825003
21
-40.326375
31
0
12
87.824997
22
-38.475225
32
0
13
92
23
-39.4008
33
0
39
0
210
0
220
0
230
1
0
ENDBLK
5
274
100
AcDbEntity
8
0
100
AcDbBlockEnd
0
BLOCK
5
27D
100
AcDbEntity
8
0
100
AcDbBlockBegin
2
DimnDraft3D4
70
0
10
0
20
0
30
0
3
DimnDraft3D4
0
MTEXT
5
277
100
AcDbEntity
8
SK2
62
256
6
ByLayer
370
-1
48
1
60
0
100
AcDbMText
10
51.496053
20
-28.2758
30
0
210
0
220
0
230
1
1
\W01.000;\fsimplex.shx,bigfont.shx;78 
40
4.5
41
0
44
1.084337
50
0
71
7
72
5
7
DEFAULT
0
LINE
5
278
100
AcDbEntity
8
SK2
62
256
6
ByLayer
370
-1
48
1
60
0
100
AcDbLine
10
14
20
-11.5875
30
0
11
14
21
-32.5758
31
0
39
0
210
0
220
0
230
1
0
LINE
5
279
100
AcDbEntity
8
SK2
62
256
6
ByLayer
370
-1
48
1
60
0
100
AcDbLine
10
92
20
-9.0875
30
0
11
92
21
-32.5758
31
0
39
0
210
0
220
0
230
1
0
LINE
5
27A
100
AcDbEntity
8
SK2
62
256
6
ByLayer
370
-1
48
1
60
0
100
AcDbLine
10
14
20
-29.4008
30
0
11
92
21
-29.4008
31
0
39
0
210
0
220
0
230
1
0
SOLID
5
27B
100
AcDbEntity
8
SK2
62
256
6
ByLayer
370
-1
48
1
60
0
100
AcDbTrace
10
14
20
-29.4008
30
0
11
18.174997
21
-28.475225
31
0
12
18.175003
22
-30.326375
32
0
13
14
23
-29.4008
33
0
39
0
210
0
220
0
230
1
0
SOLID
5
27C
100
AcDbEntity
8
SK2
62
256
6
ByLayer
370
-1
48
1
60
0
100
AcDbTrace
10
92
20
-29.4008
30
0
11
87.825003
21
-30.326375
31
0
12
87.824997
22
-28.475225
32
0
13
92
23
-29.4008
33
0
39
0
210
0
220
0
230
1
0
ENDBLK
5
27E
100
AcDbEntity
8
0
100
AcDbBlockEnd
0
BLOCK
5
288
100
AcDbEntity
8
0
100
AcDbBlockBegin
2
DimnDraft3D5
70
0
10
0
20
0
30
0
3
DimnDraft3D5
0
MTEXT
5
281
100
AcDbEntity
8
SK2
62
256
6
ByLayer
370
-1
48
1
60
0
100
AcDbMText
10
-60.975
20
-26.245395
30
0
210
0
220
0
230
1
1
\W01.000;\fsimplex.shx,bigfont.shx;20 
40
4.5
41
0
44
1.084337
50
90
71
7
72
5
7
DEFAULT
0
MTEXT
5
282
100
AcDbEntity
8
SK2
62
256
6
ByLayer
370
-1
48
1
60
0
100
AcDbMText
10
-60.975
20
-39.745395
30
0
210
0
220
0
230
1
1
\W01.000;\fsimplex.shx,bigfont.shx;%%c 
40
4.5
41
0
44
1.084337
50
90
71
7
72
5
7
DEFAULT
0
LINE
5
283
100
AcDbEntity
8
SK2
62
256
6
ByLayer
370
-1
48
1
60
0
100
AcDbLine
10
-51.5875
20
10
30
0
11
-61.9
21
10
31
0
39
0
210
0
220
0
230
1
0
LINE
5
284
100
AcDbEntity
8
SK2
62
256
6
ByLayer
370
-1
48
1
60
0
100
AcDbLine
10
-51.5875
20
-10
30
0
11
-61.9
21
-10
31
0
39
0
210
0
220
0
230
1
0
LINE
5
285
100
AcDbEntity
8
SK2
62
256
6
ByLayer
370
-1
48
1
60
0
100
AcDbLine
10
-58.725
20
10
30
0
11
-58.725
21
-40.870395
31
0
39
0
210
0
220
0
230
1
0
SOLID
5
286
100
AcDbEntity
8
SK2
62
256
6
ByLayer
370
-1
48
1
60
0
100
AcDbTrace
10
-58.725
20
10
30
0
11
-57.799425
21
5.825003
31
0
12
-59.650575
22
5.824997
32
0
13
-58.725
23
10
33
0
39
0
210
0
220
0
230
1
0
SOLID
5
287
100
AcDbEntity
8
SK2
62
256
6
ByLayer
370
-1
48
1
60
0
100
AcDbTrace
10
-58.725
20
-10
30
0
11
-59.650575
21
-5.825003
31
0
12
-57.799425
22
-5.824997
32
0
13
-58.725
23
-10
33
0
39
0
210
0
220
0
230
1
0
ENDBLK
5
289
100
AcDbEntity
8
0
100
AcDbBlockEnd
0
BLOCK
5
293
100
AcDbEntity
8
0
100
AcDbBlockBegin
2
DimnDraft3D6
70
0
10
0
20
0
30
0
3
DimnDraft3D6
0
MTEXT
5
28C
100
AcDbEntity
8
SK2
62
256
6
ByLayer
370
-1
48
1
60
0
100
AcDbMText
10
-70.975
20
5.246053
30
0
210
0
220
0
230
1
1
\W01.000;\fsimplex.shx,bigfont.shx;25 
40
4.5
41
0
44
1.084337
50
90
71
7
72
5
7
DEFAULT
0
MTEXT
5
28D
100
AcDbEntity
8
SK2
62
256
6
ByLayer
370
-1
48
1
60
0
100
AcDbMText
10
-70.975
20
-8.253947
30
0
210
0
220
0
230
1
1
\W01.000;\fsimplex.shx,bigfont.shx;%%c 
40
4.5
41
0
44
1.084337
50
90
71
7
72
5
7
DEFAULT
0
LINE
5
28E
100
AcDbEntity
8
SK2
62
256
6
ByLayer
370
-1
48
1
60
0
100
AcDbLine
10
-1.5875
20
-12.5
30
0
11
-71.9
21
-12.5
31
0
39
0
210
0
220
0
230
1
0
LINE
5
28F
100
AcDbEntity
8
SK2
62
256
6
ByLayer
370
-1
48
1
60
0
100
AcDbLine
10
-1.5875
20
12.5
30
0
11
-71.9
21
12.5
31
0
39
0
210
0
220
0
230
1
0
LINE
5
290
100
AcDbEntity
8
SK2
62
256
6
ByLayer
370
-1
48
1
60
0
100
AcDbLine
10
-68.725
20
-23.75
30
0
11
-68.725
21
23.75
31
0
39
0
210
0
220
0
230
1
0
SOLID
5
291
100
AcDbEntity
8
SK2
62
256
6
ByLayer
370
-1
48
1
60
0
100
AcDbTrace
10
-68.725
20
-12.5
30
0
11
-67.799425
21
-16.674997
31
0
12
-69.650575
22
-16.675003
32
0
13
-68.725
23
-12.5
33
0
39
0
210
0
220
0
230
1
0
SOLID
5
292
100
AcDbEntity
8
SK2
62
256
6
ByLayer
370
-1
48
1
60
0
100
AcDbTrace
10
-68.725
20
12.5
30
0
11
-69.650575
21
16.674997
31
0
12
-67.799425
22
16.675003
32
0
13
-68.725
23
12.5
33
0
39
0
210
0
220
0
230
1
0
ENDBLK
5
294
100
AcDbEntity
8
0
100
AcDbBlockEnd
0
BLOCK
5
29E
100
AcDbEntity
8
0
100
AcDbBlockBegin
2
DimnDraft3D7
70
0
10
0
20
0
30
0
3
DimnDraft3D7
0
MTEXT
5
297
100
AcDbEntity
8
2
62
256
6
ByLayer
370
-1
48
1
60
0
100
AcDbMText
10
116.725
20
-22.620395
30
0
210
0
220
0
230
1
1
\W01.000;\fsimplex.shx,bigfont.shx;15 
40
4.5
41
0
44
1.084337
50
90
71
7
72
5
7
DEFAULT
0
MTEXT
5
298
100
AcDbEntity
8
2
62
256
6
ByLayer
370
-1
48
1
60
0
100
AcDbMText
10
116.725
20
-36.120395
30
0
210
0
220
0
230
1
1
\W01.000;\fsimplex.shx,bigfont.shx;%%c 
40
4.5
41
0
44
1.084337
50
90
71
7
72
5
7
DEFAULT
0
LINE
5
299
100
AcDbEntity
8
2
62
256
6
ByLayer
370
-1
48
1
60
0
100
AcDbLine
10
93.5875
20
7.5
30
0
11
122.15
21
7.5
31
0
39
0
210
0
220
0
230
1
0
LINE
5
29A
100
AcDbEntity
8
2
62
256
6
ByLayer
370
-1
48
1
60
0
100
AcDbLine
10
93.5875
20
-7.5
30
0
11
122.15
21
-7.5
31
0
39
0
210
0
220
0
230
1
0
LINE
5
29B
100
AcDbEntity
8
2
62
256
6
ByLayer
370
-1
48
1
60
0
100
AcDbLine
10
118.975
20
7.5
30
0
11
118.975
21
-37.245395
31
0
39
0
210
0
220
0
230
1
0
SOLID
5
29C
100
AcDbEntity
8
2
62
256
6
ByLayer
370
-1
48
1
60
0
100
AcDbTrace
10
118.975
20
7.5
30
0
11
119.900575
21
3.325003
31
0
12
118.049425
22
3.324997
32
0
13
118.975
23
7.5
33
0
39
0
210
0
220
0
230
1
0
SOLID
5
29D
100
AcDbEntity
8
2
62
256
6
ByLayer
370
-1
48
1
60
0
100
AcDbTrace
10
118.975
20
-7.5
30
0
11
118.049425
21
-3.325003
31
0
12
119.900575
22
-3.324997
32
0
13
118.975
23
-7.5
33
0
39
0
210
0
220
0
230
1
0
ENDBLK
5
29F
100
AcDbEntity
8
0
100
AcDbBlockEnd
0
ENDSEC
0
SECTION
2
ENTITIES
0
ARC
5
FC
100
AcDbEntity
8
SK1
62
256
6
ByLayer
370
-1
48
1
60
0
100
AcDbCircle
39
0
10
1.382165
20
10.15
30
0
40
0.4
210
0
220
0
230
-1
100
AcDbArc
50
270
51
295
0
ARC
5
FD
100
AcDbEntity
8
SK1
62
256
6
ByLayer
370
-1
48
1
60
0
100
AcDbCircle
39
0
10
1.382165
20
-10.15
30
0
40
0.4
210
0
220
0
230
-1
100
AcDbArc
50
65
51
90
0
ARC
5
FE
100
AcDbEntity
8
SK1
62
256
6
ByLayer
370
-1
48
1
60
0
100
AcDbCircle
39
0
10
0.15
20
10.15
30
0
40
0.4
210
0
220
0
230
-1
100
AcDbArc
50
247.975687
51
270
0
ARC
5
FF
100
AcDbEntity
8
SK1
62
256
6
ByLayer
370
-1
48
1
60
0
100
AcDbCircle
39
0
10
0.15
20
-10.15
30
0
40
0.4
210
0
220
0
230
-1
100
AcDbArc
50
90
51
112.024313
0
ARC
5
100
100
AcDbEntity
8
SK1
62
256
6
ByLayer
370
-1
48
1
60
0
100
AcDbCircle
39
0
10
47.894506
20
10.39675
30
0
40
0.8
210
0
220
0
230
-1
100
AcDbArc
50
250.982048
51
321
0
ARC
5
101
100
AcDbEntity
8
SK1
62
256
6
ByLayer
370
-1
48
1
60
0
100
AcDbCircle
39
0
10
47.894506
20
-10.39675
30
0
40
0.8
210
0
220
0
230
-1
100
AcDbArc
50
39
51
109.017952
0
ELLIPSE
5
102
100
AcDbEntity
8
1
62
256
6
ByLayer
370
-1
48
1
60
0
100
AcDbEllipse
10
89.374995
20
4.7355
30
0
11
-1.07186937277348E-15
21
-1
31
0
210
0
220
0
230
1
40
0.996195
41
1.57079654872778
42
-1.70451026878387
0
ELLIPSE
5
103
100
AcDbEntity
8
1
62
256
6
ByLayer
370
-1
48
1
60
0
100
AcDbEllipse
10
89.374995
20
4.7355
30
0
11
-1.07186937277348E-15
21
-1
31
0
210
0
220
0
230
1
40
0.996195
41
0
42
6.28318530717959
0
ELLIPSE
5
104
100
AcDbEntity
8
1
62
256
6
ByLayer
370
-1
48
1
60
0
100
AcDbEllipse
10
89.374995
20
4.7355
30
0
11
-1.07186937277348E-15
21
-1
31
0
210
0
220
0
230
1
40
0.996195
41
0.973108813568411
42
1.57079654872778
0
ELLIPSE
5
105
100
AcDbEntity
8
1
62
256
6
ByLayer
370
-1
48
1
60
0
100
AcDbEllipse
10
87.777622
20
3.308868
30
0
11
-1.4470236532442E-15
21
-1.35
31
0
210
0
220
0
230
1
40
0.996195
41
-1.71042266695444
42
-0.140498665993569
0
ELLIPSE
5
106
100
AcDbEntity
8
1
62
256
6
ByLayer
370
-1
48
1
60
0
100
AcDbEllipse
10
86.733038
20
0
30
0
11
-0.233124069026272
21
7.19997141657209
31
0
210
0
220
0
230
-1
40
0.087398
41
-0.056239657329801
42
-0.0128214512914225
0
ELLIPSE
5
107
100
AcDbEntity
8
1
62
256
6
ByLayer
370
-1
48
1
60
0
100
AcDbEllipse
10
87.904326
20
4.213859
30
0
11
-1.4470236532442E-15
21
-1.35
31
0
210
0
220
0
230
1
40
0.996195
41
-2.09584973204281
42
-1.71042266695444
0
ELLIPSE
5
108
100
AcDbEntity
8
1
62
256
6
ByLayer
370
-1
48
1
60
0
100
AcDbEllipse
10
89.366189
20
4.7355
30
0
11
-1.25944651300884E-15
21
-1.175
31
0
210
0
220
0
230
1
40
0.996195
41
-3.14159237692217
42
-2.50541952488712
0
ELLIPSE
5
109
100
AcDbEntity
8
1
62
256
6
ByLayer
370
-1
48
1
60
0
100
AcDbEllipse
10
89.366189
20
4.7355
30
0
11
-1.25944651300884E-15
21
-1.175
31
0
210
0
220
0
230
1
40
0.996195
41
-1.5707966145194
42
0
0
ELLIPSE
5
10A
100
AcDbEntity
8
1
62
256
6
ByLayer
370
-1
48
1
60
0
100
AcDbEllipse
10
89.366189
20
4.7355
30
0
11
-1.25944651300884E-15
21
-1.175
31
0
210
0
220
0
230
1
40
0.996195
41
0
42
1.57079661451941
0
ELLIPSE
5
10B
100
AcDbEntity
8
1
62
256
6
ByLayer
370
-1
48
1
60
0
100
AcDbEllipse
10
83.348456
20
3.260145
30
0
11
-0.326425640836806
21
-0.730374082922088
31
0
210
0
220
0
230
1
40
0.079621
41
0.310498682857737
42
1.60636616336575
0
ELLIPSE
5
10C
100
AcDbEntity
8
1
62
256
6
ByLayer
370
-1
48
1
60
0
100
AcDbEllipse
10
81.606536
20
1E-06
30
0
11
-82.2963715677249
21
-9.32499931497488E-14
31
0
210
0
220
0
230
-1
40
0.087489
41
1.61316242927738
42
1.62986578632036
0
ELLIPSE
5
10D
100
AcDbEntity
8
1
62
256
6
ByLayer
370
-1
48
1
60
0
100
AcDbEllipse
10
90.927093
20
-4.306403
30
0
11
-0.0793596427954717
21
-0.997121297346327
31
0
210
0
220
0
230
-1
40
0.126775
41
-2.23024616784656
42
0.522245671710006
0
ELLIPSE
5
10E
100
AcDbEntity
8
1
62
256
6
ByLayer
370
-1
48
1
60
0
100
AcDbEllipse
10
89.523069
20
4.7355
30
0
11
1.17145334231628E-15
21
1
31
0
210
0
220
0
230
1
40
0.996195
41
0.0744169517263217
42
1.57079654872778
0
ELLIPSE
5
10F
100
AcDbEntity
8
1
62
256
6
ByLayer
370
-1
48
1
60
0
100
AcDbEllipse
10
89.523069
20
4.7355
30
0
11
1.17145334231628E-15
21
1
31
0
210
0
220
0
230
1
40
0.996195
41
1.57079654872778
42
2.18232728395916
0
ELLIPSE
5
110
100
AcDbEntity
8
1
62
256
6
ByLayer
370
-1
48
1
60
0
100
AcDbEllipse
10
89.142785
20
-1.462541
30
0
11
-1
21
1.01063905508236E-15
31
0
210
0
220
0
230
1
40
0.997564
41
0
42
6.28318530717959
0
ELLIPSE
5
111
100
AcDbEntity
8
1
62
256
6
ByLayer
370
-1
48
1
60
0
100
AcDbEllipse
10
91.01887
20
-4.315893
30
0
11
-0.0627584032465974
21
1.01163160243722
31
0
210
0
220
0
230
-1
40
0.11658
41
-0.788599075857606
42
0.927761177868332
0
ELLIPSE
5
112
100
AcDbEntity
8
1
62
256
6
ByLayer
370
-1
48
1
60
0
100
AcDbEllipse
10
91.069208
20
-0.042181
30
0
11
-0.037416778480238
21
0.601627731940923
31
0
210
0
220
0
230
-1
40
0.118187
41
-1.48953369248094
42
-1.2559937699988
0
ELLIPSE
5
113
100
AcDbEntity
8
1
62
256
6
ByLayer
370
-1
48
1
60
0
100
AcDbEllipse
10
87.164451
20
4.318238
30
0
11
-0.594204555650943
21
0.0831922234566725
31
0
210
0
220
0
230
1
40
0.01213
41
-0.816669269699526
42
-0.0864214342682136
0
ELLIPSE
5
114
100
AcDbEntity
8
1
62
256
6
ByLayer
370
-1
48
1
60
0
100
AcDbEllipse
10
91.849111
20
0
30
0
11
-0.584042168365842
21
-7.19961730886535
31
0
210
0
220
0
230
-1
40
0.127103
41
0.0192141089451536
42
0.760361025880307
0
ELLIPSE
5
115
100
AcDbEntity
8
1
62
256
6
ByLayer
370
-1
48
1
60
0
100
AcDbEllipse
10
91.26995
20
-3.766018
30
0
11
-0.0575198636747442
21
-0.658282332473199
31
0
210
0
220
0
230
-1
40
0.115977
41
0.0117126501976345
42
1.56346732500931
0
ELLIPSE
5
116
100
AcDbEntity
8
1
62
256
6
ByLayer
370
-1
48
1
60
0
100
AcDbEllipse
10
89.070639
20
2.809625
30
0
11
-0.69261611676738
21
-0.624046904037388
31
0
210
0
220
0
230
-1
40
0.037579
41
-0.86138054714763
42
-0.673538939411537
0
ELLIPSE
5
117
100
AcDbEntity
8
1
62
256
6
ByLayer
370
-1
48
1
60
0
100
AcDbEllipse
10
91.295032
20
0
30
0
11
-0.364101343875482
21
7.19986895943373
31
0
210
0
220
0
230
-1
40
0.119396
41
-1.50388735987621
42
-1.43226762991545
0
ELLIPSE
5
118
100
AcDbEntity
8
1
62
256
6
ByLayer
370
-1
48
1
60
0
100
AcDbEllipse
10
87.585879
20
3.308868
30
0
11
1.58146201212697E-15
21
1.35
31
0
210
0
220
0
230
1
40
0.996195
41
1.43116998663535
42
1.85093280967829
0
ELLIPSE
5
119
100
AcDbEntity
8
1
62
256
6
ByLayer
370
-1
48
1
60
0
100
AcDbEllipse
10
41.63377
20
0
30
0
11
-128.049385673227
21
-6.96283653900614
31
0
210
0
220
0
230
-1
40
0.014313
41
-1.96066559500941
42
-1.9137988662932
0
ELLIPSE
5
11A
100
AcDbEntity
8
1
62
256
6
ByLayer
370
-1
48
1
60
0
100
AcDbEllipse
10
91.849111
20
0
30
0
11
-0.584042168265836
21
-7.19961730828898
31
0
210
0
220
0
230
-1
40
0.127103
41
0.837759433227393
42
1.04604837644749
0
ELLIPSE
5
11B
100
AcDbEntity
8
1
62
256
6
ByLayer
370
-1
48
1
60
0
100
AcDbEllipse
10
87.837691
20
3.308868
30
0
11
-1.17794646133822
21
-1.04893007471904
31
0
210
0
220
0
230
-1
40
0.721468
41
-1.26712593957066
42
-0.133853100320791
0
ELLIPSE
5
11C
100
AcDbEntity
8
1
62
256
6
ByLayer
370
-1
48
1
60
0
100
AcDbEllipse
10
89.142785
20
-1.462541
30
0
11
1.1
21
0
31
0
210
0
220
0
230
1
40
0.997564
41
0
42
3.14159248669499
0
ELLIPSE
5
11D
100
AcDbEntity
8
1
62
256
6
ByLayer
370
-1
48
1
60
0
100
AcDbEllipse
10
83.467209
20
2.654479
30
0
11
-7.3197100347594
21
0.385053971140924
31
0
210
0
220
0
230
-1
40
0.000387
41
-3.13538504646832
42
-3.1342272567685
0
ELLIPSE
5
11E
100
AcDbEntity
8
1
62
256
6
ByLayer
370
-1
48
1
60
0
100
AcDbEllipse
10
80.40685
20
3.381168
30
0
11
-3.11124023508275
21
1.42769798133026
31
0
210
0
220
0
230
1
40
0.266658
41
1.65476831858407
42
1.88083714378427
0
ELLIPSE
5
11F
100
AcDbEntity
8
1
62
256
6
ByLayer
370
-1
48
1
60
0
100
AcDbEllipse
10
85.119974
20
7.097036
30
0
11
4.92010403772836E-15
21
4.2
31
0
210
0
220
0
230
1
40
0.996195
41
2.72271363311115
42
-3.10668606854991
0
ELLIPSE
5
120
100
AcDbEntity
8
1
62
256
6
ByLayer
370
-1
48
1
60
0
100
AcDbEllipse
10
90.927093
20
-4.306403
30
0
11
-0.0793596427953472
21
-0.997121297345569
31
0
210
0
220
0
230
-1
40
0.126775
41
1.08586175349365
42
2.33657888560858
0
ELLIPSE
5
121
100
AcDbEntity
8
1
62
256
6
ByLayer
370
-1
48
1
60
0
100
AcDbEllipse
10
89.357474
20
4.7355
30
0
11
-1.25944651300884E-15
21
-1.175
31
0
210
0
220
0
230
1
40
0.996195
41
1.78570068007365
42
-2.53310605394879
0
ELLIPSE
5
122
100
AcDbEntity
8
1
62
256
6
ByLayer
370
-1
48
1
60
0
100
AcDbEllipse
10
89.357474
20
4.7355
30
0
11
-1.25944651300884E-15
21
-1.175
31
0
210
0
220
0
230
1
40
0.996195
41
0
42
6.28318530717959
0
ELLIPSE
5
123
100
AcDbEntity
8
1
62
256
6
ByLayer
370
-1
48
1
60
0
100
AcDbEllipse
10
87.037747
20
3.413248
30
0
11
-0.594204555650943
21
0.0831922234566725
31
0
210
0
220
0
230
1
40
0.01213
41
-1.1400578519419
42
-0.0864214342676016
0
ELLIPSE
5
124
100
AcDbEntity
8
1
62
256
6
ByLayer
370
-1
48
1
60
0
100
AcDbEllipse
10
80.954454
20
4.02
30
0
11
2.26132988803438E-15
21
1.93036274373773
31
0
210
0
220
0
230
1
40
0.996195
41
-1.8274646942377
42
-1.80033926479587
0
ELLIPSE
5
125
100
AcDbEntity
8
1
62
256
6
ByLayer
370
-1
48
1
60
0
100
AcDbEllipse
10
87.712583
20
4.213859
30
0
11
1.58146201212697E-15
21
1.35
31
0
210
0
220
0
230
1
40
0.996195
41
1.06100709389382
42
1.43116998663535
0
ELLIPSE
5
126
100
AcDbEntity
8
1
62
256
6
ByLayer
370
-1
48
1
60
0
100
AcDbEllipse
10
85.102463
20
0
30
0
11
-44.4994025362344
21
0.515678291561349
31
0
210
0
220
0
230
-1
40
0.161384
41
-1.57630311074268
42
-1.51549285991147
0
ELLIPSE
5
127
100
AcDbEntity
8
1
62
256
6
ByLayer
370
-1
48
1
60
0
100
AcDbEllipse
10
91.294833
20
0
30
0
11
-0.444427618195535
21
7.1998072179178
31
0
210
0
220
0
230
-1
40
0.118552
41
-2.07791605299592
42
-1.50260735078986
0
ELLIPSE
5
128
100
AcDbEntity
8
1
62
256
6
ByLayer
370
-1
48
1
60
0
100
AcDbEllipse
10
91.067601
20
-0.042125
30
0
11
-0.0306992433160361
21
0.601401875636179
31
0
210
0
220
0
230
-1
40
0.119074
41
-1.25724147506439
42
0.0800149341214002
0
ELLIPSE
5
129
100
AcDbEntity
8
1
62
256
6
ByLayer
370
-1
48
1
60
0
100
AcDbEllipse
10
85.05025
20
7.097036
30
0
11
-5.35934686386741E-15
21
-5
31
0
210
0
220
0
230
1
40
0.996195
41
-0.267643118455555
42
0.0349065850398868
0
ELLIPSE
5
12A
100
AcDbEntity
8
1
62
256
6
ByLayer
370
-1
48
1
60
0
100
AcDbEllipse
10
91.091086
20
2.85423
30
0
11
-0.0302584033697292
21
0.602376962092382
31
0
210
0
220
0
230
-1
40
0.118143
41
2.30179773246937
42
-3.13399003529867
0
ELLIPSE
5
12B
100
AcDbEntity
8
1
62
256
6
ByLayer
370
-1
48
1
60
0
100
AcDbEllipse
10
86.636097
20
4.52
30
0
11
-3.87581053937303
21
-2.87901262438878
31
0
210
0
220
0
230
-1
40
0.513518
41
-1.16065500617081
42
-1.02665466887252
0
ELLIPSE
5
12C
100
AcDbEntity
8
1
62
256
6
ByLayer
370
-1
48
1
60
0
100
AcDbEllipse
10
89.142785
20
-1.699641
30
0
11
1
21
0
31
0
210
0
220
0
230
1
40
0.997564
41
0.119183831823893
42
3.02250637368321
0
ELLIPSE
5
12D
100
AcDbEntity
8
1
62
256
6
ByLayer
370
-1
48
1
60
0
100
AcDbEllipse
10
83.437314
20
0
30
0
11
-39.0701717160074
21
-4.42703994778068E-14
31
0
210
0
220
0
230
-1
40
0.184284
41
1.54537729984023
42
1.61316242675488
0
ELLIPSE
5
12E
100
AcDbEntity
8
1
62
256
6
ByLayer
370
-1
48
1
60
0
100
AcDbEllipse
10
9.9
20
0.613188
30
0
11
-4
21
4.04255622032945E-15
31
0
210
0
220
0
230
1
40
0.916952
41
-1.69550670363272
42
-0.178462892700203
0
ELLIPSE
5
12F
100
AcDbEntity
8
1
62
256
6
ByLayer
370
-1
48
1
60
0
100
AcDbEllipse
10
49.374876
20
9.85491
30
0
11
-35.7134963974106
21
5.46114227581612
31
0
210
0
220
0
230
-1
40
0.0941
41
3.12720430719688
42
-2.79793705482723
0
ELLIPSE
5
130
100
AcDbEntity
8
1
62
256
6
ByLayer
370
-1
48
1
60
0
100
AcDbEllipse
10
85.19627
20
2.899595
30
0
11
0.0280261150489236
21
-0.799508934831416
31
0
210
0
220
0
230
1
40
0.087103
41
-0.00305330083616101
42
1.56774302595898
0
ELLIPSE
5
131
100
AcDbEntity
8
1
62
256
6
ByLayer
370
-1
48
1
60
0
100
AcDbEllipse
10
91.264886
20
-3.767831
30
0
11
-0.0350724715387452
21
0.62498378344592
31
0
210
0
220
0
230
-1
40
0.114045
41
-1.55854167667661
42
-1.53949313263764
0
ELLIPSE
5
132
100
AcDbEntity
8
1
62
256
6
ByLayer
370
-1
48
1
60
0
100
AcDbEllipse
10
75.163159
20
5.86578
30
0
11
-9.60355517790177
21
4.81653719678445
31
0
210
0
220
0
230
-1
40
0.085115
41
-2.50340955203674
42
-2.26517601732233
0
ELLIPSE
5
133
100
AcDbEntity
8
1
62
256
6
ByLayer
370
-1
48
1
60
0
100
AcDbEllipse
10
89.53764
20
0
30
0
11
-16.3836745283165
21
6.97732414375348
31
0
210
0
220
0
230
-1
40
0.108448
41
-1.17357051060508
42
-0.872011902384376
0
ELLIPSE
5
134
100
AcDbEntity
8
1
62
256
6
ByLayer
370
-1
48
1
60
0
100
AcDbEllipse
10
84.615676
20
4.42113
30
0
11
-0.518123175012331
21
-3.36028992432426
31
0
210
0
220
0
230
1
40
0.179184
41
0.211213187197177
42
0.839357264072628
0
ELLIPSE
5
135
100
AcDbEntity
8
1
62
256
6
ByLayer
370
-1
48
1
60
0
100
AcDbEllipse
10
86.776234
20
6.712949
30
0
11
5.78724697506073E-15
21
4.94022831811449
31
0
210
0
220
0
230
1
40
0.996195
41
-1.52678911283675
42
-1.51698911975
0
ELLIPSE
5
136
100
AcDbEntity
8
1
62
256
6
ByLayer
370
-1
48
1
60
0
100
AcDbEllipse
10
91.655482
20
6.883971
30
0
11
-5.35934686386771E-15
21
-5.00000000000028
31
0
210
0
220
0
230
1
40
0.996195
41
-1.55479036376001
42
-1.54499037067327
0
ELLIPSE
5
137
100
AcDbEntity
8
1
62
256
6
ByLayer
370
-1
48
1
60
0
100
AcDbEllipse
10
87.514334
20
2.42666
30
0
11
5.78724697506073E-15
21
4.94022831811449
31
0
210
0
220
0
230
1
40
0.996195
41
0.0440072139581528
42
0.0538072070448955
0
ELLIPSE
5
138
100
AcDbEntity
8
1
62
256
6
ByLayer
370
-1
48
1
60
0
100
AcDbEllipse
10
81.800083
20
6.492983
30
0
11
1.16445136866421E-14
21
9.94022831811449
31
0
210
0
220
0
230
1
40
0.996195
41
-1.53588974175501
42
-1.52678911283678
0
ELLIPSE
5
139
100
AcDbEntity
8
1
62
256
6
ByLayer
370
-1
48
1
60
0
100
AcDbEllipse
10
91.345107
20
-2.441896
30
0
11
1.16445136866421E-14
21
9.9402283181145
31
0
210
0
220
0
230
1
40
0.996195
41
0.025805956121666
42
0.0349065850398883
0
ELLIPSE
5
13A
100
AcDbEntity
8
1
62
256
6
ByLayer
370
-1
48
1
60
0
100
AcDbEllipse
10
96.758077
20
3.436486
30
0
11
1.16445136866418E-14
21
9.94022831811422
31
0
210
0
220
0
230
1
40
0.996195
41
1.62460353383979
42
1.64060949687468
0
ELLIPSE
5
13B
100
AcDbEntity
8
1
62
256
6
ByLayer
370
-1
48
1
60
0
100
AcDbEllipse
10
81.925184
20
2.916531
30
0
11
1.16445136866418E-14
21
9.94022831811422
31
0
210
0
220
0
230
1
40
0.996195
41
-1.57079632679491
42
-1.55479036376002
0
ELLIPSE
5
13C
100
AcDbEntity
8
1
62
256
6
ByLayer
370
-1
48
1
60
0
100
AcDbEllipse
10
91.296761
20
-2.44292
30
0
11
-1.07186937277344E-14
21
-9.99999999999964
31
0
210
0
220
0
230
1
40
0.996195
41
3.14159265358979
42
-3.12558669055491
0
ELLIPSE
5
13D
100
AcDbEntity
8
1
62
256
6
ByLayer
370
-1
48
1
60
0
100
AcDbEllipse
10
89.304041
20
4.940264
30
0
11
-1.62148435039036E-15
21
-1.51276302092179
31
0
210
0
220
0
230
1
40
0.996195
41
2.21551012181542
42
0
0
ELLIPSE
5
13E
100
AcDbEntity
8
1
62
256
6
ByLayer
370
-1
48
1
60
0
100
AcDbEllipse
10
89.304041
20
4.940264
30
0
11
-1.62148435039036E-15
21
-1.51276302092179
31
0
210
0
220
0
230
1
40
0.996195
41
0
42
0.926082652221571
0
ELLIPSE
5
13F
100
AcDbEntity
8
1
62
256
6
ByLayer
370
-1
48
1
60
0
100
AcDbEllipse
10
81.92666
20
2.867542
30
0
11
-1.07186937277348E-14
21
-9.99999999999999
31
0
210
0
220
0
230
1
40
0.996195
41
1.59660228291656
42
1.60570291183479
0
ELLIPSE
5
140
100
AcDbEntity
8
1
62
256
6
ByLayer
370
-1
48
1
60
0
100
AcDbEllipse
10
87.264697
20
12.323449
30
0
11
-1.07186937277344E-14
21
-9.99999999999964
31
0
210
0
220
0
230
1
40
0.996195
41
0
42
0.0160059630348851
0
ELLIPSE
5
141
100
AcDbEntity
8
1
62
256
6
ByLayer
370
-1
48
1
60
0
100
AcDbEllipse
10
91.588272
20
2.916531
30
0
11
2.81416266174359E-16
21
0.240228318114594
31
0
210
0
220
0
230
1
40
0.996195
41
-1.79768912955413
42
-1.5707963267949
0
ELLIPSE
5
142
100
AcDbEntity
8
1
62
256
6
ByLayer
370
-1
48
1
60
0
100
AcDbEllipse
10
91.251486
20
7.062206
30
0
11
5.15706934637621E-16
21
0.4402283181146
31
0
210
0
220
0
230
1
40
0.996195
41
-1.27409035395591
42
-0.226892802759266
0
ELLIPSE
5
143
100
AcDbEntity
8
1
62
256
6
ByLayer
370
-1
48
1
60
0
100
AcDbEllipse
10
91.442475
20
7.12068
30
0
11
-3.21560811832037E-16
21
-0.299999999999993
31
0
210
0
220
0
230
1
40
0.996195
41
1.64060949687463
42
1.86750229963386
0
ELLIPSE
5
144
100
AcDbEntity
8
1
62
256
6
ByLayer
370
-1
48
1
60
0
100
AcDbEllipse
10
89.481187
20
4.940264
30
0
11
1.28859867654789E-15
21
1.09999999999999
31
0
210
0
220
0
230
1
40
0.996195
41
0.0349501466188263
42
1.57079627600046
0
ELLIPSE
5
145
100
AcDbEntity
8
1
62
256
6
ByLayer
370
-1
48
1
60
0
100
AcDbEllipse
10
89.481187
20
4.940264
30
0
11
1.28859867654789E-15
21
1.09999999999999
31
0
210
0
220
0
230
1
40
0.996195
41
1.57079627600046
42
3.10350046494412
0
ELLIPSE
5
146
100
AcDbEntity
8
1
62
256
6
ByLayer
370
-1
48
1
60
0
100
AcDbEllipse
10
90.778329
20
12.446632
30
0
11
1.16445136866418E-14
21
9.94022831811422
31
0
210
0
220
0
230
1
40
0.996195
41
-3.0877854465449
42
-3.07177948351001
0
ELLIPSE
5
147
100
AcDbEntity
8
1
62
256
6
ByLayer
370
-1
48
1
60
0
100
AcDbEllipse
10
87.166406
20
6.919007
30
0
11
5.15706934637621E-16
21
0.4402283181146
31
0
210
0
220
0
230
1
40
0.996195
41
0.296705972839018
42
1.34390352403562
0
ELLIPSE
5
148
100
AcDbEntity
8
1
62
256
6
ByLayer
370
-1
48
1
60
0
100
AcDbEllipse
10
87.782217
20
-2.566104
30
0
11
1.16445136866418E-14
21
9.94022831811422
31
0
210
0
220
0
230
1
40
0.996195
41
0.0538072070448928
42
0.0698131700797831
0
ELLIPSE
5
149
100
AcDbEntity
8
1
62
256
6
ByLayer
370
-1
48
1
60
0
100
AcDbEllipse
10
81.800539
20
6.492983
30
0
11
-1.07186937277348E-14
21
-9.99999999999999
31
0
210
0
220
0
230
1
40
0.996195
41
1.60570291183479
42
1.61480354075301
0
ELLIPSE
5
14A
100
AcDbEntity
8
1
62
256
6
ByLayer
370
-1
48
1
60
0
100
AcDbEllipse
10
87.733918
20
-2.568499
30
0
11
-1.07186937277348E-14
21
-9.99999999999999
31
0
210
0
220
0
230
1
40
0.996195
41
-3.1066860685499
42
-3.09758543963168
0
ELLIPSE
5
14B
100
AcDbEntity
8
1
62
256
6
ByLayer
370
-1
48
1
60
0
100
AcDbEllipse
10
91.046667
20
7.453868
30
0
11
-5.35934686386771E-15
21
-5.00000000000028
31
0
210
0
220
0
230
1
40
0.996195
41
0.0440072139581529
42
0.0538072070448985
0
ELLIPSE
5
14C
100
AcDbEntity
8
1
62
256
6
ByLayer
370
-1
48
1
60
0
100
AcDbEllipse
10
87.343963
20
7.324089
30
0
11
5.78724697506073E-15
21
4.94022831811449
31
0
210
0
220
0
230
1
40
0.996195
41
-3.12558669055491
42
-3.11578669746817
0
ELLIPSE
5
14D
100
AcDbEntity
8
1
62
256
6
ByLayer
370
-1
48
1
60
0
100
AcDbEllipse
10
96.758532
20
3.436486
30
0
11
-1.07186937277344E-14
21
-9.99999999999964
31
0
210
0
220
0
230
1
40
0.996195
41
-1.51698911975
42
-1.50098315671511
0
ELLIPSE
5
14E
100
AcDbEntity
8
1
62
256
6
ByLayer
370
-1
48
1
60
0
100
AcDbEllipse
10
91.046212
20
7.453868
30
0
11
5.78724697506073E-15
21
4.94022831811449
31
0
210
0
220
0
230
1
40
0.996195
41
-3.09758543963164
42
-3.0877854465449
0
ELLIPSE
5
14F
100
AcDbEntity
8
1
62
256
6
ByLayer
370
-1
48
1
60
0
100
AcDbEllipse
10
96.634797
20
7.012986
30
0
11
-1.07186937277348E-14
21
-9.99999999999999
31
0
210
0
220
0
230
1
40
0.996195
41
-1.54499037067323
42
-1.53588974175501
0
ELLIPSE
5
150
100
AcDbEntity
8
1
62
256
6
ByLayer
370
-1
48
1
60
0
100
AcDbEllipse
10
91.452848
20
2.770261
30
0
11
-3.21560811832037E-16
21
-0.299999999999993
31
0
210
0
220
0
230
1
40
0.996195
41
0.0698131700797094
42
0.29670597283896
0
ELLIPSE
5
151
100
AcDbEntity
8
1
62
256
6
ByLayer
370
-1
48
1
60
0
100
AcDbEllipse
10
81.802469
20
6.444042
30
0
11
1.16445136866418E-14
21
9.94022831811422
31
0
210
0
220
0
230
1
40
0.996195
41
-1.51698911975
42
-1.50098315671511
0
ELLIPSE
5
152
100
AcDbEntity
8
1
62
256
6
ByLayer
370
-1
48
1
60
0
100
AcDbEllipse
10
87.309516
20
2.818323
30
0
11
-5.35934686386747E-16
21
-0.500000000000006
31
0
210
0
220
0
230
1
40
0.996195
41
-1.27409035395589
42
-0.22689280275925
0
ELLIPSE
5
153
100
AcDbEntity
8
1
62
256
6
ByLayer
370
-1
48
1
60
0
100
AcDbEllipse
10
87.166862
20
6.919007
30
0
11
-5.35934686386747E-16
21
-0.500000000000006
31
0
210
0
220
0
230
1
40
0.996195
41
-2.84488668075081
42
-1.79768912955417
0
ELLIPSE
5
154
100
AcDbEntity
8
1
62
256
6
ByLayer
370
-1
48
1
60
0
100
AcDbEllipse
10
91.588728
20
2.916531
30
0
11
-3.21560811832037E-16
21
-0.299999999999993
31
0
210
0
220
0
230
1
40
0.996195
41
1.34390352403571
42
1.5707963267949
0
ELLIPSE
5
155
100
AcDbEntity
8
1
62
256
6
ByLayer
370
-1
48
1
60
0
100
AcDbEllipse
10
90.778785
20
12.446632
30
0
11
-1.07186937277344E-14
21
-9.99999999999964
31
0
210
0
220
0
230
1
40
0.996195
41
0.0538072070448948
42
0.069813170079785
0
ELLIPSE
5
156
100
AcDbEntity
8
1
62
256
6
ByLayer
370
-1
48
1
60
0
100
AcDbEllipse
10
91.251942
20
7.062206
30
0
11
-5.35934686386747E-16
21
-0.500000000000006
31
0
210
0
220
0
230
1
40
0.996195
41
1.8675022996339
42
2.91469985083053
0
ELLIPSE
5
157
100
AcDbEntity
8
1
62
256
6
ByLayer
370
-1
48
1
60
0
100
AcDbEllipse
10
89.267655
20
4.940264
30
0
11
1.80632961201567E-15
21
1.54195608716611
31
0
210
0
220
0
230
1
40
0.996195
41
0
42
6.28318530717959
0
ELLIPSE
5
158
100
AcDbEntity
8
1
62
256
6
ByLayer
370
-1
48
1
60
0
100
AcDbEllipse
10
91.216583
20
2.556439
30
0
11
5.78724697506073E-15
21
4.94022831811449
31
0
210
0
220
0
230
1
40
0.996195
41
0.0160059630348785
42
0.0258059561216221
0
ELLIPSE
5
159
100
AcDbEntity
8
1
62
256
6
ByLayer
370
-1
48
1
60
0
100
AcDbEllipse
10
91.655027
20
6.883971
30
0
11
5.78724697506073E-15
21
4.94022831811449
31
0
210
0
220
0
230
1
40
0.996195
41
1.58680228982978
42
1.59660228291652
0
ELLIPSE
5
15A
100
AcDbEntity
8
1
62
256
6
ByLayer
370
-1
48
1
60
0
100
AcDbEllipse
10
96.760919
20
3.387545
30
0
11
-1.07186937277348E-14
21
-9.99999999999999
31
0
210
0
220
0
230
1
40
0.996195
41
-1.53588974175501
42
-1.52678911283678
0
ELLIPSE
5
15B
100
AcDbEntity
8
1
62
256
6
ByLayer
370
-1
48
1
60
0
100
AcDbEllipse
10
86.77669
20
6.712949
30
0
11
-5.35934686386771E-15
21
-5.00000000000028
31
0
210
0
220
0
230
1
40
0.996195
41
1.61480354075304
42
1.62460353383979
0
ELLIPSE
5
15C
100
AcDbEntity
8
1
62
256
6
ByLayer
370
-1
48
1
60
0
100
AcDbEllipse
10
87.344419
20
7.324089
30
0
11
-5.35934686386771E-15
21
-5.00000000000028
31
0
210
0
220
0
230
1
40
0.996195
41
0.0160059630348808
42
0.0258059561216308
0
ELLIPSE
5
15D
100
AcDbEntity
8
1
62
256
6
ByLayer
370
-1
48
1
60
0
100
AcDbEllipse
10
90.827084
20
12.449027
30
0
11
1.16445136866421E-14
21
9.94022831811449
31
0
210
0
220
0
230
1
40
0.996195
41
-3.1066860685499
42
-3.09758543963168
0
ELLIPSE
5
15E
100
AcDbEntity
8
1
62
256
6
ByLayer
370
-1
48
1
60
0
100
AcDbEllipse
10
87.10861
20
7.110268
30
0
11
-3.21560811832037E-16
21
-0.299999999999993
31
0
210
0
220
0
230
1
40
0.996195
41
-3.07177948351004
42
-2.84488668075079
0
ELLIPSE
5
15F
100
AcDbEntity
8
1
62
256
6
ByLayer
370
-1
48
1
60
0
100
AcDbEllipse
10
91.345563
20
-2.441896
30
0
11
-1.07186937277348E-14
21
-9.99999999999999
31
0
210
0
220
0
230
1
40
0.996195
41
-3.11578669746813
42
-3.1066860685499
0
ELLIPSE
5
160
100
AcDbEntity
8
1
62
256
6
ByLayer
370
-1
48
1
60
0
100
AcDbEllipse
10
91.39414
20
2.961522
30
0
11
5.15706934637621E-16
21
0.4402283181146
31
0
210
0
220
0
230
1
40
0.996195
41
-2.84488668075078
42
-1.79768912955418
0
ELLIPSE
5
161
100
AcDbEntity
8
1
62
256
6
ByLayer
370
-1
48
1
60
0
100
AcDbEllipse
10
90.827539
20
12.449027
30
0
11
-1.07186937277348E-14
21
-9.99999999999999
31
0
210
0
220
0
230
1
40
0.996195
41
0.0349065850398896
42
0.0440072139581154
0
ELLIPSE
5
162
100
AcDbEntity
8
1
62
256
6
ByLayer
370
-1
48
1
60
0
100
AcDbEllipse
10
91.296305
20
-2.44292
30
0
11
1.16445136866418E-14
21
9.94022831811422
31
0
210
0
220
0
230
1
40
0.996195
41
0
42
0.016005963034882
0
ELLIPSE
5
163
100
AcDbEntity
8
1
62
256
6
ByLayer
370
-1
48
1
60
0
100
AcDbEllipse
10
81.92564
20
2.916531
30
0
11
-1.07186937277344E-14
21
-9.99999999999964
31
0
210
0
220
0
230
1
40
0.996195
41
1.57079632679489
42
1.58680228982978
0
ELLIPSE
5
164
100
AcDbEntity
8
1
62
256
6
ByLayer
370
-1
48
1
60
0
100
AcDbEllipse
10
96.635818
20
6.963997
30
0
11
-1.07186937277344E-14
21
-9.99999999999964
31
0
210
0
220
0
230
1
40
0.996195
41
-1.5707963267949
42
-1.55479036376002
0
ELLIPSE
5
165
100
AcDbEntity
8
1
62
256
6
ByLayer
370
-1
48
1
60
0
100
AcDbEllipse
10
81.926204
20
2.867542
30
0
11
1.16445136866421E-14
21
9.9402283181145
31
0
210
0
220
0
230
1
40
0.996195
41
-1.54499037067323
42
-1.53588974175501
0
ELLIPSE
5
166
100
AcDbEntity
8
1
62
256
6
ByLayer
370
-1
48
1
60
0
100
AcDbEllipse
10
87.30906
20
2.818323
30
0
11
5.15706934637621E-16
21
0.4402283181146
31
0
210
0
220
0
230
1
40
0.996195
41
1.86750229963388
42
2.9146998508305
0
ELLIPSE
5
167
100
AcDbEntity
8
1
62
256
6
ByLayer
370
-1
48
1
60
0
100
AcDbEllipse
10
81.802925
20
6.444042
30
0
11
-1.07186937277344E-14
21
-9.99999999999964
31
0
210
0
220
0
230
1
40
0.996195
41
1.62460353383979
42
1.64060949687468
0
ELLIPSE
5
168
100
AcDbEntity
8
1
62
256
6
ByLayer
370
-1
48
1
60
0
100
AcDbEllipse
10
91.784768
20
3.16758
30
0
11
-5.35934686386771E-15
21
-5.00000000000028
31
0
210
0
220
0
230
1
40
0.996195
41
-1.52678911283675
42
-1.51698911975
0
ELLIPSE
5
169
100
AcDbEntity
8
1
62
256
6
ByLayer
370
-1
48
1
60
0
100
AcDbEllipse
10
87.782673
20
-2.566104
30
0
11
-1.07186937277344E-14
21
-9.99999999999964
31
0
210
0
220
0
230
1
40
0.996195
41
-3.0877854465449
42
-3.07177948351001
0
ELLIPSE
5
16A
100
AcDbEntity
8
1
62
256
6
ByLayer
370
-1
48
1
60
0
100
AcDbEllipse
10
91.296761
20
7.25708
30
0
11
-3.21560811832037E-16
21
-0.299999999999993
31
0
210
0
220
0
230
1
40
0.996195
41
2.91469985083057
42
3.14159265358979
0
ELLIPSE
5
16B
100
AcDbEntity
8
1
62
256
6
ByLayer
370
-1
48
1
60
0
100
AcDbEllipse
10
89.329502
20
4.940264
30
0
11
-1.49227999261524E-15
21
-1.3922218793825
31
0
210
0
220
0
230
1
40
0.996195
41
0
42
6.28318530717959
0
ELLIPSE
5
16C
100
AcDbEntity
8
1
62
256
6
ByLayer
370
-1
48
1
60
0
100
AcDbEllipse
10
91.442019
20
7.12068
30
0
11
2.81416266174357E-16
21
0.240228318114593
31
0
210
0
220
0
230
1
40
0.996195
41
-1.50098315671518
42
-1.27409035395592
0
ELLIPSE
5
16D
100
AcDbEntity
8
1
62
256
6
ByLayer
370
-1
48
1
60
0
100
AcDbEllipse
10
91.296305
20
7.25708
30
0
11
2.81416266174359E-16
21
0.240228318114594
31
0
210
0
220
0
230
1
40
0.996195
41
-0.226892802759211
42
0
0
ELLIPSE
5
16E
100
AcDbEntity
8
1
62
256
6
ByLayer
370
-1
48
1
60
0
100
AcDbEllipse
10
87.733462
20
-2.568499
30
0
11
1.16445136866421E-14
21
9.94022831811449
31
0
210
0
220
0
230
1
40
0.996195
41
0.0349065850398898
42
0.0440072139581125
0
ELLIPSE
5
16F
100
AcDbEntity
8
1
62
256
6
ByLayer
370
-1
48
1
60
0
100
AcDbEllipse
10
87.108154
20
7.110268
30
0
11
2.81416266174357E-16
21
0.240228318114593
31
0
210
0
220
0
230
1
40
0.996195
41
0.0698131700796622
42
0.296705972838939
0
ELLIPSE
5
170
100
AcDbEntity
8
1
62
256
6
ByLayer
370
-1
48
1
60
0
100
AcDbEllipse
10
87.51479
20
2.42666
30
0
11
-5.35934686386771E-15
21
-5.00000000000028
31
0
210
0
220
0
230
1
40
0.996195
41
-3.09758543963164
42
-3.08778544654489
0
ELLIPSE
5
171
100
AcDbEntity
8
1
62
256
6
ByLayer
370
-1
48
1
60
0
100
AcDbEllipse
10
96.634342
20
7.012986
30
0
11
1.16445136866421E-14
21
9.9402283181145
31
0
210
0
220
0
230
1
40
0.996195
41
1.59660228291656
42
1.60570291183479
0
ELLIPSE
5
172
100
AcDbEntity
8
1
62
256
6
ByLayer
370
-1
48
1
60
0
100
AcDbEllipse
10
86.972729
20
6.963997
30
0
11
-3.21560811832037E-16
21
-0.299999999999993
31
0
210
0
220
0
230
1
40
0.996195
41
-1.79768912955408
42
-1.5707963267949
0
ELLIPSE
5
173
100
AcDbEntity
8
1
62
256
6
ByLayer
370
-1
48
1
60
0
100
AcDbEllipse
10
96.760463
20
3.387545
30
0
11
1.16445136866421E-14
21
9.94022831811449
31
0
210
0
220
0
230
1
40
0.996195
41
1.60570291183479
42
1.61480354075301
0
ELLIPSE
5
174
100
AcDbEntity
8
1
62
256
6
ByLayer
370
-1
48
1
60
0
100
AcDbEllipse
10
86.905519
20
2.996558
30
0
11
5.78724697506073E-15
21
4.94022831811449
31
0
210
0
220
0
230
1
40
0.996195
41
-1.55479036376002
42
-1.54499037067327
0
ELLIPSE
5
175
100
AcDbEntity
8
1
62
256
6
ByLayer
370
-1
48
1
60
0
100
AcDbEllipse
10
87.215894
20
12.322424
30
0
11
-1.07186937277348E-14
21
-9.99999999999999
31
0
210
0
220
0
230
1
40
0.996195
41
0.0258059561216681
42
0.0349065850398896
0
ELLIPSE
5
176
100
AcDbEntity
8
1
62
256
6
ByLayer
370
-1
48
1
60
0
100
AcDbEllipse
10
91.452392
20
2.770261
30
0
11
2.81416266174357E-16
21
0.240228318114593
31
0
210
0
220
0
230
1
40
0.996195
41
-3.07177948351001
42
-2.84488668075081
0
ELLIPSE
5
177
100
AcDbEntity
8
1
62
256
6
ByLayer
370
-1
48
1
60
0
100
AcDbEllipse
10
87.264241
20
12.323449
30
0
11
1.16445136866418E-14
21
9.94022831811422
31
0
210
0
220
0
230
1
40
0.996195
41
3.14159265358979
42
-3.12558669055491
0
ELLIPSE
5
178
100
AcDbEntity
8
1
62
256
6
ByLayer
370
-1
48
1
60
0
100
AcDbEllipse
10
86.905975
20
2.996558
30
0
11
-5.35934686386771E-15
21
-5.00000000000028
31
0
210
0
220
0
230
1
40
0.996195
41
1.58680228982978
42
1.59660228291653
0
ELLIPSE
5
179
100
AcDbEntity
8
1
62
256
6
ByLayer
370
-1
48
1
60
0
100
AcDbEllipse
10
91.394596
20
2.961522
30
0
11
-5.35934686386747E-16
21
-0.500000000000006
31
0
210
0
220
0
230
1
40
0.996195
41
0.296705972838983
42
1.34390352403563
0
ELLIPSE
5
17A
100
AcDbEntity
8
1
62
256
6
ByLayer
370
-1
48
1
60
0
100
AcDbEllipse
10
91.217039
20
2.556439
30
0
11
-5.35934686386771E-15
21
-5.00000000000028
31
0
210
0
220
0
230
1
40
0.996195
41
-3.12558669055491
42
-3.11578669746816
0
ELLIPSE
5
17B
100
AcDbEntity
8
1
62
256
6
ByLayer
370
-1
48
1
60
0
100
AcDbEllipse
10
96.635362
20
6.963997
30
0
11
1.16445136866418E-14
21
9.94022831811422
31
0
210
0
220
0
230
1
40
0.996195
41
1.57079632679489
42
1.58680228982978
0
ELLIPSE
5
17C
100
AcDbEntity
8
1
62
256
6
ByLayer
370
-1
48
1
60
0
100
AcDbEllipse
10
91.784312
20
3.16758
30
0
11
5.78724697506073E-15
21
4.94022831811449
31
0
210
0
220
0
230
1
40
0.996195
41
1.61480354075305
42
1.62460353383979
0
ELLIPSE
5
17D
100
AcDbEntity
8
1
62
256
6
ByLayer
370
-1
48
1
60
0
100
AcDbEllipse
10
87.118527
20
2.759848
30
0
11
2.81416266174357E-16
21
0.240228318114593
31
0
210
0
220
0
230
1
40
0.996195
41
1.64060949687462
42
1.86750229963387
0
ELLIPSE
5
17E
100
AcDbEntity
8
1
62
256
6
ByLayer
370
-1
48
1
60
0
100
AcDbEllipse
10
87.264241
20
2.623449
30
0
11
2.81416266174359E-16
21
0.240228318114594
31
0
210
0
220
0
230
1
40
0.996195
41
2.91469985083053
42
3.14159265358973
0
ELLIPSE
5
17F
100
AcDbEntity
8
1
62
256
6
ByLayer
370
-1
48
1
60
0
100
AcDbEllipse
10
87.118983
20
2.759848
30
0
11
-3.21560811832037E-16
21
-0.299999999999993
31
0
210
0
220
0
230
1
40
0.996195
41
-1.50098315671516
42
-1.27409035395593
0
ELLIPSE
5
180
100
AcDbEntity
8
1
62
256
6
ByLayer
370
-1
48
1
60
0
100
AcDbEllipse
10
86.972273
20
6.963997
30
0
11
2.81416266174359E-16
21
0.240228318114594
31
0
210
0
220
0
230
1
40
0.996195
41
1.34390352403567
42
1.5707963267949
0
ELLIPSE
5
181
100
AcDbEntity
8
1
62
256
6
ByLayer
370
-1
48
1
60
0
100
AcDbEllipse
10
89.397903
20
4.940264
30
0
11
-1.17905631005081E-15
21
-1.09999999999998
31
0
210
0
220
0
230
1
40
0.996195
41
2.38957414604378
42
0
0
ELLIPSE
5
182
100
AcDbEntity
8
1
62
256
6
ByLayer
370
-1
48
1
60
0
100
AcDbEllipse
10
89.397903
20
4.940264
30
0
11
-1.17905631005081E-15
21
-1.09999999999998
31
0
210
0
220
0
230
1
40
0.996195
41
0
42
0.302868754877696
0
ELLIPSE
5
183
100
AcDbEntity
8
1
62
256
6
ByLayer
370
-1
48
1
60
0
100
AcDbEllipse
10
87.215438
20
12.322424
30
0
11
1.16445136866421E-14
21
9.9402283181145
31
0
210
0
220
0
230
1
40
0.996195
41
-3.11578669746813
42
-3.1066860685499
0
ELLIPSE
5
184
100
AcDbEntity
8
1
62
256
6
ByLayer
370
-1
48
1
60
0
100
AcDbEllipse
10
87.264697
20
2.623449
30
0
11
-3.21560811832037E-16
21
-0.299999999999993
31
0
210
0
220
0
230
1
40
0.996195
41
-0.226892802759216
42
0
0
ELLIPSE
5
185
100
AcDbEntity
8
1
62
256
6
ByLayer
370
-1
48
1
60
0
100
AcDbEllipse
10
93.328238
20
-1.517652
30
0
11
-2.38650854675769
21
2.41189874264117E-15
31
0
210
0
220
0
230
1
40
0.997564
41
0.392220031133863
42
0.449712092314642
0
ELLIPSE
5
186
100
AcDbEntity
8
1
62
256
6
ByLayer
370
-1
48
1
60
0
100
AcDbEllipse
10
93.328238
20
-1.524627
30
0
11
2.1133034660008
21
0
31
0
210
0
220
0
230
1
40
0.997564
41
-3.08923277603042
42
-2.69188056127515
0
ELLIPSE
5
187
100
AcDbEntity
8
1
62
256
6
ByLayer
370
-1
48
1
60
0
100
AcDbEllipse
10
89.29306
20
-1.91257
30
0
11
-1.09999999999999
21
1.11170296059059E-15
31
0
210
0
220
0
230
1
40
0.997564
41
-2.02259623299007
42
-0.108482312924207
0
ELLIPSE
5
188
100
AcDbEntity
8
1
62
256
6
ByLayer
370
-1
48
1
60
0
100
AcDbEllipse
10
91.377079
20
-3.854094
30
0
11
0.399999999999944
21
0
31
0
210
0
220
0
230
1
40
0.997564
41
-1.22173047639612
42
-0.87266462599731
0
ELLIPSE
5
189
100
AcDbEntity
8
1
62
256
6
ByLayer
370
-1
48
1
60
0
100
AcDbEllipse
10
91.19924
20
-3.272856
30
0
11
-0.1105190762064
21
0.166689933092805
31
0
210
0
220
0
230
1
40
0.038612
41
1.31821169598924
42
1.62896763861556
0
ELLIPSE
5
18A
100
AcDbEntity
8
1
62
256
6
ByLayer
370
-1
48
1
60
0
100
AcDbEllipse
10
91.38378
20
-2.701729
30
0
11
-0.199877570208914
21
0.006996922707913
31
0
210
0
220
0
230
1
40
0.069714
41
0.526039181296456
42
1.57323673249303
0
ELLIPSE
5
18B
100
AcDbEntity
8
1
62
256
6
ByLayer
370
-1
48
1
60
0
100
AcDbEllipse
10
91.334998
20
-2.470469
30
0
11
-0.180031302336508
21
-0.087113318034733
31
0
210
0
220
0
230
1
40
0.062821
41
0.493210509411936
42
1.54040806060878
0
ELLIPSE
5
18C
100
AcDbEntity
8
1
62
256
6
ByLayer
370
-1
48
1
60
0
100
AcDbEllipse
10
90.981338
20
-2.959757
30
0
11
-0.393657936256395
21
3.97846084723836E-16
31
0
210
0
220
0
230
1
40
0.997564
41
2.15739518730468
42
3.10668606854978
0
ELLIPSE
5
18D
100
AcDbEntity
8
1
62
256
6
ByLayer
370
-1
48
1
60
0
100
AcDbEllipse
10
91.56859
20
-3.693788
30
0
11
0.399999999999934
21
0
31
0
210
0
220
0
230
1
40
0.997564
41
-0.87266462599729
42
-0.0349065850396992
0
ELLIPSE
5
18E
100
AcDbEntity
8
1
62
256
6
ByLayer
370
-1
48
1
60
0
100
AcDbEllipse
10
90.577432
20
-0.760777
30
0
11
-0.493657936256395
21
4.98909990232072E-16
31
0
210
0
220
0
230
1
40
0.997564
41
-3.08923277603005
42
-2.70319473226405
0
ELLIPSE
5
18F
100
AcDbEntity
8
1
62
256
6
ByLayer
370
-1
48
1
60
0
100
AcDbEllipse
10
90.981338
20
-2.952781
30
0
11
0.220452855499508
21
0
31
0
210
0
220
0
230
1
40
0.997564
41
-0.645061634546182
42
-0.0349065850400097
0
ELLIPSE
5
190
100
AcDbEntity
8
1
62
256
6
ByLayer
370
-1
48
1
60
0
100
AcDbEllipse
10
90.890423
20
-2.698494
30
0
11
-0.593657936256395
21
5.99973895740309E-16
31
0
210
0
220
0
230
1
40
0.997564
41
3.10668606854978
42
-2.69188056127516
0
ELLIPSE
5
191
100
AcDbEntity
8
1
62
256
6
ByLayer
370
-1
48
1
60
0
100
AcDbEllipse
10
91.374756
20
-2.95951
30
0
11
-0.199877570208914
21
0.006996922707913
31
0
210
0
220
0
230
1
40
0.069714
41
0.526039181296456
42
1.57323673249303
0
ELLIPSE
5
192
100
AcDbEntity
8
1
62
256
6
ByLayer
370
-1
48
1
60
0
100
AcDbEllipse
10
89.29306
20
-1.911873
30
0
11
1.21732050807568
21
0
31
0
210
0
220
0
230
1
40
0.997564
41
1.66386612538301
42
2.70775867550893
0
ELLIPSE
5
193
100
AcDbEntity
8
1
62
256
6
ByLayer
370
-1
48
1
60
0
100
AcDbEllipse
10
91.117967
20
-1.626229
30
0
11
-0.199724569469277
21
-0.0104926807971898
31
0
210
0
220
0
230
1
40
0.069661
41
1.38439943817154
42
1.56713665656312
0
ELLIPSE
5
194
100
AcDbEntity
8
1
62
256
6
ByLayer
370
-1
48
1
60
0
100
AcDbEllipse
10
93.328238
20
-1.685067
30
0
11
1.60000000000014
21
0
31
0
210
0
220
0
230
1
40
0.997564
41
-3.08923277602866
42
-2.69653369433139
0
ELLIPSE
5
195
100
AcDbEntity
8
1
62
256
6
ByLayer
370
-1
48
1
60
0
100
AcDbEllipse
10
90.577432
20
-0.760777
30
0
11
-0.593657936256395
21
5.99973895740309E-16
31
0
210
0
220
0
230
1
40
0.997564
41
-3.08923277603006
42
-2.55499379307998
0
ELLIPSE
5
196
100
AcDbEntity
8
1
62
256
6
ByLayer
370
-1
48
1
60
0
100
AcDbEllipse
10
90.981338
20
-2.959757
30
0
11
-0.493657936256395
21
4.98909990232072E-16
31
0
210
0
220
0
230
1
40
0.997564
41
2.15739518730472
42
3.10668606854979
0
ELLIPSE
5
197
100
AcDbEntity
8
1
62
256
6
ByLayer
370
-1
48
1
60
0
100
AcDbEllipse
10
91.078493
20
0.005932
30
0
11
0.399999999999944
21
0
31
0
210
0
220
0
230
1
40
0.997564
41
0.349065850398803
42
0.698131700797625
0
ELLIPSE
5
198
100
AcDbEntity
8
1
62
256
6
ByLayer
370
-1
48
1
60
0
100
AcDbEllipse
10
93.328238
20
-1.524627
30
0
11
2.2133034660008
21
0
31
0
210
0
220
0
230
1
40
0.997564
41
-3.0892327760304
42
-2.69188056127515
0
ELLIPSE
5
199
100
AcDbEntity
8
1
62
256
6
ByLayer
370
-1
48
1
60
0
100
AcDbEllipse
10
89.29306
20
-1.972252
30
0
11
1.09999999999998
21
0
31
0
210
0
220
0
230
1
40
0.997564
41
0.948171774797651
42
2.992759301522
0
ELLIPSE
5
19A
100
AcDbEntity
8
1
62
256
6
ByLayer
370
-1
48
1
60
0
100
AcDbEllipse
10
90.890423
20
-2.691518
30
0
11
0.320452855499508
21
0
31
0
210
0
220
0
230
1
40
0.997564
41
-0.0349065850400213
42
0.449712092314643
0
ELLIPSE
5
19B
100
AcDbEntity
8
1
62
256
6
ByLayer
370
-1
48
1
60
0
100
AcDbEllipse
10
93.328238
20
-1.592291
30
0
11
1.76330346600111
21
0
31
0
210
0
220
0
230
1
40
0.997564
41
-3.08923277602879
42
-2.69653369433138
0
ELLIPSE
5
19C
100
AcDbEntity
8
1
62
256
6
ByLayer
370
-1
48
1
60
0
100
AcDbEllipse
10
89.29306
20
-1.91257
30
0
11
1.19999999999999
21
0
31
0
210
0
220
0
230
1
40
0.997564
41
1.55950581778428
42
2.80907432837206
0
ELLIPSE
5
19D
100
AcDbEntity
8
1
62
256
6
ByLayer
370
-1
48
1
60
0
100
AcDbEllipse
10
91.070413
20
-0.721053
30
0
11
-0.199724569469277
21
-0.0104926807971898
31
0
210
0
220
0
230
1
40
0.069661
41
1.38439943817154
42
1.56713665656312
0
ELLIPSE
5
19E
100
AcDbEntity
8
1
62
256
6
ByLayer
370
-1
48
1
60
0
100
AcDbEllipse
10
90.917796
20
0.196977
30
0
11
0.399999999999934
21
0
31
0
210
0
220
0
230
1
40
0.997564
41
0.698131700797598
42
1.15386021685672
0
ELLIPSE
5
19F
100
AcDbEntity
8
1
62
256
6
ByLayer
370
-1
48
1
60
0
100
AcDbEllipse
10
91.263259
20
-0.500471
30
0
11
0.39999999999998
21
0
31
0
210
0
220
0
230
1
40
0.997564
41
0.0523598775595937
42
0.349065850398705
0
ELLIPSE
5
1A0
100
AcDbEntity
8
1
62
256
6
ByLayer
370
-1
48
1
60
0
100
AcDbEllipse
10
91.250213
20
-2.784342
30
0
11
0.749999999999771
21
0
31
0
210
0
220
0
230
1
40
0.997564
41
-0.034906585038558
42
0.445058959258722
0
ELLIPSE
5
1A1
100
AcDbEntity
8
1
62
256
6
ByLayer
370
-1
48
1
60
0
100
AcDbEllipse
10
90.890423
20
-2.698494
30
0
11
-0.493657936256395
21
4.98909990232072E-16
31
0
210
0
220
0
230
1
40
0.997564
41
3.1066860685498
42
-2.69188056127515
0
POINT
5
41
100
AcDbEntity
8
81
62
256
6
ByLayer
370
-1
48
1
60
0
100
AcDbPoint
10
92
20
0
30
0
39
0
210
0
220
0
230
1
50
360
0
POINT
5
43
100
AcDbEntity
8
80
62
256
6
ByLayer
370
-1
48
1
60
0
100
AcDbPoint
10
0
20
0
30
0
39
0
210
0
220
0
230
1
50
360
0
SPLINE
5
1A2
100
AcDbEntity
8
1
62
256
6
ByLayer
370
-1
48
1
60
0
100
AcDbSpline
70
4
71
3
72
15
73
11
40
0
40
0
40
0
40
0
40
0.0683513766299341
40
0.204004700966094
40
0.33920978176319
40
0.474126778685939
40
0.608984659091666
40
0.7439620843565
40
0.879279528072028
40
1
40
1
40
1
40
1
41
1
10
90.1335347283144
20
5.73768013212489
30
0
41
1
10
90.1751758845295
20
5.70529980101946
30
0
41
1
10
90.2884873615367
20
5.60040136629164
30
0
41
1
10
90.4172244658946
20
5.36838995082132
30
0
41
1
10
90.4971998816509
20
5.06549676935126
30
0
41
1
10
90.4876130687855
20
4.75063108574798
30
0
41
1
10
90.3919353095245
20
4.45175956710003
30
0
41
1
10
90.2176855927482
20
4.19241309767472
30
0
41
1
10
89.986649559909
20
3.99731620111831
30
0
41
1
10
89.8103645806449
20
3.92028909105139
30
0
41
1
10
89.7206135594863
20
3.89398019728623
30
0
0
SPLINE
5
1A3
100
AcDbEntity
8
1
62
256
6
ByLayer
370
-1
48
1
60
0
100
AcDbSpline
70
4
71
3
72
17
73
13
40
0
40
0
40
0
40
0
40
0.0975789470367069
40
0.195895179520676
40
0.293477663284317
40
0.391606837320424
40
0.489147380250846
40
0.584912533733967
40
0.693898838776312
40
0.79779889789851
40
0.89803261399623
40
1
40
1
40
1
40
1
41
1
10
14
20
7.36499999999998
30
0
41
1
10
13.6455879274241
20
7.36651343209803
30
0
41
1
10
12.9611672478204
20
7.45522435671185
30
0
41
1
10
11.9821431470998
20
7.85753149431844
30
0
41
1
10
11.1529929309192
20
8.49531713764591
30
0
41
1
10
10.3644380374645
20
9.17134224706072
30
0
41
1
10
9.61172794917263
20
9.87900613364386
30
0
41
1
10
8.83087160595667
20
10.6119772783149
30
0
41
1
10
8.00170023401523
20
11.3273442465405
30
0
41
1
10
7.08509082978736
20
11.9566028473492
30
0
41
1
10
6.0780156488718
20
12.3986055832066
30
0
41
1
10
5.37026125918121
20
12.4945169675848
30
0
41
1
10
5.00000000000003
20
12.5
30
0
0
SPLINE
5
1A4
100
AcDbEntity
8
1
62
256
6
ByLayer
370
-1
48
1
60
0
100
AcDbSpline
70
4
71
3
72
17
73
13
40
0
40
0
40
0
40
0
40
0.103765801939492
40
0.205868968826682
40
0.311881675749901
40
0.423155708615007
40
0.538552905088558
40
0.630761955167065
40
0.723291978148414
40
0.815219870597325
40
0.908022767601639
40
1
40
1
40
1
40
1
41
1
10
4.99999999999997
20
-12.5
30
0
41
1
10
5.37704441632346
20
-12.4940811417977
30
0
41
1
10
6.09743538156124
20
-12.3948572394414
30
0
41
1
10
7.12081745768975
20
-11.9373604031107
30
0
41
1
10
8.05115884187819
20
-11.2889937792224
30
0
41
1
10
8.94100040469741
20
-10.5135002578157
30
0
41
1
10
9.76072134732414
20
-9.73609231853257
30
0
41
1
10
10.5415668775762
20
-9.01325833144151
30
0
41
1
10
11.2921414950729
20
-8.3831266974226
30
0
41
1
10
12.0892849606172
20
-7.80088709793591
30
0
41
1
10
13.02059955158
20
-7.44587749439557
30
0
41
1
10
13.6668156188372
20
-7.36619570762434
30
0
41
1
10
14
20
-7.36500000000004
30
0
0
SPLINE
5
1A5
100
AcDbEntity
8
1
62
256
6
ByLayer
370
-1
48
1
60
0
100
AcDbSpline
70
4
71
3
72
8
73
4
40
0
40
0
40
0
40
0
40
1
40
1
40
1
40
1
41
1
10
86.5115272476958
20
1.57315235382202
30
0
41
1
10
86.5431428197172
20
1.59401755186377
30
0
41
1
10
86.5744613985994
20
1.61547139037899
30
0
41
1
10
86.6054975068461
20
1.63750894677943
30
0
0
SPLINE
5
1A6
100
AcDbEntity
8
1
62
256
6
ByLayer
370
-1
48
1
60
0
100
AcDbSpline
70
4
71
3
72
9
73
5
40
0
40
0
40
0
40
0
40
0.171661540549264
40
1
40
1
40
1
40
1
41
1
10
88.6745016597438
20
-1.07300460859182
30
0
41
1
10
88.6839678036464
20
-1.06443682116657
30
0
41
1
10
88.7400530373909
20
-1.01620874870736
30
0
41
1
10
88.806894737139
20
-0.982044968910259
30
0
41
1
10
88.8650811328644
20
-0.959711036984089
30
0
0
SPLINE
5
1A7
100
AcDbEntity
8
1
62
256
6
ByLayer
370
-1
48
1
60
0
100
AcDbSpline
70
4
71
3
72
8
73
4
40
0
40
0
40
0
40
0
40
1
40
1
40
1
40
1
41
1
10
89.1068921146
20
-0.894366585243745
30
0
41
1
10
89.1489792691985
20
-0.886985817945856
30
0
41
1
10
89.191568191718
20
-0.881801487801312
30
0
41
1
10
89.2353382726517
20
-0.879362406464736
30
0
0
SPLINE
5
1A8
100
AcDbEntity
8
1
62
256
6
ByLayer
370
-1
48
1
60
0
100
AcDbSpline
70
4
71
3
72
9
73
5
40
0
40
0
40
0
40
0
40
0.962047423662271
40
1
40
1
40
1
40
1
41
1
10
89.7282020032109
20
-0.963544787010306
30
0
41
1
10
89.8017474143215
20
-0.991099584169461
30
0
41
1
10
89.874322059442
20
-1.02796876471044
30
0
41
1
10
89.93240759744
20
-1.08269220284066
30
0
41
1
10
89.9346011830395
20
-1.08478596157005
30
0
0
SPLINE
5
1A9
100
AcDbEntity
8
1
62
256
6
ByLayer
370
-1
48
1
60
0
100
AcDbSpline
70
4
71
3
72
12
73
8
40
0
40
0
40
0
40
0
40
0.499999999999986
40
0.499999999999986
40
0.749999999999993
40
0.749999999999993
40
1
40
1
40
1
40
1
41
1
10
81.1616337165669
20
7.17342462124009
30
0
41
1
10
81.3888335573528
20
7.17602922486356
30
0
41
1
10
81.6093025661168
20
7.18039002744175
30
0
41
1
10
81.930364112439
20
7.18740803023655
30
0
41
1
10
82.0357660210737
20
7.18981437684633
30
0
41
1
10
82.2432702687728
20
7.1942262260915
30
0
41
1
10
82.3456987738281
20
7.19623306600437
30
0
41
1
10
82.4442952745456
20
7.19767406829311
30
0
0
SPLINE
5
1AA
100
AcDbEntity
8
1
62
256
6
ByLayer
370
-1
48
1
60
0
100
AcDbSpline
70
4
71
3
72
10
73
6
40
0
40
0
40
0
40
0
40
0.478912264888966
40
0.478912264888966
40
1
40
1
40
1
40
1
41
1
10
36.6877948604933
20
7.27916166436148
30
0
41
1
10
39.2921417729726
20
7.26640909219148
30
0
41
1
10
41.8952148508087
20
7.2011968951355
30
0
41
1
10
47.3312996930467
20
6.95879409472062
30
0
41
1
10
50.1640962908405
20
6.77159625291375
30
0
41
1
10
53
20
6.5279720492511
30
0
0
SPLINE
5
1AB
100
AcDbEntity
8
1
62
256
6
ByLayer
370
-1
48
1
60
0
100
AcDbSpline
70
4
71
3
72
8
73
4
40
0
40
0
40
0
40
0
40
1
40
1
40
1
40
1
41
1
10
8.20044371309103
20
-2.98530659697343
30
0
41
1
10
9.12806260268454
20
-3.56327209002257
30
0
41
1
10
10.0574263149312
20
-4.11583562929809
30
0
41
1
10
10.9861019003854
20
-4.62848015149268
30
0
0
SPLINE
5
1AC
100
AcDbEntity
8
1
62
256
6
ByLayer
370
-1
48
1
60
0
100
AcDbSpline
70
4
71
3
72
18
73
14
40
0
40
0
40
0
40
0
40
0.125
40
0.125
40
0.25
40
0.25
40
0.375
40
0.375
40
0.5
40
0.5
40
0.75
40
0.75
40
1
40
1
40
1
40
1
41
1
10
19
20
2.12310208079407
30
0
41
1
10
20.4172674432948
20
1.85309018727295
30
0
41
1
10
21.8339721679178
20
1.57904375188806
30
0
41
1
10
24.6665524307322
20
1.02435484242639
30
0
41
1
10
26.0826429365323
20
0.744792193468186
30
0
41
1
10
28.9155783065057
20
0.187124760954276
30
0
41
1
10
30.3324188343884
20
-0.0909956399561338
30
0
41
1
10
33.1670912484352
20
-0.644514204909115
30
0
41
1
10
34.5850323363142
20
-0.920067766019088
30
0
41
1
10
38.8357362615188
20
-1.73772378711467
30
0
41
1
10
41.6671614518182
20
-2.27085113378268
30
0
41
1
10
47.3311362274121
20
-3.28391234371662
30
0
41
1
10
50.1638231983339
20
-3.76320764472763
30
0
41
1
10
53
20
-4.20290922538945
30
0
0
SPLINE
5
1AD
100
AcDbEntity
8
1
62
256
6
ByLayer
370
-1
48
1
60
0
100
AcDbSpline
70
4
71
3
72
8
73
4
40
0
40
0
40
0
40
0
40
1
40
1
40
1
40
1
41
1
10
78.9692480266655
20
3.02166609479278
30
0
41
1
10
79.4069401396194
20
2.82294368964838
30
0
41
1
10
79.8466509568706
20
2.62726383551015
30
0
41
1
10
80.2884347283079
20
2.4347082967326
30
0
0
SPLINE
5
1AE
100
AcDbEntity
8
1
62
256
6
ByLayer
370
-1
48
1
60
0
100
AcDbSpline
70
4
71
3
72
10
73
6
40
0
40
0
40
0
40
0
40
0.5
40
0.5
40
1
40
1
40
1
40
1
41
1
10
83.0554076992268
20
2.55675601989611
30
0
41
1
10
83.1579681242771
20
2.49454369150416
30
0
41
1
10
83.2664945912722
20
2.44158301448832
30
0
41
1
10
83.4929514162268
20
2.34891365027468
30
0
41
1
10
83.6109156729844
20
2.30927459467284
30
0
41
1
10
83.7329854741877
20
2.27505202839075
30
0
0
SPLINE
5
1AF
100
AcDbEntity
8
1
62
256
6
ByLayer
370
-1
48
1
60
0
100
AcDbSpline
70
4
71
2
72
6
73
3
40
0
40
0
40
0
40
1
40
1
40
1
41
1
10
7.48610190038519
20
-2.25256140209552
30
0
41
1
10
7.48610190038522
20
-2.87414032415563
30
0
41
1
10
7.48610190038525
20
-3.49571924621574
30
0
0
SPLINE
5
1B0
100
AcDbEntity
8
1
62
256
6
ByLayer
370
-1
48
1
60
0
100
AcDbSpline
70
4
71
3
72
22
73
18
40
0
40
0
40
0
40
0
40
0.249999999999999
40
0.249999999999999
40
0.374999999999999
40
0.374999999999999
40
0.499999999999998
40
0.499999999999998
40
0.562499999999998
40
0.562499999999998
40
0.624999999999998
40
0.624999999999998
40
0.687499999999998
40
0.687499999999998
40
0.749999999999998
40
0.749999999999998
40
1
40
1
40
1
40
1
41
1
10
14
20
3.14345443831618
30
0
41
1
10
13.6630983075397
20
3.22969288424977
30
0
41
1
10
13.3288764913243
20
3.31794927663469
30
0
41
1
10
12.8334675123093
20
3.45997709372779
30
0
41
1
10
12.6681799417716
20
3.50934191058681
30
0
41
1
10
12.348566098842
20
3.61021956060924
30
0
41
1
10
12.1936463855229
20
3.66186819735171
30
0
41
1
10
11.9687070286879
20
3.74209467027495
30
0
41
1
10
11.8949702827764
20
3.76929629698986
30
0
41
1
10
11.750039891231
20
3.82478604307673
30
0
41
1
10
11.6789918598896
20
3.85315847497213
30
0
41
1
10
11.5389134281353
20
3.91081478579409
30
0
41
1
10
11.4687741029439
20
3.93947246343572
30
0
41
1
10
11.3301614360162
20
3.99707194202674
30
0
41
1
10
11.2614707917433
20
4.02594770734396
30
0
41
1
10
10.9207514708243
20
4.17070706480473
30
0
41
1
10
10.6569108069729
20
4.28780249443426
30
0
41
1
10
10.3975494589389
20
4.40560442252644
30
0
0
SPLINE
5
1B1
100
AcDbEntity
8
1
62
256
6
ByLayer
370
-1
48
1
60
0
100
AcDbSpline
70
4
71
3
72
10
73
6
40
0
40
0
40
0
40
0
40
0.5
40
0.5
40
1
40
1
40
1
40
1
41
1
10
85.211764420864
20
2.10008226011914
30
0
41
1
10
85.4008732196488
20
2.10677849885701
30
0
41
1
10
85.5821917806961
20
2.11326531336931
30
0
41
1
10
85.9297021271871
20
2.12583229071348
30
0
41
1
10
86.0968869008693
20
2.13195032780951
30
0
41
1
10
86.2502601230825
20
2.13764154406002
30
0
0
SPLINE
5
1B2
100
AcDbEntity
8
1
62
256
6
ByLayer
370
-1
48
1
60
0
100
AcDbSpline
70
4
71
3
72
8
73
4
40
0
40
0
40
0
40
0
40
1
40
1
40
1
40
1
41
1
10
10.9861019003854
20
-4.62848015149268
30
0
41
1
10
10.9861019003854
20
-5.22716434207419
30
0
41
1
10
10.9861019003854
20
-5.8258485326557
30
0
41
1
10
10.9861019003854
20
-6.42453272323721
30
0
0
SPLINE
5
1B3
100
AcDbEntity
8
1
62
256
6
ByLayer
370
-1
48
1
60
0
100
AcDbSpline
70
4
71
3
72
8
73
4
40
0
40
0
40
0
40
0
40
1
40
1
40
1
40
1
41
1
10
83.7329854741874
20
2.2750520283908
30
0
41
1
10
84.0496972577384
20
2.18626110796609
30
0
41
1
10
84.3776279241968
20
2.1297736422878
30
0
41
1
10
84.7176980668033
20
2.10756153561491
30
0
0
SPLINE
5
1B4
100
AcDbEntity
8
1
62
256
6
ByLayer
370
-1
48
1
60
0
100
AcDbSpline
70
4
71
3
72
8
73
4
40
0
40
0
40
0
40
0
40
1
40
1
40
1
40
1
41
1
10
82.8270318058975
20
3.58077978953185
30
0
41
1
10
82.7790909778623
20
3.72713996329156
30
0
41
1
10
82.7234534705449
20
3.87402934483129
30
0
41
1
10
82.6576887529419
20
4.01999999998378
30
0
0
SPLINE
5
1B5
100
AcDbEntity
8
1
62
256
6
ByLayer
370
-1
48
1
60
0
100
AcDbSpline
70
4
71
3
72
18
73
14
40
0
40
0
40
0
40
0
40
0.250000000000001
40
0.250000000000001
40
0.375000000000001
40
0.375000000000001
40
0.500000000000001
40
0.500000000000001
40
0.750000000000001
40
0.750000000000001
40
0.875
40
0.875
40
1
40
1
40
1
40
1
41
1
10
7.48610190038644
20
-3.49571924620881
30
0
41
1
10
7.35096391621281
20
-3.32932448749915
30
0
41
1
10
7.24308889422542
20
-3.13474443195119
30
0
41
1
10
7.10656725973067
20
-2.81507698559454
30
0
41
1
10
7.06526094715974
20
-2.7031434328737
30
0
41
1
10
6.99131459951226
20
-2.47564108144283
30
0
41
1
10
6.95846623840538
20
-2.35970641493847
30
0
41
1
10
6.86965088263031
20
-2.00648963416665
30
0
41
1
10
6.82329116481483
20
-1.76385422698891
30
0
41
1
10
6.76656802642324
20
-1.39173661856245
30
0
41
1
10
6.74981768258547
20
-1.26607546503439
30
0
41
1
10
6.72022839300109
20
-1.01501542831213
30
0
41
1
10
6.70733516670049
20
-0.889302900440981
30
0
41
1
10
6.69596967929508
20
-0.763435205959382
30
0
0
SPLINE
5
1B6
100
AcDbEntity
8
1
62
256
6
ByLayer
370
-1
48
1
60
0
100
AcDbSpline
70
4
71
3
72
14
73
10
40
0
40
0
40
0
40
0
40
0.25
40
0.25
40
0.5
40
0.5
40
0.75
40
0.75
40
1
40
1
40
1
40
1
41
1
10
53
20
6.5279720492511
30
0
41
1
10
55.1186897174615
20
6.3533725855572
30
0
41
1
10
57.2360785347932
20
6.14632383125772
30
0
41
1
10
61.4710141684352
20
5.67496127506399
30
0
41
1
10
63.5885867164319
20
5.41079552065454
30
0
41
1
10
67.826075731222
20
4.83335511308559
30
0
41
1
10
69.9453660167952
20
4.52001404315342
30
0
41
1
10
74.182027188545
20
3.85261122133733
30
0
41
1
10
76.3001042314106
20
3.49847735387917
30
0
41
1
10
78.4188951241131
20
3.12807850302784
30
0
0
SPLINE
5
1B7
100
AcDbEntity
8
1
62
256
6
ByLayer
370
-1
48
1
60
0
100
AcDbSpline
70
4
71
3
72
10
73
6
40
0
40
0
40
0
40
0
40
0.755679647324182
40
0.755679647324182
40
1
40
1
40
1
40
1
41
1
10
53
20
-6.22150906294829
30
0
41
1
10
54.9570741584168
20
-6.02934438419018
30
0
41
1
10
56.9130396456393
20
-5.81088700219661
30
0
41
1
10
59.501307498273
20
-5.49127370571955
30
0
41
1
10
60.1336688073892
20
-5.41078269456492
30
0
41
1
10
60.7660547550377
20
-5.32800313623491
30
0
0
SPLINE
5
1B8
100
AcDbEntity
8
1
62
256
6
ByLayer
370
-1
48
1
60
0
100
AcDbSpline
70
4
71
3
72
13
73
9
40
0
40
0
40
0
40
0
40
0.306560411798968
40
0.459840617698452
40
0.613120823597935
40
0.766401029497419
40
0.919681235396903
40
1
40
1
40
1
40
1
41
0.999999999999999
10
81.161633716567
20
4.0199999999999
30
0
41
0.999999999999999
10
80.4708970592761
20
4.00847288354473
30
0
41
0.999999999999999
10
79.4348882313279
20
3.98775417068393
30
0
41
0.999999999999999
10
78.0537689203151
20
3.95374188308461
30
0
41
0.999999999999999
10
77.0178083383399
20
3.9251664667454
30
0
41
0.999999999999999
10
75.9817271345855
20
3.89364321019963
30
0
41
0.999999999999999
10
75.1099100901205
20
3.86468436509151
30
0
41
0.999999999999999
10
74.5835445220372
20
3.84609630572129
30
0
41
0.999999999999999
10
74.4025677589757
20
3.83957594468041
30
0
0
SPLINE
5
1B9
100
AcDbEntity
8
1
62
256
6
ByLayer
370
-1
48
1
60
0
100
AcDbSpline
70
4
71
3
72
8
73
4
40
0
40
0
40
0
40
0
40
1
40
1
40
1
40
1
41
1
10
83.0513408865777
20
2.5592261539459
30
0
41
1
10
83.0526958470498
20
2.55840208553829
30
0
41
1
10
83.0540514520641
20
2.55757870850945
30
0
41
1
10
83.0554076992269
20
2.55675601989606
30
0
0
SPLINE
5
1BA
100
AcDbEntity
8
1
62
256
6
ByLayer
370
-1
48
1
60
0
100
AcDbSpline
70
4
71
3
72
8
73
4
40
0
40
0
40
0
40
0
40
1
40
1
40
1
40
1
41
1
10
78.9692480266655
20
3.02166609479281
30
0
41
1
10
78.7892081632983
20
3.05417140797425
30
0
41
1
10
78.6057353025712
20
3.0896612438774
30
0
41
1
10
78.418895124113
20
3.12807850302787
30
0
0
SPLINE
5
1BB
100
AcDbEntity
8
1
62
256
6
ByLayer
370
-1
48
1
60
0
100
AcDbSpline
70
4
71
3
72
8
73
4
40
0
40
0
40
0
40
0
40
1
40
1
40
1
40
1
41
1
10
84.7176980668015
20
2.10756153561505
30
0
41
1
10
84.8825331228044
20
2.09679512778126
30
0
41
1
10
85.0472318188299
20
2.09425625101423
30
0
41
1
10
85.211764420864
20
2.10008226011914
30
0
0
SPLINE
5
1BC
100
AcDbEntity
8
1
62
256
6
ByLayer
370
-1
48
1
60
0
100
AcDbSpline
70
4
71
3
72
70
73
66
40
-0.03125
40
-0.03125
40
0
40
0
40
0.03125
40
0.03125
40
0.0625
40
0.0625
40
0.09375
40
0.09375
40
0.125
40
0.125
40
0.15625
40
0.15625
40
0.1875
40
0.1875
40
0.21875
40
0.21875
40
0.25
40
0.25
40
0.28125
40
0.28125
40
0.3125
40
0.3125
40
0.34375
40
0.34375
40
0.375
40
0.375
40
0.40625
40
0.40625
40
0.4375
40
0.4375
40
0.46875
40
0.46875
40
0.5
40
0.5
40
0.53125
40
0.53125
40
0.5625
40
0.5625
40
0.59375
40
0.59375
40
0.625
40
0.625
40
0.65625
40
0.65625
40
0.6875
40
0.6875
40
0.71875
40
0.71875
40
0.75
40
0.75
40
0.78125
40
0.78125
40
0.8125
40
0.8125
40
0.84375
40
0.84375
40
0.875
40
0.875
40
0.90625
40
0.90625
40
0.9375
40
0.9375
40
0.96875
40
0.96875
40
1
40
1
40
1.03125
40
1.03125
41
1
10
88.0480265614342
20
-1.53519908544425
30
0
41
1
10
88.0405585945185
20
-1.3902508238763
30
0
41
1
10
88.0437363590007
20
-1.31834605373817
30
0
41
1
10
88.0637086943488
20
-1.17567787224851
30
0
41
1
10
88.080784406241
20
-1.10417377273029
30
0
41
1
10
88.1284378499074
20
-0.966373077383707
30
0
41
1
10
88.1587057775789
20
-0.900430208094292
30
0
41
1
10
88.2321995864979
20
-0.774562024548374
30
0
41
1
10
88.2759526206633
20
-0.714226895453038
30
0
41
1
10
88.3731527979919
20
-0.605080379338148
30
0
41
1
10
88.4268447522783
20
-0.555613482140274
30
0
41
1
10
88.5446701140501
20
-0.467209473815728
30
0
41
1
10
88.6082098856994
20
-0.428914285745861
30
0
41
1
10
88.7403100192328
20
-0.366331554551664
30
0
41
1
10
88.8099566476971
20
-0.341478424779126
30
0
41
1
10
88.9533946724318
20
-0.306231894527741
30
0
41
1
10
89.0258539461892
20
-0.296047762211515
30
0
41
1
10
89.1722157197321
20
-0.290191001594508
30
0
41
1
10
89.2468474583405
20
-0.294739030230318
30
0
41
1
10
89.3915702170823
20
-0.318382732208676
30
0
41
1
10
89.4622034163165
20
-0.337314751895661
30
0
41
1
10
89.5999606816092
20
-0.389600248282591
30
0
41
1
10
89.6663695975499
20
-0.422865163536386
30
0
41
1
10
89.7898589332336
20
-0.501016886788364
30
0
41
1
10
89.847988549937
20
-0.546485024994894
30
0
41
1
10
89.9544397459099
20
-0.648660793015011
30
0
41
1
10
90.0017506180478
20
-0.704262364683842
30
0
41
1
10
90.084970414244
20
-0.824099904690968
30
0
41
1
10
90.1210967509322
20
-0.889066828571885
30
0
41
1
10
90.1790365162306
20
-1.02267389830382
30
0
41
1
10
90.2012398709948
20
-1.09162567131165
30
0
41
1
10
90.2322748560838
20
-1.23371347148111
30
0
41
1
10
90.2408446641869
20
-1.30639633289962
30
0
41
1
10
90.2441306016595
20
-1.4499718138234
30
0
41
1
10
90.2389912445375
20
-1.52175107960721
30
0
41
1
10
90.2150604600845
20
-1.6642033382239
30
0
41
1
10
90.1966077539576
20
-1.73308783651746
30
0
41
1
10
90.1473166545295
20
-1.86645133196964
30
0
41
1
10
90.1160913315122
20
-1.9315245695322
30
0
41
1
10
90.0423706745785
20
-2.0539016266566
30
0
41
1
10
90.0001891740271
20
-2.11099145891996
30
0
41
1
10
89.9050666336674
20
-2.21706451550318
30
0
41
1
10
89.8514451981104
20
-2.26647379830865
30
0
41
1
10
89.7367842752814
20
-2.35297804625836
30
0
41
1
10
89.6756086991525
20
-2.3904604777419
30
0
41
1
10
89.5451370752574
20
-2.45345574141706
30
0
41
1
10
89.4753663403494
20
-2.47889502754597
30
0
41
1
10
89.3341848360589
20
-2.51452260229814
30
0
41
1
10
89.2619930389675
20
-2.52519179082603
30
0
41
1
10
89.1142155764638
20
-2.53146468282227
30
0
41
1
10
89.0404768497713
20
-2.52688233986234
30
0
41
1
10
88.8963160028395
20
-2.50305746713335
30
0
41
1
10
88.824597594389
20
-2.48346738597368
30
0
41
1
10
88.6884993212268
20
-2.43097300361862
30
0
41
1
10
88.6239756476625
20
-2.39826671951511
30
0
41
1
10
88.5016718509155
20
-2.32030287140614
30
0
41
1
10
88.4445852116288
20
-2.27532480687137
30
0
41
1
10
88.3412418656557
20
-2.17655357935655
30
0
41
1
10
88.2941402755115
20
-2.12198696071118
30
0
41
1
10
88.2111850902758
20
-2.00500723969839
30
0
41
1
10
88.1757661691333
20
-1.94339351486548
30
0
41
1
10
88.1166034404685
20
-1.81400434001552
30
0
41
1
10
88.0927561643789
20
-1.74559022773786
30
0
41
1
10
88.0585733800187
20
-1.60627306681019
30
0
41
1
10
88.0480265614342
20
-1.53519908544425
30
0
41
1
10
88.0405585945185
20
-1.3902508238763
30
0
0
SPLINE
5
1BD
100
AcDbEntity
8
1
62
256
6
ByLayer
370
-1
48
1
60
0
100
AcDbSpline
70
4
71
1
72
4
73
2
40
0
40
0
40
1
40
1
41
1
10
14.8975494589373
20
1.78147605298474
30
0
41
1
10
14.8975494589374
20
2.88902486697216
30
0
0
SPLINE
5
1BE
100
AcDbEntity
8
1
62
256
6
ByLayer
370
-1
48
1
60
0
100
AcDbSpline
70
4
71
3
72
8
73
4
40
0
40
0
40
0
40
0
40
1
40
1
40
1
40
1
41
1
10
13.9509587346416
20
-5.94729825148988
30
0
41
1
10
14.0337248059343
20
-5.95441595700879
30
0
41
1
10
14.1169039068066
20
-5.96186692697776
30
0
41
1
10
14.2004926967427
20
-5.96971771693737
30
0
0
SPLINE
5
1BF
100
AcDbEntity
8
1
62
256
6
ByLayer
370
-1
48
1
60
0
100
AcDbSpline
70
4
71
3
72
8
73
4
40
0
40
0
40
0
40
0
40
1
40
1
40
1
40
1
41
1
10
7.48610190038525
20
-2.25256140209558
30
0
41
1
10
7.51477274957404
20
-2.29201939073352
30
0
41
1
10
7.54353961184708
20
-2.33105996946833
30
0
41
1
10
7.57239183829148
20
-2.36968989036197
30
0
0
SPLINE
5
1C0
100
AcDbEntity
8
1
62
256
6
ByLayer
370
-1
48
1
60
0
100
AcDbSpline
70
4
71
3
72
12
73
8
40
0
40
0
40
0
40
0
40
0.5
40
0.5
40
0.75
40
0.75
40
1
40
1
40
1
40
1
41
1
10
12.584885372961
20
-5.58352448867768
30
0
41
1
10
12.7919851110284
20
-5.68457092089932
30
0
41
1
10
13.0094811564019
20
-5.76523207836658
30
0
41
1
10
13.3519028026361
20
-5.85661854943527
30
0
41
1
10
13.4687527096336
20
-5.88210765540455
30
0
41
1
10
13.708157065329
20
-5.92280409782981
30
0
41
1
10
13.8290966808604
20
-5.93772680374335
30
0
41
1
10
13.9509587346415
20
-5.94729825148997
30
0
0
SPLINE
5
1C1
100
AcDbEntity
8
1
62
256
6
ByLayer
370
-1
48
1
60
0
100
AcDbSpline
70
4
71
2
72
6
73
3
40
0
40
0
40
0
40
1
40
1
40
1
41
1
10
14.2004926967693
20
-5.96971771693885
30
0
41
1
10
14.2004926967693
20
-6.19087443549589
30
0
41
1
10
14.2004926967693
20
-6.41203115405293
30
0
0
SPLINE
5
1C2
100
AcDbEntity
8
1
62
256
6
ByLayer
370
-1
48
1
60
0
100
AcDbSpline
70
4
71
4
72
10
73
5
40
0
40
0
40
0
40
0
40
0
40
1
40
1
40
1
40
1
40
1
41
1
10
81.161633716567
20
4.0199999999999
30
0
41
1
10
81.1616337165817
20
4.80835615531004
30
0
41
1
10
81.1616337165918
20
5.59671231062021
30
0
41
1
10
81.1616337165988
20
6.38506846593035
30
0
41
1
10
81.1616337166037
20
7.17342462124049
30
0
0
SPLINE
5
1C3
100
AcDbEntity
8
1
62
256
6
ByLayer
370
-1
48
1
60
0
100
AcDbSpline
70
4
71
3
72
8
73
4
40
0
40
0
40
0
40
0
40
1
40
1
40
1
40
1
41
1
10
10.3975494589377
20
4.25251069368338
30
0
41
1
10
10.3975494589377
20
4.30354193662868
30
0
41
1
10
10.3975494589377
20
4.354573179574
30
0
41
1
10
10.3975494589377
20
4.4056044225193
30
0
0
SPLINE
5
1C4
100
AcDbEntity
8
1
62
256
6
ByLayer
370
-1
48
1
60
0
100
AcDbSpline
70
4
71
3
72
12
73
8
40
0
40
0
40
0
40
0
40
0.499999999999999
40
0.499999999999999
40
0.749999999999999
40
0.749999999999999
40
1
40
1
40
1
40
1
41
1
10
10.9861019003854
20
-4.62848015149268
30
0
41
1
10
11.2026963271083
20
-4.75186199103314
30
0
41
1
10
11.4466231949503
20
-4.89762678145132
30
0
41
1
10
11.848886670948
20
-5.14226854388662
30
0
41
1
10
11.9898299515174
20
-5.22841189780314
30
0
41
1
10
12.2807806455776
20
-5.40427441982101
30
0
41
1
10
12.4305332644425
20
-5.49382900679129
30
0
41
1
10
12.5848853762436
20
-5.58352427890097
30
0
0
SPLINE
5
1C5
100
AcDbEntity
8
1
62
256
6
ByLayer
370
-1
48
1
60
0
100
AcDbSpline
70
4
71
3
72
10
73
6
40
0
40
0
40
0
40
0
40
0.5
40
0.5
40
1
40
1
40
1
40
1
41
1
10
83.7878039894678
20
1.19404594071432
30
0
41
1
10
83.5862712488382
20
1.23395845669924
30
0
41
1
10
83.3896967881048
20
1.27943256699243
30
0
41
1
10
83.0049255811862
20
1.38384402504772
30
0
41
1
10
82.8167270056476
20
1.44283007988204
30
0
41
1
10
82.6323100281248
20
1.51027785752117
30
0
0
SPLINE
5
1C6
100
AcDbEntity
8
1
62
256
6
ByLayer
370
-1
48
1
60
0
100
AcDbSpline
70
4
71
3
72
14
73
10
40
0
40
0
40
0
40
0
40
0.176718514570933
40
0.176718514570933
40
0.353437029141865
40
0.353437029141865
40
0.706874058283731
40
0.706874058283731
40
1
40
1
40
1
40
1
41
1
10
86.5660491318627
20
4.87264947558623
30
0
41
1
10
86.5684569368943
20
4.87264947558623
30
0
41
1
10
86.5725914118897
20
4.87588114459447
30
0
41
1
10
86.5839625552201
20
4.88782521902897
30
0
41
1
10
86.5912708523369
20
4.8966285627852
30
0
41
1
10
86.616385883544
20
4.9280972926897
30
0
41
1
10
86.6378662126974
20
4.95623267272492
30
0
41
1
10
86.6826749242301
20
5.01153466810436
30
0
41
1
10
86.7050751019378
20
5.03813383247024
30
0
41
1
10
86.7296633376575
20
5.06548370254029
30
0
0
SPLINE
5
1C7
100
AcDbEntity
8
1
62
256
6
ByLayer
370
-1
48
1
60
0
100
AcDbSpline
70
4
71
3
72
18
73
14
40
0
40
0
40
0
40
0
40
0.100006681600606
40
0.100006681600606
40
0.280005345280485
40
0.280005345280485
40
0.460004008960364
40
0.460004008960364
40
0.640002672640243
40
0.640002672640243
40
0.820001336320121
40
0.820001336320121
40
1
40
1
40
1
40
1
41
1
10
82.9715902933081
20
1.39011830182727
30
0
41
1
10
82.9820519221512
20
1.40984644529902
30
0
41
1
10
82.9918342873179
20
1.43175012066578
30
0
41
1
10
83.0171733169975
20
1.49877187329449
30
0
41
1
10
83.0311943335136
20
1.5485844256614
30
0
41
1
10
83.054488815634
20
1.66145988487531
30
0
41
1
10
83.0637739952048
20
1.72462793816115
30
0
41
1
10
83.0770409890319
20
1.86406638231324
30
0
41
1
10
83.0809188908081
20
1.9391563200551
30
0
41
1
10
83.0829497472902
20
2.09941615663115
30
0
41
1
10
83.0811039772988
20
2.18458929910551
30
0
41
1
10
83.071143043452
20
2.36471053458703
30
0
41
1
10
83.0629629434411
20
2.46020396157394
30
0
41
1
10
83.0513408865777
20
2.5592261539459
30
0
0
SPLINE
5
1C8
100
AcDbEntity
8
1
62
256
6
ByLayer
370
-1
48
1
60
0
100
AcDbSpline
70
4
71
3
72
22
73
18
40
0
40
0
40
0
40
0
40
0.125
40
0.125
40
0.25
40
0.25
40
0.375
40
0.375
40
0.5
40
0.5
40
0.625
40
0.625
40
0.75
40
0.75
40
0.875
40
0.875
40
1
40
1
40
1
40
1
41
1
10
14.8975494589401
20
1.78147605298432
30
0
41
1
10
14.5608291133741
20
1.73983973243733
30
0
41
1
10
14.214848934906
20
1.62687806469978
30
0
41
1
10
13.5423037258628
20
1.27068965716296
30
0
41
1
10
13.2158772560912
20
1.02753630090922
30
0
41
1
10
12.6185074436965
20
0.43777170458614
30
0
41
1
10
12.347687173902
20
0.0912819704843173
30
0
41
1
10
11.891469852378
20
-0.666921685944772
30
0
41
1
10
11.706166792603
20
-1.07847939972817
30
0
41
1
10
11.4414893310195
20
-1.92138157055655
30
0
41
1
10
11.3621694592578
20
-2.35255236908688
30
0
41
1
10
11.3182644191865
20
-3.18705789819907
30
0
41
1
10
11.3536882963917
20
-3.59022070018037
30
0
41
1
10
11.5354048130022
20
-4.32416180678214
30
0
41
1
10
11.6816600143495
20
-4.65478890153889
30
0
41
1
10
12.0689282289238
20
-5.20710474101116
30
0
41
1
10
12.309861455403
20
-5.42867969512133
30
0
41
1
10
12.5848853029744
20
-5.58352444927363
30
0
0
SPLINE
5
1C9
100
AcDbEntity
8
1
62
256
6
ByLayer
370
-1
48
1
60
0
100
AcDbSpline
70
4
71
3
72
8
73
4
40
0
40
0
40
0
40
0
40
1
40
1
40
1
40
1
41
1
10
10.3975494589388
20
4.25251069369165
30
0
41
1
10
11.9053247392183
20
3.4248195256886
30
0
41
1
10
13.405755257311
20
2.60004048304035
30
0
41
1
10
14.8975494589373
20
1.78147605298474
30
0
0
SPLINE
5
1CA
100
AcDbEntity
8
1
62
256
6
ByLayer
370
-1
48
1
60
0
100
AcDbSpline
70
4
71
3
72
26
73
22
40
0
40
0
40
0
40
0
40
0.0625000000000015
40
0.0625000000000015
40
0.125000000000003
40
0.125000000000003
40
0.250000000000006
40
0.250000000000006
40
0.312500000000006
40
0.312500000000006
40
0.375000000000005
40
0.375000000000005
40
0.500000000000004
40
0.500000000000004
40
0.625000000000003
40
0.625000000000003
40
0.750000000000002
40
0.750000000000002
40
0.875000000000001
40
0.875000000000001
40
1
40
1
40
1
40
1
41
1
10
86.446470999789
20
1.54679393715904
30
0
41
1
10
86.4753186254824
20
1.55964928038219
30
0
41
1
10
86.5024104401313
20
1.5727299479436
30
0
41
1
10
86.5530017793637
20
1.5993522839151
30
0
41
1
10
86.5765748518209
20
1.61294925191353
30
0
41
1
10
86.6406305412006
20
1.65375001966461
30
0
41
1
10
86.6748639087792
20
1.68112072307983
30
0
41
1
10
86.7137682553545
20
1.72242684287971
30
0
41
1
10
86.7246516259597
20
1.73623743710871
30
0
41
1
10
86.7421647973825
20
1.76394409019667
30
0
41
1
10
86.7488064866895
20
1.77790486593236
30
0
41
1
10
86.7619356397204
20
1.81927571589671
30
0
41
1
10
86.7618121840494
20
1.84624860409824
30
0
41
1
10
86.7442880699502
20
1.89901155960584
30
0
41
1
10
86.7267032808559
20
1.92496741748752
30
0
41
1
10
86.6741525636223
20
1.97487070112467
30
0
41
1
10
86.6396540144851
20
1.99850552775064
30
0
41
1
10
86.5547569420384
20
2.04322904912092
30
0
41
1
10
86.504075797339
20
2.06441042007177
30
0
41
1
10
86.3873236186388
20
2.10369734096273
30
0
41
1
10
86.322131239358
20
2.12154783477007
30
0
41
1
10
86.2502601230843
20
2.1376415440605
30
0
0
SPLINE
5
1CB
100
AcDbEntity
8
1
62
256
6
ByLayer
370
-1
48
1
60
0
100
AcDbSpline
70
4
71
3
72
37
73
33
40
0
40
0
40
0
40
0
40
0.0514393586462218
40
0.102878717292444
40
0.128598396615555
40
0.154318075938666
40
0.180037755261776
40
0.205757434584887
40
0.257196793231109
40
0.28291647255422
40
0.308636151877331
40
0.334355831200442
40
0.360075510523553
40
0.385795189846664
40
0.411514869169775
40
0.437234548492886
40
0.462954227815997
40
0.514393586462218
40
0.540113265785329
40
0.552973105446885
40
0.56583294510844
40
0.617272303754662
40
0.668711662400884
40
0.720151021047106
40
0.771590379693328
40
0.797310059016439
40
0.82302973833955
40
0.84874941766266
40
0.874469096985771
40
0.925908455631993
40
0.977347814278215
40
1
40
1
40
1
40
1
41
1
10
10.3975494589388
20
4.25251069369165
30
0
41
1
10
10.303002721337
20
4.23109840975567
30
0
41
1
10
10.1100589725335
20
4.17705092853865
30
0
41
1
10
9.86213304418487
20
4.08042382293115
30
0
41
1
10
9.66174497823945
20
3.98554424239612
30
0
41
1
10
9.51097990331729
20
3.90569269708601
30
0
41
1
10
9.36029043910219
20
3.81724637998275
30
0
41
1
10
9.16023810166055
20
3.68816840315947
30
0
41
1
10
8.96263538734044
20
3.54283130786567
30
0
41
1
10
8.76976863178481
20
3.38268731861021
30
0
41
1
10
8.62802615545064
20
3.25565339725142
30
0
41
1
10
8.48973088039938
20
3.12217106403904
30
0
41
1
10
8.35536343395046
20
2.98280822235742
30
0
41
1
10
8.2254044434234
20
2.83813277559088
30
0
41
1
10
8.10025381437856
20
2.68877224764214
30
0
41
1
10
7.98031145237633
20
2.53535416241388
30
0
41
1
10
7.82774229326864
20
2.32626623254941
30
0
41
1
10
7.68681857076174
20
2.11170196856364
30
0
41
1
10
7.57431929716967
20
1.92128533613297
30
0
41
1
10
7.51331871296097
20
1.81228423328741
30
0
41
1
10
7.42392977478991
20
1.64653114937909
30
0
41
1
10
7.29807056667846
20
1.38948596594997
30
0
41
1
10
7.15147110823438
20
1.03268640553412
30
0
41
1
10
7.02941979830487
20
0.666452314554505
30
0
41
1
10
6.95049207117913
20
0.357731608591763
30
0
41
1
10
6.90205343365344
20
0.111413073281284
30
0
41
1
10
6.87322838294725
20
-0.0722943727924132
30
0
41
1
10
6.85205941502977
20
-0.254267922777586
30
0
41
1
10
6.8340906701365
20
-0.493685849890568
30
0
41
1
10
6.83095157828612
20
-0.785242475750692
30
0
41
1
10
6.85251782089853
20
-1.05578848373168
30
0
41
1
10
6.87519784230091
20
-1.2080334214813
30
0
41
1
10
6.8830301314762
20
-1.25383632056347
30
0
0
SPLINE
5
1CC
100
AcDbEntity
8
1
62
256
6
ByLayer
370
-1
48
1
60
0
100
AcDbSpline
70
4
71
3
72
22
73
18
40
0
40
0
40
0
40
0
40
0.125
40
0.125
40
0.25
40
0.25
40
0.375
40
0.375
40
0.5
40
0.5
40
0.625
40
0.625
40
0.75
40
0.75
40
0.875
40
0.875
40
1
40
1
40
1
40
1
41
1
10
86.8165620967845
20
2.15590527105604
30
0
41
1
10
86.8216951626635
20
2.15590527105604
30
0
41
1
10
86.816462184898
20
2.16201435279723
30
0
41
1
10
86.7908676801242
20
2.18469147889809
30
0
41
1
10
86.7713746557658
20
2.20068789692343
30
0
41
1
10
86.7254277049788
20
2.2406384051902
30
0
41
1
10
86.6990586669585
20
2.26453419061556
30
0
41
1
10
86.6444979771672
20
2.31849813679236
30
0
41
1
10
86.6160341911665
20
2.34876056207028
30
0
41
1
10
86.5584149100209
20
2.4165363113442
30
0
41
1
10
86.5294103809715
20
2.45392863368227
30
0
41
1
10
86.4737145974397
20
2.53424555881602
30
0
41
1
10
86.44677362288
20
2.57742868439578
30
0
41
1
10
86.3955175676242
20
2.67095849502979
30
0
41
1
10
86.3712982639987
20
2.72133982166005
30
0
41
1
10
86.328512979549
20
2.82518191531236
30
0
41
1
10
86.3096105131159
20
2.87919850182737
30
0
41
1
10
86.2934422100273
20
2.935611240518
30
0
0
SPLINE
5
1CD
100
AcDbEntity
8
1
62
256
6
ByLayer
370
-1
48
1
60
0
100
AcDbSpline
70
4
71
3
72
14
73
10
40
0
40
0
40
0
40
0
40
0.499999999999991
40
0.499999999999991
40
0.624999999999993
40
0.624999999999993
40
0.749999999999996
40
0.749999999999996
40
1
40
1
40
1
40
1
41
1
10
84.79270979193
20
0.615740776673675
30
0
41
1
10
84.3973852407096
20
0.592217363848647
30
0
41
1
10
84.0072658253482
20
0.617633012058633
30
0
41
1
10
83.5260924235407
20
0.710101425572191
30
0
41
1
10
83.4301869192287
20
0.731677785502995
30
0
41
1
10
83.2390559677456
20
0.781182893141818
30
0
41
1
10
83.143920091543
20
0.809111213012358
30
0
41
1
10
82.8627352423925
20
0.901630231813101
30
0
41
1
10
82.6798432888434
20
0.975174925989052
30
0
41
1
10
82.5016624896779
20
1.06082306172826
30
0
0
SPLINE
5
1CE
100
AcDbEntity
8
1
62
256
6
ByLayer
370
-1
48
1
60
0
100
AcDbSpline
70
4
71
4
72
19
73
14
40
0
40
0
40
0
40
0
40
0
40
0.390479143614601
40
0.390479143614601
40
0.390479143614601
40
0.585718715421902
40
0.585718715421902
40
0.585718715421902
40
0.780958287229203
40
0.780958287229203
40
0.780958287229203
40
1
40
1
40
1
40
1
40
1
41
1
10
14.8975494589401
20
1.78147605298435
30
0
41
1
10
14.8975494589401
20
1.51283955417418
30
0
41
0.974581796258695
10
14.8597327096243
20
0.905150326086567
30
0
41
0.974581796258695
10
14.7619466721284
20
-0.0971750784195314
30
0
41
0.987290898129347
10
14.5847738035192
20
-1.67943457171588
30
0
41
0.993645449064674
10
14.5218644395105
20
-2.20961223897953
30
0
41
1
10
14.4586367660677
20
-2.71431119416261
30
0
41
1
10
14.3413632339375
20
-3.61102006573552
30
0
41
0.993645449064674
10
14.2781355604947
20
-4.07323691286962
30
0
41
0.987290898129347
10
14.215226196486
20
-4.50510726764397
30
0
41
0.978301697493996
10
14.0903875883493
20
-5.29933142361886
30
0
41
0.976214995678437
10
14.0303604328243
20
-5.64068802411166
30
0
41
0.979785591636593
10
13.9833823545592
20
-5.85501848248241
30
0
41
0.985292998117017
10
13.9509587346409
20
-5.94729825148983
30
0
0
SPLINE
5
1CF
100
AcDbEntity
8
1
62
256
6
ByLayer
370
-1
48
1
60
0
100
AcDbSpline
70
4
71
3
72
12
73
8
40
0
40
0
40
0
40
0
40
0.5
40
0.5
40
0.75
40
0.75
40
1
40
1
40
1
40
1
41
1
10
81.1975494588863
20
-7.07501663556133
30
0
41
1
10
81.4371375020723
20
-7.08062682673534
30
0
41
1
10
81.6703082599836
20
-7.09006031777733
30
0
41
1
10
82.0109003798848
20
-7.10772514396854
30
0
41
1
10
82.1228943414986
20
-7.11419015675708
30
0
41
1
10
82.3437755986361
20
-7.12777640035512
30
0
41
1
10
82.4531687317035
20
-7.13493259943399
30
0
41
1
10
82.5596508277701
20
-7.14202561396076
30
0
0
SPLINE
5
1D0
100
AcDbEntity
8
1
62
256
6
ByLayer
370
-1
48
1
60
0
100
AcDbSpline
70
4
71
3
72
18
73
14
40
0
40
0
40
0
40
0
40
0.250000000000001
40
0.250000000000001
40
0.312500000000001
40
0.312500000000001
40
0.375000000000001
40
0.375000000000001
40
0.500000000000001
40
0.500000000000001
40
0.75
40
0.75
40
1
40
1
40
1
40
1
41
1
10
7.48610190038525
20
-3.49571924621574
30
0
41
1
10
7.75128176807422
20
-3.92904635869104
30
0
41
1
10
8.02729918562764
20
-4.30056055884322
30
0
41
1
10
8.38494065520788
20
-4.70109896261479
30
0
41
1
10
8.45709742649919
20
-4.77801957652667
30
0
41
1
10
8.60263006435943
20
-4.92586156508685
30
0
41
1
10
8.67614266114521
20
-4.99690154629425
30
0
41
1
10
8.89688596530928
20
-5.20023548610797
30
0
41
1
10
9.04462741321933
20
-5.32313380715811
30
0
41
1
10
9.48958773333806
20
-5.66160929404569
30
0
41
1
10
9.78914484912499
20
-5.84769832427188
30
0
41
1
10
10.3872285690551
20
-6.16921433509802
30
0
41
1
10
10.6863826403641
20
-6.30529735556058
30
0
41
1
10
10.9861019003854
20
-6.42453272323721
30
0
0
SPLINE
5
1D1
100
AcDbEntity
8
1
62
256
6
ByLayer
370
-1
48
1
60
0
100
AcDbSpline
70
4
71
3
72
8
73
4
40
0
40
0
40
0
40
0
40
1
40
1
40
1
40
1
41
1
10
14
20
3.14345443831624
30
0
41
1
10
14.3015531201521
20
3.06626434687317
30
0
41
1
10
14.6006842050112
20
2.98141865269375
30
0
41
1
10
14.8975494589374
20
2.88902486697216
30
0
0
SPLINE
5
1D2
100
AcDbEntity
8
1
62
256
6
ByLayer
370
-1
48
1
60
0
100
AcDbSpline
70
4
71
4
72
10
73
5
40
0
40
0
40
0
40
0
40
0
40
1
40
1
40
1
40
1
40
1
41
0.981516186810955
10
81.0899977476086
20
2.14732702878614
30
0
41
0.985418908181716
10
81.1268591349265
20
2.58860564172737
30
0
41
0.992331732403238
10
81.1512378839876
20
3.07412020870155
30
0
41
1
10
81.161633716567
20
3.56688546520576
30
0
41
1
10
81.161633716567
20
4.0199999999999
30
0
0
SPLINE
5
1D3
100
AcDbEntity
8
1
62
256
6
ByLayer
370
-1
48
1
60
0
100
AcDbSpline
70
4
71
3
72
52
73
48
40
0
40
0
40
0
40
0
40
0.0625000000000005
40
0.0625000000000005
40
0.125000000000001
40
0.125000000000001
40
0.187500000000002
40
0.187500000000002
40
0.250000000000002
40
0.250000000000002
40
0.312500000000003
40
0.312500000000003
40
0.343750000000003
40
0.343750000000003
40
0.375000000000003
40
0.375000000000003
40
0.437500000000002
40
0.437500000000002
40
0.468750000000002
40
0.468750000000002
40
0.500000000000002
40
0.500000000000002
40
0.531250000000001
40
0.531250000000001
40
0.562500000000001
40
0.562500000000001
40
0.625000000000001
40
0.625000000000001
40
0.656250000000001
40
0.656250000000001
40
0.687500000000001
40
0.687500000000001
40
0.718750000000001
40
0.718750000000001
40
0.750000000000001
40
0.750000000000001
40
0.812500000000001
40
0.812500000000001
40
0.84375
40
0.84375
40
0.875
40
0.875
40
0.9375
40
0.9375
40
0.96875
40
0.96875
40
1
40
1
40
1
40
1
41
1
10
10.3975494589377
20
4.40560442251913
30
0
41
1
10
10.2314099519774
20
4.48376158717505
30
0
41
1
10
10.0681382603866
20
4.55290832769956
30
0
41
1
10
9.74464324865286
20
4.67417916605797
30
0
41
1
10
9.584424138033
20
4.72629625379511
30
0
41
1
10
9.26442720938789
20
4.81243932702108
30
0
41
1
10
9.10465575536884
20
4.84648019440201
30
0
41
1
10
8.78286469715513
20
4.89328128603574
30
0
41
1
10
8.62259012143139
20
4.90575056101548
30
0
41
1
10
8.3024154103673
20
4.90462442361644
30
0
41
1
10
8.14234238397285
20
4.89109188622766
30
0
41
1
10
7.90128477531311
20
4.84615264749533
30
0
41
1
10
7.82043873744939
20
4.82692506083458
30
0
41
1
10
7.660512185654
20
4.7796365569622
30
0
41
1
10
7.58138960944231
20
4.75161025680779
30
0
41
1
10
7.34681862138891
20
4.65333555675721
30
0
41
1
10
7.19409401314778
20
4.56899219354841
30
0
41
1
10
6.97272423697308
20
4.40861120892637
30
0
41
1
10
6.90113607693706
20
4.35007486265349
30
0
41
1
10
6.76421670155119
20
4.22408806370865
30
0
41
1
10
6.69863135176755
20
4.15645757017819
30
0
41
1
10
6.57355052345739
20
4.01190466010539
30
0
41
1
10
6.51405421573628
20
3.93498375016381
30
0
41
1
10
6.40161276358174
20
3.77169667062333
30
0
41
1
10
6.34837897637806
20
3.68473183424862
30
0
41
1
10
6.20251790590257
20
3.41527954786625
30
0
41
1
10
6.1228870450839
20
3.22379058856802
30
0
41
1
10
6.02944740927296
20
2.92030408962799
30
0
41
1
10
6.00255810966499
20
2.81585260321862
30
0
41
1
10
5.95833629666006
20
2.60480486736944
30
0
41
1
10
5.94094038583683
20
2.49824032113375
30
0
41
1
10
5.91514601322376
20
2.28316355031214
30
0
41
1
10
5.90674914982026
20
2.17465084808501
30
0
41
1
10
5.89873599627262
20
1.95573146159356
30
0
41
1
10
5.89913510793767
20
1.84502352732977
30
0
41
1
10
5.91334473878052
20
1.51204182815346
30
0
41
1
10
5.93983397560936
20
1.29230988085769
30
0
41
1
10
6.00220221719752
20
0.965618424743496
30
0
41
1
10
6.02678471557041
20
0.857207712772777
30
0
41
1
10
6.08324252390639
20
0.641296242642682
30
0
41
1
10
6.11522711197844
20
0.533549950380007
30
0
41
1
10
6.21996874253625
20
0.216641362075649
30
0
41
1
10
6.30182586536318
20
0.0121694378434825
30
0
41
1
10
6.43939271670408
20
-0.285580954639187
30
0
41
1
10
6.48772193073887
20
-0.383332567208157
30
0
41
1
10
6.58887716397635
20
-0.57599600448026
30
0
41
1
10
6.64178675561263
20
-0.671014227386593
30
0
41
1
10
6.69596967929508
20
-0.763435205959411
30
0
0
SPLINE
5
1D4
100
AcDbEntity
8
1
62
256
6
ByLayer
370
-1
48
1
60
0
100
AcDbSpline
70
4
71
3
72
16
73
12
40
0
40
0
40
0
40
0
40
0.0346558442496296
40
0.227724675399704
40
0.420793506549778
40
0.517327922124815
40
0.613862337699852
40
0.710396753274889
40
0.806931168849926
40
0.903465584424963
40
1
40
1
40
1
40
1
41
0.999999999999999
10
25.6271706575831
20
0.834518336201911
30
0
41
0.999999999999999
10
25.5032193211285
20
0.846030391650204
30
0
41
0.999999999999999
10
24.688729491868
20
0.92162982797936
30
0
41
0.999999999999999
10
23.1836721368358
20
1.06069395002109
30
0
41
0.999999999999999
10
21.4574090758022
20
1.21737734196853
30
0
41
0.999999999999999
10
20.076516861805
20
1.33949462709163
30
0
41
0.999999999999999
10
19.0406442360193
20
1.42979829103246
30
0
41
0.999999999999999
10
18.0046186375619
20
1.51920986014517
30
0
41
0.999999999999999
10
16.9685062591547
20
1.60779202140071
30
0
41
0.999999999999999
10
15.9325444995532
20
1.69554091219004
30
0
41
0.999999999999999
10
15.2424206829003
20
1.7531006895473
30
0
41
0.999999999999999
10
14.8975494589402
20
1.78147605298435
30
0
0
SPLINE
5
1D5
100
AcDbEntity
8
1
62
256
6
ByLayer
370
-1
48
1
60
0
100
AcDbSpline
70
4
71
3
72
8
73
4
40
0
40
0
40
0
40
0
40
1
40
1
40
1
40
1
41
1
10
14.2004926967693
20
-6.41203115405423
30
0
41
1
10
15.8004634149564
20
-6.56851210824021
30
0
41
1
10
17.4001274824616
20
-6.70713449311751
30
0
41
1
10
19.0000000000001
20
-6.82668585075857
30
0
0
SPLINE
5
1D6
100
AcDbEntity
8
1
62
256
6
ByLayer
370
-1
48
1
60
0
100
AcDbSpline
70
4
71
3
72
12
73
8
40
0
40
0
40
0
40
0
40
0.499999999999994
40
0.499999999999994
40
0.749999999999997
40
0.749999999999997
40
1
40
1
40
1
40
1
41
1
10
82.6576887529832
20
4.0199999999999
30
0
41
1
10
82.5996838809009
20
4.14874698605075
30
0
41
1
10
82.5475749009205
20
4.28087635035439
30
0
41
1
10
82.4890226777258
20
4.48852727895905
30
0
41
1
10
82.472790673847
20
4.55985303774239
30
0
41
1
10
82.450422524844
20
4.70431152163744
30
0
41
1
10
82.4442952745456
20
4.77722082323339
30
0
41
1
10
82.4442952745456
20
4.85094564837917
30
0
0
SPLINE
5
1D7
100
AcDbEntity
8
1
62
256
6
ByLayer
370
-1
48
1
60
0
100
AcDbSpline
70
4
71
3
72
8
73
4
40
0
40
0
40
0
40
0
40
1
40
1
40
1
40
1
41
1
10
86.4918654315935
20
7.1991181562401
30
0
41
1
10
86.4952733138608
20
7.19973138289009
30
0
41
1
10
86.5024348132449
20
7.20000995185748
30
0
41
1
10
86.5132400234099
20
7.19999978767032
30
0
0
SPLINE
5
1D8
100
AcDbEntity
8
1
62
256
6
ByLayer
370
-1
48
1
60
0
100
AcDbSpline
70
4
71
3
72
12
73
8
40
0
40
0
40
0
40
0
40
0.225038764412818
40
0.225038764412818
40
0.612519382206409
40
0.612519382206409
40
1
40
1
40
1
40
1
41
1
10
86.5423679328576
20
7.1995415566895
30
0
41
1
10
86.5536864894403
20
7.19925812233271
30
0
41
1
10
86.5667302793875
20
7.19885367565712
30
0
41
1
10
86.6062796977529
20
7.19750876596467
30
0
41
1
10
86.636140061838
20
7.19638213689154
30
0
41
1
10
86.7040645637012
20
7.19394897835133
30
0
41
1
10
86.7415091609922
20
7.1926661713253
30
0
41
1
10
86.7824817062244
20
7.19147734711709
30
0
0
SPLINE
5
1D9
100
AcDbEntity
8
1
62
256
6
ByLayer
370
-1
48
1
60
0
100
AcDbSpline
70
4
71
3
72
24
73
20
40
0
40
0
40
0
40
0
40
0.125
40
0.125
40
0.1875
40
0.1875
40
0.25
40
0.25
40
0.3125
40
0.3125
40
0.374999999999999
40
0.374999999999999
40
0.5
40
0.5
40
0.75
40
0.75
40
0.875
40
0.875
40
1
40
1
40
1
40
1
41
1
10
10.9861019003854
20
-6.42453272323723
30
0
41
1
10
11.0764247639103
20
-6.44184799936929
30
0
41
1
10
11.171231620311
20
-6.4498414425652
30
0
41
1
10
11.3199338380193
20
-6.45158634680357
30
0
41
1
10
11.3705868522175
20
-6.45044802522563
30
0
41
1
10
11.4740642850486
20
-6.44523549557027
30
0
41
1
10
11.5269320311403
20
-6.44142342120162
30
0
41
1
10
11.6345857223689
20
-6.42962014778612
30
0
41
1
10
11.6894341942953
20
-6.42207076627693
30
0
41
1
10
11.8020295683869
20
-6.40875575707832
30
0
41
1
10
11.8596669350627
20
-6.40230630089232
30
0
41
1
10
12.0367305168819
20
-6.38381615909742
30
0
41
1
10
12.1607861951791
20
-6.37260816220166
30
0
41
1
10
12.5428252995468
20
-6.34500885188217
30
0
41
1
10
12.8125176227556
20
-6.33424657988905
30
0
41
1
10
13.2415021785816
20
-6.33791814447235
30
0
41
1
10
13.3888691824309
20
-6.34248688193554
30
0
41
1
10
13.6914696960862
20
-6.36018847279735
30
0
41
1
10
13.8447505371272
20
-6.37320289585375
30
0
41
1
10
14
20
-6.39116123673458
30
0
0
SPLINE
5
1DA
100
AcDbEntity
8
1
62
256
6
ByLayer
370
-1
48
1
60
0
100
AcDbSpline
70
4
71
3
72
16
73
12
40
0
40
0
40
0
40
0
40
0.25
40
0.25
40
0.374999999999999
40
0.374999999999999
40
0.499999999999999
40
0.499999999999999
40
0.75
40
0.75
40
1
40
1
40
1
40
1
41
1
10
19
20
-6.82668585075902
30
0
41
1
10
21.8338984767878
20
-7.02441571625252
30
0
41
1
10
24.6656276288686
20
-7.16136657838825
30
0
41
1
10
28.9145449140715
20
-7.27110351494238
30
0
41
1
10
30.3310759959197
20
-7.29180024466871
30
0
41
1
10
33.1652966914137
20
-7.30146738333107
30
0
41
1
10
34.5831118834158
20
-7.29043318489769
30
0
41
1
10
38.833890500588
20
-7.21049547163841
30
0
41
1
10
41.6659542137418
20
-7.09474502876117
30
0
41
1
10
47.3310897978284
20
-6.74481848827119
30
0
41
1
10
50.1639580500951
20
-6.51010693168348
30
0
41
1
10
53
20
-6.22150906294829
30
0
0
SPLINE
5
1DB
100
AcDbEntity
8
1
62
256
6
ByLayer
370
-1
48
1
60
0
100
AcDbSpline
70
4
71
3
72
22
73
18
40
0
40
0
40
0
40
0
40
0.146904074029207
40
0.146904074029207
40
0.317523259223366
40
0.317523259223366
40
0.488142444417524
40
0.488142444417524
40
0.658761629611683
40
0.658761629611683
40
0.744071222208762
40
0.744071222208762
40
0.829380814805841
40
0.829380814805841
40
0.914690407402921
40
0.914690407402921
40
1
40
1
40
1
40
1
41
1
10
60.0004311036685
20
-5.25487939972896
30
0
41
1
10
57.7573581664942
20
-5.5267755367334
30
0
41
1
10
55.5140469120741
20
-5.77164543344693
30
0
41
1
10
50.6676025115624
20
-6.23187719117806
30
0
41
1
10
48.0645604268563
20
-6.43537912661299
30
0
41
1
10
42.8565373963377
20
-6.73852941066249
30
0
41
1
10
40.2506508315739
20
-6.83914097644569
30
0
41
1
10
35.0401406815112
20
-6.93844533974493
30
0
41
1
10
32.4344706879727
20
-6.93704474870412
30
0
41
1
10
28.5272527607093
20
-6.85674566272886
30
0
41
1
10
27.2249695934227
20
-6.8172790604109
30
0
41
1
10
24.6201088156026
20
-6.71424837563333
30
0
41
1
10
23.3173431355297
20
-6.65075927383612
30
0
41
1
10
20.7124149746338
20
-6.49843248278577
30
0
41
1
10
19.410235268176
20
-6.40848744095041
30
0
41
1
10
16.8056792678689
20
-6.2047354898562
30
0
41
1
10
15.5032418870703
20
-6.09265079772609
30
0
41
1
10
14.2004926967694
20
-5.96971771693978
30
0
0
SPLINE
5
1DC
100
AcDbEntity
8
1
62
256
6
ByLayer
370
-1
48
1
60
0
100
AcDbSpline
70
4
71
3
72
16
73
12
40
0
40
0
40
0
40
0
40
0.25
40
0.25
40
0.499999999999999
40
0.499999999999999
40
0.749999999999999
40
0.749999999999999
40
0.874999999999999
40
0.874999999999999
40
1
40
1
40
1
40
1
41
1
10
53
20
-4.20290922538945
30
0
41
1
10
55.3505094657327
20
-4.57506180785089
30
0
41
1
10
57.699556146109
20
-4.92093926534412
30
0
41
1
10
62.398123647262
20
-5.5476640806192
30
0
41
1
10
64.7476085814084
20
-5.82874807977248
30
0
41
1
10
69.4494338048757
20
-6.31862651376238
30
0
41
1
10
71.7988867551331
20
-6.52682987543167
30
0
41
1
10
75.3227682831902
20
-6.77887188434224
30
0
41
1
10
76.4974990460215
20
-6.85259801574369
30
0
41
1
10
78.8473175992344
20
-6.97934249576755
30
0
41
1
10
80.0221452774015
20
-7.03264725905427
30
0
41
1
10
81.1975494589266
20
-7.07501663556226
30
0
0
SPLINE
5
1DD
100
AcDbEntity
8
1
62
256
6
ByLayer
370
-1
48
1
60
0
100
AcDbSpline
70
4
71
3
72
24
73
20
40
0
40
0
40
0
40
0
40
0.125000000000004
40
0.125000000000004
40
0.250000000000007
40
0.250000000000007
40
0.375000000000011
40
0.375000000000011
40
0.437500000000015
40
0.437500000000015
40
0.500000000000018
40
0.500000000000018
40
0.562500000000022
40
0.562500000000022
40
0.625000000000026
40
0.625000000000026
40
0.75000000000003
40
0.75000000000003
40
1
40
1
40
1
40
1
41
1
10
90.7782638871145
20
-4.76231056816223
30
0
41
1
10
90.7449200429439
20
-4.77261083826644
30
0
41
1
10
90.7119421994078
20
-4.78376262315999
30
0
41
1
10
90.6481136236031
20
-4.80845212925988
30
0
41
1
10
90.6171451175895
20
-4.82195367751262
30
0
41
1
10
90.5589090141713
20
-4.85346853313078
30
0
41
1
10
90.5314134865632
20
-4.87142753989141
30
0
41
1
10
90.500385002672
20
-4.90432942070535
30
0
41
1
10
90.4919579682452
20
-4.9162546035748
30
0
41
1
10
90.4817830640019
20
-4.94184667679161
30
0
41
1
10
90.4802968231506
20
-4.9550427692779
30
0
41
1
10
90.485030197933
20
-4.9813900681005
30
0
41
1
10
90.4910903667189
20
-4.99392208337224
30
0
41
1
10
90.507721187907
20
-5.0171583462928
30
0
41
1
10
90.5181043378892
20
-5.02775050158778
30
0
41
1
10
90.5530917939999
20
-5.05762046045663
30
0
41
1
10
90.5805342446333
20
-5.07435071633637
30
0
41
1
10
90.6668640802948
20
-5.1197576957693
30
0
41
1
10
90.7308057291561
20
-5.14404720044962
30
0
41
1
10
90.7952550920628
20
-5.16559042860166
30
0
0
SPLINE
5
1DE
100
AcDbEntity
8
1
62
256
6
ByLayer
370
-1
48
1
60
0
100
AcDbSpline
70
4
71
3
72
14
73
10
40
0
40
0
40
0
40
0
40
0.307510070495707
40
0.307510070495707
40
0.615020140991414
40
0.615020140991414
40
0.922530211487121
40
0.922530211487121
40
1
40
1
40
1
40
1
41
1
10
90.7867775131284
20
2.2694152727093
30
0
41
1
10
90.7902863391457
20
2.26944958785549
30
0
41
1
10
90.7937737305908
20
2.27510687695244
30
0
41
1
10
90.800594752184
20
2.29726807608148
30
0
41
1
10
90.8039478628554
20
2.31405463110519
30
0
41
1
10
90.8099997908982
20
2.35705340280143
30
0
41
1
10
90.8127720851902
20
2.38360521338785
30
0
41
1
10
90.815627164291
20
2.42242997549607
30
0
41
1
10
90.816170171141
20
2.43048718685802
30
0
41
1
10
90.8166747392469
20
2.43878942865339
30
0
0
SPLINE
5
1DF
100
AcDbEntity
8
1
62
256
6
ByLayer
370
-1
48
1
60
0
100
AcDbSpline
70
4
71
3
72
18
73
14
40
0
40
0
40
0
40
0
40
0.125
40
0.125
40
0.25
40
0.25
40
0.375
40
0.375
40
0.5
40
0.5
40
0.75
40
0.75
40
1
40
1
40
1
40
1
41
1
10
82.8144756924021
20
3.5299591277641
30
0
41
1
10
82.8014113317067
20
3.47999189407497
30
0
41
1
10
82.7929931513307
20
3.4280184647757
30
0
41
1
10
82.7846565742711
20
3.32631067772664
30
0
41
1
10
82.784571088982
20
3.27544973118037
30
0
41
1
10
82.790628363442
20
3.17775853454549
30
0
41
1
10
82.7966889355795
20
3.13073399223325
30
0
41
1
10
82.8134536983428
20
3.03973325560347
30
0
41
1
10
82.8242715866767
20
2.99551182253038
30
0
41
1
10
82.8616354538753
20
2.87047321800196
30
0
41
1
10
82.8930146438877
20
2.79605525540757
30
0
41
1
10
82.9659581955629
20
2.66298957479668
30
0
41
1
10
83.0068279153394
20
2.60595950746316
30
0
41
1
10
83.0513408865774
20
2.55922615394596
30
0
0
SPLINE
5
1E0
100
AcDbEntity
8
1
62
256
6
ByLayer
370
-1
48
1
60
0
100
AcDbSpline
70
4
71
3
72
8
73
4
40
0
40
0
40
0
40
0
40
1
40
1
40
1
40
1
41
1
10
85.2642891694428
20
-7.18424013161004
30
0
41
1
10
85.5806661424967
20
-7.18762523981249
30
0
41
1
10
85.8864709551228
20
-7.19317848464306
30
0
41
1
10
86.1816829267599
20
-7.19686212328361
30
0
0
SPLINE
5
1E1
100
AcDbEntity
8
1
62
256
6
ByLayer
370
-1
48
1
60
0
100
AcDbSpline
70
4
71
3
72
10
73
6
40
0
40
0
40
0
40
0
40
0.5
40
0.5
40
1
40
1
40
1
40
1
41
1
10
84.9444900747392
20
1.13789662305444
30
0
41
1
10
84.7512921524977
20
1.11882600627229
30
0
41
1
10
84.5582473635662
20
1.11408657853943
30
0
41
1
10
84.1726458221666
20
1.13265718240226
30
0
41
1
10
83.9800867311981
20
1.15596533912336
30
0
41
1
10
83.7878039894746
20
1.19404594071003
30
0
0
SPLINE
5
1E2
100
AcDbEntity
8
1
62
256
6
ByLayer
370
-1
48
1
60
0
100
AcDbSpline
70
4
71
3
72
8
73
4
40
0
40
0
40
0
40
0
40
1
40
1
40
1
40
1
41
1
10
14.8975494589377
20
2.88902486697211
30
0
41
1
10
16.2650177505549
20
2.63877303355923
30
0
41
1
10
17.6322989597687
20
2.38248557044418
30
0
41
1
10
19
20
2.12310208079407
30
0
0
SPLINE
5
1E3
100
AcDbEntity
8
1
62
256
6
ByLayer
370
-1
48
1
60
0
100
AcDbSpline
70
4
71
3
72
10
73
6
40
0
40
0
40
0
40
0
40
0.500000000000001
40
0.500000000000001
40
1
40
1
40
1
40
1
41
1
10
8.2004435012224
20
-2.98530932777183
30
0
41
1
10
8.09173532089787
20
-2.91508789011246
30
0
41
1
10
7.98521857701752
20
-2.82832621107681
30
0
41
1
10
7.77598838061135
20
-2.62316252505761
30
0
41
1
10
7.67327678791656
20
-2.50476361269284
30
0
41
1
10
7.57239183828818
20
-2.36968989035754
30
0
0
SPLINE
5
1E4
100
AcDbEntity
8
1
62
256
6
ByLayer
370
-1
48
1
60
0
100
AcDbSpline
70
4
71
3
72
14
73
10
40
0
40
0
40
0
40
0
40
0.499999999999999
40
0.499999999999999
40
0.749999999999999
40
0.749999999999999
40
0.875
40
0.875
40
1
40
1
40
1
40
1
41
1
10
7.48610190038528
20
-2.25256140209564
30
0
41
1
10
7.29358071844501
20
-2.00496988175442
30
0
41
1
10
7.13329798671504
20
-1.74957061202628
30
0
41
1
10
6.9357042350307
20
-1.37040578765112
30
0
41
1
10
6.87707705239788
20
-1.24470524693186
30
0
41
1
10
6.80033398545527
20
-1.06001226339717
30
0
41
1
10
6.77662717702691
20
-0.999100141562479
30
0
41
1
10
6.73314215638868
20
-0.879195862115637
30
0
41
1
10
6.7133782717402
20
-0.820196661108866
30
0
41
1
10
6.69596967929451
20
-0.763435205957506
30
0
0
SPLINE
5
1E5
100
AcDbEntity
8
1
62
256
6
ByLayer
370
-1
48
1
60
0
100
AcDbSpline
70
4
71
3
72
12
73
8
40
0
40
0
40
0
40
0
40
0.5
40
0.5
40
0.75
40
0.75
40
1
40
1
40
1
40
1
41
1
10
88.5439049827206
20
2.30562292449312
30
0
41
1
10
88.5009615061529
20
2.27044556628934
30
0
41
1
10
88.4594018025765
20
2.24121565352721
30
0
41
1
10
88.4071616046564
20
2.20855112931051
30
0
41
1
10
88.3919075129243
20
2.19981149853919
30
0
41
1
10
88.3682054079418
20
2.18755307306211
30
0
41
1
10
88.3601686254876
20
2.18424665859396
30
0
41
1
10
88.3570979731762
20
2.18424665859396
30
0
0
SPLINE
5
1E6
100
AcDbEntity
8
1
62
256
6
ByLayer
370
-1
48
1
60
0
100
AcDbSpline
70
4
71
3
72
8
73
4
40
0
40
0
40
0
40
0
40
1
40
1
40
1
40
1
41
1
10
14.2004926967427
20
-6.41203115405148
30
0
41
1
10
14.1333636501764
20
-6.40580633278796
30
0
41
1
10
14.0665325073243
20
-6.39885732420615
30
0
41
1
10
13.9999999999998
20
-6.39116123673455
30
0
0
SPLINE
5
1E7
100
AcDbEntity
8
1
62
256
6
ByLayer
370
-1
48
1
60
0
100
AcDbSpline
70
4
71
3
72
14
73
10
40
0
40
0
40
0
40
0
40
0.25
40
0.25
40
0.5
40
0.5
40
0.75
40
0.75
40
1
40
1
40
1
40
1
41
1
10
84.9444900747395
20
1.13789662305444
30
0
41
1
10
85.0354580783371
20
1.14687609817469
30
0
41
1
10
85.1247100988458
20
1.15769644067234
30
0
41
1
10
85.2997031728825
20
1.18310361067523
30
0
41
1
10
85.3851350660408
20
1.19769646609575
30
0
41
1
10
85.5459500816023
20
1.22959751711343
30
0
41
1
10
85.6221929480054
20
1.2470209549241
30
0
41
1
10
85.7661217091627
20
1.28489418207624
30
0
41
1
10
85.8334938374134
20
1.30530300631332
30
0
41
1
10
85.8945507529911
20
1.32673830446475
30
0
0
SPLINE
5
1E8
100
AcDbEntity
8
1
62
256
6
ByLayer
370
-1
48
1
60
0
100
AcDbSpline
70
4
71
3
72
14
73
10
40
0
40
0
40
0
40
0
40
0.31571296630706
40
0.31571296630706
40
0.657856483153529
40
0.657856483153529
40
0.828928241576764
40
0.828928241576764
40
1
40
1
40
1
40
1
41
1
10
60.5835608330953
20
5.77137140134946
30
0
41
1
10
62.7486172028662
20
6.02282831800682
30
0
41
1
10
64.9139741440247
20
6.24411198733884
30
0
41
1
10
69.4287095364056
20
6.63692274852761
30
0
41
1
10
71.7752325911634
20
6.8028329120863
30
0
41
1
10
75.2945592673599
20
6.98946627288962
30
0
41
1
10
76.4677280063992
20
7.0411599774657
30
0
41
1
10
78.8143902299414
20
7.1233117926389
30
0
41
1
10
79.9877258039748
20
7.15384325696553
30
0
41
1
10
81.1616337166037
20
7.17342462124051
30
0
0
SPLINE
5
1E9
100
AcDbEntity
8
SK1
62
256
6
ByLayer
370
-1
48
1
60
0
100
AcDbSpline
70
4
71
3
72
70
73
66
40
0
40
0
40
0
40
0
40
0.015625
40
0.015625
40
0.0312499999999999
40
0.0312499999999999
40
0.0468749999999999
40
0.0468749999999999
40
0.0624999999999998
40
0.0624999999999998
40
0.0937499999999997
40
0.0937499999999997
40
0.125
40
0.125
40
0.156249999999999
40
0.156249999999999
40
0.187499999999999
40
0.187499999999999
40
0.249999999999999
40
0.249999999999999
40
0.281249999999999
40
0.281249999999999
40
0.312499999999999
40
0.312499999999999
40
0.374999999999999
40
0.374999999999999
40
0.406249999999999
40
0.406249999999999
40
0.437499999999999
40
0.437499999999999
40
0.499999999999999
40
0.499999999999999
40
0.562499999999999
40
0.562499999999999
40
0.593749999999999
40
0.593749999999999
40
0.624999999999999
40
0.624999999999999
40
0.687499999999999
40
0.687499999999999
40
0.749999999999999
40
0.749999999999999
40
0.781249999999999
40
0.781249999999999
40
0.812499999999999
40
0.812499999999999
40
0.828124999999999
40
0.828124999999999
40
0.843749999999999
40
0.843749999999999
40
0.874999999999999
40
0.874999999999999
40
0.890624999999999
40
0.890624999999999
40
0.906249999999999
40
0.906249999999999
40
0.9375
40
0.9375
40
0.953125
40
0.953125
40
0.96875
40
0.96875
40
0.984375
40
0.984375
40
1
40
1
40
1
40
1
41
1
10
-6.5
20
-5.92285193129121
30
0
41
1
10
-6.4207001561935
20
-5.92285193129121
30
0
41
1
10
-6.34086123714724
20
-5.9185668895135
30
0
41
1
10
-6.18144914173817
20
-5.90119679294747
30
0
41
1
10
-6.10329779169277
20
-5.88829240949369
30
0
41
1
10
-5.94990088501589
20
-5.85451305048375
30
0
41
1
10
-5.87465633133542
20
-5.83363525531988
30
0
41
1
10
-5.72696960000087
20
-5.78406116811425
30
0
41
1
10
-5.65429253457478
20
-5.75520748082337
30
0
41
1
10
-5.44519110301013
20
-5.65925614820594
30
0
41
1
10
-5.31596620096835
20
-5.58241846129397
30
0
41
1
10
-5.07484414087321
20
-5.40540504402466
30
0
41
1
10
-4.96593256698816
20
-5.30735528286371
30
0
41
1
10
-4.76784635237644
20
-5.09639651205995
30
0
41
1
10
-4.67840953317994
20
-4.983217129438
30
0
41
1
10
-4.51537314962405
20
-4.74292412211906
30
0
41
1
10
-4.44295328505657
20
-4.61746994914878
30
0
41
1
10
-4.24868198160985
20
-4.23068443115997
30
0
41
1
10
-4.14844766983134
20
-3.95746366364494
30
0
41
1
10
-4.0262637687357
20
-3.52851959599104
30
0
41
1
10
-3.99045707400202
20
-3.38261304841748
30
0
41
1
10
-3.92745056712241
20
-3.08915292017716
30
0
41
1
10
-3.90009723356329
20
-2.94105776320953
30
0
41
1
10
-3.8278752392381
20
-2.49297350515943
30
0
41
1
10
-3.79269532434782
20
-2.18920722447757
30
0
41
1
10
-3.75266975157555
20
-1.72668593189553
30
0
41
1
10
-3.74149452812992
20
-1.57136096042274
30
0
41
1
10
-3.7227914524648
20
-1.25845966931755
30
0
41
1
10
-3.71525523181913
20
-1.10051711083781
30
0
41
1
10
-3.69757555686806
20
-0.627542985956865
30
0
41
1
10
-3.69216291533115
20
-0.312549998346725
30
0
41
1
10
-3.69221342580033
20
0.316814481428594
30
0
41
1
10
-3.69767917852337
20
0.631185932377917
30
0
41
1
10
-3.71533699604186
20
1.10226412810465
30
0
41
1
10
-3.72282689544929
20
1.25921004505511
30
0
41
1
10
-3.74159811083336
20
1.57293530507485
30
0
41
1
10
-3.75286596385365
20
1.72931583567794
30
0
41
1
10
-3.7931360613473
20
2.19356375631057
30
0
41
1
10
-3.82851600359484
20
2.49788201632404
30
0
41
1
10
-3.92509289084615
20
3.09518912355421
30
0
41
1
10
-3.98613026108981
20
3.38819589012314
30
0
41
1
10
-4.10872562486918
20
3.81772380638489
30
0
41
1
10
-4.15457050303766
20
3.95816262372668
30
0
41
1
10
-4.25798900802536
20
4.23138581985137
30
0
41
1
10
-4.31562107045932
20
4.36443286751282
30
0
41
1
10
-4.41324202900785
20
4.55806429666799
30
0
41
1
10
-4.44765197842653
20
4.62161604232489
30
0
41
1
10
-4.52071677173481
20
4.74659993544324
30
0
41
1
10
-4.55949059300505
20
4.80819083961242
30
0
41
1
10
-4.68167362759087
20
4.98750932801642
30
0
41
1
10
-4.77111361192291
20
5.10028531412462
30
0
41
1
10
-4.91992617419712
20
5.25814375735854
30
0
41
1
10
-4.97198266212237
20
5.3088730991264
30
0
41
1
10
-5.08163619478131
20
5.40624856211491
30
0
41
1
10
-5.13955477027798
20
5.4531151519183
30
0
41
1
10
-5.31981523628792
20
5.58481269193101
30
0
41
1
10
-5.44864000404647
20
5.66109472307599
30
0
41
1
10
-5.65716976919146
20
5.75639550475049
30
0
41
1
10
-5.7298085887667
20
5.78512422111541
30
0
41
1
10
-5.87748335724046
20
5.83446980910264
30
0
41
1
10
-5.95248390556498
20
5.85515796054099
30
0
41
1
10
-6.10485268754977
20
5.88855660979888
30
0
41
1
10
-6.18222037802389
20
5.90126892263172
30
0
41
1
10
-6.3394359509619
20
5.91842344284453
30
0
41
1
10
-6.41995776294141
20
5.92285193129121
30
0
41
1
10
-6.5
20
5.92285193129121
30
0
0
SPLINE
5
1EA
100
AcDbEntity
8
SK1
62
256
6
ByLayer
370
-1
48
1
60
0
100
AcDbSpline
70
4
71
3
72
20
73
16
40
0
40
0
40
0
40
0
40
0.249999999999993
40
0.249999999999993
40
0.374999999999994
40
0.374999999999994
40
0.499999999999995
40
0.499999999999995
40
0.624999999999996
40
0.624999999999996
40
0.749999999999998
40
0.749999999999998
40
0.874999999999999
40
0.874999999999999
40
1
40
1
40
1
40
1
41
1
10
-48.516222729729
20
5.74651411012826
30
0
41
1
10
-48.4762911096295
20
5.66161871277322
30
0
41
1
10
-48.4283722366634
20
5.57893837743811
30
0
41
1
10
-48.3426850116238
20
5.46624297823843
30
0
41
1
10
-48.3114261194144
20
5.43013690581458
30
0
41
1
10
-48.2441155430023
20
5.36414748183782
30
0
41
1
10
-48.2081109043675
20
5.33418916709314
30
0
41
1
10
-48.1299068985677
20
5.28227885986365
30
0
41
1
10
-48.0869527159662
20
5.26011190276751
30
0
41
1
10
-47.9975349560404
20
5.22932367138964
30
0
41
1
10
-47.9502203463448
20
5.22040015827844
30
0
41
1
10
-47.8545747664299
20
5.21866533516589
30
0
41
1
10
-47.8075489790091
20
5.22575417310171
30
0
41
1
10
-47.7170288270798
20
5.25356891952413
30
0
41
1
10
-47.6737128978907
20
5.27430314624814
30
0
41
1
10
-47.6338144512151
20
5.29932072668754
30
0
0
SPLINE
5
1EB
100
AcDbEntity
8
SK1
62
256
6
ByLayer
370
-1
48
1
60
0
100
AcDbSpline
70
4
71
3
72
8
73
4
40
0
40
0
40
0
40
0
40
1
40
1
40
1
40
1
41
1
10
-48.516222729729
20
-5.74651411012815
30
0
41
1
10
-48.5439308119344
20
-5.80542202928857
30
0
41
1
10
-48.5718597554103
20
-5.8641994196619
30
0
41
1
10
-48.6
20
-5.92285193129118
30
0
0
SPLINE
5
1EC
100
AcDbEntity
8
SK1
62
256
6
ByLayer
370
-1
48
1
60
0
100
AcDbSpline
70
4
71
3
72
8
73
4
40
0
40
0
40
0
40
0
40
1
40
1
40
1
40
1
41
1
10
-47.6338144512151
20
5.29932072668754
30
0
41
1
10
-47.2923417749157
20
5.5134348303427
30
0
41
1
10
-46.94738484153
20
5.72075834496087
30
0
41
1
10
-46.6000000000004
20
5.92285193129214
30
0
0
SPLINE
5
1ED
100
AcDbEntity
8
SK1
62
256
6
ByLayer
370
-1
48
1
60
0
100
AcDbSpline
70
4
71
3
72
8
73
4
40
0
40
0
40
0
40
0
40
1
40
1
40
1
40
1
41
1
10
-48.6
20
5.92285193129126
30
0
41
1
10
-48.5718597554103
20
5.86419941966201
30
0
41
1
10
-48.5439308119344
20
5.80542202928868
30
0
41
1
10
-48.516222729729
20
5.74651411012826
30
0
0
SPLINE
5
1EE
100
AcDbEntity
8
SK1
62
256
6
ByLayer
370
-1
48
1
60
0
100
AcDbSpline
70
4
71
3
72
8
73
4
40
0
40
0
40
0
40
0
40
1
40
1
40
1
40
1
41
1
10
-46.6000000000004
20
-5.92285193129203
30
0
41
1
10
-46.94738484153
20
-5.72075834496076
30
0
41
1
10
-47.2923417749157
20
-5.51343483034259
30
0
41
1
10
-47.6338144512151
20
-5.29932072668743
30
0
0
SPLINE
5
1EF
100
AcDbEntity
8
SK1
62
256
6
ByLayer
370
-1
48
1
60
0
100
AcDbSpline
70
4
71
3
72
20
73
16
40
0
40
0
40
0
40
0
40
0.124999999999999
40
0.124999999999999
40
0.249999999999997
40
0.249999999999997
40
0.374999999999996
40
0.374999999999996
40
0.499999999999994
40
0.499999999999994
40
0.624999999999993
40
0.624999999999993
40
0.749999999999992
40
0.749999999999992
40
1
40
1
40
1
40
1
41
1
10
-47.633814451215
20
-5.29932072668728
30
0
41
1
10
-47.6738922636715
20
-5.27419067826415
30
0
41
1
10
-47.7166430277408
20
-5.2536833095611
30
0
41
1
10
-47.8080113883237
20
-5.22561624608014
30
0
41
1
10
-47.8558086398442
20
-5.21864267878075
30
0
41
1
10
-47.9498238136525
20
-5.22043840528849
30
0
41
1
10
-47.9974643733847
20
-5.22930496216131
30
0
41
1
10
-48.0869190094971
20
-5.26009470978795
30
0
41
1
10
-48.1294303248595
20
-5.28196037105604
30
0
41
1
10
-48.2086279314314
20
-5.33453450915434
30
0
41
1
10
-48.2447916817791
20
-5.36473843771279
30
0
41
1
10
-48.3120993158946
20
-5.43087025673137
30
0
41
1
10
-48.3433839743252
20
-5.46708425266206
30
0
41
1
10
-48.4290137419149
20
-5.57994089637941
30
0
41
1
10
-48.4760766654538
20
-5.66116280030394
30
0
41
1
10
-48.5162227297291
20
-5.74651411012809
30
0
0
SPLINE
5
1F0
100
AcDbEntity
8
SK1
62
256
6
ByLayer
370
-1
48
1
60
0
100
AcDbSpline
70
4
71
3
72
8
73
4
40
0
40
0
40
0
40
0
40
1
40
1
40
1
40
1
41
1
10
-49
20
-5.92285193129115
30
0
41
1
10
-49.3676239342109
20
-5.30236629245442
30
0
41
1
10
-49.7070222547918
20
-4.66800398302257
30
0
41
1
10
-50
20
-4.01081974164879
30
0
0
SPLINE
5
1F1
100
AcDbEntity
8
SK1
62
256
6
ByLayer
370
-1
48
1
60
0
100
AcDbSpline
70
4
71
3
72
8
73
4
40
0
40
0
40
0
40
0
40
1
40
1
40
1
40
1
41
1
10
-50
20
4.0108197416489
30
0
41
1
10
-49.7054172377832
20
4.67160422878337
30
0
41
1
10
-49.3659298245044
20
5.30522565672777
30
0
41
1
10
-49
20
5.92285193129126
30
0
0
SPLINE
5
1F2
100
AcDbEntity
8
1
62
256
6
ByLayer
370
-1
48
1
60
0
100
AcDbSpline
70
4
71
3
72
14
73
10
40
0
40
0
40
0
40
0
40
0.185621159235335
40
0.627925247419619
40
0.738501269465691
40
0.849077291511762
40
0.904365302534797
40
0.959653313557833
40
1
40
1
40
1
40
1
41
1
10
91.6963340649178
20
6.83988608021562
30
0
41
1
10
91.6961990785069
20
6.84248282952686
30
0
41
1
10
91.6957000124368
20
6.85126519479255
30
0
41
1
10
91.6949407658487
20
6.86158450302571
30
0
41
1
10
91.6941288173426
20
6.87084306816863
30
0
41
1
10
91.6937668169022
20
6.87469832776037
30
0
41
1
10
91.69346177579
20
6.87778077577409
30
0
41
1
10
91.6932480826224
20
6.87988379809769
30
0
41
1
10
91.69311047049
20
6.88121623892624
30
0
41
1
10
91.6930521629315
20
6.88177835419467
30
0
0
SPLINE
5
1F3
100
AcDbEntity
8
1
62
256
6
ByLayer
370
-1
48
1
60
0
100
AcDbSpline
70
4
71
1
72
4
73
2
40
0
40
0
40
1
40
1
41
1
10
91.1589080620348
20
2.51437188414604
30
0
41
1
10
89.3668499442784
20
2.45155279008156
30
0
0
SPLINE
5
1F4
100
AcDbEntity
8
1
62
256
6
ByLayer
370
-1
48
1
60
0
100
AcDbSpline
70
4
71
3
72
25
73
21
40
0
40
0
40
0
40
0
40
0.0031159645604224
40
0.0146460991233965
40
0.0204111664048835
40
0.0607666373752926
40
0.106887175627189
40
0.199128252130981
40
0.291369328634773
40
0.383610405138566
40
0.752574711153735
40
0.844815787657527
40
0.931291796879833
40
0.93705686416132
40
0.948586998724294
40
0.960117133287268
40
0.977412335131729
40
0.983177402413216
40
0.99470753697619
40
1
40
1
40
1
40
1
41
1
10
91.2143991174136
20
2.51826848019056
30
0
41
1
10
91.2146064897568
20
2.51829015532786
30
0
41
1
10
91.2155811982803
20
2.5183921984879
30
0
41
1
10
91.2169395131504
20
2.51853525277343
30
0
41
1
10
91.2207760440153
20
2.51893939730962
30
0
41
1
10
91.2269145467588
20
2.51958640758778
30
0
41
1
10
91.2388078319477
20
2.5208409821262
30
0
41
1
10
91.2541532664279
20
2.52246092835878
30
0
41
1
10
91.2725646580093
20
2.52440378322331
30
0
41
1
10
91.30940035973
20
2.52829017858485
30
0
41
1
10
91.3463163032142
20
2.53218540518179
30
0
41
1
10
91.3826133054769
20
2.53601425892751
30
0
41
1
10
91.3949095587839
20
2.5373116705384
30
0
41
1
10
91.4018738443832
20
2.53804670806787
30
0
41
1
10
91.4038109445422
20
2.53825116871039
30
0
41
1
10
91.4065149227512
20
2.53853653732784
30
0
41
1
10
91.4088104041386
20
2.53877869415081
30
0
41
1
10
91.41107169396
20
2.53901708792373
30
0
41
1
10
91.4125288987659
20
2.53917062197533
30
0
41
1
10
91.4136003486866
20
2.5392847316291
30
0
41
1
10
91.4139360735187
20
2.53932066705292
30
0
0
SPLINE
5
1F5
100
AcDbEntity
8
1
62
256
6
ByLayer
370
-1
48
1
60
0
100
AcDbSpline
70
4
71
1
72
4
73
2
40
0
40
0
40
1
40
1
41
1
10
87.387873297253
20
7.36567386894575
30
0
41
1
10
87.4016378167564
20
7.36615637263068
30
0
0
SPLINE
5
1F6
100
AcDbEntity
8
1
62
256
6
ByLayer
370
-1
48
1
60
0
100
AcDbSpline
70
4
71
3
72
20
73
16
40
0
40
0
40
0
40
0
40
0.0011113171582902
40
0.0024035405513584
40
0.0036957639444266
40
0.0049879873374948
40
0.0075724341236312
40
0.0080893234808583
40
0.0086062128380856
40
0.008863042237458
40
0.0907916206372226
40
0.172977028436359
40
0.338381622749088
40
0.669190811374544
40
1
40
1
40
1
40
1
41
1
10
87.492114718186
20
3.51788508448377
30
0
41
1
10
87.492097207944
20
3.51838838846376
30
0
41
1
10
87.4920593370786
20
3.51947692641133
30
0
41
1
10
87.492001105684
20
3.52115069658879
30
0
41
1
10
87.4919400240161
20
3.52290639476328
30
0
41
1
10
87.4918585819786
20
3.52524732222966
30
0
41
1
10
87.4917893564992
20
3.52723710592659
30
0
41
1
10
87.4917323474668
20
3.52887574790185
30
0
41
1
10
87.4917120125706
20
3.52946024523604
30
0
41
1
10
87.4904089514415
20
3.56691487349477
30
0
41
1
10
87.4878193401127
20
3.6413518474281
30
0
41
1
10
87.4826284904831
20
3.79056634649189
30
0
41
1
10
87.4735179544597
20
4.05246406110473
30
0
41
1
10
87.460489559038
20
4.42696954492052
30
0
41
1
10
87.4500671577339
20
4.72656813155459
30
0
41
1
10
87.4448559570819
20
4.87636742487163
30
0
0
SPLINE
5
1F7
100
AcDbEntity
8
1
62
256
6
ByLayer
370
-1
48
1
60
0
100
AcDbSpline
70
4
71
3
72
20
73
16
40
0
40
0
40
0
40
0
40
0.0011113171582744
40
0.0024035405513426
40
0.0036957639444108
40
0.004987987337479
40
0.0075724341236154
40
0.0080893234808425
40
0.0086062128380699
40
0.0088630422374422
40
0.0907916206372082
40
0.172977028436346
40
0.338381622749077
40
0.669190811374539
40
1
40
1
40
1
40
1
41
1
10
90.6846218076076
20
3.15794122443373
30
0
41
1
10
90.6841204188512
20
3.15792364730549
30
0
41
1
10
90.6830360231192
20
3.15788563177949
30
0
41
1
10
90.6813686221426
20
3.15782717795048
30
0
41
1
10
90.6796196049297
20
3.15776586296045
30
0
41
1
10
90.6772875853991
20
3.15768410982761
30
0
41
1
10
90.6753053734299
20
3.15761461991818
30
0
41
1
10
90.6736729669821
20
3.1575573931205
30
0
41
1
10
90.6730906938367
20
3.15753698054829
30
0
41
1
10
90.6357785917463
20
3.15622894193737
30
0
41
1
10
90.5616248729719
20
3.15362943871395
30
0
41
1
10
90.4129781801262
20
3.14841876088212
30
0
41
1
10
90.1520770653865
20
3.13927342409119
30
0
41
1
10
89.778996688003
20
3.12619526231555
30
0
41
1
10
89.4805381644424
20
3.11573304913165
30
0
41
1
10
89.331308902662
20
3.11050194253969
30
0
0
SPLINE
5
1F8
100
AcDbEntity
8
1
62
256
6
ByLayer
370
-1
48
1
60
0
100
AcDbSpline
70
4
71
3
72
14
73
10
40
0
40
0
40
0
40
0
40
0.0403466864445743
40
0.150922708497088
40
0.261498730549603
40
0.372074752602117
40
0.593226796707145
40
0.814378840812173
40
1
40
1
40
1
40
1
41
1
10
91.8220925759636
20
3.17242920949786
30
0
41
1
10
91.8221116795191
20
3.17299403834792
30
0
41
1
10
91.822182196449
20
3.17510686995985
30
0
41
1
10
91.8222948482151
20
3.17876778816901
30
0
41
1
10
91.822406703417
20
3.18341324821552
30
0
41
1
10
91.8225177590295
20
3.18960849272133
30
0
41
1
10
91.8225913882195
20
3.19735404418793
30
0
41
1
10
91.8225739819538
20
3.20615132764112
30
0
41
1
10
91.8225011393547
20
3.21184936849673
30
0
41
1
10
91.822455346163
20
3.21444924440061
30
0
0
SPLINE
5
1F9
100
AcDbEntity
8
1
62
256
6
ByLayer
370
-1
48
1
60
0
100
AcDbSpline
70
4
71
1
72
4
73
2
40
0
40
0
40
1
40
1
41
1
10
91.8220940281436
20
3.22826835473052
30
0
41
1
10
91.8225746957564
20
3.21445125699873
30
0
0
SPLINE
5
1FA
100
AcDbEntity
8
1
62
256
6
ByLayer
370
-1
48
1
60
0
100
AcDbSpline
70
4
71
3
72
14
73
10
40
0
40
0
40
0
40
0
40
0.185621159235336
40
0.627925247419593
40
0.738501269465657
40
0.849077291511721
40
0.904365302534753
40
0.959653313557785
40
1
40
1
40
1
40
1
41
1
10
86.8642118138735
20
3.04064217656111
30
0
41
1
10
86.8643468002843
20
3.0380454272499
30
0
41
1
10
86.8648458663544
20
3.02926306198418
30
0
41
1
10
86.8656051129425
20
3.01894375375102
30
0
41
1
10
86.8664170614485
20
3.0096851886081
30
0
41
1
10
86.866779061889
20
3.00582992901636
30
0
41
1
10
86.8670841030012
20
3.00274748100264
30
0
41
1
10
86.8672977961688
20
3.00064445867903
30
0
41
1
10
86.8674354083012
20
2.99931201785048
30
0
41
1
10
86.8674937158597
20
2.99874990258206
30
0
0
SPLINE
5
1FB
100
AcDbEntity
8
1
62
256
6
ByLayer
370
-1
48
1
60
0
100
AcDbSpline
70
4
71
3
72
40
73
36
40
0
40
0
40
0
40
0
40
0.015625
40
0.03125
40
0.03515625
40
0.0390625
40
0.046875
40
0.0625
40
0.125
40
0.1875
40
0.25
40
0.3125
40
0.34375
40
0.3515625
40
0.359375
40
0.375
40
0.4375
40
0.5
40
0.5625
40
0.59375
40
0.6015625
40
0.609375
40
0.625
40
0.640625
40
0.6484375
40
0.65625
40
0.6875
40
0.71875
40
0.75
40
0.78125
40
0.796875
40
0.8046875
40
0.8125
40
0.875
40
1
40
1
40
1
40
1
41
1
10
89.331308902662
20
3.11050194253969
30
0
41
1
10
89.3314346839545
20
3.106886278898
30
0
41
1
10
89.3317592237316
20
3.09954890261665
30
0
41
1
10
89.3322700632135
20
3.09165798970591
30
0
41
1
10
89.3326536973005
20
3.08678003582276
30
0
41
1
10
89.3329222867578
20
3.08363739823528
30
0
41
1
10
89.3333947832149
20
3.07808089080373
30
0
41
1
10
89.3348773510128
20
3.06067346154424
30
0
41
1
10
89.3373046729251
20
3.03215852907522
30
0
41
1
10
89.3405405823054
20
2.99415061727387
30
0
41
1
10
89.3437763895225
20
2.95614581623468
30
0
41
1
10
89.34647295667
20
2.92447009931794
30
0
41
1
10
89.3482258044021
20
2.9038860963646
30
0
41
1
10
89.3490347056737
20
2.89438022846238
30
0
41
1
10
89.3495732841179
20
2.88806877860384
30
0
41
1
10
89.3510235371319
20
2.87059292925804
30
0
41
1
10
89.3532810110344
20
2.84069431818239
30
0
41
1
10
89.3559711227457
20
2.79886699064025
30
0
41
1
10
89.3579056111843
20
2.76299764260474
30
0
41
1
10
89.358999007217
20
2.7394948142514
30
0
41
1
10
89.3594707399472
20
2.72865962983681
30
0
41
1
10
89.3597781170644
20
2.72139233540264
30
0
41
1
10
89.3601652571498
20
2.71227478913968
30
0
41
1
10
89.3605513445186
20
2.70317025844173
30
0
41
1
10
89.3608606165259
20
2.6958795359906
30
0
41
1
10
89.3613223609311
20
2.68497417409236
30
0
41
1
10
89.3619657346792
20
2.66854246374459
30
0
41
1
10
89.3627219802638
20
2.64656358306593
30
0
41
1
10
89.3633722572441
20
2.62461647949991
30
0
41
1
10
89.3638227331356
20
2.6064319724139
30
0
41
1
10
89.3640894414085
20
2.59381226043462
30
0
41
1
10
89.3642280525717
20
2.58661886993548
30
0
41
1
10
89.3645781995829
20
2.56860725073153
30
0
41
1
10
89.3654513583045
20
2.52358925188875
30
0
41
1
10
89.3662906491634
20
2.48036667810817
30
0
41
1
10
89.3668499442785
20
2.45155279008156
30
0
0
SPLINE
5
1FC
100
AcDbEntity
8
1
62
256
6
ByLayer
370
-1
48
1
60
0
100
AcDbSpline
70
4
71
3
72
25
73
21
40
0
40
0
40
0
40
0
40
0.0031159645604562
40
0.0146460991234291
40
0.0204111664049156
40
0.0607666373753208
40
0.106887175627213
40
0.199128252130996
40
0.291369328634779
40
0.383610405138562
40
0.752574711153696
40
0.844815787657479
40
0.931291796879776
40
0.937056864161263
40
0.948586998724236
40
0.960117133287208
40
0.977412335131668
40
0.983177402413154
40
0.994707536976127
40
1
40
1
40
1
40
1
41
1
10
86.8674937158597
20
2.99874990258206
30
0
41
1
10
86.8675153085165
20
2.99854173811013
30
0
41
1
10
86.8676169633715
20
2.99756330635844
30
0
41
1
10
86.8677594732923
20
2.99619980294625
30
0
41
1
10
86.8681620799365
20
2.99234861715667
30
0
41
1
10
86.8688066281453
20
2.98618666632984
30
0
41
1
10
86.8700564286488
20
2.97424795072368
30
0
41
1
10
86.8716702104969
20
2.95884389917674
30
0
41
1
10
86.8736056722121
20
2.94036217907058
30
0
41
1
10
86.8774772786659
20
2.90338577095352
30
0
41
1
10
86.8813576827497
20
2.86632881456251
30
0
41
1
10
86.8851719665509
20
2.8298931636478
30
0
41
1
10
86.8864644411189
20
2.81754994065079
30
0
41
1
10
86.8871966816087
20
2.81055905261187
30
0
41
1
10
86.8874003642167
20
2.808614553045
30
0
41
1
10
86.8876846469204
20
2.80590024607852
30
0
41
1
10
86.8879258822636
20
2.8035959963251
30
0
41
1
10
86.8881633688762
20
2.80132606874395
30
0
41
1
10
86.8883163186844
20
2.79986329765242
30
0
41
1
10
86.8884299941165
20
2.79878775496709
30
0
41
1
10
86.8884657927952
20
2.79845074772066
30
0
0
SPLINE
5
1FD
100
AcDbEntity
8
1
62
256
6
ByLayer
370
-1
48
1
60
0
100
AcDbSpline
70
4
71
1
72
4
73
2
40
0
40
0
40
1
40
1
41
1
10
89.1936959345127
20
7.42897546669519
30
0
41
1
10
90.985754052269
20
7.49179456075967
30
0
0
SPLINE
5
1FE
100
AcDbEntity
8
1
62
256
6
ByLayer
370
-1
48
1
60
0
100
AcDbSpline
70
4
71
1
72
4
73
2
40
0
40
0
40
1
40
1
41
1
10
86.8010318990935
20
4.85335641341186
30
0
41
1
10
86.7384518506476
20
6.65225990204621
30
0
0
SPLINE
5
1FF
100
AcDbEntity
8
1
62
256
6
ByLayer
370
-1
48
1
60
0
100
AcDbSpline
70
4
71
1
72
4
73
2
40
0
40
0
40
1
40
1
41
1
10
89.3668499442784
20
2.45155279008156
30
0
41
1
10
87.5747918265222
20
2.38873369601706
30
0
0
SPLINE
5
200
100
AcDbEntity
8
1
62
256
6
ByLayer
370
-1
48
1
60
0
100
AcDbSpline
70
4
71
3
72
24
73
20
40
0
40
0
40
0
40
0
40
0.0052924630237964
40
0.0168225975867771
40
0.0283527321497578
40
0.0398828667127307
40
0.0629431358386895
40
0.074473270401665
40
0.109063674090602
40
0.155184212342512
40
0.247425288846339
40
0.431907441853988
40
0.616389594861638
40
0.800871747869287
40
0.893112824373111
40
0.979588833595453
40
0.985353900876937
40
0.996884035439915
40
1
40
1
40
1
40
1
41
1
10
86.7454552983983
20
6.90937880978612
30
0
41
1
10
86.7454430059037
20
6.90904011674397
30
0
41
1
10
86.7454043479476
20
6.9079592341395
30
0
41
1
10
86.7453404218541
20
6.90611414801441
30
0
41
1
10
86.7452608605142
20
6.90382311435303
30
0
41
1
10
86.7451532618151
20
6.90072976530928
30
0
41
1
10
86.7450442550725
20
6.89760055178613
30
0
41
1
10
86.7448812348688
20
6.89291921007253
30
0
41
1
10
86.7446646813394
20
6.88669796976927
30
0
41
1
10
86.7442606585369
20
6.87508447021284
30
0
41
1
10
86.7435102340664
20
6.85350149085681
30
0
41
1
10
86.7424335072973
20
6.82254915740643
30
0
41
1
10
86.7411389532521
20
6.78534313986617
30
0
41
1
10
86.7400622774255
20
6.75439210398147
30
0
41
1
10
86.7392127108347
20
6.73001184456473
30
0
41
1
10
86.7387824093302
20
6.71762753726094
30
0
41
1
10
86.73854120384
20
6.7106615441148
30
0
41
1
10
86.7384937923218
20
6.70929138316589
30
0
41
1
10
86.7384603773224
20
6.70830821665379
30
0
41
1
10
86.7384533028276
20
6.70809904727895
30
0
0
SPLINE
5
201
100
AcDbEntity
8
1
62
256
6
ByLayer
370
-1
48
1
60
0
100
AcDbSpline
70
4
71
3
72
14
73
10
40
0
40
0
40
0
40
0
40
0.185621159234675
40
0.627925247419304
40
0.738501269465462
40
0.849077291511619
40
0.904365302534698
40
0.959653313557777
40
1
40
1
40
1
40
1
41
1
10
87.3878796226065
20
7.36555421490482
30
0
41
1
10
87.3852927547105
20
7.36541871286778
30
0
41
1
10
87.3765438089961
20
7.36491774044637
30
0
41
1
10
87.3662637688462
20
7.36415559365972
30
0
41
1
10
87.3570404353389
20
7.36334054364221
30
0
41
1
10
87.3531998461739
20
7.36297716041889
30
0
41
1
10
87.3501291278055
20
7.3626709540992
30
0
41
1
10
87.3480341081167
20
7.36245644465845
30
0
41
1
10
87.3467067376278
20
7.36231830687001
30
0
41
1
10
87.3461467613777
20
7.36225977658617
30
0
0
SPLINE
5
202
100
AcDbEntity
8
1
62
256
6
ByLayer
370
-1
48
1
60
0
100
AcDbSpline
70
4
71
3
72
25
73
21
40
0
40
0
40
0
40
0
40
0.0031159645604613
40
0.0146460991234339
40
0.0204111664049201
40
0.060766637375324
40
0.106887175627214
40
0.199128252130994
40
0.291369328634774
40
0.383610405138555
40
0.752574711153676
40
0.844815787657456
40
0.93129179687975
40
0.937056864161236
40
0.948586998724209
40
0.960117133287181
40
0.97741233513164
40
0.983177402413126
40
0.994707536976099
40
1
40
1
40
1
40
1
41
1
10
91.6930521629316
20
6.88177835419467
30
0
41
1
10
91.6930305702747
20
6.88198651866659
30
0
41
1
10
91.6929289154197
20
6.88296495041828
30
0
41
1
10
91.6927864054989
20
6.88432845383048
30
0
41
1
10
91.6923837988547
20
6.88817963962006
30
0
41
1
10
91.6917392506459
20
6.89434159044689
30
0
41
1
10
91.6904894501424
20
6.90628030605305
30
0
41
1
10
91.6888756682943
20
6.92168435759999
30
0
41
1
10
91.6869402065792
20
6.94016607770615
30
0
41
1
10
91.6830686001253
20
6.97714248582321
30
0
41
1
10
91.6791881960415
20
7.01419944221422
30
0
41
1
10
91.6753739122403
20
7.05063509312893
30
0
41
1
10
91.6740814376723
20
7.06297831612594
30
0
41
1
10
91.6733491971825
20
7.06996920416486
30
0
41
1
10
91.6731455145745
20
7.07191370373172
30
0
41
1
10
91.6728612318707
20
7.07462801069821
30
0
41
1
10
91.6726199965276
20
7.07693226045163
30
0
41
1
10
91.6723825099149
20
7.07920218803278
30
0
41
1
10
91.6722295601068
20
7.08066495912431
30
0
41
1
10
91.6721158846747
20
7.08174050180963
30
0
41
1
10
91.672080085996
20
7.08207750905606
30
0
0
SPLINE
5
203
100
AcDbEntity
8
1
62
256
6
ByLayer
370
-1
48
1
60
0
100
AcDbSpline
70
4
71
3
72
25
73
21
40
0
40
0
40
0
40
0
40
0.0031159645604954
40
0.0146460991234677
40
0.0204111664049538
40
0.060766637375357
40
0.106887175627246
40
0.199128252131025
40
0.291369328634803
40
0.383610405138582
40
0.752574711153696
40
0.844815787657474
40
0.931291796879767
40
0.937056864161253
40
0.948586998724225
40
0.960117133287198
40
0.977412335131656
40
0.983177402413142
40
0.994707536976114
40
1
40
1
40
1
40
1
41
1
10
87.3461467613777
20
7.36225977658617
30
0
41
1
10
87.3459393890344
20
7.36223810144887
30
0
41
1
10
87.3449646805109
20
7.36213605828883
30
0
41
1
10
87.3436063656409
20
7.36199300400329
30
0
41
1
10
87.3397698347759
20
7.3615888594671
30
0
41
1
10
87.3336313320323
20
7.36094184918895
30
0
41
1
10
87.3217380468435
20
7.35968727465055
30
0
41
1
10
87.3063926123633
20
7.35806732841795
30
0
41
1
10
87.2879812207818
20
7.35612447355342
30
0
41
1
10
87.2511455190612
20
7.3522380781919
30
0
41
1
10
87.2142295755771
20
7.34834285159494
30
0
41
1
10
87.1779325733143
20
7.34451399784922
30
0
41
1
10
87.1656363200073
20
7.34321658623836
30
0
41
1
10
87.158672034408
20
7.34248154870886
30
0
41
1
10
87.156734934249
20
7.34227708806634
30
0
41
1
10
87.15403095604
20
7.34199171944888
30
0
41
1
10
87.1517354746526
20
7.34174956262595
30
0
41
1
10
87.1494741848312
20
7.341511168853
30
0
41
1
10
87.1480169800253
20
7.34135763480143
30
0
41
1
10
87.1469455301046
20
7.34124352514766
30
0
41
1
10
87.1466098052725
20
7.34120758972381
30
0
0
SPLINE
5
204
100
AcDbEntity
8
1
62
256
6
ByLayer
370
-1
48
1
60
0
100
AcDbSpline
70
4
71
3
72
83
73
79
40
0
40
0
40
0
40
0
40
0.0019524496734429
40
0.0055614898932001
40
0.0091705301129573
40
0.0127795703327145
40
0.0163886105524717
40
0.0236066909919862
40
0.0308247714315006
40
0.0380428518710151
40
0.0957874953871306
40
0.153532138903246
40
0.182404460661304
40
0.211276782419362
40
0.218494862858876
40
0.225712943298391
40
0.238344584067541
40
0.240149104177419
40
0.243758144397177
40
0.247367184616934
40
0.253683005001509
40
0.254585265056448
40
0.256389785166327
40
0.258194305276206
40
0.261803345495963
40
0.263607865605841
40
0.26541238571572
40
0.269021425935477
40
0.297893747693535
40
0.326766069451593
40
0.355638391209651
40
0.384510712967708
40
0.413383034725766
40
0.442255356483824
40
0.471127678241882
40
0.499999999999939
40
0.514436160878968
40
0.528872321757997
40
0.557744643516055
40
0.572180804395084
40
0.586616965274113
40
0.61548928703217
40
0.6299254479112
40
0.644361608790227
40
0.673233930548286
40
0.687670091427314
40
0.702106252306344
40
0.716542413185372
40
0.730978574064401
40
0.732783094174279
40
0.734587614284159
40
0.736392134394037
40
0.738196654503916
40
0.740001174613794
40
0.741805694723673
40
0.74541473494343
40
0.749023775163188
40
0.752632815382945
40
0.756241855602703
40
0.759850895822459
40
0.763459936042216
40
0.767068976261974
40
0.774287056701486
40
0.788723217580517
40
0.79594129802003
40
0.817595539338575
40
0.846467861096632
40
0.904212504612748
40
0.933084826370806
40
0.961957148128863
40
0.969175228568379
40
0.976393309007892
40
0.983611389447408
40
0.989024949777043
40
0.990829469886921
40
0.994438510106678
40
0.998047550326436
40
1
40
1
40
1
40
1
41
1
10
86.8884657927952
20
2.79845074772066
30
0
41
1
10
86.8885079849462
20
2.79805355259617
30
0
41
1
10
86.8886283099312
20
2.7969275489763
30
0
41
1
10
86.8888286845255
20
2.7950959370088
30
0
41
1
10
86.8890720743214
20
2.79295574311453
30
0
41
1
10
86.8893260885505
20
2.7908216688908
30
0
41
1
10
86.8896789513209
20
2.78798115569714
30
0
41
1
10
86.8901466329445
20
2.78443366167136
30
0
41
1
10
86.8907504832744
20
2.78016226205048
30
0
41
1
10
86.8929067728741
20
2.76588717317733
30
0
41
1
10
86.8976802035207
20
2.7414194161411
30
0
41
1
10
86.9057371407881
20
2.71248427081383
30
0
41
1
10
86.9136978283504
20
2.68942628904983
30
0
41
1
10
86.9187479828169
20
2.6765262788235
30
0
41
1
10
86.9223549019486
20
2.66797060892057
30
0
41
1
10
86.9246692124758
20
2.66263538400006
30
0
41
1
10
86.9265865891425
20
2.65838156270351
30
0
41
1
10
86.9282242996912
20
2.6548465624592
30
0
41
1
10
86.9290506339861
20
2.65308094013571
30
0
41
1
10
86.9303050870568
20
2.65043638531529
30
0
41
1
10
86.9313250892504
20
2.64832514336456
30
0
41
1
10
86.932185047074
20
2.64656858647262
30
0
41
1
10
86.9326168925346
20
2.64569083901009
30
0
41
1
10
86.9333118263871
20
2.64428759224367
30
0
41
1
10
86.9340127306307
20
2.64288609385122
30
0
41
1
10
86.9347196027001
20
2.64148639305972
30
0
41
1
10
86.935430452465
20
2.64008790707788
30
0
41
1
10
86.938835323837
20
2.63345387109709
30
0
41
1
10
86.9452323490344
20
2.62167913709374
30
0
41
1
10
86.9550153618157
20
2.60534939095535
30
0
41
1
10
86.9655389863211
20
2.58936376527583
30
0
41
1
10
86.9767831082112
20
2.57377139408615
30
0
41
1
10
86.9887276131466
20
2.55862141141742
30
0
41
1
10
87.0013438984578
20
2.54395945330876
30
0
41
1
10
87.0146033614755
20
2.52983115579934
30
0
41
1
10
87.0261586957869
20
2.51853590690183
30
0
41
1
10
87.0356883125388
20
2.50980687631664
30
0
41
1
10
87.0454010596944
20
2.50128820400525
30
0
41
1
10
87.0553778487582
20
2.49309343798251
30
0
41
1
10
87.0655973723357
20
2.48523931600431
30
0
41
1
10
87.0759708277792
20
2.47761653315192
30
0
41
1
10
87.0865633443075
20
2.47034712363259
30
0
41
1
10
87.0973512484919
20
2.46344381673475
30
0
41
1
10
87.1082610392912
20
2.4567873640132
30
0
41
1
10
87.1193411022796
20
2.45050537119891
30
0
41
1
10
87.1305663219899
20
2.44460619557771
30
0
41
1
10
87.139051416961
20
2.44037419554118
30
0
41
1
10
87.1475962939474
20
2.43633555026687
30
0
41
1
10
87.1536867287014
20
2.43361249208783
30
0
41
1
10
87.1572803496466
20
2.43205646681397
30
0
41
1
10
87.1583591578064
20
2.4315927105925
30
0
41
1
10
87.1594386755677
20
2.43113200551539
30
0
41
1
10
87.1605188906559
20
2.43067435136629
30
0
41
1
10
87.1615997907959
20
2.43021974792893
30
0
41
1
10
87.1630418880188
20
2.42961767733965
30
0
41
1
10
87.1648461608033
20
2.42887271480072
30
0
41
1
10
87.1670138319558
20
2.42799095913975
30
0
41
1
10
87.1691839487211
20
2.42712140113397
30
0
41
1
10
87.1713564129009
20
2.4262640390528
30
0
41
1
10
87.1735311262968
20
2.42541887116567
30
0
41
1
10
87.1757079907106
20
2.42458589574201
30
0
41
1
10
87.1786132136883
20
2.4234915161544
30
0
41
1
10
87.1837041950736
20
2.42161901338432
30
0
41
1
10
87.1895365253106
20
2.41957649454838
30
0
41
1
10
87.1983014058419
20
2.41665885972222
30
0
41
1
10
87.210013065479
20
2.41302775392276
30
0
41
1
10
87.2320158101602
20
2.40706226640316
30
0
41
1
10
87.2554692866017
20
2.40222258761116
30
0
41
1
10
87.2787314219012
20
2.39884334485103
30
0
41
1
10
87.2917155245867
20
2.39747407074725
30
0
41
1
10
87.3003174497467
20
2.39677598650545
30
0
41
1
10
87.3046043525512
20
2.39646926390878
30
0
41
1
10
87.3085181634712
20
2.39622631371017
30
0
41
1
10
87.3113657587145
20
2.3960746913227
30
0
41
1
10
87.3135055876652
20
2.39597195990359
30
0
41
1
10
87.3152921162136
20
2.39589326659012
30
0
41
1
10
87.3171262910332
20
2.39582038335646
30
0
41
1
10
87.3182536708653
20
2.39577843901677
30
0
41
1
10
87.3186513338526
20
2.39576389580037
30
0
0
SPLINE
5
205
100
AcDbEntity
8
1
62
256
6
ByLayer
370
-1
48
1
60
0
100
AcDbSpline
70
4
71
1
72
4
73
2
40
0
40
0
40
1
40
1
41
1
10
86.8640926151522
20
3.04063582704569
30
0
41
1
10
86.8636119475395
20
3.05445292477748
30
0
0
SPLINE
5
206
100
AcDbEntity
8
1
62
256
6
ByLayer
370
-1
48
1
60
0
100
AcDbSpline
70
4
71
3
72
20
73
16
40
0
40
0
40
0
40
0
40
0.0011113171582914
40
0.0024035405513596
40
0.0036957639444278
40
0.0049879873374959
40
0.0075724341236323
40
0.0080893234808594
40
0.0086062128380868
40
0.0088630422374591
40
0.0907916206372237
40
0.17297702843636
40
0.338381622749088
40
0.669190811374544
40
1
40
1
40
1
40
1
41
1
10
91.0431959726002
20
6.36264317229296
30
0
41
1
10
91.0432134828421
20
6.36213986831297
30
0
41
1
10
91.0432513537076
20
6.3610513303654
30
0
41
1
10
91.0433095851021
20
6.35937756018794
30
0
41
1
10
91.0433706667701
20
6.35762186201344
30
0
41
1
10
91.0434521088076
20
6.35528093454707
30
0
41
1
10
91.0435213342869
20
6.35329115085014
30
0
41
1
10
91.0435783433194
20
6.35165250887488
30
0
41
1
10
91.0435986782156
20
6.35106801154072
30
0
41
1
10
91.0449017393447
20
6.31361338328196
30
0
41
1
10
91.0474913506735
20
6.23917640934863
30
0
41
1
10
91.0526822003031
20
6.08996191028484
30
0
41
1
10
91.0617927363264
20
5.828064195672
30
0
41
1
10
91.0748211317481
20
5.4535587118562
30
0
41
1
10
91.0852435330522
20
5.15396012522214
30
0
41
1
10
91.0904547337043
20
5.0041608319051
30
0
0
SPLINE
5
207
100
AcDbEntity
8
1
62
256
6
ByLayer
370
-1
48
1
60
0
100
AcDbSpline
70
4
71
1
72
4
73
2
40
0
40
0
40
1
40
1
41
1
10
90.985754052269
20
7.49179456075967
30
0
41
1
10
90.9995185717725
20
7.49227706444464
30
0
0
SPLINE
5
208
100
AcDbEntity
8
1
62
256
6
ByLayer
370
-1
48
1
60
0
100
AcDbSpline
70
4
71
3
72
83
73
79
40
0
40
0
40
0
40
0
40
0.0019524496734322
40
0.0055614898931894
40
0.0091705301129466
40
0.0127795703327038
40
0.016388610552461
40
0.0236066909919755
40
0.0308247714314899
40
0.0380428518710043
40
0.0957874953871198
40
0.153532138903235
40
0.182404460661293
40
0.211276782419351
40
0.218494862858865
40
0.225712943298379
40
0.23834458406753
40
0.240149104177408
40
0.243758144397166
40
0.247367184616923
40
0.253683005001498
40
0.254585265056437
40
0.256389785166316
40
0.258194305276194
40
0.261803345495952
40
0.26360786560583
40
0.265412385715709
40
0.269021425935466
40
0.297893747693524
40
0.326766069451581
40
0.355638391209639
40
0.384510712967697
40
0.413383034725755
40
0.442255356483812
40
0.47112767824187
40
0.499999999999928
40
0.514436160878957
40
0.528872321757985
40
0.557744643516043
40
0.572180804395072
40
0.586616965274102
40
0.615489287032159
40
0.629925447911188
40
0.644361608790216
40
0.673233930548274
40
0.687670091427302
40
0.702106252306332
40
0.71654241318536
40
0.730978574064389
40
0.732783094174267
40
0.734587614284147
40
0.736392134394025
40
0.738196654503904
40
0.740001174613783
40
0.741805694723661
40
0.745414734943418
40
0.749023775163176
40
0.752632815382933
40
0.756241855602691
40
0.759850895822447
40
0.763459936042204
40
0.767068976261962
40
0.774287056701474
40
0.788723217580505
40
0.795941298020019
40
0.817595539338563
40
0.84646786109662
40
0.904212504612736
40
0.933084826370794
40
0.961957148128851
40
0.969175228568366
40
0.97639330900788
40
0.983611389447395
40
0.98902494977703
40
0.990829469886909
40
0.994438510106666
40
0.998047550326423
40
1
40
1
40
1
40
1
41
1
10
87.1466098052725
20
7.34120758972381
30
0
41
1
10
87.1462141215953
20
7.3411652364056
30
0
41
1
10
87.1450924027592
20
7.34104445179869
30
0
41
1
10
87.1432677606282
20
7.34084331180603
30
0
41
1
10
87.1411357108179
20
7.34059899230064
30
0
41
1
10
87.1390097573909
20
7.34034400777847
30
0
41
1
10
87.1361800532075
20
7.33998979712965
30
0
41
1
10
87.1326460584675
20
7.33952032903821
30
0
41
1
10
87.1283909128117
20
7.33891417209819
30
0
41
1
10
87.1141701449615
20
7.33674964582244
30
0
41
1
10
87.0897954951278
20
7.33195798144621
30
0
41
1
10
87.0609704567643
20
7.32387026798742
30
0
41
1
10
87.0380002175823
20
7.31587917189188
30
0
41
1
10
87.0251492957894
20
7.31080972665578
30
0
41
1
10
87.0166261827935
20
7.30718902967897
30
0
41
1
10
87.0113112600146
20
7.30486587886148
30
0
41
1
10
87.0070736257924
20
7.30294117812744
30
0
41
1
10
87.0035520772912
20
7.30129721179051
30
0
41
1
10
87.0017931736937
20
7.30046772103285
30
0
41
1
10
86.9991586822028
20
7.29920847615526
30
0
41
1
10
86.9970554741651
20
7.2981845777189
30
0
41
1
10
86.9953056015025
20
7.29732133499613
30
0
41
1
10
86.994431194134
20
7.29688783995604
30
0
41
1
10
86.9930332871452
20
7.29619025156904
30
0
41
1
10
86.9916371218773
20
7.29548666998519
30
0
41
1
10
86.9902427473698
20
7.29477709777933
30
0
41
1
10
86.9888495830494
20
7.29406353268379
30
0
41
1
10
86.9822407915784
20
7.29064565525627
30
0
41
1
10
86.9705108639928
20
7.28422419446184
30
0
41
1
10
86.9542432574685
20
7.27440381216107
30
0
41
1
10
86.9383184619209
20
7.26383998911967
30
0
41
1
10
86.9227854244111
20
7.25255291651061
30
0
41
1
10
86.9076930920003
20
7.24056278550682
30
0
41
1
10
86.8930869270688
20
7.22789830803532
30
0
41
1
10
86.8790123919969
20
7.21458819602304
30
0
41
1
10
86.8677601249316
20
7.20298872221184
30
0
41
1
10
86.8590643109431
20
7.19342270387205
30
0
41
1
10
86.8505780547517
20
7.18367285560021
30
0
41
1
10
86.8424144722878
20
7.17365795682295
30
0
41
1
10
86.8345902376149
20
7.1633993963257
30
0
41
1
10
86.8269964617527
20
7.15298631596761
30
0
41
1
10
86.8197547145313
20
7.14235333774698
30
0
41
1
10
86.8128776768003
20
7.13152422552122
30
0
41
1
10
86.806246553891
20
7.12057276109337
30
0
41
1
10
86.7999884659559
20
7.10945037406441
30
0
41
1
10
86.794111738479
20
7.09818227583835
30
0
41
1
10
86.7898958424803
20
7.08966476918303
30
0
41
1
10
86.7858725654705
20
7.08108725215465
30
0
41
1
10
86.78315986935
20
7.07497355292938
30
0
41
1
10
86.7816097652221
20
7.071366204936
30
0
41
1
10
86.781147773733
20
7.07028327590422
30
0
41
1
10
86.7806888217779
20
7.06919963456039
30
0
41
1
10
86.780232909141
20
7.06811529322616
30
0
41
1
10
86.7797800356069
20
7.06703026422318
30
0
41
1
10
86.779180256078
20
7.06558265842318
30
0
41
1
10
86.7784381283465
20
7.06377149360975
30
0
41
1
10
86.777559728032
20
7.06159554230558
30
0
41
1
10
86.7766934789569
20
7.05941713604679
30
0
41
1
10
86.7758393793973
20
7.05723637340677
30
0
41
1
10
86.7749974276292
20
7.05505335295896
30
0
41
1
10
86.7741676219285
20
7.05286817327678
30
0
41
1
10
86.7730774067856
20
7.04995185281922
30
0
41
1
10
86.7712120294539
20
7.0448414247121
30
0
41
1
10
86.7691772830188
20
7.03898681592113
30
0
41
1
10
86.766270750674
20
7.03018845497013
30
0
41
1
10
86.7626534623283
20
7.01843205869591
30
0
41
1
10
86.7567106752898
20
6.99634526710437
30
0
41
1
10
86.7518894129367
20
6.97280220219315
30
0
41
1
10
86.7485230292156
20
6.94945120931587
30
0
41
1
10
86.7471589656132
20
6.93641750946747
30
0
41
1
10
86.7464635377926
20
6.92778272635079
30
0
41
1
10
86.746157982368
20
6.92347944827407
30
0
41
1
10
86.7459159566683
20
6.91955068723209
30
0
41
1
10
86.7457649112498
20
6.91669221463761
30
0
41
1
10
86.7456625707547
20
6.91454421188794
30
0
41
1
10
86.745584176893
20
6.91275085909075
30
0
41
1
10
86.7455115710021
20
6.91090967802131
30
0
41
1
10
86.7454697862733
20
6.90977799178134
30
0
41
1
10
86.7454552983982
20
6.90937880978606
30
0
0
SPLINE
5
209
100
AcDbEntity
8
1
62
256
6
ByLayer
370
-1
48
1
60
0
100
AcDbSpline
70
4
71
3
72
150
73
146
40
0
40
0
40
0
40
0
40
0.200919836739823
40
0.401839673479646
40
0.452069632664601
40
0.502299591849557
40
0.552215613789606
40
0.577173624759631
40
0.601975648161094
40
0.602131635729656
40
0.602445572974563
40
0.602759510219468
40
0.604329196443998
40
0.605114039556263
40
0.605898882668528
40
0.607468568893058
40
0.608253412005323
40
0.609038255117588
40
0.60943067667372
40
0.612177627566647
40
0.615317000015707
40
0.618456372464767
40
0.621595744913827
40
0.623165431138357
40
0.624735117362886
40
0.626304803587416
40
0.627089646699681
40
0.627874489811946
40
0.628266911368078
40
0.634153234710066
40
0.640431979608185
40
0.652989469404424
40
0.665546959200663
40
0.678104448996902
40
0.684383193895022
40
0.687522566344081
40
0.689877095680876
40
0.690661938793141
40
0.692231625017671
40
0.693016468129935
40
0.693801311242201
40
0.694586154354466
40
0.69537099746673
40
0.696155840578995
40
0.69694068369126
40
0.697333105247393
40
0.69851036991579
40
0.70008005614032
40
0.70164974236485
40
0.70321942858938
40
0.709498173487499
40
0.715776918385619
40
0.728334408181858
40
0.734613153079977
40
0.739322211753567
40
0.740891897978097
40
0.744031270427156
40
0.745600956651686
40
0.746385799763951
40
0.747170642876216
40
0.747955485988481
40
0.748740329100746
40
0.749525172213011
40
0.750310015325276
40
0.751094858437541
40
0.751487279993673
40
0.751879701549806
40
0.752272123105938
40
0.75266454466207
40
0.753056966218203
40
0.753449387774335
40
0.756588760223395
40
0.759728132672455
40
0.762867505121515
40
0.766006877570574
40
0.772285622468694
40
0.775424994917753
40
0.778564367366813
40
0.784843112264933
40
0.787982484713992
40
0.791121857163052
40
0.797400602061172
40
0.800539974510231
40
0.803679346959291
40
0.809958091857411
40
0.81623683675553
40
0.822515581653649
40
0.828794326551769
40
0.835073071449888
40
0.841351816348008
40
0.847630561246127
40
0.853909306144247
40
0.854694149256512
40
0.855086570812644
40
0.855478992368777
40
0.856263835481042
40
0.856656257037174
40
0.857048678593307
40
0.857244889371373
40
0.858618364817836
40
0.859403207930101
40
0.860188051042366
40
0.860580472598499
40
0.863327423491426
40
0.864897109715956
40
0.866466795940486
40
0.872745540838605
40
0.879024285736725
40
0.891581775532964
40
0.904139265329203
40
0.905708951553732
40
0.907278637778262
40
0.908848324002792
40
0.909633167115057
40
0.910418010227322
40
0.911202853339587
40
0.911987696451852
40
0.912772539564117
40
0.913557382676382
40
0.913949804232514
40
0.915127068900912
40
0.915911912013176
40
0.916696755125441
40
0.917089176681574
40
0.922975500023561
40
0.92925424492168
40
0.954369224514158
40
0.960647969412278
40
0.966926714310397
40
0.973205459208517
40
0.976344831657576
40
0.979091782550504
40
0.979484204106636
40
0.980269047218901
40
0.981053890331166
40
0.981838733443431
40
0.982623576555696
40
0.984193262780226
40
0.985762949004755
40
0.992041693902875
40
0.995181066351935
40
0.99753559568873
40
0.998320438800994
40
0.999890125025524
40
1
40
1
40
1
40
1
41
1
10
89.2040017881242
20
6.77002631423704
30
0
41
1
10
89.3532310499045
20
6.77525742082901
30
0
41
1
10
89.6516895734651
20
6.78571963401291
30
0
41
1
10
89.9874619219976
20
6.79748972413904
30
0
41
1
10
90.2112944229962
20
6.80533620851202
30
0
41
1
10
90.3229782745849
20
6.80925128898596
30
0
41
1
10
90.4158965750199
20
6.81250846662391
30
0
41
1
10
90.4899330393141
20
6.81510367356756
30
0
41
1
10
90.527010924841
20
6.81640333424721
30
0
41
1
10
90.5457835794977
20
6.81706134652907
30
0
41
1
10
90.5463658527456
20
6.81708175615381
30
0
41
1
10
90.5479982594824
20
6.81713897464368
30
0
41
1
10
90.5499804718083
20
6.81720845430237
30
0
41
1
10
90.5523124917659
20
6.81729019516141
30
0
41
1
10
90.554644515148
20
6.81737193607319
30
0
41
1
10
90.5569765433473
20
6.81745367705918
30
0
41
1
10
90.5593085757241
20
6.81753541810954
30
0
41
1
10
90.560766097567
20
6.81758650629078
30
0
41
1
10
90.563681143464
20
6.81768868268733
30
0
41
1
10
90.5683452259076
20
6.8178521650606
30
0
41
1
10
90.5750498606564
20
6.81808717122235
30
0
41
1
10
90.5820460091024
20
6.81833239516408
30
0
41
1
10
90.5878761308126
20
6.8185367484181
30
0
41
1
10
90.5925402218675
20
6.81870023092407
30
0
41
1
10
90.596038285723
20
6.81882284273519
30
0
41
1
10
90.5989533341736
20
6.81892501917108
30
0
41
1
10
90.6012853694372
20
6.81900676026592
30
0
41
1
10
90.6027428898865
20
6.8190578484257
30
0
41
1
10
90.6079899588509
20
6.81924176572917
30
0
41
1
10
90.6173180356265
20
6.81956872911817
30
0
41
1
10
90.6356824143908
20
6.82021243409349
30
0
41
1
10
90.6590015202179
20
6.82102982583191
30
0
41
1
10
90.6869826079656
20
6.82201066758023
30
0
41
1
10
90.7102981026444
20
6.82282800368057
30
0
41
1
10
90.7266175712226
20
6.82340011772425
30
0
41
1
10
90.7353597362769
20
6.82370660111357
30
0
41
1
10
90.7400220915907
20
6.82387005687644
30
0
41
1
10
90.7435187992795
20
6.82399264779269
30
0
41
1
10
90.7458499080206
20
6.82407437461231
30
0
41
1
10
90.7481809864042
20
6.82415610096422
30
0
41
1
10
90.7499292798532
20
6.82421739549179
30
0
41
1
10
90.7516775578036
20
6.82427868978061
30
0
41
1
10
90.7534258200956
20
6.82433998382814
30
0
41
1
10
90.7551740665692
20
6.82440127763198
30
0
41
1
10
90.7566309253154
20
6.82445235559669
30
0
41
1
10
90.7583791437073
20
6.82451364896787
30
0
41
1
10
90.760710079939
20
6.82459537312957
30
0
41
1
10
90.7639150644553
20
6.8247077430384
30
0
41
1
10
90.7674113440899
20
6.82483032735948
30
0
41
1
10
90.7744037665796
20
6.82507549389425
30
0
41
1
10
90.7848918777987
20
6.82544323564585
30
0
41
1
10
90.8035400631996
20
6.82609703965613
30
0
41
1
10
90.8221984410336
20
6.82675100070432
30
0
41
1
10
90.8397118711266
20
6.82736441583535
30
0
41
1
10
90.8490353228186
20
6.82769130796424
30
0
41
1
10
90.856013008232
20
6.82793624744039
30
0
41
1
10
90.8606560803913
20
6.82809940610179
30
0
41
1
10
90.8647378394101
20
6.8282424637614
30
0
41
1
10
90.8670795361336
20
6.8283243537133
30
0
41
1
10
90.8688413937195
20
6.82838585722769
30
0
41
1
10
90.8706097898927
20
6.8284474614841
30
0
41
1
10
90.8723729143298
20
6.82850898451727
30
0
41
1
10
90.8741189567079
20
6.82857024436191
30
0
41
1
10
90.8758361067038
20
6.82863105905281
30
0
41
1
10
90.8772331461125
20
6.82868121536271
30
0
41
1
10
90.8783301937058
20
6.82871608565262
30
0
41
1
10
90.8791426292887
20
6.82873837569142
30
0
41
1
10
90.8799446566144
20
6.82875556775193
30
0
41
1
10
90.8807407599992
20
6.82876802210518
30
0
41
1
10
90.8815354237597
20
6.82877609902212
30
0
41
1
10
90.8841854291968
20
6.82878863694657
30
0
41
1
10
90.8887443802636
20
6.8287014835243
30
0
41
1
10
90.8952835881228
20
6.82829267974461
30
0
41
1
10
90.9018934958752
20
6.82758458180174
30
0
41
1
10
90.9107794472233
20
6.82622573227732
30
0
41
1
10
90.9197422218199
20
6.82422131427737
30
0
41
1
10
90.9286875498779
20
6.82154987590511
30
0
41
1
10
90.9375898236476
20
6.81842660665239
30
0
41
1
10
90.9463803810914
20
6.81461486513061
30
0
41
1
10
90.9549562122298
20
6.81013139335104
30
0
41
1
10
90.9633545558383
20
6.80520568207009
30
0
41
1
10
90.971435163162
20
6.79962498254267
30
0
41
1
10
90.9791056474155
20
6.79344632176023
30
0
41
1
10
90.9864719206939
20
6.78688802913823
30
0
41
1
10
90.9950516249727
20
6.77801399553124
30
0
41
1
10
91.0042160180433
20
6.76646035822918
30
0
41
1
10
91.0121229266965
20
6.75417899550709
30
0
41
1
10
91.0187247043559
20
6.74137387478791
30
0
41
1
10
91.0239737044449
20
6.72824896349471
30
0
41
1
10
91.0278994115254
20
6.71499605318249
30
0
41
1
10
91.0305313101593
20
6.70180693540627
30
0
41
1
10
91.0315388829212
20
6.69260608186494
30
0
41
1
10
91.0318525806894
20
6.68756825700808
30
0
41
1
10
91.0319101228586
20
6.6865041683858
30
0
41
1
10
91.0319619384295
20
6.68543172967085
30
0
41
1
10
91.0320050736715
20
6.68433773459336
30
0
41
1
10
91.0320444227658
20
6.68322276073451
30
0
41
1
10
91.0320684580091
20
6.68251728124326
30
0
41
1
10
91.0321172210165
20
6.6810935715107
30
0
41
1
10
91.0321777919379
20
6.679347277244
30
0
41
1
10
91.0322551040889
20
6.67713497770941
30
0
41
1
10
91.0323068847068
20
6.67565570747948
30
0
41
1
10
91.0324100009493
20
6.67270536027266
30
0
41
1
10
91.0325324202936
20
6.66918925027528
30
0
41
1
10
91.0326844246978
20
6.66481288898348
30
0
41
1
10
91.03292727575
20
6.65781726551907
30
0
41
1
10
91.0332933323012
20
6.64729105731016
30
0
41
1
10
91.033946220608
20
6.62853874431755
30
0
41
1
10
91.0347607919441
20
6.60512669014599
30
0
41
1
10
91.0354523914305
20
6.5852409187471
30
0
41
1
10
91.0358592715546
20
6.57354235856906
30
0
41
1
10
91.0359813393153
20
6.57003272195846
30
0
41
1
10
91.0360830654942
20
6.56710796872053
30
0
41
1
10
91.0361644482293
20
6.56476813313384
30
0
41
1
10
91.036225486168
20
6.5630132401059
30
0
41
1
10
91.0362865249854
20
6.56125833090033
30
0
41
1
10
91.0363475646727
20
6.55950340567739
30
0
41
1
10
91.0364086052212
20
6.55774846459741
30
0
41
1
10
91.0364594730554
20
6.55628600061675
30
0
41
1
10
91.0365205150893
20
6.55453103218755
30
0
41
1
10
91.0365815579627
20
6.55277604830198
30
0
41
1
10
91.0366527758536
20
6.55072854491218
30
0
41
1
10
91.036703646457
20
6.54926602994448
30
0
41
1
10
91.0368867824495
20
6.54400094254609
30
0
41
1
10
91.0372123747134
20
6.53464047111186
30
0
41
1
10
91.0381790674725
20
6.50684990108769
30
0
41
1
10
91.0391561502562
20
6.47876285282925
30
0
41
1
10
91.0401333582125
20
6.45067349988364
30
0
41
1
10
91.0406219827682
20
6.43662844453496
30
0
41
1
10
91.0410291833318
20
6.4249239843991
30
0
41
1
10
91.0413447694182
20
6.41585292377295
30
0
41
1
10
91.0415076540338
20
6.41117105888634
30
0
41
1
10
91.0416094573084
20
6.40824488615408
30
0
41
1
10
91.0416603590161
20
6.40678179849215
30
0
41
1
10
91.0417214411692
20
6.4050260913848
30
0
41
1
10
91.0417825234176
20
6.40327038252468
30
0
41
1
10
91.0418639665306
20
6.4009294352546
30
0
41
1
10
91.0419657706165
20
6.3980032475865
30
0
41
1
10
91.0422101009054
20
6.3909803882899
30
0
41
1
10
91.0424951539118
20
6.38278703398515
30
0
41
1
10
91.0428005670469
20
6.37400845482091
30
0
41
1
10
91.0429634534784
20
6.36932655650077
30
0
41
1
10
91.0430856179515
20
6.36581513921291
30
0
41
1
10
91.0431495504619
20
6.36397750256575
30
0
41
1
10
91.043193122188
20
6.36272510284473
30
0
41
1
10
91.0431959726002
20
6.36264317229296
30
0
0
SPLINE
5
20A
100
AcDbEntity
8
1
62
256
6
ByLayer
370
-1
48
1
60
0
100
AcDbSpline
70
4
71
3
72
14
73
10
40
0
40
0
40
0
40
0
40
0.185621159235499
40
0.627925247419756
40
0.73850126946582
40
0.849077291511885
40
0.904365302534917
40
0.959653313557949
40
1
40
1
40
1
40
1
41
1
10
91.1726662561846
20
2.51497404187191
30
0
41
1
10
91.1752531240807
20
2.51510954390895
30
0
41
1
10
91.1840020697952
20
2.51561051633036
30
0
41
1
10
91.194282109945
20
2.51637266311704
30
0
41
1
10
91.2035054434523
20
2.51718771313452
30
0
41
1
10
91.2073460326174
20
2.51755109635784
30
0
41
1
10
91.2104167509857
20
2.51785730267755
30
0
41
1
10
91.2125117706745
20
2.51807181211828
30
0
41
1
10
91.2138391411635
20
2.51820994990672
30
0
41
1
10
91.2143991174136
20
2.51826848019056
30
0
0
SPLINE
5
20B
100
AcDbEntity
8
1
62
256
6
ByLayer
370
-1
48
1
60
0
100
AcDbSpline
70
4
71
1
72
4
73
2
40
0
40
0
40
1
40
1
41
1
10
91.7595139796977
20
5.0271718433649
30
0
41
1
10
91.8220940281436
20
3.22826835473052
30
0
0
SPLINE
5
20C
100
AcDbEntity
8
1
62
256
6
ByLayer
370
-1
48
1
60
0
100
AcDbSpline
70
4
71
3
72
24
73
20
40
0
40
0
40
0
40
0
40
0.0052924630238159
40
0.0168225975867962
40
0.0283527321497765
40
0.0398828667127489
40
0.0629431358387069
40
0.0744732704016819
40
0.109063674090617
40
0.155184212342526
40
0.24742528884635
40
0.431907441853992
40
0.616389594861635
40
0.800871747869277
40
0.893112824373097
40
0.979588833595436
40
0.98535390087692
40
0.996884035439898
40
1
40
1
40
1
40
1
41
1
10
87.3186513338525
20
2.39576389580037
30
0
41
1
10
87.3189887380654
20
2.39575155635055
30
0
41
1
10
87.3200655075852
20
2.39571275072726
30
0
41
1
10
87.3219035726006
20
2.39564858044648
30
0
41
1
10
87.3241858881872
20
2.3955687151952
30
0
41
1
10
87.3272674661039
20
2.39546070548661
30
0
41
1
10
87.3303847720249
20
2.39535128235596
30
0
41
1
10
87.3350482998199
20
2.39518763944147
30
0
41
1
10
87.3412458664255
20
2.39497025871279
30
0
41
1
10
87.35281517311
20
2.39456469260881
30
0
41
1
10
87.3743160227135
20
2.39381140163883
30
0
41
1
10
87.4051505731903
20
2.39273056194838
30
0
41
1
10
87.442215010601
20
2.39143106291695
30
0
41
1
10
87.4730482684498
20
2.39035027436367
30
0
41
1
10
87.4973357536189
20
2.38949746256657
30
0
41
1
10
87.5096729348945
20
2.38906551738012
30
0
41
1
10
87.5166124203336
20
2.38882339052418
30
0
41
1
10
87.5179773674064
20
2.38877579790164
30
0
41
1
10
87.5189567926731
20
2.38874225526243
30
0
41
1
10
87.5191651660954
20
2.38873515374417
30
0
0
SPLINE
5
20D
100
AcDbEntity
8
1
62
256
6
ByLayer
370
-1
48
1
60
0
100
AcDbSpline
70
4
71
3
72
150
73
146
40
0
40
0
40
0
40
0
40
0.200919836739821
40
0.401839673479641
40
0.452069632664596
40
0.502299591849552
40
0.552215613789601
40
0.577173624759625
40
0.601975648161087
40
0.60213163572965
40
0.602445572974556
40
0.602759510219462
40
0.604329196443992
40
0.605114039556257
40
0.605898882668522
40
0.607468568893051
40
0.608253412005316
40
0.609038255117581
40
0.609430676673714
40
0.612177627566641
40
0.615317000015701
40
0.618456372464761
40
0.62159574491382
40
0.62316543113835
40
0.62473511736288
40
0.62630480358741
40
0.627089646699675
40
0.62787448981194
40
0.628266911368072
40
0.634153234710059
40
0.640431979608178
40
0.652989469404417
40
0.665546959200656
40
0.678104448996895
40
0.684383193895014
40
0.687522566344074
40
0.689877095680869
40
0.690661938793134
40
0.692231625017664
40
0.693016468129928
40
0.693801311242193
40
0.694586154354458
40
0.695370997466723
40
0.696155840578988
40
0.696940683691253
40
0.697333105247385
40
0.698510369915783
40
0.700080056140313
40
0.701649742364842
40
0.703219428589372
40
0.709498173487492
40
0.715776918385611
40
0.72833440818185
40
0.734613153079969
40
0.739322211753559
40
0.740891897978089
40
0.744031270427149
40
0.745600956651678
40
0.746385799763943
40
0.747170642876208
40
0.747955485988473
40
0.748740329100738
40
0.749525172213003
40
0.750310015325268
40
0.751094858437533
40
0.751487279993665
40
0.751879701549798
40
0.75227212310593
40
0.752664544662063
40
0.753056966218195
40
0.753449387774328
40
0.756588760223388
40
0.759728132672447
40
0.762867505121507
40
0.766006877570566
40
0.772285622468686
40
0.775424994917745
40
0.778564367366805
40
0.784843112264924
40
0.787982484713984
40
0.791121857163044
40
0.797400602061163
40
0.800539974510223
40
0.803679346959283
40
0.809958091857402
40
0.816236836755522
40
0.822515581653641
40
0.82879432655176
40
0.83507307144988
40
0.841351816347999
40
0.847630561246119
40
0.853909306144238
40
0.854694149256503
40
0.855086570812635
40
0.855478992368768
40
0.856263835481033
40
0.856656257037165
40
0.857048678593298
40
0.857244889371364
40
0.858618364817828
40
0.859403207930092
40
0.860188051042357
40
0.86058047259849
40
0.863327423491417
40
0.864897109715947
40
0.866466795940477
40
0.872745540838596
40
0.879024285736716
40
0.891581775532954
40
0.904139265329193
40
0.905708951553723
40
0.907278637778253
40
0.908848324002783
40
0.909633167115048
40
0.910418010227313
40
0.911202853339577
40
0.911987696451842
40
0.912772539564107
40
0.913557382676372
40
0.913949804232505
40
0.915127068900902
40
0.915911912013167
40
0.916696755125432
40
0.917089176681564
40
0.922975500023551
40
0.929254244921671
40
0.954369224514148
40
0.960647969412268
40
0.966926714310387
40
0.973205459208507
40
0.976344831657566
40
0.979091782550493
40
0.979484204106626
40
0.980269047218891
40
0.981053890331156
40
0.981838733443421
40
0.982623576555686
40
0.984193262780215
40
0.985762949004745
40
0.992041693902865
40
0.995181066351924
40
0.997535595688719
40
0.998320438800984
40
0.999890125025514
40
1
40
1
40
1
40
1
41
1
10
91.0904547337043
20
5.0041608319051
30
0
41
1
10
91.0956659343564
20
4.85436153858808
30
0
41
1
10
91.1060883356604
20
4.55476295195402
30
0
41
1
10
91.1178136370402
20
4.21770800759853
30
0
41
1
10
91.1256302631712
20
3.99302050280929
30
0
41
1
10
91.129530445582
20
3.88091003705128
30
0
41
1
10
91.1327752286756
20
3.78763680380376
30
0
41
1
10
91.1353605600734
20
3.71331753224376
30
0
41
1
10
91.1366552751517
20
3.67609801521761
30
0
41
1
10
91.1373107834982
20
3.6572536520699
30
0
41
1
10
91.1373311154582
20
3.65666915463277
30
0
41
1
10
91.1373881162144
20
3.6550305123674
30
0
41
1
10
91.137457331482
20
3.65304072831253
30
0
41
1
10
91.1375387612924
20
3.65069980041753
30
0
41
1
10
91.1376201911553
20
3.64835886908492
30
0
41
1
10
91.1377016210922
20
3.64601793291681
30
0
41
1
10
91.1377830510932
20
3.64367699255519
30
0
41
1
10
91.1378339448685
20
3.64221390321563
30
0
41
1
10
91.1379357324529
20
3.63928772231682
30
0
41
1
10
91.1380985927265
20
3.63460582383598
30
0
41
1
10
91.1383327046188
20
3.62787557847176
30
0
41
1
10
91.1385769954094
20
3.62085270587517
30
0
41
1
10
91.1387805710376
20
3.61500031404716
30
0
41
1
10
91.1389434314432
20
3.61031840692215
30
0
41
1
10
91.1390655766794
20
3.60680698103101
30
0
41
1
10
91.1391673643031
20
3.60388079756893
30
0
41
1
10
91.1392487943484
20
3.60153985430952
30
0
41
1
10
91.1392996881023
20
3.60007676636877
30
0
41
1
10
91.1394829055449
20
3.59480965445337
30
0
41
1
10
91.1398086247395
20
3.58544594593991
30
0
41
1
10
91.1404498802231
20
3.56701141823217
30
0
41
1
10
91.1412641615392
20
3.54360323720917
30
0
41
1
10
91.1422412708885
20
3.51551526625195
30
0
41
1
10
91.1430554967782
20
3.49211071017126
30
0
41
1
10
91.1436254337552
20
3.47572890387428
30
0
41
1
10
91.1439307508828
20
3.46695334516969
30
0
41
1
10
91.1440935846471
20
3.46227318041605
30
0
41
1
10
91.1442157090679
20
3.45876311587196
30
0
41
1
10
91.1442971248923
20
3.45642310267414
30
0
41
1
10
91.1443785402507
20
3.45408311994984
30
0
41
1
10
91.1444396015341
20
3.45232814830391
30
0
41
1
10
91.1445006625797
20
3.45057319221573
30
0
41
1
10
91.1445617233849
20
3.44881825184581
30
0
41
1
10
91.1446227839473
20
3.44706332735464
30
0
41
1
10
91.1446736675449
20
3.44560090364473
30
0
41
1
10
91.1447347276763
20
3.44384600734261
30
0
41
1
10
91.1448161408529
20
3.44150616731315
30
0
41
1
10
91.1449280831603
20
3.43828894027666
30
0
41
1
10
91.145050201011
20
3.43477930542196
30
0
41
1
10
91.1452944346131
20
3.42776017301429
30
0
41
1
10
91.1456607769964
20
3.41723199891413
30
0
41
1
10
91.1463120930849
20
3.39851258047452
30
0
41
1
10
91.1469635656139
20
3.3797829306684
30
0
41
1
10
91.1475746465152
20
3.36220260211755
30
0
41
1
10
91.1479002947208
20
3.35284353635475
30
0
41
1
10
91.1481443021283
20
3.34583919731668
30
0
41
1
10
91.1483068399218
20
3.34117838937604
30
0
41
1
10
91.1484493532038
20
3.33708103870092
30
0
41
1
10
91.1485309315397
20
3.3347303970763
30
0
41
1
10
91.1485922010147
20
3.33296180948062
30
0
41
1
10
91.1486535708482
20
3.3311866583214
30
0
41
1
10
91.1487148597677
20
3.32941679903527
30
0
41
1
10
91.1487758865002
20
3.32766408705896
30
0
41
1
10
91.1488364697728
20
3.32594037782911
30
0
41
1
10
91.1488864352228
20
3.32453800195685
30
0
41
1
10
91.1489211728207
20
3.32343676381996
30
0
41
1
10
91.1489433780392
20
3.32262122486509
30
0
41
1
10
91.1489605046787
20
3.3218161339253
30
0
41
1
10
91.1489729116394
20
3.32101698955484
30
0
41
1
10
91.1489809578212
20
3.3202192903079
30
0
41
1
10
91.1489934480351
20
3.31755916228059
30
0
41
1
10
91.1489066262579
20
3.3129827967613
30
0
41
1
10
91.1484993781
20
3.30641861019046
30
0
41
1
10
91.1477939746836
20
3.29978345366428
30
0
41
1
10
91.1464402959919
20
3.29086355942559
30
0
41
1
10
91.1444435054075
20
3.28186654848605
30
0
41
1
10
91.1417822326648
20
3.27288705072817
30
0
41
1
10
91.1386708483946
20
3.2639507717189
30
0
41
1
10
91.1348736117001
20
3.25512663577374
30
0
41
1
10
91.1304072008842
20
3.24651804635351
30
0
41
1
10
91.1255002334218
20
3.23808762243686
30
0
41
1
10
91.1199407701409
20
3.22997614850595
30
0
41
1
10
91.1137856210281
20
3.22227636424867
30
0
41
1
10
91.1072522846896
20
3.21488195300301
30
0
41
1
10
91.0984120194596
20
3.20626947564773
30
0
41
1
10
91.0869023472357
20
3.19707007608452
30
0
41
1
10
91.0746677188066
20
3.1891329643247
30
0
41
1
10
91.0619113254377
20
3.18250596894714
30
0
41
1
10
91.0488363583945
20
3.17723691853058
30
0
41
1
10
91.0356338794072
20
3.17329621588684
30
0
41
1
10
91.022494950206
20
3.17065426382769
30
0
41
1
10
91.0133291086902
20
3.1696428423015
30
0
41
1
10
91.0083104542779
20
3.16932794625882
30
0
41
1
10
91.0072504148341
20
3.16927018428785
30
0
41
1
10
91.0061820570722
20
3.16921817078989
30
0
41
1
10
91.0050922249762
20
3.16917487077822
30
0
41
1
10
91.0039814939296
20
3.16913537137688
30
0
41
1
10
91.0032786990008
20
3.16911124432281
30
0
41
1
10
91.0018604069136
20
3.16906229504866
30
0
41
1
10
91.0001207578238
20
3.16900149275614
30
0
41
1
10
90.9979168767568
20
3.16892388528529
30
0
41
1
10
90.9964432355967
20
3.16887190687387
30
0
41
1
10
90.9935041153518
20
3.1687683967441
30
0
41
1
10
90.9900013852144
20
3.16864550977775
30
0
41
1
10
90.9856416772986
20
3.1684929247414
30
0
41
1
10
90.9786726742935
20
3.16824914603765
30
0
41
1
10
90.9681865214848
20
3.16788169120986
30
0
41
1
10
90.9495055667046
20
3.16722630897584
30
0
41
1
10
90.9261826024675
20
3.16640862610961
30
0
41
1
10
90.9063725024324
20
3.16571438482555
30
0
41
1
10
90.8947184588077
20
3.16530595048542
30
0
41
1
10
90.8912221774241
20
3.16518341644567
30
0
41
1
10
90.8883085537552
20
3.16508130168936
30
0
41
1
10
90.8859776219493
20
3.16499960808539
30
0
41
1
10
90.8842294068191
20
3.16493833699167
30
0
41
1
10
90.8824811755729
20
3.16487706501593
30
0
41
1
10
90.8807329283703
20
3.16481579216693
30
0
41
1
10
90.878984665371
20
3.16475451845344
30
0
41
1
10
90.8775277665073
20
3.16470345631237
30
0
41
1
10
90.8757794762628
20
3.16464218110778
30
0
41
1
10
90.8740311706208
20
3.16458090506055
30
0
41
1
10
90.8719914585995
20
3.16450941512895
30
0
41
1
10
90.8705345089428
20
3.16445835020809
30
0
41
1
10
90.8652894567915
20
3.16427451466575
30
0
41
1
10
90.8559646047771
20
3.16394767869238
30
0
41
1
10
90.8282797862621
20
3.16297729332393
30
0
41
1
10
90.800299617702
20
3.16199647824271
30
0
41
1
10
90.7723171532248
20
3.16101553751082
30
0
41
1
10
90.758325543552
20
3.16052504648869
30
0
41
1
10
90.7466656224206
20
3.16011629048509
30
0
41
1
10
90.7376290799187
20
3.15979949891113
30
0
41
1
10
90.7329650309416
20
3.15963599210275
30
0
41
1
10
90.73004999318
20
3.15953379995614
30
0
41
1
10
90.7285924730083
20
3.15948270381222
30
0
41
1
10
90.7268434468966
20
3.15942138833518
30
0
41
1
10
90.7250944190388
20
3.15936007276258
30
0
41
1
10
90.7227623797798
20
3.15927831855004
30
0
41
1
10
90.7198473271392
20
3.15917612558917
30
0
41
1
10
90.7128511919425
20
3.15893086199819
30
0
41
1
10
90.7046890158245
20
3.15864472013567
30
0
41
1
10
90.6959438418043
20
3.158338140372
30
0
41
1
10
90.6912797595208
20
3.15817463174082
30
0
41
1
10
90.6877817042358
20
3.15805200061922
30
0
41
1
10
90.6859510603509
20
3.15798782389709
30
0
41
1
10
90.6847034263889
20
3.15794408573402
30
0
41
1
10
90.6846218076076
20
3.15794122443373
30
0
0
SPLINE
5
20E
100
AcDbEntity
8
1
62
256
6
ByLayer
370
-1
48
1
60
0
100
AcDbSpline
70
4
71
3
72
83
73
79
40
0
40
0
40
0
40
0
40
0.0019524496734314
40
0.0055614898931886
40
0.0091705301129458
40
0.012779570332703
40
0.0163886105524603
40
0.0236066909919747
40
0.0308247714314892
40
0.0380428518710036
40
0.0957874953871192
40
0.153532138903235
40
0.182404460661293
40
0.21127678241935
40
0.218494862858865
40
0.225712943298379
40
0.23834458406753
40
0.240149104177408
40
0.243758144397165
40
0.247367184616923
40
0.253683005001498
40
0.254585265056437
40
0.256389785166316
40
0.258194305276194
40
0.261803345495952
40
0.26360786560583
40
0.265412385715709
40
0.269021425935466
40
0.297893747693524
40
0.326766069451581
40
0.355638391209639
40
0.384510712967697
40
0.413383034725755
40
0.442255356483813
40
0.47112767824187
40
0.499999999999928
40
0.514436160878958
40
0.528872321757986
40
0.557744643516044
40
0.572180804395073
40
0.586616965274102
40
0.615489287032159
40
0.629925447911189
40
0.644361608790216
40
0.673233930548275
40
0.687670091427303
40
0.702106252306333
40
0.716542413185361
40
0.73097857406439
40
0.732783094174268
40
0.734587614284148
40
0.736392134394027
40
0.738196654503905
40
0.740001174613784
40
0.741805694723663
40
0.745414734943419
40
0.749023775163177
40
0.752632815382933
40
0.756241855602692
40
0.759850895822448
40
0.763459936042206
40
0.767068976261963
40
0.774287056701476
40
0.788723217580506
40
0.79594129802002
40
0.817595539338564
40
0.846467861096622
40
0.904212504612737
40
0.933084826370795
40
0.961957148128853
40
0.969175228568368
40
0.976393309007882
40
0.983611389447397
40
0.989024949777032
40
0.990829469886911
40
0.994438510106668
40
0.998047550326425
40
1
40
1
40
1
40
1
41
1
10
91.4139360735187
20
2.53932066705292
30
0
41
1
10
91.4143317571958
20
2.53936302037115
30
0
41
1
10
91.415453476032
20
2.53948380497803
30
0
41
1
10
91.417278118163
20
2.5396849449707
30
0
41
1
10
91.4194101679733
20
2.53992926447609
30
0
41
1
10
91.4215361214004
20
2.54018424899826
30
0
41
1
10
91.4243658255837
20
2.54053845964708
30
0
41
1
10
91.4278998203237
20
2.54100792773855
30
0
41
1
10
91.4321549659795
20
2.54161408467854
30
0
41
1
10
91.4463757338297
20
2.54377861095429
30
0
41
1
10
91.4707503836634
20
2.54857027533052
30
0
41
1
10
91.4995754220269
20
2.55665798878934
30
0
41
1
10
91.5225456612089
20
2.56464908488485
30
0
41
1
10
91.5353965830017
20
2.56971853012095
30
0
41
1
10
91.5439196959977
20
2.57333922709776
30
0
41
1
10
91.5492346187766
20
2.57566237791525
30
0
41
1
10
91.5534722529989
20
2.57758707864929
30
0
41
1
10
91.5569938015
20
2.57923104498624
30
0
41
1
10
91.5587527050975
20
2.58006053574388
30
0
41
1
10
91.5613871965884
20
2.58131978062147
30
0
41
1
10
91.5634904046261
20
2.58234367905783
30
0
41
1
10
91.5652402772887
20
2.58320692178063
30
0
41
1
10
91.5661146846572
20
2.58364041682069
30
0
41
1
10
91.567512591646
20
2.58433800520768
30
0
41
1
10
91.568908756914
20
2.58504158679153
30
0
41
1
10
91.5703031314213
20
2.5857511589974
30
0
41
1
10
91.5716962957418
20
2.58646472409293
30
0
41
1
10
91.5783050872128
20
2.58988260152046
30
0
41
1
10
91.5900350147984
20
2.59630406231489
30
0
41
1
10
91.6063026213226
20
2.60612444461566
30
0
41
1
10
91.6222274168703
20
2.61668826765705
30
0
41
1
10
91.6377604543801
20
2.62797534026612
30
0
41
1
10
91.6528527867908
20
2.6399654712699
30
0
41
1
10
91.6674589517224
20
2.65262994874143
30
0
41
1
10
91.6815334867943
20
2.66594006075368
30
0
41
1
10
91.6927857538597
20
2.67753953456489
30
0
41
1
10
91.7014815678481
20
2.68710555290468
30
0
41
1
10
91.7099678240395
20
2.69685540117655
30
0
41
1
10
91.7181314065034
20
2.70687029995378
30
0
41
1
10
91.7259556411763
20
2.71712886045103
30
0
41
1
10
91.7335494170385
20
2.72754194080912
30
0
41
1
10
91.74079116426
20
2.73817491902975
30
0
41
1
10
91.7476682019909
20
2.74900403125551
30
0
41
1
10
91.7542993249002
20
2.75995549568336
30
0
41
1
10
91.7605574128352
20
2.77107788271232
30
0
41
1
10
91.7664341403122
20
2.78234598093837
30
0
41
1
10
91.7706500363109
20
2.7908634875937
30
0
41
1
10
91.7746733133206
20
2.79944100462208
30
0
41
1
10
91.7773860094412
20
2.80555470384735
30
0
41
1
10
91.7789361135691
20
2.80916205184073
30
0
41
1
10
91.7793981050581
20
2.81024498087251
30
0
41
1
10
91.7798570570134
20
2.81132862221634
30
0
41
1
10
91.7803129696503
20
2.8124129635506
30
0
41
1
10
91.7807658431843
20
2.81349799255355
30
0
41
1
10
91.7813656227132
20
2.81494559835355
30
0
41
1
10
91.7821077504448
20
2.81675676316698
30
0
41
1
10
91.7829861507592
20
2.81893271447115
30
0
41
1
10
91.7838523998342
20
2.82111112072994
30
0
41
1
10
91.7847064993939
20
2.82329188336996
30
0
41
1
10
91.785548451162
20
2.82547490381776
30
0
41
1
10
91.7863782568627
20
2.82766008349995
30
0
41
1
10
91.7874684720056
20
2.83057640395751
30
0
41
1
10
91.7893338493373
20
2.83568683206462
30
0
41
1
10
91.7913685957724
20
2.84154144085562
30
0
41
1
10
91.7942751281172
20
2.85033980180663
30
0
41
1
10
91.7978924164628
20
2.86209619808082
30
0
41
1
10
91.8038352035014
20
2.88418298967235
30
0
41
1
10
91.8086564658544
20
2.90772605458358
30
0
41
1
10
91.8120228495757
20
2.93107704746086
30
0
41
1
10
91.8133869131781
20
2.94411074730925
30
0
41
1
10
91.8140823409986
20
2.95274553042594
30
0
41
1
10
91.8143878964232
20
2.95704880850269
30
0
41
1
10
91.8146299221229
20
2.96097756954464
30
0
41
1
10
91.8147809675414
20
2.96383604213912
30
0
41
1
10
91.8148833080365
20
2.96598404488878
30
0
41
1
10
91.8149617018981
20
2.96777739768601
30
0
41
1
10
91.8150343077891
20
2.96961857875542
30
0
41
1
10
91.8150760925179
20
2.97075026499539
30
0
41
1
10
91.815090580393
20
2.97114944699067
30
0
0
SPLINE
5
20F
100
AcDbEntity
8
1
62
256
6
ByLayer
370
-1
48
1
60
0
100
AcDbSpline
70
4
71
1
72
4
73
2
40
0
40
0
40
1
40
1
41
1
10
87.5747918265222
20
2.38873369601706
30
0
41
1
10
87.5610273070188
20
2.38825119233212
30
0
0
SPLINE
5
210
100
AcDbEntity
8
1
62
256
6
ByLayer
370
-1
48
1
60
0
100
AcDbSpline
70
4
71
3
72
14
73
10
40
0
40
0
40
0
40
0
40
0.0403466864445189
40
0.150922708497002
40
0.261498730549485
40
0.372074752601967
40
0.593226796706933
40
0.814378840811899
40
1
40
1
40
1
40
1
41
1
10
87.5191651660954
20
2.38873515374417
30
0
41
1
10
87.5197278456012
20
2.38871597721615
30
0
41
1
10
87.5218326372509
20
2.38864519092306
30
0
41
1
10
87.5254796245611
20
2.38853210884559
30
0
41
1
10
87.5301074072296
20
2.38841982637493
30
0
41
1
10
87.5362790769597
20
2.38830834654806
30
0
41
1
10
87.5439951542645
20
2.38823443610647
30
0
41
1
10
87.5527589613982
20
2.38825190886124
30
0
41
1
10
87.5584353194881
20
2.38832502970732
30
0
41
1
10
87.5610253020792
20
2.38837099782154
30
0
0
SPLINE
5
211
100
AcDbEntity
8
1
62
256
6
ByLayer
370
-1
48
1
60
0
100
AcDbSpline
70
4
71
3
72
20
73
16
40
0
40
0
40
0
40
0
40
0.0011113171582946
40
0.0024035405513628
40
0.003695763944431
40
0.0049879873374992
40
0.0075724341236355
40
0.0080893234808626
40
0.00860621283809
40
0.0088630422374623
40
0.0907916206372266
40
0.172977028436363
40
0.33838162274909
40
0.669190811374545
40
1
40
1
40
1
40
1
41
1
10
87.8506888831785
20
6.722587032343
30
0
41
1
10
87.8511902719349
20
6.72260460947123
30
0
41
1
10
87.852274667667
20
6.72264262499723
30
0
41
1
10
87.8539420686436
20
6.72270107882628
30
0
41
1
10
87.8556910858564
20
6.72276239381628
30
0
41
1
10
87.8580231053871
20
6.72284414694911
30
0
41
1
10
87.8600053173563
20
6.72291363685855
30
0
41
1
10
87.8616377238041
20
6.72297086365623
30
0
41
1
10
87.8622199969495
20
6.72299127622844
30
0
41
1
10
87.8995320990398
20
6.72429931483936
30
0
41
1
10
87.9736858178142
20
6.72689881806278
30
0
41
1
10
88.12233251066
20
6.7321094958946
30
0
41
1
10
88.3832336253996
20
6.74125483268554
30
0
41
1
10
88.7563140027832
20
6.75433299446118
30
0
41
1
10
89.0547725263439
20
6.76479520764508
30
0
41
1
10
89.2040017881242
20
6.77002631423704
30
0
0
SPLINE
5
212
100
AcDbEntity
8
1
62
256
6
ByLayer
370
-1
48
1
60
0
100
AcDbSpline
70
4
71
3
72
14
73
10
40
0
40
0
40
0
40
0
40
0.0403466864445867
40
0.1509227084971
40
0.261498730549613
40
0.372074752602127
40
0.593226796707154
40
0.814378840812181
40
1
40
1
40
1
40
1
41
1
10
86.7384533028276
20
6.70809904727886
30
0
41
1
10
86.738434199272
20
6.7075342184288
30
0
41
1
10
86.7383636823422
20
6.70542138681688
30
0
41
1
10
86.7382510305761
20
6.70176046860772
30
0
41
1
10
86.7381391753742
20
6.69711500856121
30
0
41
1
10
86.7380281197617
20
6.69091976405542
30
0
41
1
10
86.7379544905717
20
6.6831742125888
30
0
41
1
10
86.7379718968373
20
6.67437692913561
30
0
41
1
10
86.7380447394365
20
6.66867888828
30
0
41
1
10
86.7380905326282
20
6.66607901237612
30
0
0
SPLINE
5
213
100
AcDbEntity
8
1
62
256
6
ByLayer
370
-1
48
1
60
0
100
AcDbSpline
70
4
71
3
72
24
73
20
40
0
40
0
40
0
40
0
40
0.0052924630237938
40
0.0168225975867745
40
0.0283527321497552
40
0.039882866712728
40
0.0629431358386867
40
0.0744732704016621
40
0.109063674090599
40
0.155184212342509
40
0.247425288846336
40
0.431907441853985
40
0.616389594861634
40
0.800871747869283
40
0.893112824373106
40
0.979588833595448
40
0.985353900876931
40
0.99688403543991
40
1
40
1
40
1
40
1
41
1
10
91.815090580393
20
2.97114944699061
30
0
41
1
10
91.8151028728875
20
2.97148814003276
30
0
41
1
10
91.8151415308436
20
2.97256902263723
30
0
41
1
10
91.8152054569371
20
2.97441410876232
30
0
41
1
10
91.815285018277
20
2.9767051424237
30
0
41
1
10
91.8153926169761
20
2.97979849146745
30
0
41
1
10
91.8155016237187
20
2.98292770499063
30
0
41
1
10
91.8156646439224
20
2.98760904670419
30
0
41
1
10
91.8158811974519
20
2.99383028700746
30
0
41
1
10
91.8162852202544
20
3.00544378656389
30
0
41
1
10
91.8170356447247
20
3.02702676591994
30
0
41
1
10
91.8181123714938
20
3.0579790993703
30
0
41
1
10
91.8194069255392
20
3.09518511691056
30
0
41
1
10
91.8204836013657
20
3.12613615279525
30
0
41
1
10
91.8213331679564
20
3.150516412212
30
0
41
1
10
91.821763469461
20
3.16290071951579
30
0
41
1
10
91.8220046749512
20
3.16986671266193
30
0
41
1
10
91.8220520864694
20
3.17123687361084
30
0
41
1
10
91.8220855014688
20
3.17222004012294
30
0
41
1
10
91.8220925759636
20
3.17242920949778
30
0
0
SPLINE
5
214
100
AcDbEntity
8
1
62
256
6
ByLayer
370
-1
48
1
60
0
100
AcDbSpline
70
4
71
1
72
4
73
2
40
0
40
0
40
1
40
1
41
1
10
91.6964532636389
20
6.83989242973104
30
0
41
1
10
91.6969339312517
20
6.82607533199925
30
0
0
SPLINE
5
215
100
AcDbEntity
8
1
62
256
6
ByLayer
370
-1
48
1
60
0
100
AcDbSpline
70
4
71
3
72
14
73
10
40
0
40
0
40
0
40
0
40
0.0403466864446286
40
0.150922708497136
40
0.261498730549644
40
0.372074752602152
40
0.593226796707168
40
0.814378840812184
40
1
40
1
40
1
40
1
41
1
10
91.0413807126957
20
7.49179310303256
30
0
41
1
10
91.04081803319
20
7.49181227956058
30
0
41
1
10
91.0387132415402
20
7.49188306585367
30
0
41
1
10
91.0350662542301
20
7.49199614793113
30
0
41
1
10
91.0304384715616
20
7.4921084304018
30
0
41
1
10
91.0242668018316
20
7.49221991022867
30
0
41
1
10
91.0165507245267
20
7.49229382067026
30
0
41
1
10
91.007786917393
20
7.49227634791549
30
0
41
1
10
91.0021105593032
20
7.49220322706941
30
0
41
1
10
90.999520576712
20
7.49215725895519
30
0
0
SPLINE
5
216
100
AcDbEntity
8
1
62
256
6
ByLayer
370
-1
48
1
60
0
100
AcDbSpline
70
4
71
3
72
24
73
20
40
0
40
0
40
0
40
0
40
0.0052924630237531
40
0.0168225975867338
40
0.0283527321497144
40
0.0398828667126872
40
0.0629431358386458
40
0.0744732704016212
40
0.109063674090558
40
0.155184212342467
40
0.247425288846294
40
0.431907441853942
40
0.616389594861591
40
0.800871747869239
40
0.893112824373062
40
0.979588833595403
40
0.985353900876887
40
0.996884035439865
40
1
40
1
40
1
40
1
41
1
10
91.2418945449386
20
7.48476436097636
30
0
41
1
10
91.2415571407258
20
7.48477670042618
30
0
41
1
10
91.2404803712059
20
7.48481550604947
30
0
41
1
10
91.2386423061906
20
7.48487967633025
30
0
41
1
10
91.236359990604
20
7.48495954158156
30
0
41
1
10
91.2332784126872
20
7.48506755129011
30
0
41
1
10
91.2301611067663
20
7.48517697442077
30
0
41
1
10
91.2254975789713
20
7.48534061733525
30
0
41
1
10
91.2193000123656
20
7.48555799806394
30
0
41
1
10
91.2077307056812
20
7.48596356416795
30
0
41
1
10
91.1862298560777
20
7.4867168551379
30
0
41
1
10
91.1553953056008
20
7.48779769482834
30
0
41
1
10
91.1183308681901
20
7.48909719385978
30
0
41
1
10
91.0874976103414
20
7.49017798241306
30
0
41
1
10
91.0632101251723
20
7.49103079421019
30
0
41
1
10
91.0508729438967
20
7.49146273939661
30
0
41
1
10
91.0439334584576
20
7.49170486625258
30
0
41
1
10
91.0425685113848
20
7.49175245887508
30
0
41
1
10
91.0415890861181
20
7.49178600151433
30
0
41
1
10
91.0413807126959
20
7.49179310303256
30
0
0
SPLINE
5
217
100
AcDbEntity
8
1
62
256
6
ByLayer
370
-1
48
1
60
0
100
AcDbSpline
70
4
71
3
72
40
73
36
40
0
40
0
40
0
40
0
40
0.015625
40
0.03125
40
0.03515625
40
0.0390625
40
0.046875
40
0.0625
40
0.125
40
0.1875
40
0.25
40
0.3125
40
0.34375
40
0.3515625
40
0.359375
40
0.375
40
0.4375
40
0.5
40
0.5625
40
0.59375
40
0.6015625
40
0.609375
40
0.625
40
0.640625
40
0.6484375
40
0.65625
40
0.6875
40
0.71875
40
0.75
40
0.78125
40
0.796875
40
0.8046875
40
0.8125
40
0.875
40
1
40
1
40
1
40
1
41
1
10
87.4448559570819
20
4.87636742487166
30
0
41
1
10
87.441254052132
20
4.87624116311505
30
0
41
1
10
87.4340138847543
20
4.87598493628926
30
0
41
1
10
87.4263893304571
20
4.87570937953842
30
0
41
1
10
87.4217438790475
20
4.87553903763529
30
0
41
1
10
87.4187724638858
20
4.87542929431251
30
0
41
1
10
87.4135162979559
20
4.87523525679731
30
0
41
1
10
87.3970521093634
20
4.87462737597269
30
0
41
1
10
87.3700810325302
20
4.87363161258887
30
0
41
1
10
87.3341314468076
20
4.872304347062
30
0
41
1
10
87.2981849660634
20
4.87097719016532
30
0
41
1
10
87.2682244207494
20
4.8698710497564
30
0
41
1
10
87.2487555199377
20
4.86915224053405
30
0
41
1
10
87.2397640369608
20
4.86882028831221
30
0
41
1
10
87.2337956205242
20
4.86859988762654
30
0
41
1
10
87.2172285772306
20
4.86798961751987
30
0
41
1
10
87.1886611038429
20
4.86694553501437
30
0
41
1
10
87.1482279693434
20
4.86548489255082
30
0
41
1
10
87.1131817846754
20
4.86423230731626
30
0
41
1
10
87.0900441740126
20
4.8634115704649
30
0
41
1
10
87.0793450203221
20
4.86303319748757
30
0
41
1
10
87.0721599434485
20
4.8627794179738
30
0
41
1
10
87.0631470521324
20
4.86246102624244
30
0
41
1
10
87.0541465269205
20
4.86214308902458
30
0
41
1
10
87.0469391910595
20
4.86188849138645
30
0
41
1
10
87.0361576972808
20
4.86150766775739
30
0
41
1
10
87.019860263843
20
4.86093385978796
30
0
41
1
10
86.9979566662427
20
4.8601663403621
30
0
41
1
10
86.9759798616879
20
4.85939993061746
30
0
41
1
10
86.957682427484
20
4.8587649136372
30
0
41
1
10
86.9449384324973
20
4.85832422358411
30
0
41
1
10
86.9376607833394
20
4.85807302485264
30
0
41
1
10
86.9194412646506
20
4.85744404525025
30
0
41
1
10
86.8739016506206
20
4.85587198208967
30
0
41
1
10
86.8301792206972
20
4.85436261655383
30
0
41
1
10
86.8010318990935
20
4.85335641341192
30
0
0
SPLINE
5
218
100
AcDbEntity
8
1
62
256
6
ByLayer
370
-1
48
1
60
0
100
AcDbSpline
70
4
71
3
72
40
73
36
40
0
40
0
40
0
40
0
40
0.125
40
0.1875
40
0.1953125
40
0.203125
40
0.21875
40
0.25
40
0.28125
40
0.3125
40
0.34375
40
0.3515625
40
0.359375
40
0.375
40
0.390625
40
0.3984375
40
0.40625
40
0.4375
40
0.5
40
0.5625
40
0.625
40
0.640625
40
0.6484375
40
0.65625
40
0.6875
40
0.75
40
0.8125
40
0.875
40
0.9375
40
0.953125
40
0.9609375
40
0.96484375
40
0.96875
40
0.984375
40
1
40
1
40
1
40
1
41
1
10
89.1936959345127
20
7.42897546669519
30
0
41
1
10
89.195141387868
20
7.40016157866856
30
0
41
1
10
89.1973093408976
20
7.35693900488798
30
0
41
1
10
89.1995683441473
20
7.31192100604522
30
0
41
1
10
89.2004713694263
20
7.29390938684125
30
0
41
1
10
89.200833243952
20
7.28671599634211
30
0
41
1
10
89.2014445618679
20
7.27409628436283
30
0
41
1
10
89.2022592870743
20
7.25591177727682
30
0
41
1
10
89.2031359967423
20
7.2339646737108
30
0
41
1
10
89.2039089487233
20
7.21198579303214
30
0
41
1
10
89.2044088238889
20
7.19555408268437
30
0
41
1
10
89.204705828444
20
7.18464872078613
30
0
41
1
10
89.2049038140712
20
7.17735799833503
30
0
41
1
10
89.205151181444
20
7.16825346763704
30
0
41
1
10
89.2053984016679
20
7.15913592137412
30
0
41
1
10
89.2055966521629
20
7.15186862693992
30
0
41
1
10
89.2058787857406
20
7.14103344252533
30
0
41
1
10
89.2064206171075
20
7.11753061417198
30
0
41
1
10
89.2069817662081
20
7.08166126613651
30
0
41
1
10
89.2072018230528
20
7.03983393859434
30
0
41
1
10
89.207024568063
20
7.00993532751872
30
0
41
1
10
89.2067902107383
20
6.99245947817292
30
0
41
1
10
89.2066907562831
20
6.98614802831435
30
0
41
1
10
89.2065432330984
20
6.97664216041213
30
0
41
1
10
89.2062225332388
20
6.95605815745878
30
0
41
1
10
89.2057298285128
20
6.92438244054205
30
0
41
1
10
89.2051382346236
20
6.88637763950288
30
0
41
1
10
89.204546755005
20
6.84836972770154
30
0
41
1
10
89.2041033814997
20
6.81985479523249
30
0
41
1
10
89.203831949011
20
6.80244736597299
30
0
41
1
10
89.2037460508416
20
6.79689085854145
30
0
41
1
10
89.203696112817
20
6.79374822095397
30
0
41
1
10
89.2036518661314
20
6.78887026707082
30
0
41
1
10
89.203690042998
20
6.78097935416008
30
0
41
1
10
89.2038760068316
20
6.77364197787873
30
0
41
1
10
89.2040017881241
20
6.77002631423704
30
0
0
SPLINE
5
219
100
AcDbEntity
8
1
62
256
6
ByLayer
370
-1
48
1
60
0
100
AcDbSpline
70
4
71
3
72
150
73
146
40
0
40
0
40
0
40
0
40
0.200919836739823
40
0.401839673479646
40
0.452069632664602
40
0.502299591849558
40
0.552215613789608
40
0.577173624759632
40
0.601975648161095
40
0.602131635729658
40
0.602445572974564
40
0.60275951021947
40
0.604329196443999
40
0.605114039556265
40
0.605898882668529
40
0.607468568893059
40
0.608253412005324
40
0.609038255117589
40
0.609430676673722
40
0.612177627566649
40
0.615317000015708
40
0.618456372464768
40
0.621595744913828
40
0.623165431138358
40
0.624735117362888
40
0.626304803587417
40
0.627089646699682
40
0.627874489811947
40
0.62826691136808
40
0.634153234710067
40
0.640431979608186
40
0.652989469404425
40
0.665546959200664
40
0.678104448996903
40
0.684383193895023
40
0.687522566344082
40
0.689877095680877
40
0.690661938793142
40
0.692231625017672
40
0.693016468129937
40
0.693801311242202
40
0.694586154354467
40
0.695370997466732
40
0.696155840578997
40
0.696940683691262
40
0.697333105247394
40
0.698510369915791
40
0.700080056140321
40
0.701649742364851
40
0.703219428589381
40
0.709498173487501
40
0.71577691838562
40
0.728334408181859
40
0.734613153079978
40
0.739322211753568
40
0.740891897978098
40
0.744031270427158
40
0.745600956651688
40
0.746385799763952
40
0.747170642876217
40
0.747955485988482
40
0.748740329100747
40
0.749525172213012
40
0.750310015325277
40
0.751094858437542
40
0.751487279993674
40
0.751879701549807
40
0.752272123105939
40
0.752664544662072
40
0.753056966218205
40
0.753449387774337
40
0.756588760223397
40
0.759728132672456
40
0.762867505121516
40
0.766006877570576
40
0.772285622468695
40
0.775424994917755
40
0.778564367366815
40
0.784843112264934
40
0.787982484713994
40
0.791121857163054
40
0.797400602061173
40
0.800539974510233
40
0.803679346959293
40
0.809958091857412
40
0.816236836755532
40
0.822515581653651
40
0.828794326551771
40
0.83507307144989
40
0.841351816348009
40
0.847630561246129
40
0.853909306144248
40
0.854694149256513
40
0.855086570812646
40
0.855478992368778
40
0.856263835481043
40
0.856656257037176
40
0.857048678593308
40
0.857244889371374
40
0.858618364817838
40
0.859403207930103
40
0.860188051042368
40
0.8605804725985
40
0.863327423491428
40
0.864897109715958
40
0.866466795940487
40
0.872745540838607
40
0.879024285736726
40
0.891581775532965
40
0.904139265329204
40
0.905708951553734
40
0.907278637778264
40
0.908848324002794
40
0.909633167115059
40
0.910418010227324
40
0.911202853339589
40
0.911987696451854
40
0.912772539564119
40
0.913557382676383
40
0.913949804232516
40
0.915127068900913
40
0.915911912013178
40
0.916696755125443
40
0.917089176681576
40
0.922975500023563
40
0.929254244921682
40
0.95436922451416
40
0.960647969412279
40
0.966926714310399
40
0.973205459208518
40
0.976344831657578
40
0.979091782550505
40
0.979484204106638
40
0.980269047218903
40
0.981053890331168
40
0.981838733443433
40
0.982623576555698
40
0.984193262780228
40
0.985762949004757
40
0.992041693902877
40
0.995181066351937
40
0.997535595688731
40
0.998320438800996
40
0.999890125025526
40
1
40
1
40
1
40
1
41
1
10
87.4448559570819
20
4.87636742487163
30
0
41
1
10
87.4396447564298
20
5.02616671818865
30
0
41
1
10
87.4292223551257
20
5.32576530482271
30
0
41
1
10
87.4174970537459
20
5.6628202491782
30
0
41
1
10
87.4096804276149
20
5.88750775396747
30
0
41
1
10
87.4057802452042
20
5.99961821972545
30
0
41
1
10
87.4025354621106
20
6.09289145297296
30
0
41
1
10
87.3999501307128
20
6.16721072453296
30
0
41
1
10
87.3986554156344
20
6.20443024155912
30
0
41
1
10
87.397999907288
20
6.22327460470683
30
0
41
1
10
87.397979575328
20
6.22385910214396
30
0
41
1
10
87.3979225745718
20
6.22549774440932
30
0
41
1
10
87.3978533593041
20
6.22748752846422
30
0
41
1
10
87.3977719294938
20
6.2298284563592
30
0
41
1
10
87.3976904996309
20
6.23216938769181
30
0
41
1
10
87.397609069694
20
6.23451032385995
30
0
41
1
10
87.397527639693
20
6.23685126422154
30
0
41
1
10
87.3974767459177
20
6.23831435356112
30
0
41
1
10
87.3973749583332
20
6.24124053445991
30
0
41
1
10
87.3972120980597
20
6.24592243294074
30
0
41
1
10
87.3969779861674
20
6.25265267830497
30
0
41
1
10
87.3967336953768
20
6.25967555090156
30
0
41
1
10
87.3965301197485
20
6.26552794272956
30
0
41
1
10
87.3963672593429
20
6.27020984985458
30
0
41
1
10
87.3962451141067
20
6.27372127574571
30
0
41
1
10
87.396143326483
20
6.27664745920782
30
0
41
1
10
87.3960618964377
20
6.27898840246721
30
0
41
1
10
87.3960110026838
20
6.28045149040796
30
0
41
1
10
87.3958277852412
20
6.28571860232336
30
0
41
1
10
87.3955020660466
20
6.29508231083682
30
0
41
1
10
87.394860810563
20
6.31351683854456
30
0
41
1
10
87.394046529247
20
6.33692501956756
30
0
41
1
10
87.3930694198976
20
6.36501299052478
30
0
41
1
10
87.3922551940079
20
6.38841754660547
30
0
41
1
10
87.3916852570309
20
6.40479935290247
30
0
41
1
10
87.3913799399035
20
6.41357491160704
30
0
41
1
10
87.3912171061391
20
6.41825507636068
30
0
41
1
10
87.3910949817183
20
6.42176514090477
30
0
41
1
10
87.3910135658939
20
6.42410515410259
30
0
41
1
10
87.3909321505354
20
6.42644513682689
30
0
41
1
10
87.390871089252
20
6.42820010847282
30
0
41
1
10
87.3908100282065
20
6.429955064561
30
0
41
1
10
87.3907489674013
20
6.43171000493092
30
0
41
1
10
87.3906879068389
20
6.43346492942209
30
0
41
1
10
87.3906370232413
20
6.434927353132
30
0
41
1
10
87.3905759631099
20
6.43668224943411
30
0
41
1
10
87.3904945499332
20
6.43902208946358
30
0
41
1
10
87.3903826076258
20
6.44223931650006
30
0
41
1
10
87.3902604897751
20
6.44574895135477
30
0
41
1
10
87.3900162561731
20
6.45276808376244
30
0
41
1
10
87.3896499137899
20
6.4632962578626
30
0
41
1
10
87.3889985977012
20
6.48201567630221
30
0
41
1
10
87.3883471251722
20
6.50074532610833
30
0
41
1
10
87.387736044271
20
6.51832565465918
30
0
41
1
10
87.3874103960653
20
6.52768472042197
30
0
41
1
10
87.3871663886579
20
6.53468905946005
30
0
41
1
10
87.3870038508644
20
6.53934986740069
30
0
41
1
10
87.3868613375824
20
6.54344721807581
30
0
41
1
10
87.3867797592465
20
6.54579785970043
30
0
41
1
10
87.3867184897715
20
6.54756644729611
30
0
41
1
10
87.3866571199379
20
6.54934159845533
30
0
41
1
10
87.3865958310184
20
6.55111145774146
30
0
41
1
10
87.386534804286
20
6.55286416971776
30
0
41
1
10
87.3864742210134
20
6.55458787894761
30
0
41
1
10
87.3864242555634
20
6.55599025481988
30
0
41
1
10
87.3863895179654
20
6.55709149295677
30
0
41
1
10
87.386367312747
20
6.55790703191167
30
0
41
1
10
87.3863501861075
20
6.55871212285143
30
0
41
1
10
87.3863377791467
20
6.55951126722189
30
0
41
1
10
87.386329732965
20
6.56030896646882
30
0
41
1
10
87.3863172427511
20
6.56296909449614
30
0
41
1
10
87.3864040645283
20
6.56754546001542
30
0
41
1
10
87.3868113126862
20
6.57410964658629
30
0
41
1
10
87.3875167161026
20
6.58074480311245
30
0
41
1
10
87.3888703947943
20
6.58966469735117
30
0
41
1
10
87.3908671853786
20
6.59866170829068
30
0
41
1
10
87.3935284581213
20
6.60764120604856
30
0
41
1
10
87.3966398423916
20
6.61657748505783
30
0
41
1
10
87.4004370790861
20
6.62540162100299
30
0
41
1
10
87.4049034899019
20
6.63401021042321
30
0
41
1
10
87.4098104573644
20
6.64244063433986
30
0
41
1
10
87.4153699206452
20
6.65055210827077
30
0
41
1
10
87.421525069758
20
6.65825189252809
30
0
41
1
10
87.4280584060966
20
6.66564630377371
30
0
41
1
10
87.4368986713266
20
6.674258781129
30
0
41
1
10
87.4484083435505
20
6.68345818069221
30
0
41
1
10
87.4606429719796
20
6.69139529245203
30
0
41
1
10
87.4733993653485
20
6.69802228782959
30
0
41
1
10
87.4864743323917
20
6.70329133824615
30
0
41
1
10
87.499676811379
20
6.70723204088989
30
0
41
1
10
87.5128157405802
20
6.70987399294904
30
0
41
1
10
87.521981582096
20
6.71088541447523
30
0
41
1
10
87.5270002365083
20
6.71120031051791
30
0
41
1
10
87.5280602759521
20
6.7112580724889
30
0
41
1
10
87.529128633714
20
6.71131008598684
30
0
41
1
10
87.5302184658099
20
6.71135338599851
30
0
41
1
10
87.5313291968566
20
6.71139288539985
30
0
41
1
10
87.5320319917854
20
6.71141701245392
30
0
41
1
10
87.5334502838726
20
6.71146596172807
30
0
41
1
10
87.5351899329624
20
6.71152676402059
30
0
41
1
10
87.5373938140294
20
6.71160437149143
30
0
41
1
10
87.5388674551895
20
6.71165634990285
30
0
41
1
10
87.5418065754344
20
6.71175986003263
30
0
41
1
10
87.5453093055717
20
6.71188274699898
30
0
41
1
10
87.5496690134876
20
6.71203533203536
30
0
41
1
10
87.5566380164926
20
6.71227911073908
30
0
41
1
10
87.5671241693013
20
6.7126465655669
30
0
41
1
10
87.5858051240816
20
6.71330194780089
30
0
41
1
10
87.6091280883187
20
6.71411963066714
30
0
41
1
10
87.6289381883537
20
6.71481387195118
30
0
41
1
10
87.6405922319784
20
6.71522230629131
30
0
41
1
10
87.6440885133621
20
6.71534484033106
30
0
41
1
10
87.6470021370309
20
6.71544695508737
30
0
41
1
10
87.6493330688368
20
6.71552864869136
30
0
41
1
10
87.651081283967
20
6.71558991978509
30
0
41
1
10
87.6528295152132
20
6.7156511917608
30
0
41
1
10
87.6545777624158
20
6.71571246460979
30
0
41
1
10
87.6563260254152
20
6.71577373832329
30
0
41
1
10
87.6577829242789
20
6.71582480046436
30
0
41
1
10
87.6595312145233
20
6.71588607566895
30
0
41
1
10
87.6612795201654
20
6.71594735171618
30
0
41
1
10
87.6633192321867
20
6.71601884164778
30
0
41
1
10
87.6647761818434
20
6.71606990656863
30
0
41
1
10
87.6700212339946
20
6.71625374211098
30
0
41
1
10
87.679346086009
20
6.71658057808435
30
0
41
1
10
87.7070309045241
20
6.71755096345279
30
0
41
1
10
87.7350110730841
20
6.71853177853401
30
0
41
1
10
87.7629935375614
20
6.71951271926591
30
0
41
1
10
87.7769851472342
20
6.72000321028804
30
0
41
1
10
87.7886450683656
20
6.72041196629164
30
0
41
1
10
87.7976816108674
20
6.7207287578656
30
0
41
1
10
87.8023456598446
20
6.72089226467401
30
0
41
1
10
87.8052606976062
20
6.72099445682059
30
0
41
1
10
87.8067182177779
20
6.72104555296451
30
0
41
1
10
87.8084672438896
20
6.72110686844155
30
0
41
1
10
87.8102162717474
20
6.72116818401415
30
0
41
1
10
87.8125483110064
20
6.72124993822669
30
0
41
1
10
87.815463363647
20
6.72135213118756
30
0
41
1
10
87.8224594988437
20
6.72159739477854
30
0
41
1
10
87.8306216749617
20
6.72188353664106
30
0
41
1
10
87.8393668489819
20
6.72219011640476
30
0
41
1
10
87.8440309312654
20
6.72235362503591
30
0
41
1
10
87.8475289865503
20
6.72247625615751
30
0
41
1
10
87.8493596304353
20
6.72254043287964
30
0
41
1
10
87.8506072643972
20
6.72258417104271
30
0
41
1
10
87.8506888831785
20
6.722587032343
30
0
0
SPLINE
5
21A
100
AcDbEntity
8
1
62
256
6
ByLayer
370
-1
48
1
60
0
100
AcDbSpline
70
4
71
1
72
4
73
2
40
0
40
0
40
1
40
1
41
1
10
86.7384518506476
20
6.65225990204621
30
0
41
1
10
86.7379711830348
20
6.666076999778
30
0
0
SPLINE
5
21B
100
AcDbEntity
8
1
62
256
6
ByLayer
370
-1
48
1
60
0
100
AcDbSpline
70
4
71
3
72
150
73
146
40
0
40
0
40
0
40
0
40
0.200919836739823
40
0.401839673479645
40
0.452069632664601
40
0.502299591849557
40
0.552215613789606
40
0.577173624759631
40
0.601975648161093
40
0.602131635729656
40
0.602445572974562
40
0.602759510219468
40
0.604329196443998
40
0.605114039556263
40
0.605898882668528
40
0.607468568893057
40
0.608253412005322
40
0.609038255117587
40
0.60943067667372
40
0.612177627566647
40
0.615317000015707
40
0.618456372464767
40
0.621595744913826
40
0.623165431138356
40
0.624735117362886
40
0.626304803587416
40
0.627089646699681
40
0.627874489811946
40
0.628266911368078
40
0.634153234710065
40
0.640431979608185
40
0.652989469404424
40
0.665546959200663
40
0.678104448996901
40
0.684383193895021
40
0.687522566344081
40
0.689877095680876
40
0.69066193879314
40
0.69223162501767
40
0.693016468129935
40
0.6938013112422
40
0.694586154354465
40
0.69537099746673
40
0.696155840578995
40
0.69694068369126
40
0.697333105247392
40
0.69851036991579
40
0.70008005614032
40
0.701649742364849
40
0.703219428589379
40
0.709498173487499
40
0.715776918385618
40
0.728334408181857
40
0.734613153079977
40
0.739322211753566
40
0.740891897978096
40
0.744031270427156
40
0.745600956651686
40
0.74638579976395
40
0.747170642876215
40
0.74795548598848
40
0.748740329100745
40
0.74952517221301
40
0.750310015325275
40
0.75109485843754
40
0.751487279993673
40
0.751879701549805
40
0.752272123105938
40
0.75266454466207
40
0.753056966218203
40
0.753449387774335
40
0.756588760223395
40
0.759728132672454
40
0.762867505121514
40
0.766006877570574
40
0.772285622468694
40
0.775424994917753
40
0.778564367366813
40
0.784843112264932
40
0.787982484713992
40
0.791121857163052
40
0.797400602061171
40
0.800539974510231
40
0.803679346959291
40
0.80995809185741
40
0.81623683675553
40
0.822515581653649
40
0.828794326551769
40
0.835073071449888
40
0.841351816348007
40
0.847630561246127
40
0.853909306144246
40
0.854694149256511
40
0.855086570812644
40
0.855478992368776
40
0.856263835481041
40
0.856656257037174
40
0.857048678593306
40
0.857244889371372
40
0.858618364817836
40
0.859403207930101
40
0.860188051042366
40
0.860580472598498
40
0.863327423491426
40
0.864897109715955
40
0.866466795940485
40
0.872745540838605
40
0.879024285736724
40
0.891581775532963
40
0.904139265329202
40
0.905708951553732
40
0.907278637778262
40
0.908848324002792
40
0.909633167115056
40
0.910418010227321
40
0.911202853339586
40
0.911987696451851
40
0.912772539564116
40
0.913557382676381
40
0.913949804232514
40
0.915127068900911
40
0.915911912013176
40
0.916696755125441
40
0.917089176681573
40
0.92297550002356
40
0.92925424492168
40
0.954369224514158
40
0.960647969412277
40
0.966926714310397
40
0.973205459208516
40
0.976344831657576
40
0.979091782550503
40
0.979484204106635
40
0.9802690472189
40
0.981053890331165
40
0.98183873344343
40
0.982623576555695
40
0.984193262780225
40
0.985762949004755
40
0.992041693902874
40
0.995181066351934
40
0.997535595688729
40
0.998320438800994
40
0.999890125025524
40
1
40
1
40
1
40
1
41
1
10
89.331308902662
20
3.11050194253969
30
0
41
1
10
89.1820796408817
20
3.10527083594775
30
0
41
1
10
88.8836211173211
20
3.09480862276382
30
0
41
1
10
88.5478487687885
20
3.08303853263769
30
0
41
1
10
88.32401626779
20
3.07519204826471
30
0
41
1
10
88.2123324162013
20
3.07127696779077
30
0
41
1
10
88.1194141157662
20
3.06801979015285
30
0
41
1
10
88.0453776514721
20
3.06542458320917
30
0
41
1
10
88.0082997659451
20
3.06412492252952
30
0
41
1
10
87.9895271112885
20
3.06346691024766
30
0
41
1
10
87.9889448380405
20
3.06344650062292
30
0
41
1
10
87.9873124313037
20
3.06338928213304
30
0
41
1
10
87.9853302189779
20
3.06331980247435
30
0
41
1
10
87.9829981990203
20
3.06323806161532
30
0
41
1
10
87.9806661756381
20
3.06315632070354
30
0
41
1
10
87.9783341474389
20
3.06307457971755
30
0
41
1
10
87.9760021150621
20
3.06299283866719
30
0
41
1
10
87.9745445932192
20
3.06294175048595
30
0
41
1
10
87.9716295473222
20
3.0628395740894
30
0
41
1
10
87.9669654648785
20
3.06267609171613
30
0
41
1
10
87.9602608301299
20
3.06244108555438
30
0
41
1
10
87.9532646816837
20
3.06219586161265
30
0
41
1
10
87.9474345599735
20
3.06199150835863
30
0
41
1
10
87.9427704689186
20
3.06182802585266
30
0
41
1
10
87.9392724050632
20
3.06170541404154
30
0
41
1
10
87.9363573566126
20
3.06160323760565
30
0
41
1
10
87.934025321349
20
3.06152149651081
30
0
41
1
10
87.9325678008996
20
3.06147040835106
30
0
41
1
10
87.9273207319352
20
3.06128649104755
30
0
41
1
10
87.9179926551597
20
3.06095952765858
30
0
41
1
10
87.8996282763954
20
3.06031582268324
30
0
41
1
10
87.8763091705683
20
3.05949843094481
30
0
41
1
10
87.8483280828206
20
3.0585175891965
30
0
41
1
10
87.8250125881418
20
3.05770025309616
30
0
41
1
10
87.8086931195635
20
3.05712813905248
30
0
41
1
10
87.7999509545093
20
3.05682165566316
30
0
41
1
10
87.7952885991955
20
3.05665819990028
30
0
41
1
10
87.7917918915067
20
3.05653560898404
30
0
41
1
10
87.7894607827656
20
3.05645388216442
30
0
41
1
10
87.787129704382
20
3.05637215581254
30
0
41
1
10
87.785381410933
20
3.05631086128494
30
0
41
1
10
87.7836331329826
20
3.05624956699614
30
0
41
1
10
87.7818848706906
20
3.05618827294859
30
0
41
1
10
87.7801366242169
20
3.05612697914475
30
0
41
1
10
87.7786797654708
20
3.05607590118004
30
0
41
1
10
87.7769315470789
20
3.05601460780886
30
0
41
1
10
87.7746006108472
20
3.05593288364716
30
0
41
1
10
87.7713956263308
20
3.05582051373833
30
0
41
1
10
87.7678993466964
20
3.05569792941725
30
0
41
1
10
87.7609069242066
20
3.05545276288248
30
0
41
1
10
87.7504188129875
20
3.05508502113088
30
0
41
1
10
87.7317706275866
20
3.0544312171206
30
0
41
1
10
87.7131122497526
20
3.05377725607241
30
0
41
1
10
87.6955988196595
20
3.05316384094138
30
0
41
1
10
87.6862753679675
20
3.05283694881248
30
0
41
1
10
87.6792976825542
20
3.05259200933634
30
0
41
1
10
87.6746546103949
20
3.05242885067494
30
0
41
1
10
87.6705728513761
20
3.05228579301533
30
0
41
1
10
87.6682311546525
20
3.05220390306343
30
0
41
1
10
87.6664692970666
20
3.05214239954904
30
0
41
1
10
87.6647009008935
20
3.05208079529263
30
0
41
1
10
87.6629377764563
20
3.05201927225946
30
0
41
1
10
87.6611917340782
20
3.05195801241481
30
0
41
1
10
87.6594745840824
20
3.05189719772392
30
0
41
1
10
87.6580775446737
20
3.05184704141402
30
0
41
1
10
87.6569804970804
20
3.05181217112411
30
0
41
1
10
87.6561680614975
20
3.05178988108531
30
0
41
1
10
87.6553660341718
20
3.0517726890248
30
0
41
1
10
87.6545699307869
20
3.05176023467155
30
0
41
1
10
87.6537752670264
20
3.05175215775461
30
0
41
1
10
87.6511252615894
20
3.05173961983019
30
0
41
1
10
87.6465663105225
20
3.05182677325243
30
0
41
1
10
87.6400271026633
20
3.05223557703212
30
0
41
1
10
87.633417194911
20
3.05294367497498
30
0
41
1
10
87.6245312435628
20
3.05430252449941
30
0
41
1
10
87.6155684689662
20
3.05630694249936
30
0
41
1
10
87.6066231409083
20
3.05897838087162
30
0
41
1
10
87.5977208671386
20
3.06210165012433
30
0
41
1
10
87.5889303096948
20
3.06591339164612
30
0
41
1
10
87.5803544785563
20
3.07039686342568
30
0
41
1
10
87.5719561349479
20
3.07532257470663
30
0
41
1
10
87.5638755276242
20
3.08090327423406
30
0
41
1
10
87.5562050433706
20
3.0870819350165
30
0
41
1
10
87.5488387700922
20
3.0936402276385
30
0
41
1
10
87.5402590658134
20
3.10251426124552
30
0
41
1
10
87.5310946727429
20
3.11406789854755
30
0
41
1
10
87.5231877640896
20
3.12634926126964
30
0
41
1
10
87.5165859864302
20
3.13915438198882
30
0
41
1
10
87.5113369863412
20
3.15227929328202
30
0
41
1
10
87.5074112792609
20
3.16553220359424
30
0
41
1
10
87.5047793806269
20
3.17872132137046
30
0
41
1
10
87.503771807865
20
3.18792217491182
30
0
41
1
10
87.5034581100968
20
3.19295999976865
30
0
41
1
10
87.5034005679275
20
3.19402408839093
30
0
41
1
10
87.5033487523567
20
3.1950965271059
30
0
41
1
10
87.5033056171146
20
3.19619052218337
30
0
41
1
10
87.5032662680204
20
3.19730549604222
30
0
41
1
10
87.5032422327771
20
3.19801097553346
30
0
41
1
10
87.5031934697697
20
3.19943468526603
30
0
41
1
10
87.5031328988483
20
3.20118097953272
30
0
41
1
10
87.5030555866973
20
3.20339327906734
30
0
41
1
10
87.5030038060794
20
3.20487254929728
30
0
41
1
10
87.5029006898369
20
3.20782289650407
30
0
41
1
10
87.5027782704926
20
3.21133900650145
30
0
41
1
10
87.5026262660883
20
3.21571536779325
30
0
41
1
10
87.5023834150361
20
3.22271099125769
30
0
41
1
10
87.5020173584849
20
3.23323719946657
30
0
41
1
10
87.5013644701781
20
3.25198951245918
30
0
41
1
10
87.5005498988421
20
3.27540156663073
30
0
41
1
10
87.4998582993558
20
3.29528733802962
30
0
41
1
10
87.4994514192316
20
3.3069858982077
30
0
41
1
10
87.4993293514708
20
3.31049553481827
30
0
41
1
10
87.499227625292
20
3.31342028805619
30
0
41
1
10
87.4991462425569
20
3.31576012364289
30
0
41
1
10
87.4990852046182
20
3.31751501667082
30
0
41
1
10
87.4990241658008
20
3.3192699258764
30
0
41
1
10
87.4989631261135
20
3.32102485109934
30
0
41
1
10
87.498902085565
20
3.32277979217932
30
0
41
1
10
87.4988512177308
20
3.32424225616001
30
0
41
1
10
87.4987901756969
20
3.32599722458917
30
0
41
1
10
87.4987291328234
20
3.32775220847475
30
0
41
1
10
87.4986579149326
20
3.32979971186455
30
0
41
1
10
87.4986070443292
20
3.33126222683225
30
0
41
1
10
87.4984239083366
20
3.33652731423064
30
0
41
1
10
87.4980983160728
20
3.34588778566487
30
0
41
1
10
87.4971316233136
20
3.37367835568904
30
0
41
1
10
87.4961545405299
20
3.40176540394748
30
0
41
1
10
87.4951773325737
20
3.42985475689309
30
0
41
1
10
87.494688708018
20
3.4438998122418
30
0
41
1
10
87.4942815074544
20
3.45560427237763
30
0
41
1
10
87.493965921368
20
3.46467533300381
30
0
41
1
10
87.4938030367524
20
3.46935719789039
30
0
41
1
10
87.4937012334777
20
3.47228337062265
30
0
41
1
10
87.49365033177
20
3.47374645828458
30
0
41
1
10
87.4935892496169
20
3.47550216539196
30
0
41
1
10
87.4935281673686
20
3.47725787425205
30
0
41
1
10
87.4934467242555
20
3.47959882152213
30
0
41
1
10
87.4933449201697
20
3.48252500919026
30
0
41
1
10
87.4931005898807
20
3.48954786848682
30
0
41
1
10
87.4928155368744
20
3.49774122279158
30
0
41
1
10
87.4925101237393
20
3.50651980195582
30
0
41
1
10
87.4923472373078
20
3.51120170027596
30
0
41
1
10
87.4922250728346
20
3.51471311756382
30
0
41
1
10
87.4921611403244
20
3.51655075421098
30
0
41
1
10
87.4921175685981
20
3.51780315393199
30
0
41
1
10
87.492114718186
20
3.51788508448377
30
0
0
SPLINE
5
21C
100
AcDbEntity
8
1
62
256
6
ByLayer
370
-1
48
1
60
0
100
AcDbSpline
70
4
71
3
72
83
73
79
40
0
40
0
40
0
40
0
40
0.0019524496734396
40
0.0055614898931967
40
0.0091705301129539
40
0.0127795703327111
40
0.0163886105524683
40
0.0236066909919826
40
0.030824771431497
40
0.0380428518710114
40
0.0957874953871263
40
0.153532138903241
40
0.182404460661299
40
0.211276782419356
40
0.21849486285887
40
0.225712943298385
40
0.238344584067535
40
0.240149104177414
40
0.243758144397171
40
0.247367184616928
40
0.253683005001503
40
0.254585265056442
40
0.256389785166321
40
0.2581943052762
40
0.261803345495957
40
0.263607865605835
40
0.265412385715714
40
0.269021425935471
40
0.297893747693529
40
0.326766069451586
40
0.355638391209643
40
0.384510712967701
40
0.413383034725758
40
0.442255356483816
40
0.471127678241873
40
0.499999999999931
40
0.51443616087896
40
0.528872321757988
40
0.557744643516046
40
0.572180804395075
40
0.586616965274104
40
0.615489287032161
40
0.62992544791119
40
0.644361608790217
40
0.673233930548275
40
0.687670091427303
40
0.702106252306333
40
0.716542413185361
40
0.73097857406439
40
0.732783094174268
40
0.734587614284148
40
0.736392134394027
40
0.738196654503905
40
0.740001174613783
40
0.741805694723663
40
0.745414734943419
40
0.749023775163177
40
0.752632815382933
40
0.756241855602691
40
0.759850895822448
40
0.763459936042205
40
0.767068976261962
40
0.774287056701476
40
0.788723217580505
40
0.795941298020019
40
0.817595539338563
40
0.84646786109662
40
0.904212504612735
40
0.933084826370792
40
0.96195714812885
40
0.969175228568365
40
0.976393309007879
40
0.983611389447394
40
0.989024949777029
40
0.990829469886907
40
0.994438510106665
40
0.998047550326422
40
1
40
1
40
1
40
1
41
1
10
91.672080085996
20
7.08207750905606
30
0
41
1
10
91.672037893845
20
7.08247470418056
30
0
41
1
10
91.67191756886
20
7.08360070780046
30
0
41
1
10
91.6717171942657
20
7.08543231976793
30
0
41
1
10
91.6714738044698
20
7.0875725136622
30
0
41
1
10
91.6712197902407
20
7.08970658788593
30
0
41
1
10
91.6708669274703
20
7.09254710107959
30
0
41
1
10
91.6703992458467
20
7.09609459510537
30
0
41
1
10
91.6697953955169
20
7.10036599472625
30
0
41
1
10
91.667639105917
20
7.11464108359939
30
0
41
1
10
91.6628656752704
20
7.13910884063563
30
0
41
1
10
91.6548087380031
20
7.1680439859629
30
0
41
1
10
91.6468480504408
20
7.19110196772689
30
0
41
1
10
91.6417978959743
20
7.20400197795323
30
0
41
1
10
91.6381909768426
20
7.21255764785616
30
0
41
1
10
91.6358766663154
20
7.21789287277667
30
0
41
1
10
91.6339592896487
20
7.22214669407324
30
0
41
1
10
91.6323215791
20
7.22568169431753
30
0
41
1
10
91.6314952448051
20
7.22744731664102
30
0
41
1
10
91.6302407917344
20
7.23009187146144
30
0
41
1
10
91.6292207895408
20
7.23220311341217
30
0
41
1
10
91.6283608317171
20
7.2339596703041
30
0
41
1
10
91.6279289862566
20
7.23483741776664
30
0
41
1
10
91.627234052404
20
7.23624066453306
30
0
41
1
10
91.6265331481605
20
7.23764216292551
30
0
41
1
10
91.6258262760911
20
7.23904186371701
30
0
41
1
10
91.6251154263262
20
7.24044034969884
30
0
41
1
10
91.6217105549542
20
7.24707438567964
30
0
41
1
10
91.6153135297567
20
7.25884911968299
30
0
41
1
10
91.6055305169755
20
7.27517886582137
30
0
41
1
10
91.5950068924701
20
7.29116449150089
30
0
41
1
10
91.5837627705799
20
7.30675686269058
30
0
41
1
10
91.5718182656445
20
7.32190684535931
30
0
41
1
10
91.5592019803333
20
7.33656880346797
30
0
41
1
10
91.5459425173157
20
7.35069710097738
30
0
41
1
10
91.5343871830044
20
7.3619923498749
30
0
41
1
10
91.5248575662524
20
7.37072138046011
30
0
41
1
10
91.5151448190968
20
7.37924005277148
30
0
41
1
10
91.505168030033
20
7.38743481879422
30
0
41
1
10
91.4949485064556
20
7.39528894077245
30
0
41
1
10
91.484575051012
20
7.40291172362481
30
0
41
1
10
91.4739825344837
20
7.41018113314414
30
0
41
1
10
91.4631946302994
20
7.41708444004198
30
0
41
1
10
91.4522848395
20
7.42374089276353
30
0
41
1
10
91.4412047765116
20
7.43002288557781
30
0
41
1
10
91.4299795568012
20
7.43592206119902
30
0
41
1
10
91.4214944618302
20
7.44015406123555
30
0
41
1
10
91.4129495848438
20
7.44419270650985
30
0
41
1
10
91.4068591500899
20
7.4469157646889
30
0
41
1
10
91.4032655291447
20
7.44847178996275
30
0
41
1
10
91.4021867209848
20
7.44893554618423
30
0
41
1
10
91.4011072032234
20
7.44939625126133
30
0
41
1
10
91.4000269881353
20
7.44985390541044
30
0
41
1
10
91.3989460879953
20
7.4503085088478
30
0
41
1
10
91.3975039907724
20
7.45091057943708
30
0
41
1
10
91.3956997179879
20
7.45165554197601
30
0
41
1
10
91.3935320468354
20
7.45253729763698
30
0
41
1
10
91.3913619300701
20
7.45340685564278
30
0
41
1
10
91.3891894658903
20
7.45426421772393
30
0
41
1
10
91.3870147524944
20
7.45510938561108
30
0
41
1
10
91.3848378880806
20
7.45594236103472
30
0
41
1
10
91.3819326651029
20
7.45703674062233
30
0
41
1
10
91.3768416837175
20
7.45890924339241
30
0
41
1
10
91.3710093534806
20
7.46095176222835
30
0
41
1
10
91.3622444729493
20
7.46386939705451
30
0
41
1
10
91.3505328133123
20
7.46750050285399
30
0
41
1
10
91.3285300686309
20
7.47346599037357
30
0
41
1
10
91.3050765921896
20
7.47830566916556
30
0
41
1
10
91.28181445689
20
7.4816849119257
30
0
41
1
10
91.2688303542045
20
7.48305418602948
30
0
41
1
10
91.2602284290445
20
7.48375227027128
30
0
41
1
10
91.2559415262401
20
7.48405899286794
30
0
41
1
10
91.25202771532
20
7.48430194306655
30
0
41
1
10
91.2491801200767
20
7.48445356545403
30
0
41
1
10
91.247040291126
20
7.48455629687317
30
0
41
1
10
91.2452537625776
20
7.48463499018663
30
0
41
1
10
91.243419587758
20
7.48470787342026
30
0
41
1
10
91.2422922079259
20
7.48474981775999
30
0
41
1
10
91.2418945449386
20
7.48476436097636
30
0
0
SPLINE
5
21D
100
AcDbEntity
8
1
62
256
6
ByLayer
370
-1
48
1
60
0
100
AcDbSpline
70
4
71
1
72
4
73
2
40
0
40
0
40
1
40
1
41
1
10
91.6969339312517
20
6.82607533199925
30
0
41
1
10
91.7595139796977
20
5.02717184336487
30
0
0
SPLINE
5
21E
100
AcDbEntity
8
1
62
256
6
ByLayer
370
-1
48
1
60
0
100
AcDbSpline
70
4
71
1
72
4
73
2
40
0
40
0
40
1
40
1
41
1
10
87.4016378167564
20
7.36615637263068
30
0
41
1
10
89.1936959345127
20
7.42897546669519
30
0
0
SPLINE
5
21F
100
AcDbEntity
8
1
62
256
6
ByLayer
370
-1
48
1
60
0
100
AcDbSpline
70
4
71
3
72
40
73
36
40
0
40
0
40
0
40
0
40
0.015625
40
0.03125
40
0.03515625
40
0.0390625
40
0.046875
40
0.0625
40
0.125
40
0.1875
40
0.25
40
0.3125
40
0.34375
40
0.3515625
40
0.359375
40
0.375
40
0.4375
40
0.5
40
0.5625
40
0.59375
40
0.6015625
40
0.609375
40
0.625
40
0.640625
40
0.6484375
40
0.65625
40
0.6875
40
0.71875
40
0.75
40
0.78125
40
0.796875
40
0.8046875
40
0.8125
40
0.875
40
1
40
1
40
1
40
1
41
1
10
91.0904547337043
20
5.0041608319051
30
0
41
1
10
91.0940566386543
20
5.00428709366167
30
0
41
1
10
91.1014353819754
20
5.00454332048747
30
0
41
1
10
91.1095325988878
20
5.00481887723831
30
0
41
1
10
91.1146059310701
20
5.00498921914146
30
0
41
1
10
91.1178958737136
20
5.00509896246424
30
0
41
1
10
91.1237104342702
20
5.00529299997945
30
0
41
1
10
91.1419286231491
20
5.00590088080406
30
0
41
1
10
91.1717703954
20
5.00689664418786
30
0
41
1
10
91.2115473701215
20
5.00822390971476
30
0
41
1
10
91.2513212519719
20
5.00955106661141
30
0
41
1
10
91.2844710691594
20
5.01065720702036
30
0
41
1
10
91.3060135175629
20
5.01137601624271
30
0
41
1
10
91.3159614249959
20
5.01170796846452
30
0
41
1
10
91.322567874332
20
5.01192836915021
30
0
41
1
10
91.3408195279643
20
5.01253863925689
30
0
41
1
10
91.3718217302443
20
5.01358272176236
30
0
41
1
10
91.4147249196104
20
5.01504336422593
30
0
41
1
10
91.4511444436164
20
5.0162959494605
30
0
41
1
10
91.4748336189451
20
5.01711668631182
30
0
41
1
10
91.485722371788
20
5.01749505928916
30
0
41
1
10
91.4930165752839
20
5.01774883880293
30
0
41
1
10
91.5021693864613
20
5.01806723053431
30
0
41
1
10
91.5113086316693
20
5.01838516775214
30
0
41
1
10
91.5186272539104
20
5.01863976539028
30
0
41
1
10
91.5295734875393
20
5.01902058901936
30
0
41
1
10
91.5460144195595
20
5.01959439698877
30
0
41
1
10
91.5679013107634
20
5.02036191641463
30
0
41
1
10
91.5896516826305
20
5.02112832615927
30
0
41
1
10
91.6075848675195
20
5.02176334313955
30
0
41
1
10
91.6199842528633
20
5.02220403319262
30
0
41
1
10
91.6270386386585
20
5.02245523192411
30
0
41
1
10
91.6447052790797
20
5.02308421152651
30
0
41
1
10
91.6888590485815
20
5.02465627468706
30
0
41
1
10
91.7312528163342
20
5.0261656402229
30
0
41
1
10
91.7595139796977
20
5.02717184336484
30
0
0
SPLINE
5
220
100
AcDbEntity
8
1
62
256
6
ByLayer
370
-1
48
1
60
0
100
AcDbSpline
70
4
71
1
72
4
73
2
40
0
40
0
40
1
40
1
41
1
10
86.8636119475395
20
3.05445292477748
30
0
41
1
10
86.8010318990935
20
4.85335641341186
30
0
0
SPLINE
5
221
100
AcDbEntity
8
1
62
256
6
ByLayer
370
-1
48
1
60
0
100
AcDbSpline
70
4
71
1
72
4
73
2
40
0
40
0
40
1
40
1
41
1
10
91.1726725815382
20
2.51485438783101
30
0
41
1
10
91.1589080620348
20
2.51437188414604
30
0
0
SPLINE
5
222
100
AcDbEntity
8
1
62
256
6
ByLayer
370
-1
48
1
60
0
100
AcDbSpline
70
4
71
3
72
12
73
8
40
0
40
0
40
0
40
0
40
0.25
40
0.25
40
0.5
40
0.5
40
1
40
1
40
1
40
1
41
1
10
91.3418466315779
20
0.265439843362941
30
0
41
1
10
91.3500009828464
20
0.256414170715033
30
0
41
1
10
91.358029171413
20
0.246502234962236
30
0
41
1
10
91.3730602862322
20
0.225115834290932
30
0
41
1
10
91.3797313707882
20
0.214076883008062
30
0
41
1
10
91.3964921824788
20
0.181852772972945
30
0
41
1
10
91.403029848748
20
0.162679246779447
30
0
41
1
10
91.4073110417655
20
0.145705955797041
30
0
0
SPLINE
5
223
100
AcDbEntity
8
1
62
256
6
ByLayer
370
-1
48
1
60
0
100
AcDbSpline
70
4
71
3
72
14
73
10
40
0
40
0
40
0
40
0
40
0.25
40
0.25
40
0.5
40
0.5
40
0.75
40
0.75
40
1
40
1
40
1
40
1
41
1
10
91.5347688267722
20
-0.432193814387375
30
0
41
1
10
91.5319837197682
20
-0.452787280726994
30
0
41
1
10
91.5293501022803
20
-0.474436570947233
30
0
41
1
10
91.5245643486263
20
-0.521090891705995
30
0
41
1
10
91.5223950679963
20
-0.546195594208172
30
0
41
1
10
91.518967947082
20
-0.60171126254491
30
0
41
1
10
91.5176974198878
20
-0.632278078782036
30
0
41
1
10
91.5170233083539
20
-0.700681813184389
30
0
41
1
10
91.5176884531368
20
-0.739048511371237
30
0
41
1
10
91.5197964804864
20
-0.779174086807956
30
0
0
SPLINE
5
224
100
AcDbEntity
8
1
62
256
6
ByLayer
370
-1
48
1
60
0
100
AcDbSpline
70
4
71
3
72
10
73
6
40
0
40
0
40
0
40
0
40
0.5
40
0.5
40
1
40
1
40
1
40
1
41
1
10
91.3209912348254
20
0.28852371329117
30
0
41
1
10
91.3009162256279
20
0.310743808484034
30
0
41
1
10
91.2804495198994
20
0.33390074500457
30
0
41
1
10
91.2389173449366
20
0.382189125793161
30
0
41
1
10
91.2179398339287
20
0.407256705092067
30
0
41
1
10
91.1984116311597
20
0.4312401571338
30
0
0
SPLINE
5
225
100
AcDbEntity
8
1
62
256
6
ByLayer
370
-1
48
1
60
0
100
AcDbSpline
70
4
71
3
72
10
73
6
40
0
40
0
40
0
40
0
40
0.5
40
0.5
40
1
40
1
40
1
40
1
41
1
10
91.5266602312394
20
-0.322331610784175
30
0
41
1
10
91.5331098249679
20
-0.344844809184082
30
0
41
1
10
91.5358312217332
20
-0.364363204949228
30
0
41
1
10
91.5377595821519
20
-0.400443147376507
30
0
41
1
10
91.5368296547529
20
-0.41695576731351
30
0
41
1
10
91.5347688267726
20
-0.432193814390217
30
0
0
SPLINE
5
226
100
AcDbEntity
8
1
62
256
6
ByLayer
370
-1
48
1
60
0
100
AcDbSpline
70
4
71
3
72
16
73
12
40
0
40
0
40
0
40
0
40
0.249999999999992
40
0.249999999999992
40
0.499999999999984
40
0.499999999999984
40
0.749999999999976
40
0.749999999999976
40
0.874999999999988
40
0.874999999999988
40
1
40
1
40
1
40
1
41
1
10
91.8756279979959
20
-3.60906216225331
30
0
41
1
10
91.8795368930901
20
-3.63114349754733
30
0
41
1
10
91.8822548903775
20
-3.65419062914606
30
0
41
1
10
91.8839080427664
20
-3.70319095726572
30
0
41
1
10
91.8829069839148
20
-3.7292847167526
30
0
41
1
10
91.8737381702433
20
-3.78553817712003
30
0
41
1
10
91.8658149865941
20
-3.81601297492082
30
0
41
1
10
91.8411926825963
20
-3.86554476702153
30
0
41
1
10
91.8307124351368
20
-3.88260492520246
30
0
41
1
10
91.8045854883916
20
-3.91527856825329
30
0
41
1
10
91.7892295870608
20
-3.93039980734292
30
0
41
1
10
91.7728026143275
20
-3.94317143643565
30
0
0
SPLINE
5
227
100
AcDbEntity
8
1
62
256
6
ByLayer
370
-1
48
1
60
0
100
AcDbSpline
70
4
71
3
72
8
73
4
40
0
40
0
40
0
40
0
40
1
40
1
40
1
40
1
41
1
10
91.7816196960177
20
-2.43988836883671
30
0
41
1
10
91.7677556414332
20
-2.41331955671785
30
0
41
1
10
91.7536739835577
20
-2.3852004817727
30
0
41
1
10
91.7402292109383
20
-2.35694982978393
30
0
0
SPLINE
5
228
100
AcDbEntity
8
1
62
256
6
ByLayer
370
-1
48
1
60
0
100
AcDbSpline
70
4
71
3
72
8
73
4
40
0
40
0
40
0
40
0
40
1
40
1
40
1
40
1
41
1
10
91.5266602312394
20
-0.322331610784118
30
0
41
1
10
91.5187098522403
20
-0.294579713952714
30
0
41
1
10
91.5120310906734
20
-0.26946893927834
30
0
41
1
10
91.5060770216427
20
-0.245863335472137
30
0
0
SPLINE
5
229
100
AcDbEntity
8
1
62
256
6
ByLayer
370
-1
48
1
60
0
100
AcDbSpline
70
4
71
3
72
12
73
8
40
0
40
0
40
0
40
0
40
0.249999999999943
40
0.249999999999943
40
0.499999999999887
40
0.499999999999887
40
1
40
1
40
1
40
1
41
1
10
91.6093311651646
20
-4.08898410924388
30
0
41
1
10
91.6006705094713
20
-4.09750471079914
30
0
41
1
10
91.5909918608643
20
-4.10577020694922
30
0
41
1
10
91.5696946408003
20
-4.12090576629319
30
0
41
1
10
91.5585051119266
20
-4.1274372799617
30
0
41
1
10
91.5253509638628
20
-4.1433079869669
30
0
41
1
10
91.5050030123438
20
-4.14870486907151
30
0
41
1
10
91.4867177446163
20
-4.15170819856596
30
0
0
SPLINE
5
22A
100
AcDbEntity
8
1
62
256
6
ByLayer
370
-1
48
1
60
0
100
AcDbSpline
70
4
71
3
72
12
73
8
40
0
40
0
40
0
40
0
40
0.250000000000007
40
0.250000000000007
40
0.500000000000015
40
0.500000000000015
40
1
40
1
40
1
40
1
41
1
10
91.781619696018
20
-2.43988836883659
30
0
41
1
10
91.7922825825753
20
-2.46032252306321
30
0
41
1
10
91.8020188052113
20
-2.48227938169976
30
0
41
1
10
91.8182596705456
20
-2.52716287873014
30
0
41
1
10
91.8249065525448
20
-2.55032943981206
30
0
41
1
10
91.8398614487913
20
-2.6219193014708
30
0
41
1
10
91.842355894446
20
-2.66926338210197
30
0
41
1
10
91.8386243119926
20
-2.71324185249878
30
0
0
SPLINE
5
22B
100
AcDbEntity
8
1
62
256
6
ByLayer
370
-1
48
1
60
0
100
AcDbSpline
70
4
71
3
72
8
73
4
40
0
40
0
40
0
40
0
40
1
40
1
40
1
40
1
41
1
10
91.8335061620463
20
-2.79901060054161
30
0
41
1
10
91.8345390990726
20
-2.76950320827706
30
0
41
1
10
91.836336697538
20
-2.74020247465677
30
0
41
1
10
91.8386243119927
20
-2.71324185249881
30
0
0
SPLINE
5
22C
100
AcDbEntity
8
1
62
256
6
ByLayer
370
-1
48
1
60
0
100
AcDbSpline
70
4
71
3
72
10
73
6
40
0
40
0
40
0
40
0
40
0.5
40
0.5
40
1
40
1
40
1
40
1
41
1
10
91.6314814754313
20
-4.06719199848561
30
0
41
1
10
91.6528029438077
20
-4.04621532615971
30
0
41
1
10
91.6753362928436
20
-4.02511999870731
30
0
41
1
10
91.7231132510177
20
-3.98306118915201
30
0
41
1
10
91.7483164020233
20
-3.96220895640417
30
0
41
1
10
91.7728026143275
20
-3.94317143643556
30
0
0
SPLINE
5
22D
100
AcDbEntity
8
1
62
256
6
ByLayer
370
-1
48
1
60
0
100
AcDbSpline
70
4
71
3
72
8
73
4
40
0
40
0
40
0
40
0
40
1
40
1
40
1
40
1
41
1
10
91.7402292109396
20
-2.35694982978316
30
0
41
1
10
91.7390568650626
20
-2.35448645339736
30
0
41
1
10
91.7378823780672
20
-2.3520243556294
30
0
41
1
10
91.7367057588289
20
-2.34956353117917
30
0
0
SPLINE
5
22E
100
AcDbEntity
8
1
62
256
6
ByLayer
370
-1
48
1
60
0
100
AcDbSpline
70
4
71
3
72
16
73
12
40
0
40
0
40
0
40
0
40
0.25
40
0.25
40
0.5
40
0.5
40
0.75
40
0.75
40
0.875
40
0.875
40
1
40
1
40
1
40
1
41
1
10
91.8756279979959
20
-3.60906216225362
30
0
41
1
10
91.8695232364358
20
-3.57457638464885
30
0
41
1
10
91.8635313934178
20
-3.53897126770406
30
0
41
1
10
91.851949373885
20
-3.46400132983843
30
0
41
1
10
91.8463580548398
20
-3.42477819175855
30
0
41
1
10
91.8360314217211
20
-3.33934713531676
30
0
41
1
10
91.8312823964795
20
-3.29395314360582
30
0
41
1
10
91.8260242341804
20
-3.21380218729718
30
0
41
1
10
91.8246237275241
20
-3.185325153419
30
0
41
1
10
91.8232357204805
20
-3.1230921837242
30
0
41
1
10
91.8233232346481
20
-3.08990116357327
30
0
41
1
10
91.8244822547797
20
-3.05679201868077
30
0
0
SPLINE
5
22F
100
AcDbEntity
8
1
62
256
6
ByLayer
370
-1
48
1
60
0
100
AcDbSpline
70
4
71
3
72
12
73
8
40
0
40
0
40
0
40
0
40
0.306062359810716
40
0.306062359810716
40
0.653031179905358
40
0.653031179905358
40
1
40
1
40
1
40
1
41
1
10
91.0660611728654
20
0.529147458863605
30
0
41
1
10
91.078781571427
20
0.523878961925135
30
0
41
1
10
91.0920525306986
20
0.517474547292778
30
0
41
1
10
91.1216626412985
20
0.500528266868344
30
0
41
1
10
91.1381097075692
20
0.489420392627892
30
0
41
1
10
91.1701708819015
20
0.462666521683957
30
0
41
1
10
91.1853108195506
20
0.447329844989383
30
0
41
1
10
91.1984116311597
20
0.431240157133743
30
0
0
LINE
5
45
100
AcDbEntity
8
80
62
256
6
ByLayer
370
-1
48
1
60
0
100
AcDbLine
10
0
20
0
30
0
11
-7
21
0
31
0
39
0
210
0
220
0
230
1
0
LINE
5
46
100
AcDbEntity
8
81
62
256
6
ByLayer
370
-1
48
1
60
0
100
AcDbLine
10
92
20
0
30
0
11
99
21
0
31
0
39
0
210
0
220
0
230
1
0
LINE
5
47
100
AcDbEntity
8
SK1
62
256
6
ByLayer
370
-1
48
1
60
0
100
AcDbLine
10
-2
20
-9.99675
30
0
11
-1.551212
21
-9.787477
31
0
39
0
210
0
220
0
230
1
0
LINE
5
49
100
AcDbEntity
8
SK1
62
256
6
ByLayer
370
-1
48
1
60
0
100
AcDbLine
10
-1.551212
20
9.787477
30
0
11
-2
21
9.99675
31
0
39
0
210
0
220
0
230
1
0
LINE
5
4A
100
AcDbEntity
8
SK1
62
256
6
ByLayer
370
-1
48
1
60
0
100
AcDbLine
10
-2
20
9.99675
30
0
11
-46.6
21
9.99675
31
0
39
0
210
0
220
0
230
1
0
LINE
5
4B
100
AcDbEntity
8
SK1
62
256
6
ByLayer
370
-1
48
1
60
0
100
AcDbLine
10
-46.6
20
-9.99675
30
0
11
-2
21
-9.99675
31
0
39
0
210
0
220
0
230
1
0
LINE
5
4C
100
AcDbEntity
8
SK1
62
256
6
ByLayer
370
-1
48
1
60
0
100
AcDbLine
10
-0.15
20
9.75
30
0
11
-1.382165
21
9.75
31
0
39
0
210
0
220
0
230
1
0
LINE
5
4D
100
AcDbEntity
8
SK1
62
256
6
ByLayer
370
-1
48
1
60
0
100
AcDbLine
10
-1.382165
20
-9.75
30
0
11
-0.15
21
-9.75
31
0
39
0
210
0
220
0
230
1
0
LINE
5
4E
100
AcDbEntity
8
SK1
62
256
6
ByLayer
370
-1
48
1
60
0
100
AcDbLine
10
-48.6
20
9.99675
30
0
11
-49
21
9.99675
31
0
39
0
210
0
220
0
230
1
0
LINE
5
4F
100
AcDbEntity
8
SK1
62
256
6
ByLayer
370
-1
48
1
60
0
100
AcDbLine
10
-49
20
-9.99675
30
0
11
-48.6
21
-9.99675
31
0
39
0
210
0
220
0
230
1
0
LINE
5
50
100
AcDbEntity
8
SK1
62
256
6
ByLayer
370
-1
48
1
60
0
100
AcDbLine
10
-46.6
20
9.99675
30
0
11
-47.633814
21
9.640417
31
0
39
0
210
0
220
0
230
1
0
LINE
5
51
100
AcDbEntity
8
SK1
62
256
6
ByLayer
370
-1
48
1
60
0
100
AcDbLine
10
-47.633814
20
-9.640417
30
0
11
-46.6
21
-9.99675
31
0
39
0
210
0
220
0
230
1
0
LINE
5
52
100
AcDbEntity
8
SK1
62
256
6
ByLayer
370
-1
48
1
60
0
100
AcDbLine
10
-48.6
20
-9.99675
30
0
11
-48.516223
21
-9.893294
31
0
39
0
210
0
220
0
230
1
0
LINE
5
53
100
AcDbEntity
8
SK1
62
256
6
ByLayer
370
-1
48
1
60
0
100
AcDbLine
10
-48.516223
20
9.893294
30
0
11
-48.6
21
9.99675
31
0
39
0
210
0
220
0
230
1
0
LINE
5
54
100
AcDbEntity
8
SK1
62
256
6
ByLayer
370
-1
48
1
60
0
100
AcDbLine
10
-49
20
9.99675
30
0
11
-50
21
8.99675
31
0
39
0
210
0
220
0
230
1
0
LINE
5
55
100
AcDbEntity
8
SK1
62
256
6
ByLayer
370
-1
48
1
60
0
100
AcDbLine
10
-50
20
-8.99675
30
0
11
-49
21
-9.99675
31
0
39
0
210
0
220
0
230
1
0
LINE
5
56
100
AcDbEntity
8
1
62
256
6
ByLayer
370
-1
48
1
60
0
100
AcDbLine
10
0.2
20
12.5
30
0
11
0
21
12.3
31
0
39
0
210
0
220
0
230
1
0
LINE
5
58
100
AcDbEntity
8
1
62
256
6
ByLayer
370
-1
48
1
60
0
100
AcDbLine
10
0
20
-12.3
30
0
11
0.2
21
-12.5
31
0
39
0
210
0
220
0
230
1
0
LINE
5
59
100
AcDbEntity
8
1
62
256
6
ByLayer
370
-1
48
1
60
0
100
AcDbLine
10
5
20
12.5
30
0
11
0.2
21
12.5
31
0
39
0
210
0
220
0
230
1
0
LINE
5
5A
100
AcDbEntity
8
1
62
256
6
ByLayer
370
-1
48
1
60
0
100
AcDbLine
10
0.2
20
-12.5
30
0
11
5
21
-12.5
31
0
39
0
210
0
220
0
230
1
0
LINE
5
5B
100
AcDbEntity
8
1
62
256
6
ByLayer
370
-1
48
1
60
0
100
AcDbLine
10
36.6847
20
7.279177
30
0
11
19
21
7.365
31
0
39
0
210
0
220
0
230
1
0
LINE
5
5C
100
AcDbEntity
8
1
62
256
6
ByLayer
370
-1
48
1
60
0
100
AcDbLine
10
19
20
7.365
30
0
11
14
21
7.365
31
0
39
0
210
0
220
0
230
1
0
LINE
5
5D
100
AcDbEntity
8
1
62
256
6
ByLayer
370
-1
48
1
60
0
100
AcDbLine
10
14
20
-7.365
30
0
11
19
21
-7.365
31
0
39
0
210
0
220
0
230
1
0
LINE
5
5E
100
AcDbEntity
8
1
62
256
6
ByLayer
370
-1
48
1
60
0
100
AcDbLine
10
19
20
-7.365
30
0
11
33.323168
21
-7.295491
31
0
39
0
210
0
220
0
230
1
0
LINE
5
5F
100
AcDbEntity
8
1
62
256
6
ByLayer
370
-1
48
1
60
0
100
AcDbLine
10
86.521262
20
7.2
30
0
11
83.437314
21
7.2
31
0
39
0
210
0
220
0
230
1
0
LINE
5
60
100
AcDbEntity
8
SK4
62
256
6
ByLayer
370
-1
48
0.05
60
0
100
AcDbLine
10
92
20
0
30
0
11
-50
21
0
31
0
39
0
210
0
220
0
230
1
0
LINE
5
62
100
AcDbEntity
8
4
62
256
6
ByLayer
370
-1
48
0.05
60
0
100
AcDbLine
10
92
20
0
30
0
11
0
21
0
31
0
39
0
210
0
220
0
230
1
0
LINE
5
64
100
AcDbEntity
8
1
62
256
6
ByLayer
370
-1
48
1
60
0
100
AcDbLine
10
83.418181
20
3.260145
30
0
11
82.814476
21
3.529959
31
0
39
0
210
0
220
0
230
1
0
LINE
5
65
100
AcDbEntity
8
1
62
256
6
ByLayer
370
-1
48
1
60
0
100
AcDbLine
10
84.79271
20
0.615741
30
0
11
84.94449
21
1.137897
31
0
39
0
210
0
220
0
230
1
0
LINE
5
66
100
AcDbEntity
8
1
62
256
6
ByLayer
370
-1
48
1
60
0
100
AcDbLine
10
91.032692
20
0.557994
30
0
11
91.042724
21
0.557644
31
0
39
0
210
0
220
0
230
1
0
LINE
5
67
100
AcDbEntity
8
1
62
256
6
ByLayer
370
-1
48
1
60
0
100
AcDbLine
10
5
20
12.5
30
0
11
5
21
-12.5
31
0
39
0
210
0
220
0
230
1
0
LINE
5
68
100
AcDbEntity
8
1
62
256
6
ByLayer
370
-1
48
1
60
0
100
AcDbLine
10
88.207599
20
2.184247
30
0
11
90.637221
21
2.269415
31
0
39
0
210
0
220
0
230
1
0
LINE
5
69
100
AcDbEntity
8
1
62
256
6
ByLayer
370
-1
48
1
60
0
100
AcDbLine
10
86.538723
20
4.872649
30
0
11
86.464912
21
7.187443
31
0
39
0
210
0
220
0
230
1
0
LINE
5
6A
100
AcDbEntity
8
1
62
256
6
ByLayer
370
-1
48
1
60
0
100
AcDbLine
10
90.637221
20
2.269415
30
0
11
90.78672
21
2.269415
31
0
39
0
210
0
220
0
230
1
0
LINE
5
6B
100
AcDbEntity
8
1
62
256
6
ByLayer
370
-1
48
1
60
0
100
AcDbLine
10
81.161634
20
4.02
30
0
11
82.657689
21
4.02
31
0
39
0
210
0
220
0
230
1
0
LINE
5
6C
100
AcDbEntity
8
1
62
256
6
ByLayer
370
-1
48
1
60
0
100
AcDbLine
10
90.393358
20
0.951146
30
0
11
90.905853
21
2.254868
31
0
39
0
210
0
220
0
230
1
0
LINE
5
6D
100
AcDbEntity
8
1
62
256
6
ByLayer
370
-1
48
1
60
0
100
AcDbLine
10
90.890976
20
-3.608045
30
0
11
90.764542
21
-3.542726
31
0
39
0
210
0
220
0
230
1
0
LINE
5
6E
100
AcDbEntity
8
1
62
256
6
ByLayer
370
-1
48
1
60
0
100
AcDbLine
10
0.2
20
12.5
30
0
11
0.2
21
-12.5
31
0
39
0
210
0
220
0
230
1
0
LINE
5
6F
100
AcDbEntity
8
1
62
256
6
ByLayer
370
-1
48
1
60
0
100
AcDbLine
10
82.444295
20
7.197674
30
0
11
82.444295
21
4.850946
31
0
39
0
210
0
220
0
230
1
0
LINE
5
70
100
AcDbEntity
8
1
62
256
6
ByLayer
370
-1
48
1
60
0
100
AcDbLine
10
0
20
12.3
30
0
11
0
21
-12.3
31
0
39
0
210
0
220
0
230
1
0
LINE
5
71
100
AcDbEntity
8
1
62
256
6
ByLayer
370
-1
48
1
60
0
100
AcDbLine
10
91.075489
20
0.5286
30
0
11
91.078066
21
0.53638
31
0
39
0
210
0
220
0
230
1
0
LINE
5
72
100
AcDbEntity
8
1
62
256
6
ByLayer
370
-1
48
1
60
0
100
AcDbLine
10
86.771275
20
2.155905
30
0
11
86.816562
21
2.155905
31
0
39
0
210
0
220
0
230
1
0
LINE
5
73
100
AcDbEntity
8
1
62
256
6
ByLayer
370
-1
48
1
60
0
100
AcDbLine
10
85.09207
20
4.442685
30
0
11
85.09207
21
7.193539
31
0
39
0
210
0
220
0
230
1
0
LINE
5
74
100
AcDbEntity
8
1
62
256
6
ByLayer
370
-1
48
1
60
0
100
AcDbLine
10
86.566049
20
4.872649
30
0
11
86.538723
21
4.872649
31
0
39
0
210
0
220
0
230
1
0
LINE
5
75
100
AcDbEntity
8
1
62
256
6
ByLayer
370
-1
48
1
60
0
100
AcDbLine
10
91.488985
20
-4.476906
30
0
11
91.21154
21
-4.424177
31
0
39
0
210
0
220
0
230
1
0
LINE
5
76
100
AcDbEntity
8
1
62
256
6
ByLayer
370
-1
48
1
60
0
100
AcDbLine
10
86.771275
20
2.155905
30
0
11
86.25026
21
2.137642
31
0
39
0
210
0
220
0
230
1
0
LINE
5
77
100
AcDbEntity
8
1
62
256
6
ByLayer
370
-1
48
1
60
0
100
AcDbLine
10
91.078066
20
0.53638
30
0
11
91.207262
21
2.456287
31
0
39
0
210
0
220
0
230
1
0
LINE
5
78
100
AcDbEntity
8
1
62
256
6
ByLayer
370
-1
48
1
60
0
100
AcDbLine
10
14
20
7.365
30
0
11
14
21
3.143454
31
0
39
0
210
0
220
0
230
1
0
LINE
5
79
100
AcDbEntity
8
1
62
256
6
ByLayer
370
-1
48
1
60
0
100
AcDbLine
10
90.905853
20
2.254868
30
0
11
90.637221
21
2.269415
31
0
39
0
210
0
220
0
230
1
0
LINE
5
7A
100
AcDbEntity
8
1
62
256
6
ByLayer
370
-1
48
1
60
0
100
AcDbLine
10
19
20
-7.365
30
0
11
19
21
-6.826686
31
0
39
0
210
0
220
0
230
1
0
LINE
5
7B
100
AcDbEntity
8
1
62
256
6
ByLayer
370
-1
48
1
60
0
100
AcDbLine
10
86.254104
20
3.496752
30
0
11
86.445847
21
3.496752
31
0
39
0
210
0
220
0
230
1
0
LINE
5
7C
100
AcDbEntity
8
1
62
256
6
ByLayer
370
-1
48
1
60
0
100
AcDbLine
10
90.990012
20
0.139895
30
0
11
90.41298
21
0.438002
31
0
39
0
210
0
220
0
230
1
0
LINE
5
7D
100
AcDbEntity
8
1
62
256
6
ByLayer
370
-1
48
1
60
0
100
AcDbLine
10
85.09207
20
4.442685
30
0
11
82.444295
21
4.850946
31
0
39
0
210
0
220
0
230
1
0
LINE
5
7E
100
AcDbEntity
8
1
62
256
6
ByLayer
370
-1
48
1
60
0
100
AcDbLine
10
19
20
7.365
30
0
11
19
21
2.123102
31
0
39
0
210
0
220
0
230
1
0
LINE
5
7F
100
AcDbEntity
8
1
62
256
6
ByLayer
370
-1
48
1
60
0
100
AcDbLine
10
86.293442
20
2.935611
30
0
11
85.265994
21
2.899595
31
0
39
0
210
0
220
0
230
1
0
LINE
5
80
100
AcDbEntity
8
1
62
256
6
ByLayer
370
-1
48
1
60
0
100
AcDbLine
10
86.181683
20
-7.196862
30
0
11
91.247595
21
-7.196862
31
0
39
0
210
0
220
0
230
1
0
LINE
5
81
100
AcDbEntity
8
1
62
256
6
ByLayer
370
-1
48
1
60
0
100
AcDbLine
10
86.491865
20
7.199118
30
0
11
86.566049
21
4.872649
31
0
39
0
210
0
220
0
230
1
0
LINE
5
82
100
AcDbEntity
8
1
62
256
6
ByLayer
370
-1
48
1
60
0
100
AcDbLine
10
86.380809
20
4.401742
30
0
11
86.572551
21
4.401742
31
0
39
0
210
0
220
0
230
1
0
LINE
5
83
100
AcDbEntity
8
1
62
256
6
ByLayer
370
-1
48
1
60
0
100
AcDbLine
10
82.63231
20
1.510278
30
0
11
82.501662
21
1.060823
31
0
39
0
210
0
220
0
230
1
0
LINE
5
84
100
AcDbEntity
8
1
62
256
6
ByLayer
370
-1
48
1
60
0
100
AcDbLine
10
14
20
-7.365
30
0
11
14
21
-6.391161
31
0
39
0
210
0
220
0
230
1
0
LINE
5
85
100
AcDbEntity
8
1
62
256
6
ByLayer
370
-1
48
1
60
0
100
AcDbLine
10
53
20
6.527972
30
0
11
53
21
-4.202909
31
0
39
0
210
0
220
0
230
1
0
LINE
5
86
100
AcDbEntity
8
1
62
256
6
ByLayer
370
-1
48
1
60
0
100
AcDbLine
10
91.193185
20
-3.764172
30
0
11
91.075621
21
-3.703436
31
0
39
0
210
0
220
0
230
1
0
LINE
5
87
100
AcDbEntity
8
1
62
256
6
ByLayer
370
-1
48
1
60
0
100
AcDbLine
10
86.572551
20
4.401742
30
0
11
86.445847
21
3.496752
31
0
39
0
210
0
220
0
230
1
0
LINE
5
88
100
AcDbEntity
8
1
62
256
6
ByLayer
370
-1
48
1
60
0
100
AcDbLine
10
90.995301
20
0.002247
30
0
11
91.192547
21
-3.752268
31
0
39
0
210
0
220
0
230
1
0
LINE
5
89
100
AcDbEntity
8
1
62
256
6
ByLayer
370
-1
48
1
60
0
100
AcDbLine
10
91.042724
20
0.557644
30
0
11
91.078066
21
0.53638
31
0
39
0
210
0
220
0
230
1
0
LINE
5
8A
100
AcDbEntity
8
1
62
256
6
ByLayer
370
-1
48
1
60
0
100
AcDbLine
10
91.247595
20
-7.196862
30
0
11
91.488985
21
-4.476906
31
0
39
0
210
0
220
0
230
1
0
LINE
5
8B
100
AcDbEntity
8
1
62
256
6
ByLayer
370
-1
48
1
60
0
100
AcDbLine
10
86.380809
20
4.401742
30
0
11
86.254104
21
3.496752
31
0
39
0
210
0
220
0
230
1
0
LINE
5
8C
100
AcDbEntity
8
1
62
256
6
ByLayer
370
-1
48
1
60
0
100
AcDbLine
10
91.120802
20
2.251843
30
0
11
90.905853
21
2.254868
31
0
39
0
210
0
220
0
230
1
0
LINE
5
8D
100
AcDbEntity
8
1
62
256
6
ByLayer
370
-1
48
1
60
0
100
AcDbLine
10
91.016877
20
0.530642
30
0
11
91.075489
21
0.5286
31
0
39
0
210
0
220
0
230
1
0
LINE
5
8E
100
AcDbEntity
8
1
62
256
6
ByLayer
370
-1
48
1
60
0
100
AcDbLine
10
90.786778
20
2.269415
30
0
11
91.120802
21
2.251843
31
0
39
0
210
0
220
0
230
1
0
LINE
5
8F
100
AcDbEntity
8
SK1
62
256
6
ByLayer
370
-1
48
1
60
0
100
AcDbLine
10
-2
20
-9.99675
30
0
11
-2
21
9.99675
31
0
39
0
210
0
220
0
230
1
0
LINE
5
90
100
AcDbEntity
8
SK1
62
256
6
ByLayer
370
-1
48
1
60
0
100
AcDbLine
10
-1.382165
20
9.75
30
0
11
-1.382165
21
-9.75
31
0
39
0
210
0
220
0
230
1
0
LINE
5
91
100
AcDbEntity
8
SK1
62
256
6
ByLayer
370
-1
48
1
60
0
100
AcDbLine
10
-47.633814
20
-5.299321
30
0
11
-47.633814
21
-9.640417
31
0
39
0
210
0
220
0
230
1
0
LINE
5
92
100
AcDbEntity
8
SK1
62
256
6
ByLayer
370
-1
48
1
60
0
100
AcDbLine
10
-47.633814
20
9.640417
30
0
11
-47.633814
21
5.299321
31
0
39
0
210
0
220
0
230
1
0
LINE
5
93
100
AcDbEntity
8
SK1
62
256
6
ByLayer
370
-1
48
1
60
0
100
AcDbLine
10
-48.6
20
-5.922852
30
0
11
-49
21
-5.922852
31
0
39
0
210
0
220
0
230
1
0
LINE
5
94
100
AcDbEntity
8
SK1
62
256
6
ByLayer
370
-1
48
1
60
0
100
AcDbLine
10
-46.6
20
5.922852
30
0
11
-46.6
21
9.99675
31
0
39
0
210
0
220
0
230
1
0
LINE
5
95
100
AcDbEntity
8
SK1
62
256
6
ByLayer
370
-1
48
1
60
0
100
AcDbLine
10
-46.6
20
-9.99675
30
0
11
-46.6
21
-5.922852
31
0
39
0
210
0
220
0
230
1
0
LINE
5
96
100
AcDbEntity
8
SK1
62
256
6
ByLayer
370
-1
48
1
60
0
100
AcDbLine
10
-49
20
5.922852
30
0
11
-48.6
21
5.922852
31
0
39
0
210
0
220
0
230
1
0
LINE
5
97
100
AcDbEntity
8
SK1
62
256
6
ByLayer
370
-1
48
1
60
0
100
AcDbLine
10
-48.6
20
-9.99675
30
0
11
-48.6
21
-5.922852
31
0
39
0
210
0
220
0
230
1
0
LINE
5
98
100
AcDbEntity
8
SK1
62
256
6
ByLayer
370
-1
48
1
60
0
100
AcDbLine
10
-48.6
20
5.922852
30
0
11
-48.6
21
9.99675
31
0
39
0
210
0
220
0
230
1
0
LINE
5
99
100
AcDbEntity
8
SK1
62
256
6
ByLayer
370
-1
48
1
60
0
100
AcDbLine
10
-46.6
20
5.922852
30
0
11
-6.5
21
5.922852
31
0
39
0
210
0
220
0
230
1
0
LINE
5
9A
100
AcDbEntity
8
SK1
62
256
6
ByLayer
370
-1
48
1
60
0
100
AcDbLine
10
-48.516223
20
-5.746514
30
0
11
-48.516223
21
-9.893294
31
0
39
0
210
0
220
0
230
1
0
LINE
5
9B
100
AcDbEntity
8
SK1
62
256
6
ByLayer
370
-1
48
1
60
0
100
AcDbLine
10
-48.516223
20
9.893294
30
0
11
-48.516223
21
5.746514
31
0
39
0
210
0
220
0
230
1
0
LINE
5
9C
100
AcDbEntity
8
SK1
62
256
6
ByLayer
370
-1
48
1
60
0
100
AcDbLine
10
-0.15
20
9.75
30
0
11
-0.15
21
-9.75
31
0
39
0
210
0
220
0
230
1
0
LINE
5
9D
100
AcDbEntity
8
SK1
62
256
6
ByLayer
370
-1
48
1
60
0
100
AcDbLine
10
-1.551212
20
9.787477
30
0
11
-1.551212
21
-9.787477
31
0
39
0
210
0
220
0
230
1
0
LINE
5
9E
100
AcDbEntity
8
SK1
62
256
6
ByLayer
370
-1
48
1
60
0
100
AcDbLine
10
-6.5
20
-5.922852
30
0
11
-46.6
21
-5.922852
31
0
39
0
210
0
220
0
230
1
0
LINE
5
9F
100
AcDbEntity
8
SK1
62
256
6
ByLayer
370
-1
48
1
60
0
100
AcDbLine
10
-6.5
20
5.922852
30
0
11
-6.5
21
-5.922852
31
0
39
0
210
0
220
0
230
1
0
LINE
5
A0
100
AcDbEntity
8
SK1
62
256
6
ByLayer
370
-1
48
1
60
0
100
AcDbLine
10
-50
20
-4.01082
30
0
11
-50
21
-8.99675
31
0
39
0
210
0
220
0
230
1
0
LINE
5
A1
100
AcDbEntity
8
SK1
62
256
6
ByLayer
370
-1
48
1
60
0
100
AcDbLine
10
-50
20
8.99675
30
0
11
-50
21
4.01082
31
0
39
0
210
0
220
0
230
1
0
LINE
5
A2
100
AcDbEntity
8
SK1
62
256
6
ByLayer
370
-1
48
1
60
0
100
AcDbLine
10
-50
20
4.01082
30
0
11
-50
21
-4.01082
31
0
39
0
210
0
220
0
230
1
0
LINE
5
A3
100
AcDbEntity
8
SK1
62
256
6
ByLayer
370
-1
48
1
60
0
100
AcDbLine
10
-49
20
-5.922852
30
0
11
-49
21
-9.99675
31
0
39
0
210
0
220
0
230
1
0
LINE
5
A4
100
AcDbEntity
8
SK1
62
256
6
ByLayer
370
-1
48
1
60
0
100
AcDbLine
10
-49
20
9.99675
30
0
11
-49
21
5.922852
31
0
39
0
210
0
220
0
230
1
0
LINE
5
A5
100
AcDbEntity
8
1
62
256
6
ByLayer
370
-1
48
1
60
0
100
AcDbLine
10
87.021232
20
7.397159
30
0
11
87.038185
21
7.339999
31
0
39
0
210
0
220
0
230
1
0
LINE
5
A6
100
AcDbEntity
8
1
62
256
6
ByLayer
370
-1
48
1
60
0
100
AcDbLine
10
91.31455
20
2.461104
30
0
11
91.310892
21
2.52079
31
0
39
0
210
0
220
0
230
1
0
LINE
5
A7
100
AcDbEntity
8
1
62
256
6
ByLayer
370
-1
48
1
60
0
100
AcDbLine
10
91.886311
20
3.076584
30
0
11
91.826318
21
3.075627
31
0
39
0
210
0
220
0
230
1
0
LINE
5
A8
100
AcDbEntity
8
1
62
256
6
ByLayer
370
-1
48
1
60
0
100
AcDbLine
10
86.678919
20
6.663991
30
0
11
86.80504
21
3.03855
31
0
39
0
210
0
220
0
230
1
0
LINE
5
A9
100
AcDbEntity
8
1
62
256
6
ByLayer
370
-1
48
1
60
0
100
AcDbLine
10
87.246907
20
7.419424
30
0
11
87.249654
21
7.359739
31
0
39
0
210
0
220
0
230
1
0
LINE
5
AA
100
AcDbEntity
8
1
62
256
6
ByLayer
370
-1
48
1
60
0
100
AcDbLine
10
87.563561
20
2.328516
30
0
11
91.175206
21
2.455119
31
0
39
0
210
0
220
0
230
1
0
LINE
5
AB
100
AcDbEntity
8
1
62
256
6
ByLayer
370
-1
48
1
60
0
100
AcDbLine
10
86.681531
20
7.031482
30
0
11
86.739093
21
7.018037
31
0
39
0
210
0
220
0
230
1
0
LINE
5
AC
100
AcDbEntity
8
1
62
256
6
ByLayer
370
-1
48
1
60
0
100
AcDbLine
10
86.80504
20
3.03855
30
0
11
86.864093
21
3.040636
31
0
39
0
210
0
220
0
230
1
0
LINE
5
AD
100
AcDbEntity
8
1
62
256
6
ByLayer
370
-1
48
1
60
0
100
AcDbLine
10
91.265796
20
2.458709
30
0
11
91.26272
21
2.518423
31
0
39
0
210
0
220
0
230
1
0
LINE
5
AE
100
AcDbEntity
8
1
62
256
6
ByLayer
370
-1
48
1
60
0
100
AcDbLine
10
87.087763
20
7.409537
30
0
11
87.09146
21
7.349911
31
0
39
0
210
0
220
0
230
1
0
LINE
5
AF
100
AcDbEntity
8
1
62
256
6
ByLayer
370
-1
48
1
60
0
100
AcDbLine
10
86.833183
20
2.672137
30
0
11
86.88967
21
2.689612
31
0
39
0
210
0
220
0
230
1
0
LINE
5
B0
100
AcDbEntity
8
1
62
256
6
ByLayer
370
-1
48
1
60
0
100
AcDbLine
10
87.472943
20
2.325754
30
0
11
87.470951
21
2.385506
31
0
39
0
210
0
220
0
230
1
0
LINE
5
B1
100
AcDbEntity
8
1
62
256
6
ByLayer
370
-1
48
1
60
0
100
AcDbLine
10
87.197468
20
2.331137
30
0
11
87.210407
21
2.389377
31
0
39
0
210
0
220
0
230
1
0
LINE
5
B2
100
AcDbEntity
8
1
62
256
6
ByLayer
370
-1
48
1
60
0
100
AcDbLine
10
87.563561
20
2.328516
30
0
11
87.561027
21
2.388251
31
0
39
0
210
0
220
0
230
1
0
LINE
5
B3
100
AcDbEntity
8
1
62
256
6
ByLayer
370
-1
48
1
60
0
100
AcDbLine
10
87.424141
20
2.324729
30
0
11
87.422732
21
2.384493
31
0
39
0
210
0
220
0
230
1
0
LINE
5
B4
100
AcDbEntity
8
1
62
256
6
ByLayer
370
-1
48
1
60
0
100
AcDbLine
10
86.675147
20
6.803944
30
0
11
86.734228
21
6.804901
31
0
39
0
210
0
220
0
230
1
0
LINE
5
B5
100
AcDbEntity
8
1
62
256
6
ByLayer
370
-1
48
1
60
0
100
AcDbLine
10
91.540225
20
2.483369
30
0
11
91.52236
21
2.540529
31
0
39
0
210
0
220
0
230
1
0
LINE
5
B6
100
AcDbEntity
8
1
62
256
6
ByLayer
370
-1
48
1
60
0
100
AcDbLine
10
91.137317
20
7.555799
30
0
11
91.137814
21
7.496035
31
0
39
0
210
0
220
0
230
1
0
LINE
5
B7
100
AcDbEntity
8
1
62
256
6
ByLayer
370
-1
48
1
60
0
100
AcDbLine
10
86.820852
20
2.738921
30
0
11
86.879796
21
2.743091
31
0
39
0
210
0
220
0
230
1
0
LINE
5
B8
100
AcDbEntity
8
1
62
256
6
ByLayer
370
-1
48
1
60
0
100
AcDbLine
10
91.363989
20
7.549391
30
0
11
91.350139
21
7.491151
31
0
39
0
210
0
220
0
230
1
0
LINE
5
B9
100
AcDbEntity
8
1
62
256
6
ByLayer
370
-1
48
1
60
0
100
AcDbLine
10
91.879927
20
2.849046
30
0
11
91.821453
21
2.862492
31
0
39
0
210
0
220
0
230
1
0
LINE
5
BA
100
AcDbEntity
8
1
62
256
6
ByLayer
370
-1
48
1
60
0
100
AcDbLine
10
91.740605
20
7.141607
30
0
11
91.68075
21
7.137438
31
0
39
0
210
0
220
0
230
1
0
LINE
5
BB
100
AcDbEntity
8
1
62
256
6
ByLayer
370
-1
48
1
60
0
100
AcDbLine
10
91.756417
20
6.841978
30
0
11
91.696453
21
6.839892
31
0
39
0
210
0
220
0
230
1
0
LINE
5
BC
100
AcDbEntity
8
1
62
256
6
ByLayer
370
-1
48
1
60
0
100
AcDbLine
10
86.673871
20
6.963997
30
0
11
86.732959
21
6.963997
31
0
39
0
210
0
220
0
230
1
0
LINE
5
BD
100
AcDbEntity
8
1
62
256
6
ByLayer
370
-1
48
1
60
0
100
AcDbLine
10
91.882538
20
3.216537
30
0
11
91.756417
21
6.841978
31
0
39
0
210
0
220
0
230
1
0
LINE
5
BE
100
AcDbEntity
8
1
62
256
6
ByLayer
370
-1
48
1
60
0
100
AcDbLine
10
87.295662
20
7.421819
30
0
11
87.297826
21
7.362105
31
0
39
0
210
0
220
0
230
1
0
LINE
5
BF
100
AcDbEntity
8
1
62
256
6
ByLayer
370
-1
48
1
60
0
100
AcDbLine
10
91.750454
20
6.981855
30
0
11
91.690541
21
6.97864
31
0
39
0
210
0
220
0
230
1
0
LINE
5
C0
100
AcDbEntity
8
1
62
256
6
ByLayer
370
-1
48
1
60
0
100
AcDbLine
10
86.676167
20
6.754955
30
0
11
86.735236
21
6.756497
31
0
39
0
210
0
220
0
230
1
0
LINE
5
C1
100
AcDbEntity
8
1
62
256
6
ByLayer
370
-1
48
1
60
0
100
AcDbLine
10
90.997896
20
7.552012
30
0
11
90.999519
21
7.492277
31
0
39
0
210
0
220
0
230
1
0
LINE
5
C2
100
AcDbEntity
8
1
62
256
6
ByLayer
370
-1
48
1
60
0
100
AcDbLine
10
91.088514
20
7.554775
30
0
11
91.089595
21
7.495023
31
0
39
0
210
0
220
0
230
1
0
LINE
5
C3
100
AcDbEntity
8
1
62
256
6
ByLayer
370
-1
48
1
60
0
100
AcDbLine
10
87.386251
20
7.425409
30
0
11
87.387873
21
7.365674
31
0
39
0
210
0
220
0
230
1
0
LINE
5
C4
100
AcDbEntity
8
1
62
256
6
ByLayer
370
-1
48
1
60
0
100
AcDbLine
10
86.811003
20
2.898674
30
0
11
86.870005
21
2.901888
31
0
39
0
210
0
220
0
230
1
0
LINE
5
C5
100
AcDbEntity
8
1
62
256
6
ByLayer
370
-1
48
1
60
0
100
AcDbLine
10
91.752841
20
6.932914
30
0
11
91.692898
21
6.930284
31
0
39
0
210
0
220
0
230
1
0
LINE
5
C6
100
AcDbEntity
8
1
62
256
6
ByLayer
370
-1
48
1
60
0
100
AcDbLine
10
91.887587
20
2.916531
30
0
11
91.827587
21
2.916531
31
0
39
0
210
0
220
0
230
1
0
LINE
5
C7
100
AcDbEntity
8
1
62
256
6
ByLayer
370
-1
48
1
60
0
100
AcDbLine
10
91.473695
20
2.470991
30
0
11
91.469085
21
2.530617
31
0
39
0
210
0
220
0
230
1
0
LINE
5
C8
100
AcDbEntity
8
1
62
256
6
ByLayer
370
-1
48
1
60
0
100
AcDbLine
10
91.175206
20
2.455119
30
0
11
91.172673
21
2.514854
31
0
39
0
210
0
220
0
230
1
0
LINE
5
C9
100
AcDbEntity
8
1
62
256
6
ByLayer
370
-1
48
1
60
0
100
AcDbLine
10
90.997896
20
7.552012
30
0
11
87.386251
21
7.425409
31
0
39
0
210
0
220
0
230
1
0
LINE
5
CA
100
AcDbEntity
8
1
62
256
6
ByLayer
370
-1
48
1
60
0
100
AcDbLine
10
86.808617
20
2.947615
30
0
11
86.867647
21
2.950244
31
0
39
0
210
0
220
0
230
1
0
LINE
5
CB
100
AcDbEntity
8
1
62
256
6
ByLayer
370
-1
48
1
60
0
100
AcDbLine
10
91.88529
20
3.125573
30
0
11
91.82531
21
3.124031
31
0
39
0
210
0
220
0
230
1
0
LINE
5
CC
100
AcDbEntity
8
1
62
256
6
ByLayer
370
-1
48
1
60
0
100
AcDbLine
10
91.728274
20
7.208392
30
0
11
91.670876
21
7.190916
31
0
39
0
210
0
220
0
230
1
0
LINE
5
CD
100
AcDbEntity
8
1
62
256
6
ByLayer
370
-1
48
1
60
0
100
AcDbLine
10
86.678919
20
6.663991
30
0
11
86.737971
21
6.666077
31
0
39
0
210
0
220
0
230
1
0
LINE
5
CE
100
AcDbEntity
8
1
62
256
6
ByLayer
370
-1
48
1
60
0
100
AcDbLine
10
91.882538
20
3.216537
30
0
11
91.822575
21
3.214451
31
0
39
0
210
0
220
0
230
1
0
LINE
5
CF
100
AcDbEntity
8
1
62
256
6
ByLayer
370
-1
48
1
60
0
100
AcDbLine
10
87.264697
20
2.323449
30
0
11
87.264241
21
2.38322
31
0
39
0
210
0
220
0
230
1
0
LINE
5
D0
100
AcDbEntity
8
1
62
256
6
ByLayer
370
-1
48
1
60
0
100
AcDbLine
10
91.296761
20
7.55708
30
0
11
91.296305
21
7.497308
31
0
39
0
210
0
220
0
230
1
0
LINE
5
D1
100
AcDbEntity
8
1
62
256
6
ByLayer
370
-1
48
1
60
0
100
AcDbLine
10
91.927152
20
-2.462246
30
0
11
91.78162
21
-2.439888
31
0
39
0
210
0
220
0
230
1
0
LINE
5
D2
100
AcDbEntity
8
1
62
256
6
ByLayer
370
-1
48
1
60
0
100
AcDbLine
10
91.634194
20
-4.159765
30
0
11
91.825705
21
-3.99946
31
0
39
0
210
0
220
0
230
1
0
LINE
5
D3
100
AcDbEntity
8
1
62
256
6
ByLayer
370
-1
48
1
60
0
100
AcDbLine
10
91.968347
20
-3.707714
30
0
11
91.999756
21
-2.810453
31
0
39
0
210
0
220
0
230
1
0
LINE
5
D4
100
AcDbEntity
8
1
62
256
6
ByLayer
370
-1
48
1
60
0
100
AcDbLine
10
91.169136
20
-3.306767
30
0
11
91.19924
21
-3.286808
31
0
39
0
210
0
220
0
230
1
0
LINE
5
D5
100
AcDbEntity
8
1
62
256
6
ByLayer
370
-1
48
1
60
0
100
AcDbLine
10
91.884101
20
-2.372207
30
0
11
91.736706
21
-2.349564
31
0
39
0
210
0
220
0
230
1
0
LINE
5
D6
100
AcDbEntity
8
1
62
256
6
ByLayer
370
-1
48
1
60
0
100
AcDbLine
10
91.174757
20
-4.202947
30
0
11
91.486718
21
-4.151708
31
0
39
0
210
0
220
0
230
1
0
LINE
5
D7
100
AcDbEntity
8
1
62
256
6
ByLayer
370
-1
48
1
60
0
100
AcDbLine
10
91.927152
20
-2.462246
30
0
11
91.884101
21
-2.372207
31
0
39
0
210
0
220
0
230
1
0
LINE
5
D8
100
AcDbEntity
8
1
62
256
6
ByLayer
370
-1
48
1
60
0
100
AcDbLine
10
91.662711
20
-0.479588
30
0
11
91.73043
21
-1.768601
31
0
39
0
210
0
220
0
230
1
0
LINE
5
D9
100
AcDbEntity
8
1
62
256
6
ByLayer
370
-1
48
1
60
0
100
AcDbLine
10
91.824482
20
-3.056792
30
0
11
91.474695
21
-2.976943
31
0
39
0
210
0
220
0
230
1
0
LINE
5
DA
100
AcDbEntity
8
1
62
256
6
ByLayer
370
-1
48
1
60
0
100
AcDbLine
10
91.071847
20
-0.432969
30
0
11
91.01357
21
-0.345501
31
0
39
0
210
0
220
0
230
1
0
LINE
5
DB
100
AcDbEntity
8
1
62
256
6
ByLayer
370
-1
48
1
60
0
100
AcDbLine
10
91.519796
20
-0.779174
30
0
11
91.170276
21
-0.729783
31
0
39
0
210
0
220
0
230
1
0
LINE
5
DC
100
AcDbEntity
8
1
62
256
6
ByLayer
370
-1
48
1
60
0
100
AcDbLine
10
91.21783
20
-1.63496
30
0
11
91.170276
21
-0.729783
31
0
39
0
210
0
220
0
230
1
0
LINE
5
DD
100
AcDbEntity
8
1
62
256
6
ByLayer
370
-1
48
1
60
0
100
AcDbLine
10
91.609331
20
-4.088984
30
0
11
91.631481
21
-4.067192
31
0
39
0
210
0
220
0
230
1
0
LINE
5
DE
100
AcDbEntity
8
1
62
256
6
ByLayer
370
-1
48
1
60
0
100
AcDbLine
10
91.224214
20
0.453466
30
0
11
91.198412
21
0.43124
31
0
39
0
210
0
220
0
230
1
0
LINE
5
DF
100
AcDbEntity
8
1
62
256
6
ByLayer
370
-1
48
1
60
0
100
AcDbLine
10
91.374756
20
-2.973462
30
0
11
91.38378
21
-2.71568
31
0
39
0
210
0
220
0
230
1
0
LINE
5
E0
100
AcDbEntity
8
1
62
256
6
ByLayer
370
-1
48
1
60
0
100
AcDbLine
10
91.506077
20
-0.245863
30
0
11
91.407311
21
0.145706
31
0
39
0
210
0
220
0
230
1
0
LINE
5
E1
100
AcDbEntity
8
1
62
256
6
ByLayer
370
-1
48
1
60
0
100
AcDbLine
10
91.824482
20
-3.056792
30
0
11
91.833506
21
-2.799011
31
0
39
0
210
0
220
0
230
1
0
LINE
5
E2
100
AcDbEntity
8
1
62
256
6
ByLayer
370
-1
48
1
60
0
100
AcDbLine
10
91.968347
20
-3.707714
30
0
11
91.875628
21
-3.609062
31
0
39
0
210
0
220
0
230
1
0
LINE
5
E3
100
AcDbEntity
8
1
62
256
6
ByLayer
370
-1
48
1
60
0
100
AcDbLine
10
91.639136
20
-0.363997
30
0
11
91.45437
21
0.142407
31
0
39
0
210
0
220
0
230
1
0
LINE
5
E4
100
AcDbEntity
8
1
62
256
6
ByLayer
370
-1
48
1
60
0
100
AcDbLine
10
91.519796
20
-0.779174
30
0
11
91.567351
21
-1.68435
31
0
39
0
210
0
220
0
230
1
0
LINE
5
E5
100
AcDbEntity
8
1
62
256
6
ByLayer
370
-1
48
1
60
0
100
AcDbLine
10
91.21783
20
-1.63496
30
0
11
91.117967
21
-1.64018
31
0
39
0
210
0
220
0
230
1
0
LINE
5
E6
100
AcDbEntity
8
1
62
256
6
ByLayer
370
-1
48
1
60
0
100
AcDbLine
10
91.384911
20
0.262421
30
0
11
91.341847
21
0.26544
31
0
39
0
210
0
220
0
230
1
0
LINE
5
E7
100
AcDbEntity
8
1
62
256
6
ByLayer
370
-1
48
1
60
0
100
AcDbLine
10
91.833506
20
-2.799011
30
0
11
91.483719
21
-2.719162
31
0
39
0
210
0
220
0
230
1
0
LINE
5
E8
100
AcDbEntity
8
1
62
256
6
ByLayer
370
-1
48
1
60
0
100
AcDbLine
10
91.567351
20
-1.68435
30
0
11
91.21783
21
-1.63496
31
0
39
0
210
0
220
0
230
1
0
LINE
5
E9
100
AcDbEntity
8
1
62
256
6
ByLayer
370
-1
48
1
60
0
100
AcDbLine
10
91.631481
20
-4.067192
30
0
11
91.254594
21
-3.369887
31
0
39
0
210
0
220
0
230
1
0
LINE
5
EA
100
AcDbEntity
8
1
62
256
6
ByLayer
370
-1
48
1
60
0
100
AcDbLine
10
91.825705
20
-3.99946
30
0
11
91.772803
21
-3.943171
31
0
39
0
210
0
220
0
230
1
0
LINE
5
EB
100
AcDbEntity
8
1
62
256
6
ByLayer
370
-1
48
1
60
0
100
AcDbLine
10
91.210681
20
-2.702675
30
0
11
91.201657
21
-2.960456
31
0
39
0
210
0
220
0
230
1
0
LINE
5
EC
100
AcDbEntity
8
1
62
256
6
ByLayer
370
-1
48
1
60
0
100
AcDbLine
10
91.73043
20
-1.768601
30
0
11
91.567351
21
-1.68435
31
0
39
0
210
0
220
0
230
1
0
LINE
5
ED
100
AcDbEntity
8
1
62
256
6
ByLayer
370
-1
48
1
60
0
100
AcDbLine
10
91.474695
20
-2.976943
30
0
11
91.483719
21
-2.719162
31
0
39
0
210
0
220
0
230
1
0
LINE
5
EE
100
AcDbEntity
8
1
62
256
6
ByLayer
370
-1
48
1
60
0
100
AcDbLine
10
91.45437
20
0.142407
30
0
11
91.407311
21
0.145706
31
0
39
0
210
0
220
0
230
1
0
LINE
5
EF
100
AcDbEntity
8
1
62
256
6
ByLayer
370
-1
48
1
60
0
100
AcDbLine
10
91.999756
20
-2.810453
30
0
11
91.838624
21
-2.713242
31
0
39
0
210
0
220
0
230
1
0
LINE
5
F0
100
AcDbEntity
8
1
62
256
6
ByLayer
370
-1
48
1
60
0
100
AcDbLine
10
91.634194
20
-4.159765
30
0
11
91.609331
21
-4.088984
31
0
39
0
210
0
220
0
230
1
0
LINE
5
F1
100
AcDbEntity
8
1
62
256
6
ByLayer
370
-1
48
1
60
0
100
AcDbLine
10
91.320991
20
0.288524
30
0
11
90.989946
21
0.145879
31
0
39
0
210
0
220
0
230
1
0
LINE
5
F2
100
AcDbEntity
8
1
62
256
6
ByLayer
370
-1
48
1
60
0
100
AcDbLine
10
91.513887
20
-4.229055
30
0
11
91.486718
21
-4.151708
31
0
39
0
210
0
220
0
230
1
0
LINE
5
F3
100
AcDbEntity
8
1
62
256
6
ByLayer
370
-1
48
1
60
0
100
AcDbLine
10
91.506077
20
-0.245863
30
0
11
91.071847
21
-0.432969
31
0
39
0
210
0
220
0
230
1
0
LINE
5
F4
100
AcDbEntity
8
1
62
256
6
ByLayer
370
-1
48
1
60
0
100
AcDbLine
10
91.117967
20
-1.64018
30
0
11
91.070413
21
-0.735004
31
0
39
0
210
0
220
0
230
1
0
LINE
5
F5
100
AcDbEntity
8
1
62
256
6
ByLayer
370
-1
48
1
60
0
100
AcDbLine
10
91.740229
20
-2.35695
30
0
11
91.425055
21
-2.441056
31
0
39
0
210
0
220
0
230
1
0
LINE
5
F6
100
AcDbEntity
8
1
62
256
6
ByLayer
370
-1
48
1
60
0
100
AcDbLine
10
91.639136
20
-0.363997
30
0
11
91.52666
21
-0.322332
31
0
39
0
210
0
220
0
230
1
0
LINE
5
F7
100
AcDbEntity
8
1
62
256
6
ByLayer
370
-1
48
1
60
0
100
AcDbLine
10
91.183953
20
-4.348849
30
0
11
91.513887
21
-4.229055
31
0
39
0
210
0
220
0
230
1
0
LINE
5
F8
100
AcDbEntity
8
1
62
256
6
ByLayer
370
-1
48
1
60
0
100
AcDbLine
10
91.662711
20
-0.479588
30
0
11
91.534769
21
-0.432194
31
0
39
0
210
0
220
0
230
1
0
LINE
5
F9
100
AcDbEntity
8
1
62
256
6
ByLayer
370
-1
48
1
60
0
100
AcDbLine
10
91.341847
20
0.26544
30
0
11
91.320991
21
0.288524
31
0
39
0
210
0
220
0
230
1
0
LINE
5
FA
100
AcDbEntity
8
1
62
256
6
ByLayer
370
-1
48
1
60
0
100
AcDbLine
10
91.175222
20
-3.422512
30
0
11
91.254594
21
-3.369887
31
0
39
0
210
0
220
0
230
1
0
LINE
5
FB
100
AcDbEntity
8
1
62
256
6
ByLayer
370
-1
48
1
60
0
100
AcDbLine
10
91.384911
20
0.262421
30
0
11
91.224214
21
0.453466
31
0
39
0
210
0
220
0
230
1
0
MTEXT
5
230
100
AcDbEntity
8
SK6
62
256
6
ByLayer
370
-1
48
1
60
0
100
AcDbMText
10
0.79375
20
-80.79375
30
0
210
0
220
0
230
1
1
\W00.723;\fsimplex.shx,bigfont.shx;880-D1500L20-05 
40
3.175
41
0
44
1.084337
50
0
71
7
72
5
7
DEFAULT
0
DIMENSION
5
260
100
AcDbEntity
8
SK2
62
256
6
ByLayer
370
-3
48
1
60
0
100
AcDbDimension
2
DimnDraft3D1
10
92
20
-51.36955
30
0
11
21
21
-51.36955
31
0
70
32
71
5
72
1
41
1
210
0
220
0
230
1
3
Standard
100
AcDbAlignedDimension
13
-50
23
-11.5875
33
0
14
92
24
-9.0875
34
0
50
0
100
AcDbRotatedDimension
1001
ACAD
1000
DSTYLE
1002
{
1070
   279
1070
     0
1070
   172
1070
     1
1070
   173
1070
     1
1070
   340
1005
231
1070
   271
1070
     1
1070
   272
1070
     2
1070
    77
1070
     1
1070
    73
1070
     0
1070
   171
1070
     3
1070
   274
1070
     4
1070
   177
1070
   150
1070
   176
1070
     9
1070
   178
1070
    43
1070
    78
1070
     8
1070
    48
1040
-0.005
1070
    41
1041
4.175
1070
   147
1041
2.25
1070
    42
1041
1.5875
1070
    44
1041
3.175
1070
   140
1041
4.5
1070
   343
1005
0
1070
   344
1005
0
1002
}
0
DIMENSION
5
26A
100
AcDbEntity
8
SK2
62
256
6
ByLayer
370
-3
48
1
60
0
100
AcDbDimension
2
DimnDraft3D2
10
0
20
-39.4008
30
0
11
-25
21
-39.4008
31
0
70
32
71
5
72
1
41
1
210
0
220
0
230
1
3
Standard
100
AcDbAlignedDimension
13
-50
23
-11.5875
33
0
14
0
24
-14.0875
34
0
50
0
100
AcDbRotatedDimension
1001
ACAD
1000
DSTYLE
1002
{
1070
   279
1070
     0
1070
   172
1070
     1
1070
   173
1070
     1
1070
   340
1005
231
1070
   271
1070
     1
1070
   272
1070
     2
1070
    77
1070
     1
1070
    73
1070
     0
1070
   171
1070
     3
1070
   274
1070
     4
1070
   177
1070
   150
1070
   176
1070
     9
1070
   178
1070
    43
1070
    78
1070
     8
1070
    48
1040
-0.005
1070
    41
1041
4.175
1070
   147
1041
2.25
1070
    42
1041
1.5875
1070
    44
1041
3.175
1070
   140
1041
4.5
1070
   343
1005
0
1070
   344
1005
0
1002
}
0
DIMENSION
5
275
100
AcDbEntity
8
2
62
256
6
ByLayer
370
-3
48
1
60
0
100
AcDbDimension
2
DimnDraft3D3
10
92
20
-39.4008
30
0
11
46
21
-39.4008
31
0
70
32
71
5
72
1
41
1
210
0
220
0
230
1
3
Standard
100
AcDbAlignedDimension
13
0
23
-14.0875
33
0
14
92
24
-9.0875
34
0
50
0
100
AcDbRotatedDimension
1001
ACAD
1000
DSTYLE
1002
{
1070
   279
1070
     0
1070
   172
1070
     1
1070
   173
1070
     1
1070
   340
1005
231
1070
   271
1070
     1
1070
   272
1070
     2
1070
    77
1070
     1
1070
    73
1070
     0
1070
   171
1070
     3
1070
   274
1070
     4
1070
   177
1070
   150
1070
   176
1070
     9
1070
   178
1070
    43
1070
    78
1070
     8
1070
    48
1040
-0.005
1070
    41
1041
4.175
1070
   147
1041
2.25
1070
    42
1041
1.5875
1070
    44
1041
3.175
1070
   140
1041
4.5
1070
   343
1005
0
1070
   344
1005
0
1002
}
0
DIMENSION
5
27F
100
AcDbEntity
8
SK2
62
256
6
ByLayer
370
-3
48
1
60
0
100
AcDbDimension
2
DimnDraft3D4
10
92
20
-29.4008
30
0
11
53
21
-29.4008
31
0
70
32
71
5
72
1
41
1
210
0
220
0
230
1
3
Standard
100
AcDbAlignedDimension
13
14
23
-11.5875
33
0
14
92
24
-9.0875
34
0
50
0
100
AcDbRotatedDimension
1001
ACAD
1000
DSTYLE
1002
{
1070
   279
1070
     0
1070
   172
1070
     1
1070
   173
1070
     1
1070
   340
1005
231
1070
   271
1070
     1
1070
   272
1070
     2
1070
    77
1070
     1
1070
    73
1070
     0
1070
   171
1070
     3
1070
   274
1070
     4
1070
   177
1070
   150
1070
   176
1070
     9
1070
   178
1070
    43
1070
    78
1070
     8
1070
    48
1040
-0.005
1070
    41
1041
4.175
1070
   147
1041
2.25
1070
    42
1041
1.5875
1070
    44
1041
3.175
1070
   140
1041
4.5
1070
   343
1005
0
1070
   344
1005
0
1002
}
0
DIMENSION
5
28A
100
AcDbEntity
8
SK2
62
256
6
ByLayer
370
-3
48
1
60
0
100
AcDbDimension
2
DimnDraft3D5
10
-61.9
20
-10
30
0
11
-62.1
21
-27.370395
31
0
70
33
71
5
72
1
41
1
210
0
220
0
230
1
3
Standard
100
AcDbAlignedDimension
13
-51.5875
23
10
33
0
14
-51.5875
24
-10
34
0
1001
ACAD
1000
DSTYLE
1002
{
1070
   279
1070
     0
1070
    74
1070
     0
1070
   173
1070
     1
1070
   340
1005
231
1070
   271
1070
     2
1070
   272
1070
     2
1070
    77
1070
     1
1070
    73
1070
     0
1070
   171
1070
     3
1070
   274
1070
     4
1070
   177
1070
   150
1070
   176
1070
     9
1070
   178
1070
    43
1070
    78
1070
     8
1070
    48
1040
-0.005
1070
    41
1041
4.175
1070
   147
1041
2.25
1070
    42
1041
1.5875
1070
    44
1041
3.175
1070
   140
1041
4.5
1070
   343
1005
0
1070
   344
1005
0
1002
}
0
DIMENSION
5
295
100
AcDbEntity
8
SK2
62
256
6
ByLayer
370
-3
48
1
60
0
100
AcDbDimension
2
DimnDraft3D6
10
-71.9
20
12.5
30
0
11
-72.1
21
4.121053
31
0
70
33
71
5
72
1
41
1
210
0
220
0
230
1
3
Standard
100
AcDbAlignedDimension
13
-1.5875
23
-12.5
33
0
14
-1.5875
24
12.5
34
0
1001
ACAD
1000
DSTYLE
1002
{
1070
   279
1070
     0
1070
    74
1070
     0
1070
   173
1070
     1
1070
   340
1005
231
1070
   271
1070
     1
1070
   272
1070
     2
1070
    77
1070
     1
1070
    73
1070
     0
1070
   171
1070
     3
1070
   274
1070
     4
1070
   177
1070
   150
1070
   176
1070
     9
1070
   178
1070
    43
1070
    78
1070
     8
1070
    48
1040
-0.005
1070
    41
1041
4.175
1070
   147
1041
2.25
1070
    42
1041
1.5875
1070
    44
1041
3.175
1070
   140
1041
4.5
1070
   343
1005
0
1070
   344
1005
0
1002
}
0
DIMENSION
5
2A0
100
AcDbEntity
8
2
62
256
6
ByLayer
370
-3
48
1
60
0
100
AcDbDimension
2
DimnDraft3D7
10
122.15
20
-7.5
30
0
11
115.6
21
-23.745395
31
0
70
33
71
5
72
1
41
1
210
0
220
0
230
1
3
Standard
100
AcDbAlignedDimension
13
93.5875
23
7.5
33
0
14
93.5875
24
-7.5
34
0
1001
ACAD
1000
DSTYLE
1002
{
1070
   279
1070
     0
1070
    74
1070
     0
1070
   173
1070
     1
1070
   340
1005
231
1070
   271
1070
     2
1070
   272
1070
     2
1070
    77
1070
     1
1070
    73
1070
     0
1070
   171
1070
     3
1070
   274
1070
     4
1070
   177
1070
   150
1070
   176
1070
     9
1070
   178
1070
    43
1070
    78
1070
     8
1070
    48
1040
-0.005
1070
    41
1041
4.175
1070
   147
1041
2.25
1070
    42
1041
1.5875
1070
    44
1041
3.175
1070
   140
1041
4.5
1070
   343
1005
0
1070
   344
1005
0
1002
}
0
ENDSEC
0
SECTION
2
OBJECTS
0
DICTIONARY
5
2d1
330
0
100
AcDbDictionary
280
0
281
1
3
ACAD_GROUP
350
2d2
3
ACAD_MLINESTYLE
350
2d3
0
DICTIONARY
5
2d2
330
0
100
AcDbDictionary
280
0
281
1
0
DICTIONARY
5
2d3
330
0
100
AcDbDictionary
280
0
281
1
3
Standard
350
18
0
MLINESTYLE
5
18
330
2d3
100
AcDbMlineStyle
2
Standard
70
0
3

62
256
51
90
52
90
71
2
49
-0.5
62
256
6
ByLayer
49
0.5
62
256
6
ByLayer
0
RASTERVARIABLES
5
2bf
330

100
AcDbRasterVariables
90
0
70
1
71
1
72
1
0
ENDSEC
0
EOF
