0
SECTION
2
HEADER
9
$ACADVER
1
AC1015
9
$DWGCODEPAGE
3
ANSI_1252
9
$HANDSEED
5
2cc
9
$ANGBASE
50
0
9
$ANGDIR
70
0
9
$ATTMODE
70
1
9
$AUNITS
70
0
9
$AUPREC
70
0
9
$CECOLOR
62
256
9
$CELTSCALE
40
1
9
$CELTYPE
6
ByLayer
9
$CELWEIGHT
370
-1
9
$CLAYER
8
0
9
$CMLJUST
70
0
9
$CMLSCALE
40
1
9
$CMLSTYLE
2
Standard
9
$DIMSTYLE
2
Standard
9
$TEXTSIZE
40
0.2
9
$TEXTSTYLE
7
Standard
9
$LUNITS
70
2
9
$LUPREC
70
4
9
$EXTNAMES
290
1
9
$INSUNITS
70
4
9
$LTSCALE
40
1
9
$LWDISPLAY
290
0
9
$PDMODE
70
0
9
$PDSIZE
40
0
9
$PLINEGEN
70
0
0
ENDSEC
0
SECTION
2
CLASSES
0
CLASS
1
RASTERVARIABLES
2
AcDbRasterVariables
3
ISM
90
0
280
0
281
0
0
ENDSEC
0
SECTION
2
TABLES
0
TABLE
2
VPORT
5
2c2
100
AcDbSymbolTable
0
VPORT
5
1
100
AcDbSymbolTableRecord
100
AcDbViewportTableRecord
2
*Active
70
0
10
0
20
0
11
1
21
1
12
-1
22
1
13
0
23
0
14
0.5
24
0.5
15
10
25
10
16
0
26
0
36
1
17
0
27
0
37
0
0
ENDTAB
0
TABLE
2
LTYPE
5
2c3
100
AcDbSymbolTable
0
LTYPE
5
14
100
AcDbSymbolTableRecord
100
AcDbLinetypeTableRecord
70
0
2
ByBlock
3

72
65
73
0
40
0
0
LTYPE
5
15
100
AcDbSymbolTableRecord
100
AcDbLinetypeTableRecord
70
0
2
ByLayer
3

72
65
73
0
40
0
0
LTYPE
5
16
100
AcDbSymbolTableRecord
100
AcDbLinetypeTableRecord
70
0
2
CONTINUOUS
3
Solid line
72
65
73
0
40
0
0
LTYPE
5
3B
100
AcDbSymbolTableRecord
100
AcDbLinetypeTableRecord
70
0
2
DASHED
3
__ __ __ __ __ __ __ __ __
72
65
73
2
40
25.72
49
12.86
74
0
49
-12.86
74
0
0
LTYPE
5
3C
100
AcDbSymbolTableRecord
100
AcDbLinetypeTableRecord
70
0
2
HIDDEN
3
_ _ _ _ _ _ _ _ _ _ _ _ _ _ _
72
65
73
2
40
0.5
49
0.25
74
0
49
-0.25
74
0
0
LTYPE
5
3D
100
AcDbSymbolTableRecord
100
AcDbLinetypeTableRecord
70
0
2
PHANTOM
3
____ _ _ ____ _ _ _____ _ _ ____
72
65
73
6
40
50.5
49
18
74
0
49
-6.5
74
0
49
6.5
74
0
49
-6.5
74
0
49
6.5
74
0
49
-6.5
74
0
0
LTYPE
5
3E
100
AcDbSymbolTableRecord
100
AcDbLinetypeTableRecord
70
0
2
CENTER
3
____ _ ____ _ ____ _ ____
72
65
73
4
40
47.5
49
22
74
0
49
-8.5
74
0
49
8.5
74
0
49
-8.5
74
0
0
LTYPE
5
3F
100
AcDbSymbolTableRecord
100
AcDbLinetypeTableRecord
70
0
2
DOT
3
.........................
72
65
73
2
40
10
49
0
74
0
49
-10
74
0
0
LTYPE
5
40
100
AcDbSymbolTableRecord
100
AcDbLinetypeTableRecord
70
0
2
DASHDOT
3
_._._._._._._._._._._._._._._._.
72
65
73
4
40
70
49
31
74
0
49
-13
74
0
49
13
74
0
49
-13
74
0
0
ENDTAB
0
TABLE
2
LAYER
5
2c4
100
AcDbSymbolTable
0
LAYER
5
10
100
AcDbSymbolTableRecord
100
AcDbLayerTableRecord
2
0
70
0
62
7
6
CONTINUOUS
290
1
370
-3
390
0
0
LAYER
5
42
100
AcDbSymbolTableRecord
100
AcDbLayerTableRecord
2
81
70
0
62
-3
6
CONTINUOUS
290
1
370
-3
390
0
0
LAYER
5
44
100
AcDbSymbolTableRecord
100
AcDbLayerTableRecord
2
80
70
0
62
-6
6
CONTINUOUS
290
1
370
-3
390
0
0
LAYER
5
48
100
AcDbSymbolTableRecord
100
AcDbLayerTableRecord
2
1
70
0
62
4
6
CONTINUOUS
290
1
370
-3
390
0
0
LAYER
5
5F
100
AcDbSymbolTableRecord
100
AcDbLayerTableRecord
2
4
70
0
62
-2
6
CENTER
290
1
370
-3
390
0
0
LAYER
5
25B
100
AcDbSymbolTableRecord
100
AcDbLayerTableRecord
2
2
70
0
62
7
6
CONTINUOUS
290
1
370
-3
390
0
0
LAYER
5
2ae
100
AcDbSymbolTableRecord
100
AcDbLayerTableRecord
2
SK1
70
0
62
4
6
CONTINUOUS
290
1
370
-3
390
0
0
LAYER
5
2af
100
AcDbSymbolTableRecord
100
AcDbLayerTableRecord
2
SK4
70
0
62
2
6
CENTER
290
1
370
-3
390
0
0
LAYER
5
2b0
100
AcDbSymbolTableRecord
100
AcDbLayerTableRecord
2
SK6
70
0
62
5
6
CONTINUOUS
290
1
370
-3
390
0
0
LAYER
5
2b1
100
AcDbSymbolTableRecord
100
AcDbLayerTableRecord
2
SK2
70
0
62
7
6
CONTINUOUS
290
1
370
-3
390
0
0
ENDTAB
0
TABLE
2
STYLE
5
2c5
100
AcDbSymbolTable
0
STYLE
5
11
100
AcDbSymbolTableRecord
100
AcDbTextStyleTableRecord
2
Standard
3
txt
70
0
71
0
40
0
41
1
42
0
50
0
0
STYLE
5
21F
100
AcDbSymbolTableRecord
100
AcDbTextStyleTableRecord
2
DEFAULT
3
simplex.shx
70
0
71
0
40
0
41
1
42
0
50
0
0
STYLE
5
242
100
AcDbSymbolTableRecord
100
AcDbTextStyleTableRecord
2
DWGDirectTextStyle
3
SIMPLEX
70
0
71
0
40
0
41
1
42
0
50
0
0
ENDTAB
0
TABLE
2
DIMSTYLE
5
2c6
100
AcDbSymbolTable
100
AcDbDimStyleTable
0
DIMSTYLE
105
27
100
AcDbSymbolTableRecord
100
AcDbDimStyleTableRecord
2
Standard
70
0
3
<>
41
0.18
42
0.0625
44
0.18
140
0.18
147
0.09
73
0
74
0
77
1
271
2
275
0
278
52
280
0
340
11
0
ENDTAB
0
TABLE
2
VIEW
5
2c7
100
AcDbSymbolTable
0
ENDTAB
0
TABLE
2
UCS
5
2c8
100
AcDbSymbolTable
0
ENDTAB
0
TABLE
2
APPID
5
2c9
100
AcDbSymbolTable
0
APPID
5
12
100
AcDbSymbolTableRecord
100
AcDbRegAppTableRecord
2
ACAD
70
0
0
ENDTAB
0
TABLE
2
BLOCK_RECORD
5
2ca
100
AcDbSymbolTable
0
BLOCK_RECORD
5
1F
100
AcDbSymbolTableRecord
100
AcDbBlockTableRecord
2
*Model_Space
340
0
70
0
0
BLOCK_RECORD
5
1B
100
AcDbSymbolTableRecord
100
AcDbBlockTableRecord
2
*Paper_Space
340
0
70
0
0
BLOCK_RECORD
5
23
100
AcDbSymbolTableRecord
100
AcDbBlockTableRecord
2
*Paper_Space0
340
0
70
0
0
BLOCK_RECORD
5
244
100
AcDbSymbolTableRecord
100
AcDbBlockTableRecord
2
DimnDraft3D1
340
0
70
0
0
BLOCK_RECORD
5
24F
100
AcDbSymbolTableRecord
100
AcDbBlockTableRecord
2
DimnDraft3D2
340
0
70
0
0
BLOCK_RECORD
5
259
100
AcDbSymbolTableRecord
100
AcDbBlockTableRecord
2
DimnDraft3D3
340
0
70
0
0
BLOCK_RECORD
5
264
100
AcDbSymbolTableRecord
100
AcDbBlockTableRecord
2
DimnDraft3D4
340
0
70
0
0
BLOCK_RECORD
5
26E
100
AcDbSymbolTableRecord
100
AcDbBlockTableRecord
2
DimnDraft3D5
340
0
70
0
0
BLOCK_RECORD
5
279
100
AcDbSymbolTableRecord
100
AcDbBlockTableRecord
2
DimnDraft3D6
340
0
70
0
0
BLOCK_RECORD
5
284
100
AcDbSymbolTableRecord
100
AcDbBlockTableRecord
2
DimnDraft3D7
340
0
70
0
0
ENDTAB
0
ENDSEC
0
SECTION
2
BLOCKS
0
BLOCK
5
20
100
AcDbEntity
8
0
100
AcDbBlockBegin
2
*Model_Space
70
0
10
0
20
0
30
0
3
*Model_Space
0
ENDBLK
5
21
100
AcDbEntity
8
0
100
AcDbBlockEnd
0
BLOCK
5
1C
100
AcDbEntity
8
0
100
AcDbBlockBegin
2
*Paper_Space
70
0
10
0
20
0
30
0
3
*Paper_Space
0
ENDBLK
5
1D
100
AcDbEntity
8
0
100
AcDbBlockEnd
0
BLOCK
5
24
100
AcDbEntity
8
0
100
AcDbBlockBegin
2
*Paper_Space0
70
0
10
0
20
0
30
0
3
*Paper_Space0
0
ENDBLK
5
25
100
AcDbEntity
8
0
100
AcDbBlockEnd
0
BLOCK
5
24C
100
AcDbEntity
8
0
100
AcDbBlockBegin
2
DimnDraft3D1
70
0
10
0
20
0
30
0
3
DimnDraft3D1
0
MTEXT
5
245
100
AcDbEntity
8
SK2
62
256
6
ByLayer
370
-1
48
1
60
0
100
AcDbMText
10
-7.503947
20
-48.278626
30
0
210
0
220
0
230
1
1
\W01.000;\fsimplex.shx,bigfont.shx;(97) 
40
4.5
41
0
44
1.084337
50
0
71
7
72
5
7
DEFAULT
0
LINE
5
247
100
AcDbEntity
8
SK2
62
256
6
ByLayer
370
-1
48
1
60
0
100
AcDbLine
10
-50
20
-11.5875
30
0
11
-50
21
-54.547376
31
0
39
0
210
0
220
0
230
1
0
LINE
5
248
100
AcDbEntity
8
SK2
62
256
6
ByLayer
370
-1
48
1
60
0
100
AcDbLine
10
47
20
-9.0875
30
0
11
47
21
-54.547376
31
0
39
0
210
0
220
0
230
1
0
LINE
5
249
100
AcDbEntity
8
SK2
62
256
6
ByLayer
370
-1
48
1
60
0
100
AcDbLine
10
-50
20
-51.372376
30
0
11
47
21
-51.372376
31
0
39
0
210
0
220
0
230
1
0
SOLID
5
24A
100
AcDbEntity
8
SK2
62
256
6
ByLayer
370
-1
48
1
60
0
100
AcDbTrace
10
-50
20
-51.372376
30
0
11
-45.825003
21
-50.4468
31
0
12
-45.824997
22
-52.297951
32
0
13
-50
23
-51.372376
33
0
39
0
210
0
220
0
230
1
0
SOLID
5
24B
100
AcDbEntity
8
SK2
62
256
6
ByLayer
370
-1
48
1
60
0
100
AcDbTrace
10
47
20
-51.372376
30
0
11
42.825003
21
-52.297951
31
0
12
42.824997
22
-50.4468
32
0
13
47
23
-51.372376
33
0
39
0
210
0
220
0
230
1
0
ENDBLK
5
24D
100
AcDbEntity
8
0
100
AcDbBlockEnd
0
BLOCK
5
256
100
AcDbEntity
8
0
100
AcDbBlockBegin
2
DimnDraft3D2
70
0
10
0
20
0
30
0
3
DimnDraft3D2
0
MTEXT
5
250
100
AcDbEntity
8
SK2
62
256
6
ByLayer
370
-1
48
1
60
0
100
AcDbMText
10
-26.503947
20
-38.278626
30
0
210
0
220
0
230
1
1
\W01.000;\fsimplex.shx,bigfont.shx;50 
40
4.5
41
0
44
1.084337
50
0
71
7
72
5
7
DEFAULT
0
LINE
5
251
100
AcDbEntity
8
SK2
62
256
6
ByLayer
370
-1
48
1
60
0
100
AcDbLine
10
-50
20
-11.5875
30
0
11
-50
21
-42.578626
31
0
39
0
210
0
220
0
230
1
0
LINE
5
252
100
AcDbEntity
8
SK2
62
256
6
ByLayer
370
-1
48
1
60
0
100
AcDbLine
10
0
20
-14.0875
30
0
11
0
21
-42.578626
31
0
39
0
210
0
220
0
230
1
0
LINE
5
253
100
AcDbEntity
8
SK2
62
256
6
ByLayer
370
-1
48
1
60
0
100
AcDbLine
10
-50
20
-39.403626
30
0
11
0
21
-39.403626
31
0
39
0
210
0
220
0
230
1
0
SOLID
5
254
100
AcDbEntity
8
SK2
62
256
6
ByLayer
370
-1
48
1
60
0
100
AcDbTrace
10
-50
20
-39.403626
30
0
11
-45.825003
21
-38.47805
31
0
12
-45.824997
22
-40.329201
32
0
13
-50
23
-39.403626
33
0
39
0
210
0
220
0
230
1
0
SOLID
5
255
100
AcDbEntity
8
SK2
62
256
6
ByLayer
370
-1
48
1
60
0
100
AcDbTrace
10
0
20
-39.403626
30
0
11
-4.174997
21
-40.329201
31
0
12
-4.175003
22
-38.47805
32
0
13
0
23
-39.403626
33
0
39
0
210
0
220
0
230
1
0
ENDBLK
5
257
100
AcDbEntity
8
0
100
AcDbBlockEnd
0
BLOCK
5
261
100
AcDbEntity
8
0
100
AcDbBlockBegin
2
DimnDraft3D3
70
0
10
0
20
0
30
0
3
DimnDraft3D3
0
MTEXT
5
25A
100
AcDbEntity
8
2
62
256
6
ByLayer
370
-1
48
1
60
0
100
AcDbMText
10
21.759211
20
-38.278626
30
0
210
0
220
0
230
1
1
\W01.000;\fsimplex.shx,bigfont.shx;47 
40
4.5
41
0
44
1.084337
50
0
71
7
72
5
7
DEFAULT
0
LINE
5
25C
100
AcDbEntity
8
2
62
256
6
ByLayer
370
-1
48
1
60
0
100
AcDbLine
10
0
20
-14.0875
30
0
11
0
21
-42.578626
31
0
39
0
210
0
220
0
230
1
0
LINE
5
25D
100
AcDbEntity
8
2
62
256
6
ByLayer
370
-1
48
1
60
0
100
AcDbLine
10
47
20
-9.0875
30
0
11
47
21
-42.578626
31
0
39
0
210
0
220
0
230
1
0
LINE
5
25E
100
AcDbEntity
8
2
62
256
6
ByLayer
370
-1
48
1
60
0
100
AcDbLine
10
0
20
-39.403626
30
0
11
47
21
-39.403626
31
0
39
0
210
0
220
0
230
1
0
SOLID
5
25F
100
AcDbEntity
8
2
62
256
6
ByLayer
370
-1
48
1
60
0
100
AcDbTrace
10
0
20
-39.403626
30
0
11
4.174997
21
-38.47805
31
0
12
4.175003
22
-40.329201
32
0
13
0
23
-39.403626
33
0
39
0
210
0
220
0
230
1
0
SOLID
5
260
100
AcDbEntity
8
2
62
256
6
ByLayer
370
-1
48
1
60
0
100
AcDbTrace
10
47
20
-39.403626
30
0
11
42.825003
21
-40.329201
31
0
12
42.824997
22
-38.47805
32
0
13
47
23
-39.403626
33
0
39
0
210
0
220
0
230
1
0
ENDBLK
5
262
100
AcDbEntity
8
0
100
AcDbBlockEnd
0
BLOCK
5
26B
100
AcDbEntity
8
0
100
AcDbBlockBegin
2
DimnDraft3D4
70
0
10
0
20
0
30
0
3
DimnDraft3D4
0
MTEXT
5
265
100
AcDbEntity
8
SK2
62
256
6
ByLayer
370
-1
48
1
60
0
100
AcDbMText
10
28.996053
20
-28.278626
30
0
210
0
220
0
230
1
1
\W01.000;\fsimplex.shx,bigfont.shx;33 
40
4.5
41
0
44
1.084337
50
0
71
7
72
5
7
DEFAULT
0
LINE
5
266
100
AcDbEntity
8
SK2
62
256
6
ByLayer
370
-1
48
1
60
0
100
AcDbLine
10
14
20
-11.5875
30
0
11
14
21
-32.578626
31
0
39
0
210
0
220
0
230
1
0
LINE
5
267
100
AcDbEntity
8
SK2
62
256
6
ByLayer
370
-1
48
1
60
0
100
AcDbLine
10
47
20
-9.0875
30
0
11
47
21
-32.578626
31
0
39
0
210
0
220
0
230
1
0
LINE
5
268
100
AcDbEntity
8
SK2
62
256
6
ByLayer
370
-1
48
1
60
0
100
AcDbLine
10
14
20
-29.403626
30
0
11
47
21
-29.403626
31
0
39
0
210
0
220
0
230
1
0
SOLID
5
269
100
AcDbEntity
8
SK2
62
256
6
ByLayer
370
-1
48
1
60
0
100
AcDbTrace
10
14
20
-29.403626
30
0
11
18.174997
21
-28.47805
31
0
12
18.175003
22
-30.329201
32
0
13
14
23
-29.403626
33
0
39
0
210
0
220
0
230
1
0
SOLID
5
26A
100
AcDbEntity
8
SK2
62
256
6
ByLayer
370
-1
48
1
60
0
100
AcDbTrace
10
47
20
-29.403626
30
0
11
42.825003
21
-30.329201
31
0
12
42.824997
22
-28.47805
32
0
13
47
23
-29.403626
33
0
39
0
210
0
220
0
230
1
0
ENDBLK
5
26C
100
AcDbEntity
8
0
100
AcDbBlockEnd
0
BLOCK
5
276
100
AcDbEntity
8
0
100
AcDbBlockBegin
2
DimnDraft3D5
70
0
10
0
20
0
30
0
3
DimnDraft3D5
0
MTEXT
5
26F
100
AcDbEntity
8
SK2
62
256
6
ByLayer
370
-1
48
1
60
0
100
AcDbMText
10
-60.975
20
-26.245395
30
0
210
0
220
0
230
1
1
\W01.000;\fsimplex.shx,bigfont.shx;20 
40
4.5
41
0
44
1.084337
50
90
71
7
72
5
7
DEFAULT
0
MTEXT
5
270
100
AcDbEntity
8
SK2
62
256
6
ByLayer
370
-1
48
1
60
0
100
AcDbMText
10
-60.975
20
-39.745395
30
0
210
0
220
0
230
1
1
\W01.000;\fsimplex.shx,bigfont.shx;%%c 
40
4.5
41
0
44
1.084337
50
90
71
7
72
5
7
DEFAULT
0
LINE
5
271
100
AcDbEntity
8
SK2
62
256
6
ByLayer
370
-1
48
1
60
0
100
AcDbLine
10
-51.5875
20
10
30
0
11
-61.9
21
10
31
0
39
0
210
0
220
0
230
1
0
LINE
5
272
100
AcDbEntity
8
SK2
62
256
6
ByLayer
370
-1
48
1
60
0
100
AcDbLine
10
-51.5875
20
-10
30
0
11
-61.9
21
-10
31
0
39
0
210
0
220
0
230
1
0
LINE
5
273
100
AcDbEntity
8
SK2
62
256
6
ByLayer
370
-1
48
1
60
0
100
AcDbLine
10
-58.725
20
10
30
0
11
-58.725
21
-40.870395
31
0
39
0
210
0
220
0
230
1
0
SOLID
5
274
100
AcDbEntity
8
SK2
62
256
6
ByLayer
370
-1
48
1
60
0
100
AcDbTrace
10
-58.725
20
10
30
0
11
-57.799425
21
5.825003
31
0
12
-59.650575
22
5.824997
32
0
13
-58.725
23
10
33
0
39
0
210
0
220
0
230
1
0
SOLID
5
275
100
AcDbEntity
8
SK2
62
256
6
ByLayer
370
-1
48
1
60
0
100
AcDbTrace
10
-58.725
20
-10
30
0
11
-59.650575
21
-5.825003
31
0
12
-57.799425
22
-5.824997
32
0
13
-58.725
23
-10
33
0
39
0
210
0
220
0
230
1
0
ENDBLK
5
277
100
AcDbEntity
8
0
100
AcDbBlockEnd
0
BLOCK
5
281
100
AcDbEntity
8
0
100
AcDbBlockBegin
2
DimnDraft3D6
70
0
10
0
20
0
30
0
3
DimnDraft3D6
0
MTEXT
5
27A
100
AcDbEntity
8
SK2
62
256
6
ByLayer
370
-1
48
1
60
0
100
AcDbMText
10
-70.975
20
5.246053
30
0
210
0
220
0
230
1
1
\W01.000;\fsimplex.shx,bigfont.shx;25 
40
4.5
41
0
44
1.084337
50
90
71
7
72
5
7
DEFAULT
0
MTEXT
5
27B
100
AcDbEntity
8
SK2
62
256
6
ByLayer
370
-1
48
1
60
0
100
AcDbMText
10
-70.975
20
-8.253947
30
0
210
0
220
0
230
1
1
\W01.000;\fsimplex.shx,bigfont.shx;%%c 
40
4.5
41
0
44
1.084337
50
90
71
7
72
5
7
DEFAULT
0
LINE
5
27C
100
AcDbEntity
8
SK2
62
256
6
ByLayer
370
-1
48
1
60
0
100
AcDbLine
10
-1.5875
20
-12.5
30
0
11
-71.9
21
-12.5
31
0
39
0
210
0
220
0
230
1
0
LINE
5
27D
100
AcDbEntity
8
SK2
62
256
6
ByLayer
370
-1
48
1
60
0
100
AcDbLine
10
-1.5875
20
12.5
30
0
11
-71.9
21
12.5
31
0
39
0
210
0
220
0
230
1
0
LINE
5
27E
100
AcDbEntity
8
SK2
62
256
6
ByLayer
370
-1
48
1
60
0
100
AcDbLine
10
-68.725
20
-23.75
30
0
11
-68.725
21
23.75
31
0
39
0
210
0
220
0
230
1
0
SOLID
5
27F
100
AcDbEntity
8
SK2
62
256
6
ByLayer
370
-1
48
1
60
0
100
AcDbTrace
10
-68.725
20
-12.5
30
0
11
-67.799425
21
-16.674997
31
0
12
-69.650575
22
-16.675003
32
0
13
-68.725
23
-12.5
33
0
39
0
210
0
220
0
230
1
0
SOLID
5
280
100
AcDbEntity
8
SK2
62
256
6
ByLayer
370
-1
48
1
60
0
100
AcDbTrace
10
-68.725
20
12.5
30
0
11
-69.650575
21
16.674997
31
0
12
-67.799425
22
16.675003
32
0
13
-68.725
23
12.5
33
0
39
0
210
0
220
0
230
1
0
ENDBLK
5
282
100
AcDbEntity
8
0
100
AcDbBlockEnd
0
BLOCK
5
28C
100
AcDbEntity
8
0
100
AcDbBlockBegin
2
DimnDraft3D7
70
0
10
0
20
0
30
0
3
DimnDraft3D7
0
MTEXT
5
285
100
AcDbEntity
8
2
62
256
6
ByLayer
370
-1
48
1
60
0
100
AcDbMText
10
71.725
20
-22.620395
30
0
210
0
220
0
230
1
1
\W01.000;\fsimplex.shx,bigfont.shx;15 
40
4.5
41
0
44
1.084337
50
90
71
7
72
5
7
DEFAULT
0
MTEXT
5
286
100
AcDbEntity
8
2
62
256
6
ByLayer
370
-1
48
1
60
0
100
AcDbMText
10
71.725
20
-36.120395
30
0
210
0
220
0
230
1
1
\W01.000;\fsimplex.shx,bigfont.shx;%%c 
40
4.5
41
0
44
1.084337
50
90
71
7
72
5
7
DEFAULT
0
LINE
5
287
100
AcDbEntity
8
2
62
256
6
ByLayer
370
-1
48
1
60
0
100
AcDbLine
10
48.5875
20
7.5
30
0
11
77.15
21
7.5
31
0
39
0
210
0
220
0
230
1
0
LINE
5
288
100
AcDbEntity
8
2
62
256
6
ByLayer
370
-1
48
1
60
0
100
AcDbLine
10
48.5875
20
-7.5
30
0
11
77.15
21
-7.5
31
0
39
0
210
0
220
0
230
1
0
LINE
5
289
100
AcDbEntity
8
2
62
256
6
ByLayer
370
-1
48
1
60
0
100
AcDbLine
10
73.975
20
7.5
30
0
11
73.975
21
-37.245395
31
0
39
0
210
0
220
0
230
1
0
SOLID
5
28A
100
AcDbEntity
8
2
62
256
6
ByLayer
370
-1
48
1
60
0
100
AcDbTrace
10
73.975
20
7.5
30
0
11
74.900575
21
3.325003
31
0
12
73.049425
22
3.324997
32
0
13
73.975
23
7.5
33
0
39
0
210
0
220
0
230
1
0
SOLID
5
28B
100
AcDbEntity
8
2
62
256
6
ByLayer
370
-1
48
1
60
0
100
AcDbTrace
10
73.975
20
-7.5
30
0
11
73.049425
21
-3.325003
31
0
12
74.900575
22
-3.324997
32
0
13
73.975
23
-7.5
33
0
39
0
210
0
220
0
230
1
0
ENDBLK
5
28D
100
AcDbEntity
8
0
100
AcDbBlockEnd
0
ENDSEC
0
SECTION
2
ENTITIES
0
ARC
5
F3
100
AcDbEntity
8
SK1
62
256
6
ByLayer
370
-1
48
1
60
0
100
AcDbCircle
39
0
10
1.382165
20
10.15
30
0
40
0.4
210
0
220
0
230
-1
100
AcDbArc
50
270
51
295
0
ARC
5
F4
100
AcDbEntity
8
SK1
62
256
6
ByLayer
370
-1
48
1
60
0
100
AcDbCircle
39
0
10
1.382165
20
-10.15
30
0
40
0.4
210
0
220
0
230
-1
100
AcDbArc
50
65
51
90
0
ARC
5
F5
100
AcDbEntity
8
SK1
62
256
6
ByLayer
370
-1
48
1
60
0
100
AcDbCircle
39
0
10
0.15
20
10.15
30
0
40
0.4
210
0
220
0
230
-1
100
AcDbArc
50
247.975687
51
270
0
ARC
5
F6
100
AcDbEntity
8
SK1
62
256
6
ByLayer
370
-1
48
1
60
0
100
AcDbCircle
39
0
10
0.15
20
-10.15
30
0
40
0.4
210
0
220
0
230
-1
100
AcDbArc
50
90
51
112.024313
0
ARC
5
F7
100
AcDbEntity
8
SK1
62
256
6
ByLayer
370
-1
48
1
60
0
100
AcDbCircle
39
0
10
47.894506
20
10.39675
30
0
40
0.8
210
0
220
0
230
-1
100
AcDbArc
50
250.982048
51
321
0
ARC
5
F8
100
AcDbEntity
8
SK1
62
256
6
ByLayer
370
-1
48
1
60
0
100
AcDbCircle
39
0
10
47.894506
20
-10.39675
30
0
40
0.8
210
0
220
0
230
-1
100
AcDbArc
50
39
51
109.017952
0
ELLIPSE
5
F9
100
AcDbEntity
8
1
62
256
6
ByLayer
370
-1
48
1
60
0
100
AcDbEllipse
10
46.027195
20
-4.418688
30
0
11
-0.0614401954518715
21
1.00998898619118
31
0
210
0
220
0
230
-1
40
0.117261
41
-0.716042345575542
42
0.837963176859615
0
ELLIPSE
5
FA
100
AcDbEntity
8
1
62
256
6
ByLayer
370
-1
48
1
60
0
100
AcDbEllipse
10
40.13627
20
2.879561
30
0
11
0.0280261150489165
21
-0.799508934831416
31
0
210
0
220
0
230
1
40
0.087103
41
-0.00305330083576591
42
1.56774302595899
0
ELLIPSE
5
FB
100
AcDbEntity
8
1
62
256
6
ByLayer
370
-1
48
1
60
0
100
AcDbEllipse
10
44.463069
20
4.715466
30
0
11
1.17145334231628E-15
21
1
31
0
210
0
220
0
230
1
40
0.996195
41
0.0744169517263217
42
1.57079654872778
0
ELLIPSE
5
FC
100
AcDbEntity
8
1
62
256
6
ByLayer
370
-1
48
1
60
0
100
AcDbEllipse
10
44.463069
20
4.715466
30
0
11
1.17145334231628E-15
21
1
31
0
210
0
220
0
230
1
40
0.996195
41
1.57079654872778
42
2.18232728395915
0
ELLIPSE
5
FD
100
AcDbEntity
8
1
62
256
6
ByLayer
370
-1
48
1
60
0
100
AcDbEllipse
10
46.069208
20
-0.061356
30
0
11
-0.0367903370080894
21
0.601607538740263
31
0
210
0
220
0
230
-1
40
0.118733
41
-1.49832363729289
42
-1.26478371779151
0
ELLIPSE
5
FE
100
AcDbEntity
8
1
62
256
6
ByLayer
370
-1
48
1
60
0
100
AcDbEllipse
10
42.717622
20
3.288834
30
0
11
-1.4470236532442E-15
21
-1.35
31
0
210
0
220
0
230
1
40
0.996195
41
-1.71042266695444
42
-0.140498665993575
0
ELLIPSE
5
FF
100
AcDbEntity
8
1
62
256
6
ByLayer
370
-1
48
1
60
0
100
AcDbEllipse
10
44.314995
20
4.715466
30
0
11
-1.07186937277348E-15
21
-1
31
0
210
0
220
0
230
1
40
0.996195
41
1.57079654872778
42
-1.70451026878387
0
ELLIPSE
5
100
100
AcDbEntity
8
1
62
256
6
ByLayer
370
-1
48
1
60
0
100
AcDbEllipse
10
44.314995
20
4.715466
30
0
11
-1.07186937277348E-15
21
-1
31
0
210
0
220
0
230
1
40
0.996195
41
0
42
6.28318530717959
0
ELLIPSE
5
101
100
AcDbEntity
8
1
62
256
6
ByLayer
370
-1
48
1
60
0
100
AcDbEllipse
10
44.314995
20
4.715466
30
0
11
-1.07186937277348E-15
21
-1
31
0
210
0
220
0
230
1
40
0.996195
41
0.973108813568411
42
1.57079654872778
0
ELLIPSE
5
102
100
AcDbEntity
8
1
62
256
6
ByLayer
370
-1
48
1
60
0
100
AcDbEllipse
10
46.844229
20
0
30
0
11
-0.592080812113051
21
-7.19961114177956
31
0
210
0
220
0
230
-1
40
0.126383
41
0.804767300717001
42
1.03719636129052
0
ELLIPSE
5
103
100
AcDbEntity
8
1
62
256
6
ByLayer
370
-1
48
1
60
0
100
AcDbEllipse
10
22.120058
20
6.476795
30
0
11
-17.6304340204173
21
2.04063819441117
31
0
210
0
220
0
230
-1
40
0.19156
41
3.11942416058108
42
-2.74625619587042
0
ELLIPSE
5
104
100
AcDbEntity
8
1
62
256
6
ByLayer
370
-1
48
1
60
0
100
AcDbEllipse
10
42.652583
20
4.193824
30
0
11
1.58146201212697E-15
21
1.35
31
0
210
0
220
0
230
1
40
0.996195
41
1.06100709389382
42
1.43116998663535
0
ELLIPSE
5
105
100
AcDbEntity
8
1
62
256
6
ByLayer
370
-1
48
1
60
0
100
AcDbEllipse
10
-3.081733
20
0
30
0
11
-128.049382930824
21
-6.96283641315588
31
0
210
0
220
0
230
-1
40
0.014313
41
-1.95813330286315
42
-1.91094166356285
0
ELLIPSE
5
106
100
AcDbEntity
8
1
62
256
6
ByLayer
370
-1
48
1
60
0
100
AcDbEllipse
10
9.9
20
-3.664466
30
0
11
4
21
0
31
0
210
0
220
0
230
1
40
0.998082
41
3.14157057494917
42
-2.24404652260852
0
ELLIPSE
5
107
100
AcDbEntity
8
1
62
256
6
ByLayer
370
-1
48
1
60
0
100
AcDbEllipse
10
42.777691
20
3.288834
30
0
11
-1.17794646133823
21
-1.04893007471936
31
0
210
0
220
0
230
-1
40
0.721468
41
-1.26712593957044
42
-0.133853100320679
0
ELLIPSE
5
108
100
AcDbEntity
8
1
62
256
6
ByLayer
370
-1
48
1
60
0
100
AcDbEllipse
10
42.844326
20
4.193824
30
0
11
-1.4470236532442E-15
21
-1.35
31
0
210
0
220
0
230
1
40
0.996195
41
-2.0958497320428
42
-1.71042266695444
0
ELLIPSE
5
109
100
AcDbEntity
8
1
62
256
6
ByLayer
370
-1
48
1
60
0
100
AcDbEllipse
10
40.059974
20
7.077002
30
0
11
4.92010403772836E-15
21
4.2
31
0
210
0
220
0
230
1
40
0.996195
41
2.72271363311116
42
-3.1066860685499
0
ELLIPSE
5
10A
100
AcDbEntity
8
1
62
256
6
ByLayer
370
-1
48
1
60
0
100
AcDbEllipse
10
44.142785
20
-1.519269
30
0
11
1.1
21
0
31
0
210
0
220
0
230
1
40
0.998135
41
0
42
-3.14159250247965
0
ELLIPSE
5
10B
100
AcDbEntity
8
1
62
256
6
ByLayer
370
-1
48
1
60
0
100
AcDbEllipse
10
42.104451
20
4.298204
30
0
11
-0.594204555650943
21
0.0831922234566725
31
0
210
0
220
0
230
1
40
0.01213
41
-0.816669269699526
42
-0.0864214342679694
0
ELLIPSE
5
10C
100
AcDbEntity
8
1
62
256
6
ByLayer
370
-1
48
1
60
0
100
AcDbEllipse
10
44.010639
20
2.789591
30
0
11
-0.692616115568743
21
-0.624046902899662
31
0
210
0
220
0
230
-1
40
0.037579
41
-0.861380547803708
42
-0.673538939839236
0
ELLIPSE
5
10D
100
AcDbEntity
8
1
62
256
6
ByLayer
370
-1
48
1
60
0
100
AcDbEllipse
10
44.142785
20
-1.519269
30
0
11
-1
21
1.01063905508236E-15
31
0
210
0
220
0
230
1
40
0.998135
41
0
42
6.28318530717959
0
ELLIPSE
5
10E
100
AcDbEntity
8
1
62
256
6
ByLayer
370
-1
48
1
60
0
100
AcDbEllipse
10
38.288456
20
3.240111
30
0
11
-0.3264256408368
21
-0.730374082922091
31
0
210
0
220
0
230
1
40
0.079621
41
0.591895244924977
42
1.60636616336575
0
ELLIPSE
5
10F
100
AcDbEntity
8
1
62
256
6
ByLayer
370
-1
48
1
60
0
100
AcDbEllipse
10
39.371357
20
0
30
0
11
-25.5981723527295
21
0.477137432403725
31
0
210
0
220
0
230
-1
40
0.280652
41
-1.62187688686692
42
-1.46914412997646
0
ELLIPSE
5
110
100
AcDbEntity
8
1
62
256
6
ByLayer
370
-1
48
1
60
0
100
AcDbEllipse
10
41.977747
20
3.393214
30
0
11
-0.594204555650943
21
0.0831922234566725
31
0
210
0
220
0
230
1
40
0.01213
41
-1.1400578519419
42
-0.0864214342679694
0
ELLIPSE
5
111
100
AcDbEntity
8
1
62
256
6
ByLayer
370
-1
48
1
60
0
100
AcDbEllipse
10
44.433981
20
0
30
0
11
-16.3836745290964
21
6.97732414401671
31
0
210
0
220
0
230
-1
40
0.108448
41
-1.17649913728083
42
-0.7723651952673
0
ELLIPSE
5
112
100
AcDbEntity
8
1
62
256
6
ByLayer
370
-1
48
1
60
0
100
AcDbEllipse
10
37.885747
20
2.661878
30
0
11
-7.84117240050534
21
0.412486987342759
31
0
210
0
220
0
230
-1
40
0.000374
41
-3.13559500742319
42
-3.13447637925246
0
ELLIPSE
5
113
100
AcDbEntity
8
1
62
256
6
ByLayer
370
-1
48
1
60
0
100
AcDbEllipse
10
31.338641
20
5.369338
30
0
11
-7.89769895229921
21
4.25884494460447
31
0
210
0
220
0
230
-1
40
0.104146
41
-2.52980684519483
42
-1.83576391116854
0
ELLIPSE
5
114
100
AcDbEntity
8
1
62
256
6
ByLayer
370
-1
48
1
60
0
100
AcDbEllipse
10
45.927261
20
-4.409312
30
0
11
-0.0805540828351578
21
-0.996832558427193
31
0
210
0
220
0
230
-1
40
0.12605
41
-2.32023870462469
42
0.553981238352765
0
ELLIPSE
5
115
100
AcDbEntity
8
1
62
256
6
ByLayer
370
-1
48
1
60
0
100
AcDbEllipse
10
46.26995
20
-3.787323
30
0
11
-0.05812909929301
21
-0.658564973948082
31
0
210
0
220
0
230
-1
40
0.115224
41
0.00370845515640057
42
1.55546312996996
0
ELLIPSE
5
116
100
AcDbEntity
8
1
62
256
6
ByLayer
370
-1
48
1
60
0
100
AcDbEllipse
10
39.99025
20
7.077002
30
0
11
-5.35934686386741E-15
21
-5
31
0
210
0
220
0
230
1
40
0.996195
41
-0.236624516950618
42
-2.14621924224966E-06
0
ELLIPSE
5
117
100
AcDbEntity
8
1
62
256
6
ByLayer
370
-1
48
1
60
0
100
AcDbEllipse
10
45.927261
20
-4.409312
30
0
11
-0.080554082835163
21
-0.996832558427633
31
0
210
0
220
0
230
-1
40
0.12605
41
1.00230431387487
42
2.40894108012003
0
ELLIPSE
5
118
100
AcDbEntity
8
1
62
256
6
ByLayer
370
-1
48
1
60
0
100
AcDbEllipse
10
42.525879
20
3.288834
30
0
11
1.58146201212697E-15
21
1.35
31
0
210
0
220
0
230
1
40
0.996195
41
1.43116998663535
42
1.8509328096783
0
ELLIPSE
5
119
100
AcDbEntity
8
1
62
256
6
ByLayer
370
-1
48
1
60
0
100
AcDbEllipse
10
46.289819
20
0
30
0
11
-0.474816997138729
21
7.19977943674963
31
0
210
0
220
0
230
-1
40
0.118731
41
-1.51085753817225
42
-1.43300774821551
0
ELLIPSE
5
11A
100
AcDbEntity
8
1
62
256
6
ByLayer
370
-1
48
1
60
0
100
AcDbEllipse
10
44.306189
20
4.715466
30
0
11
-1.25944651300884E-15
21
-1.175
31
0
210
0
220
0
230
1
40
0.996195
41
-3.14159237692217
42
-2.50541952488712
0
ELLIPSE
5
11B
100
AcDbEntity
8
1
62
256
6
ByLayer
370
-1
48
1
60
0
100
AcDbEllipse
10
44.306189
20
4.715466
30
0
11
-1.25944651300884E-15
21
-1.175
31
0
210
0
220
0
230
1
40
0.996195
41
-1.57079661451939
42
0
0
ELLIPSE
5
11C
100
AcDbEntity
8
1
62
256
6
ByLayer
370
-1
48
1
60
0
100
AcDbEllipse
10
44.306189
20
4.715466
30
0
11
-1.25944651300884E-15
21
-1.175
31
0
210
0
220
0
230
1
40
0.996195
41
0
42
1.57079661451941
0
ELLIPSE
5
11D
100
AcDbEntity
8
1
62
256
6
ByLayer
370
-1
48
1
60
0
100
AcDbEllipse
10
44.297474
20
4.715466
30
0
11
-1.25944651300884E-15
21
-1.175
31
0
210
0
220
0
230
1
40
0.996195
41
1.78570068007365
42
-2.53310605394878
0
ELLIPSE
5
11E
100
AcDbEntity
8
1
62
256
6
ByLayer
370
-1
48
1
60
0
100
AcDbEllipse
10
44.297474
20
4.715466
30
0
11
-1.25944651300884E-15
21
-1.175
31
0
210
0
220
0
230
1
40
0.996195
41
0
42
6.28318530717959
0
ELLIPSE
5
11F
100
AcDbEntity
8
1
62
256
6
ByLayer
370
-1
48
1
60
0
100
AcDbEllipse
10
38.780661
20
0
30
0
11
-24.9884327825449
21
-2.83143854510971E-14
31
0
210
0
220
0
230
-1
40
0.288133
41
1.45048010773025
42
1.60979077316429
0
ELLIPSE
5
120
100
AcDbEntity
8
1
62
256
6
ByLayer
370
-1
48
1
60
0
100
AcDbEllipse
10
36.546537
20
2E-06
30
0
11
-82.2963660780001
21
9.02641281230121E-08
31
0
210
0
220
0
230
-1
40
0.087489
41
1.6097907655831
42
1.62985800032055
0
ELLIPSE
5
121
100
AcDbEntity
8
1
62
256
6
ByLayer
370
-1
48
1
60
0
100
AcDbEllipse
10
46.069967
20
-0.061382
30
0
11
-0.0399645015355738
21
0.601714032439528
31
0
210
0
220
0
230
-1
40
0.118351
41
-1.26419397947817
42
0.0730624297070054
0
ELLIPSE
5
122
100
AcDbEntity
8
1
62
256
6
ByLayer
370
-1
48
1
60
0
100
AcDbEllipse
10
44.142785
20
-1.726771
30
0
11
1
21
0
31
0
210
0
220
0
230
1
40
0.998135
41
0.104163555300005
42
3.03752773688775
0
ELLIPSE
5
123
100
AcDbEntity
8
1
62
256
6
ByLayer
370
-1
48
1
60
0
100
AcDbEllipse
10
46.044028
20
2.833514
30
0
11
-0.0394524956332965
21
0.602847126545871
31
0
210
0
220
0
230
-1
40
0.117401
41
2.29987241551728
42
-3.13226511510478
0
ELLIPSE
5
124
100
AcDbEntity
8
1
62
256
6
ByLayer
370
-1
48
1
60
0
100
AcDbEllipse
10
42.709861
20
4.52
30
0
11
-4.83657985831211
21
-3.00959392783642
31
0
210
0
220
0
230
-1
40
0.369417
41
-1.04050111392586
42
-0.790287498477876
0
ELLIPSE
5
125
100
AcDbEntity
8
1
62
256
6
ByLayer
370
-1
48
1
60
0
100
AcDbEllipse
10
46.289914
20
0
30
0
11
-0.436883689304208
21
7.19981200755958
31
0
210
0
220
0
230
-1
40
0.119092
41
-2.08677679258267
42
-1.51146117091166
0
ELLIPSE
5
126
100
AcDbEntity
8
1
62
256
6
ByLayer
370
-1
48
1
60
0
100
AcDbEllipse
10
46.844229
20
0
30
0
11
-0.592080812046363
21
-7.19961114139568
31
0
210
0
220
0
230
-1
40
0.126383
41
0.0048439936445045
42
0.742951969732612
0
ELLIPSE
5
127
100
AcDbEntity
8
1
62
256
6
ByLayer
370
-1
48
1
60
0
100
AcDbEllipse
10
46.264914
20
-3.789143
30
0
11
-0.0344742231853157
21
0.625355562217724
31
0
210
0
220
0
230
-1
40
0.114493
41
-1.56701299310169
42
-1.54796817932476
0
ELLIPSE
5
128
100
AcDbEntity
8
1
62
256
6
ByLayer
370
-1
48
1
60
0
100
AcDbEllipse
10
39.585488
20
4.420634
30
0
11
-0.39752818454153
21
-3.37668052123607
31
0
210
0
220
0
230
1
40
0.275115
41
0.175155849895545
42
0.836623691579946
0
ELLIPSE
5
129
100
AcDbEntity
8
1
62
256
6
ByLayer
370
-1
48
1
60
0
100
AcDbEllipse
10
41.672394
20
0
30
0
11
-0.233124050075125
21
7.19997087808098
31
0
210
0
220
0
230
-1
40
0.087398
41
-0.0562318820640314
42
-0.0128136879551518
0
ELLIPSE
5
12A
100
AcDbEntity
8
1
62
256
6
ByLayer
370
-1
48
1
60
0
100
AcDbEllipse
10
46.392848
20
2.750226
30
0
11
-3.21560811832037E-16
21
-0.299999999999993
31
0
210
0
220
0
230
1
40
0.996195
41
0.0698131700797568
42
0.29670597283899
0
ELLIPSE
5
12B
100
AcDbEntity
8
1
62
256
6
ByLayer
370
-1
48
1
60
0
100
AcDbEllipse
10
41.912273
20
6.943963
30
0
11
2.81416266174359E-16
21
0.240228318114594
31
0
210
0
220
0
230
1
40
0.996195
41
1.34390352403567
42
1.57079632679487
0
ELLIPSE
5
12C
100
AcDbEntity
8
1
62
256
6
ByLayer
370
-1
48
1
60
0
100
AcDbEllipse
10
41.71669
20
6.692914
30
0
11
-5.35934686386771E-15
21
-5.00000000000028
31
0
210
0
220
0
230
1
40
0.996195
41
1.61480354075305
42
1.62460353383979
0
ELLIPSE
5
12D
100
AcDbEntity
8
1
62
256
6
ByLayer
370
-1
48
1
60
0
100
AcDbEllipse
10
46.595027
20
6.863936
30
0
11
5.78724697506073E-15
21
4.94022831811449
31
0
210
0
220
0
230
1
40
0.996195
41
1.58680228982978
42
1.59660228291652
0
ELLIPSE
5
12E
100
AcDbEntity
8
1
62
256
6
ByLayer
370
-1
48
1
60
0
100
AcDbEllipse
10
36.742925
20
6.424008
30
0
11
-1.07186937277344E-14
21
-9.99999999999964
31
0
210
0
220
0
230
1
40
0.996195
41
1.62460353383979
42
1.64060949687468
0
ELLIPSE
5
12F
100
AcDbEntity
8
1
62
256
6
ByLayer
370
-1
48
1
60
0
100
AcDbEllipse
10
44.207655
20
4.92023
30
0
11
1.80632961201567E-15
21
1.54195608716611
31
0
210
0
220
0
230
1
40
0.996195
41
0
42
6.28318530717959
0
ELLIPSE
5
130
100
AcDbEntity
8
1
62
256
6
ByLayer
370
-1
48
1
60
0
100
AcDbEllipse
10
46.724768
20
3.147545
30
0
11
-5.35934686386771E-15
21
-5.00000000000028
31
0
210
0
220
0
230
1
40
0.996195
41
-1.52678911283675
42
-1.51698911975
0
ELLIPSE
5
131
100
AcDbEntity
8
1
62
256
6
ByLayer
370
-1
48
1
60
0
100
AcDbEllipse
10
46.334596
20
2.941487
30
0
11
-5.35934686386747E-16
21
-0.500000000000006
31
0
210
0
220
0
230
1
40
0.996195
41
0.296705972839006
42
1.34390352403564
0
ELLIPSE
5
132
100
AcDbEntity
8
1
62
256
6
ByLayer
370
-1
48
1
60
0
100
AcDbEllipse
10
51.575362
20
6.943963
30
0
11
1.16445136866418E-14
21
9.94022831811422
31
0
210
0
220
0
230
1
40
0.996195
41
1.57079632679489
42
1.58680228982978
0
ELLIPSE
5
133
100
AcDbEntity
8
1
62
256
6
ByLayer
370
-1
48
1
60
0
100
AcDbEllipse
10
51.698077
20
3.416452
30
0
11
1.16445136866418E-14
21
9.94022831811422
31
0
210
0
220
0
230
1
40
0.996195
41
1.62460353383979
42
1.64060949687468
0
ELLIPSE
5
134
100
AcDbEntity
8
1
62
256
6
ByLayer
370
-1
48
1
60
0
100
AcDbEllipse
10
36.740083
20
6.472949
30
0
11
1.16445136866421E-14
21
9.94022831811449
31
0
210
0
220
0
230
1
40
0.996195
41
-1.53588974175501
42
-1.52678911283679
0
ELLIPSE
5
135
100
AcDbEntity
8
1
62
256
6
ByLayer
370
-1
48
1
60
0
100
AcDbEllipse
10
51.575818
20
6.943963
30
0
11
-1.07186937277344E-14
21
-9.99999999999964
31
0
210
0
220
0
230
1
40
0.996195
41
-1.5707963267949
42
-1.55479036376001
0
ELLIPSE
5
136
100
AcDbEntity
8
1
62
256
6
ByLayer
370
-1
48
1
60
0
100
AcDbEllipse
10
45.718785
20
12.426598
30
0
11
-1.07186937277344E-14
21
-9.99999999999964
31
0
210
0
220
0
230
1
40
0.996195
41
0.0538072070448962
42
0.0698131700797864
0
ELLIPSE
5
137
100
AcDbEntity
8
1
62
256
6
ByLayer
370
-1
48
1
60
0
100
AcDbEllipse
10
42.106862
20
6.898972
30
0
11
-5.35934686386747E-16
21
-0.500000000000006
31
0
210
0
220
0
230
1
40
0.996195
41
-2.84488668075078
42
-1.79768912955415
0
ELLIPSE
5
138
100
AcDbEntity
8
1
62
256
6
ByLayer
370
-1
48
1
60
0
100
AcDbEllipse
10
42.673918
20
-2.588533
30
0
11
-1.07186937277348E-14
21
-9.99999999999999
31
0
210
0
220
0
230
1
40
0.996195
41
-3.1066860685499
42
-3.09758543963168
0
ELLIPSE
5
139
100
AcDbEntity
8
1
62
256
6
ByLayer
370
-1
48
1
60
0
100
AcDbEllipse
10
41.845975
20
2.976523
30
0
11
-5.35934686386771E-15
21
-5.00000000000028
31
0
210
0
220
0
230
1
40
0.996195
41
1.58680228982978
42
1.59660228291653
0
ELLIPSE
5
13A
100
AcDbEntity
8
1
62
256
6
ByLayer
370
-1
48
1
60
0
100
AcDbEllipse
10
46.191942
20
7.042171
30
0
11
-5.35934686386747E-16
21
-0.500000000000006
31
0
210
0
220
0
230
1
40
0.996195
41
1.86750229963392
42
2.91469985083054
0
ELLIPSE
5
13B
100
AcDbEntity
8
1
62
256
6
ByLayer
370
-1
48
1
60
0
100
AcDbEllipse
10
41.716234
20
6.692914
30
0
11
5.78724697506073E-15
21
4.94022831811449
31
0
210
0
220
0
230
1
40
0.996195
41
-1.52678911283675
42
-1.51698911975
0
ELLIPSE
5
13C
100
AcDbEntity
8
1
62
256
6
ByLayer
370
-1
48
1
60
0
100
AcDbEllipse
10
46.236305
20
7.237045
30
0
11
2.81416266174359E-16
21
0.240228318114594
31
0
210
0
220
0
230
1
40
0.996195
41
-0.22689280275924
42
-2.96907826277762E-14
0
ELLIPSE
5
13D
100
AcDbEntity
8
1
62
256
6
ByLayer
370
-1
48
1
60
0
100
AcDbEllipse
10
41.912729
20
6.943963
30
0
11
-3.21560811832037E-16
21
-0.299999999999993
31
0
210
0
220
0
230
1
40
0.996195
41
-1.7976891295541
42
-1.57079632679487
0
ELLIPSE
5
13E
100
AcDbEntity
8
1
62
256
6
ByLayer
370
-1
48
1
60
0
100
AcDbEllipse
10
46.382019
20
7.100646
30
0
11
2.81416266174357E-16
21
0.240228318114593
31
0
210
0
220
0
230
1
40
0.996195
41
-1.50098315671518
42
-1.27409035395596
0
ELLIPSE
5
13F
100
AcDbEntity
8
1
62
256
6
ByLayer
370
-1
48
1
60
0
100
AcDbEllipse
10
36.866204
20
2.847508
30
0
11
1.16445136866421E-14
21
9.9402283181145
31
0
210
0
220
0
230
1
40
0.996195
41
-1.54499037067323
42
-1.53588974175501
0
ELLIPSE
5
140
100
AcDbEntity
8
1
62
256
6
ByLayer
370
-1
48
1
60
0
100
AcDbEllipse
10
42.722673
20
-2.586138
30
0
11
-1.07186937277344E-14
21
-9.99999999999964
31
0
210
0
220
0
230
1
40
0.996195
41
-3.0877854465449
42
-3.07177948351001
0
ELLIPSE
5
141
100
AcDbEntity
8
1
62
256
6
ByLayer
370
-1
48
1
60
0
100
AcDbEllipse
10
36.740539
20
6.472949
30
0
11
-1.07186937277348E-14
21
-9.99999999999999
31
0
210
0
220
0
230
1
40
0.996195
41
1.60570291183479
42
1.61480354075301
0
ELLIPSE
5
142
100
AcDbEntity
8
1
62
256
6
ByLayer
370
-1
48
1
60
0
100
AcDbEllipse
10
42.204241
20
12.303414
30
0
11
1.16445136866418E-14
21
9.94022831811422
31
0
210
0
220
0
230
1
40
0.996195
41
3.14159265358979
42
-3.12558669055491
0
ELLIPSE
5
143
100
AcDbEntity
8
1
62
256
6
ByLayer
370
-1
48
1
60
0
100
AcDbEllipse
10
46.236305
20
-2.462955
30
0
11
1.16445136866418E-14
21
9.94022831811422
31
0
210
0
220
0
230
1
40
0.996195
41
0
42
0.016005963034882
0
ELLIPSE
5
144
100
AcDbEntity
8
1
62
256
6
ByLayer
370
-1
48
1
60
0
100
AcDbEllipse
10
46.157039
20
2.536405
30
0
11
-5.35934686386771E-15
21
-5.00000000000028
31
0
210
0
220
0
230
1
40
0.996195
41
-3.12558669055491
42
-3.11578669746816
0
ELLIPSE
5
145
100
AcDbEntity
8
1
62
256
6
ByLayer
370
-1
48
1
60
0
100
AcDbEllipse
10
45.767084
20
12.428993
30
0
11
1.16445136866421E-14
21
9.94022831811449
31
0
210
0
220
0
230
1
40
0.996195
41
-3.1066860685499
42
-3.09758543963168
0
ELLIPSE
5
146
100
AcDbEntity
8
1
62
256
6
ByLayer
370
-1
48
1
60
0
100
AcDbEllipse
10
46.528728
20
2.896497
30
0
11
-3.21560811832037E-16
21
-0.299999999999993
31
0
210
0
220
0
230
1
40
0.996195
41
1.34390352403569
42
1.57079632679492
0
ELLIPSE
5
147
100
AcDbEntity
8
1
62
256
6
ByLayer
370
-1
48
1
60
0
100
AcDbEllipse
10
36.86666
20
2.847508
30
0
11
-1.07186937277348E-14
21
-9.99999999999999
31
0
210
0
220
0
230
1
40
0.996195
41
1.59660228291656
42
1.60570291183479
0
ELLIPSE
5
148
100
AcDbEntity
8
1
62
256
6
ByLayer
370
-1
48
1
60
0
100
AcDbEllipse
10
46.382475
20
7.100646
30
0
11
-3.21560811832037E-16
21
-0.299999999999993
31
0
210
0
220
0
230
1
40
0.996195
41
1.64060949687465
42
1.86750229963386
0
ELLIPSE
5
149
100
AcDbEntity
8
1
62
256
6
ByLayer
370
-1
48
1
60
0
100
AcDbEllipse
10
44.269502
20
4.92023
30
0
11
-1.49227999261524E-15
21
-1.3922218793825
31
0
210
0
220
0
230
1
40
0.996195
41
0
42
6.28318530717959
0
ELLIPSE
5
14A
100
AcDbEntity
8
1
62
256
6
ByLayer
370
-1
48
1
60
0
100
AcDbEllipse
10
46.33414
20
2.941487
30
0
11
5.15706934637621E-16
21
0.4402283181146
31
0
210
0
220
0
230
1
40
0.996195
41
-2.8448866807508
42
-1.79768912955418
0
ELLIPSE
5
14B
100
AcDbEntity
8
1
62
256
6
ByLayer
370
-1
48
1
60
0
100
AcDbEllipse
10
42.722217
20
-2.586138
30
0
11
1.16445136866418E-14
21
9.94022831811422
31
0
210
0
220
0
230
1
40
0.996195
41
0.0538072070448942
42
0.0698131700797852
0
ELLIPSE
5
14C
100
AcDbEntity
8
1
62
256
6
ByLayer
370
-1
48
1
60
0
100
AcDbEllipse
10
42.204697
20
12.303414
30
0
11
-1.07186937277344E-14
21
-9.99999999999964
31
0
210
0
220
0
230
1
40
0.996195
41
0
42
0.0160059630348823
0
ELLIPSE
5
14D
100
AcDbEntity
8
1
62
256
6
ByLayer
370
-1
48
1
60
0
100
AcDbEllipse
10
46.285107
20
-2.46193
30
0
11
1.16445136866421E-14
21
9.9402283181145
31
0
210
0
220
0
230
1
40
0.996195
41
0.025805956121666
42
0.0349065850398883
0
ELLIPSE
5
14E
100
AcDbEntity
8
1
62
256
6
ByLayer
370
-1
48
1
60
0
100
AcDbEllipse
10
36.86564
20
2.896497
30
0
11
-1.07186937277344E-14
21
-9.99999999999964
31
0
210
0
220
0
230
1
40
0.996195
41
1.57079632679489
42
1.58680228982978
0
ELLIPSE
5
14F
100
AcDbEntity
8
1
62
256
6
ByLayer
370
-1
48
1
60
0
100
AcDbEllipse
10
36.742469
20
6.424008
30
0
11
1.16445136866418E-14
21
9.94022831811422
31
0
210
0
220
0
230
1
40
0.996195
41
-1.51698911975
42
-1.50098315671511
0
ELLIPSE
5
150
100
AcDbEntity
8
1
62
256
6
ByLayer
370
-1
48
1
60
0
100
AcDbEllipse
10
46.236761
20
-2.462955
30
0
11
-1.07186937277344E-14
21
-9.99999999999964
31
0
210
0
220
0
230
1
40
0.996195
41
3.14159265358979
42
-3.12558669055491
0
ELLIPSE
5
151
100
AcDbEntity
8
1
62
256
6
ByLayer
370
-1
48
1
60
0
100
AcDbEllipse
10
45.718329
20
12.426598
30
0
11
1.16445136866418E-14
21
9.94022831811422
31
0
210
0
220
0
230
1
40
0.996195
41
-3.0877854465449
42
-3.07177948351001
0
ELLIPSE
5
152
100
AcDbEntity
8
1
62
256
6
ByLayer
370
-1
48
1
60
0
100
AcDbEllipse
10
42.45479
20
2.406626
30
0
11
-5.35934686386771E-15
21
-5.00000000000028
31
0
210
0
220
0
230
1
40
0.996195
41
-3.09758543963164
42
-3.0877854465449
0
ELLIPSE
5
153
100
AcDbEntity
8
1
62
256
6
ByLayer
370
-1
48
1
60
0
100
AcDbEllipse
10
51.700463
20
3.367511
30
0
11
1.16445136866421E-14
21
9.94022831811449
31
0
210
0
220
0
230
1
40
0.996195
41
1.60570291183478
42
1.61480354075301
0
ELLIPSE
5
154
100
AcDbEntity
8
1
62
256
6
ByLayer
370
-1
48
1
60
0
100
AcDbEllipse
10
41.845519
20
2.976523
30
0
11
5.78724697506073E-15
21
4.94022831811449
31
0
210
0
220
0
230
1
40
0.996195
41
-1.55479036376002
42
-1.54499037067327
0
ELLIPSE
5
155
100
AcDbEntity
8
1
62
256
6
ByLayer
370
-1
48
1
60
0
100
AcDbEllipse
10
46.724312
20
3.147545
30
0
11
5.78724697506073E-15
21
4.94022831811449
31
0
210
0
220
0
230
1
40
0.996195
41
1.61480354075304
42
1.62460353383979
0
ELLIPSE
5
156
100
AcDbEntity
8
1
62
256
6
ByLayer
370
-1
48
1
60
0
100
AcDbEllipse
10
51.698532
20
3.416452
30
0
11
-1.07186937277344E-14
21
-9.99999999999964
31
0
210
0
220
0
230
1
40
0.996195
41
-1.51698911975
42
-1.50098315671511
0
ELLIPSE
5
157
100
AcDbEntity
8
1
62
256
6
ByLayer
370
-1
48
1
60
0
100
AcDbEllipse
10
44.421187
20
4.92023
30
0
11
1.28859867654789E-15
21
1.09999999999999
31
0
210
0
220
0
230
1
40
0.996195
41
0.0349501466188261
42
1.57079627600045
0
ELLIPSE
5
158
100
AcDbEntity
8
1
62
256
6
ByLayer
370
-1
48
1
60
0
100
AcDbEllipse
10
44.421187
20
4.92023
30
0
11
1.28859867654789E-15
21
1.09999999999999
31
0
210
0
220
0
230
1
40
0.996195
41
3.10350046494412
42
-1.57079634372638
0
ELLIPSE
5
159
100
AcDbEntity
8
1
62
256
6
ByLayer
370
-1
48
1
60
0
100
AcDbEllipse
10
44.421187
20
4.92023
30
0
11
1.28859867654789E-15
21
1.09999999999999
31
0
210
0
220
0
230
1
40
0.996195
41
1.57079627600045
42
3.10350046494412
0
ELLIPSE
5
15A
100
AcDbEntity
8
1
62
256
6
ByLayer
370
-1
48
1
60
0
100
AcDbEllipse
10
45.986212
20
7.433834
30
0
11
5.78724697506073E-15
21
4.94022831811449
31
0
210
0
220
0
230
1
40
0.996195
41
-3.09758543963165
42
-3.0877854465449
0
ELLIPSE
5
15B
100
AcDbEntity
8
1
62
256
6
ByLayer
370
-1
48
1
60
0
100
AcDbEllipse
10
46.156583
20
2.536405
30
0
11
5.78724697506073E-15
21
4.94022831811449
31
0
210
0
220
0
230
1
40
0.996195
41
0.0160059630348815
42
0.025805956121628
0
ELLIPSE
5
15C
100
AcDbEntity
8
1
62
256
6
ByLayer
370
-1
48
1
60
0
100
AcDbEllipse
10
45.986667
20
7.433834
30
0
11
-5.35934686386771E-15
21
-5.00000000000028
31
0
210
0
220
0
230
1
40
0.996195
41
0.04400721395815
42
0.0538072070448984
0
ELLIPSE
5
15D
100
AcDbEntity
8
1
62
256
6
ByLayer
370
-1
48
1
60
0
100
AcDbEllipse
10
42.155438
20
12.30239
30
0
11
1.16445136866421E-14
21
9.9402283181145
31
0
210
0
220
0
230
1
40
0.996195
41
-3.11578669746813
42
-3.1066860685499
0
ELLIPSE
5
15E
100
AcDbEntity
8
1
62
256
6
ByLayer
370
-1
48
1
60
0
100
AcDbEllipse
10
51.574797
20
6.992952
30
0
11
-1.07186937277348E-14
21
-9.99999999999999
31
0
210
0
220
0
230
1
40
0.996195
41
-1.54499037067323
42
-1.53588974175501
0
ELLIPSE
5
15F
100
AcDbEntity
8
1
62
256
6
ByLayer
370
-1
48
1
60
0
100
AcDbEllipse
10
42.048154
20
7.090233
30
0
11
2.81416266174357E-16
21
0.240228318114593
31
0
210
0
220
0
230
1
40
0.996195
41
0.0698131700797235
42
0.296705972838939
0
ELLIPSE
5
160
100
AcDbEntity
8
1
62
256
6
ByLayer
370
-1
48
1
60
0
100
AcDbEllipse
10
42.283963
20
7.304055
30
0
11
5.78724697506073E-15
21
4.94022831811449
31
0
210
0
220
0
230
1
40
0.996195
41
-3.12558669055491
42
-3.11578669746817
0
ELLIPSE
5
161
100
AcDbEntity
8
1
62
256
6
ByLayer
370
-1
48
1
60
0
100
AcDbEllipse
10
46.595482
20
6.863936
30
0
11
-5.35934686386771E-15
21
-5.00000000000028
31
0
210
0
220
0
230
1
40
0.996195
41
-1.55479036376002
42
-1.54499037067327
0
ELLIPSE
5
162
100
AcDbEntity
8
1
62
256
6
ByLayer
370
-1
48
1
60
0
100
AcDbEllipse
10
45.767539
20
12.428993
30
0
11
-1.07186937277348E-14
21
-9.99999999999999
31
0
210
0
220
0
230
1
40
0.996195
41
0.0349065850398898
42
0.0440072139581125
0
ELLIPSE
5
163
100
AcDbEntity
8
1
62
256
6
ByLayer
370
-1
48
1
60
0
100
AcDbEllipse
10
36.865184
20
2.896497
30
0
11
1.16445136866418E-14
21
9.94022831811422
31
0
210
0
220
0
230
1
40
0.996195
41
-1.5707963267949
42
-1.55479036376001
0
ELLIPSE
5
164
100
AcDbEntity
8
1
62
256
6
ByLayer
370
-1
48
1
60
0
100
AcDbEllipse
10
42.673462
20
-2.588533
30
0
11
1.16445136866421E-14
21
9.94022831811449
31
0
210
0
220
0
230
1
40
0.996195
41
0.0349065850398883
42
0.0440072139581117
0
ELLIPSE
5
165
100
AcDbEntity
8
1
62
256
6
ByLayer
370
-1
48
1
60
0
100
AcDbEllipse
10
44.337903
20
4.92023
30
0
11
-1.17905631005081E-15
21
-1.09999999999998
31
0
210
0
220
0
230
1
40
0.996195
41
2.38957414604377
42
0
0
ELLIPSE
5
166
100
AcDbEntity
8
1
62
256
6
ByLayer
370
-1
48
1
60
0
100
AcDbEllipse
10
44.337903
20
4.92023
30
0
11
-1.17905631005081E-15
21
-1.09999999999998
31
0
210
0
220
0
230
1
40
0.996195
41
0
42
0.302868754877695
0
ELLIPSE
5
167
100
AcDbEntity
8
1
62
256
6
ByLayer
370
-1
48
1
60
0
100
AcDbEllipse
10
42.249516
20
2.798288
30
0
11
-5.35934686386747E-16
21
-0.500000000000006
31
0
210
0
220
0
230
1
40
0.996195
41
-1.27409035395589
42
-0.226892802759271
0
ELLIPSE
5
168
100
AcDbEntity
8
1
62
256
6
ByLayer
370
-1
48
1
60
0
100
AcDbEllipse
10
42.106406
20
6.898972
30
0
11
5.15706934637621E-16
21
0.4402283181146
31
0
210
0
220
0
230
1
40
0.996195
41
0.296705972838993
42
1.34390352403562
0
ELLIPSE
5
169
100
AcDbEntity
8
1
62
256
6
ByLayer
370
-1
48
1
60
0
100
AcDbEllipse
10
42.058983
20
2.739814
30
0
11
-3.21560811832037E-16
21
-0.299999999999993
31
0
210
0
220
0
230
1
40
0.996195
41
-1.50098315671514
42
-1.27409035395593
0
ELLIPSE
5
16A
100
AcDbEntity
8
1
62
256
6
ByLayer
370
-1
48
1
60
0
100
AcDbEllipse
10
46.191486
20
7.042171
30
0
11
5.15706934637621E-16
21
0.4402283181146
31
0
210
0
220
0
230
1
40
0.996195
41
-1.27409035395589
42
-0.226892802759286
0
ELLIPSE
5
16B
100
AcDbEntity
8
1
62
256
6
ByLayer
370
-1
48
1
60
0
100
AcDbEllipse
10
46.236761
20
7.237045
30
0
11
-3.21560811832037E-16
21
-0.299999999999993
31
0
210
0
220
0
230
1
40
0.996195
41
2.91469985083059
42
-3.14159265358977
0
ELLIPSE
5
16C
100
AcDbEntity
8
1
62
256
6
ByLayer
370
-1
48
1
60
0
100
AcDbEllipse
10
51.574342
20
6.992952
30
0
11
1.16445136866421E-14
21
9.9402283181145
31
0
210
0
220
0
230
1
40
0.996195
41
1.59660228291656
42
1.60570291183479
0
ELLIPSE
5
16D
100
AcDbEntity
8
1
62
256
6
ByLayer
370
-1
48
1
60
0
100
AcDbEllipse
10
46.528272
20
2.896497
30
0
11
2.81416266174359E-16
21
0.240228318114594
31
0
210
0
220
0
230
1
40
0.996195
41
-1.79768912955413
42
-1.57079632679493
0
ELLIPSE
5
16E
100
AcDbEntity
8
1
62
256
6
ByLayer
370
-1
48
1
60
0
100
AcDbEllipse
10
44.244041
20
4.92023
30
0
11
-1.62148435039036E-15
21
-1.51276302092179
31
0
210
0
220
0
230
1
40
0.996195
41
2.21551012181543
42
0
0
ELLIPSE
5
16F
100
AcDbEntity
8
1
62
256
6
ByLayer
370
-1
48
1
60
0
100
AcDbEllipse
10
44.244041
20
4.92023
30
0
11
-1.62148435039036E-15
21
-1.51276302092179
31
0
210
0
220
0
230
1
40
0.996195
41
0
42
0.926082652221571
0
ELLIPSE
5
170
100
AcDbEntity
8
1
62
256
6
ByLayer
370
-1
48
1
60
0
100
AcDbEllipse
10
46.392392
20
2.750226
30
0
11
2.81416266174357E-16
21
0.240228318114593
31
0
210
0
220
0
230
1
40
0.996195
41
-3.07177948351007
42
-2.84488668075085
0
ELLIPSE
5
171
100
AcDbEntity
8
1
62
256
6
ByLayer
370
-1
48
1
60
0
100
AcDbEllipse
10
42.204241
20
2.603414
30
0
11
2.81416266174359E-16
21
0.240228318114594
31
0
210
0
220
0
230
1
40
0.996195
41
2.91469985083053
42
3.14159265358976
0
ELLIPSE
5
172
100
AcDbEntity
8
1
62
256
6
ByLayer
370
-1
48
1
60
0
100
AcDbEllipse
10
42.155894
20
12.30239
30
0
11
-1.07186937277348E-14
21
-9.99999999999999
31
0
210
0
220
0
230
1
40
0.996195
41
0.025805956121665
42
0.0349065850398889
0
ELLIPSE
5
173
100
AcDbEntity
8
1
62
256
6
ByLayer
370
-1
48
1
60
0
100
AcDbEllipse
10
42.04861
20
7.090233
30
0
11
-3.21560811832037E-16
21
-0.299999999999993
31
0
210
0
220
0
230
1
40
0.996195
41
-3.07177948351004
42
-2.84488668075081
0
ELLIPSE
5
174
100
AcDbEntity
8
1
62
256
6
ByLayer
370
-1
48
1
60
0
100
AcDbEllipse
10
46.285563
20
-2.46193
30
0
11
-1.07186937277348E-14
21
-9.99999999999999
31
0
210
0
220
0
230
1
40
0.996195
41
-3.11578669746813
42
-3.1066860685499
0
ELLIPSE
5
175
100
AcDbEntity
8
1
62
256
6
ByLayer
370
-1
48
1
60
0
100
AcDbEllipse
10
42.204697
20
2.603414
30
0
11
-3.21560811832037E-16
21
-0.299999999999993
31
0
210
0
220
0
230
1
40
0.996195
41
-0.226892802759206
42
2.37752225805899E-14
0
ELLIPSE
5
176
100
AcDbEntity
8
1
62
256
6
ByLayer
370
-1
48
1
60
0
100
AcDbEllipse
10
42.454334
20
2.406626
30
0
11
5.78724697506073E-15
21
4.94022831811449
31
0
210
0
220
0
230
1
40
0.996195
41
0.0440072139581471
42
0.0538072070448926
0
ELLIPSE
5
177
100
AcDbEntity
8
1
62
256
6
ByLayer
370
-1
48
1
60
0
100
AcDbEllipse
10
42.058527
20
2.739814
30
0
11
2.81416266174357E-16
21
0.240228318114593
31
0
210
0
220
0
230
1
40
0.996195
41
1.64060949687462
42
1.86750229963384
0
ELLIPSE
5
178
100
AcDbEntity
8
1
62
256
6
ByLayer
370
-1
48
1
60
0
100
AcDbEllipse
10
42.284419
20
7.304055
30
0
11
-5.35934686386771E-15
21
-5.00000000000028
31
0
210
0
220
0
230
1
40
0.996195
41
0.0160059630348837
42
0.0258059561216293
0
ELLIPSE
5
179
100
AcDbEntity
8
1
62
256
6
ByLayer
370
-1
48
1
60
0
100
AcDbEllipse
10
51.700919
20
3.367511
30
0
11
-1.07186937277348E-14
21
-9.99999999999999
31
0
210
0
220
0
230
1
40
0.996195
41
-1.53588974175501
42
-1.52678911283678
0
ELLIPSE
5
17A
100
AcDbEntity
8
1
62
256
6
ByLayer
370
-1
48
1
60
0
100
AcDbEllipse
10
42.24906
20
2.798288
30
0
11
5.15706934637621E-16
21
0.4402283181146
31
0
210
0
220
0
230
1
40
0.996195
41
1.8675022996339
42
2.91469985083049
0
ELLIPSE
5
17B
100
AcDbEntity
8
1
62
256
6
ByLayer
370
-1
48
1
60
0
100
AcDbEllipse
10
44.29306
20
-1.936578
30
0
11
1.21732050807568
21
0
31
0
210
0
220
0
230
1
40
0.998135
41
1.680162865217
42
2.70284936470237
0
ELLIPSE
5
17C
100
AcDbEntity
8
1
62
256
6
ByLayer
370
-1
48
1
60
0
100
AcDbEllipse
10
45.890423
20
-2.717457
30
0
11
0.320452855499508
21
0
31
0
210
0
220
0
230
1
40
0.998135
41
-0.0349065850400054
42
0.449712092314656
0
ELLIPSE
5
17D
100
AcDbEntity
8
1
62
256
6
ByLayer
370
-1
48
1
60
0
100
AcDbEllipse
10
45.981338
20
-2.984974
30
0
11
-0.393657936256395
21
3.97846084723836E-16
31
0
210
0
220
0
230
1
40
0.998135
41
2.15739518730472
42
3.10668606854979
0
ELLIPSE
5
17E
100
AcDbEntity
8
1
62
256
6
ByLayer
370
-1
48
1
60
0
100
AcDbEllipse
10
45.577432
20
-0.784737
30
0
11
-0.593657936256395
21
5.99973895740309E-16
31
0
210
0
220
0
230
1
40
0.998135
41
-3.08923277603005
42
-2.55499379307997
0
ELLIPSE
5
17F
100
AcDbEntity
8
1
62
256
6
ByLayer
370
-1
48
1
60
0
100
AcDbEllipse
10
48.328238
20
-1.689435
30
0
11
1.60000000000014
21
0
31
0
210
0
220
0
230
1
40
0.998135
41
-3.08923277602866
42
-2.69653369433138
0
ELLIPSE
5
180
100
AcDbEntity
8
1
62
256
6
ByLayer
370
-1
48
1
60
0
100
AcDbEllipse
10
45.917796
20
0.193685
30
0
11
0.399999999999934
21
0
31
0
210
0
220
0
230
1
40
0.998135
41
0.6981317007976
42
1.17201546312774
0
ELLIPSE
5
181
100
AcDbEntity
8
1
62
256
6
ByLayer
370
-1
48
1
60
0
100
AcDbEllipse
10
48.328238
20
-1.608241
30
0
11
1.76330346600111
21
0
31
0
210
0
220
0
230
1
40
0.998135
41
-3.08923277602879
42
-2.69653369433138
0
ELLIPSE
5
182
100
AcDbEntity
8
1
62
256
6
ByLayer
370
-1
48
1
60
0
100
AcDbEllipse
10
46.250213
20
-2.78934
30
0
11
0.749999999999771
21
0
31
0
210
0
220
0
230
1
40
0.998135
41
-0.0349065850385478
42
0.445058959258728
0
ELLIPSE
5
183
100
AcDbEntity
8
1
62
256
6
ByLayer
370
-1
48
1
60
0
100
AcDbEllipse
10
46.38378
20
-2.728549
30
0
11
-0.19987771005484
21
0.00699292665722365
31
0
210
0
220
0
230
1
40
0.061011
41
0.525733317016705
42
1.57293086821332
0
ELLIPSE
5
184
100
AcDbEntity
8
1
62
256
6
ByLayer
370
-1
48
1
60
0
100
AcDbEllipse
10
48.328238
20
-1.542919
30
0
11
-2.38650854675769
21
2.41189874264117E-15
31
0
210
0
220
0
230
1
40
0.998135
41
0.392220112973971
42
0.449712092314651
0
ELLIPSE
5
185
100
AcDbEntity
8
1
62
256
6
ByLayer
370
-1
48
1
60
0
100
AcDbEllipse
10
46.070413
20
-0.746739
30
0
11
-0.19972488372022
21
-0.0104866974279154
31
0
210
0
220
0
230
1
40
0.060965
41
1.38463087094558
42
1.56759533351589
0
ELLIPSE
5
186
100
AcDbEntity
8
1
62
256
6
ByLayer
370
-1
48
1
60
0
100
AcDbEllipse
10
45.981338
20
-2.97887
30
0
11
0.220452855499508
21
0
31
0
210
0
220
0
230
1
40
0.998135
41
-0.645064363711189
42
-0.0349065850400076
0
ELLIPSE
5
187
100
AcDbEntity
8
1
62
256
6
ByLayer
370
-1
48
1
60
0
100
AcDbEllipse
10
46.078493
20
0.002532
30
0
11
0.399999999999944
21
0
31
0
210
0
220
0
230
1
40
0.998135
41
0.349065850398795
42
0.698131700797601
0
ELLIPSE
5
188
100
AcDbEntity
8
1
62
256
6
ByLayer
370
-1
48
1
60
0
100
AcDbEllipse
10
48.328238
20
-1.549024
30
0
11
2.1133034660008
21
0
31
0
210
0
220
0
230
1
40
0.998135
41
-3.08923277603041
42
-2.69188056127514
0
ELLIPSE
5
189
100
AcDbEntity
8
1
62
256
6
ByLayer
370
-1
48
1
60
0
100
AcDbEllipse
10
44.29306
20
-1.937189
30
0
11
1.19999999999999
21
0
31
0
210
0
220
0
230
1
40
0.998135
41
1.57383988844872
42
2.80642389110094
0
ELLIPSE
5
18A
100
AcDbEntity
8
1
62
256
6
ByLayer
370
-1
48
1
60
0
100
AcDbEllipse
10
45.890423
20
-2.723562
30
0
11
-0.593657936256395
21
5.99973895740309E-16
31
0
210
0
220
0
230
1
40
0.998135
41
3.1066860685498
42
-2.69188056127514
0
ELLIPSE
5
18B
100
AcDbEntity
8
1
62
256
6
ByLayer
370
-1
48
1
60
0
100
AcDbEllipse
10
45.577432
20
-0.784737
30
0
11
-0.493657936256395
21
4.98909990232072E-16
31
0
210
0
220
0
230
1
40
0.998135
41
-3.08923277603005
42
-2.70294549918415
0
ELLIPSE
5
18C
100
AcDbEntity
8
1
62
256
6
ByLayer
370
-1
48
1
60
0
100
AcDbEllipse
10
46.56859
20
-3.699306
30
0
11
0.399999999999934
21
0
31
0
210
0
220
0
230
1
40
0.998135
41
-0.87266462599729
42
-0.03490658503969
0
ELLIPSE
5
18D
100
AcDbEntity
8
1
62
256
6
ByLayer
370
-1
48
1
60
0
100
AcDbEllipse
10
45.981338
20
-2.984974
30
0
11
-0.493657936256395
21
4.98909990232072E-16
31
0
210
0
220
0
230
1
40
0.998135
41
2.15739518730474
42
3.10668606854979
0
ELLIPSE
5
18E
100
AcDbEntity
8
1
62
256
6
ByLayer
370
-1
48
1
60
0
100
AcDbEllipse
10
46.334998
20
-2.497156
30
0
11
-0.180050830389278
21
-0.0870729491640841
31
0
210
0
220
0
230
1
40
0.054979
41
0.497017263498699
42
1.54421481469495
0
ELLIPSE
5
18F
100
AcDbEntity
8
1
62
256
6
ByLayer
370
-1
48
1
60
0
100
AcDbEllipse
10
44.29306
20
-1.98942
30
0
11
1.09999999999998
21
0
31
0
210
0
220
0
230
1
40
0.998135
41
0.988816217699225
42
3.01946310951657
0
ELLIPSE
5
190
100
AcDbEntity
8
1
62
256
6
ByLayer
370
-1
48
1
60
0
100
AcDbEllipse
10
46.263259
20
-0.504162
30
0
11
0.39999999999998
21
0
31
0
210
0
220
0
230
1
40
0.998135
41
0.0523598775595935
42
0.349065850398715
0
ELLIPSE
5
191
100
AcDbEntity
8
1
62
256
6
ByLayer
370
-1
48
1
60
0
100
AcDbEllipse
10
48.328238
20
-1.549024
30
0
11
2.2133034660008
21
0
31
0
210
0
220
0
230
1
40
0.998135
41
-3.0892327760304
42
-2.69188056127514
0
ELLIPSE
5
192
100
AcDbEntity
8
1
62
256
6
ByLayer
370
-1
48
1
60
0
100
AcDbEllipse
10
45.890423
20
-2.723562
30
0
11
-0.493657936256395
21
4.98909990232072E-16
31
0
210
0
220
0
230
1
40
0.998135
41
3.1066860685498
42
-2.69188056127514
0
ELLIPSE
5
193
100
AcDbEntity
8
1
62
256
6
ByLayer
370
-1
48
1
60
0
100
AcDbEllipse
10
46.117967
20
-1.652433
30
0
11
-0.19972488372022
21
-0.0104866974279154
31
0
210
0
220
0
230
1
40
0.060965
41
1.38463087094558
42
1.56759533351589
0
ELLIPSE
5
194
100
AcDbEntity
8
1
62
256
6
ByLayer
370
-1
48
1
60
0
100
AcDbEllipse
10
46.374756
20
-2.986478
30
0
11
-0.19987771005484
21
0.00699292665722365
31
0
210
0
220
0
230
1
40
0.061011
41
0.525733317016737
42
1.57293086821332
0
ELLIPSE
5
195
100
AcDbEntity
8
1
62
256
6
ByLayer
370
-1
48
1
60
0
100
AcDbEllipse
10
46.19924
20
-3.300003
30
0
11
-0.110562988479032
21
0.166660809966186
31
0
210
0
220
0
230
1
40
0.033792
41
1.31050756241322
42
1.62169029006606
0
ELLIPSE
5
196
100
AcDbEntity
8
1
62
256
6
ByLayer
370
-1
48
1
60
0
100
AcDbEllipse
10
44.29306
20
-1.937189
30
0
11
-1.09999999999999
21
1.11170296059059E-15
31
0
210
0
220
0
230
1
40
0.998135
41
-2.01444855296732
42
-0.0853141968509379
0
ELLIPSE
5
197
100
AcDbEntity
8
1
62
256
6
ByLayer
370
-1
48
1
60
0
100
AcDbEllipse
10
46.377079
20
-3.859703
30
0
11
0.399999999999944
21
0
31
0
210
0
220
0
230
1
40
0.998135
41
-1.22173047639609
42
-0.872664625997266
0
POINT
5
41
100
AcDbEntity
8
81
62
256
6
ByLayer
370
-1
48
1
60
0
100
AcDbPoint
10
47
20
0
30
0
39
0
210
0
220
0
230
1
50
360
0
POINT
5
43
100
AcDbEntity
8
80
62
256
6
ByLayer
370
-1
48
1
60
0
100
AcDbPoint
10
0
20
0
30
0
39
0
210
0
220
0
230
1
50
360
0
SPLINE
5
198
100
AcDbEntity
8
1
62
256
6
ByLayer
370
-1
48
1
60
0
100
AcDbSpline
70
4
71
2
72
6
73
3
40
0
40
0
40
0
40
1
40
1
40
1
41
1
10
43.9881527781326
20
-0.93684670156324
30
0
41
1
10
44.1024443028373
20
-0.885604261291491
30
0
41
1
10
44.235374019883
20
-0.895217852634175
30
0
0
SPLINE
5
199
100
AcDbEntity
8
1
62
256
6
ByLayer
370
-1
48
1
60
0
100
AcDbSpline
70
4
71
2
72
6
73
3
40
0
40
0
40
0
40
1
40
1
40
1
41
1
10
44.235374019883
20
-0.895217852634175
30
0
41
1
10
44.4089333339932
20
-0.884266226328577
30
0
41
1
10
44.5761413658457
20
-0.939076826807735
30
0
0
SPLINE
5
19A
100
AcDbEntity
8
1
62
256
6
ByLayer
370
-1
48
1
60
0
100
AcDbSpline
70
4
71
3
72
17
73
13
40
0
40
0
40
0
40
0
40
0.0980143404331507
40
0.196669200069225
40
0.294689695892158
40
0.393079475566676
40
0.490827201984339
40
0.586728716764427
40
0.695662772261196
40
0.799140791333239
40
0.898624977467034
40
1
40
1
40
1
40
1
41
1
10
14
20
7.19999999999996
30
0
41
1
10
13.6404971424067
20
7.20159727824341
30
0
41
1
10
12.9469628851341
20
7.29217178170535
30
0
41
1
10
11.9581368690193
20
7.70747327868318
30
0
41
1
10
11.1182331704342
20
8.35259862386357
30
0
41
1
10
10.3253532957064
20
9.0436854888568
30
0
41
1
10
9.57648925296348
20
9.77230384847169
30
0
41
1
10
8.80480811253145
20
10.5304972243561
30
0
41
1
10
7.98834969420017
20
11.2735069290549
30
0
41
1
10
7.0840026641043
20
11.9302431127205
30
0
41
1
10
6.08116014966353
20
12.3941008039383
30
0
41
1
10
5.37236466360594
20
12.4942785525564
30
0
41
1
10
5.00000000000003
20
12.5
30
0
0
SPLINE
5
19B
100
AcDbEntity
8
1
62
256
6
ByLayer
370
-1
48
1
60
0
100
AcDbSpline
70
4
71
3
72
15
73
11
40
0
40
0
40
0
40
0
40
0.128924511608122
40
0.255583693555806
40
0.387562303157333
40
0.526588135461925
40
0.671039500505015
40
0.786538015687189
40
0.902510048073382
40
1
40
1
40
1
40
1
41
1
10
4.99999999999997
20
-12.5
30
0
41
1
10
5.37918685672227
20
-12.4938088770476
30
0
41
1
10
6.10062745749528
20
-12.3901814810769
30
0
41
1
10
7.119461403554
20
-11.9100265633308
30
0
41
1
10
8.03715373430089
20
-11.2336109269321
30
0
41
1
10
8.91330505174406
20
-10.4277927275045
30
0
41
1
10
9.72472253517338
20
-9.62602817210023
30
0
41
1
10
10.5010002882679
20
-8.87780187928578
30
0
41
1
10
11.2259255072884
20
-8.28563940526928
30
0
41
1
10
11.7029135784361
20
-7.88420702783509
30
0
41
1
10
11.9480204452488
20
-7.75379211531418
30
0
0
SPLINE
5
19C
100
AcDbEntity
8
1
62
256
6
ByLayer
370
-1
48
1
60
0
100
AcDbSpline
70
4
71
3
72
15
73
11
40
0
40
0
40
0
40
0
40
0.0683513766299469
40
0.204004700966076
40
0.339209781763213
40
0.474126778685947
40
0.60898465909168
40
0.743962084356503
40
0.879279528072037
40
1
40
1
40
1
40
1
41
1
10
45.0735347283143
20
5.71764586215417
30
0
41
1
10
45.1151758845294
20
5.68526553104877
30
0
41
1
10
45.2284873615367
20
5.58036709632094
30
0
41
1
10
45.3572244658946
20
5.3483556808506
30
0
41
1
10
45.4371998816509
20
5.04546249938056
30
0
41
1
10
45.4276130687855
20
4.73059681577726
30
0
41
1
10
45.3319353095245
20
4.43172529712928
30
0
41
1
10
45.1576855927482
20
4.17237882770399
30
0
41
1
10
44.926649559909
20
3.97728193114756
30
0
41
1
10
44.7503645806448
20
3.90025482108064
30
0
41
1
10
44.6606135594863
20
3.87394592731548
30
0
0
SPLINE
5
19D
100
AcDbEntity
8
1
62
256
6
ByLayer
370
-1
48
1
60
0
100
AcDbSpline
70
4
71
3
72
10
73
6
40
0
40
0
40
0
40
0
40
0.5
40
0.5
40
1
40
1
40
1
40
1
41
1
10
38.6405156448751
20
1.12087489675832
30
0
41
1
10
38.4495835615419
20
1.15670148403675
30
0
41
1
10
38.2639903631357
20
1.1975336634633
30
0
41
1
10
37.9008164140107
20
1.2929648024768
30
0
41
1
10
37.7232618682596
20
1.34755068540974
30
0
41
1
10
37.5491456265041
20
1.4105532120266
30
0
0
SPLINE
5
19E
100
AcDbEntity
8
1
62
256
6
ByLayer
370
-1
48
1
60
0
100
AcDbSpline
70
4
71
3
72
14
73
10
40
0
40
0
40
0
40
0
40
0.500000000000004
40
0.500000000000004
40
0.625000000000001
40
0.625000000000001
40
0.749999999999998
40
0.749999999999998
40
1
40
1
40
1
40
1
41
1
10
39.7325747241154
20
0.595241845234881
30
0
41
1
10
39.3372578317535
20
0.571737161460078
30
0
41
1
10
38.9471447361817
20
0.597133143744855
30
0
41
1
10
38.465975854732
20
0.689519012928969
30
0
41
1
10
38.3700710720291
20
0.711075903033276
30
0
41
1
10
38.1789410944244
20
0.760535601292702
30
0
41
1
10
38.0837938430897
20
0.788441223883353
30
0
41
1
10
37.8025711349154
20
0.880886923045125
30
0
41
1
10
37.6196456788628
20
0.954375626303602
30
0
41
1
10
37.4414223191568
20
1.03996255504626
30
0
0
SPLINE
5
19F
100
AcDbEntity
8
1
62
256
6
ByLayer
370
-1
48
1
60
0
100
AcDbSpline
70
4
71
3
72
26
73
22
40
0
40
0
40
0
40
0
40
0.124999999999999
40
0.124999999999999
40
0.249999999999999
40
0.249999999999999
40
0.312499999999999
40
0.312499999999999
40
0.374999999999999
40
0.374999999999999
40
0.499999999999999
40
0.499999999999999
40
0.624999999999999
40
0.624999999999999
40
0.75
40
0.75
40
0.8125
40
0.8125
40
0.875
40
0.875
40
1
40
1
40
1
40
1
41
1
10
41.2226750377379
20
1.4564612674462
30
0
41
1
10
41.300140606087
20
1.48415382865287
30
0
41
1
10
41.3686766007094
20
1.51320316645692
30
0
41
1
10
41.4869458460732
20
1.57411394600686
30
0
41
1
10
41.5347317146946
20
1.60497049043786
30
0
41
1
10
41.5900362939392
20
1.65183410155257
30
0
41
1
10
41.6057225217871
20
1.66755246363084
30
0
41
1
10
41.6314713392432
20
1.6991879716056
30
0
41
1
10
41.6415348800104
20
1.7151661345996
30
0
41
1
10
41.662551678907
20
1.76239222261043
30
0
41
1
10
41.664738935423
20
1.79322844192879
30
0
41
1
10
41.6457697980046
20
1.85362187103502
30
0
41
1
10
41.6241613225528
20
1.88336534999758
30
0
41
1
10
41.5589249892127
20
1.93908522384189
30
0
41
1
10
41.5153640900038
20
1.96536565323532
30
0
41
1
10
41.4334116351596
20
2.0023885994066
30
0
41
1
10
41.4032211856113
20
2.01434020037132
30
0
41
1
10
41.3385417068987
20
2.03692914039823
30
0
41
1
10
41.3039183668625
20
2.04763496344924
30
0
41
1
10
41.1933519188615
20
2.07802628495608
30
0
41
1
10
41.1105503905534
20
2.096038225451
30
0
41
1
10
41.0190381651183
20
2.11160523198097
30
0
0
SPLINE
5
1A0
100
AcDbEntity
8
1
62
256
6
ByLayer
370
-1
48
1
60
0
100
AcDbSpline
70
4
71
3
72
8
73
4
40
0
40
0
40
0
40
0
40
1
40
1
40
1
40
1
41
1
10
11.5388875649517
20
0.113968309156263
30
0
41
1
10
11.2769705434724
20
0.160812298324487
30
0
41
1
10
11.0244220894176
20
0.200078428746537
30
0
41
1
10
10.7782058189117
20
0.23583144931419
30
0
0
SPLINE
5
1A1
100
AcDbEntity
8
1
62
256
6
ByLayer
370
-1
48
1
60
0
100
AcDbSpline
70
4
71
3
72
12
73
8
40
0
40
0
40
0
40
0
40
0.5
40
0.5
40
0.75
40
0.75
40
1
40
1
40
1
40
1
41
1
10
43.4839049827206
20
2.28558865452237
30
0
41
1
10
43.4409615061529
20
2.25041129631856
30
0
41
1
10
43.3994018025765
20
2.22118138355646
30
0
41
1
10
43.3471616046564
20
2.18851685933976
30
0
41
1
10
43.3319075129243
20
2.17977722856844
30
0
41
1
10
43.3082054079418
20
2.16751880309136
30
0
41
1
10
43.3001686254875
20
2.16421238862321
30
0
41
1
10
43.2970979731761
20
2.16421238862321
30
0
0
SPLINE
5
1A2
100
AcDbEntity
8
1
62
256
6
ByLayer
370
-1
48
1
60
0
100
AcDbSpline
70
4
71
3
72
8
73
4
40
0
40
0
40
0
40
0
40
1
40
1
40
1
40
1
41
1
10
10.5389176128883
20
-6.52656960514719
30
0
41
1
10
10.5389176128883
20
-7.24680257399865
30
0
41
1
10
10.5389176128883
20
-7.96703554285011
30
0
41
1
10
10.5389176128883
20
-8.6872685117016
30
0
0
SPLINE
5
1A3
100
AcDbEntity
8
1
62
256
6
ByLayer
370
-1
48
1
60
0
100
AcDbSpline
70
4
71
3
72
8
73
4
40
0
40
0
40
0
40
0
40
1
40
1
40
1
40
1
41
1
10
14
20
-7.15928955725991
30
0
41
1
10
13.7748863523385
20
-7.16893864205781
30
0
41
1
10
13.5490965534088
20
-7.19512281884255
30
0
41
1
10
13.3233661951448
20
-7.23946651813148
30
0
0
SPLINE
5
1A4
100
AcDbEntity
8
1
62
256
6
ByLayer
370
-1
48
1
60
0
100
AcDbSpline
70
4
71
3
72
26
73
22
40
0
40
0
40
0
40
0
40
0.125
40
0.125
40
0.25
40
0.25
40
0.375
40
0.375
40
0.5
40
0.5
40
0.625
40
0.625
40
0.6875
40
0.6875
40
0.75
40
0.75
40
0.875000000000001
40
0.875000000000001
40
0.9375
40
0.9375
40
1
40
1
40
1
40
1
41
1
10
15.4085913495579
20
-1.51077228033455
30
0
41
1
10
16.2945134091736
20
-1.86184546412449
30
0
41
1
10
17.1787038413944
20
-2.20655061919857
30
0
41
1
10
18.9469122776772
20
-2.87559038641442
30
0
41
1
10
19.8309220673355
20
-3.19997627769268
30
0
41
1
10
21.6006813274396
20
-3.82413278044746
30
0
41
1
10
22.4875535744898
20
-4.12382348511798
30
0
41
1
10
24.2577196731363
20
-4.68838824037408
30
0
41
1
10
25.1418283340574
20
-4.9536237928082
30
0
41
1
10
26.9098869439523
20
-5.44679804494493
30
0
41
1
10
27.7938021924072
20
-5.67472332228499
30
0
41
1
10
29.1221080202499
20
-5.98420441516325
30
0
41
1
10
29.5654980826281
20
-6.08202337444268
30
0
41
1
10
30.4509654829689
20
-6.26600722317099
30
0
41
1
10
30.8932682499824
20
-6.35226241518748
30
0
41
1
10
32.2193764169378
20
-6.59322416519976
30
0
41
1
10
33.1027058349572
20
-6.7297776447617
30
0
41
1
10
34.4282275636682
20
-6.8969438372639
30
0
41
1
10
34.8700960067683
20
-6.94641969759957
30
0
41
1
10
35.7546275995902
20
-7.03233467535688
30
0
41
1
10
36.1973606598243
20
-7.06875631510008
30
0
41
1
10
36.6405073667247
20
-7.0986686060354
30
0
0
SPLINE
5
1A5
100
AcDbEntity
8
1
62
256
6
ByLayer
370
-1
48
1
60
0
100
AcDbSpline
70
4
71
3
72
8
73
4
40
0
40
0
40
0
40
0
40
1
40
1
40
1
40
1
41
1
10
10.6458217673865
20
0.257849043425324
30
0
41
1
10
10.6898485360552
20
0.251881433196161
30
0
41
1
10
10.7339719125388
20
0.244543760126277
30
0
41
1
10
10.7782058820344
20
0.235832323600192
30
0
0
SPLINE
5
1A6
100
AcDbEntity
8
1
62
256
6
ByLayer
370
-1
48
1
60
0
100
AcDbSpline
70
4
71
4
72
10
73
5
40
0
40
0
40
0
40
0
40
0
40
1
40
1
40
1
40
1
40
1
41
0.996181003677607
10
36.4298325179706
20
1.83975575007402
30
0
41
0.994708127395031
10
36.5289605839808
20
2.30676861821492
30
0
41
0.995111470256723
10
36.6010378072634
20
2.86388387545272
30
0
41
1
10
36.632955581337
20
3.46073150296127
30
0
41
1
10
36.632955581337
20
4.01999999999993
30
0
0
SPLINE
5
1A7
100
AcDbEntity
8
1
62
256
6
ByLayer
370
-1
48
1
60
0
100
AcDbSpline
70
4
71
3
72
22
73
18
40
0
40
0
40
0
40
0
40
0.125
40
0.125
40
0.25
40
0.25
40
0.375
40
0.375
40
0.5
40
0.5
40
0.625
40
0.625
40
0.75
40
0.75
40
0.875
40
0.875
40
1
40
1
40
1
40
1
41
1
10
41.7565620967844
20
2.13587100108526
30
0
41
1
10
41.7616951626634
20
2.13587100108526
30
0
41
1
10
41.7564621848979
20
2.14198008282648
30
0
41
1
10
41.7308676801241
20
2.16465720892734
30
0
41
1
10
41.7113746557658
20
2.18065362695268
30
0
41
1
10
41.6654277049787
20
2.22060413521945
30
0
41
1
10
41.6390586669584
20
2.24449992064481
30
0
41
1
10
41.5844979771672
20
2.29846386682161
30
0
41
1
10
41.5560341911664
20
2.32872629209953
30
0
41
1
10
41.4984149100209
20
2.39650204137345
30
0
41
1
10
41.4694103809715
20
2.43389436371152
30
0
41
1
10
41.4137145974397
20
2.51421128884527
30
0
41
1
10
41.3867736228799
20
2.55739441442503
30
0
41
1
10
41.3355175676241
20
2.65092422505901
30
0
41
1
10
41.3112982639987
20
2.7013055516893
30
0
41
1
10
41.268512979549
20
2.80514764534161
30
0
41
1
10
41.2496105131159
20
2.85916423185662
30
0
41
1
10
41.2334422100273
20
2.91557697054722
30
0
0
SPLINE
5
1A8
100
AcDbEntity
8
1
62
256
6
ByLayer
370
-1
48
1
60
0
100
AcDbSpline
70
4
71
3
72
48
73
44
40
0
40
0
40
0
40
0
40
0.0625
40
0.0625
40
0.125
40
0.125
40
0.1875
40
0.1875
40
0.25
40
0.25
40
0.3125
40
0.3125
40
0.375
40
0.375
40
0.4375
40
0.4375
40
0.46875
40
0.46875
40
0.5
40
0.5
40
0.53125
40
0.53125
40
0.5625
40
0.5625
40
0.625
40
0.625
40
0.65625
40
0.65625
40
0.6875
40
0.6875
40
0.718749999999999
40
0.718749999999999
40
0.749999999999999
40
0.749999999999999
40
0.812499999999999
40
0.812499999999999
40
0.843749999999999
40
0.843749999999999
40
0.874999999999999
40
0.874999999999999
40
0.9375
40
0.9375
40
1
40
1
40
1
40
1
41
1
10
10.645821767393
20
0.257849043424443
30
0
41
1
10
10.473574807546
20
0.281196264913149
30
0
41
1
10
10.3052084696406
20
0.29197410191793
30
0
41
1
10
9.97327521136216
20
0.292439314526405
30
0
41
1
10
9.80971007788139
20
0.282106135884561
30
0
41
1
10
9.48442169124573
20
0.241709145154431
30
0
41
1
10
9.32253711068265
20
0.211607309259364
30
0
41
1
10
8.99822889571126
20
0.130852378861249
30
0
41
1
10
8.83736873112764
20
0.0806128939030941
30
0
41
1
10
8.51557303644174
20
-0.0415748729861889
30
0
41
1
10
8.35463814834196
20
-0.113490989554577
30
0
41
1
10
8.0304660485962
20
-0.283858450233566
30
0
41
1
10
7.86600613589309
20
-0.383253117626623
30
0
41
1
10
7.54333260976915
20
-0.610009645183681
30
0
41
1
10
7.3843537793274
20
-0.737552222580177
30
0
41
1
10
7.15102448961349
20
-0.955458747072868
30
0
41
1
10
7.07385492285391
20
-1.03291638687909
30
0
41
1
10
6.9255928523913
20
-1.19363856824086
30
0
41
1
10
6.85404388923308
20
-1.27728674067904
30
0
41
1
10
6.71652658098353
20
-1.45141706055008
30
0
41
1
10
6.65055747872228
20
-1.54189810797746
30
0
41
1
10
6.5247446567875
20
-1.73006461217346
30
0
41
1
10
6.46465603686707
20
-1.82819284934743
30
0
41
1
10
6.29627077159941
20
-2.13119549181042
30
0
41
1
10
6.20222220374097
20
-2.33985906555085
30
0
41
1
10
6.08820799239589
20
-2.66297902457799
30
0
41
1
10
6.05461970878497
20
-2.77285314491078
30
0
41
1
10
5.99732469478241
20
-2.99390440316688
30
0
41
1
10
5.97376260070854
20
-3.10433057893249
30
0
41
1
10
5.93632176727562
20
-3.32507062158376
30
0
41
1
10
5.92244492493393
20
-3.43538422259567
30
0
41
1
10
5.90414399341847
20
-3.65593536519774
30
0
41
1
10
5.89972438013183
20
-3.76652208875228
30
0
41
1
10
5.90059133840327
20
-4.09578195109455
30
0
41
1
10
5.9197606807945
20
-4.30889894817096
30
0
41
1
10
5.97335247768044
20
-4.61939914588305
30
0
41
1
10
5.99538089204259
20
-4.72135446111221
30
0
41
1
10
6.0474851294388
20
-4.92208360200587
30
0
41
1
10
6.07752434162722
20
-5.02055922604993
30
0
41
1
10
6.17739213541489
20
-5.30623480960281
30
0
41
1
10
6.25733884079219
20
-5.48537410851898
30
0
41
1
10
6.43932211530429
20
-5.82162103440163
30
0
41
1
10
6.54206922737202
20
-5.97934832746489
30
0
41
1
10
6.65077483921129
20
-6.12218796043078
30
0
0
SPLINE
5
1A9
100
AcDbEntity
8
1
62
256
6
ByLayer
370
-1
48
1
60
0
100
AcDbSpline
70
4
71
3
72
14
73
10
40
0
40
0
40
0
40
0
40
0.25
40
0.25
40
0.5
40
0.5
40
0.75
40
0.75
40
1
40
1
40
1
40
1
41
1
10
7.0389176128885
20
-8.03153414132427
30
0
41
1
10
6.974252135337
20
-7.90554878054786
30
0
41
1
10
6.92232004714964
20
-7.76804484844067
30
0
41
1
10
6.83485866661306
20
-7.47628087114464
30
0
41
1
10
6.79945452798279
20
-7.32192191464958
30
0
41
1
10
6.74029724082021
20
-6.99929124004345
30
0
41
1
10
6.71658673146536
20
-6.83098567568402
30
0
41
1
10
6.67764736057816
20
-6.48202764401111
30
0
41
1
10
6.6626767909531
20
-6.30368214529005
30
0
41
1
10
6.65077483921763
20
-6.12218796043899
30
0
0
SPLINE
5
1AA
100
AcDbEntity
8
1
62
256
6
ByLayer
370
-1
48
1
60
0
100
AcDbSpline
70
4
71
3
72
10
73
6
40
0
40
0
40
0
40
0
40
0.5
40
0.5
40
1
40
1
40
1
40
1
41
1
10
7.89995991337267
20
-6.93779702323309
30
0
41
1
10
8.34168607105519
20
-6.88665888757646
30
0
41
1
10
8.78359806695926
20
-6.82922980218385
30
0
41
1
10
9.6642245790562
20
-6.69497776211816
30
0
41
1
10
10.1029016775566
20
-6.61822265344495
30
0
41
1
10
10.5389176128883
20
-6.52656960514719
30
0
0
SPLINE
5
1AB
100
AcDbEntity
8
1
62
256
6
ByLayer
370
-1
48
1
60
0
100
AcDbSpline
70
4
71
3
72
10
73
6
40
0
40
0
40
0
40
0
40
0.5
40
0.5
40
1
40
1
40
1
40
1
41
1
10
40.1423760216491
20
2.08004799014819
30
0
41
1
10
40.2983632013276
20
2.08556704177406
30
0
41
1
10
40.4495422969923
20
2.09096149836498
30
0
41
1
10
40.7425228878137
20
2.10150740363363
30
0
41
1
10
40.8849557806949
20
2.10668251572326
30
0
41
1
10
41.0190381651184
20
2.11160523198097
30
0
0
SPLINE
5
1AC
100
AcDbEntity
8
1
62
256
6
ByLayer
370
-1
48
1
60
0
100
AcDbSpline
70
4
71
3
72
18
73
14
40
0
40
0
40
0
40
0
40
0.25
40
0.25
40
0.375
40
0.375
40
0.5
40
0.5
40
0.625
40
0.625
40
0.75
40
0.75
40
1
40
1
40
1
40
1
41
1
10
13.9999999999998
20
7.19998666920671
30
0
41
1
10
15.5163901039045
20
7.19880571873563
30
0
41
1
10
17.0273658284781
20
7.11883538286952
30
0
41
1
10
19.2970930040754
20
6.88515223398218
30
0
41
1
10
20.0544485576718
20
6.78833736061239
30
0
41
1
10
21.5710025853968
20
6.55836700104007
30
0
41
1
10
22.3282107287185
20
6.42554341617893
30
0
41
1
10
23.8419641818755
20
6.12608303978675
30
0
41
1
10
24.5984683849159
20
5.95938337385294
30
0
41
1
10
26.1124833633871
20
5.5943092171016
30
0
41
1
10
26.870723526315
20
5.39573496611303
30
0
41
1
10
29.1443723601076
20
4.75821066508578
30
0
41
1
10
30.6562063299205
20
4.27846571437274
30
0
41
1
10
32.1709408544677
20
3.75770051449251
30
0
0
SPLINE
5
1AD
100
AcDbEntity
8
1
62
256
6
ByLayer
370
-1
48
1
60
0
100
AcDbSpline
70
4
71
3
72
10
73
6
40
0
40
0
40
0
40
0
40
0.830308189282196
40
0.830308189282196
40
1
40
1
40
1
40
1
41
1
10
33.038647322026
20
3.83442717528615
30
0
41
1
10
32.7819782957106
20
3.83299906736022
30
0
41
1
10
32.5258075915563
20
3.83579846345225
30
0
41
1
10
32.2182880015025
20
3.84602299599993
30
0
41
1
10
32.1661383846772
20
3.84798929667241
30
0
41
1
10
32.114027561163
20
3.85021222866624
30
0
0
SPLINE
5
1AE
100
AcDbEntity
8
1
62
256
6
ByLayer
370
-1
48
1
60
0
100
AcDbSpline
70
4
71
3
72
22
73
18
40
0
40
0
40
0
40
0
40
0.0029551216283141
40
0.0029551216283141
40
0.0385638672844473
40
0.0385638672844473
40
0.0741726129405806
40
0.0741726129405806
40
0.145390104252844
40
0.145390104252844
40
0.287825086877371
40
0.287825086877371
40
0.430260069501898
40
0.430260069501898
40
0.715130034750949
40
0.715130034750949
40
1
40
1
40
1
40
1
41
1
10
29.9289781189888
20
4.51225425758344
30
0
41
1
10
29.9301780147126
20
4.51464714869087
30
0
41
1
10
29.9314178436433
20
4.5170228967099
30
0
41
1
10
29.9480903622838
20
4.54778224691171
30
0
41
1
10
29.9688578209383
20
4.57400987300767
30
0
41
1
10
30.0141556993307
20
4.62146187015577
30
0
41
1
10
30.0389683039805
20
4.6430783406561
30
0
41
1
10
30.11732852269
20
4.70410953218652
30
0
41
1
10
30.1727032345825
20
4.73838458529477
30
0
41
1
10
30.3428480189338
20
4.83273939596651
30
0
41
1
10
30.4624736688133
20
4.88430236316412
30
0
41
1
10
30.7023663765487
20
4.97640721690033
30
0
41
1
10
30.8231103321491
20
5.01664265699196
30
0
41
1
10
31.1867479378928
20
5.12706296450224
30
0
41
1
10
31.4310546565444
20
5.18697068591914
30
0
41
1
10
31.9218790122336
20
5.29178946085923
30
0
41
1
10
32.1686367430353
20
5.33641230019978
30
0
41
1
10
32.4157063692597
20
5.37553786104502
30
0
0
SPLINE
5
1AF
100
AcDbEntity
8
1
62
256
6
ByLayer
370
-1
48
1
60
0
100
AcDbSpline
70
4
71
3
72
9
73
5
40
0
40
0
40
0
40
0
40
0.981369681821926
40
1
40
1
40
1
40
1
41
1
10
10.7782058189045
20
0.235831449316009
30
0
41
1
10
10.7326257134273
20
0.247368207960278
30
0
41
1
10
10.6854575895995
20
0.257845336630538
30
0
41
1
10
10.6375991748774
20
0.266928401624085
30
0
41
1
10
10.6367073182085
20
0.267097137605958
30
0
0
SPLINE
5
1B0
100
AcDbEntity
8
1
62
256
6
ByLayer
370
-1
48
1
60
0
100
AcDbSpline
70
4
71
3
72
68
73
64
40
0
40
0
40
0
40
0
40
0.0167669255914839
40
0.0375972904206128
40
0.0584276552497417
40
0.0792580200788702
40
0.100088384907999
40
0.120918749737128
40
0.131333932151692
40
0.141749114566256
40
0.162579479395385
40
0.172994661809949
40
0.183409844224514
40
0.204240209053643
40
0.214655391468207
40
0.225070573882772
40
0.2459009387119
40
0.256316121126465
40
0.266731303541029
40
0.287561668370158
40
0.308392033199287
40
0.329222398028415
40
0.350052762857544
40
0.370883127686673
40
0.391713492515802
40
0.41254385734493
40
0.433374222174059
40
0.454204587003188
40
0.464619769417752
40
0.475034951832317
40
0.485450134246881
40
0.495865316661446
40
0.501072907868728
40
0.50628049907601
40
0.516695681490574
40
0.527110863905139
40
0.537526046319703
40
0.558356411148832
40
0.579186775977961
40
0.600017140807089
40
0.620847505636218
40
0.662508235294476
40
0.683338600123604
40
0.704168964952733
40
0.714584147367298
40
0.724999329781862
40
0.745829694610991
40
0.756244877025555
40
0.76666005944012
40
0.787490424269248
40
0.797905606683813
40
0.808320789098377
40
0.829151153927506
40
0.83956633634207
40
0.849981518756635
40
0.870811883585763
40
0.881227066000328
40
0.891642248414892
40
0.912472613244021
40
0.93330297807315
40
0.954133342902278
40
0.995794072560536
40
1
40
1
40
1
40
1
41
1
10
9.72146811523101
20
0.26346498634399
30
0
41
1
10
9.67991581884277
20
0.255486829586602
30
0
41
1
10
9.58646980001481
20
0.235168470555067
30
0
41
1
10
9.44070581012394
20
0.195041950812538
30
0
41
1
10
9.28474739817207
20
0.14186072479086
30
0
41
1
10
9.12936014238051
20
0.0784428114072568
30
0
41
1
10
8.9751722448697
20
0.0048155703596251
30
0
41
1
10
8.84821186991599
20
-0.064886284863519
30
0
41
1
10
8.74787933837899
20
-0.125558090430133
30
0
41
1
10
8.6484723057271
20
-0.189443927816001
30
0
41
1
10
8.5506060013044
20
-0.258061539271523
30
0
41
1
10
8.45458538491425
20
-0.331232377478273
30
0
41
1
10
8.35988699550654
20
-0.407354798641563
30
0
41
1
10
8.26730959901357
20
-0.487778741923222
30
0
41
1
10
8.17712850031765
20
-0.57225250269039
30
0
41
1
10
8.08862213862102
20
-0.659322679066406
30
0
41
1
10
8.00274369012539
20
-0.750132284783319
30
0
41
1
10
7.91972477023464
20
-0.844370931696602
30
0
41
1
10
7.83867135259524
20
-0.940778675140962
30
0
41
1
10
7.74115080323233
20
-1.06513616494249
30
0
41
1
10
7.63055499938343
20
-1.21982006389914
30
0
41
1
10
7.5266239031389
20
-1.37921725868986
30
0
41
1
10
7.42959336671646
20
-1.5425861339539
30
0
41
1
10
7.33957853200471
20
-1.70918516617854
30
0
41
1
10
7.25669454089214
20
-1.87827283185109
30
0
41
1
10
7.18094366252447
20
-2.04914287362922
30
0
41
1
10
7.1123281660474
20
-2.22108903417063
30
0
41
1
10
7.0610142259539
20
-2.36473871683208
30
0
41
1
10
7.0234341512986
20
-2.47955386223197
30
0
41
1
10
6.99697969537004
20
-2.5654774477014
30
0
41
1
10
6.9722509008576
20
-2.65107778637452
30
0
41
1
10
6.95296354854835
20
-2.72246564697744
30
0
41
1
10
6.93825480773421
20
-2.77980265290833
30
0
41
1
10
6.92401562902401
20
-2.8373594308232
30
0
41
1
10
6.90707608723434
20
-2.90984615134616
30
0
41
1
10
6.88805653613409
20
-2.9981071750905
30
0
41
1
10
6.86453374608803
20
-3.11734174963522
30
0
41
1
10
6.83874780374055
20
-3.26901710584488
30
0
41
1
10
6.81398480599989
20
-3.45474992692402
30
0
41
1
10
6.79579400207575
20
-3.64371611441209
30
0
41
1
10
6.78075434378405
20
-3.89918160559967
30
0
41
1
10
6.7802145386809
20
-4.15871208757989
30
0
41
1
10
6.79521512139908
20
-4.41952380047829
30
0
41
1
10
6.81119713019257
20
-4.58242650026827
30
0
41
1
10
6.8280256137856
20
-4.7123028074449
30
0
41
1
10
6.84755559453785
20
-4.84174831633456
30
0
41
1
10
6.87114719020965
20
-4.97034728301861
30
0
41
1
10
6.8988191391623
20
-5.09769901794678
30
0
41
1
10
6.92919575464845
20
-5.2240866353344
30
0
41
1
10
6.96360601645429
20
-5.34882913185629
30
0
41
1
10
7.00200321761866
20
-5.47152861840266
30
0
41
1
10
7.04302101658612
20
-5.59274159992637
30
0
41
1
10
7.08791366960443
20
-5.7115380763577
30
0
41
1
10
7.13656909136586
20
-5.82754455257987
30
0
41
1
10
7.18767551154752
20
-5.94158147272807
30
0
41
1
10
7.2423721582467
20
-6.05249972486365
30
0
41
1
10
7.30048648923778
20
-6.15997064118321
30
0
41
1
10
7.36080497355999
20
-6.26505425364272
30
0
41
1
10
7.4401965485896
20
-6.39176554951209
30
0
41
1
10
7.54141017284718
20
-6.53585547313131
30
0
41
1
10
7.68359371626045
20
-6.7168395352285
30
0
41
1
10
7.80526018399581
20
-6.84772079608274
30
0
41
1
10
7.89198265441146
20
-6.93028831184623
30
0
41
1
10
7.89995991337184
20
-6.93779702323229
30
0
0
SPLINE
5
1B1
100
AcDbEntity
8
1
62
256
6
ByLayer
370
-1
48
1
60
0
100
AcDbSpline
70
4
71
2
72
6
73
3
40
0
40
0
40
0
40
1
40
1
40
1
41
1
10
13.3233661951449
20
-6.82856768659187
30
0
41
1
10
13.3233661951449
20
-7.03401710237102
30
0
41
1
10
13.3233661951448
20
-7.23946651815015
30
0
0
SPLINE
5
1B2
100
AcDbEntity
8
1
62
256
6
ByLayer
370
-1
48
1
60
0
100
AcDbSpline
70
4
71
3
72
9
73
5
40
0
40
0
40
0
40
0
40
0.465815040467978
40
1
40
1
40
1
40
1
41
1
10
33.038647321804
20
3.83442717527072
30
0
41
1
10
32.9057623954065
20
3.82461846012578
30
0
41
1
10
32.6204597163403
20
3.80286864965137
30
0
41
1
10
32.3351019294126
20
3.77963477977426
30
0
41
1
10
32.1826581122776
20
3.76680353760142
30
0
0
SPLINE
5
1B3
100
AcDbEntity
8
1
62
256
6
ByLayer
370
-1
48
1
60
0
100
AcDbSpline
70
4
71
3
72
8
73
4
40
0
40
0
40
0
40
0
40
1
40
1
40
1
40
1
41
1
10
36.88872849675
20
4.01999999999995
30
0
41
1
10
36.8072049523632
20
4.05291893046621
30
0
41
1
10
36.7223273371022
20
4.07467596729535
30
0
41
1
10
36.632955581337
20
4.08098000915817
30
0
0
SPLINE
5
1B4
100
AcDbEntity
8
1
62
256
6
ByLayer
370
-1
48
1
60
0
100
AcDbSpline
70
4
71
3
72
14
73
10
40
0
40
0
40
0
40
0
40
0.25
40
0.25
40
0.5
40
0.5
40
0.75
40
0.75
40
1
40
1
40
1
40
1
41
1
10
10.5389176128883
20
-6.52656960514716
30
0
41
1
10
10.6378343457336
20
-6.48333737517311
30
0
41
1
10
10.7503618132339
20
-6.45525956590834
30
0
41
1
10
10.999037935717
20
-6.43197207565075
30
0
41
1
10
11.1351854292678
20
-6.43674364573161
30
0
41
1
10
11.4295480849698
20
-6.47827879326576
30
0
41
1
10
11.5840991547882
20
-6.51441070598537
30
0
41
1
10
11.906237458614
20
-6.61040304782148
30
0
41
1
10
12.0739504410204
20
-6.67025532522294
30
0
41
1
10
12.2487489671968
20
-6.73892150311517
30
0
0
SPLINE
5
1B5
100
AcDbEntity
8
1
62
256
6
ByLayer
370
-1
48
1
60
0
100
AcDbSpline
70
4
71
3
72
14
73
10
40
0
40
0
40
0
40
0
40
0.17671851457116
40
0.17671851457116
40
0.35343702914232
40
0.35343702914232
40
0.70687405828464
40
0.70687405828464
40
1
40
1
40
1
40
1
41
1
10
41.5060491318627
20
4.85261520561545
30
0
41
1
10
41.5084569368943
20
4.85261520561545
30
0
41
1
10
41.5125914118896
20
4.85584687462372
30
0
41
1
10
41.5239625552201
20
4.86779094905822
30
0
41
1
10
41.5312708523369
20
4.87659429281444
30
0
41
1
10
41.556385883544
20
4.90806302271895
30
0
41
1
10
41.5778662126974
20
4.93619840275417
30
0
41
1
10
41.6226749242301
20
4.99150039813347
30
0
41
1
10
41.6450751019376
20
5.01809956249923
30
0
41
1
10
41.6696633376572
20
5.0454494325692
30
0
0
SPLINE
5
1B6
100
AcDbEntity
8
1
62
256
6
ByLayer
370
-1
48
1
60
0
100
AcDbSpline
70
4
71
4
72
13
73
8
40
0
40
0
40
0
40
0
40
0
40
0.313204613496098
40
0.313204613496098
40
0.313204613496098
40
1
40
1
40
1
40
1
40
1
41
0.983618663177902
10
14.8776838951292
20
-1.20441895234931
30
0
41
0.987910545108655
10
14.762039591438
20
-1.55018718180681
30
0
41
0.99405197426164
10
14.6386585593265
20
-1.95077432508122
30
0
41
1
10
14.5149987124113
20
-2.38050718470015
30
0
41
1
10
14.1478307095997
20
-3.72051812177435
30
0
41
0.971399654714839
10
13.8449670083291
20
-4.93200144019358
30
0
41
0.974874620342666
10
13.6148107538657
20
-6.04888157799931
30
0
41
0.985284916513399
10
13.4898364225923
20
-6.82606216081253
30
0
0
SPLINE
5
1B7
100
AcDbEntity
8
1
62
256
6
ByLayer
370
-1
48
1
60
0
100
AcDbSpline
70
4
71
3
72
20
73
16
40
0
40
0
40
0
40
0
40
0.24999999999998
40
0.24999999999998
40
0.37499999999997
40
0.37499999999997
40
0.437499999999973
40
0.437499999999973
40
0.499999999999976
40
0.499999999999976
40
0.624999999999982
40
0.624999999999982
40
0.749999999999988
40
0.749999999999988
40
1
40
1
40
1
40
1
41
1
10
45.7780061383322
20
-4.93741174803844
30
0
41
1
10
45.7327003667654
20
-4.95533196006826
30
0
41
1
10
45.6886155903877
20
-4.9756328235419
30
0
41
1
10
45.6331094438649
20
-5.01455387566782
30
0
41
1
10
45.6163436792916
20
-5.02911071530949
30
0
41
1
10
45.5986417776996
20
-5.05408585006128
30
0
41
1
10
45.5941822714452
20
-5.0627133956136
30
0
41
1
10
45.5888511247121
20
-5.08062193935027
30
0
41
1
10
45.5880590099535
20
-5.09003099847803
30
0
41
1
10
45.5916832420588
20
-5.11725416500278
30
0
41
1
10
45.6019975325257
20
-5.13457580285942
30
0
41
1
10
45.6302456087675
20
-5.16509448554805
30
0
41
1
10
45.6478221725637
20
-5.17841842371712
30
0
41
1
10
45.7047515761348
20
-5.21476910243805
30
0
41
1
10
45.748279926167
20
-5.23434842539862
30
0
41
1
10
45.7926527979172
20
-5.25171331156977
30
0
0
SPLINE
5
1B8
100
AcDbEntity
8
1
62
256
6
ByLayer
370
-1
48
1
60
0
100
AcDbSpline
70
4
71
3
72
10
73
6
40
0
40
0
40
0
40
0
40
0.5
40
0.5
40
1
40
1
40
1
40
1
41
1
10
38.8225972839518
20
2.21632812092841
30
0
41
1
10
39.0113440977223
20
2.16934069143014
30
0
41
1
10
39.2042910229203
20
2.13389431670342
30
0
41
1
10
39.5994949132558
20
2.08697791998398
30
0
41
1
10
39.8017613842484
20
2.07551040474752
30
0
41
1
10
40.0088119828677
20
2.07715686405882
30
0
0
SPLINE
5
1B9
100
AcDbEntity
8
1
62
256
6
ByLayer
370
-1
48
1
60
0
100
AcDbSpline
70
4
71
3
72
10
73
6
40
0
40
0
40
0
40
0
40
0.5
40
0.5
40
1
40
1
40
1
40
1
41
1
10
35.8750499763285
20
3.99422113623029
30
0
41
1
10
35.403577885134
20
3.94547008464303
30
0
41
1
10
34.9310500299489
20
3.90614692956456
30
0
41
1
10
33.985171183664
20
3.85224968442571
30
0
41
1
10
33.5118201193084
20
3.83706446798951
30
0
41
1
10
33.0386473217684
20
3.83442717526808
30
0
0
SPLINE
5
1BA
100
AcDbEntity
8
1
62
256
6
ByLayer
370
-1
48
1
60
0
100
AcDbSpline
70
4
71
3
72
14
73
10
40
0
40
0
40
0
40
0
40
0.25
40
0.25
40
0.5
40
0.5
40
0.75
40
0.75
40
1
40
1
40
1
40
1
41
1
10
38.0500063130756
20
2.61948402636389
30
0
41
1
10
38.0948788715664
20
2.56705343406648
30
0
41
1
10
38.1471731003258
20
2.52094624584402
30
0
41
1
10
38.2630199311724
20
2.43757407571235
30
0
41
1
10
38.3263938419679
20
2.40068189660951
30
0
41
1
10
38.458445479086
20
2.3358001511329
30
0
41
1
10
38.5276517981653
20
2.30747349969383
30
0
41
1
10
38.6713937181112
20
2.25726747547395
30
0
41
1
10
38.7462223260922
20
2.2353412257124
30
0
41
1
10
38.8225972839519
20
2.21632812092838
30
0
0
SPLINE
5
1BB
100
AcDbEntity
8
1
62
256
6
ByLayer
370
-1
48
1
60
0
100
AcDbSpline
70
4
71
3
72
8
73
4
40
0
40
0
40
0
40
0
40
1
40
1
40
1
40
1
41
1
10
39.8775444916098
20
1.09396809771471
30
0
41
1
10
39.953401791169
20
1.10520845635375
30
0
41
1
10
40.0264808636866
20
1.11811248349369
30
0
41
1
10
40.0966367170478
20
1.13276700386498
30
0
0
SPLINE
5
1BC
100
AcDbEntity
8
1
62
256
6
ByLayer
370
-1
48
1
60
0
100
AcDbSpline
70
4
71
3
72
9
73
5
40
0
40
0
40
0
40
0
40
0.878006066742462
40
1
40
1
40
1
40
1
41
1
10
36.632955581337
20
4.01999999999993
30
0
41
1
10
36.4111718549569
20
4.01349895780561
30
0
41
1
10
36.1585441666253
20
4.00505357724069
30
0
41
1
10
35.9058746607414
20
3.99541476929909
30
0
41
1
10
35.8750499763285
20
3.99422113623029
30
0
0
SPLINE
5
1BD
100
AcDbEntity
8
1
62
256
6
ByLayer
370
-1
48
1
60
0
100
AcDbSpline
70
4
71
3
72
14
73
10
40
0
40
0
40
0
40
0
40
0.222797918513983
40
0.222797918513983
40
0.481865279009321
40
0.481865279009321
40
0.740932639504661
40
0.740932639504661
40
1
40
1
40
1
40
1
41
1
10
25.9163546172505
20
5.62625593966328
30
0
41
1
10
26.6485833227507
20
5.81055471044343
30
0
41
1
10
27.3808728855855
20
5.98072871623828
30
0
41
1
10
28.9665009743529
20
6.31559152817147
30
0
41
1
10
29.8206867878002
20
6.4750506828814
30
0
41
1
10
31.524596727502
20
6.74788859802254
30
0
41
1
10
32.3756188524837
20
6.86128103884479
30
0
41
1
10
34.0778568816097
20
7.04059426779119
30
0
41
1
10
34.9287617988958
20
7.10661223985971
30
0
41
1
10
35.7813961152376
20
7.14794926272648
30
0
0
SPLINE
5
1BE
100
AcDbEntity
8
1
62
256
6
ByLayer
370
-1
48
1
60
0
100
AcDbSpline
70
4
71
3
72
10
73
6
40
0
40
0
40
0
40
0
40
0.499999999999999
40
0.499999999999999
40
1
40
1
40
1
40
1
41
1
10
7.89995987460517
20
-6.9377972764039
30
0
41
1
10
7.81369764970154
20
-6.94019288238763
30
0
41
1
10
7.7295637154175
20
-6.9285702879919
30
0
41
1
10
7.56499822338512
20
-6.87796569326878
30
0
41
1
10
7.48456814438103
20
-6.83898753338485
30
0
41
1
10
7.40587889410202
20
-6.78566435704789
30
0
0
SPLINE
5
1BF
100
AcDbEntity
8
1
62
256
6
ByLayer
370
-1
48
1
60
0
100
AcDbSpline
70
4
71
3
72
28
73
24
40
0
40
0
40
0
40
0
40
0.140461544280221
40
0.140461544280221
40
0.212089748923536
40
0.212089748923536
40
0.283717953566852
40
0.283717953566852
40
0.426974362853482
40
0.426974362853482
40
0.498602567496797
40
0.498602567496797
40
0.570230772140113
40
0.570230772140113
40
0.713487181426743
40
0.713487181426743
40
0.785115386070057
40
0.785115386070057
40
0.856743590713371
40
0.856743590713371
40
0.928371795356686
40
0.928371795356686
40
1
40
1
40
1
40
1
41
1
10
37.8703921494174
20
1.28621832804865
30
0
41
1
10
37.9015489696681
20
1.33043949222184
30
0
41
1
10
37.9260581397571
20
1.39390929495863
30
0
41
1
10
37.9519493292937
20
1.51638779741012
30
0
41
1
10
37.9587721144767
20
1.56238851301569
30
0
41
1
10
37.9681703040689
20
1.66363308388762
30
0
41
1
10
37.9707212262744
20
1.71904665294033
30
0
41
1
10
37.9712207213041
20
1.8953835621756
30
0
41
1
10
37.9622798727641
20
2.02730789656008
30
0
41
1
10
37.9319833258981
20
2.24445767851654
30
0
41
1
10
37.9189790512525
20
2.32037065372339
30
0
41
1
10
37.8866426305936
20
2.47695518923544
30
0
41
1
10
37.8674403629771
20
2.55709996887708
30
0
41
1
10
37.7996300404142
20
2.8019643532798
30
0
41
1
10
37.741218176734
20
2.97129009523044
30
0
41
1
10
37.6244274337612
20
3.22823924198755
30
0
41
1
10
37.5803785168779
20
3.31455694920814
30
0
41
1
10
37.4813926836804
20
3.48251661845194
30
0
41
1
10
37.4263477616601
20
3.56461114971984
30
0
41
1
10
37.3009568386169
20
3.72130371983505
30
0
41
1
10
37.2309169500821
20
3.79536913761612
30
0
41
1
10
37.0741107509922
20
3.92463793503271
30
0
41
1
10
36.985780532799
20
3.9808107173007
30
0
41
1
10
36.8887284967124
20
4.01999999999995
30
0
0
SPLINE
5
1C0
100
AcDbEntity
8
1
62
256
6
ByLayer
370
-1
48
1
60
0
100
AcDbSpline
70
4
71
3
72
8
73
4
40
0
40
0
40
0
40
0
40
1
40
1
40
1
40
1
41
1
10
32.9788129892882
20
3.46023317722026
30
0
41
1
10
32.7106732886463
20
3.55456068832075
30
0
41
1
10
32.4412730681106
20
3.65417583615064
30
0
41
1
10
32.1709408544677
20
3.75770051449251
30
0
0
SPLINE
5
1C1
100
AcDbEntity
8
1
62
256
6
ByLayer
370
-1
48
1
60
0
100
AcDbSpline
70
4
71
3
72
14
73
10
40
0
40
0
40
0
40
0
40
0.333472283497377
40
0.333472283497377
40
0.500208425246066
40
0.500208425246066
40
0.666944566994754
40
0.666944566994754
40
1
40
1
40
1
40
1
41
1
10
14
20
-7.15928955725937
30
0
41
1
10
15.3184766423266
20
-7.10277546734079
30
0
41
1
10
16.6329765169362
20
-6.98756813017224
30
0
41
1
10
18.6058285459839
20
-6.73099054548166
30
0
41
1
10
19.263635244855
20
-6.63153503261429
30
0
41
1
10
20.5807895250462
20
-6.40578037676426
30
0
41
1
10
21.2403422455494
20
-6.27941722655908
30
0
41
1
10
23.2138038987914
20
-5.8637807391687
30
0
41
1
10
24.5265024992211
20
-5.53720721662035
30
0
41
1
10
25.8409749679312
20
-5.16717549830329
30
0
0
SPLINE
5
1C2
100
AcDbEntity
8
1
62
256
6
ByLayer
370
-1
48
1
60
0
100
AcDbSpline
70
4
71
3
72
8
73
4
40
0
40
0
40
0
40
0
40
1
40
1
40
1
40
1
41
1
10
13.4898364225929
20
-6.826062160813
30
0
41
1
10
13.4341965056514
20
-6.82831552176975
30
0
41
1
10
13.3787100677498
20
-6.82915861660561
30
0
41
1
10
13.3233661951449
20
-6.82856139887164
30
0
0
SPLINE
5
1C3
100
AcDbEntity
8
1
62
256
6
ByLayer
370
-1
48
1
60
0
100
AcDbSpline
70
4
71
3
72
24
73
20
40
0
40
0
40
0
40
0
40
0.125000000000002
40
0.125000000000002
40
0.187500000000002
40
0.187500000000002
40
0.250000000000002
40
0.250000000000002
40
0.312500000000002
40
0.312500000000002
40
0.375000000000002
40
0.375000000000002
40
0.500000000000001
40
0.500000000000001
40
0.625000000000001
40
0.625000000000001
40
0.750000000000001
40
0.750000000000001
40
1
40
1
40
1
40
1
41
1
10
35.781396115237
20
7.1479492627484
30
0
41
1
10
35.7152525941153
20
6.98865754339744
30
0
41
1
10
35.6371330135421
20
6.83698505416569
30
0
41
1
10
35.4946023587318
20
6.62560493649789
30
0
41
1
10
35.4425981921371
20
6.55754486176437
30
0
41
1
10
35.3302230034186
20
6.42878445131359
30
0
41
1
10
35.2706399410152
20
6.36891117642293
30
0
41
1
10
35.145159321739
20
6.25754608872671
30
0
41
1
10
35.0792653811912
20
6.20604947583902
30
0
41
1
10
34.9418761966899
20
6.11049106726867
30
0
41
1
10
34.8701472034051
20
6.06629388540287
30
0
41
1
10
34.6493671851595
20
5.94409518509292
30
0
41
1
10
34.4975326676653
20
5.87754700410977
30
0
41
1
10
34.1884122557553
20
5.76194728328042
30
0
41
1
10
34.0310928973601
20
5.7130031488191
30
0
41
1
10
33.7131054770736
20
5.62586281829599
30
0
41
1
10
33.5524233584852
20
5.58771173835592
30
0
41
1
10
33.0672415204044
20
5.48332208607556
30
0
41
1
10
32.7416920838763
20
5.42716045062312
30
0
41
1
10
32.4157063692597
20
5.37553786104453
30
0
0
SPLINE
5
1C4
100
AcDbEntity
8
1
62
256
6
ByLayer
370
-1
48
1
60
0
100
AcDbSpline
70
4
71
3
72
8
73
4
40
0
40
0
40
0
40
0
40
1
40
1
40
1
40
1
41
1
10
14
20
-0.675321379515481
30
0
41
1
10
14.4886269858089
20
-0.924587379777591
30
0
41
1
10
14.9560118447573
20
-1.20714203188078
30
0
41
1
10
15.4085913495576
20
-1.51077228033444
30
0
0
SPLINE
5
1C5
100
AcDbEntity
8
1
62
256
6
ByLayer
370
-1
48
1
60
0
100
AcDbSpline
70
4
71
3
72
8
73
4
40
0
40
0
40
0
40
0
40
1
40
1
40
1
40
1
41
1
10
40.0088119828671
20
2.07715686405899
30
0
41
1
10
40.0533620619321
20
2.07751112477104
30
0
41
1
10
40.097883733215
20
2.07847378874683
30
0
41
1
10
40.1423760216491
20
2.08004799014819
30
0
0
SPLINE
5
1C6
100
AcDbEntity
8
1
62
256
6
ByLayer
370
-1
48
1
60
0
100
AcDbSpline
70
4
71
4
72
10
73
5
40
0
40
0
40
0
40
0
40
0
40
1
40
1
40
1
40
1
40
1
41
1
10
36.632955581337
20
4.01999999999993
30
0
41
1
10
36.6329555813373
20
4.03524500228869
30
0
41
1
10
36.6329555813376
20
4.05049000457745
30
0
41
1
10
36.6329555813378
20
4.06573500686622
30
0
41
1
10
36.6329555813381
20
4.08098000915498
30
0
0
SPLINE
5
1C7
100
AcDbEntity
8
1
62
256
6
ByLayer
370
-1
48
1
60
0
100
AcDbSpline
70
4
71
3
72
8
73
4
40
0
40
0
40
0
40
0
40
1
40
1
40
1
40
1
41
1
10
41.4312265744382
20
7.19911903088604
30
0
41
1
10
41.4346328916994
20
7.19973167006358
30
0
41
1
10
41.4417893573247
20
7.20000996843152
30
0
41
1
10
41.4525862154731
20
7.19999978669435
30
0
0
SPLINE
5
1C8
100
AcDbEntity
8
1
62
256
6
ByLayer
370
-1
48
1
60
0
100
AcDbSpline
70
4
71
3
72
12
73
8
40
0
40
0
40
0
40
0
40
0.2250381164711
40
0.2250381164711
40
0.61251905823555
40
0.61251905823555
40
1
40
1
40
1
40
1
41
1
10
41.4817292602424
20
7.19954092398794
30
0
41
1
10
41.4930477949275
20
7.1992572946184
30
0
41
1
10
41.506091548689
20
7.19885265975799
30
0
41
1
10
41.5456409289595
20
7.19750726257647
30
0
41
1
10
41.5755012989807
20
7.19638034541771
30
0
41
1
10
41.6434258128774
20
7.19394667096856
30
0
41
1
10
41.6808704146583
20
7.19266363971749
30
0
41
1
10
41.721842963744
20
7.19147462545456
30
0
0
SPLINE
5
1C9
100
AcDbEntity
8
1
62
256
6
ByLayer
370
-1
48
1
60
0
100
AcDbSpline
70
4
71
3
72
20
73
16
40
0
40
0
40
0
40
0
40
0.125000000000006
40
0.125000000000006
40
0.250000000000012
40
0.250000000000012
40
0.375000000000018
40
0.375000000000018
40
0.437500000000016
40
0.437500000000016
40
0.500000000000014
40
0.500000000000014
40
0.750000000000007
40
0.750000000000007
40
1
40
1
40
1
40
1
41
1
10
38.2400594522746
20
3.29290320587191
30
0
41
1
10
38.2011406784034
20
3.28021671538602
30
0
41
1
10
38.1631822501438
20
3.26514632387682
30
0
41
1
10
38.090102781228
20
3.22793837647311
30
0
41
1
10
38.05548274175
20
3.2059783466523
30
0
41
1
10
37.994110716474
20
3.15390722395401
30
0
41
1
10
37.9672794229634
20
3.1233316771156
30
0
41
1
10
37.9379133435673
20
3.07348280946078
30
0
41
1
10
37.9297956792063
20
3.05601096004412
30
0
41
1
10
37.9174821318236
20
3.0210628900924
30
0
41
1
10
37.9131559902631
20
3.00339868431345
30
0
41
1
10
37.8998060477853
20
2.91426570381807
30
0
41
1
10
37.9157403783197
20
2.846515636194
30
0
41
1
10
37.9687462530734
20
2.72530101959052
30
0
41
1
10
38.0066115391533
20
2.67018792594524
30
0
41
1
10
38.0500063130788
20
2.61948402636685
30
0
0
SPLINE
5
1CA
100
AcDbEntity
8
1
62
256
6
ByLayer
370
-1
48
1
60
0
100
AcDbSpline
70
4
71
3
72
18
73
14
40
0
40
0
40
0
40
0
40
0.249999999999999
40
0.249999999999999
40
0.374999999999999
40
0.374999999999999
40
0.499999999999999
40
0.499999999999999
40
0.624999999999999
40
0.624999999999999
40
0.749999999999999
40
0.749999999999999
40
1
40
1
40
1
40
1
41
1
10
10.5389176128883
20
-8.68726851170157
30
0
41
1
10
10.6758375200563
20
-8.62237125495633
30
0
41
1
10
10.8405112203119
20
-8.51507774810798
30
0
41
1
10
11.1278896936699
20
-8.31752811973456
30
0
41
1
10
11.2310986363957
20
-8.24504872668533
30
0
41
1
10
11.4455775936249
20
-8.09571940509804
30
0
41
1
10
11.557427266961
20
-8.01882543630575
30
0
41
1
10
11.7896037489918
20
-7.85989084269721
30
0
41
1
10
11.9112026530373
20
-7.78435135522838
30
0
41
1
10
12.1660362616547
20
-7.64259937206856
30
0
41
1
10
12.2998227801733
20
-7.57614380164944
30
0
41
1
10
12.7163721789257
20
-7.39539634621511
30
0
41
1
10
13.0106525483693
20
-7.30065627230888
30
0
41
1
10
13.3233661948502
20
-7.23946651818918
30
0
0
SPLINE
5
1CB
100
AcDbEntity
8
1
62
256
6
ByLayer
370
-1
48
1
60
0
100
AcDbSpline
70
4
71
2
72
6
73
3
40
0
40
0
40
0
40
1
40
1
40
1
41
1
10
7.0389176128881
20
-6.49782714780559
30
0
41
1
10
7.03891761288813
20
-7.26468064456591
30
0
41
1
10
7.03891761288816
20
-8.03153414132623
30
0
0
SPLINE
5
1CC
100
AcDbEntity
8
1
62
256
6
ByLayer
370
-1
48
1
60
0
100
AcDbSpline
70
4
71
3
72
19
73
15
40
0
40
0
40
0
40
0
40
0.25
40
0.25
40
0.3125
40
0.3125
40
0.375
40
0.375
40
0.5
40
0.625
40
0.625
40
0.75
40
0.75
40
1
40
1
40
1
40
1
41
1
10
7.03891761288816
20
-8.03153414132629
30
0
41
1
10
7.28396715932681
20
-8.39587914393806
30
0
41
1
10
7.54517454449586
20
-8.67257899598221
30
0
41
1
10
7.8945574267259
20
-8.91289355952549
30
0
41
1
10
7.96571010721647
20
-8.95572515486461
30
0
41
1
10
8.10985525625907
20
-9.03059873969951
30
0
41
1
10
8.18230351790808
20
-9.06238291939991
30
0
41
1
10
8.40083016418924
20
-9.14202767602924
30
0
41
1
10
8.69536161437031
20
-9.20635872122031
30
0
41
1
10
8.99657115341012
20
-9.199348706579
30
0
41
1
10
9.30113503877493
20
-9.16241155312451
30
0
41
1
10
9.4553864395146
20
-9.1288478427123
30
0
41
1
10
9.91778673948031
20
-8.99279457034709
30
0
41
1
10
10.2272985878693
20
-8.85593372944726
30
0
41
1
10
10.5389176128883
20
-8.68726851170157
30
0
0
SPLINE
5
1CD
100
AcDbEntity
8
1
62
256
6
ByLayer
370
-1
48
1
60
0
100
AcDbSpline
70
4
71
3
72
10
73
6
40
0
40
0
40
0
40
0
40
0.5
40
0.5
40
1
40
1
40
1
40
1
41
1
10
12.248748431642
20
-6.73892470371143
30
0
41
1
10
12.4086830060767
20
-6.76943770115912
30
0
41
1
10
12.5785937492888
20
-6.79173964058069
30
0
41
1
10
12.9402361189789
20
-6.82143941804284
30
0
41
1
10
13.128658457823
20
-6.82852778181376
30
0
41
1
10
13.3233671861775
20
-6.82856139904328
30
0
0
SPLINE
5
1CE
100
AcDbEntity
8
1
62
256
6
ByLayer
370
-1
48
1
60
0
100
AcDbSpline
70
4
71
3
72
8
73
4
40
0
40
0
40
0
40
0
40
1
40
1
40
1
40
1
41
1
10
36.6329555813803
20
4.08098000915521
30
0
41
1
10
36.3808143593865
20
4.04959697305654
30
0
41
1
10
36.1281665704884
20
4.02039559994361
30
0
41
1
10
35.8750499763278
20
3.99422113623027
30
0
0
SPLINE
5
1CF
100
AcDbEntity
8
1
62
256
6
ByLayer
370
-1
48
1
60
0
100
AcDbSpline
70
4
71
3
72
14
73
10
40
0
40
0
40
0
40
0
40
0.307510070495246
40
0.307510070495246
40
0.615020140990493
40
0.615020140990493
40
0.922530211485739
40
0.922530211485739
40
1
40
1
40
1
40
1
41
1
10
45.7267775131283
20
2.24938100273852
30
0
41
1
10
45.7302863391457
20
2.24941531788471
30
0
41
1
10
45.7337737305908
20
2.25507260698169
30
0
41
1
10
45.740594752184
20
2.27723380611073
30
0
41
1
10
45.7439478628554
20
2.29402036113444
30
0
41
1
10
45.7499997908982
20
2.33701913283068
30
0
41
1
10
45.7527720851902
20
2.36357094341707
30
0
41
1
10
45.755627164291
20
2.40239570552544
30
0
41
1
10
45.756170171141
20
2.41045291688755
30
0
41
1
10
45.7566747392469
20
2.4187551586831
30
0
0
SPLINE
5
1D0
100
AcDbEntity
8
1
62
256
6
ByLayer
370
-1
48
1
60
0
100
AcDbSpline
70
4
71
3
72
12
73
8
40
0
40
0
40
0
40
0
40
0.5
40
0.5
40
0.75
40
0.75
40
1
40
1
40
1
40
1
41
1
10
7.03891761288821
20
-6.49782714780568
30
0
41
1
10
6.94593880780496
20
-6.41628450383979
30
0
41
1
10
6.86695327819851
20
-6.33984817632586
30
0
41
1
10
6.76940769545792
20
-6.24204039078222
30
0
41
1
10
6.74040669219488
20
-6.2122854274495
30
0
41
1
10
6.68981688506909
20
-6.16063650103052
30
0
41
1
10
6.66813790818424
20
-6.13866169457899
30
0
41
1
10
6.65077483921533
20
-6.12218796043692
30
0
0
SPLINE
5
1D1
100
AcDbEntity
8
1
62
256
6
ByLayer
370
-1
48
1
60
0
100
AcDbSpline
70
4
71
3
72
10
73
6
40
0
40
0
40
0
40
0
40
0.5
40
0.5
40
1
40
1
40
1
40
1
41
1
10
39.8775444916098
20
1.09396809771471
30
0
41
1
10
39.6780953262723
20
1.06441418317144
30
0
41
1
10
39.4742132024891
20
1.05171110638929
30
0
41
1
10
39.0604299807247
20
1.06016313282436
30
0
41
1
10
38.8490948369112
20
1.08173699757722
30
0
41
1
10
38.640515644876
20
1.12087489675812
30
0
0
SPLINE
5
1D2
100
AcDbEntity
8
1
62
256
6
ByLayer
370
-1
48
1
60
0
100
AcDbSpline
70
4
71
3
72
70
73
66
40
-0.03125
40
-0.03125
40
0
40
0
40
0.03125
40
0.03125
40
0.0625
40
0.0625
40
0.09375
40
0.09375
40
0.125
40
0.125
40
0.15625
40
0.15625
40
0.1875
40
0.1875
40
0.21875
40
0.21875
40
0.25
40
0.25
40
0.28125
40
0.28125
40
0.3125
40
0.3125
40
0.34375
40
0.34375
40
0.375
40
0.375
40
0.40625
40
0.40625
40
0.4375
40
0.4375
40
0.46875
40
0.46875
40
0.5
40
0.5
40
0.53125
40
0.53125
40
0.5625
40
0.5625
40
0.59375
40
0.59375
40
0.625
40
0.625
40
0.65625
40
0.65625
40
0.6875
40
0.6875
40
0.71875
40
0.71875
40
0.75
40
0.75
40
0.78125
40
0.78125
40
0.8125
40
0.8125
40
0.84375
40
0.84375
40
0.875
40
0.875
40
0.90625
40
0.90625
40
0.9375
40
0.9375
40
0.96875
40
0.96875
40
1
40
1
40
1.03125
40
1.03125
41
1
10
43.0480265614343
20
-1.59653020517965
30
0
41
1
10
43.0405585945185
20
-1.45184990727776
30
0
41
1
10
43.0437363590006
20
-1.38006789867981
30
0
41
1
10
43.0637086943489
20
-1.23762408725443
30
0
41
1
10
43.080784406241
20
-1.16622251498447
30
0
41
1
10
43.1284378499074
20
-1.02860179060585
30
0
41
1
10
43.1587057775789
20
-0.962736157102029
30
0
41
1
10
43.2321995864979
20
-0.837001403321125
30
0
41
1
10
43.2759526206633
20
-0.776722682764358
30
0
41
1
10
43.3731527979919
20
-0.667667955198993
30
0
41
1
10
43.4268447522783
20
-0.618237216959841
30
0
41
1
10
43.5446701140501
20
-0.529891509913057
30
0
41
1
10
43.6082098856994
20
-0.491618020737946
30
0
41
1
10
43.7403100192328
20
-0.429067878874179
30
0
41
1
10
43.8099566476971
20
-0.404225961689178
30
0
41
1
10
43.9533946724318
20
-0.36899462245114
30
0
41
1
10
44.0258539461893
20
-0.358814414692859
30
0
41
1
10
44.172215719732
20
-0.35295995951887
30
0
41
1
10
44.2468474583405
20
-0.357506281202973
30
0
41
1
10
44.3915702170823
20
-0.381140289931551
30
0
41
1
10
44.4622034163165
20
-0.400064388878036
30
0
41
1
10
44.5999606816092
20
-0.452324832323484
30
0
41
1
10
44.66636959755
20
-0.485572591321102
30
0
41
1
10
44.7898589332336
20
-0.563677492778112
30
0
41
1
10
44.847988549937
20
-0.60911562570891
30
0
41
1
10
44.9544397459099
20
-0.711213244181096
30
0
41
1
10
45.0017506180478
20
-0.766767520936241
30
0
41
1
10
45.084970414244
20
-0.886488873638683
30
0
41
1
10
45.1210967509322
20
-0.951385951366035
30
0
41
1
10
45.1790365162306
20
-1.08483176318467
30
0
41
1
10
45.2012398709948
20
-1.15369199089267
30
0
41
1
10
45.2322748560839
20
-1.29557149108697
30
0
41
1
10
45.2408446641869
20
-1.36813802695426
30
0
41
1
10
45.2441306016595
20
-1.51146369652963
30
0
41
1
10
45.2389912445375
20
-1.58310811457443
30
0
41
1
10
45.2150604600845
20
-1.72527292468254
30
0
41
1
10
45.1966077539576
20
-1.79400849853982
30
0
41
1
10
45.1473166545295
20
-1.92706646475057
30
0
41
1
10
45.1160913315122
20
-1.99198152635938
30
0
41
1
10
45.0423706745785
20
-2.11404634307363
30
0
41
1
10
45.0001891740271
20
-2.17098287034435
30
0
41
1
10
44.9050666336675
20
-2.27676018773414
30
0
41
1
10
44.8514451981103
20
-2.3260256795788
30
0
41
1
10
44.7367842752814
20
-2.41227095819485
30
0
41
1
10
44.6756086991525
20
-2.44963722880743
30
0
41
1
10
44.5451370752574
20
-2.51243373080737
30
0
41
1
10
44.4753663403494
20
-2.53779062468601
30
0
41
1
10
44.3341848360589
20
-2.57330189974991
30
0
41
1
10
44.2619930389676
20
-2.58393567118429
30
0
41
1
10
44.1142155764639
20
-2.59018779437972
30
0
41
1
10
44.0404768497714
20
-2.58562072607057
30
0
41
1
10
43.8963160028396
20
-2.56187426526961
30
0
41
1
10
43.8245975943891
20
-2.54234843223094
30
0
41
1
10
43.6884993212268
20
-2.4900223731978
30
0
41
1
10
43.6239756476625
20
-2.45741952780963
30
0
41
1
10
43.5016718509156
20
-2.37969461356346
30
0
41
1
10
43.4445852116288
20
-2.33485107055995
30
0
41
1
10
43.3412418656558
20
-2.23636380370195
30
0
41
1
10
43.2941402755115
20
-2.18194884738889
30
0
41
1
10
43.2111850902758
20
-2.06527895670945
30
0
41
1
10
43.1757661691333
20
-2.00382135720633
30
0
41
1
10
43.1166034404685
20
-1.87474230329386
30
0
41
1
10
43.0927561643789
20
-1.80648349615637
30
0
41
1
10
43.0585733800188
20
-1.66746262210404
30
0
41
1
10
43.0480265614343
20
-1.59653020517965
30
0
41
1
10
43.0405585945185
20
-1.45184990727776
30
0
0
SPLINE
5
1D3
100
AcDbEntity
8
1
62
256
6
ByLayer
370
-1
48
1
60
0
100
AcDbSpline
70
4
71
3
72
16
73
12
40
0
40
0
40
0
40
0
40
0.120531440444322
40
0.120531440444322
40
0.296425152355458
40
0.296425152355458
40
0.472318864266594
40
0.472318864266594
40
0.648212576177729
40
0.648212576177729
40
1
40
1
40
1
40
1
41
1
10
25.504833076611
20
-5.06807504806136
30
0
41
1
10
25.0220388387392
20
-5.19255188664786
30
0
41
1
10
24.5395097220151
20
-5.31132475903178
30
0
41
1
10
23.353034808449
20
-5.58812363687088
30
0
41
1
10
22.6491523111459
20
-5.73910745386326
30
0
41
1
10
21.2404269721395
20
-6.01421412097011
30
0
41
1
10
20.5351610614015
20
-6.13833505321418
30
0
41
1
10
19.1246046207702
20
-6.35795678253464
30
0
41
1
10
18.4202478446649
20
-6.45313117444488
30
0
41
1
10
16.3080961616406
20
-6.69229850105026
30
0
41
1
10
14.9009866646367
20
-6.7915371405727
30
0
41
1
10
13.4898364225922
20
-6.82606216081302
30
0
0
SPLINE
5
1D4
100
AcDbEntity
8
1
62
256
6
ByLayer
370
-1
48
1
60
0
100
AcDbSpline
70
4
71
3
72
18
73
14
40
0
40
0
40
0
40
0
40
0.137094693201178
40
0.137094693201178
40
0.309675754560942
40
0.309675754560942
40
0.482256815920707
40
0.482256815920707
40
0.654837877280471
40
0.654837877280471
40
0.827418938640236
40
0.827418938640236
40
1
40
1
40
1
40
1
41
1
10
13.1351137089944
20
-0.295898481198123
30
0
41
1
10
12.879532300798
20
-0.41951148536927
30
0
41
1
10
12.639220119587
20
-0.58827432167277
30
0
41
1
10
12.1506990639617
20
-1.05872705310745
30
0
41
1
10
11.916666123947
20
-1.38340285984774
30
0
41
1
10
11.5514301790336
20
-2.12112641257556
30
0
41
1
10
11.4203068503145
20
-2.53401322425438
30
0
41
1
10
11.2758375207799
20
-3.40127169660804
30
0
41
1
10
11.262523035932
20
-3.85545416494622
30
0
41
1
10
11.3552360287434
20
-4.75370303545481
30
0
41
1
10
11.4612432810739
20
-5.19757348473678
30
0
41
1
10
11.780603838946
20
-6.02474686655378
30
0
41
1
10
11.9938874760183
20
-6.40786935131013
30
0
41
1
10
12.2487474464468
20
-6.73892342397826
30
0
0
SPLINE
5
1D5
100
AcDbEntity
8
1
62
256
6
ByLayer
370
-1
48
1
60
0
100
AcDbSpline
70
4
71
3
72
14
73
10
40
0
40
0
40
0
40
0
40
0.5
40
0.5
40
0.75
40
0.75
40
0.875
40
0.875
40
1
40
1
40
1
40
1
41
1
10
14
20
-0.675321379515481
30
0
41
1
10
13.5839573416012
20
-0.463083225648887
30
0
41
1
10
13.1597900676372
20
-0.29473914622082
30
0
41
1
10
12.5215682503006
20
-0.0992823818822899
30
0
41
1
10
12.3143874101094
20
-0.0452813173936306
30
0
41
1
10
12.0152188225632
20
0.0228202781738389
30
0
41
1
10
11.9173394230242
20
0.0433955525209342
30
0
41
1
10
11.7255793414336
20
0.0809651893071077
30
0
41
1
10
11.6323297933193
20
0.0977015199756579
30
0
41
1
10
11.5388875649517
20
0.113968309156291
30
0
0
SPLINE
5
1D6
100
AcDbEntity
8
1
62
256
6
ByLayer
370
-1
48
1
60
0
100
AcDbSpline
70
4
71
3
72
8
73
4
40
0
40
0
40
0
40
0
40
1
40
1
40
1
40
1
41
1
10
7.03891761288816
20
-6.49782714780565
30
0
41
1
10
7.15909137928651
20
-6.60643895495573
30
0
41
1
10
7.28157238184781
20
-6.7014289875502
30
0
41
1
10
7.405878894105
20
-6.78566435704994
30
0
0
SPLINE
5
1D7
100
AcDbEntity
8
1
62
256
6
ByLayer
370
-1
48
1
60
0
100
AcDbSpline
70
4
71
3
72
24
73
20
40
0
40
0
40
0
40
0
40
0.0052924630237521
40
0.0168225975867333
40
0.0283527321497145
40
0.0398828667126879
40
0.0629431358386477
40
0.0744732704016237
40
0.109063674090562
40
0.155184212342474
40
0.247425288846305
40
0.431907441853963
40
0.616389594861621
40
0.800871747869278
40
0.893112824373106
40
0.979588833595452
40
0.985353900876936
40
0.996884035439915
40
1
40
1
40
1
40
1
41
1
10
46.1818945449386
20
7.46473009100561
30
0
41
1
10
46.1815571407258
20
7.46474243045543
30
0
41
1
10
46.1804803712059
20
7.46478123607872
30
0
41
1
10
46.1786423061906
20
7.4648454063595
30
0
41
1
10
46.176359990604
20
7.46492527161078
30
0
41
1
10
46.1732784126872
20
7.46503328131936
30
0
41
1
10
46.1701611067663
20
7.46514270445002
30
0
41
1
10
46.1654975789713
20
7.46530634736448
30
0
41
1
10
46.1593000123656
20
7.46552372809319
30
0
41
1
10
46.1477307056812
20
7.46592929419717
30
0
41
1
10
46.1262298560777
20
7.46668258516715
30
0
41
1
10
46.0953953056009
20
7.46776342485759
30
0
41
1
10
46.0583308681901
20
7.46906292388903
30
0
41
1
10
46.0274976103414
20
7.47014371244231
30
0
41
1
10
46.0032101251723
20
7.47099652423941
30
0
41
1
10
45.9908729438967
20
7.47142846942583
30
0
41
1
10
45.9839334584576
20
7.4716705962818
30
0
41
1
10
45.9825685113848
20
7.4717181889043
30
0
41
1
10
45.981589086118
20
7.47175173154355
30
0
41
1
10
45.9813807126958
20
7.47175883306178
30
0
0
SPLINE
5
1D8
100
AcDbEntity
8
1
62
256
6
ByLayer
370
-1
48
1
60
0
100
AcDbSpline
70
4
71
3
72
14
73
10
40
0
40
0
40
0
40
0
40
0.0403466864446331
40
0.150922708497136
40
0.261498730549639
40
0.372074752602142
40
0.593226796707148
40
0.814378840812154
40
1
40
1
40
1
40
1
41
1
10
42.4591651660954
20
2.36870088377341
30
0
41
1
10
42.4597278456012
20
2.36868170724537
30
0
41
1
10
42.4618326372509
20
2.36861092095231
30
0
41
1
10
42.4654796245611
20
2.36849783887485
30
0
41
1
10
42.4701074072296
20
2.36838555640418
30
0
41
1
10
42.4762790769597
20
2.36827407657728
30
0
41
1
10
42.4839951542645
20
2.36820016613572
30
0
41
1
10
42.4927589613982
20
2.36821763889049
30
0
41
1
10
42.498435319488
20
2.36829075973657
30
0
41
1
10
42.5010253020792
20
2.36833672785079
30
0
0
SPLINE
5
1D9
100
AcDbEntity
8
1
62
256
6
ByLayer
370
-1
48
1
60
0
100
AcDbSpline
70
4
71
1
72
4
73
2
40
0
40
0
40
1
40
1
41
1
10
46.6364532636389
20
6.81985815976029
30
0
41
1
10
46.6369339312517
20
6.8060410620285
30
0
0
SPLINE
5
1DA
100
AcDbEntity
8
1
62
256
6
ByLayer
370
-1
48
1
60
0
100
AcDbSpline
70
4
71
3
72
25
73
21
40
0
40
0
40
0
40
0
40
0.0031159645604536
40
0.0146460991234265
40
0.020411166404913
40
0.0607666373753182
40
0.10688717562721
40
0.199128252130993
40
0.291369328634776
40
0.38361040513856
40
0.752574711153693
40
0.844815787657477
40
0.931291796879774
40
0.93705686416126
40
0.948586998724233
40
0.960117133287206
40
0.977412335131665
40
0.983177402413152
40
0.994707536976125
40
1
40
1
40
1
40
1
41
1
10
46.1543991174135
20
2.49823421021981
30
0
41
1
10
46.1546064897568
20
2.49825588535711
30
0
41
1
10
46.1555811982803
20
2.49835792851715
30
0
41
1
10
46.1569395131503
20
2.49850098280268
30
0
41
1
10
46.1607760440153
20
2.49890512733884
30
0
41
1
10
46.1669145467589
20
2.49955213761703
30
0
41
1
10
46.1788078319477
20
2.50080671215542
30
0
41
1
10
46.1941532664279
20
2.502426658388
30
0
41
1
10
46.2125646580093
20
2.50436951325253
30
0
41
1
10
46.24940035973
20
2.50825590861408
30
0
41
1
10
46.2863163032141
20
2.51215113521104
30
0
41
1
10
46.3226133054769
20
2.51597998895676
30
0
41
1
10
46.3349095587839
20
2.51727740056762
30
0
41
1
10
46.3418738443832
20
2.51801243809712
30
0
41
1
10
46.3438109445422
20
2.51821689873961
30
0
41
1
10
46.3465149227512
20
2.51850226735709
30
0
41
1
10
46.3488104041386
20
2.51874442418003
30
0
41
1
10
46.35107169396
20
2.51898281795297
30
0
41
1
10
46.3525288987659
20
2.51913635200455
30
0
41
1
10
46.3536003486866
20
2.51925046165832
30
0
41
1
10
46.3539360735187
20
2.51928639708217
30
0
0
SPLINE
5
1DB
100
AcDbEntity
8
1
62
256
6
ByLayer
370
-1
48
1
60
0
100
AcDbSpline
70
4
71
3
72
14
73
10
40
0
40
0
40
0
40
0
40
0.0403466864445442
40
0.150922708497062
40
0.261498730549579
40
0.372074752602097
40
0.593226796707132
40
0.814378840812167
40
1
40
1
40
1
40
1
41
1
10
46.7620925759636
20
3.15239493952711
30
0
41
1
10
46.7621116795191
20
3.15295976837717
30
0
41
1
10
46.762182196449
20
3.1550725999891
30
0
41
1
10
46.762294848215
20
3.15873351819826
30
0
41
1
10
46.762406703417
20
3.16337897824477
30
0
41
1
10
46.7625177590295
20
3.16957422275055
30
0
41
1
10
46.7625913882195
20
3.17731977421718
30
0
41
1
10
46.7625739819539
20
3.18611705767037
30
0
41
1
10
46.7625011393547
20
3.19181509852598
30
0
41
1
10
46.762455346163
20
3.19441497442986
30
0
0
SPLINE
5
1DC
100
AcDbEntity
8
1
62
256
6
ByLayer
370
-1
48
1
60
0
100
AcDbSpline
70
4
71
1
72
4
73
2
40
0
40
0
40
1
40
1
41
1
10
41.8036119475395
20
3.03441865480673
30
0
41
1
10
41.7410318990935
20
4.83332214344111
30
0
0
SPLINE
5
1DD
100
AcDbEntity
8
1
62
256
6
ByLayer
370
-1
48
1
60
0
100
AcDbSpline
70
4
71
3
72
20
73
16
40
0
40
0
40
0
40
0
40
0.0011113171583017
40
0.0024035405513698
40
0.003695763944438
40
0.0049879873375062
40
0.0075724341236425
40
0.0080893234808696
40
0.008606212838097
40
0.0088630422374693
40
0.090791620637233
40
0.172977028436369
40
0.338381622749095
40
0.669190811374548
40
1
40
1
40
1
40
1
41
1
10
42.7906888831785
20
6.70255276237225
30
0
41
1
10
42.7911902719349
20
6.70257033950048
30
0
41
1
10
42.792274667667
20
6.70260835502648
30
0
41
1
10
42.7939420686436
20
6.7026668088555
30
0
41
1
10
42.7956910858564
20
6.7027281238455
30
0
41
1
10
42.7980231053871
20
6.70280987697836
30
0
41
1
10
42.8000053173563
20
6.7028793668878
30
0
41
1
10
42.8016377238041
20
6.70293659368548
30
0
41
1
10
42.8022199969495
20
6.70295700625766
30
0
41
1
10
42.8395320990398
20
6.70426504486861
30
0
41
1
10
42.9136858178142
20
6.70686454809203
30
0
41
1
10
43.06233251066
20
6.71207522592385
30
0
41
1
10
43.3232336253996
20
6.72122056271479
30
0
41
1
10
43.6963140027832
20
6.73429872449043
30
0
41
1
10
43.9947725263438
20
6.74476093767433
30
0
41
1
10
44.1440017881241
20
6.74999204426629
30
0
0
SPLINE
5
1DE
100
AcDbEntity
8
1
62
256
6
ByLayer
370
-1
48
1
60
0
100
AcDbSpline
70
4
71
1
72
4
73
2
40
0
40
0
40
1
40
1
41
1
10
41.7410318990935
20
4.83332214344108
30
0
41
1
10
41.6784518506475
20
6.63222563207546
30
0
0
SPLINE
5
1DF
100
AcDbEntity
8
1
62
256
6
ByLayer
370
-1
48
1
60
0
100
AcDbSpline
70
4
71
1
72
4
73
2
40
0
40
0
40
1
40
1
41
1
10
46.6369339312517
20
6.8060410620285
30
0
41
1
10
46.6995139796977
20
5.00713757339412
30
0
0
SPLINE
5
1E0
100
AcDbEntity
8
1
62
256
6
ByLayer
370
-1
48
1
60
0
100
AcDbSpline
70
4
71
3
72
150
73
146
40
0
40
0
40
0
40
0
40
0.200919836739823
40
0.401839673479645
40
0.452069632664601
40
0.502299591849557
40
0.552215613789606
40
0.577173624759631
40
0.601975648161093
40
0.602131635729656
40
0.602445572974562
40
0.602759510219468
40
0.604329196443998
40
0.605114039556263
40
0.605898882668528
40
0.607468568893057
40
0.608253412005322
40
0.609038255117587
40
0.60943067667372
40
0.612177627566647
40
0.615317000015707
40
0.618456372464767
40
0.621595744913826
40
0.623165431138356
40
0.624735117362886
40
0.626304803587416
40
0.627089646699681
40
0.627874489811946
40
0.628266911368078
40
0.634153234710065
40
0.640431979608185
40
0.652989469404424
40
0.665546959200663
40
0.678104448996901
40
0.684383193895021
40
0.687522566344081
40
0.689877095680876
40
0.69066193879314
40
0.69223162501767
40
0.693016468129935
40
0.6938013112422
40
0.694586154354465
40
0.69537099746673
40
0.696155840578995
40
0.69694068369126
40
0.697333105247392
40
0.69851036991579
40
0.70008005614032
40
0.701649742364849
40
0.703219428589379
40
0.709498173487499
40
0.715776918385618
40
0.728334408181857
40
0.734613153079977
40
0.739322211753566
40
0.740891897978096
40
0.744031270427156
40
0.745600956651686
40
0.746385799763951
40
0.747170642876215
40
0.74795548598848
40
0.748740329100746
40
0.74952517221301
40
0.750310015325275
40
0.75109485843754
40
0.751487279993673
40
0.751879701549805
40
0.752272123105938
40
0.75266454466207
40
0.753056966218203
40
0.753449387774335
40
0.756588760223395
40
0.759728132672454
40
0.762867505121514
40
0.766006877570574
40
0.772285622468694
40
0.775424994917753
40
0.778564367366813
40
0.784843112264932
40
0.787982484713992
40
0.791121857163052
40
0.797400602061171
40
0.800539974510231
40
0.803679346959291
40
0.80995809185741
40
0.81623683675553
40
0.822515581653649
40
0.828794326551769
40
0.835073071449888
40
0.841351816348007
40
0.847630561246127
40
0.853909306144246
40
0.854694149256511
40
0.855086570812644
40
0.855478992368776
40
0.856263835481041
40
0.856656257037174
40
0.857048678593306
40
0.857244889371372
40
0.858618364817836
40
0.859403207930101
40
0.860188051042366
40
0.860580472598498
40
0.863327423491426
40
0.864897109715955
40
0.866466795940485
40
0.872745540838605
40
0.879024285736724
40
0.891581775532963
40
0.904139265329202
40
0.905708951553732
40
0.907278637778262
40
0.908848324002792
40
0.909633167115056
40
0.910418010227321
40
0.911202853339586
40
0.911987696451851
40
0.912772539564116
40
0.913557382676381
40
0.913949804232514
40
0.915127068900911
40
0.915911912013176
40
0.916696755125441
40
0.917089176681573
40
0.92297550002356
40
0.92925424492168
40
0.954369224514158
40
0.960647969412277
40
0.966926714310397
40
0.973205459208516
40
0.976344831657576
40
0.979091782550503
40
0.979484204106636
40
0.9802690472189
40
0.981053890331165
40
0.98183873344343
40
0.982623576555695
40
0.984193262780225
40
0.985762949004755
40
0.992041693902874
40
0.995181066351934
40
0.997535595688729
40
0.998320438800994
40
0.999890125025524
40
1
40
1
40
1
40
1
41
1
10
44.271308902662
20
3.09046767256893
30
0
41
1
10
44.1220796408817
20
3.08523656597697
30
0
41
1
10
43.823621117321
20
3.07477435279307
30
0
41
1
10
43.4878487687885
20
3.06300426266691
30
0
41
1
10
43.26401626779
20
3.05515777829396
30
0
41
1
10
43.1523324162013
20
3.05124269782001
30
0
41
1
10
43.0594141157662
20
3.04798552018207
30
0
41
1
10
42.9853776514721
20
3.04539031323841
30
0
41
1
10
42.9482997659451
20
3.04409065255877
30
0
41
1
10
42.9295271112885
20
3.04343264027691
30
0
41
1
10
42.9289448380405
20
3.04341223065217
30
0
41
1
10
42.9273124313037
20
3.04335501216229
30
0
41
1
10
42.9253302189779
20
3.0432855325036
30
0
41
1
10
42.9229981990203
20
3.04320379164457
30
0
41
1
10
42.9206661756381
20
3.04312205073279
30
0
41
1
10
42.9183341474389
20
3.0430403097468
30
0
41
1
10
42.9160021150621
20
3.04295856869643
30
0
41
1
10
42.9145445932192
20
3.0429074805152
30
0
41
1
10
42.9116295473222
20
3.04280530411864
30
0
41
1
10
42.9069654648785
20
3.04264182174538
30
0
41
1
10
42.9002608301298
20
3.04240681558363
30
0
41
1
10
42.8932646816838
20
3.0421615916419
30
0
41
1
10
42.8874345599735
20
3.04195723838788
30
0
41
1
10
42.8827704689186
20
3.04179375588191
30
0
41
1
10
42.8792724050631
20
3.04167114407079
30
0
41
1
10
42.8763573566125
20
3.0415689676349
30
0
41
1
10
42.874025321349
20
3.04148722654006
30
0
41
1
10
42.8725678008996
20
3.04143613838028
30
0
41
1
10
42.8673207319352
20
3.0412522210768
30
0
41
1
10
42.8579926551596
20
3.0409252576878
30
0
41
1
10
42.8396282763954
20
3.04028155271249
30
0
41
1
10
42.8163091705683
20
3.03946416097406
30
0
41
1
10
42.7883280828206
20
3.03848331922575
30
0
41
1
10
42.7650125881418
20
3.03766598312538
30
0
41
1
10
42.7486931195635
20
3.03709386908173
30
0
41
1
10
42.7399509545092
20
3.03678738569241
30
0
41
1
10
42.7352885991955
20
3.03662392992953
30
0
41
1
10
42.7317918915067
20
3.03650133901328
30
0
41
1
10
42.7294607827655
20
3.03641961219367
30
0
41
1
10
42.727129704382
20
3.03633788584176
30
0
41
1
10
42.725381410933
20
3.03627659131416
30
0
41
1
10
42.7236331329826
20
3.03621529702537
30
0
41
1
10
42.7218848706906
20
3.03615400297781
30
0
41
1
10
42.7201366242169
20
3.036092709174
30
0
41
1
10
42.7186797654707
20
3.03604163120929
30
0
41
1
10
42.7169315470789
20
3.03598033783811
30
0
41
1
10
42.7146006108472
20
3.03589861367641
30
0
41
1
10
42.7113956263308
20
3.03578624376757
30
0
41
1
10
42.7078993466963
20
3.0356636594465
30
0
41
1
10
42.7009069242066
20
3.0354184929117
30
0
41
1
10
42.6904188129875
20
3.0350507511601
30
0
41
1
10
42.6717706275866
20
3.03439694714984
30
0
41
1
10
42.6531122497526
20
3.03374298610166
30
0
41
1
10
42.6355988196595
20
3.03312957097063
30
0
41
1
10
42.6262753679675
20
3.0328026788417
30
0
41
1
10
42.6192976825542
20
3.03255773936559
30
0
41
1
10
42.6146546103949
20
3.03239458070416
30
0
41
1
10
42.6105728513761
20
3.03225152304458
30
0
41
1
10
42.6082311546525
20
3.03216963309268
30
0
41
1
10
42.6064692970666
20
3.03210812957826
30
0
41
1
10
42.6047009008935
20
3.03204652532187
30
0
41
1
10
42.6029377764563
20
3.03198500228871
30
0
41
1
10
42.6011917340782
20
3.03192374244404
30
0
41
1
10
42.5994745840824
20
3.03186292775314
30
0
41
1
10
42.5980775446737
20
3.03181277144324
30
0
41
1
10
42.5969804970804
20
3.03177790115336
30
0
41
1
10
42.5961680614974
20
3.03175561111456
30
0
41
1
10
42.5953660341717
20
3.03173841905405
30
0
41
1
10
42.5945699307869
20
3.0317259647008
30
0
41
1
10
42.5937752670264
20
3.03171788778386
30
0
41
1
10
42.5911252615893
20
3.03170534985941
30
0
41
1
10
42.5865663105225
20
3.03179250328168
30
0
41
1
10
42.5800271026633
20
3.03220130706137
30
0
41
1
10
42.573417194911
20
3.03290940500423
30
0
41
1
10
42.5645312435628
20
3.03426825452866
30
0
41
1
10
42.5555684689662
20
3.03627267252861
30
0
41
1
10
42.5466231409083
20
3.03894411090087
30
0
41
1
10
42.5377208671386
20
3.04206738015358
30
0
41
1
10
42.5289303096948
20
3.04587912167537
30
0
41
1
10
42.5203544785563
20
3.05036259345491
30
0
41
1
10
42.5119561349479
20
3.05528830473588
30
0
41
1
10
42.5038755276242
20
3.06086900426331
30
0
41
1
10
42.4962050433706
20
3.06704766504575
30
0
41
1
10
42.4888387700922
20
3.07360595766775
30
0
41
1
10
42.4802590658134
20
3.08247999127474
30
0
41
1
10
42.4710946727429
20
3.09403362857677
30
0
41
1
10
42.4631877640896
20
3.10631499129889
30
0
41
1
10
42.4565859864302
20
3.11912011201807
30
0
41
1
10
42.4513369863413
20
3.13224502331127
30
0
41
1
10
42.4474112792608
20
3.14549793362349
30
0
41
1
10
42.4447793806269
20
3.15868705139971
30
0
41
1
10
42.4437718078649
20
3.16788790494104
30
0
41
1
10
42.4434581100968
20
3.1729257297979
30
0
41
1
10
42.4434005679275
20
3.17398981842015
30
0
41
1
10
42.4433487523567
20
3.17506225713512
30
0
41
1
10
42.4433056171146
20
3.17615625221262
30
0
41
1
10
42.4432662680204
20
3.17727122607147
30
0
41
1
10
42.4432422327771
20
3.17797670556268
30
0
41
1
10
42.4431934697697
20
3.17940041529528
30
0
41
1
10
42.4431328988482
20
3.18114670956194
30
0
41
1
10
42.4430555866973
20
3.18335900909656
30
0
41
1
10
42.4430038060794
20
3.1848382793265
30
0
41
1
10
42.4429006898369
20
3.18778862653332
30
0
41
1
10
42.4427782704926
20
3.1913047365307
30
0
41
1
10
42.4426262660883
20
3.1956810978225
30
0
41
1
10
42.4423834150361
20
3.20267672128691
30
0
41
1
10
42.4420173584849
20
3.21320292949582
30
0
41
1
10
42.4413644701782
20
3.23195524248843
30
0
41
1
10
42.4405498988421
20
3.25536729665995
30
0
41
1
10
42.4398582993557
20
3.27525306805887
30
0
41
1
10
42.4394514192316
20
3.28695162823692
30
0
41
1
10
42.4393293514708
20
3.29046126484749
30
0
41
1
10
42.439227625292
20
3.29338601808544
30
0
41
1
10
42.4391462425569
20
3.29572585367214
30
0
41
1
10
42.4390852046182
20
3.29748074670007
30
0
41
1
10
42.4390241658008
20
3.29923565590565
30
0
41
1
10
42.4389631261135
20
3.30099058112856
30
0
41
1
10
42.438902085565
20
3.30274552220857
30
0
41
1
10
42.4388512177307
20
3.30420798618923
30
0
41
1
10
42.4387901756968
20
3.30596295461842
30
0
41
1
10
42.4387291328234
20
3.307717938504
30
0
41
1
10
42.4386579149326
20
3.3097654418938
30
0
41
1
10
42.4386070443292
20
3.3112279568615
30
0
41
1
10
42.4384239083366
20
3.31649304425989
30
0
41
1
10
42.4380983160728
20
3.32585351569409
30
0
41
1
10
42.4371316233136
20
3.35364408571829
30
0
41
1
10
42.4361545405299
20
3.38173113397673
30
0
41
1
10
42.4351773325736
20
3.40982048692234
30
0
41
1
10
42.434688708018
20
3.42386554227102
30
0
41
1
10
42.4342815074543
20
3.43557000240688
30
0
41
1
10
42.433965921368
20
3.44464106303303
30
0
41
1
10
42.4338030367524
20
3.44932292791964
30
0
41
1
10
42.4337012334777
20
3.4522491006519
30
0
41
1
10
42.43365033177
20
3.45371218831383
30
0
41
1
10
42.4335892496169
20
3.45546789542118
30
0
41
1
10
42.4335281673686
20
3.4572236042813
30
0
41
1
10
42.4334467242555
20
3.45956455155138
30
0
41
1
10
42.4333449201697
20
3.46249073921948
30
0
41
1
10
42.4331005898807
20
3.46951359851607
30
0
41
1
10
42.4328155368744
20
3.47770695282082
30
0
41
1
10
42.4325101237393
20
3.48648553198507
30
0
41
1
10
42.4323472373078
20
3.49116743030521
30
0
41
1
10
42.4322250728346
20
3.49467884759307
30
0
41
1
10
42.4321611403243
20
3.49651648424023
30
0
41
1
10
42.4321175685981
20
3.49776888396124
30
0
41
1
10
42.432114718186
20
3.49785081451301
30
0
0
SPLINE
5
1E1
100
AcDbEntity
8
1
62
256
6
ByLayer
370
-1
48
1
60
0
100
AcDbSpline
70
4
71
3
72
24
73
20
40
0
40
0
40
0
40
0
40
0.0052924630238016
40
0.0168225975867821
40
0.0283527321497627
40
0.0398828667127354
40
0.0629431358386938
40
0.0744732704016691
40
0.109063674090605
40
0.155184212342515
40
0.247425288846341
40
0.431907441853987
40
0.616389594861634
40
0.800871747869281
40
0.893112824373103
40
0.979588833595444
40
0.985353900876928
40
0.996884035439906
40
1
40
1
40
1
40
1
41
1
10
46.755090580393
20
2.95111517701983
30
0
41
1
10
46.7551028728874
20
2.95145387006201
30
0
41
1
10
46.7551415308436
20
2.95253475266645
30
0
41
1
10
46.7552054569371
20
2.95437983879154
30
0
41
1
10
46.755285018277
20
2.95667087245295
30
0
41
1
10
46.7553926169761
20
2.9597642214967
30
0
41
1
10
46.7555016237187
20
2.96289343501985
30
0
41
1
10
46.7556646439224
20
2.96757477673344
30
0
41
1
10
46.7558811974518
20
2.97379601703668
30
0
41
1
10
46.7562852202543
20
2.98540951659314
30
0
41
1
10
46.7570356447247
20
3.00699249594916
30
0
41
1
10
46.7581123714938
20
3.03794482939955
30
0
41
1
10
46.7594069255391
20
3.07515084693981
30
0
41
1
10
46.7604836013657
20
3.10610188282448
30
0
41
1
10
46.7613331679564
20
3.13048214224125
30
0
41
1
10
46.761763469461
20
3.14286644954504
30
0
41
1
10
46.7620046749512
20
3.14983244269115
30
0
41
1
10
46.7620520864694
20
3.15120260364006
30
0
41
1
10
46.7620855014688
20
3.15218577015219
30
0
41
1
10
46.7620925759636
20
3.15239493952703
30
0
0
SPLINE
5
1E2
100
AcDbEntity
8
1
62
256
6
ByLayer
370
-1
48
1
60
0
100
AcDbSpline
70
4
71
3
72
83
73
79
40
0
40
0
40
0
40
0
40
0.0019524496734453
40
0.0055614898932025
40
0.0091705301129596
40
0.0127795703327168
40
0.016388610552474
40
0.0236066909919884
40
0.0308247714315027
40
0.0380428518710171
40
0.0957874953871319
40
0.153532138903247
40
0.182404460661304
40
0.211276782419362
40
0.218494862858876
40
0.22571294329839
40
0.23834458406754
40
0.240149104177419
40
0.243758144397176
40
0.247367184616933
40
0.253683005001508
40
0.254585265056448
40
0.256389785166326
40
0.258194305276205
40
0.261803345495962
40
0.263607865605841
40
0.265412385715719
40
0.269021425935476
40
0.297893747693534
40
0.326766069451591
40
0.355638391209649
40
0.384510712967706
40
0.413383034725763
40
0.442255356483821
40
0.471127678241878
40
0.499999999999936
40
0.514436160878965
40
0.528872321757994
40
0.557744643516051
40
0.57218080439508
40
0.586616965274108
40
0.615489287032166
40
0.629925447911195
40
0.644361608790222
40
0.673233930548281
40
0.687670091427308
40
0.702106252306338
40
0.716542413185365
40
0.730978574064395
40
0.732783094174272
40
0.734587614284153
40
0.736392134394031
40
0.73819665450391
40
0.740001174613788
40
0.741805694723667
40
0.745414734943424
40
0.749023775163181
40
0.752632815382938
40
0.756241855602696
40
0.759850895822453
40
0.76345993604221
40
0.767068976261967
40
0.77428705670148
40
0.78872321758051
40
0.795941298020023
40
0.817595539338568
40
0.846467861096625
40
0.90421250461274
40
0.933084826370797
40
0.961957148128855
40
0.969175228568369
40
0.976393309007884
40
0.983611389447398
40
0.989024949777034
40
0.990829469886912
40
0.99443851010667
40
0.998047550326427
40
1
40
1
40
1
40
1
41
1
10
46.3539360735187
20
2.51928639708217
30
0
41
1
10
46.3543317571958
20
2.51932875040038
30
0
41
1
10
46.355453476032
20
2.51944953500728
30
0
41
1
10
46.357278118163
20
2.51965067499995
30
0
41
1
10
46.3594101679733
20
2.51989499450534
30
0
41
1
10
46.3615361214003
20
2.52014997902751
30
0
41
1
10
46.3643658255837
20
2.52050418967633
30
0
41
1
10
46.3678998203237
20
2.52097365776777
30
0
41
1
10
46.3721549659795
20
2.52157981470779
30
0
41
1
10
46.3863757338297
20
2.52374434098354
30
0
41
1
10
46.4107503836634
20
2.52853600535977
30
0
41
1
10
46.4395754220269
20
2.53662371881856
30
0
41
1
10
46.4625456612089
20
2.5446148149141
30
0
41
1
10
46.4753965830017
20
2.5496842601502
30
0
41
1
10
46.4839196959976
20
2.55330495712701
30
0
41
1
10
46.4892346187766
20
2.5556281079445
30
0
41
1
10
46.4934722529988
20
2.55755280867854
30
0
41
1
10
46.4969938015
20
2.55919677501547
30
0
41
1
10
46.4987527050975
20
2.56002626577313
30
0
41
1
10
46.5013871965883
20
2.56128551065072
30
0
41
1
10
46.5034904046261
20
2.56230940908708
30
0
41
1
10
46.5052402772887
20
2.56317265180985
30
0
41
1
10
46.5061146846571
20
2.56360614684993
30
0
41
1
10
46.507512591646
20
2.56430373523693
30
0
41
1
10
46.5089087569139
20
2.56500731682078
30
0
41
1
10
46.5103031314213
20
2.56571688902665
30
0
41
1
10
46.5116962957418
20
2.56643045412218
30
0
41
1
10
46.5183050872128
20
2.56984833154968
30
0
41
1
10
46.5300350147984
20
2.57626979234414
30
0
41
1
10
46.5463026213226
20
2.58609017464491
30
0
41
1
10
46.5622274168703
20
2.5966539976863
30
0
41
1
10
46.5777604543801
20
2.60794107029537
30
0
41
1
10
46.5928527867908
20
2.61993120129915
30
0
41
1
10
46.6074589517224
20
2.63259567877066
30
0
41
1
10
46.6215334867943
20
2.64590579078293
30
0
41
1
10
46.6327857538596
20
2.65750526459414
30
0
41
1
10
46.6414815678481
20
2.66707128293393
30
0
41
1
10
46.6499678240395
20
2.67682113120577
30
0
41
1
10
46.6581314065034
20
2.68683602998303
30
0
41
1
10
46.6659556411763
20
2.69709459048028
30
0
41
1
10
46.6735494170385
20
2.70750767083834
30
0
41
1
10
46.6807911642599
20
2.718140649059
30
0
41
1
10
46.6876682019909
20
2.72896976128476
30
0
41
1
10
46.6942993249002
20
2.73992122571261
30
0
41
1
10
46.7005574128352
20
2.75104361274157
30
0
41
1
10
46.7064341403122
20
2.76231171096762
30
0
41
1
10
46.7106500363109
20
2.77082921762295
30
0
41
1
10
46.7146733133206
20
2.7794067346513
30
0
41
1
10
46.7173860094412
20
2.7855204338766
30
0
41
1
10
46.7189361135691
20
2.78912778186998
30
0
41
1
10
46.7193981050581
20
2.79021071090173
30
0
41
1
10
46.7198570570133
20
2.79129435224559
30
0
41
1
10
46.7203129696502
20
2.79237869357982
30
0
41
1
10
46.7207658431842
20
2.7934637225828
30
0
41
1
10
46.7213656227132
20
2.7949113283828
30
0
41
1
10
46.7221077504447
20
2.79672249319623
30
0
41
1
10
46.7229861507592
20
2.7988984445004
30
0
41
1
10
46.7238523998342
20
2.80107685075919
30
0
41
1
10
46.7247064993938
20
2.80325761339921
30
0
41
1
10
46.725548451162
20
2.80544063384701
30
0
41
1
10
46.7263782568627
20
2.8076258135292
30
0
41
1
10
46.7274684720056
20
2.81054213398676
30
0
41
1
10
46.7293338493373
20
2.81565256209387
30
0
41
1
10
46.7313685957724
20
2.82150717088484
30
0
41
1
10
46.7342751281172
20
2.83030553183585
30
0
41
1
10
46.7378924164628
20
2.84206192811007
30
0
41
1
10
46.7438352035014
20
2.8641487197016
30
0
41
1
10
46.7486564658544
20
2.88769178461283
30
0
41
1
10
46.7520228495756
20
2.91104277749011
30
0
41
1
10
46.753386913178
20
2.9240764773385
30
0
41
1
10
46.7540823409986
20
2.93271126045516
30
0
41
1
10
46.7543878964232
20
2.93701453853191
30
0
41
1
10
46.7546299221229
20
2.94094329957386
30
0
41
1
10
46.7547809675414
20
2.94380177216837
30
0
41
1
10
46.7548833080365
20
2.94594977491801
30
0
41
1
10
46.7549617018981
20
2.94774312771523
30
0
41
1
10
46.7550343077891
20
2.94958430878467
30
0
41
1
10
46.7550760925179
20
2.95071599502464
30
0
41
1
10
46.755090580393
20
2.95111517701991
30
0
0
SPLINE
5
1E3
100
AcDbEntity
8
1
62
256
6
ByLayer
370
-1
48
1
60
0
100
AcDbSpline
70
4
71
3
72
150
73
146
40
0
40
0
40
0
40
0
40
0.200919836739822
40
0.401839673479644
40
0.4520696326646
40
0.502299591849555
40
0.552215613789605
40
0.57717362475963
40
0.601975648161092
40
0.602131635729655
40
0.602445572974561
40
0.602759510219467
40
0.604329196443996
40
0.605114039556261
40
0.605898882668526
40
0.607468568893056
40
0.608253412005321
40
0.609038255117586
40
0.609430676673719
40
0.612177627566646
40
0.615317000015705
40
0.618456372464765
40
0.621595744913825
40
0.623165431138355
40
0.624735117362885
40
0.626304803587414
40
0.627089646699679
40
0.627874489811944
40
0.628266911368076
40
0.634153234710064
40
0.640431979608183
40
0.652989469404422
40
0.665546959200661
40
0.6781044489969
40
0.684383193895019
40
0.687522566344079
40
0.689877095680874
40
0.690661938793139
40
0.692231625017669
40
0.693016468129933
40
0.693801311242198
40
0.694586154354464
40
0.695370997466728
40
0.696155840578993
40
0.696940683691258
40
0.697333105247391
40
0.698510369915788
40
0.700080056140318
40
0.701649742364848
40
0.703219428589378
40
0.709498173487497
40
0.715776918385616
40
0.728334408181855
40
0.734613153079975
40
0.739322211753565
40
0.740891897978094
40
0.744031270427154
40
0.745600956651684
40
0.746385799763949
40
0.747170642876214
40
0.747955485988478
40
0.748740329100744
40
0.749525172213008
40
0.750310015325273
40
0.751094858437538
40
0.751487279993671
40
0.751879701549803
40
0.752272123105936
40
0.752664544662068
40
0.753056966218201
40
0.753449387774333
40
0.756588760223393
40
0.759728132672453
40
0.762867505121512
40
0.766006877570572
40
0.772285622468692
40
0.775424994917751
40
0.778564367366811
40
0.78484311226493
40
0.78798248471399
40
0.79112185716305
40
0.797400602061169
40
0.800539974510229
40
0.803679346959289
40
0.809958091857408
40
0.816236836755528
40
0.822515581653647
40
0.828794326551766
40
0.835073071449886
40
0.841351816348005
40
0.847630561246125
40
0.853909306144244
40
0.854694149256509
40
0.855086570812642
40
0.855478992368774
40
0.856263835481039
40
0.856656257037171
40
0.857048678593304
40
0.85724488937137
40
0.858618364817834
40
0.859403207930099
40
0.860188051042364
40
0.860580472598496
40
0.863327423491423
40
0.864897109715953
40
0.866466795940483
40
0.872745540838603
40
0.879024285736722
40
0.891581775532961
40
0.9041392653292
40
0.90570895155373
40
0.907278637778259
40
0.908848324002789
40
0.909633167115054
40
0.910418010227319
40
0.911202853339584
40
0.911987696451849
40
0.912772539564114
40
0.913557382676379
40
0.913949804232511
40
0.915127068900909
40
0.915911912013174
40
0.916696755125439
40
0.917089176681571
40
0.922975500023558
40
0.929254244921678
40
0.954369224514155
40
0.960647969412275
40
0.966926714310394
40
0.973205459208514
40
0.976344831657573
40
0.979091782550501
40
0.979484204106633
40
0.980269047218898
40
0.981053890331163
40
0.981838733443428
40
0.982623576555693
40
0.984193262780223
40
0.985762949004752
40
0.992041693902872
40
0.995181066351932
40
0.997535595688726
40
0.998320438800991
40
0.999890125025521
40
1
40
1
40
1
40
1
41
1
10
46.0304547337043
20
4.98412656193435
30
0
41
1
10
46.0356659343563
20
4.83432726861733
30
0
41
1
10
46.0460883356604
20
4.53472868198327
30
0
41
1
10
46.0578136370402
20
4.19767373762778
30
0
41
1
10
46.0656302631712
20
3.97298623283851
30
0
41
1
10
46.069530445582
20
3.86087576708053
30
0
41
1
10
46.0727752286756
20
3.76760253383301
30
0
41
1
10
46.0753605600733
20
3.69328326227301
30
0
41
1
10
46.0766552751517
20
3.65606374524685
30
0
41
1
10
46.0773107834982
20
3.63721938209912
30
0
41
1
10
46.0773311154582
20
3.63663488466202
30
0
41
1
10
46.0773881162144
20
3.63499624239665
30
0
41
1
10
46.077457331482
20
3.63300645834175
30
0
41
1
10
46.0775387612924
20
3.63066553044678
30
0
41
1
10
46.0776201911553
20
3.62832459911414
30
0
41
1
10
46.0777016210922
20
3.62598366294603
30
0
41
1
10
46.0777830510931
20
3.62364272258441
30
0
41
1
10
46.0778339448684
20
3.62217963324485
30
0
41
1
10
46.0779357324529
20
3.61925345234604
30
0
41
1
10
46.0780985927265
20
3.61457155386523
30
0
41
1
10
46.0783327046188
20
3.60784130850101
30
0
41
1
10
46.0785769954094
20
3.60081843590442
30
0
41
1
10
46.0787805710376
20
3.59496604407641
30
0
41
1
10
46.0789434314432
20
3.5902841369514
30
0
41
1
10
46.0790655766794
20
3.58677271106026
30
0
41
1
10
46.0791673643031
20
3.58384652759815
30
0
41
1
10
46.0792487943484
20
3.58150558433877
30
0
41
1
10
46.0792996881023
20
3.58004249639802
30
0
41
1
10
46.0794829055449
20
3.57477538448262
30
0
41
1
10
46.0798086247395
20
3.56541167596916
30
0
41
1
10
46.0804498802231
20
3.54697714826142
30
0
41
1
10
46.0812641615391
20
3.52356896723842
30
0
41
1
10
46.0822412708885
20
3.4954809962812
30
0
41
1
10
46.0830554967782
20
3.47207644020051
30
0
41
1
10
46.0836254337552
20
3.45569463390351
30
0
41
1
10
46.0839307508827
20
3.44691907519893
30
0
41
1
10
46.0840935846471
20
3.4422389104453
30
0
41
1
10
46.0842157090678
20
3.43872884590121
30
0
41
1
10
46.0842971248923
20
3.43638883270339
30
0
41
1
10
46.0843785402507
20
3.43404884997909
30
0
41
1
10
46.0844396015341
20
3.43229387833316
30
0
41
1
10
46.0845006625797
20
3.43053892224498
30
0
41
1
10
46.0845617233849
20
3.42878398187506
30
0
41
1
10
46.0846227839473
20
3.42702905738389
30
0
41
1
10
46.0846736675449
20
3.42556663367398
30
0
41
1
10
46.0847347276763
20
3.42381173737186
30
0
41
1
10
46.0848161408529
20
3.4214718973424
30
0
41
1
10
46.0849280831603
20
3.41825467030591
30
0
41
1
10
46.085050201011
20
3.41474503545121
30
0
41
1
10
46.0852944346131
20
3.40772590304354
30
0
41
1
10
46.0856607769963
20
3.39719772894338
30
0
41
1
10
46.0863120930849
20
3.37847831050377
30
0
41
1
10
46.0869635656139
20
3.35974866069765
30
0
41
1
10
46.0875746465152
20
3.3421683321468
30
0
41
1
10
46.0879002947208
20
3.332809266384
30
0
41
1
10
46.0881443021283
20
3.32580492734593
30
0
41
1
10
46.0883068399218
20
3.32114411940529
30
0
41
1
10
46.0884493532038
20
3.31704676873016
30
0
41
1
10
46.0885309315397
20
3.31469612710555
30
0
41
1
10
46.0885922010146
20
3.31292753950987
30
0
41
1
10
46.0886535708482
20
3.31115238835065
30
0
41
1
10
46.0887148597677
20
3.30938252906452
30
0
41
1
10
46.0887758865001
20
3.30762981708821
30
0
41
1
10
46.0888364697728
20
3.30590610785836
30
0
41
1
10
46.0888864352228
20
3.3045037319861
30
0
41
1
10
46.0889211728207
20
3.3034024938492
30
0
41
1
10
46.0889433780392
20
3.30258695489431
30
0
41
1
10
46.0889605046787
20
3.30178186395454
30
0
41
1
10
46.0889729116394
20
3.30098271958408
30
0
41
1
10
46.0889809578212
20
3.30018502033712
30
0
41
1
10
46.0889934480351
20
3.29752489230984
30
0
41
1
10
46.0889066262579
20
3.29294852679055
30
0
41
1
10
46.0884993781
20
3.28638434021968
30
0
41
1
10
46.0877939746836
20
3.27974918369353
30
0
41
1
10
46.0864402959918
20
3.27082928945481
30
0
41
1
10
46.0844435054075
20
3.2618322785153
30
0
41
1
10
46.0817822326648
20
3.25285278075742
30
0
41
1
10
46.0786708483946
20
3.24391650174815
30
0
41
1
10
46.0748736117
20
3.23509236580298
30
0
41
1
10
46.0704072008842
20
3.22648377638276
30
0
41
1
10
46.0655002334218
20
3.21805335246611
30
0
41
1
10
46.0599407701409
20
3.2099418785352
30
0
41
1
10
46.0537856210281
20
3.20224209427789
30
0
41
1
10
46.0472522846896
20
3.19484768303227
30
0
41
1
10
46.0384120194596
20
3.18623520567698
30
0
41
1
10
46.0269023472356
20
3.17703580611376
30
0
41
1
10
46.0146677188065
20
3.16909869435395
30
0
41
1
10
46.0019113254377
20
3.16247169897636
30
0
41
1
10
45.9888363583945
20
3.1572026485598
30
0
41
1
10
45.9756338794072
20
3.15326194591609
30
0
41
1
10
45.962494950206
20
3.15061999385693
30
0
41
1
10
45.9533291086902
20
3.14960857233075
30
0
41
1
10
45.9483104542778
20
3.14929367628807
30
0
41
1
10
45.947250414834
20
3.14923591431707
30
0
41
1
10
45.9461820570722
20
3.14918390081911
30
0
41
1
10
45.9450922249762
20
3.14914060080747
30
0
41
1
10
45.9439814939295
20
3.1491011014061
30
0
41
1
10
45.9432786990008
20
3.14907697435206
30
0
41
1
10
45.9418604069135
20
3.14902802507791
30
0
41
1
10
45.9401207578238
20
3.14896722278539
30
0
41
1
10
45.9379168767568
20
3.14888961531452
30
0
41
1
10
45.9364432355967
20
3.14883763690312
30
0
41
1
10
45.9335041153518
20
3.14873412677335
30
0
41
1
10
45.9300013852144
20
3.148611239807
30
0
41
1
10
45.9256416772986
20
3.14845865477062
30
0
41
1
10
45.9186726742935
20
3.1482148760669
30
0
41
1
10
45.9081865214848
20
3.14784742123908
30
0
41
1
10
45.8895055667046
20
3.14719203900509
30
0
41
1
10
45.8661826024675
20
3.14637435613884
30
0
41
1
10
45.8463725024324
20
3.1456801148548
30
0
41
1
10
45.8347184588077
20
3.14527168051467
30
0
41
1
10
45.8312221774241
20
3.14514914647492
30
0
41
1
10
45.8283085537552
20
3.14504703171861
30
0
41
1
10
45.8259776219493
20
3.14496533811462
30
0
41
1
10
45.8242294068191
20
3.14490406702089
30
0
41
1
10
45.8224811755729
20
3.14484279504518
30
0
41
1
10
45.8207329283703
20
3.14478152219618
30
0
41
1
10
45.818984665371
20
3.14472024848269
30
0
41
1
10
45.8175277665073
20
3.14466918634162
30
0
41
1
10
45.8157794762628
20
3.14460791113703
30
0
41
1
10
45.8140311706208
20
3.14454663508977
30
0
41
1
10
45.8119914585995
20
3.1444751451582
30
0
41
1
10
45.8105345089428
20
3.14442408023731
30
0
41
1
10
45.8052894567915
20
3.144240244695
30
0
41
1
10
45.7959646047771
20
3.14391340872163
30
0
41
1
10
45.7682797862621
20
3.14294302335318
30
0
41
1
10
45.740299617702
20
3.14196220827196
30
0
41
1
10
45.7123171532248
20
3.14098126754007
30
0
41
1
10
45.698325543552
20
3.14049077651794
30
0
41
1
10
45.6866656224206
20
3.14008202051434
30
0
41
1
10
45.6776290799187
20
3.13976522894038
30
0
41
1
10
45.6729650309415
20
3.13960172213197
30
0
41
1
10
45.67004999318
20
3.13949952998539
30
0
41
1
10
45.6685924730083
20
3.13944843384144
30
0
41
1
10
45.6668434468966
20
3.13938711836443
30
0
41
1
10
45.6650944190387
20
3.13932580279183
30
0
41
1
10
45.6627623797798
20
3.13924404857929
30
0
41
1
10
45.6598473271392
20
3.13914185561839
30
0
41
1
10
45.6528511919425
20
3.13889659202744
30
0
41
1
10
45.6446890158245
20
3.13861045016492
30
0
41
1
10
45.6359438418043
20
3.13830387040122
30
0
41
1
10
45.6312797595208
20
3.13814036177007
30
0
41
1
10
45.6277817042358
20
3.13801773064844
30
0
41
1
10
45.6259510603509
20
3.13795355392634
30
0
41
1
10
45.6247034263889
20
3.13790981576327
30
0
41
1
10
45.6246218076076
20
3.13790695446298
30
0
0
SPLINE
5
1E4
100
AcDbEntity
8
1
62
256
6
ByLayer
370
-1
48
1
60
0
100
AcDbSpline
70
4
71
3
72
150
73
146
40
0
40
0
40
0
40
0
40
0.200919836739824
40
0.401839673479648
40
0.452069632664604
40
0.50229959184956
40
0.55221561378961
40
0.577173624759635
40
0.601975648161097
40
0.60213163572966
40
0.602445572974566
40
0.602759510219472
40
0.604329196444002
40
0.605114039556267
40
0.605898882668532
40
0.607468568893062
40
0.608253412005326
40
0.609038255117592
40
0.609430676673724
40
0.612177627566651
40
0.615317000015711
40
0.618456372464771
40
0.621595744913831
40
0.62316543113836
40
0.62473511736289
40
0.62630480358742
40
0.627089646699685
40
0.62787448981195
40
0.628266911368082
40
0.63415323471007
40
0.640431979608189
40
0.652989469404428
40
0.665546959200667
40
0.678104448996906
40
0.684383193895026
40
0.687522566344085
40
0.68987709568088
40
0.690661938793145
40
0.692231625017675
40
0.69301646812994
40
0.693801311242205
40
0.69458615435447
40
0.695370997466735
40
0.696155840579
40
0.696940683691265
40
0.697333105247397
40
0.698510369915794
40
0.700080056140324
40
0.701649742364854
40
0.703219428589384
40
0.709498173487504
40
0.715776918385623
40
0.728334408181862
40
0.734613153079982
40
0.739322211753571
40
0.740891897978101
40
0.744031270427161
40
0.745600956651691
40
0.746385799763956
40
0.747170642876221
40
0.747955485988485
40
0.748740329100751
40
0.749525172213015
40
0.75031001532528
40
0.751094858437545
40
0.751487279993678
40
0.75187970154981
40
0.752272123105943
40
0.752664544662075
40
0.753056966218208
40
0.75344938777434
40
0.7565887602234
40
0.75972813267246
40
0.76286750512152
40
0.766006877570579
40
0.772285622468699
40
0.775424994917758
40
0.778564367366818
40
0.784843112264937
40
0.787982484713997
40
0.791121857163057
40
0.797400602061177
40
0.800539974510236
40
0.803679346959296
40
0.809958091857416
40
0.816236836755535
40
0.822515581653655
40
0.828794326551774
40
0.835073071449894
40
0.841351816348013
40
0.847630561246133
40
0.853909306144252
40
0.854694149256517
40
0.855086570812649
40
0.855478992368782
40
0.856263835481047
40
0.856656257037179
40
0.857048678593312
40
0.857244889371378
40
0.858618364817842
40
0.859403207930107
40
0.860188051042372
40
0.860580472598504
40
0.863327423491431
40
0.864897109715961
40
0.866466795940491
40
0.872745540838611
40
0.87902428573673
40
0.891581775532969
40
0.904139265329208
40
0.905708951553738
40
0.907278637778268
40
0.908848324002798
40
0.909633167115063
40
0.910418010227328
40
0.911202853339593
40
0.911987696451858
40
0.912772539564122
40
0.913557382676387
40
0.91394980423252
40
0.915127068900917
40
0.915911912013182
40
0.916696755125447
40
0.91708917668158
40
0.922975500023567
40
0.929254244921686
40
0.954369224514164
40
0.960647969412284
40
0.966926714310403
40
0.973205459208523
40
0.976344831657582
40
0.97909178255051
40
0.979484204106642
40
0.980269047218907
40
0.981053890331172
40
0.981838733443437
40
0.982623576555702
40
0.984193262780232
40
0.985762949004762
40
0.992041693902881
40
0.995181066351941
40
0.997535595688736
40
0.998320438801001
40
0.999890125025531
40
1
40
1
40
1
40
1
41
1
10
42.3848559570819
20
4.85633315490085
30
0
41
1
10
42.3796447564298
20
5.0061324482179
30
0
41
1
10
42.3692223551257
20
5.30573103485196
30
0
41
1
10
42.357497053746
20
5.64278597920745
30
0
41
1
10
42.3496804276149
20
5.86747348399669
30
0
41
1
10
42.3457802452042
20
5.9795839497547
30
0
41
1
10
42.3425354621106
20
6.07285718300221
30
0
41
1
10
42.3399501307128
20
6.14717645456221
30
0
41
1
10
42.3386554156344
20
6.18439597158834
30
0
41
1
10
42.337999907288
20
6.20324033473608
30
0
41
1
10
42.337979575328
20
6.20382483217318
30
0
41
1
10
42.3379225745718
20
6.20546347443857
30
0
41
1
10
42.3378533593041
20
6.20745325849345
30
0
41
1
10
42.3377719294938
20
6.20979418638845
30
0
41
1
10
42.3376904996308
20
6.21213511772106
30
0
41
1
10
42.337609069694
20
6.21447605388917
30
0
41
1
10
42.337527639693
20
6.21681699425079
30
0
41
1
10
42.3374767459177
20
6.21828008359034
30
0
41
1
10
42.3373749583332
20
6.22120626448915
30
0
41
1
10
42.3372120980597
20
6.22588816296999
30
0
41
1
10
42.3369779861673
20
6.23261840833422
30
0
41
1
10
42.3367336953768
20
6.23964128093081
30
0
41
1
10
42.3365301197486
20
6.24549367275878
30
0
41
1
10
42.3363672593429
20
6.25017557988383
30
0
41
1
10
42.3362451141067
20
6.25368700577496
30
0
41
1
10
42.336143326483
20
6.25661318923704
30
0
41
1
10
42.3360618964377
20
6.25895413249646
30
0
41
1
10
42.3360110026838
20
6.2604172204372
30
0
41
1
10
42.3358277852412
20
6.26568433235261
30
0
41
1
10
42.3355020660466
20
6.27504804086607
30
0
41
1
10
42.3348608105631
20
6.29348256857378
30
0
41
1
10
42.334046529247
20
6.31689074959681
30
0
41
1
10
42.3330694198976
20
6.344978720554
30
0
41
1
10
42.3322551940079
20
6.36838327663472
30
0
41
1
10
42.3316852570309
20
6.38476508293169
30
0
41
1
10
42.3313799399034
20
6.39354064163629
30
0
41
1
10
42.3312171061391
20
6.39822080638993
30
0
41
1
10
42.3310949817183
20
6.40173087093402
30
0
41
1
10
42.3310135658939
20
6.40407088413184
30
0
41
1
10
42.3309321505354
20
6.40641086685613
30
0
41
1
10
42.330871089252
20
6.40816583850207
30
0
41
1
10
42.3308100282065
20
6.40992079459025
30
0
41
1
10
42.3307489674013
20
6.41167573496017
30
0
41
1
10
42.3306879068389
20
6.41343065945131
30
0
41
1
10
42.3306370232413
20
6.41489308316125
30
0
41
1
10
42.3305759631099
20
6.41664797946333
30
0
41
1
10
42.3304945499333
20
6.41898781949283
30
0
41
1
10
42.3303826076259
20
6.42220504652931
30
0
41
1
10
42.3302604897751
20
6.42571468138402
30
0
41
1
10
42.3300162561731
20
6.43273381379169
30
0
41
1
10
42.3296499137898
20
6.44326198789182
30
0
41
1
10
42.3289985977012
20
6.46198140633146
30
0
41
1
10
42.3283471251722
20
6.48071105613758
30
0
41
1
10
42.327736044271
20
6.49829138468843
30
0
41
1
10
42.3274103960653
20
6.50765045045122
30
0
41
1
10
42.3271663886578
20
6.5146547894893
30
0
41
1
10
42.3270038508644
20
6.51931559742994
30
0
41
1
10
42.3268613375824
20
6.52341294810503
30
0
41
1
10
42.3267797592464
20
6.52576358972968
30
0
41
1
10
42.3267184897715
20
6.52753217732536
30
0
41
1
10
42.3266571199379
20
6.52930732848458
30
0
41
1
10
42.3265958310184
20
6.5310771877707
30
0
41
1
10
42.326534804286
20
6.53282989974701
30
0
41
1
10
42.3264742210134
20
6.53455360897686
30
0
41
1
10
42.3264242555634
20
6.53595598484912
30
0
41
1
10
42.3263895179654
20
6.53705722298602
30
0
41
1
10
42.326367312747
20
6.53787276194089
30
0
41
1
10
42.3263501861074
20
6.53867785288068
30
0
41
1
10
42.3263377791468
20
6.53947699725114
30
0
41
1
10
42.326329732965
20
6.54027469649807
30
0
41
1
10
42.3263172427511
20
6.54293482452539
30
0
41
1
10
42.3264040645282
20
6.54751119004467
30
0
41
1
10
42.3268113126861
20
6.55407537661551
30
0
41
1
10
42.3275167161026
20
6.5607105331417
30
0
41
1
10
42.3288703947943
20
6.56963042738039
30
0
41
1
10
42.3308671853786
20
6.57862743831993
30
0
41
1
10
42.3335284581213
20
6.5876069360778
30
0
41
1
10
42.3366398423916
20
6.59654321508708
30
0
41
1
10
42.3404370790861
20
6.60536735103224
30
0
41
1
10
42.3449034899019
20
6.61397594045246
30
0
41
1
10
42.3498104573644
20
6.62240636436911
30
0
41
1
10
42.3553699206452
20
6.63051783829999
30
0
41
1
10
42.361525069758
20
6.63821762255731
30
0
41
1
10
42.3680584060966
20
6.64561203380296
30
0
41
1
10
42.3768986713265
20
6.65422451115825
30
0
41
1
10
42.3884083435505
20
6.66342391072146
30
0
41
1
10
42.4006429719796
20
6.67136102248125
30
0
41
1
10
42.4133993653485
20
6.67798801785884
30
0
41
1
10
42.4264743323917
20
6.6832570682754
30
0
41
1
10
42.439676811379
20
6.68719777091914
30
0
41
1
10
42.4528157405802
20
6.68983972297829
30
0
41
1
10
42.461981582096
20
6.69085114450448
30
0
41
1
10
42.4670002365083
20
6.69116604054716
30
0
41
1
10
42.4680602759521
20
6.69122380251812
30
0
41
1
10
42.469128633714
20
6.69127581601609
30
0
41
1
10
42.4702184658099
20
6.69131911602776
30
0
41
1
10
42.4713291968566
20
6.6913586154291
30
0
41
1
10
42.4720319917854
20
6.69138274248314
30
0
41
1
10
42.4734502838726
20
6.69143169175732
30
0
41
1
10
42.4751899329624
20
6.69149249404984
30
0
41
1
10
42.4773938140293
20
6.69157010152068
30
0
41
1
10
42.4788674551895
20
6.6916220799321
30
0
41
1
10
42.4818065754344
20
6.69172559006188
30
0
41
1
10
42.4853093055717
20
6.69184847702823
30
0
41
1
10
42.4896690134875
20
6.69200106206458
30
0
41
1
10
42.4966380164926
20
6.69224484076832
30
0
41
1
10
42.5071241693013
20
6.69261229559612
30
0
41
1
10
42.5258051240815
20
6.69326767783014
30
0
41
1
10
42.5491280883187
20
6.69408536069636
30
0
41
1
10
42.5689381883537
20
6.6947796019804
30
0
41
1
10
42.5805922319784
20
6.69518803632056
30
0
41
1
10
42.5840885133621
20
6.69531057036031
30
0
41
1
10
42.5870021370309
20
6.69541268511659
30
0
41
1
10
42.5893330688368
20
6.69549437872058
30
0
41
1
10
42.591081283967
20
6.69555564981431
30
0
41
1
10
42.5928295152132
20
6.69561692179005
30
0
41
1
10
42.5945777624158
20
6.69567819463902
30
0
41
1
10
42.5963260254152
20
6.69573946835254
30
0
41
1
10
42.5977829242789
20
6.69579053049361
30
0
41
1
10
42.5995312145234
20
6.6958518056982
30
0
41
1
10
42.6012795201654
20
6.69591308174543
30
0
41
1
10
42.6033192321866
20
6.69598457167703
30
0
41
1
10
42.6047761818433
20
6.69603563659788
30
0
41
1
10
42.6100212339946
20
6.69621947214023
30
0
41
1
10
42.619346086009
20
6.6965463081136
30
0
41
1
10
42.6470309045241
20
6.69751669348202
30
0
41
1
10
42.6750110730841
20
6.69849750856326
30
0
41
1
10
42.7029935375614
20
6.69947844929516
30
0
41
1
10
42.7169851472342
20
6.69996894031726
30
0
41
1
10
42.7286450683655
20
6.70037769632089
30
0
41
1
10
42.7376816108674
20
6.70069448789485
30
0
41
1
10
42.7423456598446
20
6.70085799470323
30
0
41
1
10
42.7452606976062
20
6.70096018684981
30
0
41
1
10
42.7467182177778
20
6.70101128299376
30
0
41
1
10
42.7484672438896
20
6.7010725984708
30
0
41
1
10
42.7502162717474
20
6.7011339140434
30
0
41
1
10
42.7525483110064
20
6.70121566825594
30
0
41
1
10
42.755463363647
20
6.70131786121681
30
0
41
1
10
42.7624594988437
20
6.70156312480779
30
0
41
1
10
42.7706216749617
20
6.70184926667031
30
0
41
1
10
42.7793668489819
20
6.70215584643398
30
0
41
1
10
42.7840309312654
20
6.70231935506516
30
0
41
1
10
42.7875289865503
20
6.70244198618676
30
0
41
1
10
42.7893596304353
20
6.70250616290889
30
0
41
1
10
42.7906072643972
20
6.70254990107196
30
0
41
1
10
42.7906888831785
20
6.70255276237225
30
0
0
SPLINE
5
1E5
100
AcDbEntity
8
1
62
256
6
ByLayer
370
-1
48
1
60
0
100
AcDbSpline
70
4
71
3
72
20
73
16
40
0
40
0
40
0
40
0
40
0.0011113171582911
40
0.0024035405513593
40
0.0036957639444275
40
0.0049879873374957
40
0.007572434123632
40
0.0080893234808591
40
0.0086062128380865
40
0.0088630422374588
40
0.0907916206372234
40
0.17297702843636
40
0.338381622749088
40
0.669190811374544
40
1
40
1
40
1
40
1
41
1
10
45.9831959726002
20
6.34260890232221
30
0
41
1
10
45.9832134828421
20
6.34210559834219
30
0
41
1
10
45.9832513537076
20
6.34101706039462
30
0
41
1
10
45.9833095851021
20
6.33934329021719
30
0
41
1
10
45.9833706667701
20
6.33758759204267
30
0
41
1
10
45.9834521088076
20
6.33524666457632
30
0
41
1
10
45.9835213342869
20
6.33325688087939
30
0
41
1
10
45.9835783433194
20
6.33161823890413
30
0
41
1
10
45.9835986782156
20
6.33103374156994
30
0
41
1
10
45.9849017393447
20
6.29357911331121
30
0
41
1
10
45.9874913506735
20
6.21914213937788
30
0
41
1
10
45.9926822003031
20
6.06992764031409
30
0
41
1
10
46.0017927363264
20
5.80802992570122
30
0
41
1
10
46.0148211317481
20
5.43352444188545
30
0
41
1
10
46.0252435330522
20
5.13392585525139
30
0
41
1
10
46.0304547337043
20
4.98412656193435
30
0
0
SPLINE
5
1E6
100
AcDbEntity
8
1
62
256
6
ByLayer
370
-1
48
1
60
0
100
AcDbSpline
70
4
71
1
72
4
73
2
40
0
40
0
40
1
40
1
41
1
10
44.3068499442785
20
2.43151852011079
30
0
41
1
10
42.5147918265222
20
2.36869942604628
30
0
0
SPLINE
5
1E7
100
AcDbEntity
8
1
62
256
6
ByLayer
370
-1
48
1
60
0
100
AcDbSpline
70
4
71
3
72
40
73
36
40
0
40
0
40
0
40
0
40
0.125
40
0.1875
40
0.1953125
40
0.203125
40
0.21875
40
0.25
40
0.28125
40
0.3125
40
0.34375
40
0.3515625
40
0.359375
40
0.375
40
0.390625
40
0.3984375
40
0.40625
40
0.4375
40
0.5
40
0.5625
40
0.625
40
0.640625
40
0.6484375
40
0.65625
40
0.6875
40
0.75
40
0.8125
40
0.875
40
0.9375
40
0.953125
40
0.9609375
40
0.96484375
40
0.96875
40
0.984375
40
1
40
1
40
1
40
1
41
1
10
44.1336959345128
20
7.40894119672441
30
0
41
1
10
44.1351413878681
20
7.38012730869781
30
0
41
1
10
44.1373093408977
20
7.33690473491723
30
0
41
1
10
44.1395683441474
20
7.29188673607445
30
0
41
1
10
44.1404713694264
20
7.2738751168705
30
0
41
1
10
44.1408332439522
20
7.26668172637136
30
0
41
1
10
44.141444561868
20
7.25406201439208
30
0
41
1
10
44.1422592870744
20
7.23587750730607
30
0
41
1
10
44.1431359967424
20
7.21393040374005
30
0
41
1
10
44.1439089487234
20
7.19195152306139
30
0
41
1
10
44.144408823889
20
7.17551981271362
30
0
41
1
10
44.1447058284441
20
7.16461445081538
30
0
41
1
10
44.1449038140713
20
7.15732372836425
30
0
41
1
10
44.145151181444
20
7.14821919766629
30
0
41
1
10
44.145398401668
20
7.13910165140337
30
0
41
1
10
44.145596652163
20
7.13183435696916
30
0
41
1
10
44.1458787857407
20
7.12099917255458
30
0
41
1
10
44.1464206171077
20
7.09749634420123
30
0
41
1
10
44.1469817662082
20
7.06162699616573
30
0
41
1
10
44.1472018230529
20
7.01979966862359
30
0
41
1
10
44.1470245680631
20
6.98990105754794
30
0
41
1
10
44.1467902107385
20
6.97242520820214
30
0
41
1
10
44.1466907562832
20
6.9661137583436
30
0
41
1
10
44.1465432330985
20
6.95660789044138
30
0
41
1
10
44.1462225332389
20
6.93602388748803
30
0
41
1
10
44.1457298285129
20
6.9043481705713
30
0
41
1
10
44.1451382346238
20
6.8663433695321
30
0
41
1
10
44.1445467550052
20
6.82833545773076
30
0
41
1
10
44.1441033814998
20
6.79982052526174
30
0
41
1
10
44.1438319490111
20
6.78241309600224
30
0
41
1
10
44.1437460508417
20
6.77685658857069
30
0
41
1
10
44.1436961128171
20
6.77371395098322
30
0
41
1
10
44.1436518661315
20
6.76883599710007
30
0
41
1
10
44.1436900429981
20
6.76094508418933
30
0
41
1
10
44.1438760068317
20
6.75360770790797
30
0
41
1
10
44.1440017881242
20
6.74999204426629
30
0
0
SPLINE
5
1E8
100
AcDbEntity
8
1
62
256
6
ByLayer
370
-1
48
1
60
0
100
AcDbSpline
70
4
71
3
72
20
73
16
40
0
40
0
40
0
40
0
40
0.0011113171582864
40
0.0024035405513546
40
0.0036957639444228
40
0.004987987337491
40
0.0075724341236274
40
0.0080893234808545
40
0.0086062128380819
40
0.0088630422374542
40
0.0907916206372192
40
0.172977028436356
40
0.338381622749085
40
0.669190811374543
40
1
40
1
40
1
40
1
41
1
10
45.6246218076076
20
3.13790695446298
30
0
41
1
10
45.6241204188512
20
3.13788937733474
30
0
41
1
10
45.6230360231192
20
3.13785136180874
30
0
41
1
10
45.6213686221426
20
3.1377929079797
30
0
41
1
10
45.6196196049297
20
3.1377315929897
30
0
41
1
10
45.6172875853991
20
3.13764983985683
30
0
41
1
10
45.6153053734299
20
3.1375803499474
30
0
41
1
10
45.6136729669821
20
3.13752312314975
30
0
41
1
10
45.6130906938367
20
3.13750271057754
30
0
41
1
10
45.5757785917463
20
3.13619467196662
30
0
41
1
10
45.501624872972
20
3.1335951687432
30
0
41
1
10
45.3529781801262
20
3.12838449091137
30
0
41
1
10
45.0920770653865
20
3.11923915412044
30
0
41
1
10
44.7189966880029
20
3.1061609923448
30
0
41
1
10
44.4205381644423
20
3.09569877916087
30
0
41
1
10
44.271308902662
20
3.09046767256893
30
0
0
SPLINE
5
1E9
100
AcDbEntity
8
1
62
256
6
ByLayer
370
-1
48
1
60
0
100
AcDbSpline
70
4
71
1
72
4
73
2
40
0
40
0
40
1
40
1
41
1
10
42.3416378167564
20
7.3461221026599
30
0
41
1
10
44.1336959345127
20
7.40894119672441
30
0
0
SPLINE
5
1EA
100
AcDbEntity
8
1
62
256
6
ByLayer
370
-1
48
1
60
0
100
AcDbSpline
70
4
71
3
72
83
73
79
40
0
40
0
40
0
40
0
40
0.0019524496734576
40
0.0055614898932147
40
0.0091705301129718
40
0.012779570332729
40
0.0163886105524861
40
0.0236066909920003
40
0.0308247714315146
40
0.0380428518710289
40
0.0957874953871429
40
0.153532138903257
40
0.182404460661314
40
0.211276782419371
40
0.218494862858885
40
0.2257129432984
40
0.238344584067549
40
0.240149104177428
40
0.243758144397185
40
0.247367184616942
40
0.253683005001517
40
0.254585265056457
40
0.256389785166335
40
0.258194305276214
40
0.261803345495971
40
0.263607865605849
40
0.265412385715728
40
0.269021425935485
40
0.297893747693542
40
0.326766069451599
40
0.355638391209656
40
0.384510712967713
40
0.41338303472577
40
0.442255356483827
40
0.471127678241884
40
0.499999999999941
40
0.514436160878971
40
0.528872321757998
40
0.557744643516055
40
0.572180804395085
40
0.586616965274113
40
0.615489287032169
40
0.629925447911199
40
0.644361608790226
40
0.673233930548284
40
0.687670091427311
40
0.70210625230634
40
0.716542413185368
40
0.730978574064398
40
0.732783094174275
40
0.734587614284155
40
0.736392134394034
40
0.738196654503912
40
0.74000117461379
40
0.74180569472367
40
0.745414734943426
40
0.749023775163184
40
0.75263281538294
40
0.756241855602698
40
0.759850895822455
40
0.763459936042212
40
0.767068976261969
40
0.774287056701482
40
0.788723217580512
40
0.795941298020025
40
0.817595539338569
40
0.846467861096626
40
0.90421250461274
40
0.933084826370797
40
0.961957148128854
40
0.969175228568369
40
0.976393309007882
40
0.983611389447397
40
0.989024949777032
40
0.990829469886911
40
0.994438510106668
40
0.998047550326425
40
1
40
1
40
1
40
1
41
1
10
42.0866098052725
20
7.32117331975306
30
0
41
1
10
42.0862141215953
20
7.32113096643482
30
0
41
1
10
42.0850924027592
20
7.32101018182794
30
0
41
1
10
42.0832677606282
20
7.32080904183528
30
0
41
1
10
42.0811357108178
20
7.32056472232989
30
0
41
1
10
42.0790097573908
20
7.32030973780772
30
0
41
1
10
42.0761800532075
20
7.3199555271589
30
0
41
1
10
42.0726460584675
20
7.31948605906743
30
0
41
1
10
42.0683909128117
20
7.31887990212743
30
0
41
1
10
42.0541701449615
20
7.31671537585166
30
0
41
1
10
42.0297954951278
20
7.31192371147543
30
0
41
1
10
42.0009704567643
20
7.30383599801664
30
0
41
1
10
41.9780002175823
20
7.29584490192113
30
0
41
1
10
41.9651492957894
20
7.29077545668503
30
0
41
1
10
41.9566261827935
20
7.28715475970822
30
0
41
1
10
41.9513112600146
20
7.28483160889073
30
0
41
1
10
41.9470736257923
20
7.28290690815669
30
0
41
1
10
41.9435520772912
20
7.28126294181973
30
0
41
1
10
41.9417931736937
20
7.28043345106209
30
0
41
1
10
41.9391586822028
20
7.27917420618451
30
0
41
1
10
41.9370554741651
20
7.27815030774815
30
0
41
1
10
41.9353056015025
20
7.27728706502535
30
0
41
1
10
41.934431194134
20
7.27685356998529
30
0
41
1
10
41.9330332871452
20
7.27615598159829
30
0
41
1
10
41.9316371218772
20
7.27545240001444
30
0
41
1
10
41.9302427473699
20
7.27474282780858
30
0
41
1
10
41.9288495830494
20
7.27402926271304
30
0
41
1
10
41.9222407915784
20
7.27061138528552
30
0
41
1
10
41.9105108639928
20
7.26418992449106
30
0
41
1
10
41.8942432574686
20
7.25436954219032
30
0
41
1
10
41.8783184619209
20
7.24380571914892
30
0
41
1
10
41.8627854244111
20
7.23251864653986
30
0
41
1
10
41.8476930920003
20
7.22052851553607
30
0
41
1
10
41.8330869270688
20
7.20786403806454
30
0
41
1
10
41.8190123919969
20
7.19455392605229
30
0
41
1
10
41.8077601249315
20
7.18295445224109
30
0
41
1
10
41.7990643109431
20
7.1733884339013
30
0
41
1
10
41.7905780547517
20
7.16363858562943
30
0
41
1
10
41.7824144722878
20
7.15362368685217
30
0
41
1
10
41.7745902376149
20
7.14336512635495
30
0
41
1
10
41.7669964617526
20
7.13295204599686
30
0
41
1
10
41.7597547145312
20
7.12231906777623
30
0
41
1
10
41.7528776768003
20
7.11148995555047
30
0
41
1
10
41.746246553891
20
7.10053849112262
30
0
41
1
10
41.739988465956
20
7.08941610409366
30
0
41
1
10
41.734111738479
20
7.0781480058676
30
0
41
1
10
41.7298958424803
20
7.06963049921225
30
0
41
1
10
41.7258725654706
20
7.0610529821839
30
0
41
1
10
41.72315986935
20
7.05493928295863
30
0
41
1
10
41.7216097652221
20
7.05133193496525
30
0
41
1
10
41.721147773733
20
7.05024900593347
30
0
41
1
10
41.7206888217779
20
7.04916536458964
30
0
41
1
10
41.720232909141
20
7.04808102325538
30
0
41
1
10
41.7197800356069
20
7.04699599425243
30
0
41
1
10
41.719180256078
20
7.04554838845243
30
0
41
1
10
41.7184381283464
20
7.043737223639
30
0
41
1
10
41.717559728032
20
7.04156127233483
30
0
41
1
10
41.7166934789569
20
7.03938286607604
30
0
41
1
10
41.7158393793973
20
7.03720210343602
30
0
41
1
10
41.7149974276292
20
7.03501908298821
30
0
41
1
10
41.7141676219285
20
7.032833903306
30
0
41
1
10
41.7130774067856
20
7.02991758284847
30
0
41
1
10
41.7112120294539
20
7.02480715474135
30
0
41
1
10
41.7091772830188
20
7.01895254595036
30
0
41
1
10
41.706270750674
20
7.01015418499935
30
0
41
1
10
41.7026534623283
20
6.99839778872513
30
0
41
1
10
41.6967106752898
20
6.97631099713362
30
0
41
1
10
41.6918894129368
20
6.9527679322224
30
0
41
1
10
41.6885230292155
20
6.92941693934512
30
0
41
1
10
41.6871589656131
20
6.9163832394967
30
0
41
1
10
41.6864635377926
20
6.90774845638003
30
0
41
1
10
41.686157982368
20
6.90344517830329
30
0
41
1
10
41.6859159566683
20
6.89951641726134
30
0
41
1
10
41.6857649112497
20
6.89665794466686
30
0
41
1
10
41.6856625707547
20
6.89450994191719
30
0
41
1
10
41.685584176893
20
6.89271658911997
30
0
41
1
10
41.6855115710021
20
6.89087540805053
30
0
41
1
10
41.6854697862733
20
6.88974372181059
30
0
41
1
10
41.6854552983982
20
6.88934453981531
30
0
0
SPLINE
5
1EB
100
AcDbEntity
8
1
62
256
6
ByLayer
370
-1
48
1
60
0
100
AcDbSpline
70
4
71
3
72
24
73
20
40
0
40
0
40
0
40
0
40
0.0052924630238463
40
0.0168225975868271
40
0.0283527321498078
40
0.0398828667127808
40
0.0629431358387397
40
0.0744732704017153
40
0.109063674090652
40
0.155184212342562
40
0.24742528884639
40
0.431907441854041
40
0.616389594861692
40
0.800871747869342
40
0.893112824373166
40
0.979588833595509
40
0.985353900876993
40
0.996884035439971
40
1
40
1
40
1
40
1
41
1
10
42.2586513338525
20
2.37572962582962
30
0
41
1
10
42.2589887380654
20
2.3757172863798
30
0
41
1
10
42.2600655075852
20
2.37567848075651
30
0
41
1
10
42.2619035726005
20
2.37561431047573
30
0
41
1
10
42.2641858881872
20
2.37553444522442
30
0
41
1
10
42.2672674661039
20
2.37542643551586
30
0
41
1
10
42.2703847720249
20
2.37531701238521
30
0
41
1
10
42.2750482998199
20
2.37515336947072
30
0
41
1
10
42.2812458664256
20
2.37493598874201
30
0
41
1
10
42.29281517311
20
2.37453042263803
30
0
41
1
10
42.3143160227135
20
2.37377713166808
30
0
41
1
10
42.3451505731903
20
2.37269629197763
30
0
41
1
10
42.382215010601
20
2.37139679294617
30
0
41
1
10
42.4130482684498
20
2.37031600439292
30
0
41
1
10
42.4373357536189
20
2.36946319259579
30
0
41
1
10
42.4496729348945
20
2.36903124740937
30
0
41
1
10
42.4566124203336
20
2.3687891205534
30
0
41
1
10
42.4579773674064
20
2.36874152793089
30
0
41
1
10
42.4589567926731
20
2.36870798529165
30
0
41
1
10
42.4591651660953
20
2.36870088377341
30
0
0
SPLINE
5
1EC
100
AcDbEntity
8
1
62
256
6
ByLayer
370
-1
48
1
60
0
100
AcDbSpline
70
4
71
1
72
4
73
2
40
0
40
0
40
1
40
1
41
1
10
41.6784518506475
20
6.63222563207546
30
0
41
1
10
41.6779711830348
20
6.64604272980725
30
0
0
SPLINE
5
1ED
100
AcDbEntity
8
1
62
256
6
ByLayer
370
-1
48
1
60
0
100
AcDbSpline
70
4
71
1
72
4
73
2
40
0
40
0
40
1
40
1
41
1
10
46.0989080620348
20
2.49433761417529
30
0
41
1
10
44.3068499442784
20
2.43151852011079
30
0
0
SPLINE
5
1EE
100
AcDbEntity
8
1
62
256
6
ByLayer
370
-1
48
1
60
0
100
AcDbSpline
70
4
71
3
72
14
73
10
40
0
40
0
40
0
40
0
40
0.185621159235365
40
0.627925247419634
40
0.7385012694657
40
0.849077291511768
40
0.904365302534801
40
0.959653313557835
40
1
40
1
40
1
40
1
41
1
10
41.8042118138734
20
3.02060790659036
30
0
41
1
10
41.8043468002843
20
3.01801115727912
30
0
41
1
10
41.8048458663544
20
3.00922879201343
30
0
41
1
10
41.8056051129424
20
2.99890948378027
30
0
41
1
10
41.8064170614485
20
2.98965091863735
30
0
41
1
10
41.806779061889
20
2.98579565904561
30
0
41
1
10
41.8070841030012
20
2.98271321103189
30
0
41
1
10
41.8072977961688
20
2.98061018870828
30
0
41
1
10
41.8074354083012
20
2.97927774787971
30
0
41
1
10
41.8074937158596
20
2.97871563261131
30
0
0
SPLINE
5
1EF
100
AcDbEntity
8
1
62
256
6
ByLayer
370
-1
48
1
60
0
100
AcDbSpline
70
4
71
3
72
40
73
36
40
0
40
0
40
0
40
0
40
0.015625
40
0.03125
40
0.03515625
40
0.0390625
40
0.046875
40
0.0625
40
0.125
40
0.1875
40
0.25
40
0.3125
40
0.34375
40
0.3515625
40
0.359375
40
0.375
40
0.4375
40
0.5
40
0.5625
40
0.59375
40
0.6015625
40
0.609375
40
0.625
40
0.640625
40
0.6484375
40
0.65625
40
0.6875
40
0.71875
40
0.75
40
0.78125
40
0.796875
40
0.8046875
40
0.8125
40
0.875
40
1
40
1
40
1
40
1
41
1
10
42.3848559570819
20
4.85633315490088
30
0
41
1
10
42.3812540521319
20
4.8562068931443
30
0
41
1
10
42.3740138847543
20
4.85595066631851
30
0
41
1
10
42.3663893304571
20
4.85567510956767
30
0
41
1
10
42.3617438790475
20
4.85550476766451
30
0
41
1
10
42.3587724638857
20
4.85539502434173
30
0
41
1
10
42.3535162979558
20
4.85520098682653
30
0
41
1
10
42.3370521093634
20
4.85459310600191
30
0
41
1
10
42.3100810325302
20
4.85359734261809
30
0
41
1
10
42.2741314468076
20
4.85227007709122
30
0
41
1
10
42.2381849660634
20
4.85094292019457
30
0
41
1
10
42.2082244207495
20
4.84983677978562
30
0
41
1
10
42.1887555199377
20
4.84911797056327
30
0
41
1
10
42.1797640369608
20
4.84878601834143
30
0
41
1
10
42.1737956205242
20
4.84856561765577
30
0
41
1
10
42.1572285772306
20
4.84795534754909
30
0
41
1
10
42.1286611038429
20
4.84691126504359
30
0
41
1
10
42.0882279693434
20
4.84545062258005
30
0
41
1
10
42.0531817846754
20
4.84419803734548
30
0
41
1
10
42.0300441740126
20
4.84337730049415
30
0
41
1
10
42.0193450203221
20
4.84299892751682
30
0
41
1
10
42.0121599434484
20
4.84274514800305
30
0
41
1
10
42.0031470521324
20
4.84242675627166
30
0
41
1
10
41.9941465269205
20
4.84210881905383
30
0
41
1
10
41.9869391910594
20
4.84185422141567
30
0
41
1
10
41.9761576972808
20
4.84147339778661
30
0
41
1
10
41.959860263843
20
4.84089958981721
30
0
41
1
10
41.9379566662427
20
4.84013207039135
30
0
41
1
10
41.9159798616879
20
4.83936566064671
30
0
41
1
10
41.8976824274839
20
4.83873064366642
30
0
41
1
10
41.8849384324973
20
4.83828995361336
30
0
41
1
10
41.8776607833394
20
4.83803875488186
30
0
41
1
10
41.8594412646505
20
4.83740977527947
30
0
41
1
10
41.8139016506206
20
4.83583771211892
30
0
41
1
10
41.7701792206972
20
4.83432834658308
30
0
41
1
10
41.7410318990935
20
4.83332214344114
30
0
0
SPLINE
5
1F0
100
AcDbEntity
8
1
62
256
6
ByLayer
370
-1
48
1
60
0
100
AcDbSpline
70
4
71
1
72
4
73
2
40
0
40
0
40
1
40
1
41
1
10
46.7620940281436
20
3.20823408475977
30
0
41
1
10
46.7625746957564
20
3.19441698702795
30
0
0
SPLINE
5
1F1
100
AcDbEntity
8
1
62
256
6
ByLayer
370
-1
48
1
60
0
100
AcDbSpline
70
4
71
1
72
4
73
2
40
0
40
0
40
1
40
1
41
1
10
44.1336959345127
20
7.40894119672441
30
0
41
1
10
45.925754052269
20
7.47176029078892
30
0
0
SPLINE
5
1F2
100
AcDbEntity
8
1
62
256
6
ByLayer
370
-1
48
1
60
0
100
AcDbSpline
70
4
71
3
72
83
73
79
40
0
40
0
40
0
40
0
40
0.0019524496734429
40
0.0055614898932001
40
0.0091705301129573
40
0.0127795703327146
40
0.0163886105524718
40
0.0236066909919863
40
0.0308247714315008
40
0.0380428518710152
40
0.095787495387131
40
0.153532138903247
40
0.182404460661305
40
0.211276782419363
40
0.218494862858877
40
0.225712943298392
40
0.238344584067542
40
0.240149104177421
40
0.243758144397178
40
0.247367184616935
40
0.25368300500151
40
0.25458526505645
40
0.256389785166328
40
0.258194305276207
40
0.261803345495964
40
0.263607865605843
40
0.265412385715721
40
0.269021425935479
40
0.297893747693536
40
0.326766069451594
40
0.355638391209652
40
0.38451071296771
40
0.413383034725768
40
0.442255356483826
40
0.471127678241884
40
0.499999999999942
40
0.514436160878971
40
0.528872321758
40
0.557744643516058
40
0.572180804395086
40
0.586616965274116
40
0.615489287032173
40
0.629925447911203
40
0.64436160879023
40
0.673233930548289
40
0.687670091427317
40
0.702106252306347
40
0.716542413185375
40
0.730978574064405
40
0.732783094174283
40
0.734587614284162
40
0.736392134394041
40
0.738196654503919
40
0.740001174613798
40
0.741805694723677
40
0.745414734943434
40
0.749023775163192
40
0.752632815382948
40
0.756241855602706
40
0.759850895822463
40
0.76345993604222
40
0.767068976261977
40
0.77428705670149
40
0.788723217580521
40
0.795941298020034
40
0.817595539338579
40
0.846467861096637
40
0.904212504612752
40
0.93308482637081
40
0.961957148128868
40
0.969175228568383
40
0.976393309007897
40
0.983611389447412
40
0.989024949777047
40
0.990829469886926
40
0.994438510106683
40
0.998047550326441
40
1
40
1
40
1
40
1
41
1
10
41.8284657927952
20
2.77841647774991
30
0
41
1
10
41.8285079849462
20
2.77801928262542
30
0
41
1
10
41.8286283099312
20
2.77689327900552
30
0
41
1
10
41.8288286845255
20
2.77506166703804
30
0
41
1
10
41.8290720743214
20
2.77292147314378
30
0
41
1
10
41.8293260885505
20
2.77078739892002
30
0
41
1
10
41.8296789513209
20
2.76794688572639
30
0
41
1
10
41.8301466329445
20
2.76439939170061
30
0
41
1
10
41.8307504832743
20
2.76012799207973
30
0
41
1
10
41.8329067728741
20
2.74585290320658
30
0
41
1
10
41.8376802035207
20
2.72138514617032
30
0
41
1
10
41.8457371407881
20
2.69245000084308
30
0
41
1
10
41.8536978283504
20
2.66939201907908
30
0
41
1
10
41.8587479828169
20
2.65649200885275
30
0
41
1
10
41.8623549019485
20
2.64793633894982
30
0
41
1
10
41.8646692124758
20
2.6426011140293
30
0
41
1
10
41.8665865891425
20
2.63834729273273
30
0
41
1
10
41.8682242996912
20
2.63481229248845
30
0
41
1
10
41.8690506339861
20
2.63304667016493
30
0
41
1
10
41.8703050870567
20
2.63040211534454
30
0
41
1
10
41.8713250892504
20
2.62829087339381
30
0
41
1
10
41.872185047074
20
2.62653431650187
30
0
41
1
10
41.8726168925346
20
2.62565656903934
30
0
41
1
10
41.8733118263872
20
2.62425332227292
30
0
41
1
10
41.8740127306307
20
2.62285182388047
30
0
41
1
10
41.8747196027
20
2.62145212308897
30
0
41
1
10
41.875430452465
20
2.62005363710713
30
0
41
1
10
41.878835323837
20
2.61341960112634
30
0
41
1
10
41.8852323490344
20
2.60164486712298
30
0
41
1
10
41.8950153618157
20
2.5853151209846
30
0
41
1
10
41.9055389863211
20
2.56932949530505
30
0
41
1
10
41.9167831082112
20
2.5537371241154
30
0
41
1
10
41.9287276131466
20
2.53858714144667
30
0
41
1
10
41.9413438984578
20
2.52392518333801
30
0
41
1
10
41.9546033614754
20
2.50979688582859
30
0
41
1
10
41.9661586957869
20
2.49850163693108
30
0
41
1
10
41.9756883125388
20
2.48977260634587
30
0
41
1
10
41.9854010596944
20
2.4812539340345
30
0
41
1
10
41.9953778487582
20
2.47305916801176
30
0
41
1
10
42.0055973723356
20
2.46520504603353
30
0
41
1
10
42.0159708277791
20
2.45758226318117
30
0
41
1
10
42.0265633443075
20
2.45031285366181
30
0
41
1
10
42.0373512484918
20
2.443409546764
30
0
41
1
10
42.0482610392912
20
2.43675309404244
30
0
41
1
10
42.0593411022796
20
2.43047110122816
30
0
41
1
10
42.0705663219899
20
2.42457192560695
30
0
41
1
10
42.079051416961
20
2.42033992557043
30
0
41
1
10
42.0875962939474
20
2.41630128029612
30
0
41
1
10
42.0936867287014
20
2.41357822211708
30
0
41
1
10
42.0972803496465
20
2.41202219684323
30
0
41
1
10
42.0983591578064
20
2.41155844062175
30
0
41
1
10
42.0994386755677
20
2.41109773554461
30
0
41
1
10
42.1005188906558
20
2.41064008139554
30
0
41
1
10
42.1015997907959
20
2.41018547795818
30
0
41
1
10
42.1030418880188
20
2.4095834073689
30
0
41
1
10
42.1048461608033
20
2.40883844482997
30
0
41
1
10
42.1070138319558
20
2.407956689169
30
0
41
1
10
42.1091839487211
20
2.4070871311632
30
0
41
1
10
42.1113564129009
20
2.40622976908202
30
0
41
1
10
42.1135311262968
20
2.4053846011949
30
0
41
1
10
42.1157079907106
20
2.40455162577126
30
0
41
1
10
42.1186132136883
20
2.40345724618365
30
0
41
1
10
42.1237041950736
20
2.40158474341357
30
0
41
1
10
42.1295365253106
20
2.39954222457763
30
0
41
1
10
42.1383014058419
20
2.39662458975147
30
0
41
1
10
42.1500130654789
20
2.39299348395198
30
0
41
1
10
42.1720158101602
20
2.38702799643241
30
0
41
1
10
42.1954692866017
20
2.38218831764041
30
0
41
1
10
42.2187314219012
20
2.37880907488028
30
0
41
1
10
42.2317155245867
20
2.3774398007765
30
0
41
1
10
42.2403174497467
20
2.3767417165347
30
0
41
1
10
42.2446043525511
20
2.37643499393803
30
0
41
1
10
42.2485181634712
20
2.37619204373942
30
0
41
1
10
42.2513657587145
20
2.37604042135195
30
0
41
1
10
42.2535055876652
20
2.37593768993281
30
0
41
1
10
42.2552921162136
20
2.37585899661934
30
0
41
1
10
42.2571262910332
20
2.37578611338572
30
0
41
1
10
42.2582536708653
20
2.37574416904599
30
0
41
1
10
42.2586513338525
20
2.37572962582962
30
0
0
SPLINE
5
1F3
100
AcDbEntity
8
1
62
256
6
ByLayer
370
-1
48
1
60
0
100
AcDbSpline
70
4
71
3
72
14
73
10
40
0
40
0
40
0
40
0
40
0.185621159235335
40
0.627925247419619
40
0.738501269465691
40
0.849077291511762
40
0.904365302534797
40
0.959653313557833
40
1
40
1
40
1
40
1
41
1
10
46.6363340649177
20
6.81985181024487
30
0
41
1
10
46.6361990785069
20
6.82244855955608
30
0
41
1
10
46.6357000124368
20
6.8312309248218
30
0
41
1
10
46.6349407658487
20
6.84155023305496
30
0
41
1
10
46.6341288173426
20
6.85080879819787
30
0
41
1
10
46.6337668169022
20
6.85466405778962
30
0
41
1
10
46.6334617757899
20
6.85774650580333
30
0
41
1
10
46.6332480826224
20
6.85984952812694
30
0
41
1
10
46.63311047049
20
6.86118196895549
30
0
41
1
10
46.6330521629315
20
6.86174408422391
30
0
0
SPLINE
5
1F4
100
AcDbEntity
8
1
62
256
6
ByLayer
370
-1
48
1
60
0
100
AcDbSpline
70
4
71
3
72
40
73
36
40
0
40
0
40
0
40
0
40
0.015625
40
0.03125
40
0.03515625
40
0.0390625
40
0.046875
40
0.0625
40
0.125
40
0.1875
40
0.25
40
0.3125
40
0.34375
40
0.3515625
40
0.359375
40
0.375
40
0.4375
40
0.5
40
0.5625
40
0.59375
40
0.6015625
40
0.609375
40
0.625
40
0.640625
40
0.6484375
40
0.65625
40
0.6875
40
0.71875
40
0.75
40
0.78125
40
0.796875
40
0.8046875
40
0.8125
40
0.875
40
1
40
1
40
1
40
1
41
1
10
46.0304547337043
20
4.98412656193432
30
0
41
1
10
46.0340566386542
20
4.98425282369089
30
0
41
1
10
46.0414353819754
20
4.98450905051669
30
0
41
1
10
46.0495325988878
20
4.98478460726753
30
0
41
1
10
46.05460593107
20
4.98495494917069
30
0
41
1
10
46.0578958737136
20
4.98506469249347
30
0
41
1
10
46.0637104342701
20
4.98525873000867
30
0
41
1
10
46.081928623149
20
4.98586661083328
30
0
41
1
10
46.1117703954
20
4.98686237421711
30
0
41
1
10
46.1515473701215
20
4.98818963974398
30
0
41
1
10
46.1913212519719
20
4.98951679664066
30
0
41
1
10
46.2244710691594
20
4.99062293704958
30
0
41
1
10
46.2460135175628
20
4.99134174627193
30
0
41
1
10
46.2559614249959
20
4.99167369849377
30
0
41
1
10
46.262567874332
20
4.99189409917943
30
0
41
1
10
46.2808195279642
20
4.99250436928611
30
0
41
1
10
46.3118217302443
20
4.99354845179161
30
0
41
1
10
46.3547249196104
20
4.99500909425515
30
0
41
1
10
46.3911444436164
20
4.99626167948972
30
0
41
1
10
46.4148336189451
20
4.99708241634104
30
0
41
1
10
46.4257223717879
20
4.99746078931841
30
0
41
1
10
46.4330165752839
20
4.99771456883215
30
0
41
1
10
46.4421693864614
20
4.99803296056353
30
0
41
1
10
46.4513086316693
20
4.99835089778136
30
0
41
1
10
46.4586272539104
20
4.99860549541953
30
0
41
1
10
46.4695734875393
20
4.99898631904858
30
0
41
1
10
46.4860144195595
20
4.99956012701802
30
0
41
1
10
46.5079013107634
20
5.00032764644388
30
0
41
1
10
46.5296516826305
20
5.00109405618849
30
0
41
1
10
46.5475848675195
20
5.00172907316878
30
0
41
1
10
46.5599842528633
20
5.00216976322187
30
0
41
1
10
46.5670386386585
20
5.00242096195333
30
0
41
1
10
46.5847052790797
20
5.00304994155573
30
0
41
1
10
46.6288590485815
20
5.00462200471631
30
0
41
1
10
46.6712528163342
20
5.00613137025212
30
0
41
1
10
46.6995139796977
20
5.00713757339406
30
0
0
SPLINE
5
1F5
100
AcDbEntity
8
1
62
256
6
ByLayer
370
-1
48
1
60
0
100
AcDbSpline
70
4
71
3
72
20
73
16
40
0
40
0
40
0
40
0
40
0.0011113171582905
40
0.0024035405513587
40
0.0036957639444269
40
0.0049879873374951
40
0.0075724341236314
40
0.0080893234808585
40
0.0086062128380859
40
0.0088630422374583
40
0.0907916206372229
40
0.17297702843636
40
0.338381622749088
40
0.669190811374544
40
1
40
1
40
1
40
1
41
1
10
42.432114718186
20
3.49785081451301
30
0
41
1
10
42.432097207944
20
3.49835411849301
30
0
41
1
10
42.4320593370786
20
3.49944265644058
30
0
41
1
10
42.432001105684
20
3.50111642661804
30
0
41
1
10
42.4319400240161
20
3.50287212479253
30
0
41
1
10
42.4318585819786
20
3.50521305225891
30
0
41
1
10
42.4317893564992
20
3.50720283595584
30
0
41
1
10
42.4317323474668
20
3.5088414779311
30
0
41
1
10
42.4317120125706
20
3.50942597526526
30
0
41
1
10
42.4304089514415
20
3.54688060352402
30
0
41
1
10
42.4278193401126
20
3.62131757745735
30
0
41
1
10
42.4226284904831
20
3.77053207652114
30
0
41
1
10
42.4135179544597
20
4.03242979113398
30
0
41
1
10
42.400489559038
20
4.40693527494977
30
0
41
1
10
42.3900671577339
20
4.70653386158384
30
0
41
1
10
42.3848559570819
20
4.85633315490085
30
0
0
SPLINE
5
1F6
100
AcDbEntity
8
1
62
256
6
ByLayer
370
-1
48
1
60
0
100
AcDbSpline
70
4
71
3
72
25
73
21
40
0
40
0
40
0
40
0
40
0.0031159645604614
40
0.0146460991234343
40
0.0204111664049207
40
0.0607666373753257
40
0.106887175627217
40
0.199128252131
40
0.291369328634783
40
0.383610405138566
40
0.752574711153697
40
0.84481578765748
40
0.931291796879777
40
0.937056864161263
40
0.948586998724236
40
0.960117133287209
40
0.977412335131668
40
0.983177402413154
40
0.994707536976127
40
1
40
1
40
1
40
1
41
1
10
46.6330521629315
20
6.86174408422391
30
0
41
1
10
46.6330305702747
20
6.86195224869584
30
0
41
1
10
46.6329289154196
20
6.86293068044753
30
0
41
1
10
46.6327864054988
20
6.86429418385973
30
0
41
1
10
46.6323837988546
20
6.86814536964931
30
0
41
1
10
46.6317392506459
20
6.87430732047613
30
0
41
1
10
46.6304894501424
20
6.8862460360823
30
0
41
1
10
46.6288756682943
20
6.90165008762921
30
0
41
1
10
46.6269402065791
20
6.9201318077354
30
0
41
1
10
46.6230686001253
20
6.95710821585243
30
0
41
1
10
46.6191881960415
20
6.99416517224347
30
0
41
1
10
46.6153739122403
20
7.03060082315818
30
0
41
1
10
46.6140814376723
20
7.04294404615516
30
0
41
1
10
46.6133491971825
20
7.04993493419411
30
0
41
1
10
46.6131455145745
20
7.05187943376097
30
0
41
1
10
46.6128612318707
20
7.05459374072746
30
0
41
1
10
46.6126199965276
20
7.05689799048085
30
0
41
1
10
46.6123825099149
20
7.05916791806203
30
0
41
1
10
46.6122295601068
20
7.06063068915356
30
0
41
1
10
46.6121158846747
20
7.06170623183885
30
0
41
1
10
46.612080085996
20
7.06204323908531
30
0
0
SPLINE
5
1F7
100
AcDbEntity
8
1
62
256
6
ByLayer
370
-1
48
1
60
0
100
AcDbSpline
70
4
71
1
72
4
73
2
40
0
40
0
40
1
40
1
41
1
10
46.1126725815382
20
2.49482011786023
30
0
41
1
10
46.0989080620348
20
2.49433761417529
30
0
0
SPLINE
5
1F8
100
AcDbEntity
8
1
62
256
6
ByLayer
370
-1
48
1
60
0
100
AcDbSpline
70
4
71
1
72
4
73
2
40
0
40
0
40
1
40
1
41
1
10
41.8040926151523
20
3.02060155707494
30
0
41
1
10
41.8036119475395
20
3.03441865480673
30
0
0
SPLINE
5
1F9
100
AcDbEntity
8
1
62
256
6
ByLayer
370
-1
48
1
60
0
100
AcDbSpline
70
4
71
3
72
14
73
10
40
0
40
0
40
0
40
0
40
0.18562115923528
40
0.627925247419526
40
0.738501269465588
40
0.849077291511649
40
0.90436530253468
40
0.959653313557711
40
1
40
1
40
1
40
1
41
1
10
42.3278796226066
20
7.34551994493407
30
0
41
1
10
42.3252927547105
20
7.34538444289703
30
0
41
1
10
42.3165438089961
20
7.34488347047562
30
0
41
1
10
42.3062637688462
20
7.34412132368894
30
0
41
1
10
42.2970404353389
20
7.34330627367146
30
0
41
1
10
42.2931998461738
20
7.34294289044814
30
0
41
1
10
42.2901291278054
20
7.34263668412842
30
0
41
1
10
42.2880341081167
20
7.3424221746877
30
0
41
1
10
42.2867067376278
20
7.34228403689923
30
0
41
1
10
42.2861467613777
20
7.34222550661542
30
0
0
SPLINE
5
1FA
100
AcDbEntity
8
1
62
256
6
ByLayer
370
-1
48
1
60
0
100
AcDbSpline
70
4
71
1
72
4
73
2
40
0
40
0
40
1
40
1
41
1
10
42.327873297253
20
7.34563959897497
30
0
41
1
10
42.3416378167564
20
7.3461221026599
30
0
0
SPLINE
5
1FB
100
AcDbEntity
8
1
62
256
6
ByLayer
370
-1
48
1
60
0
100
AcDbSpline
70
4
71
3
72
14
73
10
40
0
40
0
40
0
40
0
40
0.185621159235271
40
0.627925247419495
40
0.738501269465551
40
0.849077291511607
40
0.904365302534635
40
0.959653313557663
40
1
40
1
40
1
40
1
41
1
10
46.1126662561846
20
2.49493977190113
30
0
41
1
10
46.1152531240807
20
2.4950752739382
30
0
41
1
10
46.1240020697951
20
2.49557624635961
30
0
41
1
10
46.134282109945
20
2.49633839314626
30
0
41
1
10
46.1435054434523
20
2.49715344316374
30
0
41
1
10
46.1473460326173
20
2.49751682638708
30
0
41
1
10
46.1504167509857
20
2.49782303270678
30
0
41
1
10
46.1525117706745
20
2.49803754214753
30
0
41
1
10
46.1538391411634
20
2.49817567993597
30
0
41
1
10
46.1543991174135
20
2.49823421021981
30
0
0
SPLINE
5
1FC
100
AcDbEntity
8
1
62
256
6
ByLayer
370
-1
48
1
60
0
100
AcDbSpline
70
4
71
1
72
4
73
2
40
0
40
0
40
1
40
1
41
1
10
46.6995139796977
20
5.00713757339412
30
0
41
1
10
46.7620940281436
20
3.20823408475977
30
0
0
SPLINE
5
1FD
100
AcDbEntity
8
1
62
256
6
ByLayer
370
-1
48
1
60
0
100
AcDbSpline
70
4
71
1
72
4
73
2
40
0
40
0
40
1
40
1
41
1
10
45.925754052269
20
7.47176029078892
30
0
41
1
10
45.9395185717725
20
7.47224279447386
30
0
0
SPLINE
5
1FE
100
AcDbEntity
8
1
62
256
6
ByLayer
370
-1
48
1
60
0
100
AcDbSpline
70
4
71
1
72
4
73
2
40
0
40
0
40
1
40
1
41
1
10
42.5147918265222
20
2.36869942604628
30
0
41
1
10
42.5010273070187
20
2.36821692236134
30
0
0
SPLINE
5
1FF
100
AcDbEntity
8
1
62
256
6
ByLayer
370
-1
48
1
60
0
100
AcDbSpline
70
4
71
3
72
14
73
10
40
0
40
0
40
0
40
0
40
0.0403466864446634
40
0.150922708497198
40
0.261498730549732
40
0.372074752602266
40
0.593226796707335
40
0.814378840812403
40
1
40
1
40
1
40
1
41
1
10
45.9813807126957
20
7.47175883306181
30
0
41
1
10
45.98081803319
20
7.47177800958983
30
0
41
1
10
45.9787132415402
20
7.47184879588292
30
0
41
1
10
45.9750662542301
20
7.47196187796038
30
0
41
1
10
45.9704384715616
20
7.47207416043105
30
0
41
1
10
45.9642668018315
20
7.47218564025792
30
0
41
1
10
45.9565507245267
20
7.4722595506995
30
0
41
1
10
45.947786917393
20
7.47224207794474
30
0
41
1
10
45.9421105593032
20
7.47216895709866
30
0
41
1
10
45.939520576712
20
7.47212298898444
30
0
0
SPLINE
5
200
100
AcDbEntity
8
1
62
256
6
ByLayer
370
-1
48
1
60
0
100
AcDbSpline
70
4
71
3
72
24
73
20
40
0
40
0
40
0
40
0
40
0.0052924630237951
40
0.0168225975867756
40
0.0283527321497562
40
0.0398828667127289
40
0.0629431358386875
40
0.0744732704016628
40
0.109063674090599
40
0.155184212342509
40
0.247425288846335
40
0.431907441853982
40
0.616389594861629
40
0.800871747869277
40
0.893112824373099
40
0.97958883359544
40
0.985353900876924
40
0.996884035439902
40
1
40
1
40
1
40
1
41
1
10
41.6854552983982
20
6.88934453981537
30
0
41
1
10
41.6854430059037
20
6.88900584677322
30
0
41
1
10
41.6854043479475
20
6.88792496416875
30
0
41
1
10
41.6853404218541
20
6.88607987804366
30
0
41
1
10
41.6852608605141
20
6.88378884438225
30
0
41
1
10
41.6851532618151
20
6.8806954953385
30
0
41
1
10
41.6850442550725
20
6.87756628181535
30
0
41
1
10
41.6848812348687
20
6.87288494010178
30
0
41
1
10
41.6846646813393
20
6.86666369979852
30
0
41
1
10
41.6842606585368
20
6.85505020024206
30
0
41
1
10
41.6835102340664
20
6.83346722088604
30
0
41
1
10
41.6824335072973
20
6.80251488743568
30
0
41
1
10
41.681138953252
20
6.76530886989542
30
0
41
1
10
41.6800622774255
20
6.73435783401072
30
0
41
1
10
41.6792127108347
20
6.70997757459398
30
0
41
1
10
41.6787824093301
20
6.69759326729019
30
0
41
1
10
41.67854120384
20
6.69062727414405
30
0
41
1
10
41.6784937923218
20
6.68925711319514
30
0
41
1
10
41.6784603773224
20
6.68827394668304
30
0
41
1
10
41.6784533028276
20
6.68806477730817
30
0
0
SPLINE
5
201
100
AcDbEntity
8
1
62
256
6
ByLayer
370
-1
48
1
60
0
100
AcDbSpline
70
4
71
3
72
14
73
10
40
0
40
0
40
0
40
0
40
0.0403466864445568
40
0.150922708497074
40
0.261498730549592
40
0.372074752602109
40
0.593226796707145
40
0.81437884081218
40
1
40
1
40
1
40
1
41
1
10
41.6784533028276
20
6.68806477730811
30
0
41
1
10
41.678434199272
20
6.68749994845803
30
0
41
1
10
41.6783636823422
20
6.68538711684613
30
0
41
1
10
41.6782510305761
20
6.68172619863697
30
0
41
1
10
41.6781391753742
20
6.67708073859046
30
0
41
1
10
41.6780281197617
20
6.67088549408464
30
0
41
1
10
41.6779544905717
20
6.66313994261805
30
0
41
1
10
41.6779718968373
20
6.65434265916485
30
0
41
1
10
41.6780447394365
20
6.64864461830925
30
0
41
1
10
41.6780905326282
20
6.64604474240536
30
0
0
SPLINE
5
202
100
AcDbEntity
8
1
62
256
6
ByLayer
370
-1
48
1
60
0
100
AcDbSpline
70
4
71
3
72
83
73
79
40
0
40
0
40
0
40
0
40
0.0019524496734469
40
0.0055614898932041
40
0.0091705301129612
40
0.0127795703327183
40
0.0163886105524755
40
0.0236066909919898
40
0.030824771431504
40
0.0380428518710183
40
0.0957874953871325
40
0.153532138903247
40
0.182404460661304
40
0.211276782419361
40
0.218494862858875
40
0.22571294329839
40
0.23834458406754
40
0.240149104177418
40
0.243758144397175
40
0.247367184616932
40
0.253683005001507
40
0.254585265056447
40
0.256389785166325
40
0.258194305276204
40
0.261803345495961
40
0.263607865605839
40
0.265412385715718
40
0.269021425935475
40
0.297893747693532
40
0.326766069451589
40
0.355638391209647
40
0.384510712967704
40
0.413383034725761
40
0.442255356483818
40
0.471127678241875
40
0.499999999999932
40
0.514436160878961
40
0.528872321757989
40
0.557744643516046
40
0.572180804395075
40
0.586616965274105
40
0.61548928703216
40
0.62992544791119
40
0.644361608790217
40
0.673233930548274
40
0.687670091427303
40
0.702106252306332
40
0.71654241318536
40
0.730978574064389
40
0.732783094174267
40
0.734587614284146
40
0.736392134394025
40
0.738196654503903
40
0.740001174613781
40
0.741805694723661
40
0.745414734943417
40
0.749023775163176
40
0.752632815382931
40
0.75624185560269
40
0.759850895822446
40
0.763459936042203
40
0.76706897626196
40
0.774287056701473
40
0.788723217580503
40
0.795941298020017
40
0.81759553933856
40
0.846467861096617
40
0.904212504612731
40
0.933084826370788
40
0.961957148128845
40
0.969175228568361
40
0.976393309007874
40
0.98361138944739
40
0.989024949777024
40
0.990829469886903
40
0.99443851010666
40
0.998047550326417
40
1
40
1
40
1
40
1
41
1
10
46.612080085996
20
7.06204323908531
30
0
41
1
10
46.612037893845
20
7.0624404342098
30
0
41
1
10
46.61191756886
20
7.06356643782968
30
0
41
1
10
46.6117171942657
20
7.06539804979718
30
0
41
1
10
46.6114738044698
20
7.06753824369144
30
0
41
1
10
46.6112197902407
20
7.06967231791518
30
0
41
1
10
46.6108669274703
20
7.07251283110884
30
0
41
1
10
46.6103992458467
20
7.07606032513462
30
0
41
1
10
46.6097953955168
20
7.0803317247555
30
0
41
1
10
46.6076391059171
20
7.09460681362864
30
0
41
1
10
46.6028656752704
20
7.11907457066488
30
0
41
1
10
46.5948087380031
20
7.14800971599212
30
0
41
1
10
46.5868480504408
20
7.17106769775612
30
0
41
1
10
46.5817978959743
20
7.18396770798248
30
0
41
1
10
46.5781909768426
20
7.19252337788541
30
0
41
1
10
46.5758766663154
20
7.19785860280592
30
0
41
1
10
46.5739592896487
20
7.20211242410247
30
0
41
1
10
46.5723215791
20
7.20564742434678
30
0
41
1
10
46.5714952448051
20
7.20741304667027
30
0
41
1
10
46.5702407917344
20
7.21005760149066
30
0
41
1
10
46.5692207895408
20
7.21216884344142
30
0
41
1
10
46.5683608317172
20
7.21392540033332
30
0
41
1
10
46.5679289862566
20
7.21480314779589
30
0
41
1
10
46.567234052404
20
7.21620639456231
30
0
41
1
10
46.5665331481605
20
7.21760789295476
30
0
41
1
10
46.5658262760911
20
7.21900759374626
30
0
41
1
10
46.5651154263262
20
7.22040607972809
30
0
41
1
10
46.5617105549542
20
7.22704011570889
30
0
41
1
10
46.5553135297568
20
7.23881484971224
30
0
41
1
10
46.5455305169755
20
7.25514459585062
30
0
41
1
10
46.5350068924701
20
7.27113022153014
30
0
41
1
10
46.5237627705799
20
7.2867225927198
30
0
41
1
10
46.5118182656445
20
7.30187257538856
30
0
41
1
10
46.4992019803333
20
7.31653453349722
30
0
41
1
10
46.4859425173157
20
7.33066283100663
30
0
41
1
10
46.4743871830043
20
7.34195807990415
30
0
41
1
10
46.4648575662524
20
7.35068711048933
30
0
41
1
10
46.4551448190967
20
7.35920578280073
30
0
41
1
10
46.4451680300329
20
7.36740054882347
30
0
41
1
10
46.4349485064555
20
7.37525467080167
30
0
41
1
10
46.424575051012
20
7.38287745365403
30
0
41
1
10
46.4139825344837
20
7.39014686317338
30
0
41
1
10
46.4031946302993
20
7.39705017007122
30
0
41
1
10
46.3922848395
20
7.40370662279278
30
0
41
1
10
46.3812047765116
20
7.40998861560706
30
0
41
1
10
46.3699795568012
20
7.41588779122827
30
0
41
1
10
46.3614944618302
20
7.4201197912648
30
0
41
1
10
46.3529495848438
20
7.4241584365391
30
0
41
1
10
46.3468591500898
20
7.42688149471815
30
0
41
1
10
46.3432655291447
20
7.428437519992
30
0
41
1
10
46.3421867209848
20
7.42890127621348
30
0
41
1
10
46.3411072032234
20
7.42936198129058
30
0
41
1
10
46.3400269881353
20
7.42981963543969
30
0
41
1
10
46.3389460879953
20
7.43027423887705
30
0
41
1
10
46.3375039907724
20
7.43087630946633
30
0
41
1
10
46.3356997179879
20
7.43162127200526
30
0
41
1
10
46.3335320468354
20
7.43250302766623
30
0
41
1
10
46.3313619300701
20
7.433372585672
30
0
41
1
10
46.3291894658903
20
7.43422994775318
30
0
41
1
10
46.3270147524944
20
7.4350751156403
30
0
41
1
10
46.3248378880806
20
7.43590809106394
30
0
41
1
10
46.3219326651029
20
7.43700247065158
30
0
41
1
10
46.3168416837175
20
7.43887497342163
30
0
41
1
10
46.3110093534806
20
7.44091749225757
30
0
41
1
10
46.3022444729493
20
7.44383512708376
30
0
41
1
10
46.2905328133122
20
7.44746623288322
30
0
41
1
10
46.2685300686309
20
7.45343172040282
30
0
41
1
10
46.2450765921895
20
7.45827139919481
30
0
41
1
10
46.22181445689
20
7.46165064195495
30
0
41
1
10
46.2088303542045
20
7.4630199160587
30
0
41
1
10
46.2002284290445
20
7.46371800030053
30
0
41
1
10
46.19594152624
20
7.46402472289719
30
0
41
1
10
46.19202771532
20
7.4642676730958
30
0
41
1
10
46.1891801200767
20
7.46441929548325
30
0
41
1
10
46.187040291126
20
7.46452202690239
30
0
41
1
10
46.1852537625776
20
7.46460072021586
30
0
41
1
10
46.183419587758
20
7.46467360344951
30
0
41
1
10
46.1822922079258
20
7.46471554778921
30
0
41
1
10
46.1818945449386
20
7.46473009100561
30
0
0
SPLINE
5
203
100
AcDbEntity
8
1
62
256
6
ByLayer
370
-1
48
1
60
0
100
AcDbSpline
70
4
71
3
72
40
73
36
40
0
40
0
40
0
40
0
40
0.015625
40
0.03125
40
0.03515625
40
0.0390625
40
0.046875
40
0.0625
40
0.125
40
0.1875
40
0.25
40
0.3125
40
0.34375
40
0.3515625
40
0.359375
40
0.375
40
0.4375
40
0.5
40
0.5625
40
0.59375
40
0.6015625
40
0.609375
40
0.625
40
0.640625
40
0.6484375
40
0.65625
40
0.6875
40
0.71875
40
0.75
40
0.78125
40
0.796875
40
0.8046875
40
0.8125
40
0.875
40
1
40
1
40
1
40
1
41
1
10
44.2713089026621
20
3.09046767256893
30
0
41
1
10
44.2714346839546
20
3.08685200892725
30
0
41
1
10
44.2717592237317
20
3.0795146326459
30
0
41
1
10
44.2722700632135
20
3.07162371973516
30
0
41
1
10
44.2726536973006
20
3.06674576585201
30
0
41
1
10
44.2729222867578
20
3.06360312826453
30
0
41
1
10
44.273394783215
20
3.05804662083298
30
0
41
1
10
44.2748773510128
20
3.04063919157349
30
0
41
1
10
44.2773046729252
20
3.01212425910444
30
0
41
1
10
44.2805405823055
20
2.9741163473031
30
0
41
1
10
44.2837763895226
20
2.93611154626393
30
0
41
1
10
44.2864729566701
20
2.90443582934719
30
0
41
1
10
44.2882258044022
20
2.88385182639385
30
0
41
1
10
44.2890347056737
20
2.8743459584916
30
0
41
1
10
44.289573284118
20
2.86803450863306
30
0
41
1
10
44.2910235371319
20
2.85055865928726
30
0
41
1
10
44.2932810110345
20
2.82066004821164
30
0
41
1
10
44.2959711227457
20
2.77883272066947
30
0
41
1
10
44.2979056111844
20
2.74296337263397
30
0
41
1
10
44.2989990072171
20
2.71946054428065
30
0
41
1
10
44.2994707399473
20
2.70862535986606
30
0
41
1
10
44.2997781170645
20
2.70135806543186
30
0
41
1
10
44.3001652571499
20
2.69224051916893
30
0
41
1
10
44.3005513445186
20
2.68313598847095
30
0
41
1
10
44.300860616526
20
2.67584526601985
30
0
41
1
10
44.3013223609312
20
2.66493990412161
30
0
41
1
10
44.3019657346793
20
2.64850819377384
30
0
41
1
10
44.3027219802638
20
2.62652931309518
30
0
41
1
10
44.3033722572441
20
2.60458220952916
30
0
41
1
10
44.3038227331356
20
2.58639770244315
30
0
41
1
10
44.3040894414086
20
2.57377799046387
30
0
41
1
10
44.3042280525717
20
2.56658459996473
30
0
41
1
10
44.304578199583
20
2.54857298076075
30
0
41
1
10
44.3054513583045
20
2.503554981918
30
0
41
1
10
44.3062906491635
20
2.46033240813742
30
0
41
1
10
44.3068499442786
20
2.43151852011079
30
0
0
SPLINE
5
204
100
AcDbEntity
8
1
62
256
6
ByLayer
370
-1
48
1
60
0
100
AcDbSpline
70
4
71
3
72
150
73
146
40
0
40
0
40
0
40
0
40
0.200919836739823
40
0.401839673479645
40
0.452069632664601
40
0.502299591849557
40
0.552215613789606
40
0.577173624759631
40
0.601975648161093
40
0.602131635729656
40
0.602445572974563
40
0.602759510219468
40
0.604329196443998
40
0.605114039556263
40
0.605898882668528
40
0.607468568893058
40
0.608253412005322
40
0.609038255117588
40
0.60943067667372
40
0.612177627566647
40
0.615317000015707
40
0.618456372464767
40
0.621595744913827
40
0.623165431138356
40
0.624735117362886
40
0.626304803587416
40
0.627089646699681
40
0.627874489811946
40
0.628266911368078
40
0.634153234710066
40
0.640431979608185
40
0.652989469404424
40
0.665546959200663
40
0.678104448996902
40
0.684383193895021
40
0.687522566344081
40
0.689877095680876
40
0.690661938793141
40
0.692231625017671
40
0.693016468129935
40
0.6938013112422
40
0.694586154354465
40
0.69537099746673
40
0.696155840578995
40
0.69694068369126
40
0.697333105247393
40
0.69851036991579
40
0.70008005614032
40
0.701649742364849
40
0.70321942858938
40
0.709498173487499
40
0.715776918385618
40
0.728334408181857
40
0.734613153079977
40
0.739322211753567
40
0.740891897978096
40
0.744031270427156
40
0.745600956651686
40
0.746385799763951
40
0.747170642876216
40
0.747955485988481
40
0.748740329100746
40
0.74952517221301
40
0.750310015325276
40
0.75109485843754
40
0.751487279993673
40
0.751879701549805
40
0.752272123105938
40
0.75266454466207
40
0.753056966218203
40
0.753449387774335
40
0.756588760223395
40
0.759728132672455
40
0.762867505121515
40
0.766006877570574
40
0.772285622468694
40
0.775424994917753
40
0.778564367366813
40
0.784843112264932
40
0.787982484713992
40
0.791121857163052
40
0.797400602061171
40
0.800539974510231
40
0.803679346959291
40
0.80995809185741
40
0.81623683675553
40
0.822515581653649
40
0.828794326551769
40
0.835073071449888
40
0.841351816348008
40
0.847630561246127
40
0.853909306144247
40
0.854694149256512
40
0.855086570812644
40
0.855478992368776
40
0.856263835481041
40
0.856656257037174
40
0.857048678593306
40
0.857244889371373
40
0.858618364817836
40
0.859403207930101
40
0.860188051042366
40
0.860580472598498
40
0.863327423491426
40
0.864897109715956
40
0.866466795940485
40
0.872745540838605
40
0.879024285736724
40
0.891581775532963
40
0.904139265329202
40
0.905708951553732
40
0.907278637778262
40
0.908848324002792
40
0.909633167115057
40
0.910418010227322
40
0.911202853339587
40
0.911987696451852
40
0.912772539564117
40
0.913557382676381
40
0.913949804232514
40
0.915127068900911
40
0.915911912013176
40
0.916696755125441
40
0.917089176681574
40
0.922975500023561
40
0.92925424492168
40
0.954369224514158
40
0.960647969412277
40
0.966926714310397
40
0.973205459208516
40
0.976344831657576
40
0.979091782550503
40
0.979484204106636
40
0.980269047218901
40
0.981053890331166
40
0.981838733443431
40
0.982623576555696
40
0.984193262780225
40
0.985762949004755
40
0.992041693902875
40
0.995181066351934
40
0.997535595688729
40
0.998320438800994
40
0.999890125025524
40
1
40
1
40
1
40
1
41
1
10
44.1440017881241
20
6.74999204426629
30
0
41
1
10
44.2932310499045
20
6.75522315085823
30
0
41
1
10
44.5916895734651
20
6.76568536404213
30
0
41
1
10
44.9274619219976
20
6.77745545416829
30
0
41
1
10
45.1512944229962
20
6.78530193854127
30
0
41
1
10
45.2629782745849
20
6.78921701901521
30
0
41
1
10
45.3558965750199
20
6.79247419665313
30
0
41
1
10
45.4299330393141
20
6.79506940359681
30
0
41
1
10
45.467010924841
20
6.79636906427646
30
0
41
1
10
45.4857835794977
20
6.79702707655832
30
0
41
1
10
45.4863658527456
20
6.79704748618306
30
0
41
1
10
45.4879982594824
20
6.79710470467293
30
0
41
1
10
45.4899804718083
20
6.79717418433162
30
0
41
1
10
45.4923124917659
20
6.79725592519065
30
0
41
1
10
45.494644515148
20
6.79733766610241
30
0
41
1
10
45.4969765433473
20
6.79741940708843
30
0
41
1
10
45.4993085757241
20
6.79750114813879
30
0
41
1
10
45.500766097567
20
6.79755223632003
30
0
41
1
10
45.503681143464
20
6.79765441271658
30
0
41
1
10
45.5083452259076
20
6.79781789508985
30
0
41
1
10
45.5150498606563
20
6.79805290125159
30
0
41
1
10
45.5220460091024
20
6.79829812519333
30
0
41
1
10
45.5278761308126
20
6.79850247844735
30
0
41
1
10
45.5325402218675
20
6.79866596095329
30
0
41
1
10
45.536038285723
20
6.79878857276444
30
0
41
1
10
45.5389533341736
20
6.79889074920033
30
0
41
1
10
45.5412853694371
20
6.79897249029517
30
0
41
1
10
45.5427428898865
20
6.79902357845492
30
0
41
1
10
45.5479899588509
20
6.79920749575842
30
0
41
1
10
45.5573180356265
20
6.7995344591474
30
0
41
1
10
45.5756824143908
20
6.80017816412271
30
0
41
1
10
45.5990015202179
20
6.80099555586116
30
0
41
1
10
45.6269826079656
20
6.80197639760945
30
0
41
1
10
45.6502981026444
20
6.80279373370982
30
0
41
1
10
45.6666175712226
20
6.80336584775347
30
0
41
1
10
45.6753597362769
20
6.80367233114282
30
0
41
1
10
45.6800220915907
20
6.80383578690567
30
0
41
1
10
45.6835187992794
20
6.80395837782191
30
0
41
1
10
45.6858499080206
20
6.80404010464156
30
0
41
1
10
45.6881809864042
20
6.80412183099344
30
0
41
1
10
45.6899292798532
20
6.80418312552104
30
0
41
1
10
45.6916775578036
20
6.80424441980983
30
0
41
1
10
45.6934258200956
20
6.80430571385739
30
0
41
1
10
45.6951740665692
20
6.80436700766123
30
0
41
1
10
45.6966309253154
20
6.80441808562594
30
0
41
1
10
45.6983791437073
20
6.80447937899709
30
0
41
1
10
45.700710079939
20
6.80456110315882
30
0
41
1
10
45.7039150644553
20
6.80467347306765
30
0
41
1
10
45.7074113440898
20
6.80479605738873
30
0
41
1
10
45.7144037665795
20
6.8050412239235
30
0
41
1
10
45.7248918777986
20
6.8054089656751
30
0
41
1
10
45.7435400631996
20
6.80606276968535
30
0
41
1
10
45.7621984410335
20
6.80671673073357
30
0
41
1
10
45.7797118711266
20
6.80733014586457
30
0
41
1
10
45.7890353228186
20
6.80765703799349
30
0
41
1
10
45.796013008232
20
6.80790197746964
30
0
41
1
10
45.8006560803913
20
6.80806513613103
30
0
41
1
10
45.8047378394101
20
6.80820819379065
30
0
41
1
10
45.8070795361336
20
6.80829008374255
30
0
41
1
10
45.8088413937195
20
6.80835158725694
30
0
41
1
10
45.8106097898927
20
6.80841319151335
30
0
41
1
10
45.8123729143298
20
6.80847471454652
30
0
41
1
10
45.8141189567079
20
6.80853597439116
30
0
41
1
10
45.8158361067038
20
6.80859678908206
30
0
41
1
10
45.8172331461124
20
6.80864694539196
30
0
41
1
10
45.8183301937058
20
6.80868181568187
30
0
41
1
10
45.8191426292887
20
6.80870410572066
30
0
41
1
10
45.8199446566144
20
6.80872129778118
30
0
41
1
10
45.8207407599992
20
6.80873375213443
30
0
41
1
10
45.8215354237597
20
6.80874182905134
30
0
41
1
10
45.8241854291968
20
6.80875436697579
30
0
41
1
10
45.8287443802636
20
6.80866721355355
30
0
41
1
10
45.8352835881228
20
6.80825840977383
30
0
41
1
10
45.8418934958752
20
6.80755031183099
30
0
41
1
10
45.8507794472233
20
6.80619146230657
30
0
41
1
10
45.8597422218199
20
6.80418704430662
30
0
41
1
10
45.8686875498778
20
6.80151560593436
30
0
41
1
10
45.8775898236475
20
6.79839233668164
30
0
41
1
10
45.8863803810914
20
6.79458059515986
30
0
41
1
10
45.8949562122299
20
6.79009712338029
30
0
41
1
10
45.9033545558383
20
6.78517141209934
30
0
41
1
10
45.911435163162
20
6.77959071257192
30
0
41
1
10
45.9191056474155
20
6.77341205178945
30
0
41
1
10
45.926471920694
20
6.76685375916747
30
0
41
1
10
45.9350516249727
20
6.75797972556046
30
0
41
1
10
45.9442160180432
20
6.74642608825843
30
0
41
1
10
45.9521229266965
20
6.73414472553631
30
0
41
1
10
45.9587247043559
20
6.72133960481716
30
0
41
1
10
45.9639737044449
20
6.70821469352396
30
0
41
1
10
45.9678994115253
20
6.69496178321174
30
0
41
1
10
45.9705313101593
20
6.68177266543552
30
0
41
1
10
45.9715388829212
20
6.67257181189416
30
0
41
1
10
45.9718525806894
20
6.66753398703733
30
0
41
1
10
45.9719101228586
20
6.66646989841504
30
0
41
1
10
45.9719619384295
20
6.66539745970007
30
0
41
1
10
45.9720050736715
20
6.66430346462258
30
0
41
1
10
45.9720444227657
20
6.66318849076376
30
0
41
1
10
45.9720684580091
20
6.66248301127251
30
0
41
1
10
45.9721172210165
20
6.66105930153995
30
0
41
1
10
45.9721777919379
20
6.65931300727325
30
0
41
1
10
45.9722551040889
20
6.65710070773863
30
0
41
1
10
45.9723068847068
20
6.6556214375087
30
0
41
1
10
45.9724100009493
20
6.65267109030191
30
0
41
1
10
45.9725324202936
20
6.6491549803045
30
0
41
1
10
45.9726844246978
20
6.64477861901273
30
0
41
1
10
45.97292727575
20
6.63778299554829
30
0
41
1
10
45.9732933323012
20
6.62725678733941
30
0
41
1
10
45.973946220608
20
6.6085044743468
30
0
41
1
10
45.9747607919441
20
6.58509242017524
30
0
41
1
10
45.9754523914304
20
6.56520664877635
30
0
41
1
10
45.9758592715545
20
6.55350808859828
30
0
41
1
10
45.9759813393153
20
6.5499984519877
30
0
41
1
10
45.9760830654941
20
6.54707369874978
30
0
41
1
10
45.9761644482293
20
6.54473386316306
30
0
41
1
10
45.976225486168
20
6.54297897013512
30
0
41
1
10
45.9762865249854
20
6.54122406092958
30
0
41
1
10
45.9763475646727
20
6.53946913570664
30
0
41
1
10
45.9764086052212
20
6.53771419462666
30
0
41
1
10
45.9764594730554
20
6.53625173064597
30
0
41
1
10
45.9765205150893
20
6.5344967622168
30
0
41
1
10
45.9765815579627
20
6.53274177833123
30
0
41
1
10
45.9766527758535
20
6.53069427494142
30
0
41
1
10
45.9767036464569
20
6.52923175997373
30
0
41
1
10
45.9768867824495
20
6.52396667257534
30
0
41
1
10
45.9772123747134
20
6.51460620114111
30
0
41
1
10
45.9781790674725
20
6.48681563111694
30
0
41
1
10
45.9791561502562
20
6.4587285828585
30
0
41
1
10
45.9801333582125
20
6.43063922991289
30
0
41
1
10
45.9806219827682
20
6.41659417456418
30
0
41
1
10
45.9810291833318
20
6.40488971442835
30
0
41
1
10
45.9813447694182
20
6.39581865380217
30
0
41
1
10
45.9815076540338
20
6.39113678891556
30
0
41
1
10
45.9816094573084
20
6.38821061618333
30
0
41
1
10
45.9816603590161
20
6.38674752852137
30
0
41
1
10
45.9817214411692
20
6.38499182141402
30
0
41
1
10
45.9817825234176
20
6.38323611255393
30
0
41
1
10
45.9818639665306
20
6.38089516528385
30
0
41
1
10
45.9819657706164
20
6.37796897761572
30
0
41
1
10
45.9822101009054
20
6.37094611831915
30
0
41
1
10
45.9824951539117
20
6.3627527640144
30
0
41
1
10
45.9828005670469
20
6.35397418485016
30
0
41
1
10
45.9829634534784
20
6.34929228653002
30
0
41
1
10
45.9830856179515
20
6.34578086924216
30
0
41
1
10
45.9831495504618
20
6.343943232595
30
0
41
1
10
45.983193122188
20
6.34269083287398
30
0
41
1
10
45.9831959726002
20
6.34260890232221
30
0
0
SPLINE
5
205
100
AcDbEntity
8
1
62
256
6
ByLayer
370
-1
48
1
60
0
100
AcDbSpline
70
4
71
3
72
25
73
21
40
0
40
0
40
0
40
0
40
0.0031159645604614
40
0.0146460991234343
40
0.0204111664049207
40
0.0607666373753257
40
0.106887175627217
40
0.199128252131
40
0.291369328634783
40
0.383610405138566
40
0.752574711153697
40
0.84481578765748
40
0.931291796879777
40
0.937056864161263
40
0.948586998724236
40
0.960117133287209
40
0.977412335131668
40
0.983177402413154
40
0.994707536976127
40
1
40
1
40
1
40
1
41
1
10
41.8074937158597
20
2.97871563261131
30
0
41
1
10
41.8075153085165
20
2.97850746813938
30
0
41
1
10
41.8076169633715
20
2.97752903638769
30
0
41
1
10
41.8077594732923
20
2.9761655329755
30
0
41
1
10
41.8081620799365
20
2.97231434718589
30
0
41
1
10
41.8088066281452
20
2.96615239635909
30
0
41
1
10
41.8100564286488
20
2.95421368075293
30
0
41
1
10
41.8116702104969
20
2.93880962920599
30
0
41
1
10
41.813605672212
20
2.9203279090998
30
0
41
1
10
41.8174772786659
20
2.88335150098277
30
0
41
1
10
41.8213576827497
20
2.84629454459176
30
0
41
1
10
41.8251719665509
20
2.80985889367705
30
0
41
1
10
41.8264644411189
20
2.79751567068004
30
0
41
1
10
41.8271966816087
20
2.79052478264111
30
0
41
1
10
41.8274003642167
20
2.78858028307425
30
0
41
1
10
41.8276846469204
20
2.78586597610777
30
0
41
1
10
41.8279258822636
20
2.78356172635435
30
0
41
1
10
41.8281633688762
20
2.7812917987732
30
0
41
1
10
41.8283163186844
20
2.77982902768167
30
0
41
1
10
41.8284299941165
20
2.77875348499634
30
0
41
1
10
41.8284657927952
20
2.77841647774991
30
0
0
SPLINE
5
206
100
AcDbEntity
8
1
62
256
6
ByLayer
370
-1
48
1
60
0
100
AcDbSpline
70
4
71
3
72
25
73
21
40
0
40
0
40
0
40
0
40
0.0031159645604486
40
0.0146460991234223
40
0.0204111664049092
40
0.0607666373753174
40
0.106887175627213
40
0.199128252131003
40
0.291369328634793
40
0.383610405138583
40
0.752574711153743
40
0.844815787657534
40
0.931291796879837
40
0.937056864161324
40
0.948586998724297
40
0.960117133287271
40
0.977412335131732
40
0.983177402413219
40
0.994707536976192
40
1
40
1
40
1
40
1
41
1
10
42.2861467613777
20
7.34222550661542
30
0
41
1
10
42.2859393890344
20
7.34220383147812
30
0
41
1
10
42.2849646805109
20
7.34210178831808
30
0
41
1
10
42.2836063656409
20
7.34195873403252
30
0
41
1
10
42.2797698347759
20
7.34155458949635
30
0
41
1
10
42.2736313320323
20
7.3409075792182
30
0
41
1
10
42.2617380468434
20
7.33965300467978
30
0
41
1
10
42.2463926123633
20
7.33803305844719
30
0
41
1
10
42.2279812207819
20
7.33609020358267
30
0
41
1
10
42.1911455190612
20
7.33220380822112
30
0
41
1
10
42.154229575577
20
7.32830858162419
30
0
41
1
10
42.1179325733143
20
7.32447972787847
30
0
41
1
10
42.1056363200073
20
7.32318231626758
30
0
41
1
10
42.098672034408
20
7.32244727873808
30
0
41
1
10
42.096734934249
20
7.32224281809559
30
0
41
1
10
42.09403095604
20
7.32195744947813
30
0
41
1
10
42.0917354746526
20
7.32171529265517
30
0
41
1
10
42.0894741848312
20
7.32147689888225
30
0
41
1
10
42.0880169800253
20
7.32132336483065
30
0
41
1
10
42.0869455301046
20
7.32120925517688
30
0
41
1
10
42.0866098052725
20
7.32117331975306
30
0
0
SPLINE
5
207
100
AcDbEntity
8
1
62
256
6
ByLayer
370
-1
48
1
60
0
100
AcDbSpline
70
4
71
3
72
12
73
8
40
0
40
0
40
0
40
0
40
0.25
40
0.25
40
0.5
40
0.5
40
1
40
1
40
1
40
1
41
1
10
46.6093311651647
20
-4.0982167540665
30
0
41
1
10
46.6006705094714
20
-4.10669380981457
30
0
41
1
10
46.5909918608643
20
-4.11493182286429
30
0
41
1
10
46.5696946408003
20
-4.13005835225158
30
0
41
1
10
46.5585051119266
20
-4.13660906793541
30
0
41
1
10
46.5253509638628
20
-4.1525953591339
30
0
41
1
10
46.5050030123438
20
-4.15813639248259
30
0
41
1
10
46.4867177446163
20
-4.16130038358438
30
0
0
SPLINE
5
208
100
AcDbEntity
8
1
62
256
6
ByLayer
370
-1
48
1
60
0
100
AcDbSpline
70
4
71
3
72
10
73
6
40
0
40
0
40
0
40
0
40
0.5
40
0.5
40
1
40
1
40
1
40
1
41
1
10
46.6314814754313
20
-4.0765360151459
30
0
41
1
10
46.6528029438077
20
-4.05566654723776
30
0
41
1
10
46.6753362928437
20
-4.03464423508029
30
0
41
1
10
46.7231132510177
20
-3.99264009209835
30
0
41
1
10
46.7483164020233
20
-3.97176662657435
30
0
41
1
10
46.7728026143275
20
-3.95266264563026
30
0
0
SPLINE
5
209
100
AcDbEntity
8
1
62
256
6
ByLayer
370
-1
48
1
60
0
100
AcDbSpline
70
4
71
3
72
14
73
10
40
0
40
0
40
0
40
0
40
0.25
40
0.25
40
0.5
40
0.5
40
0.75
40
0.75
40
1
40
1
40
1
40
1
41
1
10
46.5347688267723
20
-0.445045163860101
30
0
41
1
10
46.5319837197682
20
-0.46593399364582
30
0
41
1
10
46.5293501022803
20
-0.487872209826378
30
0
41
1
10
46.5245643486263
20
-0.535083922151728
30
0
41
1
10
46.5223950679963
20
-0.560458788551756
30
0
41
1
10
46.518967947082
20
-0.616471424517101
30
0
41
1
10
46.5176974198878
20
-0.647266664465235
30
0
41
1
10
46.5170233083539
20
-0.716022505231052
30
0
41
1
10
46.5176884531368
20
-0.754510190075138
30
0
41
1
10
46.5197964804865
20
-0.794658723033649
30
0
0
SPLINE
5
20A
100
AcDbEntity
8
1
62
256
6
ByLayer
370
-1
48
1
60
0
100
AcDbSpline
70
4
71
3
72
8
73
4
40
0
40
0
40
0
40
0
40
1
40
1
40
1
40
1
41
1
10
46.7816196960178
20
-2.4561761271367
30
0
41
1
10
46.7677556414332
20
-2.42969097445041
30
0
41
1
10
46.7536739835578
20
-2.40161006172826
30
0
41
1
10
46.7402292109383
20
-2.37333787910316
30
0
0
SPLINE
5
20B
100
AcDbEntity
8
1
62
256
6
ByLayer
370
-1
48
1
60
0
100
AcDbSpline
70
4
71
3
72
10
73
6
40
0
40
0
40
0
40
0
40
0.5
40
0.5
40
1
40
1
40
1
40
1
41
1
10
46.3209912348254
20
0.281671783967255
30
0
41
1
10
46.3009162256279
20
0.303785386156676
30
0
41
1
10
46.2804495198993
20
0.326870486915141
30
0
41
1
10
46.2389173449366
20
0.375107765328892
30
0
41
1
10
46.2179398339287
20
0.40019898918024
30
0
41
1
10
46.1984116311597
20
0.424251731972248
30
0
0
SPLINE
5
20C
100
AcDbEntity
8
1
62
256
6
ByLayer
370
-1
48
1
60
0
100
AcDbSpline
70
4
71
3
72
12
73
8
40
0
40
0
40
0
40
0
40
0.25
40
0.25
40
0.5
40
0.5
40
1
40
1
40
1
40
1
41
1
10
46.3418466315779
20
0.25869854680721
30
0
41
1
10
46.3500009828464
20
0.249716130994131
30
0
41
1
10
46.358029171413
20
0.239830736344658
30
0
41
1
10
46.3730602862322
20
0.218449789261996
30
0
41
1
10
46.3797313707883
20
0.207389057070003
30
0
41
1
10
46.3964921824788
20
0.175040006375042
30
0
41
1
10
46.403029848748
20
0.155714446742508
30
0
41
1
10
46.4073110417655
20
0.138572501352854
30
0
0
SPLINE
5
20D
100
AcDbEntity
8
1
62
256
6
ByLayer
370
-1
48
1
60
0
100
AcDbSpline
70
4
71
3
72
12
73
8
40
0
40
0
40
0
40
0
40
0.283671368351939
40
0.283671368351939
40
0.641835684175969
40
0.641835684175969
40
1
40
1
40
1
40
1
41
1
10
46.0699758432259
20
0.520054960432674
30
0
41
1
10
46.081498611664
20
0.515209385561008
30
0
41
1
10
46.0934698481213
20
0.509406851922051
30
0
41
1
10
46.1216626412985
20
0.493445973106219
30
0
41
1
10
46.1381097075692
20
0.482413652951635
30
0
41
1
10
46.1701708819015
20
0.45573107603272
30
0
41
1
10
46.1853108195506
20
0.440387904651658
30
0
41
1
10
46.1984116311598
20
0.424251731972191
30
0
0
SPLINE
5
20E
100
AcDbEntity
8
1
62
256
6
ByLayer
370
-1
48
1
60
0
100
AcDbSpline
70
4
71
3
72
16
73
12
40
0
40
0
40
0
40
0
40
0.25
40
0.25
40
0.5
40
0.5
40
0.75
40
0.75
40
0.875
40
0.875
40
1
40
1
40
1
40
1
41
1
10
46.8756279979959
20
-3.62124547387197
30
0
41
1
10
46.8795368930901
20
-3.64301258015132
30
0
41
1
10
46.8822548903775
20
-3.66575091307976
30
0
41
1
10
46.8839080427664
20
-3.71414991661609
30
0
41
1
10
46.8829069839149
20
-3.73994877465793
30
0
41
1
10
46.8737381702433
20
-3.79565548670388
30
0
41
1
10
46.8658149865941
20
-3.82587210970684
30
0
41
1
10
46.8411926825963
20
-3.87512507397767
30
0
41
1
10
46.8307124351369
20
-3.89211308362363
30
0
41
1
10
46.8045854883916
20
-3.92471881959889
30
0
41
1
10
46.7892295870608
20
-3.93984643011416
30
0
41
1
10
46.7728026143275
20
-3.95266264563037
30
0
0
SPLINE
5
20F
100
AcDbEntity
8
1
62
256
6
ByLayer
370
-1
48
1
60
0
100
AcDbSpline
70
4
71
3
72
16
73
12
40
0
40
0
40
0
40
0
40
0.25
40
0.25
40
0.5
40
0.5
40
0.75
40
0.75
40
0.875
40
0.875
40
1
40
1
40
1
40
1
41
1
10
46.8756279979959
20
-3.62124547387228
30
0
41
1
10
46.8695232364359
20
-3.58725044702021
30
0
41
1
10
46.8635313934178
20
-3.55213029264365
30
0
41
1
10
46.851949373885
20
-3.47810927514152
30
0
41
1
10
46.8463580548398
20
-3.43934990942199
30
0
41
1
10
46.8360314217212
20
-3.35479971018035
30
0
41
1
10
46.8312823964795
20
-3.30982223705013
30
0
41
1
10
46.8260242341804
20
-3.23018840208241
30
0
41
1
10
46.8246237275242
20
-3.20186244677592
30
0
41
1
10
46.8232357204805
20
-3.13984286690945
30
0
41
1
10
46.8233232346481
20
-3.10670786351167
30
0
41
1
10
46.8244822547797
20
-3.07357977549106
30
0
0
SPLINE
5
210
100
AcDbEntity
8
1
62
256
6
ByLayer
370
-1
48
1
60
0
100
AcDbSpline
70
4
71
3
72
8
73
4
40
0
40
0
40
0
40
0
40
1
40
1
40
1
40
1
41
1
10
46.5266602312394
20
-0.334007986078461
30
0
41
1
10
46.5187098522403
20
-0.306059360738516
30
0
41
1
10
46.5120310906734
20
-0.280727761979762
30
0
41
1
10
46.5060770216427
20
-0.256887602062903
30
0
0
SPLINE
5
211
100
AcDbEntity
8
1
62
256
6
ByLayer
370
-1
48
1
60
0
100
AcDbSpline
70
4
71
3
72
8
73
4
40
0
40
0
40
0
40
0
40
1
40
1
40
1
40
1
41
1
10
46.7402292109396
20
-2.37333787910225
30
0
41
1
10
46.7390568650626
20
-2.3708726253063
30
0
41
1
10
46.7378823780673
20
-2.36840888535042
30
0
41
1
10
46.7367057588289
20
-2.36594665295948
30
0
0
SPLINE
5
212
100
AcDbEntity
8
1
62
256
6
ByLayer
370
-1
48
1
60
0
100
AcDbSpline
70
4
71
3
72
10
73
6
40
0
40
0
40
0
40
0
40
0.5
40
0.5
40
1
40
1
40
1
40
1
41
1
10
46.5266602312394
20
-0.334007986078518
30
0
41
1
10
46.533109824968
20
-0.356680776738756
30
0
41
1
10
46.5358312217332
20
-0.37638506456878
30
0
41
1
10
46.5377595821519
20
-0.412862608698418
30
0
41
1
10
46.5368296547529
20
-0.429588563871334
30
0
41
1
10
46.5347688267726
20
-0.445045163862943
30
0
0
SPLINE
5
213
100
AcDbEntity
8
1
62
256
6
ByLayer
370
-1
48
1
60
0
100
AcDbSpline
70
4
71
3
72
12
73
8
40
0
40
0
40
0
40
0
40
0.250000000000005
40
0.250000000000005
40
0.500000000000009
40
0.500000000000009
40
1
40
1
40
1
40
1
41
1
10
46.781619696018
20
-2.45617612713659
30
0
41
1
10
46.7922825825753
20
-2.47654593863911
30
0
41
1
10
46.8020188052113
20
-2.49845451439097
30
0
41
1
10
46.8182596705456
20
-2.543282621608
30
0
41
1
10
46.8249065525448
20
-2.56644111107315
30
0
41
1
10
46.8398614487913
20
-2.63807145860798
30
0
41
1
10
46.842355894446
20
-2.68552867104594
30
0
41
1
10
46.8386243119927
20
-2.72968534160472
30
0
0
SPLINE
5
214
100
AcDbEntity
8
1
62
256
6
ByLayer
370
-1
48
1
60
0
100
AcDbSpline
70
4
71
3
72
8
73
4
40
0
40
0
40
0
40
0
40
1
40
1
40
1
40
1
41
1
10
46.8335061620463
20
-2.81565086980905
30
0
41
1
10
46.8345390990726
20
-2.7861265951299
30
0
41
1
10
46.836336697538
20
-2.75675520783582
30
0
41
1
10
46.8386243119927
20
-2.72968534160475
30
0
0
SPLINE
5
215
100
AcDbEntity
8
SK1
62
256
6
ByLayer
370
-1
48
1
60
0
100
AcDbSpline
70
4
71
3
72
20
73
16
40
0
40
0
40
0
40
0
40
0.249999999999993
40
0.249999999999993
40
0.374999999999994
40
0.374999999999994
40
0.499999999999995
40
0.499999999999995
40
0.624999999999996
40
0.624999999999996
40
0.749999999999998
40
0.749999999999998
40
0.874999999999999
40
0.874999999999999
40
1
40
1
40
1
40
1
41
1
10
-48.516222729729
20
5.74651411012826
30
0
41
1
10
-48.4762911096295
20
5.66161871277322
30
0
41
1
10
-48.4283722366634
20
5.57893837743811
30
0
41
1
10
-48.3426850116238
20
5.46624297823843
30
0
41
1
10
-48.3114261194144
20
5.43013690581458
30
0
41
1
10
-48.2441155430023
20
5.36414748183782
30
0
41
1
10
-48.2081109043675
20
5.33418916709314
30
0
41
1
10
-48.1299068985677
20
5.28227885986365
30
0
41
1
10
-48.0869527159662
20
5.26011190276751
30
0
41
1
10
-47.9975349560404
20
5.22932367138964
30
0
41
1
10
-47.9502203463448
20
5.22040015827844
30
0
41
1
10
-47.8545747664299
20
5.21866533516589
30
0
41
1
10
-47.8075489790091
20
5.22575417310171
30
0
41
1
10
-47.7170288270798
20
5.25356891952413
30
0
41
1
10
-47.6737128978907
20
5.27430314624814
30
0
41
1
10
-47.6338144512151
20
5.29932072668754
30
0
0
SPLINE
5
216
100
AcDbEntity
8
SK1
62
256
6
ByLayer
370
-1
48
1
60
0
100
AcDbSpline
70
4
71
3
72
8
73
4
40
0
40
0
40
0
40
0
40
1
40
1
40
1
40
1
41
1
10
-47.6338144512151
20
5.29932072668754
30
0
41
1
10
-47.2923417749157
20
5.5134348303427
30
0
41
1
10
-46.94738484153
20
5.72075834496087
30
0
41
1
10
-46.6000000000004
20
5.92285193129214
30
0
0
SPLINE
5
217
100
AcDbEntity
8
SK1
62
256
6
ByLayer
370
-1
48
1
60
0
100
AcDbSpline
70
4
71
3
72
20
73
16
40
0
40
0
40
0
40
0
40
0.124999999999999
40
0.124999999999999
40
0.249999999999997
40
0.249999999999997
40
0.374999999999996
40
0.374999999999996
40
0.499999999999994
40
0.499999999999994
40
0.624999999999993
40
0.624999999999993
40
0.749999999999992
40
0.749999999999992
40
1
40
1
40
1
40
1
41
1
10
-47.633814451215
20
-5.29932072668728
30
0
41
1
10
-47.6738922636715
20
-5.27419067826415
30
0
41
1
10
-47.7166430277408
20
-5.2536833095611
30
0
41
1
10
-47.8080113883237
20
-5.22561624608014
30
0
41
1
10
-47.8558086398442
20
-5.21864267878075
30
0
41
1
10
-47.9498238136525
20
-5.22043840528849
30
0
41
1
10
-47.9974643733847
20
-5.22930496216131
30
0
41
1
10
-48.0869190094971
20
-5.26009470978795
30
0
41
1
10
-48.1294303248595
20
-5.28196037105604
30
0
41
1
10
-48.2086279314314
20
-5.33453450915434
30
0
41
1
10
-48.2447916817791
20
-5.36473843771279
30
0
41
1
10
-48.3120993158946
20
-5.43087025673137
30
0
41
1
10
-48.3433839743252
20
-5.46708425266206
30
0
41
1
10
-48.4290137419149
20
-5.57994089637941
30
0
41
1
10
-48.4760766654538
20
-5.66116280030394
30
0
41
1
10
-48.5162227297291
20
-5.74651411012809
30
0
0
SPLINE
5
218
100
AcDbEntity
8
SK1
62
256
6
ByLayer
370
-1
48
1
60
0
100
AcDbSpline
70
4
71
3
72
8
73
4
40
0
40
0
40
0
40
0
40
1
40
1
40
1
40
1
41
1
10
-48.6
20
5.92285193129126
30
0
41
1
10
-48.5718597554103
20
5.86419941966201
30
0
41
1
10
-48.5439308119344
20
5.80542202928868
30
0
41
1
10
-48.516222729729
20
5.74651411012826
30
0
0
SPLINE
5
219
100
AcDbEntity
8
SK1
62
256
6
ByLayer
370
-1
48
1
60
0
100
AcDbSpline
70
4
71
3
72
8
73
4
40
0
40
0
40
0
40
0
40
1
40
1
40
1
40
1
41
1
10
-50
20
4.0108197416489
30
0
41
1
10
-49.7054172377832
20
4.67160422878337
30
0
41
1
10
-49.3659298245044
20
5.30522565672777
30
0
41
1
10
-49
20
5.92285193129126
30
0
0
SPLINE
5
21A
100
AcDbEntity
8
SK1
62
256
6
ByLayer
370
-1
48
1
60
0
100
AcDbSpline
70
4
71
3
72
8
73
4
40
0
40
0
40
0
40
0
40
1
40
1
40
1
40
1
41
1
10
-46.6000000000004
20
-5.92285193129203
30
0
41
1
10
-46.94738484153
20
-5.72075834496076
30
0
41
1
10
-47.2923417749157
20
-5.51343483034259
30
0
41
1
10
-47.6338144512151
20
-5.29932072668743
30
0
0
SPLINE
5
21B
100
AcDbEntity
8
SK1
62
256
6
ByLayer
370
-1
48
1
60
0
100
AcDbSpline
70
4
71
3
72
8
73
4
40
0
40
0
40
0
40
0
40
1
40
1
40
1
40
1
41
1
10
-48.516222729729
20
-5.74651411012815
30
0
41
1
10
-48.5439308119344
20
-5.80542202928857
30
0
41
1
10
-48.5718597554103
20
-5.8641994196619
30
0
41
1
10
-48.6
20
-5.92285193129118
30
0
0
SPLINE
5
21C
100
AcDbEntity
8
SK1
62
256
6
ByLayer
370
-1
48
1
60
0
100
AcDbSpline
70
4
71
3
72
8
73
4
40
0
40
0
40
0
40
0
40
1
40
1
40
1
40
1
41
1
10
-49
20
-5.92285193129115
30
0
41
1
10
-49.3676239342109
20
-5.30236629245442
30
0
41
1
10
-49.7070222547918
20
-4.66800398302257
30
0
41
1
10
-50
20
-4.01081974164879
30
0
0
SPLINE
5
21D
100
AcDbEntity
8
SK1
62
256
6
ByLayer
370
-1
48
1
60
0
100
AcDbSpline
70
4
71
3
72
70
73
66
40
0
40
0
40
0
40
0
40
0.015625
40
0.015625
40
0.0312499999999999
40
0.0312499999999999
40
0.0468749999999999
40
0.0468749999999999
40
0.0624999999999998
40
0.0624999999999998
40
0.0937499999999997
40
0.0937499999999997
40
0.125
40
0.125
40
0.156249999999999
40
0.156249999999999
40
0.187499999999999
40
0.187499999999999
40
0.249999999999999
40
0.249999999999999
40
0.281249999999999
40
0.281249999999999
40
0.312499999999999
40
0.312499999999999
40
0.374999999999999
40
0.374999999999999
40
0.406249999999999
40
0.406249999999999
40
0.437499999999999
40
0.437499999999999
40
0.499999999999999
40
0.499999999999999
40
0.562499999999999
40
0.562499999999999
40
0.593749999999999
40
0.593749999999999
40
0.624999999999999
40
0.624999999999999
40
0.687499999999999
40
0.687499999999999
40
0.749999999999999
40
0.749999999999999
40
0.781249999999999
40
0.781249999999999
40
0.812499999999999
40
0.812499999999999
40
0.828124999999999
40
0.828124999999999
40
0.843749999999999
40
0.843749999999999
40
0.874999999999999
40
0.874999999999999
40
0.890624999999999
40
0.890624999999999
40
0.906249999999999
40
0.906249999999999
40
0.9375
40
0.9375
40
0.953125
40
0.953125
40
0.96875
40
0.96875
40
0.984375
40
0.984375
40
1
40
1
40
1
40
1
41
1
10
-6.5
20
-5.92285193129121
30
0
41
1
10
-6.4207001561935
20
-5.92285193129121
30
0
41
1
10
-6.34086123714724
20
-5.9185668895135
30
0
41
1
10
-6.18144914173817
20
-5.90119679294747
30
0
41
1
10
-6.10329779169277
20
-5.88829240949369
30
0
41
1
10
-5.94990088501589
20
-5.85451305048375
30
0
41
1
10
-5.87465633133542
20
-5.83363525531988
30
0
41
1
10
-5.72696960000087
20
-5.78406116811425
30
0
41
1
10
-5.65429253457478
20
-5.75520748082337
30
0
41
1
10
-5.44519110301013
20
-5.65925614820594
30
0
41
1
10
-5.31596620096835
20
-5.58241846129397
30
0
41
1
10
-5.07484414087321
20
-5.40540504402466
30
0
41
1
10
-4.96593256698816
20
-5.30735528286371
30
0
41
1
10
-4.76784635237644
20
-5.09639651205995
30
0
41
1
10
-4.67840953317994
20
-4.983217129438
30
0
41
1
10
-4.51537314962405
20
-4.74292412211906
30
0
41
1
10
-4.44295328505657
20
-4.61746994914878
30
0
41
1
10
-4.24868198160985
20
-4.23068443115997
30
0
41
1
10
-4.14844766983134
20
-3.95746366364494
30
0
41
1
10
-4.0262637687357
20
-3.52851959599104
30
0
41
1
10
-3.99045707400202
20
-3.38261304841748
30
0
41
1
10
-3.92745056712241
20
-3.08915292017716
30
0
41
1
10
-3.90009723356329
20
-2.94105776320953
30
0
41
1
10
-3.8278752392381
20
-2.49297350515943
30
0
41
1
10
-3.79269532434782
20
-2.18920722447757
30
0
41
1
10
-3.75266975157555
20
-1.72668593189553
30
0
41
1
10
-3.74149452812992
20
-1.57136096042274
30
0
41
1
10
-3.7227914524648
20
-1.25845966931755
30
0
41
1
10
-3.71525523181913
20
-1.10051711083781
30
0
41
1
10
-3.69757555686806
20
-0.627542985956865
30
0
41
1
10
-3.69216291533115
20
-0.312549998346725
30
0
41
1
10
-3.69221342580033
20
0.316814481428594
30
0
41
1
10
-3.69767917852337
20
0.631185932377917
30
0
41
1
10
-3.71533699604186
20
1.10226412810465
30
0
41
1
10
-3.72282689544929
20
1.25921004505511
30
0
41
1
10
-3.74159811083336
20
1.57293530507485
30
0
41
1
10
-3.75286596385365
20
1.72931583567794
30
0
41
1
10
-3.7931360613473
20
2.19356375631057
30
0
41
1
10
-3.82851600359484
20
2.49788201632404
30
0
41
1
10
-3.92509289084615
20
3.09518912355421
30
0
41
1
10
-3.98613026108981
20
3.38819589012314
30
0
41
1
10
-4.10872562486918
20
3.81772380638489
30
0
41
1
10
-4.15457050303766
20
3.95816262372668
30
0
41
1
10
-4.25798900802536
20
4.23138581985137
30
0
41
1
10
-4.31562107045932
20
4.36443286751282
30
0
41
1
10
-4.41324202900785
20
4.55806429666799
30
0
41
1
10
-4.44765197842653
20
4.62161604232489
30
0
41
1
10
-4.52071677173481
20
4.74659993544324
30
0
41
1
10
-4.55949059300505
20
4.80819083961242
30
0
41
1
10
-4.68167362759087
20
4.98750932801642
30
0
41
1
10
-4.77111361192291
20
5.10028531412462
30
0
41
1
10
-4.91992617419712
20
5.25814375735854
30
0
41
1
10
-4.97198266212237
20
5.3088730991264
30
0
41
1
10
-5.08163619478131
20
5.40624856211491
30
0
41
1
10
-5.13955477027798
20
5.4531151519183
30
0
41
1
10
-5.31981523628792
20
5.58481269193101
30
0
41
1
10
-5.44864000404647
20
5.66109472307599
30
0
41
1
10
-5.65716976919146
20
5.75639550475049
30
0
41
1
10
-5.7298085887667
20
5.78512422111541
30
0
41
1
10
-5.87748335724046
20
5.83446980910264
30
0
41
1
10
-5.95248390556498
20
5.85515796054099
30
0
41
1
10
-6.10485268754977
20
5.88855660979888
30
0
41
1
10
-6.18222037802389
20
5.90126892263172
30
0
41
1
10
-6.3394359509619
20
5.91842344284453
30
0
41
1
10
-6.41995776294141
20
5.92285193129121
30
0
41
1
10
-6.5
20
5.92285193129121
30
0
0
LINE
5
45
100
AcDbEntity
8
80
62
256
6
ByLayer
370
-1
48
1
60
0
100
AcDbLine
10
0
20
0
30
0
11
-7
21
0
31
0
39
0
210
0
220
0
230
1
0
LINE
5
46
100
AcDbEntity
8
81
62
256
6
ByLayer
370
-1
48
1
60
0
100
AcDbLine
10
47
20
0
30
0
11
54
21
0
31
0
39
0
210
0
220
0
230
1
0
LINE
5
47
100
AcDbEntity
8
1
62
256
6
ByLayer
370
-1
48
1
60
0
100
AcDbLine
10
5
20
12.5
30
0
11
0.2
21
12.5
31
0
39
0
210
0
220
0
230
1
0
LINE
5
49
100
AcDbEntity
8
1
62
256
6
ByLayer
370
-1
48
1
60
0
100
AcDbLine
10
0.2
20
-12.5
30
0
11
5
21
-12.5
31
0
39
0
210
0
220
0
230
1
0
LINE
5
4A
100
AcDbEntity
8
1
62
256
6
ByLayer
370
-1
48
1
60
0
100
AcDbLine
10
0.2
20
12.5
30
0
11
0
21
12.3
31
0
39
0
210
0
220
0
230
1
0
LINE
5
4B
100
AcDbEntity
8
1
62
256
6
ByLayer
370
-1
48
1
60
0
100
AcDbLine
10
0
20
-12.3
30
0
11
0.2
21
-12.5
31
0
39
0
210
0
220
0
230
1
0
LINE
5
4C
100
AcDbEntity
8
1
62
256
6
ByLayer
370
-1
48
1
60
0
100
AcDbLine
10
41.460609
20
7.2
30
0
11
38.780661
21
7.2
31
0
39
0
210
0
220
0
230
1
0
LINE
5
4D
100
AcDbEntity
8
SK1
62
256
6
ByLayer
370
-1
48
1
60
0
100
AcDbLine
10
-2
20
-9.99675
30
0
11
-1.551212
21
-9.787477
31
0
39
0
210
0
220
0
230
1
0
LINE
5
4F
100
AcDbEntity
8
SK1
62
256
6
ByLayer
370
-1
48
1
60
0
100
AcDbLine
10
-1.551212
20
9.787477
30
0
11
-2
21
9.99675
31
0
39
0
210
0
220
0
230
1
0
LINE
5
50
100
AcDbEntity
8
SK1
62
256
6
ByLayer
370
-1
48
1
60
0
100
AcDbLine
10
-2
20
9.99675
30
0
11
-46.6
21
9.99675
31
0
39
0
210
0
220
0
230
1
0
LINE
5
51
100
AcDbEntity
8
SK1
62
256
6
ByLayer
370
-1
48
1
60
0
100
AcDbLine
10
-46.6
20
-9.99675
30
0
11
-2
21
-9.99675
31
0
39
0
210
0
220
0
230
1
0
LINE
5
52
100
AcDbEntity
8
SK1
62
256
6
ByLayer
370
-1
48
1
60
0
100
AcDbLine
10
-0.15
20
9.75
30
0
11
-1.382165
21
9.75
31
0
39
0
210
0
220
0
230
1
0
LINE
5
53
100
AcDbEntity
8
SK1
62
256
6
ByLayer
370
-1
48
1
60
0
100
AcDbLine
10
-1.382165
20
-9.75
30
0
11
-0.15
21
-9.75
31
0
39
0
210
0
220
0
230
1
0
LINE
5
54
100
AcDbEntity
8
SK1
62
256
6
ByLayer
370
-1
48
1
60
0
100
AcDbLine
10
-48.6
20
9.99675
30
0
11
-49
21
9.99675
31
0
39
0
210
0
220
0
230
1
0
LINE
5
55
100
AcDbEntity
8
SK1
62
256
6
ByLayer
370
-1
48
1
60
0
100
AcDbLine
10
-49
20
-9.99675
30
0
11
-48.6
21
-9.99675
31
0
39
0
210
0
220
0
230
1
0
LINE
5
56
100
AcDbEntity
8
SK1
62
256
6
ByLayer
370
-1
48
1
60
0
100
AcDbLine
10
-48.6
20
-9.99675
30
0
11
-48.516223
21
-9.893294
31
0
39
0
210
0
220
0
230
1
0
LINE
5
57
100
AcDbEntity
8
SK1
62
256
6
ByLayer
370
-1
48
1
60
0
100
AcDbLine
10
-48.516223
20
9.893294
30
0
11
-48.6
21
9.99675
31
0
39
0
210
0
220
0
230
1
0
LINE
5
58
100
AcDbEntity
8
SK1
62
256
6
ByLayer
370
-1
48
1
60
0
100
AcDbLine
10
-46.6
20
9.99675
30
0
11
-47.633814
21
9.640417
31
0
39
0
210
0
220
0
230
1
0
LINE
5
59
100
AcDbEntity
8
SK1
62
256
6
ByLayer
370
-1
48
1
60
0
100
AcDbLine
10
-47.633814
20
-9.640417
30
0
11
-46.6
21
-9.99675
31
0
39
0
210
0
220
0
230
1
0
LINE
5
5A
100
AcDbEntity
8
SK1
62
256
6
ByLayer
370
-1
48
1
60
0
100
AcDbLine
10
-49
20
9.99675
30
0
11
-50
21
8.99675
31
0
39
0
210
0
220
0
230
1
0
LINE
5
5B
100
AcDbEntity
8
SK1
62
256
6
ByLayer
370
-1
48
1
60
0
100
AcDbLine
10
-50
20
-8.99675
30
0
11
-49
21
-9.99675
31
0
39
0
210
0
220
0
230
1
0
LINE
5
5C
100
AcDbEntity
8
SK4
62
256
6
ByLayer
370
-1
48
0.05
60
0
100
AcDbLine
10
47
20
0
30
0
11
-50
21
0
31
0
39
0
210
0
220
0
230
1
0
LINE
5
5E
100
AcDbEntity
8
4
62
256
6
ByLayer
370
-1
48
0.05
60
0
100
AcDbLine
10
47
20
0
30
0
11
0
21
0
31
0
39
0
210
0
220
0
230
1
0
LINE
5
60
100
AcDbEntity
8
1
62
256
6
ByLayer
370
-1
48
1
60
0
100
AcDbLine
10
41.431227
20
7.199119
30
0
11
41.506049
21
4.852615
31
0
39
0
210
0
220
0
230
1
0
LINE
5
61
100
AcDbEntity
8
1
62
256
6
ByLayer
370
-1
48
1
60
0
100
AcDbLine
10
43.147599
20
2.164212
30
0
11
45.577221
21
2.249381
31
0
39
0
210
0
220
0
230
1
0
LINE
5
62
100
AcDbEntity
8
1
62
256
6
ByLayer
370
-1
48
1
60
0
100
AcDbLine
10
46.026541
20
0.539377
30
0
11
46.035307
21
0.539072
31
0
39
0
210
0
220
0
230
1
0
LINE
5
63
100
AcDbEntity
8
1
62
256
6
ByLayer
370
-1
48
1
60
0
100
AcDbLine
10
45.903105
20
-3.661472
30
0
11
45.759658
21
-3.597556
31
0
39
0
210
0
220
0
230
1
0
LINE
5
64
100
AcDbEntity
8
1
62
256
6
ByLayer
370
-1
48
1
60
0
100
AcDbLine
10
45.867763
20
2.233648
30
0
11
45.577221
21
2.249381
31
0
39
0
210
0
220
0
230
1
0
LINE
5
65
100
AcDbEntity
8
1
62
256
6
ByLayer
370
-1
48
1
60
0
100
AcDbLine
10
0
20
12.3
30
0
11
0
21
-12.3
31
0
39
0
210
0
220
0
230
1
0
LINE
5
66
100
AcDbEntity
8
1
62
256
6
ByLayer
370
-1
48
1
60
0
100
AcDbLine
10
40.544623
20
-7.199164
30
0
11
46.247747
21
-7.199164
31
0
39
0
210
0
220
0
230
1
0
LINE
5
67
100
AcDbEntity
8
1
62
256
6
ByLayer
370
-1
48
1
60
0
100
AcDbLine
10
45.990012
20
0.115718
30
0
11
45.408076
21
0.375014
31
0
39
0
210
0
220
0
230
1
0
LINE
5
68
100
AcDbEntity
8
1
62
256
6
ByLayer
370
-1
48
1
60
0
100
AcDbLine
10
36.632956
20
4.02
30
0
11
36.888728
21
4.02
31
0
39
0
210
0
220
0
230
1
0
LINE
5
69
100
AcDbEntity
8
1
62
256
6
ByLayer
370
-1
48
1
60
0
100
AcDbLine
10
0.2
20
12.5
30
0
11
0.2
21
-12.5
31
0
39
0
210
0
220
0
230
1
0
LINE
5
6A
100
AcDbEntity
8
1
62
256
6
ByLayer
370
-1
48
1
60
0
100
AcDbLine
10
46.035307
20
0.539072
30
0
11
46.071024
21
0.520133
31
0
39
0
210
0
220
0
230
1
0
LINE
5
6B
100
AcDbEntity
8
1
62
256
6
ByLayer
370
-1
48
1
60
0
100
AcDbLine
10
41.320809
20
4.381708
30
0
11
41.512551
21
4.381708
31
0
39
0
210
0
220
0
230
1
0
LINE
5
6C
100
AcDbEntity
8
1
62
256
6
ByLayer
370
-1
48
1
60
0
100
AcDbLine
10
46.193185
20
-3.790724
30
0
11
46.074122
21
-3.737672
31
0
39
0
210
0
220
0
230
1
0
LINE
5
6D
100
AcDbEntity
8
1
62
256
6
ByLayer
370
-1
48
1
60
0
100
AcDbLine
10
41.233442
20
2.915577
30
0
11
40.205994
21
2.879561
31
0
39
0
210
0
220
0
230
1
0
LINE
5
6E
100
AcDbEntity
8
1
62
256
6
ByLayer
370
-1
48
1
60
0
100
AcDbLine
10
39.732575
20
0.595242
30
0
11
39.877544
21
1.093968
31
0
39
0
210
0
220
0
230
1
0
LINE
5
6F
100
AcDbEntity
8
1
62
256
6
ByLayer
370
-1
48
1
60
0
100
AcDbLine
10
41.711275
20
2.135871
30
0
11
41.019038
21
2.111605
31
0
39
0
210
0
220
0
230
1
0
LINE
5
70
100
AcDbEntity
8
1
62
256
6
ByLayer
370
-1
48
1
60
0
100
AcDbLine
10
14
20
7.199987
30
0
11
14
21
-0.675321
31
0
39
0
210
0
220
0
230
1
0
LINE
5
71
100
AcDbEntity
8
1
62
256
6
ByLayer
370
-1
48
1
60
0
100
AcDbLine
10
41.478723
20
4.852615
30
0
11
41.404273
21
7.187446
31
0
39
0
210
0
220
0
230
1
0
LINE
5
72
100
AcDbEntity
8
1
62
256
6
ByLayer
370
-1
48
1
60
0
100
AcDbLine
10
46.247747
20
-7.199164
30
0
11
46.488985
21
-4.479373
31
0
39
0
210
0
220
0
230
1
0
LINE
5
73
100
AcDbEntity
8
1
62
256
6
ByLayer
370
-1
48
1
60
0
100
AcDbLine
10
39.754825
20
4.511522
30
0
11
39.754825
21
7.194527
31
0
39
0
210
0
220
0
230
1
0
LINE
5
74
100
AcDbEntity
8
1
62
256
6
ByLayer
370
-1
48
1
60
0
100
AcDbLine
10
45.377868
20
0.93307
30
0
11
45.867763
21
2.233648
31
0
39
0
210
0
220
0
230
1
0
LINE
5
75
100
AcDbEntity
8
1
62
256
6
ByLayer
370
-1
48
1
60
0
100
AcDbLine
10
46.068693
20
0.513489
30
0
11
46.071024
21
0.520133
31
0
39
0
210
0
220
0
230
1
0
LINE
5
76
100
AcDbEntity
8
1
62
256
6
ByLayer
370
-1
48
1
60
0
100
AcDbLine
10
41.506049
20
4.852615
30
0
11
41.478723
21
4.852615
31
0
39
0
210
0
220
0
230
1
0
LINE
5
77
100
AcDbEntity
8
1
62
256
6
ByLayer
370
-1
48
1
60
0
100
AcDbLine
10
45.995301
20
-0.022151
30
0
11
46.192547
21
-3.778814
31
0
39
0
210
0
220
0
230
1
0
LINE
5
78
100
AcDbEntity
8
1
62
256
6
ByLayer
370
-1
48
1
60
0
100
AcDbLine
10
38.358181
20
3.240111
30
0
11
38.240059
21
3.292903
31
0
39
0
210
0
220
0
230
1
0
LINE
5
79
100
AcDbEntity
8
1
62
256
6
ByLayer
370
-1
48
1
60
0
100
AcDbLine
10
41.320809
20
4.381708
30
0
11
41.194104
21
3.476718
31
0
39
0
210
0
220
0
230
1
0
LINE
5
7A
100
AcDbEntity
8
1
62
256
6
ByLayer
370
-1
48
1
60
0
100
AcDbLine
10
46.082819
20
2.23065
30
0
11
45.867763
21
2.233648
31
0
39
0
210
0
220
0
230
1
0
LINE
5
7B
100
AcDbEntity
8
1
62
256
6
ByLayer
370
-1
48
1
60
0
100
AcDbLine
10
45.577221
20
2.249381
30
0
11
45.72672
21
2.249381
31
0
39
0
210
0
220
0
230
1
0
LINE
5
7C
100
AcDbEntity
8
1
62
256
6
ByLayer
370
-1
48
1
60
0
100
AcDbLine
10
41.711275
20
2.135871
30
0
11
41.756562
21
2.135871
31
0
39
0
210
0
220
0
230
1
0
LINE
5
7D
100
AcDbEntity
8
1
62
256
6
ByLayer
370
-1
48
1
60
0
100
AcDbLine
10
5
20
12.5
30
0
11
5
21
-12.5
31
0
39
0
210
0
220
0
230
1
0
LINE
5
7E
100
AcDbEntity
8
1
62
256
6
ByLayer
370
-1
48
1
60
0
100
AcDbLine
10
46.011827
20
0.515471
30
0
11
46.068693
21
0.513489
31
0
39
0
210
0
220
0
230
1
0
LINE
5
7F
100
AcDbEntity
8
1
62
256
6
ByLayer
370
-1
48
1
60
0
100
AcDbLine
10
41.512551
20
4.381708
30
0
11
41.385847
21
3.476718
31
0
39
0
210
0
220
0
230
1
0
LINE
5
80
100
AcDbEntity
8
1
62
256
6
ByLayer
370
-1
48
1
60
0
100
AcDbLine
10
46.071024
20
0.520133
30
0
11
46.167572
21
2.43703
31
0
39
0
210
0
220
0
230
1
0
LINE
5
81
100
AcDbEntity
8
1
62
256
6
ByLayer
370
-1
48
1
60
0
100
AcDbLine
10
41.194104
20
3.476718
30
0
11
41.385847
21
3.476718
31
0
39
0
210
0
220
0
230
1
0
LINE
5
82
100
AcDbEntity
8
1
62
256
6
ByLayer
370
-1
48
1
60
0
100
AcDbLine
10
46.488985
20
-4.479373
30
0
11
46.21154
21
-4.445859
31
0
39
0
210
0
220
0
230
1
0
LINE
5
83
100
AcDbEntity
8
1
62
256
6
ByLayer
370
-1
48
1
60
0
100
AcDbLine
10
45.726778
20
2.249381
30
0
11
46.082819
21
2.23065
31
0
39
0
210
0
220
0
230
1
0
LINE
5
84
100
AcDbEntity
8
1
62
256
6
ByLayer
370
-1
48
1
60
0
100
AcDbLine
10
39.754825
20
4.511522
30
0
11
32.415706
21
5.375538
31
0
39
0
210
0
220
0
230
1
0
LINE
5
85
100
AcDbEntity
8
1
62
256
6
ByLayer
370
-1
48
1
60
0
100
AcDbLine
10
37.549146
20
1.410553
30
0
11
37.441422
21
1.039963
31
0
39
0
210
0
220
0
230
1
0
LINE
5
86
100
AcDbEntity
8
1
62
256
6
ByLayer
370
-1
48
1
60
0
100
AcDbLine
10
46.680605
20
7.121573
30
0
11
46.62075
21
7.117403
31
0
39
0
210
0
220
0
230
1
0
LINE
5
87
100
AcDbEntity
8
1
62
256
6
ByLayer
370
-1
48
1
60
0
100
AcDbLine
10
42.364141
20
2.304695
30
0
11
42.362732
21
2.364459
31
0
39
0
210
0
220
0
230
1
0
LINE
5
88
100
AcDbEntity
8
1
62
256
6
ByLayer
370
-1
48
1
60
0
100
AcDbLine
10
41.615147
20
6.78391
30
0
11
41.674228
21
6.784866
31
0
39
0
210
0
220
0
230
1
0
LINE
5
89
100
AcDbEntity
8
1
62
256
6
ByLayer
370
-1
48
1
60
0
100
AcDbLine
10
41.618919
20
6.643957
30
0
11
41.677971
21
6.646043
31
0
39
0
210
0
220
0
230
1
0
LINE
5
8A
100
AcDbEntity
8
1
62
256
6
ByLayer
370
-1
48
1
60
0
100
AcDbLine
10
46.077317
20
7.535765
30
0
11
46.077814
21
7.476001
31
0
39
0
210
0
220
0
230
1
0
LINE
5
8B
100
AcDbEntity
8
1
62
256
6
ByLayer
370
-1
48
1
60
0
100
AcDbLine
10
42.503561
20
2.308482
30
0
11
42.501027
21
2.368217
31
0
39
0
210
0
220
0
230
1
0
LINE
5
8C
100
AcDbEntity
8
1
62
256
6
ByLayer
370
-1
48
1
60
0
100
AcDbLine
10
41.618919
20
6.643957
30
0
11
41.74504
21
3.018516
31
0
39
0
210
0
220
0
230
1
0
LINE
5
8D
100
AcDbEntity
8
1
62
256
6
ByLayer
370
-1
48
1
60
0
100
AcDbLine
10
41.760852
20
2.718887
30
0
11
41.819796
21
2.723056
31
0
39
0
210
0
220
0
230
1
0
LINE
5
8E
100
AcDbEntity
8
1
62
256
6
ByLayer
370
-1
48
1
60
0
100
AcDbLine
10
41.748617
20
2.92758
30
0
11
41.807647
21
2.93021
31
0
39
0
210
0
220
0
230
1
0
LINE
5
8F
100
AcDbEntity
8
1
62
256
6
ByLayer
370
-1
48
1
60
0
100
AcDbLine
10
46.303989
20
7.529357
30
0
11
46.290139
21
7.471117
31
0
39
0
210
0
220
0
230
1
0
LINE
5
90
100
AcDbEntity
8
1
62
256
6
ByLayer
370
-1
48
1
60
0
100
AcDbLine
10
41.616167
20
6.734921
30
0
11
41.675236
21
6.736463
31
0
39
0
210
0
220
0
230
1
0
LINE
5
91
100
AcDbEntity
8
1
62
256
6
ByLayer
370
-1
48
1
60
0
100
AcDbLine
10
41.613871
20
6.943963
30
0
11
41.672959
21
6.943963
31
0
39
0
210
0
220
0
230
1
0
LINE
5
92
100
AcDbEntity
8
1
62
256
6
ByLayer
370
-1
48
1
60
0
100
AcDbLine
10
42.027763
20
7.389503
30
0
11
42.03146
21
7.329877
31
0
39
0
210
0
220
0
230
1
0
LINE
5
93
100
AcDbEntity
8
1
62
256
6
ByLayer
370
-1
48
1
60
0
100
AcDbLine
10
46.690454
20
6.96182
30
0
11
46.630541
21
6.958606
31
0
39
0
210
0
220
0
230
1
0
LINE
5
94
100
AcDbEntity
8
1
62
256
6
ByLayer
370
-1
48
1
60
0
100
AcDbLine
10
41.74504
20
3.018516
30
0
11
41.804093
21
3.020602
31
0
39
0
210
0
220
0
230
1
0
LINE
5
95
100
AcDbEntity
8
1
62
256
6
ByLayer
370
-1
48
1
60
0
100
AcDbLine
10
46.827587
20
2.896497
30
0
11
46.767587
21
2.896497
31
0
39
0
210
0
220
0
230
1
0
LINE
5
96
100
AcDbEntity
8
1
62
256
6
ByLayer
370
-1
48
1
60
0
100
AcDbLine
10
46.25455
20
2.44107
30
0
11
46.250892
21
2.500755
31
0
39
0
210
0
220
0
230
1
0
LINE
5
97
100
AcDbEntity
8
1
62
256
6
ByLayer
370
-1
48
1
60
0
100
AcDbLine
10
42.326251
20
7.405375
30
0
11
42.327873
21
7.34564
31
0
39
0
210
0
220
0
230
1
0
LINE
5
98
100
AcDbEntity
8
1
62
256
6
ByLayer
370
-1
48
1
60
0
100
AcDbLine
10
42.204697
20
2.303414
30
0
11
42.204241
21
2.363186
31
0
39
0
210
0
220
0
230
1
0
LINE
5
99
100
AcDbEntity
8
1
62
256
6
ByLayer
370
-1
48
1
60
0
100
AcDbLine
10
46.480225
20
2.463335
30
0
11
46.46236
21
2.520495
31
0
39
0
210
0
220
0
230
1
0
LINE
5
9A
100
AcDbEntity
8
1
62
256
6
ByLayer
370
-1
48
1
60
0
100
AcDbLine
10
46.205796
20
2.438675
30
0
11
46.20272
21
2.498389
31
0
39
0
210
0
220
0
230
1
0
LINE
5
9B
100
AcDbEntity
8
1
62
256
6
ByLayer
370
-1
48
1
60
0
100
AcDbLine
10
46.822538
20
3.196503
30
0
11
46.762575
21
3.194417
31
0
39
0
210
0
220
0
230
1
0
LINE
5
9C
100
AcDbEntity
8
1
62
256
6
ByLayer
370
-1
48
1
60
0
100
AcDbLine
10
42.503561
20
2.308482
30
0
11
46.115206
21
2.435085
31
0
39
0
210
0
220
0
230
1
0
LINE
5
9D
100
AcDbEntity
8
1
62
256
6
ByLayer
370
-1
48
1
60
0
100
AcDbLine
10
42.235662
20
7.401785
30
0
11
42.237826
21
7.342071
31
0
39
0
210
0
220
0
230
1
0
LINE
5
9E
100
AcDbEntity
8
1
62
256
6
ByLayer
370
-1
48
1
60
0
100
AcDbLine
10
46.236761
20
7.537045
30
0
11
46.236305
21
7.477274
31
0
39
0
210
0
220
0
230
1
0
LINE
5
9F
100
AcDbEntity
8
1
62
256
6
ByLayer
370
-1
48
1
60
0
100
AcDbLine
10
41.621531
20
7.011448
30
0
11
41.679093
21
6.998002
31
0
39
0
210
0
220
0
230
1
0
LINE
5
A0
100
AcDbEntity
8
1
62
256
6
ByLayer
370
-1
48
1
60
0
100
AcDbLine
10
46.819927
20
2.829012
30
0
11
46.761453
21
2.842457
31
0
39
0
210
0
220
0
230
1
0
LINE
5
A1
100
AcDbEntity
8
1
62
256
6
ByLayer
370
-1
48
1
60
0
100
AcDbLine
10
46.822538
20
3.196503
30
0
11
46.696417
21
6.821944
31
0
39
0
210
0
220
0
230
1
0
LINE
5
A2
100
AcDbEntity
8
1
62
256
6
ByLayer
370
-1
48
1
60
0
100
AcDbLine
10
46.696417
20
6.821944
30
0
11
46.636453
21
6.819858
31
0
39
0
210
0
220
0
230
1
0
LINE
5
A3
100
AcDbEntity
8
1
62
256
6
ByLayer
370
-1
48
1
60
0
100
AcDbLine
10
42.186907
20
7.39939
30
0
11
42.189654
21
7.339704
31
0
39
0
210
0
220
0
230
1
0
LINE
5
A4
100
AcDbEntity
8
1
62
256
6
ByLayer
370
-1
48
1
60
0
100
AcDbLine
10
46.826311
20
3.05655
30
0
11
46.766318
21
3.055593
31
0
39
0
210
0
220
0
230
1
0
LINE
5
A5
100
AcDbEntity
8
1
62
256
6
ByLayer
370
-1
48
1
60
0
100
AcDbLine
10
41.961232
20
7.377125
30
0
11
41.978185
21
7.319965
31
0
39
0
210
0
220
0
230
1
0
LINE
5
A6
100
AcDbEntity
8
1
62
256
6
ByLayer
370
-1
48
1
60
0
100
AcDbLine
10
46.413695
20
2.450957
30
0
11
46.409085
21
2.510583
31
0
39
0
210
0
220
0
230
1
0
LINE
5
A7
100
AcDbEntity
8
1
62
256
6
ByLayer
370
-1
48
1
60
0
100
AcDbLine
10
45.937896
20
7.531978
30
0
11
45.939519
21
7.472243
31
0
39
0
210
0
220
0
230
1
0
LINE
5
A8
100
AcDbEntity
8
1
62
256
6
ByLayer
370
-1
48
1
60
0
100
AcDbLine
10
45.937896
20
7.531978
30
0
11
42.326251
21
7.405375
31
0
39
0
210
0
220
0
230
1
0
LINE
5
A9
100
AcDbEntity
8
1
62
256
6
ByLayer
370
-1
48
1
60
0
100
AcDbLine
10
46.668274
20
7.188357
30
0
11
46.610876
21
7.170882
31
0
39
0
210
0
220
0
230
1
0
LINE
5
AA
100
AcDbEntity
8
1
62
256
6
ByLayer
370
-1
48
1
60
0
100
AcDbLine
10
42.412943
20
2.305719
30
0
11
42.410951
21
2.365471
31
0
39
0
210
0
220
0
230
1
0
LINE
5
AB
100
AcDbEntity
8
1
62
256
6
ByLayer
370
-1
48
1
60
0
100
AcDbLine
10
46.692841
20
6.912879
30
0
11
46.632898
21
6.91025
31
0
39
0
210
0
220
0
230
1
0
LINE
5
AC
100
AcDbEntity
8
1
62
256
6
ByLayer
370
-1
48
1
60
0
100
AcDbLine
10
41.773183
20
2.652102
30
0
11
41.82967
21
2.669578
31
0
39
0
210
0
220
0
230
1
0
LINE
5
AD
100
AcDbEntity
8
1
62
256
6
ByLayer
370
-1
48
1
60
0
100
AcDbLine
10
46.82529
20
3.105539
30
0
11
46.76531
21
3.103997
31
0
39
0
210
0
220
0
230
1
0
LINE
5
AE
100
AcDbEntity
8
1
62
256
6
ByLayer
370
-1
48
1
60
0
100
AcDbLine
10
41.751003
20
2.878639
30
0
11
41.810005
21
2.881854
31
0
39
0
210
0
220
0
230
1
0
LINE
5
AF
100
AcDbEntity
8
1
62
256
6
ByLayer
370
-1
48
1
60
0
100
AcDbLine
10
46.115206
20
2.435085
30
0
11
46.112673
21
2.49482
31
0
39
0
210
0
220
0
230
1
0
LINE
5
B0
100
AcDbEntity
8
1
62
256
6
ByLayer
370
-1
48
1
60
0
100
AcDbLine
10
42.137468
20
2.311103
30
0
11
42.150407
21
2.369343
31
0
39
0
210
0
220
0
230
1
0
LINE
5
B1
100
AcDbEntity
8
1
62
256
6
ByLayer
370
-1
48
1
60
0
100
AcDbLine
10
46.028514
20
7.53474
30
0
11
46.029595
21
7.474988
31
0
39
0
210
0
220
0
230
1
0
LINE
5
B2
100
AcDbEntity
8
1
62
256
6
ByLayer
370
-1
48
1
60
0
100
AcDbLine
10
46.474695
20
-3.002171
30
0
11
46.483719
21
-2.744242
31
0
39
0
210
0
220
0
230
1
0
LINE
5
B3
100
AcDbEntity
8
1
62
256
6
ByLayer
370
-1
48
1
60
0
100
AcDbLine
10
46.634194
20
-4.165549
30
0
11
46.825705
21
-4.005152
31
0
39
0
210
0
220
0
230
1
0
LINE
5
B4
100
AcDbEntity
8
1
62
256
6
ByLayer
370
-1
48
1
60
0
100
AcDbLine
10
46.506077
20
-0.256888
30
0
11
46.071847
21
-0.456741
31
0
39
0
210
0
220
0
230
1
0
LINE
5
B5
100
AcDbEntity
8
1
62
256
6
ByLayer
370
-1
48
1
60
0
100
AcDbLine
10
46.824482
20
-3.07358
30
0
11
46.833506
21
-2.815651
31
0
39
0
210
0
220
0
230
1
0
LINE
5
B6
100
AcDbEntity
8
1
62
256
6
ByLayer
370
-1
48
1
60
0
100
AcDbLine
10
46.884101
20
-2.376968
30
0
11
46.736706
21
-2.365947
31
0
39
0
210
0
220
0
230
1
0
LINE
5
B7
100
AcDbEntity
8
1
62
256
6
ByLayer
370
-1
48
1
60
0
100
AcDbLine
10
46.833506
20
-2.815651
30
0
11
46.483719
21
-2.744242
31
0
39
0
210
0
220
0
230
1
0
LINE
5
B8
100
AcDbEntity
8
1
62
256
6
ByLayer
370
-1
48
1
60
0
100
AcDbLine
10
46.609331
20
-4.098217
30
0
11
46.631481
21
-4.076536
31
0
39
0
210
0
220
0
230
1
0
LINE
5
B9
100
AcDbEntity
8
1
62
256
6
ByLayer
370
-1
48
1
60
0
100
AcDbLine
10
46.374756
20
-2.998687
30
0
11
46.38378
21
-2.740758
31
0
39
0
210
0
220
0
230
1
0
LINE
5
BA
100
AcDbEntity
8
1
62
256
6
ByLayer
370
-1
48
1
60
0
100
AcDbLine
10
46.662711
20
-0.483267
30
0
11
46.73043
21
-1.773017
31
0
39
0
210
0
220
0
230
1
0
LINE
5
BB
100
AcDbEntity
8
1
62
256
6
ByLayer
370
-1
48
1
60
0
100
AcDbLine
10
46.117967
20
-1.664643
30
0
11
46.070413
21
-0.758949
31
0
39
0
210
0
220
0
230
1
0
LINE
5
BC
100
AcDbEntity
8
1
62
256
6
ByLayer
370
-1
48
1
60
0
100
AcDbLine
10
46.662711
20
-0.483267
30
0
11
46.534769
21
-0.445045
31
0
39
0
210
0
220
0
230
1
0
LINE
5
BD
100
AcDbEntity
8
1
62
256
6
ByLayer
370
-1
48
1
60
0
100
AcDbLine
10
46.999756
20
-2.815465
30
0
11
46.838624
21
-2.729685
31
0
39
0
210
0
220
0
230
1
0
LINE
5
BE
100
AcDbEntity
8
1
62
256
6
ByLayer
370
-1
48
1
60
0
100
AcDbLine
10
46.825705
20
-4.005152
30
0
11
46.772803
21
-3.952663
31
0
39
0
210
0
220
0
230
1
0
LINE
5
BF
100
AcDbEntity
8
1
62
256
6
ByLayer
370
-1
48
1
60
0
100
AcDbLine
10
46.639136
20
-0.367609
30
0
11
46.52666
21
-0.334008
31
0
39
0
210
0
220
0
230
1
0
LINE
5
C0
100
AcDbEntity
8
1
62
256
6
ByLayer
370
-1
48
1
60
0
100
AcDbLine
10
46.519796
20
-0.794659
30
0
11
46.567351
21
-1.700353
31
0
39
0
210
0
220
0
230
1
0
LINE
5
C1
100
AcDbEntity
8
1
62
256
6
ByLayer
370
-1
48
1
60
0
100
AcDbLine
10
46.968347
20
-3.71324
30
0
11
46.999756
21
-2.815465
31
0
39
0
210
0
220
0
230
1
0
LINE
5
C2
100
AcDbEntity
8
1
62
256
6
ByLayer
370
-1
48
1
60
0
100
AcDbLine
10
46.181803
20
-4.355522
30
0
11
46.513887
21
-4.234879
31
0
39
0
210
0
220
0
230
1
0
LINE
5
C3
100
AcDbEntity
8
1
62
256
6
ByLayer
370
-1
48
1
60
0
100
AcDbLine
10
46.174559
20
-4.215315
30
0
11
46.486718
21
-4.1613
31
0
39
0
210
0
220
0
230
1
0
LINE
5
C4
100
AcDbEntity
8
1
62
256
6
ByLayer
370
-1
48
1
60
0
100
AcDbLine
10
46.639136
20
-0.367609
30
0
11
46.45437
21
0.139084
31
0
39
0
210
0
220
0
230
1
0
LINE
5
C5
100
AcDbEntity
8
1
62
256
6
ByLayer
370
-1
48
1
60
0
100
AcDbLine
10
46.341847
20
0.258699
30
0
11
46.320991
21
0.281672
31
0
39
0
210
0
220
0
230
1
0
LINE
5
C6
100
AcDbEntity
8
1
62
256
6
ByLayer
370
-1
48
1
60
0
100
AcDbLine
10
46.927152
20
-2.467059
30
0
11
46.884101
21
-2.376968
31
0
39
0
210
0
220
0
230
1
0
LINE
5
C7
100
AcDbEntity
8
1
62
256
6
ByLayer
370
-1
48
1
60
0
100
AcDbLine
10
46.210681
20
-2.72862
30
0
11
46.201657
21
-2.986549
31
0
39
0
210
0
220
0
230
1
0
LINE
5
C8
100
AcDbEntity
8
1
62
256
6
ByLayer
370
-1
48
1
60
0
100
AcDbLine
10
46.384911
20
0.259167
30
0
11
46.224214
21
0.450321
31
0
39
0
210
0
220
0
230
1
0
LINE
5
C9
100
AcDbEntity
8
1
62
256
6
ByLayer
370
-1
48
1
60
0
100
AcDbLine
10
46.320991
20
0.281672
30
0
11
45.989645
21
0.12917
31
0
39
0
210
0
220
0
230
1
0
LINE
5
CA
100
AcDbEntity
8
1
62
256
6
ByLayer
370
-1
48
1
60
0
100
AcDbLine
10
46.21783
20
-1.659419
30
0
11
46.170276
21
-0.753725
31
0
39
0
210
0
220
0
230
1
0
LINE
5
CB
100
AcDbEntity
8
1
62
256
6
ByLayer
370
-1
48
1
60
0
100
AcDbLine
10
46.224214
20
0.450321
30
0
11
46.198412
21
0.424252
31
0
39
0
210
0
220
0
230
1
0
LINE
5
CC
100
AcDbEntity
8
1
62
256
6
ByLayer
370
-1
48
1
60
0
100
AcDbLine
10
46.21783
20
-1.659419
30
0
11
46.117967
21
-1.664643
31
0
39
0
210
0
220
0
230
1
0
LINE
5
CD
100
AcDbEntity
8
1
62
256
6
ByLayer
370
-1
48
1
60
0
100
AcDbLine
10
46.567351
20
-1.700353
30
0
11
46.21783
21
-1.659419
31
0
39
0
210
0
220
0
230
1
0
LINE
5
CE
100
AcDbEntity
8
1
62
256
6
ByLayer
370
-1
48
1
60
0
100
AcDbLine
10
46.45437
20
0.139084
30
0
11
46.407311
21
0.138573
31
0
39
0
210
0
220
0
230
1
0
LINE
5
CF
100
AcDbEntity
8
1
62
256
6
ByLayer
370
-1
48
1
60
0
100
AcDbLine
10
46.384911
20
0.259167
30
0
11
46.341847
21
0.258699
31
0
39
0
210
0
220
0
230
1
0
LINE
5
D0
100
AcDbEntity
8
1
62
256
6
ByLayer
370
-1
48
1
60
0
100
AcDbLine
10
46.175178
20
-3.448024
30
0
11
46.254594
21
-3.39534
31
0
39
0
210
0
220
0
230
1
0
LINE
5
D1
100
AcDbEntity
8
1
62
256
6
ByLayer
370
-1
48
1
60
0
100
AcDbLine
10
46.73043
20
-1.773017
30
0
11
46.567351
21
-1.700353
31
0
39
0
210
0
220
0
230
1
0
LINE
5
D2
100
AcDbEntity
8
1
62
256
6
ByLayer
370
-1
48
1
60
0
100
AcDbLine
10
46.071847
20
-0.456741
30
0
11
46.013515
21
-0.369141
31
0
39
0
210
0
220
0
230
1
0
LINE
5
D3
100
AcDbEntity
8
1
62
256
6
ByLayer
370
-1
48
1
60
0
100
AcDbLine
10
46.169091
20
-3.332213
30
0
11
46.19924
21
-3.312212
31
0
39
0
210
0
220
0
230
1
0
LINE
5
D4
100
AcDbEntity
8
1
62
256
6
ByLayer
370
-1
48
1
60
0
100
AcDbLine
10
46.927152
20
-2.467059
30
0
11
46.78162
21
-2.456176
31
0
39
0
210
0
220
0
230
1
0
LINE
5
D5
100
AcDbEntity
8
1
62
256
6
ByLayer
370
-1
48
1
60
0
100
AcDbLine
10
46.740229
20
-2.373338
30
0
11
46.425055
21
-2.465977
31
0
39
0
210
0
220
0
230
1
0
LINE
5
D6
100
AcDbEntity
8
1
62
256
6
ByLayer
370
-1
48
1
60
0
100
AcDbLine
10
46.968347
20
-3.71324
30
0
11
46.875628
21
-3.621245
31
0
39
0
210
0
220
0
230
1
0
LINE
5
D7
100
AcDbEntity
8
1
62
256
6
ByLayer
370
-1
48
1
60
0
100
AcDbLine
10
46.631481
20
-4.076536
30
0
11
46.254594
21
-3.39534
31
0
39
0
210
0
220
0
230
1
0
LINE
5
D8
100
AcDbEntity
8
1
62
256
6
ByLayer
370
-1
48
1
60
0
100
AcDbLine
10
46.513887
20
-4.234879
30
0
11
46.486718
21
-4.1613
31
0
39
0
210
0
220
0
230
1
0
LINE
5
D9
100
AcDbEntity
8
1
62
256
6
ByLayer
370
-1
48
1
60
0
100
AcDbLine
10
46.506077
20
-0.256888
30
0
11
46.407311
21
0.138573
31
0
39
0
210
0
220
0
230
1
0
LINE
5
DA
100
AcDbEntity
8
1
62
256
6
ByLayer
370
-1
48
1
60
0
100
AcDbLine
10
46.824482
20
-3.07358
30
0
11
46.474695
21
-3.002171
31
0
39
0
210
0
220
0
230
1
0
LINE
5
DB
100
AcDbEntity
8
1
62
256
6
ByLayer
370
-1
48
1
60
0
100
AcDbLine
10
46.519796
20
-0.794659
30
0
11
46.170276
21
-0.753725
31
0
39
0
210
0
220
0
230
1
0
LINE
5
DC
100
AcDbEntity
8
1
62
256
6
ByLayer
370
-1
48
1
60
0
100
AcDbLine
10
46.634194
20
-4.165549
30
0
11
46.609331
21
-4.098217
31
0
39
0
210
0
220
0
230
1
0
LINE
5
DD
100
AcDbEntity
8
SK1
62
256
6
ByLayer
370
-1
48
1
60
0
100
AcDbLine
10
-50
20
4.01082
30
0
11
-50
21
-4.01082
31
0
39
0
210
0
220
0
230
1
0
LINE
5
DE
100
AcDbEntity
8
SK1
62
256
6
ByLayer
370
-1
48
1
60
0
100
AcDbLine
10
-47.633814
20
-5.299321
30
0
11
-47.633814
21
-9.640417
31
0
39
0
210
0
220
0
230
1
0
LINE
5
DF
100
AcDbEntity
8
SK1
62
256
6
ByLayer
370
-1
48
1
60
0
100
AcDbLine
10
-47.633814
20
9.640417
30
0
11
-47.633814
21
5.299321
31
0
39
0
210
0
220
0
230
1
0
LINE
5
E0
100
AcDbEntity
8
SK1
62
256
6
ByLayer
370
-1
48
1
60
0
100
AcDbLine
10
-48.6
20
-5.922852
30
0
11
-49
21
-5.922852
31
0
39
0
210
0
220
0
230
1
0
LINE
5
E1
100
AcDbEntity
8
SK1
62
256
6
ByLayer
370
-1
48
1
60
0
100
AcDbLine
10
-48.516223
20
-5.746514
30
0
11
-48.516223
21
-9.893294
31
0
39
0
210
0
220
0
230
1
0
LINE
5
E2
100
AcDbEntity
8
SK1
62
256
6
ByLayer
370
-1
48
1
60
0
100
AcDbLine
10
-48.516223
20
9.893294
30
0
11
-48.516223
21
5.746514
31
0
39
0
210
0
220
0
230
1
0
LINE
5
E3
100
AcDbEntity
8
SK1
62
256
6
ByLayer
370
-1
48
1
60
0
100
AcDbLine
10
-6.5
20
-5.922852
30
0
11
-46.6
21
-5.922852
31
0
39
0
210
0
220
0
230
1
0
LINE
5
E4
100
AcDbEntity
8
SK1
62
256
6
ByLayer
370
-1
48
1
60
0
100
AcDbLine
10
-48.6
20
-9.99675
30
0
11
-48.6
21
-5.922852
31
0
39
0
210
0
220
0
230
1
0
LINE
5
E5
100
AcDbEntity
8
SK1
62
256
6
ByLayer
370
-1
48
1
60
0
100
AcDbLine
10
-48.6
20
5.922852
30
0
11
-48.6
21
9.99675
31
0
39
0
210
0
220
0
230
1
0
LINE
5
E6
100
AcDbEntity
8
SK1
62
256
6
ByLayer
370
-1
48
1
60
0
100
AcDbLine
10
-6.5
20
5.922852
30
0
11
-6.5
21
-5.922852
31
0
39
0
210
0
220
0
230
1
0
LINE
5
E7
100
AcDbEntity
8
SK1
62
256
6
ByLayer
370
-1
48
1
60
0
100
AcDbLine
10
-2
20
-9.99675
30
0
11
-2
21
9.99675
31
0
39
0
210
0
220
0
230
1
0
LINE
5
E8
100
AcDbEntity
8
SK1
62
256
6
ByLayer
370
-1
48
1
60
0
100
AcDbLine
10
-46.6
20
5.922852
30
0
11
-6.5
21
5.922852
31
0
39
0
210
0
220
0
230
1
0
LINE
5
E9
100
AcDbEntity
8
SK1
62
256
6
ByLayer
370
-1
48
1
60
0
100
AcDbLine
10
-1.551212
20
9.787477
30
0
11
-1.551212
21
-9.787477
31
0
39
0
210
0
220
0
230
1
0
LINE
5
EA
100
AcDbEntity
8
SK1
62
256
6
ByLayer
370
-1
48
1
60
0
100
AcDbLine
10
-0.15
20
9.75
30
0
11
-0.15
21
-9.75
31
0
39
0
210
0
220
0
230
1
0
LINE
5
EB
100
AcDbEntity
8
SK1
62
256
6
ByLayer
370
-1
48
1
60
0
100
AcDbLine
10
-1.382165
20
9.75
30
0
11
-1.382165
21
-9.75
31
0
39
0
210
0
220
0
230
1
0
LINE
5
EC
100
AcDbEntity
8
SK1
62
256
6
ByLayer
370
-1
48
1
60
0
100
AcDbLine
10
-49
20
-5.922852
30
0
11
-49
21
-9.99675
31
0
39
0
210
0
220
0
230
1
0
LINE
5
ED
100
AcDbEntity
8
SK1
62
256
6
ByLayer
370
-1
48
1
60
0
100
AcDbLine
10
-49
20
9.99675
30
0
11
-49
21
5.922852
31
0
39
0
210
0
220
0
230
1
0
LINE
5
EE
100
AcDbEntity
8
SK1
62
256
6
ByLayer
370
-1
48
1
60
0
100
AcDbLine
10
-50
20
-4.01082
30
0
11
-50
21
-8.99675
31
0
39
0
210
0
220
0
230
1
0
LINE
5
EF
100
AcDbEntity
8
SK1
62
256
6
ByLayer
370
-1
48
1
60
0
100
AcDbLine
10
-50
20
8.99675
30
0
11
-50
21
4.01082
31
0
39
0
210
0
220
0
230
1
0
LINE
5
F0
100
AcDbEntity
8
SK1
62
256
6
ByLayer
370
-1
48
1
60
0
100
AcDbLine
10
-46.6
20
5.922852
30
0
11
-46.6
21
9.99675
31
0
39
0
210
0
220
0
230
1
0
LINE
5
F1
100
AcDbEntity
8
SK1
62
256
6
ByLayer
370
-1
48
1
60
0
100
AcDbLine
10
-46.6
20
-9.99675
30
0
11
-46.6
21
-5.922852
31
0
39
0
210
0
220
0
230
1
0
LINE
5
F2
100
AcDbEntity
8
SK1
62
256
6
ByLayer
370
-1
48
1
60
0
100
AcDbLine
10
-49
20
5.922852
30
0
11
-48.6
21
5.922852
31
0
39
0
210
0
220
0
230
1
0
MTEXT
5
21E
100
AcDbEntity
8
SK6
62
256
6
ByLayer
370
-1
48
1
60
0
100
AcDbMText
10
0.79375
20
-80.79375
30
0
210
0
220
0
230
1
1
\W00.723;\fsimplex.shx,bigfont.shx;880-D1500L20-02 
40
3.175
41
0
44
1.084337
50
0
71
7
72
5
7
DEFAULT
0
DIMENSION
5
24E
100
AcDbEntity
8
SK2
62
256
6
ByLayer
370
-3
48
1
60
0
100
AcDbDimension
2
DimnDraft3D1
10
47
20
-51.372376
30
0
11
-1.5
21
-51.372376
31
0
70
32
71
5
72
1
41
1
210
0
220
0
230
1
3
Standard
100
AcDbAlignedDimension
13
-50
23
-11.5875
33
0
14
47
24
-9.0875
34
0
50
0
100
AcDbRotatedDimension
1001
ACAD
1000
DSTYLE
1002
{
1070
   279
1070
     0
1070
   172
1070
     1
1070
   173
1070
     1
1070
   340
1005
21F
1070
   271
1070
     1
1070
   272
1070
     2
1070
    77
1070
     1
1070
    73
1070
     0
1070
   171
1070
     3
1070
   274
1070
     4
1070
   177
1070
   150
1070
   176
1070
     9
1070
   178
1070
    43
1070
    78
1070
     8
1070
    48
1040
-0.005
1070
    41
1041
4.175
1070
   147
1041
2.25
1070
    42
1041
1.5875
1070
    44
1041
3.175
1070
   140
1041
4.5
1070
   343
1005
0
1070
   344
1005
0
1002
}
0
DIMENSION
5
258
100
AcDbEntity
8
SK2
62
256
6
ByLayer
370
-3
48
1
60
0
100
AcDbDimension
2
DimnDraft3D2
10
0
20
-39.403626
30
0
11
-25
21
-39.403626
31
0
70
32
71
5
72
1
41
1
210
0
220
0
230
1
3
Standard
100
AcDbAlignedDimension
13
-50
23
-11.5875
33
0
14
0
24
-14.0875
34
0
50
0
100
AcDbRotatedDimension
1001
ACAD
1000
DSTYLE
1002
{
1070
   279
1070
     0
1070
   172
1070
     1
1070
   173
1070
     1
1070
   340
1005
21F
1070
   271
1070
     1
1070
   272
1070
     2
1070
    77
1070
     1
1070
    73
1070
     0
1070
   171
1070
     3
1070
   274
1070
     4
1070
   177
1070
   150
1070
   176
1070
     9
1070
   178
1070
    43
1070
    78
1070
     8
1070
    48
1040
-0.005
1070
    41
1041
4.175
1070
   147
1041
2.25
1070
    42
1041
1.5875
1070
    44
1041
3.175
1070
   140
1041
4.5
1070
   343
1005
0
1070
   344
1005
0
1002
}
0
DIMENSION
5
263
100
AcDbEntity
8
2
62
256
6
ByLayer
370
-3
48
1
60
0
100
AcDbDimension
2
DimnDraft3D3
10
47
20
-39.403626
30
0
11
23.5
21
-39.403626
31
0
70
32
71
5
72
1
41
1
210
0
220
0
230
1
3
Standard
100
AcDbAlignedDimension
13
0
23
-14.0875
33
0
14
47
24
-9.0875
34
0
50
0
100
AcDbRotatedDimension
1001
ACAD
1000
DSTYLE
1002
{
1070
   279
1070
     0
1070
   172
1070
     1
1070
   173
1070
     1
1070
   340
1005
21F
1070
   271
1070
     1
1070
   272
1070
     2
1070
    77
1070
     1
1070
    73
1070
     0
1070
   171
1070
     3
1070
   274
1070
     4
1070
   177
1070
   150
1070
   176
1070
     9
1070
   178
1070
    43
1070
    78
1070
     8
1070
    48
1040
-0.005
1070
    41
1041
4.175
1070
   147
1041
2.25
1070
    42
1041
1.5875
1070
    44
1041
3.175
1070
   140
1041
4.5
1070
   343
1005
0
1070
   344
1005
0
1002
}
0
DIMENSION
5
26D
100
AcDbEntity
8
SK2
62
256
6
ByLayer
370
-3
48
1
60
0
100
AcDbDimension
2
DimnDraft3D4
10
47
20
-29.403626
30
0
11
30.5
21
-29.403626
31
0
70
32
71
5
72
1
41
1
210
0
220
0
230
1
3
Standard
100
AcDbAlignedDimension
13
14
23
-11.5875
33
0
14
47
24
-9.0875
34
0
50
0
100
AcDbRotatedDimension
1001
ACAD
1000
DSTYLE
1002
{
1070
   279
1070
     0
1070
   172
1070
     1
1070
   173
1070
     1
1070
   340
1005
21F
1070
   271
1070
     1
1070
   272
1070
     2
1070
    77
1070
     1
1070
    73
1070
     0
1070
   171
1070
     3
1070
   274
1070
     4
1070
   177
1070
   150
1070
   176
1070
     9
1070
   178
1070
    43
1070
    78
1070
     8
1070
    48
1040
-0.005
1070
    41
1041
4.175
1070
   147
1041
2.25
1070
    42
1041
1.5875
1070
    44
1041
3.175
1070
   140
1041
4.5
1070
   343
1005
0
1070
   344
1005
0
1002
}
0
DIMENSION
5
278
100
AcDbEntity
8
SK2
62
256
6
ByLayer
370
-3
48
1
60
0
100
AcDbDimension
2
DimnDraft3D5
10
-61.9
20
-10
30
0
11
-62.1
21
-27.370395
31
0
70
33
71
5
72
1
41
1
210
0
220
0
230
1
3
Standard
100
AcDbAlignedDimension
13
-51.5875
23
10
33
0
14
-51.5875
24
-10
34
0
1001
ACAD
1000
DSTYLE
1002
{
1070
   279
1070
     0
1070
    74
1070
     0
1070
   173
1070
     1
1070
   340
1005
21F
1070
   271
1070
     2
1070
   272
1070
     2
1070
    77
1070
     1
1070
    73
1070
     0
1070
   171
1070
     3
1070
   274
1070
     4
1070
   177
1070
   150
1070
   176
1070
     9
1070
   178
1070
    43
1070
    78
1070
     8
1070
    48
1040
-0.005
1070
    41
1041
4.175
1070
   147
1041
2.25
1070
    42
1041
1.5875
1070
    44
1041
3.175
1070
   140
1041
4.5
1070
   343
1005
0
1070
   344
1005
0
1002
}
0
DIMENSION
5
283
100
AcDbEntity
8
SK2
62
256
6
ByLayer
370
-3
48
1
60
0
100
AcDbDimension
2
DimnDraft3D6
10
-71.9
20
12.5
30
0
11
-72.1
21
4.121053
31
0
70
33
71
5
72
1
41
1
210
0
220
0
230
1
3
Standard
100
AcDbAlignedDimension
13
-1.5875
23
-12.5
33
0
14
-1.5875
24
12.5
34
0
1001
ACAD
1000
DSTYLE
1002
{
1070
   279
1070
     0
1070
    74
1070
     0
1070
   173
1070
     1
1070
   340
1005
21F
1070
   271
1070
     1
1070
   272
1070
     2
1070
    77
1070
     1
1070
    73
1070
     0
1070
   171
1070
     3
1070
   274
1070
     4
1070
   177
1070
   150
1070
   176
1070
     9
1070
   178
1070
    43
1070
    78
1070
     8
1070
    48
1040
-0.005
1070
    41
1041
4.175
1070
   147
1041
2.25
1070
    42
1041
1.5875
1070
    44
1041
3.175
1070
   140
1041
4.5
1070
   343
1005
0
1070
   344
1005
0
1002
}
0
DIMENSION
5
28E
100
AcDbEntity
8
2
62
256
6
ByLayer
370
-3
48
1
60
0
100
AcDbDimension
2
DimnDraft3D7
10
77.15
20
-7.5
30
0
11
70.6
21
-23.745395
31
0
70
33
71
5
72
1
41
1
210
0
220
0
230
1
3
Standard
100
AcDbAlignedDimension
13
48.5875
23
7.5
33
0
14
48.5875
24
-7.5
34
0
1001
ACAD
1000
DSTYLE
1002
{
1070
   279
1070
     0
1070
    74
1070
     0
1070
   173
1070
     1
1070
   340
1005
21F
1070
   271
1070
     2
1070
   272
1070
     2
1070
    77
1070
     1
1070
    73
1070
     0
1070
   171
1070
     3
1070
   274
1070
     4
1070
   177
1070
   150
1070
   176
1070
     9
1070
   178
1070
    43
1070
    78
1070
     8
1070
    48
1040
-0.005
1070
    41
1041
4.175
1070
   147
1041
2.25
1070
    42
1041
1.5875
1070
    44
1041
3.175
1070
   140
1041
4.5
1070
   343
1005
0
1070
   344
1005
0
1002
}
0
ENDSEC
0
SECTION
2
OBJECTS
0
DICTIONARY
5
2bf
330
0
100
AcDbDictionary
280
0
281
1
3
ACAD_GROUP
350
2c0
3
ACAD_MLINESTYLE
350
2c1
0
DICTIONARY
5
2c0
330
0
100
AcDbDictionary
280
0
281
1
0
DICTIONARY
5
2c1
330
0
100
AcDbDictionary
280
0
281
1
3
Standard
350
18
0
MLINESTYLE
5
18
330
2c1
100
AcDbMlineStyle
2
Standard
70
0
3

62
256
51
90
52
90
71
2
49
-0.5
62
256
6
ByLayer
49
0.5
62
256
6
ByLayer
0
RASTERVARIABLES
5
2ad
330

100
AcDbRasterVariables
90
0
70
1
71
1
72
1
0
ENDSEC
0
EOF
