0
SECTION
2
HEADER
9
$ACADVER
1
AC1015
9
$DWGCODEPAGE
3
ANSI_1252
9
$HANDSEED
5
26e
9
$ANGBASE
50
0
9
$ANGDIR
70
0
9
$ATTMODE
70
1
9
$AUNITS
70
0
9
$AUPREC
70
0
9
$CECOLOR
62
256
9
$CELTSCALE
40
1
9
$CELTYPE
6
ByLayer
9
$CELWEIGHT
370
-1
9
$CLAYER
8
0
9
$CMLJUST
70
0
9
$CMLSCALE
40
1
9
$CMLSTYLE
2
Standard
9
$DIMSTYLE
2
Standard
9
$TEXTSIZE
40
0.2
9
$TEXTSTYLE
7
Standard
9
$LUNITS
70
2
9
$LUPREC
70
4
9
$EXTNAMES
290
1
9
$INSUNITS
70
4
9
$LTSCALE
40
1
9
$LWDISPLAY
290
0
9
$PDMODE
70
0
9
$PDSIZE
40
0
9
$PLINEGEN
70
0
0
ENDSEC
0
SECTION
2
CLASSES
0
CLASS
1
RASTERVARIABLES
2
AcDbRasterVariables
3
ISM
90
0
280
0
281
0
0
ENDSEC
0
SECTION
2
TABLES
0
TABLE
2
VPORT
5
264
100
AcDbSymbolTable
0
VPORT
5
1
100
AcDbSymbolTableRecord
100
AcDbViewportTableRecord
2
*Active
70
0
10
0
20
0
11
1
21
1
12
-1
22
1
13
0
23
0
14
0.5
24
0.5
15
10
25
10
16
0
26
0
36
1
17
0
27
0
37
0
0
ENDTAB
0
TABLE
2
LTYPE
5
265
100
AcDbSymbolTable
0
LTYPE
5
14
100
AcDbSymbolTableRecord
100
AcDbLinetypeTableRecord
70
0
2
ByBlock
3

72
65
73
0
40
0
0
LTYPE
5
15
100
AcDbSymbolTableRecord
100
AcDbLinetypeTableRecord
70
0
2
ByLayer
3

72
65
73
0
40
0
0
LTYPE
5
16
100
AcDbSymbolTableRecord
100
AcDbLinetypeTableRecord
70
0
2
CONTINUOUS
3
Solid line
72
65
73
0
40
0
0
LTYPE
5
3B
100
AcDbSymbolTableRecord
100
AcDbLinetypeTableRecord
70
0
2
DASHED
3
__ __ __ __ __ __ __ __ __
72
65
73
2
40
25.72
49
12.86
74
0
49
-12.86
74
0
0
LTYPE
5
3C
100
AcDbSymbolTableRecord
100
AcDbLinetypeTableRecord
70
0
2
HIDDEN
3
_ _ _ _ _ _ _ _ _ _ _ _ _ _ _
72
65
73
2
40
0.5
49
0.25
74
0
49
-0.25
74
0
0
LTYPE
5
3D
100
AcDbSymbolTableRecord
100
AcDbLinetypeTableRecord
70
0
2
PHANTOM
3
____ _ _ ____ _ _ _____ _ _ ____
72
65
73
6
40
50.5
49
18
74
0
49
-6.5
74
0
49
6.5
74
0
49
-6.5
74
0
49
6.5
74
0
49
-6.5
74
0
0
LTYPE
5
3E
100
AcDbSymbolTableRecord
100
AcDbLinetypeTableRecord
70
0
2
CENTER
3
____ _ ____ _ ____ _ ____
72
65
73
4
40
47.5
49
22
74
0
49
-8.5
74
0
49
8.5
74
0
49
-8.5
74
0
0
LTYPE
5
3F
100
AcDbSymbolTableRecord
100
AcDbLinetypeTableRecord
70
0
2
DOT
3
.........................
72
65
73
2
40
10
49
0
74
0
49
-10
74
0
0
LTYPE
5
40
100
AcDbSymbolTableRecord
100
AcDbLinetypeTableRecord
70
0
2
DASHDOT
3
_._._._._._._._._._._._._._._._.
72
65
73
4
40
70
49
31
74
0
49
-13
74
0
49
13
74
0
49
-13
74
0
0
ENDTAB
0
TABLE
2
LAYER
5
266
100
AcDbSymbolTable
0
LAYER
5
10
100
AcDbSymbolTableRecord
100
AcDbLayerTableRecord
2
0
70
0
62
7
6
CONTINUOUS
290
1
370
-3
390
0
0
LAYER
5
42
100
AcDbSymbolTableRecord
100
AcDbLayerTableRecord
2
81
70
0
62
-3
6
CONTINUOUS
290
1
370
-3
390
0
0
LAYER
5
44
100
AcDbSymbolTableRecord
100
AcDbLayerTableRecord
2
80
70
0
62
-6
6
CONTINUOUS
290
1
370
-3
390
0
0
LAYER
5
57
100
AcDbSymbolTableRecord
100
AcDbLayerTableRecord
2
1
70
0
62
4
6
CONTINUOUS
290
1
370
-3
390
0
0
LAYER
5
5F
100
AcDbSymbolTableRecord
100
AcDbLayerTableRecord
2
4
70
0
62
-2
6
CENTER
290
1
370
-3
390
0
0
LAYER
5
1FD
100
AcDbSymbolTableRecord
100
AcDbLayerTableRecord
2
2
70
0
62
7
6
CONTINUOUS
290
1
370
-3
390
0
0
LAYER
5
250
100
AcDbSymbolTableRecord
100
AcDbLayerTableRecord
2
SK1
70
0
62
4
6
CONTINUOUS
290
1
370
-3
390
0
0
LAYER
5
251
100
AcDbSymbolTableRecord
100
AcDbLayerTableRecord
2
SK4
70
0
62
2
6
CENTER
290
1
370
-3
390
0
0
LAYER
5
252
100
AcDbSymbolTableRecord
100
AcDbLayerTableRecord
2
SK6
70
0
62
5
6
CONTINUOUS
290
1
370
-3
390
0
0
LAYER
5
253
100
AcDbSymbolTableRecord
100
AcDbLayerTableRecord
2
SK2
70
0
62
7
6
CONTINUOUS
290
1
370
-3
390
0
0
ENDTAB
0
TABLE
2
STYLE
5
267
100
AcDbSymbolTable
0
STYLE
5
11
100
AcDbSymbolTableRecord
100
AcDbTextStyleTableRecord
2
Standard
3
txt
70
0
71
0
40
0
41
1
42
0
50
0
0
STYLE
5
1C1
100
AcDbSymbolTableRecord
100
AcDbTextStyleTableRecord
2
DEFAULT
3
simplex.shx
70
0
71
0
40
0
41
1
42
0
50
0
0
STYLE
5
1E4
100
AcDbSymbolTableRecord
100
AcDbTextStyleTableRecord
2
DWGDirectTextStyle
3
SIMPLEX
70
0
71
0
40
0
41
1
42
0
50
0
0
ENDTAB
0
TABLE
2
DIMSTYLE
5
268
100
AcDbSymbolTable
100
AcDbDimStyleTable
0
DIMSTYLE
105
27
100
AcDbSymbolTableRecord
100
AcDbDimStyleTableRecord
2
Standard
70
0
3
<>
41
0.18
42
0.0625
44
0.18
140
0.18
147
0.09
73
0
74
0
77
1
271
2
275
0
278
52
280
0
340
11
0
ENDTAB
0
TABLE
2
VIEW
5
269
100
AcDbSymbolTable
0
ENDTAB
0
TABLE
2
UCS
5
26a
100
AcDbSymbolTable
0
ENDTAB
0
TABLE
2
APPID
5
26b
100
AcDbSymbolTable
0
APPID
5
12
100
AcDbSymbolTableRecord
100
AcDbRegAppTableRecord
2
ACAD
70
0
0
ENDTAB
0
TABLE
2
BLOCK_RECORD
5
26c
100
AcDbSymbolTable
0
BLOCK_RECORD
5
1F
100
AcDbSymbolTableRecord
100
AcDbBlockTableRecord
2
*Model_Space
340
0
70
0
0
BLOCK_RECORD
5
1B
100
AcDbSymbolTableRecord
100
AcDbBlockTableRecord
2
*Paper_Space
340
0
70
0
0
BLOCK_RECORD
5
23
100
AcDbSymbolTableRecord
100
AcDbBlockTableRecord
2
*Paper_Space0
340
0
70
0
0
BLOCK_RECORD
5
1E6
100
AcDbSymbolTableRecord
100
AcDbBlockTableRecord
2
DimnDraft3D1
340
0
70
0
0
BLOCK_RECORD
5
1F1
100
AcDbSymbolTableRecord
100
AcDbBlockTableRecord
2
DimnDraft3D2
340
0
70
0
0
BLOCK_RECORD
5
1FB
100
AcDbSymbolTableRecord
100
AcDbBlockTableRecord
2
DimnDraft3D3
340
0
70
0
0
BLOCK_RECORD
5
206
100
AcDbSymbolTableRecord
100
AcDbBlockTableRecord
2
DimnDraft3D4
340
0
70
0
0
BLOCK_RECORD
5
210
100
AcDbSymbolTableRecord
100
AcDbBlockTableRecord
2
DimnDraft3D5
340
0
70
0
0
BLOCK_RECORD
5
21B
100
AcDbSymbolTableRecord
100
AcDbBlockTableRecord
2
DimnDraft3D6
340
0
70
0
0
BLOCK_RECORD
5
226
100
AcDbSymbolTableRecord
100
AcDbBlockTableRecord
2
DimnDraft3D7
340
0
70
0
0
ENDTAB
0
ENDSEC
0
SECTION
2
BLOCKS
0
BLOCK
5
20
100
AcDbEntity
8
0
100
AcDbBlockBegin
2
*Model_Space
70
0
10
0
20
0
30
0
3
*Model_Space
0
ENDBLK
5
21
100
AcDbEntity
8
0
100
AcDbBlockEnd
0
BLOCK
5
1C
100
AcDbEntity
8
0
100
AcDbBlockBegin
2
*Paper_Space
70
0
10
0
20
0
30
0
3
*Paper_Space
0
ENDBLK
5
1D
100
AcDbEntity
8
0
100
AcDbBlockEnd
0
BLOCK
5
24
100
AcDbEntity
8
0
100
AcDbBlockBegin
2
*Paper_Space0
70
0
10
0
20
0
30
0
3
*Paper_Space0
0
ENDBLK
5
25
100
AcDbEntity
8
0
100
AcDbBlockEnd
0
BLOCK
5
1EE
100
AcDbEntity
8
0
100
AcDbBlockBegin
2
DimnDraft3D1
70
0
10
0
20
0
30
0
3
DimnDraft3D1
0
MTEXT
5
1E7
100
AcDbEntity
8
SK2
62
256
6
ByLayer
370
-1
48
1
60
0
100
AcDbMText
10
-9.503947
20
-48.2758
30
0
210
0
220
0
230
1
1
\W01.000;\fsimplex.shx,bigfont.shx;(93) 
40
4.5
41
0
44
1.084337
50
0
71
7
72
5
7
DEFAULT
0
LINE
5
1E9
100
AcDbEntity
8
SK2
62
256
6
ByLayer
370
-1
48
1
60
0
100
AcDbLine
10
-50
20
-11.5875
30
0
11
-50
21
-54.54455
31
0
39
0
210
0
220
0
230
1
0
LINE
5
1EA
100
AcDbEntity
8
SK2
62
256
6
ByLayer
370
-1
48
1
60
0
100
AcDbLine
10
43
20
-8.3375
30
0
11
43
21
-54.54455
31
0
39
0
210
0
220
0
230
1
0
LINE
5
1EB
100
AcDbEntity
8
SK2
62
256
6
ByLayer
370
-1
48
1
60
0
100
AcDbLine
10
-50
20
-51.36955
30
0
11
43
21
-51.36955
31
0
39
0
210
0
220
0
230
1
0
SOLID
5
1EC
100
AcDbEntity
8
SK2
62
256
6
ByLayer
370
-1
48
1
60
0
100
AcDbTrace
10
-50
20
-51.36955
30
0
11
-45.825003
21
-50.443975
31
0
12
-45.824997
22
-52.295125
32
0
13
-50
23
-51.36955
33
0
39
0
210
0
220
0
230
1
0
SOLID
5
1ED
100
AcDbEntity
8
SK2
62
256
6
ByLayer
370
-1
48
1
60
0
100
AcDbTrace
10
43
20
-51.36955
30
0
11
38.825003
21
-52.295125
31
0
12
38.824997
22
-50.443975
32
0
13
43
23
-51.36955
33
0
39
0
210
0
220
0
230
1
0
ENDBLK
5
1EF
100
AcDbEntity
8
0
100
AcDbBlockEnd
0
BLOCK
5
1F8
100
AcDbEntity
8
0
100
AcDbBlockBegin
2
DimnDraft3D2
70
0
10
0
20
0
30
0
3
DimnDraft3D2
0
MTEXT
5
1F2
100
AcDbEntity
8
SK2
62
256
6
ByLayer
370
-1
48
1
60
0
100
AcDbMText
10
-26.503947
20
-38.2758
30
0
210
0
220
0
230
1
1
\W01.000;\fsimplex.shx,bigfont.shx;50 
40
4.5
41
0
44
1.084337
50
0
71
7
72
5
7
DEFAULT
0
LINE
5
1F3
100
AcDbEntity
8
SK2
62
256
6
ByLayer
370
-1
48
1
60
0
100
AcDbLine
10
-50
20
-11.5875
30
0
11
-50
21
-42.5758
31
0
39
0
210
0
220
0
230
1
0
LINE
5
1F4
100
AcDbEntity
8
SK2
62
256
6
ByLayer
370
-1
48
1
60
0
100
AcDbLine
10
0
20
-14.0875
30
0
11
0
21
-42.5758
31
0
39
0
210
0
220
0
230
1
0
LINE
5
1F5
100
AcDbEntity
8
SK2
62
256
6
ByLayer
370
-1
48
1
60
0
100
AcDbLine
10
-50
20
-39.4008
30
0
11
0
21
-39.4008
31
0
39
0
210
0
220
0
230
1
0
SOLID
5
1F6
100
AcDbEntity
8
SK2
62
256
6
ByLayer
370
-1
48
1
60
0
100
AcDbTrace
10
-50
20
-39.4008
30
0
11
-45.825003
21
-38.475225
31
0
12
-45.824997
22
-40.326375
32
0
13
-50
23
-39.4008
33
0
39
0
210
0
220
0
230
1
0
SOLID
5
1F7
100
AcDbEntity
8
SK2
62
256
6
ByLayer
370
-1
48
1
60
0
100
AcDbTrace
10
0
20
-39.4008
30
0
11
-4.174997
21
-40.326375
31
0
12
-4.175003
22
-38.475225
32
0
13
0
23
-39.4008
33
0
39
0
210
0
220
0
230
1
0
ENDBLK
5
1F9
100
AcDbEntity
8
0
100
AcDbBlockEnd
0
BLOCK
5
203
100
AcDbEntity
8
0
100
AcDbBlockBegin
2
DimnDraft3D3
70
0
10
0
20
0
30
0
3
DimnDraft3D3
0
MTEXT
5
1FC
100
AcDbEntity
8
2
62
256
6
ByLayer
370
-1
48
1
60
0
100
AcDbMText
10
19.759211
20
-38.2758
30
0
210
0
220
0
230
1
1
\W01.000;\fsimplex.shx,bigfont.shx;43 
40
4.5
41
0
44
1.084337
50
0
71
7
72
5
7
DEFAULT
0
LINE
5
1FE
100
AcDbEntity
8
2
62
256
6
ByLayer
370
-1
48
1
60
0
100
AcDbLine
10
0
20
-14.0875
30
0
11
0
21
-42.5758
31
0
39
0
210
0
220
0
230
1
0
LINE
5
1FF
100
AcDbEntity
8
2
62
256
6
ByLayer
370
-1
48
1
60
0
100
AcDbLine
10
43
20
-8.3375
30
0
11
43
21
-42.5758
31
0
39
0
210
0
220
0
230
1
0
LINE
5
200
100
AcDbEntity
8
2
62
256
6
ByLayer
370
-1
48
1
60
0
100
AcDbLine
10
0
20
-39.4008
30
0
11
43
21
-39.4008
31
0
39
0
210
0
220
0
230
1
0
SOLID
5
201
100
AcDbEntity
8
2
62
256
6
ByLayer
370
-1
48
1
60
0
100
AcDbTrace
10
0
20
-39.4008
30
0
11
4.174997
21
-38.475225
31
0
12
4.175003
22
-40.326375
32
0
13
0
23
-39.4008
33
0
39
0
210
0
220
0
230
1
0
SOLID
5
202
100
AcDbEntity
8
2
62
256
6
ByLayer
370
-1
48
1
60
0
100
AcDbTrace
10
43
20
-39.4008
30
0
11
38.825003
21
-40.326375
31
0
12
38.824997
22
-38.475225
32
0
13
43
23
-39.4008
33
0
39
0
210
0
220
0
230
1
0
ENDBLK
5
204
100
AcDbEntity
8
0
100
AcDbBlockEnd
0
BLOCK
5
20D
100
AcDbEntity
8
0
100
AcDbBlockBegin
2
DimnDraft3D4
70
0
10
0
20
0
30
0
3
DimnDraft3D4
0
MTEXT
5
207
100
AcDbEntity
8
SK2
62
256
6
ByLayer
370
-1
48
1
60
0
100
AcDbMText
10
26.496053
20
-28.2758
30
0
210
0
220
0
230
1
1
\W01.000;\fsimplex.shx,bigfont.shx;30 
40
4.5
41
0
44
1.084337
50
0
71
7
72
5
7
DEFAULT
0
LINE
5
208
100
AcDbEntity
8
SK2
62
256
6
ByLayer
370
-1
48
1
60
0
100
AcDbLine
10
13
20
-11.5875
30
0
11
13
21
-32.5758
31
0
39
0
210
0
220
0
230
1
0
LINE
5
209
100
AcDbEntity
8
SK2
62
256
6
ByLayer
370
-1
48
1
60
0
100
AcDbLine
10
43
20
-8.3375
30
0
11
43
21
-32.5758
31
0
39
0
210
0
220
0
230
1
0
LINE
5
20A
100
AcDbEntity
8
SK2
62
256
6
ByLayer
370
-1
48
1
60
0
100
AcDbLine
10
13
20
-29.4008
30
0
11
43
21
-29.4008
31
0
39
0
210
0
220
0
230
1
0
SOLID
5
20B
100
AcDbEntity
8
SK2
62
256
6
ByLayer
370
-1
48
1
60
0
100
AcDbTrace
10
13
20
-29.4008
30
0
11
17.174997
21
-28.475225
31
0
12
17.175003
22
-30.326375
32
0
13
13
23
-29.4008
33
0
39
0
210
0
220
0
230
1
0
SOLID
5
20C
100
AcDbEntity
8
SK2
62
256
6
ByLayer
370
-1
48
1
60
0
100
AcDbTrace
10
43
20
-29.4008
30
0
11
38.825003
21
-30.326375
31
0
12
38.824997
22
-28.475225
32
0
13
43
23
-29.4008
33
0
39
0
210
0
220
0
230
1
0
ENDBLK
5
20E
100
AcDbEntity
8
0
100
AcDbBlockEnd
0
BLOCK
5
218
100
AcDbEntity
8
0
100
AcDbBlockBegin
2
DimnDraft3D5
70
0
10
0
20
0
30
0
3
DimnDraft3D5
0
MTEXT
5
211
100
AcDbEntity
8
SK2
62
256
6
ByLayer
370
-1
48
1
60
0
100
AcDbMText
10
-60.975
20
-26.245395
30
0
210
0
220
0
230
1
1
\W01.000;\fsimplex.shx,bigfont.shx;20 
40
4.5
41
0
44
1.084337
50
90
71
7
72
5
7
DEFAULT
0
MTEXT
5
212
100
AcDbEntity
8
SK2
62
256
6
ByLayer
370
-1
48
1
60
0
100
AcDbMText
10
-60.975
20
-39.745395
30
0
210
0
220
0
230
1
1
\W01.000;\fsimplex.shx,bigfont.shx;%%c 
40
4.5
41
0
44
1.084337
50
90
71
7
72
5
7
DEFAULT
0
LINE
5
213
100
AcDbEntity
8
SK2
62
256
6
ByLayer
370
-1
48
1
60
0
100
AcDbLine
10
-51.5875
20
10
30
0
11
-61.9
21
10
31
0
39
0
210
0
220
0
230
1
0
LINE
5
214
100
AcDbEntity
8
SK2
62
256
6
ByLayer
370
-1
48
1
60
0
100
AcDbLine
10
-51.5875
20
-10
30
0
11
-61.9
21
-10
31
0
39
0
210
0
220
0
230
1
0
LINE
5
215
100
AcDbEntity
8
SK2
62
256
6
ByLayer
370
-1
48
1
60
0
100
AcDbLine
10
-58.725
20
10
30
0
11
-58.725
21
-40.870395
31
0
39
0
210
0
220
0
230
1
0
SOLID
5
216
100
AcDbEntity
8
SK2
62
256
6
ByLayer
370
-1
48
1
60
0
100
AcDbTrace
10
-58.725
20
10
30
0
11
-57.799425
21
5.825003
31
0
12
-59.650575
22
5.824997
32
0
13
-58.725
23
10
33
0
39
0
210
0
220
0
230
1
0
SOLID
5
217
100
AcDbEntity
8
SK2
62
256
6
ByLayer
370
-1
48
1
60
0
100
AcDbTrace
10
-58.725
20
-10
30
0
11
-59.650575
21
-5.825003
31
0
12
-57.799425
22
-5.824997
32
0
13
-58.725
23
-10
33
0
39
0
210
0
220
0
230
1
0
ENDBLK
5
219
100
AcDbEntity
8
0
100
AcDbBlockEnd
0
BLOCK
5
223
100
AcDbEntity
8
0
100
AcDbBlockBegin
2
DimnDraft3D6
70
0
10
0
20
0
30
0
3
DimnDraft3D6
0
MTEXT
5
21C
100
AcDbEntity
8
SK2
62
256
6
ByLayer
370
-1
48
1
60
0
100
AcDbMText
10
-70.975
20
5.246053
30
0
210
0
220
0
230
1
1
\W01.000;\fsimplex.shx,bigfont.shx;25 
40
4.5
41
0
44
1.084337
50
90
71
7
72
5
7
DEFAULT
0
MTEXT
5
21D
100
AcDbEntity
8
SK2
62
256
6
ByLayer
370
-1
48
1
60
0
100
AcDbMText
10
-70.975
20
-8.253947
30
0
210
0
220
0
230
1
1
\W01.000;\fsimplex.shx,bigfont.shx;%%c 
40
4.5
41
0
44
1.084337
50
90
71
7
72
5
7
DEFAULT
0
LINE
5
21E
100
AcDbEntity
8
SK2
62
256
6
ByLayer
370
-1
48
1
60
0
100
AcDbLine
10
-1.5875
20
-12.5
30
0
11
-71.9
21
-12.5
31
0
39
0
210
0
220
0
230
1
0
LINE
5
21F
100
AcDbEntity
8
SK2
62
256
6
ByLayer
370
-1
48
1
60
0
100
AcDbLine
10
-1.5875
20
12.5
30
0
11
-71.9
21
12.5
31
0
39
0
210
0
220
0
230
1
0
LINE
5
220
100
AcDbEntity
8
SK2
62
256
6
ByLayer
370
-1
48
1
60
0
100
AcDbLine
10
-68.725
20
-23.75
30
0
11
-68.725
21
23.75
31
0
39
0
210
0
220
0
230
1
0
SOLID
5
221
100
AcDbEntity
8
SK2
62
256
6
ByLayer
370
-1
48
1
60
0
100
AcDbTrace
10
-68.725
20
-12.5
30
0
11
-67.799425
21
-16.674997
31
0
12
-69.650575
22
-16.675003
32
0
13
-68.725
23
-12.5
33
0
39
0
210
0
220
0
230
1
0
SOLID
5
222
100
AcDbEntity
8
SK2
62
256
6
ByLayer
370
-1
48
1
60
0
100
AcDbTrace
10
-68.725
20
12.5
30
0
11
-69.650575
21
16.674997
31
0
12
-67.799425
22
16.675003
32
0
13
-68.725
23
12.5
33
0
39
0
210
0
220
0
230
1
0
ENDBLK
5
224
100
AcDbEntity
8
0
100
AcDbBlockEnd
0
BLOCK
5
22E
100
AcDbEntity
8
0
100
AcDbBlockBegin
2
DimnDraft3D7
70
0
10
0
20
0
30
0
3
DimnDraft3D7
0
MTEXT
5
227
100
AcDbEntity
8
2
62
256
6
ByLayer
370
-1
48
1
60
0
100
AcDbMText
10
67.725
20
-26.938816
30
0
210
0
220
0
230
1
1
\W01.000;\fsimplex.shx,bigfont.shx;13.5 
40
4.5
41
0
44
1.084337
50
90
71
7
72
5
7
DEFAULT
0
MTEXT
5
228
100
AcDbEntity
8
2
62
256
6
ByLayer
370
-1
48
1
60
0
100
AcDbMText
10
67.725
20
-40.438816
30
0
210
0
220
0
230
1
1
\W01.000;\fsimplex.shx,bigfont.shx;%%c 
40
4.5
41
0
44
1.084337
50
90
71
7
72
5
7
DEFAULT
0
LINE
5
229
100
AcDbEntity
8
2
62
256
6
ByLayer
370
-1
48
1
60
0
100
AcDbLine
10
44.5875
20
6.75
30
0
11
73.15
21
6.75
31
0
39
0
210
0
220
0
230
1
0
LINE
5
22A
100
AcDbEntity
8
2
62
256
6
ByLayer
370
-1
48
1
60
0
100
AcDbLine
10
44.5875
20
-6.75
30
0
11
73.15
21
-6.75
31
0
39
0
210
0
220
0
230
1
0
LINE
5
22B
100
AcDbEntity
8
2
62
256
6
ByLayer
370
-1
48
1
60
0
100
AcDbLine
10
69.975
20
6.75
30
0
11
69.975
21
-41.563816
31
0
39
0
210
0
220
0
230
1
0
SOLID
5
22C
100
AcDbEntity
8
2
62
256
6
ByLayer
370
-1
48
1
60
0
100
AcDbTrace
10
69.975
20
6.75
30
0
11
70.900575
21
2.575003
31
0
12
69.049425
22
2.574997
32
0
13
69.975
23
6.75
33
0
39
0
210
0
220
0
230
1
0
SOLID
5
22D
100
AcDbEntity
8
2
62
256
6
ByLayer
370
-1
48
1
60
0
100
AcDbTrace
10
69.975
20
-6.75
30
0
11
69.049425
21
-2.575003
31
0
12
70.900575
22
-2.574997
32
0
13
69.975
23
-6.75
33
0
39
0
210
0
220
0
230
1
0
ENDBLK
5
22F
100
AcDbEntity
8
0
100
AcDbBlockEnd
0
ENDSEC
0
SECTION
2
ENTITIES
0
ARC
5
C4
100
AcDbEntity
8
SK1
62
256
6
ByLayer
370
-1
48
1
60
0
100
AcDbCircle
39
0
10
1.382165
20
10.15
30
0
40
0.4
210
0
220
0
230
-1
100
AcDbArc
50
270
51
295
0
ARC
5
C5
100
AcDbEntity
8
SK1
62
256
6
ByLayer
370
-1
48
1
60
0
100
AcDbCircle
39
0
10
1.382165
20
-10.15
30
0
40
0.4
210
0
220
0
230
-1
100
AcDbArc
50
65
51
90
0
ARC
5
C6
100
AcDbEntity
8
SK1
62
256
6
ByLayer
370
-1
48
1
60
0
100
AcDbCircle
39
0
10
0.15
20
10.15
30
0
40
0.4
210
0
220
0
230
-1
100
AcDbArc
50
247.975687
51
270
0
ARC
5
C7
100
AcDbEntity
8
SK1
62
256
6
ByLayer
370
-1
48
1
60
0
100
AcDbCircle
39
0
10
0.15
20
-10.15
30
0
40
0.4
210
0
220
0
230
-1
100
AcDbArc
50
90
51
112.024313
0
ARC
5
C8
100
AcDbEntity
8
SK1
62
256
6
ByLayer
370
-1
48
1
60
0
100
AcDbCircle
39
0
10
47.894506
20
10.39675
30
0
40
0.8
210
0
220
0
230
-1
100
AcDbArc
50
250.982048
51
321
0
ARC
5
C9
100
AcDbEntity
8
SK1
62
256
6
ByLayer
370
-1
48
1
60
0
100
AcDbCircle
39
0
10
47.894506
20
-10.39675
30
0
40
0.8
210
0
220
0
230
-1
100
AcDbArc
50
39
51
109.017952
0
ELLIPSE
5
CA
100
AcDbEntity
8
1
62
256
6
ByLayer
370
-1
48
1
60
0
100
AcDbEllipse
10
37.129356
20
3.159242
30
0
11
-0.634846249717449
21
0.294907170512503
31
0
210
0
220
0
230
1
40
0.036834
41
-0.291919532341896
42
-0.0791261077919286
0
ELLIPSE
5
CB
100
AcDbEntity
8
1
62
256
6
ByLayer
370
-1
48
1
60
0
100
AcDbEllipse
10
42.309588
20
0
30
0
11
-1.44027464596269
21
6.47316304457458
31
0
210
0
220
0
230
-1
40
0.10708
41
-1.76404944200724
42
-1.47545354205164
0
ELLIPSE
5
CC
100
AcDbEntity
8
1
62
256
6
ByLayer
370
-1
48
1
60
0
100
AcDbEllipse
10
35
20
5.85
30
0
11
-4.99999999882275
21
-5.66549845098906E-15
31
0
210
0
220
0
230
-1
40
1
41
-1.4034948363779
42
-1.32632477770268
0
ELLIPSE
5
CD
100
AcDbEntity
8
1
62
256
6
ByLayer
370
-1
48
1
60
0
100
AcDbEllipse
10
38.683812
20
4.15
30
0
11
-4.9175000807033
21
-2.97126557475432
31
0
210
0
220
0
230
-1
40
0.376157
41
-1.0091061276877
42
-0.899371633506292
0
ELLIPSE
5
CE
100
AcDbEntity
8
1
62
256
6
ByLayer
370
-1
48
1
60
0
100
AcDbEllipse
10
42.523878
20
1.595412
30
0
11
-0.79797691922793
21
-0.481304537343567
31
0
210
0
220
0
230
-1
40
0.649355
41
0.534462961274094
42
0.801541457699559
0
ELLIPSE
5
CF
100
AcDbEntity
8
1
62
256
6
ByLayer
370
-1
48
1
60
0
100
AcDbEllipse
10
35.166379
20
0
30
0
11
-23.1226896806789
21
-2.62003125198863E-14
31
0
210
0
220
0
230
-1
40
0.280028
41
1.39866701134834
42
1.57477406200934
0
ELLIPSE
5
D0
100
AcDbEntity
8
1
62
256
6
ByLayer
370
-1
48
1
60
0
100
AcDbEllipse
10
38.977447
20
0.751715
30
0
11
-1.49752022187498
21
0.00503919511703243
31
0
210
0
220
0
230
-1
40
0.138682
41
0
42
6.28318530717959
0
ELLIPSE
5
D1
100
AcDbEntity
8
1
62
256
6
ByLayer
370
-1
48
1
60
0
100
AcDbEllipse
10
37.653063
20
2.748594
30
0
11
-1.4470236532442E-15
21
-1.35
31
0
210
0
220
0
230
1
40
0.996195
41
-2.00712863979348
42
-0.217192231581969
0
ELLIPSE
5
D2
100
AcDbEntity
8
1
62
256
6
ByLayer
370
-1
48
1
60
0
100
AcDbEllipse
10
37.716214
20
2.88454
30
0
11
-1.4470236532442E-15
21
-1.35
31
0
210
0
220
0
230
1
40
0.996195
41
-2.03855290774144
42
-2.00712863979348
0
ELLIPSE
5
D3
100
AcDbEntity
8
1
62
256
6
ByLayer
370
-1
48
1
60
0
100
AcDbEllipse
10
37.504898
20
2.748594
30
0
11
1.58146201212697E-15
21
1.35
31
0
210
0
220
0
230
1
40
0.996195
41
1.32377705753461
42
1.73074728884203
0
ELLIPSE
5
D4
100
AcDbEntity
8
1
62
256
6
ByLayer
370
-1
48
1
60
0
100
AcDbEllipse
10
39.638768
20
-2.056741
30
0
11
1
21
0
31
0
210
0
220
0
230
1
40
0.998135
41
0.0765765226045317
42
3.06511477049751
0
ELLIPSE
5
D5
100
AcDbEntity
8
1
62
256
6
ByLayer
370
-1
48
1
60
0
100
AcDbEllipse
10
34.963964
20
0
30
0
11
-74.0095894128303
21
-8.38602428550902E-14
31
0
210
0
220
0
230
-1
40
0.087489
41
1.57477406196913
42
1.59634145700916
0
ELLIPSE
5
D6
100
AcDbEntity
8
1
62
256
6
ByLayer
370
-1
48
1
60
0
100
AcDbEllipse
10
42.641563
20
1.56056
30
0
11
-3.12035882612378
21
0.0911565545933518
31
0
210
0
220
0
230
-1
40
0.015419
41
1.27866639922052
42
1.34190545270359
0
ELLIPSE
5
D7
100
AcDbEntity
8
1
62
256
6
ByLayer
370
-1
48
1
60
0
100
AcDbEllipse
10
36.768441
20
6.680842
30
0
11
-5.35934686386741E-15
21
-5
31
0
210
0
220
0
230
1
40
0.996195
41
-0.34532263031926
42
-0.0320260714809328
0
ELLIPSE
5
D8
100
AcDbEntity
8
1
62
256
6
ByLayer
370
-1
48
1
60
0
100
AcDbEllipse
10
8.1
20
-2.794733
30
0
11
-3.5
21
3.53723669278827E-15
31
0
210
0
220
0
230
1
40
0.999032
41
-1.77225781815966
42
-9.82906569918549E-06
0
ELLIPSE
5
D9
100
AcDbEntity
8
1
62
256
6
ByLayer
370
-1
48
1
60
0
100
AcDbEllipse
10
36.838166
20
6.680842
30
0
11
4.92010403772836E-15
21
4.2
31
0
210
0
220
0
230
1
40
0.996195
41
2.70526034059121
42
2.98295464065567
0
ELLIPSE
5
DA
100
AcDbEntity
8
1
62
256
6
ByLayer
370
-1
48
1
60
0
100
AcDbEllipse
10
39.638768
20
-1.904183
30
0
11
-1
21
1.01063905508236E-15
31
0
210
0
220
0
230
1
40
0.998135
41
0
42
6.28318530717959
0
ELLIPSE
5
DB
100
AcDbEntity
8
1
62
256
6
ByLayer
370
-1
48
1
60
0
100
AcDbEllipse
10
35.039156
20
0
30
0
11
-24.547009379793
21
0.424717983387636
31
0
210
0
220
0
230
-1
40
0.263212
41
-1.59542901053207
42
-1.49674157338107
0
ELLIPSE
5
DC
100
AcDbEntity
8
1
62
256
6
ByLayer
370
-1
48
1
60
0
100
AcDbEllipse
10
39.805918
20
4.030842
30
0
11
-1.07186937277348E-15
21
-1
31
0
210
0
220
0
230
1
40
0.996195
41
1.57079654872778
42
-1.77882855322155
0
ELLIPSE
5
DD
100
AcDbEntity
8
1
62
256
6
ByLayer
370
-1
48
1
60
0
100
AcDbEllipse
10
39.805918
20
4.030842
30
0
11
-1.07186937277348E-15
21
-1
31
0
210
0
220
0
230
1
40
0.996195
41
0.982827342672287
42
1.57079554872778
0
ELLIPSE
5
DE
100
AcDbEntity
8
1
62
256
6
ByLayer
370
-1
48
1
60
0
100
AcDbEllipse
10
37.549468
20
3.008594
30
0
11
-1.4470236532442E-15
21
-1.35
31
0
210
0
220
0
230
1
40
0.996195
41
-1.76569142660093
42
-1.62274188962593
0
ELLIPSE
5
DF
100
AcDbEntity
8
1
62
256
6
ByLayer
370
-1
48
1
60
0
100
AcDbEllipse
10
42.42608
20
0.59807
30
0
11
-0.0238435923196185
21
0.843437382722808
31
0
210
0
220
0
230
-1
40
0.493236
41
-2.06647659312216
42
-1.53498582982296
0
ELLIPSE
5
E0
100
AcDbEntity
8
1
62
256
6
ByLayer
370
-1
48
1
60
0
100
AcDbEllipse
10
-52.151396
20
0
30
0
11
-286.970343123023
21
-6.25617338261562
31
0
210
0
220
0
230
-1
40
0.005816
41
-1.90303943379955
42
-1.88411634052649
0
ELLIPSE
5
E1
100
AcDbEntity
8
1
62
256
6
ByLayer
370
-1
48
1
60
0
100
AcDbEllipse
10
35.526608
20
4.050669
30
0
11
-0.407438789211501
21
-3.37549901985556
31
0
210
0
220
0
230
1
40
0.267852
41
0.19352628774963
42
0.852317993124167
0
ELLIPSE
5
E2
100
AcDbEntity
8
1
62
256
6
ByLayer
370
-1
48
1
60
0
100
AcDbEllipse
10
35.586185
20
3.1E-05
30
0
11
-1.29238136941028
21
-6.47405509370107
31
0
210
0
220
0
230
-1
40
0.08416
41
3.09924866631683
42
3.10906460869127
0
ELLIPSE
5
E3
100
AcDbEntity
8
1
62
256
6
ByLayer
370
-1
48
1
60
0
100
AcDbEllipse
10
40.018954
20
0
30
0
11
-14.1185090866659
21
6.27223787176919
31
0
210
0
220
0
230
-1
40
0.113871
41
-1.1921672257649
42
-1.16502671410494
0
ELLIPSE
5
E4
100
AcDbEntity
8
1
62
256
6
ByLayer
370
-1
48
1
60
0
100
AcDbEllipse
10
42.12749
20
-3.710881
30
0
11
-0.135913575182847
21
-0.76884500488939
31
0
210
0
220
0
230
-1
40
0.119599
41
-0.00097150660370594
42
1.56982482018974
0
ELLIPSE
5
E5
100
AcDbEntity
8
1
62
256
6
ByLayer
370
-1
48
1
60
0
100
AcDbEllipse
10
39.797112
20
4.030842
30
0
11
-1.25944651300884E-15
21
-1.175
31
0
210
0
220
0
230
1
40
0.996195
41
-3.14159237692217
42
-2.56628827920619
0
ELLIPSE
5
E6
100
AcDbEntity
8
1
62
256
6
ByLayer
370
-1
48
1
60
0
100
AcDbEllipse
10
39.638768
20
-1.904183
30
0
11
1.1
21
0
31
0
210
0
220
0
230
1
40
0.998135
41
0
42
-3.14159250247965
0
ELLIPSE
5
E7
100
AcDbEntity
8
1
62
256
6
ByLayer
370
-1
48
1
60
0
100
AcDbEllipse
10
39.527256
20
2.358594
30
0
11
-1.20926485984169
21
-0.69949966238759
31
0
210
0
220
0
230
-1
40
0.021882
41
-0.728344145733156
42
-0.0378114582686252
0
ELLIPSE
5
E8
100
AcDbEntity
8
1
62
256
6
ByLayer
370
-1
48
1
60
0
100
AcDbEllipse
10
37.434211
20
5.778826
30
0
11
-1.23306486682578
21
-2.65326282116575
31
0
210
0
220
0
230
-1
40
0.018911
41
-0.512545255075105
42
-0.393223086631337
0
ELLIPSE
5
E9
100
AcDbEntity
8
1
62
256
6
ByLayer
370
-1
48
1
60
0
100
AcDbEllipse
10
16.920328
20
6.296535
30
0
11
-18.3336433262161
21
2.17715249926544
31
0
210
0
220
0
230
-1
40
0.184148
41
3.11972826938453
42
-2.84311026634099
0
ELLIPSE
5
EA
100
AcDbEntity
8
1
62
256
6
ByLayer
370
-1
48
1
60
0
100
AcDbEllipse
10
35.000199
20
2.874349
30
0
11
-0.339154326220872
21
-0.724551132085008
31
0
210
0
220
0
230
1
40
0.07899
41
0.281558022895898
42
1.60775379831957
0
ELLIPSE
5
EB
100
AcDbEntity
8
1
62
256
6
ByLayer
370
-1
48
1
60
0
100
AcDbEllipse
10
39.788396
20
4.030842
30
0
11
-1.25944651300884E-15
21
-1.175
31
0
210
0
220
0
230
1
40
0.996195
41
1.78442471626852
42
-2.59201020032128
0
ELLIPSE
5
EC
100
AcDbEntity
8
1
62
256
6
ByLayer
370
-1
48
1
60
0
100
AcDbEllipse
10
39.953992
20
4.030842
30
0
11
1.17145334231628E-15
21
1
31
0
210
0
220
0
230
1
40
0.996195
41
0.074416951726319
42
1.57079654872778
0
ELLIPSE
5
ED
100
AcDbEntity
8
1
62
256
6
ByLayer
370
-1
48
1
60
0
100
AcDbEllipse
10
39.953992
20
4.030842
30
0
11
1.17145334231628E-15
21
1
31
0
210
0
220
0
230
1
40
0.996195
41
1.57079654872778
42
2.13814839104023
0
ELLIPSE
5
EE
100
AcDbEntity
8
1
62
256
6
ByLayer
370
-1
48
1
60
0
100
AcDbEllipse
10
37.976826
20
2.185678
30
0
11
0.35100127149786
21
-0.605638594713783
31
0
210
0
220
0
230
1
40
0.075479
41
0.472977587146946
42
0.836273843398382
0
ELLIPSE
5
EF
100
AcDbEntity
8
1
62
256
6
ByLayer
370
-1
48
1
60
0
100
AcDbEllipse
10
42.403897
20
1.630944
30
0
11
-0.175074129250176
21
-0.782085519390653
31
0
210
0
220
0
230
-1
40
0.463068
41
1.10116813377683
42
1.71446653139637
0
ELLIPSE
5
F0
100
AcDbEntity
8
1
62
256
6
ByLayer
370
-1
48
1
60
0
100
AcDbEllipse
10
36.9142
20
3.134476
30
0
11
-0.686845440335521
21
0.135067912882017
31
0
210
0
220
0
230
1
40
0.016879
41
-0.415466638282691
42
-0.0856224731666173
0
ELLIPSE
5
F1
100
AcDbEntity
8
1
62
256
6
ByLayer
370
-1
48
1
60
0
100
AcDbEllipse
10
37.543907
20
3.008594
30
0
11
1.58146201212697E-15
21
1.35
31
0
210
0
220
0
230
1
40
0.996195
41
1.37590122698887
42
1.51885076396386
0
ELLIPSE
5
F2
100
AcDbEntity
8
1
62
256
6
ByLayer
370
-1
48
1
60
0
100
AcDbEllipse
10
37.066204
20
3.023296
30
0
11
-0.634846249717449
21
0.294907170512503
31
0
210
0
220
0
230
1
40
0.036834
41
-0.625371171758206
42
-0.0791261077919286
0
ELLIPSE
5
F3
100
AcDbEntity
8
1
62
256
6
ByLayer
370
-1
48
1
60
0
100
AcDbEllipse
10
42.995719
20
0
30
0
11
-1.10974597461006
21
-6.47335738456993
31
0
210
0
220
0
230
-1
40
0.131417
41
0.0184825686456453
42
1.33119712248771
0
ELLIPSE
5
F4
100
AcDbEntity
8
1
62
256
6
ByLayer
370
-1
48
1
60
0
100
AcDbEllipse
10
37.737193
20
2.748594
30
0
11
-1.20133142694088
21
-1.03359171361096
31
0
210
0
220
0
230
-1
40
0.722898
41
-1.22238510543647
42
-0.783434498822267
0
ELLIPSE
5
F5
100
AcDbEntity
8
1
62
256
6
ByLayer
370
-1
48
1
60
0
100
AcDbEllipse
10
42.234809
20
-0.478453
30
0
11
-0.150809602165136
21
0.684208661375806
31
0
210
0
220
0
230
-1
40
0.109732
41
-1.50594373613169
42
-0.214456053595258
0
ELLIPSE
5
F6
100
AcDbEntity
8
1
62
256
6
ByLayer
370
-1
48
1
60
0
100
AcDbEllipse
10
39.795666
20
-2.256923
30
0
11
-1.1
21
1.1117029605906E-15
31
0
210
0
220
0
230
1
40
0.998135
41
-1.96496782723774
42
-4.04471803413423E-16
0
ELLIPSE
5
F7
100
AcDbEntity
8
1
62
256
6
ByLayer
370
-1
48
1
60
0
100
AcDbEllipse
10
39.795666
20
-2.256923
30
0
11
-1.13
21
1.14202213224307E-15
31
0
210
0
220
0
230
1
40
0.998135
41
-1.84195466398748
42
-0.0919896797621677
0
ELLIPSE
5
F8
100
AcDbEntity
8
1
62
256
6
ByLayer
370
-1
48
1
60
0
100
AcDbEllipse
10
42.654484
20
-1.75186
30
0
11
-0.54161371775654
21
0.0956795732533277
31
0
210
0
220
0
230
1
40
0.060121
41
1.05445084784108
42
1.58141670500791
0
ELLIPSE
5
F9
100
AcDbEntity
8
1
62
256
6
ByLayer
370
-1
48
1
60
0
100
AcDbEllipse
10
42.649372
20
-1.459547
30
0
11
-0.537937687900339
21
-0.114555855094521
31
0
210
0
220
0
230
1
40
0.059714
41
1.04053525962974
42
1.55808058840482
0
ELLIPSE
5
FA
100
AcDbEntity
8
1
62
256
6
ByLayer
370
-1
48
1
60
0
100
AcDbEllipse
10
42.476048
20
-0.645641
30
0
11
-0.537937687900339
21
-0.114555855094521
31
0
210
0
220
0
230
1
40
0.059714
41
1.04053525962972
42
1.55808058840481
0
ELLIPSE
5
FB
100
AcDbEntity
8
1
62
256
6
ByLayer
370
-1
48
1
60
0
100
AcDbEllipse
10
42.382527
20
-3.29133
30
0
11
-0.54161371775654
21
0.0956795732533277
31
0
210
0
220
0
230
1
40
0.060121
41
1.05445084784108
42
1.58141670500791
0
ELLIPSE
5
FC
100
AcDbEntity
8
1
62
256
6
ByLayer
370
-1
48
1
60
0
100
AcDbEllipse
10
39.795666
20
-2.255702
30
0
11
1.20924645102467
21
0
31
0
210
0
220
0
230
1
40
0.998135
41
1.69901262148109
42
2.77638227164408
0
ELLIPSE
5
FD
100
AcDbEntity
8
1
62
256
6
ByLayer
370
-1
48
1
60
0
100
AcDbEllipse
10
39.795666
20
-2.312835
30
0
11
1.1
21
0
31
0
210
0
220
0
230
1
40
0.998135
41
1.02023216493592
42
3.07748491090677
0
ELLIPSE
5
FE
100
AcDbEntity
8
1
62
256
6
ByLayer
370
-1
48
1
60
0
100
AcDbEllipse
10
41.676382
20
-0.848875
30
0
11
0.817531508496598
21
0
31
0
210
0
220
0
230
1
40
0.998135
41
0.209439510239313
42
1.03483740944073
0
ELLIPSE
5
FF
100
AcDbEntity
8
1
62
256
6
ByLayer
370
-1
48
1
60
0
100
AcDbEllipse
10
41.961668
20
-0.474254
30
0
11
0.568502493118137
21
0
31
0
210
0
220
0
230
1
40
0.998135
41
0.209439510239319
42
1.38336830908961
0
ELLIPSE
5
100
100
AcDbEntity
8
1
62
256
6
ByLayer
370
-1
48
1
60
0
100
AcDbEllipse
10
41.898613
20
-1.652405
30
0
11
0.767531508496599
21
0
31
0
210
0
220
0
230
1
40
0.998135
41
-0.174532925199432
42
0.209439510239319
0
ELLIPSE
5
101
100
AcDbEntity
8
1
62
256
6
ByLayer
370
-1
48
1
60
0
100
AcDbEllipse
10
41.529358
20
-3.130427
30
0
11
0.981882963782138
21
0
31
0
210
0
220
0
230
1
40
0.998135
41
-1.08271959555055
42
-0.174532925199439
0
ELLIPSE
5
102
100
AcDbEntity
8
1
62
256
6
ByLayer
370
-1
48
1
60
0
100
AcDbEllipse
10
41.577416
20
-3.183208
30
0
11
0.817531508496598
21
0
31
0
210
0
220
0
230
1
40
0.998135
41
-1.01923640413895
42
-0.174532925199437
0
ELLIPSE
5
103
100
AcDbEntity
8
1
62
256
6
ByLayer
370
-1
48
1
60
0
100
AcDbEllipse
10
39.723047
20
4.230842
30
0
11
-1.70009851535478E-15
21
-1.58610606715606
31
0
210
0
220
0
230
1
40
0.996195
41
0
42
6.28318530717959
0
ELLIPSE
5
104
100
AcDbEntity
8
1
62
256
6
ByLayer
370
-1
48
1
60
0
100
AcDbEllipse
10
39.75268
20
4.230842
30
0
11
-1.52010474797794E-15
21
-1.41818097110531
31
0
210
0
220
0
230
1
40
0.996195
41
0
42
6.28318530717959
0
ELLIPSE
5
105
100
AcDbEntity
8
1
62
256
6
ByLayer
370
-1
48
1
60
0
100
AcDbEllipse
10
39.766169
20
4.230842
30
0
11
-1.50850481115741E-15
21
-1.40735881579873
31
0
210
0
220
0
230
1
40
0.996195
41
2.21550985223123
42
0
0
ELLIPSE
5
106
100
AcDbEntity
8
1
62
256
6
ByLayer
370
-1
48
1
60
0
100
AcDbEllipse
10
39.766169
20
4.230842
30
0
11
-1.50850481115741E-15
21
-1.40735881579873
31
0
210
0
220
0
230
1
40
0.996195
41
0
42
0.926082690006848
0
ELLIPSE
5
107
100
AcDbEntity
8
1
62
256
6
ByLayer
370
-1
48
1
60
0
100
AcDbEllipse
10
39.781246
20
4.230842
30
0
11
-1.43308077703746E-15
21
-1.33699200055445
31
0
210
0
220
0
230
1
40
0.996195
41
0
42
6.28318530717959
0
ELLIPSE
5
108
100
AcDbEntity
8
1
62
256
6
ByLayer
370
-1
48
1
60
0
100
AcDbEllipse
10
39.926992
20
4.230842
30
0
11
1.2885986765479E-15
21
1.1
31
0
210
0
220
0
230
1
40
0.996195
41
0.0408407115142804
42
1.57079627600049
0
ELLIPSE
5
109
100
AcDbEntity
8
1
62
256
6
ByLayer
370
-1
48
1
60
0
100
AcDbEllipse
10
39.926992
20
4.230842
30
0
11
1.2885986765479E-15
21
1.1
31
0
210
0
220
0
230
1
40
0.996195
41
1.57079627600049
42
3.1007518400993
0
ELLIPSE
5
10A
100
AcDbEntity
8
1
62
256
6
ByLayer
370
-1
48
1
60
0
100
AcDbEllipse
10
39.837582
20
4.230842
30
0
11
-1.17905631005083E-15
21
-1.1
31
0
210
0
220
0
230
1
40
0.996195
41
0
42
6.28318530717959
0
POINT
5
41
100
AcDbEntity
8
81
62
256
6
ByLayer
370
-1
48
1
60
0
100
AcDbPoint
10
43
20
0
30
0
39
0
210
0
220
0
230
1
50
360
0
POINT
5
43
100
AcDbEntity
8
80
62
256
6
ByLayer
370
-1
48
1
60
0
100
AcDbPoint
10
0
20
0
30
0
39
0
210
0
220
0
230
1
50
360
0
SPLINE
5
10B
100
AcDbEntity
8
1
62
256
6
ByLayer
370
-1
48
1
60
0
100
AcDbSpline
70
4
71
3
72
16
73
12
40
0
40
0
40
0
40
0
40
0.0181795240608314
40
0.150847149519741
40
0.282882674417492
40
0.414786427059294
40
0.575159020606713
40
0.724056183158286
40
0.815922575677011
40
0.905223109146645
40
1
40
1
40
1
40
1
41
1
10
10.9673343674966
20
7.03889734978409
30
0
41
1
10
10.9204010088445
20
7.05820049813494
30
0
41
1
10
10.5362875700143
20
7.2266473339206
30
0
41
1
10
9.93274959879187
20
7.76081904800682
30
0
41
1
10
9.19533444510989
20
8.57620508015708
30
0
41
1
10
8.51688778602588
20
9.54606978430152
30
0
41
1
10
7.84781676370201
20
10.5722821937007
30
0
41
1
10
7.1688373626686
20
11.4644192006997
30
0
41
1
10
6.47641056810204
20
12.0749995076995
30
0
41
1
10
5.77656063102182
20
12.4258187587235
30
0
41
1
10
5.27295391366926
20
12.4998278870666
30
0
41
1
10
5.00000000000003
20
12.5
30
0
0
SPLINE
5
10C
100
AcDbEntity
8
1
62
256
6
ByLayer
370
-1
48
1
60
0
100
AcDbSpline
70
4
71
3
72
15
73
11
40
0
40
0
40
0
40
0
40
0.0972519566340096
40
0.188884542702065
40
0.283149994342354
40
0.435935554883667
40
0.600496223339116
40
0.735844596938243
40
0.871328183980287
40
1
40
1
40
1
40
1
41
1
10
4.99999999999997
20
-12.5
30
0
41
1
10
5.27295391366917
20
-12.4998278870665
30
0
41
1
10
5.77655934700997
20
-12.4258164352544
30
0
41
1
10
6.47641483609968
20
-12.0750072308064
30
0
41
1
10
7.16881665549798
20
-11.4643817302735
30
0
41
1
10
7.84795328739591
20
-10.5725292386058
30
0
41
1
10
8.51638471642895
20
-9.54515946040632
30
0
41
1
10
9.19684099430796
20
-8.57893123920667
30
0
41
1
10
9.91368755236809
20
-7.7657346053376
30
0
41
1
10
10.4778581141262
20
-7.30896230078838
30
0
41
1
10
10.7765297792915
20
-7.130993999326
30
0
0
SPLINE
5
10D
100
AcDbEntity
8
1
62
256
6
ByLayer
370
-1
48
1
60
0
100
AcDbSpline
70
4
71
3
72
8
73
4
40
0
40
0
40
0
40
0
40
1
40
1
40
1
40
1
41
1
10
10.9220402167361
20
-7.04888618423794
30
0
41
1
10
11.1139263246959
20
-6.94650820351484
30
0
41
1
10
11.3151764459414
20
-6.86162739415573
30
0
41
1
10
11.5254638918357
20
-6.79088288063278
30
0
0
SPLINE
5
10E
100
AcDbEntity
8
1
62
256
6
ByLayer
370
-1
48
1
60
0
100
AcDbSpline
70
4
71
1
72
4
73
2
40
0
40
0
40
1
40
1
41
1
10
42.2442892164059
20
6.64706358021164
30
0
41
1
10
42.2250251462565
20
6.65069196097798
30
0
0
SPLINE
5
10F
100
AcDbEntity
8
1
62
256
6
ByLayer
370
-1
48
1
60
0
100
AcDbSpline
70
4
71
1
72
4
73
2
40
0
40
0
40
1
40
1
41
1
10
42.4590361426965
20
6.6015505548333
30
0
41
1
10
42.3832865415133
20
6.61903834313514
30
0
0
SPLINE
5
110
100
AcDbEntity
8
1
62
256
6
ByLayer
370
-1
48
1
60
0
100
AcDbSpline
70
4
71
2
72
6
73
3
40
0
40
0
40
0
40
1
40
1
40
1
41
1
10
41.9710754152445
20
1.91053776377174
30
0
41
1
10
42.0596317574168
20
1.9172830959626
30
0
41
1
10
42.1477411455738
20
1.9195156861899
30
0
0
SPLINE
5
111
100
AcDbEntity
8
1
62
256
6
ByLayer
370
-1
48
1
60
0
100
AcDbSpline
70
4
71
2
72
6
73
3
40
0
40
0
40
0
40
1
40
1
40
1
41
1
10
37.4999507117055
20
6.5511466120771
30
0
41
1
10
37.4121357072236
20
6.54441230496963
30
0
41
1
10
37.3234059673135
20
6.54219797947371
30
0
0
SPLINE
5
112
100
AcDbEntity
8
1
62
256
6
ByLayer
370
-1
48
1
60
0
100
AcDbSpline
70
4
71
1
72
4
73
2
40
0
40
0
40
1
40
1
41
1
10
37.2268211962727
20
1.81462804426624
30
0
41
1
10
37.2460586394481
20
1.81099383670622
30
0
0
SPLINE
5
113
100
AcDbEntity
8
1
62
256
6
ByLayer
370
-1
48
1
60
0
100
AcDbSpline
70
4
71
1
72
4
73
2
40
0
40
0
40
1
40
1
41
1
10
37.0123369125218
20
1.85990999707633
30
0
41
1
10
37.0881649570743
20
1.84256667127582
30
0
0
SPLINE
5
114
100
AcDbEntity
8
1
62
256
6
ByLayer
370
-1
48
1
60
0
100
AcDbSpline
70
4
71
3
72
10
73
6
40
0
40
0
40
0
40
0
40
0.5
40
0.5
40
1
40
1
40
1
40
1
41
1
10
10.2195600259694
20
0.245986934895342
30
0
41
1
10
9.96355651887882
20
0.319425038716815
30
0
41
1
10
9.72930416497667
20
0.381202224144118
30
0
41
1
10
9.29092212754233
20
0.49707975510367
30
0
41
1
10
9.08675009037947
20
0.550894199707272
30
0
41
1
10
8.89050572231289
20
0.603660218804208
30
0
0
SPLINE
5
115
100
AcDbEntity
8
1
62
256
6
ByLayer
370
-1
48
1
60
0
100
AcDbSpline
70
4
71
3
72
8
73
4
40
0
40
0
40
0
40
0
40
1
40
1
40
1
40
1
41
1
10
35.0823805390571
20
1.97601073228432
30
0
41
1
10
35.3541259855556
20
1.87440485484478
30
0
41
1
10
35.638332092333
20
1.79709655883792
30
0
41
1
10
35.9390539293434
20
1.74662424474866
30
0
0
SPLINE
5
116
100
AcDbEntity
8
1
62
256
6
ByLayer
370
-1
48
1
60
0
100
AcDbSpline
70
4
71
3
72
8
73
4
40
0
40
0
40
0
40
0
40
1
40
1
40
1
40
1
41
1
10
8.80035516932861
20
0.631161178097784
30
0
41
1
10
8.83030443496199
20
0.623191242481568
30
0
41
1
10
8.86034699483727
20
0.614025969858119
30
0
41
1
10
8.89050582257727
20
0.603661431981436
30
0
0
SPLINE
5
117
100
AcDbEntity
8
1
62
256
6
ByLayer
370
-1
48
1
60
0
100
AcDbSpline
70
4
71
3
72
24
73
20
40
0
40
0
40
0
40
0
40
0.0625000000000007
40
0.0625000000000007
40
0.125000000000001
40
0.125000000000001
40
0.187500000000002
40
0.187500000000002
40
0.250000000000003
40
0.250000000000003
40
0.312500000000004
40
0.312500000000004
40
0.375000000000004
40
0.375000000000004
40
0.500000000000006
40
0.500000000000006
40
0.750000000000003
40
0.750000000000003
40
1
40
1
40
1
40
1
41
1
10
34.3254305963669
20
3.22283844665824
30
0
41
1
10
34.295757778989
20
3.20954718194642
30
0
41
1
10
34.2674282177529
20
3.19397427999434
30
0
41
1
10
34.2145794493376
20
3.15634689489644
30
0
41
1
10
34.1903030580592
20
3.1342633552884
30
0
41
1
10
34.1501481188305
20
3.08436913999208
30
0
41
1
10
34.1342551409094
20
3.05635673999763
30
0
41
1
10
34.1129064829886
20
2.99838017285879
30
0
41
1
10
34.1072223750878
20
2.96805839671092
30
0
41
1
10
34.1040684299454
20
2.90899370685085
30
0
41
1
10
34.1064726692188
20
2.87946207238895
30
0
41
1
10
34.116642526834
20
2.82299915004515
30
0
41
1
10
34.1243714401095
20
2.79576878476692
30
0
41
1
10
34.1532282686136
20
2.7162752052798
30
0
41
1
10
34.1797801817212
20
2.66674679641304
30
0
41
1
10
34.2699318893145
20
2.52824003289922
30
0
41
1
10
34.3454620689159
20
2.44652102127699
30
0
41
1
10
34.5086207524618
20
2.29867704734545
30
0
41
1
10
34.5970212366154
20
2.23226596264024
30
0
41
1
10
34.6903016005233
20
2.17088487994204
30
0
0
SPLINE
5
118
100
AcDbEntity
8
1
62
256
6
ByLayer
370
-1
48
1
60
0
100
AcDbSpline
70
4
71
3
72
24
73
20
40
0
40
0
40
0
40
0
40
0.0219964779812395
40
0.0219964779812395
40
0.184997064984365
40
0.184997064984365
40
0.347997651987491
40
0.347997651987491
40
0.510998238990617
40
0.510998238990617
40
0.673998825993743
40
0.673998825993743
40
0.755499119495307
40
0.755499119495307
40
0.836999412996872
40
0.836999412996872
40
0.918499706498436
40
0.918499706498436
40
1
40
1
40
1
40
1
41
1
10
34.6193356611041
20
0.851604506701477
30
0
41
1
10
34.6190391585203
20
0.85648204810883
30
0
41
1
10
34.6186883811453
20
0.8615132236786
30
0
41
1
10
34.615270917585
20
0.905113505492693
30
0
41
1
10
34.6090809427244
20
0.952185625799586
30
0
41
1
10
34.589148585443
20
1.05998947750155
30
0
41
1
10
34.5754187659617
20
1.12096816946487
30
0
41
1
10
34.5381987165887
20
1.25578608539962
30
0
41
1
10
34.514757568365
20
1.32964602537638
30
0
41
1
10
34.4540783573703
20
1.48886063883492
30
0
41
1
10
34.4173788200183
20
1.57297360628425
30
0
41
1
10
34.3483122649894
20
1.70249804611564
30
0
41
1
10
34.3229164281161
20
1.74624588523867
30
0
41
1
10
34.2658900587515
20
1.83408748317581
30
0
41
1
10
34.2341961236267
20
1.87824332461307
30
0
41
1
10
34.1635514029057
20
1.964018955932
30
0
41
1
10
34.1245350613722
20
2.00583896500586
30
0
41
1
10
34.0358787695526
20
2.0848700562907
30
0
41
1
10
33.9865432197181
20
2.12169357305956
30
0
41
1
10
33.9315390490519
20
2.15293207849882
30
0
0
SPLINE
5
119
100
AcDbEntity
8
1
62
256
6
ByLayer
370
-1
48
1
60
0
100
AcDbSpline
70
4
71
3
72
10
73
6
40
0
40
0
40
0
40
0
40
0.5
40
0.5
40
1
40
1
40
1
40
1
41
1
10
9.12865680171168
20
-5.94228362858553
30
0
41
1
10
9.25383648400745
20
-5.93716692488042
30
0
41
1
10
9.40050100192363
20
-5.96059093940596
30
0
41
1
10
9.72957755904952
20
-6.061527815142
30
0
41
1
10
9.91324176579673
20
-6.13945389552367
30
0
41
1
10
10.1092284336105
20
-6.23480560018402
30
0
0
SPLINE
5
11A
100
AcDbEntity
8
1
62
256
6
ByLayer
370
-1
48
1
60
0
100
AcDbSpline
70
4
71
3
72
12
73
8
40
0
40
0
40
0
40
0
40
0.250000000000004
40
0.250000000000004
40
0.500000000000008
40
0.500000000000008
40
1
40
1
40
1
40
1
41
1
10
36.2064191459846
20
3.07868928811087
30
0
41
1
10
36.208713626181
20
3.07868928811087
30
0
41
1
10
36.212850949728
20
3.08645006224546
30
0
41
1
10
36.2232630416199
20
3.11060888659009
30
0
41
1
10
36.2295939409495
20
3.12689979427282
30
0
41
1
10
36.2504662621434
20
3.17969353459875
30
0
41
1
10
36.2673172464911
20
3.22093499458754
30
0
41
1
10
36.2867063588498
20
3.26273230046692
30
0
0
SPLINE
5
11B
100
AcDbEntity
8
1
62
256
6
ByLayer
370
-1
48
1
60
0
100
AcDbSpline
70
4
71
3
72
18
73
14
40
0
40
0
40
0
40
0
40
0.0653767963473231
40
0.0653767963473231
40
0.158839116712591
40
0.158839116712591
40
0.252301437077858
40
0.252301437077858
40
0.439226077808394
40
0.439226077808394
40
0.626150718538929
40
0.626150718538929
40
1
40
1
40
1
40
1
41
1
10
25.0247512986931
20
4.18536008027908
30
0
41
1
10
25.0811268011691
20
4.21645526233368
30
0
41
1
10
25.138318937333
20
4.24611138491187
30
0
41
1
10
25.2787478045573
20
4.31556404861229
30
0
41
1
10
25.3628784768139
20
4.3543128758667
30
0
41
1
10
25.531451006781
20
4.42782192414597
30
0
41
1
10
25.6159760078625
20
4.46262581261996
30
0
41
1
10
25.8700995820878
20
4.56253324613382
30
0
41
1
10
26.0402383496887
20
4.62319747039442
30
0
41
1
10
26.3815430658566
20
4.73635699064388
30
0
41
1
10
26.5527173681131
20
4.78879243458593
30
0
41
1
10
27.0675336258411
20
4.93647975102834
30
0
41
1
10
27.4124620331812
20
5.02221791758561
30
0
41
1
10
27.758816262165
20
5.09894347088346
30
0
0
SPLINE
5
11C
100
AcDbEntity
8
1
62
256
6
ByLayer
370
-1
48
1
60
0
100
AcDbSpline
70
4
71
3
72
24
73
20
40
0
40
0
40
0
40
0
40
0.25
40
0.25
40
0.3125
40
0.3125
40
0.375000000000001
40
0.375000000000001
40
0.500000000000001
40
0.500000000000001
40
0.562500000000001
40
0.562500000000001
40
0.625000000000001
40
0.625000000000001
40
0.75
40
0.75
40
0.875
40
0.875
40
1
40
1
40
1
40
1
41
1
10
6.52865680171155
20
-7.24000178177073
30
0
41
1
10
6.70627672202497
20
-7.68616987217183
30
0
41
1
10
6.8971617260606
20
-8.04675662536079
30
0
41
1
10
7.15752222648112
20
-8.37778055111622
30
0
41
1
10
7.21090149205895
20
-8.43809755691717
30
0
41
1
10
7.31813986310945
20
-8.54451003661006
30
0
41
1
10
7.37217086776408
20
-8.5908772345924
30
0
41
1
10
7.53556941914479
20
-8.71052984397309
30
0
41
1
10
7.64625393571177
20
-8.76429016144519
30
0
41
1
10
7.81503049855601
20
-8.81120240660022
30
0
41
1
10
7.87184069791263
20
-8.82124384424912
30
0
41
1
10
7.98593466409415
20
-8.83118384056169
30
0
41
1
10
8.04292449915229
20
-8.83108678581402
30
0
41
1
10
8.21384568318115
20
-8.81802401645999
30
0
41
1
10
8.32773700930059
20
-8.79240303513342
30
0
41
1
10
8.55582775983578
20
-8.71796262593119
30
0
41
1
10
8.67002247051803
20
-8.66917075048727
30
0
41
1
10
8.89892449724672
20
-8.55498366964173
30
0
41
1
10
9.01362727980262
20
-8.48957175320589
30
0
41
1
10
9.12865680171166
20
-8.41698765169448
30
0
0
SPLINE
5
11D
100
AcDbEntity
8
1
62
256
6
ByLayer
370
-1
48
1
60
0
100
AcDbSpline
70
4
71
3
72
14
73
10
40
0
40
0
40
0
40
0
40
0.500000000000002
40
0.500000000000002
40
0.625000000000002
40
0.625000000000002
40
0.750000000000002
40
0.750000000000002
40
1
40
1
40
1
40
1
41
1
10
5
20
-4.31295637491544
30
0
41
1
10
5.14666970635449
20
-4.59766911683064
30
0
41
1
10
5.32534592507426
20
-4.85211598834604
30
0
41
1
10
5.57533262475155
20
-5.13181298315257
30
0
41
1
10
5.6266579811886
20
-5.18582302799356
30
0
41
1
10
5.73160123409033
20
-5.28994931842431
30
0
41
1
10
5.7850974601248
20
-5.33991833777881
30
0
41
1
10
5.94568537979191
20
-5.48174199119777
30
0
41
1
10
6.05367345309202
20
-5.56635378378533
30
0
41
1
10
6.16103600867967
20
-5.64233381713302
30
0
0
SPLINE
5
11E
100
AcDbEntity
8
1
62
256
6
ByLayer
370
-1
48
1
60
0
100
AcDbSpline
70
4
71
3
72
8
73
4
40
0
40
0
40
0
40
0
40
1
40
1
40
1
40
1
41
1
10
13
20
-6.44991583712331
30
0
41
1
10
12.6297616014096
20
-6.46294950119156
30
0
41
1
10
12.2617944772625
20
-6.52072985895509
30
0
41
1
10
11.8998468782494
20
-6.62738589534681
30
0
0
SPLINE
5
11F
100
AcDbEntity
8
1
62
256
6
ByLayer
370
-1
48
1
60
0
100
AcDbSpline
70
4
71
2
72
6
73
3
40
0
40
0
40
0
40
1
40
1
40
1
41
1
10
6.52865680171146
20
-5.91126119622712
30
0
41
1
10
6.52865680171149
20
-6.57563148899888
30
0
41
1
10
6.52865680171149
20
-7.24000178177064
30
0
0
SPLINE
5
120
100
AcDbEntity
8
1
62
256
6
ByLayer
370
-1
48
1
60
0
100
AcDbSpline
70
4
71
3
72
8
73
4
40
0
40
0
40
0
40
0
40
1
40
1
40
1
40
1
41
1
10
36.3842015050024
20
3.45507513298497
30
0
41
1
10
36.4144057483453
20
3.51473801550819
30
0
41
1
10
36.4482159181185
20
3.57054807401911
30
0
41
1
10
36.4856675575385
20
3.62383049820318
30
0
0
SPLINE
5
121
100
AcDbEntity
8
1
62
256
6
ByLayer
370
-1
48
1
60
0
100
AcDbSpline
70
4
71
3
72
14
73
10
40
0
40
0
40
0
40
0
40
0.435717923530233
40
0.435717923530233
40
0.653576885295349
40
0.653576885295349
40
0.871435847060466
40
0.871435847060466
40
1
40
1
40
1
40
1
41
1
10
13
20
-6.44991583712331
30
0
41
1
10
14.52905862282
20
-6.3960877185209
30
0
41
1
10
16.052186781919
20
-6.25560722650602
30
0
41
1
10
18.3409265616437
20
-5.92210610575543
30
0
41
1
10
19.1054523123675
20
-5.7903460593167
30
0
41
1
10
20.6319941887908
20
-5.48904172269957
30
0
41
1
10
21.3941921030074
20
-5.3195503368606
30
0
41
1
10
22.6058982671717
20
-5.02195637011738
30
0
41
1
10
23.0555036639884
20
-4.90532949009437
30
0
41
1
10
23.5052447644124
20
-4.78281118764056
30
0
0
SPLINE
5
122
100
AcDbEntity
8
1
62
256
6
ByLayer
370
-1
48
1
60
0
100
AcDbSpline
70
4
71
3
72
14
73
10
40
0
40
0
40
0
40
0
40
0.311323696932613
40
0.311323696932613
40
0.622647393865227
40
0.622647393865227
40
0.93397109079784
40
0.93397109079784
40
1
40
1
40
1
40
1
41
1
10
41.5877061849748
20
1.65859431157952
30
0
41
1
10
41.5921510054235
20
1.65859431157946
30
0
41
1
10
41.596902338698
20
1.6642009020002
30
0
41
1
10
41.6065882482937
20
1.68627030410389
30
0
41
1
10
41.6115085077085
20
1.70254107887891
30
0
41
1
10
41.6215102289043
20
1.74560082036192
30
0
41
1
10
41.6265523388825
20
1.77235301670069
30
0
41
1
10
41.6324782920871
20
1.809703452669
30
0
41
1
10
41.6335131733719
20
1.81645201880502
30
0
41
1
10
41.6345443980002
20
1.82340191400579
30
0
0
SPLINE
5
123
100
AcDbEntity
8
1
62
256
6
ByLayer
370
-1
48
1
60
0
100
AcDbSpline
70
4
71
3
72
10
73
6
40
0
40
0
40
0
40
0
40
0.548170446198739
40
0.548170446198739
40
1
40
1
40
1
40
1
41
1
10
33.9315390490519
20
2.15293207849891
30
0
41
1
10
33.5160755122115
20
2.06051501062987
30
0
41
1
10
33.0993998371689
20
1.97916575819616
30
0
41
1
10
32.3362824911046
20
1.86336443094544
30
0
41
1
10
31.9903732324534
20
1.82317897253233
30
0
41
1
10
31.6434441934219
20
1.79532125379132
30
0
0
SPLINE
5
124
100
AcDbEntity
8
1
62
256
6
ByLayer
370
-1
48
1
60
0
100
AcDbSpline
70
4
71
3
72
14
73
10
40
0
40
0
40
0
40
0
40
0.152565108405926
40
0.152565108405926
40
0.364423831304444
40
0.364423831304444
40
0.576282554202963
40
0.576282554202963
40
1
40
1
40
1
40
1
41
1
10
23.2022891685695
20
-4.7021620909843
30
0
41
1
10
22.628510139208
20
-4.84797185907104
30
0
41
1
10
22.0547767860971
20
-4.98417865876974
30
0
41
1
10
20.6834557927946
20
-5.28498999422607
30
0
41
1
10
19.8855488320427
20
-5.44003241469485
30
0
41
1
10
18.2862347410731
20
-5.70980211200512
30
0
41
1
10
17.4877416711473
20
-5.8239630733392
30
0
41
1
10
15.0943467086272
20
-6.10099574428139
30
0
41
1
10
13.5007051839809
20
-6.19724517545151
30
0
41
1
10
11.8998468782494
20
-6.20128604355727
30
0
0
SPLINE
5
125
100
AcDbEntity
8
1
62
256
6
ByLayer
370
-1
48
1
60
0
100
AcDbSpline
70
4
71
3
72
8
73
4
40
0
40
0
40
0
40
0
40
1
40
1
40
1
40
1
41
1
10
13
20
6.42392983386824
30
0
41
1
10
12.6180953870015
20
6.44310607937891
30
0
41
1
10
12.2383453352873
20
6.50911544170776
30
0
41
1
10
11.8649006636081
20
6.6274299030641
30
0
0
SPLINE
5
126
100
AcDbEntity
8
1
62
256
6
ByLayer
370
-1
48
1
60
0
100
AcDbSpline
70
4
71
4
72
10
73
5
40
0
40
0
40
0
40
0
40
0
40
1
40
1
40
1
40
1
40
1
41
0.980179995188555
10
33.6213423998095
20
1.0072321401646
30
0
41
0.978007498670156
10
33.7169299252144
20
1.23282556711329
30
0
41
0.977649548511167
10
33.8030718624095
20
1.50614058900946
30
0
41
0.979755032590243
10
33.8751358233643
20
1.81862820287828
30
0
41
0.983204665192532
10
33.9315390490519
20
2.15293207849884
30
0
0
SPLINE
5
127
100
AcDbEntity
8
1
62
256
6
ByLayer
370
-1
48
1
60
0
100
AcDbSpline
70
4
71
3
72
12
73
8
40
0
40
0
40
0
40
0
40
0.5
40
0.5
40
0.75
40
0.75
40
1
40
1
40
1
40
1
41
1
10
6.71222320067795
20
-6.00299054990117
30
0
41
1
10
7.11368186149778
20
-6.04987446088771
30
0
41
1
10
7.5162784904569
20
-6.07473699764782
30
0
41
1
10
8.12089862580544
20
-6.06603128145213
30
0
41
1
10
8.32242059029815
20
-6.05540062914815
30
0
41
1
10
8.72546195076521
20
-6.01481954884031
30
0
41
1
10
8.9269733907895
20
-5.98495349939699
30
0
41
1
10
9.12865680171168
20
-5.94228362858556
30
0
0
SPLINE
5
128
100
AcDbEntity
8
1
62
256
6
ByLayer
370
-1
48
1
60
0
100
AcDbSpline
70
4
71
3
72
14
73
10
40
0
40
0
40
0
40
0
40
0.25
40
0.25
40
0.5
40
0.5
40
0.75
40
0.75
40
1
40
1
40
1
40
1
41
1
10
6.52865680171158
20
-7.24000178177079
30
0
41
1
10
6.47160145710805
20
-7.13532160981632
30
0
41
1
10
6.42476079983098
20
-7.01977478370674
30
0
41
1
10
6.34428538406971
20
-6.77412311957534
30
0
41
1
10
6.31076739486906
20
-6.64388904018085
30
0
41
1
10
6.25344008420566
20
-6.37189434796198
30
0
41
1
10
6.22962626435233
20
-6.22956965028803
30
0
41
1
10
6.19002321614389
20
-5.9401276889819
30
0
41
1
10
6.1741073997415
20
-5.79247955857122
30
0
41
1
10
6.16103600867967
20
-5.64233381713302
30
0
0
SPLINE
5
129
100
AcDbEntity
8
1
62
256
6
ByLayer
370
-1
48
1
60
0
100
AcDbSpline
70
4
71
3
72
22
73
18
40
0
40
0
40
0
40
0
40
0.125
40
0.125
40
0.25
40
0.25
40
0.375
40
0.375
40
0.5
40
0.5
40
0.625
40
0.625
40
0.75
40
0.75
40
0.875
40
0.875
40
1
40
1
40
1
40
1
41
1
10
36.6089477106918
20
1.68340614190205
30
0
41
1
10
36.614088072554
20
1.68340614190205
30
0
41
1
10
36.6102193962265
20
1.69024345838343
30
0
41
1
10
36.5887011399425
20
1.71578538273215
30
0
41
1
10
36.5717120958447
20
1.73393947643416
30
0
41
1
10
36.5308815511061
20
1.77956823163123
30
0
41
1
10
36.5073974465454
20
1.80667583241464
30
0
41
1
10
36.4587585708276
20
1.86782469164345
30
0
41
1
10
36.4333693414661
20
1.9021007264088
30
0
41
1
10
36.3826931953072
20
1.9782235509773
30
0
41
1
10
36.3579607651338
20
2.01921954622111
30
0
41
1
10
36.3109529239562
20
2.10745618936824
30
0
41
1
10
36.2885314142672
20
2.15501582297867
30
0
41
1
10
36.2477826758586
20
2.2560671403553
30
0
41
1
10
36.2297794647826
20
2.30866693590519
30
0
41
1
10
36.1991116856654
20
2.41845215808621
30
0
41
1
10
36.186416968203
20
2.47624444678618
30
0
41
1
10
36.1772022567744
20
2.53358008857563
30
0
0
SPLINE
5
12A
100
AcDbEntity
8
1
62
256
6
ByLayer
370
-1
48
1
60
0
100
AcDbSpline
70
4
71
3
72
8
73
4
40
0
40
0
40
0
40
0
40
1
40
1
40
1
40
1
41
1
10
34.1673893683286
20
0.919811409689203
30
0
41
1
10
34.2892822383091
20
0.899226132349071
30
0
41
1
10
34.4119777799598
20
0.883161382607796
30
0
41
1
10
34.5349574911241
20
0.871673427250727
30
0
0
SPLINE
5
12B
100
AcDbEntity
8
1
62
256
6
ByLayer
370
-1
48
1
60
0
100
AcDbSpline
70
4
71
3
72
16
73
12
40
0
40
0
40
0
40
0
40
0.25
40
0.25
40
0.500000000000001
40
0.500000000000001
40
0.625
40
0.625
40
0.75
40
0.75
40
1
40
1
40
1
40
1
41
1
10
36.0554250254861
20
0.755648309533058
30
0
41
1
10
35.9472794615932
20
0.735964240543268
30
0
41
1
10
35.8315322210628
20
0.723131362436817
30
0
41
1
10
35.5895888786065
20
0.71170260269983
30
0
41
1
10
35.4633245836047
20
0.713119138656594
30
0
41
1
10
35.2677421512205
20
0.726980754220193
30
0
41
1
10
35.2014212213568
20
0.73358969594662
30
0
41
1
10
35.0688600816963
20
0.750654346168545
30
0
41
1
10
35.0023777001861
20
0.761120638861144
30
0
41
1
10
34.802539849503
20
0.798361191790747
30
0
41
1
10
34.668803612138
20
0.830956641513495
30
0
41
1
10
34.534957491124
20
0.871673427250727
30
0
0
SPLINE
5
12C
100
AcDbEntity
8
1
62
256
6
ByLayer
370
-1
48
1
60
0
100
AcDbSpline
70
4
71
3
72
14
73
10
40
0
40
0
40
0
40
0
40
0.500000000000004
40
0.500000000000004
40
0.625000000000005
40
0.625000000000005
40
0.750000000000006
40
0.750000000000006
40
1
40
1
40
1
40
1
41
1
10
36.3328488997734
20
0.340421425261667
30
0
41
1
10
35.951696608947
20
0.331393384571157
30
0
41
1
10
35.5769191214063
20
0.367214453717708
30
0
41
1
10
35.1163922039638
20
0.467693122397833
30
0
41
1
10
35.0246902219482
20
0.490615332754828
30
0
41
1
10
34.8421180631138
20
0.542275404083568
30
0
41
1
10
34.7510634372242
20
0.571089245081566
30
0
41
1
10
34.4817965445363
20
0.665637535643384
30
0
41
1
10
34.3067949545999
20
0.739588728870359
30
0
41
1
10
34.1364507800615
20
0.824694674064318
30
0
0
SPLINE
5
12D
100
AcDbEntity
8
1
62
256
6
ByLayer
370
-1
48
1
60
0
100
AcDbSpline
70
4
71
3
72
8
73
4
40
0
40
0
40
0
40
0
40
1
40
1
40
1
40
1
41
1
10
13
20
-1.07986700559317
30
0
41
1
10
13.0553535125357
20
-1.11958936269735
30
0
41
1
10
13.1103467564485
20
-1.1597431649183
30
0
41
1
10
13.1649834368495
20
-1.20028169061186
30
0
0
SPLINE
5
12E
100
AcDbEntity
8
1
62
256
6
ByLayer
370
-1
48
1
60
0
100
AcDbSpline
70
4
71
3
72
8
73
4
40
0
40
0
40
0
40
0
40
1
40
1
40
1
40
1
41
1
10
34.6903016005234
20
2.17088487994195
30
0
41
1
10
34.8106737377275
20
2.09167665434396
30
0
41
1
10
34.9421806634391
20
2.02843159733516
30
0
41
1
10
35.0823805390571
20
1.97601073228429
30
0
0
SPLINE
5
12F
100
AcDbEntity
8
1
62
256
6
ByLayer
370
-1
48
1
60
0
100
AcDbSpline
70
4
71
3
72
8
73
4
40
0
40
0
40
0
40
0
40
1
40
1
40
1
40
1
41
1
10
6.71222305660825
20
-6.00299233197762
30
0
41
1
10
6.67272404415385
20
-5.9917373177671
30
0
41
1
10
6.63359168685548
20
-5.97457090184821
30
0
41
1
10
6.5947870473793
20
-5.95147528404351
30
0
0
SPLINE
5
130
100
AcDbEntity
8
1
62
256
6
ByLayer
370
-1
48
1
60
0
100
AcDbSpline
70
4
71
3
72
20
73
16
40
0
40
0
40
0
40
0
40
0.0870710440189117
40
0.0870710440189117
40
0.23922587001576
40
0.23922587001576
40
0.391380696012608
40
0.391380696012608
40
0.543535522009456
40
0.543535522009456
40
0.695690348006304
40
0.695690348006304
40
0.847845174003152
40
0.847845174003152
40
1
40
1
40
1
40
1
41
1
10
11.7891324554944
20
-0.352380035421248
30
0
41
1
10
11.6045187735608
20
-0.381349530557713
30
0
41
1
10
11.4224099036648
20
-0.431479142704376
30
0
41
1
10
10.9382107056555
20
-0.625619322586573
30
0
41
1
10
10.6483141008349
20
-0.811743718503578
30
0
41
1
10
10.1366511971975
20
-1.28874259192367
30
0
41
1
10
9.91499171412553
20
-1.57951749021225
30
0
41
1
10
9.5644791110154
20
-2.23352818068329
30
0
41
1
10
9.43569916467138
20
-2.59662744031937
30
0
41
1
10
9.28530418666062
20
-3.35494201488069
30
0
41
1
10
9.26372055174267
20
-3.74999902257741
30
0
41
1
10
9.33016296830692
20
-4.52831383596197
30
0
41
1
10
9.41817514914072
20
-4.91140915913243
30
0
41
1
10
9.69406839788988
20
-5.62319709167934
30
0
41
1
10
9.88189186979287
20
-5.95174110681972
30
0
41
1
10
10.1092280540374
20
-6.23480604908687
30
0
0
SPLINE
5
131
100
AcDbEntity
8
1
62
256
6
ByLayer
370
-1
48
1
60
0
100
AcDbSpline
70
4
71
3
72
8
73
4
40
0
40
0
40
0
40
0
40
1
40
1
40
1
40
1
41
1
10
6.52865680171155
20
-5.91126119622717
30
0
41
1
10
6.55068842457916
20
-5.92494646876992
30
0
41
1
10
6.57273226758497
20
-5.93834879268135
30
0
41
1
10
6.59478704738149
20
-5.95147528404482
30
0
0
SPLINE
5
132
100
AcDbEntity
8
1
62
256
6
ByLayer
370
-1
48
1
60
0
100
AcDbSpline
70
4
71
3
72
8
73
4
40
0
40
0
40
0
40
0
40
1
40
1
40
1
40
1
41
1
10
33.1649006637074
20
1.19893448487966
30
0
41
1
10
33.3700490360987
20
1.11799224899997
30
0
41
1
10
33.5783951541241
20
1.0514059595539
30
0
41
1
10
33.7897818952856
20
0.998673156854437
30
0
0
SPLINE
5
133
100
AcDbEntity
8
1
62
256
6
ByLayer
370
-1
48
1
60
0
100
AcDbSpline
70
4
71
3
72
14
73
10
40
0
40
0
40
0
40
0
40
0.5
40
0.5
40
0.625
40
0.625
40
0.75
40
0.75
40
1
40
1
40
1
40
1
41
1
10
37.4133558664539
20
1.40342801024468
30
0
41
1
10
37.2740712381855
20
1.39013758580296
30
0
41
1
10
37.1292177238947
20
1.40370912058339
30
0
41
1
10
36.9488287782694
20
1.46003879722497
30
0
41
1
10
36.9127792525077
20
1.47329502318308
30
0
41
1
10
36.8409300200313
20
1.50405820847706
30
0
41
1
10
36.8050067720061
20
1.52164460810766
30
0
41
1
10
36.6994693999428
20
1.58039731812846
30
0
41
1
10
36.6317249336246
20
1.62760167764455
30
0
41
1
10
36.5675574035266
20
1.68340614191072
30
0
0
SPLINE
5
134
100
AcDbEntity
8
1
62
256
6
ByLayer
370
-1
48
1
60
0
100
AcDbSpline
70
4
71
3
72
22
73
18
40
0
40
0
40
0
40
0
40
0.25
40
0.25
40
0.375
40
0.375
40
0.499999999999999
40
0.499999999999999
40
0.562499999999999
40
0.562499999999999
40
0.625
40
0.625
40
0.75
40
0.75
40
0.875
40
0.875
40
1
40
1
40
1
40
1
41
1
10
13.1649834368498
20
-1.20028169061197
30
0
41
1
10
14.8306013145671
20
-1.86356430496318
30
0
41
1
10
16.4898662534775
20
-2.50324130923914
30
0
41
1
10
18.9856124225713
20
-3.3895624084777
30
0
41
1
10
19.8192881206599
20
-3.67262093033358
30
0
41
1
10
21.4830875658555
20
-4.20503068461136
30
0
41
1
10
22.3143564406083
20
-4.45465986487272
30
0
41
1
10
23.56178341279
20
-4.80157513655877
30
0
41
1
10
23.9776900046423
20
-4.91260092821398
30
0
41
1
10
24.8100760833104
20
-5.12475064847192
30
0
41
1
10
25.2268987578827
20
-5.2259529209791
30
0
41
1
10
26.4755596263735
20
-5.51312381987071
30
0
41
1
10
27.3056250064498
20
-5.68277059239739
30
0
41
1
10
28.964090915873
20
-5.97483530617308
30
0
41
1
10
29.7926384068144
20
-6.09714218389465
30
0
41
1
10
31.4506432793585
20
-6.29227164839384
30
0
41
1
10
32.2798710023383
20
-6.36513395311172
30
0
41
1
10
33.111510124457
20
-6.41192350424595
30
0
0
SPLINE
5
135
100
AcDbEntity
8
1
62
256
6
ByLayer
370
-1
48
1
60
0
100
AcDbSpline
70
4
71
3
72
72
73
68
40
-0.0312499999999977
40
-0.0312499999999977
40
0
40
0
40
0.0312500000000006
40
0.0312500000000006
40
0.0625000000000013
40
0.0625000000000013
40
0.0937500000000019
40
0.0937500000000019
40
0.125000000000003
40
0.125000000000003
40
0.156250000000003
40
0.156250000000003
40
0.187500000000004
40
0.187500000000004
40
0.218750000000004
40
0.218750000000004
40
0.250000000000005
40
0.250000000000005
40
0.281250000000006
40
0.281250000000006
40
0.312500000000006
40
0.312500000000006
40
0.343750000000007
40
0.343750000000007
40
0.375000000000007
40
0.375000000000007
40
0.406250000000008
40
0.406250000000008
40
0.437500000000009
40
0.437500000000009
40
0.468750000000009
40
0.468750000000009
40
0.50000000000001
40
0.50000000000001
40
0.531250000000011
40
0.531250000000011
40
0.562500000000011
40
0.562500000000011
40
0.593750000000012
40
0.593750000000012
40
0.625000000000013
40
0.625000000000013
40
0.656250000000013
40
0.656250000000013
40
0.687500000000014
40
0.687500000000014
40
0.718750000000015
40
0.718750000000015
40
0.750000000000015
40
0.750000000000015
40
0.765625000000016
40
0.765625000000016
40
0.781250000000016
40
0.781250000000016
40
0.812500000000014
40
0.812500000000014
40
0.843750000000011
40
0.843750000000011
40
0.875000000000009
40
0.875000000000009
40
0.906250000000007
40
0.906250000000007
40
0.937500000000005
40
0.937500000000005
40
0.968750000000002
40
0.968750000000002
40
1
40
1
40
1.03125
40
1.03125
41
1
10
38.5490777749091
20
-2.00545050810126
30
0
41
1
10
38.536829532013
20
-1.86245362060521
30
0
41
1
10
38.5374103638847
20
-1.79111920375786
30
0
41
1
10
38.5519458937932
20
-1.64880654636332
30
0
41
1
10
38.5661164394932
20
-1.57715103343992
30
0
41
1
10
38.6082143686934
20
-1.43766334850343
30
0
41
1
10
38.6357871321814
20
-1.37049496763612
30
0
41
1
10
38.7041535108175
20
-1.24150345216435
30
0
41
1
10
38.7455586511603
20
-1.17905333819451
30
0
41
1
10
38.8390355815258
20
-1.06497896788454
30
0
41
1
10
38.8911314907192
20
-1.01292531585389
30
0
41
1
10
39.0062715812486
20
-0.919133868159804
30
0
41
1
10
39.0693283020313
20
-0.877674693847382
30
0
41
1
10
39.2007430403029
20
-0.809303676476276
30
0
41
1
10
39.2699747782757
20
-0.781726191902465
30
0
41
1
10
39.4145595830238
20
-0.740884649283316
30
0
41
1
10
39.4877666362047
20
-0.728180716388437
30
0
41
1
10
39.6359467731126
20
-0.717703254134904
30
0
41
1
10
39.7117648276057
20
-0.720127594883991
30
0
41
1
10
39.8593314824487
20
-0.740172337888424
30
0
41
1
10
39.9314466702874
20
-0.757584592768438
30
0
41
1
10
40.0723048694133
20
-0.807304946541677
30
0
41
1
10
40.1403914486838
20
-0.839580781522585
30
0
41
1
10
40.2670741126501
20
-0.916194419919293
30
0
41
1
10
40.3268451882177
20
-0.961170511507447
30
0
41
1
10
40.4361842940552
20
-1.06242846964247
30
0
41
1
10
40.4848684588807
20
-1.11772747689483
30
0
41
1
10
40.570742973511
20
-1.237157018234
30
0
41
1
10
40.6080868396066
20
-1.30191670748476
30
0
41
1
10
40.6683097032157
20
-1.43490778468956
30
0
41
1
10
40.6916565461686
20
-1.5036011999203
30
0
41
1
10
40.7250708461528
20
-1.64518621602284
30
0
41
1
10
40.7348069320917
20
-1.71715801454002
30
0
41
1
10
40.7407467752291
20
-1.8597665480915
30
0
41
1
10
40.7370226332755
20
-1.93133589989864
30
0
41
1
10
40.7164057906706
20
-2.07252015103438
30
0
41
1
10
40.699763412357
20
-2.14097946003153
30
0
41
1
10
40.6543806603954
20
-2.27390392139409
30
0
41
1
10
40.6252835831162
20
-2.3389465704478
30
0
41
1
10
40.5560516770378
20
-2.46171490959779
30
0
41
1
10
40.5161500294126
20
-2.51934136259422
30
0
41
1
10
40.4255447152394
20
-2.62717961091175
30
0
41
1
10
40.3741623421902
20
-2.67788601766998
30
0
41
1
10
40.2631645009004
20
-2.7678733185632
30
0
41
1
10
40.2036096881401
20
-2.80737563268488
30
0
41
1
10
40.0757640661527
20
-2.8749069226142
30
0
41
1
10
40.0064991550034
20
-2.90310627501458
30
0
41
1
10
39.8652027174695
20
-2.94408210220615
30
0
41
1
10
39.7927066315528
20
-2.95731434546374
30
0
41
1
10
39.6810081336317
20
-2.96568408502608
30
0
41
1
10
39.643098137846
20
-2.96651558169313
30
0
41
1
10
39.5683879603336
20
-2.96419424561992
30
0
41
1
10
39.5313525083842
20
-2.96107767839382
30
0
41
1
10
39.4211774193518
20
-2.94601519745467
30
0
41
1
10
39.3481169178226
20
-2.92806019554016
30
0
41
1
10
39.209284809886
20
-2.87835126822748
30
0
41
1
10
39.1435955294687
20
-2.84688134681352
30
0
41
1
10
39.0191296185533
20
-2.77136124386988
30
0
41
1
10
38.9613544198919
20
-2.72780168462319
30
0
41
1
10
38.85625772884
20
-2.63172837921275
30
0
41
1
10
38.8081471987793
20
-2.57841687273395
30
0
41
1
10
38.723510168599
20
-2.46488799404764
30
0
41
1
10
38.6869774033038
20
-2.4049070342958
30
0
41
1
10
38.6250510613525
20
-2.278523560379
30
0
41
1
10
38.5996125904203
20
-2.21165140374328
30
0
41
1
10
38.5617682913472
20
-2.07535286330304
30
0
41
1
10
38.5490777749091
20
-2.00545050810126
30
0
41
1
10
38.536829532013
20
-1.86245362060521
30
0
0
SPLINE
5
136
100
AcDbEntity
8
1
62
256
6
ByLayer
370
-1
48
1
60
0
100
AcDbSpline
70
4
71
3
72
8
73
4
40
0
40
0
40
0
40
0
40
1
40
1
40
1
40
1
41
1
10
11.3789184041039
20
-6.23434792852709
30
0
41
1
10
11.548152828761
20
-6.21486381213143
30
0
41
1
10
11.7218125529532
20
-6.203111791868
30
0
41
1
10
11.8998468783959
20
-6.20128604355637
30
0
0
SPLINE
5
137
100
AcDbEntity
8
1
62
256
6
ByLayer
370
-1
48
1
60
0
100
AcDbSpline
70
4
71
3
72
34
73
30
40
0
40
0
40
0
40
0
40
0.125
40
0.125
40
0.25
40
0.25
40
0.375
40
0.375
40
0.499999999999999
40
0.499999999999999
40
0.562499999999999
40
0.562499999999999
40
0.624999999999999
40
0.624999999999999
40
0.656249999999999
40
0.656249999999999
40
0.687499999999999
40
0.687499999999999
40
0.749999999999999
40
0.749999999999999
40
0.812499999999999
40
0.812499999999999
40
0.843749999999999
40
0.843749999999999
40
0.874999999999999
40
0.874999999999999
40
0.9375
40
0.9375
40
1
40
1
40
1
40
1
41
1
10
8.80035516932861
20
0.631161178097784
30
0
41
1
10
8.65707414265111
20
0.669290345324328
30
0
41
1
10
8.51797089121882
20
0.69754777819648
30
0
41
1
10
8.24133462752118
20
0.737818010706377
30
0
41
1
10
8.10383522471949
20
0.749830690897426
30
0
41
1
10
7.82272828958682
20
0.756856796051522
30
0
41
1
10
7.67895185496926
20
0.75193430844655
30
0
41
1
10
7.3762389322209
20
0.719128478086247
30
0
41
1
10
7.21873185558269
20
0.69154721879525
30
0
41
1
10
6.96559475329516
20
0.623575191582688
30
0
41
1
10
6.87783677895973
20
0.59618997285267
30
0
41
1
10
6.69857064182801
20
0.530705705582534
30
0
41
1
10
6.60705519868569
20
0.492660802485034
30
0
41
1
10
6.4669022113344
20
0.425826355933765
30
0
41
1
10
6.4197074580722
20
0.40191573392471
30
0
41
1
10
6.32439429187943
20
0.350463823085874
30
0
41
1
10
6.27606246725193
20
0.322790705141017
30
0
41
1
10
6.13133855584465
20
0.234665364800748
30
0
41
1
10
6.03614437425782
20
0.169737110533646
30
0
41
1
10
5.84950646856962
20
0.0268454538553158
30
0
41
1
10
5.75806259856799
20
-0.0511130220655787
30
0
41
1
10
5.62471970084735
20
-0.178446304555649
30
0
41
1
10
5.58089738746548
20
-0.222666983339281
30
0
41
1
10
5.49618069659161
20
-0.31303672101842
30
0
41
1
10
5.45508137155934
20
-0.359373287095906
30
0
41
1
10
5.33556156234215
20
-0.501787859511495
30
0
41
1
10
5.26090931527716
20
-0.601260473888942
30
0
41
1
10
5.12189531553412
20
-0.809244508147543
30
0
41
1
10
5.05788143729435
20
-0.917319620812037
30
0
41
1
10
5
20
-1.02826279277463
30
0
0
SPLINE
5
138
100
AcDbEntity
8
1
62
256
6
ByLayer
370
-1
48
1
60
0
100
AcDbSpline
70
4
71
3
72
14
73
10
40
0
40
0
40
0
40
0
40
0.25
40
0.25
40
0.5
40
0.5
40
0.75
40
0.75
40
1
40
1
40
1
40
1
41
1
10
31.2059107428976
20
6.37931432957808
30
0
41
1
10
30.9484861036146
20
6.1923633245421
30
0
41
1
10
30.6775978491619
20
6.04150353108432
30
0
41
1
10
30.1203109638162
20
5.78136180202455
30
0
41
1
10
29.8338700112766
20
5.67219331585551
30
0
41
1
10
29.2520627469088
20
5.47778208904961
30
0
41
1
10
28.9566383363936
20
5.39269509053517
30
0
41
1
10
28.3605572766768
20
5.23654688309418
30
0
41
1
10
28.0598532076809
20
5.16563018718449
30
0
41
1
10
27.758816262165
20
5.09894347088371
30
0
0
SPLINE
5
139
100
AcDbEntity
8
1
62
256
6
ByLayer
370
-1
48
1
60
0
100
AcDbSpline
70
4
71
3
72
20
73
16
40
0
40
0
40
0
40
0
40
0.250000000000001
40
0.250000000000001
40
0.312500000000001
40
0.312500000000001
40
0.375000000000001
40
0.375000000000001
40
0.500000000000001
40
0.500000000000001
40
0.625000000000001
40
0.625000000000001
40
0.750000000000001
40
0.750000000000001
40
1
40
1
40
1
40
1
41
1
10
5
20
-1.02826279277463
30
0
41
1
10
4.86423055320449
20
-1.28849636310736
30
0
41
1
10
4.76398026520042
20
-1.55917082258034
30
0
41
1
10
4.68036725232722
20
-1.90935421756694
30
0
41
1
10
4.66575856581173
20
-1.97999212941161
30
0
41
1
10
4.64081556934539
20
-2.12247610918041
30
0
41
1
10
4.63049492132859
20
-2.19436946785325
30
0
41
1
10
4.60631692090277
20
-2.40882340211488
30
0
41
1
10
4.59901720132203
20
-2.55116679982049
30
0
41
1
10
4.60119361398955
20
-2.83461492646006
30
0
41
1
10
4.61067220955647
20
-2.97571962403021
30
0
41
1
10
4.64629598140499
20
-3.25669275304506
30
0
41
1
10
4.67259282000347
20
-3.39665494296378
30
0
41
1
10
4.77415962463471
20
-3.80469771737921
30
0
41
1
10
4.8720544930915
20
-4.06459073082252
30
0
41
1
10
5
20
-4.31295637491544
30
0
0
SPLINE
5
13A
100
AcDbEntity
8
1
62
256
6
ByLayer
370
-1
48
1
60
0
100
AcDbSpline
70
4
71
3
72
16
73
12
40
0
40
0
40
0
40
0
40
0.25
40
0.25
40
0.5
40
0.5
40
0.75
40
0.75
40
0.875
40
0.875
40
1
40
1
40
1
40
1
41
1
10
37.0106057542955
20
1.00190354386092
30
0
41
1
10
37.0988690339456
20
1.0302817702769
30
0
41
1
10
37.1756884066117
20
1.06094661421778
30
0
41
1
10
37.30335953475
20
1.1261699791028
30
0
41
1
10
37.3524707758137
20
1.15976201529091
30
0
41
1
10
37.421983132942
20
1.22885762401197
30
0
41
1
10
37.4420567105319
20
1.26462060420283
30
0
41
1
10
37.4485534296822
20
1.31709771475519
30
0
41
1
10
37.4469050041531
20
1.33449814712722
30
0
41
1
10
37.4359480000224
20
1.36911436111711
30
0
41
1
10
37.426578063006
20
1.38640612756845
30
0
41
1
10
37.4133558664461
20
1.40342801023874
30
0
0
SPLINE
5
13B
100
AcDbEntity
8
1
62
256
6
ByLayer
370
-1
48
1
60
0
100
AcDbSpline
70
4
71
3
72
14
73
10
40
0
40
0
40
0
40
0
40
0.227923404554899
40
0.227923404554899
40
0.356602837129082
40
0.356602837129082
40
0.485282269703266
40
0.485282269703266
40
1
40
1
40
1
40
1
41
1
10
22.4982048597338
20
4.88789439089933
30
0
41
1
10
23.1604576623719
20
5.06285535845637
30
0
41
1
10
23.8227556909303
20
5.2254311689741
30
0
41
1
10
24.8599703385038
20
5.45884130789619
30
0
41
1
10
25.2347305223293
20
5.53883084156251
30
0
41
1
10
25.9835591842326
20
5.68950424303998
30
0
41
1
10
26.3574985263864
20
5.76017215438273
30
0
41
1
10
28.2255032459874
20
6.08948984310689
30
0
41
1
10
29.714335763842
20
6.27598389574516
30
0
41
1
10
31.2059107428975
20
6.37931432956373
30
0
0
SPLINE
5
13C
100
AcDbEntity
8
1
62
256
6
ByLayer
370
-1
48
1
60
0
100
AcDbSpline
70
4
71
3
72
10
73
6
40
0
40
0
40
0
40
0
40
0.5
40
0.5
40
1
40
1
40
1
40
1
41
1
10
6.52865680171158
20
-5.91126119622717
30
0
41
1
10
6.44031662100835
20
-5.85801073860381
30
0
41
1
10
6.36578028083937
20
-5.8069087907021
30
0
41
1
10
6.24325075212482
20
-5.71525695946713
30
0
41
1
10
6.19525942138108
20
-5.67471151141456
30
0
41
1
10
6.16103600867967
20
-5.64233381713302
30
0
0
SPLINE
5
13D
100
AcDbEntity
8
1
62
256
6
ByLayer
370
-1
48
1
60
0
100
AcDbSpline
70
4
71
4
72
13
73
8
40
0
40
0
40
0
40
0
40
0
40
0.435768493834266
40
0.435768493834266
40
0.435768493834266
40
1
40
1
40
1
40
1
40
1
41
0.978557831598945
10
12.8765702189185
20
-0.991502486534164
30
0
41
0.978773819507887
10
12.7355491317402
20
-1.3664287012118
30
0
41
0.985991754507391
10
12.559048520995
20
-1.89307279762694
30
0
41
1
10
12.3688507719016
20
-2.51089274211725
30
0
41
1
10
11.9813726171286
20
-3.83160964956417
30
0
41
0.976515205982377
10
11.7242155528399
20
-4.75970301206261
30
0
41
0.974693533131687
10
11.512648741154
20
-5.6133610655756
30
0
41
0.981820370949348
10
11.3789184041035
20
-6.23434792852706
30
0
0
SPLINE
5
13E
100
AcDbEntity
8
1
62
256
6
ByLayer
370
-1
48
1
60
0
100
AcDbSpline
70
4
71
3
72
14
73
10
40
0
40
0
40
0
40
0
40
0.25
40
0.25
40
0.5
40
0.5
40
0.75
40
0.75
40
1
40
1
40
1
40
1
41
1
10
10.1092283666831
20
-6.23480643837385
30
0
41
1
10
10.1989149687996
20
-6.25444418973532
30
0
41
1
10
10.2943934485166
20
-6.26909071031227
30
0
41
1
10
10.4920290528272
20
-6.28812435164593
30
0
41
1
10
10.5944183017959
20
-6.29263561254265
30
0
41
1
10
10.8063996007094
20
-6.29221118353058
30
0
41
1
10
10.9159908925613
20
-6.28727427039445
30
0
41
1
10
11.1426027515461
20
-6.26793230253674
30
0
41
1
10
11.2602330756913
20
-6.25339216676042
30
0
41
1
10
11.3789184041039
20
-6.23434792852714
30
0
0
SPLINE
5
13F
100
AcDbEntity
8
1
62
256
6
ByLayer
370
-1
48
1
60
0
100
AcDbSpline
70
4
71
3
72
14
73
10
40
0
40
0
40
0
40
0
40
0.277901056143949
40
0.277901056143949
40
0.555802112287898
40
0.555802112287898
40
0.833703168431848
40
0.833703168431848
40
1
40
1
40
1
40
1
41
1
10
41.9349304202221
20
1.62809981072778
30
0
41
1
10
41.9413116481114
20
1.62793633208435
30
0
41
1
10
41.9481748165165
20
1.63343863263944
30
0
41
1
10
41.9637158115962
20
1.65525240278893
30
0
41
1
10
41.9725196196517
20
1.67188540683267
30
0
41
1
10
41.9933077818128
20
1.71442498215936
30
0
41
1
10
42.0053260301507
20
1.74033607163423
30
0
41
1
10
42.0296337349706
20
1.78880888036147
30
0
41
1
10
42.0397274165267
20
1.80821794029694
30
0
41
1
10
42.0511149393972
20
1.82865231580894
30
0
0
SPLINE
5
140
100
AcDbEntity
8
1
62
256
6
ByLayer
370
-1
48
1
60
0
100
AcDbSpline
70
4
71
3
72
8
73
4
40
0
40
0
40
0
40
0
40
1
40
1
40
1
40
1
41
1
10
36.2867063588498
20
3.26273230046692
30
0
41
1
10
36.2955559206988
20
3.28180939057086
30
0
41
1
10
36.3048113054704
20
3.30058350591253
30
0
41
1
10
36.3144803027789
20
3.31912896492949
30
0
0
SPLINE
5
141
100
AcDbEntity
8
1
62
256
6
ByLayer
370
-1
48
1
60
0
100
AcDbSpline
70
4
71
2
72
6
73
3
40
0
40
0
40
0
40
1
40
1
40
1
41
1
10
11.8998468782494
20
-6.2012860435664
30
0
41
1
10
11.8998468782494
20
-6.41433596944006
30
0
41
1
10
11.8998468782494
20
-6.62738589531375
30
0
0
SPLINE
5
142
100
AcDbEntity
8
1
62
256
6
ByLayer
370
-1
48
1
60
0
100
AcDbSpline
70
4
71
3
72
14
73
10
40
0
40
0
40
0
40
0
40
0.0321793541436813
40
0.0321793541436813
40
0.27413451560776
40
0.27413451560776
40
0.516089677071838
40
0.516089677071838
40
1
40
1
40
1
40
1
41
1
10
10.9499267620674
20
7.0308847282995
30
0
41
1
10
10.9589926365425
20
7.02586309606136
30
0
41
1
10
10.9680862820309
20
7.02086327400625
30
0
41
1
10
11.0457928350347
20
6.97845932460248
30
0
41
1
10
11.1161852591473
20
6.94285993047475
30
0
41
1
10
11.2593814750231
20
6.87166652446084
30
0
41
1
10
11.3318955587509
20
6.83578275717252
30
0
41
1
10
11.553590238243
20
6.73626607524054
30
0
41
1
10
11.7064620906719
20
6.67753660003271
30
0
41
1
10
11.8649006637077
20
6.62742990303263
30
0
0
SPLINE
5
143
100
AcDbEntity
8
1
62
256
6
ByLayer
370
-1
48
1
60
0
100
AcDbSpline
70
4
71
3
72
8
73
4
40
0
40
0
40
0
40
0
40
1
40
1
40
1
40
1
41
1
10
36.8601627615673
20
6.47419903277384
30
0
41
1
10
36.8633706691688
20
6.47475597342356
30
0
41
1
10
36.8691960373205
20
6.47501199843876
30
0
41
1
10
36.8775713845049
20
6.47499971728246
30
0
0
SPLINE
5
144
100
AcDbEntity
8
1
62
256
6
ByLayer
370
-1
48
1
60
0
100
AcDbSpline
70
4
71
3
72
10
73
6
40
0
40
0
40
0
40
0
40
0.262932538552848
40
0.262932538552848
40
1
40
1
40
1
40
1
41
1
10
36.9197933973398
20
6.47380535993437
30
0
41
1
10
36.929572523245
20
6.47339143639635
30
0
41
1
10
36.9404314456266
20
6.47288084823722
30
0
41
1
10
36.9854177627229
20
6.47064325970552
30
0
41
1
10
37.0267703934484
20
6.46835925086114
30
0
41
1
10
37.074814662962
20
6.46594253616843
30
0
0
SPLINE
5
145
100
AcDbEntity
8
1
62
256
6
ByLayer
370
-1
48
1
60
0
100
AcDbSpline
70
4
71
3
72
8
73
4
40
0
40
0
40
0
40
0
40
1
40
1
40
1
40
1
41
1
10
9.12865680171166
20
-5.94228362858556
30
0
41
1
10
9.12865680171166
20
-6.76718496962187
30
0
41
1
10
9.12865680171166
20
-7.59208631065817
30
0
41
1
10
9.12865680171166
20
-8.41698765169448
30
0
0
SPLINE
5
146
100
AcDbEntity
8
1
62
256
6
ByLayer
370
-1
48
1
60
0
100
AcDbSpline
70
4
71
3
72
18
73
14
40
0
40
0
40
0
40
0
40
0.25
40
0.25
40
0.5
40
0.5
40
0.625
40
0.625
40
0.6875
40
0.6875
40
0.750000000000001
40
0.750000000000001
40
1
40
1
40
1
40
1
41
1
10
13
20
-1.07986700559317
30
0
41
1
10
12.7731897608363
20
-0.917105205984853
30
0
41
1
10
12.5423666921804
20
-0.767009469636776
30
0
41
1
10
12.0746346568204
20
-0.493839020019777
30
0
41
1
10
11.8377030121494
20
-0.370810727061667
30
0
41
1
10
11.4806806491238
20
-0.206270988442469
30
0
41
1
10
11.361154273164
20
-0.154640941863988
30
0
41
1
10
11.1829152712445
20
-0.0822163122233235
30
0
41
1
10
11.1230887014022
20
-0.0584808024943015
30
0
41
1
10
11.0047764824385
20
-0.0130455177762769
30
0
41
1
10
10.9461513438993
20
0.0087521821101291
30
0
41
1
10
10.6558386223861
20
0.113530187085729
30
0
41
1
10
10.4327496584208
20
0.183880669201216
30
0
41
1
10
10.2195600259694
20
0.245986934895342
30
0
0
SPLINE
5
147
100
AcDbEntity
8
1
62
256
6
ByLayer
370
-1
48
1
60
0
100
AcDbSpline
70
4
71
3
72
20
73
16
40
0
40
0
40
0
40
0
40
0.250000000000001
40
0.250000000000001
40
0.375000000000001
40
0.375000000000001
40
0.500000000000001
40
0.500000000000001
40
0.562500000000001
40
0.562500000000001
40
0.625
40
0.625
40
0.75
40
0.75
40
1
40
1
40
1
40
1
41
1
10
13
20
6.42392983386824
30
0
41
1
10
14.6861802951246
20
6.33926312334938
30
0
41
1
10
16.3650947912956
20
6.14944925207254
30
0
41
1
10
18.8901722865428
20
5.71888545729834
30
0
41
1
10
19.7333375777133
20
5.55102691919078
30
0
41
1
10
21.4155899742459
20
5.1718575899873
30
0
41
1
10
22.2557743255406
20
4.96039387412972
30
0
41
1
10
23.5163556620278
20
4.61274112511134
30
0
41
1
10
23.9366067756741
20
4.49178773796234
30
0
41
1
10
24.7775978536054
20
4.24029159101892
30
0
41
1
10
25.1986404140184
20
4.10964776231214
30
0
41
1
10
26.4594385127535
20
3.70550164856164
30
0
41
1
10
27.2976409057718
20
3.41956067354141
30
0
41
1
10
29.8102165701223
20
2.52261782848251
30
0
41
1
10
31.4828233598546
20
1.87298115041128
30
0
41
1
10
33.1649006637077
20
1.19893448487954
30
0
0
SPLINE
5
148
100
AcDbEntity
8
1
62
256
6
ByLayer
370
-1
48
1
60
0
100
AcDbSpline
70
4
71
3
72
8
73
4
40
0
40
0
40
0
40
0
40
1
40
1
40
1
40
1
41
1
10
36.4996832049716
20
0.853332174896224
30
0
41
1
10
36.3522328757555
20
0.815196993539985
30
0
41
1
10
36.2038716437932
20
0.782667757866164
30
0
41
1
10
36.0554250254861
20
0.755648309533058
30
0
0
SPLINE
5
149
100
AcDbEntity
8
1
62
256
6
ByLayer
370
-1
48
1
60
0
100
AcDbSpline
70
4
71
3
72
61
73
57
40
0
40
0
40
0
40
0
40
0.0118159914580192
40
0.0293724395646523
40
0.0469288876712854
40
0.0644853357779186
40
0.0820417838845515
40
0.0995982319911847
40
0.117154680097818
40
0.134711128204451
40
0.152267576311084
40
0.169824024417717
40
0.18738047252435
40
0.204936920630983
40
0.222493368737616
40
0.24004981684425
40
0.257606264950883
40
0.275162713057516
40
0.292719161164149
40
0.310275609270782
40
0.327832057377415
40
0.336610281430732
40
0.345388505484048
40
0.354166729537365
40
0.362944953590681
40
0.398057849803947
40
0.415614297910581
40
0.433170746017214
40
0.450727194123847
40
0.46828364223048
40
0.503396538443746
40
0.520952986550379
40
0.538509434657012
40
0.547287658710329
40
0.556065882763645
40
0.564844106816962
40
0.573622330870278
40
0.608735227083545
40
0.643848123296811
40
0.661404571403444
40
0.678961019510077
40
0.69651746761671
40
0.714073915723343
40
0.718463027750002
40
0.72285213977666
40
0.727241251803318
40
0.731630363829976
40
0.749186811936609
40
0.784299708149876
40
0.819412604363142
40
0.854525500576408
40
0.889638396789674
40
0.92475129300294
40
0.959864189216207
40
0.994977085429473
40
1
40
1
40
1
40
1
41
1
10
8.89050572229795
20
0.603660218806823
30
0
41
1
10
8.86049580029334
20
0.608882260514406
30
0
41
1
10
8.78528054840234
20
0.620466606673318
30
0
41
1
10
8.66284045566442
20
0.633254377329621
30
0
41
1
10
8.52281505017228
20
0.639669741208081
30
0
41
1
10
8.3806153218359
20
0.637887165512609
30
0
41
1
10
8.23673762597832
20
0.627752343723586
30
0
41
1
10
8.09167831792254
20
0.609110969321449
30
0
41
1
10
7.94597533409782
20
0.581930965331281
30
0
41
1
10
7.80016661093345
20
0.546180254778164
30
0
41
1
10
7.65480637934121
20
0.50195672166106
30
0
41
1
10
7.51044887023301
20
0.449358249978872
30
0
41
1
10
7.36763688072284
20
0.388610095618759
30
0
41
1
10
7.22691320792481
20
0.31993751446791
30
0
41
1
10
7.08878201986747
20
0.243681688321146
30
0
41
1
10
6.95374748457937
20
0.160183798973264
30
0
41
1
10
6.82225160057854
20
0.0698805156049787
30
0
41
1
10
6.69473636638295
20
-0.0267914926029675
30
0
41
1
10
6.5715671331196
20
-0.129321687468121
30
0
41
1
10
6.45310925191552
20
-0.237199530807999
30
0
41
1
10
6.35852309168769
20
-0.331123869372476
30
0
41
1
10
6.28545297640642
20
-0.408420878924147
30
0
41
1
10
6.2320136515124
20
-0.467353761558911
30
0
41
1
10
6.18000144330171
20
-0.527128125785566
30
0
41
1
10
6.07750316415482
20
-0.649856809497692
30
0
41
1
10
5.96258390942612
20
-0.802401912700475
30
0
41
1
10
5.83953215663931
20
-0.988499590530864
30
0
41
1
10
5.75183560050468
20
-1.1335712035056
30
0
41
1
10
5.66918129211516
20
-1.28375931717056
30
0
41
1
10
5.566232456276
20
-1.49018871652922
30
0
41
1
10
5.47496985098729
20
-1.70492085792358
30
0
41
1
10
5.39670387947308
20
-1.9256924670124
30
0
41
1
10
5.35339915884236
20
-2.06567182606182
30
0
41
1
10
5.32224003777293
20
-2.17854197042038
30
0
41
1
10
5.30062928197265
20
-2.26355665246396
30
0
41
1
10
5.28079336845835
20
-2.34885215349726
30
0
41
1
10
5.24470374056992
20
-2.5198422839735
30
0
41
1
10
5.20412447514477
20
-2.77721480033745
30
0
41
1
10
5.1832663881423
20
-3.06046744625655
30
0
41
1
10
5.18076717993173
20
-3.2830124164216
30
0
41
1
10
5.18580202168931
20
-3.44734930332513
30
0
41
1
10
5.19756172858217
20
-3.60857108207321
30
0
41
1
10
5.21122709847464
20
-3.72680827978761
30
0
41
1
10
5.22227381615048
20
-3.80437393594028
30
0
41
1
10
5.2281795714533
20
-3.84290439910902
30
0
41
1
10
5.23446282546971
20
-3.88118196092734
30
0
41
1
10
5.24782760569732
20
-3.9574716580853
30
0
41
1
10
5.28134300890443
20
-4.12263031303814
30
0
41
1
10
5.34990266080075
20
-4.37356409394735
30
0
41
1
10
5.45990016489708
20
-4.66514393223201
30
0
41
1
10
5.59728432963797
20
-4.94226874508689
30
0
41
1
10
5.76086997564667
20
-5.20024389622193
30
0
41
1
10
5.94863351112511
20
-5.43479876729629
30
0
41
1
10
6.15778811736695
20
-5.64231731491759
30
0
41
1
10
6.32004173013982
20
-5.76925950227655
30
0
41
1
10
6.40965971339659
20
-5.83007853772116
30
0
41
1
10
6.42092139944756
20
-5.83758162445696
30
0
0
SPLINE
5
14A
100
AcDbEntity
8
1
62
256
6
ByLayer
370
-1
48
1
60
0
100
AcDbSpline
70
4
71
3
72
9
73
5
40
0
40
0
40
0
40
0
40
0.420730853834929
40
1
40
1
40
1
40
1
41
1
10
6.56729611069375
20
-5.92759582121928
30
0
41
1
10
6.58737328123505
20
-5.93895298413022
30
0
41
1
10
6.6353603725286
20
-5.96516631369894
30
0
41
1
10
6.68392471834659
20
-5.98951277678546
30
0
41
1
10
6.71222320066815
20
-6.00299054989648
30
0
0
SPLINE
5
14B
100
AcDbEntity
8
1
62
256
6
ByLayer
370
-1
48
1
60
0
100
AcDbSpline
70
4
71
3
72
22
73
18
40
0
40
0
40
0
40
0
40
0.125
40
0.125
40
0.25
40
0.25
40
0.375
40
0.375
40
0.499999999999999
40
0.499999999999999
40
0.749999999999999
40
0.749999999999999
40
0.812499999999999
40
0.812499999999999
40
0.874999999999999
40
0.874999999999999
40
1
40
1
40
1
40
1
41
1
10
9.12865680171168
20
-8.41698765169448
30
0
41
1
10
9.19908230003975
20
-8.36167739955692
30
0
41
1
10
9.27552025777879
20
-8.29539389784705
30
0
41
1
10
9.43968466691481
20
-8.14969248526782
30
0
41
1
10
9.52742319261927
20
-8.07021985554371
30
0
41
1
10
9.71441266802745
20
-7.90432315407523
30
0
41
1
10
9.81371407089662
20
-7.81783504525512
30
0
41
1
10
10.0245598842825
20
-7.64292244915978
30
0
41
1
10
10.1346967029343
20
-7.55567588488114
30
0
41
1
10
10.4803805565735
20
-7.30016213107086
30
0
41
1
10
10.7309990737959
20
-7.13823417118638
30
0
41
1
10
11.075978632838
20
-6.96039714186588
30
0
41
1
10
11.146834830125
20
-6.92675618804819
30
0
41
1
10
11.2904228547578
20
-6.85792207981495
30
0
41
1
10
11.3635186023829
20
-6.82405121645317
30
0
41
1
10
11.5866288428415
20
-6.72970670004261
30
0
41
1
10
11.7404457057551
20
-6.67428477584969
30
0
41
1
10
11.8998468783959
20
-6.62738589530369
30
0
0
SPLINE
5
14C
100
AcDbEntity
8
1
62
256
6
ByLayer
370
-1
48
1
60
0
100
AcDbSpline
70
4
71
3
72
8
73
4
40
0
40
0
40
0
40
0
40
1
40
1
40
1
40
1
41
1
10
35.9390539293434
20
1.74662424474866
30
0
41
1
10
36.1509495207974
20
1.71106027988227
30
0
41
1
10
36.3630160800672
20
1.69021553652098
30
0
41
1
10
36.5675574035154
20
1.68340614190274
30
0
0
SPLINE
5
14D
100
AcDbEntity
8
1
62
256
6
ByLayer
370
-1
48
1
60
0
100
AcDbSpline
70
4
71
3
72
10
73
6
40
0
40
0
40
0
40
0
40
0.118908535176212
40
0.118908535176212
40
1
40
1
40
1
40
1
41
1
10
42.0794948712778
20
0.117362830737164
30
0
41
1
10
42.0851798599078
20
0.118625228210902
30
0
41
1
10
42.0906651784097
20
0.119876236942872
30
0
41
1
10
42.1358312305039
20
0.130341987785812
30
0
41
1
10
42.1682601697012
20
0.139131703373295
30
0
41
1
10
42.1986476192479
20
0.147751479114163
30
0
0
SPLINE
5
14E
100
AcDbEntity
8
1
62
256
6
ByLayer
370
-1
48
1
60
0
100
AcDbSpline
70
4
71
3
72
10
73
6
40
0
40
0
40
0
40
0
40
0.5
40
0.5
40
1
40
1
40
1
40
1
41
1
10
42.6115695709037
20
-3.99016825611696
30
0
41
1
10
42.6019148332042
20
-4.04482086588138
30
0
41
1
10
42.5767579921023
20
-4.09644338034414
30
0
41
1
10
42.5028916519962
20
-4.17894977531893
30
0
41
1
10
42.4546416681037
20
-4.20951873786484
30
0
41
1
10
42.4013318484113
20
-4.2252803723095
30
0
0
SPLINE
5
14F
100
AcDbEntity
8
1
62
256
6
ByLayer
370
-1
48
1
60
0
100
AcDbSpline
70
4
71
3
72
24
73
20
40
0
40
0
40
0
40
0
40
0.24999999999995
40
0.24999999999995
40
0.374999999999925
40
0.374999999999925
40
0.437499999999906
40
0.437499999999906
40
0.468749999999905
40
0.468749999999905
40
0.499999999999903
40
0.499999999999903
40
0.562499999999915
40
0.562499999999915
40
0.624999999999927
40
0.624999999999927
40
0.749999999999951
40
0.749999999999951
40
1
40
1
40
1
40
1
41
1
10
42.3007544128769
20
-4.07868113621467
30
0
41
1
10
42.322685011522
20
-4.08379355710048
30
0
41
1
10
42.345811340583
20
-4.08743572435566
30
0
41
1
10
42.3856844229019
20
-4.08586155541039
30
0
41
1
10
42.3998314922043
20
-4.08426853686666
30
0
41
1
10
42.4242867605463
20
-4.07675606571024
30
0
41
1
10
42.433019175438
20
-4.07341931226586
30
0
41
1
10
42.4478723960784
20
-4.06504419445218
30
0
41
1
10
42.4531679984824
20
-4.06163186459767
30
0
41
1
10
42.4641826117172
20
-4.05298421537321
30
0
41
1
10
42.4700875487942
20
-4.0475271432916
30
0
41
1
10
42.4864054064685
20
-4.02887920346581
30
0
41
1
10
42.4936456086506
20
-4.01574229599714
30
0
41
1
10
42.5033778456518
20
-3.99369799026195
30
0
41
1
10
42.5064159132915
20
-3.98380976879525
30
0
41
1
10
42.5132893013688
20
-3.95636492605999
30
0
41
1
10
42.5149869467862
20
-3.94043706832107
30
0
41
1
10
42.5173136871262
20
-3.89509037796509
30
0
41
1
10
42.5148019052372
20
-3.86870963207127
30
0
41
1
10
42.5109921353695
20
-3.8435690200221
30
0
0
SPLINE
5
150
100
AcDbEntity
8
1
62
256
6
ByLayer
370
-1
48
1
60
0
100
AcDbSpline
70
4
71
3
72
16
73
12
40
0
40
0
40
0
40
0
40
0.0625000000000001
40
0.0625000000000001
40
0.125
40
0.125
40
0.25
40
0.25
40
0.5
40
0.5
40
1
40
1
40
1
40
1
41
1
10
42.517747393962
20
-0.356275915691924
30
0
41
1
10
42.5150663623214
20
-0.343686179787767
30
0
41
1
10
42.5128434219961
20
-0.331297501256273
30
0
41
1
10
42.5094904516175
20
-0.309328567835507
30
0
41
1
10
42.5082921343524
20
-0.299487462762556
30
0
41
1
10
42.5055891334963
20
-0.272952570797543
30
0
41
1
10
42.5048611499752
20
-0.258535996560994
30
0
41
1
10
42.5038473052018
20
-0.220081155445115
30
0
41
1
10
42.504737988458
20
-0.199984819655839
30
0
41
1
10
42.508694287665
20
-0.144790852282369
30
0
41
1
10
42.5132390116494
20
-0.115630946823103
30
0
41
1
10
42.5182386222924
20
-0.0882923310550154
30
0
0
SPLINE
5
151
100
AcDbEntity
8
1
62
256
6
ByLayer
370
-1
48
1
60
0
100
AcDbSpline
70
4
71
3
72
26
73
22
40
0
40
0
40
0
40
0
40
0.249999999999997
40
0.249999999999997
40
0.374999999999996
40
0.374999999999996
40
0.437499999999996
40
0.437499999999996
40
0.468749999999996
40
0.468749999999996
40
0.499999999999997
40
0.499999999999997
40
0.531249999999997
40
0.531249999999997
40
0.562499999999997
40
0.562499999999997
40
0.624999999999997
40
0.624999999999997
40
0.749999999999998
40
0.749999999999998
40
1
40
1
40
1
40
1
41
1
10
42.5182386222924
20
-0.0882923310552428
30
0
41
1
10
42.5233306257824
20
-0.0604484974361696
30
0
41
1
10
42.5262140264506
20
-0.0315757518164332
30
0
41
1
10
42.5214246556625
20
0.0173472308219402
30
0
41
1
10
42.5184818665172
20
0.0344453581533628
30
0
41
1
10
42.5075120789297
20
0.0640842384210885
30
0
41
1
10
42.502851381355
20
0.0745899480494927
30
0
41
1
10
42.4912149676737
20
0.0928114247778637
30
0
41
1
10
42.4865391464725
20
0.0993499887249527
30
0
41
1
10
42.4734434893321
20
0.114029801540681
30
0
41
1
10
42.4643880802021
20
0.122565757617309
30
0
41
1
10
42.4432417263937
20
0.137611076977549
30
0
41
1
10
42.4325573880997
20
0.14324364007183
30
0
41
1
10
42.4145599903923
20
0.151232686597353
30
0
41
1
10
42.40656039735
20
0.153989742246665
30
0
41
1
10
42.3845973090239
20
0.160519070430212
30
0
41
1
10
42.3722094383418
20
0.162706270293199
30
0
41
1
10
42.3372132428219
20
0.167141883347284
30
0
41
1
10
42.3174753815541
20
0.166955582892854
30
0
41
1
10
42.2615643675733
20
0.163360169873982
30
0
41
1
10
42.2292671037396
20
0.156437074435786
30
0
41
1
10
42.198647619248
20
0.147751479114191
30
0
0
SPLINE
5
152
100
AcDbEntity
8
1
62
256
6
ByLayer
370
-1
48
1
60
0
100
AcDbSpline
70
4
71
3
72
18
73
14
40
0
40
0
40
0
40
0
40
0.25
40
0.25
40
0.499999999999999
40
0.499999999999999
40
0.749999999999999
40
0.749999999999999
40
0.874999999999999
40
0.874999999999999
40
0.9375
40
0.9375
40
1
40
1
40
1
40
1
41
1
10
42.5109921353686
20
-3.84356902002605
30
0
41
1
10
42.5061683605161
20
-3.81173700486818
30
0
41
1
10
42.5015744733633
20
-3.77893382830655
30
0
41
1
10
42.4931587849151
20
-3.7100657957377
30
0
41
1
10
42.4893174275439
20
-3.67408355444212
30
0
41
1
10
42.483152445712
20
-3.59570740378095
30
0
41
1
10
42.4806631490285
20
-3.55401337730885
30
0
41
1
10
42.4803411953655
20
-3.47705836797601
30
0
41
1
10
42.4808095381437
20
-3.44866593075358
30
0
41
1
10
42.4838934091668
20
-3.39923535074703
30
0
41
1
10
42.4853648051026
20
-3.3811855161307
30
0
41
1
10
42.4897103932365
20
-3.34239714771076
30
0
41
1
10
42.4926486702895
20
-3.32141312259262
30
0
41
1
10
42.4963234747482
20
-3.30061114326549
30
0
0
SPLINE
5
153
100
AcDbEntity
8
1
62
256
6
ByLayer
370
-1
48
1
60
0
100
AcDbSpline
70
4
71
3
72
12
73
8
40
0
40
0
40
0
40
0
40
0.331885470511496
40
0.331885470511496
40
0.665942735255748
40
0.665942735255748
40
1
40
1
40
1
40
1
41
1
10
41.9977555249558
20
-4.04146453214878
30
0
41
1
10
42.0440706279125
20
-4.04047705671479
30
0
41
1
10
42.0816267344053
20
-4.04309025735748
30
0
41
1
10
42.1520367721762
20
-4.05036777179293
30
0
41
1
10
42.1839697433032
20
-4.05525435766359
30
0
41
1
10
42.2445694417714
20
-4.06617662236746
30
0
41
1
10
42.2731633666854
20
-4.07224916219087
30
0
41
1
10
42.3007544128769
20
-4.07868113621464
30
0
0
SPLINE
5
154
100
AcDbEntity
8
1
62
256
6
ByLayer
370
-1
48
1
60
0
100
AcDbSpline
70
4
71
3
72
12
73
8
40
0
40
0
40
0
40
0
40
0.500000000000019
40
0.500000000000019
40
0.75000000000001
40
0.75000000000001
40
1
40
1
40
1
40
1
41
1
10
42.319419513227
20
0.235053215011163
30
0
41
1
10
42.3918055956086
20
0.241374364366607
30
0
41
1
10
42.4659775306256
20
0.220383081477166
30
0
41
1
10
42.5532710366396
20
0.15582016607263
30
0
41
1
10
42.5784743837198
20
0.128915128789714
30
0
41
1
10
42.6175901328797
20
0.0680891759430722
30
0
41
1
10
42.6314568157707
20
0.034480487303
30
0
41
1
10
42.6390105162714
20
-0.000990595158072
30
0
0
SPLINE
5
155
100
AcDbEntity
8
1
62
256
6
ByLayer
370
-1
48
1
60
0
100
AcDbSpline
70
4
71
3
72
8
73
4
40
0
40
0
40
0
40
0
40
1
40
1
40
1
40
1
41
1
10
42.9889885366467
20
-1.64443664111769
30
0
41
1
10
43.0024598495582
20
-1.70769597355962
30
0
41
1
10
43.0035698749379
20
-1.77117067062895
30
0
41
1
10
42.9923186127859
20
-1.83486073232561
30
0
0
SPLINE
5
156
100
AcDbEntity
8
1
62
256
6
ByLayer
370
-1
48
1
60
0
100
AcDbSpline
70
4
71
3
72
8
73
4
40
0
40
0
40
0
40
0
40
1
40
1
40
1
40
1
41
1
10
42.7734572578775
20
-1.7318389017837
30
0
41
1
10
42.7847085200296
20
-1.66814884008704
30
0
41
1
10
42.7835984946498
20
-1.60467414301772
30
0
41
1
10
42.7701271817383
20
-1.54141481057579
30
0
0
SPLINE
5
157
100
AcDbEntity
8
1
62
256
6
ByLayer
370
-1
48
1
60
0
100
AcDbSpline
70
4
71
3
72
20
73
16
40
0
40
0
40
0
40
0
40
0.0357152536596761
40
0.055805083843244
40
0.0714305073193523
40
0.0870559307954606
40
0.107145760979028
40
0.125003387808866
40
0.142861014638705
40
0.214291521958057
40
0.285722029277409
40
0.571444058554818
40
0.857166087832227
40
0.92859659515158
40
1
40
1
40
1
40
1
41
1
10
41.7216552973659
20
6.61718988978686
30
0
41
1
10
41.711324373491
20
6.61646472173246
30
0
41
1
10
41.6951823049365
20
6.61533164664749
30
0
41
1
10
41.6745204561292
20
6.61388131211811
30
0
41
1
10
41.659669751539
20
6.61283888531028
30
0
41
1
10
41.6448190460976
20
6.61179645977387
30
0
41
1
10
41.6293226565737
20
6.61070871323594
30
0
41
1
10
41.6131805824677
20
6.60957564644272
30
0
41
1
10
41.5821877966312
20
6.60740016350647
30
0
41
1
10
41.5356986026497
20
6.6041369618452
30
0
41
1
10
41.4117273212468
20
6.59543523630438
30
0
41
1
10
41.2257699118823
20
6.58238337577262
30
0
41
1
10
41.0398169203434
20
6.56932491670696
30
0
41
1
10
40.9158484763387
20
6.56063121283731
30
0
41
1
10
40.8745418339378
20
6.55762782072949
30
0
41
1
10
40.8538812437333
20
6.5562772682309
30
0
0
SPLINE
5
158
100
AcDbEntity
8
1
62
256
6
ByLayer
370
-1
48
1
60
0
100
AcDbSpline
70
4
71
1
72
4
73
2
40
0
40
0
40
1
40
1
41
1
10
37.7583673480239
20
2.23084218792442
30
0
41
1
10
39.7230473919423
20
2.23084218792442
30
0
0
SPLINE
5
159
100
AcDbEntity
8
1
62
256
6
ByLayer
370
-1
48
1
60
0
100
AcDbSpline
70
4
71
3
72
14
73
10
40
0
40
0
40
0
40
0
40
0.401869826261842
40
0.803739652523683
40
0.904207109089144
40
0.954440837371874
40
0.979557701513239
40
0.992116133583921
40
1
40
1
40
1
40
1
41
1
10
41.7844713013003
20
6.23641207013222
30
0
41
1
10
41.8159819992145
20
6.07368435454524
30
0
41
1
10
41.8790033950428
20
5.74822892337124
30
0
41
1
10
41.9499127812871
20
5.38208813532091
30
0
41
1
10
41.9932219380286
20
5.15834352535316
30
0
41
1
10
42.0070272107487
20
5.08714372232202
30
0
41
1
10
42.0138897116647
20
5.05155715778972
30
0
41
1
10
42.0175054327924
20
5.03309462091019
30
0
41
1
10
42.0191060564556
20
5.02483829195839
30
0
41
1
10
42.0197131957252
20
5.02165403196801
30
0
0
SPLINE
5
15A
100
AcDbEntity
8
1
62
256
6
ByLayer
370
-1
48
1
60
0
100
AcDbSpline
70
4
71
3
72
18
73
14
40
0
40
0
40
0
40
0
40
0.156501894804183
40
0.156501894804183
40
0.313003789608363
40
0.313003789608363
40
0.469505684412535
40
0.469505684412535
40
0.626007579216708
40
0.626007579216708
40
0.782509474020882
40
0.782509474020882
40
1
40
1
40
1
40
1
41
1
10
36.5074637370227
20
3.53634944539579
30
0
41
1
10
36.505587460973
20
3.54613592847295
30
0
41
1
10
36.5040020924844
20
3.55598314464459
30
0
41
1
10
36.5014216679316
20
3.57574626379409
30
0
41
1
10
36.5004254593156
20
3.58567099400781
30
0
41
1
10
36.4990263889112
20
3.60555360086855
30
0
41
1
10
36.4986229022252
20
3.61552035812082
30
0
41
1
10
36.4984101885049
20
3.63545136016688
30
0
41
1
10
36.4986008664615
20
3.64542450718176
30
0
41
1
10
36.4995752700073
20
3.6653326388448
30
0
41
1
10
36.5003594308158
20
3.67527651549895
30
0
41
1
10
36.5029373361564
20
3.69894562903818
30
0
41
1
10
36.5050078915991
20
3.71265695998721
30
0
41
1
10
36.5076394146747
20
3.72624668561269
30
0
0
SPLINE
5
15B
100
AcDbEntity
8
1
62
256
6
ByLayer
370
-1
48
1
60
0
100
AcDbSpline
70
4
71
3
72
14
73
10
40
0
40
0
40
0
40
0
40
0.276946339130832
40
0.276946339130832
40
0.553892678261525
40
0.553892678261525
40
0.776880838709407
40
0.776880838709407
40
1
40
1
40
1
40
1
41
1
10
42.301696616977
20
6.73066095598591
30
0
41
1
10
42.3053920925653
20
6.73058459266977
30
0
41
1
10
42.3090868416086
20
6.73045240814656
30
0
41
1
10
42.3164698715261
20
6.73007657610714
30
0
41
1
10
42.3201589875151
20
6.72983288607958
30
0
41
1
10
42.3268097272569
20
6.72929259233041
30
0
41
1
10
42.3297735630428
20
6.72901550684233
30
0
41
1
10
42.3356949834634
20
6.72838921506445
30
0
41
1
10
42.3386529981937
20
6.72803992051431
30
0
41
1
10
42.3416061449648
20
6.72765472313111
30
0
0
SPLINE
5
15C
100
AcDbEntity
8
1
62
256
6
ByLayer
370
-1
48
1
60
0
100
AcDbSpline
70
4
71
3
72
13
73
9
40
0
40
0
40
0
40
0
40
0.0429204910533987
40
0.106725791649839
40
0.234336392842719
40
0.489557595228479
40
0.74477879761424
40
1
40
1
40
1
40
1
41
1
10
38.7616627599013
20
1.91056054456118
30
0
41
1
10
38.7755947055412
20
1.91060132799018
30
0
41
1
10
38.8102387515426
20
1.91049212519897
30
0
41
1
10
38.8863088559219
20
1.9105637759294
30
0
41
1
10
39.0312946867716
20
1.91052042233335
30
0
41
1
10
39.2384178560846
20
1.91054354425123
30
0
41
1
10
39.4869654409609
20
1.91053776377177
30
0
41
1
10
39.6526638559703
20
1.91053776377177
30
0
41
1
10
39.735513063475
20
1.91053776377177
30
0
0
SPLINE
5
15D
100
AcDbEntity
8
1
62
256
6
ByLayer
370
-1
48
1
60
0
100
AcDbSpline
70
4
71
3
72
8
73
4
40
0
40
0
40
0
40
0
40
1
40
1
40
1
40
1
41
1
10
42.3007716784233
20
6.73067889019131
30
0
41
1
10
42.3010800002592
20
6.73067329611354
30
0
41
1
10
42.3013883135862
20
6.73066731802788
30
0
41
1
10
42.301696616977
20
6.73066095598591
30
0
0
SPLINE
5
15E
100
AcDbEntity
8
1
62
256
6
ByLayer
370
-1
48
1
60
0
100
AcDbSpline
70
4
71
3
72
18
73
14
40
0
40
0
40
0
40
0
40
0.0103342694142172
40
0.0214541090837204
40
0.0659334677617331
40
0.110412826439746
40
0.121532666109249
40
0.132652505778752
40
0.154892185117759
40
0.199371543795771
40
0.288330261151797
40
0.644165130575898
40
1
40
1
40
1
40
1
41
1
10
42.886292457971
20
4.91013867264775
30
0
41
1
10
42.8853515530776
20
4.91523653757744
30
0
41
1
10
42.8832790598558
20
4.92581485800065
30
0
41
1
10
42.8769057947349
20
4.95843185451162
30
0
41
1
10
42.8673095089299
20
5.00789676996126
30
0
41
1
10
42.8577648622136
20
5.05732942163414
30
0
41
1
10
42.8513933448958
20
5.09028651372773
30
0
41
1
10
42.8471438420679
20
5.11225632600193
30
0
41
1
10
42.8397015639809
20
5.15071338728592
30
0
41
1
10
42.8247989720554
20
5.22765038953955
30
0
41
1
10
42.7778961123998
20
5.46953226128139
30
0
41
1
10
42.7012881447019
20
5.86526974542144
30
0
41
1
10
42.6331640642179
20
6.21705381898798
30
0
41
1
10
42.5991059391499
20
6.39293353320772
30
0
0
SPLINE
5
15F
100
AcDbEntity
8
1
62
256
6
ByLayer
370
-1
48
1
60
0
100
AcDbSpline
70
4
71
3
72
8
73
4
40
0
40
0
40
0
40
0
40
1
40
1
40
1
40
1
41
1
10
42.3316856324391
20
6.64850386654038
30
0
41
1
10
42.3210648007335
20
6.64992390300367
30
0
41
1
10
42.310364667933
20
6.6505752190443
30
0
41
1
10
42.2996522542562
20
6.65091804202046
30
0
0
SPLINE
5
160
100
AcDbEntity
8
1
62
256
6
ByLayer
370
-1
48
1
60
0
100
AcDbSpline
70
4
71
3
72
15
73
11
40
0
40
0
40
0
40
0
40
0.0039823711834194
40
0.0560173982325609
40
0.160087452330844
40
0.36822756052741
40
0.784507776920541
40
0.888577831018824
40
0.992647885117107
40
1
40
1
40
1
40
1
41
1
10
36.58523284178
20
3.71193375872295
30
0
41
1
10
36.585192527839
20
3.71172410881695
30
0
41
1
10
36.5846265094251
20
3.70877494157497
30
0
41
1
10
36.583054987232
20
3.70033926962447
30
0
41
1
10
36.5800845073681
20
3.68103424708948
30
0
41
1
10
36.5763954290827
20
3.64193563619298
30
0
41
1
10
36.5774378474618
20
3.60246481575857
30
0
41
1
10
36.5816553507383
20
3.56917316400296
30
0
41
1
10
36.5835837300882
20
3.55780633459062
30
0
41
1
10
36.5846627222725
20
3.55193322271668
30
0
41
1
10
36.584734250368
20
3.55154570320445
30
0
0
SPLINE
5
161
100
AcDbEntity
8
1
62
256
6
ByLayer
370
-1
48
1
60
0
100
AcDbSpline
70
4
71
3
72
14
73
10
40
0
40
0
40
0
40
0
40
0.0044038098736862
40
0.0109971621261783
40
0.0241838666311626
40
0.0505572756411312
40
0.156050911681005
40
0.578025455840503
40
1
40
1
40
1
40
1
41
1
10
42.0197130834337
20
4.64003036635245
30
0
41
1
10
42.0190673278864
20
4.63664250088706
30
0
41
1
10
42.0174254642099
20
4.62818297853437
30
0
41
1
10
42.0137717872896
20
4.60951181598415
30
0
41
1
10
42.0069078618012
20
4.57392825959397
30
0
41
1
10
41.985218443936
20
4.46204128277725
30
0
41
1
10
41.9025412127273
20
4.03489837113952
30
0
41
1
10
41.7607194716114
20
3.30261297913464
30
0
41
1
10
41.6346766799548
20
2.65170211678668
30
0
41
1
10
41.5716552841265
20
2.32624668561269
30
0
0
SPLINE
5
162
100
AcDbEntity
8
1
62
256
6
ByLayer
370
-1
48
1
60
0
100
AcDbSpline
70
4
71
3
72
8
73
4
40
0
40
0
40
0
40
0
40
1
40
1
40
1
40
1
41
1
10
40.7099709923643
20
6.63084239991937
30
0
41
1
10
40.756046087251
20
6.63086387558243
30
0
41
1
10
40.8020650663075
20
6.63248777020917
30
0
41
1
10
40.8480279295336
20
6.63571408379957
30
0
0
SPLINE
5
163
100
AcDbEntity
8
1
62
256
6
ByLayer
370
-1
48
1
60
0
100
AcDbSpline
70
4
71
3
72
10
73
6
40
0
40
0
40
0
40
0
40
0.453921360825132
40
0.907842721650264
40
1
40
1
40
1
40
1
41
1
10
36.8719201878
20
2.06875084264112
30
0
41
1
10
36.8780971610582
20
2.03635043690505
30
0
41
1
10
36.9005024976668
20
1.97348632902683
30
0
41
1
10
36.9449753348719
20
1.9150397988181
30
0
41
1
10
36.9744135226473
20
1.88851315916884
30
0
41
1
10
36.9795176909059
20
1.88419864979247
30
0
0
SPLINE
5
164
100
AcDbEntity
8
1
62
256
6
ByLayer
370
-1
48
1
60
0
100
AcDbSpline
70
4
71
3
72
10
73
6
40
0
40
0
40
0
40
0
40
0.190146666341434
40
0.481693866458518
40
1
40
1
40
1
40
1
41
1
10
37.7236209396368
20
2.22963850719927
30
0
41
1
10
37.7196902036475
20
2.22939086034504
30
0
41
1
10
37.7097355069305
20
2.22869387549153
30
0
41
1
10
37.6890698318452
20
2.22723537977782
30
0
41
1
10
37.6723348449838
20
2.22602417824274
30
0
41
1
10
37.6616234825844
20
2.22527230571663
30
0
0
SPLINE
5
165
100
AcDbEntity
8
1
62
256
6
ByLayer
370
-1
48
1
60
0
100
AcDbSpline
70
4
71
3
72
8
73
4
40
0
40
0
40
0
40
0
40
1
40
1
40
1
40
1
41
1
10
42.3425234003998
20
6.72753397015822
30
0
41
1
10
42.4157676936093
20
6.7178032184265
30
0
41
1
10
42.4858530427381
20
6.68681843018888
30
0
41
1
10
42.542450689127
20
6.63914595783319
30
0
0
SPLINE
5
166
100
AcDbEntity
8
1
62
256
6
ByLayer
370
-1
48
1
60
0
100
AcDbSpline
70
4
71
3
72
14
73
10
40
0
40
0
40
0
40
0
40
0.0044038098736871
40
0.0109971621261792
40
0.0241838666311635
40
0.0505572756411321
40
0.156050911681006
40
0.578025455840503
40
1
40
1
40
1
40
1
41
1
10
37.4263817004509
20
3.8216540094964
30
0
41
1
10
37.4270274559983
20
3.82504187496178
30
0
41
1
10
37.4286693196748
20
3.83350139731448
30
0
41
1
10
37.4323229965951
20
3.85217255986473
30
0
41
1
10
37.4391869220834
20
3.88775611625488
30
0
41
1
10
37.4608763399486
20
3.9996430930716
30
0
41
1
10
37.5435535711573
20
4.42678600470933
30
0
41
1
10
37.6853753122732
20
5.15907139671424
30
0
41
1
10
37.8114181039299
20
5.80998225906217
30
0
41
1
10
37.8744394997582
20
6.13543769023616
30
0
0
SPLINE
5
167
100
AcDbEntity
8
1
62
256
6
ByLayer
370
-1
48
1
60
0
100
AcDbSpline
70
4
71
3
72
32
73
28
40
0
40
0
40
0
40
0
40
0.125
40
0.15625
40
0.1875
40
0.203125
40
0.21875
40
0.25
40
0.28125
40
0.3125
40
0.34375
40
0.359375
40
0.375
40
0.4375
40
0.46875
40
0.5
40
0.53125
40
0.546875
40
0.5625
40
0.625
40
0.6875
40
0.75
40
0.8125
40
0.84375
40
0.859375
40
0.875
40
1
40
1
40
1
40
1
41
1
10
42.5991059391499
20
6.39293353320772
30
0
41
1
10
42.5649126411052
20
6.38615511561332
30
0
41
1
10
42.5221710185493
20
6.37768209362034
30
0
41
1
10
42.4708810714823
20
6.36751446722874
30
0
41
1
10
42.4495128593482
20
6.36327786897198
30
0
41
1
10
42.4324084128942
20
6.35988892195556
30
0
41
1
10
42.4152138892867
20
6.35648987453595
30
0
41
1
10
42.3934369129913
20
6.35220255792711
30
0
41
1
10
42.3670643868083
20
6.34703466322017
30
0
41
1
10
42.3405572209265
20
6.34186607591536
30
0
41
1
10
42.3184776637329
20
6.33758356231212
30
0
41
1
10
42.3007682607694
20
6.3341546498817
30
0
41
1
10
42.2741984702619
20
6.3290113131884
30
0
41
1
10
42.2432137533136
20
6.32301190694443
30
0
41
1
10
42.2077997828062
20
6.31615519554455
30
0
41
1
10
42.1812327674758
20
6.31101144247515
30
0
41
1
10
42.1591217233212
20
6.30673057732372
30
0
41
1
10
42.1413618706514
20
6.30329176078362
30
0
41
1
10
42.1151005372511
20
6.29820959611604
30
0
41
1
10
42.0753781494367
20
6.29057125438683
30
0
41
1
10
42.0228027072115
20
6.28056103525682
30
0
41
1
10
41.9715258935842
20
6.27089907420807
30
0
41
1
10
41.9306160546264
20
6.26327846289669
30
0
41
1
10
41.9033298337938
20
6.25824141537879
30
0
41
1
10
41.8880974080234
20
6.25544427775529
30
0
41
1
10
41.8496726851955
20
6.24838678403196
30
0
41
1
10
41.8151702981838
20
6.24205028186697
30
0
41
1
10
41.7844713013003
20
6.23641207013222
30
0
0
SPLINE
5
168
100
AcDbEntity
8
1
62
256
6
ByLayer
370
-1
48
1
60
0
100
AcDbSpline
70
4
71
3
72
8
73
4
40
0
40
0
40
0
40
0
40
1
40
1
40
1
40
1
41
1
10
37.1297180898705
20
1.73415040569063
30
0
41
1
10
37.0564737966955
20
1.74388115742235
30
0
41
1
10
36.9863884475834
20
1.77486594565997
30
0
41
1
10
36.9297908011914
20
1.82253841801565
30
0
0
SPLINE
5
169
100
AcDbEntity
8
1
62
256
6
ByLayer
370
-1
48
1
60
0
100
AcDbSpline
70
4
71
3
72
8
73
4
40
0
40
0
40
0
40
0
40
1
40
1
40
1
40
1
41
1
10
42.0727494218062
20
1.83084218792442
30
0
41
1
10
42.0730577952004
20
1.83084217590689
30
0
41
1
10
42.0733661712967
20
1.83084216989818
30
0
41
1
10
42.0736745500857
20
1.83084216989838
30
0
0
SPLINE
5
16A
100
AcDbEntity
8
1
62
256
6
ByLayer
370
-1
48
1
60
0
100
AcDbSpline
70
4
71
3
72
32
73
28
40
0
40
0
40
0
40
0
40
0.125
40
0.140625
40
0.15625
40
0.1875
40
0.25
40
0.3125
40
0.375
40
0.4375
40
0.453125
40
0.46875
40
0.5
40
0.53125
40
0.5625
40
0.625
40
0.640625
40
0.65625
40
0.6875
40
0.71875
40
0.75
40
0.78125
40
0.796875
40
0.8125
40
0.84375
40
0.875
40
1
40
1
40
1
40
1
41
1
10
41.5716552841265
20
2.32624668561269
30
0
41
1
10
41.60235428101
20
2.32060847387797
30
0
41
1
10
41.6368566680217
20
2.31427197171297
30
0
41
1
10
41.6752813908496
20
2.30721447798965
30
0
41
1
10
41.6905138166199
20
2.30441734036614
30
0
41
1
10
41.7178000374526
20
2.29938029284824
30
0
41
1
10
41.7587098764104
20
2.29175968153686
30
0
41
1
10
41.8099866900376
20
2.28209772048811
30
0
41
1
10
41.8625621322628
20
2.27208750135807
30
0
41
1
10
41.9022845200773
20
2.2644491596289
30
0
41
1
10
41.9285458534775
20
2.25936699496131
30
0
41
1
10
41.9463057061474
20
2.25592817842122
30
0
41
1
10
41.968416750302
20
2.25164731326976
30
0
41
1
10
41.9949837656324
20
2.24650356020035
30
0
41
1
10
42.0303977361398
20
2.2396468488005
30
0
41
1
10
42.061382453088
20
2.23364744255653
30
0
41
1
10
42.0879522435956
20
2.22850410586324
30
0
41
1
10
42.1056616465591
20
2.22507519343282
30
0
41
1
10
42.1277412037527
20
2.22079267982957
30
0
41
1
10
42.1542483696344
20
2.21562409252476
30
0
41
1
10
42.1806208958174
20
2.21045619781779
30
0
41
1
10
42.2023978721129
20
2.20616888120895
30
0
41
1
10
42.2195923957204
20
2.20276983378935
30
0
41
1
10
42.2366968421743
20
2.19938088677296
30
0
41
1
10
42.2580650543084
20
2.19514428851619
30
0
41
1
10
42.3093550013755
20
2.1849766621246
30
0
41
1
10
42.3520966239314
20
2.17650364013158
30
0
41
1
10
42.3862899219761
20
2.16972522253718
30
0
0
SPLINE
5
16B
100
AcDbEntity
8
1
62
256
6
ByLayer
370
-1
48
1
60
0
100
AcDbSpline
70
4
71
3
72
20
73
16
40
0
40
0
40
0
40
0
40
0.0357152536596756
40
0.0558050838432431
40
0.0714305073193511
40
0.0870559307954592
40
0.107145760979027
40
0.125003387808864
40
0.142861014638702
40
0.214291521958054
40
0.285722029277404
40
0.571444058554809
40
0.857166087832213
40
0.928596595151564
40
1
40
1
40
1
40
1
41
1
10
37.749370829584
20
1.84449448606202
30
0
41
1
10
37.7597017534589
20
1.84521965411639
30
0
41
1
10
37.7758438220135
20
1.84635272920136
30
0
41
1
10
37.7965056708207
20
1.84780306373074
30
0
41
1
10
37.8113563754109
20
1.84884549053856
30
0
41
1
10
37.8262070808523
20
1.84988791607498
30
0
41
1
10
37.8417034703763
20
1.85097566261291
30
0
41
1
10
37.8578455444823
20
1.85210872940613
30
0
41
1
10
37.8888383303187
20
1.85428421234238
30
0
41
1
10
37.9353275243002
20
1.85754741400365
30
0
41
1
10
38.0592988057031
20
1.86624913954446
30
0
41
1
10
38.2452562150676
20
1.87930100007622
30
0
41
1
10
38.4312092066066
20
1.89235945914192
30
0
41
1
10
38.5551776506112
20
1.90105316301154
30
0
41
1
10
38.5964842930121
20
1.90405655511935
30
0
41
1
10
38.6171448832167
20
1.90540710761795
30
0
0
SPLINE
5
16C
100
AcDbEntity
8
1
62
256
6
ByLayer
370
-1
48
1
60
0
100
AcDbSpline
70
4
71
3
72
8
73
4
40
0
40
0
40
0
40
0
40
1
40
1
40
1
40
1
41
1
10
42.542450689127
20
6.63914595783319
30
0
41
1
10
42.5426869176427
20
6.63894698140737
30
0
41
1
10
42.5429229161726
20
6.63874772946031
30
0
41
1
10
42.5431586837618
20
6.63854820279826
30
0
0
SPLINE
5
16D
100
AcDbEntity
8
1
62
256
6
ByLayer
370
-1
48
1
60
0
100
AcDbSpline
70
4
71
3
72
14
73
10
40
0
40
0
40
0
40
0
40
0.401869826261841
40
0.803739652523682
40
0.904207109089142
40
0.954440837371872
40
0.979557701513237
40
0.992116133583919
40
1
40
1
40
1
40
1
41
1
10
37.6616234825844
20
2.22527230571663
30
0
41
1
10
37.6301127846702
20
2.38800002130361
30
0
41
1
10
37.5670913888419
20
2.7134554524776
30
0
41
1
10
37.4961820025976
20
3.07959624052793
30
0
41
1
10
37.4528728458561
20
3.30334085049572
30
0
41
1
10
37.439067573136
20
3.37454065352682
30
0
41
1
10
37.4322050722199
20
3.41012721805913
30
0
41
1
10
37.4285893510923
20
3.42858975493866
30
0
41
1
10
37.4269887274291
20
3.43684608389046
30
0
41
1
10
37.4263815881595
20
3.44003034388084
30
0
0
SPLINE
5
16E
100
AcDbEntity
8
1
62
256
6
ByLayer
370
-1
48
1
60
0
100
AcDbSpline
70
4
71
3
72
8
73
4
40
0
40
0
40
0
40
0
40
1
40
1
40
1
40
1
41
1
10
42.3416061449648
20
6.72765472313111
30
0
41
1
10
42.3419119439121
20
6.72761483586393
30
0
41
1
10
42.3422176961532
20
6.72757458481701
30
0
41
1
10
42.3425234003998
20
6.72753397015822
30
0
0
SPLINE
5
16F
100
AcDbEntity
8
1
62
256
6
ByLayer
370
-1
48
1
60
0
100
AcDbSpline
70
4
71
3
72
18
73
14
40
0
40
0
40
0
40
0
40
0.171643617771724
40
0.171643617771724
40
0.343287235543451
40
0.343287235543451
40
0.514930853315173
40
0.514930853315173
40
0.686574471086905
40
0.686574471086905
40
0.843273207856101
40
0.843273207856101
40
1
40
1
40
1
40
1
41
1
10
37.3307105213078
20
1.7351744668531
30
0
41
1
10
37.321729857414
20
1.73454862608989
30
0
41
1
10
37.3127443841172
20
1.73398882498878
30
0
41
1
10
37.2947667129293
20
1.73300148242217
30
0
41
1
10
37.285774032489
20
1.7325739144548
30
0
41
1
10
37.2677838784487
20
1.73185112287118
30
0
41
1
10
37.2587859219646
20
1.73155587985406
30
0
41
1
10
37.2407871483006
20
1.73109779446659
30
0
41
1
10
37.2317858480053
20
1.73093493980056
30
0
41
1
10
37.2145660599016
20
1.73075007299275
30
0
41
1
10
37.2063472641186
20
1.73071702823813
30
0
41
1
10
37.1899088639949
20
1.73076131484899
30
0
41
1
10
37.1816888918933
20
1.73083866696837
30
0
41
1
10
37.1734699871789
20
1.7309712155332
30
0
0
SPLINE
5
170
100
AcDbEntity
8
1
62
256
6
ByLayer
370
-1
48
1
60
0
100
AcDbSpline
70
4
71
3
72
8
73
4
40
0
40
0
40
0
40
0
40
1
40
1
40
1
40
1
41
1
10
38.7622705175777
20
1.83084197592947
30
0
41
1
10
38.7161954226909
20
1.83082050026641
30
0
41
1
10
38.6701764436344
20
1.82919660563968
30
0
41
1
10
38.6242135804083
20
1.82597029204928
30
0
0
SPLINE
5
171
100
AcDbEntity
8
1
62
256
6
ByLayer
370
-1
48
1
60
0
100
AcDbSpline
70
4
71
3
72
14
73
10
40
0
40
0
40
0
40
0
40
0.0278688906942296
40
0.280125361774728
40
0.532381832855227
40
0.658510068395476
40
0.784638303935726
40
0.910766539475975
40
1
40
1
40
1
40
1
41
1
10
42.2978123663055
20
6.65097397267911
30
0
41
1
10
42.296405564212
20
6.65101454880039
30
0
41
1
10
42.2822635685762
20
6.65137350220957
30
0
41
1
10
42.2553877045968
20
6.65132165047862
30
0
41
1
10
42.2235526720682
20
6.65073059090798
30
0
41
1
10
42.1980972595078
20
6.64986933797917
30
0
41
1
10
42.1790149816813
20
6.64901153999776
30
0
41
1
10
42.1618044016039
20
6.64803024750654
30
0
41
1
10
42.1509547950933
20
6.64733128779113
30
0
41
1
10
42.1464598812418
20
6.64703174317566
30
0
0
SPLINE
5
172
100
AcDbEntity
8
1
62
256
6
ByLayer
370
-1
48
1
60
0
100
AcDbSpline
70
4
71
3
72
14
73
10
40
0
40
0
40
0
40
0
40
0.027868890694098
40
0.280125361774614
40
0.53238183285513
40
0.658510068395388
40
0.784638303935646
40
0.910766539475904
40
1
40
1
40
1
40
1
41
1
10
37.1732137606445
20
1.81071040316974
30
0
41
1
10
37.174620562738
20
1.81066982704846
30
0
41
1
10
37.1887625583738
20
1.81031087363928
30
0
41
1
10
37.2156384223532
20
1.81036272537023
30
0
41
1
10
37.2474734548817
20
1.81095378494086
30
0
41
1
10
37.2729288674421
20
1.81181503786968
30
0
41
1
10
37.2920111452687
20
1.81267283585109
30
0
41
1
10
37.309221725346
20
1.81365412834231
30
0
41
1
10
37.3200713318566
20
1.81435308805772
30
0
41
1
10
37.3245662457082
20
1.81465263267319
30
0
0
SPLINE
5
173
100
AcDbEntity
8
1
62
256
6
ByLayer
370
-1
48
1
60
0
100
AcDbSpline
70
4
71
3
72
11
73
7
40
0
40
0
40
0
40
0
40
0.25
40
0.5
40
0.75
40
1
40
1
40
1
40
1
41
1
10
42.0721417319267
20
1.91053776377174
30
0
41
1
10
42.1088115376324
20
1.91046904572659
30
0
41
1
10
42.1821811868845
20
1.92314506471908
30
0
41
1
10
42.2794059175984
20
1.97836921106432
30
0
41
1
10
42.3523582522028
20
2.06332581680147
30
0
41
1
10
42.3790944386482
20
2.1331254725774
30
0
41
1
10
42.3862016612185
20
2.16926942585806
30
0
0
SPLINE
5
174
100
AcDbEntity
8
1
62
256
6
ByLayer
370
-1
48
1
60
0
100
AcDbSpline
70
4
71
3
72
27
73
23
40
0
40
0
40
0
40
0
40
0.0625
40
0.125
40
0.140625
40
0.15625
40
0.1875
40
0.25
40
0.3125
40
0.375
40
0.4375
40
0.46875
40
0.5
40
0.5625
40
0.625
40
0.6875
40
0.71875
40
0.75
40
0.78125
40
0.8125
40
0.875
40
1
40
1
40
1
40
1
41
1
10
37.9698263913025
20
6.5511466120771
30
0
41
1
10
37.95793176638
20
6.5511466120771
30
0
41
1
10
37.934142516535
20
6.5511466120771
30
0
41
1
10
37.9073796104594
20
6.5511466120771
30
0
41
1
10
37.8895376730757
20
6.5511466120771
30
0
41
1
10
37.8776430481532
20
6.5511466120771
30
0
41
1
10
37.8568274545389
20
6.5511466120771
30
0
41
1
10
37.8270908922327
20
6.5511466120771
30
0
41
1
10
37.7914070174652
20
6.5511466120771
30
0
41
1
10
37.7557231426977
20
6.5511466120771
30
0
41
1
10
37.7259865803915
20
6.5511466120771
30
0
41
1
10
37.7021973305465
20
6.5511466120771
30
0
41
1
10
37.6784080807016
20
6.5511466120771
30
0
41
1
10
37.6486715183954
20
6.5511466120771
30
0
41
1
10
37.6129876436279
20
6.5511466120771
30
0
41
1
10
37.5832510813217
20
6.5511466120771
30
0
41
1
10
37.5594618314767
20
6.5511466120771
30
0
41
1
10
37.541619894093
20
6.5511466120771
30
0
41
1
10
37.5237779567093
20
6.5511466120771
30
0
41
1
10
37.4999887068643
20
6.5511466120771
30
0
41
1
10
37.4583575196356
20
6.5511466120771
30
0
41
1
10
37.4226736448681
20
6.5511466120771
30
0
41
1
10
37.3988843950232
20
6.5511466120771
30
0
0
SPLINE
5
175
100
AcDbEntity
8
1
62
256
6
ByLayer
370
-1
48
1
60
0
100
AcDbSpline
70
4
71
3
72
11
73
7
40
0
40
0
40
0
40
0
40
0.0084271749958786
40
0.529387158418311
40
0.934578256635759
40
1
40
1
40
1
40
1
41
1
10
41.6877274723148
20
6.23083818414764
30
0
41
1
10
41.6878251711427
20
6.23083908065826
30
0
41
1
10
41.6939624955434
20
6.23089620196757
30
0
41
1
10
41.7047946687747
20
6.23108703786562
30
0
41
1
10
41.7162722384725
20
6.23166250060714
30
0
41
1
10
41.721716990826
20
6.23199818486478
30
0
41
1
10
41.7224738442541
20
6.23204586864998
30
0
0
SPLINE
5
176
100
AcDbEntity
8
1
62
256
6
ByLayer
370
-1
48
1
60
0
100
AcDbSpline
70
4
71
3
72
9
73
5
40
0
40
0
40
0
40
0
40
0.5
40
1
40
1
40
1
40
1
41
1
10
41.7844713013003
20
6.23641207013222
30
0
41
1
10
41.7765981129747
20
6.28976338797563
30
0
41
1
10
41.7572783879123
20
6.41297706691941
30
0
41
1
10
41.7335725613297
20
6.55057551734805
30
0
41
1
10
41.7216552973659
20
6.61718988978686
30
0
0
SPLINE
5
177
100
AcDbEntity
8
1
62
256
6
ByLayer
370
-1
48
1
60
0
100
AcDbSpline
70
4
71
3
72
19
73
15
40
0
40
0
40
0
40
0
40
0.0131218002037729
40
0.102838000185248
40
0.192554200166723
40
0.282270400148198
40
0.327128500138936
40
0.371986600129674
40
0.461702800111149
40
0.551419000092624
40
0.641135200074099
40
0.730851400055574
40
0.82056760003705
40
1
40
1
40
1
40
1
41
1
10
42.1464598812418
20
6.64703174317566
30
0
41
1
10
42.1446013986245
20
6.6469078924236
30
0
41
1
10
42.1300368426217
20
6.64592393880005
30
0
41
1
10
42.102775045542
20
6.64391725565591
30
0
41
1
10
42.0646635274018
20
6.64122887627818
30
0
41
1
10
42.0329019663881
20
6.63903073805719
30
0
41
1
10
42.0074931107573
20
6.63726457890894
30
0
41
1
10
41.9820844950719
20
6.63549383133346
30
0
41
1
10
41.9503241337856
20
6.63327275097635
30
0
41
1
10
41.9122122205073
20
6.63059828484973
30
0
41
1
10
41.8741006944466
20
6.62791771274743
30
0
41
1
10
41.8359894225561
20
6.62523409839196
30
0
41
1
10
41.7851744976496
20
6.6216550639582
30
0
41
1
10
41.7470631573465
20
6.61897336710322
30
0
41
1
10
41.7216552973659
20
6.61718988978686
30
0
0
SPLINE
5
178
100
AcDbEntity
8
1
62
256
6
ByLayer
370
-1
48
1
60
0
100
AcDbSpline
70
4
71
3
72
10
73
6
40
0
40
0
40
0
40
0
40
0.190146666341697
40
0.481693866458686
40
1
40
1
40
1
40
1
41
1
10
41.7224738442479
20
6.23204586864958
30
0
41
1
10
41.7264045802371
20
6.23229351550381
30
0
41
1
10
41.7363592769541
20
6.23299050035732
30
0
41
1
10
41.7570249520394
20
6.23444899607102
30
0
41
1
10
41.7737599389009
20
6.23566019760611
30
0
41
1
10
41.7844713013003
20
6.23641207013222
30
0
0
SPLINE
5
179
100
AcDbEntity
8
1
62
256
6
ByLayer
370
-1
48
1
60
0
100
AcDbSpline
70
4
71
3
72
11
73
7
40
0
40
0
40
0
40
0
40
0.0001630039325239
40
0.429771567357945
40
0.859380130783366
40
1
40
1
40
1
40
1
41
1
10
38.6171438144191
20
1.90540703775221
30
0
41
1
10
38.6171537941201
20
1.90540769010769
30
0
41
1
10
38.637829003988
20
1.9067591406928
30
0
41
1
10
38.6791961353989
20
1.90915941601878
30
0
41
1
10
38.727393627218
20
1.91037890255726
30
0
41
1
10
38.7548835729882
20
1.91054069963101
30
0
41
1
10
38.7616627599013
20
1.91056054456118
30
0
0
SPLINE
5
17A
100
AcDbEntity
8
1
62
256
6
ByLayer
370
-1
48
1
60
0
100
AcDbSpline
70
4
71
3
72
8
73
4
40
0
40
0
40
0
40
0
40
1
40
1
40
1
40
1
41
1
10
42.2996522542562
20
6.65091804202046
30
0
41
1
10
42.2990389943339
20
6.65093766781143
30
0
41
1
10
42.2984256941636
20
6.65095628258206
30
0
41
1
10
42.2978123663195
20
6.65097397267871
30
0
0
SPLINE
5
17B
100
AcDbEntity
8
1
62
256
6
ByLayer
370
-1
48
1
60
0
100
AcDbSpline
70
4
71
3
72
14
73
10
40
0
40
0
40
0
40
0
40
0.25
40
0.25
40
0.499999999999999
40
0.499999999999999
40
0.75
40
0.75
40
1
40
1
40
1
40
1
41
1
10
42.46465369552
20
2.15360719866211
30
0
41
1
10
42.4557930647819
20
2.10840955550398
30
0
41
1
10
42.4392426384556
20
2.06517663290364
30
0
41
1
10
42.3923414030914
20
1.98633824199655
30
0
41
1
10
42.3619878630572
20
1.95093425947493
30
0
41
1
10
42.2912866520022
20
1.8926236496674
30
0
41
1
10
42.2508291112483
20
1.86961208062402
30
0
41
1
10
42.1646200654598
20
1.83869839577014
30
0
41
1
10
42.1195637662458
20
1.830842169927
30
0
41
1
10
42.0736745500857
20
1.83084216989838
30
0
0
SPLINE
5
17C
100
AcDbEntity
8
1
62
256
6
ByLayer
370
-1
48
1
60
0
100
AcDbSpline
70
4
71
3
72
9
73
5
40
0
40
0
40
0
40
0
40
0.5
40
1
40
1
40
1
40
1
41
1
10
39.735513063475
20
1.91053776377177
30
0
41
1
10
39.7350689594039
20
1.9687798554657
30
0
41
1
10
39.732447900611
20
2.08691932317075
30
0
41
1
10
39.7265306513179
20
2.18817099276052
30
0
41
1
10
39.7230473919423
20
2.23084218792442
30
0
0
SPLINE
5
17D
100
AcDbEntity
8
1
62
256
6
ByLayer
370
-1
48
1
60
0
100
AcDbSpline
70
4
71
2
72
6
73
3
40
0
40
0
40
0
40
1
40
1
40
1
41
1
10
40.7192420195496
20
2.23085725610215
30
0
41
1
10
40.7481011427857
20
2.23100792801603
30
0
41
1
10
40.7763321036806
20
2.2341219802401
30
0
0
SPLINE
5
17E
100
AcDbEntity
8
1
62
256
6
ByLayer
370
-1
48
1
60
0
100
AcDbSpline
70
4
71
3
72
8
73
4
40
0
40
0
40
0
40
0
40
1
40
1
40
1
40
1
41
1
10
37.171469821828
20
1.73100548565753
30
0
41
1
10
37.1711614999921
20
1.73101107973531
30
0
41
1
10
37.1708531829999
20
1.73101705782096
30
0
41
1
10
37.1705448722792
20
1.73102341986294
30
0
0
SPLINE
5
17F
100
AcDbEntity
8
1
62
256
6
ByLayer
370
-1
48
1
60
0
100
AcDbSpline
70
4
71
3
72
10
73
6
40
0
40
0
40
0
40
0
40
0.453921360825139
40
0.907842721650277
40
1
40
1
40
1
40
1
41
1
10
42.5991059391499
20
6.39293353320772
30
0
41
1
10
42.5929289658918
20
6.42533393894379
30
0
41
1
10
42.5705236292831
20
6.48819804682202
30
0
41
1
10
42.526050792078
20
6.54664457703075
30
0
41
1
10
42.4966126043026
20
6.57317121668001
30
0
41
1
10
42.491508436044
20
6.57748572605638
30
0
0
SPLINE
5
180
100
AcDbEntity
8
1
62
256
6
ByLayer
370
-1
48
1
60
0
100
AcDbSpline
70
4
71
1
72
4
73
2
40
0
40
0
40
1
40
1
41
1
10
40.7763321036806
20
2.2341219802401
30
0
41
1
10
41.5716552841265
20
2.32624668561269
30
0
0
SPLINE
5
181
100
AcDbEntity
8
1
62
256
6
ByLayer
370
-1
48
1
60
0
100
AcDbSpline
70
4
71
3
72
8
73
4
40
0
40
0
40
0
40
0
40
1
40
1
40
1
40
1
41
1
10
42.9644255494181
20
4.73452609687791
30
0
41
1
10
42.9644843951909
20
4.73482996041042
30
0
41
1
10
42.9645432384194
20
4.73513382486519
30
0
41
1
10
42.9646020791023
20
4.73543769023615
30
0
0
SPLINE
5
182
100
AcDbEntity
8
1
62
256
6
ByLayer
370
-1
48
1
60
0
100
AcDbSpline
70
4
71
1
72
4
73
2
40
0
40
0
40
1
40
1
41
1
10
37.9698263913025
20
6.5511466120771
30
0
41
1
10
39.735513063475
20
6.5511466120771
30
0
0
SPLINE
5
183
100
AcDbEntity
8
1
62
256
6
ByLayer
370
-1
48
1
60
0
100
AcDbSpline
70
4
71
3
72
11
73
7
40
0
40
0
40
0
40
0
40
0.0084271749954746
40
0.529387158418154
40
0.934578256635794
40
1
40
1
40
1
40
1
41
1
10
37.7583673115698
20
2.2308461917012
30
0
41
1
10
37.7582696127419
20
2.23084529519059
30
0
41
1
10
37.7521322883412
20
2.23078817388131
30
0
41
1
10
37.74130011511
20
2.23059733798323
30
0
41
1
10
37.7298225454122
20
2.2300218752417
30
0
41
1
10
37.7243777930587
20
2.22968619098407
30
0
41
1
10
37.7236209396306
20
2.22963850719887
30
0
0
SPLINE
5
184
100
AcDbEntity
8
1
62
256
6
ByLayer
370
-1
48
1
60
0
100
AcDbSpline
70
4
71
3
72
8
73
4
40
0
40
0
40
0
40
0
40
1
40
1
40
1
40
1
41
1
10
36.9297908011914
20
1.82253841801565
30
0
41
1
10
36.9295545726756
20
1.82273739444148
30
0
41
1
10
36.929318574251
20
1.82293664638854
30
0
41
1
10
36.9290828068724
20
1.82313617305061
30
0
0
SPLINE
5
185
100
AcDbEntity
8
1
62
256
6
ByLayer
370
-1
48
1
60
0
100
AcDbSpline
70
4
71
3
72
8
73
4
40
0
40
0
40
0
40
0
40
1
40
1
40
1
40
1
41
1
10
42.2987715160392
20
6.73071316031564
30
0
41
1
10
42.2990798491073
20
6.73070818774241
30
0
41
1
10
42.2993881794324
20
6.73070307263976
30
0
41
1
10
42.2996965068182
20
6.73069781501334
30
0
0
SPLINE
5
186
100
AcDbEntity
8
1
62
256
6
ByLayer
370
-1
48
1
60
0
100
AcDbSpline
70
4
71
3
72
27
73
23
40
0
40
0
40
0
40
0
40
0.0625
40
0.125
40
0.140625
40
0.15625
40
0.1875
40
0.25
40
0.3125
40
0.375
40
0.4375
40
0.46875
40
0.5
40
0.5625
40
0.625
40
0.6875
40
0.71875
40
0.75
40
0.78125
40
0.8125
40
0.875
40
1
40
1
40
1
40
1
41
1
10
41.5011997356474
20
1.91053776377174
30
0
41
1
10
41.5130943605699
20
1.91053776377174
30
0
41
1
10
41.5368836104149
20
1.91053776377174
30
0
41
1
10
41.5636465164905
20
1.91053776377174
30
0
41
1
10
41.5814884538742
20
1.91053776377174
30
0
41
1
10
41.5933830787967
20
1.91053776377174
30
0
41
1
10
41.6141986724111
20
1.91053776377174
30
0
41
1
10
41.6439352347173
20
1.91053776377174
30
0
41
1
10
41.6796191094847
20
1.91053776377174
30
0
41
1
10
41.7153029842522
20
1.91053776377174
30
0
41
1
10
41.7450395465584
20
1.91053776377174
30
0
41
1
10
41.7688287964034
20
1.91053776377174
30
0
41
1
10
41.7926180462484
20
1.91053776377174
30
0
41
1
10
41.8223546085545
20
1.91053776377174
30
0
41
1
10
41.858038483322
20
1.91053776377174
30
0
41
1
10
41.8877750456282
20
1.91053776377174
30
0
41
1
10
41.9115642954732
20
1.91053776377174
30
0
41
1
10
41.9294062328569
20
1.91053776377174
30
0
41
1
10
41.9472481702406
20
1.91053776377174
30
0
41
1
10
41.9710374200856
20
1.91053776377174
30
0
41
1
10
42.0126686073143
20
1.91053776377174
30
0
41
1
10
42.0483524820818
20
1.91053776377174
30
0
41
1
10
42.0721417319267
20
1.91053776377174
30
0
0
SPLINE
5
187
100
AcDbEntity
8
1
62
256
6
ByLayer
370
-1
48
1
60
0
100
AcDbSpline
70
4
71
3
72
32
73
28
40
0
40
0
40
0
40
0
40
0.125
40
0.15625
40
0.1875
40
0.203125
40
0.21875
40
0.25
40
0.28125
40
0.3125
40
0.34375
40
0.359375
40
0.375
40
0.4375
40
0.46875
40
0.5
40
0.53125
40
0.546875
40
0.5625
40
0.625
40
0.6875
40
0.75
40
0.8125
40
0.84375
40
0.859375
40
0.875
40
1
40
1
40
1
40
1
41
1
10
36.8719201878
20
2.06875084264112
30
0
41
1
10
36.9072053641846
20
2.07552926023553
30
0
41
1
10
36.9513118346653
20
2.08400228222851
30
0
41
1
10
37.0042395992422
20
2.09416990862013
30
0
41
1
10
37.0262963280402
20
2.0984065068769
30
0
41
1
10
37.0439284355595
20
2.10179545389329
30
0
41
1
10
37.0615739946023
20
2.10519450131289
30
0
41
1
10
37.0837418200589
20
2.10948181792173
30
0
41
1
10
37.1103399813925
20
2.11464971262868
30
0
41
1
10
37.1368106021242
20
2.11981829993349
30
0
41
1
10
37.1586266160919
20
2.12410081353673
30
0
41
1
10
37.1760634107918
20
2.12752972596715
30
0
41
1
10
37.2022125892692
20
2.13267306266044
30
0
41
1
10
37.2327215155655
20
2.13867246890442
30
0
41
1
10
37.2675885274599
20
2.14552918030429
30
0
41
1
10
37.2937447489509
20
2.1506729333737
30
0
41
1
10
37.315512379401
20
2.15495379852513
30
0
41
1
10
37.3330002410717
20
2.15839261506523
30
0
41
1
10
37.3588308661536
20
2.16347477973281
30
0
41
1
10
37.3974011363413
20
2.17111312146201
30
0
41
1
10
37.4474299884328
20
2.18112334059202
30
0
41
1
10
37.4951878395061
20
2.19078530164077
30
0
41
1
10
37.5323889225682
20
2.19840591295215
30
0
41
1
10
37.5567322114698
20
2.20344296047006
30
0
41
1
10
37.5701703201041
20
2.20624009809356
30
0
41
1
10
37.604084589432
20
2.21329759181688
30
0
41
1
10
37.634531063642
20
2.21963409398188
30
0
41
1
10
37.6616234825844
20
2.22527230571663
30
0
0
SPLINE
5
188
100
AcDbEntity
8
1
62
256
6
ByLayer
370
-1
48
1
60
0
100
AcDbSpline
70
4
71
1
72
4
73
2
40
0
40
0
40
1
40
1
41
1
10
39.7230473919423
20
2.23084218792442
30
0
41
1
10
40.7192420900341
20
2.23084218792442
30
0
0
SPLINE
5
189
100
AcDbEntity
8
1
62
256
6
ByLayer
370
-1
48
1
60
0
100
AcDbSpline
70
4
71
1
72
4
73
2
40
0
40
0
40
1
40
1
41
1
10
39.7230473919423
20
6.23084218792442
30
0
41
1
10
38.7268526938506
20
6.23084218792442
30
0
0
SPLINE
5
18A
100
AcDbEntity
8
1
62
256
6
ByLayer
370
-1
48
1
60
0
100
AcDbSpline
70
4
71
3
72
15
73
11
40
0
40
0
40
0
40
0
40
0.003982371183418
40
0.0560173982325598
40
0.160087452330843
40
0.368227560527411
40
0.784507776920545
40
0.888577831018829
40
0.992647885117112
40
1
40
1
40
1
40
1
41
1
10
42.8857905315457
20
4.7497506171259
30
0
41
1
10
42.885830849819
20
4.7499602670319
30
0
41
1
10
42.8863969299397
20
4.75290943427387
30
0
41
1
10
42.8879686579046
20
4.76134510622438
30
0
41
1
10
42.8909396586057
20
4.78065012875939
30
0
41
1
10
42.8946296066502
20
4.81974873965586
30
0
41
1
10
42.893587956446
20
4.85921956009028
30
0
41
1
10
42.8893710989808
20
4.89251121184589
30
0
41
1
10
42.8874429079342
20
4.90387804125822
30
0
41
1
10
42.886363981837
20
4.90975115313216
30
0
41
1
10
42.8862924579716
20
4.91013867264439
30
0
0
SPLINE
5
18B
100
AcDbEntity
8
1
62
256
6
ByLayer
370
-1
48
1
60
0
100
AcDbSpline
70
4
71
3
72
11
73
7
40
0
40
0
40
0
40
0
40
0.0001630039326231
40
0.429771567357995
40
0.859380130783366
40
1
40
1
40
1
40
1
41
1
10
40.8538823125309
20
6.55627733809663
30
0
41
1
10
40.8538723328298
20
6.55627668574118
30
0
41
1
10
40.8331971229619
20
6.55492523515608
30
0
41
1
10
40.791829991551
20
6.5525249598301
30
0
41
1
10
40.7436324997319
20
6.55130547329159
30
0
41
1
10
40.7161425539618
20
6.55114367621783
30
0
41
1
10
40.7093633670486
20
6.55112383128767
30
0
0
SPLINE
5
18C
100
AcDbEntity
8
1
62
256
6
ByLayer
370
-1
48
1
60
0
100
AcDbSpline
70
4
71
3
72
8
73
4
40
0
40
0
40
0
40
0
40
1
40
1
40
1
40
1
41
1
10
37.0074102450824
20
6.30716578607505
30
0
41
1
10
37.0074690912294
20
6.30746967966368
30
0
41
1
10
37.0075282746179
20
6.30777347667956
30
0
41
1
10
37.0075877950245
20
6.30807717718673
30
0
0
SPLINE
5
18D
100
AcDbEntity
8
1
62
256
6
ByLayer
370
-1
48
1
60
0
100
AcDbSpline
70
4
71
3
72
8
73
4
40
0
40
0
40
0
40
0
40
1
40
1
40
1
40
1
41
1
10
36.5078159572908
20
3.72715827897093
30
0
41
1
10
36.5077571028967
20
3.72685441543842
30
0
41
1
10
36.5076982553576
20
3.72655055098366
30
0
41
1
10
36.5076394146747
20
3.72624668561269
30
0
0
SPLINE
5
18E
100
AcDbEntity
8
1
62
256
6
ByLayer
370
-1
48
1
60
0
100
AcDbSpline
70
4
71
3
72
18
73
14
40
0
40
0
40
0
40
0
40
0.0103342694142162
40
0.0214541090837194
40
0.0659334677617322
40
0.110412826439745
40
0.121532666109248
40
0.132652505778751
40
0.154892185117758
40
0.19937154379577
40
0.288330261151796
40
0.644165130575898
40
1
40
1
40
1
40
1
41
1
10
36.5847342503686
20
3.5515457032011
30
0
41
1
10
36.5856752109086
20
3.5464478382714
30
0
41
1
10
36.5877477727049
20
3.5358695178482
30
0
41
1
10
36.5941211148333
20
3.50325252133723
30
0
41
1
10
36.6037175218516
20
3.45378760588758
30
0
41
1
10
36.6132622918295
20
3.40435495421471
30
0
41
1
10
36.6196338007283
20
3.37139786212111
30
0
41
1
10
36.623883227246
20
3.34942804984692
30
0
41
1
10
36.63132540245
20
3.31097098856296
30
0
41
1
10
36.6462278564781
20
3.2340339863093
30
0
41
1
10
36.6931304408756
20
2.99215211456746
30
0
41
1
10
36.7697381313265
20
2.5964146304274
30
0
41
1
10
36.8378620823777
20
2.2446305568609
30
0
41
1
10
36.8719201878
20
2.06875084264112
30
0
0
SPLINE
5
18F
100
AcDbEntity
8
1
62
256
6
ByLayer
370
-1
48
1
60
0
100
AcDbSpline
70
4
71
3
72
18
73
14
40
0
40
0
40
0
40
0
40
0.156501894804183
40
0.156501894804183
40
0.31300378960836
40
0.31300378960836
40
0.469505684412532
40
0.469505684412532
40
0.626007579216704
40
0.626007579216704
40
0.782509474020882
40
0.782509474020882
40
1
40
1
40
1
40
1
41
1
10
42.9647777567544
20
4.92533493045306
30
0
41
1
10
42.9666540328049
20
4.9155484473759
30
0
41
1
10
42.9682394012942
20
4.90570123120426
30
0
41
1
10
42.9708198258482
20
4.88593811205476
30
0
41
1
10
42.9718160344646
20
4.87601338184103
30
0
41
1
10
42.9732151048696
20
4.85613077498033
30
0
41
1
10
42.9736185915558
20
4.84616401772803
30
0
41
1
10
42.9738313052762
20
4.82623301568196
30
0
41
1
10
42.9736406273195
20
4.81625986866709
30
0
41
1
10
42.9726662237733
20
4.79635173700404
30
0
41
1
10
42.9718820629644
20
4.7864078603499
30
0
41
1
10
42.9693041576227
20
4.76273874681067
30
0
41
1
10
42.9672336021791
20
4.74902741586163
30
0
41
1
10
42.9646020791023
20
4.73543769023615
30
0
0
SPLINE
5
190
100
AcDbEntity
8
1
62
256
6
ByLayer
370
-1
48
1
60
0
100
AcDbSpline
70
4
71
3
72
8
73
4
40
0
40
0
40
0
40
0
40
1
40
1
40
1
40
1
41
1
10
42.4648312616266
20
2.1545185897738
30
0
41
1
10
42.4647724154796
20
2.15421469618516
30
0
41
1
10
42.4647132267017
20
2.15391089916929
30
0
41
1
10
42.46465369552
20
2.15360719866211
30
0
0
SPLINE
5
191
100
AcDbEntity
8
1
62
256
6
ByLayer
370
-1
48
1
60
0
100
AcDbSpline
70
4
71
2
72
6
73
3
40
0
40
0
40
0
40
1
40
1
40
1
41
1
10
38.7268527643351
20
6.23082711974669
30
0
41
1
10
38.6979936410989
20
6.23067644783282
30
0
41
1
10
38.6697626802041
20
6.22756239560874
30
0
0
SPLINE
5
192
100
AcDbEntity
8
1
62
256
6
ByLayer
370
-1
48
1
60
0
100
AcDbSpline
70
4
71
3
72
14
73
10
40
0
40
0
40
0
40
0
40
0.25
40
0.25
40
0.5
40
0.5
40
0.75
40
0.75
40
1
40
1
40
1
40
1
41
1
10
37.0075877950245
20
6.30807717718673
30
0
41
1
10
37.0164484257883
20
6.35327482034486
30
0
41
1
10
37.0329988521344
20
6.3965077429452
30
0
41
1
10
37.0799000875255
20
6.4753461338523
30
0
41
1
10
37.1102536275666
20
6.51075011637391
30
0
41
1
10
37.1809548386214
20
6.56906072618145
30
0
41
1
10
37.2214123793683
20
6.59207229522482
30
0
41
1
10
37.3076214251297
20
6.62298598007874
30
0
41
1
10
37.3526777243239
20
6.63084220592185
30
0
41
1
10
37.3985669404583
20
6.63084220595047
30
0
0
SPLINE
5
193
100
AcDbEntity
8
1
62
256
6
ByLayer
370
-1
48
1
60
0
100
AcDbSpline
70
4
71
3
72
8
73
4
40
0
40
0
40
0
40
0
40
1
40
1
40
1
40
1
41
1
10
36.7947707267541
20
2.05263259737976
30
0
41
1
10
36.794711885235
20
2.05293646706744
30
0
41
1
10
36.7946530522859
20
2.05324033790325
30
0
41
1
10
36.7945942279085
20
2.05354420987774
30
0
0
SPLINE
5
194
100
AcDbEntity
8
1
62
256
6
ByLayer
370
-1
48
1
60
0
100
AcDbSpline
70
4
71
3
72
8
73
4
40
0
40
0
40
0
40
0
40
1
40
1
40
1
40
1
41
1
10
37.1734699871789
20
1.7309712155332
30
0
41
1
10
37.1731616541109
20
1.73097618810644
30
0
41
1
10
37.1728533227968
20
1.73098130320909
30
0
41
1
10
37.172544993433
20
1.7309865608355
30
0
0
SPLINE
5
195
100
AcDbEntity
8
1
62
256
6
ByLayer
370
-1
48
1
60
0
100
AcDbSpline
70
4
71
3
72
9
73
5
40
0
40
0
40
0
40
0
40
0.443509303061225
40
1
40
1
40
1
40
1
41
1
10
42.491508436044
20
6.57748572605638
30
0
41
1
10
42.4714719855331
20
6.59442236474427
30
0
41
1
10
42.4215653518434
20
6.62697534928674
30
0
41
1
10
42.3642617899516
20
6.64415593057288
30
0
41
1
10
42.3316856324391
20
6.64850386654038
30
0
0
SPLINE
5
196
100
AcDbEntity
8
1
62
256
6
ByLayer
370
-1
48
1
60
0
100
AcDbSpline
70
4
71
3
72
8
73
4
40
0
40
0
40
0
40
0
40
1
40
1
40
1
40
1
41
1
10
42.67747076379
20
6.40905177846912
30
0
41
1
10
42.6775296053089
20
6.40874790878141
30
0
41
1
10
42.6775884436463
20
6.4084440379456
30
0
41
1
10
42.6776472788004
20
6.4081401659711
30
0
0
SPLINE
5
197
100
AcDbEntity
8
1
62
256
6
ByLayer
370
-1
48
1
60
0
100
AcDbSpline
70
4
71
3
72
9
73
5
40
0
40
0
40
0
40
0
40
0.443509303061216
40
1
40
1
40
1
40
1
41
1
10
36.9795176909059
20
1.88419864979247
30
0
41
1
10
36.9995541414168
20
1.86726201110457
30
0
41
1
10
37.0494607751066
20
1.83470902656211
30
0
41
1
10
37.1067643369983
20
1.81752844527597
30
0
41
1
10
37.1393404945108
20
1.81318050930847
30
0
0
SPLINE
5
198
100
AcDbEntity
8
1
62
256
6
ByLayer
370
-1
48
1
60
0
100
AcDbSpline
70
4
71
3
72
11
73
7
40
0
40
0
40
0
40
0
40
0.25
40
0.5
40
0.75
40
1
40
1
40
1
40
1
41
1
10
37.8744394997582
20
6.13543769023616
30
0
41
1
10
37.8832024851304
20
6.16601940107796
30
0
41
1
10
37.9005021925141
20
6.23005438058988
30
0
41
1
10
37.9253714887717
20
6.3328117499303
30
0
41
1
10
37.9487590454755
20
6.44036424593111
30
0
41
1
10
37.9630671662101
20
6.51408043889259
30
0
41
1
10
37.9698263913025
20
6.5511466120771
30
0
0
SPLINE
5
199
100
AcDbEntity
8
1
62
256
6
ByLayer
370
-1
48
1
60
0
100
AcDbSpline
70
4
71
3
72
18
73
14
40
0
40
0
40
0
40
0
40
0.409045703814912
40
0.818091407629823
40
0.920352833583551
40
0.945918190071983
40
0.958700868316199
40
0.965092207438307
40
0.971483546560415
40
0.984266224804631
40
0.99545106826832
40
0.997048903048847
40
1
40
1
40
1
40
1
41
1
10
42.3862899219761
20
2.16972522253718
30
0
41
1
10
42.4543822936758
20
2.52151481378181
30
0
41
1
10
42.5905820583827
20
3.22512561921454
30
0
41
1
10
42.7438521602424
20
4.01664855228549
30
0
41
1
10
42.8331951700724
20
4.47844147107244
30
0
41
1
10
42.8566464237341
20
4.59930601593049
30
0
41
1
10
42.864096535534
20
4.63776921403155
30
0
41
1
10
42.8683480842911
20
4.65975177916769
30
0
41
1
10
42.872594862107
20
4.68174046413165
30
0
41
1
10
42.8776281327521
20
4.70786599628647
30
0
41
1
10
42.8818931894111
20
4.72983204811419
30
0
41
1
10
42.8845373759052
20
4.74332407262844
30
0
41
1
10
42.8853040374381
20
4.74722090949186
30
0
41
1
10
42.8857905315457
20
4.7497506171259
30
0
0
SPLINE
5
19A
100
AcDbEntity
8
1
62
256
6
ByLayer
370
-1
48
1
60
0
100
AcDbSpline
70
4
71
3
72
8
73
4
40
0
40
0
40
0
40
0
40
1
40
1
40
1
40
1
41
1
10
36.5074637370227
20
3.53634944539579
30
0
41
1
10
36.5075220289472
20
3.53604547345876
30
0
41
1
10
36.5075805952457
20
3.53574155481655
30
0
41
1
10
36.5076394357755
20
3.53543769023617
30
0
0
SPLINE
5
19B
100
AcDbEntity
8
1
62
256
6
ByLayer
370
-1
48
1
60
0
100
AcDbSpline
70
4
71
3
72
8
73
4
40
0
40
0
40
0
40
0
40
1
40
1
40
1
40
1
41
1
10
37.172544993433
20
1.7309865608355
30
0
41
1
10
37.1721865995584
20
1.73099267493836
30
0
41
1
10
37.171828208919
20
1.73099898321422
30
0
41
1
10
37.171469821828
20
1.73100548565753
30
0
0
SPLINE
5
19C
100
AcDbEntity
8
1
62
256
6
ByLayer
370
-1
48
1
60
0
100
AcDbSpline
70
4
71
3
72
9
73
5
40
0
40
0
40
0
40
0
40
0.5
40
1
40
1
40
1
40
1
41
1
10
37.6616234825844
20
2.22527230571663
30
0
41
1
10
37.6765441960715
20
2.17192098787322
30
0
41
1
10
37.7077862772112
20
2.04870730892944
30
0
41
1
10
37.7366463638882
20
1.9111088585008
30
0
41
1
10
37.749370829584
20
1.84449448606202
30
0
0
SPLINE
5
19D
100
AcDbEntity
8
1
62
256
6
ByLayer
370
-1
48
1
60
0
100
AcDbSpline
70
4
71
3
72
11
73
7
40
0
40
0
40
0
40
0
40
0.25
40
0.5
40
0.75
40
1
40
1
40
1
40
1
41
1
10
37.3988843950232
20
6.5511466120771
30
0
41
1
10
37.3622145893175
20
6.55121533012226
30
0
41
1
10
37.2888449400654
20
6.53853931112977
30
0
41
1
10
37.1916202093516
20
6.48331516478453
30
0
41
1
10
37.1186678747471
20
6.39835855904738
30
0
41
1
10
37.0919316883017
20
6.32855890327144
30
0
41
1
10
37.0848244657315
20
6.29241494999079
30
0
0
SPLINE
5
19E
100
AcDbEntity
8
1
62
256
6
ByLayer
370
-1
48
1
60
0
100
AcDbSpline
70
4
71
3
72
18
73
14
40
0
40
0
40
0
40
0
40
0.409045703814912
40
0.818091407629823
40
0.920352833583551
40
0.945918190071983
40
0.958700868316199
40
0.965092207438307
40
0.971483546560415
40
0.984266224804631
40
0.99545106826832
40
0.997048903048847
40
1
40
1
40
1
40
1
41
1
10
37.0847362049739
20
6.29195915331167
30
0
41
1
10
37.016642995656
20
5.94016956206704
30
0
41
1
10
36.8804418007354
20
5.23655875663431
30
0
41
1
10
36.7271705662645
20
4.44503582356336
30
0
41
1
10
36.6378271128621
20
3.9832429047764
30
0
41
1
10
36.6143759295092
20
3.86237835991835
30
0
41
1
10
36.6069258875963
20
3.8239151618173
30
0
41
1
10
36.6026743948283
20
3.80193259668116
30
0
41
1
10
36.5984277870731
20
3.77994391171723
30
0
41
1
10
36.5933947755729
20
3.75381837956238
30
0
41
1
10
36.5891299275078
20
3.73185232773466
30
0
41
1
10
36.5864858767952
20
3.71836030322041
30
0
41
1
10
36.585719283612
20
3.71446346635699
30
0
41
1
10
36.58523284178
20
3.71193375872295
30
0
0
SPLINE
5
19F
100
AcDbEntity
8
1
62
256
6
ByLayer
370
-1
48
1
60
0
100
AcDbSpline
70
4
71
3
72
8
73
4
40
0
40
0
40
0
40
0
40
1
40
1
40
1
40
1
41
1
10
42.2996965068182
20
6.73069781501334
30
0
41
1
10
42.3000549006927
20
6.73069170091048
30
0
41
1
10
42.3004132913322
20
6.73068539263463
30
0
41
1
10
42.3007716784233
20
6.73067889019131
30
0
0
SPLINE
5
1A0
100
AcDbEntity
8
1
62
256
6
ByLayer
370
-1
48
1
60
0
100
AcDbSpline
70
4
71
3
72
8
73
4
40
0
40
0
40
0
40
0
40
1
40
1
40
1
40
1
41
1
10
37.1713738726937
20
1.81076633382838
30
0
41
1
10
37.171987132616
20
1.81074670803741
30
0
41
1
10
37.1726004327863
20
1.81072809326679
30
0
41
1
10
37.1732137606305
20
1.81071040317013
30
0
0
SPLINE
5
1A1
100
AcDbEntity
8
1
62
256
6
ByLayer
370
-1
48
1
60
0
100
AcDbSpline
70
4
71
3
72
11
73
7
40
0
40
0
40
0
40
0
40
0.25
40
0.5
40
0.75
40
1
40
1
40
1
40
1
41
1
10
41.5716552841265
20
2.32624668561269
30
0
41
1
10
41.5665440805361
20
2.29566497477089
30
0
41
1
10
41.555798552811
20
2.231629995259
30
0
41
1
10
41.5384360857911
20
2.12887262591855
30
0
41
1
10
41.52015462954
20
2.02132012991774
30
0
41
1
10
41.5075536907826
20
1.94760393695626
30
0
41
1
10
41.5011997356474
20
1.91053776377174
30
0
0
SPLINE
5
1A2
100
AcDbEntity
8
1
62
256
6
ByLayer
370
-1
48
1
60
0
100
AcDbSpline
70
4
71
1
72
4
73
2
40
0
40
0
40
1
40
1
41
1
10
38.6697626802041
20
6.22756239560874
30
0
41
1
10
37.8744394997582
20
6.13543769023616
30
0
0
SPLINE
5
1A3
100
AcDbEntity
8
1
62
256
6
ByLayer
370
-1
48
1
60
0
100
AcDbSpline
70
4
71
3
72
8
73
4
40
0
40
0
40
0
40
0
40
1
40
1
40
1
40
1
41
1
10
42.5431586837618
20
6.63854820279826
30
0
41
1
10
42.6121225326883
20
6.5801852000854
30
0
41
1
10
42.6602594345332
20
6.49793461737764
30
0
41
1
10
42.67747076379
20
6.40905177846909
30
0
0
SPLINE
5
1A4
100
AcDbEntity
8
1
62
256
6
ByLayer
370
-1
48
1
60
0
100
AcDbSpline
70
4
71
3
72
9
73
5
40
0
40
0
40
0
40
0
40
0.5
40
1
40
1
40
1
40
1
41
1
10
39.735513063475
20
6.55114661207708
30
0
41
1
10
39.7350689594039
20
6.49290452038315
30
0
41
1
10
39.732447900611
20
6.3747650526781
30
0
41
1
10
39.7265306513179
20
6.27351338308836
30
0
41
1
10
39.7230473919423
20
6.23084218792442
30
0
0
SPLINE
5
1A5
100
AcDbEntity
8
1
62
256
6
ByLayer
370
-1
48
1
60
0
100
AcDbSpline
70
4
71
2
72
6
73
3
40
0
40
0
40
0
40
1
40
1
40
1
41
1
10
37.4263964150574
20
3.82165118330099
30
0
41
1
10
37.3895565244721
20
3.63084218792443
30
0
41
1
10
37.4263964150574
20
3.44003319254787
30
0
0
SPLINE
5
1A6
100
AcDbEntity
8
1
62
256
6
ByLayer
370
-1
48
1
60
0
100
AcDbSpline
70
4
71
3
72
8
73
4
40
0
40
0
40
0
40
0
40
1
40
1
40
1
40
1
41
1
10
40.8480279295336
20
6.63571408379957
30
0
41
1
10
40.8483355522452
20
6.6357356770439
30
0
41
1
10
40.8486431743345
20
6.63575727148702
30
0
41
1
10
40.8489507958011
20
6.63577886712892
30
0
0
SPLINE
5
1A7
100
AcDbEntity
8
1
62
256
6
ByLayer
370
-1
48
1
60
0
100
AcDbSpline
70
4
71
2
72
6
73
3
40
0
40
0
40
0
40
1
40
1
40
1
41
1
10
42.0196983688272
20
4.64003319254789
30
0
41
1
10
42.0565382594125
20
4.83084218792442
30
0
41
1
10
42.0196983688272
20
5.02165118330097
30
0
0
SPLINE
5
1A8
100
AcDbEntity
8
1
62
256
6
ByLayer
370
-1
48
1
60
0
100
AcDbSpline
70
4
71
3
72
8
73
4
40
0
40
0
40
0
40
0
40
1
40
1
40
1
40
1
41
1
10
36.9290828068724
20
1.82313617305059
30
0
41
1
10
36.860118957942
20
1.88149917576345
30
0
41
1
10
36.8119820560652
20
1.96374975847121
30
0
41
1
10
36.794770726754
20
2.05263259737976
30
0
0
SPLINE
5
1A9
100
AcDbEntity
8
1
62
256
6
ByLayer
370
-1
48
1
60
0
100
AcDbSpline
70
4
71
3
72
8
73
4
40
0
40
0
40
0
40
0
40
1
40
1
40
1
40
1
41
1
10
38.7631956375202
20
1.83084218792442
30
0
41
1
10
38.7628872636591
20
1.83084218792442
30
0
41
1
10
38.7625788903287
20
1.83084211725941
30
0
41
1
10
38.7622705175777
20
1.83084197592947
30
0
0
SPLINE
5
1AA
100
AcDbEntity
8
1
62
256
6
ByLayer
370
-1
48
1
60
0
100
AcDbSpline
70
4
71
3
72
13
73
9
40
0
40
0
40
0
40
0
40
0.0429204910533967
40
0.106725791649837
40
0.234336392842717
40
0.489557595228478
40
0.744778797614239
40
1
40
1
40
1
40
1
41
1
10
40.7093633670486
20
6.55112383128767
30
0
41
1
10
40.6954314214087
20
6.5510830478587
30
0
41
1
10
40.6607873754073
20
6.55119225064988
30
0
41
1
10
40.584717271028
20
6.55112059991944
30
0
41
1
10
40.4397314401784
20
6.5511639535155
30
0
41
1
10
40.2326082708654
20
6.55114083159762
30
0
41
1
10
39.9840606859891
20
6.55114661207708
30
0
41
1
10
39.8183622709797
20
6.55114661207708
30
0
41
1
10
39.735513063475
20
6.55114661207708
30
0
0
SPLINE
5
1AB
100
AcDbEntity
8
1
62
256
6
ByLayer
370
-1
48
1
60
0
100
AcDbSpline
70
4
71
3
72
8
73
4
40
0
40
0
40
0
40
0
40
1
40
1
40
1
40
1
41
1
10
37.1306353443144
20
1.73402965271777
30
0
41
1
10
37.1303295453673
20
1.73406953998492
30
0
41
1
10
37.1300237934566
20
1.73410979103184
30
0
41
1
10
37.1297180898705
20
1.73415040569063
30
0
0
SPLINE
5
1AC
100
AcDbEntity
8
1
62
256
6
ByLayer
370
-1
48
1
60
0
100
AcDbSpline
70
4
71
3
72
18
73
14
40
0
40
0
40
0
40
0
40
0.171643617771762
40
0.171643617771762
40
0.343287235543476
40
0.343287235543476
40
0.514930853315226
40
0.514930853315226
40
0.686574471086938
40
0.686574471086938
40
0.843273207856142
40
0.843273207856142
40
1
40
1
40
1
40
1
41
1
10
42.1415309819062
20
6.72650990899575
30
0
41
1
10
42.1505116458003
20
6.72713574975896
30
0
41
1
10
42.1594971190973
20
6.72769555086006
30
0
41
1
10
42.1774747902857
20
6.72868289342668
30
0
41
1
10
42.1864674707263
20
6.72911046139404
30
0
41
1
10
42.204457624767
20
6.72983325297767
30
0
41
1
10
42.2134555812514
20
6.73012849599482
30
0
41
1
10
42.2314543549158
20
6.73058658138226
30
0
41
1
10
42.2404556552113
20
6.73074943604828
30
0
41
1
10
42.2576754433156
20
6.73093430285613
30
0
41
1
10
42.2658942390987
20
6.73096734761072
30
0
41
1
10
42.2823326392229
20
6.73092306099986
30
0
41
1
10
42.2905526113246
20
6.73084570888048
30
0
41
1
10
42.2987715160392
20
6.73071316031564
30
0
0
SPLINE
5
1AD
100
AcDbEntity
8
1
62
256
6
ByLayer
370
-1
48
1
60
0
100
AcDbSpline
70
4
71
3
72
19
73
15
40
0
40
0
40
0
40
0
40
0.0131218002037503
40
0.102838000185227
40
0.192554200166705
40
0.282270400148182
40
0.327128500138921
40
0.371986600129659
40
0.461702800111137
40
0.551419000092614
40
0.641135200074091
40
0.730851400055568
40
0.820567600037046
40
1
40
1
40
1
40
1
41
1
10
37.3245662457082
20
1.81465263267319
30
0
41
1
10
37.3264247283255
20
1.81477648342525
30
0
41
1
10
37.3409892843282
20
1.81576043704879
30
0
41
1
10
37.368251081408
20
1.81776712019294
30
0
41
1
10
37.4063625995481
20
1.82045549957067
30
0
41
1
10
37.4381241605618
20
1.82265363779166
30
0
41
1
10
37.4635330161927
20
1.82441979693991
30
0
41
1
10
37.488941631878
20
1.82619054451538
30
0
41
1
10
37.5207019931643
20
1.8284116248725
30
0
41
1
10
37.5588139064427
20
1.83108609099912
30
0
41
1
10
37.5969254325033
20
1.83376666310141
30
0
41
1
10
37.6350367043938
20
1.83645027745689
30
0
41
1
10
37.6858516293003
20
1.84002931189065
30
0
41
1
10
37.7239629696034
20
1.84271100874562
30
0
41
1
10
37.749370829584
20
1.84449448606199
30
0
0
SPLINE
5
1AE
100
AcDbEntity
8
1
62
256
6
ByLayer
370
-1
48
1
60
0
100
AcDbSpline
70
4
71
3
72
8
73
4
40
0
40
0
40
0
40
0
40
1
40
1
40
1
40
1
41
1
10
40.7090458691888
20
6.63084218792443
30
0
41
1
10
40.7093542430499
20
6.63084218792443
30
0
41
1
10
40.7096626174579
20
6.63084225858944
30
0
41
1
10
40.7099709923643
20
6.63084239991937
30
0
0
SPLINE
5
1AF
100
AcDbEntity
8
1
62
256
6
ByLayer
370
-1
48
1
60
0
100
AcDbSpline
70
4
71
3
72
14
73
10
40
0
40
0
40
0
40
0
40
0.276946339130912
40
0.276946339130912
40
0.553892678261594
40
0.553892678261594
40
0.776880838709361
40
0.776880838709361
40
1
40
1
40
1
40
1
41
1
10
37.1705448722792
20
1.73102341986294
30
0
41
1
10
37.1668493966932
20
1.73109978317908
30
0
41
1
10
37.1631546476522
20
1.73123196770229
30
0
41
1
10
37.1557716177391
20
1.73160779974171
30
0
41
1
10
37.1520825017523
20
1.73185148976927
30
0
41
1
10
37.1454317620142
20
1.73239178351844
30
0
41
1
10
37.14246792623
20
1.73266886900655
30
0
41
1
10
37.1365465058127
20
1.73329516078439
30
0
41
1
10
37.133588491084
20
1.73364445533454
30
0
41
1
10
37.1306353443144
20
1.73402965271774
30
0
0
SPLINE
5
1B0
100
AcDbEntity
8
1
62
256
6
ByLayer
370
-1
48
1
60
0
100
AcDbSpline
70
4
71
3
72
8
73
4
40
0
40
0
40
0
40
0
40
1
40
1
40
1
40
1
41
1
10
38.6242135804083
20
1.82597029204928
30
0
41
1
10
38.6239059576967
20
1.82594869880498
30
0
41
1
10
38.6235983345298
20
1.82592710436185
30
0
41
1
10
38.6232907109078
20
1.82590550871993
30
0
0
SPLINE
5
1B1
100
AcDbEntity
8
1
62
256
6
ByLayer
370
-1
48
1
60
0
100
AcDbSpline
70
4
71
3
72
8
73
4
40
0
40
0
40
0
40
0
40
1
40
1
40
1
40
1
41
1
10
42.9647777567544
20
4.92533493045306
30
0
41
1
10
42.9647194734511
20
4.92563890239009
30
0
41
1
10
42.9646609114632
20
4.92594282103229
30
0
41
1
10
42.9646020709334
20
4.92624668561271
30
0
0
SPLINE
5
1B2
100
AcDbEntity
8
1
62
256
6
ByLayer
370
-1
48
1
60
0
100
AcDbSpline
70
4
71
3
72
32
73
28
40
0
40
0
40
0
40
0
40
0.125
40
0.140625
40
0.15625
40
0.1875
40
0.25
40
0.3125
40
0.375
40
0.4375
40
0.453125
40
0.46875
40
0.5
40
0.53125
40
0.5625
40
0.625
40
0.640625
40
0.65625
40
0.6875
40
0.71875
40
0.75
40
0.78125
40
0.796875
40
0.8125
40
0.84375
40
0.875
40
1
40
1
40
1
40
1
41
1
10
37.8744394997582
20
6.13543769023616
30
0
41
1
10
37.8473470808159
20
6.14107590197091
30
0
41
1
10
37.8169006066058
20
6.14741240413588
30
0
41
1
10
37.7829863372779
20
6.1544698978592
30
0
41
1
10
37.7695482286436
20
6.1572670354827
30
0
41
1
10
37.745204939742
20
6.16230408300061
30
0
41
1
10
37.70800385668
20
6.16992469431199
30
0
41
1
10
37.6602460056066
20
6.17958665536074
30
0
41
1
10
37.6102171535152
20
6.18959687449077
30
0
41
1
10
37.5716468833275
20
6.19723521621995
30
0
41
1
10
37.5458162582455
20
6.20231738088756
30
0
41
1
10
37.5283283965748
20
6.20575619742766
30
0
41
1
10
37.5065607661248
20
6.21003706257909
30
0
41
1
10
37.4804045446338
20
6.21518081564849
30
0
41
1
10
37.4455375327393
20
6.22203752704834
30
0
41
1
10
37.4150286064431
20
6.22803693329232
30
0
41
1
10
37.3888794279656
20
6.23318026998561
30
0
41
1
10
37.3714426332658
20
6.23660918241603
30
0
41
1
10
37.3496266192981
20
6.24089169601928
30
0
41
1
10
37.3231559985663
20
6.24606028332408
30
0
41
1
10
37.2965578372327
20
6.25122817803106
30
0
41
1
10
37.2743900117762
20
6.25551549463989
30
0
41
1
10
37.2567444527333
20
6.2589145420595
30
0
41
1
10
37.2391123452141
20
6.26230348907589
30
0
41
1
10
37.217055616416
20
6.26654008733266
30
0
41
1
10
37.1641278518392
20
6.27670771372425
30
0
41
1
10
37.1200213813584
20
6.28518073571726
30
0
41
1
10
37.0847362049739
20
6.29195915331167
30
0
0
SPLINE
5
1B3
100
AcDbEntity
8
1
62
256
6
ByLayer
370
-1
48
1
60
0
100
AcDbSpline
70
4
71
3
72
8
73
4
40
0
40
0
40
0
40
0
40
1
40
1
40
1
40
1
41
1
10
37.3994920849027
20
6.63084218792443
30
0
41
1
10
37.3991837007318
20
6.63084219994195
30
0
41
1
10
37.3988753192471
20
6.63084220595067
30
0
41
1
10
37.3985669404583
20
6.63084220595047
30
0
0
SPLINE
5
1B4
100
AcDbEntity
8
1
62
256
6
ByLayer
370
-1
48
1
60
0
100
AcDbSpline
70
4
71
1
72
4
73
2
40
0
40
0
40
1
40
1
41
1
10
41.6877274358608
20
6.23084218792442
30
0
41
1
10
39.7230473919423
20
6.23084218792442
30
0
0
SPLINE
5
1B5
100
AcDbEntity
8
1
62
256
6
ByLayer
370
-1
48
1
60
0
100
AcDbSpline
70
4
71
3
72
8
73
4
40
0
40
0
40
0
40
0
40
1
40
1
40
1
40
1
41
1
10
37.1393404945108
20
1.81318050930847
30
0
41
1
10
37.1499613262164
20
1.81176047284518
30
0
41
1
10
37.160661459017
20
1.81110915680455
30
0
41
1
10
37.1713738726937
20
1.81076633382838
30
0
0
SPLINE
5
1B6
100
AcDbEntity
8
1
62
256
6
ByLayer
370
-1
48
1
60
0
100
AcDbSpline
70
4
71
1
72
4
73
2
40
0
40
0
40
1
40
1
41
1
10
41.5011997356474
20
1.91053776377174
30
0
41
1
10
39.735513063475
20
1.91053776377174
30
0
0
SPLINE
5
1B7
100
AcDbEntity
8
SK1
62
256
6
ByLayer
370
-1
48
1
60
0
100
AcDbSpline
70
4
71
3
72
20
73
16
40
0
40
0
40
0
40
0
40
0.124999999999999
40
0.124999999999999
40
0.249999999999997
40
0.249999999999997
40
0.374999999999996
40
0.374999999999996
40
0.499999999999994
40
0.499999999999994
40
0.624999999999993
40
0.624999999999993
40
0.749999999999992
40
0.749999999999992
40
1
40
1
40
1
40
1
41
1
10
-47.633814451215
20
-5.29932072668728
30
0
41
1
10
-47.6738922636715
20
-5.27419067826415
30
0
41
1
10
-47.7166430277408
20
-5.2536833095611
30
0
41
1
10
-47.8080113883237
20
-5.22561624608014
30
0
41
1
10
-47.8558086398442
20
-5.21864267878075
30
0
41
1
10
-47.9498238136525
20
-5.22043840528849
30
0
41
1
10
-47.9974643733847
20
-5.22930496216131
30
0
41
1
10
-48.0869190094971
20
-5.26009470978795
30
0
41
1
10
-48.1294303248595
20
-5.28196037105604
30
0
41
1
10
-48.2086279314314
20
-5.33453450915434
30
0
41
1
10
-48.2447916817791
20
-5.36473843771279
30
0
41
1
10
-48.3120993158946
20
-5.43087025673137
30
0
41
1
10
-48.3433839743252
20
-5.46708425266206
30
0
41
1
10
-48.4290137419149
20
-5.57994089637941
30
0
41
1
10
-48.4760766654538
20
-5.66116280030394
30
0
41
1
10
-48.5162227297291
20
-5.74651411012809
30
0
0
SPLINE
5
1B8
100
AcDbEntity
8
SK1
62
256
6
ByLayer
370
-1
48
1
60
0
100
AcDbSpline
70
4
71
3
72
8
73
4
40
0
40
0
40
0
40
0
40
1
40
1
40
1
40
1
41
1
10
-47.6338144512151
20
5.29932072668754
30
0
41
1
10
-47.2923417749157
20
5.5134348303427
30
0
41
1
10
-46.94738484153
20
5.72075834496087
30
0
41
1
10
-46.6000000000004
20
5.92285193129214
30
0
0
SPLINE
5
1B9
100
AcDbEntity
8
SK1
62
256
6
ByLayer
370
-1
48
1
60
0
100
AcDbSpline
70
4
71
3
72
8
73
4
40
0
40
0
40
0
40
0
40
1
40
1
40
1
40
1
41
1
10
-50
20
4.0108197416489
30
0
41
1
10
-49.7054172377832
20
4.67160422878337
30
0
41
1
10
-49.3659298245044
20
5.30522565672777
30
0
41
1
10
-49
20
5.92285193129126
30
0
0
SPLINE
5
1BA
100
AcDbEntity
8
SK1
62
256
6
ByLayer
370
-1
48
1
60
0
100
AcDbSpline
70
4
71
3
72
8
73
4
40
0
40
0
40
0
40
0
40
1
40
1
40
1
40
1
41
1
10
-46.6000000000004
20
-5.92285193129203
30
0
41
1
10
-46.94738484153
20
-5.72075834496076
30
0
41
1
10
-47.2923417749157
20
-5.51343483034259
30
0
41
1
10
-47.6338144512151
20
-5.29932072668743
30
0
0
SPLINE
5
1BB
100
AcDbEntity
8
SK1
62
256
6
ByLayer
370
-1
48
1
60
0
100
AcDbSpline
70
4
71
3
72
8
73
4
40
0
40
0
40
0
40
0
40
1
40
1
40
1
40
1
41
1
10
-48.516222729729
20
-5.74651411012815
30
0
41
1
10
-48.5439308119344
20
-5.80542202928857
30
0
41
1
10
-48.5718597554103
20
-5.8641994196619
30
0
41
1
10
-48.6
20
-5.92285193129118
30
0
0
SPLINE
5
1BC
100
AcDbEntity
8
SK1
62
256
6
ByLayer
370
-1
48
1
60
0
100
AcDbSpline
70
4
71
3
72
8
73
4
40
0
40
0
40
0
40
0
40
1
40
1
40
1
40
1
41
1
10
-49
20
-5.92285193129115
30
0
41
1
10
-49.3676239342109
20
-5.30236629245442
30
0
41
1
10
-49.7070222547918
20
-4.66800398302257
30
0
41
1
10
-50
20
-4.01081974164879
30
0
0
SPLINE
5
1BD
100
AcDbEntity
8
SK1
62
256
6
ByLayer
370
-1
48
1
60
0
100
AcDbSpline
70
4
71
3
72
8
73
4
40
0
40
0
40
0
40
0
40
1
40
1
40
1
40
1
41
1
10
-48.6
20
5.92285193129126
30
0
41
1
10
-48.5718597554103
20
5.86419941966201
30
0
41
1
10
-48.5439308119344
20
5.80542202928868
30
0
41
1
10
-48.516222729729
20
5.74651411012826
30
0
0
SPLINE
5
1BE
100
AcDbEntity
8
SK1
62
256
6
ByLayer
370
-1
48
1
60
0
100
AcDbSpline
70
4
71
3
72
70
73
66
40
0
40
0
40
0
40
0
40
0.015625
40
0.015625
40
0.0312499999999999
40
0.0312499999999999
40
0.0468749999999999
40
0.0468749999999999
40
0.0624999999999998
40
0.0624999999999998
40
0.0937499999999997
40
0.0937499999999997
40
0.125
40
0.125
40
0.156249999999999
40
0.156249999999999
40
0.187499999999999
40
0.187499999999999
40
0.249999999999999
40
0.249999999999999
40
0.281249999999999
40
0.281249999999999
40
0.312499999999999
40
0.312499999999999
40
0.374999999999999
40
0.374999999999999
40
0.406249999999999
40
0.406249999999999
40
0.437499999999999
40
0.437499999999999
40
0.499999999999999
40
0.499999999999999
40
0.562499999999999
40
0.562499999999999
40
0.593749999999999
40
0.593749999999999
40
0.624999999999999
40
0.624999999999999
40
0.687499999999999
40
0.687499999999999
40
0.749999999999999
40
0.749999999999999
40
0.781249999999999
40
0.781249999999999
40
0.812499999999999
40
0.812499999999999
40
0.828124999999999
40
0.828124999999999
40
0.843749999999999
40
0.843749999999999
40
0.874999999999999
40
0.874999999999999
40
0.890624999999999
40
0.890624999999999
40
0.906249999999999
40
0.906249999999999
40
0.9375
40
0.9375
40
0.953125
40
0.953125
40
0.96875
40
0.96875
40
0.984375
40
0.984375
40
1
40
1
40
1
40
1
41
1
10
-6.5
20
-5.92285193129121
30
0
41
1
10
-6.4207001561935
20
-5.92285193129121
30
0
41
1
10
-6.34086123714724
20
-5.9185668895135
30
0
41
1
10
-6.18144914173817
20
-5.90119679294747
30
0
41
1
10
-6.10329779169277
20
-5.88829240949369
30
0
41
1
10
-5.94990088501589
20
-5.85451305048375
30
0
41
1
10
-5.87465633133542
20
-5.83363525531988
30
0
41
1
10
-5.72696960000087
20
-5.78406116811425
30
0
41
1
10
-5.65429253457478
20
-5.75520748082337
30
0
41
1
10
-5.44519110301013
20
-5.65925614820594
30
0
41
1
10
-5.31596620096835
20
-5.58241846129397
30
0
41
1
10
-5.07484414087321
20
-5.40540504402466
30
0
41
1
10
-4.96593256698816
20
-5.30735528286371
30
0
41
1
10
-4.76784635237644
20
-5.09639651205995
30
0
41
1
10
-4.67840953317994
20
-4.983217129438
30
0
41
1
10
-4.51537314962405
20
-4.74292412211906
30
0
41
1
10
-4.44295328505657
20
-4.61746994914878
30
0
41
1
10
-4.24868198160985
20
-4.23068443115997
30
0
41
1
10
-4.14844766983134
20
-3.95746366364494
30
0
41
1
10
-4.0262637687357
20
-3.52851959599104
30
0
41
1
10
-3.99045707400202
20
-3.38261304841748
30
0
41
1
10
-3.92745056712241
20
-3.08915292017716
30
0
41
1
10
-3.90009723356329
20
-2.94105776320953
30
0
41
1
10
-3.8278752392381
20
-2.49297350515943
30
0
41
1
10
-3.79269532434782
20
-2.18920722447757
30
0
41
1
10
-3.75266975157555
20
-1.72668593189553
30
0
41
1
10
-3.74149452812992
20
-1.57136096042274
30
0
41
1
10
-3.7227914524648
20
-1.25845966931755
30
0
41
1
10
-3.71525523181913
20
-1.10051711083781
30
0
41
1
10
-3.69757555686806
20
-0.627542985956865
30
0
41
1
10
-3.69216291533115
20
-0.312549998346725
30
0
41
1
10
-3.69221342580033
20
0.316814481428594
30
0
41
1
10
-3.69767917852337
20
0.631185932377917
30
0
41
1
10
-3.71533699604186
20
1.10226412810465
30
0
41
1
10
-3.72282689544929
20
1.25921004505511
30
0
41
1
10
-3.74159811083336
20
1.57293530507485
30
0
41
1
10
-3.75286596385365
20
1.72931583567794
30
0
41
1
10
-3.7931360613473
20
2.19356375631057
30
0
41
1
10
-3.82851600359484
20
2.49788201632404
30
0
41
1
10
-3.92509289084615
20
3.09518912355421
30
0
41
1
10
-3.98613026108981
20
3.38819589012314
30
0
41
1
10
-4.10872562486918
20
3.81772380638489
30
0
41
1
10
-4.15457050303766
20
3.95816262372668
30
0
41
1
10
-4.25798900802536
20
4.23138581985137
30
0
41
1
10
-4.31562107045932
20
4.36443286751282
30
0
41
1
10
-4.41324202900785
20
4.55806429666799
30
0
41
1
10
-4.44765197842653
20
4.62161604232489
30
0
41
1
10
-4.52071677173481
20
4.74659993544324
30
0
41
1
10
-4.55949059300505
20
4.80819083961242
30
0
41
1
10
-4.68167362759087
20
4.98750932801642
30
0
41
1
10
-4.77111361192291
20
5.10028531412462
30
0
41
1
10
-4.91992617419712
20
5.25814375735854
30
0
41
1
10
-4.97198266212237
20
5.3088730991264
30
0
41
1
10
-5.08163619478131
20
5.40624856211491
30
0
41
1
10
-5.13955477027798
20
5.4531151519183
30
0
41
1
10
-5.31981523628792
20
5.58481269193101
30
0
41
1
10
-5.44864000404647
20
5.66109472307599
30
0
41
1
10
-5.65716976919146
20
5.75639550475049
30
0
41
1
10
-5.7298085887667
20
5.78512422111541
30
0
41
1
10
-5.87748335724046
20
5.83446980910264
30
0
41
1
10
-5.95248390556498
20
5.85515796054099
30
0
41
1
10
-6.10485268754977
20
5.88855660979888
30
0
41
1
10
-6.18222037802389
20
5.90126892263172
30
0
41
1
10
-6.3394359509619
20
5.91842344284453
30
0
41
1
10
-6.41995776294141
20
5.92285193129121
30
0
41
1
10
-6.5
20
5.92285193129121
30
0
0
SPLINE
5
1BF
100
AcDbEntity
8
SK1
62
256
6
ByLayer
370
-1
48
1
60
0
100
AcDbSpline
70
4
71
3
72
20
73
16
40
0
40
0
40
0
40
0
40
0.249999999999993
40
0.249999999999993
40
0.374999999999994
40
0.374999999999994
40
0.499999999999995
40
0.499999999999995
40
0.624999999999996
40
0.624999999999996
40
0.749999999999998
40
0.749999999999998
40
0.874999999999999
40
0.874999999999999
40
1
40
1
40
1
40
1
41
1
10
-48.516222729729
20
5.74651411012826
30
0
41
1
10
-48.4762911096295
20
5.66161871277322
30
0
41
1
10
-48.4283722366634
20
5.57893837743811
30
0
41
1
10
-48.3426850116238
20
5.46624297823843
30
0
41
1
10
-48.3114261194144
20
5.43013690581458
30
0
41
1
10
-48.2441155430023
20
5.36414748183782
30
0
41
1
10
-48.2081109043675
20
5.33418916709314
30
0
41
1
10
-48.1299068985677
20
5.28227885986365
30
0
41
1
10
-48.0869527159662
20
5.26011190276751
30
0
41
1
10
-47.9975349560404
20
5.22932367138964
30
0
41
1
10
-47.9502203463448
20
5.22040015827844
30
0
41
1
10
-47.8545747664299
20
5.21866533516589
30
0
41
1
10
-47.8075489790091
20
5.22575417310171
30
0
41
1
10
-47.7170288270798
20
5.25356891952413
30
0
41
1
10
-47.6737128978907
20
5.27430314624814
30
0
41
1
10
-47.6338144512151
20
5.29932072668754
30
0
0
LINE
5
45
100
AcDbEntity
8
80
62
256
6
ByLayer
370
-1
48
1
60
0
100
AcDbLine
10
0
20
0
30
0
11
-7
21
0
31
0
39
0
210
0
220
0
230
1
0
LINE
5
46
100
AcDbEntity
8
81
62
256
6
ByLayer
370
-1
48
1
60
0
100
AcDbLine
10
43
20
0
30
0
11
50
21
0
31
0
39
0
210
0
220
0
230
1
0
LINE
5
47
100
AcDbEntity
8
SK1
62
256
6
ByLayer
370
-1
48
1
60
0
100
AcDbLine
10
-2
20
-9.99675
30
0
11
-1.551212
21
-9.787477
31
0
39
0
210
0
220
0
230
1
0
LINE
5
49
100
AcDbEntity
8
SK1
62
256
6
ByLayer
370
-1
48
1
60
0
100
AcDbLine
10
-1.551212
20
9.787477
30
0
11
-2
21
9.99675
31
0
39
0
210
0
220
0
230
1
0
LINE
5
4A
100
AcDbEntity
8
SK1
62
256
6
ByLayer
370
-1
48
1
60
0
100
AcDbLine
10
-2
20
9.99675
30
0
11
-46.6
21
9.99675
31
0
39
0
210
0
220
0
230
1
0
LINE
5
4B
100
AcDbEntity
8
SK1
62
256
6
ByLayer
370
-1
48
1
60
0
100
AcDbLine
10
-46.6
20
-9.99675
30
0
11
-2
21
-9.99675
31
0
39
0
210
0
220
0
230
1
0
LINE
5
4C
100
AcDbEntity
8
SK1
62
256
6
ByLayer
370
-1
48
1
60
0
100
AcDbLine
10
-0.15
20
9.75
30
0
11
-1.382165
21
9.75
31
0
39
0
210
0
220
0
230
1
0
LINE
5
4D
100
AcDbEntity
8
SK1
62
256
6
ByLayer
370
-1
48
1
60
0
100
AcDbLine
10
-1.382165
20
-9.75
30
0
11
-0.15
21
-9.75
31
0
39
0
210
0
220
0
230
1
0
LINE
5
4E
100
AcDbEntity
8
SK1
62
256
6
ByLayer
370
-1
48
1
60
0
100
AcDbLine
10
-49
20
9.99675
30
0
11
-50
21
8.99675
31
0
39
0
210
0
220
0
230
1
0
LINE
5
4F
100
AcDbEntity
8
SK1
62
256
6
ByLayer
370
-1
48
1
60
0
100
AcDbLine
10
-50
20
-8.99675
30
0
11
-49
21
-9.99675
31
0
39
0
210
0
220
0
230
1
0
LINE
5
50
100
AcDbEntity
8
SK1
62
256
6
ByLayer
370
-1
48
1
60
0
100
AcDbLine
10
-48.6
20
-9.99675
30
0
11
-48.516223
21
-9.893294
31
0
39
0
210
0
220
0
230
1
0
LINE
5
51
100
AcDbEntity
8
SK1
62
256
6
ByLayer
370
-1
48
1
60
0
100
AcDbLine
10
-48.516223
20
9.893294
30
0
11
-48.6
21
9.99675
31
0
39
0
210
0
220
0
230
1
0
LINE
5
52
100
AcDbEntity
8
SK1
62
256
6
ByLayer
370
-1
48
1
60
0
100
AcDbLine
10
-48.6
20
9.99675
30
0
11
-49
21
9.99675
31
0
39
0
210
0
220
0
230
1
0
LINE
5
53
100
AcDbEntity
8
SK1
62
256
6
ByLayer
370
-1
48
1
60
0
100
AcDbLine
10
-49
20
-9.99675
30
0
11
-48.6
21
-9.99675
31
0
39
0
210
0
220
0
230
1
0
LINE
5
54
100
AcDbEntity
8
SK1
62
256
6
ByLayer
370
-1
48
1
60
0
100
AcDbLine
10
-46.6
20
9.99675
30
0
11
-47.633814
21
9.640417
31
0
39
0
210
0
220
0
230
1
0
LINE
5
55
100
AcDbEntity
8
SK1
62
256
6
ByLayer
370
-1
48
1
60
0
100
AcDbLine
10
-47.633814
20
-9.640417
30
0
11
-46.6
21
-9.99675
31
0
39
0
210
0
220
0
230
1
0
LINE
5
56
100
AcDbEntity
8
1
62
256
6
ByLayer
370
-1
48
1
60
0
100
AcDbLine
10
0.2
20
12.5
30
0
11
0
21
12.3
31
0
39
0
210
0
220
0
230
1
0
LINE
5
58
100
AcDbEntity
8
1
62
256
6
ByLayer
370
-1
48
1
60
0
100
AcDbLine
10
0
20
-12.3
30
0
11
0.2
21
-12.5
31
0
39
0
210
0
220
0
230
1
0
LINE
5
59
100
AcDbEntity
8
1
62
256
6
ByLayer
370
-1
48
1
60
0
100
AcDbLine
10
5
20
12.5
30
0
11
0.2
21
12.5
31
0
39
0
210
0
220
0
230
1
0
LINE
5
5A
100
AcDbEntity
8
1
62
256
6
ByLayer
370
-1
48
1
60
0
100
AcDbLine
10
0.2
20
-12.5
30
0
11
5
21
-12.5
31
0
39
0
210
0
220
0
230
1
0
LINE
5
5B
100
AcDbEntity
8
1
62
256
6
ByLayer
370
-1
48
1
60
0
100
AcDbLine
10
36.887059
20
6.475
30
0
11
35.166379
21
6.475
31
0
39
0
210
0
220
0
230
1
0
LINE
5
5C
100
AcDbEntity
8
SK4
62
256
6
ByLayer
370
-1
48
0.05
60
0
100
AcDbLine
10
43
20
0
30
0
11
-50
21
0
31
0
39
0
210
0
220
0
230
1
0
LINE
5
5E
100
AcDbEntity
8
4
62
256
6
ByLayer
370
-1
48
0.05
60
0
100
AcDbLine
10
43
20
0
30
0
11
0
21
0
31
0
39
0
210
0
220
0
230
1
0
LINE
5
60
100
AcDbEntity
8
1
62
256
6
ByLayer
370
-1
48
1
60
0
100
AcDbLine
10
35.069924
20
2.874349
30
0
11
34.325431
21
3.222838
31
0
39
0
210
0
220
0
230
1
0
LINE
5
61
100
AcDbEntity
8
1
62
256
6
ByLayer
370
-1
48
1
60
0
100
AcDbLine
10
36.224505
20
3.27004
30
0
11
36.854343
21
6.472887
31
0
39
0
210
0
220
0
230
1
0
LINE
5
62
100
AcDbEntity
8
1
62
256
6
ByLayer
370
-1
48
1
60
0
100
AcDbLine
10
36.567557
20
1.683406
30
0
11
36.608948
21
1.683406
31
0
39
0
210
0
220
0
230
1
0
LINE
5
63
100
AcDbEntity
8
1
62
256
6
ByLayer
370
-1
48
1
60
0
100
AcDbLine
10
35.531997
20
-6.469556
30
0
11
41.87044
21
-6.469556
31
0
39
0
210
0
220
0
230
1
0
LINE
5
64
100
AcDbEntity
8
1
62
256
6
ByLayer
370
-1
48
1
60
0
100
AcDbLine
10
38.191624
20
1.658594
30
0
11
41.459896
21
1.658594
31
0
39
0
210
0
220
0
230
1
0
LINE
5
65
100
AcDbEntity
8
1
62
256
6
ByLayer
370
-1
48
1
60
0
100
AcDbLine
10
38.191624
20
1.658594
30
0
11
38.029341
21
1.57946
31
0
39
0
210
0
220
0
230
1
0
LINE
5
66
100
AcDbEntity
8
1
62
256
6
ByLayer
370
-1
48
1
60
0
100
AcDbLine
10
42.40072
20
-1.627435
30
0
11
42.035405
21
-3.695373
31
0
39
0
210
0
220
0
230
1
0
LINE
5
67
100
AcDbEntity
8
1
62
256
6
ByLayer
370
-1
48
1
60
0
100
AcDbLine
10
0.2
20
12.5
30
0
11
0.2
21
-12.5
31
0
39
0
210
0
220
0
230
1
0
LINE
5
68
100
AcDbEntity
8
1
62
256
6
ByLayer
370
-1
48
1
60
0
100
AcDbLine
10
36.31448
20
3.319129
30
0
11
36.434203
21
3.319129
31
0
39
0
210
0
220
0
230
1
0
LINE
5
69
100
AcDbEntity
8
1
62
256
6
ByLayer
370
-1
48
1
60
0
100
AcDbLine
10
36.384202
20
3.455075
30
0
11
36.497355
21
3.455075
31
0
39
0
210
0
220
0
230
1
0
LINE
5
6A
100
AcDbEntity
8
1
62
256
6
ByLayer
370
-1
48
1
60
0
100
AcDbLine
10
36.860163
20
6.474199
30
0
11
36.230066
21
3.27004
31
0
39
0
210
0
220
0
230
1
0
LINE
5
6B
100
AcDbEntity
8
1
62
256
6
ByLayer
370
-1
48
1
60
0
100
AcDbLine
10
36.224505
20
3.27004
30
0
11
36.230066
21
3.27004
31
0
39
0
210
0
220
0
230
1
0
LINE
5
6C
100
AcDbEntity
8
1
62
256
6
ByLayer
370
-1
48
1
60
0
100
AcDbLine
10
42.40072
20
-1.627435
30
0
11
41.905954
21
-1.39454
31
0
39
0
210
0
220
0
230
1
0
LINE
5
6D
100
AcDbEntity
8
1
62
256
6
ByLayer
370
-1
48
1
60
0
100
AcDbLine
10
42.150114
20
-0.450625
30
0
11
42.40072
21
-1.627435
31
0
39
0
210
0
220
0
230
1
0
LINE
5
6E
100
AcDbEntity
8
1
62
256
6
ByLayer
370
-1
48
1
60
0
100
AcDbLine
10
41.482478
20
0.462711
30
0
11
41.677985
21
1.445174
31
0
39
0
210
0
220
0
230
1
0
LINE
5
6F
100
AcDbEntity
8
1
62
256
6
ByLayer
370
-1
48
1
60
0
100
AcDbLine
10
41.744269
20
1.632885
30
0
11
41.459896
21
1.658594
31
0
39
0
210
0
220
0
230
1
0
LINE
5
70
100
AcDbEntity
8
1
62
256
6
ByLayer
370
-1
48
1
60
0
100
AcDbLine
10
41.991666
20
-4.479742
30
0
11
42.2153
21
-4.517404
31
0
39
0
210
0
220
0
230
1
0
LINE
5
71
100
AcDbEntity
8
1
62
256
6
ByLayer
370
-1
48
1
60
0
100
AcDbLine
10
41.87044
20
-6.469556
30
0
11
42.2153
21
-4.517404
31
0
39
0
210
0
220
0
230
1
0
LINE
5
72
100
AcDbEntity
8
1
62
256
6
ByLayer
370
-1
48
1
60
0
100
AcDbLine
10
35.258354
20
4.193714
30
0
11
27.758816
21
5.098943
31
0
39
0
210
0
220
0
230
1
0
LINE
5
73
100
AcDbEntity
8
1
62
256
6
ByLayer
370
-1
48
1
60
0
100
AcDbLine
10
41.587703
20
1.658594
30
0
11
41.93493
21
1.6281
31
0
39
0
210
0
220
0
230
1
0
LINE
5
74
100
AcDbEntity
8
1
62
256
6
ByLayer
370
-1
48
1
60
0
100
AcDbLine
10
34.167389
20
0.919811
30
0
11
34.136451
21
0.824695
31
0
39
0
210
0
220
0
230
1
0
LINE
5
75
100
AcDbEntity
8
1
62
256
6
ByLayer
370
-1
48
1
60
0
100
AcDbLine
10
41.587705
20
1.658594
30
0
11
41.459896
21
1.658594
31
0
39
0
210
0
220
0
230
1
0
LINE
5
76
100
AcDbEntity
8
1
62
256
6
ByLayer
370
-1
48
1
60
0
100
AcDbLine
10
5
20
12.5
30
0
11
5
21
-1.028263
31
0
39
0
210
0
220
0
230
1
0
LINE
5
77
100
AcDbEntity
8
1
62
256
6
ByLayer
370
-1
48
1
60
0
100
AcDbLine
10
36.497355
20
3.455075
30
0
11
36.434203
21
3.319129
31
0
39
0
210
0
220
0
230
1
0
LINE
5
78
100
AcDbEntity
8
1
62
256
6
ByLayer
370
-1
48
1
60
0
100
AcDbLine
10
42.001716
20
1.349302
30
0
11
42.009479
21
0.616514
31
0
39
0
210
0
220
0
230
1
0
LINE
5
79
100
AcDbEntity
8
1
62
256
6
ByLayer
370
-1
48
1
60
0
100
AcDbLine
10
13
20
6.42393
30
0
11
13
21
-1.079867
31
0
39
0
210
0
220
0
230
1
0
LINE
5
7A
100
AcDbEntity
8
1
62
256
6
ByLayer
370
-1
48
1
60
0
100
AcDbLine
10
35.258354
20
4.193714
30
0
11
35.258354
21
6.474949
31
0
39
0
210
0
220
0
230
1
0
LINE
5
7B
100
AcDbEntity
8
1
62
256
6
ByLayer
370
-1
48
1
60
0
100
AcDbLine
10
41.677985
20
1.445174
30
0
11
42.001716
21
1.349302
31
0
39
0
210
0
220
0
230
1
0
LINE
5
7C
100
AcDbEntity
8
1
62
256
6
ByLayer
370
-1
48
1
60
0
100
AcDbLine
10
36.206419
20
3.078689
30
0
11
36.200858
21
3.078689
31
0
39
0
210
0
220
0
230
1
0
LINE
5
7D
100
AcDbEntity
8
1
62
256
6
ByLayer
370
-1
48
1
60
0
100
AcDbLine
10
36.332849
20
0.340421
30
0
11
36.499683
21
0.853332
31
0
39
0
210
0
220
0
230
1
0
LINE
5
7E
100
AcDbEntity
8
1
62
256
6
ByLayer
370
-1
48
1
60
0
100
AcDbLine
10
5
20
-12.5
30
0
11
5
21
-4.312956
31
0
39
0
210
0
220
0
230
1
0
LINE
5
7F
100
AcDbEntity
8
1
62
256
6
ByLayer
370
-1
48
1
60
0
100
AcDbLine
10
0
20
12.3
30
0
11
0
21
-12.3
31
0
39
0
210
0
220
0
230
1
0
LINE
5
80
100
AcDbEntity
8
1
62
256
6
ByLayer
370
-1
48
1
60
0
100
AcDbLine
10
42.198648
20
0.147751
30
0
11
42.31942
21
0.235053
31
0
39
0
210
0
220
0
230
1
0
LINE
5
81
100
AcDbEntity
8
1
62
256
6
ByLayer
370
-1
48
1
60
0
100
AcDbLine
10
42.476048
20
-0.679218
30
0
11
42.649372
21
-1.493124
31
0
39
0
210
0
220
0
230
1
0
LINE
5
82
100
AcDbEntity
8
1
62
256
6
ByLayer
370
-1
48
1
60
0
100
AcDbLine
10
42.639011
20
-0.000991
30
0
11
42.988989
21
-1.644437
31
0
39
0
210
0
220
0
230
1
0
LINE
5
83
100
AcDbEntity
8
1
62
256
6
ByLayer
370
-1
48
1
60
0
100
AcDbLine
10
42.770127
20
-1.541415
30
0
11
42.517747
21
-0.356276
31
0
39
0
210
0
220
0
230
1
0
LINE
5
84
100
AcDbEntity
8
1
62
256
6
ByLayer
370
-1
48
1
60
0
100
AcDbLine
10
42.518239
20
-0.088292
30
0
11
42.639011
21
-0.000991
31
0
39
0
210
0
220
0
230
1
0
LINE
5
85
100
AcDbEntity
8
1
62
256
6
ByLayer
370
-1
48
1
60
0
100
AcDbLine
10
42.401332
20
-4.22528
30
0
11
41.963504
21
-4.354729
31
0
39
0
210
0
220
0
230
1
0
LINE
5
86
100
AcDbEntity
8
1
62
256
6
ByLayer
370
-1
48
1
60
0
100
AcDbLine
10
42.992319
20
-1.834861
30
0
11
42.61157
21
-3.990168
31
0
39
0
210
0
220
0
230
1
0
LINE
5
87
100
AcDbEntity
8
1
62
256
6
ByLayer
370
-1
48
1
60
0
100
AcDbLine
10
42.300754
20
-4.078681
30
0
11
42.401332
21
-4.22528
31
0
39
0
210
0
220
0
230
1
0
LINE
5
88
100
AcDbEntity
8
1
62
256
6
ByLayer
370
-1
48
1
60
0
100
AcDbLine
10
42.770127
20
-1.541415
30
0
11
42.988989
21
-1.644437
31
0
39
0
210
0
220
0
230
1
0
LINE
5
89
100
AcDbEntity
8
1
62
256
6
ByLayer
370
-1
48
1
60
0
100
AcDbLine
10
42.496323
20
-3.300611
30
0
11
42.773457
21
-1.731839
31
0
39
0
210
0
220
0
230
1
0
LINE
5
8A
100
AcDbEntity
8
1
62
256
6
ByLayer
370
-1
48
1
60
0
100
AcDbLine
10
42.654484
20
-1.785437
30
0
11
42.382527
21
-3.324906
31
0
39
0
210
0
220
0
230
1
0
LINE
5
8B
100
AcDbEntity
8
1
62
256
6
ByLayer
370
-1
48
1
60
0
100
AcDbLine
10
42.510992
20
-3.843569
30
0
11
42.61157
21
-3.990168
31
0
39
0
210
0
220
0
230
1
0
LINE
5
8C
100
AcDbEntity
8
1
62
256
6
ByLayer
370
-1
48
1
60
0
100
AcDbLine
10
42.31942
20
0.235053
30
0
11
42.06397
21
0.212746
31
0
39
0
210
0
220
0
230
1
0
LINE
5
8D
100
AcDbEntity
8
1
62
256
6
ByLayer
370
-1
48
1
60
0
100
AcDbLine
10
42.773457
20
-1.731839
30
0
11
42.992319
21
-1.834861
31
0
39
0
210
0
220
0
230
1
0
LINE
5
8E
100
AcDbEntity
8
1
62
256
6
ByLayer
370
-1
48
1
60
0
100
AcDbLine
10
37.330711
20
1.735174
30
0
11
37.324565
21
1.814676
31
0
39
0
210
0
220
0
230
1
0
LINE
5
8F
100
AcDbEntity
8
1
62
256
6
ByLayer
370
-1
48
1
60
0
100
AcDbLine
10
38.623291
20
1.825906
30
0
11
37.330711
21
1.735174
31
0
39
0
210
0
220
0
230
1
0
LINE
5
90
100
AcDbEntity
8
1
62
256
6
ByLayer
370
-1
48
1
60
0
100
AcDbLine
10
37.129718
20
1.73415
30
0
11
37.13934
21
1.813181
31
0
39
0
210
0
220
0
230
1
0
LINE
5
91
100
AcDbEntity
8
1
62
256
6
ByLayer
370
-1
48
1
60
0
100
AcDbLine
10
37.007588
20
6.308077
30
0
11
37.084913
21
6.292871
31
0
39
0
210
0
220
0
230
1
0
LINE
5
92
100
AcDbEntity
8
1
62
256
6
ByLayer
370
-1
48
1
60
0
100
AcDbLine
10
37.399492
20
6.630842
30
0
11
37.398884
21
6.551147
31
0
39
0
210
0
220
0
230
1
0
LINE
5
93
100
AcDbEntity
8
1
62
256
6
ByLayer
370
-1
48
1
60
0
100
AcDbLine
10
42.342523
20
6.727534
30
0
11
42.331686
21
6.648504
31
0
39
0
210
0
220
0
230
1
0
LINE
5
94
100
AcDbEntity
8
1
62
256
6
ByLayer
370
-1
48
1
60
0
100
AcDbLine
10
37.172545
20
1.730987
30
0
11
37.173213
21
1.810671
31
0
39
0
210
0
220
0
230
1
0
LINE
5
95
100
AcDbEntity
8
1
62
256
6
ByLayer
370
-1
48
1
60
0
100
AcDbLine
10
40.848951
20
6.635779
30
0
11
42.141531
21
6.72651
31
0
39
0
210
0
220
0
230
1
0
LINE
5
96
100
AcDbEntity
8
1
62
256
6
ByLayer
370
-1
48
1
60
0
100
AcDbLine
10
40.709971
20
6.630842
30
0
11
40.709363
21
6.551147
31
0
39
0
210
0
220
0
230
1
0
LINE
5
97
100
AcDbEntity
8
1
62
256
6
ByLayer
370
-1
48
1
60
0
100
AcDbLine
10
42.072749
20
1.830842
30
0
11
38.763196
21
1.830842
31
0
39
0
210
0
220
0
230
1
0
LINE
5
98
100
AcDbEntity
8
1
62
256
6
ByLayer
370
-1
48
1
60
0
100
AcDbLine
10
36.929083
20
1.823136
30
0
11
36.979507
21
1.884186
31
0
39
0
210
0
220
0
230
1
0
LINE
5
99
100
AcDbEntity
8
1
62
256
6
ByLayer
370
-1
48
1
60
0
100
AcDbLine
10
42.543159
20
6.638548
30
0
11
42.491519
21
6.577499
31
0
39
0
210
0
220
0
230
1
0
LINE
5
9A
100
AcDbEntity
8
1
62
256
6
ByLayer
370
-1
48
1
60
0
100
AcDbLine
10
36.794594
20
2.053544
30
0
11
36.507639
21
3.535438
31
0
39
0
210
0
220
0
230
1
0
LINE
5
9B
100
AcDbEntity
8
1
62
256
6
ByLayer
370
-1
48
1
60
0
100
AcDbLine
10
42.141531
20
6.72651
30
0
11
42.146461
21
6.647009
31
0
39
0
210
0
220
0
230
1
0
LINE
5
9C
100
AcDbEntity
8
1
62
256
6
ByLayer
370
-1
48
1
60
0
100
AcDbLine
10
36.584789
20
3.551556
30
0
11
36.507464
21
3.536349
31
0
39
0
210
0
220
0
230
1
0
LINE
5
9D
100
AcDbEntity
8
1
62
256
6
ByLayer
370
-1
48
1
60
0
100
AcDbLine
10
37.00741
20
6.307166
30
0
11
36.507816
21
3.727158
31
0
39
0
210
0
220
0
230
1
0
LINE
5
9E
100
AcDbEntity
8
1
62
256
6
ByLayer
370
-1
48
1
60
0
100
AcDbLine
10
42.464654
20
2.153607
30
0
11
42.386113
21
2.168814
31
0
39
0
210
0
220
0
230
1
0
LINE
5
9F
100
AcDbEntity
8
1
62
256
6
ByLayer
370
-1
48
1
60
0
100
AcDbLine
10
42.677647
20
6.40814
30
0
11
42.599106
21
6.392934
31
0
39
0
210
0
220
0
230
1
0
LINE
5
A0
100
AcDbEntity
8
1
62
256
6
ByLayer
370
-1
48
1
60
0
100
AcDbLine
10
36.794594
20
2.053544
30
0
11
36.87192
21
2.068751
31
0
39
0
210
0
220
0
230
1
0
LINE
5
A1
100
AcDbEntity
8
1
62
256
6
ByLayer
370
-1
48
1
60
0
100
AcDbLine
10
36.507816
20
3.727158
30
0
11
36.585142
21
3.711952
31
0
39
0
210
0
220
0
230
1
0
LINE
5
A2
100
AcDbEntity
8
1
62
256
6
ByLayer
370
-1
48
1
60
0
100
AcDbLine
10
40.709046
20
6.630842
30
0
11
37.399492
21
6.630842
31
0
39
0
210
0
220
0
230
1
0
LINE
5
A3
100
AcDbEntity
8
1
62
256
6
ByLayer
370
-1
48
1
60
0
100
AcDbLine
10
42.072749
20
1.830842
30
0
11
42.072142
21
1.910538
31
0
39
0
210
0
220
0
230
1
0
LINE
5
A4
100
AcDbEntity
8
1
62
256
6
ByLayer
370
-1
48
1
60
0
100
AcDbLine
10
38.762271
20
1.830842
30
0
11
38.761663
21
1.910538
31
0
39
0
210
0
220
0
230
1
0
LINE
5
A5
100
AcDbEntity
8
1
62
256
6
ByLayer
370
-1
48
1
60
0
100
AcDbLine
10
42.299697
20
6.730698
30
0
11
42.297813
21
6.651013
31
0
39
0
210
0
220
0
230
1
0
LINE
5
A6
100
AcDbEntity
8
1
62
256
6
ByLayer
370
-1
48
1
60
0
100
AcDbLine
10
38.623291
20
1.825906
30
0
11
38.617145
21
1.905407
31
0
39
0
210
0
220
0
230
1
0
LINE
5
A7
100
AcDbEntity
8
1
62
256
6
ByLayer
370
-1
48
1
60
0
100
AcDbLine
10
42.886237
20
4.910128
30
0
11
42.964778
21
4.925335
31
0
39
0
210
0
220
0
230
1
0
LINE
5
A8
100
AcDbEntity
8
1
62
256
6
ByLayer
370
-1
48
1
60
0
100
AcDbLine
10
42.301697
20
6.730661
30
0
11
42.299654
21
6.65098
31
0
39
0
210
0
220
0
230
1
0
LINE
5
A9
100
AcDbEntity
8
1
62
256
6
ByLayer
370
-1
48
1
60
0
100
AcDbLine
10
37.170545
20
1.731023
30
0
11
37.171372
21
1.810705
31
0
39
0
210
0
220
0
230
1
0
LINE
5
AA
100
AcDbEntity
8
1
62
256
6
ByLayer
370
-1
48
1
60
0
100
AcDbLine
10
40.848951
20
6.635779
30
0
11
40.853881
21
6.556277
31
0
39
0
210
0
220
0
230
1
0
LINE
5
AB
100
AcDbEntity
8
1
62
256
6
ByLayer
370
-1
48
1
60
0
100
AcDbLine
10
42.964426
20
4.734526
30
0
11
42.885884
21
4.749733
31
0
39
0
210
0
220
0
230
1
0
LINE
5
AC
100
AcDbEntity
8
1
62
256
6
ByLayer
370
-1
48
1
60
0
100
AcDbLine
10
42.464831
20
2.154519
30
0
11
42.964426
21
4.734526
31
0
39
0
210
0
220
0
230
1
0
LINE
5
AD
100
AcDbEntity
8
1
62
256
6
ByLayer
370
-1
48
1
60
0
100
AcDbLine
10
42.677647
20
6.40814
30
0
11
42.964602
21
4.926247
31
0
39
0
210
0
220
0
230
1
0
LINE
5
AE
100
AcDbEntity
8
SK1
62
256
6
ByLayer
370
-1
48
1
60
0
100
AcDbLine
10
-49
20
5.922852
30
0
11
-48.6
21
5.922852
31
0
39
0
210
0
220
0
230
1
0
LINE
5
AF
100
AcDbEntity
8
SK1
62
256
6
ByLayer
370
-1
48
1
60
0
100
AcDbLine
10
-6.5
20
5.922852
30
0
11
-6.5
21
-5.922852
31
0
39
0
210
0
220
0
230
1
0
LINE
5
B0
100
AcDbEntity
8
SK1
62
256
6
ByLayer
370
-1
48
1
60
0
100
AcDbLine
10
-1.382165
20
9.75
30
0
11
-1.382165
21
-9.75
31
0
39
0
210
0
220
0
230
1
0
LINE
5
B1
100
AcDbEntity
8
SK1
62
256
6
ByLayer
370
-1
48
1
60
0
100
AcDbLine
10
-1.551212
20
9.787477
30
0
11
-1.551212
21
-9.787477
31
0
39
0
210
0
220
0
230
1
0
LINE
5
B2
100
AcDbEntity
8
SK1
62
256
6
ByLayer
370
-1
48
1
60
0
100
AcDbLine
10
-50
20
-4.01082
30
0
11
-50
21
-8.99675
31
0
39
0
210
0
220
0
230
1
0
LINE
5
B3
100
AcDbEntity
8
SK1
62
256
6
ByLayer
370
-1
48
1
60
0
100
AcDbLine
10
-50
20
8.99675
30
0
11
-50
21
4.01082
31
0
39
0
210
0
220
0
230
1
0
LINE
5
B4
100
AcDbEntity
8
SK1
62
256
6
ByLayer
370
-1
48
1
60
0
100
AcDbLine
10
-0.15
20
9.75
30
0
11
-0.15
21
-9.75
31
0
39
0
210
0
220
0
230
1
0
LINE
5
B5
100
AcDbEntity
8
SK1
62
256
6
ByLayer
370
-1
48
1
60
0
100
AcDbLine
10
-6.5
20
-5.922852
30
0
11
-46.6
21
-5.922852
31
0
39
0
210
0
220
0
230
1
0
LINE
5
B6
100
AcDbEntity
8
SK1
62
256
6
ByLayer
370
-1
48
1
60
0
100
AcDbLine
10
-50
20
4.01082
30
0
11
-50
21
-4.01082
31
0
39
0
210
0
220
0
230
1
0
LINE
5
B7
100
AcDbEntity
8
SK1
62
256
6
ByLayer
370
-1
48
1
60
0
100
AcDbLine
10
-46.6
20
5.922852
30
0
11
-46.6
21
9.99675
31
0
39
0
210
0
220
0
230
1
0
LINE
5
B8
100
AcDbEntity
8
SK1
62
256
6
ByLayer
370
-1
48
1
60
0
100
AcDbLine
10
-46.6
20
-9.99675
30
0
11
-46.6
21
-5.922852
31
0
39
0
210
0
220
0
230
1
0
LINE
5
B9
100
AcDbEntity
8
SK1
62
256
6
ByLayer
370
-1
48
1
60
0
100
AcDbLine
10
-2
20
-9.99675
30
0
11
-2
21
9.99675
31
0
39
0
210
0
220
0
230
1
0
LINE
5
BA
100
AcDbEntity
8
SK1
62
256
6
ByLayer
370
-1
48
1
60
0
100
AcDbLine
10
-46.6
20
5.922852
30
0
11
-6.5
21
5.922852
31
0
39
0
210
0
220
0
230
1
0
LINE
5
BB
100
AcDbEntity
8
SK1
62
256
6
ByLayer
370
-1
48
1
60
0
100
AcDbLine
10
-49
20
-5.922852
30
0
11
-49
21
-9.99675
31
0
39
0
210
0
220
0
230
1
0
LINE
5
BC
100
AcDbEntity
8
SK1
62
256
6
ByLayer
370
-1
48
1
60
0
100
AcDbLine
10
-49
20
9.99675
30
0
11
-49
21
5.922852
31
0
39
0
210
0
220
0
230
1
0
LINE
5
BD
100
AcDbEntity
8
SK1
62
256
6
ByLayer
370
-1
48
1
60
0
100
AcDbLine
10
-48.516223
20
-5.746514
30
0
11
-48.516223
21
-9.893294
31
0
39
0
210
0
220
0
230
1
0
LINE
5
BE
100
AcDbEntity
8
SK1
62
256
6
ByLayer
370
-1
48
1
60
0
100
AcDbLine
10
-48.516223
20
9.893294
30
0
11
-48.516223
21
5.746514
31
0
39
0
210
0
220
0
230
1
0
LINE
5
BF
100
AcDbEntity
8
SK1
62
256
6
ByLayer
370
-1
48
1
60
0
100
AcDbLine
10
-48.6
20
-5.922852
30
0
11
-49
21
-5.922852
31
0
39
0
210
0
220
0
230
1
0
LINE
5
C0
100
AcDbEntity
8
SK1
62
256
6
ByLayer
370
-1
48
1
60
0
100
AcDbLine
10
-47.633814
20
-5.299321
30
0
11
-47.633814
21
-9.640417
31
0
39
0
210
0
220
0
230
1
0
LINE
5
C1
100
AcDbEntity
8
SK1
62
256
6
ByLayer
370
-1
48
1
60
0
100
AcDbLine
10
-47.633814
20
9.640417
30
0
11
-47.633814
21
5.299321
31
0
39
0
210
0
220
0
230
1
0
LINE
5
C2
100
AcDbEntity
8
SK1
62
256
6
ByLayer
370
-1
48
1
60
0
100
AcDbLine
10
-48.6
20
-9.99675
30
0
11
-48.6
21
-5.922852
31
0
39
0
210
0
220
0
230
1
0
LINE
5
C3
100
AcDbEntity
8
SK1
62
256
6
ByLayer
370
-1
48
1
60
0
100
AcDbLine
10
-48.6
20
5.922852
30
0
11
-48.6
21
9.99675
31
0
39
0
210
0
220
0
230
1
0
MTEXT
5
1C0
100
AcDbEntity
8
SK6
62
256
6
ByLayer
370
-1
48
1
60
0
100
AcDbMText
10
0.79375
20
-80.79375
30
0
210
0
220
0
230
1
1
\W00.723;\fsimplex.shx,bigfont.shx;880-D1350L20-02 
40
3.175
41
0
44
1.084337
50
0
71
7
72
5
7
DEFAULT
0
DIMENSION
5
1F0
100
AcDbEntity
8
SK2
62
256
6
ByLayer
370
-3
48
1
60
0
100
AcDbDimension
2
DimnDraft3D1
10
43
20
-51.36955
30
0
11
-3.5
21
-51.36955
31
0
70
32
71
5
72
1
41
1
210
0
220
0
230
1
3
Standard
100
AcDbAlignedDimension
13
-50
23
-11.5875
33
0
14
43
24
-8.3375
34
0
50
0
100
AcDbRotatedDimension
1001
ACAD
1000
DSTYLE
1002
{
1070
   279
1070
     0
1070
   172
1070
     1
1070
   173
1070
     1
1070
   340
1005
1C1
1070
   271
1070
     1
1070
   272
1070
     2
1070
    77
1070
     1
1070
    73
1070
     0
1070
   171
1070
     3
1070
   274
1070
     4
1070
   177
1070
   150
1070
   176
1070
     9
1070
   178
1070
    43
1070
    78
1070
     8
1070
    48
1040
-0.005
1070
    41
1041
4.175
1070
   147
1041
2.25
1070
    42
1041
1.5875
1070
    44
1041
3.175
1070
   140
1041
4.5
1070
   343
1005
0
1070
   344
1005
0
1002
}
0
DIMENSION
5
1FA
100
AcDbEntity
8
SK2
62
256
6
ByLayer
370
-3
48
1
60
0
100
AcDbDimension
2
DimnDraft3D2
10
0
20
-39.4008
30
0
11
-25
21
-39.4008
31
0
70
32
71
5
72
1
41
1
210
0
220
0
230
1
3
Standard
100
AcDbAlignedDimension
13
-50
23
-11.5875
33
0
14
0
24
-14.0875
34
0
50
0
100
AcDbRotatedDimension
1001
ACAD
1000
DSTYLE
1002
{
1070
   279
1070
     0
1070
   172
1070
     1
1070
   173
1070
     1
1070
   340
1005
1C1
1070
   271
1070
     1
1070
   272
1070
     2
1070
    77
1070
     1
1070
    73
1070
     0
1070
   171
1070
     3
1070
   274
1070
     4
1070
   177
1070
   150
1070
   176
1070
     9
1070
   178
1070
    43
1070
    78
1070
     8
1070
    48
1040
-0.005
1070
    41
1041
4.175
1070
   147
1041
2.25
1070
    42
1041
1.5875
1070
    44
1041
3.175
1070
   140
1041
4.5
1070
   343
1005
0
1070
   344
1005
0
1002
}
0
DIMENSION
5
205
100
AcDbEntity
8
2
62
256
6
ByLayer
370
-3
48
1
60
0
100
AcDbDimension
2
DimnDraft3D3
10
43
20
-39.4008
30
0
11
21.5
21
-39.4008
31
0
70
32
71
5
72
1
41
1
210
0
220
0
230
1
3
Standard
100
AcDbAlignedDimension
13
0
23
-14.0875
33
0
14
43
24
-8.3375
34
0
50
0
100
AcDbRotatedDimension
1001
ACAD
1000
DSTYLE
1002
{
1070
   279
1070
     0
1070
   172
1070
     1
1070
   173
1070
     1
1070
   340
1005
1C1
1070
   271
1070
     1
1070
   272
1070
     2
1070
    77
1070
     1
1070
    73
1070
     0
1070
   171
1070
     3
1070
   274
1070
     4
1070
   177
1070
   150
1070
   176
1070
     9
1070
   178
1070
    43
1070
    78
1070
     8
1070
    48
1040
-0.005
1070
    41
1041
4.175
1070
   147
1041
2.25
1070
    42
1041
1.5875
1070
    44
1041
3.175
1070
   140
1041
4.5
1070
   343
1005
0
1070
   344
1005
0
1002
}
0
DIMENSION
5
20F
100
AcDbEntity
8
SK2
62
256
6
ByLayer
370
-3
48
1
60
0
100
AcDbDimension
2
DimnDraft3D4
10
43
20
-29.4008
30
0
11
28
21
-29.4008
31
0
70
32
71
5
72
1
41
1
210
0
220
0
230
1
3
Standard
100
AcDbAlignedDimension
13
13
23
-11.5875
33
0
14
43
24
-8.3375
34
0
50
0
100
AcDbRotatedDimension
1001
ACAD
1000
DSTYLE
1002
{
1070
   279
1070
     0
1070
   172
1070
     1
1070
   173
1070
     1
1070
   340
1005
1C1
1070
   271
1070
     1
1070
   272
1070
     2
1070
    77
1070
     1
1070
    73
1070
     0
1070
   171
1070
     3
1070
   274
1070
     4
1070
   177
1070
   150
1070
   176
1070
     9
1070
   178
1070
    43
1070
    78
1070
     8
1070
    48
1040
-0.005
1070
    41
1041
4.175
1070
   147
1041
2.25
1070
    42
1041
1.5875
1070
    44
1041
3.175
1070
   140
1041
4.5
1070
   343
1005
0
1070
   344
1005
0
1002
}
0
DIMENSION
5
21A
100
AcDbEntity
8
SK2
62
256
6
ByLayer
370
-3
48
1
60
0
100
AcDbDimension
2
DimnDraft3D5
10
-61.9
20
-10
30
0
11
-62.1
21
-27.370395
31
0
70
33
71
5
72
1
41
1
210
0
220
0
230
1
3
Standard
100
AcDbAlignedDimension
13
-51.5875
23
10
33
0
14
-51.5875
24
-10
34
0
1001
ACAD
1000
DSTYLE
1002
{
1070
   279
1070
     0
1070
    74
1070
     0
1070
   173
1070
     1
1070
   340
1005
1C1
1070
   271
1070
     2
1070
   272
1070
     2
1070
    77
1070
     1
1070
    73
1070
     0
1070
   171
1070
     3
1070
   274
1070
     4
1070
   177
1070
   150
1070
   176
1070
     9
1070
   178
1070
    43
1070
    78
1070
     8
1070
    48
1040
-0.005
1070
    41
1041
4.175
1070
   147
1041
2.25
1070
    42
1041
1.5875
1070
    44
1041
3.175
1070
   140
1041
4.5
1070
   343
1005
0
1070
   344
1005
0
1002
}
0
DIMENSION
5
225
100
AcDbEntity
8
SK2
62
256
6
ByLayer
370
-3
48
1
60
0
100
AcDbDimension
2
DimnDraft3D6
10
-71.9
20
12.5
30
0
11
-72.1
21
4.121053
31
0
70
33
71
5
72
1
41
1
210
0
220
0
230
1
3
Standard
100
AcDbAlignedDimension
13
-1.5875
23
-12.5
33
0
14
-1.5875
24
12.5
34
0
1001
ACAD
1000
DSTYLE
1002
{
1070
   279
1070
     0
1070
    74
1070
     0
1070
   173
1070
     1
1070
   340
1005
1C1
1070
   271
1070
     1
1070
   272
1070
     2
1070
    77
1070
     1
1070
    73
1070
     0
1070
   171
1070
     3
1070
   274
1070
     4
1070
   177
1070
   150
1070
   176
1070
     9
1070
   178
1070
    43
1070
    78
1070
     8
1070
    48
1040
-0.005
1070
    41
1041
4.175
1070
   147
1041
2.25
1070
    42
1041
1.5875
1070
    44
1041
3.175
1070
   140
1041
4.5
1070
   343
1005
0
1070
   344
1005
0
1002
}
0
DIMENSION
5
230
100
AcDbEntity
8
2
62
256
6
ByLayer
370
-3
48
1
60
0
100
AcDbDimension
2
DimnDraft3D7
10
73.15
20
-6.75
30
0
11
66.6
21
-28.063816
31
0
70
33
71
5
72
1
41
1
210
0
220
0
230
1
3
Standard
100
AcDbAlignedDimension
13
44.5875
23
6.75
33
0
14
44.5875
24
-6.75
34
0
1001
ACAD
1000
DSTYLE
1002
{
1070
   279
1070
     0
1070
    74
1070
     0
1070
   173
1070
     1
1070
   340
1005
1C1
1070
   271
1070
     2
1070
   272
1070
     2
1070
    77
1070
     1
1070
    73
1070
     0
1070
   171
1070
     3
1070
   274
1070
     4
1070
   177
1070
   150
1070
   176
1070
     9
1070
   178
1070
    43
1070
    78
1070
     8
1070
    48
1040
-0.005
1070
    41
1041
4.175
1070
   147
1041
2.25
1070
    42
1041
1.5875
1070
    44
1041
3.175
1070
   140
1041
4.5
1070
   343
1005
0
1070
   344
1005
0
1002
}
0
ENDSEC
0
SECTION
2
OBJECTS
0
DICTIONARY
5
261
330
0
100
AcDbDictionary
280
0
281
1
3
ACAD_GROUP
350
262
3
ACAD_MLINESTYLE
350
263
0
DICTIONARY
5
262
330
0
100
AcDbDictionary
280
0
281
1
0
DICTIONARY
5
263
330
0
100
AcDbDictionary
280
0
281
1
3
Standard
350
18
0
MLINESTYLE
5
18
330
263
100
AcDbMlineStyle
2
Standard
70
0
3

62
256
51
90
52
90
71
2
49
-0.5
62
256
6
ByLayer
49
0.5
62
256
6
ByLayer
0
RASTERVARIABLES
5
24f
330

100
AcDbRasterVariables
90
0
70
1
71
1
72
1
0
ENDSEC
0
EOF
