0
SECTION
2
HEADER
9
$ACADVER
1
AC1015
9
$DWGCODEPAGE
3
ANSI_1252
9
$HANDSEED
5
272
9
$ANGBASE
50
0
9
$ANGDIR
70
0
9
$ATTMODE
70
1
9
$AUNITS
70
0
9
$AUPREC
70
0
9
$CECOLOR
62
256
9
$CELTSCALE
40
1
9
$CELTYPE
6
ByLayer
9
$CELWEIGHT
370
-1
9
$CLAYER
8
0
9
$CMLJUST
70
0
9
$CMLSCALE
40
1
9
$CMLSTYLE
2
Standard
9
$DIMSTYLE
2
Standard
9
$TEXTSIZE
40
0.2
9
$TEXTSTYLE
7
Standard
9
$LUNITS
70
2
9
$LUPREC
70
4
9
$EXTNAMES
290
1
9
$INSUNITS
70
4
9
$LTSCALE
40
1
9
$LWDISPLAY
290
0
9
$PDMODE
70
0
9
$PDSIZE
40
0
9
$PLINEGEN
70
0
0
ENDSEC
0
SECTION
2
CLASSES
0
CLASS
1
RASTERVARIABLES
2
AcDbRasterVariables
3
ISM
90
0
280
0
281
0
0
ENDSEC
0
SECTION
2
TABLES
0
TABLE
2
VPORT
5
268
100
AcDbSymbolTable
0
VPORT
5
1
100
AcDbSymbolTableRecord
100
AcDbViewportTableRecord
2
*Active
70
0
10
0
20
0
11
1
21
1
12
-1
22
1
13
0
23
0
14
0.5
24
0.5
15
10
25
10
16
0
26
0
36
1
17
0
27
0
37
0
0
ENDTAB
0
TABLE
2
LTYPE
5
269
100
AcDbSymbolTable
0
LTYPE
5
14
100
AcDbSymbolTableRecord
100
AcDbLinetypeTableRecord
70
0
2
ByBlock
3

72
65
73
0
40
0
0
LTYPE
5
15
100
AcDbSymbolTableRecord
100
AcDbLinetypeTableRecord
70
0
2
ByLayer
3

72
65
73
0
40
0
0
LTYPE
5
16
100
AcDbSymbolTableRecord
100
AcDbLinetypeTableRecord
70
0
2
CONTINUOUS
3
Solid line
72
65
73
0
40
0
0
LTYPE
5
3B
100
AcDbSymbolTableRecord
100
AcDbLinetypeTableRecord
70
0
2
DASHED
3
__ __ __ __ __ __ __ __ __
72
65
73
2
40
25.72
49
12.86
74
0
49
-12.86
74
0
0
LTYPE
5
3C
100
AcDbSymbolTableRecord
100
AcDbLinetypeTableRecord
70
0
2
HIDDEN
3
_ _ _ _ _ _ _ _ _ _ _ _ _ _ _
72
65
73
2
40
0.5
49
0.25
74
0
49
-0.25
74
0
0
LTYPE
5
3D
100
AcDbSymbolTableRecord
100
AcDbLinetypeTableRecord
70
0
2
PHANTOM
3
____ _ _ ____ _ _ _____ _ _ ____
72
65
73
6
40
50.5
49
18
74
0
49
-6.5
74
0
49
6.5
74
0
49
-6.5
74
0
49
6.5
74
0
49
-6.5
74
0
0
LTYPE
5
3E
100
AcDbSymbolTableRecord
100
AcDbLinetypeTableRecord
70
0
2
CENTER
3
____ _ ____ _ ____ _ ____
72
65
73
4
40
47.5
49
22
74
0
49
-8.5
74
0
49
8.5
74
0
49
-8.5
74
0
0
LTYPE
5
3F
100
AcDbSymbolTableRecord
100
AcDbLinetypeTableRecord
70
0
2
DOT
3
.........................
72
65
73
2
40
10
49
0
74
0
49
-10
74
0
0
LTYPE
5
40
100
AcDbSymbolTableRecord
100
AcDbLinetypeTableRecord
70
0
2
DASHDOT
3
_._._._._._._._._._._._._._._._.
72
65
73
4
40
70
49
31
74
0
49
-13
74
0
49
13
74
0
49
-13
74
0
0
ENDTAB
0
TABLE
2
LAYER
5
26a
100
AcDbSymbolTable
0
LAYER
5
10
100
AcDbSymbolTableRecord
100
AcDbLayerTableRecord
2
0
70
0
62
7
6
CONTINUOUS
290
1
370
-3
390
0
0
LAYER
5
42
100
AcDbSymbolTableRecord
100
AcDbLayerTableRecord
2
81
70
0
62
-3
6
CONTINUOUS
290
1
370
-3
390
0
0
LAYER
5
44
100
AcDbSymbolTableRecord
100
AcDbLayerTableRecord
2
80
70
0
62
-6
6
CONTINUOUS
290
1
370
-3
390
0
0
LAYER
5
57
100
AcDbSymbolTableRecord
100
AcDbLayerTableRecord
2
1
70
0
62
4
6
CONTINUOUS
290
1
370
-3
390
0
0
LAYER
5
61
100
AcDbSymbolTableRecord
100
AcDbLayerTableRecord
2
4
70
0
62
-2
6
CENTER
290
1
370
-3
390
0
0
LAYER
5
201
100
AcDbSymbolTableRecord
100
AcDbLayerTableRecord
2
2
70
0
62
7
6
CONTINUOUS
290
1
370
-3
390
0
0
LAYER
5
254
100
AcDbSymbolTableRecord
100
AcDbLayerTableRecord
2
SK1
70
0
62
4
6
CONTINUOUS
290
1
370
-3
390
0
0
LAYER
5
255
100
AcDbSymbolTableRecord
100
AcDbLayerTableRecord
2
SK4
70
0
62
2
6
CENTER
290
1
370
-3
390
0
0
LAYER
5
256
100
AcDbSymbolTableRecord
100
AcDbLayerTableRecord
2
SK6
70
0
62
5
6
CONTINUOUS
290
1
370
-3
390
0
0
LAYER
5
257
100
AcDbSymbolTableRecord
100
AcDbLayerTableRecord
2
SK2
70
0
62
7
6
CONTINUOUS
290
1
370
-3
390
0
0
ENDTAB
0
TABLE
2
STYLE
5
26b
100
AcDbSymbolTable
0
STYLE
5
11
100
AcDbSymbolTableRecord
100
AcDbTextStyleTableRecord
2
Standard
3
txt
70
0
71
0
40
0
41
1
42
0
50
0
0
STYLE
5
1C5
100
AcDbSymbolTableRecord
100
AcDbTextStyleTableRecord
2
DEFAULT
3
simplex.shx
70
0
71
0
40
0
41
1
42
0
50
0
0
STYLE
5
1E8
100
AcDbSymbolTableRecord
100
AcDbTextStyleTableRecord
2
DWGDirectTextStyle
3
SIMPLEX
70
0
71
0
40
0
41
1
42
0
50
0
0
ENDTAB
0
TABLE
2
DIMSTYLE
5
26c
100
AcDbSymbolTable
100
AcDbDimStyleTable
0
DIMSTYLE
105
27
100
AcDbSymbolTableRecord
100
AcDbDimStyleTableRecord
2
Standard
70
0
3
<>
41
0.18
42
0.0625
44
0.18
140
0.18
147
0.09
73
0
74
0
77
1
271
2
275
0
278
52
280
0
340
11
0
ENDTAB
0
TABLE
2
VIEW
5
26d
100
AcDbSymbolTable
0
ENDTAB
0
TABLE
2
UCS
5
26e
100
AcDbSymbolTable
0
ENDTAB
0
TABLE
2
APPID
5
26f
100
AcDbSymbolTable
0
APPID
5
12
100
AcDbSymbolTableRecord
100
AcDbRegAppTableRecord
2
ACAD
70
0
0
ENDTAB
0
TABLE
2
BLOCK_RECORD
5
270
100
AcDbSymbolTable
0
BLOCK_RECORD
5
1F
100
AcDbSymbolTableRecord
100
AcDbBlockTableRecord
2
*Model_Space
340
0
70
0
0
BLOCK_RECORD
5
1B
100
AcDbSymbolTableRecord
100
AcDbBlockTableRecord
2
*Paper_Space
340
0
70
0
0
BLOCK_RECORD
5
23
100
AcDbSymbolTableRecord
100
AcDbBlockTableRecord
2
*Paper_Space0
340
0
70
0
0
BLOCK_RECORD
5
1EA
100
AcDbSymbolTableRecord
100
AcDbBlockTableRecord
2
DimnDraft3D1
340
0
70
0
0
BLOCK_RECORD
5
1F5
100
AcDbSymbolTableRecord
100
AcDbBlockTableRecord
2
DimnDraft3D2
340
0
70
0
0
BLOCK_RECORD
5
1FF
100
AcDbSymbolTableRecord
100
AcDbBlockTableRecord
2
DimnDraft3D3
340
0
70
0
0
BLOCK_RECORD
5
20A
100
AcDbSymbolTableRecord
100
AcDbBlockTableRecord
2
DimnDraft3D4
340
0
70
0
0
BLOCK_RECORD
5
214
100
AcDbSymbolTableRecord
100
AcDbBlockTableRecord
2
DimnDraft3D5
340
0
70
0
0
BLOCK_RECORD
5
21F
100
AcDbSymbolTableRecord
100
AcDbBlockTableRecord
2
DimnDraft3D6
340
0
70
0
0
BLOCK_RECORD
5
22A
100
AcDbSymbolTableRecord
100
AcDbBlockTableRecord
2
DimnDraft3D7
340
0
70
0
0
ENDTAB
0
ENDSEC
0
SECTION
2
BLOCKS
0
BLOCK
5
20
100
AcDbEntity
8
0
100
AcDbBlockBegin
2
*Model_Space
70
0
10
0
20
0
30
0
3
*Model_Space
0
ENDBLK
5
21
100
AcDbEntity
8
0
100
AcDbBlockEnd
0
BLOCK
5
1C
100
AcDbEntity
8
0
100
AcDbBlockBegin
2
*Paper_Space
70
0
10
0
20
0
30
0
3
*Paper_Space
0
ENDBLK
5
1D
100
AcDbEntity
8
0
100
AcDbBlockEnd
0
BLOCK
5
24
100
AcDbEntity
8
0
100
AcDbBlockBegin
2
*Paper_Space0
70
0
10
0
20
0
30
0
3
*Paper_Space0
0
ENDBLK
5
25
100
AcDbEntity
8
0
100
AcDbBlockEnd
0
BLOCK
5
1F2
100
AcDbEntity
8
0
100
AcDbBlockBegin
2
DimnDraft3D1
70
0
10
0
20
0
30
0
3
DimnDraft3D1
0
MTEXT
5
1EB
100
AcDbEntity
8
SK2
62
256
6
ByLayer
370
-1
48
1
60
0
100
AcDbMText
10
2.469079
20
-48.2758
30
0
210
0
220
0
230
1
1
\W01.000;\fsimplex.shx,bigfont.shx;(118) 
40
4.5
41
0
44
1.084337
50
0
71
7
72
5
7
DEFAULT
0
LINE
5
1ED
100
AcDbEntity
8
SK2
62
256
6
ByLayer
370
-1
48
1
60
0
100
AcDbLine
10
-50
20
-11.5875
30
0
11
-50
21
-54.54455
31
0
39
0
210
0
220
0
230
1
0
LINE
5
1EE
100
AcDbEntity
8
SK2
62
256
6
ByLayer
370
-1
48
1
60
0
100
AcDbLine
10
68
20
-8.0875
30
0
11
68
21
-54.54455
31
0
39
0
210
0
220
0
230
1
0
LINE
5
1EF
100
AcDbEntity
8
SK2
62
256
6
ByLayer
370
-1
48
1
60
0
100
AcDbLine
10
-50
20
-51.36955
30
0
11
68
21
-51.36955
31
0
39
0
210
0
220
0
230
1
0
SOLID
5
1F0
100
AcDbEntity
8
SK2
62
256
6
ByLayer
370
-1
48
1
60
0
100
AcDbTrace
10
-50
20
-51.36955
30
0
11
-45.825003
21
-50.443975
31
0
12
-45.824997
22
-52.295125
32
0
13
-50
23
-51.36955
33
0
39
0
210
0
220
0
230
1
0
SOLID
5
1F1
100
AcDbEntity
8
SK2
62
256
6
ByLayer
370
-1
48
1
60
0
100
AcDbTrace
10
68
20
-51.36955
30
0
11
63.825003
21
-52.295125
31
0
12
63.824997
22
-50.443975
32
0
13
68
23
-51.36955
33
0
39
0
210
0
220
0
230
1
0
ENDBLK
5
1F3
100
AcDbEntity
8
0
100
AcDbBlockEnd
0
BLOCK
5
1FC
100
AcDbEntity
8
0
100
AcDbBlockBegin
2
DimnDraft3D2
70
0
10
0
20
0
30
0
3
DimnDraft3D2
0
MTEXT
5
1F6
100
AcDbEntity
8
SK2
62
256
6
ByLayer
370
-1
48
1
60
0
100
AcDbMText
10
-26.503947
20
-38.2758
30
0
210
0
220
0
230
1
1
\W01.000;\fsimplex.shx,bigfont.shx;50 
40
4.5
41
0
44
1.084337
50
0
71
7
72
5
7
DEFAULT
0
LINE
5
1F7
100
AcDbEntity
8
SK2
62
256
6
ByLayer
370
-1
48
1
60
0
100
AcDbLine
10
-50
20
-11.5875
30
0
11
-50
21
-42.5758
31
0
39
0
210
0
220
0
230
1
0
LINE
5
1F8
100
AcDbEntity
8
SK2
62
256
6
ByLayer
370
-1
48
1
60
0
100
AcDbLine
10
0
20
-14.0875
30
0
11
0
21
-42.5758
31
0
39
0
210
0
220
0
230
1
0
LINE
5
1F9
100
AcDbEntity
8
SK2
62
256
6
ByLayer
370
-1
48
1
60
0
100
AcDbLine
10
-50
20
-39.4008
30
0
11
0
21
-39.4008
31
0
39
0
210
0
220
0
230
1
0
SOLID
5
1FA
100
AcDbEntity
8
SK2
62
256
6
ByLayer
370
-1
48
1
60
0
100
AcDbTrace
10
-50
20
-39.4008
30
0
11
-45.825003
21
-38.475225
31
0
12
-45.824997
22
-40.326375
32
0
13
-50
23
-39.4008
33
0
39
0
210
0
220
0
230
1
0
SOLID
5
1FB
100
AcDbEntity
8
SK2
62
256
6
ByLayer
370
-1
48
1
60
0
100
AcDbTrace
10
0
20
-39.4008
30
0
11
-4.174997
21
-40.326375
31
0
12
-4.175003
22
-38.475225
32
0
13
0
23
-39.4008
33
0
39
0
210
0
220
0
230
1
0
ENDBLK
5
1FD
100
AcDbEntity
8
0
100
AcDbBlockEnd
0
BLOCK
5
207
100
AcDbEntity
8
0
100
AcDbBlockBegin
2
DimnDraft3D3
70
0
10
0
20
0
30
0
3
DimnDraft3D3
0
MTEXT
5
200
100
AcDbEntity
8
2
62
256
6
ByLayer
370
-1
48
1
60
0
100
AcDbMText
10
32.496053
20
-38.2758
30
0
210
0
220
0
230
1
1
\W01.000;\fsimplex.shx,bigfont.shx;68 
40
4.5
41
0
44
1.084337
50
0
71
7
72
5
7
DEFAULT
0
LINE
5
202
100
AcDbEntity
8
2
62
256
6
ByLayer
370
-1
48
1
60
0
100
AcDbLine
10
0
20
-14.0875
30
0
11
0
21
-42.5758
31
0
39
0
210
0
220
0
230
1
0
LINE
5
203
100
AcDbEntity
8
2
62
256
6
ByLayer
370
-1
48
1
60
0
100
AcDbLine
10
68
20
-8.0875
30
0
11
68
21
-42.5758
31
0
39
0
210
0
220
0
230
1
0
LINE
5
204
100
AcDbEntity
8
2
62
256
6
ByLayer
370
-1
48
1
60
0
100
AcDbLine
10
0
20
-39.4008
30
0
11
68
21
-39.4008
31
0
39
0
210
0
220
0
230
1
0
SOLID
5
205
100
AcDbEntity
8
2
62
256
6
ByLayer
370
-1
48
1
60
0
100
AcDbTrace
10
0
20
-39.4008
30
0
11
4.174997
21
-38.475225
31
0
12
4.175003
22
-40.326375
32
0
13
0
23
-39.4008
33
0
39
0
210
0
220
0
230
1
0
SOLID
5
206
100
AcDbEntity
8
2
62
256
6
ByLayer
370
-1
48
1
60
0
100
AcDbTrace
10
68
20
-39.4008
30
0
11
63.825003
21
-40.326375
31
0
12
63.824997
22
-38.475225
32
0
13
68
23
-39.4008
33
0
39
0
210
0
220
0
230
1
0
ENDBLK
5
208
100
AcDbEntity
8
0
100
AcDbBlockEnd
0
BLOCK
5
211
100
AcDbEntity
8
0
100
AcDbBlockBegin
2
DimnDraft3D4
70
0
10
0
20
0
30
0
3
DimnDraft3D4
0
MTEXT
5
20B
100
AcDbEntity
8
SK2
62
256
6
ByLayer
370
-1
48
1
60
0
100
AcDbMText
10
38.996053
20
-28.2758
30
0
210
0
220
0
230
1
1
\W01.000;\fsimplex.shx,bigfont.shx;55 
40
4.5
41
0
44
1.084337
50
0
71
7
72
5
7
DEFAULT
0
LINE
5
20C
100
AcDbEntity
8
SK2
62
256
6
ByLayer
370
-1
48
1
60
0
100
AcDbLine
10
13
20
-11.5875
30
0
11
13
21
-32.5758
31
0
39
0
210
0
220
0
230
1
0
LINE
5
20D
100
AcDbEntity
8
SK2
62
256
6
ByLayer
370
-1
48
1
60
0
100
AcDbLine
10
68
20
-8.0875
30
0
11
68
21
-32.5758
31
0
39
0
210
0
220
0
230
1
0
LINE
5
20E
100
AcDbEntity
8
SK2
62
256
6
ByLayer
370
-1
48
1
60
0
100
AcDbLine
10
13
20
-29.4008
30
0
11
68
21
-29.4008
31
0
39
0
210
0
220
0
230
1
0
SOLID
5
20F
100
AcDbEntity
8
SK2
62
256
6
ByLayer
370
-1
48
1
60
0
100
AcDbTrace
10
13
20
-29.4008
30
0
11
17.174997
21
-28.475225
31
0
12
17.175003
22
-30.326375
32
0
13
13
23
-29.4008
33
0
39
0
210
0
220
0
230
1
0
SOLID
5
210
100
AcDbEntity
8
SK2
62
256
6
ByLayer
370
-1
48
1
60
0
100
AcDbTrace
10
68
20
-29.4008
30
0
11
63.825003
21
-30.326375
31
0
12
63.824997
22
-28.475225
32
0
13
68
23
-29.4008
33
0
39
0
210
0
220
0
230
1
0
ENDBLK
5
212
100
AcDbEntity
8
0
100
AcDbBlockEnd
0
BLOCK
5
21C
100
AcDbEntity
8
0
100
AcDbBlockBegin
2
DimnDraft3D5
70
0
10
0
20
0
30
0
3
DimnDraft3D5
0
MTEXT
5
215
100
AcDbEntity
8
SK2
62
256
6
ByLayer
370
-1
48
1
60
0
100
AcDbMText
10
-60.975
20
-26.245395
30
0
210
0
220
0
230
1
1
\W01.000;\fsimplex.shx,bigfont.shx;20 
40
4.5
41
0
44
1.084337
50
90
71
7
72
5
7
DEFAULT
0
MTEXT
5
216
100
AcDbEntity
8
SK2
62
256
6
ByLayer
370
-1
48
1
60
0
100
AcDbMText
10
-60.975
20
-39.745395
30
0
210
0
220
0
230
1
1
\W01.000;\fsimplex.shx,bigfont.shx;%%c 
40
4.5
41
0
44
1.084337
50
90
71
7
72
5
7
DEFAULT
0
LINE
5
217
100
AcDbEntity
8
SK2
62
256
6
ByLayer
370
-1
48
1
60
0
100
AcDbLine
10
-51.5875
20
10
30
0
11
-61.9
21
10
31
0
39
0
210
0
220
0
230
1
0
LINE
5
218
100
AcDbEntity
8
SK2
62
256
6
ByLayer
370
-1
48
1
60
0
100
AcDbLine
10
-51.5875
20
-10
30
0
11
-61.9
21
-10
31
0
39
0
210
0
220
0
230
1
0
LINE
5
219
100
AcDbEntity
8
SK2
62
256
6
ByLayer
370
-1
48
1
60
0
100
AcDbLine
10
-58.725
20
10
30
0
11
-58.725
21
-40.870395
31
0
39
0
210
0
220
0
230
1
0
SOLID
5
21A
100
AcDbEntity
8
SK2
62
256
6
ByLayer
370
-1
48
1
60
0
100
AcDbTrace
10
-58.725
20
10
30
0
11
-57.799425
21
5.825003
31
0
12
-59.650575
22
5.824997
32
0
13
-58.725
23
10
33
0
39
0
210
0
220
0
230
1
0
SOLID
5
21B
100
AcDbEntity
8
SK2
62
256
6
ByLayer
370
-1
48
1
60
0
100
AcDbTrace
10
-58.725
20
-10
30
0
11
-59.650575
21
-5.825003
31
0
12
-57.799425
22
-5.824997
32
0
13
-58.725
23
-10
33
0
39
0
210
0
220
0
230
1
0
ENDBLK
5
21D
100
AcDbEntity
8
0
100
AcDbBlockEnd
0
BLOCK
5
227
100
AcDbEntity
8
0
100
AcDbBlockBegin
2
DimnDraft3D6
70
0
10
0
20
0
30
0
3
DimnDraft3D6
0
MTEXT
5
220
100
AcDbEntity
8
SK2
62
256
6
ByLayer
370
-1
48
1
60
0
100
AcDbMText
10
-70.975
20
5.246053
30
0
210
0
220
0
230
1
1
\W01.000;\fsimplex.shx,bigfont.shx;25 
40
4.5
41
0
44
1.084337
50
90
71
7
72
5
7
DEFAULT
0
MTEXT
5
221
100
AcDbEntity
8
SK2
62
256
6
ByLayer
370
-1
48
1
60
0
100
AcDbMText
10
-70.975
20
-8.253947
30
0
210
0
220
0
230
1
1
\W01.000;\fsimplex.shx,bigfont.shx;%%c 
40
4.5
41
0
44
1.084337
50
90
71
7
72
5
7
DEFAULT
0
LINE
5
222
100
AcDbEntity
8
SK2
62
256
6
ByLayer
370
-1
48
1
60
0
100
AcDbLine
10
-1.5875
20
-12.5
30
0
11
-71.9
21
-12.5
31
0
39
0
210
0
220
0
230
1
0
LINE
5
223
100
AcDbEntity
8
SK2
62
256
6
ByLayer
370
-1
48
1
60
0
100
AcDbLine
10
-1.5875
20
12.5
30
0
11
-71.9
21
12.5
31
0
39
0
210
0
220
0
230
1
0
LINE
5
224
100
AcDbEntity
8
SK2
62
256
6
ByLayer
370
-1
48
1
60
0
100
AcDbLine
10
-68.725
20
-23.75
30
0
11
-68.725
21
23.75
31
0
39
0
210
0
220
0
230
1
0
SOLID
5
225
100
AcDbEntity
8
SK2
62
256
6
ByLayer
370
-1
48
1
60
0
100
AcDbTrace
10
-68.725
20
-12.5
30
0
11
-67.799425
21
-16.674997
31
0
12
-69.650575
22
-16.675003
32
0
13
-68.725
23
-12.5
33
0
39
0
210
0
220
0
230
1
0
SOLID
5
226
100
AcDbEntity
8
SK2
62
256
6
ByLayer
370
-1
48
1
60
0
100
AcDbTrace
10
-68.725
20
12.5
30
0
11
-69.650575
21
16.674997
31
0
12
-67.799425
22
16.675003
32
0
13
-68.725
23
12.5
33
0
39
0
210
0
220
0
230
1
0
ENDBLK
5
228
100
AcDbEntity
8
0
100
AcDbBlockEnd
0
BLOCK
5
232
100
AcDbEntity
8
0
100
AcDbBlockBegin
2
DimnDraft3D7
70
0
10
0
20
0
30
0
3
DimnDraft3D7
0
MTEXT
5
22B
100
AcDbEntity
8
2
62
256
6
ByLayer
370
-1
48
1
60
0
100
AcDbMText
10
92.725
20
-21.620395
30
0
210
0
220
0
230
1
1
\W01.000;\fsimplex.shx,bigfont.shx;13 
40
4.5
41
0
44
1.084337
50
90
71
7
72
5
7
DEFAULT
0
MTEXT
5
22C
100
AcDbEntity
8
2
62
256
6
ByLayer
370
-1
48
1
60
0
100
AcDbMText
10
92.725
20
-35.120395
30
0
210
0
220
0
230
1
1
\W01.000;\fsimplex.shx,bigfont.shx;%%c 
40
4.5
41
0
44
1.084337
50
90
71
7
72
5
7
DEFAULT
0
LINE
5
22D
100
AcDbEntity
8
2
62
256
6
ByLayer
370
-1
48
1
60
0
100
AcDbLine
10
69.5875
20
6.5
30
0
11
98.15
21
6.5
31
0
39
0
210
0
220
0
230
1
0
LINE
5
22E
100
AcDbEntity
8
2
62
256
6
ByLayer
370
-1
48
1
60
0
100
AcDbLine
10
69.5875
20
-6.5
30
0
11
98.15
21
-6.5
31
0
39
0
210
0
220
0
230
1
0
LINE
5
22F
100
AcDbEntity
8
2
62
256
6
ByLayer
370
-1
48
1
60
0
100
AcDbLine
10
94.975
20
6.5
30
0
11
94.975
21
-36.245395
31
0
39
0
210
0
220
0
230
1
0
SOLID
5
230
100
AcDbEntity
8
2
62
256
6
ByLayer
370
-1
48
1
60
0
100
AcDbTrace
10
94.975
20
6.5
30
0
11
95.900575
21
2.325003
31
0
12
94.049425
22
2.324997
32
0
13
94.975
23
6.5
33
0
39
0
210
0
220
0
230
1
0
SOLID
5
231
100
AcDbEntity
8
2
62
256
6
ByLayer
370
-1
48
1
60
0
100
AcDbTrace
10
94.975
20
-6.5
30
0
11
94.049425
21
-2.325003
31
0
12
95.900575
22
-2.324997
32
0
13
94.975
23
-6.5
33
0
39
0
210
0
220
0
230
1
0
ENDBLK
5
233
100
AcDbEntity
8
0
100
AcDbBlockEnd
0
ENDSEC
0
SECTION
2
ENTITIES
0
ARC
5
C9
100
AcDbEntity
8
SK1
62
256
6
ByLayer
370
-1
48
1
60
0
100
AcDbCircle
39
0
10
1.382165
20
10.15
30
0
40
0.4
210
0
220
0
230
-1
100
AcDbArc
50
270
51
295
0
ARC
5
CA
100
AcDbEntity
8
SK1
62
256
6
ByLayer
370
-1
48
1
60
0
100
AcDbCircle
39
0
10
1.382165
20
-10.15
30
0
40
0.4
210
0
220
0
230
-1
100
AcDbArc
50
65
51
90
0
ARC
5
CB
100
AcDbEntity
8
SK1
62
256
6
ByLayer
370
-1
48
1
60
0
100
AcDbCircle
39
0
10
0.15
20
10.15
30
0
40
0.4
210
0
220
0
230
-1
100
AcDbArc
50
247.975687
51
270
0
ARC
5
CC
100
AcDbEntity
8
SK1
62
256
6
ByLayer
370
-1
48
1
60
0
100
AcDbCircle
39
0
10
0.15
20
-10.15
30
0
40
0.4
210
0
220
0
230
-1
100
AcDbArc
50
90
51
112.024313
0
ARC
5
CD
100
AcDbEntity
8
SK1
62
256
6
ByLayer
370
-1
48
1
60
0
100
AcDbCircle
39
0
10
47.894506
20
10.39675
30
0
40
0.8
210
0
220
0
230
-1
100
AcDbArc
50
250.982048
51
321
0
ARC
5
CE
100
AcDbEntity
8
SK1
62
256
6
ByLayer
370
-1
48
1
60
0
100
AcDbCircle
39
0
10
47.894506
20
-10.39675
30
0
40
0.8
210
0
220
0
230
-1
100
AcDbArc
50
39
51
109.017952
0
ELLIPSE
5
CF
100
AcDbEntity
8
1
62
256
6
ByLayer
370
-1
48
1
60
0
100
AcDbEllipse
10
61.838166
20
6.430289
30
0
11
4.92010403772836E-15
21
4.2
31
0
210
0
220
0
230
1
40
0.996195
41
2.70526034059121
42
2.98295464065568
0
ELLIPSE
5
D0
100
AcDbEntity
8
1
62
256
6
ByLayer
370
-1
48
1
60
0
100
AcDbEllipse
10
62.716214
20
2.633988
30
0
11
-1.4470236532442E-15
21
-1.35
31
0
210
0
220
0
230
1
40
0.996195
41
-2.03855290774144
42
-2.00712863979349
0
ELLIPSE
5
D1
100
AcDbEntity
8
1
62
256
6
ByLayer
370
-1
48
1
60
0
100
AcDbEllipse
10
62.976837
20
3.83
30
0
11
-4.35153179390384
21
-2.90042265160811
31
0
210
0
220
0
230
-1
40
0.450179
41
-1.10602956947031
42
-0.943493766533988
0
ELLIPSE
5
D2
100
AcDbEntity
8
1
62
256
6
ByLayer
370
-1
48
1
60
0
100
AcDbEllipse
10
60.000199
20
2.623797
30
0
11
-0.339154326220872
21
-0.724551132085008
31
0
210
0
220
0
230
1
40
0.07899
41
0.282388790701149
42
1.60775379831957
0
ELLIPSE
5
D3
100
AcDbEntity
8
1
62
256
6
ByLayer
370
-1
48
1
60
0
100
AcDbEllipse
10
62.504898
20
2.498041
30
0
11
1.58146201212697E-15
21
1.35
31
0
210
0
220
0
230
1
40
0.996195
41
1.32377705753461
42
1.73074728884203
0
ELLIPSE
5
D4
100
AcDbEntity
8
1
62
256
6
ByLayer
370
-1
48
1
60
0
100
AcDbEllipse
10
62.434211
20
5.528274
30
0
11
-1.23306500367857
21
-2.65326312212206
31
0
210
0
220
0
230
-1
40
0.018911
41
-0.51254522673171
42
-0.393223065748652
0
ELLIPSE
5
D5
100
AcDbEntity
8
1
62
256
6
ByLayer
370
-1
48
1
60
0
100
AcDbEllipse
10
67.995719
20
0
30
0
11
-1.06689863968313
21
-6.22342080601559
31
0
210
0
220
0
230
-1
40
0.131417
41
0.0176760854086793
42
1.31980484141113
0
ELLIPSE
5
D6
100
AcDbEntity
8
1
62
256
6
ByLayer
370
-1
48
1
60
0
100
AcDbEllipse
10
67.234809
20
-0.478453
30
0
11
-0.15080960216558
21
0.684208661377297
31
0
210
0
220
0
230
-1
40
0.109732
41
-1.50594373612942
42
0.0648525906602097
0
ELLIPSE
5
D7
100
AcDbEntity
8
1
62
256
6
ByLayer
370
-1
48
1
60
0
100
AcDbEllipse
10
64.638768
20
-1.904183
30
0
11
-1
21
1.01063905508236E-15
31
0
210
0
220
0
230
1
40
0.998135
41
0
42
6.28318530717959
0
ELLIPSE
5
D8
100
AcDbEntity
8
1
62
256
6
ByLayer
370
-1
48
1
60
0
100
AcDbEllipse
10
62.549468
20
2.758041
30
0
11
-1.4470236532442E-15
21
-1.35
31
0
210
0
220
0
230
1
40
0.996195
41
-1.76569142660093
42
-1.62274188962593
0
ELLIPSE
5
D9
100
AcDbEntity
8
1
62
256
6
ByLayer
370
-1
48
1
60
0
100
AcDbEllipse
10
62.066204
20
2.772743
30
0
11
-0.634846249717448
21
0.294907170512505
31
0
210
0
220
0
230
1
40
0.036834
41
-0.625371171758206
42
-0.0791261077920496
0
ELLIPSE
5
DA
100
AcDbEntity
8
1
62
256
6
ByLayer
370
-1
48
1
60
0
100
AcDbEllipse
10
64.953992
20
3.780289
30
0
11
1.17145334231628E-15
21
1
31
0
210
0
220
0
230
1
40
0.996195
41
0.0744169517263243
42
1.57079654872779
0
ELLIPSE
5
DB
100
AcDbEntity
8
1
62
256
6
ByLayer
370
-1
48
1
60
0
100
AcDbEllipse
10
64.953992
20
3.780289
30
0
11
1.17145334231628E-15
21
1
31
0
210
0
220
0
230
1
40
0.996195
41
1.57079654872778
42
2.13814839104023
0
ELLIPSE
5
DC
100
AcDbEntity
8
1
62
256
6
ByLayer
370
-1
48
1
60
0
100
AcDbEllipse
10
60.127101
20
0
30
0
11
-28.622761080071
21
0.398815189788792
31
0
210
0
220
0
230
-1
40
0.217037
41
-1.59470546110983
42
-1.49732143640133
0
ELLIPSE
5
DD
100
AcDbEntity
8
1
62
256
6
ByLayer
370
-1
48
1
60
0
100
AcDbEllipse
10
63.584049
20
0.521992
30
0
11
-1.49929979474923
21
0.00493645371948439
31
0
210
0
220
0
230
-1
40
0.138512
41
0
42
6.28318530717959
0
ELLIPSE
5
DE
100
AcDbEntity
8
1
62
256
6
ByLayer
370
-1
48
1
60
0
100
AcDbEllipse
10
-16.422607
20
0
30
0
11
-275.890421255775
21
-6.01462255421459
31
0
210
0
220
0
230
-1
40
0.005816
41
-1.87614326869314
42
-1.85645547893666
0
ELLIPSE
5
DF
100
AcDbEntity
8
1
62
256
6
ByLayer
370
-1
48
1
60
0
100
AcDbEllipse
10
62.976826
20
1.935125
30
0
11
0.35100127149786
21
-0.605638594713783
31
0
210
0
220
0
230
1
40
0.075479
41
0.472977587146962
42
0.836273843398395
0
ELLIPSE
5
E0
100
AcDbEntity
8
1
62
256
6
ByLayer
370
-1
48
1
60
0
100
AcDbEllipse
10
68.561368
20
1.288214
30
0
11
-3.12062270445682
21
0.091167117171874
31
0
210
0
220
0
230
-1
40
0.015419
41
1.01155872858945
42
1.0261210755084
0
ELLIPSE
5
E1
100
AcDbEntity
8
1
62
256
6
ByLayer
370
-1
48
1
60
0
100
AcDbEllipse
10
62.129356
20
2.908689
30
0
11
-0.634846249717448
21
0.294907170512505
31
0
210
0
220
0
230
1
40
0.036834
41
-0.291919532341896
42
-0.0791261077919286
0
ELLIPSE
5
E2
100
AcDbEntity
8
1
62
256
6
ByLayer
370
-1
48
1
60
0
100
AcDbEllipse
10
60.63582
20
-3.6E-05
30
0
11
-1.24249543967371
21
-6.22415762072093
31
0
210
0
220
0
230
-1
40
0.084159
41
3.09822145746523
42
3.10843159621169
0
ELLIPSE
5
E3
100
AcDbEntity
8
1
62
256
6
ByLayer
370
-1
48
1
60
0
100
AcDbEllipse
10
61.9142
20
2.883923
30
0
11
-0.686845440335521
21
0.135067912882017
31
0
210
0
220
0
230
1
40
0.016879
41
-0.415466638282981
42
-0.0856224731666173
0
ELLIPSE
5
E4
100
AcDbEntity
8
1
62
256
6
ByLayer
370
-1
48
1
60
0
100
AcDbEllipse
10
67.428401
20
1.623688
30
0
11
-0.175074129231885
21
-0.782085519361672
31
0
210
0
220
0
230
-1
40
0.463068
41
1.10116813379072
42
1.41227765177866
0
ELLIPSE
5
E5
100
AcDbEntity
8
1
62
256
6
ByLayer
370
-1
48
1
60
0
100
AcDbEllipse
10
61.768441
20
6.430289
30
0
11
-5.35934686386741E-15
21
-5
31
0
210
0
220
0
230
1
40
0.996195
41
-0.317555817762895
42
-0.0320260714809346
0
ELLIPSE
5
E6
100
AcDbEntity
8
1
62
256
6
ByLayer
370
-1
48
1
60
0
100
AcDbEllipse
10
62.653063
20
2.498041
30
0
11
-1.4470236532442E-15
21
-1.35
31
0
210
0
220
0
230
1
40
0.996195
41
-2.00712863979348
42
-0.17393312784892
0
ELLIPSE
5
E7
100
AcDbEntity
8
1
62
256
6
ByLayer
370
-1
48
1
60
0
100
AcDbEllipse
10
60.062787
20
0
30
0
11
-27.8432099760444
21
-3.15491326053968E-14
31
0
210
0
220
0
230
-1
40
0.223573
41
1.42418051380075
42
1.5730781340567
0
ELLIPSE
5
E8
100
AcDbEntity
8
1
62
256
6
ByLayer
370
-1
48
1
60
0
100
AcDbEllipse
10
67.309588
20
0
30
0
11
-1.3846655859954
21
6.22323396815449
31
0
210
0
220
0
230
-1
40
0.10708
41
-1.77544172310011
42
-1.50234971951184
0
ELLIPSE
5
E9
100
AcDbEntity
8
1
62
256
6
ByLayer
370
-1
48
1
60
0
100
AcDbEllipse
10
62.543907
20
2.758041
30
0
11
1.58146201212697E-15
21
1.35
31
0
210
0
220
0
230
1
40
0.996195
41
1.37590122698886
42
1.51885076396386
0
ELLIPSE
5
EA
100
AcDbEntity
8
1
62
256
6
ByLayer
370
-1
48
1
60
0
100
AcDbEllipse
10
64.638768
20
-2.056741
30
0
11
1
21
0
31
0
210
0
220
0
230
1
40
0.998135
41
0.076576522604533
42
3.06511477049751
0
ELLIPSE
5
EB
100
AcDbEntity
8
1
62
256
6
ByLayer
370
-1
48
1
60
0
100
AcDbEllipse
10
62.737193
20
2.498041
30
0
11
-1.20133142694117
21
-1.03359171361804
31
0
210
0
220
0
230
-1
40
0.722898
41
-1.22238510543274
42
-0.858809678313685
0
ELLIPSE
5
EC
100
AcDbEntity
8
1
62
256
6
ByLayer
370
-1
48
1
60
0
100
AcDbEllipse
10
60.506122
20
3.731048
30
0
11
-0.502702290575645
21
-3.3626314705971
31
0
210
0
220
0
230
1
40
0.215901
41
0.264671147229443
42
0.890939523397464
0
ELLIPSE
5
ED
100
AcDbEntity
8
1
62
256
6
ByLayer
370
-1
48
1
60
0
100
AcDbEllipse
10
34.525069
20
7.615129
30
0
11
-25.59642664001
21
3.78240120767488
31
0
210
0
220
0
230
-1
40
0.131393
41
3.12217899527357
42
-2.87568844363635
0
ELLIPSE
5
EE
100
AcDbEntity
8
1
62
256
6
ByLayer
370
-1
48
1
60
0
100
AcDbEllipse
10
8.4
20
5.650599
30
0
11
-3.5
21
3.53723669278827E-15
31
0
210
0
220
0
230
1
40
0.555879
41
-1.69551227631468
42
-0.54447023405024
0
ELLIPSE
5
EF
100
AcDbEntity
8
1
62
256
6
ByLayer
370
-1
48
1
60
0
100
AcDbEllipse
10
64.638768
20
-1.904183
30
0
11
1.1
21
0
31
0
210
0
220
0
230
1
40
0.998135
41
0
42
-3.14159250247965
0
ELLIPSE
5
F0
100
AcDbEntity
8
1
62
256
6
ByLayer
370
-1
48
1
60
0
100
AcDbEllipse
10
67.450421
20
0.60619
30
0
11
-0.0238435923359342
21
0.843437382662273
31
0
210
0
220
0
230
-1
40
0.493236
41
-2.05370409704334
42
-1.53498582977654
0
ELLIPSE
5
F1
100
AcDbEntity
8
1
62
256
6
ByLayer
370
-1
48
1
60
0
100
AcDbEllipse
10
64.527256
20
2.108041
30
0
11
-1.20926485984292
21
-0.699499662388315
31
0
210
0
220
0
230
-1
40
0.021882
41
-0.728344145732747
42
-0.0378114582686301
0
ELLIPSE
5
F2
100
AcDbEntity
8
1
62
256
6
ByLayer
370
-1
48
1
60
0
100
AcDbEllipse
10
64.797112
20
3.780289
30
0
11
-1.25944651300884E-15
21
-1.175
31
0
210
0
220
0
230
1
40
0.996195
41
-3.14159237692217
42
-2.56628827920619
0
ELLIPSE
5
F3
100
AcDbEntity
8
1
62
256
6
ByLayer
370
-1
48
1
60
0
100
AcDbEllipse
10
67.12749
20
-3.710881
30
0
11
-0.135913575181266
21
-0.768845004883723
31
0
210
0
220
0
230
-1
40
0.119599
41
-0.000971506604478897
42
1.56982482019732
0
ELLIPSE
5
F4
100
AcDbEntity
8
1
62
256
6
ByLayer
370
-1
48
1
60
0
100
AcDbEllipse
10
64.805918
20
3.780289
30
0
11
-1.07186937277348E-15
21
-1
31
0
210
0
220
0
230
1
40
0.996195
41
1.57079654872778
42
-1.77882855322155
0
ELLIPSE
5
F5
100
AcDbEntity
8
1
62
256
6
ByLayer
370
-1
48
1
60
0
100
AcDbEllipse
10
64.805918
20
3.780289
30
0
11
-1.07186937277348E-15
21
-1
31
0
210
0
220
0
230
1
40
0.996195
41
0.982827342672287
42
1.57079554872778
0
ELLIPSE
5
F6
100
AcDbEntity
8
1
62
256
6
ByLayer
370
-1
48
1
60
0
100
AcDbEllipse
10
64.788396
20
3.780289
30
0
11
-1.25944651300884E-15
21
-1.175
31
0
210
0
220
0
230
1
40
0.996195
41
1.7844247162685
42
-2.59201020032128
0
ELLIPSE
5
F7
100
AcDbEntity
8
1
62
256
6
ByLayer
370
-1
48
1
60
0
100
AcDbEllipse
10
67.961176
20
0.422141
30
0
11
-0.965912152162858
21
-0.469148520674992
31
0
210
0
220
0
230
-1
40
0.295025
41
0.560226938728803
42
0.616491338401045
0
ELLIPSE
5
F8
100
AcDbEntity
8
1
62
256
6
ByLayer
370
-1
48
1
60
0
100
AcDbEllipse
10
59.963964
20
0
30
0
11
-71.1520751499383
21
-8.06223943283091E-14
31
0
210
0
220
0
230
-1
40
0.087489
41
1.57307813407052
42
1.59736889658333
0
ELLIPSE
5
F9
100
AcDbEntity
8
1
62
256
6
ByLayer
370
-1
48
1
60
0
100
AcDbEllipse
10
64.926992
20
3.980289
30
0
11
1.2885986765479E-15
21
1.1
31
0
210
0
220
0
230
1
40
0.996195
41
0.0408407115142777
42
1.5707962760005
0
ELLIPSE
5
FA
100
AcDbEntity
8
1
62
256
6
ByLayer
370
-1
48
1
60
0
100
AcDbEllipse
10
64.926992
20
3.980289
30
0
11
1.2885986765479E-15
21
1.1
31
0
210
0
220
0
230
1
40
0.996195
41
1.57079627600048
42
3.10075184009929
0
ELLIPSE
5
FB
100
AcDbEntity
8
1
62
256
6
ByLayer
370
-1
48
1
60
0
100
AcDbEllipse
10
64.781246
20
3.980289
30
0
11
-1.43308077703746E-15
21
-1.33699200055445
31
0
210
0
220
0
230
1
40
0.996195
41
0
42
6.28318530717959
0
ELLIPSE
5
FC
100
AcDbEntity
8
1
62
256
6
ByLayer
370
-1
48
1
60
0
100
AcDbEllipse
10
64.75268
20
3.980289
30
0
11
-1.52010474797794E-15
21
-1.41818097110531
31
0
210
0
220
0
230
1
40
0.996195
41
0
42
6.28318530717959
0
ELLIPSE
5
FD
100
AcDbEntity
8
1
62
256
6
ByLayer
370
-1
48
1
60
0
100
AcDbEllipse
10
64.837582
20
3.980289
30
0
11
-1.17905631005083E-15
21
-1.1
31
0
210
0
220
0
230
1
40
0.996195
41
0
42
6.28318530717959
0
ELLIPSE
5
FE
100
AcDbEntity
8
1
62
256
6
ByLayer
370
-1
48
1
60
0
100
AcDbEllipse
10
64.766169
20
3.980289
30
0
11
-1.50850481115741E-15
21
-1.40735881579873
31
0
210
0
220
0
230
1
40
0.996195
41
2.21550985223123
42
-3.16753210611074E-16
0
ELLIPSE
5
FF
100
AcDbEntity
8
1
62
256
6
ByLayer
370
-1
48
1
60
0
100
AcDbEllipse
10
64.766169
20
3.980289
30
0
11
-1.50850481115741E-15
21
-1.40735881579873
31
0
210
0
220
0
230
1
40
0.996195
41
0
42
0.926082690006842
0
ELLIPSE
5
100
100
AcDbEntity
8
1
62
256
6
ByLayer
370
-1
48
1
60
0
100
AcDbEllipse
10
64.723047
20
3.980289
30
0
11
-1.70009851535478E-15
21
-1.58610606715606
31
0
210
0
220
0
230
1
40
0.996195
41
0
42
6.28318530717959
0
ELLIPSE
5
101
100
AcDbEntity
8
1
62
256
6
ByLayer
370
-1
48
1
60
0
100
AcDbEllipse
10
64.795666
20
-2.256923
30
0
11
-1.13
21
1.14202213224307E-15
31
0
210
0
220
0
230
1
40
0.998135
41
-1.84195466398748
42
-0.091989679762169
0
ELLIPSE
5
102
100
AcDbEntity
8
1
62
256
6
ByLayer
370
-1
48
1
60
0
100
AcDbEllipse
10
66.961668
20
-0.474254
30
0
11
0.568502493118137
21
0
31
0
210
0
220
0
230
1
40
0.998135
41
0.209439510239319
42
1.38336830908963
0
ELLIPSE
5
103
100
AcDbEntity
8
1
62
256
6
ByLayer
370
-1
48
1
60
0
100
AcDbEllipse
10
67.654484
20
-1.75186
30
0
11
-0.54161371775654
21
0.0956795732533265
31
0
210
0
220
0
230
1
40
0.060121
41
1.05445084784105
42
1.5814167050079
0
ELLIPSE
5
104
100
AcDbEntity
8
1
62
256
6
ByLayer
370
-1
48
1
60
0
100
AcDbEllipse
10
67.382527
20
-3.29133
30
0
11
-0.54161371775654
21
0.0956795732533265
31
0
210
0
220
0
230
1
40
0.060121
41
1.05445084784108
42
1.58141670500792
0
ELLIPSE
5
105
100
AcDbEntity
8
1
62
256
6
ByLayer
370
-1
48
1
60
0
100
AcDbEllipse
10
66.898613
20
-1.652405
30
0
11
0.767531508496599
21
0
31
0
210
0
220
0
230
1
40
0.998135
41
-0.174532925199434
42
0.209439510239317
0
ELLIPSE
5
106
100
AcDbEntity
8
1
62
256
6
ByLayer
370
-1
48
1
60
0
100
AcDbEllipse
10
66.676382
20
-0.848875
30
0
11
0.817531508496598
21
0
31
0
210
0
220
0
230
1
40
0.998135
41
0.209439510239321
42
1.03483740944074
0
ELLIPSE
5
107
100
AcDbEntity
8
1
62
256
6
ByLayer
370
-1
48
1
60
0
100
AcDbEllipse
10
67.476048
20
-0.645641
30
0
11
-0.537937687900339
21
-0.114555855094523
31
0
210
0
220
0
230
1
40
0.059714
41
1.04053525962975
42
1.55808058840482
0
ELLIPSE
5
108
100
AcDbEntity
8
1
62
256
6
ByLayer
370
-1
48
1
60
0
100
AcDbEllipse
10
66.577416
20
-3.183208
30
0
11
0.817531508496598
21
0
31
0
210
0
220
0
230
1
40
0.998135
41
-1.01923640413895
42
-0.174532925199438
0
ELLIPSE
5
109
100
AcDbEntity
8
1
62
256
6
ByLayer
370
-1
48
1
60
0
100
AcDbEllipse
10
64.795666
20
-2.312835
30
0
11
1.1
21
0
31
0
210
0
220
0
230
1
40
0.998135
41
1.02023216493592
42
3.07748491090677
0
ELLIPSE
5
10A
100
AcDbEntity
8
1
62
256
6
ByLayer
370
-1
48
1
60
0
100
AcDbEllipse
10
66.529358
20
-3.130427
30
0
11
0.981882963782138
21
0
31
0
210
0
220
0
230
1
40
0.998135
41
-1.08271959555056
42
-0.17453292519944
0
ELLIPSE
5
10B
100
AcDbEntity
8
1
62
256
6
ByLayer
370
-1
48
1
60
0
100
AcDbEllipse
10
64.795666
20
-2.256923
30
0
11
-1.1
21
1.1117029605906E-15
31
0
210
0
220
0
230
1
40
0.998135
41
-1.96496782723774
42
-4.04471803413425E-16
0
ELLIPSE
5
10C
100
AcDbEntity
8
1
62
256
6
ByLayer
370
-1
48
1
60
0
100
AcDbEllipse
10
67.649372
20
-1.459547
30
0
11
-0.537937687900339
21
-0.114555855094523
31
0
210
0
220
0
230
1
40
0.059714
41
1.04053525962975
42
1.55808058840482
0
ELLIPSE
5
10D
100
AcDbEntity
8
1
62
256
6
ByLayer
370
-1
48
1
60
0
100
AcDbEllipse
10
64.795666
20
-2.255702
30
0
11
1.20924645102467
21
0
31
0
210
0
220
0
230
1
40
0.998135
41
1.69901262148109
42
2.77638227164408
0
POINT
5
41
100
AcDbEntity
8
81
62
256
6
ByLayer
370
-1
48
1
60
0
100
AcDbPoint
10
68
20
0
30
0
39
0
210
0
220
0
230
1
50
360
0
POINT
5
43
100
AcDbEntity
8
80
62
256
6
ByLayer
370
-1
48
1
60
0
100
AcDbPoint
10
0
20
0
30
0
39
0
210
0
220
0
230
1
50
360
0
SPLINE
5
10E
100
AcDbEntity
8
1
62
256
6
ByLayer
370
-1
48
1
60
0
100
AcDbSpline
70
4
71
1
72
4
73
2
40
0
40
0
40
1
40
1
41
1
10
67.2442892164059
20
6.39651066223198
30
0
41
1
10
67.2250251462566
20
6.40013904299832
30
0
0
SPLINE
5
10F
100
AcDbEntity
8
1
62
256
6
ByLayer
370
-1
48
1
60
0
100
AcDbSpline
70
4
71
1
72
4
73
2
40
0
40
0
40
1
40
1
41
1
10
67.4590361426964
20
6.35099763685366
30
0
41
1
10
67.3832865415133
20
6.36848542515548
30
0
0
SPLINE
5
110
100
AcDbEntity
8
1
62
256
6
ByLayer
370
-1
48
1
60
0
100
AcDbSpline
70
4
71
2
72
6
73
3
40
0
40
0
40
0
40
1
40
1
40
1
41
1
10
66.9710754152445
20
1.65998484579205
30
0
41
1
10
67.0596317574168
20
1.66673017798291
30
0
41
1
10
67.1477411455738
20
1.66896276821021
30
0
0
SPLINE
5
111
100
AcDbEntity
8
1
62
256
6
ByLayer
370
-1
48
1
60
0
100
AcDbSpline
70
4
71
2
72
6
73
3
40
0
40
0
40
0
40
1
40
1
40
1
41
1
10
62.4999507117054
20
6.30059369409742
30
0
41
1
10
62.4121357072236
20
6.29385938698994
30
0
41
1
10
62.3234059673135
20
6.29164506149402
30
0
0
SPLINE
5
112
100
AcDbEntity
8
1
62
256
6
ByLayer
370
-1
48
1
60
0
100
AcDbSpline
70
4
71
1
72
4
73
2
40
0
40
0
40
1
40
1
41
1
10
62.2268211962727
20
1.56407512628655
30
0
41
1
10
62.2460586394481
20
1.56044091872656
30
0
0
SPLINE
5
113
100
AcDbEntity
8
1
62
256
6
ByLayer
370
-1
48
1
60
0
100
AcDbSpline
70
4
71
1
72
4
73
2
40
0
40
0
40
1
40
1
41
1
10
62.0123369125218
20
1.60935707909667
30
0
41
1
10
62.0881649570743
20
1.59201375329613
30
0
0
SPLINE
5
114
100
AcDbEntity
8
1
62
256
6
ByLayer
370
-1
48
1
60
0
100
AcDbSpline
70
4
71
3
72
17
73
13
40
0
40
0
40
0
40
0
40
0.0762613313240054
40
0.147730240766615
40
0.22121987973644
40
0.340499110127922
40
0.468880565657889
40
0.574005547430887
40
0.678478119694031
40
0.782545623632308
40
0.890459779018035
40
1
40
1
40
1
40
1
41
1
10
4.99999999999997
20
-12.5
30
0
41
1
10
5.28154776079677
20
-12.5002367954705
30
0
41
1
10
5.79807196572384
20
-12.4227539147093
30
0
41
1
10
6.51236488221144
20
-12.0541719651445
30
0
41
1
10
7.20780093736175
20
-11.4130292306868
30
0
41
1
10
7.87700691701937
20
-10.4799133100499
30
0
41
1
10
8.52641367450192
20
-9.40721111275965
30
0
41
1
10
9.18681324268513
20
-8.40143837302122
30
0
41
1
10
9.89795775866605
20
-7.53602366491154
30
0
41
1
10
10.7750485010317
20
-6.81547562749969
30
0
41
1
10
11.8385933108103
20
-6.34202906249223
30
0
41
1
10
12.5995475346804
20
-6.23061339300713
30
0
41
1
10
13
20
-6.22500000000002
30
0
0
SPLINE
5
115
100
AcDbEntity
8
1
62
256
6
ByLayer
370
-1
48
1
60
0
100
AcDbSpline
70
4
71
3
72
17
73
13
40
0
40
0
40
0
40
0
40
0.109540220981965
40
0.217454376367692
40
0.321521880305969
40
0.425994452569113
40
0.531119434342111
40
0.659500889872078
40
0.77878012026356
40
0.852269759233385
40
0.923738668675995
40
1
40
1
40
1
40
1
41
1
10
13
20
6.22499999999997
30
0
41
1
10
12.5995475346804
20
6.23061339300708
30
0
41
1
10
11.8385933108103
20
6.34202906249223
30
0
41
1
10
10.7750485010317
20
6.81547562749969
30
0
41
1
10
9.89795775866608
20
7.53602366491154
30
0
41
1
10
9.18681324268513
20
8.40143837302122
30
0
41
1
10
8.52641367450192
20
9.40721111275965
30
0
41
1
10
7.87700691701937
20
10.4799133100499
30
0
41
1
10
7.20780093736175
20
11.4130292306868
30
0
41
1
10
6.51236488221144
20
12.0541719651445
30
0
41
1
10
5.79807196572389
20
12.4227539147093
30
0
41
1
10
5.28154776079683
20
12.5002367954705
30
0
41
1
10
5.00000000000003
20
12.5
30
0
0
SPLINE
5
116
100
AcDbEntity
8
1
62
256
6
ByLayer
370
-1
48
1
60
0
100
AcDbSpline
70
4
71
3
72
28
73
24
40
0
40
0
40
0
40
0
40
0.0905008698774491
40
0.181450782889704
40
0.226925739395832
40
0.249663217648896
40
0.272400695901959
40
0.295138174155024
40
0.317875652408087
40
0.363350608914215
40
0.408825565420342
40
0.431563043673405
40
0.45430052192647
40
0.465669261053001
40
0.499775478432597
40
0.522512956685661
40
0.545250434938725
40
0.590725391444852
40
0.63620034795098
40
0.727150260963235
40
0.81810017397549
40
0.909050086987745
40
1
40
1
40
1
40
1
41
1
10
28.7276539231572
20
0.221043220782747
30
0
41
1
10
28.2525053866367
20
0.300371614088107
30
0
41
1
10
27.2996343465414
20
0.45855624861386
30
0
41
1
10
26.1076849876426
20
0.653948934515086
30
0
41
1
10
25.2716041747867
20
0.789367891347268
30
0
41
1
10
24.7940609612664
20
0.86612647719943
30
0
41
1
10
24.4362096327794
20
0.923157137104766
30
0
41
1
10
24.0783982766245
20
0.979563292635959
30
0
41
1
10
23.6007220367055
20
1.05429234123147
30
0
41
1
10
23.0029562066321
20
1.14721461586396
30
0
41
1
10
22.4054141737105
20
1.23971549518961
30
0
41
1
10
21.9283431970908
20
1.31286389847514
30
0
41
1
10
21.6306952423174
20
1.35803863690609
30
0
41
1
10
21.2737767841954
20
1.4116611873512
30
0
41
1
10
20.916534609096
20
1.46472240931351
30
0
41
1
10
20.4992950461716
20
1.52596745097128
30
0
41
1
10
20.0219041390529
20
1.59540359504805
30
0
41
1
10
19.4251441799554
20
1.68121645684886
30
0
41
1
10
18.4714287739851
20
1.81552636809877
30
0
41
1
10
17.2795915462196
20
1.97721541984629
30
0
41
1
10
15.848381649689
20
2.16103183056794
30
0
41
1
10
14.4169348284942
20
2.33364130042125
30
0
41
1
10
13.4635527767755
20
2.44133982758117
30
0
41
1
10
12.987316025276
20
2.49332727222819
30
0
0
SPLINE
5
117
100
AcDbEntity
8
1
62
256
6
ByLayer
370
-1
48
1
60
0
100
AcDbSpline
70
4
71
3
72
18
73
14
40
0
40
0
40
0
40
0
40
0.0830937201221522
40
0.0830937201221522
40
0.197707005106883
40
0.197707005106883
40
0.312320290091614
40
0.312320290091614
40
0.541546860061076
40
0.541546860061076
40
0.770773430030538
40
0.770773430030538
40
1
40
1
40
1
40
1
41
1
10
44.2815568865562
20
4.61689993117963
30
0
41
1
10
44.6060173308729
20
4.68469032000354
30
0
41
1
10
44.9305314657931
20
4.75074661907414
30
0
41
1
10
45.7028155670225
20
4.90369459773078
30
0
41
1
10
46.1506919568706
20
4.98887690953612
30
0
41
1
10
47.0471202257596
20
5.1515698208992
30
0
41
1
10
47.4958916761514
20
5.22912096523092
30
0
41
1
10
48.8408052474858
20
5.44933496519596
30
0
41
1
10
49.7359576816187
20
5.57993179788025
30
0
41
1
10
51.5248699757185
20
5.8064479391185
30
0
41
1
10
52.4190193524058
20
5.90198535594914
30
0
41
1
10
54.2063565075506
20
6.05783776113236
30
0
41
1
10
55.1000450517925
20
6.11748262658548
30
0
41
1
10
55.9951417895452
20
6.15821285585744
30
0
0
SPLINE
5
118
100
AcDbEntity
8
1
62
256
6
ByLayer
370
-1
48
1
60
0
100
AcDbSpline
70
4
71
3
72
8
73
4
40
0
40
0
40
0
40
0
40
1
40
1
40
1
40
1
41
1
10
13
20
-3.94093904549064
30
0
41
1
10
12.7545180722057
20
-3.88194763517683
30
0
41
1
10
12.5100433509375
20
-3.83839232101011
30
0
41
1
10
12.2672913015976
20
-3.8089213380147
30
0
0
SPLINE
5
119
100
AcDbEntity
8
1
62
256
6
ByLayer
370
-1
48
1
60
0
100
AcDbSpline
70
4
71
3
72
18
73
14
40
0
40
0
40
0
40
0
40
0.171459929544653
40
0.171459929544653
40
0.342919859089305
40
0.342919859089305
40
0.514379788633958
40
0.514379788633958
40
0.68583971817861
40
0.68583971817861
40
0.857299647723263
40
0.857299647723263
40
1
40
1
40
1
40
1
41
1
10
12.987316025276
20
2.49332727222819
30
0
41
1
10
12.6851132009893
20
2.39382290252036
30
0
41
1
10
12.3693617593187
20
2.25289035851318
30
0
41
1
10
11.7427230639109
20
1.90243458791761
30
0
41
1
10
11.4319456069189
20
1.69297276657477
30
0
41
1
10
10.846932413605
20
1.22678368171125
30
0
41
1
10
10.5727991805996
20
0.970138101694317
30
0
41
1
10
10.0890281295628
20
0.435723395119936
30
0
41
1
10
9.87947507566622
20
0.158047906245315
30
0
41
1
10
9.54624557589472
20
-0.390132095957085
30
0
41
1
10
9.42262751695753
20
-0.660540559710398
30
0
41
1
10
9.2863712945707
20
-1.12417928458552
30
0
41
1
10
9.25861406988344
20
-1.3226856801013
30
0
41
1
10
9.26572291025312
20
-1.50222722237751
30
0
0
SPLINE
5
11A
100
AcDbEntity
8
1
62
256
6
ByLayer
370
-1
48
1
60
0
100
AcDbSpline
70
4
71
3
72
48
73
44
40
0
40
0
40
0
40
0
40
0.0624999999999999
40
0.0624999999999999
40
0.125
40
0.125
40
0.1875
40
0.1875
40
0.21875
40
0.21875
40
0.249999999999999
40
0.249999999999999
40
0.281249999999999
40
0.281249999999999
40
0.312499999999999
40
0.312499999999999
40
0.374999999999999
40
0.374999999999999
40
0.437499999999999
40
0.437499999999999
40
0.499999999999999
40
0.499999999999999
40
0.531249999999999
40
0.531249999999999
40
0.562499999999999
40
0.562499999999999
40
0.624999999999999
40
0.624999999999999
40
0.687499999999999
40
0.687499999999999
40
0.749999999999999
40
0.749999999999999
40
0.781249999999999
40
0.781249999999999
40
0.812499999999999
40
0.812499999999999
40
0.874999999999999
40
0.874999999999999
40
0.9375
40
0.9375
40
0.96875
40
0.96875
40
1
40
1
40
1
40
1
41
1
10
13
20
4.56697196670135
30
0
41
1
10
13.9384392066632
20
4.36736107202682
30
0
41
1
10
14.8756023032183
20
4.15393809124336
30
0
41
1
10
16.7478362933933
20
3.70099038856739
30
0
41
1
10
17.6829068561889
20
3.46140873728646
30
0
41
1
10
19.5528064917778
20
2.9609393477125
30
0
41
1
10
20.4878360196479
20
2.70063675406522
30
0
41
1
10
21.8913804824308
20
2.29768071175613
30
0
41
1
10
22.3593100135753
20
2.16100819526
30
0
41
1
10
23.2960630224788
20
1.88521720036587
30
0
41
1
10
23.7649260159877
20
1.74624588258362
30
0
41
1
10
24.703182564319
20
1.46475191324657
30
0
41
1
10
25.1727111572509
20
1.32188291042365
30
0
41
1
10
26.1106700355664
20
1.03458217809432
30
0
41
1
10
26.5792705212825
20
0.889990136973381
30
0
41
1
10
27.9841757855136
20
0.4541754699259
30
0
41
1
10
28.9195177658852
20
0.160698107463673
30
0
41
1
10
30.789203360875
20
-0.427143694936518
30
0
41
1
10
31.7236813108759
20
-0.721070434134845
30
0
41
1
10
33.5942485463837
20
-1.30139474297053
30
0
41
1
10
34.530353965204
20
-1.58774380954671
30
0
41
1
10
35.9369077447928
20
-2.00784158341003
30
0
41
1
10
36.4063673618523
20
-2.14622444602171
30
0
41
1
10
37.3441771437195
20
-2.41870003334773
30
0
41
1
10
37.8127414501325
20
-2.55291445692265
30
0
41
1
10
39.2175424831596
20
-2.94910362728834
30
0
41
1
10
40.1527448585769
20
-3.20496450656
30
0
41
1
10
42.0235138891292
20
-3.69168264918153
30
0
41
1
10
42.9592848522143
20
-3.92212343364389
30
0
41
1
10
44.8315481934585
20
-4.357500115568
30
0
41
1
10
45.7678932183395
20
-4.56268181160826
30
0
41
1
10
47.1746274622896
20
-4.84696790571934
30
0
41
1
10
47.6440496242045
20
-4.93781851202303
30
0
41
1
10
48.5816882968845
20
-5.11088227687199
30
0
41
1
10
49.0501475742894
20
-5.19317395295914
30
0
41
1
10
50.4546520000171
20
-5.4269659962919
30
0
41
1
10
51.3899826731415
20
-5.56507967643577
30
0
41
1
10
53.2602763466119
20
-5.80350534622656
30
0
41
1
10
54.1946041257007
20
-5.9044789192387
30
0
41
1
10
55.5979901512937
20
-6.0251220343022
30
0
41
1
10
56.0661097017558
20
-6.0602604348318
30
0
41
1
10
57.0026647017932
20
-6.12067287140059
30
0
41
1
10
57.4710017875405
20
-6.14598673317317
30
0
41
1
10
57.9396140322069
20
-6.1661739796169
30
0
0
SPLINE
5
11B
100
AcDbEntity
8
1
62
256
6
ByLayer
370
-1
48
1
60
0
100
AcDbSpline
70
4
71
3
72
8
73
4
40
0
40
0
40
0
40
0
40
1
40
1
40
1
40
1
41
1
10
61.2867063588498
20
3.0121793824872
30
0
41
1
10
61.2955559206988
20
3.03125647259114
30
0
41
1
10
61.3048113054704
20
3.05003058793281
30
0
41
1
10
61.3144803027789
20
3.06857604694977
30
0
0
SPLINE
5
11C
100
AcDbEntity
8
1
62
256
6
ByLayer
370
-1
48
1
60
0
100
AcDbSpline
70
4
71
3
72
8
73
4
40
0
40
0
40
0
40
0
40
1
40
1
40
1
40
1
41
1
10
58.5571801666718
20
0.712696904460898
30
0
41
1
10
58.8221540211853
20
0.632837842902489
30
0
41
1
10
59.0900614795902
20
0.575925684620671
30
0
41
1
10
59.3607611911932
20
0.541030979596798
30
0
0
SPLINE
5
11D
100
AcDbEntity
8
1
62
256
6
ByLayer
370
-1
48
1
60
0
100
AcDbSpline
70
4
71
3
72
8
73
4
40
0
40
0
40
0
40
0
40
1
40
1
40
1
40
1
41
1
10
61.4797682402092
20
0.541553242918894
30
0
41
1
10
61.469514106996
20
0.538688463717591
30
0
41
1
10
61.4592490782827
20
0.535851486782491
30
0
41
1
10
61.4489735123278
20
0.53304247310669
30
0
0
SPLINE
5
11E
100
AcDbEntity
8
1
62
256
6
ByLayer
370
-1
48
1
60
0
100
AcDbSpline
70
4
71
3
72
8
73
4
40
0
40
0
40
0
40
0
40
1
40
1
40
1
40
1
41
1
10
59.6904256692892
20
1.92047807387502
30
0
41
1
10
59.8516203718192
20
1.82089308676376
30
0
41
1
10
60.0269429088136
20
1.74326209685702
30
0
41
1
10
60.2131548033653
20
1.6802820702481
30
0
0
SPLINE
5
11F
100
AcDbEntity
8
1
62
256
6
ByLayer
370
-1
48
1
60
0
100
AcDbSpline
70
4
71
3
72
72
73
68
40
-0.0312499999999999
40
-0.0312499999999999
40
0
40
0
40
0.0312499999999998
40
0.0312499999999998
40
0.0624999999999995
40
0.0624999999999995
40
0.0937499999999993
40
0.0937499999999993
40
0.124999999999999
40
0.124999999999999
40
0.156249999999999
40
0.156249999999999
40
0.187499999999999
40
0.187499999999999
40
0.218749999999998
40
0.218749999999998
40
0.249999999999998
40
0.249999999999998
40
0.281249999999998
40
0.281249999999998
40
0.312499999999998
40
0.312499999999998
40
0.343749999999998
40
0.343749999999998
40
0.374999999999997
40
0.374999999999997
40
0.406249999999997
40
0.406249999999997
40
0.437499999999997
40
0.437499999999997
40
0.468749999999997
40
0.468749999999997
40
0.499999999999996
40
0.499999999999996
40
0.531249999999996
40
0.531249999999996
40
0.562499999999996
40
0.562499999999996
40
0.593749999999996
40
0.593749999999996
40
0.624999999999996
40
0.624999999999996
40
0.656249999999996
40
0.656249999999996
40
0.687499999999996
40
0.687499999999996
40
0.718749999999995
40
0.718749999999995
40
0.749999999999995
40
0.749999999999995
40
0.765624999999998
40
0.765624999999998
40
0.781250000000001
40
0.781250000000001
40
0.812500000000001
40
0.812500000000001
40
0.843750000000001
40
0.843750000000001
40
0.875
40
0.875
40
0.90625
40
0.90625
40
0.9375
40
0.9375
40
0.96875
40
0.96875
40
1
40
1
40
1.03125
40
1.03125
41
1
10
63.5490606903006
20
-2.021709179227
30
0
41
1
10
63.5368466166216
20
-1.87896032087144
30
0
41
1
10
63.5374037887855
20
-1.80770899662809
30
0
41
1
10
63.5518578149234
20
-1.66548719005365
30
0
41
1
10
63.5659651079067
20
-1.59384942658369
30
0
41
1
10
63.6079698949687
20
-1.45425131649853
30
0
41
1
10
63.6355044044313
20
-1.38699804396666
30
0
41
1
10
63.7038369717706
20
-1.2578005305165
30
0
41
1
10
63.7452559917675
20
-1.19520853583506
30
0
41
1
10
63.8388834669258
20
-1.08080441467882
30
0
41
1
10
63.8910825994322
20
-1.02860360309867
30
0
41
1
10
64.0064841822729
20
-0.934566449386637
30
0
41
1
10
64.0697550365705
20
-0.89297260839956
30
0
41
1
10
64.2016083043499
20
-0.824451368157298
30
0
41
1
10
64.2710477306118
20
-0.796852941288677
30
0
41
1
10
64.4161733597856
20
-0.756040416707265
30
0
41
1
10
64.4896420425717
20
-0.743409079094164
30
0
41
1
10
64.6383274830994
20
-0.733183682595183
30
0
41
1
10
64.7143935755208
20
-0.735792110314577
30
0
41
1
10
64.8623791490868
20
-0.756298836659312
30
0
41
1
10
64.9346754201302
20
-0.773988071707947
30
0
41
1
10
65.0758359536325
20
-0.824360523301948
30
0
41
1
10
65.1439810030694
20
-0.85698344150606
30
0
41
1
10
65.2707173865991
20
-0.934339080760452
30
0
41
1
10
65.3305073783014
20
-0.979750788256808
30
0
41
1
10
65.4395923598245
20
-1.08172351787076
30
0
41
1
10
65.4881097090666
20
-1.13737479319721
30
0
41
1
10
65.573568158311
20
-1.25748881120461
30
0
41
1
10
65.6106241834939
20
-1.32253154773406
30
0
41
1
10
65.670207386773
20
-1.45591513107217
30
0
41
1
10
65.6932221253608
20
-1.5247710362743
30
0
41
1
10
65.725955130241
20
-1.66660064049765
30
0
41
1
10
65.7353213389953
20
-1.73846175392862
30
0
41
1
10
65.7406265132624
20
-1.88093117422983
30
0
41
1
10
65.7366002993597
20
-1.95246434185077
30
0
41
1
10
65.7155180809187
20
-2.09316444902112
30
0
41
1
10
65.6987000170534
20
-2.16138604347535
30
0
41
1
10
65.6530608628749
20
-2.29384446039228
30
0
41
1
10
65.6238801083828
20
-2.35865432519043
30
0
41
1
10
65.5546474099224
20
-2.48088217739516
30
0
41
1
10
65.5147849562642
20
-2.53828491817185
30
0
41
1
10
65.4242920854911
20
-2.64576267630517
30
0
41
1
10
65.3729841126676
20
-2.69633202425908
30
0
41
1
10
65.2621144598854
20
-2.78612990833722
30
0
41
1
10
65.2026108910414
20
-2.82558121697497
30
0
41
1
10
65.0747766311551
20
-2.89306026866743
30
0
41
1
10
65.0054087703819
20
-2.92128581887795
30
0
41
1
10
64.8637493049128
20
-2.96225536220985
30
0
41
1
10
64.7910613461247
20
-2.97544015723449
30
0
41
1
10
64.6790508077098
20
-2.98365255356461
30
0
41
1
10
64.6409958305603
20
-2.98441763930609
30
0
41
1
10
64.5660014810828
20
-2.98192410015801
30
0
41
1
10
64.5288445218591
20
-2.97870366327015
30
0
41
1
10
64.4183622050829
20
-2.96329094652936
30
0
41
1
10
64.3451646888651
20
-2.94504166125716
30
0
41
1
10
64.2063098215511
20
-2.89477203602593
30
0
41
1
10
64.1406876697783
20
-2.8630264803825
30
0
41
1
10
64.0164556716477
20
-2.78700615802799
30
0
41
1
10
63.9590102801385
20
-2.74335135212544
30
0
41
1
10
63.8543961536365
20
-2.64706958024104
30
0
41
1
10
63.8065266614731
20
-2.5936804330899
30
0
41
1
10
63.7224729456128
20
-2.48030153046534
30
0
41
1
10
63.686167367205
20
-2.42040633367253
30
0
41
1
10
63.6245974339554
20
-2.2941804370578
30
0
41
1
10
63.5993205116192
20
-2.22745254464954
30
0
41
1
10
63.5617003354494
20
-2.09149004320858
30
0
41
1
10
63.5490606903006
20
-2.021709179227
30
0
41
1
10
63.5368466166216
20
-1.87896032087144
30
0
0
SPLINE
5
120
100
AcDbEntity
8
1
62
256
6
ByLayer
370
-1
48
1
60
0
100
AcDbSpline
70
4
71
3
72
16
73
12
40
0
40
0
40
0
40
0
40
0.250000000000003
40
0.250000000000003
40
0.500000000000006
40
0.500000000000006
40
0.625000000000007
40
0.625000000000007
40
0.750000000000008
40
0.750000000000008
40
1
40
1
40
1
40
1
41
1
10
61.4489735123279
20
0.533042473106718
30
0
41
1
10
61.3501188947998
20
0.506018757452296
30
0
41
1
10
61.2434046264669
20
0.484342050081835
30
0
41
1
10
61.018580604847
20
0.452616811011978
30
0
41
1
10
60.9004126022026
20
0.44257423000758
30
0
41
1
10
60.7161347707222
20
0.437331379924046
30
0
41
1
10
60.6532906974538
20
0.437236381079458
30
0
41
1
10
60.5270265955762
20
0.440489445460486
30
0
41
1
10
60.4635246927285
20
0.443820906466328
30
0
41
1
10
60.2721258846433
20
0.458968695962426
30
0
41
1
10
60.1433469172943
20
0.475923648573286
30
0
41
1
10
60.0137806871085
20
0.500018990769433
30
0
0
SPLINE
5
121
100
AcDbEntity
8
1
62
256
6
ByLayer
370
-1
48
1
60
0
100
AcDbSpline
70
4
71
3
72
26
73
22
40
0
40
0
40
0
40
0
40
0.0625000000000124
40
0.0625000000000124
40
0.0937500000000139
40
0.0937500000000139
40
0.125000000000015
40
0.125000000000015
40
0.187500000000012
40
0.187500000000012
40
0.250000000000009
40
0.250000000000009
40
0.312500000000006
40
0.312500000000006
40
0.375000000000003
40
0.375000000000003
40
0.500000000000003
40
0.500000000000003
40
0.750000000000001
40
0.750000000000001
40
1
40
1
40
1
40
1
41
1
10
59.0913182561785
20
3.0818709112188
30
0
41
1
10
59.0556588500638
20
3.07073106963668
30
0
41
1
10
59.0212051817422
20
3.05653811954619
30
0
41
1
10
58.9731342345643
20
3.02712640698158
30
0
41
1
10
58.9581113891641
20
3.01615906346473
30
0
41
1
10
58.9305826152814
20
2.99130465612515
30
0
41
1
10
58.9179928411333
20
2.97720672080138
30
0
41
1
10
58.8868934660427
20
2.93223348868315
30
0
41
1
10
58.8744624664572
20
2.89732247297275
30
0
41
1
10
58.8659641478517
20
2.82736303687204
30
0
41
1
10
58.8691885203176
20
2.79266991015996
30
0
41
1
10
58.8838304086045
20
2.72605933744512
30
0
41
1
10
58.8953115012658
20
2.69396314592061
30
0
41
1
10
58.922600393856
20
2.63289887847711
30
0
41
1
10
58.9385533046533
20
2.60361326813259
30
0
41
1
10
58.9911286371868
20
2.51835459541047
30
0
41
1
10
59.03190671384
20
2.46570901473189
30
0
41
1
10
59.1618374039221
20
2.31727006383918
30
0
41
1
10
59.2595928931806
20
2.22944862731714
30
0
41
1
10
59.4672090936264
20
2.06573273995895
30
0
41
1
10
59.5770028583459
20
1.99054991239478
30
0
41
1
10
59.690425669289
20
1.92047807387519
30
0
0
SPLINE
5
122
100
AcDbEntity
8
1
62
256
6
ByLayer
370
-1
48
1
60
0
100
AcDbSpline
70
4
71
3
72
8
73
4
40
0
40
0
40
0
40
0
40
1
40
1
40
1
40
1
41
1
10
60.2131548033612
20
1.68028207024955
30
0
41
1
10
60.3885491078899
20
1.62096073638483
30
0
41
1
10
60.5688272814494
20
1.57157544400252
30
0
41
1
10
60.7546624152895
20
1.53261994650677
30
0
0
SPLINE
5
123
100
AcDbEntity
8
1
62
256
6
ByLayer
370
-1
48
1
60
0
100
AcDbSpline
70
4
71
3
72
8
73
4
40
0
40
0
40
0
40
0
40
1
40
1
40
1
40
1
41
1
10
8.83537512947424
20
7.58106558033882
30
0
41
1
10
8.87210727728021
20
7.53251424493041
30
0
41
1
10
8.90907447861059
20
7.48320752855381
30
0
41
1
10
8.94633315767703
20
7.43317378481541
30
0
0
SPLINE
5
124
100
AcDbEntity
8
1
62
256
6
ByLayer
370
-1
48
1
60
0
100
AcDbSpline
70
4
71
3
72
26
73
22
40
0
40
0
40
0
40
0
40
0.171112039057244
40
0.171112039057244
40
0.342224078114488
40
0.342224078114488
40
0.385002087878799
40
0.385002087878799
40
0.42778009764311
40
0.42778009764311
40
0.513336117171732
40
0.513336117171732
40
0.684448156228975
40
0.684448156228975
40
0.727226165993286
40
0.727226165993286
40
0.770004175757597
40
0.770004175757597
40
0.855560195286219
40
0.855560195286219
40
1
40
1
40
1
40
1
41
1
10
12.9999999999997
20
-3.94093904549055
30
0
41
1
10
14.8752215387559
20
-4.39157084643819
30
0
41
1
10
16.7435491433335
20
-4.78898256926885
30
0
41
1
10
20.4789531819948
20
-5.45006500754826
30
0
41
1
10
22.346170015403
20
-5.71349977493884
30
0
41
1
10
24.6873750173703
20
-5.94626295669934
30
0
41
1
10
25.1561932676934
20
-5.98802182216912
30
0
41
1
10
26.0927050911918
20
-6.06151355026523
30
0
41
1
10
26.5605883610328
20
-6.09326947139115
30
0
41
1
10
27.9634353688639
20
-6.1733693096273
30
0
41
1
10
28.8975965059743
20
-6.20652142468339
30
0
41
1
10
31.6994616732318
20
-6.24442753885555
30
0
41
1
10
33.5666652464532
20
-6.18745098922622
30
0
41
1
10
35.9076000277581
20
-6.015216474933
30
0
41
1
10
36.3764435589388
20
-5.97569246767512
30
0
41
1
10
37.3121487361713
20
-5.88695240641869
30
0
41
1
10
37.779267593831
20
-5.83772411564871
30
0
41
1
10
39.1787012259185
20
-5.67589508536142
30
0
41
1
10
40.109091091919
20
-5.5491306850945
30
0
41
1
10
42.6054260762761
20
-5.16135387140798
30
0
41
1
10
44.1681407646771
20
-4.86800099197043
30
0
41
1
10
45.7294721776047
20
-4.53276395345944
30
0
0
SPLINE
5
125
100
AcDbEntity
8
1
62
256
6
ByLayer
370
-1
48
1
60
0
100
AcDbSpline
70
4
71
2
72
6
73
3
40
0
40
0
40
0
40
1
40
1
40
1
41
1
10
12.2672913015976
20
-3.50614502466803
30
0
41
1
10
12.2672913015976
20
-3.65753318133758
30
0
41
1
10
12.2672913015976
20
-3.80892133800717
30
0
0
SPLINE
5
126
100
AcDbEntity
8
1
62
256
6
ByLayer
370
-1
48
1
60
0
100
AcDbSpline
70
4
71
3
72
8
73
4
40
0
40
0
40
0
40
0
40
1
40
1
40
1
40
1
41
1
10
7.14281519725083
20
3.56751599501391
30
0
41
1
10
7.10609612977342
20
3.66169436169955
30
0
41
1
10
7.06963508322818
20
3.75900916359831
30
0
41
1
10
7.0334032342104
20
3.85945849295388
30
0
0
SPLINE
5
127
100
AcDbEntity
8
1
62
256
6
ByLayer
370
-1
48
1
60
0
100
AcDbSpline
70
4
71
4
72
13
73
8
40
0
40
0
40
0
40
0
40
0
40
0.72871075042405
40
0.72871075042405
40
0.72871075042405
40
1
40
1
40
1
40
1
40
1
41
1
10
12.987316025276
20
2.49332727222819
30
0
41
1
10
12.987316025276
20
1.61385142089355
30
0
41
0.942809041582063
10
12.8481369001741
20
0.021436356912648
30
0
41
1
10
12.4783582502064
20
-1.54506146693294
30
0
41
1
10
12.0963709527199
20
-2.70902257842187
30
0
41
0.992073486749683
10
11.9834926004959
20
-2.99505644560392
30
0
41
0.985073264315056
10
11.8725026537205
20
-3.19709983959402
30
0
41
0.981260576063145
10
11.7721077098302
20
-3.29764509635466
30
0
0
SPLINE
5
128
100
AcDbEntity
8
1
62
256
6
ByLayer
370
-1
48
1
60
0
100
AcDbSpline
70
4
71
4
72
10
73
5
40
0
40
0
40
0
40
0
40
0
40
1
40
1
40
1
40
1
40
1
41
0.97918878592183
10
11.7023268076805
20
-3.3497181547424
30
0
41
0.978952091755163
10
11.6907663482422
20
-3.35514825693576
30
0
41
0.978772829594499
10
11.6794325847777
20
-3.35893500370454
30
0
41
0.978653020265308
10
11.6683412432632
20
-3.36106383200338
30
0
41
0.978593167612831
10
11.657506359518
20
-3.36153146325342
30
0
0
SPLINE
5
129
100
AcDbEntity
8
1
62
256
6
ByLayer
370
-1
48
1
60
0
100
AcDbSpline
70
4
71
3
72
32
73
28
40
0
40
0
40
0
40
0
40
0.125000000000001
40
0.125000000000001
40
0.250000000000002
40
0.250000000000002
40
0.312500000000003
40
0.312500000000003
40
0.375000000000003
40
0.375000000000003
40
0.437500000000003
40
0.437500000000003
40
0.500000000000003
40
0.500000000000003
40
0.562500000000004
40
0.562500000000004
40
0.625000000000004
40
0.625000000000004
40
0.750000000000004
40
0.750000000000004
40
0.812500000000005
40
0.812500000000005
40
0.843750000000004
40
0.843750000000004
40
0.875000000000004
40
0.875000000000004
40
1
40
1
40
1
40
1
41
1
10
8.83537512947424
20
7.58106558033882
30
0
41
1
10
8.68114266338048
20
7.78492494167384
30
0
41
1
10
8.53284415083931
20
7.98558584000369
30
0
41
1
10
8.23813916729438
20
8.37733881703937
30
0
41
1
10
8.09180100476732
20
8.56847498267811
30
0
41
1
10
7.8656100048311
20
8.84253781615143
30
0
41
1
10
7.78908611745342
20
8.93175033082224
30
0
41
1
10
7.63212312003915
20
9.10436311922061
30
0
41
1
10
7.55149497450216
20
9.18793565786382
30
0
41
1
10
7.38595974097567
20
9.34560085477045
30
0
41
1
10
7.30094916853335
20
9.41983745356703
30
0
41
1
10
7.12480569327769
20
9.55609768282994
30
0
41
1
10
7.03343157177235
20
9.61827314011245
30
0
41
1
10
6.84379715616691
20
9.72566475889241
30
0
41
1
10
6.74684044034981
20
9.77013067188099
30
0
41
1
10
6.5486782553389
20
9.83696301489101
30
0
41
1
10
6.44715573048839
20
9.8593602515802
30
0
41
1
10
6.13927619786404
20
9.88717023867076
30
0
41
1
10
5.94133672120594
20
9.85235195127717
30
0
41
1
10
5.66712346274824
20
9.72787713879092
30
0
41
1
10
5.58228340973827
20
9.67563695128123
30
0
41
1
10
5.46499391224432
20
9.58416534975677
30
0
41
1
10
5.42755927510262
20
9.55147350637318
30
0
41
1
10
5.3560691445239
20
9.48202903333092
30
0
41
1
10
5.32191197958682
20
9.44514100043159
30
0
41
1
10
5.16164984230079
20
9.25353349753908
30
0
41
1
10
5.06552943501606
20
9.07749346693024
30
0
41
1
10
5
20
8.88535373361182
30
0
0
SPLINE
5
12A
100
AcDbEntity
8
1
62
256
6
ByLayer
370
-1
48
1
60
0
100
AcDbSpline
70
4
71
3
72
8
73
4
40
0
40
0
40
0
40
0
40
1
40
1
40
1
40
1
41
1
10
11.5948038709339
20
-3.34092625968273
30
0
41
1
10
11.8123045484934
20
-3.39802505513632
30
0
41
1
10
12.0363603689013
20
-3.45182259232092
30
0
41
1
10
12.2672913016678
20
-3.50614502468287
30
0
0
SPLINE
5
12B
100
AcDbEntity
8
1
62
256
6
ByLayer
370
-1
48
1
60
0
100
AcDbSpline
70
4
71
4
72
10
73
5
40
0
40
0
40
0
40
0
40
0
40
1
40
1
40
1
40
1
40
1
41
0.999326241484454
10
58.4937608977061
20
0.709713721752251
30
0
41
0.997748160219328
10
58.5939048176826
20
1.01865610058801
30
0
41
0.994485384993172
10
58.6838119599311
20
1.42490544490301
30
0
41
0.995014698675927
10
58.7501902737472
20
1.91015097682101
30
0
41
0.996697733493479
10
58.7908683579633
20
2.4215895483891
30
0
0
SPLINE
5
12C
100
AcDbEntity
8
1
62
256
6
ByLayer
370
-1
48
1
60
0
100
AcDbSpline
70
4
71
3
72
12
73
8
40
0
40
0
40
0
40
0
40
0.250000000000005
40
0.250000000000005
40
0.500000000000009
40
0.500000000000009
40
1
40
1
40
1
40
1
41
1
10
61.2064191459846
20
2.82813637013112
30
0
41
1
10
61.208713626181
20
2.82813637013112
30
0
41
1
10
61.212850949728
20
2.83589714426572
30
0
41
1
10
61.2232630416198
20
2.86005596861034
30
0
41
1
10
61.2295939409495
20
2.87634687629307
30
0
41
1
10
61.2504662621434
20
2.92914061661901
30
0
41
1
10
61.2673172464911
20
2.97038207660782
30
0
41
1
10
61.2867063588498
20
3.0121793824872
30
0
0
SPLINE
5
12D
100
AcDbEntity
8
1
62
256
6
ByLayer
370
-1
48
1
60
0
100
AcDbSpline
70
4
71
3
72
10
73
6
40
0
40
0
40
0
40
0
40
0.5
40
0.5
40
1
40
1
40
1
40
1
41
1
10
10.4414528110709
20
5.9033577887941
30
0
41
1
10
10.1428191908751
20
6.12683239881304
30
0
41
1
10
9.87567984754259
20
6.36851459260382
30
0
41
1
10
9.38388590877497
20
6.88240574411796
30
0
41
1
10
9.15884225180963
20
7.15482413704223
30
0
41
1
10
8.94633315243357
20
7.43317373567987
30
0
0
SPLINE
5
12E
100
AcDbEntity
8
1
62
256
6
ByLayer
370
-1
48
1
60
0
100
AcDbSpline
70
4
71
2
72
6
73
3
40
0
40
0
40
0
40
1
40
1
40
1
41
1
10
6.99964091672334
20
3.95316935690687
30
0
41
1
10
6.99964091672334
20
3.68556234834634
30
0
41
1
10
6.99964091672337
20
3.41795533978578
30
0
0
SPLINE
5
12F
100
AcDbEntity
8
1
62
256
6
ByLayer
370
-1
48
1
60
0
100
AcDbSpline
70
4
71
3
72
17
73
13
40
0
40
0
40
0
40
0
40
0.125000000000001
40
0.125000000000001
40
0.250000000000003
40
0.375000000000004
40
0.375000000000004
40
0.500000000000006
40
0.500000000000006
40
0.750000000000003
40
0.750000000000003
40
1
40
1
40
1
40
1
41
1
10
62.1936249715645
20
0.778818008266995
30
0
41
1
10
62.2311830409782
20
0.793208884443118
30
0
41
1
10
62.2664101813055
20
0.808168545190199
30
0
41
1
10
62.3304549521112
20
0.83847745804843
30
0
41
1
10
62.3885165482392
20
0.869320778708612
30
0
41
1
10
62.4348077305972
20
0.901215414312674
30
0
41
1
10
62.4751352021639
20
0.933642719234797
30
0
41
1
10
62.4923815971585
20
0.950203845046502
30
0
41
1
10
62.5343087400108
20
1.00013179642252
30
0
41
1
10
62.5491002986439
20
1.03336145803263
30
0
41
1
10
62.5531025107217
20
1.09971262639655
30
0
41
1
10
62.5419004731468
20
1.13317927375041
30
0
41
1
10
62.5179817834975
20
1.16528958318753
30
0
0
SPLINE
5
130
100
AcDbEntity
8
1
62
256
6
ByLayer
370
-1
48
1
60
0
100
AcDbSpline
70
4
71
3
72
18
73
14
40
0
40
0
40
0
40
0
40
0.25
40
0.25
40
0.375
40
0.375
40
0.5
40
0.5
40
0.75
40
0.75
40
0.875
40
0.875
40
1
40
1
40
1
40
1
41
1
10
5
20
7.59520654874405
30
0
41
1
10
5.05925567250287
20
7.39170343854914
30
0
41
1
10
5.14264306907271
20
7.19089033964895
30
0
41
1
10
5.29870328669989
20
6.8883427294893
30
0
41
1
10
5.35591271673749
20
6.78724828809845
30
0
41
1
10
5.47995896857097
20
6.58330407353662
30
0
41
1
10
5.5469626609742
20
6.48028464915666
30
0
41
1
10
5.75555377886371
20
6.17404114239645
30
0
41
1
10
5.9061163060494
20
5.97106811669607
30
0
41
1
10
6.13931843924561
20
5.66050140142622
30
0
41
1
10
6.2187265201124
20
5.55538213935623
30
0
41
1
10
6.37561789208865
20
5.34601045251395
30
0
41
1
10
6.45322631561194
20
5.24158722617349
30
0
41
1
10
6.52957064075201
20
5.13702187603431
30
0
0
SPLINE
5
131
100
AcDbEntity
8
1
62
256
6
ByLayer
370
-1
48
1
60
0
100
AcDbSpline
70
4
71
3
72
14
73
10
40
0
40
0
40
0
40
0
40
0.281219353084276
40
0.281219353084276
40
0.562438706168553
40
0.562438706168553
40
0.843658059252829
40
0.843658059252829
40
1
40
1
40
1
40
1
41
1
10
66.9456500785394
20
1.37660546173925
30
0
41
1
10
66.951438321171
20
1.37649046032365
30
0
41
1
10
66.9559066613508
20
1.3820952354088
30
0
41
1
10
66.9632685171553
20
1.40420314197178
30
0
41
1
10
66.9661887601433
20
1.42101452726715
30
0
41
1
10
66.9723311340742
20
1.46418719991627
30
0
41
1
10
66.9755834556099
20
1.49053831194146
30
0
41
1
10
66.9831798538144
20
1.53906767537833
30
0
41
1
10
66.9863673796118
20
1.55767544385128
30
0
41
1
10
66.9902898388259
20
1.57746627365265
30
0
0
SPLINE
5
132
100
AcDbEntity
8
1
62
256
6
ByLayer
370
-1
48
1
60
0
100
AcDbSpline
70
4
71
3
72
32
73
28
40
0
40
0
40
0
40
0
40
0.056869277846251
40
0.056869277846251
40
0.142608434405683
40
0.142608434405683
40
0.228347590965115
40
0.228347590965115
40
0.314086747524547
40
0.314086747524547
40
0.399825904083978
40
0.399825904083978
40
0.48556506064341
40
0.48556506064341
40
0.571304217202842
40
0.571304217202842
40
0.657043373762274
40
0.657043373762274
40
0.69991295204199
40
0.69991295204199
40
0.742782530321705
40
0.742782530321705
40
0.828521686881137
40
0.828521686881137
40
0.914260843440568
40
0.914260843440568
40
1
40
1
40
1
40
1
41
1
10
45.1153430666415
20
-4.41858051097648
30
0
41
1
10
44.492619022337
20
-4.53949668826704
30
0
41
1
10
43.8697163206173
20
-4.65396431278646
30
0
41
1
10
42.3085378686335
20
-4.9231127666348
30
0
41
1
10
41.3704398899838
20
-5.06903826612742
30
0
41
1
10
39.4938112478921
20
-5.32893570770958
30
0
41
1
10
38.5550713166089
20
-5.44243974319033
30
0
41
1
10
36.676838380918
20
-5.6321000333071
30
0
41
1
10
35.7384932611905
20
-5.70863161802455
30
0
41
1
10
33.8619776142758
20
-5.82308397478695
30
0
41
1
10
32.9238523327857
20
-5.86041211547567
30
0
41
1
10
31.0462430234245
20
-5.8934465935553
30
0
41
1
10
30.1071956695353
20
-5.88943236521828
30
0
41
1
10
28.2309340470118
20
-5.83977829251586
30
0
41
1
10
27.2931409087636
20
-5.79393097393535
30
0
41
1
10
25.4163054960573
20
-5.66185786931331
30
0
41
1
10
24.4767689184495
20
-5.57623452252574
30
0
41
1
10
23.068292918041
20
-5.42290708770526
30
0
41
1
10
22.5989143506407
20
-5.36663100207954
30
0
41
1
10
21.6600729083432
20
-5.24671762333645
30
0
41
1
10
21.1905961693975
20
-5.18368215672126
30
0
41
1
10
19.7819547933691
20
-4.9843422792477
30
0
41
1
10
18.8421660541876
20
-4.83414485747295
30
0
41
1
10
16.9630676387754
20
-4.50556644329663
30
0
41
1
10
16.0242143967721
20
-4.32560286267608
30
0
41
1
10
14.1463261831377
20
-3.93629585757068
30
0
41
1
10
13.2072551026785
20
-3.72703926699035
30
0
41
1
10
12.2672913015976
20
-3.50614502466635
30
0
0
SPLINE
5
133
100
AcDbEntity
8
1
62
256
6
ByLayer
370
-1
48
1
60
0
100
AcDbSpline
70
4
71
3
72
14
73
10
40
0
40
0
40
0
40
0
40
0.311323696933408
40
0.311323696933408
40
0.622647393866816
40
0.622647393866816
40
0.933971090800224
40
0.933971090800224
40
1
40
1
40
1
40
1
41
1
10
66.5877061849748
20
1.40804139359983
30
0
41
1
10
66.5921510054235
20
1.40804139359986
30
0
41
1
10
66.5969023386981
20
1.41364798402066
30
0
41
1
10
66.6065882482938
20
1.43571738612451
30
0
41
1
10
66.6115085077086
20
1.45198816089959
30
0
41
1
10
66.6215102289044
20
1.49504790238279
30
0
41
1
10
66.6265523388826
20
1.52180009872166
30
0
41
1
10
66.6324782920871
20
1.55915053468979
30
0
41
1
10
66.6335131733719
20
1.56589910082556
30
0
41
1
10
66.6345443980002
20
1.57284899602607
30
0
0
SPLINE
5
134
100
AcDbEntity
8
1
62
256
6
ByLayer
370
-1
48
1
60
0
100
AcDbSpline
70
4
71
3
72
22
73
18
40
0
40
0
40
0
40
0
40
0.25
40
0.25
40
0.3125
40
0.3125
40
0.375
40
0.375
40
0.5
40
0.5
40
0.625
40
0.625
40
0.75
40
0.75
40
0.875
40
0.875
40
1
40
1
40
1
40
1
41
1
10
6.99964091672342
20
3.41795533978572
30
0
41
1
10
7.16262187583797
20
2.77791277972534
30
0
41
1
10
7.33708358266367
20
2.15455506891959
30
0
41
1
10
7.57118879170218
20
1.3965209065903
30
0
41
1
10
7.6189627420595
20
1.2455274848808
30
0
41
1
10
7.71464443220529
20
0.950169400134229
30
0
41
1
10
7.7626996889862
20
0.805304076181784
30
0
41
1
10
7.90751343050417
20
0.378374850311786
30
0
41
1
10
8.00492402098809
20
0.103977455875793
30
0
41
1
10
8.20140240345012
20
-0.428563503980911
30
0
41
1
10
8.30046704316538
20
-0.686731037716044
30
0
41
1
10
8.50007850127997
20
-1.19070984707901
30
0
41
1
10
8.60006052892965
20
-1.43512999493325
30
0
41
1
10
8.79975435572223
20
-1.91089329892671
30
0
41
1
10
8.89960181481055
20
-2.14257817475627
30
0
41
1
10
9.09946263365242
20
-2.59541450011398
30
0
41
1
10
9.19947392342115
20
-2.81654567921765
30
0
41
1
10
9.29964091672355
20
-3.03234067230741
30
0
0
SPLINE
5
135
100
AcDbEntity
8
1
62
256
6
ByLayer
370
-1
48
1
60
0
100
AcDbSpline
70
4
71
3
72
8
73
4
40
0
40
0
40
0
40
0
40
1
40
1
40
1
40
1
41
1
10
13
20
4.56697196670135
30
0
41
1
10
12.9957720579196
20
4.56787127194701
30
0
41
1
10
12.9915440566239
20
4.56877506704831
30
0
41
1
10
12.9873160252735
20
4.569683355075
30
0
0
SPLINE
5
136
100
AcDbEntity
8
1
62
256
6
ByLayer
370
-1
48
1
60
0
100
AcDbSpline
70
4
71
3
72
22
73
18
40
0
40
0
40
0
40
0
40
0.125
40
0.125
40
0.25
40
0.25
40
0.375
40
0.375
40
0.5
40
0.5
40
0.625
40
0.625
40
0.75
40
0.75
40
0.875
40
0.875
40
1
40
1
40
1
40
1
41
1
10
61.6089477106917
20
1.43285322392237
30
0
41
1
10
61.614088072554
20
1.43285322392237
30
0
41
1
10
61.6102193962265
20
1.43969054040377
30
0
41
1
10
61.5887011399425
20
1.46523246475249
30
0
41
1
10
61.5717120958446
20
1.48338655845447
30
0
41
1
10
61.5308815511061
20
1.52901531365154
30
0
41
1
10
61.5073974465454
20
1.55612291443498
30
0
41
1
10
61.4587585708276
20
1.61727177366376
30
0
41
1
10
61.4333693414661
20
1.65154780842914
30
0
41
1
10
61.3826931953072
20
1.72767063299759
30
0
41
1
10
61.3579607651338
20
1.76866662824142
30
0
41
1
10
61.3109529239562
20
1.85690327138855
30
0
41
1
10
61.2885314142672
20
1.90446290499895
30
0
41
1
10
61.2477826758586
20
2.00551422237558
30
0
41
1
10
61.2297794647825
20
2.0581140179255
30
0
41
1
10
61.1991116856653
20
2.16789924010649
30
0
41
1
10
61.1864169682029
20
2.22569152880649
30
0
41
1
10
61.1772022567744
20
2.28302717059591
30
0
0
SPLINE
5
137
100
AcDbEntity
8
1
62
256
6
ByLayer
370
-1
48
1
60
0
100
AcDbSpline
70
4
71
3
72
12
73
8
40
0
40
0
40
0
40
0
40
0.5
40
0.5
40
0.75
40
0.75
40
1
40
1
40
1
40
1
41
1
10
61.3541069492186
20
0.155223663487902
30
0
41
1
10
61.0105868014963
20
0.147147559172993
30
0
41
1
10
60.6722280157248
20
0.175339087299307
30
0
41
1
10
60.1723301411825
20
0.271219890659893
30
0
41
1
10
60.0069831887187
20
0.312196392071598
30
0
41
1
10
59.6790026808529
20
0.413131468395619
30
0
41
1
10
59.5178762184458
20
0.472674947567157
30
0
41
1
10
59.3607611911932
20
0.541030979596798
30
0
0
SPLINE
5
138
100
AcDbEntity
8
1
62
256
6
ByLayer
370
-1
48
1
60
0
100
AcDbSpline
70
4
71
3
72
8
73
4
40
0
40
0
40
0
40
0
40
1
40
1
40
1
40
1
41
1
10
59.3607611911932
20
0.541030979596798
30
0
41
1
10
59.5778827493855
20
0.513042797848925
30
0
41
1
10
59.7964684039662
20
0.49942004597878
30
0
41
1
10
60.0137806871085
20
0.500018990769433
30
0
0
SPLINE
5
139
100
AcDbEntity
8
1
62
256
6
ByLayer
370
-1
48
1
60
0
100
AcDbSpline
70
4
71
3
72
36
73
32
40
0
40
0
40
0
40
0
40
0.124999999999992
40
0.124999999999992
40
0.187499999999989
40
0.187499999999989
40
0.249999999999985
40
0.249999999999985
40
0.281249999999984
40
0.281249999999984
40
0.312499999999984
40
0.312499999999984
40
0.328124999999985
40
0.328124999999985
40
0.343749999999985
40
0.343749999999985
40
0.374999999999986
40
0.374999999999986
40
0.406249999999987
40
0.406249999999987
40
0.437499999999988
40
0.437499999999988
40
0.49999999999999
40
0.49999999999999
40
0.562499999999992
40
0.562499999999992
40
0.624999999999993
40
0.624999999999993
40
0.749999999999997
40
0.749999999999997
40
1
40
1
40
1
40
1
41
1
10
50.9756661012054
20
3.25302197791012
30
0
41
1
10
50.800863925647
20
3.29830086150776
30
0
41
1
10
50.6293518973393
20
3.34931713559519
30
0
41
1
10
50.3816494820457
20
3.44352722213341
30
0
41
1
10
50.3006888174955
20
3.4779021323879
30
0
41
1
10
50.1443210204164
20
3.55728596629271
30
0
41
1
10
50.0698232059832
20
3.60141360183559
30
0
41
1
10
49.9709432901006
20
3.682168507603
30
0
41
1
10
49.9399916638561
20
3.7118490461792
30
0
41
1
10
49.8879473239529
20
3.77766798403286
30
0
41
1
10
49.8666013419335
20
3.81436150614391
30
0
41
1
10
49.8486397649457
20
3.87392888084796
30
0
41
1
10
49.8449215808002
20
3.89498186989971
30
0
41
1
10
49.8432589201802
20
3.93750262371969
30
0
41
1
10
49.8452302509191
20
3.95886842302153
30
0
41
1
10
49.8595379701722
20
4.02331908533085
30
0
41
1
10
49.8801048567779
20
4.06474083913275
30
0
41
1
10
49.9327231710217
20
4.14001978508452
30
0
41
1
10
49.9645558412885
20
4.17422829208712
30
0
41
1
10
50.0339730849206
20
4.23782392206593
30
0
41
1
10
50.0709475158487
20
4.26663187977783
30
0
41
1
10
50.186007994597
20
4.34760871514112
30
0
41
1
10
50.2686973391509
20
4.39465312989719
30
0
41
1
10
50.4359365866038
20
4.47946783035096
30
0
41
1
10
50.5209709280089
20
4.51736083540951
30
0
41
1
10
50.6927637174359
20
4.58761400291201
30
0
41
1
10
50.7795432555588
20
4.61990830194546
30
0
41
1
10
51.0417687573905
20
4.71073153033464
30
0
41
1
10
51.2193954724003
20
4.76337296671255
30
0
41
1
10
51.7545800569865
20
4.90563162622189
30
0
41
1
10
52.1135792051911
20
4.97954919109472
30
0
41
1
10
52.473783500821
20
5.0427575460194
30
0
0
SPLINE
5
13A
100
AcDbEntity
8
1
62
256
6
ByLayer
370
-1
48
1
60
0
100
AcDbSpline
70
4
71
3
72
18
73
14
40
0
40
0
40
0
40
0
40
0.250000000000001
40
0.250000000000001
40
0.500000000000002
40
0.500000000000002
40
0.562500000000002
40
0.562500000000002
40
0.625000000000002
40
0.625000000000002
40
0.750000000000001
40
0.750000000000001
40
1
40
1
40
1
40
1
41
1
10
12.9873160252732
20
4.569683355075
30
0
41
1
10
12.7751040596428
20
4.65470657485375
30
0
41
1
10
12.5606764812411
20
4.74326052279778
30
0
41
1
10
12.1289244007981
20
4.93271432080718
30
0
41
1
10
11.9115913460028
20
5.03360032802956
30
0
41
1
10
11.6396287941775
20
5.17203465532083
30
0
41
1
10
11.5852116666299
20
5.20035042628939
30
0
41
1
10
11.4764527085188
20
5.25834154633097
30
0
41
1
10
11.4218436333246
20
5.28694254551399
30
0
41
1
10
11.2591522777835
20
5.37412126022093
30
0
41
1
10
11.1523904566024
20
5.43433797423438
30
0
41
1
10
10.8377254528941
20
5.62222537314688
30
0
41
1
10
10.6355107834956
20
5.7572351774017
30
0
41
1
10
10.4414528110709
20
5.9033577887941
30
0
0
SPLINE
5
13B
100
AcDbEntity
8
1
62
256
6
ByLayer
370
-1
48
1
60
0
100
AcDbSpline
70
4
71
3
72
22
73
18
40
0
40
0
40
0
40
0
40
0.125
40
0.125
40
0.25
40
0.25
40
0.375
40
0.375
40
0.5
40
0.5
40
0.625
40
0.625
40
0.75
40
0.75
40
0.875
40
0.875
40
1
40
1
40
1
40
1
41
1
10
58.7908683579633
20
2.42158954838931
30
0
41
1
10
58.4551627746567
20
2.38708394314315
30
0
41
1
10
58.1206528474502
20
2.3663316595898
30
0
41
1
10
57.4536056075754
20
2.34307755530946
30
0
41
1
10
57.1209981545553
20
2.3402358663061
30
0
41
1
10
56.4577620693723
20
2.3496152480233
30
0
41
1
10
56.1271608727031
20
2.36205648527854
30
0
41
1
10
55.4690891269086
20
2.40621971953556
30
0
41
1
10
55.1416272277962
20
2.43792995914191
30
0
41
1
10
54.4898700360835
20
2.51918855122779
30
0
41
1
10
54.1655490650758
20
2.56860916891688
30
0
41
1
10
53.5191811424403
20
2.68029298494756
30
0
41
1
10
53.1970045178135
20
2.74246564601702
30
0
41
1
10
52.556882939433
20
2.8745411629427
30
0
41
1
10
52.238533058677
20
2.94468092310228
30
0
41
1
10
51.6049805700372
20
3.09312223069153
30
0
41
1
10
51.2898621942592
20
3.17164076063955
30
0
41
1
10
50.9756661012054
20
3.25302197791015
30
0
0
SPLINE
5
13C
100
AcDbEntity
8
1
62
256
6
ByLayer
370
-1
48
1
60
0
100
AcDbSpline
70
4
71
3
72
10
73
6
40
0
40
0
40
0
40
0
40
0.0173270641054286
40
0.940907718132412
40
1
40
1
40
1
40
1
41
1
10
50.975666101206
20
3.25302197791018
30
0
41
1
10
50.9711829008654
20
3.25271307854672
30
0
41
1
10
50.7277348041707
20
3.23592542216693
30
0
41
1
10
50.4691275913877
20
3.21730146936181
30
0
41
1
10
50.2152625462102
20
3.19822495388002
30
0
41
1
10
50.1999974655917
20
3.19707499896373
30
0
0
SPLINE
5
13D
100
AcDbEntity
8
1
62
256
6
ByLayer
370
-1
48
1
60
0
100
AcDbSpline
70
4
71
3
72
28
73
24
40
0
40
0
40
0
40
0
40
0.0109520148381118
40
0.0607207055028048
40
0.110489396167498
40
0.160258086832191
40
0.210026777496883
40
0.309564158826269
40
0.359332849490962
40
0.409101540155655
40
0.458870230820348
40
0.508638921485041
40
0.558407612149734
40
0.608176302814426
40
0.657944993479119
40
0.707713684143812
40
0.807251065473198
40
0.857019756137892
40
0.906788446802584
40
0.931672792134931
40
0.956557137467277
40
0.981441482799623
40
1
40
1
40
1
40
1
41
1
10
8.94633315242112
20
7.43317373567376
30
0
41
1
10
8.93620905725078
20
7.42819460422987
30
0
41
1
10
8.8799563636357
20
7.4003736905056
30
0
41
1
10
8.77640232133021
20
7.34758318254708
30
0
41
1
10
8.63427540079127
20
7.27158521105019
30
0
41
1
10
8.49040972921046
20
7.19106410093664
30
0
41
1
10
8.29695213704008
20
7.077960285194
30
0
41
1
10
8.10206195676562
20
6.95667573991102
30
0
41
1
10
7.90792490495167
20
6.82836633683561
30
0
41
1
10
7.76325427309345
20
6.72897232860103
30
0
41
1
10
7.62007139100939
20
6.62676683740659
30
0
41
1
10
7.47891308845084
20
6.52214523692876
30
0
41
1
10
7.34031619516915
20
6.41550290084405
30
0
41
1
10
7.20477189062348
20
6.30726022994011
30
0
41
1
10
7.07277135427296
20
6.19783762500458
30
0
41
1
10
6.90205946284155
20
6.05093288288776
30
0
41
1
10
6.74012650612764
20
5.90336420222562
30
0
41
1
10
6.5883368114211
20
5.75677449909753
30
0
41
1
10
6.49787546557502
20
5.66585088993412
30
0
41
1
10
6.428259229411
20
5.59370120456987
30
0
41
1
10
6.37748142623528
20
5.53996717814226
30
0
41
1
10
6.33237222355112
20
5.4912091153318
30
0
41
1
10
6.30412951274775
20
5.46010056719672
30
0
41
1
10
6.29214692505329
20
5.44679249384447
30
0
0
SPLINE
5
13E
100
AcDbEntity
8
1
62
256
6
ByLayer
370
-1
48
1
60
0
100
AcDbSpline
70
4
71
3
72
10
73
6
40
0
40
0
40
0
40
0
40
0.5
40
0.5
40
1
40
1
40
1
40
1
41
1
10
60.7546624152894
20
1.53261994650677
30
0
41
1
10
60.8931677590651
20
1.5035859072425
30
0
41
1
10
61.0318509093032
20
1.48077839089751
30
0
41
1
10
61.3080252043226
20
1.44753714482511
30
0
41
1
10
61.4438396394501
20
1.43728853265569
30
0
41
1
10
61.5771241297331
20
1.43285322392276
30
0
0
SPLINE
5
13F
100
AcDbEntity
8
1
62
256
6
ByLayer
370
-1
48
1
60
0
100
AcDbSpline
70
4
71
3
72
22
73
18
40
0
40
0
40
0
40
0
40
0.0156511572701536
40
0.0156511572701536
40
0.212520925816121
40
0.212520925816121
40
0.261738367952613
40
0.261738367952613
40
0.310955810089105
40
0.310955810089105
40
0.409390694362091
40
0.409390694362091
40
0.60626046290806
40
0.60626046290806
40
0.80313023145403
40
0.80313023145403
40
1
40
1
40
1
40
1
41
1
10
29.6890958691777
20
6.22497687880025
30
0
41
1
10
29.8403493256304
20
6.22485407660054
30
0
41
1
10
29.9915962683072
20
6.22419337895008
30
0
41
1
10
32.0452805774428
20
6.20791352282646
30
0
41
1
10
33.9474010146571
20
6.10754098153492
30
0
41
1
10
36.3327649497602
20
5.87897759381627
30
0
41
1
10
36.8099134945349
20
5.82813870842452
30
0
41
1
10
37.7620301987202
20
5.71675023609683
30
0
41
1
10
38.2373575296809
20
5.65616744202884
30
0
41
1
10
39.6614459873543
20
5.46028172442934
30
0
41
1
10
40.6083124250868
20
5.31082294574233
30
0
41
1
10
43.4438453015509
20
4.81082534121032
30
0
41
1
10
45.3275541721634
20
4.40877150537887
30
0
41
1
10
49.0941355041965
20
3.49666858220772
30
0
41
1
10
50.9767737603979
20
2.98591848960598
30
0
41
1
10
54.7542750197256
20
1.89202841007167
30
0
41
1
10
56.6493096161481
20
1.30944077948584
30
0
41
1
10
58.5571801666721
20
0.712696904460813
30
0
0
SPLINE
5
140
100
AcDbEntity
8
1
62
256
6
ByLayer
370
-1
48
1
60
0
100
AcDbSpline
70
4
71
3
72
8
73
4
40
0
40
0
40
0
40
0
40
1
40
1
40
1
40
1
41
1
10
10.4414528110709
20
5.90335778879407
30
0
41
1
10
11.3046000299565
20
4.76299238732136
30
0
41
1
10
12.1519886856621
20
3.62475643730738
30
0
41
1
10
12.9873160252732
20
2.49332727222884
30
0
0
SPLINE
5
141
100
AcDbEntity
8
1
62
256
6
ByLayer
370
-1
48
1
60
0
100
AcDbSpline
70
4
71
3
72
12
73
8
40
0
40
0
40
0
40
0
40
0.5
40
0.5
40
0.75
40
0.75
40
1
40
1
40
1
40
1
41
1
10
5
20
8.88535373361182
30
0
41
1
10
4.93199345299033
20
8.68595082706838
30
0
41
1
10
4.89964204798929
20
8.47828584571852
30
0
41
1
10
4.90018338906805
20
8.15415206555389
30
0
41
1
10
4.90871079847446
20
8.04354834379387
30
0
41
1
10
4.94228525765371
20
7.82016789671187
30
0
41
1
10
4.96717727309149
20
7.70793038983516
30
0
41
1
10
5
20
7.59520654874405
30
0
0
SPLINE
5
142
100
AcDbEntity
8
1
62
256
6
ByLayer
370
-1
48
1
60
0
100
AcDbSpline
70
4
71
3
72
26
73
22
40
0
40
0
40
0
40
0
40
0.25
40
0.25
40
0.375
40
0.375
40
0.5
40
0.5
40
0.5625
40
0.5625
40
0.625
40
0.625
40
0.75
40
0.75
40
0.8125
40
0.8125
40
0.875
40
0.875
40
0.9375
40
0.9375
40
1
40
1
40
1
40
1
41
1
10
59.6200370738591
20
0.427519848187842
30
0
41
1
10
59.6383722619627
20
0.435990183920211
30
0
41
1
10
59.6475703930914
20
0.497107554859042
30
0
41
1
10
59.639485849871
20
0.664341877203185
30
0
41
1
10
59.6330786791735
20
0.731694635849209
30
0
41
1
10
59.6110854243174
20
0.886989886125718
30
0
41
1
10
59.595527783345
20
0.975053639955917
30
0
41
1
10
59.5628344074925
20
1.12197938515914
30
0
41
1
10
59.5503072401807
20
1.17360895454169
30
0
41
1
10
59.5219214911228
20
1.27995241671252
30
0
41
1
10
59.5060386842346
20
1.33481720756618
30
0
41
1
10
59.4523849771028
20
1.50382089218988
30
0
41
1
10
59.4088816763257
20
1.62246670866125
30
0
41
1
10
59.3249864143955
20
1.80575409452732
30
0
41
1
10
59.2938718418641
20
1.86772292058822
30
0
41
1
10
59.2228512026406
20
1.99229422551835
30
0
41
1
10
59.1834648647379
20
2.05402379535289
30
0
41
1
10
59.0938102192827
20
2.17373885749805
30
0
41
1
10
59.0430665743045
20
2.23220638158085
30
0
41
1
10
58.9286467788308
20
2.33729789010317
30
0
41
1
10
58.8649420740468
20
2.38437746251574
30
0
41
1
10
58.7908683579633
20
2.42158954838908
30
0
0
SPLINE
5
143
100
AcDbEntity
8
1
62
256
6
ByLayer
370
-1
48
1
60
0
100
AcDbSpline
70
4
71
3
72
8
73
4
40
0
40
0
40
0
40
0
40
1
40
1
40
1
40
1
41
1
10
6.99964091672342
20
3.95316935690673
30
0
41
1
10
7.01089312604674
20
3.92190151707356
30
0
41
1
10
7.02214726965582
20
3.89066457603849
30
0
41
1
10
7.0334032342104
20
3.85945849295388
30
0
0
SPLINE
5
144
100
AcDbEntity
8
1
62
256
6
ByLayer
370
-1
48
1
60
0
100
AcDbSpline
70
4
71
3
72
8
73
4
40
0
40
0
40
0
40
0
40
1
40
1
40
1
40
1
41
1
10
9.29964091672352
20
-1.46488732578933
30
0
41
1
10
9.29964091672352
20
-1.98737177462868
30
0
41
1
10
9.29964091672352
20
-2.50985622346806
30
0
41
1
10
9.29964091672352
20
-3.03234067230741
30
0
0
SPLINE
5
145
100
AcDbEntity
8
1
62
256
6
ByLayer
370
-1
48
1
60
0
100
AcDbSpline
70
4
71
3
72
16
73
12
40
0
40
0
40
0
40
0
40
0.249999999999999
40
0.249999999999999
40
0.374999999999999
40
0.374999999999999
40
0.499999999999999
40
0.499999999999999
40
0.749999999999999
40
0.749999999999999
40
1
40
1
40
1
40
1
41
1
10
6.99964091672345
20
3.41795533978558
30
0
41
1
10
6.93064463878937
20
3.55306810158277
30
0
41
1
10
6.87317444165822
20
3.69299249001105
30
0
41
1
10
6.79784283044526
20
3.90741882691322
30
0
41
1
10
6.7746036616237
20
3.97967577322336
30
0
41
1
10
6.73127049594086
20
4.12550509438609
30
0
41
1
10
6.71111450730899
20
4.19936362803693
30
0
41
1
10
6.65552980741606
20
4.41922277219055
30
0
41
1
10
6.62461751156235
20
4.56433939268061
30
0
41
1
10
6.57124475218464
20
4.85231639122375
30
0
41
1
10
6.54882953415216
20
4.99516633937034
30
0
41
1
10
6.52957064075193
20
5.13702187603479
30
0
0
SPLINE
5
146
100
AcDbEntity
8
1
62
256
6
ByLayer
370
-1
48
1
60
0
100
AcDbSpline
70
4
71
3
72
24
73
20
40
0
40
0
40
0
40
0
40
0.124999999999999
40
0.124999999999999
40
0.249999999999999
40
0.249999999999999
40
0.374999999999998
40
0.374999999999998
40
0.499999999999998
40
0.499999999999998
40
0.749999999999995
40
0.749999999999995
40
0.781249999999996
40
0.781249999999996
40
0.812499999999996
40
0.812499999999996
40
0.874999999999998
40
0.874999999999998
40
1
40
1
40
1
40
1
41
1
10
9.2996409167236
20
-3.03234067230733
30
0
41
1
10
9.37958128120178
20
-3.10337760789383
30
0
41
1
10
9.46461136370169
20
-3.16276684648901
30
0
41
1
10
9.64491653687151
20
-3.26669814503086
30
0
41
1
10
9.74019961173093
20
-3.31118100404444
30
0
41
1
10
9.94181856459875
20
-3.39066789309058
30
0
41
1
10
10.0481549740115
20
-3.42564460154168
30
0
41
1
10
10.2732790007199
20
-3.48982613591431
30
0
41
1
10
10.3920807257145
20
-3.51897776368699
30
0
41
1
10
10.7625592619677
20
-3.60027196570849
30
0
41
1
10
11.030135139111
20
-3.64719669730948
30
0
41
1
10
11.3600719708563
20
-3.69844677235025
30
0
41
1
10
11.3971721004401
20
-3.70419735731619
30
0
41
1
10
11.4720593088887
20
-3.71528292866634
30
0
41
1
10
11.5096622215553
20
-3.72017520492446
30
0
41
1
10
11.6235844872512
20
-3.73441533169512
30
0
41
1
10
11.7014404354854
20
-3.74388127451158
30
0
41
1
10
11.937974965887
20
-3.77197793050286
30
0
41
1
10
12.1001663644115
20
-3.79037533770415
30
0
41
1
10
12.2672913016678
20
-3.808921338022
30
0
0
SPLINE
5
147
100
AcDbEntity
8
1
62
256
6
ByLayer
370
-1
48
1
60
0
100
AcDbSpline
70
4
71
3
72
12
73
8
40
0
40
0
40
0
40
0
40
0.5
40
0.5
40
0.75
40
0.75
40
1
40
1
40
1
40
1
41
1
10
7.14281525095919
20
3.56751642166478
30
0
41
1
10
7.50092974089276
20
2.67786766941197
30
0
41
1
10
7.85958218599862
20
1.80681643518631
30
0
41
1
10
8.39917891659167
20
0.539694564535182
30
0
41
1
10
8.57904596994899
20
0.124634214270685
30
0
41
1
10
8.93902961537904
20
-0.686432373883747
30
0
41
1
10
9.1191369798016
20
-1.08258736905361
30
0
41
1
10
9.29964091672358
20
-1.46488732578933
30
0
0
SPLINE
5
148
100
AcDbEntity
8
1
62
256
6
ByLayer
370
-1
48
1
60
0
100
AcDbSpline
70
4
71
1
72
4
73
2
40
0
40
0
40
1
40
1
41
1
10
12.9873160252732
20
2.49332727222884
30
0
41
1
10
12.9873160252732
20
4.569683355075
30
0
0
SPLINE
5
149
100
AcDbEntity
8
1
62
256
6
ByLayer
370
-1
48
1
60
0
100
AcDbSpline
70
4
71
3
72
8
73
4
40
0
40
0
40
0
40
0
40
1
40
1
40
1
40
1
41
1
10
61.3842015050024
20
3.20452221500528
30
0
41
1
10
61.4144057483453
20
3.2641850975285
30
0
41
1
10
61.4482159181185
20
3.3199951560394
30
0
41
1
10
61.4856675575385
20
3.37327758022349
30
0
0
SPLINE
5
14A
100
AcDbEntity
8
1
62
256
6
ByLayer
370
-1
48
1
60
0
100
AcDbSpline
70
4
71
3
72
16
73
12
40
0
40
0
40
0
40
0
40
0.125
40
0.125
40
0.25
40
0.25
40
0.5
40
0.5
40
0.75
40
0.75
40
1
40
1
40
1
40
1
41
1
10
9.99790854016183
20
-2.42440482088725
30
0
41
1
10
10.0527269208825
20
-2.48292019011922
30
0
41
1
10
10.109763388526
20
-2.53957682165185
30
0
41
1
10
10.2264154056723
20
-2.64729568902141
30
0
41
1
10
10.2862344733226
20
-2.69859067378249
30
0
41
1
10
10.4701834339316
20
-2.84492697767487
30
0
41
1
10
10.5987909319731
20
-2.93245793912897
30
0
41
1
10
10.8683406195268
20
-3.08729549591337
30
0
41
1
10
11.0103137741237
20
-3.15486093496583
30
0
41
1
10
11.2984571420601
20
-3.26539707441898
30
0
41
1
10
11.4453270773352
20
-3.30894837105979
30
0
41
1
10
11.594803870934
20
-3.3409262596829
30
0
0
SPLINE
5
14B
100
AcDbEntity
8
1
62
256
6
ByLayer
370
-1
48
1
60
0
100
AcDbSpline
70
4
71
3
72
10
73
6
40
0
40
0
40
0
40
0
40
0.5
40
0.5
40
1
40
1
40
1
40
1
41
1
10
9.29964091672355
20
-1.46488732578936
30
0
41
1
10
9.39948135554869
20
-1.62268609420789
30
0
41
1
10
9.50823812400716
20
-1.78176339656338
30
0
41
1
10
9.74140378987167
20
-2.10206837682969
30
0
41
1
10
9.86582641417527
20
-2.2632598337313
30
0
41
1
10
9.99790852566895
20
-2.42440479991589
30
0
0
SPLINE
5
14C
100
AcDbEntity
8
1
62
256
6
ByLayer
370
-1
48
1
60
0
100
AcDbSpline
70
4
71
3
72
8
73
4
40
0
40
0
40
0
40
0
40
1
40
1
40
1
40
1
41
1
10
61.8602651373414
20
6.22416671463264
30
0
41
1
10
61.8634777959871
20
6.22474613469521
30
0
41
1
10
61.8693061298662
20
6.22501249347559
30
0
41
1
10
61.8776829770172
20
6.22499970561722
30
0
0
SPLINE
5
14D
100
AcDbEntity
8
1
62
256
6
ByLayer
370
-1
48
1
60
0
100
AcDbSpline
70
4
71
3
72
10
73
6
40
0
40
0
40
0
40
0
40
0.262540883992683
40
0.262540883992683
40
1
40
1
40
1
40
1
41
1
10
61.9199223329177
20
6.22375624254735
30
0
41
1
10
61.9296882103949
20
6.22332604658334
30
0
41
1
10
61.9405304576201
20
6.22279555786383
30
0
41
1
10
61.9855099498342
20
6.22046756141538
30
0
41
1
10
62.0268845599227
20
6.21808914808204
30
0
41
1
10
62.0749620056539
20
6.21557262139669
30
0
0
SPLINE
5
14E
100
AcDbEntity
8
1
62
256
6
ByLayer
370
-1
48
1
60
0
100
AcDbSpline
70
4
71
3
72
10
73
6
40
0
40
0
40
0
40
0
40
0.5
40
0.5
40
1
40
1
40
1
40
1
41
1
10
6.99964091672345
20
3.95316935690664
30
0
41
1
10
6.89337712422451
20
4.14481963931661
30
0
41
1
10
6.80151040546033
20
4.34037409392127
30
0
41
1
10
6.64496796729762
20
4.73597503468835
30
0
41
1
10
6.58029570606701
20
4.93602819139565
30
0
41
1
10
6.52957064075201
20
5.13702187603431
30
0
0
SPLINE
5
14F
100
AcDbEntity
8
1
62
256
6
ByLayer
370
-1
48
1
60
0
100
AcDbSpline
70
4
71
3
72
14
73
10
40
0
40
0
40
0
40
0
40
0.25
40
0.25
40
0.5
40
0.5
40
0.75
40
0.75
40
1
40
1
40
1
40
1
41
1
10
55.9951417895452
20
6.1582128558646
30
0
41
1
10
55.7265268157922
20
5.98775203328086
30
0
41
1
10
55.4461951658483
20
5.85379438824367
30
0
41
1
10
54.8733391442944
20
5.62386539022918
30
0
41
1
10
54.5806785975269
20
5.52831828947757
30
0
41
1
10
53.9882481882759
20
5.35937308395114
30
0
41
1
10
53.6883835142585
20
5.28627036348155
30
0
41
1
10
53.0839691242824
20
5.15466111987774
30
0
41
1
10
52.7790813980054
20
5.09633097109221
30
0
41
1
10
52.4737835008211
20
5.04275754601892
30
0
0
SPLINE
5
150
100
AcDbEntity
8
1
62
256
6
ByLayer
370
-1
48
1
60
0
100
AcDbSpline
70
4
71
3
72
12
73
8
40
0
40
0
40
0
40
0
40
0.500000000000004
40
0.500000000000004
40
0.750000000000002
40
0.750000000000002
40
1
40
1
40
1
40
1
41
1
10
62.5179817834975
20
1.16528958318753
30
0
41
1
10
62.3634076983512
20
1.13739353318965
30
0
41
1
10
62.2026185581612
20
1.14236554167459
30
0
41
1
10
61.9602131955086
20
1.20685607456781
30
0
41
1
10
61.8789764194273
20
1.23830836843857
30
0
41
1
10
61.7233402821392
20
1.32048019315135
30
0
41
1
10
61.648254249289
20
1.37127367152399
30
0
41
1
10
61.5771241297371
20
1.43285322392603
30
0
0
SPLINE
5
151
100
AcDbEntity
8
1
62
256
6
ByLayer
370
-1
48
1
60
0
100
AcDbSpline
70
4
71
3
72
18
73
14
40
0
40
0
40
0
40
0
40
0.409045703814912
40
0.818091407629824
40
0.920352833583552
40
0.945918190071984
40
0.9587008683162
40
0.965092207438308
40
0.971483546560416
40
0.984266224804632
40
0.995451068268321
40
0.997048903048848
40
1
40
1
40
1
40
1
41
1
10
62.0847362049739
20
6.04140623533198
30
0
41
1
10
62.016642995656
20
5.68961664408738
30
0
41
1
10
61.8804418007354
20
4.98600583865465
30
0
41
1
10
61.7271705662645
20
4.19448290558367
30
0
41
1
10
61.6378271128621
20
3.73268998679674
30
0
41
1
10
61.6143759295092
20
3.61182544193866
30
0
41
1
10
61.6069258875963
20
3.57336224383764
30
0
41
1
10
61.6026743948283
20
3.55137967870147
30
0
41
1
10
61.5984277870731
20
3.52939099373754
30
0
41
1
10
61.5933947755729
20
3.50326546158269
30
0
41
1
10
61.5891299275078
20
3.481299409755
30
0
41
1
10
61.5864858767952
20
3.46780738524075
30
0
41
1
10
61.585719283612
20
3.4639105483773
30
0
41
1
10
61.58523284178
20
3.46138084074326
30
0
0
SPLINE
5
152
100
AcDbEntity
8
1
62
256
6
ByLayer
370
-1
48
1
60
0
100
AcDbSpline
70
4
71
2
72
6
73
3
40
0
40
0
40
0
40
1
40
1
40
1
41
1
10
62.4263964150574
20
3.5710982653213
30
0
41
1
10
62.3895565244721
20
3.38028926994474
30
0
41
1
10
62.4263964150574
20
3.18948027456821
30
0
0
SPLINE
5
153
100
AcDbEntity
8
1
62
256
6
ByLayer
370
-1
48
1
60
0
100
AcDbSpline
70
4
71
3
72
18
73
14
40
0
40
0
40
0
40
0
40
0.171643617771724
40
0.171643617771724
40
0.343287235543451
40
0.343287235543451
40
0.514930853315216
40
0.514930853315216
40
0.686574471086905
40
0.686574471086905
40
0.843273207856101
40
0.843273207856101
40
1
40
1
40
1
40
1
41
1
10
62.3307105213078
20
1.48462154887343
30
0
41
1
10
62.321729857414
20
1.4839957081102
30
0
41
1
10
62.3127443841172
20
1.48343590700912
30
0
41
1
10
62.2947667129292
20
1.48244856444248
30
0
41
1
10
62.285774032489
20
1.48202099647511
30
0
41
1
10
62.2677838784487
20
1.48129820489149
30
0
41
1
10
62.2587859219646
20
1.48100296187437
30
0
41
1
10
62.2407871483006
20
1.48054487648693
30
0
41
1
10
62.2317858480053
20
1.48038202182087
30
0
41
1
10
62.2145660599016
20
1.48019715501306
30
0
41
1
10
62.2063472641187
20
1.48016411025844
30
0
41
1
10
62.1899088639949
20
1.4802083968693
30
0
41
1
10
62.1816888918933
20
1.48028574898868
30
0
41
1
10
62.1734699871789
20
1.48041829755351
30
0
0
SPLINE
5
154
100
AcDbEntity
8
1
62
256
6
ByLayer
370
-1
48
1
60
0
100
AcDbSpline
70
4
71
3
72
8
73
4
40
0
40
0
40
0
40
0
40
1
40
1
40
1
40
1
41
1
10
62.1297180898704
20
1.48359748771094
30
0
41
1
10
62.0564737966955
20
1.49332823944266
30
0
41
1
10
61.9863884475834
20
1.52431302768028
30
0
41
1
10
61.9297908011914
20
1.57198550003596
30
0
0
SPLINE
5
155
100
AcDbEntity
8
1
62
256
6
ByLayer
370
-1
48
1
60
0
100
AcDbSpline
70
4
71
3
72
8
73
4
40
0
40
0
40
0
40
0
40
1
40
1
40
1
40
1
41
1
10
67.3425234003997
20
6.47698105217853
30
0
41
1
10
67.4157676936093
20
6.46725030044684
30
0
41
1
10
67.4858530427381
20
6.43626551220919
30
0
41
1
10
67.542450689127
20
6.3885930398535
30
0
0
SPLINE
5
156
100
AcDbEntity
8
1
62
256
6
ByLayer
370
-1
48
1
60
0
100
AcDbSpline
70
4
71
2
72
6
73
3
40
0
40
0
40
0
40
1
40
1
40
1
41
1
10
65.7192420195496
20
1.98030433812249
30
0
41
1
10
65.7481011427857
20
1.98045501003634
30
0
41
1
10
65.7763321036806
20
1.98356906226041
30
0
0
SPLINE
5
157
100
AcDbEntity
8
1
62
256
6
ByLayer
370
-1
48
1
60
0
100
AcDbSpline
70
4
71
3
72
8
73
4
40
0
40
0
40
0
40
0
40
1
40
1
40
1
40
1
41
1
10
62.3994920849027
20
6.38028926994474
30
0
41
1
10
62.3991837007318
20
6.38028928196229
30
0
41
1
10
62.3988753192471
20
6.38028928797098
30
0
41
1
10
62.3985669404583
20
6.38028928797078
30
0
0
SPLINE
5
158
100
AcDbEntity
8
1
62
256
6
ByLayer
370
-1
48
1
60
0
100
AcDbSpline
70
4
71
3
72
32
73
28
40
0
40
0
40
0
40
0
40
0.125
40
0.140625
40
0.15625
40
0.1875
40
0.25
40
0.3125
40
0.375
40
0.4375
40
0.453125
40
0.46875
40
0.5
40
0.53125
40
0.5625
40
0.625
40
0.640625
40
0.65625
40
0.6875
40
0.71875
40
0.75
40
0.78125
40
0.796875
40
0.8125
40
0.84375
40
0.875
40
1
40
1
40
1
40
1
41
1
10
66.5716552841265
20
2.07569376763303
30
0
41
1
10
66.60235428101
20
2.07005555589828
30
0
41
1
10
66.6368566680217
20
2.06371905373328
30
0
41
1
10
66.6752813908496
20
2.05666156000999
30
0
41
1
10
66.69051381662
20
2.05386442238648
30
0
41
1
10
66.7178000374525
20
2.04882737486855
30
0
41
1
10
66.7587098764104
20
2.04120676355717
30
0
41
1
10
66.8099866900376
20
2.03154480250842
30
0
41
1
10
66.8625621322628
20
2.02153458337841
30
0
41
1
10
66.9022845200773
20
2.01389624164921
30
0
41
1
10
66.9285458534775
20
2.00881407698162
30
0
41
1
10
66.9463057061474
20
2.00537526044153
30
0
41
1
10
66.968416750302
20
2.0010943952901
30
0
41
1
10
66.9949837656324
20
1.99595064222066
30
0
41
1
10
67.0303977361398
20
1.98909393082082
30
0
41
1
10
67.061382453088
20
1.98309452457684
30
0
41
1
10
67.0879522435956
20
1.97795118788355
30
0
41
1
10
67.1056616465591
20
1.97452227545313
30
0
41
1
10
67.1277412037527
20
1.97023976184988
30
0
41
1
10
67.1542483696344
20
1.96507117454507
30
0
41
1
10
67.1806208958175
20
1.95990327983813
30
0
41
1
10
67.2023978721129
20
1.95561596322926
30
0
41
1
10
67.2195923957204
20
1.95221691580966
30
0
41
1
10
67.2366968421743
20
1.94882796879327
30
0
41
1
10
67.2580650543084
20
1.9445913705365
30
0
41
1
10
67.3093550013755
20
1.93442374414491
30
0
41
1
10
67.3520966239313
20
1.9259507221519
30
0
41
1
10
67.3862899219761
20
1.91917230455752
30
0
0
SPLINE
5
159
100
AcDbEntity
8
1
62
256
6
ByLayer
370
-1
48
1
60
0
100
AcDbSpline
70
4
71
3
72
15
73
11
40
0
40
0
40
0
40
0
40
0.0039823711834342
40
0.0560173982325753
40
0.160087452330858
40
0.368227560527422
40
0.784507776920551
40
0.888577831018833
40
0.992647885117116
40
1
40
1
40
1
40
1
41
1
10
61.58523284178
20
3.46138084074326
30
0
41
1
10
61.585192527839
20
3.46117119083729
30
0
41
1
10
61.5846265094251
20
3.45822202359528
30
0
41
1
10
61.583054987232
20
3.4497863516448
30
0
41
1
10
61.5800845073681
20
3.4304813291098
30
0
41
1
10
61.5763954290827
20
3.39138271821329
30
0
41
1
10
61.5774378474618
20
3.35191189777888
30
0
41
1
10
61.5816553507383
20
3.3186202460233
30
0
41
1
10
61.5835837300882
20
3.30725341661096
30
0
41
1
10
61.5846627222725
20
3.301380304737
30
0
41
1
10
61.584734250368
20
3.30099278522476
30
0
0
SPLINE
5
15A
100
AcDbEntity
8
1
62
256
6
ByLayer
370
-1
48
1
60
0
100
AcDbSpline
70
4
71
3
72
14
73
10
40
0
40
0
40
0
40
0
40
0.0044038098736873
40
0.0109971621261794
40
0.0241838666311637
40
0.0505572756411323
40
0.156050911681006
40
0.578025455840503
40
1
40
1
40
1
40
1
41
1
10
67.0197130834338
20
4.38947744837276
30
0
41
1
10
67.0190673278864
20
4.38608958290737
30
0
41
1
10
67.0174254642099
20
4.37763006055468
30
0
41
1
10
67.0137717872896
20
4.35895889800446
30
0
41
1
10
67.0069078618012
20
4.32337534161428
30
0
41
1
10
66.985218443936
20
4.21148836479759
30
0
41
1
10
66.9025412127273
20
3.78434545315986
30
0
41
1
10
66.7607194716114
20
3.05206006115495
30
0
41
1
10
66.6346766799548
20
2.40114919880699
30
0
41
1
10
66.5716552841265
20
2.07569376763303
30
0
0
SPLINE
5
15B
100
AcDbEntity
8
1
62
256
6
ByLayer
370
-1
48
1
60
0
100
AcDbSpline
70
4
71
1
72
4
73
2
40
0
40
0
40
1
40
1
41
1
10
64.7230473919423
20
5.98028926994473
30
0
41
1
10
63.7268526938506
20
5.98028926994473
30
0
0
SPLINE
5
15C
100
AcDbEntity
8
1
62
256
6
ByLayer
370
-1
48
1
60
0
100
AcDbSpline
70
4
71
3
72
32
73
28
40
0
40
0
40
0
40
0
40
0.125
40
0.15625
40
0.1875
40
0.203125
40
0.21875
40
0.25
40
0.28125
40
0.3125
40
0.34375
40
0.359375
40
0.375
40
0.4375
40
0.46875
40
0.5
40
0.53125
40
0.546875
40
0.5625
40
0.625
40
0.6875
40
0.75
40
0.8125
40
0.84375
40
0.859375
40
0.875
40
1
40
1
40
1
40
1
41
1
10
61.8719201878
20
1.81819792466143
30
0
41
1
10
61.9072053641846
20
1.82497634225584
30
0
41
1
10
61.9513118346653
20
1.83344936424885
30
0
41
1
10
62.0042395992422
20
1.84361699064044
30
0
41
1
10
62.0262963280402
20
1.84785358889721
30
0
41
1
10
62.0439284355595
20
1.8512425359136
30
0
41
1
10
62.0615739946023
20
1.85464158333321
30
0
41
1
10
62.0837418200589
20
1.85892889994204
30
0
41
1
10
62.1103399813925
20
1.86409679464899
30
0
41
1
10
62.1368106021242
20
1.86926538195379
30
0
41
1
10
62.1586266160919
20
1.87354789555704
30
0
41
1
10
62.1760634107918
20
1.87697680798749
30
0
41
1
10
62.2022125892692
20
1.88212014468078
30
0
41
1
10
62.2327215155655
20
1.88811955092476
30
0
41
1
10
62.2675885274599
20
1.8949762623246
30
0
41
1
10
62.2937447489509
20
1.90012001539404
30
0
41
1
10
62.315512379401
20
1.90440088054547
30
0
41
1
10
62.3330002410717
20
1.90783969708556
30
0
41
1
10
62.3588308661536
20
1.91292186175315
30
0
41
1
10
62.3974011363413
20
1.92056020348232
30
0
41
1
10
62.4474299884328
20
1.93057042261233
30
0
41
1
10
62.4951878395061
20
1.94023238366108
30
0
41
1
10
62.5323889225682
20
1.94785299497247
30
0
41
1
10
62.5567322114698
20
1.9528900424904
30
0
41
1
10
62.5701703201041
20
1.9556871801139
30
0
41
1
10
62.604084589432
20
1.96274467383722
30
0
41
1
10
62.634531063642
20
1.96908117600222
30
0
41
1
10
62.6616234825843
20
1.97471938773694
30
0
0
SPLINE
5
15D
100
AcDbEntity
8
1
62
256
6
ByLayer
370
-1
48
1
60
0
100
AcDbSpline
70
4
71
3
72
14
73
10
40
0
40
0
40
0
40
0
40
0.0278688906942454
40
0.280125361774745
40
0.532381832855244
40
0.658510068395494
40
0.784638303935744
40
0.910766539475993
40
1
40
1
40
1
40
1
41
1
10
67.2978123663055
20
6.40042105469945
30
0
41
1
10
67.296405564212
20
6.4004616308207
30
0
41
1
10
67.2822635685762
20
6.4008205842299
30
0
41
1
10
67.2553877045967
20
6.40076873249893
30
0
41
1
10
67.2235526720682
20
6.40017767292832
30
0
41
1
10
67.1980972595078
20
6.39931641999948
30
0
41
1
10
67.1790149816813
20
6.3984586220181
30
0
41
1
10
67.1618044016039
20
6.39747732952685
30
0
41
1
10
67.1509547950934
20
6.39677836981144
30
0
41
1
10
67.1464598812418
20
6.396478825196
30
0
0
SPLINE
5
15E
100
AcDbEntity
8
1
62
256
6
ByLayer
370
-1
48
1
60
0
100
AcDbSpline
70
4
71
1
72
4
73
2
40
0
40
0
40
1
40
1
41
1
10
64.7230473919423
20
1.98028926994473
30
0
41
1
10
65.7192420900341
20
1.98028926994473
30
0
0
SPLINE
5
15F
100
AcDbEntity
8
1
62
256
6
ByLayer
370
-1
48
1
60
0
100
AcDbSpline
70
4
71
1
72
4
73
2
40
0
40
0
40
1
40
1
41
1
10
62.7583673480239
20
1.98028926994473
30
0
41
1
10
64.7230473919423
20
1.98028926994473
30
0
0
SPLINE
5
160
100
AcDbEntity
8
1
62
256
6
ByLayer
370
-1
48
1
60
0
100
AcDbSpline
70
4
71
3
72
8
73
4
40
0
40
0
40
0
40
0
40
1
40
1
40
1
40
1
41
1
10
67.3007716784232
20
6.48012597221165
30
0
41
1
10
67.3010800002592
20
6.48012037813388
30
0
41
1
10
67.3013883135862
20
6.48011440004819
30
0
41
1
10
67.301696616977
20
6.48010803800625
30
0
0
SPLINE
5
161
100
AcDbEntity
8
1
62
256
6
ByLayer
370
-1
48
1
60
0
100
AcDbSpline
70
4
71
3
72
8
73
4
40
0
40
0
40
0
40
0
40
1
40
1
40
1
40
1
41
1
10
61.9297908011914
20
1.57198550003596
30
0
41
1
10
61.9295545726756
20
1.57218447646181
30
0
41
1
10
61.929318574251
20
1.57238372840885
30
0
41
1
10
61.9290828068724
20
1.57258325507092
30
0
0
SPLINE
5
162
100
AcDbEntity
8
1
62
256
6
ByLayer
370
-1
48
1
60
0
100
AcDbSpline
70
4
71
3
72
8
73
4
40
0
40
0
40
0
40
0
40
1
40
1
40
1
40
1
41
1
10
62.1714698218279
20
1.48045256767784
30
0
41
1
10
62.171161499992
20
1.48045816175562
30
0
41
1
10
62.1708531829998
20
1.48046413984127
30
0
41
1
10
62.1705448722792
20
1.48047050188325
30
0
0
SPLINE
5
163
100
AcDbEntity
8
1
62
256
6
ByLayer
370
-1
48
1
60
0
100
AcDbSpline
70
4
71
3
72
8
73
4
40
0
40
0
40
0
40
0
40
1
40
1
40
1
40
1
41
1
10
65.7099709923643
20
6.38028948193968
30
0
41
1
10
65.756046087251
20
6.38031095760275
30
0
41
1
10
65.8020650663075
20
6.38193485222948
30
0
41
1
10
65.8480279295336
20
6.38516116581988
30
0
0
SPLINE
5
164
100
AcDbEntity
8
1
62
256
6
ByLayer
370
-1
48
1
60
0
100
AcDbSpline
70
4
71
3
72
9
73
5
40
0
40
0
40
0
40
0
40
0.5
40
1
40
1
40
1
40
1
41
1
10
62.6616234825843
20
1.97471938773694
30
0
41
1
10
62.6765441960715
20
1.92136806989353
30
0
41
1
10
62.7077862772112
20
1.79815439094978
30
0
41
1
10
62.7366463638882
20
1.66055594052111
30
0
41
1
10
62.749370829584
20
1.59394156808233
30
0
0
SPLINE
5
165
100
AcDbEntity
8
1
62
256
6
ByLayer
370
-1
48
1
60
0
100
AcDbSpline
70
4
71
3
72
9
73
5
40
0
40
0
40
0
40
0
40
0.443509303061274
40
1
40
1
40
1
40
1
41
1
10
67.4915084360441
20
6.32693280807669
30
0
41
1
10
67.4714719855331
20
6.34386944676459
30
0
41
1
10
67.4215653518434
20
6.37642243130705
30
0
41
1
10
67.3642617899516
20
6.39360301259322
30
0
41
1
10
67.3316856324391
20
6.39795094856069
30
0
0
SPLINE
5
166
100
AcDbEntity
8
1
62
256
6
ByLayer
370
-1
48
1
60
0
100
AcDbSpline
70
4
71
3
72
32
73
28
40
0
40
0
40
0
40
0
40
0.125
40
0.15625
40
0.1875
40
0.203125
40
0.21875
40
0.25
40
0.28125
40
0.3125
40
0.34375
40
0.359375
40
0.375
40
0.4375
40
0.46875
40
0.5
40
0.53125
40
0.546875
40
0.5625
40
0.625
40
0.6875
40
0.75
40
0.8125
40
0.84375
40
0.859375
40
0.875
40
1
40
1
40
1
40
1
41
1
10
67.5991059391499
20
6.14238061522803
30
0
41
1
10
67.5649126411053
20
6.13560219763366
30
0
41
1
10
67.5221710185493
20
6.12712917564065
30
0
41
1
10
67.4708810714823
20
6.11696154924906
30
0
41
1
10
67.4495128593481
20
6.11272495099229
30
0
41
1
10
67.4324084128942
20
6.1093360039759
30
0
41
1
10
67.4152138892867
20
6.10593695655629
30
0
41
1
10
67.3934369129913
20
6.10164963994745
30
0
41
1
10
67.3670643868083
20
6.09648174524051
30
0
41
1
10
67.3405572209265
20
6.0913131579357
30
0
41
1
10
67.3184776637329
20
6.08703064433246
30
0
41
1
10
67.3007682607694
20
6.08360173190201
30
0
41
1
10
67.2741984702619
20
6.07845839520871
30
0
41
1
10
67.2432137533136
20
6.07245898896474
30
0
41
1
10
67.2077997828062
20
6.06560227756489
30
0
41
1
10
67.1812327674758
20
6.06045852449546
30
0
41
1
10
67.1591217233212
20
6.05617765934403
30
0
41
1
10
67.1413618706514
20
6.05273884280393
30
0
41
1
10
67.1151005372511
20
6.04765667813635
30
0
41
1
10
67.0753781494367
20
6.04001833640717
30
0
41
1
10
67.0228027072115
20
6.03000811727716
30
0
41
1
10
66.9715258935842
20
6.02034615622841
30
0
41
1
10
66.9306160546264
20
6.01272554491703
30
0
41
1
10
66.9033298337938
20
6.0076884973991
30
0
41
1
10
66.8880974080234
20
6.0048913597756
30
0
41
1
10
66.8496726851955
20
5.99783386605228
30
0
41
1
10
66.8151702981838
20
5.99149736388728
30
0
41
1
10
66.7844713013003
20
5.98585915215256
30
0
0
SPLINE
5
167
100
AcDbEntity
8
1
62
256
6
ByLayer
370
-1
48
1
60
0
100
AcDbSpline
70
4
71
2
72
6
73
3
40
0
40
0
40
0
40
1
40
1
40
1
41
1
10
63.7268527643351
20
5.980274201767
30
0
41
1
10
63.6979936410989
20
5.98012352985316
30
0
41
1
10
63.669762680204
20
5.97700947762905
30
0
0
SPLINE
5
168
100
AcDbEntity
8
1
62
256
6
ByLayer
370
-1
48
1
60
0
100
AcDbSpline
70
4
71
3
72
8
73
4
40
0
40
0
40
0
40
0
40
1
40
1
40
1
40
1
41
1
10
67.2996965068181
20
6.48014489703368
30
0
41
1
10
67.3000549006928
20
6.48013878293079
30
0
41
1
10
67.3004132913322
20
6.48013247465497
30
0
41
1
10
67.3007716784232
20
6.48012597221165
30
0
0
SPLINE
5
169
100
AcDbEntity
8
1
62
256
6
ByLayer
370
-1
48
1
60
0
100
AcDbSpline
70
4
71
3
72
9
73
5
40
0
40
0
40
0
40
0
40
0.5
40
1
40
1
40
1
40
1
41
1
10
64.735513063475
20
1.65998484579208
30
0
41
1
10
64.7350689594039
20
1.71822693748604
30
0
41
1
10
64.7324479006111
20
1.83636640519109
30
0
41
1
10
64.7265306513179
20
1.93761807478083
30
0
41
1
10
64.7230473919423
20
1.98028926994473
30
0
0
SPLINE
5
16A
100
AcDbEntity
8
1
62
256
6
ByLayer
370
-1
48
1
60
0
100
AcDbSpline
70
4
71
1
72
4
73
2
40
0
40
0
40
1
40
1
41
1
10
62.9698263913025
20
6.30059369409744
30
0
41
1
10
64.735513063475
20
6.30059369409744
30
0
0
SPLINE
5
16B
100
AcDbEntity
8
1
62
256
6
ByLayer
370
-1
48
1
60
0
100
AcDbSpline
70
4
71
3
72
14
73
10
40
0
40
0
40
0
40
0
40
0.25
40
0.25
40
0.5
40
0.5
40
0.75
40
0.75
40
1
40
1
40
1
40
1
41
1
10
67.46465369552
20
1.90305428068243
30
0
41
1
10
67.4557930647819
20
1.85785663752429
30
0
41
1
10
67.4392426384556
20
1.81462371492395
30
0
41
1
10
67.3923414030913
20
1.73578532401686
30
0
41
1
10
67.3619878630572
20
1.70038134149524
30
0
41
1
10
67.2912866520022
20
1.64207073168771
30
0
41
1
10
67.2508291112483
20
1.61905916264433
30
0
41
1
10
67.1646200654598
20
1.58814547779045
30
0
41
1
10
67.1195637662457
20
1.58028925194734
30
0
41
1
10
67.0736745500857
20
1.58028925191871
30
0
0
SPLINE
5
16C
100
AcDbEntity
8
1
62
256
6
ByLayer
370
-1
48
1
60
0
100
AcDbSpline
70
4
71
3
72
8
73
4
40
0
40
0
40
0
40
0
40
1
40
1
40
1
40
1
41
1
10
63.7622705175776
20
1.58028905794978
30
0
41
1
10
63.7161954226909
20
1.58026758228675
30
0
41
1
10
63.6701764436344
20
1.57864368766002
30
0
41
1
10
63.6242135804083
20
1.57541737406959
30
0
0
SPLINE
5
16D
100
AcDbEntity
8
1
62
256
6
ByLayer
370
-1
48
1
60
0
100
AcDbSpline
70
4
71
3
72
18
73
14
40
0
40
0
40
0
40
0
40
0.156501894804188
40
0.156501894804188
40
0.313003789608363
40
0.313003789608363
40
0.469505684412532
40
0.469505684412532
40
0.626007579216706
40
0.626007579216706
40
0.782509474020882
40
0.782509474020882
40
1
40
1
40
1
40
1
41
1
10
67.9647777567544
20
4.6747820124734
30
0
41
1
10
67.9666540328049
20
4.66499552939624
30
0
41
1
10
67.9682394012942
20
4.65514831322457
30
0
41
1
10
67.9708198258482
20
4.63538519407507
30
0
41
1
10
67.9718160344646
20
4.62546046386137
30
0
41
1
10
67.9732151048696
20
4.60557785700064
30
0
41
1
10
67.9736185915558
20
4.59561109974837
30
0
41
1
10
67.9738313052762
20
4.57568009770227
30
0
41
1
10
67.9736406273195
20
4.56570695068743
30
0
41
1
10
67.9726662237732
20
4.54579881902435
30
0
41
1
10
67.9718820629645
20
4.53585494237021
30
0
41
1
10
67.9693041576227
20
4.51218582883098
30
0
41
1
10
67.9672336021791
20
4.49847449788194
30
0
41
1
10
67.9646020791023
20
4.48488477225646
30
0
0
SPLINE
5
16E
100
AcDbEntity
8
1
62
256
6
ByLayer
370
-1
48
1
60
0
100
AcDbSpline
70
4
71
3
72
9
73
5
40
0
40
0
40
0
40
0
40
0.5
40
1
40
1
40
1
40
1
41
1
10
64.735513063475
20
6.30059369409742
30
0
41
1
10
64.7350689594039
20
6.24235160240346
30
0
41
1
10
64.7324479006111
20
6.12421213469841
30
0
41
1
10
64.7265306513179
20
6.02296046510867
30
0
41
1
10
64.7230473919423
20
5.98028926994473
30
0
0
SPLINE
5
16F
100
AcDbEntity
8
1
62
256
6
ByLayer
370
-1
48
1
60
0
100
AcDbSpline
70
4
71
1
72
4
73
2
40
0
40
0
40
1
40
1
41
1
10
66.5011997356474
20
1.65998484579205
30
0
41
1
10
64.735513063475
20
1.65998484579205
30
0
0
SPLINE
5
170
100
AcDbEntity
8
1
62
256
6
ByLayer
370
-1
48
1
60
0
100
AcDbSpline
70
4
71
3
72
11
73
7
40
0
40
0
40
0
40
0
40
0.25
40
0.5
40
0.75
40
1
40
1
40
1
40
1
41
1
10
66.5716552841265
20
2.07569376763303
30
0
41
1
10
66.5665440805361
20
2.0451120567912
30
0
41
1
10
66.555798552811
20
1.98107707727931
30
0
41
1
10
66.5384360857911
20
1.87831970793886
30
0
41
1
10
66.52015462954
20
1.77076721193808
30
0
41
1
10
66.5075536907826
20
1.69705101897657
30
0
41
1
10
66.5011997356474
20
1.65998484579208
30
0
0
SPLINE
5
171
100
AcDbEntity
8
1
62
256
6
ByLayer
370
-1
48
1
60
0
100
AcDbSpline
70
4
71
3
72
8
73
4
40
0
40
0
40
0
40
0
40
1
40
1
40
1
40
1
41
1
10
67.2987715160392
20
6.48016024233598
30
0
41
1
10
67.2990798491073
20
6.48015526976272
30
0
41
1
10
67.2993881794324
20
6.48015015466007
30
0
41
1
10
67.2996965068181
20
6.48014489703368
30
0
0
SPLINE
5
172
100
AcDbEntity
8
1
62
256
6
ByLayer
370
-1
48
1
60
0
100
AcDbSpline
70
4
71
3
72
8
73
4
40
0
40
0
40
0
40
0
40
1
40
1
40
1
40
1
41
1
10
67.2996522542563
20
6.40036512404077
30
0
41
1
10
67.2990389943339
20
6.40038474983174
30
0
41
1
10
67.2984256941636
20
6.40040336460237
30
0
41
1
10
67.2978123663195
20
6.40042105469902
30
0
0
SPLINE
5
173
100
AcDbEntity
8
1
62
256
6
ByLayer
370
-1
48
1
60
0
100
AcDbSpline
70
4
71
3
72
9
73
5
40
0
40
0
40
0
40
0
40
0.5
40
1
40
1
40
1
40
1
41
1
10
66.7844713013003
20
5.98585915215253
30
0
41
1
10
66.7765981129746
20
6.03921046999596
30
0
41
1
10
66.7572783879123
20
6.16242414893972
30
0
41
1
10
66.7335725613297
20
6.30002259936836
30
0
41
1
10
66.7216552973659
20
6.36663697180717
30
0
0
SPLINE
5
174
100
AcDbEntity
8
1
62
256
6
ByLayer
370
-1
48
1
60
0
100
AcDbSpline
70
4
71
3
72
14
73
10
40
0
40
0
40
0
40
0
40
0.0278688906941866
40
0.280125361774686
40
0.532381832855185
40
0.658510068395434
40
0.784638303935684
40
0.910766539475933
40
1
40
1
40
1
40
1
41
1
10
62.1732137606444
20
1.56015748519005
30
0
41
1
10
62.174620562738
20
1.5601169090688
30
0
41
1
10
62.1887625583738
20
1.55975795565959
30
0
41
1
10
62.2156384223532
20
1.55980980739054
30
0
41
1
10
62.2474734548817
20
1.56040086696117
30
0
41
1
10
62.2729288674421
20
1.56126211989002
30
0
41
1
10
62.2920111452687
20
1.5621199178714
30
0
41
1
10
62.309221725346
20
1.56310121036265
30
0
41
1
10
62.3200713318566
20
1.56380017007803
30
0
41
1
10
62.3245662457081
20
1.5640997146935
30
0
0
SPLINE
5
175
100
AcDbEntity
8
1
62
256
6
ByLayer
370
-1
48
1
60
0
100
AcDbSpline
70
4
71
3
72
27
73
23
40
0
40
0
40
0
40
0
40
0.0625
40
0.125
40
0.140625
40
0.15625
40
0.1875
40
0.25
40
0.3125
40
0.375
40
0.4375
40
0.46875
40
0.5
40
0.5625
40
0.625
40
0.6875
40
0.71875
40
0.75
40
0.78125
40
0.8125
40
0.875
40
1
40
1
40
1
40
1
41
1
10
66.5011997356474
20
1.65998484579208
30
0
41
1
10
66.5130943605699
20
1.65998484579208
30
0
41
1
10
66.5368836104149
20
1.65998484579208
30
0
41
1
10
66.5636465164905
20
1.65998484579208
30
0
41
1
10
66.5814884538742
20
1.65998484579208
30
0
41
1
10
66.5933830787967
20
1.65998484579208
30
0
41
1
10
66.6141986724111
20
1.65998484579208
30
0
41
1
10
66.6439352347173
20
1.65998484579208
30
0
41
1
10
66.6796191094847
20
1.65998484579208
30
0
41
1
10
66.7153029842522
20
1.65998484579208
30
0
41
1
10
66.7450395465584
20
1.65998484579208
30
0
41
1
10
66.7688287964033
20
1.65998484579208
30
0
41
1
10
66.7926180462483
20
1.65998484579208
30
0
41
1
10
66.8223546085545
20
1.65998484579205
30
0
41
1
10
66.858038483322
20
1.65998484579205
30
0
41
1
10
66.8877750456282
20
1.65998484579205
30
0
41
1
10
66.9115642954732
20
1.65998484579205
30
0
41
1
10
66.9294062328569
20
1.65998484579205
30
0
41
1
10
66.9472481702406
20
1.65998484579205
30
0
41
1
10
66.9710374200856
20
1.65998484579205
30
0
41
1
10
67.0126686073143
20
1.65998484579205
30
0
41
1
10
67.0483524820818
20
1.65998484579205
30
0
41
1
10
67.0721417319268
20
1.65998484579205
30
0
0
SPLINE
5
176
100
AcDbEntity
8
1
62
256
6
ByLayer
370
-1
48
1
60
0
100
AcDbSpline
70
4
71
3
72
11
73
7
40
0
40
0
40
0
40
0
40
0.0084271749957164
40
0.529387158418293
40
0.934578256635853
40
1
40
1
40
1
40
1
41
1
10
62.7583673115698
20
1.98029327372154
30
0
41
1
10
62.7582696127419
20
1.9802923772109
30
0
41
1
10
62.7521322883412
20
1.98023525590162
30
0
41
1
10
62.7413001151099
20
1.98004442000357
30
0
41
1
10
62.7298225454122
20
1.97946895726201
30
0
41
1
10
62.7243777930587
20
1.97913327300438
30
0
41
1
10
62.7236209396306
20
1.97908558921918
30
0
0
SPLINE
5
177
100
AcDbEntity
8
1
62
256
6
ByLayer
370
-1
48
1
60
0
100
AcDbSpline
70
4
71
3
72
10
73
6
40
0
40
0
40
0
40
0
40
0.190146666341533
40
0.481693866458581
40
1
40
1
40
1
40
1
41
1
10
66.7224738442479
20
5.98149295066992
30
0
41
1
10
66.7264045802372
20
5.98174059752412
30
0
41
1
10
66.7363592769541
20
5.98243758237766
30
0
41
1
10
66.7570249520394
20
5.98389607809133
30
0
41
1
10
66.7737599389009
20
5.98510727962642
30
0
41
1
10
66.7844713013003
20
5.98585915215253
30
0
0
SPLINE
5
178
100
AcDbEntity
8
1
62
256
6
ByLayer
370
-1
48
1
60
0
100
AcDbSpline
70
4
71
3
72
8
73
4
40
0
40
0
40
0
40
0
40
1
40
1
40
1
40
1
41
1
10
65.8480279295336
20
6.38516116581988
30
0
41
1
10
65.8483355522452
20
6.38518275906421
30
0
41
1
10
65.8486431743345
20
6.38520435350733
30
0
41
1
10
65.8489507958011
20
6.38522594914923
30
0
0
SPLINE
5
179
100
AcDbEntity
8
1
62
256
6
ByLayer
370
-1
48
1
60
0
100
AcDbSpline
70
4
71
3
72
8
73
4
40
0
40
0
40
0
40
0
40
1
40
1
40
1
40
1
41
1
10
62.1306353443144
20
1.48347673473808
30
0
41
1
10
62.1303295453673
20
1.48351662200525
30
0
41
1
10
62.1300237934566
20
1.48355687305215
30
0
41
1
10
62.1297180898704
20
1.48359748771094
30
0
0
SPLINE
5
17A
100
AcDbEntity
8
1
62
256
6
ByLayer
370
-1
48
1
60
0
100
AcDbSpline
70
4
71
3
72
10
73
6
40
0
40
0
40
0
40
0
40
0.45392136082513
40
0.90784272165026
40
1
40
1
40
1
40
1
41
1
10
61.8719201878
20
1.81819792466143
30
0
41
1
10
61.8780971610582
20
1.78579751892536
30
0
41
1
10
61.9005024976668
20
1.72293341104714
30
0
41
1
10
61.9449753348719
20
1.66448688083841
30
0
41
1
10
61.9744135226473
20
1.63796024118915
30
0
41
1
10
61.9795176909059
20
1.63364573181278
30
0
0
SPLINE
5
17B
100
AcDbEntity
8
1
62
256
6
ByLayer
370
-1
48
1
60
0
100
AcDbSpline
70
4
71
3
72
8
73
4
40
0
40
0
40
0
40
0
40
1
40
1
40
1
40
1
41
1
10
63.6242135804083
20
1.57541737406959
30
0
41
1
10
63.6239059576967
20
1.57539578082529
30
0
41
1
10
63.6235983345298
20
1.57537418638216
30
0
41
1
10
63.6232907109078
20
1.57535259074024
30
0
0
SPLINE
5
17C
100
AcDbEntity
8
1
62
256
6
ByLayer
370
-1
48
1
60
0
100
AcDbSpline
70
4
71
3
72
8
73
4
40
0
40
0
40
0
40
0
40
1
40
1
40
1
40
1
41
1
10
67.542450689127
20
6.3885930398535
30
0
41
1
10
67.5426869176428
20
6.38839406342768
30
0
41
1
10
67.5429229161726
20
6.38819481148062
30
0
41
1
10
67.5431586837618
20
6.38799528481857
30
0
0
SPLINE
5
17D
100
AcDbEntity
8
1
62
256
6
ByLayer
370
-1
48
1
60
0
100
AcDbSpline
70
4
71
3
72
8
73
4
40
0
40
0
40
0
40
0
40
1
40
1
40
1
40
1
41
1
10
61.5074637370227
20
3.2857965274161
30
0
41
1
10
61.5075220289472
20
3.28549255547909
30
0
41
1
10
61.5075805952457
20
3.28518863683686
30
0
41
1
10
61.5076394357755
20
3.28488477225648
30
0
0
SPLINE
5
17E
100
AcDbEntity
8
1
62
256
6
ByLayer
370
-1
48
1
60
0
100
AcDbSpline
70
4
71
3
72
8
73
4
40
0
40
0
40
0
40
0
40
1
40
1
40
1
40
1
41
1
10
62.1393404945108
20
1.56262759132881
30
0
41
1
10
62.1499613262164
20
1.56120755486552
30
0
41
1
10
62.160661459017
20
1.56055623882486
30
0
41
1
10
62.1713738726937
20
1.56021341584872
30
0
0
SPLINE
5
17F
100
AcDbEntity
8
1
62
256
6
ByLayer
370
-1
48
1
60
0
100
AcDbSpline
70
4
71
3
72
20
73
16
40
0
40
0
40
0
40
0
40
0.0357152536596759
40
0.0558050838432436
40
0.0714305073193519
40
0.0870559307954601
40
0.107145760979028
40
0.125003387808866
40
0.142861014638704
40
0.214291521958056
40
0.285722029277407
40
0.571444058554815
40
0.857166087832222
40
0.928596595151574
40
1
40
1
40
1
40
1
41
1
10
66.7216552973659
20
6.36663697180717
30
0
41
1
10
66.711324373491
20
6.36591180375279
30
0
41
1
10
66.6951823049365
20
6.3647787286678
30
0
41
1
10
66.6745204561292
20
6.36332839413842
30
0
41
1
10
66.659669751539
20
6.36228596733059
30
0
41
1
10
66.6448190460976
20
6.36124354179418
30
0
41
1
10
66.6293226565737
20
6.36015579525625
30
0
41
1
10
66.6131805824677
20
6.35902272846303
30
0
41
1
10
66.5821877966312
20
6.35684724552678
30
0
41
1
10
66.5356986026497
20
6.35358404386551
30
0
41
1
10
66.4117273212468
20
6.34488231832469
30
0
41
1
10
66.2257699118823
20
6.33183045779296
30
0
41
1
10
66.0398169203434
20
6.31877199872727
30
0
41
1
10
65.9158484763387
20
6.31007829485762
30
0
41
1
10
65.8745418339378
20
6.30707490274983
30
0
41
1
10
65.8538812437333
20
6.30572435025121
30
0
0
SPLINE
5
180
100
AcDbEntity
8
1
62
256
6
ByLayer
370
-1
48
1
60
0
100
AcDbSpline
70
4
71
3
72
11
73
7
40
0
40
0
40
0
40
0
40
0.25
40
0.5
40
0.75
40
1
40
1
40
1
40
1
41
1
10
62.3988843950232
20
6.30059369409744
30
0
41
1
10
62.3622145893175
20
6.3006624121426
30
0
41
1
10
62.2888449400654
20
6.28798639315008
30
0
41
1
10
62.1916202093516
20
6.23276224680484
30
0
41
1
10
62.1186678747471
20
6.14780564106769
30
0
41
1
10
62.0919316883018
20
6.07800598529178
30
0
41
1
10
62.0848244657315
20
6.0418620320111
30
0
0
SPLINE
5
181
100
AcDbEntity
8
1
62
256
6
ByLayer
370
-1
48
1
60
0
100
AcDbSpline
70
4
71
3
72
8
73
4
40
0
40
0
40
0
40
0
40
1
40
1
40
1
40
1
41
1
10
62.1734699871789
20
1.48041829755351
30
0
41
1
10
62.1731616541109
20
1.48042327012675
30
0
41
1
10
62.1728533227968
20
1.4804283852294
30
0
41
1
10
62.172544993433
20
1.48043364285581
30
0
0
SPLINE
5
182
100
AcDbEntity
8
1
62
256
6
ByLayer
370
-1
48
1
60
0
100
AcDbSpline
70
4
71
3
72
15
73
11
40
0
40
0
40
0
40
0
40
0.0039823711833974
40
0.05601739823254
40
0.160087452330825
40
0.368227560527396
40
0.784507776920537
40
0.888577831018823
40
0.992647885117108
40
1
40
1
40
1
40
1
41
1
10
67.8857905315456
20
4.49919769914624
30
0
41
1
10
67.885830849819
20
4.49940734905221
30
0
41
1
10
67.8863969299396
20
4.50235651629419
30
0
41
1
10
67.8879686579046
20
4.51079218824469
30
0
41
1
10
67.8909396586057
20
4.5300972107797
30
0
41
1
10
67.8946296066502
20
4.56919582167617
30
0
41
1
10
67.893587956446
20
4.60866664211059
30
0
41
1
10
67.8893710989807
20
4.6419582938662
30
0
41
1
10
67.8874429079342
20
4.65332512327853
30
0
41
1
10
67.886363981837
20
4.65919823515247
30
0
41
1
10
67.8862924579716
20
4.6595857546647
30
0
0
SPLINE
5
183
100
AcDbEntity
8
1
62
256
6
ByLayer
370
-1
48
1
60
0
100
AcDbSpline
70
4
71
3
72
14
73
10
40
0
40
0
40
0
40
0
40
0.276946339130613
40
0.276946339130613
40
0.553892678261602
40
0.553892678261602
40
0.776880838709274
40
0.776880838709274
40
1
40
1
40
1
40
1
41
1
10
67.301696616977
20
6.48010803800625
30
0
41
1
10
67.3053920925653
20
6.48003167469008
30
0
41
1
10
67.3090868416086
20
6.4798994901669
30
0
41
1
10
67.3164698715261
20
6.47952365812748
30
0
41
1
10
67.3201589875151
20
6.47927996809992
30
0
41
1
10
67.3268097272569
20
6.47873967435072
30
0
41
1
10
67.3297735630428
20
6.47846258886264
30
0
41
1
10
67.3356949834634
20
6.47783629708479
30
0
41
1
10
67.3386529981937
20
6.47748700253462
30
0
41
1
10
67.3416061449648
20
6.47710180515142
30
0
0
SPLINE
5
184
100
AcDbEntity
8
1
62
256
6
ByLayer
370
-1
48
1
60
0
100
AcDbSpline
70
4
71
3
72
18
73
14
40
0
40
0
40
0
40
0
40
0.156501894804182
40
0.156501894804182
40
0.313003789608358
40
0.313003789608358
40
0.469505684412531
40
0.469505684412531
40
0.626007579216704
40
0.626007579216704
40
0.782509474020877
40
0.782509474020877
40
1
40
1
40
1
40
1
41
1
10
61.5074637370227
20
3.2857965274161
30
0
41
1
10
61.505587460973
20
3.29558301049326
30
0
41
1
10
61.5040020924844
20
3.3054302266649
30
0
41
1
10
61.5014216679316
20
3.32519334581443
30
0
41
1
10
61.5004254593156
20
3.33511807602812
30
0
41
1
10
61.4990263889112
20
3.35500068288886
30
0
41
1
10
61.4986229022252
20
3.36496744014113
30
0
41
1
10
61.4984101885049
20
3.38489844218719
30
0
41
1
10
61.4986008664615
20
3.39487158920207
30
0
41
1
10
61.4995752700073
20
3.41477972086511
30
0
41
1
10
61.5003594308158
20
3.42472359751929
30
0
41
1
10
61.5029373361564
20
3.44839271105852
30
0
41
1
10
61.5050078915991
20
3.46210404200755
30
0
41
1
10
61.5076394146747
20
3.475693767633
30
0
0
SPLINE
5
185
100
AcDbEntity
8
1
62
256
6
ByLayer
370
-1
48
1
60
0
100
AcDbSpline
70
4
71
2
72
6
73
3
40
0
40
0
40
0
40
1
40
1
40
1
41
1
10
67.0196983688272
20
4.3894802745682
30
0
41
1
10
67.0565382594125
20
4.58028926994476
30
0
41
1
10
67.0196983688272
20
4.77109826532129
30
0
0
SPLINE
5
186
100
AcDbEntity
8
1
62
256
6
ByLayer
370
-1
48
1
60
0
100
AcDbSpline
70
4
71
3
72
8
73
4
40
0
40
0
40
0
40
0
40
1
40
1
40
1
40
1
41
1
10
67.9647777567544
20
4.67478201247337
30
0
41
1
10
67.9647194734511
20
4.6750859844104
30
0
41
1
10
67.9646609114632
20
4.6753899030526
30
0
41
1
10
67.9646020709334
20
4.67569376763302
30
0
0
SPLINE
5
187
100
AcDbEntity
8
1
62
256
6
ByLayer
370
-1
48
1
60
0
100
AcDbSpline
70
4
71
3
72
18
73
14
40
0
40
0
40
0
40
0
40
0.409045703814911
40
0.818091407629822
40
0.92035283358355
40
0.945918190071982
40
0.958700868316198
40
0.965092207438305
40
0.971483546560413
40
0.984266224804629
40
0.995451068268319
40
0.997048903048845
40
1
40
1
40
1
40
1
41
1
10
67.3862899219761
20
1.91917230455752
30
0
41
1
10
67.4543822936758
20
2.27096189580212
30
0
41
1
10
67.5905820583827
20
2.97457270123485
30
0
41
1
10
67.7438521602425
20
3.7660956343058
30
0
41
1
10
67.8331951700724
20
4.22788855309275
30
0
41
1
10
67.8566464237341
20
4.34875309795083
30
0
41
1
10
67.864096535534
20
4.38721629605186
30
0
41
1
10
67.8683480842911
20
4.40919886118803
30
0
41
1
10
67.8725948621071
20
4.43118754615196
30
0
41
1
10
67.8776281327521
20
4.45731307830681
30
0
41
1
10
67.8818931894111
20
4.4792791301345
30
0
41
1
10
67.8845373759052
20
4.49277115464875
30
0
41
1
10
67.8853040374381
20
4.4966679915122
30
0
41
1
10
67.8857905315456
20
4.49919769914624
30
0
0
SPLINE
5
188
100
AcDbEntity
8
1
62
256
6
ByLayer
370
-1
48
1
60
0
100
AcDbSpline
70
4
71
3
72
10
73
6
40
0
40
0
40
0
40
0
40
0.190146666341515
40
0.48169386645857
40
1
40
1
40
1
40
1
41
1
10
62.7236209396368
20
1.97908558921958
30
0
41
1
10
62.7196902036475
20
1.97883794236535
30
0
41
1
10
62.7097355069305
20
1.97814095751184
30
0
41
1
10
62.6890698318452
20
1.97668246179816
30
0
41
1
10
62.6723348449838
20
1.97547126026308
30
0
41
1
10
62.6616234825843
20
1.97471938773694
30
0
0
SPLINE
5
189
100
AcDbEntity
8
1
62
256
6
ByLayer
370
-1
48
1
60
0
100
AcDbSpline
70
4
71
3
72
8
73
4
40
0
40
0
40
0
40
0
40
1
40
1
40
1
40
1
41
1
10
61.5078159572908
20
3.47660536099127
30
0
41
1
10
61.5077571028967
20
3.47630149745874
30
0
41
1
10
61.5076982553576
20
3.47599763300397
30
0
41
1
10
61.5076394146747
20
3.475693767633
30
0
0
SPLINE
5
18A
100
AcDbEntity
8
1
62
256
6
ByLayer
370
-1
48
1
60
0
100
AcDbSpline
70
4
71
3
72
14
73
10
40
0
40
0
40
0
40
0
40
0.0044038098736858
40
0.0109971621261779
40
0.0241838666311622
40
0.0505572756411308
40
0.156050911681005
40
0.578025455840503
40
1
40
1
40
1
40
1
41
1
10
62.4263817004509
20
3.57110109151674
30
0
41
1
10
62.4270274559983
20
3.57448895698212
30
0
41
1
10
62.4286693196748
20
3.58294847933479
30
0
41
1
10
62.4323229965951
20
3.60161964188504
30
0
41
1
10
62.4391869220834
20
3.63720319827522
30
0
41
1
10
62.4608763399486
20
3.74909017509191
30
0
41
1
10
62.5435535711573
20
4.17623308672964
30
0
41
1
10
62.6853753122732
20
4.90851847873455
30
0
41
1
10
62.8114181039298
20
5.55942934108251
30
0
41
1
10
62.8744394997582
20
5.88488477225647
30
0
0
SPLINE
5
18B
100
AcDbEntity
8
1
62
256
6
ByLayer
370
-1
48
1
60
0
100
AcDbSpline
70
4
71
3
72
8
73
4
40
0
40
0
40
0
40
0
40
1
40
1
40
1
40
1
41
1
10
67.5431586837618
20
6.38799528481857
30
0
41
1
10
67.6121225326883
20
6.32963228210571
30
0
41
1
10
67.6602594345331
20
6.24738169939795
30
0
41
1
10
67.67747076379
20
6.15849886048943
30
0
0
SPLINE
5
18C
100
AcDbEntity
8
1
62
256
6
ByLayer
370
-1
48
1
60
0
100
AcDbSpline
70
4
71
1
72
4
73
2
40
0
40
0
40
1
40
1
41
1
10
66.6877274358608
20
5.98028926994473
30
0
41
1
10
64.7230473919423
20
5.98028926994473
30
0
0
SPLINE
5
18D
100
AcDbEntity
8
1
62
256
6
ByLayer
370
-1
48
1
60
0
100
AcDbSpline
70
4
71
3
72
8
73
4
40
0
40
0
40
0
40
0
40
1
40
1
40
1
40
1
41
1
10
65.7090458691888
20
6.38028926994474
30
0
41
1
10
65.7093542430499
20
6.38028926994474
30
0
41
1
10
65.7096626174579
20
6.38028934060975
30
0
41
1
10
65.7099709923643
20
6.38028948193968
30
0
0
SPLINE
5
18E
100
AcDbEntity
8
1
62
256
6
ByLayer
370
-1
48
1
60
0
100
AcDbSpline
70
4
71
3
72
8
73
4
40
0
40
0
40
0
40
0
40
1
40
1
40
1
40
1
41
1
10
67.3316856324391
20
6.39795094856069
30
0
41
1
10
67.3210648007336
20
6.39937098502398
30
0
41
1
10
67.310364667933
20
6.40002230106464
30
0
41
1
10
67.2996522542563
20
6.40036512404077
30
0
0
SPLINE
5
18F
100
AcDbEntity
8
1
62
256
6
ByLayer
370
-1
48
1
60
0
100
AcDbSpline
70
4
71
3
72
14
73
10
40
0
40
0
40
0
40
0
40
0.276946339130912
40
0.276946339130912
40
0.553892678261594
40
0.553892678261594
40
0.776880838709361
40
0.776880838709361
40
1
40
1
40
1
40
1
41
1
10
62.1705448722792
20
1.48047050188325
30
0
41
1
10
62.1668493966932
20
1.48054686519941
30
0
41
1
10
62.1631546476522
20
1.4806790497226
30
0
41
1
10
62.1557716177391
20
1.48105488176202
30
0
41
1
10
62.1520825017523
20
1.48129857178958
30
0
41
1
10
62.1454317620142
20
1.48183886553878
30
0
41
1
10
62.14246792623
20
1.48211595102686
30
0
41
1
10
62.1365465058127
20
1.4827422428047
30
0
41
1
10
62.133588491084
20
1.48309153735488
30
0
41
1
10
62.1306353443144
20
1.48347673473808
30
0
0
SPLINE
5
190
100
AcDbEntity
8
1
62
256
6
ByLayer
370
-1
48
1
60
0
100
AcDbSpline
70
4
71
3
72
13
73
9
40
0
40
0
40
0
40
0
40
0.0429204910534079
40
0.106725791649847
40
0.234336392842726
40
0.489557595228484
40
0.744778797614242
40
1
40
1
40
1
40
1
41
1
10
65.7093633670486
20
6.30057091330801
30
0
41
1
10
65.6954314214087
20
6.30053012987901
30
0
41
1
10
65.6607873754073
20
6.30063933267019
30
0
41
1
10
65.584717271028
20
6.30056768193978
30
0
41
1
10
65.4397314401783
20
6.30061103553584
30
0
41
1
10
65.2326082708653
20
6.30058791361793
30
0
41
1
10
64.9840606859891
20
6.30059369409742
30
0
41
1
10
64.8183622709797
20
6.30059369409742
30
0
41
1
10
64.735513063475
20
6.30059369409742
30
0
0
SPLINE
5
191
100
AcDbEntity
8
1
62
256
6
ByLayer
370
-1
48
1
60
0
100
AcDbSpline
70
4
71
3
72
20
73
16
40
0
40
0
40
0
40
0
40
0.0357152536596758
40
0.0558050838432435
40
0.0714305073193516
40
0.0870559307954598
40
0.107145760979028
40
0.125003387808865
40
0.142861014638703
40
0.214291521958055
40
0.285722029277407
40
0.571444058554813
40
0.85716608783222
40
0.928596595151571
40
1
40
1
40
1
40
1
41
1
10
62.749370829584
20
1.59394156808233
30
0
41
1
10
62.7597017534589
20
1.5946667361367
30
0
41
1
10
62.7758438220135
20
1.5957998112217
30
0
41
1
10
62.7965056708207
20
1.59725014575108
30
0
41
1
10
62.8113563754109
20
1.59829257255888
30
0
41
1
10
62.8262070808523
20
1.59933499809529
30
0
41
1
10
62.8417034703762
20
1.60042274463325
30
0
41
1
10
62.8578455444823
20
1.60155581142646
30
0
41
1
10
62.8888383303187
20
1.60373129436272
30
0
41
1
10
62.9353275243002
20
1.60699449602399
30
0
41
1
10
63.0592988057031
20
1.6156962215648
30
0
41
1
10
63.2452562150676
20
1.62874808209654
30
0
41
1
10
63.4312092066066
20
1.64180654116222
30
0
41
1
10
63.5551776506112
20
1.65050024503188
30
0
41
1
10
63.5964842930121
20
1.65350363713966
30
0
41
1
10
63.6171448832167
20
1.65485418963826
30
0
0
SPLINE
5
192
100
AcDbEntity
8
1
62
256
6
ByLayer
370
-1
48
1
60
0
100
AcDbSpline
70
4
71
3
72
18
73
14
40
0
40
0
40
0
40
0
40
0.171643617771684
40
0.171643617771684
40
0.343287235543495
40
0.343287235543495
40
0.514930853315209
40
0.514930853315209
40
0.686574471086975
40
0.686574471086975
40
0.843273207856144
40
0.843273207856144
40
1
40
1
40
1
40
1
41
1
10
67.1415309819062
20
6.47595699101606
30
0
41
1
10
67.1505116458003
20
6.47658283177927
30
0
41
1
10
67.1594971190973
20
6.47714263288037
30
0
41
1
10
67.1774747902857
20
6.47812997544702
30
0
41
1
10
67.1864674707263
20
6.47855754341435
30
0
41
1
10
67.204457624767
20
6.47928033499798
30
0
41
1
10
67.2134555812514
20
6.47957557801513
30
0
41
1
10
67.2314543549158
20
6.48003366340256
30
0
41
1
10
67.2404556552113
20
6.48019651806862
30
0
41
1
10
67.2576754433156
20
6.48038138487644
30
0
41
1
10
67.2658942390987
20
6.48041442963103
30
0
41
1
10
67.2823326392228
20
6.48037014302017
30
0
41
1
10
67.2905526113246
20
6.48029279090079
30
0
41
1
10
67.2987715160392
20
6.48016024233598
30
0
0
SPLINE
5
193
100
AcDbEntity
8
1
62
256
6
ByLayer
370
-1
48
1
60
0
100
AcDbSpline
70
4
71
3
72
8
73
4
40
0
40
0
40
0
40
0
40
1
40
1
40
1
40
1
41
1
10
67.4648312616266
20
1.90396567179414
30
0
41
1
10
67.4647724154796
20
1.9036617782055
30
0
41
1
10
67.4647132267017
20
1.9033579811896
30
0
41
1
10
67.46465369552
20
1.90305428068243
30
0
0
SPLINE
5
194
100
AcDbEntity
8
1
62
256
6
ByLayer
370
-1
48
1
60
0
100
AcDbSpline
70
4
71
3
72
11
73
7
40
0
40
0
40
0
40
0
40
0.000163003932588
40
0.429771567358009
40
0.85938013078343
40
1
40
1
40
1
40
1
41
1
10
65.8538823125309
20
6.30572442011695
30
0
41
1
10
65.8538723328298
20
6.30572376776149
30
0
41
1
10
65.8331971229619
20
6.30437231717639
30
0
41
1
10
65.791829991551
20
6.30197204185041
30
0
41
1
10
65.7436324997319
20
6.30075255531193
30
0
41
1
10
65.7161425539617
20
6.30059075823814
30
0
41
1
10
65.7093633670486
20
6.30057091330801
30
0
0
SPLINE
5
195
100
AcDbEntity
8
1
62
256
6
ByLayer
370
-1
48
1
60
0
100
AcDbSpline
70
4
71
3
72
11
73
7
40
0
40
0
40
0
40
0
40
0.0001630039325697
40
0.429771567357997
40
0.859380130783424
40
1
40
1
40
1
40
1
41
1
10
63.6171438144191
20
1.65485411977252
30
0
41
1
10
63.6171537941202
20
1.654854772128
30
0
41
1
10
63.637829003988
20
1.65620622271311
30
0
41
1
10
63.6791961353989
20
1.65860649803909
30
0
41
1
10
63.727393627218
20
1.65982598457757
30
0
41
1
10
63.7548835729881
20
1.65998778165135
30
0
41
1
10
63.7616627599013
20
1.66000762658149
30
0
0
SPLINE
5
196
100
AcDbEntity
8
1
62
256
6
ByLayer
370
-1
48
1
60
0
100
AcDbSpline
70
4
71
3
72
18
73
14
40
0
40
0
40
0
40
0
40
0.0103342694142161
40
0.0214541090837193
40
0.065933467761732
40
0.110412826439745
40
0.121532666109248
40
0.132652505778751
40
0.154892185117758
40
0.19937154379577
40
0.288330261151796
40
0.644165130575898
40
1
40
1
40
1
40
1
41
1
10
61.5847342503686
20
3.30099278522141
30
0
41
1
10
61.5856752109086
20
3.29589492029171
30
0
41
1
10
61.5877477727049
20
3.28531659986851
30
0
41
1
10
61.5941211148333
20
3.25269960335757
30
0
41
1
10
61.6037175218516
20
3.20323468790789
30
0
41
1
10
61.6132622918295
20
3.15380203623505
30
0
41
1
10
61.6196338007283
20
3.12084494414143
30
0
41
1
10
61.623883227246
20
3.09887513186723
30
0
41
1
10
61.63132540245
20
3.06041807058327
30
0
41
1
10
61.646227856478
20
2.98348106832964
30
0
41
1
10
61.6931304408756
20
2.7415991965878
30
0
41
1
10
61.7697381313264
20
2.34586171244771
30
0
41
1
10
61.8378620823777
20
1.99407763888121
30
0
41
1
10
61.8719201878
20
1.81819792466143
30
0
0
SPLINE
5
197
100
AcDbEntity
8
1
62
256
6
ByLayer
370
-1
48
1
60
0
100
AcDbSpline
70
4
71
3
72
8
73
4
40
0
40
0
40
0
40
0
40
1
40
1
40
1
40
1
41
1
10
67.0727494218062
20
1.58028926994473
30
0
41
1
10
67.0730577952004
20
1.5802892579272
30
0
41
1
10
67.0733661712967
20
1.58028925191851
30
0
41
1
10
67.0736745500857
20
1.58028925191871
30
0
0
SPLINE
5
198
100
AcDbEntity
8
1
62
256
6
ByLayer
370
-1
48
1
60
0
100
AcDbSpline
70
4
71
3
72
8
73
4
40
0
40
0
40
0
40
0
40
1
40
1
40
1
40
1
41
1
10
63.7631956375202
20
1.58028926994476
30
0
41
1
10
63.7628872636591
20
1.58028926994476
30
0
41
1
10
63.7625788903287
20
1.58028919927975
30
0
41
1
10
63.7622705175776
20
1.58028905794978
30
0
0
SPLINE
5
199
100
AcDbEntity
8
1
62
256
6
ByLayer
370
-1
48
1
60
0
100
AcDbSpline
70
4
71
3
72
27
73
23
40
0
40
0
40
0
40
0
40
0.0625
40
0.125
40
0.140625
40
0.15625
40
0.1875
40
0.25
40
0.3125
40
0.375
40
0.4375
40
0.46875
40
0.5
40
0.5625
40
0.625
40
0.6875
40
0.71875
40
0.75
40
0.78125
40
0.8125
40
0.875
40
1
40
1
40
1
40
1
41
1
10
62.9698263913025
20
6.30059369409742
30
0
41
1
10
62.95793176638
20
6.30059369409742
30
0
41
1
10
62.934142516535
20
6.30059369409742
30
0
41
1
10
62.9073796104594
20
6.30059369409742
30
0
41
1
10
62.8895376730757
20
6.30059369409742
30
0
41
1
10
62.8776430481532
20
6.30059369409742
30
0
41
1
10
62.8568274545389
20
6.30059369409742
30
0
41
1
10
62.8270908922327
20
6.30059369409742
30
0
41
1
10
62.7914070174652
20
6.30059369409742
30
0
41
1
10
62.7557231426977
20
6.30059369409742
30
0
41
1
10
62.7259865803915
20
6.30059369409742
30
0
41
1
10
62.7021973305465
20
6.30059369409742
30
0
41
1
10
62.6784080807016
20
6.30059369409742
30
0
41
1
10
62.6486715183954
20
6.30059369409742
30
0
41
1
10
62.6129876436279
20
6.30059369409742
30
0
41
1
10
62.5832510813217
20
6.30059369409742
30
0
41
1
10
62.5594618314767
20
6.30059369409742
30
0
41
1
10
62.541619894093
20
6.30059369409742
30
0
41
1
10
62.5237779567093
20
6.30059369409742
30
0
41
1
10
62.4999887068643
20
6.30059369409742
30
0
41
1
10
62.4583575196356
20
6.30059369409742
30
0
41
1
10
62.4226736448681
20
6.30059369409744
30
0
41
1
10
62.3988843950232
20
6.30059369409744
30
0
0
SPLINE
5
19A
100
AcDbEntity
8
1
62
256
6
ByLayer
370
-1
48
1
60
0
100
AcDbSpline
70
4
71
3
72
8
73
4
40
0
40
0
40
0
40
0
40
1
40
1
40
1
40
1
41
1
10
67.9644255494181
20
4.48397317889822
30
0
41
1
10
67.9644843951909
20
4.48427704243073
30
0
41
1
10
67.9645432384194
20
4.4845809068855
30
0
41
1
10
67.9646020791022
20
4.48488477225646
30
0
0
SPLINE
5
19B
100
AcDbEntity
8
1
62
256
6
ByLayer
370
-1
48
1
60
0
100
AcDbSpline
70
4
71
1
72
4
73
2
40
0
40
0
40
1
40
1
41
1
10
65.7763321036806
20
1.98356906226041
30
0
41
1
10
66.5716552841265
20
2.07569376763303
30
0
0
SPLINE
5
19C
100
AcDbEntity
8
1
62
256
6
ByLayer
370
-1
48
1
60
0
100
AcDbSpline
70
4
71
3
72
14
73
10
40
0
40
0
40
0
40
0
40
0.401869826261841
40
0.803739652523682
40
0.904207109089143
40
0.954440837371873
40
0.979557701513238
40
0.99211613358392
40
1
40
1
40
1
40
1
41
1
10
66.7844713013003
20
5.98585915215256
30
0
41
1
10
66.8159819992144
20
5.82313143656555
30
0
41
1
10
66.8790033950428
20
5.49767600539158
30
0
41
1
10
66.9499127812871
20
5.13153521734122
30
0
41
1
10
66.9932219380286
20
4.90779060737347
30
0
41
1
10
67.0070272107487
20
4.83659080434236
30
0
41
1
10
67.0138897116647
20
4.80100423981006
30
0
41
1
10
67.0175054327924
20
4.7825417029305
30
0
41
1
10
67.0191060564556
20
4.7742853739787
30
0
41
1
10
67.0197131957252
20
4.77110111398835
30
0
0
SPLINE
5
19D
100
AcDbEntity
8
1
62
256
6
ByLayer
370
-1
48
1
60
0
100
AcDbSpline
70
4
71
3
72
14
73
10
40
0
40
0
40
0
40
0
40
0.25
40
0.25
40
0.5
40
0.5
40
0.75
40
0.75
40
1
40
1
40
1
40
1
41
1
10
62.0075877950245
20
6.05752425920704
30
0
41
1
10
62.0164484257883
20
6.10272190236518
30
0
41
1
10
62.0329988521344
20
6.14595482496554
30
0
41
1
10
62.0799000875255
20
6.22479321587261
30
0
41
1
10
62.1102536275666
20
6.26019719839425
30
0
41
1
10
62.1809548386214
20
6.31850780820179
30
0
41
1
10
62.2214123793683
20
6.34151937724516
30
0
41
1
10
62.3076214251297
20
6.37243306209905
30
0
41
1
10
62.3526777243239
20
6.38028928794216
30
0
41
1
10
62.3985669404582
20
6.38028928797078
30
0
0
SPLINE
5
19E
100
AcDbEntity
8
1
62
256
6
ByLayer
370
-1
48
1
60
0
100
AcDbSpline
70
4
71
3
72
18
73
14
40
0
40
0
40
0
40
0
40
0.0103342694142164
40
0.0214541090837196
40
0.0659334677617323
40
0.110412826439745
40
0.121532666109248
40
0.132652505778752
40
0.154892185117758
40
0.199371543795771
40
0.288330261151796
40
0.644165130575898
40
1
40
1
40
1
40
1
41
1
10
67.886292457971
20
4.65958575466809
30
0
41
1
10
67.8853515530776
20
4.66468361959775
30
0
41
1
10
67.8832790598558
20
4.67526194002099
30
0
41
1
10
67.8769057947349
20
4.70787893653193
30
0
41
1
10
67.8673095089299
20
4.75734385198157
30
0
41
1
10
67.8577648622136
20
4.80677650365445
30
0
41
1
10
67.8513933448958
20
4.83973359574804
30
0
41
1
10
67.8471438420679
20
4.86170340802227
30
0
41
1
10
67.8397015639809
20
4.90016046930623
30
0
41
1
10
67.8247989720554
20
4.97709747155986
30
0
41
1
10
67.7778961123998
20
5.2189793433017
30
0
41
1
10
67.7012881447019
20
5.61471682744178
30
0
41
1
10
67.6331640642179
20
5.96650090100829
30
0
41
1
10
67.5991059391499
20
6.14238061522803
30
0
0
SPLINE
5
19F
100
AcDbEntity
8
1
62
256
6
ByLayer
370
-1
48
1
60
0
100
AcDbSpline
70
4
71
3
72
8
73
4
40
0
40
0
40
0
40
0
40
1
40
1
40
1
40
1
41
1
10
61.794770726754
20
1.80207967940007
30
0
41
1
10
61.794711885235
20
1.80238354908775
30
0
41
1
10
61.7946530522859
20
1.80268741992356
30
0
41
1
10
61.7945942279085
20
1.80299129189805
30
0
0
SPLINE
5
1A0
100
AcDbEntity
8
1
62
256
6
ByLayer
370
-1
48
1
60
0
100
AcDbSpline
70
4
71
3
72
19
73
15
40
0
40
0
40
0
40
0
40
0.0131218002037583
40
0.102838000185235
40
0.192554200166711
40
0.282270400148188
40
0.327128500138926
40
0.371986600129664
40
0.461702800111141
40
0.551419000092617
40
0.641135200074094
40
0.73085140005557
40
0.820567600037047
40
1
40
1
40
1
40
1
41
1
10
62.3245662457081
20
1.5640997146935
30
0
41
1
10
62.3264247283255
20
1.56422356544556
30
0
41
1
10
62.3409892843282
20
1.56520751906913
30
0
41
1
10
62.3682510814079
20
1.56721420221328
30
0
41
1
10
62.4063625995481
20
1.56990258159098
30
0
41
1
10
62.4381241605618
20
1.57210071981197
30
0
41
1
10
62.4635330161927
20
1.57386687896022
30
0
41
1
10
62.488941631878
20
1.5756376265357
30
0
41
1
10
62.5207019931643
20
1.57785870689284
30
0
41
1
10
62.5588139064427
20
1.58053317301946
30
0
41
1
10
62.5969254325033
20
1.58321374512172
30
0
41
1
10
62.6350367043938
20
1.58589735947723
30
0
41
1
10
62.6858516293003
20
1.58947639391099
30
0
41
1
10
62.7239629696034
20
1.59215809076593
30
0
41
1
10
62.749370829584
20
1.59394156808233
30
0
0
SPLINE
5
1A1
100
AcDbEntity
8
1
62
256
6
ByLayer
370
-1
48
1
60
0
100
AcDbSpline
70
4
71
3
72
14
73
10
40
0
40
0
40
0
40
0
40
0.401869826261842
40
0.803739652523684
40
0.904207109089144
40
0.954440837371874
40
0.979557701513239
40
0.992116133583922
40
1
40
1
40
1
40
1
41
1
10
62.6616234825843
20
1.97471938773694
30
0
41
1
10
62.6301127846702
20
2.13744710332395
30
0
41
1
10
62.5670913888419
20
2.46290253449791
30
0
41
1
10
62.4961820025976
20
2.82904332254827
30
0
41
1
10
62.4528728458561
20
3.05278793251603
30
0
41
1
10
62.439067573136
20
3.12398773554713
30
0
41
1
10
62.4322050722199
20
3.15957430007944
30
0
41
1
10
62.4285893510922
20
3.17803683695897
30
0
41
1
10
62.4269887274291
20
3.18629316591077
30
0
41
1
10
62.4263815881595
20
3.18947742590115
30
0
0
SPLINE
5
1A2
100
AcDbEntity
8
1
62
256
6
ByLayer
370
-1
48
1
60
0
100
AcDbSpline
70
4
71
3
72
9
73
5
40
0
40
0
40
0
40
0
40
0.443509303061213
40
1
40
1
40
1
40
1
41
1
10
61.9795176909059
20
1.63364573181278
30
0
41
1
10
61.9995541414169
20
1.61670909312488
30
0
41
1
10
62.0494607751066
20
1.58415610858242
30
0
41
1
10
62.1067643369983
20
1.56697552729628
30
0
41
1
10
62.1393404945108
20
1.56262759132881
30
0
0
SPLINE
5
1A3
100
AcDbEntity
8
1
62
256
6
ByLayer
370
-1
48
1
60
0
100
AcDbSpline
70
4
71
3
72
8
73
4
40
0
40
0
40
0
40
0
40
1
40
1
40
1
40
1
41
1
10
62.1713738726937
20
1.56021341584872
30
0
41
1
10
62.171987132616
20
1.56019379005772
30
0
41
1
10
62.1726004327863
20
1.5601751752871
30
0
41
1
10
62.1732137606305
20
1.56015748519044
30
0
0
SPLINE
5
1A4
100
AcDbEntity
8
1
62
256
6
ByLayer
370
-1
48
1
60
0
100
AcDbSpline
70
4
71
3
72
11
73
7
40
0
40
0
40
0
40
0
40
0.25
40
0.5
40
0.75
40
1
40
1
40
1
40
1
41
1
10
62.8744394997582
20
5.88488477225647
30
0
41
1
10
62.8832024851304
20
5.9154664830983
30
0
41
1
10
62.9005021925141
20
5.97950146261019
30
0
41
1
10
62.9253714887717
20
6.08225883195061
30
0
41
1
10
62.9487590454755
20
6.18981132795142
30
0
41
1
10
62.9630671662101
20
6.26352752091293
30
0
41
1
10
62.9698263913025
20
6.30059369409742
30
0
0
SPLINE
5
1A5
100
AcDbEntity
8
1
62
256
6
ByLayer
370
-1
48
1
60
0
100
AcDbSpline
70
4
71
3
72
11
73
7
40
0
40
0
40
0
40
0
40
0.25
40
0.5
40
0.75
40
1
40
1
40
1
40
1
41
1
10
67.0721417319268
20
1.65998484579205
30
0
41
1
10
67.1088115376324
20
1.6599161277469
30
0
41
1
10
67.1821811868845
20
1.67259214673942
30
0
41
1
10
67.2794059175983
20
1.72781629308466
30
0
41
1
10
67.3523582522027
20
1.81277289882178
30
0
41
1
10
67.3790944386482
20
1.88257255459772
30
0
41
1
10
67.3862016612185
20
1.91871650787837
30
0
0
SPLINE
5
1A6
100
AcDbEntity
8
1
62
256
6
ByLayer
370
-1
48
1
60
0
100
AcDbSpline
70
4
71
1
72
4
73
2
40
0
40
0
40
1
40
1
41
1
10
63.669762680204
20
5.97700947762905
30
0
41
1
10
62.8744394997582
20
5.88488477225647
30
0
0
SPLINE
5
1A7
100
AcDbEntity
8
1
62
256
6
ByLayer
370
-1
48
1
60
0
100
AcDbSpline
70
4
71
3
72
32
73
28
40
0
40
0
40
0
40
0
40
0.125
40
0.140625
40
0.15625
40
0.1875
40
0.25
40
0.3125
40
0.375
40
0.4375
40
0.453125
40
0.46875
40
0.5
40
0.53125
40
0.5625
40
0.625
40
0.640625
40
0.65625
40
0.6875
40
0.71875
40
0.75
40
0.78125
40
0.796875
40
0.8125
40
0.84375
40
0.875
40
1
40
1
40
1
40
1
41
1
10
62.8744394997582
20
5.88488477225647
30
0
41
1
10
62.8473470808159
20
5.89052298399122
30
0
41
1
10
62.8169006066058
20
5.89685948615622
30
0
41
1
10
62.782986337278
20
5.90391697987951
30
0
41
1
10
62.7695482286436
20
5.90671411750301
30
0
41
1
10
62.745204939742
20
5.91175116502095
30
0
41
1
10
62.70800385668
20
5.91937177633233
30
0
41
1
10
62.6602460056066
20
5.92903373738108
30
0
41
1
10
62.6102171535152
20
5.93904395651109
30
0
41
1
10
62.5716468833275
20
5.94668229824029
30
0
41
1
10
62.5458162582455
20
5.95176446290788
30
0
41
1
10
62.5283283965748
20
5.95520327944797
30
0
41
1
10
62.5065607661248
20
5.9594841445994
30
0
41
1
10
62.4804045446338
20
5.96462789766881
30
0
41
1
10
62.4455375327393
20
5.97148460906868
30
0
41
1
10
62.4150286064431
20
5.97748401531263
30
0
41
1
10
62.3888794279656
20
5.98262735200592
30
0
41
1
10
62.3714426332658
20
5.98605626443637
30
0
41
1
10
62.349626619298
20
5.99033877803961
30
0
41
1
10
62.3231559985663
20
5.99550736534442
30
0
41
1
10
62.2965578372327
20
6.00067526005137
30
0
41
1
10
62.2743900117762
20
6.0049625766602
30
0
41
1
10
62.2567444527333
20
6.00836162407981
30
0
41
1
10
62.2391123452141
20
6.01175057109623
30
0
41
1
10
62.217055616416
20
6.015987169353
30
0
41
1
10
62.1641278518392
20
6.02615479574459
30
0
41
1
10
62.1200213813584
20
6.03462781773757
30
0
41
1
10
62.0847362049739
20
6.04140623533198
30
0
0
SPLINE
5
1A8
100
AcDbEntity
8
1
62
256
6
ByLayer
370
-1
48
1
60
0
100
AcDbSpline
70
4
71
3
72
8
73
4
40
0
40
0
40
0
40
0
40
1
40
1
40
1
40
1
41
1
10
67.3416061449648
20
6.47710180515142
30
0
41
1
10
67.3419119439121
20
6.47706191788424
30
0
41
1
10
67.3422176961532
20
6.47702166683732
30
0
41
1
10
67.3425234003997
20
6.47698105217853
30
0
0
SPLINE
5
1A9
100
AcDbEntity
8
1
62
256
6
ByLayer
370
-1
48
1
60
0
100
AcDbSpline
70
4
71
3
72
8
73
4
40
0
40
0
40
0
40
0
40
1
40
1
40
1
40
1
41
1
10
67.67747076379
20
6.15849886048943
30
0
41
1
10
67.6775296053089
20
6.15819499080175
30
0
41
1
10
67.6775884436463
20
6.15789111996594
30
0
41
1
10
67.6776472788004
20
6.15758724799144
30
0
0
SPLINE
5
1AA
100
AcDbEntity
8
1
62
256
6
ByLayer
370
-1
48
1
60
0
100
AcDbSpline
70
4
71
3
72
11
73
7
40
0
40
0
40
0
40
0
40
0.0084271749957305
40
0.529387158418365
40
0.93457825663597
40
1
40
1
40
1
40
1
41
1
10
66.6877274723148
20
5.98028526616795
30
0
41
1
10
66.6878251711427
20
5.98028616267859
30
0
41
1
10
66.6939624955434
20
5.98034328398788
30
0
41
1
10
66.7047946687747
20
5.98053411988593
30
0
41
1
10
66.7162722384725
20
5.98110958262748
30
0
41
1
10
66.721716990826
20
5.98144526688509
30
0
41
1
10
66.7224738442541
20
5.98149295067029
30
0
0
SPLINE
5
1AB
100
AcDbEntity
8
1
62
256
6
ByLayer
370
-1
48
1
60
0
100
AcDbSpline
70
4
71
3
72
8
73
4
40
0
40
0
40
0
40
0
40
1
40
1
40
1
40
1
41
1
10
62.0074102450824
20
6.05661286809536
30
0
41
1
10
62.0074690912294
20
6.05691676168399
30
0
41
1
10
62.0075282746179
20
6.05722055869987
30
0
41
1
10
62.0075877950245
20
6.05752425920704
30
0
0
SPLINE
5
1AC
100
AcDbEntity
8
1
62
256
6
ByLayer
370
-1
48
1
60
0
100
AcDbSpline
70
4
71
3
72
13
73
9
40
0
40
0
40
0
40
0
40
0.0429204910534076
40
0.106725791649847
40
0.234336392842726
40
0.489557595228484
40
0.744778797614242
40
1
40
1
40
1
40
1
41
1
10
63.7616627599013
20
1.66000762658149
30
0
41
1
10
63.7755947055412
20
1.66004841001049
30
0
41
1
10
63.8102387515426
20
1.65993920721931
30
0
41
1
10
63.8863088559219
20
1.66001085794972
30
0
41
1
10
64.0312946867716
20
1.65996750435366
30
0
41
1
10
64.2384178560845
20
1.65999062627156
30
0
41
1
10
64.4869654409608
20
1.65998484579208
30
0
41
1
10
64.6526638559702
20
1.65998484579208
30
0
41
1
10
64.735513063475
20
1.65998484579208
30
0
0
SPLINE
5
1AD
100
AcDbEntity
8
1
62
256
6
ByLayer
370
-1
48
1
60
0
100
AcDbSpline
70
4
71
3
72
10
73
6
40
0
40
0
40
0
40
0
40
0.45392136082517
40
0.907842721650341
40
1
40
1
40
1
40
1
41
1
10
67.5991059391499
20
6.14238061522803
30
0
41
1
10
67.5929289658918
20
6.17478102096411
30
0
41
1
10
67.5705236292831
20
6.23764512884233
30
0
41
1
10
67.526050792078
20
6.29609165905106
30
0
41
1
10
67.4966126043026
20
6.32261829870032
30
0
41
1
10
67.4915084360441
20
6.32693280807669
30
0
0
SPLINE
5
1AE
100
AcDbEntity
8
1
62
256
6
ByLayer
370
-1
48
1
60
0
100
AcDbSpline
70
4
71
3
72
8
73
4
40
0
40
0
40
0
40
0
40
1
40
1
40
1
40
1
41
1
10
61.9290828068724
20
1.57258325507092
30
0
41
1
10
61.860118957942
20
1.63094625778379
30
0
41
1
10
61.8119820560652
20
1.71319684049152
30
0
41
1
10
61.794770726754
20
1.80207967940007
30
0
0
SPLINE
5
1AF
100
AcDbEntity
8
1
62
256
6
ByLayer
370
-1
48
1
60
0
100
AcDbSpline
70
4
71
3
72
8
73
4
40
0
40
0
40
0
40
0
40
1
40
1
40
1
40
1
41
1
10
62.172544993433
20
1.48043364285581
30
0
41
1
10
62.1721865995584
20
1.48043975695867
30
0
41
1
10
62.171828208919
20
1.48044606523453
30
0
41
1
10
62.1714698218279
20
1.48045256767784
30
0
0
SPLINE
5
1B0
100
AcDbEntity
8
1
62
256
6
ByLayer
370
-1
48
1
60
0
100
AcDbSpline
70
4
71
3
72
19
73
15
40
0
40
0
40
0
40
0
40
0.0131218002037794
40
0.102838000185254
40
0.192554200166729
40
0.282270400148203
40
0.327128500138941
40
0.371986600129678
40
0.461702800111152
40
0.551419000092627
40
0.641135200074102
40
0.730851400055576
40
0.820567600037051
40
1
40
1
40
1
40
1
41
1
10
67.1464598812418
20
6.396478825196
30
0
41
1
10
67.1446013986244
20
6.39635497444394
30
0
41
1
10
67.1300368426217
20
6.39537102082036
30
0
41
1
10
67.1027750455419
20
6.39336433767622
30
0
41
1
10
67.0646635274018
20
6.39067595829849
30
0
41
1
10
67.0329019663881
20
6.3884778200775
30
0
41
1
10
67.0074931107573
20
6.38671166092928
30
0
41
1
10
66.9820844950719
20
6.3849409133538
30
0
41
1
10
66.9503241337856
20
6.38271983299666
30
0
41
1
10
66.9122122205073
20
6.38004536687004
30
0
41
1
10
66.8741006944466
20
6.37736479476777
30
0
41
1
10
66.8359894225561
20
6.37468118041227
30
0
41
1
10
66.7851744976496
20
6.37110214597851
30
0
41
1
10
66.7470631573465
20
6.36842044912356
30
0
41
1
10
66.7216552973659
20
6.36663697180717
30
0
0
SPLINE
5
1B1
100
AcDbEntity
8
1
62
256
6
ByLayer
370
-1
48
1
60
0
100
AcDbSpline
70
4
71
3
72
12
73
8
40
0
40
0
40
0
40
0
40
0.331885470510938
40
0.331885470510938
40
0.665942735255469
40
0.665942735255469
40
1
40
1
40
1
40
1
41
1
10
66.9977555249561
20
-4.04146453214878
30
0
41
1
10
67.0440706279127
20
-4.04047705671479
30
0
41
1
10
67.0816267344054
20
-4.04309025735748
30
0
41
1
10
67.1520367721762
20
-4.05036777179296
30
0
41
1
10
67.1839697433032
20
-4.05525435766361
30
0
41
1
10
67.2445694417715
20
-4.06617662236749
30
0
41
1
10
67.2731633666855
20
-4.07224916219087
30
0
41
1
10
67.3007544128769
20
-4.07868113621467
30
0
0
SPLINE
5
1B2
100
AcDbEntity
8
1
62
256
6
ByLayer
370
-1
48
1
60
0
100
AcDbSpline
70
4
71
3
72
18
73
14
40
0
40
0
40
0
40
0
40
0.25
40
0.25
40
0.5
40
0.5
40
0.749999999999999
40
0.749999999999999
40
0.875
40
0.875
40
0.9375
40
0.9375
40
1
40
1
40
1
40
1
41
1
10
67.5109921353686
20
-3.84356902002611
30
0
41
1
10
67.5061683605161
20
-3.81173700486824
30
0
41
1
10
67.5015744733633
20
-3.77893382830658
30
0
41
1
10
67.4931587849152
20
-3.71006579573776
30
0
41
1
10
67.4893174275439
20
-3.67408355444218
30
0
41
1
10
67.483152445712
20
-3.59570740378101
30
0
41
1
10
67.4806631490285
20
-3.5540133773089
30
0
41
1
10
67.4803411953655
20
-3.47705836797607
30
0
41
1
10
67.4808095381437
20
-3.44866593075361
30
0
41
1
10
67.4838934091667
20
-3.39923535074709
30
0
41
1
10
67.4853648051026
20
-3.38118551613076
30
0
41
1
10
67.4897103932365
20
-3.34239714771078
30
0
41
1
10
67.4926486702896
20
-3.32141312259265
30
0
41
1
10
67.4963234747481
20
-3.30061114326551
30
0
0
SPLINE
5
1B3
100
AcDbEntity
8
1
62
256
6
ByLayer
370
-1
48
1
60
0
100
AcDbSpline
70
4
71
3
72
24
73
20
40
0
40
0
40
0
40
0
40
0.250000000000099
40
0.250000000000099
40
0.375000000000149
40
0.375000000000149
40
0.43750000000016
40
0.43750000000016
40
0.468750000000166
40
0.468750000000166
40
0.500000000000172
40
0.500000000000172
40
0.56250000000015
40
0.56250000000015
40
0.625000000000128
40
0.625000000000128
40
0.750000000000086
40
0.750000000000086
40
1
40
1
40
1
40
1
41
1
10
67.3007544128769
20
-4.0786811362147
30
0
41
1
10
67.322685011522
20
-4.08379355710053
30
0
41
1
10
67.3458113405831
20
-4.08743572435569
30
0
41
1
10
67.3856844229019
20
-4.08586155541042
30
0
41
1
10
67.3998314922043
20
-4.08426853686669
30
0
41
1
10
67.4242867605464
20
-4.07675606571027
30
0
41
1
10
67.4330191754381
20
-4.07341931226586
30
0
41
1
10
67.4478723960784
20
-4.06504419445218
30
0
41
1
10
67.4531679984825
20
-4.06163186459767
30
0
41
1
10
67.4641826117173
20
-4.05298421537319
30
0
41
1
10
67.4700875487943
20
-4.04752714329157
30
0
41
1
10
67.4864054064685
20
-4.02887920346581
30
0
41
1
10
67.4936456086507
20
-4.01574229599711
30
0
41
1
10
67.5033778456518
20
-3.99369799026195
30
0
41
1
10
67.5064159132915
20
-3.98380976879525
30
0
41
1
10
67.5132893013689
20
-3.95636492605999
30
0
41
1
10
67.5149869467862
20
-3.9404370683211
30
0
41
1
10
67.5173136871263
20
-3.89509037796512
30
0
41
1
10
67.5148019052373
20
-3.8687096320713
30
0
41
1
10
67.5109921353695
20
-3.84356902002213
30
0
0
SPLINE
5
1B4
100
AcDbEntity
8
1
62
256
6
ByLayer
370
-1
48
1
60
0
100
AcDbSpline
70
4
71
3
72
10
73
6
40
0
40
0
40
0
40
0
40
0.5
40
0.5
40
1
40
1
40
1
40
1
41
1
10
67.6115695709037
20
-3.99016825611699
30
0
41
1
10
67.6019148332043
20
-4.04482086588141
30
0
41
1
10
67.5767579921023
20
-4.09644338034417
30
0
41
1
10
67.5028916519963
20
-4.17894977531896
30
0
41
1
10
67.4546416681037
20
-4.20951873786487
30
0
41
1
10
67.4013318484113
20
-4.22528037230953
30
0
0
SPLINE
5
1B5
100
AcDbEntity
8
1
62
256
6
ByLayer
370
-1
48
1
60
0
100
AcDbSpline
70
4
71
3
72
12
73
8
40
0
40
0
40
0
40
0
40
0.500000000000039
40
0.500000000000039
40
0.750000000000019
40
0.750000000000019
40
1
40
1
40
1
40
1
41
1
10
67.319419513227
20
0.235053215011135
30
0
41
1
10
67.3918055956086
20
0.241374364366578
30
0
41
1
10
67.4659775306257
20
0.220383081477166
30
0
41
1
10
67.5532710366396
20
0.155820166072601
30
0
41
1
10
67.5784743837198
20
0.128915128789686
30
0
41
1
10
67.6175901328797
20
0.0680891759430438
30
0
41
1
10
67.6314568157707
20
0.0344804873029716
30
0
41
1
10
67.6390105162714
20
-0.0009905951581004
30
0
0
SPLINE
5
1B6
100
AcDbEntity
8
1
62
256
6
ByLayer
370
-1
48
1
60
0
100
AcDbSpline
70
4
71
3
72
8
73
4
40
0
40
0
40
0
40
0
40
1
40
1
40
1
40
1
41
1
10
67.7734572578776
20
-1.73183890178373
30
0
41
1
10
67.7847085200295
20
-1.66814884008707
30
0
41
1
10
67.7835984946498
20
-1.60467414301775
30
0
41
1
10
67.7701271817384
20
-1.54141481057582
30
0
0
SPLINE
5
1B7
100
AcDbEntity
8
1
62
256
6
ByLayer
370
-1
48
1
60
0
100
AcDbSpline
70
4
71
3
72
10
73
6
40
0
40
0
40
0
40
0
40
0.0721989294313825
40
0.0721989294313825
40
1
40
1
40
1
40
1
41
1
10
67.086614807874
20
0.118960525001341
30
0
41
1
10
67.0898041344823
20
0.119683379157522
30
0
41
1
10
67.092939037056
20
0.120403129087322
30
0
41
1
10
67.1358312305039
20
0.130341987785783
30
0
41
1
10
67.1682601697012
20
0.139131703373266
30
0
41
1
10
67.1986476192479
20
0.147751479114135
30
0
0
SPLINE
5
1B8
100
AcDbEntity
8
1
62
256
6
ByLayer
370
-1
48
1
60
0
100
AcDbSpline
70
4
71
3
72
26
73
22
40
0
40
0
40
0
40
0
40
0.249999999999994
40
0.249999999999994
40
0.374999999999991
40
0.374999999999991
40
0.437499999999992
40
0.437499999999992
40
0.468749999999992
40
0.468749999999992
40
0.499999999999993
40
0.499999999999993
40
0.531249999999993
40
0.531249999999993
40
0.562499999999994
40
0.562499999999994
40
0.624999999999994
40
0.624999999999994
40
0.749999999999996
40
0.749999999999996
40
1
40
1
40
1
40
1
41
1
10
67.5182386222925
20
-0.0882923310552712
30
0
41
1
10
67.5233306257825
20
-0.0604484974362265
30
0
41
1
10
67.5262140264506
20
-0.0315757518164332
30
0
41
1
10
67.5214246556625
20
0.0173472308219402
30
0
41
1
10
67.5184818665172
20
0.0344453581533344
30
0
41
1
10
67.5075120789298
20
0.06408423842106
30
0
41
1
10
67.5028513813551
20
0.0745899480494074
30
0
41
1
10
67.4912149676737
20
0.0928114247777785
30
0
41
1
10
67.4865391464726
20
0.0993499887248674
30
0
41
1
10
67.4734434893322
20
0.114029801540568
30
0
41
1
10
67.4643880802022
20
0.122565757617196
30
0
41
1
10
67.4432417263938
20
0.137611076977493
30
0
41
1
10
67.4325573880999
20
0.143243640071745
30
0
41
1
10
67.4145599903924
20
0.151232686597297
30
0
41
1
10
67.4065603973501
20
0.153989742246637
30
0
41
1
10
67.3845973090239
20
0.160519070430183
30
0
41
1
10
67.3722094383419
20
0.162706270293171
30
0
41
1
10
67.3372132428219
20
0.167141883347256
30
0
41
1
10
67.3174753815541
20
0.166955582892825
30
0
41
1
10
67.2615643675733
20
0.163360169873954
30
0
41
1
10
67.2292671037396
20
0.156437074435786
30
0
41
1
10
67.1986476192481
20
0.147751479114163
30
0
0
SPLINE
5
1B9
100
AcDbEntity
8
1
62
256
6
ByLayer
370
-1
48
1
60
0
100
AcDbSpline
70
4
71
3
72
16
73
12
40
0
40
0
40
0
40
0
40
0.0624999999999997
40
0.0624999999999997
40
0.125
40
0.125
40
0.25
40
0.25
40
0.499999999999999
40
0.499999999999999
40
1
40
1
40
1
40
1
41
1
10
67.517747393962
20
-0.356275915691953
30
0
41
1
10
67.5150663623214
20
-0.343686179787767
30
0
41
1
10
67.5128434219961
20
-0.331297501256273
30
0
41
1
10
67.5094904516175
20
-0.309328567835507
30
0
41
1
10
67.5082921343524
20
-0.299487462762556
30
0
41
1
10
67.5055891334963
20
-0.272952570797543
30
0
41
1
10
67.5048611499752
20
-0.258535996560994
30
0
41
1
10
67.5038473052018
20
-0.220081155445115
30
0
41
1
10
67.504737988458
20
-0.199984819655867
30
0
41
1
10
67.508694287665
20
-0.144790852282398
30
0
41
1
10
67.5132390116495
20
-0.115630946823131
30
0
41
1
10
67.5182386222924
20
-0.0882923310550439
30
0
0
SPLINE
5
1BA
100
AcDbEntity
8
1
62
256
6
ByLayer
370
-1
48
1
60
0
100
AcDbSpline
70
4
71
3
72
8
73
4
40
0
40
0
40
0
40
0
40
1
40
1
40
1
40
1
41
1
10
67.9889885366467
20
-1.64443664111772
30
0
41
1
10
68.0024598495582
20
-1.70769597355965
30
0
41
1
10
68.003569874938
20
-1.77117067062895
30
0
41
1
10
67.9923186127859
20
-1.83486073232564
30
0
0
SPLINE
5
1BB
100
AcDbEntity
8
SK1
62
256
6
ByLayer
370
-1
48
1
60
0
100
AcDbSpline
70
4
71
3
72
8
73
4
40
0
40
0
40
0
40
0
40
1
40
1
40
1
40
1
41
1
10
-46.6000000000004
20
-5.92285193129203
30
0
41
1
10
-46.94738484153
20
-5.72075834496076
30
0
41
1
10
-47.2923417749157
20
-5.51343483034259
30
0
41
1
10
-47.6338144512151
20
-5.29932072668743
30
0
0
SPLINE
5
1BC
100
AcDbEntity
8
SK1
62
256
6
ByLayer
370
-1
48
1
60
0
100
AcDbSpline
70
4
71
3
72
20
73
16
40
0
40
0
40
0
40
0
40
0.124999999999999
40
0.124999999999999
40
0.249999999999997
40
0.249999999999997
40
0.374999999999996
40
0.374999999999996
40
0.499999999999994
40
0.499999999999994
40
0.624999999999993
40
0.624999999999993
40
0.749999999999992
40
0.749999999999992
40
1
40
1
40
1
40
1
41
1
10
-47.633814451215
20
-5.29932072668728
30
0
41
1
10
-47.6738922636715
20
-5.27419067826415
30
0
41
1
10
-47.7166430277408
20
-5.2536833095611
30
0
41
1
10
-47.8080113883237
20
-5.22561624608014
30
0
41
1
10
-47.8558086398442
20
-5.21864267878075
30
0
41
1
10
-47.9498238136525
20
-5.22043840528849
30
0
41
1
10
-47.9974643733847
20
-5.22930496216131
30
0
41
1
10
-48.0869190094971
20
-5.26009470978795
30
0
41
1
10
-48.1294303248595
20
-5.28196037105604
30
0
41
1
10
-48.2086279314314
20
-5.33453450915434
30
0
41
1
10
-48.2447916817791
20
-5.36473843771279
30
0
41
1
10
-48.3120993158946
20
-5.43087025673137
30
0
41
1
10
-48.3433839743252
20
-5.46708425266206
30
0
41
1
10
-48.4290137419149
20
-5.57994089637941
30
0
41
1
10
-48.4760766654538
20
-5.66116280030394
30
0
41
1
10
-48.5162227297291
20
-5.74651411012809
30
0
0
SPLINE
5
1BD
100
AcDbEntity
8
SK1
62
256
6
ByLayer
370
-1
48
1
60
0
100
AcDbSpline
70
4
71
3
72
20
73
16
40
0
40
0
40
0
40
0
40
0.249999999999993
40
0.249999999999993
40
0.374999999999994
40
0.374999999999994
40
0.499999999999995
40
0.499999999999995
40
0.624999999999996
40
0.624999999999996
40
0.749999999999998
40
0.749999999999998
40
0.874999999999999
40
0.874999999999999
40
1
40
1
40
1
40
1
41
1
10
-48.516222729729
20
5.74651411012826
30
0
41
1
10
-48.4762911096295
20
5.66161871277322
30
0
41
1
10
-48.4283722366634
20
5.57893837743811
30
0
41
1
10
-48.3426850116238
20
5.46624297823843
30
0
41
1
10
-48.3114261194144
20
5.43013690581458
30
0
41
1
10
-48.2441155430023
20
5.36414748183782
30
0
41
1
10
-48.2081109043675
20
5.33418916709314
30
0
41
1
10
-48.1299068985677
20
5.28227885986365
30
0
41
1
10
-48.0869527159662
20
5.26011190276751
30
0
41
1
10
-47.9975349560404
20
5.22932367138964
30
0
41
1
10
-47.9502203463448
20
5.22040015827844
30
0
41
1
10
-47.8545747664299
20
5.21866533516589
30
0
41
1
10
-47.8075489790091
20
5.22575417310171
30
0
41
1
10
-47.7170288270798
20
5.25356891952413
30
0
41
1
10
-47.6737128978907
20
5.27430314624814
30
0
41
1
10
-47.6338144512151
20
5.29932072668754
30
0
0
SPLINE
5
1BE
100
AcDbEntity
8
SK1
62
256
6
ByLayer
370
-1
48
1
60
0
100
AcDbSpline
70
4
71
3
72
70
73
66
40
0
40
0
40
0
40
0
40
0.015625
40
0.015625
40
0.0312499999999999
40
0.0312499999999999
40
0.0468749999999999
40
0.0468749999999999
40
0.0624999999999998
40
0.0624999999999998
40
0.0937499999999997
40
0.0937499999999997
40
0.125
40
0.125
40
0.156249999999999
40
0.156249999999999
40
0.187499999999999
40
0.187499999999999
40
0.249999999999999
40
0.249999999999999
40
0.281249999999999
40
0.281249999999999
40
0.312499999999999
40
0.312499999999999
40
0.374999999999999
40
0.374999999999999
40
0.406249999999999
40
0.406249999999999
40
0.437499999999999
40
0.437499999999999
40
0.499999999999999
40
0.499999999999999
40
0.562499999999999
40
0.562499999999999
40
0.593749999999999
40
0.593749999999999
40
0.624999999999999
40
0.624999999999999
40
0.687499999999999
40
0.687499999999999
40
0.749999999999999
40
0.749999999999999
40
0.781249999999999
40
0.781249999999999
40
0.812499999999999
40
0.812499999999999
40
0.828124999999999
40
0.828124999999999
40
0.843749999999999
40
0.843749999999999
40
0.874999999999999
40
0.874999999999999
40
0.890624999999999
40
0.890624999999999
40
0.906249999999999
40
0.906249999999999
40
0.9375
40
0.9375
40
0.953125
40
0.953125
40
0.96875
40
0.96875
40
0.984375
40
0.984375
40
1
40
1
40
1
40
1
41
1
10
-6.5
20
-5.92285193129121
30
0
41
1
10
-6.4207001561935
20
-5.92285193129121
30
0
41
1
10
-6.34086123714724
20
-5.9185668895135
30
0
41
1
10
-6.18144914173817
20
-5.90119679294747
30
0
41
1
10
-6.10329779169277
20
-5.88829240949369
30
0
41
1
10
-5.94990088501589
20
-5.85451305048375
30
0
41
1
10
-5.87465633133542
20
-5.83363525531988
30
0
41
1
10
-5.72696960000087
20
-5.78406116811425
30
0
41
1
10
-5.65429253457478
20
-5.75520748082337
30
0
41
1
10
-5.44519110301013
20
-5.65925614820594
30
0
41
1
10
-5.31596620096835
20
-5.58241846129397
30
0
41
1
10
-5.07484414087321
20
-5.40540504402466
30
0
41
1
10
-4.96593256698816
20
-5.30735528286371
30
0
41
1
10
-4.76784635237644
20
-5.09639651205995
30
0
41
1
10
-4.67840953317994
20
-4.983217129438
30
0
41
1
10
-4.51537314962405
20
-4.74292412211906
30
0
41
1
10
-4.44295328505657
20
-4.61746994914878
30
0
41
1
10
-4.24868198160985
20
-4.23068443115997
30
0
41
1
10
-4.14844766983134
20
-3.95746366364494
30
0
41
1
10
-4.0262637687357
20
-3.52851959599104
30
0
41
1
10
-3.99045707400202
20
-3.38261304841748
30
0
41
1
10
-3.92745056712241
20
-3.08915292017716
30
0
41
1
10
-3.90009723356329
20
-2.94105776320953
30
0
41
1
10
-3.8278752392381
20
-2.49297350515943
30
0
41
1
10
-3.79269532434782
20
-2.18920722447757
30
0
41
1
10
-3.75266975157555
20
-1.72668593189553
30
0
41
1
10
-3.74149452812992
20
-1.57136096042274
30
0
41
1
10
-3.7227914524648
20
-1.25845966931755
30
0
41
1
10
-3.71525523181913
20
-1.10051711083781
30
0
41
1
10
-3.69757555686806
20
-0.627542985956865
30
0
41
1
10
-3.69216291533115
20
-0.312549998346725
30
0
41
1
10
-3.69221342580033
20
0.316814481428594
30
0
41
1
10
-3.69767917852337
20
0.631185932377917
30
0
41
1
10
-3.71533699604186
20
1.10226412810465
30
0
41
1
10
-3.72282689544929
20
1.25921004505511
30
0
41
1
10
-3.74159811083336
20
1.57293530507485
30
0
41
1
10
-3.75286596385365
20
1.72931583567794
30
0
41
1
10
-3.7931360613473
20
2.19356375631057
30
0
41
1
10
-3.82851600359484
20
2.49788201632404
30
0
41
1
10
-3.92509289084615
20
3.09518912355421
30
0
41
1
10
-3.98613026108981
20
3.38819589012314
30
0
41
1
10
-4.10872562486918
20
3.81772380638489
30
0
41
1
10
-4.15457050303766
20
3.95816262372668
30
0
41
1
10
-4.25798900802536
20
4.23138581985137
30
0
41
1
10
-4.31562107045932
20
4.36443286751282
30
0
41
1
10
-4.41324202900785
20
4.55806429666799
30
0
41
1
10
-4.44765197842653
20
4.62161604232489
30
0
41
1
10
-4.52071677173481
20
4.74659993544324
30
0
41
1
10
-4.55949059300505
20
4.80819083961242
30
0
41
1
10
-4.68167362759087
20
4.98750932801642
30
0
41
1
10
-4.77111361192291
20
5.10028531412462
30
0
41
1
10
-4.91992617419712
20
5.25814375735854
30
0
41
1
10
-4.97198266212237
20
5.3088730991264
30
0
41
1
10
-5.08163619478131
20
5.40624856211491
30
0
41
1
10
-5.13955477027798
20
5.4531151519183
30
0
41
1
10
-5.31981523628792
20
5.58481269193101
30
0
41
1
10
-5.44864000404647
20
5.66109472307599
30
0
41
1
10
-5.65716976919146
20
5.75639550475049
30
0
41
1
10
-5.7298085887667
20
5.78512422111541
30
0
41
1
10
-5.87748335724046
20
5.83446980910264
30
0
41
1
10
-5.95248390556498
20
5.85515796054099
30
0
41
1
10
-6.10485268754977
20
5.88855660979888
30
0
41
1
10
-6.18222037802389
20
5.90126892263172
30
0
41
1
10
-6.3394359509619
20
5.91842344284453
30
0
41
1
10
-6.41995776294141
20
5.92285193129121
30
0
41
1
10
-6.5
20
5.92285193129121
30
0
0
SPLINE
5
1BF
100
AcDbEntity
8
SK1
62
256
6
ByLayer
370
-1
48
1
60
0
100
AcDbSpline
70
4
71
3
72
8
73
4
40
0
40
0
40
0
40
0
40
1
40
1
40
1
40
1
41
1
10
-49
20
-5.92285193129115
30
0
41
1
10
-49.3676239342109
20
-5.30236629245442
30
0
41
1
10
-49.7070222547918
20
-4.66800398302257
30
0
41
1
10
-50
20
-4.01081974164879
30
0
0
SPLINE
5
1C0
100
AcDbEntity
8
SK1
62
256
6
ByLayer
370
-1
48
1
60
0
100
AcDbSpline
70
4
71
3
72
8
73
4
40
0
40
0
40
0
40
0
40
1
40
1
40
1
40
1
41
1
10
-48.516222729729
20
-5.74651411012815
30
0
41
1
10
-48.5439308119344
20
-5.80542202928857
30
0
41
1
10
-48.5718597554103
20
-5.8641994196619
30
0
41
1
10
-48.6
20
-5.92285193129118
30
0
0
SPLINE
5
1C1
100
AcDbEntity
8
SK1
62
256
6
ByLayer
370
-1
48
1
60
0
100
AcDbSpline
70
4
71
3
72
8
73
4
40
0
40
0
40
0
40
0
40
1
40
1
40
1
40
1
41
1
10
-47.6338144512151
20
5.29932072668754
30
0
41
1
10
-47.2923417749157
20
5.5134348303427
30
0
41
1
10
-46.94738484153
20
5.72075834496087
30
0
41
1
10
-46.6000000000004
20
5.92285193129214
30
0
0
SPLINE
5
1C2
100
AcDbEntity
8
SK1
62
256
6
ByLayer
370
-1
48
1
60
0
100
AcDbSpline
70
4
71
3
72
8
73
4
40
0
40
0
40
0
40
0
40
1
40
1
40
1
40
1
41
1
10
-48.6
20
5.92285193129126
30
0
41
1
10
-48.5718597554103
20
5.86419941966201
30
0
41
1
10
-48.5439308119344
20
5.80542202928868
30
0
41
1
10
-48.516222729729
20
5.74651411012826
30
0
0
SPLINE
5
1C3
100
AcDbEntity
8
SK1
62
256
6
ByLayer
370
-1
48
1
60
0
100
AcDbSpline
70
4
71
3
72
8
73
4
40
0
40
0
40
0
40
0
40
1
40
1
40
1
40
1
41
1
10
-50
20
4.0108197416489
30
0
41
1
10
-49.7054172377832
20
4.67160422878337
30
0
41
1
10
-49.3659298245044
20
5.30522565672777
30
0
41
1
10
-49
20
5.92285193129126
30
0
0
LINE
5
45
100
AcDbEntity
8
80
62
256
6
ByLayer
370
-1
48
1
60
0
100
AcDbLine
10
0
20
0
30
0
11
-7
21
0
31
0
39
0
210
0
220
0
230
1
0
LINE
5
46
100
AcDbEntity
8
81
62
256
6
ByLayer
370
-1
48
1
60
0
100
AcDbLine
10
68
20
0
30
0
11
75
21
0
31
0
39
0
210
0
220
0
230
1
0
LINE
5
47
100
AcDbEntity
8
SK1
62
256
6
ByLayer
370
-1
48
1
60
0
100
AcDbLine
10
-2
20
-9.99675
30
0
11
-1.551212
21
-9.787477
31
0
39
0
210
0
220
0
230
1
0
LINE
5
49
100
AcDbEntity
8
SK1
62
256
6
ByLayer
370
-1
48
1
60
0
100
AcDbLine
10
-1.551212
20
9.787477
30
0
11
-2
21
9.99675
31
0
39
0
210
0
220
0
230
1
0
LINE
5
4A
100
AcDbEntity
8
SK1
62
256
6
ByLayer
370
-1
48
1
60
0
100
AcDbLine
10
-2
20
9.99675
30
0
11
-46.6
21
9.99675
31
0
39
0
210
0
220
0
230
1
0
LINE
5
4B
100
AcDbEntity
8
SK1
62
256
6
ByLayer
370
-1
48
1
60
0
100
AcDbLine
10
-46.6
20
-9.99675
30
0
11
-2
21
-9.99675
31
0
39
0
210
0
220
0
230
1
0
LINE
5
4C
100
AcDbEntity
8
SK1
62
256
6
ByLayer
370
-1
48
1
60
0
100
AcDbLine
10
-0.15
20
9.75
30
0
11
-1.382165
21
9.75
31
0
39
0
210
0
220
0
230
1
0
LINE
5
4D
100
AcDbEntity
8
SK1
62
256
6
ByLayer
370
-1
48
1
60
0
100
AcDbLine
10
-1.382165
20
-9.75
30
0
11
-0.15
21
-9.75
31
0
39
0
210
0
220
0
230
1
0
LINE
5
4E
100
AcDbEntity
8
SK1
62
256
6
ByLayer
370
-1
48
1
60
0
100
AcDbLine
10
-48.6
20
-9.99675
30
0
11
-48.516223
21
-9.893294
31
0
39
0
210
0
220
0
230
1
0
LINE
5
4F
100
AcDbEntity
8
SK1
62
256
6
ByLayer
370
-1
48
1
60
0
100
AcDbLine
10
-48.516223
20
9.893294
30
0
11
-48.6
21
9.99675
31
0
39
0
210
0
220
0
230
1
0
LINE
5
50
100
AcDbEntity
8
SK1
62
256
6
ByLayer
370
-1
48
1
60
0
100
AcDbLine
10
-46.6
20
9.99675
30
0
11
-47.633814
21
9.640417
31
0
39
0
210
0
220
0
230
1
0
LINE
5
51
100
AcDbEntity
8
SK1
62
256
6
ByLayer
370
-1
48
1
60
0
100
AcDbLine
10
-47.633814
20
-9.640417
30
0
11
-46.6
21
-9.99675
31
0
39
0
210
0
220
0
230
1
0
LINE
5
52
100
AcDbEntity
8
SK1
62
256
6
ByLayer
370
-1
48
1
60
0
100
AcDbLine
10
-48.6
20
9.99675
30
0
11
-49
21
9.99675
31
0
39
0
210
0
220
0
230
1
0
LINE
5
53
100
AcDbEntity
8
SK1
62
256
6
ByLayer
370
-1
48
1
60
0
100
AcDbLine
10
-49
20
-9.99675
30
0
11
-48.6
21
-9.99675
31
0
39
0
210
0
220
0
230
1
0
LINE
5
54
100
AcDbEntity
8
SK1
62
256
6
ByLayer
370
-1
48
1
60
0
100
AcDbLine
10
-49
20
9.99675
30
0
11
-50
21
8.99675
31
0
39
0
210
0
220
0
230
1
0
LINE
5
55
100
AcDbEntity
8
SK1
62
256
6
ByLayer
370
-1
48
1
60
0
100
AcDbLine
10
-50
20
-8.99675
30
0
11
-49
21
-9.99675
31
0
39
0
210
0
220
0
230
1
0
LINE
5
56
100
AcDbEntity
8
1
62
256
6
ByLayer
370
-1
48
1
60
0
100
AcDbLine
10
5
20
12.5
30
0
11
0.2
21
12.5
31
0
39
0
210
0
220
0
230
1
0
LINE
5
58
100
AcDbEntity
8
1
62
256
6
ByLayer
370
-1
48
1
60
0
100
AcDbLine
10
0.2
20
-12.5
30
0
11
5
21
-12.5
31
0
39
0
210
0
220
0
230
1
0
LINE
5
59
100
AcDbEntity
8
1
62
256
6
ByLayer
370
-1
48
1
60
0
100
AcDbLine
10
0.2
20
12.5
30
0
11
0
21
12.3
31
0
39
0
210
0
220
0
230
1
0
LINE
5
5A
100
AcDbEntity
8
1
62
256
6
ByLayer
370
-1
48
1
60
0
100
AcDbLine
10
0
20
-12.3
30
0
11
0.2
21
-12.5
31
0
39
0
210
0
220
0
230
1
0
LINE
5
5B
100
AcDbEntity
8
1
62
256
6
ByLayer
370
-1
48
1
60
0
100
AcDbLine
10
29.637213
20
6.225
30
0
11
13
21
6.225
31
0
39
0
210
0
220
0
230
1
0
LINE
5
5C
100
AcDbEntity
8
1
62
256
6
ByLayer
370
-1
48
1
60
0
100
AcDbLine
10
61.887168
20
6.225
30
0
11
60.062787
21
6.225
31
0
39
0
210
0
220
0
230
1
0
LINE
5
5D
100
AcDbEntity
8
1
62
256
6
ByLayer
370
-1
48
1
60
0
100
AcDbLine
10
13
20
-6.225
30
0
11
30.695104
21
-6.225
31
0
39
0
210
0
220
0
230
1
0
LINE
5
5E
100
AcDbEntity
8
SK4
62
256
6
ByLayer
370
-1
48
0.05
60
0
100
AcDbLine
10
68
20
0
30
0
11
-50
21
0
31
0
39
0
210
0
220
0
230
1
0
LINE
5
60
100
AcDbEntity
8
4
62
256
6
ByLayer
370
-1
48
0.05
60
0
100
AcDbLine
10
68
20
0
30
0
11
0
21
0
31
0
39
0
210
0
220
0
230
1
0
LINE
5
62
100
AcDbEntity
8
1
62
256
6
ByLayer
370
-1
48
1
60
0
100
AcDbLine
10
0
20
12.3
30
0
11
0
21
-12.3
31
0
39
0
210
0
220
0
230
1
0
LINE
5
63
100
AcDbEntity
8
1
62
256
6
ByLayer
370
-1
48
1
60
0
100
AcDbLine
10
61.577124
20
1.432853
30
0
11
61.608948
21
1.432853
31
0
39
0
210
0
220
0
230
1
0
LINE
5
64
100
AcDbEntity
8
1
62
256
6
ByLayer
370
-1
48
1
60
0
100
AcDbLine
10
66.906944
20
1.377369
30
0
11
67.02622
21
1.342045
31
0
39
0
210
0
220
0
230
1
0
LINE
5
65
100
AcDbEntity
8
1
62
256
6
ByLayer
370
-1
48
1
60
0
100
AcDbLine
10
66.550063
20
0.277704
30
0
11
66.769427
21
1.380058
31
0
39
0
210
0
220
0
230
1
0
LINE
5
66
100
AcDbEntity
8
1
62
256
6
ByLayer
370
-1
48
1
60
0
100
AcDbLine
10
61.497355
20
3.204522
30
0
11
61.434203
21
3.068576
31
0
39
0
210
0
220
0
230
1
0
LINE
5
67
100
AcDbEntity
8
1
62
256
6
ByLayer
370
-1
48
1
60
0
100
AcDbLine
10
67.080067
20
0.203786
30
0
11
67.089182
21
0.20539
31
0
39
0
210
0
220
0
230
1
0
LINE
5
68
100
AcDbEntity
8
1
62
256
6
ByLayer
370
-1
48
1
60
0
100
AcDbLine
10
5
20
7.595207
30
0
11
5
21
-12.5
31
0
39
0
210
0
220
0
230
1
0
LINE
5
69
100
AcDbEntity
8
1
62
256
6
ByLayer
370
-1
48
1
60
0
100
AcDbLine
10
66.991666
20
-4.479742
30
0
11
67.2153
21
-4.517404
31
0
39
0
210
0
220
0
230
1
0
LINE
5
6A
100
AcDbEntity
8
1
62
256
6
ByLayer
370
-1
48
1
60
0
100
AcDbLine
10
60.069924
20
2.623797
30
0
11
59.091318
21
3.081871
31
0
39
0
210
0
220
0
230
1
0
LINE
5
6B
100
AcDbEntity
8
1
62
256
6
ByLayer
370
-1
48
1
60
0
100
AcDbLine
10
61.224505
20
3.019487
30
0
11
61.230066
21
3.019487
31
0
39
0
210
0
220
0
230
1
0
LINE
5
6C
100
AcDbEntity
8
1
62
256
6
ByLayer
370
-1
48
1
60
0
100
AcDbLine
10
0.2
20
12.5
30
0
11
0.2
21
-12.5
31
0
39
0
210
0
220
0
230
1
0
LINE
5
6D
100
AcDbEntity
8
1
62
256
6
ByLayer
370
-1
48
1
60
0
100
AcDbLine
10
67.02622
20
1.342045
30
0
11
67.03382
21
0.624634
31
0
39
0
210
0
220
0
230
1
0
LINE
5
6E
100
AcDbEntity
8
1
62
256
6
ByLayer
370
-1
48
1
60
0
100
AcDbLine
10
63.191624
20
1.408041
30
0
11
66.459896
21
1.408041
31
0
39
0
210
0
220
0
230
1
0
LINE
5
6F
100
AcDbEntity
8
1
62
256
6
ByLayer
370
-1
48
1
60
0
100
AcDbLine
10
66.769427
20
1.380058
30
0
11
66.459896
21
1.408041
31
0
39
0
210
0
220
0
230
1
0
LINE
5
70
100
AcDbEntity
8
1
62
256
6
ByLayer
370
-1
48
1
60
0
100
AcDbLine
10
67.150114
20
-0.450625
30
0
11
67.40072
21
-1.627435
31
0
39
0
210
0
220
0
230
1
0
LINE
5
71
100
AcDbEntity
8
1
62
256
6
ByLayer
370
-1
48
1
60
0
100
AcDbLine
10
67.089182
20
0.20539
30
0
11
67.093051
21
0.204119
31
0
39
0
210
0
220
0
230
1
0
LINE
5
72
100
AcDbEntity
8
1
62
256
6
ByLayer
370
-1
48
1
60
0
100
AcDbLine
10
67.40072
20
-1.627435
30
0
11
67.035405
21
-3.695373
31
0
39
0
210
0
220
0
230
1
0
LINE
5
73
100
AcDbEntity
8
1
62
256
6
ByLayer
370
-1
48
1
60
0
100
AcDbLine
10
5
20
12.5
30
0
11
5
21
8.885354
31
0
39
0
210
0
220
0
230
1
0
LINE
5
74
100
AcDbEntity
8
1
62
256
6
ByLayer
370
-1
48
1
60
0
100
AcDbLine
10
61.860265
20
6.224167
30
0
11
61.230066
21
3.019487
31
0
39
0
210
0
220
0
230
1
0
LINE
5
75
100
AcDbEntity
8
1
62
256
6
ByLayer
370
-1
48
1
60
0
100
AcDbLine
10
66.914531
20
-6.21997
30
0
11
67.2153
21
-4.517404
31
0
39
0
210
0
220
0
230
1
0
LINE
5
76
100
AcDbEntity
8
1
62
256
6
ByLayer
370
-1
48
1
60
0
100
AcDbLine
10
66.587703
20
1.408041
30
0
11
66.94565
21
1.376605
31
0
39
0
210
0
220
0
230
1
0
LINE
5
77
100
AcDbEntity
8
1
62
256
6
ByLayer
370
-1
48
1
60
0
100
AcDbLine
10
13
20
-3.940939
30
0
11
13
21
-6.225
31
0
39
0
210
0
220
0
230
1
0
LINE
5
78
100
AcDbEntity
8
1
62
256
6
ByLayer
370
-1
48
1
60
0
100
AcDbLine
10
61.224505
20
3.019487
30
0
11
61.854435
21
6.222802
31
0
39
0
210
0
220
0
230
1
0
LINE
5
79
100
AcDbEntity
8
1
62
256
6
ByLayer
370
-1
48
1
60
0
100
AcDbLine
10
60.12632
20
3.898729
30
0
11
60.12632
21
6.224984
31
0
39
0
210
0
220
0
230
1
0
LINE
5
7A
100
AcDbEntity
8
1
62
256
6
ByLayer
370
-1
48
1
60
0
100
AcDbLine
10
13
20
6.225
30
0
11
13
21
4.566972
31
0
39
0
210
0
220
0
230
1
0
LINE
5
7B
100
AcDbEntity
8
1
62
256
6
ByLayer
370
-1
48
1
60
0
100
AcDbLine
10
60.12632
20
3.898729
30
0
11
52.473784
21
5.042758
31
0
39
0
210
0
220
0
230
1
0
LINE
5
7C
100
AcDbEntity
8
1
62
256
6
ByLayer
370
-1
48
1
60
0
100
AcDbLine
10
66.587705
20
1.408041
30
0
11
66.459896
21
1.408041
31
0
39
0
210
0
220
0
230
1
0
LINE
5
7D
100
AcDbEntity
8
1
62
256
6
ByLayer
370
-1
48
1
60
0
100
AcDbLine
10
60.724848
20
-6.21997
30
0
11
66.914531
21
-6.21997
31
0
39
0
210
0
220
0
230
1
0
LINE
5
7E
100
AcDbEntity
8
1
62
256
6
ByLayer
370
-1
48
1
60
0
100
AcDbLine
10
61.31448
20
3.068576
30
0
11
61.434203
21
3.068576
31
0
39
0
210
0
220
0
230
1
0
LINE
5
7F
100
AcDbEntity
8
1
62
256
6
ByLayer
370
-1
48
1
60
0
100
AcDbLine
10
61.384202
20
3.204522
30
0
11
61.497355
21
3.204522
31
0
39
0
210
0
220
0
230
1
0
LINE
5
80
100
AcDbEntity
8
1
62
256
6
ByLayer
370
-1
48
1
60
0
100
AcDbLine
10
66.906944
20
1.377369
30
0
11
66.769427
21
1.380058
31
0
39
0
210
0
220
0
230
1
0
LINE
5
81
100
AcDbEntity
8
1
62
256
6
ByLayer
370
-1
48
1
60
0
100
AcDbLine
10
67.40072
20
-1.627435
30
0
11
66.938502
21
-1.409861
31
0
39
0
210
0
220
0
230
1
0
LINE
5
82
100
AcDbEntity
8
1
62
256
6
ByLayer
370
-1
48
1
60
0
100
AcDbLine
10
61.206419
20
2.828136
30
0
11
61.200858
21
2.828136
31
0
39
0
210
0
220
0
230
1
0
LINE
5
83
100
AcDbEntity
8
1
62
256
6
ByLayer
370
-1
48
1
60
0
100
AcDbLine
10
63.191624
20
1.408041
30
0
11
63.029341
21
1.328907
31
0
39
0
210
0
220
0
230
1
0
LINE
5
84
100
AcDbEntity
8
1
62
256
6
ByLayer
370
-1
48
1
60
0
100
AcDbLine
10
61.354107
20
0.155224
30
0
11
61.479768
21
0.541553
31
0
39
0
210
0
220
0
230
1
0
LINE
5
85
100
AcDbEntity
8
1
62
256
6
ByLayer
370
-1
48
1
60
0
100
AcDbLine
10
63.623291
20
1.575353
30
0
11
62.330711
21
1.484621
31
0
39
0
210
0
220
0
230
1
0
LINE
5
86
100
AcDbEntity
8
1
62
256
6
ByLayer
370
-1
48
1
60
0
100
AcDbLine
10
62.399492
20
6.380289
30
0
11
62.398884
21
6.300594
31
0
39
0
210
0
220
0
230
1
0
LINE
5
87
100
AcDbEntity
8
1
62
256
6
ByLayer
370
-1
48
1
60
0
100
AcDbLine
10
67.072749
20
1.580289
30
0
11
67.072142
21
1.659985
31
0
39
0
210
0
220
0
230
1
0
LINE
5
88
100
AcDbEntity
8
1
62
256
6
ByLayer
370
-1
48
1
60
0
100
AcDbLine
10
65.709046
20
6.380289
30
0
11
62.399492
21
6.380289
31
0
39
0
210
0
220
0
230
1
0
LINE
5
89
100
AcDbEntity
8
1
62
256
6
ByLayer
370
-1
48
1
60
0
100
AcDbLine
10
65.848951
20
6.385226
30
0
11
67.141531
21
6.475957
31
0
39
0
210
0
220
0
230
1
0
LINE
5
8A
100
AcDbEntity
8
1
62
256
6
ByLayer
370
-1
48
1
60
0
100
AcDbLine
10
65.709971
20
6.380289
30
0
11
65.709363
21
6.300594
31
0
39
0
210
0
220
0
230
1
0
LINE
5
8B
100
AcDbEntity
8
1
62
256
6
ByLayer
370
-1
48
1
60
0
100
AcDbLine
10
67.464831
20
1.903966
30
0
11
67.964426
21
4.483973
31
0
39
0
210
0
220
0
230
1
0
LINE
5
8C
100
AcDbEntity
8
1
62
256
6
ByLayer
370
-1
48
1
60
0
100
AcDbLine
10
62.330711
20
1.484621
30
0
11
62.324565
21
1.564123
31
0
39
0
210
0
220
0
230
1
0
LINE
5
8D
100
AcDbEntity
8
1
62
256
6
ByLayer
370
-1
48
1
60
0
100
AcDbLine
10
67.299697
20
6.480145
30
0
11
67.297813
21
6.40046
31
0
39
0
210
0
220
0
230
1
0
LINE
5
8E
100
AcDbEntity
8
1
62
256
6
ByLayer
370
-1
48
1
60
0
100
AcDbLine
10
62.00741
20
6.056613
30
0
11
61.507816
21
3.476605
31
0
39
0
210
0
220
0
230
1
0
LINE
5
8F
100
AcDbEntity
8
1
62
256
6
ByLayer
370
-1
48
1
60
0
100
AcDbLine
10
61.794594
20
1.802991
30
0
11
61.507639
21
3.284885
31
0
39
0
210
0
220
0
230
1
0
LINE
5
90
100
AcDbEntity
8
1
62
256
6
ByLayer
370
-1
48
1
60
0
100
AcDbLine
10
67.964426
20
4.483973
30
0
11
67.885884
21
4.49918
31
0
39
0
210
0
220
0
230
1
0
LINE
5
91
100
AcDbEntity
8
1
62
256
6
ByLayer
370
-1
48
1
60
0
100
AcDbLine
10
67.342523
20
6.476981
30
0
11
67.331686
21
6.397951
31
0
39
0
210
0
220
0
230
1
0
LINE
5
92
100
AcDbEntity
8
1
62
256
6
ByLayer
370
-1
48
1
60
0
100
AcDbLine
10
67.464654
20
1.903054
30
0
11
67.386113
21
1.918261
31
0
39
0
210
0
220
0
230
1
0
LINE
5
93
100
AcDbEntity
8
1
62
256
6
ByLayer
370
-1
48
1
60
0
100
AcDbLine
10
63.762271
20
1.580289
30
0
11
63.761663
21
1.659985
31
0
39
0
210
0
220
0
230
1
0
LINE
5
94
100
AcDbEntity
8
1
62
256
6
ByLayer
370
-1
48
1
60
0
100
AcDbLine
10
67.301697
20
6.480108
30
0
11
67.299654
21
6.400427
31
0
39
0
210
0
220
0
230
1
0
LINE
5
95
100
AcDbEntity
8
1
62
256
6
ByLayer
370
-1
48
1
60
0
100
AcDbLine
10
67.072749
20
1.580289
30
0
11
63.763196
21
1.580289
31
0
39
0
210
0
220
0
230
1
0
LINE
5
96
100
AcDbEntity
8
1
62
256
6
ByLayer
370
-1
48
1
60
0
100
AcDbLine
10
62.129718
20
1.483597
30
0
11
62.13934
21
1.562628
31
0
39
0
210
0
220
0
230
1
0
LINE
5
97
100
AcDbEntity
8
1
62
256
6
ByLayer
370
-1
48
1
60
0
100
AcDbLine
10
61.929083
20
1.572583
30
0
11
61.979507
21
1.633633
31
0
39
0
210
0
220
0
230
1
0
LINE
5
98
100
AcDbEntity
8
1
62
256
6
ByLayer
370
-1
48
1
60
0
100
AcDbLine
10
67.543159
20
6.387995
30
0
11
67.491519
21
6.326946
31
0
39
0
210
0
220
0
230
1
0
LINE
5
99
100
AcDbEntity
8
1
62
256
6
ByLayer
370
-1
48
1
60
0
100
AcDbLine
10
62.007588
20
6.057524
30
0
11
62.084913
21
6.042318
31
0
39
0
210
0
220
0
230
1
0
LINE
5
9A
100
AcDbEntity
8
1
62
256
6
ByLayer
370
-1
48
1
60
0
100
AcDbLine
10
61.584789
20
3.301003
30
0
11
61.507464
21
3.285797
31
0
39
0
210
0
220
0
230
1
0
LINE
5
9B
100
AcDbEntity
8
1
62
256
6
ByLayer
370
-1
48
1
60
0
100
AcDbLine
10
67.677647
20
6.157587
30
0
11
67.964602
21
4.675694
31
0
39
0
210
0
220
0
230
1
0
LINE
5
9C
100
AcDbEntity
8
1
62
256
6
ByLayer
370
-1
48
1
60
0
100
AcDbLine
10
62.170545
20
1.480471
30
0
11
62.171372
21
1.560152
31
0
39
0
210
0
220
0
230
1
0
LINE
5
9D
100
AcDbEntity
8
1
62
256
6
ByLayer
370
-1
48
1
60
0
100
AcDbLine
10
67.677647
20
6.157587
30
0
11
67.599106
21
6.142381
31
0
39
0
210
0
220
0
230
1
0
LINE
5
9E
100
AcDbEntity
8
1
62
256
6
ByLayer
370
-1
48
1
60
0
100
AcDbLine
10
61.794594
20
1.802991
30
0
11
61.87192
21
1.818198
31
0
39
0
210
0
220
0
230
1
0
LINE
5
9F
100
AcDbEntity
8
1
62
256
6
ByLayer
370
-1
48
1
60
0
100
AcDbLine
10
61.507816
20
3.476605
30
0
11
61.585142
21
3.461399
31
0
39
0
210
0
220
0
230
1
0
LINE
5
A0
100
AcDbEntity
8
1
62
256
6
ByLayer
370
-1
48
1
60
0
100
AcDbLine
10
63.623291
20
1.575353
30
0
11
63.617145
21
1.654854
31
0
39
0
210
0
220
0
230
1
0
LINE
5
A1
100
AcDbEntity
8
1
62
256
6
ByLayer
370
-1
48
1
60
0
100
AcDbLine
10
67.886237
20
4.659576
30
0
11
67.964778
21
4.674782
31
0
39
0
210
0
220
0
230
1
0
LINE
5
A2
100
AcDbEntity
8
1
62
256
6
ByLayer
370
-1
48
1
60
0
100
AcDbLine
10
65.848951
20
6.385226
30
0
11
65.853881
21
6.305725
31
0
39
0
210
0
220
0
230
1
0
LINE
5
A3
100
AcDbEntity
8
1
62
256
6
ByLayer
370
-1
48
1
60
0
100
AcDbLine
10
67.141531
20
6.475957
30
0
11
67.146461
21
6.396456
31
0
39
0
210
0
220
0
230
1
0
LINE
5
A4
100
AcDbEntity
8
1
62
256
6
ByLayer
370
-1
48
1
60
0
100
AcDbLine
10
62.172545
20
1.480434
30
0
11
62.173213
21
1.560119
31
0
39
0
210
0
220
0
230
1
0
LINE
5
A5
100
AcDbEntity
8
1
62
256
6
ByLayer
370
-1
48
1
60
0
100
AcDbLine
10
67.639011
20
-0.000991
30
0
11
67.988989
21
-1.644437
31
0
39
0
210
0
220
0
230
1
0
LINE
5
A6
100
AcDbEntity
8
1
62
256
6
ByLayer
370
-1
48
1
60
0
100
AcDbLine
10
67.518239
20
-0.088292
30
0
11
67.639011
21
-0.000991
31
0
39
0
210
0
220
0
230
1
0
LINE
5
A7
100
AcDbEntity
8
1
62
256
6
ByLayer
370
-1
48
1
60
0
100
AcDbLine
10
67.510992
20
-3.843569
30
0
11
67.61157
21
-3.990168
31
0
39
0
210
0
220
0
230
1
0
LINE
5
A8
100
AcDbEntity
8
1
62
256
6
ByLayer
370
-1
48
1
60
0
100
AcDbLine
10
67.300754
20
-4.078681
30
0
11
67.401332
21
-4.22528
31
0
39
0
210
0
220
0
230
1
0
LINE
5
A9
100
AcDbEntity
8
1
62
256
6
ByLayer
370
-1
48
1
60
0
100
AcDbLine
10
67.401332
20
-4.22528
30
0
11
66.963504
21
-4.354729
31
0
39
0
210
0
220
0
230
1
0
LINE
5
AA
100
AcDbEntity
8
1
62
256
6
ByLayer
370
-1
48
1
60
0
100
AcDbLine
10
67.992319
20
-1.834861
30
0
11
67.61157
21
-3.990168
31
0
39
0
210
0
220
0
230
1
0
LINE
5
AB
100
AcDbEntity
8
1
62
256
6
ByLayer
370
-1
48
1
60
0
100
AcDbLine
10
67.476048
20
-0.679218
30
0
11
67.649372
21
-1.493124
31
0
39
0
210
0
220
0
230
1
0
LINE
5
AC
100
AcDbEntity
8
1
62
256
6
ByLayer
370
-1
48
1
60
0
100
AcDbLine
10
67.773457
20
-1.731839
30
0
11
67.992319
21
-1.834861
31
0
39
0
210
0
220
0
230
1
0
LINE
5
AD
100
AcDbEntity
8
1
62
256
6
ByLayer
370
-1
48
1
60
0
100
AcDbLine
10
67.496323
20
-3.300611
30
0
11
67.773457
21
-1.731839
31
0
39
0
210
0
220
0
230
1
0
LINE
5
AE
100
AcDbEntity
8
1
62
256
6
ByLayer
370
-1
48
1
60
0
100
AcDbLine
10
67.198648
20
0.147751
30
0
11
67.31942
21
0.235053
31
0
39
0
210
0
220
0
230
1
0
LINE
5
AF
100
AcDbEntity
8
1
62
256
6
ByLayer
370
-1
48
1
60
0
100
AcDbLine
10
67.770127
20
-1.541415
30
0
11
67.517747
21
-0.356276
31
0
39
0
210
0
220
0
230
1
0
LINE
5
B0
100
AcDbEntity
8
1
62
256
6
ByLayer
370
-1
48
1
60
0
100
AcDbLine
10
67.654484
20
-1.785437
30
0
11
67.382527
21
-3.324906
31
0
39
0
210
0
220
0
230
1
0
LINE
5
B1
100
AcDbEntity
8
1
62
256
6
ByLayer
370
-1
48
1
60
0
100
AcDbLine
10
67.770127
20
-1.541415
30
0
11
67.988989
21
-1.644437
31
0
39
0
210
0
220
0
230
1
0
LINE
5
B2
100
AcDbEntity
8
1
62
256
6
ByLayer
370
-1
48
1
60
0
100
AcDbLine
10
67.31942
20
0.235053
30
0
11
67.089941
21
0.215014
31
0
39
0
210
0
220
0
230
1
0
LINE
5
B3
100
AcDbEntity
8
SK1
62
256
6
ByLayer
370
-1
48
1
60
0
100
AcDbLine
10
-48.6
20
-9.99675
30
0
11
-48.6
21
-5.922852
31
0
39
0
210
0
220
0
230
1
0
LINE
5
B4
100
AcDbEntity
8
SK1
62
256
6
ByLayer
370
-1
48
1
60
0
100
AcDbLine
10
-48.6
20
5.922852
30
0
11
-48.6
21
9.99675
31
0
39
0
210
0
220
0
230
1
0
LINE
5
B5
100
AcDbEntity
8
SK1
62
256
6
ByLayer
370
-1
48
1
60
0
100
AcDbLine
10
-0.15
20
9.75
30
0
11
-0.15
21
-9.75
31
0
39
0
210
0
220
0
230
1
0
LINE
5
B6
100
AcDbEntity
8
SK1
62
256
6
ByLayer
370
-1
48
1
60
0
100
AcDbLine
10
-49
20
5.922852
30
0
11
-48.6
21
5.922852
31
0
39
0
210
0
220
0
230
1
0
LINE
5
B7
100
AcDbEntity
8
SK1
62
256
6
ByLayer
370
-1
48
1
60
0
100
AcDbLine
10
-47.633814
20
-5.299321
30
0
11
-47.633814
21
-9.640417
31
0
39
0
210
0
220
0
230
1
0
LINE
5
B8
100
AcDbEntity
8
SK1
62
256
6
ByLayer
370
-1
48
1
60
0
100
AcDbLine
10
-47.633814
20
9.640417
30
0
11
-47.633814
21
5.299321
31
0
39
0
210
0
220
0
230
1
0
LINE
5
B9
100
AcDbEntity
8
SK1
62
256
6
ByLayer
370
-1
48
1
60
0
100
AcDbLine
10
-50
20
4.01082
30
0
11
-50
21
-4.01082
31
0
39
0
210
0
220
0
230
1
0
LINE
5
BA
100
AcDbEntity
8
SK1
62
256
6
ByLayer
370
-1
48
1
60
0
100
AcDbLine
10
-50
20
-4.01082
30
0
11
-50
21
-8.99675
31
0
39
0
210
0
220
0
230
1
0
LINE
5
BB
100
AcDbEntity
8
SK1
62
256
6
ByLayer
370
-1
48
1
60
0
100
AcDbLine
10
-50
20
8.99675
30
0
11
-50
21
4.01082
31
0
39
0
210
0
220
0
230
1
0
LINE
5
BC
100
AcDbEntity
8
SK1
62
256
6
ByLayer
370
-1
48
1
60
0
100
AcDbLine
10
-1.551212
20
9.787477
30
0
11
-1.551212
21
-9.787477
31
0
39
0
210
0
220
0
230
1
0
LINE
5
BD
100
AcDbEntity
8
SK1
62
256
6
ByLayer
370
-1
48
1
60
0
100
AcDbLine
10
-1.382165
20
9.75
30
0
11
-1.382165
21
-9.75
31
0
39
0
210
0
220
0
230
1
0
LINE
5
BE
100
AcDbEntity
8
SK1
62
256
6
ByLayer
370
-1
48
1
60
0
100
AcDbLine
10
-2
20
-9.99675
30
0
11
-2
21
9.99675
31
0
39
0
210
0
220
0
230
1
0
LINE
5
BF
100
AcDbEntity
8
SK1
62
256
6
ByLayer
370
-1
48
1
60
0
100
AcDbLine
10
-6.5
20
-5.922852
30
0
11
-46.6
21
-5.922852
31
0
39
0
210
0
220
0
230
1
0
LINE
5
C0
100
AcDbEntity
8
SK1
62
256
6
ByLayer
370
-1
48
1
60
0
100
AcDbLine
10
-49
20
-5.922852
30
0
11
-49
21
-9.99675
31
0
39
0
210
0
220
0
230
1
0
LINE
5
C1
100
AcDbEntity
8
SK1
62
256
6
ByLayer
370
-1
48
1
60
0
100
AcDbLine
10
-49
20
9.99675
30
0
11
-49
21
5.922852
31
0
39
0
210
0
220
0
230
1
0
LINE
5
C2
100
AcDbEntity
8
SK1
62
256
6
ByLayer
370
-1
48
1
60
0
100
AcDbLine
10
-46.6
20
5.922852
30
0
11
-46.6
21
9.99675
31
0
39
0
210
0
220
0
230
1
0
LINE
5
C3
100
AcDbEntity
8
SK1
62
256
6
ByLayer
370
-1
48
1
60
0
100
AcDbLine
10
-46.6
20
-9.99675
30
0
11
-46.6
21
-5.922852
31
0
39
0
210
0
220
0
230
1
0
LINE
5
C4
100
AcDbEntity
8
SK1
62
256
6
ByLayer
370
-1
48
1
60
0
100
AcDbLine
10
-6.5
20
5.922852
30
0
11
-6.5
21
-5.922852
31
0
39
0
210
0
220
0
230
1
0
LINE
5
C5
100
AcDbEntity
8
SK1
62
256
6
ByLayer
370
-1
48
1
60
0
100
AcDbLine
10
-48.516223
20
-5.746514
30
0
11
-48.516223
21
-9.893294
31
0
39
0
210
0
220
0
230
1
0
LINE
5
C6
100
AcDbEntity
8
SK1
62
256
6
ByLayer
370
-1
48
1
60
0
100
AcDbLine
10
-48.516223
20
9.893294
30
0
11
-48.516223
21
5.746514
31
0
39
0
210
0
220
0
230
1
0
LINE
5
C7
100
AcDbEntity
8
SK1
62
256
6
ByLayer
370
-1
48
1
60
0
100
AcDbLine
10
-48.6
20
-5.922852
30
0
11
-49
21
-5.922852
31
0
39
0
210
0
220
0
230
1
0
LINE
5
C8
100
AcDbEntity
8
SK1
62
256
6
ByLayer
370
-1
48
1
60
0
100
AcDbLine
10
-46.6
20
5.922852
30
0
11
-6.5
21
5.922852
31
0
39
0
210
0
220
0
230
1
0
MTEXT
5
1C4
100
AcDbEntity
8
SK6
62
256
6
ByLayer
370
-1
48
1
60
0
100
AcDbMText
10
0.79375
20
-80.79375
30
0
210
0
220
0
230
1
1
\W00.728;\fsimplex.shx,bigfont.shx;880-D1300L20-04 
40
3.175
41
0
44
1.084337
50
0
71
7
72
5
7
DEFAULT
0
DIMENSION
5
1F4
100
AcDbEntity
8
SK2
62
256
6
ByLayer
370
-3
48
1
60
0
100
AcDbDimension
2
DimnDraft3D1
10
68
20
-51.36955
30
0
11
9
21
-51.36955
31
0
70
32
71
5
72
1
41
1
210
0
220
0
230
1
3
Standard
100
AcDbAlignedDimension
13
-50
23
-11.5875
33
0
14
68
24
-8.0875
34
0
50
0
100
AcDbRotatedDimension
1001
ACAD
1000
DSTYLE
1002
{
1070
   279
1070
     0
1070
   172
1070
     1
1070
   173
1070
     1
1070
   340
1005
1C5
1070
   271
1070
     1
1070
   272
1070
     2
1070
    77
1070
     1
1070
    73
1070
     0
1070
   171
1070
     3
1070
   274
1070
     4
1070
   177
1070
   150
1070
   176
1070
     9
1070
   178
1070
    43
1070
    78
1070
     8
1070
    48
1040
-0.005
1070
    41
1041
4.175
1070
   147
1041
2.25
1070
    42
1041
1.5875
1070
    44
1041
3.175
1070
   140
1041
4.5
1070
   343
1005
0
1070
   344
1005
0
1002
}
0
DIMENSION
5
1FE
100
AcDbEntity
8
SK2
62
256
6
ByLayer
370
-3
48
1
60
0
100
AcDbDimension
2
DimnDraft3D2
10
0
20
-39.4008
30
0
11
-25
21
-39.4008
31
0
70
32
71
5
72
1
41
1
210
0
220
0
230
1
3
Standard
100
AcDbAlignedDimension
13
-50
23
-11.5875
33
0
14
0
24
-14.0875
34
0
50
0
100
AcDbRotatedDimension
1001
ACAD
1000
DSTYLE
1002
{
1070
   279
1070
     0
1070
   172
1070
     1
1070
   173
1070
     1
1070
   340
1005
1C5
1070
   271
1070
     1
1070
   272
1070
     2
1070
    77
1070
     1
1070
    73
1070
     0
1070
   171
1070
     3
1070
   274
1070
     4
1070
   177
1070
   150
1070
   176
1070
     9
1070
   178
1070
    43
1070
    78
1070
     8
1070
    48
1040
-0.005
1070
    41
1041
4.175
1070
   147
1041
2.25
1070
    42
1041
1.5875
1070
    44
1041
3.175
1070
   140
1041
4.5
1070
   343
1005
0
1070
   344
1005
0
1002
}
0
DIMENSION
5
209
100
AcDbEntity
8
2
62
256
6
ByLayer
370
-3
48
1
60
0
100
AcDbDimension
2
DimnDraft3D3
10
68
20
-39.4008
30
0
11
34
21
-39.4008
31
0
70
32
71
5
72
1
41
1
210
0
220
0
230
1
3
Standard
100
AcDbAlignedDimension
13
0
23
-14.0875
33
0
14
68
24
-8.0875
34
0
50
0
100
AcDbRotatedDimension
1001
ACAD
1000
DSTYLE
1002
{
1070
   279
1070
     0
1070
   172
1070
     1
1070
   173
1070
     1
1070
   340
1005
1C5
1070
   271
1070
     1
1070
   272
1070
     2
1070
    77
1070
     1
1070
    73
1070
     0
1070
   171
1070
     3
1070
   274
1070
     4
1070
   177
1070
   150
1070
   176
1070
     9
1070
   178
1070
    43
1070
    78
1070
     8
1070
    48
1040
-0.005
1070
    41
1041
4.175
1070
   147
1041
2.25
1070
    42
1041
1.5875
1070
    44
1041
3.175
1070
   140
1041
4.5
1070
   343
1005
0
1070
   344
1005
0
1002
}
0
DIMENSION
5
213
100
AcDbEntity
8
SK2
62
256
6
ByLayer
370
-3
48
1
60
0
100
AcDbDimension
2
DimnDraft3D4
10
68
20
-29.4008
30
0
11
40.5
21
-29.4008
31
0
70
32
71
5
72
1
41
1
210
0
220
0
230
1
3
Standard
100
AcDbAlignedDimension
13
13
23
-11.5875
33
0
14
68
24
-8.0875
34
0
50
0
100
AcDbRotatedDimension
1001
ACAD
1000
DSTYLE
1002
{
1070
   279
1070
     0
1070
   172
1070
     1
1070
   173
1070
     1
1070
   340
1005
1C5
1070
   271
1070
     1
1070
   272
1070
     2
1070
    77
1070
     1
1070
    73
1070
     0
1070
   171
1070
     3
1070
   274
1070
     4
1070
   177
1070
   150
1070
   176
1070
     9
1070
   178
1070
    43
1070
    78
1070
     8
1070
    48
1040
-0.005
1070
    41
1041
4.175
1070
   147
1041
2.25
1070
    42
1041
1.5875
1070
    44
1041
3.175
1070
   140
1041
4.5
1070
   343
1005
0
1070
   344
1005
0
1002
}
0
DIMENSION
5
21E
100
AcDbEntity
8
SK2
62
256
6
ByLayer
370
-3
48
1
60
0
100
AcDbDimension
2
DimnDraft3D5
10
-61.9
20
-10
30
0
11
-62.1
21
-27.370395
31
0
70
33
71
5
72
1
41
1
210
0
220
0
230
1
3
Standard
100
AcDbAlignedDimension
13
-51.5875
23
10
33
0
14
-51.5875
24
-10
34
0
1001
ACAD
1000
DSTYLE
1002
{
1070
   279
1070
     0
1070
    74
1070
     0
1070
   173
1070
     1
1070
   340
1005
1C5
1070
   271
1070
     2
1070
   272
1070
     2
1070
    77
1070
     1
1070
    73
1070
     0
1070
   171
1070
     3
1070
   274
1070
     4
1070
   177
1070
   150
1070
   176
1070
     9
1070
   178
1070
    43
1070
    78
1070
     8
1070
    48
1040
-0.005
1070
    41
1041
4.175
1070
   147
1041
2.25
1070
    42
1041
1.5875
1070
    44
1041
3.175
1070
   140
1041
4.5
1070
   343
1005
0
1070
   344
1005
0
1002
}
0
DIMENSION
5
229
100
AcDbEntity
8
SK2
62
256
6
ByLayer
370
-3
48
1
60
0
100
AcDbDimension
2
DimnDraft3D6
10
-71.9
20
12.5
30
0
11
-72.1
21
4.121053
31
0
70
33
71
5
72
1
41
1
210
0
220
0
230
1
3
Standard
100
AcDbAlignedDimension
13
-1.5875
23
-12.5
33
0
14
-1.5875
24
12.5
34
0
1001
ACAD
1000
DSTYLE
1002
{
1070
   279
1070
     0
1070
    74
1070
     0
1070
   173
1070
     1
1070
   340
1005
1C5
1070
   271
1070
     1
1070
   272
1070
     2
1070
    77
1070
     1
1070
    73
1070
     0
1070
   171
1070
     3
1070
   274
1070
     4
1070
   177
1070
   150
1070
   176
1070
     9
1070
   178
1070
    43
1070
    78
1070
     8
1070
    48
1040
-0.005
1070
    41
1041
4.175
1070
   147
1041
2.25
1070
    42
1041
1.5875
1070
    44
1041
3.175
1070
   140
1041
4.5
1070
   343
1005
0
1070
   344
1005
0
1002
}
0
DIMENSION
5
234
100
AcDbEntity
8
2
62
256
6
ByLayer
370
-3
48
1
60
0
100
AcDbDimension
2
DimnDraft3D7
10
98.15
20
-6.5
30
0
11
91.6
21
-22.745395
31
0
70
33
71
5
72
1
41
1
210
0
220
0
230
1
3
Standard
100
AcDbAlignedDimension
13
69.5875
23
6.5
33
0
14
69.5875
24
-6.5
34
0
1001
ACAD
1000
DSTYLE
1002
{
1070
   279
1070
     0
1070
    74
1070
     0
1070
   173
1070
     1
1070
   340
1005
1C5
1070
   271
1070
     2
1070
   272
1070
     2
1070
    77
1070
     1
1070
    73
1070
     0
1070
   171
1070
     3
1070
   274
1070
     4
1070
   177
1070
   150
1070
   176
1070
     9
1070
   178
1070
    43
1070
    78
1070
     8
1070
    48
1040
-0.005
1070
    41
1041
4.175
1070
   147
1041
2.25
1070
    42
1041
1.5875
1070
    44
1041
3.175
1070
   140
1041
4.5
1070
   343
1005
0
1070
   344
1005
0
1002
}
0
ENDSEC
0
SECTION
2
OBJECTS
0
DICTIONARY
5
265
330
0
100
AcDbDictionary
280
0
281
1
3
ACAD_GROUP
350
266
3
ACAD_MLINESTYLE
350
267
0
DICTIONARY
5
266
330
0
100
AcDbDictionary
280
0
281
1
0
DICTIONARY
5
267
330
0
100
AcDbDictionary
280
0
281
1
3
Standard
350
18
0
MLINESTYLE
5
18
330
267
100
AcDbMlineStyle
2
Standard
70
0
3

62
256
51
90
52
90
71
2
49
-0.5
62
256
6
ByLayer
49
0.5
62
256
6
ByLayer
0
RASTERVARIABLES
5
253
330

100
AcDbRasterVariables
90
0
70
1
71
1
72
1
0
ENDSEC
0
EOF
