0
SECTION
2
HEADER
9
$ACADVER
1
AC1015
9
$DWGCODEPAGE
3
ANSI_1252
9
$HANDSEED
5
276
9
$ANGBASE
50
0
9
$ANGDIR
70
0
9
$ATTMODE
70
1
9
$AUNITS
70
0
9
$AUPREC
70
0
9
$CECOLOR
62
256
9
$CELTSCALE
40
1
9
$CELTYPE
6
ByLayer
9
$CELWEIGHT
370
-1
9
$CLAYER
8
0
9
$CMLJUST
70
0
9
$CMLSCALE
40
1
9
$CMLSTYLE
2
Standard
9
$DIMSTYLE
2
Standard
9
$TEXTSIZE
40
0.2
9
$TEXTSTYLE
7
Standard
9
$LUNITS
70
2
9
$LUPREC
70
4
9
$EXTNAMES
290
1
9
$INSUNITS
70
4
9
$LTSCALE
40
1
9
$LWDISPLAY
290
0
9
$PDMODE
70
0
9
$PDSIZE
40
0
9
$PLINEGEN
70
0
0
ENDSEC
0
SECTION
2
CLASSES
0
CLASS
1
RASTERVARIABLES
2
AcDbRasterVariables
3
ISM
90
0
280
0
281
0
0
ENDSEC
0
SECTION
2
TABLES
0
TABLE
2
VPORT
5
26c
100
AcDbSymbolTable
0
VPORT
5
1
100
AcDbSymbolTableRecord
100
AcDbViewportTableRecord
2
*Active
70
0
10
0
20
0
11
1
21
1
12
-1
22
1
13
0
23
0
14
0.5
24
0.5
15
10
25
10
16
0
26
0
36
1
17
0
27
0
37
0
0
ENDTAB
0
TABLE
2
LTYPE
5
26d
100
AcDbSymbolTable
0
LTYPE
5
14
100
AcDbSymbolTableRecord
100
AcDbLinetypeTableRecord
70
0
2
ByBlock
3

72
65
73
0
40
0
0
LTYPE
5
15
100
AcDbSymbolTableRecord
100
AcDbLinetypeTableRecord
70
0
2
ByLayer
3

72
65
73
0
40
0
0
LTYPE
5
16
100
AcDbSymbolTableRecord
100
AcDbLinetypeTableRecord
70
0
2
CONTINUOUS
3
Solid line
72
65
73
0
40
0
0
LTYPE
5
3B
100
AcDbSymbolTableRecord
100
AcDbLinetypeTableRecord
70
0
2
DASHED
3
__ __ __ __ __ __ __ __ __
72
65
73
2
40
25.72
49
12.86
74
0
49
-12.86
74
0
0
LTYPE
5
3C
100
AcDbSymbolTableRecord
100
AcDbLinetypeTableRecord
70
0
2
HIDDEN
3
_ _ _ _ _ _ _ _ _ _ _ _ _ _ _
72
65
73
2
40
0.5
49
0.25
74
0
49
-0.25
74
0
0
LTYPE
5
3D
100
AcDbSymbolTableRecord
100
AcDbLinetypeTableRecord
70
0
2
PHANTOM
3
____ _ _ ____ _ _ _____ _ _ ____
72
65
73
6
40
50.5
49
18
74
0
49
-6.5
74
0
49
6.5
74
0
49
-6.5
74
0
49
6.5
74
0
49
-6.5
74
0
0
LTYPE
5
3E
100
AcDbSymbolTableRecord
100
AcDbLinetypeTableRecord
70
0
2
CENTER
3
____ _ ____ _ ____ _ ____
72
65
73
4
40
47.5
49
22
74
0
49
-8.5
74
0
49
8.5
74
0
49
-8.5
74
0
0
LTYPE
5
3F
100
AcDbSymbolTableRecord
100
AcDbLinetypeTableRecord
70
0
2
DOT
3
.........................
72
65
73
2
40
10
49
0
74
0
49
-10
74
0
0
LTYPE
5
40
100
AcDbSymbolTableRecord
100
AcDbLinetypeTableRecord
70
0
2
DASHDOT
3
_._._._._._._._._._._._._._._._.
72
65
73
4
40
70
49
31
74
0
49
-13
74
0
49
13
74
0
49
-13
74
0
0
ENDTAB
0
TABLE
2
LAYER
5
26e
100
AcDbSymbolTable
0
LAYER
5
10
100
AcDbSymbolTableRecord
100
AcDbLayerTableRecord
2
0
70
0
62
7
6
CONTINUOUS
290
1
370
-3
390
0
0
LAYER
5
42
100
AcDbSymbolTableRecord
100
AcDbLayerTableRecord
2
81
70
0
62
-3
6
CONTINUOUS
290
1
370
-3
390
0
0
LAYER
5
44
100
AcDbSymbolTableRecord
100
AcDbLayerTableRecord
2
80
70
0
62
-6
6
CONTINUOUS
290
1
370
-3
390
0
0
LAYER
5
57
100
AcDbSymbolTableRecord
100
AcDbLayerTableRecord
2
1
70
0
62
4
6
CONTINUOUS
290
1
370
-3
390
0
0
LAYER
5
61
100
AcDbSymbolTableRecord
100
AcDbLayerTableRecord
2
4
70
0
62
-2
6
CENTER
290
1
370
-3
390
0
0
LAYER
5
205
100
AcDbSymbolTableRecord
100
AcDbLayerTableRecord
2
2
70
0
62
7
6
CONTINUOUS
290
1
370
-3
390
0
0
LAYER
5
258
100
AcDbSymbolTableRecord
100
AcDbLayerTableRecord
2
SK1
70
0
62
4
6
CONTINUOUS
290
1
370
-3
390
0
0
LAYER
5
259
100
AcDbSymbolTableRecord
100
AcDbLayerTableRecord
2
SK4
70
0
62
2
6
CENTER
290
1
370
-3
390
0
0
LAYER
5
25a
100
AcDbSymbolTableRecord
100
AcDbLayerTableRecord
2
SK6
70
0
62
5
6
CONTINUOUS
290
1
370
-3
390
0
0
LAYER
5
25b
100
AcDbSymbolTableRecord
100
AcDbLayerTableRecord
2
SK2
70
0
62
7
6
CONTINUOUS
290
1
370
-3
390
0
0
ENDTAB
0
TABLE
2
STYLE
5
26f
100
AcDbSymbolTable
0
STYLE
5
11
100
AcDbSymbolTableRecord
100
AcDbTextStyleTableRecord
2
Standard
3
txt
70
0
71
0
40
0
41
1
42
0
50
0
0
STYLE
5
1C9
100
AcDbSymbolTableRecord
100
AcDbTextStyleTableRecord
2
DEFAULT
3
simplex.shx
70
0
71
0
40
0
41
1
42
0
50
0
0
STYLE
5
1EC
100
AcDbSymbolTableRecord
100
AcDbTextStyleTableRecord
2
DWGDirectTextStyle
3
SIMPLEX
70
0
71
0
40
0
41
1
42
0
50
0
0
ENDTAB
0
TABLE
2
DIMSTYLE
5
270
100
AcDbSymbolTable
100
AcDbDimStyleTable
0
DIMSTYLE
105
27
100
AcDbSymbolTableRecord
100
AcDbDimStyleTableRecord
2
Standard
70
0
3
<>
41
0.18
42
0.0625
44
0.18
140
0.18
147
0.09
73
0
74
0
77
1
271
2
275
0
278
52
280
0
340
11
0
ENDTAB
0
TABLE
2
VIEW
5
271
100
AcDbSymbolTable
0
ENDTAB
0
TABLE
2
UCS
5
272
100
AcDbSymbolTable
0
ENDTAB
0
TABLE
2
APPID
5
273
100
AcDbSymbolTable
0
APPID
5
12
100
AcDbSymbolTableRecord
100
AcDbRegAppTableRecord
2
ACAD
70
0
0
ENDTAB
0
TABLE
2
BLOCK_RECORD
5
274
100
AcDbSymbolTable
0
BLOCK_RECORD
5
1F
100
AcDbSymbolTableRecord
100
AcDbBlockTableRecord
2
*Model_Space
340
0
70
0
0
BLOCK_RECORD
5
1B
100
AcDbSymbolTableRecord
100
AcDbBlockTableRecord
2
*Paper_Space
340
0
70
0
0
BLOCK_RECORD
5
23
100
AcDbSymbolTableRecord
100
AcDbBlockTableRecord
2
*Paper_Space0
340
0
70
0
0
BLOCK_RECORD
5
1EE
100
AcDbSymbolTableRecord
100
AcDbBlockTableRecord
2
DimnDraft3D1
340
0
70
0
0
BLOCK_RECORD
5
1F9
100
AcDbSymbolTableRecord
100
AcDbBlockTableRecord
2
DimnDraft3D2
340
0
70
0
0
BLOCK_RECORD
5
203
100
AcDbSymbolTableRecord
100
AcDbBlockTableRecord
2
DimnDraft3D3
340
0
70
0
0
BLOCK_RECORD
5
20E
100
AcDbSymbolTableRecord
100
AcDbBlockTableRecord
2
DimnDraft3D4
340
0
70
0
0
BLOCK_RECORD
5
218
100
AcDbSymbolTableRecord
100
AcDbBlockTableRecord
2
DimnDraft3D5
340
0
70
0
0
BLOCK_RECORD
5
223
100
AcDbSymbolTableRecord
100
AcDbBlockTableRecord
2
DimnDraft3D6
340
0
70
0
0
BLOCK_RECORD
5
22E
100
AcDbSymbolTableRecord
100
AcDbBlockTableRecord
2
DimnDraft3D7
340
0
70
0
0
ENDTAB
0
ENDSEC
0
SECTION
2
BLOCKS
0
BLOCK
5
20
100
AcDbEntity
8
0
100
AcDbBlockBegin
2
*Model_Space
70
0
10
0
20
0
30
0
3
*Model_Space
0
ENDBLK
5
21
100
AcDbEntity
8
0
100
AcDbBlockEnd
0
BLOCK
5
1C
100
AcDbEntity
8
0
100
AcDbBlockBegin
2
*Paper_Space
70
0
10
0
20
0
30
0
3
*Paper_Space
0
ENDBLK
5
1D
100
AcDbEntity
8
0
100
AcDbBlockEnd
0
BLOCK
5
24
100
AcDbEntity
8
0
100
AcDbBlockBegin
2
*Paper_Space0
70
0
10
0
20
0
30
0
3
*Paper_Space0
0
ENDBLK
5
25
100
AcDbEntity
8
0
100
AcDbBlockEnd
0
BLOCK
5
1F6
100
AcDbEntity
8
0
100
AcDbBlockBegin
2
DimnDraft3D1
70
0
10
0
20
0
30
0
3
DimnDraft3D1
0
MTEXT
5
1EF
100
AcDbEntity
8
SK2
62
256
6
ByLayer
370
-1
48
1
60
0
100
AcDbMText
10
6.906579
20
-48.365825
30
0
210
0
220
0
230
1
1
\W01.000;\fsimplex.shx,bigfont.shx;(128) 
40
4.5
41
0
44
1.084337
50
0
71
7
72
5
7
DEFAULT
0
LINE
5
1F1
100
AcDbEntity
8
SK2
62
256
6
ByLayer
370
-1
48
1
60
0
100
AcDbLine
10
-50
20
-11.5875
30
0
11
-50
21
-54.634575
31
0
39
0
210
0
220
0
230
1
0
LINE
5
1F2
100
AcDbEntity
8
SK2
62
256
6
ByLayer
370
-1
48
1
60
0
100
AcDbLine
10
78
20
-7.8375
30
0
11
78
21
-54.634575
31
0
39
0
210
0
220
0
230
1
0
LINE
5
1F3
100
AcDbEntity
8
SK2
62
256
6
ByLayer
370
-1
48
1
60
0
100
AcDbLine
10
-50
20
-51.459575
30
0
11
78
21
-51.459575
31
0
39
0
210
0
220
0
230
1
0
SOLID
5
1F4
100
AcDbEntity
8
SK2
62
256
6
ByLayer
370
-1
48
1
60
0
100
AcDbTrace
10
-50
20
-51.459575
30
0
11
-45.825003
21
-50.534
31
0
12
-45.824997
22
-52.38515
32
0
13
-50
23
-51.459575
33
0
39
0
210
0
220
0
230
1
0
SOLID
5
1F5
100
AcDbEntity
8
SK2
62
256
6
ByLayer
370
-1
48
1
60
0
100
AcDbTrace
10
78
20
-51.459575
30
0
11
73.825003
21
-52.38515
31
0
12
73.824997
22
-50.534
32
0
13
78
23
-51.459575
33
0
39
0
210
0
220
0
230
1
0
ENDBLK
5
1F7
100
AcDbEntity
8
0
100
AcDbBlockEnd
0
BLOCK
5
200
100
AcDbEntity
8
0
100
AcDbBlockBegin
2
DimnDraft3D2
70
0
10
0
20
0
30
0
3
DimnDraft3D2
0
MTEXT
5
1FA
100
AcDbEntity
8
SK2
62
256
6
ByLayer
370
-1
48
1
60
0
100
AcDbMText
10
-26.503947
20
-38.365825
30
0
210
0
220
0
230
1
1
\W01.000;\fsimplex.shx,bigfont.shx;50 
40
4.5
41
0
44
1.084337
50
0
71
7
72
5
7
DEFAULT
0
LINE
5
1FB
100
AcDbEntity
8
SK2
62
256
6
ByLayer
370
-1
48
1
60
0
100
AcDbLine
10
-50
20
-11.5875
30
0
11
-50
21
-42.665825
31
0
39
0
210
0
220
0
230
1
0
LINE
5
1FC
100
AcDbEntity
8
SK2
62
256
6
ByLayer
370
-1
48
1
60
0
100
AcDbLine
10
0
20
-14.0875
30
0
11
0
21
-42.665825
31
0
39
0
210
0
220
0
230
1
0
LINE
5
1FD
100
AcDbEntity
8
SK2
62
256
6
ByLayer
370
-1
48
1
60
0
100
AcDbLine
10
-50
20
-39.490825
30
0
11
0
21
-39.490825
31
0
39
0
210
0
220
0
230
1
0
SOLID
5
1FE
100
AcDbEntity
8
SK2
62
256
6
ByLayer
370
-1
48
1
60
0
100
AcDbTrace
10
-50
20
-39.490825
30
0
11
-45.825003
21
-38.56525
31
0
12
-45.824997
22
-40.4164
32
0
13
-50
23
-39.490825
33
0
39
0
210
0
220
0
230
1
0
SOLID
5
1FF
100
AcDbEntity
8
SK2
62
256
6
ByLayer
370
-1
48
1
60
0
100
AcDbTrace
10
0
20
-39.490825
30
0
11
-4.174997
21
-40.4164
31
0
12
-4.175003
22
-38.56525
32
0
13
0
23
-39.490825
33
0
39
0
210
0
220
0
230
1
0
ENDBLK
5
201
100
AcDbEntity
8
0
100
AcDbBlockEnd
0
BLOCK
5
20B
100
AcDbEntity
8
0
100
AcDbBlockBegin
2
DimnDraft3D3
70
0
10
0
20
0
30
0
3
DimnDraft3D3
0
MTEXT
5
204
100
AcDbEntity
8
2
62
256
6
ByLayer
370
-1
48
1
60
0
100
AcDbMText
10
37.496053
20
-38.365825
30
0
210
0
220
0
230
1
1
\W01.000;\fsimplex.shx,bigfont.shx;78 
40
4.5
41
0
44
1.084337
50
0
71
7
72
5
7
DEFAULT
0
LINE
5
206
100
AcDbEntity
8
2
62
256
6
ByLayer
370
-1
48
1
60
0
100
AcDbLine
10
0
20
-14.0875
30
0
11
0
21
-42.665825
31
0
39
0
210
0
220
0
230
1
0
LINE
5
207
100
AcDbEntity
8
2
62
256
6
ByLayer
370
-1
48
1
60
0
100
AcDbLine
10
78
20
-7.8375
30
0
11
78
21
-42.665825
31
0
39
0
210
0
220
0
230
1
0
LINE
5
208
100
AcDbEntity
8
2
62
256
6
ByLayer
370
-1
48
1
60
0
100
AcDbLine
10
0
20
-39.490825
30
0
11
78
21
-39.490825
31
0
39
0
210
0
220
0
230
1
0
SOLID
5
209
100
AcDbEntity
8
2
62
256
6
ByLayer
370
-1
48
1
60
0
100
AcDbTrace
10
0
20
-39.490825
30
0
11
4.174997
21
-38.56525
31
0
12
4.175003
22
-40.4164
32
0
13
0
23
-39.490825
33
0
39
0
210
0
220
0
230
1
0
SOLID
5
20A
100
AcDbEntity
8
2
62
256
6
ByLayer
370
-1
48
1
60
0
100
AcDbTrace
10
78
20
-39.490825
30
0
11
73.825003
21
-40.4164
31
0
12
73.824997
22
-38.56525
32
0
13
78
23
-39.490825
33
0
39
0
210
0
220
0
230
1
0
ENDBLK
5
20C
100
AcDbEntity
8
0
100
AcDbBlockEnd
0
BLOCK
5
215
100
AcDbEntity
8
0
100
AcDbBlockBegin
2
DimnDraft3D4
70
0
10
0
20
0
30
0
3
DimnDraft3D4
0
MTEXT
5
20F
100
AcDbEntity
8
SK2
62
256
6
ByLayer
370
-1
48
1
60
0
100
AcDbMText
10
43.996053
20
-28.365825
30
0
210
0
220
0
230
1
1
\W01.000;\fsimplex.shx,bigfont.shx;65 
40
4.5
41
0
44
1.084337
50
0
71
7
72
5
7
DEFAULT
0
LINE
5
210
100
AcDbEntity
8
SK2
62
256
6
ByLayer
370
-1
48
1
60
0
100
AcDbLine
10
13
20
-11.5875
30
0
11
13
21
-32.665825
31
0
39
0
210
0
220
0
230
1
0
LINE
5
211
100
AcDbEntity
8
SK2
62
256
6
ByLayer
370
-1
48
1
60
0
100
AcDbLine
10
78
20
-7.8375
30
0
11
78
21
-32.665825
31
0
39
0
210
0
220
0
230
1
0
LINE
5
212
100
AcDbEntity
8
SK2
62
256
6
ByLayer
370
-1
48
1
60
0
100
AcDbLine
10
13
20
-29.490825
30
0
11
78
21
-29.490825
31
0
39
0
210
0
220
0
230
1
0
SOLID
5
213
100
AcDbEntity
8
SK2
62
256
6
ByLayer
370
-1
48
1
60
0
100
AcDbTrace
10
13
20
-29.490825
30
0
11
17.174997
21
-28.56525
31
0
12
17.175003
22
-30.4164
32
0
13
13
23
-29.490825
33
0
39
0
210
0
220
0
230
1
0
SOLID
5
214
100
AcDbEntity
8
SK2
62
256
6
ByLayer
370
-1
48
1
60
0
100
AcDbTrace
10
78
20
-29.490825
30
0
11
73.825003
21
-30.4164
31
0
12
73.824997
22
-28.56525
32
0
13
78
23
-29.490825
33
0
39
0
210
0
220
0
230
1
0
ENDBLK
5
216
100
AcDbEntity
8
0
100
AcDbBlockEnd
0
BLOCK
5
220
100
AcDbEntity
8
0
100
AcDbBlockBegin
2
DimnDraft3D5
70
0
10
0
20
0
30
0
3
DimnDraft3D5
0
MTEXT
5
219
100
AcDbEntity
8
SK2
62
256
6
ByLayer
370
-1
48
1
60
0
100
AcDbMText
10
-60.975
20
-26.245395
30
0
210
0
220
0
230
1
1
\W01.000;\fsimplex.shx,bigfont.shx;20 
40
4.5
41
0
44
1.084337
50
90
71
7
72
5
7
DEFAULT
0
MTEXT
5
21A
100
AcDbEntity
8
SK2
62
256
6
ByLayer
370
-1
48
1
60
0
100
AcDbMText
10
-60.975
20
-39.745395
30
0
210
0
220
0
230
1
1
\W01.000;\fsimplex.shx,bigfont.shx;%%c 
40
4.5
41
0
44
1.084337
50
90
71
7
72
5
7
DEFAULT
0
LINE
5
21B
100
AcDbEntity
8
SK2
62
256
6
ByLayer
370
-1
48
1
60
0
100
AcDbLine
10
-51.5875
20
10
30
0
11
-61.9
21
10
31
0
39
0
210
0
220
0
230
1
0
LINE
5
21C
100
AcDbEntity
8
SK2
62
256
6
ByLayer
370
-1
48
1
60
0
100
AcDbLine
10
-51.5875
20
-10
30
0
11
-61.9
21
-10
31
0
39
0
210
0
220
0
230
1
0
LINE
5
21D
100
AcDbEntity
8
SK2
62
256
6
ByLayer
370
-1
48
1
60
0
100
AcDbLine
10
-58.725
20
10
30
0
11
-58.725
21
-40.870395
31
0
39
0
210
0
220
0
230
1
0
SOLID
5
21E
100
AcDbEntity
8
SK2
62
256
6
ByLayer
370
-1
48
1
60
0
100
AcDbTrace
10
-58.725
20
10
30
0
11
-57.799425
21
5.825003
31
0
12
-59.650575
22
5.824997
32
0
13
-58.725
23
10
33
0
39
0
210
0
220
0
230
1
0
SOLID
5
21F
100
AcDbEntity
8
SK2
62
256
6
ByLayer
370
-1
48
1
60
0
100
AcDbTrace
10
-58.725
20
-10
30
0
11
-59.650575
21
-5.825003
31
0
12
-57.799425
22
-5.824997
32
0
13
-58.725
23
-10
33
0
39
0
210
0
220
0
230
1
0
ENDBLK
5
221
100
AcDbEntity
8
0
100
AcDbBlockEnd
0
BLOCK
5
22B
100
AcDbEntity
8
0
100
AcDbBlockBegin
2
DimnDraft3D6
70
0
10
0
20
0
30
0
3
DimnDraft3D6
0
MTEXT
5
224
100
AcDbEntity
8
SK2
62
256
6
ByLayer
370
-1
48
1
60
0
100
AcDbMText
10
-70.975
20
5.246053
30
0
210
0
220
0
230
1
1
\W01.000;\fsimplex.shx,bigfont.shx;25 
40
4.5
41
0
44
1.084337
50
90
71
7
72
5
7
DEFAULT
0
MTEXT
5
225
100
AcDbEntity
8
SK2
62
256
6
ByLayer
370
-1
48
1
60
0
100
AcDbMText
10
-70.975
20
-8.253947
30
0
210
0
220
0
230
1
1
\W01.000;\fsimplex.shx,bigfont.shx;%%c 
40
4.5
41
0
44
1.084337
50
90
71
7
72
5
7
DEFAULT
0
LINE
5
226
100
AcDbEntity
8
SK2
62
256
6
ByLayer
370
-1
48
1
60
0
100
AcDbLine
10
-1.5875
20
-12.5
30
0
11
-71.9
21
-12.5
31
0
39
0
210
0
220
0
230
1
0
LINE
5
227
100
AcDbEntity
8
SK2
62
256
6
ByLayer
370
-1
48
1
60
0
100
AcDbLine
10
-1.5875
20
12.5
30
0
11
-71.9
21
12.5
31
0
39
0
210
0
220
0
230
1
0
LINE
5
228
100
AcDbEntity
8
SK2
62
256
6
ByLayer
370
-1
48
1
60
0
100
AcDbLine
10
-68.725
20
-23.75
30
0
11
-68.725
21
23.75
31
0
39
0
210
0
220
0
230
1
0
SOLID
5
229
100
AcDbEntity
8
SK2
62
256
6
ByLayer
370
-1
48
1
60
0
100
AcDbTrace
10
-68.725
20
-12.5
30
0
11
-67.799425
21
-16.674997
31
0
12
-69.650575
22
-16.675003
32
0
13
-68.725
23
-12.5
33
0
39
0
210
0
220
0
230
1
0
SOLID
5
22A
100
AcDbEntity
8
SK2
62
256
6
ByLayer
370
-1
48
1
60
0
100
AcDbTrace
10
-68.725
20
12.5
30
0
11
-69.650575
21
16.674997
31
0
12
-67.799425
22
16.675003
32
0
13
-68.725
23
12.5
33
0
39
0
210
0
220
0
230
1
0
ENDBLK
5
22C
100
AcDbEntity
8
0
100
AcDbBlockEnd
0
BLOCK
5
236
100
AcDbEntity
8
0
100
AcDbBlockBegin
2
DimnDraft3D7
70
0
10
0
20
0
30
0
3
DimnDraft3D7
0
MTEXT
5
22F
100
AcDbEntity
8
2
62
256
6
ByLayer
370
-1
48
1
60
0
100
AcDbMText
10
102.725
20
-26.438816
30
0
210
0
220
0
230
1
1
\W01.000;\fsimplex.shx,bigfont.shx;12.5 
40
4.5
41
0
44
1.084337
50
90
71
7
72
5
7
DEFAULT
0
MTEXT
5
230
100
AcDbEntity
8
2
62
256
6
ByLayer
370
-1
48
1
60
0
100
AcDbMText
10
102.725
20
-39.938816
30
0
210
0
220
0
230
1
1
\W01.000;\fsimplex.shx,bigfont.shx;%%c 
40
4.5
41
0
44
1.084337
50
90
71
7
72
5
7
DEFAULT
0
LINE
5
231
100
AcDbEntity
8
2
62
256
6
ByLayer
370
-1
48
1
60
0
100
AcDbLine
10
79.5875
20
6.25
30
0
11
108.15
21
6.25
31
0
39
0
210
0
220
0
230
1
0
LINE
5
232
100
AcDbEntity
8
2
62
256
6
ByLayer
370
-1
48
1
60
0
100
AcDbLine
10
79.5875
20
-6.25
30
0
11
108.15
21
-6.25
31
0
39
0
210
0
220
0
230
1
0
LINE
5
233
100
AcDbEntity
8
2
62
256
6
ByLayer
370
-1
48
1
60
0
100
AcDbLine
10
104.975
20
6.25
30
0
11
104.975
21
-41.063816
31
0
39
0
210
0
220
0
230
1
0
SOLID
5
234
100
AcDbEntity
8
2
62
256
6
ByLayer
370
-1
48
1
60
0
100
AcDbTrace
10
104.975
20
6.25
30
0
11
105.900575
21
2.075003
31
0
12
104.049425
22
2.074997
32
0
13
104.975
23
6.25
33
0
39
0
210
0
220
0
230
1
0
SOLID
5
235
100
AcDbEntity
8
2
62
256
6
ByLayer
370
-1
48
1
60
0
100
AcDbTrace
10
104.975
20
-6.25
30
0
11
104.049425
21
-2.075003
31
0
12
105.900575
22
-2.074997
32
0
13
104.975
23
-6.25
33
0
39
0
210
0
220
0
230
1
0
ENDBLK
5
237
100
AcDbEntity
8
0
100
AcDbBlockEnd
0
ENDSEC
0
SECTION
2
ENTITIES
0
ARC
5
CC
100
AcDbEntity
8
SK1
62
256
6
ByLayer
370
-1
48
1
60
0
100
AcDbCircle
39
0
10
1.382165
20
10.15
30
0
40
0.4
210
0
220
0
230
-1
100
AcDbArc
50
270
51
295
0
ARC
5
CD
100
AcDbEntity
8
SK1
62
256
6
ByLayer
370
-1
48
1
60
0
100
AcDbCircle
39
0
10
1.382165
20
-10.15
30
0
40
0.4
210
0
220
0
230
-1
100
AcDbArc
50
65
51
90
0
ARC
5
CE
100
AcDbEntity
8
SK1
62
256
6
ByLayer
370
-1
48
1
60
0
100
AcDbCircle
39
0
10
0.15
20
10.15
30
0
40
0.4
210
0
220
0
230
-1
100
AcDbArc
50
247.975687
51
270
0
ARC
5
CF
100
AcDbEntity
8
SK1
62
256
6
ByLayer
370
-1
48
1
60
0
100
AcDbCircle
39
0
10
0.15
20
-10.15
30
0
40
0.4
210
0
220
0
230
-1
100
AcDbArc
50
90
51
112.024313
0
ARC
5
D0
100
AcDbEntity
8
SK1
62
256
6
ByLayer
370
-1
48
1
60
0
100
AcDbCircle
39
0
10
47.894506
20
10.39675
30
0
40
0.8
210
0
220
0
230
-1
100
AcDbArc
50
250.982048
51
321
0
ARC
5
D1
100
AcDbEntity
8
SK1
62
256
6
ByLayer
370
-1
48
1
60
0
100
AcDbCircle
39
0
10
47.894506
20
-10.39675
30
0
40
0.8
210
0
220
0
230
-1
100
AcDbArc
50
39
51
109.017952
0
ELLIPSE
5
D2
100
AcDbEntity
8
1
62
256
6
ByLayer
370
-1
48
1
60
0
100
AcDbEllipse
10
4.308062
20
0
30
0
11
-264.81054358745
21
-5.77307257437624
31
0
210
0
220
0
230
-1
40
0.005816
41
-1.8472447176355
42
-1.82672532755687
0
ELLIPSE
5
D3
100
AcDbEntity
8
1
62
256
6
ByLayer
370
-1
48
1
60
0
100
AcDbEllipse
10
74.788396
20
3.529692
30
0
11
-1.25944651300884E-15
21
-1.175
31
0
210
0
220
0
230
1
40
0.996195
41
1.7844247162685
42
-2.59201020032128
0
ELLIPSE
5
D4
100
AcDbEntity
8
1
62
256
6
ByLayer
370
-1
48
1
60
0
100
AcDbEllipse
10
72.434211
20
5.277677
30
0
11
-1.23306502546846
21
-2.65326317011483
31
0
210
0
220
0
230
-1
40
0.018911
41
-0.512545222290271
42
-0.393223062518306
0
ELLIPSE
5
D5
100
AcDbEntity
8
1
62
256
6
ByLayer
370
-1
48
1
60
0
100
AcDbEllipse
10
72.543907
20
2.507444
30
0
11
1.58146201212697E-15
21
1.35
31
0
210
0
220
0
230
1
40
0.996195
41
1.37590122698886
42
1.51885076396386
0
ELLIPSE
5
D6
100
AcDbEntity
8
1
62
256
6
ByLayer
370
-1
48
1
60
0
100
AcDbEllipse
10
71.768441
20
6.179692
30
0
11
-5.35934686386741E-15
21
-5
31
0
210
0
220
0
230
1
40
0.996195
41
-0.436332312998582
42
-0.0320260714809443
0
ELLIPSE
5
D7
100
AcDbEntity
8
1
62
256
6
ByLayer
370
-1
48
1
60
0
100
AcDbEllipse
10
74.638768
20
-1.904183
30
0
11
-1
21
1.01063905508236E-15
31
0
210
0
220
0
230
1
40
0.998135
41
0
42
6.28318530717959
0
ELLIPSE
5
D8
100
AcDbEntity
8
1
62
256
6
ByLayer
370
-1
48
1
60
0
100
AcDbEllipse
10
70.214359
20
0
30
0
11
-39.8643826857334
21
0.373114704099045
31
0
210
0
220
0
230
-1
40
0.149591
41
-1.59395547372749
42
-1.47223335485844
0
ELLIPSE
5
D9
100
AcDbEntity
8
1
62
256
6
ByLayer
370
-1
48
1
60
0
100
AcDbEllipse
10
72.653063
20
2.247444
30
0
11
-1.4470236532442E-15
21
-1.35
31
0
210
0
220
0
230
1
40
0.996195
41
-2.00712863979347
42
-0.130989811983701
0
ELLIPSE
5
DA
100
AcDbEntity
8
1
62
256
6
ByLayer
370
-1
48
1
60
0
100
AcDbEllipse
10
71.838166
20
6.179692
30
0
11
4.92010403772836E-15
21
4.2
31
0
210
0
220
0
230
1
40
0.996195
41
2.70526034059122
42
2.98295464065566
0
ELLIPSE
5
DB
100
AcDbEntity
8
1
62
256
6
ByLayer
370
-1
48
1
60
0
100
AcDbEllipse
10
73.974158
20
0
30
0
11
-13.0282759696035
21
5.78789490596268
31
0
210
0
220
0
230
-1
40
0.113871
41
-1.24476709744112
42
-1.09593364767866
0
ELLIPSE
5
DC
100
AcDbEntity
8
1
62
256
6
ByLayer
370
-1
48
1
60
0
100
AcDbEllipse
10
74.797112
20
3.529692
30
0
11
-1.25944651300884E-15
21
-1.175
31
0
210
0
220
0
230
1
40
0.996195
41
-3.14159237692217
42
-2.56628827920619
0
ELLIPSE
5
DD
100
AcDbEntity
8
1
62
256
6
ByLayer
370
-1
48
1
60
0
100
AcDbEllipse
10
74.638768
20
-2.056741
30
0
11
1
21
0
31
0
210
0
220
0
230
1
40
0.998135
41
0.076576522604533
42
3.06511477049751
0
ELLIPSE
5
DE
100
AcDbEntity
8
1
62
256
6
ByLayer
370
-1
48
1
60
0
100
AcDbEllipse
10
74.527256
20
1.857444
30
0
11
-1.20926485980865
21
-0.699499662367958
31
0
210
0
220
0
230
-1
40
0.021882
41
-0.728344145743583
42
-0.0378114582684301
0
ELLIPSE
5
DF
100
AcDbEntity
8
1
62
256
6
ByLayer
370
-1
48
1
60
0
100
AcDbEllipse
10
8.7
20
3.737022
30
0
11
-3.5
21
3.53723669278827E-15
31
0
210
0
220
0
230
1
40
0.709798
41
-1.62804705979482
42
-0.393428989051913
0
ELLIPSE
5
E0
100
AcDbEntity
8
1
62
256
6
ByLayer
370
-1
48
1
60
0
100
AcDbEllipse
10
72.976826
20
1.684528
30
0
11
0.35100127149786
21
-0.605638594713783
31
0
210
0
220
0
230
1
40
0.075479
41
0.472977587146954
42
0.836273843398372
0
ELLIPSE
5
E1
100
AcDbEntity
8
1
62
256
6
ByLayer
370
-1
48
1
60
0
100
AcDbEllipse
10
77.995719
20
0
30
0
11
-1.02405130475645
21
-5.97348422746184
31
0
210
0
220
0
230
-1
40
0.131417
41
0.0168020986791049
42
1.30741571612356
0
ELLIPSE
5
E2
100
AcDbEntity
8
1
62
256
6
ByLayer
370
-1
48
1
60
0
100
AcDbEllipse
10
76.845234
20
1.837501
30
0
11
-0.157861884020847
21
0.716182327111321
31
0
210
0
220
0
230
-1
40
0.104097
41
2.3476945356814
42
-3.11650852696571
0
ELLIPSE
5
E3
100
AcDbEntity
8
1
62
256
6
ByLayer
370
-1
48
1
60
0
100
AcDbEllipse
10
77.234809
20
-0.478453
30
0
11
-0.150809602163188
21
0.684208661369726
31
0
210
0
220
0
230
-1
40
0.109732
41
-1.50594373614015
42
0.0648525906612918
0
ELLIPSE
5
E4
100
AcDbEntity
8
1
62
256
6
ByLayer
370
-1
48
1
60
0
100
AcDbEllipse
10
72.504898
20
2.247444
30
0
11
1.58146201212697E-15
21
1.35
31
0
210
0
220
0
230
1
40
0.996195
41
1.32377705753461
42
1.73074728884202
0
ELLIPSE
5
E5
100
AcDbEntity
8
1
62
256
6
ByLayer
370
-1
48
1
60
0
100
AcDbEllipse
10
73.158965
20
0.356277
30
0
11
-1.50435868827363
21
0.0119349462808529
31
0
210
0
220
0
230
-1
40
0.138391
41
0
42
6.28318530717959
0
ELLIPSE
5
E6
100
AcDbEntity
8
1
62
256
6
ByLayer
370
-1
48
1
60
0
100
AcDbEllipse
10
72.737193
20
2.247444
30
0
11
-1.20133142694168
21
-1.03359171363563
31
0
210
0
220
0
230
-1
40
0.722898
41
-1.22238510542262
42
-0.218778579089066
0
ELLIPSE
5
E7
100
AcDbEntity
8
1
62
256
6
ByLayer
370
-1
48
1
60
0
100
AcDbEllipse
10
70.483719
20
3.451048
30
0
11
-0.423990523311837
21
-2.86883809862839
31
0
210
0
220
0
230
1
40
0.156888
41
0.0231826018847095
42
0.767906920222628
0
ELLIPSE
5
E8
100
AcDbEntity
8
1
62
256
6
ByLayer
370
-1
48
1
60
0
100
AcDbEllipse
10
77.12749
20
-3.710881
30
0
11
-0.135913575182802
21
-0.768845004889434
31
0
210
0
220
0
230
-1
40
0.119599
41
-0.000971506603986486
42
1.5698248201897
0
ELLIPSE
5
E9
100
AcDbEntity
8
1
62
256
6
ByLayer
370
-1
48
1
60
0
100
AcDbEllipse
10
77.309588
20
0
30
0
11
-1.32905652613622
21
5.97330489215979
31
0
210
0
220
0
230
-1
40
0.10708
41
-1.78783084837443
42
-1.53124831930288
0
ELLIPSE
5
EA
100
AcDbEntity
8
1
62
256
6
ByLayer
370
-1
48
1
60
0
100
AcDbEllipse
10
74.953992
20
3.529692
30
0
11
1.17145334231628E-15
21
1
31
0
210
0
220
0
230
1
40
0.996195
41
0.0744169517263243
42
1.57079654872779
0
ELLIPSE
5
EB
100
AcDbEntity
8
1
62
256
6
ByLayer
370
-1
48
1
60
0
100
AcDbEllipse
10
74.953992
20
3.529692
30
0
11
1.17145334231628E-15
21
1
31
0
210
0
220
0
230
1
40
0.996195
41
1.57079654872778
42
2.13814839104023
0
ELLIPSE
5
EC
100
AcDbEntity
8
1
62
256
6
ByLayer
370
-1
48
1
60
0
100
AcDbEllipse
10
70.000199
20
2.373199
30
0
11
-0.339154326220879
21
-0.724551132085004
31
0
210
0
220
0
230
1
40
0.07899
41
0.03695747152458
42
1.60775379831957
0
ELLIPSE
5
ED
100
AcDbEntity
8
1
62
256
6
ByLayer
370
-1
48
1
60
0
100
AcDbEllipse
10
28.846116
20
9.604741
30
0
11
-40.1820456609391
21
5.9013540015507
31
0
210
0
220
0
230
-1
40
0.0714
41
3.13110687017642
42
-2.94590460662334
0
ELLIPSE
5
EE
100
AcDbEntity
8
1
62
256
6
ByLayer
370
-1
48
1
60
0
100
AcDbEllipse
10
74.638768
20
-1.904183
30
0
11
1.1
21
0
31
0
210
0
220
0
230
1
40
0.998135
41
0
42
-3.14159250247965
0
ELLIPSE
5
EF
100
AcDbEntity
8
1
62
256
6
ByLayer
370
-1
48
1
60
0
100
AcDbEllipse
10
78.001328
20
0.424522
30
0
11
-0.965915420881423
21
-0.46914946577443
31
0
210
0
220
0
230
-1
40
0.295025
41
0.563030656835134
42
0.592311530547111
0
ELLIPSE
5
F0
100
AcDbEntity
8
1
62
256
6
ByLayer
370
-1
48
1
60
0
100
AcDbEllipse
10
70.685505
20
0.000104
30
0
11
-1.19256877540083
21
-5.97405254629594
31
0
210
0
220
0
230
-1
40
0.08416
41
3.0971073810902
42
3.10774489505454
0
ELLIPSE
5
F1
100
AcDbEntity
8
1
62
256
6
ByLayer
370
-1
48
1
60
0
100
AcDbEllipse
10
77.474767
20
0.614264
30
0
11
-0.0238435923466255
21
0.843437382626943
31
0
210
0
220
0
230
-1
40
0.493236
41
-2.07788287769958
42
-1.53498582974693
0
ELLIPSE
5
F2
100
AcDbEntity
8
1
62
256
6
ByLayer
370
-1
48
1
60
0
100
AcDbEllipse
10
74.805918
20
3.529692
30
0
11
-1.07186937277348E-15
21
-1
31
0
210
0
220
0
230
1
40
0.996195
41
1.57079654872778
42
-1.77882855322155
0
ELLIPSE
5
F3
100
AcDbEntity
8
1
62
256
6
ByLayer
370
-1
48
1
60
0
100
AcDbEllipse
10
74.805918
20
3.529692
30
0
11
-1.07186937277348E-15
21
-1
31
0
210
0
220
0
230
1
40
0.996195
41
0.982827342672287
42
1.57079554872778
0
ELLIPSE
5
F4
100
AcDbEntity
8
1
62
256
6
ByLayer
370
-1
48
1
60
0
100
AcDbEllipse
10
71.9142
20
2.633325
30
0
11
-0.686845440335521
21
0.135067912882017
31
0
210
0
220
0
230
1
40
0.016879
41
-0.415466638282854
42
-0.0856224731664657
0
ELLIPSE
5
F5
100
AcDbEntity
8
1
62
256
6
ByLayer
370
-1
48
1
60
0
100
AcDbEllipse
10
72.549468
20
2.507444
30
0
11
-1.4470236532442E-15
21
-1.35
31
0
210
0
220
0
230
1
40
0.996195
41
-1.76569142660093
42
-1.62274188962592
0
ELLIPSE
5
F6
100
AcDbEntity
8
1
62
256
6
ByLayer
370
-1
48
1
60
0
100
AcDbEllipse
10
72.066204
20
2.522146
30
0
11
-0.634846249717449
21
0.294907170512502
31
0
210
0
220
0
230
1
40
0.036834
41
-0.625371171758206
42
-0.0791261077917561
0
ELLIPSE
5
F7
100
AcDbEntity
8
1
62
256
6
ByLayer
370
-1
48
1
60
0
100
AcDbEllipse
10
72.716214
20
2.38339
30
0
11
-1.4470236532442E-15
21
-1.35
31
0
210
0
220
0
230
1
40
0.996195
41
-2.03855290774145
42
-2.00712863979349
0
ELLIPSE
5
F8
100
AcDbEntity
8
1
62
256
6
ByLayer
370
-1
48
1
60
0
100
AcDbEllipse
10
69.539017
20
0
30
0
11
-37.2086883677114
21
-4.21611532720476E-14
31
0
210
0
220
0
230
-1
40
0.160581
41
1.51077950998126
42
1.55712579351725
0
ELLIPSE
5
F9
100
AcDbEntity
8
1
62
256
6
ByLayer
370
-1
48
1
60
0
100
AcDbEllipse
10
72.129356
20
2.658092
30
0
11
-0.634846249717449
21
0.294907170512502
31
0
210
0
220
0
230
1
40
0.036834
41
-0.291919532341935
42
-0.0791261077920496
0
ELLIPSE
5
FA
100
AcDbEntity
8
1
62
256
6
ByLayer
370
-1
48
1
60
0
100
AcDbEllipse
10
69.963964
20
0
30
0
11
-68.2945628817965
21
-7.73845480617788E-14
31
0
210
0
220
0
230
-1
40
0.087489
41
1.55712579364458
42
1.5984824526079
0
ELLIPSE
5
FB
100
AcDbEntity
8
1
62
256
6
ByLayer
370
-1
48
1
60
0
100
AcDbEllipse
10
62.86827
20
4.562855
30
0
11
-7.72324576911516
21
3.9824909276703
31
0
210
0
220
0
230
-1
40
0.09062
41
-2.59744935614001
42
-2.44254622223576
0
ELLIPSE
5
FC
100
AcDbEntity
8
1
62
256
6
ByLayer
370
-1
48
1
60
0
100
AcDbEllipse
10
74.75268
20
3.729692
30
0
11
-1.52010474797794E-15
21
-1.41818097110531
31
0
210
0
220
0
230
1
40
0.996195
41
0
42
6.28318530717959
0
ELLIPSE
5
FD
100
AcDbEntity
8
1
62
256
6
ByLayer
370
-1
48
1
60
0
100
AcDbEllipse
10
74.723047
20
3.729692
30
0
11
-1.70009851535478E-15
21
-1.58610606715606
31
0
210
0
220
0
230
1
40
0.996195
41
0
42
6.28318530717959
0
ELLIPSE
5
FE
100
AcDbEntity
8
1
62
256
6
ByLayer
370
-1
48
1
60
0
100
AcDbEllipse
10
74.781246
20
3.729692
30
0
11
-1.43308077703746E-15
21
-1.33699200055445
31
0
210
0
220
0
230
1
40
0.996195
41
0
42
6.28318530717959
0
ELLIPSE
5
FF
100
AcDbEntity
8
1
62
256
6
ByLayer
370
-1
48
1
60
0
100
AcDbEllipse
10
74.926992
20
3.729692
30
0
11
1.2885986765479E-15
21
1.1
31
0
210
0
220
0
230
1
40
0.996195
41
0.0408407115142773
42
1.5707962760005
0
ELLIPSE
5
100
100
AcDbEntity
8
1
62
256
6
ByLayer
370
-1
48
1
60
0
100
AcDbEllipse
10
74.926992
20
3.729692
30
0
11
1.2885986765479E-15
21
1.1
31
0
210
0
220
0
230
1
40
0.996195
41
1.57079627600048
42
3.10075184009929
0
ELLIPSE
5
101
100
AcDbEntity
8
1
62
256
6
ByLayer
370
-1
48
1
60
0
100
AcDbEllipse
10
74.766169
20
3.729692
30
0
11
-1.50850481115741E-15
21
-1.40735881579873
31
0
210
0
220
0
230
1
40
0.996195
41
2.21550985223124
42
-3.16753210611074E-16
0
ELLIPSE
5
102
100
AcDbEntity
8
1
62
256
6
ByLayer
370
-1
48
1
60
0
100
AcDbEllipse
10
74.766169
20
3.729692
30
0
11
-1.50850481115741E-15
21
-1.40735881579873
31
0
210
0
220
0
230
1
40
0.996195
41
0
42
0.926082690006843
0
ELLIPSE
5
103
100
AcDbEntity
8
1
62
256
6
ByLayer
370
-1
48
1
60
0
100
AcDbEllipse
10
74.837582
20
3.729692
30
0
11
-1.17905631005083E-15
21
-1.1
31
0
210
0
220
0
230
1
40
0.996195
41
0
42
6.28318530717959
0
ELLIPSE
5
104
100
AcDbEntity
8
1
62
256
6
ByLayer
370
-1
48
1
60
0
100
AcDbEllipse
10
74.795666
20
-2.256923
30
0
11
-1.1
21
1.1117029605906E-15
31
0
210
0
220
0
230
1
40
0.998135
41
-1.96496782723774
42
-4.04471803413425E-16
0
ELLIPSE
5
105
100
AcDbEntity
8
1
62
256
6
ByLayer
370
-1
48
1
60
0
100
AcDbEllipse
10
76.898613
20
-1.652405
30
0
11
0.767531508496599
21
0
31
0
210
0
220
0
230
1
40
0.998135
41
-0.174532925199434
42
0.209439510239322
0
ELLIPSE
5
106
100
AcDbEntity
8
1
62
256
6
ByLayer
370
-1
48
1
60
0
100
AcDbEllipse
10
77.654484
20
-1.75186
30
0
11
-0.54161371775654
21
0.0956795732533262
31
0
210
0
220
0
230
1
40
0.060121
41
1.05445084784108
42
1.58141670500792
0
ELLIPSE
5
107
100
AcDbEntity
8
1
62
256
6
ByLayer
370
-1
48
1
60
0
100
AcDbEllipse
10
76.529358
20
-3.130427
30
0
11
0.981882963782138
21
0
31
0
210
0
220
0
230
1
40
0.998135
41
-1.08271959555056
42
-0.174532925199441
0
ELLIPSE
5
108
100
AcDbEntity
8
1
62
256
6
ByLayer
370
-1
48
1
60
0
100
AcDbEllipse
10
76.676382
20
-0.848875
30
0
11
0.817531508496598
21
0
31
0
210
0
220
0
230
1
40
0.998135
41
0.209439510239317
42
1.03483740944072
0
ELLIPSE
5
109
100
AcDbEntity
8
1
62
256
6
ByLayer
370
-1
48
1
60
0
100
AcDbEllipse
10
74.795666
20
-2.255702
30
0
11
1.20924645102467
21
0
31
0
210
0
220
0
230
1
40
0.998135
41
1.6990126214811
42
2.77638227164409
0
ELLIPSE
5
10A
100
AcDbEntity
8
1
62
256
6
ByLayer
370
-1
48
1
60
0
100
AcDbEllipse
10
74.795666
20
-2.312835
30
0
11
1.1
21
0
31
0
210
0
220
0
230
1
40
0.998135
41
1.02023216493592
42
3.07748491090677
0
ELLIPSE
5
10B
100
AcDbEntity
8
1
62
256
6
ByLayer
370
-1
48
1
60
0
100
AcDbEllipse
10
77.649372
20
-1.459547
30
0
11
-0.537937687900339
21
-0.114555855094523
31
0
210
0
220
0
230
1
40
0.059714
41
1.04053525962975
42
1.55808058840482
0
ELLIPSE
5
10C
100
AcDbEntity
8
1
62
256
6
ByLayer
370
-1
48
1
60
0
100
AcDbEllipse
10
74.795666
20
-2.256923
30
0
11
-1.13
21
1.14202213224307E-15
31
0
210
0
220
0
230
1
40
0.998135
41
-1.84195466398748
42
-0.091989679762169
0
ELLIPSE
5
10D
100
AcDbEntity
8
1
62
256
6
ByLayer
370
-1
48
1
60
0
100
AcDbEllipse
10
76.961668
20
-0.474254
30
0
11
0.568502493118137
21
0
31
0
210
0
220
0
230
1
40
0.998135
41
0.209439510239319
42
1.38336830908963
0
ELLIPSE
5
10E
100
AcDbEntity
8
1
62
256
6
ByLayer
370
-1
48
1
60
0
100
AcDbEllipse
10
77.476048
20
-0.645641
30
0
11
-0.537937687900339
21
-0.114555855094523
31
0
210
0
220
0
230
1
40
0.059714
41
1.04053525962972
42
1.55808058840482
0
ELLIPSE
5
10F
100
AcDbEntity
8
1
62
256
6
ByLayer
370
-1
48
1
60
0
100
AcDbEllipse
10
76.577416
20
-3.183208
30
0
11
0.817531508496598
21
0
31
0
210
0
220
0
230
1
40
0.998135
41
-1.01923640413895
42
-0.174532925199441
0
ELLIPSE
5
110
100
AcDbEntity
8
1
62
256
6
ByLayer
370
-1
48
1
60
0
100
AcDbEllipse
10
77.382527
20
-3.29133
30
0
11
-0.54161371775654
21
0.0956795732533262
31
0
210
0
220
0
230
1
40
0.060121
41
1.05445084784108
42
1.58141670500792
0
POINT
5
41
100
AcDbEntity
8
81
62
256
6
ByLayer
370
-1
48
1
60
0
100
AcDbPoint
10
78
20
0
30
0
39
0
210
0
220
0
230
1
50
360
0
POINT
5
43
100
AcDbEntity
8
80
62
256
6
ByLayer
370
-1
48
1
60
0
100
AcDbPoint
10
0
20
0
30
0
39
0
210
0
220
0
230
1
50
360
0
SPLINE
5
111
100
AcDbEntity
8
1
62
256
6
ByLayer
370
-1
48
1
60
0
100
AcDbSpline
70
4
71
1
72
4
73
2
40
0
40
0
40
1
40
1
41
1
10
77.2442892164059
20
6.14591335200822
30
0
41
1
10
77.2250251462566
20
6.14954173277457
30
0
0
SPLINE
5
112
100
AcDbEntity
8
1
62
256
6
ByLayer
370
-1
48
1
60
0
100
AcDbSpline
70
4
71
1
72
4
73
2
40
0
40
0
40
1
40
1
41
1
10
77.4590361426964
20
6.10040032662991
30
0
41
1
10
77.3832865415133
20
6.11788811493173
30
0
0
SPLINE
5
113
100
AcDbEntity
8
1
62
256
6
ByLayer
370
-1
48
1
60
0
100
AcDbSpline
70
4
71
2
72
6
73
3
40
0
40
0
40
0
40
1
40
1
40
1
41
1
10
76.9710754152445
20
1.4093875355683
30
0
41
1
10
77.0596317574168
20
1.41613286775916
30
0
41
1
10
77.1477411455738
20
1.41836545798645
30
0
0
SPLINE
5
114
100
AcDbEntity
8
1
62
256
6
ByLayer
370
-1
48
1
60
0
100
AcDbSpline
70
4
71
2
72
6
73
3
40
0
40
0
40
0
40
1
40
1
40
1
41
1
10
72.4999507117054
20
6.04999638387369
30
0
41
1
10
72.4121357072236
20
6.04326207676618
30
0
41
1
10
72.3234059673135
20
6.04104775127027
30
0
0
SPLINE
5
115
100
AcDbEntity
8
1
62
256
6
ByLayer
370
-1
48
1
60
0
100
AcDbSpline
70
4
71
1
72
4
73
2
40
0
40
0
40
1
40
1
41
1
10
72.2268211962727
20
1.3134778160628
30
0
41
1
10
72.2460586394481
20
1.3098436085028
30
0
0
SPLINE
5
116
100
AcDbEntity
8
1
62
256
6
ByLayer
370
-1
48
1
60
0
100
AcDbSpline
70
4
71
1
72
4
73
2
40
0
40
0
40
1
40
1
41
1
10
72.0123369125217
20
1.35875976887294
30
0
41
1
10
72.0881649570743
20
1.3414164430724
30
0
0
SPLINE
5
117
100
AcDbEntity
8
1
62
256
6
ByLayer
370
-1
48
1
60
0
100
AcDbSpline
70
4
71
3
72
18
73
14
40
0
40
0
40
0
40
0
40
0.0915010431578415
40
0.181106726402919
40
0.26660959823903
40
0.352081962031995
40
0.439036823395368
40
0.526839993110893
40
0.656078638700056
40
0.776358126292133
40
0.850468564199965
40
0.922638565382613
40
1
40
1
40
1
40
1
41
1
10
13
20
5.97499999999997
30
0
41
1
10
12.6615523073216
20
5.97869500061734
30
0
41
1
10
12.013317561164
20
6.06095816813661
30
0
41
1
10
11.092347690726
20
6.39567476704778
30
0
41
1
10
10.3086923518274
20
6.9383047267041
30
0
41
1
10
9.66047875903826
20
7.61886375490204
30
0
41
1
10
9.1079781680809
20
8.38583365416878
30
0
41
1
10
8.5339655666684
20
9.32763824915364
30
0
41
1
10
7.92977093366619
20
10.3899827263546
30
0
41
1
10
7.26325654086017
20
11.3636488027335
30
0
41
1
10
6.55806902708349
20
12.0342033872458
30
0
41
1
10
5.82415716521666
20
12.4197373552034
30
0
41
1
10
5.2915707809027
20
12.5006277459242
30
0
41
1
10
5.00000000000003
20
12.5
30
0
0
SPLINE
5
118
100
AcDbEntity
8
1
62
256
6
ByLayer
370
-1
48
1
60
0
100
AcDbSpline
70
4
71
3
72
18
73
14
40
0
40
0
40
0
40
0
40
0.0773614346173873
40
0.149531435800035
40
0.223641873707867
40
0.343921361299944
40
0.473160006889107
40
0.560963176604631
40
0.647918037968005
40
0.73339040176097
40
0.818893273597081
40
0.908498956842159
40
1
40
1
40
1
40
1
41
1
10
4.99999999999997
20
-12.5
30
0
41
1
10
5.29157078090262
20
-12.5006277459242
30
0
41
1
10
5.8241571652166
20
-12.4197373552034
30
0
41
1
10
6.55806902708349
20
-12.0342033872458
30
0
41
1
10
7.26325654086017
20
-11.3636488027335
30
0
41
1
10
7.92977093366619
20
-10.3899827263546
30
0
41
1
10
8.5339655666684
20
-9.32763824915364
30
0
41
1
10
9.1079781680809
20
-8.38583365416878
30
0
41
1
10
9.66047875903826
20
-7.61886375490204
30
0
41
1
10
10.3086923518274
20
-6.9383047267041
30
0
41
1
10
11.092347690726
20
-6.39567476704778
30
0
41
1
10
12.013317561164
20
-6.06095816813661
30
0
41
1
10
12.6615523073216
20
-5.97869500061739
30
0
41
1
10
13
20
-5.97500000000002
30
0
0
SPLINE
5
119
100
AcDbEntity
8
1
62
256
6
ByLayer
370
-1
48
1
60
0
100
AcDbSpline
70
4
71
2
72
6
73
3
40
0
40
0
40
0
40
1
40
1
40
1
41
1
10
71.3998578173486
20
0.688311542970467
30
0
41
1
10
71.4759265616927
20
0.712551051852017
30
0
41
1
10
71.5511418240845
20
0.741270975064396
30
0
0
SPLINE
5
11A
100
AcDbEntity
8
1
62
256
6
ByLayer
370
-1
48
1
60
0
100
AcDbSpline
70
4
71
3
72
21
73
17
40
0
40
0
40
0
40
0
40
0.0617411763480006
40
0.165992156753778
40
0.270243137159556
40
0.374494117565334
40
0.478745097971111
40
0.530870588174
40
0.582996078376889
40
0.635121568579778
40
0.687247058782667
40
0.791498039188444
40
0.843623529391333
40
0.895749019594222
40
0.947874509797111
40
1
40
1
40
1
40
1
41
1
10
29.5579966773884
20
0.053093770715094
30
0
41
1
10
29.2135271734653
20
0.0972391053298622
30
0
41
1
10
28.2874118066451
20
0.215803665487755
30
0
41
1
10
26.7797076795895
20
0.407810581044032
30
0
41
1
10
25.0349882313582
20
0.627383078889267
30
0
41
1
10
23.2905409616282
20
0.844090663733738
30
0
41
1
10
21.8370123413276
20
1.02051330964682
30
0
41
1
10
20.6742131050843
20
1.15926743941384
30
0
41
1
10
19.8023779289861
20
1.26179083570861
30
0
41
1
10
18.9306370995807
20
1.36261983185614
30
0
41
1
10
17.7678256616304
20
1.49499509166432
30
0
41
1
10
16.6052029640805
20
1.62451725649399
30
0
41
1
10
15.4434095610497
20
1.75046474591616
30
0
41
1
10
14.572566531659
20
1.8428874481371
30
0
41
1
10
13.7017274395553
20
1.93326279344322
30
0
41
1
10
13.1208222822485
20
1.99236956958629
30
0
41
1
10
12.8302945285922
20
2.02165779492986
30
0
0
SPLINE
5
11B
100
AcDbEntity
8
1
62
256
6
ByLayer
370
-1
48
1
60
0
100
AcDbSpline
70
4
71
3
72
8
73
4
40
0
40
0
40
0
40
0
40
1
40
1
40
1
40
1
41
1
10
69.6625417539899
20
1.64815302453775
30
0
41
1
10
69.9238669278637
20
1.52186540430927
30
0
41
1
10
70.1982943438454
20
1.41903326142793
30
0
41
1
10
70.4913586620263
20
1.34109670761285
30
0
0
SPLINE
5
11C
100
AcDbEntity
8
1
62
256
6
ByLayer
370
-1
48
1
60
0
100
AcDbSpline
70
4
71
3
72
20
73
16
40
0
40
0
40
0
40
0
40
0.148408947565671
40
0.148408947565671
40
0.296817895131342
40
0.296817895131342
40
0.445226842697013
40
0.445226842697013
40
0.593635790262684
40
0.593635790262684
40
0.742044737828355
40
0.742044737828355
40
0.890453685394026
40
0.890453685394026
40
1
40
1
40
1
40
1
41
1
10
12.8302945285922
20
2.02165779492986
30
0
41
1
10
12.5380139429804
20
1.94904955803085
30
0
41
1
10
12.236057124248
20
1.83408106027329
30
0
41
1
10
11.6401355643214
20
1.52983483672662
30
0
41
1
10
11.346254166111
20
1.34059966148405
30
0
41
1
10
10.7932633846967
20
0.905041904322985
30
0
41
1
10
10.5342313403657
20
0.658780237607999
30
0
41
1
10
10.074551315302
20
0.131592241512863
30
0
41
1
10
9.87396762340768
20
-0.149260357659159
30
0
41
1
10
9.54947729780488
20
-0.72004936606794
30
0
41
1
10
9.42561604589457
20
-1.00990594724962
30
0
41
1
10
9.26587796575197
20
-1.57229449062368
30
0
41
1
10
9.23002347778913
20
-1.84474779961326
30
0
41
1
10
9.24702858047297
20
-2.28167396165122
30
0
41
1
10
9.2791144520487
20
-2.4557019018583
30
0
41
1
10
9.33505543473504
20
-2.61401513375535
30
0
0
SPLINE
5
11D
100
AcDbEntity
8
1
62
256
6
ByLayer
370
-1
48
1
60
0
100
AcDbSpline
70
4
71
3
72
16
73
12
40
0
40
0
40
0
40
0
40
0.179655480525802
40
0.179655480525802
40
0.384741610394352
40
0.384741610394352
40
0.589827740262901
40
0.589827740262901
40
0.794913870131451
40
0.794913870131451
40
1
40
1
40
1
40
1
41
1
10
50.7546530512614
20
4.57558934667623
30
0
41
1
10
51.7457966820063
20
4.72268401139297
30
0
41
1
10
52.7367538979894
20
4.85948094145917
30
0
41
1
10
54.8591332675403
20
5.1289687656826
30
0
41
1
10
55.9905811996981
20
5.25834612286786
30
0
41
1
10
58.2544633600844
20
5.48678368346648
30
0
41
1
10
59.3869442905446
20
5.58560976451886
30
0
41
1
10
61.6502952723959
20
5.75046265099451
30
0
41
1
10
62.7812730629758
20
5.81698476717384
30
0
41
1
10
65.0438768286371
20
5.91590308829103
30
0
41
1
10
66.1755122770137
20
5.9485332857474
30
0
41
1
10
67.3072106048961
20
5.96424220014188
30
0
0
SPLINE
5
11E
100
AcDbEntity
8
1
62
256
6
ByLayer
370
-1
48
1
60
0
100
AcDbSpline
70
4
71
4
72
10
73
5
40
0
40
0
40
0
40
0
40
0
40
1
40
1
40
1
40
1
40
1
41
0.978572963525227
10
68.3445082927934
20
1.09147053216307
30
0
41
0.978223172136563
10
68.4009833109109
20
1.42112847492087
30
0
41
0.982037981962064
10
68.4456196223442
20
1.82027366740062
30
0
41
0.990221537878819
10
68.4737339802825
20
2.25899227941442
30
0
41
0.995679699175375
10
68.4872572826077
20
2.68719167449159
30
0
0
SPLINE
5
11F
100
AcDbEntity
8
1
62
256
6
ByLayer
370
-1
48
1
60
0
100
AcDbSpline
70
4
71
3
72
16
73
12
40
0
40
0
40
0
40
0
40
0.249999999999995
40
0.249999999999995
40
0.374999999999994
40
0.374999999999994
40
0.437499999999995
40
0.437499999999995
40
0.499999999999995
40
0.499999999999995
40
1
40
1
40
1
40
1
41
1
10
12.8302945285894
20
3.63482050243979
30
0
41
1
10
12.6414264176894
20
3.70486704290582
30
0
41
1
10
12.4519306519737
20
3.77733838970192
30
0
41
1
10
12.167419172707
20
3.89177301028201
30
0
41
1
10
12.0725396228441
20
3.93087960420303
30
0
41
1
10
11.9302641154974
20
3.99131567282453
30
0
41
1
10
11.8830153340588
20
4.01168647227999
30
0
41
1
10
11.7890996480727
20
4.05283299073119
30
0
41
1
10
11.7420258281645
20
4.07313903242579
30
0
41
1
10
11.3197566743429
20
4.25667454202016
30
0
41
1
10
10.9632392319361
20
4.43707214163501
30
0
41
1
10
10.6301050529483
20
4.64600535353645
30
0
0
SPLINE
5
120
100
AcDbEntity
8
1
62
256
6
ByLayer
370
-1
48
1
60
0
100
AcDbSpline
70
4
71
3
72
12
73
8
40
0
40
0
40
0
40
0
40
0.25
40
0.25
40
0.5
40
0.5
40
1
40
1
40
1
40
1
41
1
10
71.3243641874682
20
1.1956228488055
30
0
41
1
10
71.3671539911268
20
1.18154806518322
30
0
41
1
10
71.4081734353778
20
1.16768078636403
30
0
41
1
10
71.4861087081924
20
1.13996202458821
30
0
41
1
10
71.5229989021757
20
1.1261047206612
30
0
41
1
10
71.6239255093629
20
1.08488001654462
30
0
41
1
10
71.6793705372991
20
1.05754919517281
30
0
41
1
10
71.7196635938396
20
1.02848353841395
30
0
0
SPLINE
5
121
100
AcDbEntity
8
1
62
256
6
ByLayer
370
-1
48
1
60
0
100
AcDbSpline
70
4
71
3
72
30
73
26
40
0
40
0
40
0
40
0
40
0.125
40
0.125
40
0.1875
40
0.1875
40
0.25
40
0.25
40
0.375000000000001
40
0.375000000000001
40
0.5
40
0.5
40
0.625
40
0.625
40
0.6875
40
0.6875
40
0.75
40
0.75
40
0.8125
40
0.8125
40
0.875
40
0.875
40
0.9375
40
0.9375
40
1
40
1
40
1
40
1
41
1
10
13
20
3.60146522364229
30
0
41
1
10
15.2199401106224
20
3.19259517335689
30
0
41
1
10
17.4374524797483
20
2.74731916345556
30
0
41
1
10
20.7641486691528
20
2.04112294168152
30
0
41
1
10
21.8730664936141
20
1.79911584547651
30
0
41
1
10
24.0919291927418
20
1.30588648866905
30
0
41
1
10
25.2022205256194
20
1.05429849125332
30
0
41
1
10
28.5301836371835
20
0.293551342721571
30
0
41
1
10
30.746134916234
20
-0.223514368716678
30
0
41
1
10
35.1801743519961
20
-1.24461460867457
30
0
41
1
10
37.4001352212801
20
-1.74796938595407
30
0
41
1
10
41.8348709058178
20
-2.70042828102254
30
0
41
1
10
44.051106867891
20
-3.15054560087017
30
0
41
1
10
47.3787922127077
20
-3.76759770061713
30
0
41
1
10
48.4889939269954
20
-3.9636008468228
30
0
41
1
10
50.7078074432702
20
-4.33214945610987
30
0
41
1
10
51.8167845975294
20
-4.50472563717429
30
0
41
1
10
54.0348241311529
20
-4.82389844108593
30
0
41
1
10
55.1438831165091
20
-4.97052470405743
30
0
41
1
10
57.3627413160103
20
-5.2361798391583
30
0
41
1
10
58.4728781954314
20
-5.35547493418147
30
0
41
1
10
60.6917955024823
20
-5.56364618781978
30
0
41
1
10
61.8006330133581
20
-5.65276094530063
30
0
41
1
10
64.0179974431111
20
-5.79942396417542
30
0
41
1
10
65.1269158366131
20
-5.85657826822631
30
0
41
1
10
66.2360219351166
20
-5.89768062391678
30
0
0
SPLINE
5
122
100
AcDbEntity
8
1
62
256
6
ByLayer
370
-1
48
1
60
0
100
AcDbSpline
70
4
71
3
72
8
73
4
40
0
40
0
40
0
40
0
40
1
40
1
40
1
40
1
41
1
10
13
20
3.60146522364229
30
0
41
1
10
12.9434085285949
20
3.61188827859249
30
0
41
1
10
12.8868383245274
20
3.62300075263053
30
0
41
1
10
12.8302945285897
20
3.63482050243977
30
0
0
SPLINE
5
123
100
AcDbEntity
8
1
62
256
6
ByLayer
370
-1
48
1
60
0
100
AcDbSpline
70
4
71
3
72
72
73
68
40
-0.03125
40
-0.03125
40
0
40
0
40
0.03125
40
0.03125
40
0.0625
40
0.0625
40
0.09375
40
0.09375
40
0.125
40
0.125
40
0.15625
40
0.15625
40
0.1875
40
0.1875
40
0.21875
40
0.21875
40
0.25
40
0.25
40
0.28125
40
0.28125
40
0.3125
40
0.3125
40
0.34375
40
0.34375
40
0.375
40
0.375
40
0.40625
40
0.40625
40
0.4375
40
0.4375
40
0.46875
40
0.46875
40
0.5
40
0.5
40
0.53125
40
0.53125
40
0.5625
40
0.5625
40
0.59375
40
0.59375
40
0.625
40
0.625
40
0.65625
40
0.65625
40
0.6875
40
0.6875
40
0.71875
40
0.71875
40
0.75
40
0.75
40
0.765625
40
0.765625
40
0.78125
40
0.78125
40
0.8125
40
0.8125
40
0.84375
40
0.84375
40
0.875
40
0.875
40
0.90625
40
0.90625
40
0.9375
40
0.9375
40
0.96875
40
0.96875
40
1
40
1
40
1.03125
40
1.03125
41
1
10
73.5490414682093
20
-2.03805567175763
30
0
41
1
10
73.5368658387128
20
-1.89558994513663
30
0
41
1
10
73.5373964405594
20
-1.82443328519938
30
0
41
1
10
73.5517595756415
20
-1.68231436309961
30
0
41
1
10
73.5657963378701
20
-1.61069671114049
30
0
41
1
10
73.6076993356008
20
-1.47097148698242
30
0
41
1
10
73.6351930073149
20
-1.40362081313998
30
0
41
1
10
73.7034939593421
20
-1.27418736653203
30
0
41
1
10
73.7449312276139
20
-1.21143552337853
30
0
41
1
10
73.8387406218733
20
-1.09665394892994
30
0
41
1
10
73.891063213902
20
-1.04428531125305
30
0
41
1
10
74.0067757435
20
-0.949969653941025
30
0
41
1
10
74.070295385891
20
-0.908225505545033
30
0
41
1
10
74.2026622762119
20
-0.839538778996996
30
0
41
1
10
74.27234617445
20
-0.811920255753222
30
0
41
1
10
74.4180999981433
20
-0.771152274408394
30
0
41
1
10
74.4918724266669
20
-0.75861036152844
30
0
41
1
10
74.6411443245231
20
-0.748687875845974
30
0
41
1
10
74.7174976271775
20
-0.751515337805785
30
0
41
1
10
74.8659647121227
20
-0.772567898761707
30
0
41
1
10
74.9384687611119
20
-0.790583100949021
30
0
41
1
10
75.0799750332087
20
-0.841721483255526
30
0
41
1
10
75.1481812451252
20
-0.874749201900499
30
0
41
1
10
75.2749710899071
20
-0.952971015458132
30
0
41
1
10
75.3347746330678
20
-0.998888199522071
30
0
41
1
10
75.4435545176374
20
-1.10168966733937
30
0
41
1
10
75.4918735037885
20
-1.15774880847491
30
0
41
1
10
75.5768398573703
20
-1.27865430402551
30
0
41
1
10
75.6135532065122
20
-1.34401393999073
30
0
41
1
10
75.6723892924771
20
-1.4778462259039
30
0
41
1
10
75.6950165216609
20
-1.54688708937914
30
0
41
1
10
75.7269550827872
20
-1.688993134795
30
0
41
1
10
75.7358918188789
20
-1.76071177270887
30
0
41
1
10
75.74046052126
20
-1.90301608461425
30
0
41
1
10
75.7360842688665
20
-1.97449020052304
30
0
41
1
10
75.7144619958604
20
-2.1146327304825
30
0
41
1
10
75.6974384812994
20
-2.18257923459785
30
0
41
1
10
75.651497064157
20
-2.31449568226944
30
0
41
1
10
75.6222189552866
20
-2.37902776278978
30
0
41
1
10
75.5529784357507
20
-2.50062486448439
30
0
41
1
10
75.5131578661726
20
-2.55776408268741
30
0
41
1
10
75.422789999393
20
-2.66481265801957
30
0
41
1
10
75.3715668569322
20
-2.71521534803392
30
0
41
1
10
75.2608497429428
20
-2.80477546297982
30
0
41
1
10
75.2014087092341
20
-2.84415918007602
30
0
41
1
10
75.0735946531755
20
-2.91156333321413
30
0
41
1
10
75.0041163726477
20
-2.93981187834663
30
0
41
1
10
74.8620319958907
20
-2.98076752669567
30
0
41
1
10
74.7891210080291
20
-2.99389336317523
30
0
41
1
10
74.6767502299504
20
-3.00191734279235
30
0
41
1
10
74.638532574157
20
-3.00260336125825
30
0
41
1
10
74.5632050206351
20
-2.99990581445061
30
0
41
1
10
74.5259068493716
20
-2.99656266456935
30
0
41
1
10
74.4150711251125
20
-2.98073805180093
30
0
41
1
10
74.3417234440354
20
-2.96214552332145
30
0
41
1
10
74.2028609201096
20
-2.91122977130277
30
0
41
1
10
74.1373267250103
20
-2.87916994040356
30
0
41
1
10
74.0133842433608
20
-2.8025863647008
30
0
41
1
10
73.9563306706409
20
-2.75883656584753
30
0
41
1
10
73.8522765054875
20
-2.66232974314573
30
0
41
1
10
73.8047014158167
20
-2.60887936286213
30
0
41
1
10
73.7213043134772
20
-2.49567484479473
30
0
41
1
10
73.6852546743148
20
-2.43587897102066
30
0
41
1
10
73.6240863754542
20
-2.30983607220927
30
0
41
1
10
73.5989961776484
20
-2.24328854268393
30
0
41
1
10
73.561625062259
20
-2.10770376442417
30
0
41
1
10
73.5490414682093
20
-2.03805567175763
30
0
41
1
10
73.5368658387128
20
-1.89558994513663
30
0
0
SPLINE
5
124
100
AcDbEntity
8
1
62
256
6
ByLayer
370
-1
48
1
60
0
100
AcDbSpline
70
4
71
3
72
8
73
4
40
0
40
0
40
0
40
0
40
1
40
1
40
1
40
1
41
1
10
7.57077898645568
20
1.16273718916895
30
0
41
1
10
7.54479417759288
20
1.22673549800015
30
0
41
1
10
7.51889851033951
20
1.29352015730945
30
0
41
1
10
7.49308272857957
20
1.3630916620194
30
0
0
SPLINE
5
125
100
AcDbEntity
8
1
62
256
6
ByLayer
370
-1
48
1
60
0
100
AcDbSpline
70
4
71
3
72
8
73
4
40
0
40
0
40
0
40
0
40
1
40
1
40
1
40
1
41
1
10
7.45537179109292
20
1.41511364662375
30
0
41
1
10
7.289777129545
20
1.64905299466412
30
0
41
1
10
7.15202527726973
20
1.89284432473244
30
0
41
1
10
7.04001807280201
20
2.14033708055308
30
0
0
SPLINE
5
126
100
AcDbEntity
8
1
62
256
6
ByLayer
370
-1
48
1
60
0
100
AcDbSpline
70
4
71
3
72
24
73
20
40
0
40
0
40
0
40
0
40
0.125000000000008
40
0.125000000000008
40
0.187500000000008
40
0.187500000000008
40
0.250000000000009
40
0.250000000000009
40
0.375000000000001
40
0.375000000000001
40
0.437500000000002
40
0.437500000000002
40
0.500000000000003
40
0.500000000000003
40
0.625000000000005
40
0.625000000000005
40
0.750000000000007
40
0.750000000000007
40
1
40
1
40
1
40
1
41
1
10
67.3072106048963
20
5.96424220013853
30
0
41
1
10
67.212375527985
20
5.81745921084712
30
0
41
1
10
67.103142726475
20
5.6838374810047
30
0
41
1
10
66.9153804080987
20
5.50526436293927
30
0
41
1
10
66.8483874933025
20
5.44902383661349
30
0
41
1
10
66.7089602564691
20
5.34533672045103
30
0
41
1
10
66.6368824007507
20
5.29803505279293
30
0
41
1
10
66.4147034705945
20
5.16755157136208
30
0
41
1
10
66.2587120368134
20
5.09568561267307
30
0
41
1
10
66.0168495579752
20
5.00301581482864
30
0
41
1
10
65.935008059346
20
4.97472664977323
30
0
41
1
10
65.7710886568208
20
4.92278446528229
30
0
41
1
10
65.6887460564984
20
4.89902698834908
30
0
41
1
10
65.4408358498117
20
4.83285591980871
30
0
41
1
10
65.2744003359823
20
4.79545987318016
30
0
41
1
10
64.9401248328916
20
4.72878733060423
30
0
41
1
10
64.7722778617136
20
4.69955119850084
30
0
41
1
10
64.2673853481002
20
4.61965666998648
30
0
41
1
10
63.9290450378572
20
4.57648358274929
30
0
41
1
10
63.5899198303025
20
4.53784814235019
30
0
0
SPLINE
5
127
100
AcDbEntity
8
1
62
256
6
ByLayer
370
-1
48
1
60
0
100
AcDbSpline
70
4
71
3
72
38
73
34
40
0
40
0
40
0
40
0
40
0.250000000000021
40
0.250000000000021
40
0.375000000000028
40
0.375000000000028
40
0.500000000000035
40
0.500000000000035
40
0.562500000000035
40
0.562500000000035
40
0.593750000000035
40
0.593750000000035
40
0.625000000000034
40
0.625000000000034
40
0.656250000000034
40
0.656250000000034
40
0.671875000000033
40
0.671875000000033
40
0.687500000000031
40
0.687500000000031
40
0.70312500000003
40
0.70312500000003
40
0.718750000000028
40
0.718750000000028
40
0.750000000000026
40
0.750000000000026
40
0.781250000000023
40
0.781250000000023
40
0.812500000000016
40
0.812500000000016
40
0.875000000000011
40
0.875000000000011
40
1
40
1
40
1
40
1
41
1
10
65.4565565552568
20
3.21861527616568
30
0
41
1
10
65.0257400782037
20
3.25350178741877
30
0
41
1
10
64.5965298094247
20
3.29762913241944
30
0
41
1
10
63.9569430636772
20
3.38663436184882
30
0
41
1
10
63.7444588070599
20
3.42014200397446
30
0
41
1
10
63.3215954307879
20
3.49861719372001
30
0
41
1
10
63.111651960227
20
3.54316588209369
30
0
41
1
10
62.8021025169423
20
3.6258583068836
30
0
41
1
10
62.6997818761785
20
3.65607386734024
30
0
41
1
10
62.5486503397399
20
3.70879255926522
30
0
41
1
10
62.4985859250548
20
3.72765546651132
30
0
41
1
10
62.4003997248118
20
3.76904780645887
30
0
41
1
10
62.3520342775487
20
3.79160043647386
30
0
41
1
10
62.2594292380694
20
3.84302691509185
30
0
41
1
10
62.2150687682737
20
3.87133774916129
30
0
41
1
10
62.1570357455107
20
3.92534449079594
30
0
41
1
10
62.1393162795951
20
3.94522632895408
30
0
41
1
10
62.1125610474024
20
3.99104110835313
30
0
41
1
10
62.1041294030994
20
4.01722900561916
30
0
41
1
10
62.1064283932042
20
4.07064215537247
30
0
41
1
10
62.1174435856916
20
4.0970899304638
30
0
41
1
10
62.1488140473641
20
4.14172443983486
30
0
41
1
10
62.1690317777459
20
4.16108189610736
30
0
41
1
10
62.2332370670723
20
4.21214545566178
30
0
41
1
10
62.282105291261
20
4.23855139908991
30
0
41
1
10
62.3805513665369
20
4.28438463535053
30
0
41
1
10
62.4310062723809
20
4.30379716268524
30
0
41
1
10
62.5332085229064
20
4.33893680496655
30
0
41
1
10
62.5849853780077
20
4.35458040677139
30
0
41
1
10
62.7416397670275
20
4.39773269422506
30
0
41
1
10
62.8469607906881
20
4.42131431001454
30
0
41
1
10
63.1637561351352
20
4.48346375325312
30
0
41
1
10
63.3764466010766
20
4.51352782631096
30
0
41
1
10
63.5899198303025
20
4.53784814235007
30
0
0
SPLINE
5
128
100
AcDbEntity
8
1
62
256
6
ByLayer
370
-1
48
1
60
0
100
AcDbSpline
70
4
71
4
72
19
73
14
40
0
40
0
40
0
40
0
40
0
40
0.464075535530802
40
0.464075535530802
40
0.464075535530802
40
0.696113303296203
40
0.696113303296203
40
0.696113303296203
40
0.928151071061603
40
0.928151071061603
40
0.928151071061603
40
1
40
1
40
1
40
1
40
1
41
1
10
12.8302945285922
20
2.02165779492986
30
0
41
1
10
12.8302945285922
20
1.49466713728583
30
0
41
0.988033871712585
10
12.7771338571285
20
0.675471298562751
30
0
41
1
10
12.6516100327036
20
-0.319530619964553
30
0
41
1
10
12.4469158800943
20
-1.60732048356297
30
0
41
0.997008467928146
10
12.3686335366539
20
-2.04895539600592
30
0
41
0.995512701892219
10
12.2844434549672
20
-2.4664298232873
30
0
41
0.99551270189222
10
12.115556545038
20
-3.20284305728317
30
0
41
0.997008467928146
10
12.0313664633514
20
-3.51957225005918
30
0
41
1
10
11.9530841199109
20
-3.76062084129168
30
0
41
1
10
11.8637253480321
20
-3.97771773020924
30
0
41
0.99971317506595
10
11.8429232818284
20
-4.02339290510391
30
0
41
0.999272745305742
10
11.8226304102704
20
-4.0626584101032
30
0
41
0.99877068011986
10
11.803003318061
20
-4.09500979757805
30
0
0
SPLINE
5
129
100
AcDbEntity
8
1
62
256
6
ByLayer
370
-1
48
1
60
0
100
AcDbSpline
70
4
71
3
72
8
73
4
40
0
40
0
40
0
40
0
40
1
40
1
40
1
40
1
41
1
10
13
20
-4.61737271729169
30
0
41
1
10
12.8784697723401
20
-4.59965358908721
30
0
41
1
10
12.7571192380478
20
-4.58620871010112
30
0
41
1
10
12.6359992723385
20
-4.57691272588499
30
0
0
SPLINE
5
12A
100
AcDbEntity
8
1
62
256
6
ByLayer
370
-1
48
1
60
0
100
AcDbSpline
70
4
71
3
72
10
73
6
40
0
40
0
40
0
40
0
40
0.5
40
0.5
40
1
40
1
40
1
40
1
41
1
10
71.6382164184452
20
0.778084606769653
30
0
41
1
10
71.6109931075567
20
0.764708354460367
30
0
41
1
10
71.5806219103375
20
0.751888877218164
30
0
41
1
10
71.5140782561518
20
0.727582625903068
30
0
41
1
10
71.4776754954955
20
0.716036431580477
30
0
41
1
10
71.4390909165295
20
0.705450216303888
30
0
0
SPLINE
5
12B
100
AcDbEntity
8
1
62
256
6
ByLayer
370
-1
48
1
60
0
100
AcDbSpline
70
4
71
3
72
18
73
14
40
0
40
0
40
0
40
0
40
0.25
40
0.25
40
0.375
40
0.375
40
0.5
40
0.5
40
0.624999999999999
40
0.624999999999999
40
0.749999999999999
40
0.749999999999999
40
1
40
1
40
1
40
1
41
1
10
69.5179944839804
20
0.663061379688827
30
0
41
1
10
69.5317426126795
20
0.666155013234146
30
0
41
1
10
69.5412585750165
20
0.694476562368124
30
0
41
1
10
69.5478551843729
20
0.773373717989386
30
0
41
1
10
69.5487451918946
20
0.806077758171938
30
0
41
1
10
69.5474725488132
20
0.882532656072613
30
0
41
1
10
69.5453348942157
20
0.92620064633482
30
0
41
1
10
69.5376907068872
20
1.02392282613116
30
0
41
1
10
69.5321866417933
20
1.07797934450738
30
0
41
1
10
69.5172106142602
20
1.19633190157862
30
0
41
1
10
69.5076611671374
20
1.26105039242518
30
0
41
1
10
69.472498133294
20
1.46618221182266
30
0
41
1
10
69.4406353532211
20
1.61802931781858
30
0
41
1
10
69.3961317789423
20
1.78269986379621
30
0
0
SPLINE
5
12C
100
AcDbEntity
8
1
62
256
6
ByLayer
370
-1
48
1
60
0
100
AcDbSpline
70
4
71
3
72
8
73
4
40
0
40
0
40
0
40
0
40
1
40
1
40
1
40
1
41
1
10
71.3842015050024
20
2.95392490478153
30
0
41
1
10
71.4144057483452
20
3.01358778730474
30
0
41
1
10
71.4482159181185
20
3.06939784581567
30
0
41
1
10
71.4856675575385
20
3.12268026999976
30
0
0
SPLINE
5
12D
100
AcDbEntity
8
1
62
256
6
ByLayer
370
-1
48
1
60
0
100
AcDbSpline
70
4
71
3
72
8
73
4
40
0
40
0
40
0
40
0
40
1
40
1
40
1
40
1
41
1
10
10.6301050533833
20
4.64600535302085
30
0
41
1
10
11.3702369194663
20
3.76856456162528
30
0
41
1
10
12.1036611519779
20
2.89322961287269
30
0
41
1
10
12.8302945285894
20
2.02165779493046
30
0
0
SPLINE
5
12E
100
AcDbEntity
8
1
62
256
6
ByLayer
370
-1
48
1
60
0
100
AcDbSpline
70
4
71
3
72
8
73
4
40
0
40
0
40
0
40
0
40
1
40
1
40
1
40
1
41
1
10
69.3961317789423
20
1.78269986379621
30
0
41
1
10
69.4752145487116
20
1.74054410921204
30
0
41
1
10
69.5552671433754
20
1.69998509704192
30
0
41
1
10
69.6362478752449
20
1.66085846499144
30
0
0
SPLINE
5
12F
100
AcDbEntity
8
1
62
256
6
ByLayer
370
-1
48
1
60
0
100
AcDbSpline
70
4
71
3
72
18
73
14
40
0
40
0
40
0
40
0
40
0.25
40
0.25
40
0.375
40
0.375
40
0.5
40
0.5
40
0.75
40
0.75
40
0.875
40
0.875
40
1
40
1
40
1
40
1
41
1
10
9.82207166372072
20
-3.26990780484584
30
0
41
1
10
9.95270670023626
20
-3.40572629259276
30
0
41
1
10
10.0934555136154
20
-3.52505768026558
30
0
41
1
10
10.3194908506693
20
-3.68041729719764
30
0
41
1
10
10.3973504903785
20
-3.72825604353952
30
0
41
1
10
10.5582241692615
20
-3.81593940967565
30
0
41
1
10
10.6416805043023
20
-3.8559524826054
30
0
41
1
10
10.8961922772639
20
-3.96197149597114
30
0
41
1
10
11.0711963604553
20
-4.01428619643082
30
0
41
1
10
11.3409591849837
20
-4.06560477089599
30
0
41
1
10
11.4320911155875
20
-4.07815406411751
30
0
41
1
10
11.6166544176511
20
-4.09380792407782
30
0
41
1
10
11.7102855894868
20
-4.09685492568929
30
0
41
1
10
11.8030033180515
20
-4.09500979757669
30
0
0
SPLINE
5
130
100
AcDbEntity
8
1
62
256
6
ByLayer
370
-1
48
1
60
0
100
AcDbSpline
70
4
71
3
72
16
73
12
40
0
40
0
40
0
40
0
40
0.249999999999999
40
0.249999999999999
40
0.499999999999997
40
0.499999999999997
40
0.749999999999996
40
0.749999999999996
40
0.874999999999998
40
0.874999999999998
40
1
40
1
40
1
40
1
41
1
10
71.6382164184452
20
0.778084606769653
30
0
41
1
10
71.6784840043742
20
0.797870201236094
30
0
41
1
10
71.7105006792463
20
0.818244151328656
30
0
41
1
10
71.7584702424308
20
0.860137527344762
30
0
41
1
10
71.7743904776582
20
0.881898659585659
30
0
41
1
10
71.7883272305966
20
0.92480588033996
30
0
41
1
10
71.7866904472947
20
0.946087409046925
30
0
41
1
10
71.7711177368596
20
0.977747384210375
30
0
41
1
10
71.763683712083
20
0.988262723473923
30
0
41
1
10
71.7447428363015
20
1.00871145788486
30
0
41
1
10
71.7332139336231
20
1.01870891323222
30
0
41
1
10
71.7196635938396
20
1.02848353841395
30
0
0
SPLINE
5
131
100
AcDbEntity
8
1
62
256
6
ByLayer
370
-1
48
1
60
0
100
AcDbSpline
70
4
71
3
72
8
73
4
40
0
40
0
40
0
40
0
40
1
40
1
40
1
40
1
41
1
10
71.7266641226242
20
1.05000576948308
30
0
41
1
10
71.6606013358706
20
1.09160164131609
30
0
41
1
10
71.6077994989673
20
1.13623232119968
30
0
41
1
10
71.5630650290954
20
1.18225591369861
30
0
0
SPLINE
5
132
100
AcDbEntity
8
1
62
256
6
ByLayer
370
-1
48
1
60
0
100
AcDbSpline
70
4
71
3
72
14
73
10
40
0
40
0
40
0
40
0
40
0.25
40
0.25
40
0.5
40
0.5
40
0.75
40
0.75
40
1
40
1
40
1
40
1
41
1
10
10.6301050529483
20
4.64600535353648
30
0
41
1
10
10.4645404595226
20
4.74888629763194
30
0
41
1
10
10.3093201707007
20
4.85563392224748
30
0
41
1
10
10.0158950220285
20
5.07783432039551
30
0
41
1
10
9.87768046318354
20
5.19325063101763
30
0
41
1
10
9.6146133094467
20
5.43203422222447
30
0
41
1
10
9.48962462014026
20
5.5555272496666
30
0
41
1
10
9.25014458240946
20
5.80825734848298
30
0
41
1
10
9.1360239101935
20
5.93705208287855
30
0
41
1
10
9.02552518445822
20
6.06751253033647
30
0
0
SPLINE
5
133
100
AcDbEntity
8
1
62
256
6
ByLayer
370
-1
48
1
60
0
100
AcDbSpline
70
4
71
3
72
8
73
4
40
0
40
0
40
0
40
0
40
1
40
1
40
1
40
1
41
1
10
9.49308272857976
20
-2.86841519860641
30
0
41
1
10
9.49308272857976
20
-3.38211015009651
30
0
41
1
10
9.49308272857976
20
-3.89580510158657
30
0
41
1
10
9.49308272857979
20
-4.40950005307664
30
0
0
SPLINE
5
134
100
AcDbEntity
8
1
62
256
6
ByLayer
370
-1
48
1
60
0
100
AcDbSpline
70
4
71
3
72
24
73
20
40
0
40
0
40
0
40
0
40
0.125
40
0.125
40
0.25
40
0.25
40
0.375
40
0.375
40
0.5
40
0.5
40
0.75
40
0.75
40
0.78125
40
0.78125
40
0.812499999999999
40
0.812499999999999
40
0.875
40
0.875
40
1
40
1
40
1
40
1
41
1
10
9.49308272857982
20
-4.40950005307667
30
0
41
1
10
9.57982141028214
20
-4.43314880724506
30
0
41
1
10
9.67116462299063
20
-4.4492033348084
30
0
41
1
10
9.86381949924856
20
-4.47267279681239
30
0
41
1
10
9.96513358662807
20
-4.48004718975108
30
0
41
1
10
10.1790404425271
20
-4.49048107514284
30
0
41
1
10
10.2916297662529
20
-4.49351949161385
30
0
41
1
10
10.5299482860202
20
-4.49839002745224
30
0
41
1
10
10.656064818157
20
-4.50021995589606
30
0
41
1
10
11.0495442685112
20
-4.5072844385594
30
0
41
1
10
11.3338038993691
20
-4.51435141379747
30
0
41
1
10
11.6850880446429
20
-4.53103755113059
30
0
41
1
10
11.7246545078341
20
-4.53319943707459
30
0
41
1
10
11.8041960782879
20
-4.53666977676994
30
0
41
1
10
11.844081503651
20
-4.5378037504266
30
0
41
1
10
11.9645782208777
20
-4.54187368050827
30
0
41
1
10
12.0459333689311
20
-4.5449912332821
30
0
41
1
10
12.2931826854603
20
-4.5558129823458
30
0
41
1
10
12.4622454308837
20
-4.56497181939574
30
0
41
1
10
12.6359992719979
20
-4.57691272586121
30
0
0
SPLINE
5
135
100
AcDbEntity
8
1
62
256
6
ByLayer
370
-1
48
1
60
0
100
AcDbSpline
70
4
71
3
72
8
73
4
40
0
40
0
40
0
40
0
40
1
40
1
40
1
40
1
41
1
10
71.3243641874682
20
1.1956228488055
30
0
41
1
10
71.4036188391264
20
1.18928251192881
30
0
41
1
10
71.4831838868072
20
1.18481594422317
30
0
41
1
10
71.5630650290954
20
1.18225591369861
30
0
0
SPLINE
5
136
100
AcDbEntity
8
1
62
256
6
ByLayer
370
-1
48
1
60
0
100
AcDbSpline
70
4
71
3
72
16
73
12
40
0
40
0
40
0
40
0
40
0.25
40
0.25
40
0.5
40
0.5
40
0.75
40
0.75
40
0.875
40
0.875
40
1
40
1
40
1
40
1
41
1
10
7.57077900741069
20
1.16273752930456
30
0
41
1
10
7.73103109185902
20
0.7814131965375
30
0
41
1
10
7.89127881666252
20
0.408220841950339
30
0
41
1
10
8.21193030303019
20
-0.319117767678876
30
0
41
1
10
8.37234448021067
20
-0.6733483767444
30
0
41
1
10
8.69352437270524
20
-1.35778694506178
30
0
41
1
10
8.85382106331815
20
-1.68713804374443
30
0
41
1
10
9.09385585326979
20
-2.15429833550297
30
0
41
1
10
9.17379867423386
20
-2.30548642538875
30
0
41
1
10
9.33354697732423
20
-2.59646816779636
30
0
41
1
10
9.41335232456012
20
-2.73628565684072
30
0
41
1
10
9.49308272857982
20
-2.86841519860641
30
0
0
SPLINE
5
137
100
AcDbEntity
8
1
62
256
6
ByLayer
370
-1
48
1
60
0
100
AcDbSpline
70
4
71
3
72
12
73
8
40
0
40
0
40
0
40
0
40
0.499999999999999
40
0.499999999999999
40
0.749999999999999
40
0.749999999999999
40
1
40
1
40
1
40
1
41
1
10
68.179322474333
20
3.25816868294493
30
0
41
1
10
68.1354187529319
20
3.24927323840328
30
0
41
1
10
68.0917248347369
20
3.23522429887302
30
0
41
1
10
68.0378501925196
20
3.19543633031157
30
0
41
1
10
68.0222136553851
20
3.17879133045568
30
0
41
1
10
68.000200337296
20
3.13981106659176
30
0
41
1
10
67.994215077184
20
3.11830425371855
30
0
41
1
10
67.9921582518845
20
3.09677434334435
30
0
0
SPLINE
5
138
100
AcDbEntity
8
1
62
256
6
ByLayer
370
-1
48
1
60
0
100
AcDbSpline
70
4
71
3
72
22
73
18
40
0
40
0
40
0
40
0
40
0.0232228451594539
40
0.0232228451594539
40
0.218578276127563
40
0.218578276127563
40
0.316255991611618
40
0.316255991611618
40
0.365094849353645
40
0.365094849353645
40
0.413933707095672
40
0.413933707095672
40
0.609289138063781
40
0.609289138063781
40
0.804644569031891
40
0.804644569031891
40
1
40
1
40
1
40
1
41
1
10
32.6259461390453
20
5.97498664257776
30
0
41
1
10
32.8951997117439
20
5.97493950371228
30
0
41
1
10
33.1644310238227
20
5.97392451204303
30
0
41
1
10
35.6983433488288
20
5.95524512689596
30
0
41
1
10
37.9619947719916
20
5.87006865461518
30
0
41
1
10
41.3612320131488
20
5.64327973953158
30
0
41
1
10
42.4949082121042
20
5.55117460178306
30
0
41
1
10
44.1970315877601
20
5.38912524377358
30
0
41
1
10
44.7646752763505
20
5.33113230723066
30
0
41
1
10
45.9006259987484
20
5.20740384008411
30
0
41
1
10
46.4691845975025
20
5.14163629593827
30
0
41
1
10
49.3098007169402
20
4.79459406995773
30
0
41
1
10
51.5763477313221
20
4.45855456898101
30
0
41
1
10
56.1051848612146
20
3.69299988971244
30
0
41
1
10
58.3673409126073
20
3.26305759519792
30
0
41
1
10
62.89483312921
20
2.3363769747333
30
0
41
1
10
65.1602629209424
20
1.83998557668562
30
0
41
1
10
67.4312667955404
20
1.32692357045644
30
0
0
SPLINE
5
139
100
AcDbEntity
8
1
62
256
6
ByLayer
370
-1
48
1
60
0
100
AcDbSpline
70
4
71
3
72
14
73
10
40
0
40
0
40
0
40
0
40
0.25
40
0.25
40
0.5
40
0.5
40
0.75
40
0.75
40
1
40
1
40
1
40
1
41
1
10
7.49308272857971
20
1.2886667855125
30
0
41
1
10
7.44401174308732
20
1.33381443787795
30
0
41
1
10
7.39752217237364
20
1.38751058875096
30
0
41
1
10
7.30940996155707
20
1.51077389815148
30
0
41
1
10
7.26758426351199
20
1.58099647033532
30
0
41
1
10
7.1919688210582
20
1.72880196466181
30
0
41
1
10
7.15760191831083
20
1.80704751437403
30
0
41
1
10
7.09436869168417
20
1.97049954415527
30
0
41
1
10
7.06575498817003
20
2.05518945637522
30
0
41
1
10
7.04001807281108
20
2.14033708053486
30
0
0
SPLINE
5
13A
100
AcDbEntity
8
1
62
256
6
ByLayer
370
-1
48
1
60
0
100
AcDbSpline
70
4
71
2
72
6
73
3
40
0
40
0
40
0
40
1
40
1
40
1
41
1
10
12.6359992723385
20
-4.17164738771712
30
0
41
1
10
12.6359992723385
20
-4.37428005681224
30
0
41
1
10
12.6359992723385
20
-4.57691272590736
30
0
0
SPLINE
5
13B
100
AcDbEntity
8
1
62
256
6
ByLayer
370
-1
48
1
60
0
100
AcDbSpline
70
4
71
2
72
6
73
3
40
0
40
0
40
0
40
1
40
1
40
1
41
0.500000494991554
10
69.6362478752448
20
1.66085846499145
30
0
41
0.499999505008445
10
69.6494194284317
20
1.65449450033982
30
0
41
0.500000494991554
10
69.6625417539899
20
1.64815302453773
30
0
0
SPLINE
5
13C
100
AcDbEntity
8
1
62
256
6
ByLayer
370
-1
48
1
60
0
100
AcDbSpline
70
4
71
3
72
20
73
16
40
0
40
0
40
0
40
0
40
0.25
40
0.25
40
0.3125
40
0.3125
40
0.375000000000001
40
0.375000000000001
40
0.5
40
0.5
40
0.625
40
0.625
40
0.75
40
0.75
40
1
40
1
40
1
40
1
41
1
10
7.49308272857965
20
1.28866678551256
30
0
41
1
10
7.63836420818046
20
0.673726913256104
30
0
41
1
10
7.79312754109367
20
0.0954863073907575
30
0
41
1
10
7.99749617983304
20
-0.58785251941427
30
0
41
1
10
8.03903134961536
20
-0.722925286369247
30
0
41
1
10
8.12256752122869
20
-0.9875102803083
30
0
41
1
10
8.16445472724672
20
-1.11668958591494
30
0
41
1
10
8.29046113825345
20
-1.49592143196122
30
0
41
1
10
8.37492476804675
20
-1.73770895427685
30
0
41
1
10
8.54470047787058
20
-2.20383382324533
30
0
41
1
10
8.63001107054907
20
-2.42818146735903
30
0
41
1
10
8.80143862452977
20
-2.86260581021125
30
0
41
1
10
8.88755446942457
20
-3.07268402145851
30
0
41
1
10
9.14715659428379
20
-3.68378379427142
30
0
41
1
10
9.32006904078722
20
-4.06202988831015
30
0
41
1
10
9.49308272857979
20
-4.40950005307664
30
0
0
SPLINE
5
13D
100
AcDbEntity
8
1
62
256
6
ByLayer
370
-1
48
1
60
0
100
AcDbSpline
70
4
71
3
72
15
73
11
40
0
40
0
40
0
40
0
40
0.0759257013562434
40
0.223656863656402
40
0.37138802595656
40
0.519119188256719
40
0.666850350556878
40
0.814581512857036
40
0.962312675157195
40
1
40
1
40
1
40
1
41
1
10
65.4565565552853
20
3.21861527616619
30
0
41
1
10
65.3071679481902
20
3.21601182023775
30
0
41
1
10
64.8670620599254
20
3.20788048017792
30
0
41
1
10
64.1359498077541
20
3.19211196043233
30
0
41
1
10
63.2633392459412
20
3.16971875536711
30
0
41
1
10
62.3910862563441
20
3.14376286171898
30
0
41
1
10
61.5196294653408
20
3.11426852871935
30
0
41
1
10
60.6483389116631
20
3.08122097174169
30
0
41
1
10
59.9927162854622
20
3.05369359402548
30
0
41
1
10
59.6277956693487
20
3.03744392598915
30
0
41
1
10
59.5536232804599
20
3.03410284671949
30
0
0
SPLINE
5
13E
100
AcDbEntity
8
1
62
256
6
ByLayer
370
-1
48
1
60
0
100
AcDbSpline
70
4
71
3
72
14
73
10
40
0
40
0
40
0
40
0
40
0.311323696932919
40
0.311323696932919
40
0.622647393865838
40
0.622647393865838
40
0.933971090798757
40
0.933971090798757
40
1
40
1
40
1
40
1
41
1
10
76.5877061849748
20
1.15744408337608
30
0
41
1
10
76.5921510054235
20
1.15744408337611
30
0
41
1
10
76.5969023386981
20
1.1630506737969
30
0
41
1
10
76.6065882482937
20
1.18512007590073
30
0
41
1
10
76.6115085077086
20
1.20139085067578
30
0
41
1
10
76.6215102289044
20
1.24445059215898
30
0
41
1
10
76.6265523388826
20
1.27120278849782
30
0
41
1
10
76.6324782920872
20
1.30855322446612
30
0
41
1
10
76.633513173372
20
1.31530179060206
30
0
41
1
10
76.6345443980003
20
1.32225168580271
30
0
0
SPLINE
5
13F
100
AcDbEntity
8
1
62
256
6
ByLayer
370
-1
48
1
60
0
100
AcDbSpline
70
4
71
3
72
8
73
4
40
0
40
0
40
0
40
0
40
1
40
1
40
1
40
1
41
1
10
71.4390909165289
20
0.705450216303689
30
0
41
1
10
71.1830620170049
20
0.635205130831167
30
0
41
1
10
70.9119569154296
20
0.584824091614564
30
0
41
1
10
70.625565338207
20
0.562526053727538
30
0
0
SPLINE
5
140
100
AcDbEntity
8
1
62
256
6
ByLayer
370
-1
48
1
60
0
100
AcDbSpline
70
4
71
3
72
10
73
6
40
0
40
0
40
0
40
0
40
0.5
40
0.5
40
1
40
1
40
1
40
1
41
1
10
70.6255653382068
20
0.56252605372751
30
0
41
1
10
70.5081916474466
20
0.553387506327169
30
0
41
1
10
70.379931149954
20
0.555194781493952
30
0
41
1
10
70.1098577593739
20
0.580461343666855
30
0
41
1
10
69.967365632882
20
0.60428041627884
30
0
41
1
10
69.8240864422032
20
0.639014003653244
30
0
0
SPLINE
5
141
100
AcDbEntity
8
1
62
256
6
ByLayer
370
-1
48
1
60
0
100
AcDbSpline
70
4
71
3
72
8
73
4
40
0
40
0
40
0
40
0
40
1
40
1
40
1
40
1
41
1
10
67.9921582518708
20
3.09677434331792
30
0
41
1
10
68.1593710375913
20
2.96123793347576
30
0
41
1
10
68.3231215810917
20
2.8231341972409
30
0
41
1
10
68.4872572826077
20
2.68719167449021
30
0
0
SPLINE
5
142
100
AcDbEntity
8
1
62
256
6
ByLayer
370
-1
48
1
60
0
100
AcDbSpline
70
4
71
3
72
10
73
6
40
0
40
0
40
0
40
0
40
0.5
40
0.5
40
1
40
1
40
1
40
1
41
1
10
67.992158251891
20
3.09677434334412
30
0
41
1
10
67.5685025716725
20
3.09914489684994
30
0
41
1
10
67.1454772218388
20
3.11338304813867
30
0
41
1
10
66.3003460671621
20
3.15600606793984
30
0
41
1
10
65.8782359349541
20
3.18446866570176
30
0
41
1
10
65.4565565552923
20
3.2186152761663
30
0
0
SPLINE
5
143
100
AcDbEntity
8
1
62
256
6
ByLayer
370
-1
48
1
60
0
100
AcDbSpline
70
4
71
3
72
8
73
4
40
0
40
0
40
0
40
0
40
1
40
1
40
1
40
1
41
1
10
8.90026812229826
20
6.21724587130444
30
0
41
1
10
8.94162376002728
20
6.16889030867921
30
0
41
1
10
8.98334373480361
20
6.11896600519574
30
0
41
1
10
9.0255251983138
20
6.06751272701345
30
0
0
SPLINE
5
144
100
AcDbEntity
8
1
62
256
6
ByLayer
370
-1
48
1
60
0
100
AcDbSpline
70
4
71
1
72
4
73
2
40
0
40
0
40
1
40
1
41
1
10
12.8302945285894
20
2.02165779493046
30
0
41
1
10
12.8302945285894
20
3.63482050243977
30
0
0
SPLINE
5
145
100
AcDbEntity
8
1
62
256
6
ByLayer
370
-1
48
1
60
0
100
AcDbSpline
70
4
71
3
72
54
73
50
40
0
40
0
40
0
40
0
40
0.0625000000000001
40
0.0625000000000001
40
0.125
40
0.125
40
0.1875
40
0.1875
40
0.21875
40
0.21875
40
0.25
40
0.25
40
0.28125
40
0.28125
40
0.312499999999999
40
0.312499999999999
40
0.343749999999999
40
0.343749999999999
40
0.359374999999999
40
0.359374999999999
40
0.374999999999999
40
0.374999999999999
40
0.4375
40
0.4375
40
0.5
40
0.5
40
0.5625
40
0.5625
40
0.59375
40
0.59375
40
0.625
40
0.625
40
0.656250000000001
40
0.656250000000001
40
0.687500000000001
40
0.687500000000001
40
0.750000000000001
40
0.750000000000001
40
0.781250000000001
40
0.781250000000001
40
0.812500000000001
40
0.812500000000001
40
0.84375
40
0.84375
40
0.875
40
0.875
40
0.9375
40
0.9375
40
1
40
1
40
1
40
1
41
1
10
8.90026812230172
20
6.21724587130038
30
0
41
1
10
8.76757407994739
20
6.3723999307567
30
0
41
1
10
8.63976289396598
20
6.52376414922153
30
0
41
1
10
8.38674797251809
20
6.81742717581142
30
0
41
1
10
8.26158204532319
20
6.95974406964626
30
0
41
1
10
8.00660198210272
20
7.23096413624214
30
0
41
1
10
7.8768420860529
20
7.35995265021128
30
0
41
1
10
7.67216803674879
20
7.53694334295972
30
0
41
1
10
7.60209186286758
20
7.59325236999768
30
0
41
1
10
7.458543808961
20
7.69752113769377
30
0
41
1
10
7.38498107457957
20
7.7455821255065
30
0
41
1
10
7.23322988507371
20
7.83122553688855
30
0
41
1
10
7.15504086672371
20
7.86881925174953
30
0
41
1
10
6.99294403429545
20
7.93037264149348
30
0
41
1
10
6.90997622114676
20
7.95388021288954
30
0
41
1
10
6.74199226849811
20
7.98322583494581
30
0
41
1
10
6.65672133314743
20
7.98916451847654
30
0
41
1
10
6.52739492634416
20
7.98290967198085
30
0
41
1
10
6.48405341615018
20
7.97829556820102
30
0
41
1
10
6.39704124782577
20
7.96363285368145
30
0
41
1
10
6.35322066659938
20
7.95351031840417
30
0
41
1
10
6.13866117066072
20
7.8900475550042
30
0
41
1
10
5.97782934455566
20
7.7980275203131
30
0
41
1
10
5.68886939877328
20
7.54078690268329
30
0
41
1
10
5.56798212083055
20
7.38259743179725
30
0
41
1
10
5.37370484014733
20
7.02232480765926
30
0
41
1
10
5.30366646363035
20
6.82659731320044
30
0
41
1
10
5.23628300229763
20
6.51529627828342
30
0
41
1
10
5.22025612795335
20
6.40841133633026
30
0
41
1
10
5.2012371630608
20
6.19347758652896
30
0
41
1
10
5.19810004539417
20
6.08485898348448
30
0
41
1
10
5.20407517204546
20
5.86540142538303
30
0
41
1
10
5.21319081720819
20
5.7545619696316
30
0
41
1
10
5.24356113827332
20
5.53048250371199
30
0
41
1
10
5.26477120638984
20
5.41796094522834
30
0
41
1
10
5.34450615001552
20
5.0829841557987
30
0
41
1
10
5.41932765724698
20
4.86134961291251
30
0
41
1
10
5.56026742802177
20
4.52805841846231
30
0
41
1
10
5.61211519873942
20
4.41678845988477
30
0
41
1
10
5.72214340034839
20
4.19796551043558
30
0
41
1
10
5.78056786496353
20
4.08979954458965
30
0
41
1
10
5.90287569624078
20
3.87509043317479
30
0
41
1
10
5.96675964078136
20
3.76854699076861
30
0
41
1
10
6.09863871023674
20
3.55622021285438
30
0
41
1
10
6.16700003125789
20
3.44988170829461
30
0
41
1
10
6.37313445290698
20
3.13547547015244
30
0
41
1
10
6.511437581764
20
2.93224778165518
30
0
41
1
10
6.78183273575908
20
2.53168859281862
30
0
41
1
10
6.91454133917128
20
2.33344115045625
30
0
41
1
10
7.04001807279772
20
2.14033708055254
30
0
0
SPLINE
5
146
100
AcDbEntity
8
1
62
256
6
ByLayer
370
-1
48
1
60
0
100
AcDbSpline
70
4
71
3
72
8
73
4
40
0
40
0
40
0
40
0
40
1
40
1
40
1
40
1
41
1
10
71.2867063588497
20
2.76158207226345
30
0
41
1
10
71.2955559206987
20
2.78065916236738
30
0
41
1
10
71.3048113054704
20
2.79943327770906
30
0
41
1
10
71.3144803027789
20
2.81797873672602
30
0
0
SPLINE
5
147
100
AcDbEntity
8
1
62
256
6
ByLayer
370
-1
48
1
60
0
100
AcDbSpline
70
4
71
3
72
8
73
4
40
0
40
0
40
0
40
0
40
1
40
1
40
1
40
1
41
1
10
68.5478439895268
20
1.06406575194012
30
0
41
1
10
68.1923086692006
20
1.13570863367767
30
0
41
1
10
67.8195733817814
20
1.22384861092655
30
0
41
1
10
67.4312667955514
20
1.32692357045352
30
0
0
SPLINE
5
148
100
AcDbEntity
8
1
62
256
6
ByLayer
370
-1
48
1
60
0
100
AcDbSpline
70
4
71
3
72
12
73
8
40
0
40
0
40
0
40
0
40
0.5
40
0.5
40
0.75
40
0.75
40
1
40
1
40
1
40
1
41
1
10
71.3758157748405
20
-0.0286326367852041
30
0
41
1
10
70.994720213419
20
-0.0375211101224124
30
0
41
1
10
70.6199208425046
20
-0.002258318164138
30
0
41
1
10
70.0670981007173
20
0.116337556585336
30
0
41
1
10
69.883671855896
20
0.167210852506941
30
0
41
1
10
69.5237238517398
20
0.2914320480225
30
0
41
1
10
69.3481287077096
20
0.364354719127363
30
0
41
1
10
69.1770554665369
20
0.448378365083926
30
0
0
SPLINE
5
149
100
AcDbEntity
8
1
62
256
6
ByLayer
370
-1
48
1
60
0
100
AcDbSpline
70
4
71
3
72
12
73
8
40
0
40
0
40
0
40
0
40
0.249999999999991
40
0.249999999999991
40
0.499999999999982
40
0.499999999999982
40
1
40
1
40
1
40
1
41
1
10
71.2064191459846
20
2.57753905990737
30
0
41
1
10
71.208713626181
20
2.57753905990737
30
0
41
1
10
71.212850949728
20
2.58529983404196
30
0
41
1
10
71.2232630416198
20
2.60945865838659
30
0
41
1
10
71.2295939409495
20
2.62574956606932
30
0
41
1
10
71.2504662621434
20
2.67854330639525
30
0
41
1
10
71.2673172464911
20
2.71978476638407
30
0
41
1
10
71.2867063588497
20
2.76158207226345
30
0
0
SPLINE
5
14A
100
AcDbEntity
8
1
62
256
6
ByLayer
370
-1
48
1
60
0
100
AcDbSpline
70
4
71
3
72
22
73
18
40
0
40
0
40
0
40
0
40
0.185593364202491
40
0.185593364202491
40
0.278390046303737
40
0.278390046303737
40
0.371186728404983
40
0.371186728404983
40
0.556780092607473
40
0.556780092607473
40
0.742373456809964
40
0.742373456809964
40
0.83517013891121
40
0.83517013891121
40
0.927966821012456
40
0.927966821012456
40
1
40
1
40
1
40
1
41
1
10
13
20
-4.61737271729169
30
0
41
1
10
15.3372996600296
20
-4.95815141182513
30
0
41
1
10
17.6709631208071
20
-5.24258812203419
30
0
41
1
10
21.1721218425592
20
-5.57005155775761
30
0
41
1
10
22.3393072463835
20
-5.66267384413308
30
0
41
1
10
24.675093117044
20
-5.81296629934636
30
0
41
1
10
25.8436849734682
20
-5.87060179532085
30
0
41
1
10
29.3439146099537
20
-5.98918626848496
30
0
41
1
10
31.67305780812
20
-5.99581389510814
30
0
41
1
10
36.3310137083366
20
-5.86525207430068
30
0
41
1
10
38.6599050902436
20
-5.72828027940747
30
0
41
1
10
42.1587141964497
20
-5.42104580742617
30
0
41
1
10
43.3262725735175
20
-5.30161048170035
30
0
41
1
10
45.6625190126218
20
-5.03060237144075
30
0
41
1
10
46.8288151433935
20
-4.87932259485939
30
0
41
1
10
48.8981322548741
20
-4.58518105117261
30
0
41
1
10
49.8016781360286
20
-4.44800745606906
30
0
41
1
10
50.7046923131942
20
-4.30302469858756
30
0
0
SPLINE
5
14B
100
AcDbEntity
8
1
62
256
6
ByLayer
370
-1
48
1
60
0
100
AcDbSpline
70
4
71
3
72
22
73
18
40
0
40
0
40
0
40
0
40
0.125
40
0.125
40
0.25
40
0.25
40
0.375
40
0.375
40
0.5
40
0.5
40
0.625
40
0.625
40
0.75
40
0.75
40
0.875
40
0.875
40
1
40
1
40
1
40
1
41
1
10
71.6089477106917
20
1.18225591369861
30
0
41
1
10
71.614088072554
20
1.18225591369861
30
0
41
1
10
71.6102193962265
20
1.18909323018002
30
0
41
1
10
71.5887011399425
20
1.21463515452874
30
0
41
1
10
71.5717120958446
20
1.23278924823072
30
0
41
1
10
71.5308815511061
20
1.27841800342782
30
0
41
1
10
71.5073974465454
20
1.30552560421123
30
0
41
1
10
71.4587585708276
20
1.36667446344003
30
0
41
1
10
71.4333693414661
20
1.40095049820539
30
0
41
1
10
71.3826931953072
20
1.47707332277383
30
0
41
1
10
71.3579607651338
20
1.51806931801767
30
0
41
1
10
71.3109529239562
20
1.60630596116479
30
0
41
1
10
71.2885314142673
20
1.6538655947752
30
0
41
1
10
71.2477826758586
20
1.75491691215183
30
0
41
1
10
71.2297794647825
20
1.80751670770175
30
0
41
1
10
71.1991116856653
20
1.91730192988274
30
0
41
1
10
71.1864169682029
20
1.97509421858274
30
0
41
1
10
71.1772022567744
20
2.03242986037216
30
0
0
SPLINE
5
14C
100
AcDbEntity
8
1
62
256
6
ByLayer
370
-1
48
1
60
0
100
AcDbSpline
70
4
71
3
72
24
73
20
40
0
40
0
40
0
40
0
40
0.0756136336700326
40
0.159477154940836
40
0.243340676211639
40
0.327204197482443
40
0.369135958117844
40
0.411067718753246
40
0.452999479388647
40
0.494931240024049
40
0.578794761294852
40
0.662658282565655
40
0.746521803836459
40
0.78845356447186
40
0.809419444789561
40
0.830385325107262
40
0.914248846378065
40
0.998112367648868
40
1
40
1
40
1
40
1
41
1
10
9.02552518446151
20
6.06751253033784
30
0
41
1
10
8.94047434320478
20
6.03259172997076
30
0
41
1
10
8.75857306648945
20
5.95209936388261
30
0
41
1
10
8.47603640536406
20
5.80768149816325
30
0
41
1
10
8.18270233968713
20
5.63613515033674
30
0
41
1
10
7.94093572811636
20
5.47631047930528
30
0
41
1
10
7.75135732603763
20
5.33965981883236
30
0
41
1
10
7.6116226683383
20
5.23317778403495
30
0
41
1
10
7.47486885476931
20
5.12310313217594
30
0
41
1
10
7.29714465945031
20
4.97214672399167
30
0
41
1
10
7.08484064037421
20
4.7767194850191
30
0
41
1
10
6.84908594967584
20
4.53523490704825
30
0
41
1
10
6.670596809816
20
4.33138736360323
30
0
41
1
10
6.55576920723567
20
4.18880251395797
30
0
41
1
10
6.49325436402591
20
4.10776070915631
30
0
41
1
10
6.40138270604962
20
3.98509836834364
30
0
41
1
10
6.27099186498882
20
3.79705077850613
30
0
41
1
10
6.16690657185282
20
3.62430238310225
30
0
41
1
10
6.11826197216388
20
3.5366298703353
30
0
41
1
10
6.1171930957016
20
3.53469978726437
30
0
0
SPLINE
5
14D
100
AcDbEntity
8
1
62
256
6
ByLayer
370
-1
48
1
60
0
100
AcDbSpline
70
4
71
3
72
8
73
4
40
0
40
0
40
0
40
0
40
1
40
1
40
1
40
1
41
1
10
71.8603757084878
20
5.97413167923867
30
0
41
1
10
71.8635933731587
20
5.97473544260046
30
0
41
1
10
71.869424542882
20
5.97501300647323
30
0
41
1
10
71.8778024131005
20
5.97499969476618
30
0
0
SPLINE
5
14E
100
AcDbEntity
8
1
62
256
6
ByLayer
370
-1
48
1
60
0
100
AcDbSpline
70
4
71
3
72
10
73
6
40
0
40
0
40
0
40
0
40
0.262106644064619
40
0.262106644064619
40
1
40
1
40
1
40
1
41
1
10
71.9200624710783
20
5.97370287737275
30
0
41
1
10
71.9298138240331
20
5.97325508267821
30
0
41
1
10
71.9406377856918
20
5.97270309048884
30
0
41
1
10
71.9856105424616
20
5.97027703207507
30
0
41
1
10
72.0270103181429
20
5.96779598312764
30
0
41
1
10
72.0751253878665
20
5.96517095711093
30
0
0
SPLINE
5
14F
100
AcDbEntity
8
1
62
256
6
ByLayer
370
-1
48
1
60
0
100
AcDbSpline
70
4
71
3
72
14
73
10
40
0
40
0
40
0
40
0
40
0.25
40
0.25
40
0.5
40
0.5
40
0.75
40
0.75
40
1
40
1
40
1
40
1
41
1
10
68.4872572826091
20
2.68719167449086
30
0
41
1
10
68.5693572782846
20
2.60089707354146
30
0
41
1
10
68.6458932110327
20
2.51171461796136
30
0
41
1
10
68.7969841008697
20
2.33818333379702
30
0
41
1
10
68.8703482670064
20
2.25464386195856
30
0
41
1
10
69.0171767821435
20
2.09794216645508
30
0
41
1
10
69.0905554032952
20
2.02469008184619
30
0
41
1
10
69.2406266815524
20
1.89180271737078
30
0
41
1
10
69.3177514433015
20
1.83191436532729
30
0
41
1
10
69.3961317789427
20
1.78269986379718
30
0
0
SPLINE
5
150
100
AcDbEntity
8
1
62
256
6
ByLayer
370
-1
48
1
60
0
100
AcDbSpline
70
4
71
3
72
8
73
4
40
0
40
0
40
0
40
0
40
1
40
1
40
1
40
1
41
1
10
9.49308272857982
20
-2.86841519860644
30
0
41
1
10
9.59607169841775
20
-2.9981477385532
30
0
41
1
10
9.70587166454101
20
-3.13248020879763
30
0
41
1
10
9.82207186224434
20
-3.26990467343225
30
0
0
SPLINE
5
151
100
AcDbEntity
8
1
62
256
6
ByLayer
370
-1
48
1
60
0
100
AcDbSpline
70
4
71
3
72
8
73
4
40
0
40
0
40
0
40
0
40
1
40
1
40
1
40
1
41
1
10
69.8240864422029
20
0.63901400365333
30
0
41
1
10
69.640280684704
20
0.683571997788874
30
0
41
1
10
69.4626352722702
20
0.734332082687956
30
0
41
1
10
69.2892255916602
20
0.793231079249722
30
0
0
SPLINE
5
152
100
AcDbEntity
8
1
62
256
6
ByLayer
370
-1
48
1
60
0
100
AcDbSpline
70
4
71
3
72
12
73
8
40
0
40
0
40
0
40
0
40
0.50000000000002
40
0.50000000000002
40
0.75000000000001
40
0.75000000000001
40
1
40
1
40
1
40
1
41
1
10
70.491358662026
20
1.34109670761296
30
0
41
1
10
70.633859208926
20
1.30320058429402
30
0
41
1
10
70.7753551002825
20
1.27235558251019
30
0
41
1
10
70.9854721261906
20
1.23604046731572
30
0
41
1
10
71.0552648982274
20
1.22559503610236
30
0
41
1
10
71.1917686598797
20
1.20816677649893
30
0
41
1
10
71.2587494847904
20
1.20113138387981
30
0
41
1
10
71.3243641874682
20
1.1956228488055
30
0
0
SPLINE
5
153
100
AcDbEntity
8
1
62
256
6
ByLayer
370
-1
48
1
60
0
100
AcDbSpline
70
4
71
3
72
8
73
4
40
0
40
0
40
0
40
0
40
1
40
1
40
1
40
1
41
1
10
11.8030033180619
20
-4.09500979757644
30
0
41
1
10
12.0698400090367
20
-4.11207432591692
30
0
41
1
10
12.346593993731
20
-4.13308362927614
30
0
41
1
10
12.6359992719982
20
-4.17164738767124
30
0
0
SPLINE
5
154
100
AcDbEntity
8
1
62
256
6
ByLayer
370
-1
48
1
60
0
100
AcDbSpline
70
4
71
3
72
22
73
18
40
0
40
0
40
0
40
0
40
0.0674909359416496
40
0.0674909359416496
40
0.25399274875332
40
0.25399274875332
40
0.44049456156499
40
0.44049456156499
40
0.62699637437666
40
0.62699637437666
40
0.720247280782495
40
0.720247280782495
40
0.81349818718833
40
0.81349818718833
40
0.906749093594165
40
0.906749093594165
40
1
40
1
40
1
40
1
41
1
10
49.4933773277973
20
-4.14146422565264
30
0
41
1
10
48.6643759418176
20
-4.25806858932398
30
0
41
1
10
47.8352917008028
20
-4.36864820746959
30
0
41
1
10
44.7148384377177
20
-4.75899218328596
30
0
41
1
10
42.4247032469154
20
-4.99224295811456
30
0
41
1
10
37.8415007022347
20
-5.32700066745045
30
0
41
1
10
35.5508876744106
20
-5.42838622935034
30
0
41
1
10
30.967491174619
20
-5.50450062806513
30
0
41
1
10
28.6765372454917
20
-5.47893812315277
30
0
41
1
10
25.2389908197944
20
-5.35115832333614
30
0
41
1
10
24.0934819813404
20
-5.29390039033174
30
0
41
1
10
21.8023839349249
20
-5.14975655368752
30
0
41
1
10
20.6566292756254
20
-5.06181197573198
30
0
41
1
10
18.3647326561546
20
-4.85627866324376
30
0
41
1
10
17.2191998842321
20
-4.73769514441497
30
0
41
1
10
14.9279283784417
20
-4.4747348743372
30
0
41
1
10
13.7822154790251
20
-4.32960675297528
30
0
41
1
10
12.6359992723385
20
-4.17164738771595
30
0
0
SPLINE
5
155
100
AcDbEntity
8
1
62
256
6
ByLayer
370
-1
48
1
60
0
100
AcDbSpline
70
4
71
1
72
4
73
2
40
0
40
0
40
1
40
1
41
1
10
72.7583673480239
20
1.72969195972098
30
0
41
1
10
74.7230473919423
20
1.72969195972098
30
0
0
SPLINE
5
156
100
AcDbEntity
8
1
62
256
6
ByLayer
370
-1
48
1
60
0
100
AcDbSpline
70
4
71
3
72
18
73
14
40
0
40
0
40
0
40
0
40
0.171643617771684
40
0.171643617771684
40
0.343287235543494
40
0.343287235543494
40
0.51493085331521
40
0.51493085331521
40
0.686574471086975
40
0.686574471086975
40
0.843273207856144
40
0.843273207856144
40
1
40
1
40
1
40
1
41
1
10
77.1415309819062
20
6.22535968079231
30
0
41
1
10
77.1505116458003
20
6.22598552155551
30
0
41
1
10
77.1594971190973
20
6.22654532265662
30
0
41
1
10
77.1774747902857
20
6.22753266522327
30
0
41
1
10
77.1864674707263
20
6.2279602331906
30
0
41
1
10
77.204457624767
20
6.22868302477423
30
0
41
1
10
77.2134555812514
20
6.22897826779138
30
0
41
1
10
77.2314543549158
20
6.22943635317881
30
0
41
1
10
77.2404556552113
20
6.22959920784487
30
0
41
1
10
77.2576754433156
20
6.22978407465268
30
0
41
1
10
77.2658942390987
20
6.2298171194073
30
0
41
1
10
77.2823326392228
20
6.22977283279641
30
0
41
1
10
77.2905526113246
20
6.22969548067704
30
0
41
1
10
77.2987715160392
20
6.22956293211223
30
0
0
SPLINE
5
157
100
AcDbEntity
8
1
62
256
6
ByLayer
370
-1
48
1
60
0
100
AcDbSpline
70
4
71
1
72
4
73
2
40
0
40
0
40
1
40
1
41
1
10
73.669762680204
20
5.7264121674053
30
0
41
1
10
72.8744394997582
20
5.63428746203272
30
0
0
SPLINE
5
158
100
AcDbEntity
8
1
62
256
6
ByLayer
370
-1
48
1
60
0
100
AcDbSpline
70
4
71
3
72
8
73
4
40
0
40
0
40
0
40
0
40
1
40
1
40
1
40
1
41
1
10
77.3316856324391
20
6.14735363833694
30
0
41
1
10
77.3210648007335
20
6.14877367480022
30
0
41
1
10
77.310364667933
20
6.14942499084088
30
0
41
1
10
77.2996522542562
20
6.14976781381702
30
0
0
SPLINE
5
159
100
AcDbEntity
8
1
62
256
6
ByLayer
370
-1
48
1
60
0
100
AcDbSpline
70
4
71
3
72
9
73
5
40
0
40
0
40
0
40
0
40
0.5
40
1
40
1
40
1
40
1
41
1
10
74.735513063475
20
6.04999638387366
30
0
41
1
10
74.7350689594039
20
5.99175429217971
30
0
41
1
10
74.7324479006111
20
5.87361482447466
30
0
41
1
10
74.7265306513179
20
5.77236315488491
30
0
41
1
10
74.7230473919423
20
5.72969195972098
30
0
0
SPLINE
5
15A
100
AcDbEntity
8
1
62
256
6
ByLayer
370
-1
48
1
60
0
100
AcDbSpline
70
4
71
3
72
14
73
10
40
0
40
0
40
0
40
0
40
0.0044038098736858
40
0.0109971621261779
40
0.0241838666311622
40
0.0505572756411308
40
0.156050911681005
40
0.578025455840503
40
1
40
1
40
1
40
1
41
1
10
72.4263817004509
20
3.32050378129299
30
0
41
1
10
72.4270274559983
20
3.32389164675837
30
0
41
1
10
72.4286693196748
20
3.33235116911104
30
0
41
1
10
72.4323229965951
20
3.35102233166128
30
0
41
1
10
72.4391869220834
20
3.38660588805146
30
0
41
1
10
72.4608763399486
20
3.49849286486816
30
0
41
1
10
72.5435535711573
20
3.92563577650589
30
0
41
1
10
72.6853753122732
20
4.6579211685108
30
0
41
1
10
72.8114181039298
20
5.30883203085875
30
0
41
1
10
72.8744394997582
20
5.63428746203272
30
0
0
SPLINE
5
15B
100
AcDbEntity
8
1
62
256
6
ByLayer
370
-1
48
1
60
0
100
AcDbSpline
70
4
71
1
72
4
73
2
40
0
40
0
40
1
40
1
41
1
10
72.9698263913025
20
6.04999638387369
30
0
41
1
10
74.735513063475
20
6.04999638387369
30
0
0
SPLINE
5
15C
100
AcDbEntity
8
1
62
256
6
ByLayer
370
-1
48
1
60
0
100
AcDbSpline
70
4
71
3
72
8
73
4
40
0
40
0
40
0
40
0
40
1
40
1
40
1
40
1
41
1
10
77.67747076379
20
5.90790155026568
30
0
41
1
10
77.6775296053089
20
5.90759768057799
30
0
41
1
10
77.6775884436463
20
5.90729380974216
30
0
41
1
10
77.6776472788004
20
5.90698993776766
30
0
0
SPLINE
5
15D
100
AcDbEntity
8
1
62
256
6
ByLayer
370
-1
48
1
60
0
100
AcDbSpline
70
4
71
3
72
8
73
4
40
0
40
0
40
0
40
0
40
1
40
1
40
1
40
1
41
1
10
77.5431586837618
20
6.13739797459482
30
0
41
1
10
77.6121225326883
20
6.07903497188195
30
0
41
1
10
77.6602594345331
20
5.9967843891742
30
0
41
1
10
77.67747076379
20
5.90790155026568
30
0
0
SPLINE
5
15E
100
AcDbEntity
8
1
62
256
6
ByLayer
370
-1
48
1
60
0
100
AcDbSpline
70
4
71
3
72
18
73
14
40
0
40
0
40
0
40
0
40
0.171643617771768
40
0.171643617771768
40
0.343287235543494
40
0.343287235543494
40
0.514930853315216
40
0.514930853315216
40
0.686574471086905
40
0.686574471086905
40
0.843273207856145
40
0.843273207856145
40
1
40
1
40
1
40
1
41
1
10
72.3307105213078
20
1.23402423864968
30
0
41
1
10
72.321729857414
20
1.23339839788645
30
0
41
1
10
72.3127443841172
20
1.23283859678537
30
0
41
1
10
72.2947667129292
20
1.23185125421872
30
0
41
1
10
72.285774032489
20
1.23142368625136
30
0
41
1
10
72.2677838784487
20
1.23070089466773
30
0
41
1
10
72.2587859219646
20
1.23040565165061
30
0
41
1
10
72.2407871483007
20
1.22994756626318
30
0
41
1
10
72.2317858480053
20
1.22978471159712
30
0
41
1
10
72.2145660599016
20
1.22959984478931
30
0
41
1
10
72.2063472641186
20
1.22956680003469
30
0
41
1
10
72.1899088639949
20
1.22961108664555
30
0
41
1
10
72.1816888918933
20
1.22968843876492
30
0
41
1
10
72.1734699871789
20
1.22982098732976
30
0
0
SPLINE
5
15F
100
AcDbEntity
8
1
62
256
6
ByLayer
370
-1
48
1
60
0
100
AcDbSpline
70
4
71
3
72
8
73
4
40
0
40
0
40
0
40
0
40
1
40
1
40
1
40
1
41
1
10
73.7622705175776
20
1.32969174772603
30
0
41
1
10
73.7161954226909
20
1.329670272063
30
0
41
1
10
73.6701764436344
20
1.32804637743627
30
0
41
1
10
73.6242135804083
20
1.32482006384583
30
0
0
SPLINE
5
160
100
AcDbEntity
8
1
62
256
6
ByLayer
370
-1
48
1
60
0
100
AcDbSpline
70
4
71
3
72
13
73
9
40
0
40
0
40
0
40
0
40
0.0429204910533942
40
0.106725791649835
40
0.234336392842715
40
0.489557595228477
40
0.744778797614238
40
1
40
1
40
1
40
1
41
1
10
73.7616627599013
20
1.40941031635774
30
0
41
1
10
73.7755947055412
20
1.40945109978674
30
0
41
1
10
73.8102387515426
20
1.40934189699556
30
0
41
1
10
73.8863088559219
20
1.40941354772596
30
0
41
1
10
74.0312946867716
20
1.40937019412991
30
0
41
1
10
74.2384178560845
20
1.40939331604781
30
0
41
1
10
74.4869654409608
20
1.40938753556833
30
0
41
1
10
74.6526638559702
20
1.40938753556833
30
0
41
1
10
74.735513063475
20
1.40938753556833
30
0
0
SPLINE
5
161
100
AcDbEntity
8
1
62
256
6
ByLayer
370
-1
48
1
60
0
100
AcDbSpline
70
4
71
3
72
8
73
4
40
0
40
0
40
0
40
0
40
1
40
1
40
1
40
1
41
1
10
77.9647777567544
20
4.42418470224962
30
0
41
1
10
77.9647194734511
20
4.42448867418665
30
0
41
1
10
77.9646609114632
20
4.42479259282885
30
0
41
1
10
77.9646020709334
20
4.42509645740927
30
0
0
SPLINE
5
162
100
AcDbEntity
8
1
62
256
6
ByLayer
370
-1
48
1
60
0
100
AcDbSpline
70
4
71
3
72
15
73
11
40
0
40
0
40
0
40
0
40
0.0039823711834239
40
0.0560173982325662
40
0.160087452330851
40
0.36822756052742
40
0.784507776920558
40
0.888577831018843
40
0.992647885117127
40
1
40
1
40
1
40
1
41
1
10
71.58523284178
20
3.21078353051951
30
0
41
1
10
71.585192527839
20
3.21057388061354
30
0
41
1
10
71.5846265094251
20
3.20762471337153
30
0
41
1
10
71.583054987232
20
3.19918904142105
30
0
41
1
10
71.580084507368
20
3.17988401888604
30
0
41
1
10
71.5763954290827
20
3.14078540798954
30
0
41
1
10
71.5774378474618
20
3.10131458755512
30
0
41
1
10
71.5816553507383
20
3.06802293579955
30
0
41
1
10
71.5835837300882
20
3.05665610638721
30
0
41
1
10
71.5846627222725
20
3.05078299451324
30
0
41
1
10
71.584734250368
20
3.05039547500101
30
0
0
SPLINE
5
163
100
AcDbEntity
8
1
62
256
6
ByLayer
370
-1
48
1
60
0
100
AcDbSpline
70
4
71
3
72
32
73
28
40
0
40
0
40
0
40
0
40
0.125
40
0.15625
40
0.1875
40
0.203125
40
0.21875
40
0.25
40
0.28125
40
0.3125
40
0.34375
40
0.359375
40
0.375
40
0.4375
40
0.46875
40
0.5
40
0.53125
40
0.546875
40
0.5625
40
0.625
40
0.6875
40
0.75
40
0.8125
40
0.84375
40
0.859375
40
0.875
40
1
40
1
40
1
40
1
41
1
10
77.5991059391499
20
5.89178330500428
30
0
41
1
10
77.5649126411053
20
5.88500488740991
30
0
41
1
10
77.5221710185493
20
5.87653186541689
30
0
41
1
10
77.4708810714823
20
5.8663642390253
30
0
41
1
10
77.4495128593481
20
5.86212764076853
30
0
41
1
10
77.4324084128942
20
5.85873869375214
30
0
41
1
10
77.4152138892867
20
5.85533964633254
30
0
41
1
10
77.3934369129913
20
5.8510523297237
30
0
41
1
10
77.3670643868083
20
5.84588443501676
30
0
41
1
10
77.3405572209265
20
5.84071584771195
30
0
41
1
10
77.3184776637329
20
5.8364333341087
30
0
41
1
10
77.3007682607694
20
5.83300442167825
30
0
41
1
10
77.2741984702619
20
5.82786108498496
30
0
41
1
10
77.2432137533136
20
5.82186167874099
30
0
41
1
10
77.2077997828062
20
5.81500496734114
30
0
41
1
10
77.1812327674758
20
5.80986121427171
30
0
41
1
10
77.1591217233212
20
5.80558034912028
30
0
41
1
10
77.1413618706514
20
5.80214153258018
30
0
41
1
10
77.1151005372511
20
5.79705936791259
30
0
41
1
10
77.0753781494367
20
5.78942102618342
30
0
41
1
10
77.0228027072114
20
5.77941080705341
30
0
41
1
10
76.9715258935842
20
5.76974884600466
30
0
41
1
10
76.9306160546264
20
5.76212823469328
30
0
41
1
10
76.9033298337938
20
5.75709118717535
30
0
41
1
10
76.8880974080234
20
5.75429404955185
30
0
41
1
10
76.8496726851955
20
5.74723655582852
30
0
41
1
10
76.8151702981838
20
5.74090005366352
30
0
41
1
10
76.7844713013003
20
5.73526184192878
30
0
0
SPLINE
5
164
100
AcDbEntity
8
1
62
256
6
ByLayer
370
-1
48
1
60
0
100
AcDbSpline
70
4
71
3
72
8
73
4
40
0
40
0
40
0
40
0
40
1
40
1
40
1
40
1
41
1
10
72.3994920849027
20
6.12969195972099
30
0
41
1
10
72.3991837007318
20
6.12969197173854
30
0
41
1
10
72.3988753192471
20
6.12969197774723
30
0
41
1
10
72.3985669404583
20
6.12969197774706
30
0
0
SPLINE
5
165
100
AcDbEntity
8
1
62
256
6
ByLayer
370
-1
48
1
60
0
100
AcDbSpline
70
4
71
3
72
11
73
7
40
0
40
0
40
0
40
0
40
0.0084271749949343
40
0.529387158417977
40
0.934578256635899
40
1
40
1
40
1
40
1
41
1
10
72.7583673115698
20
1.72969596349779
30
0
41
1
10
72.7582696127419
20
1.72969506698715
30
0
41
1
10
72.7521322883412
20
1.72963794567787
30
0
41
1
10
72.7413001151099
20
1.72944710977981
30
0
41
1
10
72.7298225454122
20
1.72887164703826
30
0
41
1
10
72.7243777930586
20
1.72853596278063
30
0
41
1
10
72.7236209396306
20
1.72848827899543
30
0
0
SPLINE
5
166
100
AcDbEntity
8
1
62
256
6
ByLayer
370
-1
48
1
60
0
100
AcDbSpline
70
4
71
3
72
18
73
14
40
0
40
0
40
0
40
0
40
0.409045703814912
40
0.818091407629823
40
0.920352833583551
40
0.945918190071983
40
0.958700868316199
40
0.965092207438307
40
0.971483546560415
40
0.984266224804631
40
0.99545106826832
40
0.997048903048847
40
1
40
1
40
1
40
1
41
1
10
72.0847362049739
20
5.79080892510822
30
0
41
1
10
72.016642995656
20
5.43901933386363
30
0
41
1
10
71.8804418007354
20
4.7354085284309
30
0
41
1
10
71.7271705662645
20
3.94388559535992
30
0
41
1
10
71.6378271128621
20
3.48209267657299
30
0
41
1
10
71.6143759295092
20
3.36122813171491
30
0
41
1
10
71.6069258875963
20
3.32276493361388
30
0
41
1
10
71.6026743948283
20
3.30078236847771
30
0
41
1
10
71.5984277870731
20
3.27879368351378
30
0
41
1
10
71.5933947755729
20
3.25266815135893
30
0
41
1
10
71.5891299275078
20
3.23070209953124
30
0
41
1
10
71.5864858767951
20
3.21721007501699
30
0
41
1
10
71.585719283612
20
3.21331323815355
30
0
41
1
10
71.58523284178
20
3.21078353051951
30
0
0
SPLINE
5
167
100
AcDbEntity
8
1
62
256
6
ByLayer
370
-1
48
1
60
0
100
AcDbSpline
70
4
71
3
72
11
73
7
40
0
40
0
40
0
40
0
40
0.25
40
0.5
40
0.75
40
1
40
1
40
1
40
1
41
1
10
77.0721417319267
20
1.4093875355683
30
0
41
1
10
77.1088115376324
20
1.40931881752314
30
0
41
1
10
77.1821811868845
20
1.42199483651566
30
0
41
1
10
77.2794059175983
20
1.4772189828609
30
0
41
1
10
77.3523582522027
20
1.56217558859802
30
0
41
1
10
77.3790944386482
20
1.63197524437396
30
0
41
1
10
77.3862016612184
20
1.66811919765462
30
0
0
SPLINE
5
168
100
AcDbEntity
8
1
62
256
6
ByLayer
370
-1
48
1
60
0
100
AcDbSpline
70
4
71
3
72
11
73
7
40
0
40
0
40
0
40
0
40
0.25
40
0.5
40
0.75
40
1
40
1
40
1
40
1
41
1
10
72.8744394997582
20
5.63428746203272
30
0
41
1
10
72.8832024851304
20
5.66486917287455
30
0
41
1
10
72.9005021925141
20
5.72890415238643
30
0
41
1
10
72.9253714887717
20
5.83166152172686
30
0
41
1
10
72.9487590454754
20
5.93921401772766
30
0
41
1
10
72.9630671662101
20
6.01293021068918
30
0
41
1
10
72.9698263913025
20
6.04999638387366
30
0
0
SPLINE
5
169
100
AcDbEntity
8
1
62
256
6
ByLayer
370
-1
48
1
60
0
100
AcDbSpline
70
4
71
3
72
8
73
4
40
0
40
0
40
0
40
0
40
1
40
1
40
1
40
1
41
1
10
71.9290828068724
20
1.32198594484717
30
0
41
1
10
71.860118957942
20
1.38034894756004
30
0
41
1
10
71.8119820560651
20
1.46259953026777
30
0
41
1
10
71.794770726754
20
1.55148236917631
30
0
0
SPLINE
5
16A
100
AcDbEntity
8
1
62
256
6
ByLayer
370
-1
48
1
60
0
100
AcDbSpline
70
4
71
3
72
18
73
14
40
0
40
0
40
0
40
0
40
0.156501894804189
40
0.156501894804189
40
0.31300378960836
40
0.31300378960836
40
0.469505684412534
40
0.469505684412534
40
0.626007579216705
40
0.626007579216705
40
0.782509474020881
40
0.782509474020881
40
1
40
1
40
1
40
1
41
1
10
77.9647777567544
20
4.42418470224965
30
0
41
1
10
77.9666540328049
20
4.41439821917248
30
0
41
1
10
77.9682394012942
20
4.40455100300082
30
0
41
1
10
77.9708198258482
20
4.38478788385132
30
0
41
1
10
77.9718160344646
20
4.37486315363762
30
0
41
1
10
77.9732151048696
20
4.35498054677689
30
0
41
1
10
77.9736185915558
20
4.34501378952461
30
0
41
1
10
77.9738313052762
20
4.32508278747852
30
0
41
1
10
77.9736406273195
20
4.31510964046367
30
0
41
1
10
77.9726662237733
20
4.2952015088006
30
0
41
1
10
77.9718820629644
20
4.28525763214645
30
0
41
1
10
77.9693041576227
20
4.26158851860723
30
0
41
1
10
77.9672336021791
20
4.24787718765819
30
0
41
1
10
77.9646020791023
20
4.23428746203271
30
0
0
SPLINE
5
16B
100
AcDbEntity
8
1
62
256
6
ByLayer
370
-1
48
1
60
0
100
AcDbSpline
70
4
71
3
72
9
73
5
40
0
40
0
40
0
40
0
40
0.5
40
1
40
1
40
1
40
1
41
1
10
74.735513063475
20
1.40938753556833
30
0
41
1
10
74.7350689594039
20
1.46762962726228
30
0
41
1
10
74.7324479006111
20
1.58576909496733
30
0
41
1
10
74.7265306513179
20
1.68702076455708
30
0
41
1
10
74.7230473919423
20
1.72969195972098
30
0
0
SPLINE
5
16C
100
AcDbEntity
8
1
62
256
6
ByLayer
370
-1
48
1
60
0
100
AcDbSpline
70
4
71
3
72
14
73
10
40
0
40
0
40
0
40
0
40
0.276946339130912
40
0.276946339130912
40
0.553892678261423
40
0.553892678261423
40
0.776880838709361
40
0.776880838709361
40
1
40
1
40
1
40
1
41
1
10
72.1705448722792
20
1.22987319165949
30
0
41
1
10
72.1668493966932
20
1.22994955497566
30
0
41
1
10
72.1631546476522
20
1.23008173949884
30
0
41
1
10
72.1557716177391
20
1.23045757153827
30
0
41
1
10
72.1520825017523
20
1.23070126156583
30
0
41
1
10
72.1454317620143
20
1.23124155531502
30
0
41
1
10
72.14246792623
20
1.2315186408031
30
0
41
1
10
72.1365465058127
20
1.23214493258095
30
0
41
1
10
72.133588491084
20
1.23249422713113
30
0
41
1
10
72.1306353443144
20
1.23287942451432
30
0
0
SPLINE
5
16D
100
AcDbEntity
8
1
62
256
6
ByLayer
370
-1
48
1
60
0
100
AcDbSpline
70
4
71
3
72
9
73
5
40
0
40
0
40
0
40
0
40
0.443509303061213
40
1
40
1
40
1
40
1
41
1
10
77.491508436044
20
6.07633549785294
30
0
41
1
10
77.4714719855331
20
6.09327213654086
30
0
41
1
10
77.4215653518434
20
6.1258251210833
30
0
41
1
10
77.3642617899516
20
6.14300570236946
30
0
41
1
10
77.3316856324391
20
6.14735363833694
30
0
0
SPLINE
5
16E
100
AcDbEntity
8
1
62
256
6
ByLayer
370
-1
48
1
60
0
100
AcDbSpline
70
4
71
3
72
32
73
28
40
0
40
0
40
0
40
0
40
0.125
40
0.15625
40
0.1875
40
0.203125
40
0.21875
40
0.25
40
0.28125
40
0.3125
40
0.34375
40
0.359375
40
0.375
40
0.4375
40
0.46875
40
0.5
40
0.53125
40
0.546875
40
0.5625
40
0.625
40
0.6875
40
0.75
40
0.8125
40
0.84375
40
0.859375
40
0.875
40
1
40
1
40
1
40
1
41
1
10
71.8719201878
20
1.56760061443768
30
0
41
1
10
71.9072053641846
20
1.57437903203208
30
0
41
1
10
71.9513118346653
20
1.5828520540251
30
0
41
1
10
72.0042395992422
20
1.59301968041669
30
0
41
1
10
72.0262963280402
20
1.59725627867346
30
0
41
1
10
72.0439284355595
20
1.60064522568985
30
0
41
1
10
72.0615739946023
20
1.60404427310945
30
0
41
1
10
72.0837418200589
20
1.60833158971829
30
0
41
1
10
72.1103399813924
20
1.61349948442523
30
0
41
1
10
72.1368106021242
20
1.61866807173004
30
0
41
1
10
72.1586266160919
20
1.62295058533329
30
0
41
1
10
72.1760634107918
20
1.62637949776374
30
0
41
1
10
72.2022125892692
20
1.63152283445703
30
0
41
1
10
72.2327215155655
20
1.637522240701
30
0
41
1
10
72.2675885274599
20
1.64437895210085
30
0
41
1
10
72.2937447489509
20
1.64952270517028
30
0
41
1
10
72.315512379401
20
1.65380357032171
30
0
41
1
10
72.3330002410717
20
1.65724238686181
30
0
41
1
10
72.3588308661536
20
1.66232455152939
30
0
41
1
10
72.3974011363413
20
1.66996289325857
30
0
41
1
10
72.4474299884328
20
1.67997311238858
30
0
41
1
10
72.4951878395061
20
1.68963507343733
30
0
41
1
10
72.5323889225681
20
1.69725568474871
30
0
41
1
10
72.5567322114698
20
1.70229273226664
30
0
41
1
10
72.5701703201041
20
1.70508986989015
30
0
41
1
10
72.604084589432
20
1.71214736361347
30
0
41
1
10
72.634531063642
20
1.71848386577847
30
0
41
1
10
72.6616234825843
20
1.72412207751319
30
0
0
SPLINE
5
16F
100
AcDbEntity
8
1
62
256
6
ByLayer
370
-1
48
1
60
0
100
AcDbSpline
70
4
71
2
72
6
73
3
40
0
40
0
40
0
40
1
40
1
40
1
41
1
10
77.0196983688272
20
4.13888296434445
30
0
41
1
10
77.0565382594125
20
4.329691959721
30
0
41
1
10
77.0196983688272
20
4.52050095509753
30
0
0
SPLINE
5
170
100
AcDbEntity
8
1
62
256
6
ByLayer
370
-1
48
1
60
0
100
AcDbSpline
70
4
71
3
72
8
73
4
40
0
40
0
40
0
40
0
40
1
40
1
40
1
40
1
41
1
10
72.1393404945108
20
1.31203028110505
30
0
41
1
10
72.1499613262164
20
1.31061024464176
30
0
41
1
10
72.1606614590169
20
1.30995892860111
30
0
41
1
10
72.1713738726937
20
1.30961610562497
30
0
0
SPLINE
5
171
100
AcDbEntity
8
1
62
256
6
ByLayer
370
-1
48
1
60
0
100
AcDbSpline
70
4
71
3
72
19
73
15
40
0
40
0
40
0
40
0
40
0.0131218002037208
40
0.102838000185201
40
0.192554200166681
40
0.282270400148161
40
0.3271285001389
40
0.371986600129641
40
0.461702800111121
40
0.5514190000926
40
0.64113520007408
40
0.73085140005556
40
0.82056760003704
40
1
40
1
40
1
40
1
41
1
10
72.3245662457081
20
1.31350240446974
30
0
41
1
10
72.3264247283255
20
1.31362625522181
30
0
41
1
10
72.3409892843282
20
1.31461020884538
30
0
41
1
10
72.3682510814079
20
1.31661689198953
30
0
41
1
10
72.4063625995481
20
1.31930527136723
30
0
41
1
10
72.4381241605618
20
1.32150340958822
30
0
41
1
10
72.4635330161927
20
1.32326956873646
30
0
41
1
10
72.488941631878
20
1.32504031631194
30
0
41
1
10
72.5207019931643
20
1.32726139666909
30
0
41
1
10
72.5588139064427
20
1.32993586279571
30
0
41
1
10
72.5969254325033
20
1.33261643489797
30
0
41
1
10
72.6350367043938
20
1.33530004925348
30
0
41
1
10
72.6858516293003
20
1.33887908368723
30
0
41
1
10
72.7239629696034
20
1.34156078054218
30
0
41
1
10
72.749370829584
20
1.34334425785858
30
0
0
SPLINE
5
172
100
AcDbEntity
8
1
62
256
6
ByLayer
370
-1
48
1
60
0
100
AcDbSpline
70
4
71
3
72
8
73
4
40
0
40
0
40
0
40
0
40
1
40
1
40
1
40
1
41
1
10
77.3425234003997
20
6.22638374195478
30
0
41
1
10
77.4157676936093
20
6.21665299022308
30
0
41
1
10
77.4858530427381
20
6.18566820198544
30
0
41
1
10
77.542450689127
20
6.13799572962975
30
0
0
SPLINE
5
173
100
AcDbEntity
8
1
62
256
6
ByLayer
370
-1
48
1
60
0
100
AcDbSpline
70
4
71
3
72
8
73
4
40
0
40
0
40
0
40
0
40
1
40
1
40
1
40
1
41
1
10
71.5078159572908
20
3.22600805076752
30
0
41
1
10
71.5077571028967
20
3.22570418723498
30
0
41
1
10
71.5076982553576
20
3.22540032278022
30
0
41
1
10
71.5076394146747
20
3.22509645740925
30
0
0
SPLINE
5
174
100
AcDbEntity
8
1
62
256
6
ByLayer
370
-1
48
1
60
0
100
AcDbSpline
70
4
71
2
72
6
73
3
40
0
40
0
40
0
40
1
40
1
40
1
41
1
10
72.4263964150574
20
3.32050095509754
30
0
41
1
10
72.3895565244721
20
3.12969195972099
30
0
41
1
10
72.4263964150574
20
2.93888296434446
30
0
0
SPLINE
5
175
100
AcDbEntity
8
1
62
256
6
ByLayer
370
-1
48
1
60
0
100
AcDbSpline
70
4
71
3
72
8
73
4
40
0
40
0
40
0
40
0
40
1
40
1
40
1
40
1
41
1
10
71.794770726754
20
1.55148236917631
30
0
41
1
10
71.7947118852349
20
1.551786238864
30
0
41
1
10
71.7946530522859
20
1.5520901096998
30
0
41
1
10
71.7945942279085
20
1.5523939816743
30
0
0
SPLINE
5
176
100
AcDbEntity
8
1
62
256
6
ByLayer
370
-1
48
1
60
0
100
AcDbSpline
70
4
71
3
72
14
73
10
40
0
40
0
40
0
40
0
40
0.401869826261842
40
0.803739652523683
40
0.904207109089144
40
0.954440837371874
40
0.979557701513239
40
0.992116133583921
40
1
40
1
40
1
40
1
41
1
10
76.7844713013003
20
5.73526184192878
30
0
41
1
10
76.8159819992144
20
5.57253412634179
30
0
41
1
10
76.8790033950428
20
5.24707869516783
30
0
41
1
10
76.9499127812871
20
4.88093790711747
30
0
41
1
10
76.9932219380286
20
4.65719329714972
30
0
41
1
10
77.0070272107487
20
4.58599349411861
30
0
41
1
10
77.0138897116647
20
4.5504069295863
30
0
41
1
10
77.0175054327924
20
4.53194439270675
30
0
41
1
10
77.0191060564556
20
4.52368806375495
30
0
41
1
10
77.0197131957252
20
4.5205038037646
30
0
0
SPLINE
5
177
100
AcDbEntity
8
1
62
256
6
ByLayer
370
-1
48
1
60
0
100
AcDbSpline
70
4
71
3
72
20
73
16
40
0
40
0
40
0
40
0
40
0.0357152536596758
40
0.0558050838432434
40
0.0714305073193516
40
0.0870559307954598
40
0.107145760979027
40
0.125003387808865
40
0.142861014638703
40
0.214291521958055
40
0.285722029277406
40
0.571444058554813
40
0.857166087832219
40
0.928596595151571
40
1
40
1
40
1
40
1
41
1
10
72.749370829584
20
1.34334425785858
30
0
41
1
10
72.7597017534589
20
1.34406942591295
30
0
41
1
10
72.7758438220135
20
1.34520250099794
30
0
41
1
10
72.7965056708207
20
1.34665283552732
30
0
41
1
10
72.8113563754109
20
1.34769526233512
30
0
41
1
10
72.8262070808523
20
1.34873768787153
30
0
41
1
10
72.8417034703762
20
1.3498254344095
30
0
41
1
10
72.8578455444822
20
1.35095850120271
30
0
41
1
10
72.8888383303187
20
1.35313398413896
30
0
41
1
10
72.9353275243002
20
1.35639718580023
30
0
41
1
10
73.0592988057031
20
1.36509891134105
30
0
41
1
10
73.2452562150676
20
1.37815077187278
30
0
41
1
10
73.4312092066066
20
1.39120923093847
30
0
41
1
10
73.5551776506112
20
1.39990293480813
30
0
41
1
10
73.5964842930121
20
1.40290632691591
30
0
41
1
10
73.6171448832167
20
1.4042568794145
30
0
0
SPLINE
5
178
100
AcDbEntity
8
1
62
256
6
ByLayer
370
-1
48
1
60
0
100
AcDbSpline
70
4
71
3
72
8
73
4
40
0
40
0
40
0
40
0
40
1
40
1
40
1
40
1
41
1
10
72.172544993433
20
1.22983633263206
30
0
41
1
10
72.1721865995584
20
1.22984244673492
30
0
41
1
10
72.171828208919
20
1.22984875501078
30
0
41
1
10
72.1714698218279
20
1.22985525745409
30
0
0
SPLINE
5
179
100
AcDbEntity
8
1
62
256
6
ByLayer
370
-1
48
1
60
0
100
AcDbSpline
70
4
71
3
72
8
73
4
40
0
40
0
40
0
40
0
40
1
40
1
40
1
40
1
41
1
10
72.1713738726936
20
1.30961610562497
30
0
41
1
10
72.171987132616
20
1.30959647983397
30
0
41
1
10
72.1726004327863
20
1.30957786506335
30
0
41
1
10
72.1732137606304
20
1.30956017496669
30
0
0
SPLINE
5
17A
100
AcDbEntity
8
1
62
256
6
ByLayer
370
-1
48
1
60
0
100
AcDbSpline
70
4
71
3
72
15
73
11
40
0
40
0
40
0
40
0
40
0.0039823711834092
40
0.0560173982325519
40
0.160087452330837
40
0.368227560527408
40
0.78450777692055
40
0.888577831018836
40
0.992647885117121
40
1
40
1
40
1
40
1
41
1
10
77.8857905315456
20
4.24860038892248
30
0
41
1
10
77.885830849819
20
4.24881003882845
30
0
41
1
10
77.8863969299396
20
4.25175920607043
30
0
41
1
10
77.8879686579046
20
4.26019487802094
30
0
41
1
10
77.8909396586057
20
4.27949990055595
30
0
41
1
10
77.8946296066502
20
4.31859851145242
30
0
41
1
10
77.893587956446
20
4.35806933188684
30
0
41
1
10
77.8893710989807
20
4.39136098364244
30
0
41
1
10
77.8874429079342
20
4.40272781305478
30
0
41
1
10
77.886363981837
20
4.40860092492872
30
0
41
1
10
77.8862924579716
20
4.40898844444095
30
0
0
SPLINE
5
17B
100
AcDbEntity
8
1
62
256
6
ByLayer
370
-1
48
1
60
0
100
AcDbSpline
70
4
71
3
72
9
73
5
40
0
40
0
40
0
40
0
40
0.443509303061189
40
1
40
1
40
1
40
1
41
1
10
71.9795176909059
20
1.38304842158902
30
0
41
1
10
71.9995541414169
20
1.36611178290113
30
0
41
1
10
72.0494607751066
20
1.33355879835867
30
0
41
1
10
72.1067643369983
20
1.31637821707253
30
0
41
1
10
72.1393404945108
20
1.31203028110505
30
0
0
SPLINE
5
17C
100
AcDbEntity
8
1
62
256
6
ByLayer
370
-1
48
1
60
0
100
AcDbSpline
70
4
71
3
72
27
73
23
40
0
40
0
40
0
40
0
40
0.0625
40
0.125
40
0.140625
40
0.15625
40
0.1875
40
0.25
40
0.3125
40
0.375
40
0.4375
40
0.46875
40
0.5
40
0.5625
40
0.625
40
0.6875
40
0.71875
40
0.75
40
0.78125
40
0.8125
40
0.875
40
1
40
1
40
1
40
1
41
1
10
76.5011997356474
20
1.40938753556833
30
0
41
1
10
76.5130943605699
20
1.40938753556833
30
0
41
1
10
76.5368836104149
20
1.40938753556833
30
0
41
1
10
76.5636465164905
20
1.40938753556833
30
0
41
1
10
76.5814884538742
20
1.40938753556833
30
0
41
1
10
76.5933830787967
20
1.40938753556833
30
0
41
1
10
76.614198672411
20
1.40938753556833
30
0
41
1
10
76.6439352347173
20
1.40938753556833
30
0
41
1
10
76.6796191094847
20
1.40938753556833
30
0
41
1
10
76.7153029842522
20
1.40938753556833
30
0
41
1
10
76.7450395465584
20
1.40938753556833
30
0
41
1
10
76.7688287964033
20
1.40938753556833
30
0
41
1
10
76.7926180462483
20
1.40938753556833
30
0
41
1
10
76.8223546085545
20
1.4093875355683
30
0
41
1
10
76.858038483322
20
1.4093875355683
30
0
41
1
10
76.8877750456282
20
1.4093875355683
30
0
41
1
10
76.9115642954732
20
1.4093875355683
30
0
41
1
10
76.9294062328569
20
1.4093875355683
30
0
41
1
10
76.9472481702406
20
1.4093875355683
30
0
41
1
10
76.9710374200856
20
1.4093875355683
30
0
41
1
10
77.0126686073143
20
1.4093875355683
30
0
41
1
10
77.0483524820818
20
1.4093875355683
30
0
41
1
10
77.0721417319267
20
1.4093875355683
30
0
0
SPLINE
5
17D
100
AcDbEntity
8
1
62
256
6
ByLayer
370
-1
48
1
60
0
100
AcDbSpline
70
4
71
3
72
11
73
7
40
0
40
0
40
0
40
0
40
0.0084271749953523
40
0.529387158418203
40
0.934578256635976
40
1
40
1
40
1
40
1
41
1
10
76.6877274723148
20
5.7296879559442
30
0
41
1
10
76.6878251711427
20
5.72968885245484
30
0
41
1
10
76.6939624955434
20
5.72974597376412
30
0
41
1
10
76.7047946687747
20
5.72993680966218
30
0
41
1
10
76.7162722384725
20
5.73051227240373
30
0
41
1
10
76.7217169908259
20
5.73084795666134
30
0
41
1
10
76.7224738442541
20
5.73089564044653
30
0
0
SPLINE
5
17E
100
AcDbEntity
8
1
62
256
6
ByLayer
370
-1
48
1
60
0
100
AcDbSpline
70
4
71
3
72
8
73
4
40
0
40
0
40
0
40
0
40
1
40
1
40
1
40
1
41
1
10
77.4648312616266
20
1.65336836157039
30
0
41
1
10
77.4647724154796
20
1.65306446798175
30
0
41
1
10
77.4647132267017
20
1.65276067096585
30
0
41
1
10
77.46465369552
20
1.65245697045867
30
0
0
SPLINE
5
17F
100
AcDbEntity
8
1
62
256
6
ByLayer
370
-1
48
1
60
0
100
AcDbSpline
70
4
71
2
72
6
73
3
40
0
40
0
40
0
40
1
40
1
40
1
41
1
10
73.7268527643351
20
5.72967689154325
30
0
41
1
10
73.6979936410989
20
5.72952621962941
30
0
41
1
10
73.669762680204
20
5.7264121674053
30
0
0
SPLINE
5
180
100
AcDbEntity
8
1
62
256
6
ByLayer
370
-1
48
1
60
0
100
AcDbSpline
70
4
71
3
72
14
73
10
40
0
40
0
40
0
40
0
40
0.401869826261842
40
0.803739652523684
40
0.904207109089144
40
0.954440837371874
40
0.979557701513239
40
0.992116133583922
40
1
40
1
40
1
40
1
41
1
10
72.6616234825843
20
1.72412207751319
30
0
41
1
10
72.6301127846702
20
1.88684979310017
30
0
41
1
10
72.5670913888418
20
2.21230522427416
30
0
41
1
10
72.4961820025976
20
2.57844601232452
30
0
41
1
10
72.4528728458561
20
2.80219062229227
30
0
41
1
10
72.439067573136
20
2.87339042532338
30
0
41
1
10
72.4322050722199
20
2.90897698985569
30
0
41
1
10
72.4285893510922
20
2.92743952673521
30
0
41
1
10
72.4269887274291
20
2.93569585568702
30
0
41
1
10
72.4263815881595
20
2.93888011567739
30
0
0
SPLINE
5
181
100
AcDbEntity
8
1
62
256
6
ByLayer
370
-1
48
1
60
0
100
AcDbSpline
70
4
71
3
72
8
73
4
40
0
40
0
40
0
40
0
40
1
40
1
40
1
40
1
41
1
10
77.9644255494181
20
4.23337586867447
30
0
41
1
10
77.9644843951909
20
4.23367973220698
30
0
41
1
10
77.9645432384194
20
4.23398359666174
30
0
41
1
10
77.9646020791022
20
4.23428746203274
30
0
0
SPLINE
5
182
100
AcDbEntity
8
1
62
256
6
ByLayer
370
-1
48
1
60
0
100
AcDbSpline
70
4
71
3
72
27
73
23
40
0
40
0
40
0
40
0
40
0.0625
40
0.125
40
0.140625
40
0.15625
40
0.1875
40
0.25
40
0.3125
40
0.375
40
0.4375
40
0.46875
40
0.5
40
0.5625
40
0.625
40
0.6875
40
0.71875
40
0.75
40
0.78125
40
0.8125
40
0.875
40
1
40
1
40
1
40
1
41
1
10
72.9698263913025
20
6.04999638387366
30
0
41
1
10
72.9579317663799
20
6.04999638387366
30
0
41
1
10
72.934142516535
20
6.04999638387366
30
0
41
1
10
72.9073796104594
20
6.04999638387366
30
0
41
1
10
72.8895376730757
20
6.04999638387366
30
0
41
1
10
72.8776430481532
20
6.04999638387366
30
0
41
1
10
72.8568274545389
20
6.04999638387366
30
0
41
1
10
72.8270908922327
20
6.04999638387366
30
0
41
1
10
72.7914070174652
20
6.04999638387366
30
0
41
1
10
72.7557231426977
20
6.04999638387366
30
0
41
1
10
72.7259865803915
20
6.04999638387366
30
0
41
1
10
72.7021973305465
20
6.04999638387366
30
0
41
1
10
72.6784080807016
20
6.04999638387366
30
0
41
1
10
72.6486715183954
20
6.04999638387366
30
0
41
1
10
72.6129876436279
20
6.04999638387366
30
0
41
1
10
72.5832510813217
20
6.04999638387366
30
0
41
1
10
72.5594618314767
20
6.04999638387366
30
0
41
1
10
72.541619894093
20
6.04999638387366
30
0
41
1
10
72.5237779567093
20
6.04999638387366
30
0
41
1
10
72.4999887068643
20
6.04999638387369
30
0
41
1
10
72.4583575196356
20
6.04999638387369
30
0
41
1
10
72.4226736448682
20
6.04999638387369
30
0
41
1
10
72.3988843950232
20
6.04999638387369
30
0
0
SPLINE
5
183
100
AcDbEntity
8
1
62
256
6
ByLayer
370
-1
48
1
60
0
100
AcDbSpline
70
4
71
3
72
8
73
4
40
0
40
0
40
0
40
0
40
1
40
1
40
1
40
1
41
1
10
72.1297180898704
20
1.23300017748719
30
0
41
1
10
72.0564737966955
20
1.24273092921891
30
0
41
1
10
71.9863884475834
20
1.27371571745653
30
0
41
1
10
71.9297908011914
20
1.32138818981221
30
0
0
SPLINE
5
184
100
AcDbEntity
8
1
62
256
6
ByLayer
370
-1
48
1
60
0
100
AcDbSpline
70
4
71
3
72
11
73
7
40
0
40
0
40
0
40
0
40
0.0001630039325651
40
0.429771567357955
40
0.859380130783344
40
1
40
1
40
1
40
1
41
1
10
73.6171438144191
20
1.40425680954877
30
0
41
1
10
73.6171537941202
20
1.40425746190425
30
0
41
1
10
73.637829003988
20
1.40560891248936
30
0
41
1
10
73.6791961353989
20
1.40800918781534
30
0
41
1
10
73.727393627218
20
1.40922867435381
30
0
41
1
10
73.7548835729881
20
1.4093904714276
30
0
41
1
10
73.7616627599013
20
1.40941031635774
30
0
0
SPLINE
5
185
100
AcDbEntity
8
1
62
256
6
ByLayer
370
-1
48
1
60
0
100
AcDbSpline
70
4
71
3
72
19
73
15
40
0
40
0
40
0
40
0
40
0.0131218002037389
40
0.102838000185217
40
0.192554200166695
40
0.282270400148174
40
0.327128500138913
40
0.371986600129652
40
0.46170280011113
40
0.551419000092609
40
0.641135200074087
40
0.730851400055565
40
0.820567600037044
40
1
40
1
40
1
40
1
41
1
10
77.1464598812418
20
6.14588151497225
30
0
41
1
10
77.1446013986244
20
6.14575766422018
30
0
41
1
10
77.1300368426217
20
6.14477371059661
30
0
41
1
10
77.1027750455419
20
6.14276702745246
30
0
41
1
10
77.0646635274018
20
6.14007864807473
30
0
41
1
10
77.0329019663881
20
6.13788050985374
30
0
41
1
10
77.0074931107573
20
6.1361143507055
30
0
41
1
10
76.9820844950718
20
6.13434360313005
30
0
41
1
10
76.9503241337856
20
6.1321225227729
30
0
41
1
10
76.9122122205073
20
6.12944805664628
30
0
41
1
10
76.8741006944466
20
6.12676748454402
30
0
41
1
10
76.8359894225561
20
6.12408387018851
30
0
41
1
10
76.7851744976496
20
6.12050483575476
30
0
41
1
10
76.7470631573465
20
6.11782313889981
30
0
41
1
10
76.7216552973659
20
6.11603966158341
30
0
0
SPLINE
5
186
100
AcDbEntity
8
1
62
256
6
ByLayer
370
-1
48
1
60
0
100
AcDbSpline
70
4
71
3
72
18
73
14
40
0
40
0
40
0
40
0
40
0.156501894804184
40
0.156501894804184
40
0.313003789608361
40
0.313003789608361
40
0.469505684412536
40
0.469505684412536
40
0.626007579216708
40
0.626007579216708
40
0.782509474020886
40
0.782509474020886
40
1
40
1
40
1
40
1
41
1
10
71.5074637370227
20
3.03519921719234
30
0
41
1
10
71.505587460973
20
3.04498570026951
30
0
41
1
10
71.5040020924844
20
3.05483291644114
30
0
41
1
10
71.5014216679316
20
3.07459603559067
30
0
41
1
10
71.5004254593156
20
3.08452076580437
30
0
41
1
10
71.4990263889112
20
3.1044033726651
30
0
41
1
10
71.4986229022252
20
3.11437012991738
30
0
41
1
10
71.4984101885049
20
3.13430113196344
30
0
41
1
10
71.4986008664615
20
3.14427427897831
30
0
41
1
10
71.4995752700073
20
3.16418241064136
30
0
41
1
10
71.5003594308158
20
3.17412628729554
30
0
41
1
10
71.5029373361564
20
3.19779540083476
30
0
41
1
10
71.5050078915991
20
3.2115067317838
30
0
41
1
10
71.5076394146747
20
3.22509645740925
30
0
0
SPLINE
5
187
100
AcDbEntity
8
1
62
256
6
ByLayer
370
-1
48
1
60
0
100
AcDbSpline
70
4
71
3
72
32
73
28
40
0
40
0
40
0
40
0
40
0.125
40
0.140625
40
0.15625
40
0.1875
40
0.25
40
0.3125
40
0.375
40
0.4375
40
0.453125
40
0.46875
40
0.5
40
0.53125
40
0.5625
40
0.625
40
0.640625
40
0.65625
40
0.6875
40
0.71875
40
0.75
40
0.78125
40
0.796875
40
0.8125
40
0.84375
40
0.875
40
1
40
1
40
1
40
1
41
1
10
72.8744394997582
20
5.63428746203272
30
0
41
1
10
72.8473470808159
20
5.63992567376746
30
0
41
1
10
72.8169006066058
20
5.64626217593246
30
0
41
1
10
72.782986337278
20
5.65331966965576
30
0
41
1
10
72.7695482286436
20
5.65611680727926
30
0
41
1
10
72.7452049397419
20
5.66115385479719
30
0
41
1
10
72.70800385668
20
5.66877446610857
30
0
41
1
10
72.6602460056066
20
5.67843642715732
30
0
41
1
10
72.6102171535152
20
5.68844664628733
30
0
41
1
10
72.5716468833274
20
5.69608498801654
30
0
41
1
10
72.5458162582455
20
5.70116715268412
30
0
41
1
10
72.5283283965748
20
5.70460596922422
30
0
41
1
10
72.5065607661248
20
5.70888683437565
30
0
41
1
10
72.4804045446338
20
5.71403058744505
30
0
41
1
10
72.4455375327393
20
5.72088729884493
30
0
41
1
10
72.4150286064431
20
5.72688670508887
30
0
41
1
10
72.3888794279656
20
5.73203004178217
30
0
41
1
10
72.3714426332658
20
5.73545895421262
30
0
41
1
10
72.349626619298
20
5.73974146781586
30
0
41
1
10
72.3231559985663
20
5.74491005512067
30
0
41
1
10
72.2965578372327
20
5.75007794982761
30
0
41
1
10
72.2743900117762
20
5.75436526643645
30
0
41
1
10
72.2567444527333
20
5.75776431385606
30
0
41
1
10
72.239112345214
20
5.76115326087248
30
0
41
1
10
72.217055616416
20
5.76538985912924
30
0
41
1
10
72.1641278518392
20
5.77555748552084
30
0
41
1
10
72.1200213813584
20
5.78403050751382
30
0
41
1
10
72.0847362049739
20
5.79080892510822
30
0
0
SPLINE
5
188
100
AcDbEntity
8
1
62
256
6
ByLayer
370
-1
48
1
60
0
100
AcDbSpline
70
4
71
3
72
10
73
6
40
0
40
0
40
0
40
0
40
0.453921360825114
40
0.907842721650229
40
1
40
1
40
1
40
1
41
1
10
71.8719201878
20
1.56760061443768
30
0
41
1
10
71.8780971610581
20
1.53520020870161
30
0
41
1
10
71.9005024976668
20
1.47233610082338
30
0
41
1
10
71.9449753348719
20
1.41388957061466
30
0
41
1
10
71.9744135226473
20
1.38736293096539
30
0
41
1
10
71.9795176909059
20
1.38304842158902
30
0
0
SPLINE
5
189
100
AcDbEntity
8
1
62
256
6
ByLayer
370
-1
48
1
60
0
100
AcDbSpline
70
4
71
3
72
10
73
6
40
0
40
0
40
0
40
0
40
0.45392136082513
40
0.907842721650261
40
1
40
1
40
1
40
1
41
1
10
77.5991059391499
20
5.89178330500428
30
0
41
1
10
77.5929289658918
20
5.92418371074035
30
0
41
1
10
77.5705236292831
20
5.98704781861858
30
0
41
1
10
77.526050792078
20
6.04549434882731
30
0
41
1
10
77.4966126043026
20
6.0720209884766
30
0
41
1
10
77.491508436044
20
6.07633549785294
30
0
0
SPLINE
5
18A
100
AcDbEntity
8
1
62
256
6
ByLayer
370
-1
48
1
60
0
100
AcDbSpline
70
4
71
3
72
8
73
4
40
0
40
0
40
0
40
0
40
1
40
1
40
1
40
1
41
1
10
75.8480279295336
20
6.13456385559613
30
0
41
1
10
75.8483355522452
20
6.13458544884045
30
0
41
1
10
75.8486431743345
20
6.13460704328358
30
0
41
1
10
75.8489507958011
20
6.13462863892548
30
0
0
SPLINE
5
18B
100
AcDbEntity
8
1
62
256
6
ByLayer
370
-1
48
1
60
0
100
AcDbSpline
70
4
71
3
72
8
73
4
40
0
40
0
40
0
40
0
40
1
40
1
40
1
40
1
41
1
10
77.3007716784232
20
6.2295286619879
30
0
41
1
10
77.3010800002592
20
6.22952306791012
30
0
41
1
10
77.3013883135862
20
6.22951708982444
30
0
41
1
10
77.301696616977
20
6.2295107277825
30
0
0
SPLINE
5
18C
100
AcDbEntity
8
1
62
256
6
ByLayer
370
-1
48
1
60
0
100
AcDbSpline
70
4
71
3
72
11
73
7
40
0
40
0
40
0
40
0
40
0.25
40
0.5
40
0.75
40
1
40
1
40
1
40
1
41
1
10
76.5716552841265
20
1.82509645740927
30
0
41
1
10
76.5665440805361
20
1.79451474656744
30
0
41
1
10
76.5557985528109
20
1.73047976705556
30
0
41
1
10
76.5384360857911
20
1.6277223977151
30
0
41
1
10
76.52015462954
20
1.52016990171433
30
0
41
1
10
76.5075536907826
20
1.44645370875281
30
0
41
1
10
76.5011997356474
20
1.40938753556833
30
0
0
SPLINE
5
18D
100
AcDbEntity
8
1
62
256
6
ByLayer
370
-1
48
1
60
0
100
AcDbSpline
70
4
71
3
72
8
73
4
40
0
40
0
40
0
40
0
40
1
40
1
40
1
40
1
41
1
10
77.3416061449648
20
6.22650449492767
30
0
41
1
10
77.3419119439121
20
6.22646460766049
30
0
41
1
10
77.3422176961532
20
6.22642435661356
30
0
41
1
10
77.3425234003997
20
6.22638374195478
30
0
0
SPLINE
5
18E
100
AcDbEntity
8
1
62
256
6
ByLayer
370
-1
48
1
60
0
100
AcDbSpline
70
4
71
3
72
8
73
4
40
0
40
0
40
0
40
0
40
1
40
1
40
1
40
1
41
1
10
73.7631956375202
20
1.329691959721
30
0
41
1
10
73.7628872636591
20
1.329691959721
30
0
41
1
10
73.7625788903287
20
1.32969188905599
30
0
41
1
10
73.7622705175776
20
1.32969174772603
30
0
0
SPLINE
5
18F
100
AcDbEntity
8
1
62
256
6
ByLayer
370
-1
48
1
60
0
100
AcDbSpline
70
4
71
3
72
8
73
4
40
0
40
0
40
0
40
0
40
1
40
1
40
1
40
1
41
1
10
77.2987715160392
20
6.22956293211223
30
0
41
1
10
77.2990798491072
20
6.22955795953897
30
0
41
1
10
77.2993881794324
20
6.22955284443631
30
0
41
1
10
77.2996965068181
20
6.22954758680993
30
0
0
SPLINE
5
190
100
AcDbEntity
8
1
62
256
6
ByLayer
370
-1
48
1
60
0
100
AcDbSpline
70
4
71
1
72
4
73
2
40
0
40
0
40
1
40
1
41
1
10
76.5011997356474
20
1.4093875355683
30
0
41
1
10
74.735513063475
20
1.4093875355683
30
0
0
SPLINE
5
191
100
AcDbEntity
8
1
62
256
6
ByLayer
370
-1
48
1
60
0
100
AcDbSpline
70
4
71
3
72
9
73
5
40
0
40
0
40
0
40
0
40
0.5
40
1
40
1
40
1
40
1
41
1
10
76.7844713013003
20
5.73526184192878
30
0
41
1
10
76.7765981129746
20
5.78861315977221
30
0
41
1
10
76.7572783879123
20
5.91182683871597
30
0
41
1
10
76.7335725613297
20
6.04942528914461
30
0
41
1
10
76.7216552973659
20
6.11603966158341
30
0
0
SPLINE
5
192
100
AcDbEntity
8
1
62
256
6
ByLayer
370
-1
48
1
60
0
100
AcDbSpline
70
4
71
3
72
14
73
10
40
0
40
0
40
0
40
0
40
0.276946339130612
40
0.276946339130612
40
0.553892678261602
40
0.553892678261602
40
0.776880838709272
40
0.776880838709272
40
1
40
1
40
1
40
1
41
1
10
77.301696616977
20
6.2295107277825
30
0
41
1
10
77.3053920925653
20
6.22943436446633
30
0
41
1
10
77.3090868416086
20
6.22930217994315
30
0
41
1
10
77.3164698715261
20
6.22892634790372
30
0
41
1
10
77.3201589875151
20
6.22868265787616
30
0
41
1
10
77.3268097272569
20
6.22814236412697
30
0
41
1
10
77.3297735630428
20
6.22786527863889
30
0
41
1
10
77.3356949834634
20
6.22723898686104
30
0
41
1
10
77.3386529981937
20
6.22688969231086
30
0
41
1
10
77.3416061449648
20
6.22650449492767
30
0
0
SPLINE
5
193
100
AcDbEntity
8
1
62
256
6
ByLayer
370
-1
48
1
60
0
100
AcDbSpline
70
4
71
3
72
8
73
4
40
0
40
0
40
0
40
0
40
1
40
1
40
1
40
1
41
1
10
72.1714698218279
20
1.22985525745409
30
0
41
1
10
72.171161499992
20
1.22986085153187
30
0
41
1
10
72.1708531829998
20
1.22986682961752
30
0
41
1
10
72.1705448722792
20
1.22987319165949
30
0
0
SPLINE
5
194
100
AcDbEntity
8
1
62
256
6
ByLayer
370
-1
48
1
60
0
100
AcDbSpline
70
4
71
3
72
14
73
10
40
0
40
0
40
0
40
0
40
0.0278688906941249
40
0.280125361774612
40
0.5323818328551
40
0.658510068395343
40
0.784638303935587
40
0.910766539475831
40
1
40
1
40
1
40
1
41
1
10
72.1732137606444
20
1.30956017496629
30
0
41
1
10
72.1746205627379
20
1.30951959884504
30
0
41
1
10
72.1887625583737
20
1.30916064543584
30
0
41
1
10
72.2156384223532
20
1.30921249716678
30
0
41
1
10
72.2474734548817
20
1.30980355673742
30
0
41
1
10
72.2729288674421
20
1.31066480966626
30
0
41
1
10
72.2920111452686
20
1.31152260764765
30
0
41
1
10
72.309221725346
20
1.31250390013889
30
0
41
1
10
72.3200713318566
20
1.3132028598543
30
0
41
1
10
72.3245662457081
20
1.31350240446974
30
0
0
SPLINE
5
195
100
AcDbEntity
8
1
62
256
6
ByLayer
370
-1
48
1
60
0
100
AcDbSpline
70
4
71
1
72
4
73
2
40
0
40
0
40
1
40
1
41
1
10
76.6877274358608
20
5.72969195972098
30
0
41
1
10
74.7230473919423
20
5.72969195972098
30
0
0
SPLINE
5
196
100
AcDbEntity
8
1
62
256
6
ByLayer
370
-1
48
1
60
0
100
AcDbSpline
70
4
71
3
72
14
73
10
40
0
40
0
40
0
40
0
40
0.25
40
0.25
40
0.5
40
0.5
40
0.75
40
0.75
40
1
40
1
40
1
40
1
41
1
10
72.0075877950245
20
5.80692694898329
30
0
41
1
10
72.0164484257882
20
5.85212459214142
30
0
41
1
10
72.0329988521344
20
5.89535751474179
30
0
41
1
10
72.0799000875254
20
5.97419590564886
30
0
41
1
10
72.1102536275665
20
6.0095998881705
30
0
41
1
10
72.1809548386213
20
6.06791049797803
30
0
41
1
10
72.2214123793683
20
6.09092206702141
30
0
41
1
10
72.3076214251297
20
6.1218357518753
30
0
41
1
10
72.3526777243239
20
6.12969197771841
30
0
41
1
10
72.3985669404582
20
6.12969197774703
30
0
0
SPLINE
5
197
100
AcDbEntity
8
1
62
256
6
ByLayer
370
-1
48
1
60
0
100
AcDbSpline
70
4
71
3
72
11
73
7
40
0
40
0
40
0
40
0
40
0.0001630039325758
40
0.429771567357988
40
0.8593801307834
40
1
40
1
40
1
40
1
41
1
10
75.8538823125309
20
6.05512710989319
30
0
41
1
10
75.8538723328298
20
6.05512645753774
30
0
41
1
10
75.8331971229619
20
6.05377500695263
30
0
41
1
10
75.791829991551
20
6.05137473162665
30
0
41
1
10
75.7436324997319
20
6.05015524508818
30
0
41
1
10
75.7161425539617
20
6.04999344801439
30
0
41
1
10
75.7093633670486
20
6.04997360308425
30
0
0
SPLINE
5
198
100
AcDbEntity
8
1
62
256
6
ByLayer
370
-1
48
1
60
0
100
AcDbSpline
70
4
71
3
72
32
73
28
40
0
40
0
40
0
40
0
40
0.125
40
0.140625
40
0.15625
40
0.1875
40
0.25
40
0.3125
40
0.375
40
0.4375
40
0.453125
40
0.46875
40
0.5
40
0.53125
40
0.5625
40
0.625
40
0.640625
40
0.65625
40
0.6875
40
0.71875
40
0.75
40
0.78125
40
0.796875
40
0.8125
40
0.84375
40
0.875
40
1
40
1
40
1
40
1
41
1
10
76.5716552841265
20
1.82509645740927
30
0
41
1
10
76.60235428101
20
1.81945824567452
30
0
41
1
10
76.6368566680217
20
1.81312174350953
30
0
41
1
10
76.6752813908496
20
1.80606424978623
30
0
41
1
10
76.69051381662
20
1.80326711216273
30
0
41
1
10
76.7178000374525
20
1.7982300646448
30
0
41
1
10
76.7587098764103
20
1.79060945333342
30
0
41
1
10
76.8099866900376
20
1.78094749228467
30
0
41
1
10
76.8625621322628
20
1.77093727315466
30
0
41
1
10
76.9022845200773
20
1.76329893142545
30
0
41
1
10
76.9285458534775
20
1.75821676675787
30
0
41
1
10
76.9463057061474
20
1.75477795021777
30
0
41
1
10
76.968416750302
20
1.75049708506634
30
0
41
1
10
76.9949837656324
20
1.74535333199691
30
0
41
1
10
77.0303977361398
20
1.73849662059706
30
0
41
1
10
77.061382453088
20
1.73249721435309
30
0
41
1
10
77.0879522435956
20
1.72735387765979
30
0
41
1
10
77.1056616465591
20
1.72392496522937
30
0
41
1
10
77.1277412037527
20
1.71964245162613
30
0
41
1
10
77.1542483696344
20
1.71447386432132
30
0
41
1
10
77.1806208958175
20
1.70930596961438
30
0
41
1
10
77.2023978721129
20
1.70501865300551
30
0
41
1
10
77.2195923957204
20
1.7016196055859
30
0
41
1
10
77.2366968421743
20
1.69823065856951
30
0
41
1
10
77.2580650543084
20
1.69399406031275
30
0
41
1
10
77.3093550013755
20
1.68382643392116
30
0
41
1
10
77.3520966239313
20
1.67535341192814
30
0
41
1
10
77.3862899219761
20
1.66857499433377
30
0
0
SPLINE
5
199
100
AcDbEntity
8
1
62
256
6
ByLayer
370
-1
48
1
60
0
100
AcDbSpline
70
4
71
3
72
8
73
4
40
0
40
0
40
0
40
0
40
1
40
1
40
1
40
1
41
1
10
75.7090458691888
20
6.12969195972099
30
0
41
1
10
75.7093542430499
20
6.12969195972099
30
0
41
1
10
75.7096626174579
20
6.129692030386
30
0
41
1
10
75.7099709923643
20
6.12969217171593
30
0
0
SPLINE
5
19A
100
AcDbEntity
8
1
62
256
6
ByLayer
370
-1
48
1
60
0
100
AcDbSpline
70
4
71
3
72
13
73
9
40
0
40
0
40
0
40
0
40
0.0429204910534034
40
0.106725791649843
40
0.234336392842723
40
0.489557595228482
40
0.744778797614241
40
1
40
1
40
1
40
1
41
1
10
75.7093633670486
20
6.04997360308425
30
0
41
1
10
75.6954314214087
20
6.04993281965525
30
0
41
1
10
75.6607873754073
20
6.05004202244643
30
0
41
1
10
75.584717271028
20
6.04997037171603
30
0
41
1
10
75.4397314401783
20
6.05001372531208
30
0
41
1
10
75.2326082708653
20
6.04999060339418
30
0
41
1
10
74.9840606859891
20
6.04999638387366
30
0
41
1
10
74.8183622709797
20
6.04999638387366
30
0
41
1
10
74.735513063475
20
6.04999638387366
30
0
0
SPLINE
5
19B
100
AcDbEntity
8
1
62
256
6
ByLayer
370
-1
48
1
60
0
100
AcDbSpline
70
4
71
3
72
8
73
4
40
0
40
0
40
0
40
0
40
1
40
1
40
1
40
1
41
1
10
71.9297908011914
20
1.32138818981221
30
0
41
1
10
71.9295545726756
20
1.32158716623806
30
0
41
1
10
71.929318574251
20
1.3217864181851
30
0
41
1
10
71.9290828068724
20
1.32198594484717
30
0
0
SPLINE
5
19C
100
AcDbEntity
8
1
62
256
6
ByLayer
370
-1
48
1
60
0
100
AcDbSpline
70
4
71
3
72
18
73
14
40
0
40
0
40
0
40
0
40
0.0103342694142159
40
0.0214541090837191
40
0.0659334677617319
40
0.110412826439745
40
0.121532666109248
40
0.132652505778751
40
0.154892185117757
40
0.19937154379577
40
0.288330261151796
40
0.644165130575898
40
1
40
1
40
1
40
1
41
1
10
77.886292457971
20
4.40898844444433
30
0
41
1
10
77.8853515530776
20
4.414086309374
30
0
41
1
10
77.8832790598558
20
4.42466462979723
30
0
41
1
10
77.8769057947349
20
4.45728162630817
30
0
41
1
10
77.8673095089299
20
4.50674654175782
30
0
41
1
10
77.8577648622136
20
4.55617919343069
30
0
41
1
10
77.8513933448958
20
4.58913628552429
30
0
41
1
10
77.8471438420679
20
4.61110609779851
30
0
41
1
10
77.8397015639808
20
4.64956315908248
30
0
41
1
10
77.8247989720554
20
4.72650016133611
30
0
41
1
10
77.7778961123998
20
4.96838203307794
30
0
41
1
10
77.7012881447019
20
5.36411951721803
30
0
41
1
10
77.6331640642179
20
5.71590359078454
30
0
41
1
10
77.5991059391499
20
5.89178330500428
30
0
0
SPLINE
5
19D
100
AcDbEntity
8
1
62
256
6
ByLayer
370
-1
48
1
60
0
100
AcDbSpline
70
4
71
3
72
8
73
4
40
0
40
0
40
0
40
0
40
1
40
1
40
1
40
1
41
1
10
77.542450689127
20
6.13799572962975
30
0
41
1
10
77.5426869176428
20
6.13779675320393
30
0
41
1
10
77.5429229161726
20
6.13759750125686
30
0
41
1
10
77.5431586837618
20
6.13739797459482
30
0
0
SPLINE
5
19E
100
AcDbEntity
8
1
62
256
6
ByLayer
370
-1
48
1
60
0
100
AcDbSpline
70
4
71
3
72
8
73
4
40
0
40
0
40
0
40
0
40
1
40
1
40
1
40
1
41
1
10
72.1306353443144
20
1.23287942451432
30
0
41
1
10
72.1303295453673
20
1.2329193117815
30
0
41
1
10
72.1300237934566
20
1.2329595628284
30
0
41
1
10
72.1297180898704
20
1.23300017748719
30
0
0
SPLINE
5
19F
100
AcDbEntity
8
1
62
256
6
ByLayer
370
-1
48
1
60
0
100
AcDbSpline
70
4
71
3
72
8
73
4
40
0
40
0
40
0
40
0
40
1
40
1
40
1
40
1
41
1
10
72.1734699871789
20
1.22982098732976
30
0
41
1
10
72.1731616541109
20
1.229825959903
30
0
41
1
10
72.1728533227968
20
1.22983107500565
30
0
41
1
10
72.172544993433
20
1.22983633263206
30
0
0
SPLINE
5
1A0
100
AcDbEntity
8
1
62
256
6
ByLayer
370
-1
48
1
60
0
100
AcDbSpline
70
4
71
3
72
14
73
10
40
0
40
0
40
0
40
0
40
0.25
40
0.25
40
0.5
40
0.5
40
0.75
40
0.75
40
1
40
1
40
1
40
1
41
1
10
77.46465369552
20
1.65245697045867
30
0
41
1
10
77.4557930647819
20
1.60725932730054
30
0
41
1
10
77.4392426384556
20
1.5640264047002
30
0
41
1
10
77.3923414030913
20
1.48518801379311
30
0
41
1
10
77.3619878630572
20
1.44978403127149
30
0
41
1
10
77.2912866520022
20
1.39147342146396
30
0
41
1
10
77.2508291112483
20
1.36846185242058
30
0
41
1
10
77.1646200654598
20
1.33754816756669
30
0
41
1
10
77.1195637662457
20
1.32969194172358
30
0
41
1
10
77.0736745500857
20
1.32969194169496
30
0
0
SPLINE
5
1A1
100
AcDbEntity
8
1
62
256
6
ByLayer
370
-1
48
1
60
0
100
AcDbSpline
70
4
71
3
72
8
73
4
40
0
40
0
40
0
40
0
40
1
40
1
40
1
40
1
41
1
10
75.7099709923643
20
6.12969217171593
30
0
41
1
10
75.756046087251
20
6.12971364737899
30
0
41
1
10
75.8020650663075
20
6.13133754200572
30
0
41
1
10
75.8480279295336
20
6.13456385559613
30
0
0
SPLINE
5
1A2
100
AcDbEntity
8
1
62
256
6
ByLayer
370
-1
48
1
60
0
100
AcDbSpline
70
4
71
3
72
10
73
6
40
0
40
0
40
0
40
0
40
0.190146666341706
40
0.481693866458692
40
1
40
1
40
1
40
1
41
1
10
76.7224738442479
20
5.73089564044616
30
0
41
1
10
76.7264045802371
20
5.73114328730037
30
0
41
1
10
76.7363592769541
20
5.7318402721539
30
0
41
1
10
76.7570249520394
20
5.73329876786758
30
0
41
1
10
76.7737599389009
20
5.73450996940267
30
0
41
1
10
76.7844713013003
20
5.73526184192878
30
0
0
SPLINE
5
1A3
100
AcDbEntity
8
1
62
256
6
ByLayer
370
-1
48
1
60
0
100
AcDbSpline
70
4
71
3
72
18
73
14
40
0
40
0
40
0
40
0
40
0.409045703814911
40
0.818091407629822
40
0.92035283358355
40
0.945918190071982
40
0.958700868316198
40
0.965092207438306
40
0.971483546560414
40
0.98426622480463
40
0.99545106826832
40
0.997048903048846
40
1
40
1
40
1
40
1
41
1
10
77.3862899219761
20
1.66857499433377
30
0
41
1
10
77.4543822936758
20
2.02036458557836
30
0
41
1
10
77.5905820583827
20
2.72397539101109
30
0
41
1
10
77.7438521602425
20
3.51549832408205
30
0
41
1
10
77.8331951700724
20
3.977291242869
30
0
41
1
10
77.8566464237341
20
4.09815578772708
30
0
41
1
10
77.864096535534
20
4.13661898582811
30
0
41
1
10
77.8683480842911
20
4.15860155096428
30
0
41
1
10
77.872594862107
20
4.18059023592821
30
0
41
1
10
77.8776281327521
20
4.20671576808306
30
0
41
1
10
77.881893189411
20
4.22868181991075
30
0
41
1
10
77.8845373759052
20
4.242173844425
30
0
41
1
10
77.8853040374381
20
4.24607068128844
30
0
41
1
10
77.8857905315456
20
4.24860038892248
30
0
0
SPLINE
5
1A4
100
AcDbEntity
8
1
62
256
6
ByLayer
370
-1
48
1
60
0
100
AcDbSpline
70
4
71
3
72
14
73
10
40
0
40
0
40
0
40
0
40
0.0278688906942474
40
0.280125361774716
40
0.532381832855185
40
0.65851006839542
40
0.784638303935654
40
0.910766539475889
40
1
40
1
40
1
40
1
41
1
10
77.2978123663054
20
6.1498237444757
30
0
41
1
10
77.296405564212
20
6.14986432059695
30
0
41
1
10
77.2822635685762
20
6.15022327400615
30
0
41
1
10
77.2553877045967
20
6.15017142227518
30
0
41
1
10
77.2235526720682
20
6.14958036270457
30
0
41
1
10
77.1980972595078
20
6.14871910977573
30
0
41
1
10
77.1790149816813
20
6.14786131179434
30
0
41
1
10
77.1618044016038
20
6.1468800193031
30
0
41
1
10
77.1509547950933
20
6.14618105958769
30
0
41
1
10
77.1464598812418
20
6.14588151497225
30
0
0
SPLINE
5
1A5
100
AcDbEntity
8
1
62
256
6
ByLayer
370
-1
48
1
60
0
100
AcDbSpline
70
4
71
3
72
8
73
4
40
0
40
0
40
0
40
0
40
1
40
1
40
1
40
1
41
1
10
77.2996522542562
20
6.14976781381702
30
0
41
1
10
77.2990389943339
20
6.14978743960802
30
0
41
1
10
77.2984256941636
20
6.14980605437864
30
0
41
1
10
77.2978123663195
20
6.14982374447527
30
0
0
SPLINE
5
1A6
100
AcDbEntity
8
1
62
256
6
ByLayer
370
-1
48
1
60
0
100
AcDbSpline
70
4
71
3
72
9
73
5
40
0
40
0
40
0
40
0
40
0.5
40
1
40
1
40
1
40
1
41
1
10
72.6616234825843
20
1.72412207751319
30
0
41
1
10
72.6765441960715
20
1.67077075966978
30
0
41
1
10
72.7077862772112
20
1.54755708072602
30
0
41
1
10
72.7366463638882
20
1.40995863029735
30
0
41
1
10
72.749370829584
20
1.34334425785858
30
0
0
SPLINE
5
1A7
100
AcDbEntity
8
1
62
256
6
ByLayer
370
-1
48
1
60
0
100
AcDbSpline
70
4
71
3
72
8
73
4
40
0
40
0
40
0
40
0
40
1
40
1
40
1
40
1
41
1
10
77.2996965068181
20
6.22954758680993
30
0
41
1
10
77.3000549006927
20
6.22954147270704
30
0
41
1
10
77.3004132913322
20
6.22953516443121
30
0
41
1
10
77.3007716784232
20
6.2295286619879
30
0
0
SPLINE
5
1A8
100
AcDbEntity
8
1
62
256
6
ByLayer
370
-1
48
1
60
0
100
AcDbSpline
70
4
71
3
72
8
73
4
40
0
40
0
40
0
40
0
40
1
40
1
40
1
40
1
41
1
10
73.6242135804083
20
1.32482006384583
30
0
41
1
10
73.6239059576967
20
1.32479847060154
30
0
41
1
10
73.6235983345298
20
1.32477687615841
30
0
41
1
10
73.6232907109078
20
1.32475528051648
30
0
0
SPLINE
5
1A9
100
AcDbEntity
8
1
62
256
6
ByLayer
370
-1
48
1
60
0
100
AcDbSpline
70
4
71
3
72
8
73
4
40
0
40
0
40
0
40
0
40
1
40
1
40
1
40
1
41
1
10
77.0727494218062
20
1.32969195972098
30
0
41
1
10
77.0730577952004
20
1.32969194770345
30
0
41
1
10
77.0733661712967
20
1.32969194169476
30
0
41
1
10
77.0736745500857
20
1.32969194169496
30
0
0
SPLINE
5
1AA
100
AcDbEntity
8
1
62
256
6
ByLayer
370
-1
48
1
60
0
100
AcDbSpline
70
4
71
3
72
11
73
7
40
0
40
0
40
0
40
0
40
0.25
40
0.5
40
0.75
40
1
40
1
40
1
40
1
41
1
10
72.3988843950232
20
6.04999638387369
30
0
41
1
10
72.3622145893175
20
6.05006510191885
30
0
41
1
10
72.2888449400654
20
6.03738908292632
30
0
41
1
10
72.1916202093516
20
5.98216493658109
30
0
41
1
10
72.1186678747471
20
5.89720833084394
30
0
41
1
10
72.0919316883018
20
5.82740867506803
30
0
41
1
10
72.0848244657315
20
5.79126472178734
30
0
0
SPLINE
5
1AB
100
AcDbEntity
8
1
62
256
6
ByLayer
370
-1
48
1
60
0
100
AcDbSpline
70
4
71
3
72
14
73
10
40
0
40
0
40
0
40
0
40
0.0044038098736877
40
0.0109971621261799
40
0.0241838666311642
40
0.0505572756411327
40
0.156050911681007
40
0.578025455840503
40
1
40
1
40
1
40
1
41
1
10
77.0197130834337
20
4.138880138149
30
0
41
1
10
77.0190673278864
20
4.13549227268362
30
0
41
1
10
77.0174254642099
20
4.12703275033093
30
0
41
1
10
77.0137717872896
20
4.10836158778071
30
0
41
1
10
77.0069078618012
20
4.07277803139053
30
0
41
1
10
76.985218443936
20
3.96089105457383
30
0
41
1
10
76.9025412127273
20
3.5337481429361
30
0
41
1
10
76.7607194716114
20
2.80146275093119
30
0
41
1
10
76.6346766799547
20
2.15055188858324
30
0
41
1
10
76.5716552841265
20
1.82509645740927
30
0
0
SPLINE
5
1AC
100
AcDbEntity
8
1
62
256
6
ByLayer
370
-1
48
1
60
0
100
AcDbSpline
70
4
71
3
72
10
73
6
40
0
40
0
40
0
40
0
40
0.190146666341515
40
0.48169386645857
40
1
40
1
40
1
40
1
41
1
10
72.7236209396368
20
1.72848827899583
30
0
41
1
10
72.7196902036475
20
1.72824063214159
30
0
41
1
10
72.7097355069305
20
1.72754364728809
30
0
41
1
10
72.6890698318452
20
1.72608515157441
30
0
41
1
10
72.6723348449838
20
1.72487395003932
30
0
41
1
10
72.6616234825843
20
1.72412207751319
30
0
0
SPLINE
5
1AD
100
AcDbEntity
8
1
62
256
6
ByLayer
370
-1
48
1
60
0
100
AcDbSpline
70
4
71
1
72
4
73
2
40
0
40
0
40
1
40
1
41
1
10
74.7230473919423
20
1.72969195972098
30
0
41
1
10
75.7192420900341
20
1.72969195972098
30
0
0
SPLINE
5
1AE
100
AcDbEntity
8
1
62
256
6
ByLayer
370
-1
48
1
60
0
100
AcDbSpline
70
4
71
1
72
4
73
2
40
0
40
0
40
1
40
1
41
1
10
74.7230473919423
20
5.72969195972098
30
0
41
1
10
73.7268526938506
20
5.72969195972098
30
0
0
SPLINE
5
1AF
100
AcDbEntity
8
1
62
256
6
ByLayer
370
-1
48
1
60
0
100
AcDbSpline
70
4
71
3
72
8
73
4
40
0
40
0
40
0
40
0
40
1
40
1
40
1
40
1
41
1
10
71.5074637370227
20
3.03519921719234
30
0
41
1
10
71.5075220289472
20
3.03489524525534
30
0
41
1
10
71.5075805952457
20
3.03459132661311
30
0
41
1
10
71.5076394357755
20
3.03428746203272
30
0
0
SPLINE
5
1B0
100
AcDbEntity
8
1
62
256
6
ByLayer
370
-1
48
1
60
0
100
AcDbSpline
70
4
71
3
72
8
73
4
40
0
40
0
40
0
40
0
40
1
40
1
40
1
40
1
41
1
10
72.0074102450824
20
5.8060155578716
30
0
41
1
10
72.0074690912294
20
5.80631945146024
30
0
41
1
10
72.0075282746179
20
5.80662324847611
30
0
41
1
10
72.0075877950245
20
5.80692694898329
30
0
0
SPLINE
5
1B1
100
AcDbEntity
8
1
62
256
6
ByLayer
370
-1
48
1
60
0
100
AcDbSpline
70
4
71
2
72
6
73
3
40
0
40
0
40
0
40
1
40
1
40
1
41
1
10
75.7192420195495
20
1.72970702789874
30
0
41
1
10
75.7481011427857
20
1.72985769981258
30
0
41
1
10
75.7763321036806
20
1.73297175203666
30
0
0
SPLINE
5
1B2
100
AcDbEntity
8
1
62
256
6
ByLayer
370
-1
48
1
60
0
100
AcDbSpline
70
4
71
3
72
20
73
16
40
0
40
0
40
0
40
0
40
0.0357152536596759
40
0.0558050838432435
40
0.0714305073193517
40
0.0870559307954599
40
0.107145760979028
40
0.125003387808865
40
0.142861014638703
40
0.214291521958055
40
0.285722029277407
40
0.571444058554814
40
0.857166087832221
40
0.928596595151572
40
1
40
1
40
1
40
1
41
1
10
76.7216552973659
20
6.11603966158341
30
0
41
1
10
76.711324373491
20
6.11531449352904
30
0
41
1
10
76.6951823049365
20
6.11418141844405
30
0
41
1
10
76.6745204561292
20
6.11273108391467
30
0
41
1
10
76.659669751539
20
6.11168865710684
30
0
41
1
10
76.6448190460976
20
6.11064623157043
30
0
41
1
10
76.6293226565737
20
6.10955848503249
30
0
41
1
10
76.6131805824677
20
6.10842541823928
30
0
41
1
10
76.5821877966312
20
6.10624993530303
30
0
41
1
10
76.5356986026496
20
6.10298673364176
30
0
41
1
10
76.4117273212468
20
6.09428500810094
30
0
41
1
10
76.2257699118823
20
6.08123314756921
30
0
41
1
10
76.0398169203434
20
6.06817468850352
30
0
41
1
10
75.9158484763387
20
6.05948098463386
30
0
41
1
10
75.8745418339378
20
6.05647759252608
30
0
41
1
10
75.8538812437332
20
6.05512704002746
30
0
0
SPLINE
5
1B3
100
AcDbEntity
8
1
62
256
6
ByLayer
370
-1
48
1
60
0
100
AcDbSpline
70
4
71
1
72
4
73
2
40
0
40
0
40
1
40
1
41
1
10
75.7763321036806
20
1.73297175203666
30
0
41
1
10
76.5716552841265
20
1.82509645740927
30
0
0
SPLINE
5
1B4
100
AcDbEntity
8
1
62
256
6
ByLayer
370
-1
48
1
60
0
100
AcDbSpline
70
4
71
3
72
18
73
14
40
0
40
0
40
0
40
0
40
0.0103342694142187
40
0.0214541090837219
40
0.0659334677617345
40
0.110412826439747
40
0.12153266610925
40
0.132652505778754
40
0.15489218511776
40
0.199371543795772
40
0.288330261151798
40
0.644165130575899
40
1
40
1
40
1
40
1
41
1
10
71.5847342503686
20
3.05039547499766
30
0
41
1
10
71.5856752109086
20
3.04529761006796
30
0
41
1
10
71.5877477727049
20
3.03471928964475
30
0
41
1
10
71.5941211148333
20
3.00210229313382
30
0
41
1
10
71.6037175218516
20
2.95263737768414
30
0
41
1
10
71.6132622918295
20
2.9032047260113
30
0
41
1
10
71.6196338007283
20
2.87024763391767
30
0
41
1
10
71.623883227246
20
2.84827782164348
30
0
41
1
10
71.63132540245
20
2.80982076035951
30
0
41
1
10
71.646227856478
20
2.73288375810588
30
0
41
1
10
71.6931304408756
20
2.49100188636405
30
0
41
1
10
71.7697381313264
20
2.09526440222396
30
0
41
1
10
71.8378620823777
20
1.74348032865745
30
0
41
1
10
71.8719201878
20
1.56760061443768
30
0
0
SPLINE
5
1B5
100
AcDbEntity
8
1
62
256
6
ByLayer
370
-1
48
1
60
0
100
AcDbSpline
70
4
71
3
72
10
73
6
40
0
40
0
40
0
40
0
40
0.0467751529082048
40
0.0467751529082048
40
1
40
1
40
1
40
1
41
1
10
77.0901278985113
20
0.119760399416123
30
0
41
1
10
77.0921150877008
20
0.120214854481219
30
0
41
1
10
77.0940830289946
20
0.120668211688979
30
0
41
1
10
77.1358312305039
20
0.130341987785783
30
0
41
1
10
77.1682601697012
20
0.139131703373266
30
0
41
1
10
77.1986476192479
20
0.147751479114135
30
0
0
SPLINE
5
1B6
100
AcDbEntity
8
1
62
256
6
ByLayer
370
-1
48
1
60
0
100
AcDbSpline
70
4
71
3
72
24
73
20
40
0
40
0
40
0
40
0
40
0.249999999999974
40
0.249999999999974
40
0.374999999999951
40
0.374999999999951
40
0.437499999999926
40
0.437499999999926
40
0.468749999999913
40
0.468749999999913
40
0.4999999999999
40
0.4999999999999
40
0.562499999999912
40
0.562499999999912
40
0.624999999999924
40
0.624999999999924
40
0.74999999999995
40
0.74999999999995
40
1
40
1
40
1
40
1
41
1
10
77.3007544128769
20
-4.0786811362147
30
0
41
1
10
77.322685011522
20
-4.08379355710051
30
0
41
1
10
77.3458113405831
20
-4.08743572435569
30
0
41
1
10
77.3856844229019
20
-4.08586155541042
30
0
41
1
10
77.3998314922043
20
-4.08426853686669
30
0
41
1
10
77.4242867605464
20
-4.07675606571024
30
0
41
1
10
77.4330191754381
20
-4.07341931226586
30
0
41
1
10
77.4478723960784
20
-4.06504419445218
30
0
41
1
10
77.4531679984825
20
-4.06163186459767
30
0
41
1
10
77.4641826117173
20
-4.05298421537319
30
0
41
1
10
77.4700875487943
20
-4.0475271432916
30
0
41
1
10
77.4864054064685
20
-4.02887920346581
30
0
41
1
10
77.4936456086507
20
-4.01574229599714
30
0
41
1
10
77.5033778456518
20
-3.99369799026198
30
0
41
1
10
77.5064159132916
20
-3.98380976879525
30
0
41
1
10
77.5132893013689
20
-3.95636492605999
30
0
41
1
10
77.5149869467862
20
-3.9404370683211
30
0
41
1
10
77.5173136871262
20
-3.89509037796512
30
0
41
1
10
77.5148019052373
20
-3.8687096320713
30
0
41
1
10
77.5109921353695
20
-3.84356902002213
30
0
0
SPLINE
5
1B7
100
AcDbEntity
8
1
62
256
6
ByLayer
370
-1
48
1
60
0
100
AcDbSpline
70
4
71
3
72
16
73
12
40
0
40
0
40
0
40
0
40
0.0624999999999997
40
0.0624999999999997
40
0.124999999999999
40
0.124999999999999
40
0.25
40
0.25
40
0.500000000000001
40
0.500000000000001
40
1
40
1
40
1
40
1
41
1
10
77.5177473939619
20
-0.356275915691953
30
0
41
1
10
77.5150663623214
20
-0.343686179787767
30
0
41
1
10
77.5128434219961
20
-0.331297501256273
30
0
41
1
10
77.5094904516175
20
-0.309328567835507
30
0
41
1
10
77.5082921343524
20
-0.299487462762556
30
0
41
1
10
77.5055891334963
20
-0.272952570797543
30
0
41
1
10
77.5048611499752
20
-0.258535996560994
30
0
41
1
10
77.5038473052018
20
-0.220081155445115
30
0
41
1
10
77.504737988458
20
-0.199984819655867
30
0
41
1
10
77.508694287665
20
-0.144790852282398
30
0
41
1
10
77.5132390116494
20
-0.115630946823131
30
0
41
1
10
77.5182386222924
20
-0.0882923310550439
30
0
0
SPLINE
5
1B8
100
AcDbEntity
8
1
62
256
6
ByLayer
370
-1
48
1
60
0
100
AcDbSpline
70
4
71
3
72
26
73
22
40
0
40
0
40
0
40
0
40
0.249999999999972
40
0.249999999999972
40
0.374999999999958
40
0.374999999999958
40
0.437499999999949
40
0.437499999999949
40
0.468749999999944
40
0.468749999999944
40
0.499999999999939
40
0.499999999999939
40
0.531249999999935
40
0.531249999999935
40
0.56249999999993
40
0.56249999999993
40
0.62499999999994
40
0.62499999999994
40
0.74999999999996
40
0.74999999999996
40
1
40
1
40
1
40
1
41
1
10
77.5182386222925
20
-0.0882923310552712
30
0
41
1
10
77.5233306257824
20
-0.0604484974362265
30
0
41
1
10
77.5262140264506
20
-0.0315757518164332
30
0
41
1
10
77.5214246556625
20
0.0173472308219402
30
0
41
1
10
77.5184818665172
20
0.0344453581533344
30
0
41
1
10
77.5075120789298
20
0.06408423842106
30
0
41
1
10
77.5028513813551
20
0.0745899480494359
30
0
41
1
10
77.4912149676737
20
0.0928114247777785
30
0
41
1
10
77.4865391464726
20
0.0993499887248674
30
0
41
1
10
77.4734434893322
20
0.114029801540596
30
0
41
1
10
77.4643880802022
20
0.122565757617224
30
0
41
1
10
77.4432417263938
20
0.137611076977493
30
0
41
1
10
77.4325573880998
20
0.143243640071745
30
0
41
1
10
77.4145599903924
20
0.151232686597297
30
0
41
1
10
77.40656039735
20
0.153989742246608
30
0
41
1
10
77.3845973090239
20
0.160519070430183
30
0
41
1
10
77.3722094383419
20
0.162706270293171
30
0
41
1
10
77.3372132428219
20
0.167141883347256
30
0
41
1
10
77.3174753815541
20
0.166955582892825
30
0
41
1
10
77.2615643675733
20
0.163360169873954
30
0
41
1
10
77.2292671037396
20
0.156437074435786
30
0
41
1
10
77.198647619248
20
0.147751479114163
30
0
0
SPLINE
5
1B9
100
AcDbEntity
8
1
62
256
6
ByLayer
370
-1
48
1
60
0
100
AcDbSpline
70
4
71
3
72
12
73
8
40
0
40
0
40
0
40
0
40
0.331885470510774
40
0.331885470510774
40
0.665942735255387
40
0.665942735255387
40
1
40
1
40
1
40
1
41
1
10
76.9977555249562
20
-4.04146453214878
30
0
41
1
10
77.0440706279127
20
-4.04047705671479
30
0
41
1
10
77.0816267344054
20
-4.04309025735748
30
0
41
1
10
77.1520367721762
20
-4.05036777179296
30
0
41
1
10
77.1839697433032
20
-4.05525435766361
30
0
41
1
10
77.2445694417714
20
-4.06617662236749
30
0
41
1
10
77.2731633666855
20
-4.07224916219087
30
0
41
1
10
77.3007544128769
20
-4.07868113621467
30
0
0
SPLINE
5
1BA
100
AcDbEntity
8
1
62
256
6
ByLayer
370
-1
48
1
60
0
100
AcDbSpline
70
4
71
3
72
12
73
8
40
0
40
0
40
0
40
0
40
0.499999999999962
40
0.499999999999962
40
0.749999999999981
40
0.749999999999981
40
1
40
1
40
1
40
1
41
1
10
77.319419513227
20
0.235053215011135
30
0
41
1
10
77.3918055956086
20
0.241374364366578
30
0
41
1
10
77.4659775306257
20
0.220383081477166
30
0
41
1
10
77.5532710366396
20
0.155820166072601
30
0
41
1
10
77.5784743837198
20
0.128915128789686
30
0
41
1
10
77.6175901328797
20
0.0680891759430438
30
0
41
1
10
77.6314568157707
20
0.0344804873029716
30
0
41
1
10
77.6390105162714
20
-0.0009905951581004
30
0
0
SPLINE
5
1BB
100
AcDbEntity
8
1
62
256
6
ByLayer
370
-1
48
1
60
0
100
AcDbSpline
70
4
71
3
72
18
73
14
40
0
40
0
40
0
40
0
40
0.25
40
0.25
40
0.500000000000001
40
0.500000000000001
40
0.750000000000001
40
0.750000000000001
40
0.875000000000001
40
0.875000000000001
40
0.9375
40
0.9375
40
1
40
1
40
1
40
1
41
1
10
77.5109921353686
20
-3.84356902002608
30
0
41
1
10
77.5061683605161
20
-3.81173700486824
30
0
41
1
10
77.5015744733633
20
-3.77893382830658
30
0
41
1
10
77.4931587849151
20
-3.71006579573776
30
0
41
1
10
77.4893174275439
20
-3.67408355444218
30
0
41
1
10
77.483152445712
20
-3.59570740378101
30
0
41
1
10
77.4806631490285
20
-3.5540133773089
30
0
41
1
10
77.4803411953655
20
-3.47705836797607
30
0
41
1
10
77.4808095381437
20
-3.44866593075361
30
0
41
1
10
77.4838934091667
20
-3.39923535074709
30
0
41
1
10
77.4853648051026
20
-3.38118551613073
30
0
41
1
10
77.4897103932365
20
-3.34239714771078
30
0
41
1
10
77.4926486702896
20
-3.32141312259265
30
0
41
1
10
77.4963234747481
20
-3.30061114326551
30
0
0
SPLINE
5
1BC
100
AcDbEntity
8
1
62
256
6
ByLayer
370
-1
48
1
60
0
100
AcDbSpline
70
4
71
3
72
8
73
4
40
0
40
0
40
0
40
0
40
1
40
1
40
1
40
1
41
1
10
77.9889885366467
20
-1.64443664111772
30
0
41
1
10
78.0024598495582
20
-1.70769597355965
30
0
41
1
10
78.003569874938
20
-1.77117067062895
30
0
41
1
10
77.9923186127859
20
-1.83486073232564
30
0
0
SPLINE
5
1BD
100
AcDbEntity
8
1
62
256
6
ByLayer
370
-1
48
1
60
0
100
AcDbSpline
70
4
71
3
72
10
73
6
40
0
40
0
40
0
40
0
40
0.5
40
0.5
40
1
40
1
40
1
40
1
41
1
10
77.6115695709037
20
-3.99016825611699
30
0
41
1
10
77.6019148332042
20
-4.04482086588141
30
0
41
1
10
77.5767579921023
20
-4.09644338034417
30
0
41
1
10
77.5028916519963
20
-4.17894977531896
30
0
41
1
10
77.4546416681037
20
-4.20951873786487
30
0
41
1
10
77.4013318484113
20
-4.22528037230953
30
0
0
SPLINE
5
1BE
100
AcDbEntity
8
1
62
256
6
ByLayer
370
-1
48
1
60
0
100
AcDbSpline
70
4
71
3
72
8
73
4
40
0
40
0
40
0
40
0
40
1
40
1
40
1
40
1
41
1
10
77.7734572578776
20
-1.73183890178373
30
0
41
1
10
77.7847085200295
20
-1.66814884008707
30
0
41
1
10
77.7835984946498
20
-1.60467414301775
30
0
41
1
10
77.7701271817384
20
-1.54141481057582
30
0
0
SPLINE
5
1BF
100
AcDbEntity
8
SK1
62
256
6
ByLayer
370
-1
48
1
60
0
100
AcDbSpline
70
4
71
3
72
8
73
4
40
0
40
0
40
0
40
0
40
1
40
1
40
1
40
1
41
1
10
-49
20
-5.92285193129115
30
0
41
1
10
-49.3676239342109
20
-5.30236629245442
30
0
41
1
10
-49.7070222547918
20
-4.66800398302257
30
0
41
1
10
-50
20
-4.01081974164879
30
0
0
SPLINE
5
1C0
100
AcDbEntity
8
SK1
62
256
6
ByLayer
370
-1
48
1
60
0
100
AcDbSpline
70
4
71
3
72
20
73
16
40
0
40
0
40
0
40
0
40
0.124999999999999
40
0.124999999999999
40
0.249999999999997
40
0.249999999999997
40
0.374999999999996
40
0.374999999999996
40
0.499999999999994
40
0.499999999999994
40
0.624999999999993
40
0.624999999999993
40
0.749999999999992
40
0.749999999999992
40
1
40
1
40
1
40
1
41
1
10
-47.633814451215
20
-5.29932072668728
30
0
41
1
10
-47.6738922636715
20
-5.27419067826415
30
0
41
1
10
-47.7166430277408
20
-5.2536833095611
30
0
41
1
10
-47.8080113883237
20
-5.22561624608014
30
0
41
1
10
-47.8558086398442
20
-5.21864267878075
30
0
41
1
10
-47.9498238136525
20
-5.22043840528849
30
0
41
1
10
-47.9974643733847
20
-5.22930496216131
30
0
41
1
10
-48.0869190094971
20
-5.26009470978795
30
0
41
1
10
-48.1294303248595
20
-5.28196037105604
30
0
41
1
10
-48.2086279314314
20
-5.33453450915434
30
0
41
1
10
-48.2447916817791
20
-5.36473843771279
30
0
41
1
10
-48.3120993158946
20
-5.43087025673137
30
0
41
1
10
-48.3433839743252
20
-5.46708425266206
30
0
41
1
10
-48.4290137419149
20
-5.57994089637941
30
0
41
1
10
-48.4760766654538
20
-5.66116280030394
30
0
41
1
10
-48.5162227297291
20
-5.74651411012809
30
0
0
SPLINE
5
1C1
100
AcDbEntity
8
SK1
62
256
6
ByLayer
370
-1
48
1
60
0
100
AcDbSpline
70
4
71
3
72
70
73
66
40
0
40
0
40
0
40
0
40
0.015625
40
0.015625
40
0.0312499999999999
40
0.0312499999999999
40
0.0468749999999999
40
0.0468749999999999
40
0.0624999999999998
40
0.0624999999999998
40
0.0937499999999997
40
0.0937499999999997
40
0.125
40
0.125
40
0.156249999999999
40
0.156249999999999
40
0.187499999999999
40
0.187499999999999
40
0.249999999999999
40
0.249999999999999
40
0.281249999999999
40
0.281249999999999
40
0.312499999999999
40
0.312499999999999
40
0.374999999999999
40
0.374999999999999
40
0.406249999999999
40
0.406249999999999
40
0.437499999999999
40
0.437499999999999
40
0.499999999999999
40
0.499999999999999
40
0.562499999999999
40
0.562499999999999
40
0.593749999999999
40
0.593749999999999
40
0.624999999999999
40
0.624999999999999
40
0.687499999999999
40
0.687499999999999
40
0.749999999999999
40
0.749999999999999
40
0.781249999999999
40
0.781249999999999
40
0.812499999999999
40
0.812499999999999
40
0.828124999999999
40
0.828124999999999
40
0.843749999999999
40
0.843749999999999
40
0.874999999999999
40
0.874999999999999
40
0.890624999999999
40
0.890624999999999
40
0.906249999999999
40
0.906249999999999
40
0.9375
40
0.9375
40
0.953125
40
0.953125
40
0.96875
40
0.96875
40
0.984375
40
0.984375
40
1
40
1
40
1
40
1
41
1
10
-6.5
20
-5.92285193129121
30
0
41
1
10
-6.4207001561935
20
-5.92285193129121
30
0
41
1
10
-6.34086123714724
20
-5.9185668895135
30
0
41
1
10
-6.18144914173817
20
-5.90119679294747
30
0
41
1
10
-6.10329779169277
20
-5.88829240949369
30
0
41
1
10
-5.94990088501589
20
-5.85451305048375
30
0
41
1
10
-5.87465633133542
20
-5.83363525531988
30
0
41
1
10
-5.72696960000087
20
-5.78406116811425
30
0
41
1
10
-5.65429253457478
20
-5.75520748082337
30
0
41
1
10
-5.44519110301013
20
-5.65925614820594
30
0
41
1
10
-5.31596620096835
20
-5.58241846129397
30
0
41
1
10
-5.07484414087321
20
-5.40540504402466
30
0
41
1
10
-4.96593256698816
20
-5.30735528286371
30
0
41
1
10
-4.76784635237644
20
-5.09639651205995
30
0
41
1
10
-4.67840953317994
20
-4.983217129438
30
0
41
1
10
-4.51537314962405
20
-4.74292412211906
30
0
41
1
10
-4.44295328505657
20
-4.61746994914878
30
0
41
1
10
-4.24868198160985
20
-4.23068443115997
30
0
41
1
10
-4.14844766983134
20
-3.95746366364494
30
0
41
1
10
-4.0262637687357
20
-3.52851959599104
30
0
41
1
10
-3.99045707400202
20
-3.38261304841748
30
0
41
1
10
-3.92745056712241
20
-3.08915292017716
30
0
41
1
10
-3.90009723356329
20
-2.94105776320953
30
0
41
1
10
-3.8278752392381
20
-2.49297350515943
30
0
41
1
10
-3.79269532434782
20
-2.18920722447757
30
0
41
1
10
-3.75266975157555
20
-1.72668593189553
30
0
41
1
10
-3.74149452812992
20
-1.57136096042274
30
0
41
1
10
-3.7227914524648
20
-1.25845966931755
30
0
41
1
10
-3.71525523181913
20
-1.10051711083781
30
0
41
1
10
-3.69757555686806
20
-0.627542985956865
30
0
41
1
10
-3.69216291533115
20
-0.312549998346725
30
0
41
1
10
-3.69221342580033
20
0.316814481428594
30
0
41
1
10
-3.69767917852337
20
0.631185932377917
30
0
41
1
10
-3.71533699604186
20
1.10226412810465
30
0
41
1
10
-3.72282689544929
20
1.25921004505511
30
0
41
1
10
-3.74159811083336
20
1.57293530507485
30
0
41
1
10
-3.75286596385365
20
1.72931583567794
30
0
41
1
10
-3.7931360613473
20
2.19356375631057
30
0
41
1
10
-3.82851600359484
20
2.49788201632404
30
0
41
1
10
-3.92509289084615
20
3.09518912355421
30
0
41
1
10
-3.98613026108981
20
3.38819589012314
30
0
41
1
10
-4.10872562486918
20
3.81772380638489
30
0
41
1
10
-4.15457050303766
20
3.95816262372668
30
0
41
1
10
-4.25798900802536
20
4.23138581985137
30
0
41
1
10
-4.31562107045932
20
4.36443286751282
30
0
41
1
10
-4.41324202900785
20
4.55806429666799
30
0
41
1
10
-4.44765197842653
20
4.62161604232489
30
0
41
1
10
-4.52071677173481
20
4.74659993544324
30
0
41
1
10
-4.55949059300505
20
4.80819083961242
30
0
41
1
10
-4.68167362759087
20
4.98750932801642
30
0
41
1
10
-4.77111361192291
20
5.10028531412462
30
0
41
1
10
-4.91992617419712
20
5.25814375735854
30
0
41
1
10
-4.97198266212237
20
5.3088730991264
30
0
41
1
10
-5.08163619478131
20
5.40624856211491
30
0
41
1
10
-5.13955477027798
20
5.4531151519183
30
0
41
1
10
-5.31981523628792
20
5.58481269193101
30
0
41
1
10
-5.44864000404647
20
5.66109472307599
30
0
41
1
10
-5.65716976919146
20
5.75639550475049
30
0
41
1
10
-5.7298085887667
20
5.78512422111541
30
0
41
1
10
-5.87748335724046
20
5.83446980910264
30
0
41
1
10
-5.95248390556498
20
5.85515796054099
30
0
41
1
10
-6.10485268754977
20
5.88855660979888
30
0
41
1
10
-6.18222037802389
20
5.90126892263172
30
0
41
1
10
-6.3394359509619
20
5.91842344284453
30
0
41
1
10
-6.41995776294141
20
5.92285193129121
30
0
41
1
10
-6.5
20
5.92285193129121
30
0
0
SPLINE
5
1C2
100
AcDbEntity
8
SK1
62
256
6
ByLayer
370
-1
48
1
60
0
100
AcDbSpline
70
4
71
3
72
8
73
4
40
0
40
0
40
0
40
0
40
1
40
1
40
1
40
1
41
1
10
-48.6
20
5.92285193129126
30
0
41
1
10
-48.5718597554103
20
5.86419941966201
30
0
41
1
10
-48.5439308119344
20
5.80542202928868
30
0
41
1
10
-48.516222729729
20
5.74651411012826
30
0
0
SPLINE
5
1C3
100
AcDbEntity
8
SK1
62
256
6
ByLayer
370
-1
48
1
60
0
100
AcDbSpline
70
4
71
3
72
8
73
4
40
0
40
0
40
0
40
0
40
1
40
1
40
1
40
1
41
1
10
-48.516222729729
20
-5.74651411012815
30
0
41
1
10
-48.5439308119344
20
-5.80542202928857
30
0
41
1
10
-48.5718597554103
20
-5.8641994196619
30
0
41
1
10
-48.6
20
-5.92285193129118
30
0
0
SPLINE
5
1C4
100
AcDbEntity
8
SK1
62
256
6
ByLayer
370
-1
48
1
60
0
100
AcDbSpline
70
4
71
3
72
8
73
4
40
0
40
0
40
0
40
0
40
1
40
1
40
1
40
1
41
1
10
-47.6338144512151
20
5.29932072668754
30
0
41
1
10
-47.2923417749157
20
5.5134348303427
30
0
41
1
10
-46.94738484153
20
5.72075834496087
30
0
41
1
10
-46.6000000000004
20
5.92285193129214
30
0
0
SPLINE
5
1C5
100
AcDbEntity
8
SK1
62
256
6
ByLayer
370
-1
48
1
60
0
100
AcDbSpline
70
4
71
3
72
8
73
4
40
0
40
0
40
0
40
0
40
1
40
1
40
1
40
1
41
1
10
-46.6000000000004
20
-5.92285193129203
30
0
41
1
10
-46.94738484153
20
-5.72075834496076
30
0
41
1
10
-47.2923417749157
20
-5.51343483034259
30
0
41
1
10
-47.6338144512151
20
-5.29932072668743
30
0
0
SPLINE
5
1C6
100
AcDbEntity
8
SK1
62
256
6
ByLayer
370
-1
48
1
60
0
100
AcDbSpline
70
4
71
3
72
8
73
4
40
0
40
0
40
0
40
0
40
1
40
1
40
1
40
1
41
1
10
-50
20
4.0108197416489
30
0
41
1
10
-49.7054172377832
20
4.67160422878337
30
0
41
1
10
-49.3659298245044
20
5.30522565672777
30
0
41
1
10
-49
20
5.92285193129126
30
0
0
SPLINE
5
1C7
100
AcDbEntity
8
SK1
62
256
6
ByLayer
370
-1
48
1
60
0
100
AcDbSpline
70
4
71
3
72
20
73
16
40
0
40
0
40
0
40
0
40
0.249999999999993
40
0.249999999999993
40
0.374999999999994
40
0.374999999999994
40
0.499999999999995
40
0.499999999999995
40
0.624999999999996
40
0.624999999999996
40
0.749999999999998
40
0.749999999999998
40
0.874999999999999
40
0.874999999999999
40
1
40
1
40
1
40
1
41
1
10
-48.516222729729
20
5.74651411012826
30
0
41
1
10
-48.4762911096295
20
5.66161871277322
30
0
41
1
10
-48.4283722366634
20
5.57893837743811
30
0
41
1
10
-48.3426850116238
20
5.46624297823843
30
0
41
1
10
-48.3114261194144
20
5.43013690581458
30
0
41
1
10
-48.2441155430023
20
5.36414748183782
30
0
41
1
10
-48.2081109043675
20
5.33418916709314
30
0
41
1
10
-48.1299068985677
20
5.28227885986365
30
0
41
1
10
-48.0869527159662
20
5.26011190276751
30
0
41
1
10
-47.9975349560404
20
5.22932367138964
30
0
41
1
10
-47.9502203463448
20
5.22040015827844
30
0
41
1
10
-47.8545747664299
20
5.21866533516589
30
0
41
1
10
-47.8075489790091
20
5.22575417310171
30
0
41
1
10
-47.7170288270798
20
5.25356891952413
30
0
41
1
10
-47.6737128978907
20
5.27430314624814
30
0
41
1
10
-47.6338144512151
20
5.29932072668754
30
0
0
LINE
5
45
100
AcDbEntity
8
80
62
256
6
ByLayer
370
-1
48
1
60
0
100
AcDbLine
10
0
20
0
30
0
11
-7
21
0
31
0
39
0
210
0
220
0
230
1
0
LINE
5
46
100
AcDbEntity
8
81
62
256
6
ByLayer
370
-1
48
1
60
0
100
AcDbLine
10
78
20
0
30
0
11
85
21
0
31
0
39
0
210
0
220
0
230
1
0
LINE
5
47
100
AcDbEntity
8
SK1
62
256
6
ByLayer
370
-1
48
1
60
0
100
AcDbLine
10
-2
20
-9.99675
30
0
11
-1.551212
21
-9.787477
31
0
39
0
210
0
220
0
230
1
0
LINE
5
49
100
AcDbEntity
8
SK1
62
256
6
ByLayer
370
-1
48
1
60
0
100
AcDbLine
10
-1.551212
20
9.787477
30
0
11
-2
21
9.99675
31
0
39
0
210
0
220
0
230
1
0
LINE
5
4A
100
AcDbEntity
8
SK1
62
256
6
ByLayer
370
-1
48
1
60
0
100
AcDbLine
10
-2
20
9.99675
30
0
11
-46.6
21
9.99675
31
0
39
0
210
0
220
0
230
1
0
LINE
5
4B
100
AcDbEntity
8
SK1
62
256
6
ByLayer
370
-1
48
1
60
0
100
AcDbLine
10
-46.6
20
-9.99675
30
0
11
-2
21
-9.99675
31
0
39
0
210
0
220
0
230
1
0
LINE
5
4C
100
AcDbEntity
8
SK1
62
256
6
ByLayer
370
-1
48
1
60
0
100
AcDbLine
10
-0.15
20
9.75
30
0
11
-1.382165
21
9.75
31
0
39
0
210
0
220
0
230
1
0
LINE
5
4D
100
AcDbEntity
8
SK1
62
256
6
ByLayer
370
-1
48
1
60
0
100
AcDbLine
10
-1.382165
20
-9.75
30
0
11
-0.15
21
-9.75
31
0
39
0
210
0
220
0
230
1
0
LINE
5
4E
100
AcDbEntity
8
SK1
62
256
6
ByLayer
370
-1
48
1
60
0
100
AcDbLine
10
-48.6
20
9.99675
30
0
11
-49
21
9.99675
31
0
39
0
210
0
220
0
230
1
0
LINE
5
4F
100
AcDbEntity
8
SK1
62
256
6
ByLayer
370
-1
48
1
60
0
100
AcDbLine
10
-49
20
-9.99675
30
0
11
-48.6
21
-9.99675
31
0
39
0
210
0
220
0
230
1
0
LINE
5
50
100
AcDbEntity
8
SK1
62
256
6
ByLayer
370
-1
48
1
60
0
100
AcDbLine
10
-49
20
9.99675
30
0
11
-50
21
8.99675
31
0
39
0
210
0
220
0
230
1
0
LINE
5
51
100
AcDbEntity
8
SK1
62
256
6
ByLayer
370
-1
48
1
60
0
100
AcDbLine
10
-50
20
-8.99675
30
0
11
-49
21
-9.99675
31
0
39
0
210
0
220
0
230
1
0
LINE
5
52
100
AcDbEntity
8
SK1
62
256
6
ByLayer
370
-1
48
1
60
0
100
AcDbLine
10
-46.6
20
9.99675
30
0
11
-47.633814
21
9.640417
31
0
39
0
210
0
220
0
230
1
0
LINE
5
53
100
AcDbEntity
8
SK1
62
256
6
ByLayer
370
-1
48
1
60
0
100
AcDbLine
10
-47.633814
20
-9.640417
30
0
11
-46.6
21
-9.99675
31
0
39
0
210
0
220
0
230
1
0
LINE
5
54
100
AcDbEntity
8
SK1
62
256
6
ByLayer
370
-1
48
1
60
0
100
AcDbLine
10
-48.6
20
-9.99675
30
0
11
-48.516223
21
-9.893294
31
0
39
0
210
0
220
0
230
1
0
LINE
5
55
100
AcDbEntity
8
SK1
62
256
6
ByLayer
370
-1
48
1
60
0
100
AcDbLine
10
-48.516223
20
9.893294
30
0
11
-48.6
21
9.99675
31
0
39
0
210
0
220
0
230
1
0
LINE
5
56
100
AcDbEntity
8
1
62
256
6
ByLayer
370
-1
48
1
60
0
100
AcDbLine
10
5
20
12.5
30
0
11
0.2
21
12.5
31
0
39
0
210
0
220
0
230
1
0
LINE
5
58
100
AcDbEntity
8
1
62
256
6
ByLayer
370
-1
48
1
60
0
100
AcDbLine
10
0.2
20
-12.5
30
0
11
5
21
-12.5
31
0
39
0
210
0
220
0
230
1
0
LINE
5
59
100
AcDbEntity
8
1
62
256
6
ByLayer
370
-1
48
1
60
0
100
AcDbLine
10
0.2
20
12.5
30
0
11
0
21
12.3
31
0
39
0
210
0
220
0
230
1
0
LINE
5
5A
100
AcDbEntity
8
1
62
256
6
ByLayer
370
-1
48
1
60
0
100
AcDbLine
10
0
20
-12.3
30
0
11
0.2
21
-12.5
31
0
39
0
210
0
220
0
230
1
0
LINE
5
5B
100
AcDbEntity
8
1
62
256
6
ByLayer
370
-1
48
1
60
0
100
AcDbLine
10
71.887285
20
5.975
30
0
11
69.963964
21
5.975
31
0
39
0
210
0
220
0
230
1
0
LINE
5
5C
100
AcDbEntity
8
1
62
256
6
ByLayer
370
-1
48
1
60
0
100
AcDbLine
10
13
20
-5.975
30
0
11
30.833685
21
-5.975
31
0
39
0
210
0
220
0
230
1
0
LINE
5
5D
100
AcDbEntity
8
1
62
256
6
ByLayer
370
-1
48
1
60
0
100
AcDbLine
10
32.60384
20
5.975
30
0
11
13
21
5.975
31
0
39
0
210
0
220
0
230
1
0
LINE
5
5E
100
AcDbEntity
8
SK4
62
256
6
ByLayer
370
-1
48
0.05
60
0
100
AcDbLine
10
78
20
0
30
0
11
-50
21
0
31
0
39
0
210
0
220
0
230
1
0
LINE
5
60
100
AcDbEntity
8
4
62
256
6
ByLayer
370
-1
48
0.05
60
0
100
AcDbLine
10
78
20
0
30
0
11
0
21
0
31
0
39
0
210
0
220
0
230
1
0
LINE
5
62
100
AcDbEntity
8
1
62
256
6
ByLayer
370
-1
48
1
60
0
100
AcDbLine
10
77.068838
20
0.172536
30
0
11
77.110633
21
0.179892
31
0
39
0
210
0
220
0
230
1
0
LINE
5
63
100
AcDbEntity
8
1
62
256
6
ByLayer
370
-1
48
1
60
0
100
AcDbLine
10
77.40072
20
-1.627435
30
0
11
77.035405
21
-3.695373
31
0
39
0
210
0
220
0
230
1
0
LINE
5
64
100
AcDbEntity
8
1
62
256
6
ByLayer
370
-1
48
1
60
0
100
AcDbLine
10
77.150114
20
-0.450625
30
0
11
77.40072
21
-1.627435
31
0
39
0
210
0
220
0
230
1
0
LINE
5
65
100
AcDbEntity
8
1
62
256
6
ByLayer
370
-1
48
1
60
0
100
AcDbLine
10
71.563065
20
1.182256
30
0
11
71.608948
21
1.182256
31
0
39
0
210
0
220
0
230
1
0
LINE
5
66
100
AcDbEntity
8
1
62
256
6
ByLayer
370
-1
48
1
60
0
100
AcDbLine
10
77.40072
20
-1.627435
30
0
11
76.971164
21
-1.425236
31
0
39
0
210
0
220
0
230
1
0
LINE
5
67
100
AcDbEntity
8
1
62
256
6
ByLayer
370
-1
48
1
60
0
100
AcDbLine
10
76.587703
20
1.157444
30
0
11
77.001176
21
1.121132
31
0
39
0
210
0
220
0
230
1
0
LINE
5
68
100
AcDbEntity
8
1
62
256
6
ByLayer
370
-1
48
1
60
0
100
AcDbLine
10
69.289226
20
0.793231
30
0
11
69.177055
21
0.448378
31
0
39
0
210
0
220
0
230
1
0
LINE
5
69
100
AcDbEntity
8
1
62
256
6
ByLayer
370
-1
48
1
60
0
100
AcDbLine
10
71.206419
20
2.577539
30
0
11
71.200858
21
2.577539
31
0
39
0
210
0
220
0
230
1
0
LINE
5
6A
100
AcDbEntity
8
1
62
256
6
ByLayer
370
-1
48
1
60
0
100
AcDbLine
10
69.03037
20
3.733795
30
0
11
63.58992
21
4.537848
31
0
39
0
210
0
220
0
230
1
0
LINE
5
6B
100
AcDbEntity
8
1
62
256
6
ByLayer
370
-1
48
1
60
0
100
AcDbLine
10
70.069924
20
2.373199
30
0
11
68.179322
21
3.258169
31
0
39
0
210
0
220
0
230
1
0
LINE
5
6C
100
AcDbEntity
8
1
62
256
6
ByLayer
370
-1
48
1
60
0
100
AcDbLine
10
76.617919
20
0.093967
30
0
11
76.823014
21
1.124616
31
0
39
0
210
0
220
0
230
1
0
LINE
5
6D
100
AcDbEntity
8
1
62
256
6
ByLayer
370
-1
48
1
60
0
100
AcDbLine
10
69.636248
20
1.660858
30
0
11
69.663391
21
1.648153
31
0
39
0
210
0
220
0
230
1
0
LINE
5
6E
100
AcDbEntity
8
1
62
256
6
ByLayer
370
-1
48
1
60
0
100
AcDbLine
10
77.001176
20
1.121132
30
0
11
76.823014
21
1.124616
31
0
39
0
210
0
220
0
230
1
0
LINE
5
6F
100
AcDbEntity
8
1
62
256
6
ByLayer
370
-1
48
1
60
0
100
AcDbLine
10
76.958623
20
-5.97038
30
0
11
77.2153
21
-4.517404
31
0
39
0
210
0
220
0
230
1
0
LINE
5
70
100
AcDbEntity
8
1
62
256
6
ByLayer
370
-1
48
1
60
0
100
AcDbLine
10
71.375816
20
-0.028633
30
0
11
71.638216
21
0.778085
31
0
39
0
210
0
220
0
230
1
0
LINE
5
71
100
AcDbEntity
8
1
62
256
6
ByLayer
370
-1
48
1
60
0
100
AcDbLine
10
71.384202
20
2.953925
30
0
11
71.497355
21
2.953925
31
0
39
0
210
0
220
0
230
1
0
LINE
5
72
100
AcDbEntity
8
1
62
256
6
ByLayer
370
-1
48
1
60
0
100
AcDbLine
10
77.050782
20
1.329686
30
0
11
77.058166
21
0.632709
31
0
39
0
210
0
220
0
230
1
0
LINE
5
73
100
AcDbEntity
8
1
62
256
6
ByLayer
370
-1
48
1
60
0
100
AcDbLine
10
71.081702
20
-5.97038
30
0
11
76.958623
21
-5.97038
31
0
39
0
210
0
220
0
230
1
0
LINE
5
74
100
AcDbEntity
8
1
62
256
6
ByLayer
370
-1
48
1
60
0
100
AcDbLine
10
0
20
12.3
30
0
11
0
21
-12.3
31
0
39
0
210
0
220
0
230
1
0
LINE
5
75
100
AcDbEntity
8
1
62
256
6
ByLayer
370
-1
48
1
60
0
100
AcDbLine
10
71.224505
20
2.76889
30
0
11
71.854535
21
5.97271
31
0
39
0
210
0
220
0
230
1
0
LINE
5
76
100
AcDbEntity
8
1
62
256
6
ByLayer
370
-1
48
1
60
0
100
AcDbLine
10
71.31448
20
2.817979
30
0
11
71.434203
21
2.817979
31
0
39
0
210
0
220
0
230
1
0
LINE
5
77
100
AcDbEntity
8
1
62
256
6
ByLayer
370
-1
48
1
60
0
100
AcDbLine
10
5
20
12.5
30
0
11
5
21
-12.5
31
0
39
0
210
0
220
0
230
1
0
LINE
5
78
100
AcDbEntity
8
1
62
256
6
ByLayer
370
-1
48
1
60
0
100
AcDbLine
10
71.860376
20
5.974132
30
0
11
71.230066
21
2.76889
31
0
39
0
210
0
220
0
230
1
0
LINE
5
79
100
AcDbEntity
8
1
62
256
6
ByLayer
370
-1
48
1
60
0
100
AcDbLine
10
69.03037
20
3.733795
30
0
11
69.03037
21
5.974442
31
0
39
0
210
0
220
0
230
1
0
LINE
5
7A
100
AcDbEntity
8
1
62
256
6
ByLayer
370
-1
48
1
60
0
100
AcDbLine
10
77.089182
20
0.20539
30
0
11
77.122682
21
0.194383
31
0
39
0
210
0
220
0
230
1
0
LINE
5
7B
100
AcDbEntity
8
1
62
256
6
ByLayer
370
-1
48
1
60
0
100
AcDbLine
10
73.191624
20
1.157444
30
0
11
73.029341
21
1.07831
31
0
39
0
210
0
220
0
230
1
0
LINE
5
7C
100
AcDbEntity
8
1
62
256
6
ByLayer
370
-1
48
1
60
0
100
AcDbLine
10
76.823014
20
1.124616
30
0
11
76.459896
21
1.157444
31
0
39
0
210
0
220
0
230
1
0
LINE
5
7D
100
AcDbEntity
8
1
62
256
6
ByLayer
370
-1
48
1
60
0
100
AcDbLine
10
13
20
-5.975
30
0
11
13
21
-4.617373
31
0
39
0
210
0
220
0
230
1
0
LINE
5
7E
100
AcDbEntity
8
1
62
256
6
ByLayer
370
-1
48
1
60
0
100
AcDbLine
10
77.080067
20
0.203786
30
0
11
77.089182
21
0.20539
31
0
39
0
210
0
220
0
230
1
0
LINE
5
7F
100
AcDbEntity
8
1
62
256
6
ByLayer
370
-1
48
1
60
0
100
AcDbLine
10
71.719664
20
1.028484
30
0
11
71.726664
21
1.050006
31
0
39
0
210
0
220
0
230
1
0
LINE
5
80
100
AcDbEntity
8
1
62
256
6
ByLayer
370
-1
48
1
60
0
100
AcDbLine
10
71.224505
20
2.76889
30
0
11
71.230066
21
2.76889
31
0
39
0
210
0
220
0
230
1
0
LINE
5
81
100
AcDbEntity
8
1
62
256
6
ByLayer
370
-1
48
1
60
0
100
AcDbLine
10
71.497355
20
2.953925
30
0
11
71.434203
21
2.817979
31
0
39
0
210
0
220
0
230
1
0
LINE
5
82
100
AcDbEntity
8
1
62
256
6
ByLayer
370
-1
48
1
60
0
100
AcDbLine
10
13
20
5.975
30
0
11
13
21
3.601465
31
0
39
0
210
0
220
0
230
1
0
LINE
5
83
100
AcDbEntity
8
1
62
256
6
ByLayer
370
-1
48
1
60
0
100
AcDbLine
10
73.191624
20
1.157444
30
0
11
76.459896
21
1.157444
31
0
39
0
210
0
220
0
230
1
0
LINE
5
84
100
AcDbEntity
8
1
62
256
6
ByLayer
370
-1
48
1
60
0
100
AcDbLine
10
76.587705
20
1.157444
30
0
11
76.459896
21
1.157444
31
0
39
0
210
0
220
0
230
1
0
LINE
5
85
100
AcDbEntity
8
1
62
256
6
ByLayer
370
-1
48
1
60
0
100
AcDbLine
10
69.663391
20
1.648153
30
0
11
69.662542
21
1.648153
31
0
39
0
210
0
220
0
230
1
0
LINE
5
86
100
AcDbEntity
8
1
62
256
6
ByLayer
370
-1
48
1
60
0
100
AcDbLine
10
0.2
20
12.5
30
0
11
0.2
21
-12.5
31
0
39
0
210
0
220
0
230
1
0
LINE
5
87
100
AcDbEntity
8
1
62
256
6
ByLayer
370
-1
48
1
60
0
100
AcDbLine
10
76.991666
20
-4.479742
30
0
11
77.2153
21
-4.517404
31
0
39
0
210
0
220
0
230
1
0
LINE
5
88
100
AcDbEntity
8
1
62
256
6
ByLayer
370
-1
48
1
60
0
100
AcDbLine
10
71.794594
20
1.552394
30
0
11
71.507639
21
3.034287
31
0
39
0
210
0
220
0
230
1
0
LINE
5
89
100
AcDbEntity
8
1
62
256
6
ByLayer
370
-1
48
1
60
0
100
AcDbLine
10
77.677647
20
5.90699
30
0
11
77.599106
21
5.891783
31
0
39
0
210
0
220
0
230
1
0
LINE
5
8A
100
AcDbEntity
8
1
62
256
6
ByLayer
370
-1
48
1
60
0
100
AcDbLine
10
73.623291
20
1.324755
30
0
11
72.330711
21
1.234024
31
0
39
0
210
0
220
0
230
1
0
LINE
5
8B
100
AcDbEntity
8
1
62
256
6
ByLayer
370
-1
48
1
60
0
100
AcDbLine
10
71.929083
20
1.321986
30
0
11
71.979507
21
1.383035
31
0
39
0
210
0
220
0
230
1
0
LINE
5
8C
100
AcDbEntity
8
1
62
256
6
ByLayer
370
-1
48
1
60
0
100
AcDbLine
10
77.543159
20
6.137398
30
0
11
77.491519
21
6.076348
31
0
39
0
210
0
220
0
230
1
0
LINE
5
8D
100
AcDbEntity
8
1
62
256
6
ByLayer
370
-1
48
1
60
0
100
AcDbLine
10
72.007588
20
5.806927
30
0
11
72.084913
21
5.791721
31
0
39
0
210
0
220
0
230
1
0
LINE
5
8E
100
AcDbEntity
8
1
62
256
6
ByLayer
370
-1
48
1
60
0
100
AcDbLine
10
77.072749
20
1.329692
30
0
11
77.072142
21
1.409388
31
0
39
0
210
0
220
0
230
1
0
LINE
5
8F
100
AcDbEntity
8
1
62
256
6
ByLayer
370
-1
48
1
60
0
100
AcDbLine
10
77.964426
20
4.233376
30
0
11
77.885884
21
4.248583
31
0
39
0
210
0
220
0
230
1
0
LINE
5
90
100
AcDbEntity
8
1
62
256
6
ByLayer
370
-1
48
1
60
0
100
AcDbLine
10
75.848951
20
6.134629
30
0
11
77.141531
21
6.22536
31
0
39
0
210
0
220
0
230
1
0
LINE
5
91
100
AcDbEntity
8
1
62
256
6
ByLayer
370
-1
48
1
60
0
100
AcDbLine
10
77.886237
20
4.408978
30
0
11
77.964778
21
4.424185
31
0
39
0
210
0
220
0
230
1
0
LINE
5
92
100
AcDbEntity
8
1
62
256
6
ByLayer
370
-1
48
1
60
0
100
AcDbLine
10
72.129718
20
1.233
30
0
11
72.13934
21
1.31203
31
0
39
0
210
0
220
0
230
1
0
LINE
5
93
100
AcDbEntity
8
1
62
256
6
ByLayer
370
-1
48
1
60
0
100
AcDbLine
10
72.00741
20
5.806016
30
0
11
71.507816
21
3.226008
31
0
39
0
210
0
220
0
230
1
0
LINE
5
94
100
AcDbEntity
8
1
62
256
6
ByLayer
370
-1
48
1
60
0
100
AcDbLine
10
73.623291
20
1.324755
30
0
11
73.617145
21
1.404257
31
0
39
0
210
0
220
0
230
1
0
LINE
5
95
100
AcDbEntity
8
1
62
256
6
ByLayer
370
-1
48
1
60
0
100
AcDbLine
10
77.141531
20
6.22536
30
0
11
77.146461
21
6.145858
31
0
39
0
210
0
220
0
230
1
0
LINE
5
96
100
AcDbEntity
8
1
62
256
6
ByLayer
370
-1
48
1
60
0
100
AcDbLine
10
77.342523
20
6.226384
30
0
11
77.331686
21
6.147354
31
0
39
0
210
0
220
0
230
1
0
LINE
5
97
100
AcDbEntity
8
1
62
256
6
ByLayer
370
-1
48
1
60
0
100
AcDbLine
10
71.584789
20
3.050406
30
0
11
71.507464
21
3.035199
31
0
39
0
210
0
220
0
230
1
0
LINE
5
98
100
AcDbEntity
8
1
62
256
6
ByLayer
370
-1
48
1
60
0
100
AcDbLine
10
72.170545
20
1.229873
30
0
11
72.171372
21
1.309555
31
0
39
0
210
0
220
0
230
1
0
LINE
5
99
100
AcDbEntity
8
1
62
256
6
ByLayer
370
-1
48
1
60
0
100
AcDbLine
10
77.464654
20
1.652457
30
0
11
77.386113
21
1.667663
31
0
39
0
210
0
220
0
230
1
0
LINE
5
9A
100
AcDbEntity
8
1
62
256
6
ByLayer
370
-1
48
1
60
0
100
AcDbLine
10
77.464831
20
1.653368
30
0
11
77.964426
21
4.233376
31
0
39
0
210
0
220
0
230
1
0
LINE
5
9B
100
AcDbEntity
8
1
62
256
6
ByLayer
370
-1
48
1
60
0
100
AcDbLine
10
77.299697
20
6.229548
30
0
11
77.297813
21
6.149863
31
0
39
0
210
0
220
0
230
1
0
LINE
5
9C
100
AcDbEntity
8
1
62
256
6
ByLayer
370
-1
48
1
60
0
100
AcDbLine
10
73.762271
20
1.329692
30
0
11
73.761663
21
1.409388
31
0
39
0
210
0
220
0
230
1
0
LINE
5
9D
100
AcDbEntity
8
1
62
256
6
ByLayer
370
-1
48
1
60
0
100
AcDbLine
10
77.301697
20
6.229511
30
0
11
77.299654
21
6.149829
31
0
39
0
210
0
220
0
230
1
0
LINE
5
9E
100
AcDbEntity
8
1
62
256
6
ByLayer
370
-1
48
1
60
0
100
AcDbLine
10
77.072749
20
1.329692
30
0
11
73.763196
21
1.329692
31
0
39
0
210
0
220
0
230
1
0
LINE
5
9F
100
AcDbEntity
8
1
62
256
6
ByLayer
370
-1
48
1
60
0
100
AcDbLine
10
72.399492
20
6.129692
30
0
11
72.398884
21
6.049996
31
0
39
0
210
0
220
0
230
1
0
LINE
5
A0
100
AcDbEntity
8
1
62
256
6
ByLayer
370
-1
48
1
60
0
100
AcDbLine
10
75.709971
20
6.129692
30
0
11
75.709363
21
6.049996
31
0
39
0
210
0
220
0
230
1
0
LINE
5
A1
100
AcDbEntity
8
1
62
256
6
ByLayer
370
-1
48
1
60
0
100
AcDbLine
10
72.330711
20
1.234024
30
0
11
72.324565
21
1.313525
31
0
39
0
210
0
220
0
230
1
0
LINE
5
A2
100
AcDbEntity
8
1
62
256
6
ByLayer
370
-1
48
1
60
0
100
AcDbLine
10
75.709046
20
6.129692
30
0
11
72.399492
21
6.129692
31
0
39
0
210
0
220
0
230
1
0
LINE
5
A3
100
AcDbEntity
8
1
62
256
6
ByLayer
370
-1
48
1
60
0
100
AcDbLine
10
77.677647
20
5.90699
30
0
11
77.964602
21
4.425096
31
0
39
0
210
0
220
0
230
1
0
LINE
5
A4
100
AcDbEntity
8
1
62
256
6
ByLayer
370
-1
48
1
60
0
100
AcDbLine
10
71.794594
20
1.552394
30
0
11
71.87192
21
1.567601
31
0
39
0
210
0
220
0
230
1
0
LINE
5
A5
100
AcDbEntity
8
1
62
256
6
ByLayer
370
-1
48
1
60
0
100
AcDbLine
10
71.507816
20
3.226008
30
0
11
71.585142
21
3.210801
31
0
39
0
210
0
220
0
230
1
0
LINE
5
A6
100
AcDbEntity
8
1
62
256
6
ByLayer
370
-1
48
1
60
0
100
AcDbLine
10
72.172545
20
1.229836
30
0
11
72.173213
21
1.309521
31
0
39
0
210
0
220
0
230
1
0
LINE
5
A7
100
AcDbEntity
8
1
62
256
6
ByLayer
370
-1
48
1
60
0
100
AcDbLine
10
75.848951
20
6.134629
30
0
11
75.853881
21
6.055127
31
0
39
0
210
0
220
0
230
1
0
LINE
5
A8
100
AcDbEntity
8
1
62
256
6
ByLayer
370
-1
48
1
60
0
100
AcDbLine
10
77.198648
20
0.147751
30
0
11
77.31942
21
0.235053
31
0
39
0
210
0
220
0
230
1
0
LINE
5
A9
100
AcDbEntity
8
1
62
256
6
ByLayer
370
-1
48
1
60
0
100
AcDbLine
10
77.639011
20
-0.000991
30
0
11
77.988989
21
-1.644437
31
0
39
0
210
0
220
0
230
1
0
LINE
5
AA
100
AcDbEntity
8
1
62
256
6
ByLayer
370
-1
48
1
60
0
100
AcDbLine
10
77.654484
20
-1.785437
30
0
11
77.382527
21
-3.324906
31
0
39
0
210
0
220
0
230
1
0
LINE
5
AB
100
AcDbEntity
8
1
62
256
6
ByLayer
370
-1
48
1
60
0
100
AcDbLine
10
77.510992
20
-3.843569
30
0
11
77.61157
21
-3.990168
31
0
39
0
210
0
220
0
230
1
0
LINE
5
AC
100
AcDbEntity
8
1
62
256
6
ByLayer
370
-1
48
1
60
0
100
AcDbLine
10
77.518239
20
-0.088292
30
0
11
77.639011
21
-0.000991
31
0
39
0
210
0
220
0
230
1
0
LINE
5
AD
100
AcDbEntity
8
1
62
256
6
ByLayer
370
-1
48
1
60
0
100
AcDbLine
10
77.401332
20
-4.22528
30
0
11
76.963504
21
-4.354729
31
0
39
0
210
0
220
0
230
1
0
LINE
5
AE
100
AcDbEntity
8
1
62
256
6
ByLayer
370
-1
48
1
60
0
100
AcDbLine
10
77.773457
20
-1.731839
30
0
11
77.992319
21
-1.834861
31
0
39
0
210
0
220
0
230
1
0
LINE
5
AF
100
AcDbEntity
8
1
62
256
6
ByLayer
370
-1
48
1
60
0
100
AcDbLine
10
77.770127
20
-1.541415
30
0
11
77.517747
21
-0.356276
31
0
39
0
210
0
220
0
230
1
0
LINE
5
B0
100
AcDbEntity
8
1
62
256
6
ByLayer
370
-1
48
1
60
0
100
AcDbLine
10
77.300754
20
-4.078681
30
0
11
77.401332
21
-4.22528
31
0
39
0
210
0
220
0
230
1
0
LINE
5
B1
100
AcDbEntity
8
1
62
256
6
ByLayer
370
-1
48
1
60
0
100
AcDbLine
10
77.496323
20
-3.300611
30
0
11
77.773457
21
-1.731839
31
0
39
0
210
0
220
0
230
1
0
LINE
5
B2
100
AcDbEntity
8
1
62
256
6
ByLayer
370
-1
48
1
60
0
100
AcDbLine
10
77.476048
20
-0.679218
30
0
11
77.649372
21
-1.493124
31
0
39
0
210
0
220
0
230
1
0
LINE
5
B3
100
AcDbEntity
8
1
62
256
6
ByLayer
370
-1
48
1
60
0
100
AcDbLine
10
77.770127
20
-1.541415
30
0
11
77.988989
21
-1.644437
31
0
39
0
210
0
220
0
230
1
0
LINE
5
B4
100
AcDbEntity
8
1
62
256
6
ByLayer
370
-1
48
1
60
0
100
AcDbLine
10
77.992319
20
-1.834861
30
0
11
77.61157
21
-3.990168
31
0
39
0
210
0
220
0
230
1
0
LINE
5
B5
100
AcDbEntity
8
1
62
256
6
ByLayer
370
-1
48
1
60
0
100
AcDbLine
10
77.31942
20
0.235053
30
0
11
77.115911
21
0.217282
31
0
39
0
210
0
220
0
230
1
0
LINE
5
B6
100
AcDbEntity
8
SK1
62
256
6
ByLayer
370
-1
48
1
60
0
100
AcDbLine
10
-48.6
20
-5.922852
30
0
11
-49
21
-5.922852
31
0
39
0
210
0
220
0
230
1
0
LINE
5
B7
100
AcDbEntity
8
SK1
62
256
6
ByLayer
370
-1
48
1
60
0
100
AcDbLine
10
-0.15
20
9.75
30
0
11
-0.15
21
-9.75
31
0
39
0
210
0
220
0
230
1
0
LINE
5
B8
100
AcDbEntity
8
SK1
62
256
6
ByLayer
370
-1
48
1
60
0
100
AcDbLine
10
-48.516223
20
-5.746514
30
0
11
-48.516223
21
-9.893294
31
0
39
0
210
0
220
0
230
1
0
LINE
5
B9
100
AcDbEntity
8
SK1
62
256
6
ByLayer
370
-1
48
1
60
0
100
AcDbLine
10
-48.516223
20
9.893294
30
0
11
-48.516223
21
5.746514
31
0
39
0
210
0
220
0
230
1
0
LINE
5
BA
100
AcDbEntity
8
SK1
62
256
6
ByLayer
370
-1
48
1
60
0
100
AcDbLine
10
-46.6
20
5.922852
30
0
11
-46.6
21
9.99675
31
0
39
0
210
0
220
0
230
1
0
LINE
5
BB
100
AcDbEntity
8
SK1
62
256
6
ByLayer
370
-1
48
1
60
0
100
AcDbLine
10
-46.6
20
-9.99675
30
0
11
-46.6
21
-5.922852
31
0
39
0
210
0
220
0
230
1
0
LINE
5
BC
100
AcDbEntity
8
SK1
62
256
6
ByLayer
370
-1
48
1
60
0
100
AcDbLine
10
-49
20
-5.922852
30
0
11
-49
21
-9.99675
31
0
39
0
210
0
220
0
230
1
0
LINE
5
BD
100
AcDbEntity
8
SK1
62
256
6
ByLayer
370
-1
48
1
60
0
100
AcDbLine
10
-49
20
9.99675
30
0
11
-49
21
5.922852
31
0
39
0
210
0
220
0
230
1
0
LINE
5
BE
100
AcDbEntity
8
SK1
62
256
6
ByLayer
370
-1
48
1
60
0
100
AcDbLine
10
-49
20
5.922852
30
0
11
-48.6
21
5.922852
31
0
39
0
210
0
220
0
230
1
0
LINE
5
BF
100
AcDbEntity
8
SK1
62
256
6
ByLayer
370
-1
48
1
60
0
100
AcDbLine
10
-1.382165
20
9.75
30
0
11
-1.382165
21
-9.75
31
0
39
0
210
0
220
0
230
1
0
LINE
5
C0
100
AcDbEntity
8
SK1
62
256
6
ByLayer
370
-1
48
1
60
0
100
AcDbLine
10
-6.5
20
-5.922852
30
0
11
-46.6
21
-5.922852
31
0
39
0
210
0
220
0
230
1
0
LINE
5
C1
100
AcDbEntity
8
SK1
62
256
6
ByLayer
370
-1
48
1
60
0
100
AcDbLine
10
-48.6
20
-9.99675
30
0
11
-48.6
21
-5.922852
31
0
39
0
210
0
220
0
230
1
0
LINE
5
C2
100
AcDbEntity
8
SK1
62
256
6
ByLayer
370
-1
48
1
60
0
100
AcDbLine
10
-48.6
20
5.922852
30
0
11
-48.6
21
9.99675
31
0
39
0
210
0
220
0
230
1
0
LINE
5
C3
100
AcDbEntity
8
SK1
62
256
6
ByLayer
370
-1
48
1
60
0
100
AcDbLine
10
-50
20
-4.01082
30
0
11
-50
21
-8.99675
31
0
39
0
210
0
220
0
230
1
0
LINE
5
C4
100
AcDbEntity
8
SK1
62
256
6
ByLayer
370
-1
48
1
60
0
100
AcDbLine
10
-50
20
8.99675
30
0
11
-50
21
4.01082
31
0
39
0
210
0
220
0
230
1
0
LINE
5
C5
100
AcDbEntity
8
SK1
62
256
6
ByLayer
370
-1
48
1
60
0
100
AcDbLine
10
-47.633814
20
-5.299321
30
0
11
-47.633814
21
-9.640417
31
0
39
0
210
0
220
0
230
1
0
LINE
5
C6
100
AcDbEntity
8
SK1
62
256
6
ByLayer
370
-1
48
1
60
0
100
AcDbLine
10
-47.633814
20
9.640417
30
0
11
-47.633814
21
5.299321
31
0
39
0
210
0
220
0
230
1
0
LINE
5
C7
100
AcDbEntity
8
SK1
62
256
6
ByLayer
370
-1
48
1
60
0
100
AcDbLine
10
-6.5
20
5.922852
30
0
11
-6.5
21
-5.922852
31
0
39
0
210
0
220
0
230
1
0
LINE
5
C8
100
AcDbEntity
8
SK1
62
256
6
ByLayer
370
-1
48
1
60
0
100
AcDbLine
10
-1.551212
20
9.787477
30
0
11
-1.551212
21
-9.787477
31
0
39
0
210
0
220
0
230
1
0
LINE
5
C9
100
AcDbEntity
8
SK1
62
256
6
ByLayer
370
-1
48
1
60
0
100
AcDbLine
10
-2
20
-9.99675
30
0
11
-2
21
9.99675
31
0
39
0
210
0
220
0
230
1
0
LINE
5
CA
100
AcDbEntity
8
SK1
62
256
6
ByLayer
370
-1
48
1
60
0
100
AcDbLine
10
-46.6
20
5.922852
30
0
11
-6.5
21
5.922852
31
0
39
0
210
0
220
0
230
1
0
LINE
5
CB
100
AcDbEntity
8
SK1
62
256
6
ByLayer
370
-1
48
1
60
0
100
AcDbLine
10
-50
20
4.01082
30
0
11
-50
21
-4.01082
31
0
39
0
210
0
220
0
230
1
0
MTEXT
5
1C8
100
AcDbEntity
8
SK6
62
256
6
ByLayer
370
-1
48
1
60
0
100
AcDbMText
10
0.79375
20
-80.79375
30
0
210
0
220
0
230
1
1
\W00.723;\fsimplex.shx,bigfont.shx;880-D1250L20-05 
40
3.175
41
0
44
1.084337
50
0
71
7
72
5
7
DEFAULT
0
DIMENSION
5
1F8
100
AcDbEntity
8
SK2
62
256
6
ByLayer
370
-3
48
1
60
0
100
AcDbDimension
2
DimnDraft3D1
10
78
20
-51.459575
30
0
11
14
21
-51.459575
31
0
70
32
71
5
72
1
41
1
210
0
220
0
230
1
3
Standard
100
AcDbAlignedDimension
13
-50
23
-11.5875
33
0
14
78
24
-7.8375
34
0
50
0
100
AcDbRotatedDimension
1001
ACAD
1000
DSTYLE
1002
{
1070
   279
1070
     0
1070
   172
1070
     1
1070
   173
1070
     1
1070
   340
1005
1C9
1070
   271
1070
     1
1070
   272
1070
     2
1070
    77
1070
     1
1070
    73
1070
     0
1070
   171
1070
     3
1070
   274
1070
     4
1070
   177
1070
   150
1070
   176
1070
     9
1070
   178
1070
    43
1070
    78
1070
     8
1070
    48
1040
-0.005
1070
    41
1041
4.175
1070
   147
1041
2.25
1070
    42
1041
1.5875
1070
    44
1041
3.175
1070
   140
1041
4.5
1070
   343
1005
0
1070
   344
1005
0
1002
}
0
DIMENSION
5
202
100
AcDbEntity
8
SK2
62
256
6
ByLayer
370
-3
48
1
60
0
100
AcDbDimension
2
DimnDraft3D2
10
0
20
-39.490825
30
0
11
-25
21
-39.490825
31
0
70
32
71
5
72
1
41
1
210
0
220
0
230
1
3
Standard
100
AcDbAlignedDimension
13
-50
23
-11.5875
33
0
14
0
24
-14.0875
34
0
50
0
100
AcDbRotatedDimension
1001
ACAD
1000
DSTYLE
1002
{
1070
   279
1070
     0
1070
   172
1070
     1
1070
   173
1070
     1
1070
   340
1005
1C9
1070
   271
1070
     1
1070
   272
1070
     2
1070
    77
1070
     1
1070
    73
1070
     0
1070
   171
1070
     3
1070
   274
1070
     4
1070
   177
1070
   150
1070
   176
1070
     9
1070
   178
1070
    43
1070
    78
1070
     8
1070
    48
1040
-0.005
1070
    41
1041
4.175
1070
   147
1041
2.25
1070
    42
1041
1.5875
1070
    44
1041
3.175
1070
   140
1041
4.5
1070
   343
1005
0
1070
   344
1005
0
1002
}
0
DIMENSION
5
20D
100
AcDbEntity
8
2
62
256
6
ByLayer
370
-3
48
1
60
0
100
AcDbDimension
2
DimnDraft3D3
10
78
20
-39.490825
30
0
11
39
21
-39.490825
31
0
70
32
71
5
72
1
41
1
210
0
220
0
230
1
3
Standard
100
AcDbAlignedDimension
13
0
23
-14.0875
33
0
14
78
24
-7.8375
34
0
50
0
100
AcDbRotatedDimension
1001
ACAD
1000
DSTYLE
1002
{
1070
   279
1070
     0
1070
   172
1070
     1
1070
   173
1070
     1
1070
   340
1005
1C9
1070
   271
1070
     1
1070
   272
1070
     2
1070
    77
1070
     1
1070
    73
1070
     0
1070
   171
1070
     3
1070
   274
1070
     4
1070
   177
1070
   150
1070
   176
1070
     9
1070
   178
1070
    43
1070
    78
1070
     8
1070
    48
1040
-0.005
1070
    41
1041
4.175
1070
   147
1041
2.25
1070
    42
1041
1.5875
1070
    44
1041
3.175
1070
   140
1041
4.5
1070
   343
1005
0
1070
   344
1005
0
1002
}
0
DIMENSION
5
217
100
AcDbEntity
8
SK2
62
256
6
ByLayer
370
-3
48
1
60
0
100
AcDbDimension
2
DimnDraft3D4
10
78
20
-29.490825
30
0
11
45.5
21
-29.490825
31
0
70
32
71
5
72
1
41
1
210
0
220
0
230
1
3
Standard
100
AcDbAlignedDimension
13
13
23
-11.5875
33
0
14
78
24
-7.8375
34
0
50
0
100
AcDbRotatedDimension
1001
ACAD
1000
DSTYLE
1002
{
1070
   279
1070
     0
1070
   172
1070
     1
1070
   173
1070
     1
1070
   340
1005
1C9
1070
   271
1070
     1
1070
   272
1070
     2
1070
    77
1070
     1
1070
    73
1070
     0
1070
   171
1070
     3
1070
   274
1070
     4
1070
   177
1070
   150
1070
   176
1070
     9
1070
   178
1070
    43
1070
    78
1070
     8
1070
    48
1040
-0.005
1070
    41
1041
4.175
1070
   147
1041
2.25
1070
    42
1041
1.5875
1070
    44
1041
3.175
1070
   140
1041
4.5
1070
   343
1005
0
1070
   344
1005
0
1002
}
0
DIMENSION
5
222
100
AcDbEntity
8
SK2
62
256
6
ByLayer
370
-3
48
1
60
0
100
AcDbDimension
2
DimnDraft3D5
10
-61.9
20
-10
30
0
11
-62.1
21
-27.370395
31
0
70
33
71
5
72
1
41
1
210
0
220
0
230
1
3
Standard
100
AcDbAlignedDimension
13
-51.5875
23
10
33
0
14
-51.5875
24
-10
34
0
1001
ACAD
1000
DSTYLE
1002
{
1070
   279
1070
     0
1070
    74
1070
     0
1070
   173
1070
     1
1070
   340
1005
1C9
1070
   271
1070
     2
1070
   272
1070
     2
1070
    77
1070
     1
1070
    73
1070
     0
1070
   171
1070
     3
1070
   274
1070
     4
1070
   177
1070
   150
1070
   176
1070
     9
1070
   178
1070
    43
1070
    78
1070
     8
1070
    48
1040
-0.005
1070
    41
1041
4.175
1070
   147
1041
2.25
1070
    42
1041
1.5875
1070
    44
1041
3.175
1070
   140
1041
4.5
1070
   343
1005
0
1070
   344
1005
0
1002
}
0
DIMENSION
5
22D
100
AcDbEntity
8
SK2
62
256
6
ByLayer
370
-3
48
1
60
0
100
AcDbDimension
2
DimnDraft3D6
10
-71.9
20
12.5
30
0
11
-72.1
21
4.121053
31
0
70
33
71
5
72
1
41
1
210
0
220
0
230
1
3
Standard
100
AcDbAlignedDimension
13
-1.5875
23
-12.5
33
0
14
-1.5875
24
12.5
34
0
1001
ACAD
1000
DSTYLE
1002
{
1070
   279
1070
     0
1070
    74
1070
     0
1070
   173
1070
     1
1070
   340
1005
1C9
1070
   271
1070
     1
1070
   272
1070
     2
1070
    77
1070
     1
1070
    73
1070
     0
1070
   171
1070
     3
1070
   274
1070
     4
1070
   177
1070
   150
1070
   176
1070
     9
1070
   178
1070
    43
1070
    78
1070
     8
1070
    48
1040
-0.005
1070
    41
1041
4.175
1070
   147
1041
2.25
1070
    42
1041
1.5875
1070
    44
1041
3.175
1070
   140
1041
4.5
1070
   343
1005
0
1070
   344
1005
0
1002
}
0
DIMENSION
5
238
100
AcDbEntity
8
2
62
256
6
ByLayer
370
-3
48
1
60
0
100
AcDbDimension
2
DimnDraft3D7
10
108.15
20
-6.25
30
0
11
101.6
21
-27.563816
31
0
70
33
71
5
72
1
41
1
210
0
220
0
230
1
3
Standard
100
AcDbAlignedDimension
13
79.5875
23
6.25
33
0
14
79.5875
24
-6.25
34
0
1001
ACAD
1000
DSTYLE
1002
{
1070
   279
1070
     0
1070
    74
1070
     0
1070
   173
1070
     1
1070
   340
1005
1C9
1070
   271
1070
     2
1070
   272
1070
     2
1070
    77
1070
     1
1070
    73
1070
     0
1070
   171
1070
     3
1070
   274
1070
     4
1070
   177
1070
   150
1070
   176
1070
     9
1070
   178
1070
    43
1070
    78
1070
     8
1070
    48
1040
-0.005
1070
    41
1041
4.175
1070
   147
1041
2.25
1070
    42
1041
1.5875
1070
    44
1041
3.175
1070
   140
1041
4.5
1070
   343
1005
0
1070
   344
1005
0
1002
}
0
ENDSEC
0
SECTION
2
OBJECTS
0
DICTIONARY
5
269
330
0
100
AcDbDictionary
280
0
281
1
3
ACAD_GROUP
350
26a
3
ACAD_MLINESTYLE
350
26b
0
DICTIONARY
5
26a
330
0
100
AcDbDictionary
280
0
281
1
0
DICTIONARY
5
26b
330
0
100
AcDbDictionary
280
0
281
1
3
Standard
350
18
0
MLINESTYLE
5
18
330
26b
100
AcDbMlineStyle
2
Standard
70
0
3

62
256
51
90
52
90
71
2
49
-0.5
62
256
6
ByLayer
49
0.5
62
256
6
ByLayer
0
RASTERVARIABLES
5
257
330

100
AcDbRasterVariables
90
0
70
1
71
1
72
1
0
ENDSEC
0
EOF
