0
SECTION
2
HEADER
9
$ACADVER
1
AC1015
9
$DWGCODEPAGE
3
ANSI_1252
9
$HANDSEED
5
29d
9
$ANGBASE
50
0
9
$ANGDIR
70
0
9
$ATTMODE
70
1
9
$AUNITS
70
0
9
$AUPREC
70
0
9
$CECOLOR
62
256
9
$CELTSCALE
40
1
9
$CELTYPE
6
ByLayer
9
$CELWEIGHT
370
-1
9
$CLAYER
8
0
9
$CMLJUST
70
0
9
$CMLSCALE
40
1
9
$CMLSTYLE
2
Standard
9
$DIMSTYLE
2
Standard
9
$TEXTSIZE
40
0.2
9
$TEXTSTYLE
7
Standard
9
$LUNITS
70
2
9
$LUPREC
70
4
9
$EXTNAMES
290
1
9
$INSUNITS
70
4
9
$LTSCALE
40
1
9
$LWDISPLAY
290
0
9
$PDMODE
70
0
9
$PDSIZE
40
0
9
$PLINEGEN
70
0
0
ENDSEC
0
SECTION
2
CLASSES
0
CLASS
1
RASTERVARIABLES
2
AcDbRasterVariables
3
ISM
90
0
280
0
281
0
0
ENDSEC
0
SECTION
2
TABLES
0
TABLE
2
VPORT
5
293
100
AcDbSymbolTable
0
VPORT
5
1
100
AcDbSymbolTableRecord
100
AcDbViewportTableRecord
2
*Active
70
0
10
0
20
0
11
1
21
1
12
-1
22
1
13
0
23
0
14
0.5
24
0.5
15
10
25
10
16
0
26
0
36
1
17
0
27
0
37
0
0
ENDTAB
0
TABLE
2
LTYPE
5
294
100
AcDbSymbolTable
0
LTYPE
5
14
100
AcDbSymbolTableRecord
100
AcDbLinetypeTableRecord
70
0
2
ByBlock
3

72
65
73
0
40
0
0
LTYPE
5
15
100
AcDbSymbolTableRecord
100
AcDbLinetypeTableRecord
70
0
2
ByLayer
3

72
65
73
0
40
0
0
LTYPE
5
16
100
AcDbSymbolTableRecord
100
AcDbLinetypeTableRecord
70
0
2
CONTINUOUS
3
Solid line
72
65
73
0
40
0
0
LTYPE
5
3B
100
AcDbSymbolTableRecord
100
AcDbLinetypeTableRecord
70
0
2
DASHED
3
__ __ __ __ __ __ __ __ __
72
65
73
2
40
25.72
49
12.86
74
0
49
-12.86
74
0
0
LTYPE
5
3C
100
AcDbSymbolTableRecord
100
AcDbLinetypeTableRecord
70
0
2
HIDDEN
3
_ _ _ _ _ _ _ _ _ _ _ _ _ _ _
72
65
73
2
40
0.5
49
0.25
74
0
49
-0.25
74
0
0
LTYPE
5
3D
100
AcDbSymbolTableRecord
100
AcDbLinetypeTableRecord
70
0
2
PHANTOM
3
____ _ _ ____ _ _ _____ _ _ ____
72
65
73
6
40
50.5
49
18
74
0
49
-6.5
74
0
49
6.5
74
0
49
-6.5
74
0
49
6.5
74
0
49
-6.5
74
0
0
LTYPE
5
3E
100
AcDbSymbolTableRecord
100
AcDbLinetypeTableRecord
70
0
2
CENTER
3
____ _ ____ _ ____ _ ____
72
65
73
4
40
47.5
49
22
74
0
49
-8.5
74
0
49
8.5
74
0
49
-8.5
74
0
0
LTYPE
5
3F
100
AcDbSymbolTableRecord
100
AcDbLinetypeTableRecord
70
0
2
DOT
3
.........................
72
65
73
2
40
10
49
0
74
0
49
-10
74
0
0
LTYPE
5
40
100
AcDbSymbolTableRecord
100
AcDbLinetypeTableRecord
70
0
2
DASHDOT
3
_._._._._._._._._._._._._._._._.
72
65
73
4
40
70
49
31
74
0
49
-13
74
0
49
13
74
0
49
-13
74
0
0
ENDTAB
0
TABLE
2
LAYER
5
295
100
AcDbSymbolTable
0
LAYER
5
10
100
AcDbSymbolTableRecord
100
AcDbLayerTableRecord
2
0
70
0
62
7
6
CONTINUOUS
290
1
370
-3
390
0
0
LAYER
5
42
100
AcDbSymbolTableRecord
100
AcDbLayerTableRecord
2
81
70
0
62
-3
6
CONTINUOUS
290
1
370
-3
390
0
0
LAYER
5
44
100
AcDbSymbolTableRecord
100
AcDbLayerTableRecord
2
80
70
0
62
-6
6
CONTINUOUS
290
1
370
-3
390
0
0
LAYER
5
48
100
AcDbSymbolTableRecord
100
AcDbLayerTableRecord
2
1
70
0
62
4
6
CONTINUOUS
290
1
370
-3
390
0
0
LAYER
5
60
100
AcDbSymbolTableRecord
100
AcDbLayerTableRecord
2
4
70
0
62
-2
6
CENTER
290
1
370
-3
390
0
0
LAYER
5
237
100
AcDbSymbolTableRecord
100
AcDbLayerTableRecord
2
2
70
0
62
7
6
CONTINUOUS
290
1
370
-3
390
0
0
LAYER
5
27f
100
AcDbSymbolTableRecord
100
AcDbLayerTableRecord
2
SK4
70
0
62
2
6
CENTER
290
1
370
-3
390
0
0
LAYER
5
280
100
AcDbSymbolTableRecord
100
AcDbLayerTableRecord
2
SK1
70
0
62
4
6
CONTINUOUS
290
1
370
-3
390
0
0
LAYER
5
281
100
AcDbSymbolTableRecord
100
AcDbLayerTableRecord
2
SK6
70
0
62
5
6
CONTINUOUS
290
1
370
-3
390
0
0
LAYER
5
282
100
AcDbSymbolTableRecord
100
AcDbLayerTableRecord
2
SK2
70
0
62
7
6
CONTINUOUS
290
1
370
-3
390
0
0
ENDTAB
0
TABLE
2
STYLE
5
296
100
AcDbSymbolTable
0
STYLE
5
11
100
AcDbSymbolTableRecord
100
AcDbTextStyleTableRecord
2
Standard
3
txt
70
0
71
0
40
0
41
1
42
0
50
0
0
STYLE
5
1FB
100
AcDbSymbolTableRecord
100
AcDbTextStyleTableRecord
2
DEFAULT
3
simplex.shx
70
0
71
0
40
0
41
1
42
0
50
0
0
STYLE
5
21E
100
AcDbSymbolTableRecord
100
AcDbTextStyleTableRecord
2
DWGDirectTextStyle
3
SIMPLEX
70
0
71
0
40
0
41
1
42
0
50
0
0
ENDTAB
0
TABLE
2
DIMSTYLE
5
297
100
AcDbSymbolTable
100
AcDbDimStyleTable
0
DIMSTYLE
105
27
100
AcDbSymbolTableRecord
100
AcDbDimStyleTableRecord
2
Standard
70
0
3
<>
41
0.18
42
0.0625
44
0.18
140
0.18
147
0.09
73
0
74
0
77
1
271
2
275
0
278
52
280
0
340
11
0
ENDTAB
0
TABLE
2
VIEW
5
298
100
AcDbSymbolTable
0
ENDTAB
0
TABLE
2
UCS
5
299
100
AcDbSymbolTable
0
ENDTAB
0
TABLE
2
APPID
5
29a
100
AcDbSymbolTable
0
APPID
5
12
100
AcDbSymbolTableRecord
100
AcDbRegAppTableRecord
2
ACAD
70
0
0
ENDTAB
0
TABLE
2
BLOCK_RECORD
5
29b
100
AcDbSymbolTable
0
BLOCK_RECORD
5
1F
100
AcDbSymbolTableRecord
100
AcDbBlockTableRecord
2
*Model_Space
340
0
70
0
0
BLOCK_RECORD
5
1B
100
AcDbSymbolTableRecord
100
AcDbBlockTableRecord
2
*Paper_Space
340
0
70
0
0
BLOCK_RECORD
5
23
100
AcDbSymbolTableRecord
100
AcDbBlockTableRecord
2
*Paper_Space0
340
0
70
0
0
BLOCK_RECORD
5
220
100
AcDbSymbolTableRecord
100
AcDbBlockTableRecord
2
DimnDraft3D1
340
0
70
0
0
BLOCK_RECORD
5
22B
100
AcDbSymbolTableRecord
100
AcDbBlockTableRecord
2
DimnDraft3D2
340
0
70
0
0
BLOCK_RECORD
5
235
100
AcDbSymbolTableRecord
100
AcDbBlockTableRecord
2
DimnDraft3D3
340
0
70
0
0
BLOCK_RECORD
5
240
100
AcDbSymbolTableRecord
100
AcDbBlockTableRecord
2
DimnDraft3D4
340
0
70
0
0
BLOCK_RECORD
5
24A
100
AcDbSymbolTableRecord
100
AcDbBlockTableRecord
2
DimnDraft3D5
340
0
70
0
0
BLOCK_RECORD
5
255
100
AcDbSymbolTableRecord
100
AcDbBlockTableRecord
2
DimnDraft3D6
340
0
70
0
0
ENDTAB
0
ENDSEC
0
SECTION
2
BLOCKS
0
BLOCK
5
20
100
AcDbEntity
8
0
100
AcDbBlockBegin
2
*Model_Space
70
0
10
0
20
0
30
0
3
*Model_Space
0
ENDBLK
5
21
100
AcDbEntity
8
0
100
AcDbBlockEnd
0
BLOCK
5
1C
100
AcDbEntity
8
0
100
AcDbBlockBegin
2
*Paper_Space
70
0
10
0
20
0
30
0
3
*Paper_Space
0
ENDBLK
5
1D
100
AcDbEntity
8
0
100
AcDbBlockEnd
0
BLOCK
5
24
100
AcDbEntity
8
0
100
AcDbBlockBegin
2
*Paper_Space0
70
0
10
0
20
0
30
0
3
*Paper_Space0
0
ENDBLK
5
25
100
AcDbEntity
8
0
100
AcDbBlockEnd
0
BLOCK
5
228
100
AcDbEntity
8
0
100
AcDbBlockBegin
2
DimnDraft3D1
70
0
10
0
20
0
30
0
3
DimnDraft3D1
0
MTEXT
5
221
100
AcDbEntity
8
SK2
62
256
6
ByLayer
370
-1
48
1
60
0
100
AcDbMText
10
22.406579
20
-55.725
30
0
210
0
220
0
230
1
1
\W01.000;\fsimplex.shx,bigfont.shx;(107) 
40
4.5
41
0
44
1.084337
50
0
71
7
72
5
7
DEFAULT
0
LINE
5
223
100
AcDbEntity
8
SK2
62
256
6
ByLayer
370
-1
48
1
60
0
100
AcDbLine
10
-24
20
-3.5875
30
0
11
-24
21
-61.99375
31
0
39
0
210
0
220
0
230
1
0
LINE
5
224
100
AcDbEntity
8
SK2
62
256
6
ByLayer
370
-1
48
1
60
0
100
AcDbLine
10
83
20
-7.5875
30
0
11
83
21
-61.99375
31
0
39
0
210
0
220
0
230
1
0
LINE
5
225
100
AcDbEntity
8
SK2
62
256
6
ByLayer
370
-1
48
1
60
0
100
AcDbLine
10
-24
20
-58.81875
30
0
11
83
21
-58.81875
31
0
39
0
210
0
220
0
230
1
0
SOLID
5
226
100
AcDbEntity
8
SK2
62
256
6
ByLayer
370
-1
48
1
60
0
100
AcDbTrace
10
-24
20
-58.81875
30
0
11
-19.825003
21
-57.893175
31
0
12
-19.824997
22
-59.744325
32
0
13
-24
23
-58.81875
33
0
39
0
210
0
220
0
230
1
0
SOLID
5
227
100
AcDbEntity
8
SK2
62
256
6
ByLayer
370
-1
48
1
60
0
100
AcDbTrace
10
83
20
-58.81875
30
0
11
78.825003
21
-59.744325
31
0
12
78.824997
22
-57.893175
32
0
13
83
23
-58.81875
33
0
39
0
210
0
220
0
230
1
0
ENDBLK
5
229
100
AcDbEntity
8
0
100
AcDbBlockEnd
0
BLOCK
5
232
100
AcDbEntity
8
0
100
AcDbBlockBegin
2
DimnDraft3D2
70
0
10
0
20
0
30
0
3
DimnDraft3D2
0
MTEXT
5
22C
100
AcDbEntity
8
SK2
62
256
6
ByLayer
370
-1
48
1
60
0
100
AcDbMText
10
-13.740789
20
-45.725
30
0
210
0
220
0
230
1
1
\W01.000;\fsimplex.shx,bigfont.shx;24 
40
4.5
41
0
44
1.084337
50
0
71
7
72
5
7
DEFAULT
0
LINE
5
22D
100
AcDbEntity
8
SK2
62
256
6
ByLayer
370
-1
48
1
60
0
100
AcDbLine
10
-24
20
-3.5875
30
0
11
-24
21
-50.025
31
0
39
0
210
0
220
0
230
1
0
LINE
5
22E
100
AcDbEntity
8
SK2
62
256
6
ByLayer
370
-1
48
1
60
0
100
AcDbLine
10
0
20
-21.5875
30
0
11
0
21
-50.025
31
0
39
0
210
0
220
0
230
1
0
LINE
5
22F
100
AcDbEntity
8
SK2
62
256
6
ByLayer
370
-1
48
1
60
0
100
AcDbLine
10
-24
20
-46.85
30
0
11
0
21
-46.85
31
0
39
0
210
0
220
0
230
1
0
SOLID
5
230
100
AcDbEntity
8
SK2
62
256
6
ByLayer
370
-1
48
1
60
0
100
AcDbTrace
10
-24
20
-46.85
30
0
11
-19.825003
21
-45.924425
31
0
12
-19.824997
22
-47.775575
32
0
13
-24
23
-46.85
33
0
39
0
210
0
220
0
230
1
0
SOLID
5
231
100
AcDbEntity
8
SK2
62
256
6
ByLayer
370
-1
48
1
60
0
100
AcDbTrace
10
0
20
-46.85
30
0
11
-4.174997
21
-47.775575
31
0
12
-4.175003
22
-45.924425
32
0
13
0
23
-46.85
33
0
39
0
210
0
220
0
230
1
0
ENDBLK
5
233
100
AcDbEntity
8
0
100
AcDbBlockEnd
0
BLOCK
5
23D
100
AcDbEntity
8
0
100
AcDbBlockBegin
2
DimnDraft3D3
70
0
10
0
20
0
30
0
3
DimnDraft3D3
0
MTEXT
5
236
100
AcDbEntity
8
2
62
256
6
ByLayer
370
-1
48
1
60
0
100
AcDbMText
10
39.996053
20
-45.725
30
0
210
0
220
0
230
1
1
\W01.000;\fsimplex.shx,bigfont.shx;83 
40
4.5
41
0
44
1.084337
50
0
71
7
72
5
7
DEFAULT
0
LINE
5
238
100
AcDbEntity
8
2
62
256
6
ByLayer
370
-1
48
1
60
0
100
AcDbLine
10
0
20
-21.5875
30
0
11
0
21
-50.025
31
0
39
0
210
0
220
0
230
1
0
LINE
5
239
100
AcDbEntity
8
2
62
256
6
ByLayer
370
-1
48
1
60
0
100
AcDbLine
10
83
20
-7.5875
30
0
11
83
21
-50.025
31
0
39
0
210
0
220
0
230
1
0
LINE
5
23A
100
AcDbEntity
8
2
62
256
6
ByLayer
370
-1
48
1
60
0
100
AcDbLine
10
0
20
-46.85
30
0
11
83
21
-46.85
31
0
39
0
210
0
220
0
230
1
0
SOLID
5
23B
100
AcDbEntity
8
2
62
256
6
ByLayer
370
-1
48
1
60
0
100
AcDbTrace
10
0
20
-46.85
30
0
11
4.174997
21
-45.924425
31
0
12
4.175003
22
-47.775575
32
0
13
0
23
-46.85
33
0
39
0
210
0
220
0
230
1
0
SOLID
5
23C
100
AcDbEntity
8
2
62
256
6
ByLayer
370
-1
48
1
60
0
100
AcDbTrace
10
83
20
-46.85
30
0
11
78.825003
21
-47.775575
31
0
12
78.824997
22
-45.924425
32
0
13
83
23
-46.85
33
0
39
0
210
0
220
0
230
1
0
ENDBLK
5
23E
100
AcDbEntity
8
0
100
AcDbBlockEnd
0
BLOCK
5
247
100
AcDbEntity
8
0
100
AcDbBlockBegin
2
DimnDraft3D4
70
0
10
0
20
0
30
0
3
DimnDraft3D4
0
MTEXT
5
241
100
AcDbEntity
8
SK2
62
256
6
ByLayer
370
-1
48
1
60
0
100
AcDbMText
10
56.558553
20
-35.725
30
0
210
0
220
0
230
1
1
\W01.000;\fsimplex.shx,bigfont.shx;51 
40
4.5
41
0
44
1.084337
50
0
71
7
72
5
7
DEFAULT
0
LINE
5
242
100
AcDbEntity
8
SK2
62
256
6
ByLayer
370
-1
48
1
60
0
100
AcDbLine
10
32
20
-11.5875
30
0
11
32
21
-40.025
31
0
39
0
210
0
220
0
230
1
0
LINE
5
243
100
AcDbEntity
8
SK2
62
256
6
ByLayer
370
-1
48
1
60
0
100
AcDbLine
10
83
20
-7.5875
30
0
11
83
21
-40.025
31
0
39
0
210
0
220
0
230
1
0
LINE
5
244
100
AcDbEntity
8
SK2
62
256
6
ByLayer
370
-1
48
1
60
0
100
AcDbLine
10
32
20
-36.85
30
0
11
83
21
-36.85
31
0
39
0
210
0
220
0
230
1
0
SOLID
5
245
100
AcDbEntity
8
SK2
62
256
6
ByLayer
370
-1
48
1
60
0
100
AcDbTrace
10
32
20
-36.85
30
0
11
36.174997
21
-35.924425
31
0
12
36.175003
22
-37.775575
32
0
13
32
23
-36.85
33
0
39
0
210
0
220
0
230
1
0
SOLID
5
246
100
AcDbEntity
8
SK2
62
256
6
ByLayer
370
-1
48
1
60
0
100
AcDbTrace
10
83
20
-36.85
30
0
11
78.825003
21
-37.775575
31
0
12
78.824997
22
-35.924425
32
0
13
83
23
-36.85
33
0
39
0
210
0
220
0
230
1
0
ENDBLK
5
248
100
AcDbEntity
8
0
100
AcDbBlockEnd
0
BLOCK
5
252
100
AcDbEntity
8
0
100
AcDbBlockBegin
2
DimnDraft3D5
70
0
10
0
20
0
30
0
3
DimnDraft3D5
0
MTEXT
5
24B
100
AcDbEntity
8
SK2
62
256
6
ByLayer
370
-1
48
1
60
0
100
AcDbMText
10
-45.153766
20
5.009211
30
0
210
0
220
0
230
1
1
\W01.000;\fsimplex.shx,bigfont.shx;40 
40
4.5
41
0
44
1.084337
50
90
71
7
72
5
7
DEFAULT
0
MTEXT
5
24C
100
AcDbEntity
8
SK2
62
256
6
ByLayer
370
-1
48
1
60
0
100
AcDbMText
10
-45.153766
20
-8.490789
30
0
210
0
220
0
230
1
1
\W01.000;\fsimplex.shx,bigfont.shx;%%c 
40
4.5
41
0
44
1.084337
50
90
71
7
72
5
7
DEFAULT
0
LINE
5
24D
100
AcDbEntity
8
SK2
62
256
6
ByLayer
370
-1
48
1
60
0
100
AcDbLine
10
-1.5875
20
-20
30
0
11
-46.078766
21
-20
31
0
39
0
210
0
220
0
230
1
0
LINE
5
24E
100
AcDbEntity
8
SK2
62
256
6
ByLayer
370
-1
48
1
60
0
100
AcDbLine
10
-1.5875
20
20
30
0
11
-46.078766
21
20
31
0
39
0
210
0
220
0
230
1
0
LINE
5
24F
100
AcDbEntity
8
SK2
62
256
6
ByLayer
370
-1
48
1
60
0
100
AcDbLine
10
-42.903766
20
-20
30
0
11
-42.903766
21
20
31
0
39
0
210
0
220
0
230
1
0
SOLID
5
250
100
AcDbEntity
8
SK2
62
256
6
ByLayer
370
-1
48
1
60
0
100
AcDbTrace
10
-42.903766
20
-20
30
0
11
-43.829341
21
-15.825003
31
0
12
-41.97819
22
-15.824997
32
0
13
-42.903766
23
-20
33
0
39
0
210
0
220
0
230
1
0
SOLID
5
251
100
AcDbEntity
8
SK2
62
256
6
ByLayer
370
-1
48
1
60
0
100
AcDbTrace
10
-42.903766
20
20
30
0
11
-41.97819
21
15.825003
31
0
12
-43.829341
22
15.824997
32
0
13
-42.903766
23
20
33
0
39
0
210
0
220
0
230
1
0
ENDBLK
5
253
100
AcDbEntity
8
0
100
AcDbBlockEnd
0
BLOCK
5
25D
100
AcDbEntity
8
0
100
AcDbBlockBegin
2
DimnDraft3D6
70
0
10
0
20
0
30
0
3
DimnDraft3D6
0
MTEXT
5
256
100
AcDbEntity
8
2
62
256
6
ByLayer
370
-1
48
1
60
0
100
AcDbMText
10
107.725
20
-21.120395
30
0
210
0
220
0
230
1
1
\W01.000;\fsimplex.shx,bigfont.shx;12 
40
4.5
41
0
44
1.084337
50
90
71
7
72
5
7
DEFAULT
0
MTEXT
5
257
100
AcDbEntity
8
2
62
256
6
ByLayer
370
-1
48
1
60
0
100
AcDbMText
10
107.725
20
-34.620395
30
0
210
0
220
0
230
1
1
\W01.000;\fsimplex.shx,bigfont.shx;%%c 
40
4.5
41
0
44
1.084337
50
90
71
7
72
5
7
DEFAULT
0
LINE
5
258
100
AcDbEntity
8
2
62
256
6
ByLayer
370
-1
48
1
60
0
100
AcDbLine
10
84.5875
20
6
30
0
11
113.15
21
6
31
0
39
0
210
0
220
0
230
1
0
LINE
5
259
100
AcDbEntity
8
2
62
256
6
ByLayer
370
-1
48
1
60
0
100
AcDbLine
10
84.5875
20
-6
30
0
11
113.15
21
-6
31
0
39
0
210
0
220
0
230
1
0
LINE
5
25A
100
AcDbEntity
8
2
62
256
6
ByLayer
370
-1
48
1
60
0
100
AcDbLine
10
109.975
20
6
30
0
11
109.975
21
-35.745395
31
0
39
0
210
0
220
0
230
1
0
SOLID
5
25B
100
AcDbEntity
8
2
62
256
6
ByLayer
370
-1
48
1
60
0
100
AcDbTrace
10
109.975
20
6
30
0
11
110.900575
21
1.825003
31
0
12
109.049425
22
1.824997
32
0
13
109.975
23
6
33
0
39
0
210
0
220
0
230
1
0
SOLID
5
25C
100
AcDbEntity
8
2
62
256
6
ByLayer
370
-1
48
1
60
0
100
AcDbTrace
10
109.975
20
-6
30
0
11
109.049425
21
-1.825003
31
0
12
110.900575
22
-1.824997
32
0
13
109.975
23
-6
33
0
39
0
210
0
220
0
230
1
0
ENDBLK
5
25E
100
AcDbEntity
8
0
100
AcDbBlockEnd
0
ENDSEC
0
SECTION
2
ENTITIES
0
ARC
5
D4
100
AcDbEntity
8
SK1
62
256
6
ByLayer
370
-1
48
1
60
0
100
AcDbCircle
39
0
10
0.6
20
-15
30
0
40
1
210
0
220
0
230
-1
100
AcDbArc
50
113.578178
51
126.869898
0
ARC
5
D5
100
AcDbEntity
8
SK1
62
256
6
ByLayer
370
-1
48
1
60
0
100
AcDbCircle
39
0
10
0.6
20
15
30
0
40
1
210
0
220
0
230
-1
100
AcDbArc
50
233.130102
51
246.421822
0
ARC
5
D6
100
AcDbEntity
8
1
62
256
6
ByLayer
370
-1
48
1
60
0
100
AcDbCircle
39
0
10
-26.015785
20
-11.8
30
0
40
0.8
210
0
220
0
230
-1
100
AcDbArc
50
15
51
90
0
ARC
5
D7
100
AcDbEntity
8
1
62
256
6
ByLayer
370
-1
48
1
60
0
100
AcDbCircle
39
0
10
-26.015785
20
11.8
30
0
40
0.8
210
0
220
0
230
-1
100
AcDbArc
50
270
51
345
0
ELLIPSE
5
D8
100
AcDbEntity
8
1
62
256
6
ByLayer
370
-1
48
1
60
0
100
AcDbEllipse
10
79.788396
20
3.279045
30
0
11
-1.25944651300884E-15
21
-1.175
31
0
210
0
220
0
230
1
40
0.996195
41
1.7844247162685
42
-2.59201020032128
0
ELLIPSE
5
D9
100
AcDbEntity
8
1
62
256
6
ByLayer
370
-1
48
1
60
0
100
AcDbEllipse
10
79.797112
20
3.279045
30
0
11
-1.25944651300884E-15
21
-1.175
31
0
210
0
220
0
230
1
40
0.996195
41
-3.14159237692217
42
-2.56628827920619
0
ELLIPSE
5
DA
100
AcDbEntity
8
1
62
256
6
ByLayer
370
-1
48
1
60
0
100
AcDbEllipse
10
77.976826
20
1.43388
30
0
11
0.35100127149786
21
-0.605638594713783
31
0
210
0
220
0
230
1
40
0.075479
41
0.472977587146962
42
0.836273843398395
0
ELLIPSE
5
DB
100
AcDbEntity
8
1
62
256
6
ByLayer
370
-1
48
1
60
0
100
AcDbEllipse
10
82.309588
20
0
30
0
11
-1.27344746633769
21
5.72337581643194
31
0
210
0
220
0
230
-1
40
0.10708
41
-1.80135612142719
42
-1.56241233140252
0
ELLIPSE
5
DC
100
AcDbEntity
8
1
62
256
6
ByLayer
370
-1
48
1
60
0
100
AcDbEllipse
10
78.451609
20
0
30
0
11
-12.4831598225136
21
5.54572357179444
31
0
210
0
220
0
230
-1
40
0.113871
41
-1.27408999433148
42
-1.10460543576347
0
ELLIPSE
5
DD
100
AcDbEntity
8
1
62
256
6
ByLayer
370
-1
48
1
60
0
100
AcDbEllipse
10
68.093627
20
4.285022
30
0
11
-7.38612120665002
21
3.94730188650334
31
0
210
0
220
0
230
-1
40
0.094738
41
-2.61299109499504
42
-2.38941138755153
0
ELLIPSE
5
DE
100
AcDbEntity
8
1
62
256
6
ByLayer
370
-1
48
1
60
0
100
AcDbEllipse
10
75.109873
20
0
30
0
11
-30.735005656602
21
0.362014087601553
31
0
210
0
220
0
230
-1
40
0.185897
41
-1.59569529662319
42
-1.46211259608265
0
ELLIPSE
5
DF
100
AcDbEntity
8
1
62
256
6
ByLayer
370
-1
48
1
60
0
100
AcDbEllipse
10
79.638768
20
-2.056741
30
0
11
1
21
0
31
0
210
0
220
0
230
1
40
0.998135
41
0.0765765226045317
42
3.06511477049751
0
ELLIPSE
5
E0
100
AcDbEntity
8
1
62
256
6
ByLayer
370
-1
48
1
60
0
100
AcDbEllipse
10
75.735169
20
9.1E-05
30
0
11
-1.14267231183267
21
-5.7241014179341
31
0
210
0
220
0
230
-1
40
0.08416
41
3.09589643263546
42
3.10699852401328
0
ELLIPSE
5
E1
100
AcDbEntity
8
1
62
256
6
ByLayer
370
-1
48
1
60
0
100
AcDbEllipse
10
79.953992
20
3.279045
30
0
11
1.17145334231628E-15
21
1
31
0
210
0
220
0
230
1
40
0.996195
41
0.463482384481963
42
2.1382460728045
0
ELLIPSE
5
E2
100
AcDbEntity
8
1
62
256
6
ByLayer
370
-1
48
1
60
0
100
AcDbEllipse
10
77.129356
20
2.407445
30
0
11
-0.63484624971745
21
0.294907170512501
31
0
210
0
220
0
230
1
40
0.036834
41
-0.291919532341968
42
-0.0791261077920496
0
ELLIPSE
5
E3
100
AcDbEntity
8
1
62
256
6
ByLayer
370
-1
48
1
60
0
100
AcDbEllipse
10
79.638768
20
-1.904183
30
0
11
-1
21
1.01063905508236E-15
31
0
210
0
220
0
230
1
40
0.998135
41
2.46018512585143
42
0.681407527738363
0
ELLIPSE
5
E4
100
AcDbEntity
8
1
62
256
6
ByLayer
370
-1
48
1
60
0
100
AcDbEllipse
10
82.995719
20
0
30
0
11
-0.981203969827496
21
-5.72354764889976
31
0
210
0
220
0
230
-1
40
0.131417
41
0.0158517623437919
42
1.2938904430485
0
ELLIPSE
5
E5
100
AcDbEntity
8
1
62
256
6
ByLayer
370
-1
48
1
60
0
100
AcDbEllipse
10
76.9142
20
2.382678
30
0
11
-0.686845440335521
21
0.135067912882017
31
0
210
0
220
0
230
1
40
0.016879
41
-0.415466638282564
42
-0.0856224731664657
0
ELLIPSE
5
E6
100
AcDbEntity
8
1
62
256
6
ByLayer
370
-1
48
1
60
0
100
AcDbEllipse
10
82.499118
20
0.622286
30
0
11
-0.0238435923383982
21
0.843437382658772
31
0
210
0
220
0
230
-1
40
0.493236
41
-2.0961547846727
42
-1.53498582977025
0
ELLIPSE
5
E7
100
AcDbEntity
8
1
62
256
6
ByLayer
370
-1
48
1
60
0
100
AcDbEllipse
10
82.12749
20
-3.710881
30
0
11
-0.135913575182422
21
-0.768845004887939
31
0
210
0
220
0
230
-1
40
0.119599
41
-0.000971506604069244
42
1.5698248201917
0
ELLIPSE
5
E8
100
AcDbEntity
8
1
62
256
6
ByLayer
370
-1
48
1
60
0
100
AcDbEllipse
10
77.549468
20
2.256797
30
0
11
-1.4470236532442E-15
21
-1.35
31
0
210
0
220
0
230
1
40
0.996195
41
-1.76569142660093
42
-1.62274188962592
0
ELLIPSE
5
E9
100
AcDbEntity
8
1
62
256
6
ByLayer
370
-1
48
1
60
0
100
AcDbEllipse
10
77.665422
20
0.122806
30
0
11
-1.51618084860926
21
0.0113137050005363
31
0
210
0
220
0
230
-1
40
0.137267
41
0.748307990565902
42
-0.661324988929024
0
ELLIPSE
5
EA
100
AcDbEntity
8
1
62
256
6
ByLayer
370
-1
48
1
60
0
100
AcDbEllipse
10
16.948929
20
0
30
0
11
-9.36741787978226
21
19.7417491527504
31
0
210
0
220
0
230
-1
40
0.341999
41
-1.09631952749989
42
-0.152726244898338
0
ELLIPSE
5
EB
100
AcDbEntity
8
1
62
256
6
ByLayer
370
-1
48
1
60
0
100
AcDbEllipse
10
82.234809
20
-0.478453
30
0
11
-0.15080960216558
21
0.684208661377301
31
0
210
0
220
0
230
-1
40
0.109732
41
-1.5059437361294
42
0.0648525906600679
0
ELLIPSE
5
EC
100
AcDbEntity
8
1
62
256
6
ByLayer
370
-1
48
1
60
0
100
AcDbEllipse
10
77.066204
20
2.271499
30
0
11
-0.63484624971745
21
0.294907170512501
31
0
210
0
220
0
230
1
40
0.036834
41
-0.625371171758206
42
-0.0791261077917561
0
ELLIPSE
5
ED
100
AcDbEntity
8
1
62
256
6
ByLayer
370
-1
48
1
60
0
100
AcDbEllipse
10
79.527256
20
1.606797
30
0
11
-1.20926485982525
21
-0.699499662377821
31
0
210
0
220
0
230
-1
40
0.021882
41
-0.728344145738358
42
-0.037811458268874
0
ELLIPSE
5
EE
100
AcDbEntity
8
1
62
256
6
ByLayer
370
-1
48
1
60
0
100
AcDbEllipse
10
75.498621
20
3.201048
30
0
11
-0.427786559200367
21
-2.86827450913742
31
0
210
0
220
0
230
1
40
0.204872
41
0.0305459912986821
42
0.76136292185383
0
ELLIPSE
5
EF
100
AcDbEntity
8
1
62
256
6
ByLayer
370
-1
48
1
60
0
100
AcDbEllipse
10
77.543907
20
2.256797
30
0
11
1.58146201212697E-15
21
1.35
31
0
210
0
220
0
230
1
40
0.996195
41
1.37590122698886
42
1.51885076396386
0
ELLIPSE
5
F0
100
AcDbEntity
8
1
62
256
6
ByLayer
370
-1
48
1
60
0
100
AcDbEllipse
10
81.900859
20
1.581968
30
0
11
-0.157861884018712
21
0.716182327103258
31
0
210
0
220
0
230
-1
40
0.104097
41
2.37200310447436
42
-3.11650852696583
0
ELLIPSE
5
F1
100
AcDbEntity
8
1
62
256
6
ByLayer
370
-1
48
1
60
0
100
AcDbEllipse
10
74.963964
20
0
30
0
11
-65.4370507281489
21
-7.41467019249819E-14
31
0
210
0
220
0
230
-1
40
0.087489
41
1.56946533692231
42
1.5996934273073
0
ELLIPSE
5
F2
100
AcDbEntity
8
1
62
256
6
ByLayer
370
-1
48
1
60
0
100
AcDbEllipse
10
77.716214
20
2.132743
30
0
11
-1.4470236532442E-15
21
-1.35
31
0
210
0
220
0
230
1
40
0.996195
41
-2.03855290774145
42
-2.00712863979349
0
ELLIPSE
5
F3
100
AcDbEntity
8
1
62
256
6
ByLayer
370
-1
48
1
60
0
100
AcDbEllipse
10
77.504898
20
1.996797
30
0
11
1.58146201212697E-15
21
1.35
31
0
210
0
220
0
230
1
40
0.996195
41
1.32377705753461
42
1.73074728884203
0
ELLIPSE
5
F4
100
AcDbEntity
8
1
62
256
6
ByLayer
370
-1
48
1
60
0
100
AcDbEllipse
10
16.948929
20
0
30
0
11
-9.36741787978167
21
-19.7417491527498
31
0
210
0
220
0
230
-1
40
0.341999
41
0.152726244898344
42
1.09631952749991
0
ELLIPSE
5
F5
100
AcDbEntity
8
1
62
256
6
ByLayer
370
-1
48
1
60
0
100
AcDbEllipse
10
79.638768
20
-1.904183
30
0
11
1.1
21
0
31
0
210
0
220
0
230
1
40
0.998135
41
1.8889274706155E-05
42
3.14157435159631
0
ELLIPSE
5
F6
100
AcDbEntity
8
1
62
256
6
ByLayer
370
-1
48
1
60
0
100
AcDbEllipse
10
77.737193
20
1.996797
30
0
11
-1.20133142694171
21
-1.03359171363576
31
0
210
0
220
0
230
-1
40
0.722898
41
-1.22238510542253
42
-0.218778579088986
0
ELLIPSE
5
F7
100
AcDbEntity
8
1
62
256
6
ByLayer
370
-1
48
1
60
0
100
AcDbEllipse
10
75.000199
20
2.122552
30
0
11
-0.339154326220879
21
-0.724551132085004
31
0
210
0
220
0
230
1
40
0.07899
41
0.085217574519428
42
1.60775379831956
0
ELLIPSE
5
F8
100
AcDbEntity
8
1
62
256
6
ByLayer
370
-1
48
1
60
0
100
AcDbEllipse
10
76.838166
20
5.929045
30
0
11
4.92010403772836E-15
21
4.2
31
0
210
0
220
0
230
1
40
0.996195
41
2.70526034059122
42
2.98295464065567
0
ELLIPSE
5
F9
100
AcDbEntity
8
1
62
256
6
ByLayer
370
-1
48
1
60
0
100
AcDbEllipse
10
20.040971
20
0
30
0
11
-253.730455665431
21
-5.53151856670599
31
0
210
0
220
0
230
-1
40
0.005816
41
-1.81608057884254
42
-1.79465148067809
0
ELLIPSE
5
FA
100
AcDbEntity
8
1
62
256
6
ByLayer
370
-1
48
1
60
0
100
AcDbEllipse
10
76.768441
20
5.929045
30
0
11
-5.35934686386741E-15
21
-5
31
0
210
0
220
0
230
1
40
0.996195
41
-0.415811224229662
42
-0.0320260714809328
0
ELLIPSE
5
FB
100
AcDbEntity
8
1
62
256
6
ByLayer
370
-1
48
1
60
0
100
AcDbEllipse
10
-0.948929
20
0
30
0
11
-9.3674178797814
21
-19.7417491527495
31
0
210
0
220
0
230
-1
40
0.341999
41
-2.98886640869145
42
-2.04527312608987
0
ELLIPSE
5
FC
100
AcDbEntity
8
1
62
256
6
ByLayer
370
-1
48
1
60
0
100
AcDbEllipse
10
50.998453
20
6.855106
30
0
11
-23.8746623686028
21
3.52319048134699
31
0
210
0
220
0
230
-1
40
0.120157
41
3.12386297252008
42
-2.86720686349357
0
ELLIPSE
5
FD
100
AcDbEntity
8
1
62
256
6
ByLayer
370
-1
48
1
60
0
100
AcDbEllipse
10
27.5
20
5.088023
30
0
11
-3
21
3.03191716524709E-15
31
0
210
0
220
0
230
1
40
0.571973
41
-1.7936856780042
42
-0.675376709081601
0
ELLIPSE
5
FE
100
AcDbEntity
8
1
62
256
6
ByLayer
370
-1
48
1
60
0
100
AcDbEllipse
10
74.912875
20
0
30
0
11
-27.0523045331381
21
-3.06529578928529E-14
31
0
210
0
220
0
230
-1
40
0.211627
41
1.44435460027647
42
1.56946533689583
0
ELLIPSE
5
FF
100
AcDbEntity
8
1
62
256
6
ByLayer
370
-1
48
1
60
0
100
AcDbEllipse
10
-0.948929
20
0
30
0
11
-9.3674178797815
21
19.7417491527495
31
0
210
0
220
0
230
-1
40
0.341999
41
2.04527312608987
42
2.98886640869145
0
ELLIPSE
5
100
100
AcDbEntity
8
1
62
256
6
ByLayer
370
-1
48
1
60
0
100
AcDbEllipse
10
79.805918
20
3.279045
30
0
11
-1.07186937277348E-15
21
-1
31
0
210
0
220
0
230
1
40
0.996195
41
1.57079654872778
42
-1.77882855322155
0
ELLIPSE
5
101
100
AcDbEntity
8
1
62
256
6
ByLayer
370
-1
48
1
60
0
100
AcDbEllipse
10
79.805918
20
3.279045
30
0
11
-1.07186937277348E-15
21
-1
31
0
210
0
220
0
230
1
40
0.996195
41
0.982827342672287
42
1.57079554872778
0
ELLIPSE
5
102
100
AcDbEntity
8
1
62
256
6
ByLayer
370
-1
48
1
60
0
100
AcDbEllipse
10
77.434211
20
5.027029
30
0
11
-1.23306484138514
21
-2.65326276519664
31
0
210
0
220
0
230
-1
40
0.018911
41
-0.512545260327132
42
-0.393223090490831
0
ELLIPSE
5
103
100
AcDbEntity
8
1
62
256
6
ByLayer
370
-1
48
1
60
0
100
AcDbEllipse
10
77.653063
20
1.996797
30
0
11
-1.4470236532442E-15
21
-1.35
31
0
210
0
220
0
230
1
40
0.996195
41
-2.00712863979349
42
-0.130989811983708
0
ELLIPSE
5
104
100
AcDbEntity
8
1
62
256
6
ByLayer
370
-1
48
1
60
0
100
AcDbEllipse
10
82.476048
20
-0.645641
30
0
11
-0.537937687900339
21
-0.114555855094523
31
0
210
0
220
0
230
1
40
0.059714
41
1.04053525962972
42
1.55808058840482
0
ELLIPSE
5
105
100
AcDbEntity
8
1
62
256
6
ByLayer
370
-1
48
1
60
0
100
AcDbEllipse
10
82.382527
20
-3.29133
30
0
11
-0.54161371775654
21
0.0956795732533265
31
0
210
0
220
0
230
1
40
0.060121
41
1.05445084784108
42
1.58141670500792
0
ELLIPSE
5
106
100
AcDbEntity
8
1
62
256
6
ByLayer
370
-1
48
1
60
0
100
AcDbEllipse
10
81.961668
20
-0.474254
30
0
11
0.568502493118137
21
0
31
0
210
0
220
0
230
1
40
0.998135
41
0.209439510239319
42
1.38336830908963
0
ELLIPSE
5
107
100
AcDbEntity
8
1
62
256
6
ByLayer
370
-1
48
1
60
0
100
AcDbEllipse
10
79.795666
20
-2.256923
30
0
11
-1.1
21
1.1117029605906E-15
31
0
210
0
220
0
230
1
40
0.998135
41
-1.96496782723774
42
-4.04471803413425E-16
0
ELLIPSE
5
108
100
AcDbEntity
8
1
62
256
6
ByLayer
370
-1
48
1
60
0
100
AcDbEllipse
10
81.577416
20
-3.183208
30
0
11
0.817531508496598
21
0
31
0
210
0
220
0
230
1
40
0.998135
41
-1.01923640413895
42
-0.174532925199436
0
ELLIPSE
5
109
100
AcDbEntity
8
1
62
256
6
ByLayer
370
-1
48
1
60
0
100
AcDbEllipse
10
79.795666
20
-2.312835
30
0
11
1.1
21
0
31
0
210
0
220
0
230
1
40
0.998135
41
1.02023216493592
42
3.07748491090677
0
ELLIPSE
5
10A
100
AcDbEntity
8
1
62
256
6
ByLayer
370
-1
48
1
60
0
100
AcDbEllipse
10
81.898613
20
-1.652405
30
0
11
0.767531508496599
21
0
31
0
210
0
220
0
230
1
40
0.998135
41
-0.174532925199434
42
0.209439510239316
0
ELLIPSE
5
10B
100
AcDbEntity
8
1
62
256
6
ByLayer
370
-1
48
1
60
0
100
AcDbEllipse
10
79.795666
20
-2.256923
30
0
11
-1.13
21
1.14202213224307E-15
31
0
210
0
220
0
230
1
40
0.998135
41
-1.84195466398748
42
-0.091989679762169
0
ELLIPSE
5
10C
100
AcDbEntity
8
1
62
256
6
ByLayer
370
-1
48
1
60
0
100
AcDbEllipse
10
79.795666
20
-2.255702
30
0
11
1.20924645102467
21
0
31
0
210
0
220
0
230
1
40
0.998135
41
1.69901262148109
42
2.77638227164408
0
ELLIPSE
5
10D
100
AcDbEntity
8
1
62
256
6
ByLayer
370
-1
48
1
60
0
100
AcDbEllipse
10
82.649372
20
-1.459547
30
0
11
-0.537937687900339
21
-0.114555855094523
31
0
210
0
220
0
230
1
40
0.059714
41
1.04053525962975
42
1.55808058840482
0
ELLIPSE
5
10E
100
AcDbEntity
8
1
62
256
6
ByLayer
370
-1
48
1
60
0
100
AcDbEllipse
10
81.676382
20
-0.848875
30
0
11
0.817531508496598
21
0
31
0
210
0
220
0
230
1
40
0.998135
41
0.209439510239319
42
1.03483740944074
0
ELLIPSE
5
10F
100
AcDbEntity
8
1
62
256
6
ByLayer
370
-1
48
1
60
0
100
AcDbEllipse
10
82.654484
20
-1.75186
30
0
11
-0.54161371775654
21
0.0956795732533265
31
0
210
0
220
0
230
1
40
0.060121
41
1.05445084784105
42
1.5814167050079
0
ELLIPSE
5
110
100
AcDbEntity
8
1
62
256
6
ByLayer
370
-1
48
1
60
0
100
AcDbEllipse
10
81.529358
20
-3.130427
30
0
11
0.981882963782138
21
0
31
0
210
0
220
0
230
1
40
0.998135
41
-1.08271959555056
42
-0.174532925199443
0
ELLIPSE
5
111
100
AcDbEntity
8
1
62
256
6
ByLayer
370
-1
48
1
60
0
100
AcDbEllipse
10
79.781246
20
3.479045
30
0
11
-1.43308077703746E-15
21
-1.33699200055445
31
0
210
0
220
0
230
1
40
0.996195
41
0
42
6.28318530717959
0
ELLIPSE
5
112
100
AcDbEntity
8
1
62
256
6
ByLayer
370
-1
48
1
60
0
100
AcDbEllipse
10
79.723047
20
3.479045
30
0
11
-1.70009851535478E-15
21
-1.58610606715606
31
0
210
0
220
0
230
1
40
0.996195
41
0
42
6.28318530717959
0
ELLIPSE
5
113
100
AcDbEntity
8
1
62
256
6
ByLayer
370
-1
48
1
60
0
100
AcDbEllipse
10
79.75268
20
3.479045
30
0
11
-1.52010474797794E-15
21
-1.41818097110531
31
0
210
0
220
0
230
1
40
0.996195
41
0
42
6.28318530717959
0
ELLIPSE
5
114
100
AcDbEntity
8
1
62
256
6
ByLayer
370
-1
48
1
60
0
100
AcDbEllipse
10
79.766169
20
3.479045
30
0
11
-1.50850481115741E-15
21
-1.40735881579873
31
0
210
0
220
0
230
1
40
0.996195
41
2.21550985223124
42
-3.16753210611074E-16
0
ELLIPSE
5
115
100
AcDbEntity
8
1
62
256
6
ByLayer
370
-1
48
1
60
0
100
AcDbEllipse
10
79.766169
20
3.479045
30
0
11
-1.50850481115741E-15
21
-1.40735881579873
31
0
210
0
220
0
230
1
40
0.996195
41
0
42
0.926082690006842
0
ELLIPSE
5
116
100
AcDbEntity
8
1
62
256
6
ByLayer
370
-1
48
1
60
0
100
AcDbEllipse
10
79.926992
20
3.479045
30
0
11
1.2885986765479E-15
21
1.1
31
0
210
0
220
0
230
1
40
0.996195
41
0.0408407115142773
42
1.5707962760005
0
ELLIPSE
5
117
100
AcDbEntity
8
1
62
256
6
ByLayer
370
-1
48
1
60
0
100
AcDbEllipse
10
79.926992
20
3.479045
30
0
11
1.2885986765479E-15
21
1.1
31
0
210
0
220
0
230
1
40
0.996195
41
1.57079627600048
42
3.10075184009929
0
ELLIPSE
5
118
100
AcDbEntity
8
1
62
256
6
ByLayer
370
-1
48
1
60
0
100
AcDbEllipse
10
79.837582
20
3.479045
30
0
11
-1.17905631005083E-15
21
-1.1
31
0
210
0
220
0
230
1
40
0.996195
41
0
42
6.28318530717959
0
POINT
5
41
100
AcDbEntity
8
81
62
256
6
ByLayer
370
-1
48
1
60
0
100
AcDbPoint
10
83
20
0
30
0
39
0
210
0
220
0
230
1
50
360
0
POINT
5
43
100
AcDbEntity
8
80
62
256
6
ByLayer
370
-1
48
1
60
0
100
AcDbPoint
10
0
20
0
30
0
39
0
210
0
220
0
230
1
50
360
0
SPLINE
5
119
100
AcDbEntity
8
SK1
62
256
6
ByLayer
370
-1
48
1
60
0
100
AcDbSpline
70
4
71
2
72
6
73
3
40
0
40
0
40
0
40
1
40
1
40
1
41
1
10
-1.69501459340776
20
14.0202240353752
30
0
41
1
10
-2.09750729670387
20
14.0101120177088
30
0
41
1
10
-2.49999999999997
20
14.0000000000425
30
0
0
SPLINE
5
11A
100
AcDbEntity
8
SK1
62
256
6
ByLayer
370
-1
48
1
60
0
100
AcDbSpline
70
4
71
2
72
6
73
3
40
0
40
0
40
0
40
1
40
1
40
1
41
1
10
-2.50000000000003
20
-14.0000000000165
30
0
41
1
10
-2.09750729670392
20
-14.0101120176829
30
0
41
1
10
-1.69501459340782
20
-14.0202240353492
30
0
0
SPLINE
5
11B
100
AcDbEntity
8
SK1
62
256
6
ByLayer
370
-1
48
1
60
0
100
AcDbSpline
70
4
71
2
72
6
73
3
40
0
40
0
40
0
40
1
40
1
40
1
41
1
10
-2.49999999999997
20
14.0000000000425
30
0
41
1
10
-12.5002365839528
20
13.74875924915
30
0
41
1
10
-22.5004731679057
20
13.4975184982574
30
0
0
SPLINE
5
11C
100
AcDbEntity
8
SK1
62
256
6
ByLayer
370
-1
48
1
60
0
100
AcDbSpline
70
4
71
2
72
6
73
3
40
0
40
0
40
0
40
1
40
1
40
1
41
1
10
-22.5004731679057
20
-13.4975184982324
30
0
41
1
10
-12.5002365839529
20
-13.7487592491244
30
0
41
1
10
-2.50000000000003
20
-14.0000000000165
30
0
0
SPLINE
5
11D
100
AcDbEntity
8
SK1
62
256
6
ByLayer
370
-1
48
1
60
0
100
AcDbSpline
70
4
71
2
72
6
73
3
40
0
40
0
40
0
40
1
40
1
40
1
41
1
10
-22.5003908351881
20
13.4978822065961
30
0
41
1
10
-23.250195418969
20
13.0391711516489
30
0
41
1
10
-24
20
12.5804569169116
30
0
0
SPLINE
5
11E
100
AcDbEntity
8
SK1
62
256
6
ByLayer
370
-1
48
1
60
0
100
AcDbSpline
70
4
71
2
72
6
73
3
40
0
40
0
40
0
40
1
40
1
40
1
41
1
10
-24
20
-12.5792497909748
30
0
41
1
10
-23.2502022101313
20
-13.0377782366816
30
0
41
1
10
-22.5004044650255
20
-13.4963063059167
30
0
0
SPLINE
5
11F
100
AcDbEntity
8
SK1
62
256
6
ByLayer
370
-1
48
1
60
0
100
AcDbSpline
70
4
71
1
72
4
73
2
40
0
40
0
40
1
40
1
41
1
10
-1.53130590457357
20
13.618315394559
30
0
41
1
10
-1.53248549198224
20
13.6035488735108
30
0
0
SPLINE
5
120
100
AcDbEntity
8
SK1
62
256
6
ByLayer
370
-1
48
1
60
0
100
AcDbSpline
70
4
71
3
72
12
73
8
40
0
40
0
40
0
40
0
40
0.207096618963841
40
0.4507585870602
40
0.704819932600683
40
0.960331651981249
40
1
40
1
40
1
40
1
41
1
10
-1.6732373831
20
-7.03173855039418
30
0
41
1
10
-1.66891584747063
20
-7.49703771035641
30
0
41
1
10
-1.65896787842189
20
-8.46118514120366
30
0
41
1
10
-1.6414757638087
20
-9.80898394559381
30
0
41
1
10
-1.62080880518738
20
-11.0418357706275
30
0
41
1
10
-1.60486111433326
20
-11.8427701019936
30
0
41
1
10
-1.5952418676068
20
-12.1632276212149
30
0
41
1
10
-1.59393672711059
20
-12.204972443734
30
0
0
SPLINE
5
121
100
AcDbEntity
8
SK1
62
256
6
ByLayer
370
-1
48
1
60
0
100
AcDbSpline
70
4
71
2
72
6
73
3
40
0
40
0
40
0
40
1
40
1
40
1
41
1
10
-1.49999999999997
20
-13.7870504860688
30
0
41
1
10
-0.949999999999989
20
-13.7870504860688
30
0
41
1
10
-0.399999999999977
20
-13.7870504860688
30
0
0
SPLINE
5
122
100
AcDbEntity
8
SK1
62
256
6
ByLayer
370
-1
48
1
60
0
100
AcDbSpline
70
4
71
2
72
6
73
3
40
0
40
0
40
0
40
1
40
1
40
1
41
1
10
-0.39999999999992
20
13.7870502939328
30
0
41
1
10
-0.949999999999932
20
13.7870502939327
30
0
41
1
10
-1.49999999999991
20
13.7870502939327
30
0
0
SPLINE
5
123
100
AcDbEntity
8
1
62
256
6
ByLayer
370
-1
48
1
60
0
100
AcDbSpline
70
4
71
3
72
19
73
15
40
0
40
0
40
0
40
0
40
0.0570648166190415
40
0.108262216044308
40
0.159154370759906
40
0.2131023522765
40
0.333108556727663
40
0.464024770552195
40
0.552170904437312
40
0.638397626401833
40
0.723193895113168
40
0.811326092444898
40
0.905604599839
40
1
40
1
40
1
40
1
41
1
10
26.5
20
-11
30
0
41
1
10
26.6632482417142
20
-11.0027503004039
30
0
41
1
10
26.9566751873458
20
-10.9621490502204
30
0
41
1
10
27.3621749386919
20
-10.7704113817523
30
0
41
1
10
27.6795145866991
20
-10.4726142519513
30
0
41
1
10
28.0300866903839
20
-9.9570995471573
30
0
41
1
10
28.3497087495766
20
-9.17400898316876
30
0
41
1
10
28.65321967108
20
-8.29081154212989
30
0
41
1
10
28.9816457702304
20
-7.5138818667775
30
0
41
1
10
29.3429254050512
20
-6.89406378233548
30
0
41
1
10
29.829085818037
20
-6.3572215771874
30
0
41
1
10
30.4796452088358
20
-5.98892974373084
30
0
41
1
10
31.2201743276127
20
-5.77844634511476
30
0
41
1
10
31.7360978528003
20
-5.72599413621668
30
0
41
1
10
32
20
-5.72500000000002
30
0
0
SPLINE
5
124
100
AcDbEntity
8
1
62
256
6
ByLayer
370
-1
48
1
60
0
100
AcDbSpline
70
4
71
3
72
19
73
15
40
0
40
0
40
0
40
0
40
0.0943954001610004
40
0.188673907555102
40
0.276806104886832
40
0.361602373598167
40
0.447829095562688
40
0.535975229447804
40
0.666891443272337
40
0.7868976477235
40
0.840845629240094
40
0.891737783955692
40
0.942935183380958
40
1
40
1
40
1
40
1
41
1
10
32
20
5.72499999999997
30
0
41
1
10
31.7360978528003
20
5.72599413621663
30
0
41
1
10
31.2201743276126
20
5.7784463451147
30
0
41
1
10
30.4796452088358
20
5.98892974373078
30
0
41
1
10
29.829085818037
20
6.35722157718735
30
0
41
1
10
29.3429254050512
20
6.89406378233542
30
0
41
1
10
28.9816457702304
20
7.51388186677744
30
0
41
1
10
28.65321967108
20
8.29081154212983
30
0
41
1
10
28.3497087495766
20
9.1740089831687
30
0
41
1
10
28.0300866903838
20
9.95709954715724
30
0
41
1
10
27.6795145866991
20
10.4726142519512
30
0
41
1
10
27.3621749386919
20
10.7704113817523
30
0
41
1
10
26.9566751873458
20
10.9621490502203
30
0
41
1
10
26.6632482417141
20
11.0027503004039
30
0
41
1
10
26.5
20
11
30
0
0
SPLINE
5
125
100
AcDbEntity
8
1
62
256
6
ByLayer
370
-1
48
1
60
0
100
AcDbSpline
70
4
71
3
72
9
73
5
40
0
40
0
40
0
40
0
40
0.984239104462833
40
1
40
1
40
1
40
1
41
1
10
76.3891876063429
20
0.428378986091843
30
0
41
1
10
76.448174717659
20
0.44648894572282
30
0
41
1
10
76.5072943327441
20
0.467311447787751
30
0
41
1
10
76.5651961566599
20
0.49101200743894
30
0
41
1
10
76.5661085736263
20
0.49138612128985
30
0
0
SPLINE
5
126
100
AcDbEntity
8
1
62
256
6
ByLayer
370
-1
48
1
60
0
100
AcDbSpline
70
4
71
1
72
4
73
2
40
0
40
0
40
1
40
1
41
1
10
82.2442892164059
20
5.89526607225059
30
0
41
1
10
82.2250251462566
20
5.89889445301694
30
0
0
SPLINE
5
127
100
AcDbEntity
8
1
62
256
6
ByLayer
370
-1
48
1
60
0
100
AcDbSpline
70
4
71
1
72
4
73
2
40
0
40
0
40
1
40
1
41
1
10
82.4590361426964
20
5.84975304687228
30
0
41
1
10
82.3832865415132
20
5.86724083517413
30
0
0
SPLINE
5
128
100
AcDbEntity
8
1
62
256
6
ByLayer
370
-1
48
1
60
0
100
AcDbSpline
70
4
71
2
72
6
73
3
40
0
40
0
40
0
40
1
40
1
40
1
41
1
10
81.9710754152445
20
1.1587402558107
30
0
41
1
10
82.0596317574168
20
1.16548558800156
30
0
41
1
10
82.1477411455738
20
1.16771817822885
30
0
0
SPLINE
5
129
100
AcDbEntity
8
1
62
256
6
ByLayer
370
-1
48
1
60
0
100
AcDbSpline
70
4
71
2
72
6
73
3
40
0
40
0
40
0
40
1
40
1
40
1
41
1
10
77.4999507117054
20
5.79934910411606
30
0
41
1
10
77.4121357072236
20
5.79261479700858
30
0
41
1
10
77.3234059673135
20
5.79040047151264
30
0
0
SPLINE
5
12A
100
AcDbEntity
8
1
62
256
6
ByLayer
370
-1
48
1
60
0
100
AcDbSpline
70
4
71
1
72
4
73
2
40
0
40
0
40
1
40
1
41
1
10
77.2268211962727
20
1.0628305363052
30
0
41
1
10
77.2460586394481
20
1.05919632874517
30
0
0
SPLINE
5
12B
100
AcDbEntity
8
1
62
256
6
ByLayer
370
-1
48
1
60
0
100
AcDbSpline
70
4
71
1
72
4
73
2
40
0
40
0
40
1
40
1
41
1
10
77.0123369125217
20
1.10811248911534
30
0
41
1
10
77.0881649570743
20
1.09076916331477
30
0
0
SPLINE
5
12C
100
AcDbEntity
8
1
62
256
6
ByLayer
370
-1
48
1
60
0
100
AcDbSpline
70
4
71
3
72
8
73
4
40
0
40
0
40
0
40
0
40
1
40
1
40
1
40
1
41
1
10
74.7564660641284
20
1.35509997007475
30
0
41
1
10
75.0202174885866
20
1.23398699233528
30
0
41
1
10
75.2974848300079
20
1.13638730851113
30
0
41
1
10
75.5943584913043
20
1.06424958785041
30
0
0
SPLINE
5
12D
100
AcDbEntity
8
1
62
256
6
ByLayer
370
-1
48
1
60
0
100
AcDbSpline
70
4
71
3
72
34
73
30
40
0
40
0
40
0
40
0
40
0.0624999999999999
40
0.0624999999999999
40
0.125
40
0.125
40
0.1875
40
0.1875
40
0.249999999999999
40
0.249999999999999
40
0.312499999999999
40
0.312499999999999
40
0.374999999999999
40
0.374999999999999
40
0.499999999999999
40
0.499999999999999
40
0.562499999999999
40
0.562499999999999
40
0.624999999999999
40
0.624999999999999
40
0.749999999999999
40
0.749999999999999
40
0.812499999999999
40
0.812499999999999
40
0.874999999999999
40
0.874999999999999
40
0.9375
40
0.9375
40
1
40
1
40
1
40
1
41
1
10
32
20
3.93559371912332
30
0
41
1
10
32.8291327630518
20
3.7480438953688
30
0
41
1
10
33.6570865894815
20
3.54945097369347
30
0
41
1
10
35.3114971927478
20
3.13271460026343
30
0
41
1
10
36.1379411115603
20
2.91451259631805
30
0
41
1
10
37.7908618484574
20
2.46293936276538
30
0
41
1
10
38.6173157094091
20
2.2295396569686
30
0
41
1
10
40.2705969326808
20
1.74853866253622
30
0
41
1
10
41.0974899548678
20
1.50106420906428
30
0
41
1
10
42.7544445187328
20
1.00067181041305
30
0
41
1
10
43.584906285214
20
0.747507626235745
30
0
41
1
10
45.2406625352263
20
0.234435627429377
30
0
41
1
10
46.0671641928396
20
-0.0245165073466467
30
0
41
1
10
48.5457118942895
20
-0.798170554199942
30
0
41
1
10
50.1962784694458
20
-1.31134157394979
30
0
41
1
10
52.6786913679749
20
-2.04752812569737
30
0
41
1
10
53.5081891757822
20
-2.28737941431899
30
0
41
1
10
55.1646512547803
20
-2.75044199701961
30
0
41
1
10
55.9917862216981
20
-2.9740986071256
30
0
41
1
10
58.472035290144
20
-3.61551703814283
30
0
41
1
10
60.1246643318477
20
-4.00195858617641
30
0
41
1
10
62.6088045857909
20
-4.50455576268905
30
0
41
1
10
63.4385455399421
20
-4.65950501392049
30
0
41
1
10
65.0952796745691
20
-4.94028653600557
30
0
41
1
10
65.9223229824885
20
-5.06621312190026
30
0
41
1
10
67.5758037084887
20
-5.28600141687238
30
0
41
1
10
68.4021340399207
20
-5.38010866460374
30
0
41
1
10
70.0546451175394
20
-5.53573483763344
30
0
41
1
10
70.8815370551932
20
-5.59658814463216
30
0
41
1
10
71.7091500185618
20
-5.6405637066176
30
0
0
SPLINE
5
12E
100
AcDbEntity
8
1
62
256
6
ByLayer
370
-1
48
1
60
0
100
AcDbSpline
70
4
71
3
72
10
73
6
40
0
40
0
40
0
40
0
40
0.5
40
0.5
40
1
40
1
40
1
40
1
41
1
10
29.2741449884315
20
-2.22339814488572
30
0
41
1
10
29.474894316973
20
-2.42159060199145
30
0
41
1
10
29.6953969661725
20
-2.58589478074248
30
0
41
1
10
30.1797299707887
20
-2.84595875184238
30
0
41
1
10
30.4321576311775
20
-2.93558588146851
30
0
41
1
10
30.6942282690559
20
-2.98554309352826
30
0
0
SPLINE
5
12F
100
AcDbEntity
8
1
62
256
6
ByLayer
370
-1
48
1
60
0
100
AcDbSpline
70
4
71
3
72
40
73
36
40
0
40
0
40
0
40
0
40
0.124999999999996
40
0.124999999999996
40
0.249999999999992
40
0.249999999999992
40
0.312499999999989
40
0.312499999999989
40
0.343749999999989
40
0.343749999999989
40
0.374999999999988
40
0.374999999999988
40
0.406249999999987
40
0.406249999999987
40
0.421874999999986
40
0.421874999999986
40
0.437499999999986
40
0.437499999999986
40
0.468749999999983
40
0.468749999999983
40
0.499999999999981
40
0.499999999999981
40
0.531249999999978
40
0.531249999999978
40
0.562499999999976
40
0.562499999999976
40
0.624999999999979
40
0.624999999999979
40
0.687499999999983
40
0.687499999999983
40
0.749999999999986
40
0.749999999999986
40
0.874999999999993
40
0.874999999999993
40
1
40
1
40
1
40
1
41
1
10
67.2862012968039
20
2.80713633858122
30
0
41
1
10
67.113891113803
20
2.84079115277879
30
0
41
1
10
66.9433763747419
20
2.87823164809751
30
0
41
1
10
66.6080030085523
20
2.96549632965116
30
0
41
1
10
66.4429238132853
20
3.01476862345996
30
0
41
1
10
66.203909054005
20
3.10857183071772
30
0
41
1
10
66.1254888988757
20
3.14331122157401
30
0
41
1
10
66.0145090433805
20
3.20422140651576
30
0
41
1
10
65.978412291458
20
3.22616202534388
30
0
41
1
10
65.9106073960959
20
3.27409344546066
30
0
41
1
10
65.878794423662
20
3.30002872267869
30
0
41
1
10
65.822361829909
20
3.35881804504575
30
0
41
1
10
65.7973984320743
20
3.3921998317316
30
0
41
1
10
65.7734851865413
20
3.44848427375854
30
0
41
1
10
65.7678221568581
20
3.46840129919653
30
0
41
1
10
65.7626993678554
20
3.50889180041261
30
0
41
1
10
65.763211738139
20
3.53007216047894
30
0
41
1
10
65.7744000390676
20
3.59254842296375
30
0
41
1
10
65.7946707695166
20
3.63274816188795
30
0
41
1
10
65.8474487791905
20
3.7041882519423
30
0
41
1
10
65.8800731761917
20
3.73636548194682
30
0
41
1
10
65.9492016673803
20
3.79427028948965
30
0
41
1
10
65.9864589063594
20
3.8206163111324
30
0
41
1
10
66.0632228345667
20
3.86940770528705
30
0
41
1
10
66.1024886226876
20
3.89169156052441
30
0
41
1
10
66.2220063874679
20
3.95442279342353
30
0
41
1
10
66.3039468843512
20
3.99082575918308
30
0
41
1
10
66.4703406971282
20
4.05759455311704
30
0
41
1
10
66.5550166640857
20
4.08790232488869
30
0
41
1
10
66.725275246506
20
4.14397686510816
30
0
41
1
10
66.8107244484311
20
4.16968508103645
30
0
41
1
10
67.0677763434854
20
4.24170432297828
30
0
41
1
10
67.240075793008
20
4.28297557943094
30
0
41
1
10
67.5858973518585
20
4.35690589980001
30
0
41
1
10
67.7594294840075
20
4.38948819023952
30
0
41
1
10
67.9334248886182
20
4.4189023205206
30
0
0
SPLINE
5
130
100
AcDbEntity
8
1
62
256
6
ByLayer
370
-1
48
1
60
0
100
AcDbSpline
70
4
71
3
72
8
73
4
40
0
40
0
40
0
40
0
40
1
40
1
40
1
40
1
41
1
10
76.7266641226242
20
0.799358489725478
30
0
41
1
10
76.6606013358706
20
0.840954361558488
30
0
41
1
10
76.6077994989673
20
0.885585041442056
30
0
41
1
10
76.5630650290954
20
0.931608633941011
30
0
0
SPLINE
5
131
100
AcDbEntity
8
1
62
256
6
ByLayer
370
-1
48
1
60
0
100
AcDbSpline
70
4
71
3
72
21
73
17
40
0
40
0
40
0
40
0
40
0.0669446382226185
40
0.113597406311487
40
0.160250174400357
40
0.253555710578095
40
0.346861246755833
40
0.393514014844702
40
0.440166782933571
40
0.48681955102244
40
0.533472319111309
40
0.580125087200178
40
0.626777855289047
40
0.720083391466785
40
0.813388927644524
40
1
40
1
40
1
40
1
41
1
10
45.8657061024586
20
0.0387635954976133
30
0
41
1
10
45.553027154496
20
0.0901887439353288
30
0
41
1
10
45.0223958157079
20
0.177383189208484
30
0
41
1
10
44.2737380060128
20
0.299709126868777
30
0
41
1
10
43.4020260415954
20
0.440493045716494
30
0
41
1
10
42.3121192960759
20
0.613423722756977
30
0
41
1
10
41.2216548018924
20
0.785580345222172
30
0
41
1
10
40.3500283341457
20
0.922197444708701
30
0
41
1
10
39.6975329828051
20
1.02314336577453
30
0
41
1
10
39.0456883310004
20
1.12200707714618
30
0
41
1
10
38.3937505992147
20
1.21884358607079
30
0
41
1
10
37.741423836072
20
1.31365875677344
30
0
41
1
10
36.8701096344473
20
1.43792189081216
30
0
41
1
10
35.7803052937553
20
1.5897499692378
30
0
41
1
10
34.0376420751499
20
1.8229256655049
30
0
41
1
10
32.7320190604415
20
1.9855062741172
30
0
41
1
10
31.8631452561172
20
2.08739841127951
30
0
0
SPLINE
5
132
100
AcDbEntity
8
1
62
256
6
ByLayer
370
-1
48
1
60
0
100
AcDbSpline
70
4
71
3
72
8
73
4
40
0
40
0
40
0
40
0
40
1
40
1
40
1
40
1
41
1
10
73.2314729817218
20
0.924610339134688
30
0
41
1
10
72.9220553547723
20
1.01232550626838
30
0
41
1
10
72.6029837221918
20
1.11274888579868
30
0
41
1
10
72.2764840424239
20
1.22295029995576
30
0
0
SPLINE
5
133
100
AcDbEntity
8
1
62
256
6
ByLayer
370
-1
48
1
60
0
100
AcDbSpline
70
4
71
3
72
10
73
6
40
0
40
0
40
0
40
0
40
0.5
40
0.5
40
1
40
1
40
1
40
1
41
1
10
75.469373625368
20
0.305196610653553
30
0
41
1
10
75.3610848080718
20
0.300096209906542
30
0
41
1
10
75.2438477388742
20
0.304620896213208
30
0
41
1
10
74.9980836784127
20
0.332395113802363
30
0
41
1
10
74.8686948190119
20
0.355970313728591
30
0
41
1
10
74.7383045871425
20
0.388928939587345
30
0
0
SPLINE
5
134
100
AcDbEntity
8
1
62
256
6
ByLayer
370
-1
48
1
60
0
100
AcDbSpline
70
4
71
3
72
8
73
4
40
0
40
0
40
0
40
0
40
1
40
1
40
1
40
1
41
1
10
26.5
20
4.42642668225741
30
0
41
1
10
26.5301074598052
20
4.41501197217977
30
0
41
1
10
26.5602217292051
20
4.40348619847356
30
0
41
1
10
26.5903192298559
20
4.39178530004097
30
0
0
SPLINE
5
135
100
AcDbEntity
8
1
62
256
6
ByLayer
370
-1
48
1
60
0
100
AcDbSpline
70
4
71
3
72
8
73
4
40
0
40
0
40
0
40
0
40
1
40
1
40
1
40
1
41
1
10
25.0258819045102
20
6.82052825087575
30
0
41
1
10
25.0978518066816
20
6.48893991217602
30
0
41
1
10
25.1704458671456
20
6.16194680042065
30
0
41
1
10
25.2430447179986
20
5.83802467571218
30
0
0
SPLINE
5
136
100
AcDbEntity
8
1
62
256
6
ByLayer
370
-1
48
1
60
0
100
AcDbSpline
70
4
71
3
72
20
73
16
40
0
40
0
40
0
40
0
40
0.25
40
0.25
40
0.375
40
0.375
40
0.5
40
0.5
40
0.625
40
0.625
40
0.75
40
0.75
40
0.875
40
0.875
40
1
40
1
40
1
40
1
41
1
10
74.5236760763953
20
0.41574659718458
30
0
41
1
10
74.5343522452806
20
0.421419044218766
30
0
41
1
10
74.5394249288082
20
0.456307399348503
30
0
41
1
10
74.5355393115595
20
0.550499965422318
30
0
41
1
10
74.5322490198398
20
0.589160015398022
30
0
41
1
10
74.5211505079647
20
0.67821537241241
30
0
41
1
10
74.5133510523195
20
0.72878456667155
30
0
41
1
10
74.4923468655699
20
0.841334514806675
30
0
41
1
10
74.4791519466405
20
0.903320576025436
30
0
41
1
10
74.4458904355646
20
1.03834557043427
30
0
41
1
10
74.4259712928783
20
1.11071391940703
30
0
41
1
10
74.378477879121
20
1.26197791918915
30
0
41
1
10
74.3508630326744
20
1.3411666731302
30
0
41
1
10
74.2852128714889
20
1.50509875836354
30
0
41
1
10
74.2471465616173
20
1.59008311089707
30
0
41
1
10
74.201529237904
20
1.67621964557819
30
0
0
SPLINE
5
137
100
AcDbEntity
8
1
62
256
6
ByLayer
370
-1
48
1
60
0
100
AcDbSpline
70
4
71
3
72
26
73
22
40
0
40
0
40
0
40
0
40
0.173826183539172
40
0.173826183539172
40
0.347652367078344
40
0.347652367078344
40
0.391108912963137
40
0.391108912963137
40
0.43456545884793
40
0.43456545884793
40
0.521478550617516
40
0.521478550617516
40
0.695304734156687
40
0.695304734156687
40
0.73876128004148
40
0.73876128004148
40
0.782217825926273
40
0.782217825926273
40
0.869130917695859
40
0.869130917695859
40
1
40
1
40
1
40
1
41
1
10
32
20
-3.6784448314709
30
0
41
1
10
33.7194838476566
20
-4.08475570475366
30
0
41
1
10
35.4327855473127
20
-4.4424721474625
30
0
41
1
10
38.8581877798383
20
-5.03643057337095
30
0
41
1
10
40.5704052931964
20
-5.27249090334541
30
0
41
1
10
42.7169660491709
20
-5.48020203997916
30
0
41
1
10
43.1468074547073
20
-5.51740402895754
30
0
41
1
10
44.0055192466871
20
-5.58273785168379
30
0
41
1
10
44.4345342556008
20
-5.61088792253102
30
0
41
1
10
45.7208398159329
20
-5.68161295523322
30
0
41
1
10
46.5773916543111
20
-5.71044149603213
30
0
41
1
10
49.1464000495939
20
-5.74128163578732
30
0
41
1
10
50.8583161397567
20
-5.68751525697684
30
0
41
1
10
53.00412843185
20
-5.52892428985012
30
0
41
1
10
53.4339251051
20
-5.49260976809396
30
0
41
1
10
54.2921845176097
20
-5.41115998260105
30
0
41
1
10
54.7206583592765
20
-5.36603332944861
30
0
41
1
10
56.0043681081373
20
-5.21784124153518
30
0
41
1
10
56.85789143141
20
-5.10194753282698
30
0
41
1
10
58.9926682796579
20
-4.7718703229078
30
0
41
1
10
60.2719833850758
20
-4.53765832688927
30
0
41
1
10
61.5500448163756
20
-4.27249565596989
30
0
0
SPLINE
5
138
100
AcDbEntity
8
1
62
256
6
ByLayer
370
-1
48
1
60
0
100
AcDbSpline
70
4
71
3
72
8
73
4
40
0
40
0
40
0
40
0
40
1
40
1
40
1
40
1
41
1
10
32
20
-3.6784448314709
30
0
41
1
10
31.714882519154
20
-3.6110720947112
30
0
41
1
10
31.4312781068497
20
-3.56525173782563
30
0
41
1
10
31.1503986556831
20
-3.53882398545306
30
0
0
SPLINE
5
139
100
AcDbEntity
8
1
62
256
6
ByLayer
370
-1
48
1
60
0
100
AcDbSpline
70
4
71
3
72
8
73
4
40
0
40
0
40
0
40
0
40
1
40
1
40
1
40
1
41
1
10
26.5903192298561
20
4.39178530004099
30
0
41
1
10
26.6724730772634
20
4.08744637561762
30
0
41
1
10
26.7546503084409
20
3.78512453955881
30
0
41
1
10
26.8368547438836
20
3.48468800459986
30
0
0
SPLINE
5
13A
100
AcDbEntity
8
1
62
256
6
ByLayer
370
-1
48
1
60
0
100
AcDbSpline
70
4
71
3
72
8
73
4
40
0
40
0
40
0
40
0
40
1
40
1
40
1
40
1
41
1
10
76.8604955014409
20
5.72409356891185
30
0
41
1
10
76.8637187144099
20
5.72472383102163
30
0
41
1
10
76.8695532397025
20
5.72501358233964
30
0
41
1
10
76.8779326573742
20
5.72499968179324
30
0
0
SPLINE
5
13B
100
AcDbEntity
8
1
62
256
6
ByLayer
370
-1
48
1
60
0
100
AcDbSpline
70
4
71
3
72
10
73
6
40
0
40
0
40
0
40
0
40
0.261688499184097
40
0.261688499184097
40
1
40
1
40
1
40
1
41
1
10
76.9202073402743
20
5.72364506721095
30
0
41
1
10
76.9299447831222
20
5.72317811083411
30
0
41
1
10
76.9407513044059
20
5.7226026785705
30
0
41
1
10
76.9857185618001
20
5.720069824566
30
0
41
1
10
77.0271440354865
20
5.71747698842501
30
0
41
1
10
77.0752979500566
20
5.71473377770528
30
0
0
SPLINE
5
13C
100
AcDbEntity
8
1
62
256
6
ByLayer
370
-1
48
1
60
0
100
AcDbSpline
70
4
71
3
72
14
73
10
40
0
40
0
40
0
40
0
40
0.25
40
0.25
40
0.5
40
0.5
40
0.75
40
0.75
40
1
40
1
40
1
40
1
41
1
10
6.92320508075693
20
19.1222825906926
30
0
41
1
10
6.88563301332897
20
19.1222825906926
30
0
41
1
10
6.850312724042
20
19.1177281115534
30
0
41
1
10
6.79136513419891
20
19.1042242696216
30
0
41
1
10
6.76786471768486
20
19.0956673725615
30
0
41
1
10
6.7277415401015
20
19.0770274497583
30
0
41
1
10
6.71161954962218
20
19.06709867989
30
0
41
1
10
6.68411546052442
20
19.0464153092313
30
0
41
1
10
6.67279157843188
20
19.0356185274185
30
0
41
1
10
6.66339745962156
20
19.0245744101322
30
0
0
SPLINE
5
13D
100
AcDbEntity
8
1
62
256
6
ByLayer
370
-1
48
1
60
0
100
AcDbSpline
70
4
71
3
72
18
73
14
40
0
40
0
40
0
40
0
40
0.250000000000004
40
0.250000000000004
40
0.375000000000003
40
0.375000000000003
40
0.500000000000003
40
0.500000000000003
40
0.625000000000002
40
0.625000000000002
40
0.750000000000002
40
0.750000000000002
40
1
40
1
40
1
40
1
41
1
10
26.0157853790299
20
4.66084450672662
30
0
41
1
10
25.9127221777256
20
4.72223852034102
30
0
41
1
10
25.8225650417519
20
4.80127791146487
30
0
41
1
10
25.6988845784295
20
4.93550007111017
30
0
41
1
10
25.6599081607168
20
4.98282983584258
30
0
41
1
10
25.5871685058443
20
5.07986867968654
30
0
41
1
10
25.5531450153411
20
5.12986830836184
30
0
41
1
10
25.4891870429057
20
5.23243841853824
30
0
41
1
10
25.4592554261645
20
5.2850107916116
30
0
41
1
10
25.4032915962426
20
5.39259351431846
30
0
41
1
10
25.3771950624828
20
5.44780062459418
30
0
41
1
10
25.3064489208504
20
5.61369599905899
30
0
41
1
10
25.2682464320757
20
5.72557946929032
30
0
41
1
10
25.2430447179986
20
5.83802467571223
30
0
0
SPLINE
5
13E
100
AcDbEntity
8
1
62
256
6
ByLayer
370
-1
48
1
60
0
100
AcDbSpline
70
4
71
3
72
8
73
4
40
0
40
0
40
0
40
0
40
1
40
1
40
1
40
1
41
1
10
25.2430447179986
20
8.95087524270517
30
0
41
1
10
25.170130063054
20
9.12171648383918
30
0
41
1
10
25.0976813963659
20
9.28533600869903
30
0
41
1
10
25.0258819045102
20
9.43792153942348
30
0
0
SPLINE
5
13F
100
AcDbEntity
8
1
62
256
6
ByLayer
370
-1
48
1
60
0
100
AcDbSpline
70
4
71
3
72
8
73
4
40
0
40
0
40
0
40
0
40
1
40
1
40
1
40
1
41
1
10
26.8368547438853
20
3.48468800459383
30
0
41
1
10
26.8482641231973
20
3.4437442602152
30
0
41
1
10
26.8596734874247
20
3.40282979601869
30
0
41
1
10
26.8710828091393
20
3.36194476001231
30
0
0
SPLINE
5
140
100
AcDbEntity
8
1
62
256
6
ByLayer
370
-1
48
1
60
0
100
AcDbSpline
70
4
71
4
72
10
73
5
40
0
40
0
40
0
40
0
40
0
40
1
40
1
40
1
40
1
40
1
41
0.997786258407306
10
73.4535687048757
20
0.81908668668924
30
0
41
0.99597029691001
10
73.5202129918096
20
1.10498897606079
30
0
41
0.994333078646934
10
73.5769084645568
20
1.45417679960675
30
0
41
0.995758450968345
10
73.6168409551694
20
1.84866395769312
30
0
41
0.997547382562578
10
73.6397281305212
20
2.25294849182752
30
0
0
SPLINE
5
141
100
AcDbEntity
8
1
62
256
6
ByLayer
370
-1
48
1
60
0
100
AcDbSpline
70
4
71
3
72
14
73
10
40
0
40
0
40
0
40
0
40
0.25
40
0.25
40
0.5
40
0.5
40
0.75
40
0.75
40
1
40
1
40
1
40
1
41
1
10
9.0767949192431
20
-19.1222825906926
30
0
41
1
10
9.11436698667103
20
-19.1222825906926
30
0
41
1
10
9.149687275958
20
-19.1177281115534
30
0
41
1
10
9.20863486580109
20
-19.1042242696216
30
0
41
1
10
9.23213528231517
20
-19.0956673725615
30
0
41
1
10
9.2722584598985
20
-19.0770274497583
30
0
41
1
10
9.28838045037782
20
-19.06709867989
30
0
41
1
10
9.31588453947558
20
-19.0464153092313
30
0
41
1
10
9.32720842156814
20
-19.0356185274185
30
0
41
1
10
9.33660254037844
20
-19.0245744101322
30
0
0
SPLINE
5
142
100
AcDbEntity
8
1
62
256
6
ByLayer
370
-1
48
1
60
0
100
AcDbSpline
70
4
71
3
72
12
73
8
40
0
40
0
40
0
40
0
40
0.249999999999991
40
0.249999999999991
40
0.499999999999982
40
0.499999999999982
40
1
40
1
40
1
40
1
41
1
10
76.2064191459846
20
2.32689178014974
30
0
41
1
10
76.208713626181
20
2.32689178014974
30
0
41
1
10
76.2128509497281
20
2.33465255428436
30
0
41
1
10
76.2232630416198
20
2.35881137862898
30
0
41
1
10
76.2295939409495
20
2.37510228631172
30
0
41
1
10
76.2504662621434
20
2.42789602663765
30
0
41
1
10
76.2673172464911
20
2.46913748662644
30
0
41
1
10
76.2867063588497
20
2.51093479250585
30
0
0
SPLINE
5
143
100
AcDbEntity
8
1
62
256
6
ByLayer
370
-1
48
1
60
0
100
AcDbSpline
70
4
71
3
72
8
73
4
40
0
40
0
40
0
40
0
40
1
40
1
40
1
40
1
41
1
10
25.0258819045102
20
9.43792153942218
30
0
41
1
10
24.9817295448526
20
9.42387022027293
30
0
41
1
10
24.9397289779691
20
9.40662468541348
30
0
41
1
10
24.9
20
9.38591780916758
30
0
0
SPLINE
5
144
100
AcDbEntity
8
1
62
256
6
ByLayer
370
-1
48
1
60
0
100
AcDbSpline
70
4
71
3
72
9
73
5
40
0
40
0
40
0
40
0
40
0.422169503741217
40
1
40
1
40
1
40
1
41
1
10
67.2862012968038
20
2.80713633858122
30
0
41
1
10
67.2342105984027
20
2.80414369018536
30
0
41
1
10
67.1110447814421
20
2.79697201239594
30
0
41
1
10
66.9878504631586
20
2.78960413026348
30
0
41
1
10
66.9166611145735
20
2.7852819224041
30
0
0
SPLINE
5
145
100
AcDbEntity
8
1
62
256
6
ByLayer
370
-1
48
1
60
0
100
AcDbSpline
70
4
71
3
72
8
73
4
40
0
40
0
40
0
40
0
40
1
40
1
40
1
40
1
41
1
10
26.5
20
8.98187148615085
30
0
41
1
10
26.3320183044359
20
8.94758476421578
30
0
41
1
10
26.170612117115
20
8.90462592712007
30
0
41
1
10
26.0157853790298
20
8.85228572080072
30
0
0
SPLINE
5
146
100
AcDbEntity
8
1
62
256
6
ByLayer
370
-1
48
1
60
0
100
AcDbSpline
70
4
71
3
72
8
73
4
40
0
40
0
40
0
40
0
40
1
40
1
40
1
40
1
41
1
10
28.2428131484921
20
-0.871509076854977
30
0
41
1
10
28.2428131484921
20
-1.89699859161345
30
0
41
1
10
28.2428131484921
20
-2.92248810637193
30
0
41
1
10
28.2428131484921
20
-3.94797762113038
30
0
0
SPLINE
5
147
100
AcDbEntity
8
1
62
256
6
ByLayer
370
-1
48
1
60
0
100
AcDbSpline
70
4
71
3
72
20
73
16
40
0
40
0
40
0
40
0
40
0.125
40
0.125
40
0.25
40
0.25
40
0.375000000000001
40
0.375000000000001
40
0.500000000000001
40
0.500000000000001
40
0.625000000000001
40
0.625000000000001
40
0.750000000000001
40
0.750000000000001
40
1
40
1
40
1
40
1
41
1
10
76.5553590354313
20
0.272702892221275
30
0
41
1
10
76.5058001778465
20
0.265753238657851
30
0
41
1
10
76.4585335873936
20
0.258573993292487
30
0
41
1
10
76.3699890477627
20
0.242729586890079
30
0
41
1
10
76.3284346743435
20
0.23396668793518
30
0
41
1
10
76.2575984605377
20
0.214391823085776
30
0
41
1
10
76.2274467464525
20
0.203273980133673
30
0
41
1
10
76.1847452819102
20
0.178801161867852
30
0
41
1
10
76.171849715086
20
0.165149379596414
30
0
41
1
10
76.165605827263
20
0.136954987919751
30
0
41
1
10
76.1720942024772
20
0.122136083742276
30
0
41
1
10
76.2009806320703
20
0.0935183397297976
30
0
41
1
10
76.2235106329855
20
0.0794772855522865
30
0
41
1
10
76.3064479803137
20
0.0410177342959628
30
0
41
1
10
76.3826802518079
20
0.019606874138475
30
0
41
1
10
76.4679299742889
20
0.0039134173160846
30
0
0
SPLINE
5
148
100
AcDbEntity
8
1
62
256
6
ByLayer
370
-1
48
1
60
0
100
AcDbSpline
70
4
71
3
72
18
73
14
40
0
40
0
40
0
40
0
40
0.125000000000001
40
0.125000000000001
40
0.250000000000003
40
0.250000000000003
40
0.500000000000005
40
0.500000000000005
40
0.750000000000007
40
0.750000000000007
40
0.875000000000003
40
0.875000000000003
40
1
40
1
40
1
40
1
41
1
10
25.2430447179986
20
8.95087524270488
30
0
41
1
10
25.2559613674485
20
8.92061114250473
30
0
41
1
10
25.2727115939246
20
8.89577908235873
30
0
41
1
10
25.3125475317595
20
8.85396466184781
30
0
41
1
10
25.335912174119
20
8.83689593785545
30
0
41
1
10
25.4130267478219
20
8.79616574680372
30
0
41
1
10
25.4730572386309
20
8.78233305405541
30
0
41
1
10
25.6091774029404
20
8.77244843860871
30
0
41
1
10
25.6828905667587
20
8.77673077811971
30
0
41
1
10
25.8027850365
20
8.79550564807656
30
0
41
1
10
25.844234100799
20
8.80390329663012
30
0
41
1
10
25.9285735274874
20
8.82482453555289
30
0
41
1
10
25.9716808468317
20
8.83737589098772
30
0
41
1
10
26.0157853790283
20
8.85228572079703
30
0
0
SPLINE
5
149
100
AcDbEntity
8
1
62
256
6
ByLayer
370
-1
48
1
60
0
100
AcDbSpline
70
4
71
3
72
20
73
16
40
0
40
0
40
0
40
0
40
0.25
40
0.25
40
0.375
40
0.375
40
0.5
40
0.5
40
0.625
40
0.625
40
0.75
40
0.75
40
0.875
40
0.875
40
1
40
1
40
1
40
1
41
1
10
24.9
20
9.38591780916758
30
0
41
1
10
24.7654362784878
20
9.23054714487023
30
0
41
1
10
24.6654247090253
20
9.06196279618484
30
0
41
1
10
24.5646297425207
20
8.78752630007824
30
0
41
1
10
24.5393431345082
20
8.69183161050637
30
0
41
1
10
24.5067823178273
20
8.49826430516444
30
0
41
1
10
24.4992163416745
20
8.39988737205402
30
0
41
1
10
24.5009111027231
20
8.19993200236826
30
0
41
1
10
24.5101729007287
20
8.09834997614402
30
0
41
1
10
24.5457835834745
20
7.89195885938574
30
0
41
1
10
24.571755594326
20
7.78930686110243
30
0
41
1
10
24.6391291453441
20
7.58515908964037
30
0
41
1
10
24.6805338498991
20
7.48366313318769
30
0
41
1
10
24.7787358773656
20
7.28206963674307
30
0
41
1
10
24.8357860100599
20
7.1816361586333
30
0
41
1
10
24.9
20
7.08344948043603
30
0
0
SPLINE
5
14A
100
AcDbEntity
8
1
62
256
6
ByLayer
370
-1
48
1
60
0
100
AcDbSpline
70
4
71
3
72
14
73
10
40
0
40
0
40
0
40
0
40
0.25
40
0.25
40
0.5
40
0.5
40
0.75
40
0.75
40
1
40
1
40
1
40
1
41
1
10
9.33660254037844
20
-6.16973001948566
30
0
41
1
10
9.3272118604348
20
-6.13568757087461
30
0
41
1
10
9.31597445228965
20
-6.10231901184943
30
0
41
1
10
9.28852371889982
20
-6.03742672607427
30
0
41
1
10
9.27226224655607
20
-6.00567161829602
30
0
41
1
10
9.2321489951247
20
-5.94614793734937
30
0
41
1
10
9.20824291947471
20
-5.91826181931594
30
0
41
1
10
9.15016936613478
20
-5.87512340989323
30
0
41
1
10
9.11431735240402
20
-5.85988980456932
30
0
41
1
10
9.07679491924313
20
-5.85988980456932
30
0
0
SPLINE
5
14B
100
AcDbEntity
8
1
62
256
6
ByLayer
370
-1
48
1
60
0
100
AcDbSpline
70
4
71
3
72
8
73
4
40
0
40
0
40
0
40
0
40
1
40
1
40
1
40
1
41
1
10
28.1631452561168
20
6.76149365513848
30
0
41
1
10
29.4260656871208
20
5.19907436629214
30
0
41
1
10
30.6560547565176
20
3.63640002979568
30
0
41
1
10
31.8631452561144
20
2.08739841128019
30
0
0
SPLINE
5
14C
100
AcDbEntity
8
1
62
256
6
ByLayer
370
-1
48
1
60
0
100
AcDbSpline
70
4
71
1
72
4
73
2
40
0
40
0
40
1
40
1
41
1
10
31.8631452561144
20
2.08739841128019
30
0
41
1
10
31.8631452561145
20
3.96806238120294
30
0
0
SPLINE
5
14D
100
AcDbEntity
8
1
62
256
6
ByLayer
370
-1
48
1
60
0
100
AcDbSpline
70
4
71
3
72
16
73
12
40
0
40
0
40
0
40
0
40
0.25
40
0.25
40
0.5
40
0.5
40
0.75
40
0.75
40
0.875
40
0.875
40
1
40
1
40
1
40
1
41
1
10
26.8710828091393
20
3.36194476001234
30
0
41
1
10
26.9852446820211
20
2.96045432183169
30
0
41
1
10
27.0994255170751
20
2.56757191212378
30
0
41
1
10
27.328123215522
20
1.80130299315468
30
0
41
1
10
27.4426769933113
20
1.42772463143092
30
0
41
1
10
27.6723938360789
20
0.70549113884627
30
0
41
1
10
27.7868783682411
20
0.358760431560086
30
0
41
1
10
27.9581624039504
20
-0.130819613934818
30
0
41
1
10
28.0151834475223
20
-0.288878007036487
30
0
41
1
10
28.1290942604556
20
-0.591595752229836
30
0
41
1
10
28.1859847256389
20
-0.7363532229528
30
0
41
1
10
28.2428131484921
20
-0.871509076855006
30
0
0
SPLINE
5
14E
100
AcDbEntity
8
1
62
256
6
ByLayer
370
-1
48
1
60
0
100
AcDbSpline
70
4
71
3
72
8
73
4
40
0
40
0
40
0
40
0
40
1
40
1
40
1
40
1
41
1
10
74.7383045871423
20
0.388928939587316
30
0
41
1
10
74.5829500606261
20
0.428197768559414
30
0
41
1
10
74.4315155069128
20
0.47271916178525
30
0
41
1
10
74.2830422146409
20
0.523573797092212
30
0
0
SPLINE
5
14F
100
AcDbEntity
8
1
62
256
6
ByLayer
370
-1
48
1
60
0
100
AcDbSpline
70
4
71
3
72
20
73
16
40
0
40
0
40
0
40
0
40
0.25
40
0.25
40
0.375
40
0.375
40
0.5
40
0.5
40
0.625
40
0.625
40
0.75
40
0.75
40
0.875
40
0.875
40
1
40
1
40
1
40
1
41
1
10
28.1631452561147
20
7.90024337524676
30
0
41
1
10
28.0858509079963
20
8.05652115636082
30
0
41
1
10
28.0014562450059
20
8.20901101805615
30
0
41
1
10
27.8513583044445
20
8.42535085344176
30
0
41
1
10
27.7969924505184
20
8.49571183849471
30
0
41
1
10
27.6787191154411
20
8.62779926696805
30
0
41
1
10
27.6148808964793
20
8.68955233968083
30
0
41
1
10
27.474789758114
20
8.80114589387907
30
0
41
1
10
27.3975734607262
20
8.85131368747946
30
0
41
1
10
27.2344240071208
20
8.93184489907736
30
0
41
1
10
27.1481539531457
20
8.9627010074795
30
0
41
1
10
26.9661015919829
20
9.00351356397752
30
0
41
1
10
26.8732693259063
20
9.01276706351186
30
0
41
1
10
26.686900585089
20
9.01143708365657
30
0
41
1
10
26.5926052038424
20
9.00077312220844
30
0
41
1
10
26.5
20
8.98187148615085
30
0
0
SPLINE
5
150
100
AcDbEntity
8
1
62
256
6
ByLayer
370
-1
48
1
60
0
100
AcDbSpline
70
4
71
3
72
12
73
8
40
0
40
0
40
0
40
0
40
0.170469250005899
40
0.170469250005899
40
0.58523462500295
40
0.58523462500295
40
1
40
1
40
1
40
1
41
1
10
79.947895329958
20
4.2790447461847
30
0
41
1
10
79.921044530601
20
4.27906124996667
30
0
41
1
10
79.8943109403515
20
4.27800495507955
30
0
41
1
10
79.8029358282341
20
4.27067779906122
30
0
41
1
10
79.7383500194742
20
4.2588051058656
30
0
41
1
10
79.6181809657072
20
4.22407083151583
30
0
41
1
10
79.5612089963496
20
4.20099926355508
30
0
41
1
10
79.5086274531661
20
4.17354574940586
30
0
0
SPLINE
5
151
100
AcDbEntity
8
1
62
256
6
ByLayer
370
-1
48
1
60
0
100
AcDbSpline
70
4
71
3
72
34
73
30
40
0
40
0
40
0
40
0
40
0.035486202666911
40
0.035486202666911
40
0.123169275151738
40
0.123169275151738
40
0.210852347636564
40
0.210852347636564
40
0.29853542012139
40
0.29853542012139
40
0.386218492606217
40
0.386218492606217
40
0.473901565091043
40
0.473901565091043
40
0.56158463757587
40
0.56158463757587
40
0.605426173818283
40
0.605426173818283
40
0.649267710060696
40
0.649267710060696
40
0.693109246303109
40
0.693109246303109
40
0.736950782545522
40
0.736950782545522
40
0.824633855030348
40
0.824633855030348
40
0.912316927515174
40
0.912316927515174
40
1
40
1
40
1
40
1
41
1
10
60.6136189868423
20
-4.0982451261842
30
0
41
1
10
60.2650559053958
20
-4.15901590584846
30
0
41
1
10
59.9165219302215
20
-4.21759634404447
30
0
41
1
10
58.7071680582707
20
-4.41319115851991
30
0
41
1
10
57.8464426676364
20
-4.53910499959903
30
0
41
1
10
56.1243136914867
20
-4.76181490441132
30
0
41
1
10
55.2625673649468
20
-4.8582657900717
30
0
41
1
10
53.5404414047222
20
-5.01858435294534
30
0
41
1
10
52.6797292580139
20
-5.08278558063995
30
0
41
1
10
50.9578124533652
20
-5.17608901252672
30
0
41
1
10
50.0961231186583
20
-5.20493582925329
30
0
41
1
10
48.373818398525
20
-5.22606790752369
30
0
41
1
10
47.5132304507149
20
-5.21861889887575
30
0
41
1
10
45.7916920607535
20
-5.16823681433587
30
0
41
1
10
44.9304113529935
20
-5.12540033202393
30
0
41
1
10
43.6382234559672
20
-5.0367626015483
30
0
41
1
10
43.2076170140542
20
-5.00311314398337
30
0
41
1
10
42.3465349465706
20
-4.9266316235751
30
0
41
1
10
41.9160507976744
20
-4.88378139136344
30
0
41
1
10
41.0549330780374
20
-4.79107899396197
30
0
41
1
10
40.6242976539749
20
-4.74141452676815
30
0
41
1
10
39.7627930930705
20
-4.63621348071112
30
0
41
1
10
39.3319288582531
20
-4.58077814400897
30
0
41
1
10
38.0388994363201
20
-4.40369301337901
30
0
41
1
10
37.1777601678981
20
-4.26997935578703
30
0
41
1
10
35.4562254701602
20
-3.97445309292203
30
0
41
1
10
34.5956597449786
20
-3.81423299547942
30
0
41
1
10
32.8738543561722
20
-3.46992064827563
30
0
41
1
10
32.0126024823862
20
-3.28578059428116
30
0
41
1
10
31.1503986556831
20
-3.09115760961728
30
0
0
SPLINE
5
152
100
AcDbEntity
8
1
62
256
6
ByLayer
370
-1
48
1
60
0
100
AcDbSpline
70
4
71
3
72
14
73
10
40
0
40
0
40
0
40
0
40
0.25
40
0.25
40
0.5
40
0.5
40
0.75
40
0.75
40
1
40
1
40
1
40
1
41
1
10
6.66339745962154
20
-19.0245744101322
30
0
41
1
10
6.67278813956517
20
-19.0356144845436
30
0
41
1
10
6.68402554771032
20
-19.0463346141653
30
0
41
1
10
6.71147628110015
20
-19.0670039094876
30
0
41
1
10
6.7277377534439
20
-19.0770249518318
30
0
41
1
10
6.76785100487527
20
-19.0956617404786
30
0
41
1
10
6.79175708052526
20
-19.1043106800553
30
0
41
1
10
6.8498306338652
20
-19.1176210455322
30
0
41
1
10
6.88568264759596
20
-19.1222825906926
30
0
41
1
10
6.92320508075687
20
-19.1222825906926
30
0
0
SPLINE
5
153
100
AcDbEntity
8
1
62
256
6
ByLayer
370
-1
48
1
60
0
100
AcDbSpline
70
4
71
3
72
8
73
4
40
0
40
0
40
0
40
0
40
1
40
1
40
1
40
1
41
1
10
26.0157853790298
20
4.66084450672662
30
0
41
1
10
26.1691792323637
20
4.56946888283017
30
0
41
1
10
26.3303336916863
20
4.49075265767598
30
0
41
1
10
26.5
20
4.42642668225741
30
0
0
SPLINE
5
154
100
AcDbEntity
8
1
62
256
6
ByLayer
370
-1
48
1
60
0
100
AcDbSpline
70
4
71
3
72
52
73
48
40
0
40
0
40
0
40
0
40
0.0625000000000024
40
0.0625000000000024
40
0.125000000000005
40
0.125000000000005
40
0.156250000000006
40
0.156250000000006
40
0.187500000000007
40
0.187500000000007
40
0.250000000000011
40
0.250000000000011
40
0.281250000000014
40
0.281250000000014
40
0.312500000000018
40
0.312500000000018
40
0.37500000000002
40
0.37500000000002
40
0.406250000000024
40
0.406250000000024
40
0.437500000000029
40
0.437500000000029
40
0.468750000000033
40
0.468750000000033
40
0.500000000000037
40
0.500000000000037
40
0.562500000000038
40
0.562500000000038
40
0.625000000000038
40
0.625000000000038
40
0.656250000000035
40
0.656250000000035
40
0.687500000000032
40
0.687500000000032
40
0.718750000000029
40
0.718750000000029
40
0.750000000000025
40
0.750000000000025
40
0.812500000000019
40
0.812500000000019
40
0.843750000000016
40
0.843750000000016
40
0.875000000000012
40
0.875000000000012
40
0.937500000000006
40
0.937500000000006
40
1
40
1
40
1
40
1
41
1
10
78.7369682046613
20
-2.53289465036414
30
0
41
1
10
78.6822723636275
20
-2.45200020653269
30
0
41
1
10
78.639000234056
20
-2.36613315828671
30
0
41
1
10
78.5739891936047
20
-2.18439343064387
30
0
41
1
10
78.5524722890659
20
-2.0876455615857
30
0
41
1
10
78.5391341592798
20
-1.94195148225148
30
0
41
1
10
78.53773751444
20
-1.89301839140197
30
0
41
1
10
78.541294762196
20
-1.79439660824511
30
0
41
1
10
78.5463138120557
20
-1.74435130085209
30
0
41
1
10
78.5713158341999
20
-1.59571963371727
30
0
41
1
10
78.6006737760074
20
-1.49975578060201
30
0
41
1
10
78.6647826360489
20
-1.36107784482027
30
0
41
1
10
78.6897775144074
20
-1.31543973550117
30
0
41
1
10
78.7453316749328
20
-1.2289408709039
30
0
41
1
10
78.7759670724946
20
-1.18779491615834
30
0
41
1
10
78.8764726334251
20
-1.07077969939834
30
0
41
1
10
78.9562708794459
20
-1.00059728430955
30
0
41
1
10
79.0867078003648
20
-0.915578082451447
30
0
41
1
10
79.1321409002518
20
-0.890346971859231
30
0
41
1
10
79.2269967345935
20
-0.846275396421362
30
0
41
1
10
79.2766428745279
20
-0.82743207134007
30
0
41
1
10
79.3767761425178
20
-0.797490364665919
30
0
41
1
10
79.4276283337271
20
-0.786186733811775
30
0
41
1
10
79.5308959625892
20
-0.770895782999048
30
0
41
1
10
79.5837276915629
20
-0.766917521873921
30
0
41
1
10
79.7414505118217
20
-0.766560342356229
30
0
41
1
10
79.844638404878
20
-0.781247010935004
30
0
41
1
10
80.0470470022751
20
-0.840721016367525
30
0
41
1
10
80.141922981741
20
-0.884338833120438
30
0
41
1
10
80.2736366715025
20
-0.969258893718347
30
0
41
1
10
80.3158790237452
20
-1.00102278759721
30
0
41
1
10
80.3942310834162
20
-1.06914107122225
30
0
41
1
10
80.4307136298833
20
-1.10570716427603
30
0
41
1
10
80.4983773117862
20
-1.18371348737438
30
0
41
1
10
80.5297662961231
20
-1.2255021048214
30
0
41
1
10
80.5858541892099
20
-1.31214518798231
30
0
41
1
10
80.6105631134573
20
-1.35688428233615
30
0
41
1
10
80.6751572741491
20
-1.49505506169967
30
0
41
1
10
80.705614208396
20
-1.59361954569994
30
0
41
1
10
80.7308208708981
20
-1.74124884277802
30
0
41
1
10
80.7359504616153
20
-1.79065281973726
30
0
41
1
10
80.7398271945584
20
-1.88980824946529
30
0
41
1
10
80.7385216440634
20
-1.93978516990751
30
0
41
1
10
80.7253110283497
20
-2.08660168648208
30
0
41
1
10
80.7044267355108
20
-2.18141444923174
30
0
41
1
10
80.6390338383915
20
-2.36524712643379
30
0
41
1
10
80.5952892124252
20
-2.45196185147375
30
0
41
1
10
80.5405674380627
20
-2.53289465036411
30
0
0
SPLINE
5
155
100
AcDbEntity
8
1
62
256
6
ByLayer
370
-1
48
1
60
0
100
AcDbSpline
70
4
71
3
72
10
73
6
40
0
40
0
40
0
40
0
40
0.5
40
0.5
40
1
40
1
40
1
40
1
41
1
10
76.6358663229939
20
0.520212258869577
30
0
41
1
10
76.6052913575194
20
0.506027988709491
30
0
41
1
10
76.5711539776806
20
0.49251148163404
30
0
41
1
10
76.4963310619356
20
0.467100301508452
30
0
41
1
10
76.4555292032275
20
0.455203675645606
30
0
41
1
10
76.4128248873084
20
0.444553316056442
30
0
0
SPLINE
5
156
100
AcDbEntity
8
1
62
256
6
ByLayer
370
-1
48
1
60
0
100
AcDbSpline
70
4
71
3
72
20
73
16
40
0
40
0
40
0
40
0
40
0.161478520299858
40
0.161478520299858
40
0.322957040599715
40
0.322957040599715
40
0.484435560899573
40
0.484435560899573
40
0.64591408119943
40
0.64591408119943
40
0.807392601499287
40
0.807392601499287
40
0.968871121799145
40
0.968871121799145
40
1
40
1
40
1
40
1
41
1
10
31.8631452561172
20
2.08739841127954
30
0
41
1
10
31.6121960343908
20
2.00294159383844
30
0
41
1
10
31.3502103594197
20
1.88310318214801
30
0
41
1
10
30.8298280757959
20
1.58440156040163
30
0
41
1
10
30.5715167762426
20
1.40558731812797
30
0
41
1
10
30.0839559227139
20
1.00654715065869
30
0
41
1
10
29.8547862972423
20
0.786386642289187
30
0
41
1
10
29.4481162300278
20
0.326349898036398
30
0
41
1
10
29.270682455922
20
0.0865490784799761
30
0
41
1
10
28.9849973872274
20
-0.389128529576027
30
0
41
1
10
28.8767929265467
20
-0.624927337656828
30
0
41
1
10
28.740258976015
20
-1.06934804030163
30
0
41
1
10
28.7119518689176
20
-1.27789707856144
30
0
41
1
10
28.7275046024554
20
-1.49817126178777
30
0
41
1
10
28.7315545526557
20
-1.53288210180028
30
0
41
1
10
28.7371217669539
20
-1.56664704932172
30
0
0
SPLINE
5
157
100
AcDbEntity
8
1
62
256
6
ByLayer
370
-1
48
1
60
0
100
AcDbSpline
70
4
71
3
72
12
73
8
40
0
40
0
40
0
40
0
40
0.25
40
0.25
40
0.5
40
0.5
40
1
40
1
40
1
40
1
41
1
10
76.3336669128495
20
0.944240078710038
30
0
41
1
10
76.3749541455602
20
0.930816330856572
30
0
41
1
10
76.4146190219638
20
0.917583553316092
30
0
41
1
10
76.4902088357821
20
0.89114614270639
30
0
41
1
10
76.5261448304692
20
0.877925309003189
30
0
41
1
10
76.6251349121168
20
0.838577041730673
30
0
41
1
10
76.6803851291564
20
0.812497053508508
30
0
41
1
10
76.7219492668088
20
0.784863268087435
30
0
0
SPLINE
5
158
100
AcDbEntity
8
1
62
256
6
ByLayer
370
-1
48
1
60
0
100
AcDbSpline
70
4
71
3
72
8
73
4
40
0
40
0
40
0
40
0
40
1
40
1
40
1
40
1
41
1
10
76.4128248873045
20
0.444553316055817
30
0
41
1
10
76.1108215380856
20
0.369234365335018
30
0
41
1
10
75.7950241504977
20
0.320534742725897
30
0
41
1
10
75.4693736253687
20
0.30519661065361
30
0
0
SPLINE
5
159
100
AcDbEntity
8
1
62
256
6
ByLayer
370
-1
48
1
60
0
100
AcDbSpline
70
4
71
3
72
10
73
6
40
0
40
0
40
0
40
0
40
0.5
40
0.5
40
1
40
1
40
1
40
1
41
1
10
73.6593335872189
20
2.2451664721419
30
0
41
1
10
73.7515885387317
20
2.13952978156587
30
0
41
1
10
73.8405932239459
20
2.03613234284794
30
0
41
1
10
74.0210796356899
20
1.84215635504782
30
0
41
1
10
74.1103922598284
20
1.75356356600005
30
0
41
1
10
74.2015292379021
20
1.67621964557688
30
0
0
SPLINE
5
15A
100
AcDbEntity
8
1
62
256
6
ByLayer
370
-1
48
1
60
0
100
AcDbSpline
70
4
71
3
72
10
73
6
40
0
40
0
40
0
40
0
40
0.5
40
0.5
40
1
40
1
40
1
40
1
41
1
10
75.5943584913044
20
1.06424958785041
30
0
41
1
10
75.72075894226
20
1.03353537634845
30
0
41
1
10
75.8462862692188
20
1.00832204758657
30
0
41
1
10
76.0949527371762
20
0.968332503052125
30
0
41
1
10
76.2167224566777
20
0.953824515853654
30
0
41
1
10
76.3336669128479
20
0.944240078708589
30
0
0
SPLINE
5
15B
100
AcDbEntity
8
1
62
256
6
ByLayer
370
-1
48
1
60
0
100
AcDbSpline
70
4
71
3
72
14
73
10
40
0
40
0
40
0
40
0
40
0.25
40
0.25
40
0.5
40
0.5
40
0.75
40
0.75
40
1
40
1
40
1
40
1
41
1
10
6.9232050807569
20
-5.85988980456935
30
0
41
1
10
6.88563301332894
20
-5.85988980456935
30
0
41
1
10
6.85031272404197
20
-5.87477627667434
30
0
41
1
10
6.79136513419888
20
-5.91854200832057
30
0
41
1
10
6.76786471768483
20
-5.9461298781217
30
0
41
1
10
6.72774154010148
20
-6.00566371121201
30
0
41
1
10
6.71161954962216
20
-6.03712755983022
30
0
41
1
10
6.6841154605244
20
-6.10206728171732
30
0
41
1
10
6.67279157843186
20
-6.13567510453112
30
0
41
1
10
6.66339745962154
20
-6.16973001948566
30
0
0
SPLINE
5
15C
100
AcDbEntity
8
1
62
256
6
ByLayer
370
-1
48
1
60
0
100
AcDbSpline
70
4
71
3
72
18
73
14
40
0
40
0
40
0
40
0
40
0.190938531132909
40
0.190938531132909
40
0.292071214741295
40
0.292071214741295
40
0.393203898349682
40
0.393203898349682
40
0.595469265566455
40
0.595469265566455
40
0.797734632783228
40
0.797734632783228
40
1
40
1
40
1
40
1
41
1
10
47.4359357778859
20
5.72498034330067
30
0
41
1
10
49.023386394313
20
5.72373116923208
30
0
41
1
10
50.6101757585854
20
5.65870092119084
30
0
41
1
10
53.043130322697
20
5.46383102911756
30
0
41
1
10
53.8875130094686
20
5.37870674896803
30
0
41
1
10
55.5695836498571
20
5.17580360118151
30
0
41
1
10
56.4083156746655
20
5.05798171768072
30
0
41
1
10
58.9196210144694
20
4.65912452079445
30
0
41
1
10
60.5873811649033
20
4.33273267519004
30
0
41
1
10
63.9202237312959
20
3.58185075489104
30
0
41
1
10
65.5850629903245
20
3.15674244382086
30
0
41
1
10
68.9222006365169
20
2.2345963304256
30
0
41
1
10
70.5946403001898
20
1.73791906025841
30
0
41
1
10
72.2764840424238
20
1.22295029995576
30
0
0
SPLINE
5
15D
100
AcDbEntity
8
1
62
256
6
ByLayer
370
-1
48
1
60
0
100
AcDbSpline
70
4
71
3
72
12
73
8
40
0
40
0
40
0
40
0
40
0.499999999999998
40
0.499999999999998
40
0.749999999999999
40
0.749999999999999
40
1
40
1
40
1
40
1
41
1
10
28.2428131484921
20
-0.871509076855034
30
0
41
1
10
28.3808022461362
20
-1.08479392181121
30
0
41
1
10
28.538121440045
20
-1.30564855642564
30
0
41
1
10
28.7982664095296
20
-1.64755048936081
30
0
41
1
10
28.8895081400564
20
-1.76365546589596
30
0
41
1
10
29.0775279033616
20
-1.99459994420928
30
0
41
1
10
29.1743524794727
20
-2.10952968940055
30
0
41
1
10
29.2741452490219
20
-2.2233958626305
30
0
0
SPLINE
5
15E
100
AcDbEntity
8
1
62
256
6
ByLayer
370
-1
48
1
60
0
100
AcDbSpline
70
4
71
3
72
8
73
4
40
0
40
0
40
0
40
0
40
1
40
1
40
1
40
1
41
1
10
74.2015292379011
20
1.67621964557688
30
0
41
1
10
74.3483552436807
20
1.57259079099163
30
0
41
1
10
74.5043895163458
20
1.481456299743
30
0
41
1
10
74.6671468507924
20
1.39834991086363
30
0
0
SPLINE
5
15F
100
AcDbEntity
8
1
62
256
6
ByLayer
370
-1
48
1
60
0
100
AcDbSpline
70
4
71
3
72
22
73
18
40
0
40
0
40
0
40
0
40
0.125
40
0.125
40
0.25
40
0.25
40
0.375
40
0.375
40
0.5
40
0.5
40
0.625
40
0.625
40
0.75
40
0.75
40
0.875
40
0.875
40
1
40
1
40
1
40
1
41
1
10
76.6089477106918
20
0.931608633941011
30
0
41
1
10
76.614088072554
20
0.931608633941011
30
0
41
1
10
76.6102193962265
20
0.938445950422391
30
0
41
1
10
76.5887011399424
20
0.963987874771107
30
0
41
1
10
76.5717120958446
20
0.982141968473115
30
0
41
1
10
76.5308815511061
20
1.02777072367019
30
0
41
1
10
76.5073974465454
20
1.0548783244536
30
0
41
1
10
76.4587585708276
20
1.1160271836824
30
0
41
1
10
76.4333693414661
20
1.15030321844776
30
0
41
1
10
76.3826931953072
20
1.22642604301623
30
0
41
1
10
76.3579607651338
20
1.26742203826006
30
0
41
1
10
76.3109529239562
20
1.35565868140716
30
0
41
1
10
76.2885314142673
20
1.4032183150176
30
0
41
1
10
76.2477826758586
20
1.5042696323942
30
0
41
1
10
76.2297794647825
20
1.55686942794412
30
0
41
1
10
76.1991116856653
20
1.66665465012511
30
0
41
1
10
76.1864169682029
20
1.72444693882511
30
0
41
1
10
76.1772022567744
20
1.78178258061456
30
0
0
SPLINE
5
160
100
AcDbEntity
8
1
62
256
6
ByLayer
370
-1
48
1
60
0
100
AcDbSpline
70
4
71
3
72
8
73
4
40
0
40
0
40
0
40
0
40
1
40
1
40
1
40
1
41
1
10
24.9
20
7.08344948043603
30
0
41
1
10
24.9399385344317
20
6.99552732393883
30
0
41
1
10
24.9819576823446
20
6.90789329808186
30
0
41
1
10
25.0258819045102
20
6.82052825087607
30
0
0
SPLINE
5
161
100
AcDbEntity
8
1
62
256
6
ByLayer
370
-1
48
1
60
0
100
AcDbSpline
70
4
71
4
72
13
73
8
40
0
40
0
40
0
40
0
40
0
40
0.728575383834712
40
0.728575383834712
40
0.728575383834712
40
1
40
1
40
1
40
1
40
1
41
1
10
31.8631452561172
20
2.08739841127951
30
0
41
1
10
31.8631452561171
20
1.35599473967238
30
0
41
0.942809041582063
10
31.7459166292396
20
0.0098060161158228
30
0
41
1
10
31.4344572537577
20
-1.35107968601696
30
0
41
1
10
31.1126549269742
20
-2.37931164489325
30
0
41
0.992062625862933
10
31.0175075774238
20
-2.63509427854651
30
0
41
0.985058883017947
10
30.9239601366636
20
-2.82059940743377
30
0
41
0.981250140343107
10
30.8393597940373
20
-2.91988815574023
30
0
0
SPLINE
5
162
100
AcDbEntity
8
1
62
256
6
ByLayer
370
-1
48
1
60
0
100
AcDbSpline
70
4
71
4
72
10
73
5
40
0
40
0
40
0
40
0
40
0
40
1
40
1
40
1
40
1
40
1
41
0.979072285649137
10
30.7758072816359
20
-2.97702094229177
30
0
41
0.978717128842051
10
30.7597935354005
20
-2.98661550623424
30
0
41
0.978521009898232
10
30.7443163524684
20
-2.99234738968053
30
0
41
0.978492230315249
10
30.7294351010462
20
-2.99415792409548
30
0
41
0.978627657690317
10
30.7151979365468
20
-2.99206149561323
30
0
0
SPLINE
5
163
100
AcDbEntity
8
1
62
256
6
ByLayer
370
-1
48
1
60
0
100
AcDbSpline
70
4
71
3
72
8
73
4
40
0
40
0
40
0
40
0
40
1
40
1
40
1
40
1
41
1
10
76.3842015050024
20
2.7032776250239
30
0
41
1
10
76.4144057483452
20
2.76294050754714
30
0
41
1
10
76.4482159181184
20
2.81875056605801
30
0
41
1
10
76.4856675575384
20
2.87203299024213
30
0
0
SPLINE
5
164
100
AcDbEntity
8
1
62
256
6
ByLayer
370
-1
48
1
60
0
100
AcDbSpline
70
4
71
3
72
8
73
4
40
0
40
0
40
0
40
0
40
1
40
1
40
1
40
1
41
1
10
73.6593335872188
20
2.24516647214199
30
0
41
1
10
73.6528588538382
20
2.24785209974829
30
0
41
1
10
73.6463243150799
20
2.25044717583742
30
0
41
1
10
73.6397281305211
20
2.25294849182765
30
0
0
SPLINE
5
165
100
AcDbEntity
8
1
62
256
6
ByLayer
370
-1
48
1
60
0
100
AcDbSpline
70
4
71
3
72
14
73
10
40
0
40
0
40
0
40
0
40
0.25
40
0.25
40
0.5
40
0.5
40
0.75
40
0.75
40
1
40
1
40
1
40
1
41
1
10
6.66339745962156
20
6.16973001948566
30
0
41
1
10
6.6727881395652
20
6.13568757087461
30
0
41
1
10
6.68402554771035
20
6.10231901184943
30
0
41
1
10
6.71147628110018
20
6.03742672607427
30
0
41
1
10
6.72773775344393
20
6.00567161829602
30
0
41
1
10
6.7678510048753
20
5.94614793734937
30
0
41
1
10
6.79175708052529
20
5.91826181931594
30
0
41
1
10
6.84983063386522
20
5.87512340989323
30
0
41
1
10
6.88568264759598
20
5.85988980456932
30
0
41
1
10
6.9232050807569
20
5.85988980456932
30
0
0
SPLINE
5
166
100
AcDbEntity
8
1
62
256
6
ByLayer
370
-1
48
1
60
0
100
AcDbSpline
70
4
71
3
72
16
73
12
40
0
40
0
40
0
40
0
40
0.249999999999999
40
0.249999999999999
40
0.499999999999998
40
0.499999999999998
40
0.749999999999997
40
0.749999999999997
40
0.874999999999998
40
0.874999999999998
40
1
40
1
40
1
40
1
41
1
10
76.635866322994
20
0.520212258869577
30
0
41
1
10
76.6805102608342
20
0.5409233754811
30
0
41
1
10
76.7163032584105
20
0.562571668913733
30
0
41
1
10
76.7692281267464
20
0.606842283935947
30
0
41
1
10
76.786652690337
20
0.629892240106045
30
0
41
1
10
76.8013886892176
20
0.675434194449252
30
0
41
1
10
76.7990622647089
20
0.697988189210037
30
0
41
1
10
76.7808226317671
20
0.731489044176755
30
0
41
1
10
76.7722325822523
20
0.742582452760672
30
0
41
1
10
76.7505195393102
20
0.764109358369524
30
0
41
1
10
76.737365520151
20
0.774613820825579
30
0
41
1
10
76.7219492668088
20
0.784863268087435
30
0
0
SPLINE
5
167
100
AcDbEntity
8
1
62
256
6
ByLayer
370
-1
48
1
60
0
100
AcDbSpline
70
4
71
3
72
14
73
10
40
0
40
0
40
0
40
0
40
0.25
40
0.25
40
0.5
40
0.5
40
0.75
40
0.75
40
1
40
1
40
1
40
1
41
1
10
9.07679491924313
20
5.85988980456935
30
0
41
1
10
9.11436698667106
20
5.85988980456935
30
0
41
1
10
9.14968727595806
20
5.87477627667434
30
0
41
1
10
9.20863486580112
20
5.91854200832057
30
0
41
1
10
9.2321352823152
20
5.9461298781217
30
0
41
1
10
9.27225845989852
20
6.00566371121198
30
0
41
1
10
9.28838045037784
20
6.0371275598302
30
0
41
1
10
9.3158845394756
20
6.1020672817173
30
0
41
1
10
9.32720842156817
20
6.13567510453112
30
0
41
1
10
9.33660254037846
20
6.16973001948566
30
0
0
SPLINE
5
168
100
AcDbEntity
8
1
62
256
6
ByLayer
370
-1
48
1
60
0
100
AcDbSpline
70
4
71
3
72
8
73
4
40
0
40
0
40
0
40
0
40
1
40
1
40
1
40
1
41
1
10
30.6942282690558
20
-2.98554309352781
30
0
41
1
10
30.8431616856289
20
-3.02151870187831
30
0
41
1
10
30.9951727455983
20
-3.05623376392259
30
0
41
1
10
31.1503986558409
20
-3.09115760965281
30
0
0
SPLINE
5
169
100
AcDbEntity
8
1
62
256
6
ByLayer
370
-1
48
1
60
0
100
AcDbSpline
70
4
71
3
72
14
73
10
40
0
40
0
40
0
40
0
40
0.25
40
0.25
40
0.5
40
0.5
40
0.75
40
0.75
40
1
40
1
40
1
40
1
41
1
10
9.33660254037846
20
19.0245744101322
30
0
41
1
10
9.32721186043483
20
19.0356144845436
30
0
41
1
10
9.31597445228968
20
19.0463346141653
30
0
41
1
10
9.28852371889985
20
19.0670039094876
30
0
41
1
10
9.2722622465561
20
19.0770249518318
30
0
41
1
10
9.23214899512473
20
19.0956617404786
30
0
41
1
10
9.20824291947474
20
19.1043106800553
30
0
41
1
10
9.1501693661348
20
19.1176210455322
30
0
41
1
10
9.11431735240404
20
19.1222825906926
30
0
41
1
10
9.07679491924316
20
19.1222825906926
30
0
0
SPLINE
5
16A
100
AcDbEntity
8
1
62
256
6
ByLayer
370
-1
48
1
60
0
100
AcDbSpline
70
4
71
3
72
24
73
20
40
0
40
0
40
0
40
0
40
0.0914662024922783
40
0.182932404984557
40
0.274398607476835
40
0.320131708722974
40
0.365864809969113
40
0.411597911215252
40
0.457331012461391
40
0.54879721495367
40
0.594530316199809
40
0.640263417445948
40
0.685996518692087
40
0.731729619938226
40
0.823195822430504
40
0.868928923676644
40
0.914662024922783
40
0.960395126168922
40
1
40
1
40
1
40
1
41
1
10
28.1631452561168
20
6.76149365513848
30
0
41
1
10
28.0927958048475
20
6.72871392095939
30
0
41
1
10
27.947778168206
20
6.65758501319218
30
0
41
1
10
27.7190652472957
20
6.53390554327467
30
0
41
1
10
27.5211144737434
20
6.41684674848489
30
0
41
1
10
27.3598037627829
20
6.31517498263844
30
0
41
1
10
27.2377736041379
20
6.2350746609815
30
0
41
1
10
27.1151242407033
20
6.15129370978758
30
0
41
1
10
26.9513991034521
20
6.03499726607274
30
0
41
1
10
26.7883344177656
20
5.91229655506299
30
0
41
1
10
26.6279306832537
20
5.78441729317703
30
0
41
1
10
26.5094586618956
20
5.68628039580028
30
0
41
1
10
26.3933177240018
20
5.58627787193711
30
0
41
1
10
26.2422025449955
20
5.4509866814692
30
0
41
1
10
26.0976434136173
20
5.31356326802307
30
0
41
1
10
25.9613235367461
20
5.17567517902742
30
0
41
1
10
25.8635500581229
20
5.0724385224807
30
0
41
1
10
25.7747420291854
20
4.97437785027054
30
0
41
1
10
25.7198633839185
20
4.91109904441848
30
0
41
1
10
25.6950561734496
20
4.88189547780237
30
0
0
SPLINE
5
16B
100
AcDbEntity
8
1
62
256
6
ByLayer
370
-1
48
1
60
0
100
AcDbSpline
70
4
71
3
72
26
73
22
40
0
40
0
40
0
40
0
40
0.124999999999997
40
0.124999999999997
40
0.249999999999993
40
0.249999999999993
40
0.37499999999999
40
0.37499999999999
40
0.437499999999988
40
0.437499999999988
40
0.499999999999987
40
0.499999999999987
40
0.624999999999983
40
0.624999999999983
40
0.687499999999992
40
0.687499999999992
40
0.750000000000002
40
0.750000000000002
40
0.875000000000001
40
0.875000000000001
40
1
40
1
40
1
40
1
41
1
10
80.4154547265443
20
-2.53289465036411
30
0
41
1
10
80.3707285421823
20
-2.58986674344104
30
0
41
1
10
80.3205590200963
20
-2.6416090276866
30
0
41
1
10
80.2087097157539
20
-2.73455507748631
30
0
41
1
10
80.1461230336667
20
-2.77611190689538
30
0
41
1
10
80.0137682331554
20
-2.84362620707546
30
0
41
1
10
79.9437022734244
20
-2.8701096565872
30
0
41
1
10
79.8318800106783
20
-2.89761675893197
30
0
41
1
10
79.7936872980045
20
-2.90462743628424
30
0
41
1
10
79.7175934050742
20
-2.91393470405907
30
0
41
1
10
79.679392493989
20
-2.91631131192256
30
0
41
1
10
79.5643248303793
20
-2.91658269008264
30
0
41
1
10
79.4861585707471
20
-2.90726714215194
30
0
41
1
10
79.3749862997285
20
-2.8803779809424
30
0
41
1
10
79.338673054829
20
-2.8692883235264
30
0
41
1
10
79.267486494784
20
-2.8429449033132
30
0
41
1
10
79.232562586994
20
-2.82763055777519
30
0
41
1
10
79.1324375611204
20
-2.77678534475342
30
0
41
1
10
79.0707797896039
20
-2.73603361835936
30
0
41
1
10
78.957359354469
20
-2.64206922111012
30
0
41
1
10
78.9068739505643
20
-2.5899518968196
30
0
41
1
10
78.8620809161797
20
-2.53289465036411
30
0
0
SPLINE
5
16C
100
AcDbEntity
8
1
62
256
6
ByLayer
370
-1
48
1
60
0
100
AcDbSpline
70
4
71
3
72
14
73
10
40
0
40
0
40
0
40
0
40
0.311323696933057
40
0.311323696933057
40
0.622647393866113
40
0.622647393866113
40
0.93397109079917
40
0.93397109079917
40
1
40
1
40
1
40
1
41
1
10
81.5877061849748
20
0.906796803618477
30
0
41
1
10
81.5921510054235
20
0.906796803618477
30
0
41
1
10
81.5969023386981
20
0.912403394039274
30
0
41
1
10
81.6065882482937
20
0.934472796143098
30
0
41
1
10
81.6115085077086
20
0.950743570918178
30
0
41
1
10
81.6215102289044
20
0.993803312401354
30
0
41
1
10
81.6265523388826
20
1.02055550874022
30
0
41
1
10
81.6324782920871
20
1.05790594470847
30
0
41
1
10
81.6335131733719
20
1.06465451084435
30
0
41
1
10
81.6345443980002
20
1.07160440604497
30
0
0
SPLINE
5
16D
100
AcDbEntity
8
1
62
256
6
ByLayer
370
-1
48
1
60
0
100
AcDbSpline
70
4
71
3
72
8
73
4
40
0
40
0
40
0
40
0
40
1
40
1
40
1
40
1
41
1
10
28.1631452561147
20
6.76149365513317
30
0
41
1
10
28.1631452561147
20
7.14107689517104
30
0
41
1
10
28.1631452561147
20
7.52066013520889
30
0
41
1
10
28.1631452561147
20
7.90024337524676
30
0
0
SPLINE
5
16E
100
AcDbEntity
8
1
62
256
6
ByLayer
370
-1
48
1
60
0
100
AcDbSpline
70
4
71
3
72
28
73
24
40
0
40
0
40
0
40
0
40
0.125000000000003
40
0.125000000000003
40
0.187500000000003
40
0.187500000000003
40
0.250000000000003
40
0.250000000000003
40
0.312500000000003
40
0.312500000000003
40
0.375000000000003
40
0.375000000000003
40
0.437500000000003
40
0.437500000000003
40
0.500000000000003
40
0.500000000000003
40
0.625000000000002
40
0.625000000000002
40
0.750000000000002
40
0.750000000000002
40
0.875000000000001
40
0.875000000000001
40
1
40
1
40
1
40
1
41
1
10
31.8631452561145
20
3.96806238120283
30
0
41
1
10
31.6448111315039
20
4.06554824182086
30
0
41
1
10
31.424621220664
20
4.1657669916826
30
0
41
1
10
31.0931612493235
20
4.32465148446045
30
0
41
1
10
30.982486370311
20
4.37905504843982
30
0
41
1
10
30.7611289571147
20
4.49169056473295
30
0
41
1
10
30.6506303959831
20
4.5505580043814
30
0
41
1
10
30.4285946728118
20
4.66806040782603
30
0
41
1
10
30.3175106886834
20
4.73192168973927
30
0
41
1
10
30.1056024796806
20
4.86695801094046
30
0
41
1
10
30.0041004774023
20
4.93841660725212
30
0
41
1
10
29.8105557558496
20
5.09026102830671
30
0
41
1
10
29.7185131450146
20
5.17064832168026
30
0
41
1
10
29.5439287677952
20
5.34081384253395
30
0
41
1
10
29.4633666452494
20
5.42864451631402
30
0
41
1
10
29.2392034697915
20
5.69855251758781
30
0
41
1
10
29.112501737788
20
5.88757859373814
30
0
41
1
10
28.8868481707299
20
6.2785790251591
30
0
41
1
10
28.7891709564062
20
6.47823264909351
30
0
41
1
10
28.6070216234914
20
6.88112892346095
30
0
41
1
10
28.5225861847481
20
7.08467176149981
30
0
41
1
10
28.3504220825885
20
7.49275603215816
30
0
41
1
10
28.2630078512736
20
7.69737032407352
30
0
41
1
10
28.1631452561165
20
7.90024337524795
30
0
0
SPLINE
5
16F
100
AcDbEntity
8
1
62
256
6
ByLayer
370
-1
48
1
60
0
100
AcDbSpline
70
4
71
3
72
32
73
28
40
0
40
0
40
0
40
0
40
0.125
40
0.125
40
0.25
40
0.25
40
0.3125
40
0.3125
40
0.375
40
0.375
40
0.5
40
0.5
40
0.5625
40
0.5625
40
0.625
40
0.625
40
0.75
40
0.75
40
0.78125
40
0.78125
40
0.8125
40
0.8125
40
0.875
40
0.875
40
0.9375
40
0.9375
40
1
40
1
40
1
40
1
41
1
10
26.5903192298561
20
4.39178530004099
30
0
41
1
10
26.6319678971348
20
4.03399561905005
30
0
41
1
10
26.677398330052
20
3.67029550832416
30
0
41
1
10
26.7758997497628
20
2.93075879330013
30
0
41
1
10
26.8289638527397
20
2.5549323038301
30
0
41
1
10
26.9148028206085
20
1.98127202139622
30
0
41
1
10
26.9444840542533
20
1.78829657353222
30
0
41
1
10
27.0052041288717
20
1.40431303572245
30
0
41
1
10
27.0363397758756
20
1.212642442473
30
0
41
1
10
27.1321754075353
20
0.638628843717129
30
0
41
1
10
27.1992694790558
20
0.257271523589793
30
0
41
1
10
27.3056207429
20
-0.312468606258506
30
0
41
1
10
27.3420301473402
20
-0.501996706563119
30
0
41
1
10
27.4170499375207
20
-0.880181613336987
30
0
41
1
10
27.4553692830835
20
-1.06732390101783
30
0
41
1
10
27.5718354197636
20
-1.61664438376854
30
0
41
1
10
27.6519071157307
20
-1.96922662609751
30
0
41
1
10
27.7562166132608
20
-2.38882600434471
30
0
41
1
10
27.7773456129455
20
-2.47186542757908
30
0
41
1
10
27.8194882983691
20
-2.63343039065154
30
0
41
1
10
27.8405619079049
20
-2.71220610472798
30
0
41
1
10
27.9038086846143
20
-2.94244715103866
30
0
41
1
10
27.9460077754431
20
-3.0878181436598
30
0
41
1
10
28.0305790432731
20
-3.3620122747395
30
0
41
1
10
28.072951625459
20
-3.49081244032934
30
0
41
1
10
28.1579703018692
20
-3.73206881722339
30
0
41
1
10
28.2006605225228
20
-3.84452990056258
30
0
41
1
10
28.2428131484922
20
-3.94797762113072
30
0
0
SPLINE
5
170
100
AcDbEntity
8
1
62
256
6
ByLayer
370
-1
48
1
60
0
100
AcDbSpline
70
4
71
3
72
8
73
4
40
0
40
0
40
0
40
0
40
1
40
1
40
1
40
1
41
1
10
76.3336669128478
20
0.94424007870856
30
0
41
1
10
76.4098444877255
20
0.938288767507061
30
0
41
1
10
76.4863088281093
20
0.934068516359361
30
0
41
1
10
76.5630650290954
20
0.931608633940982
30
0
0
SPLINE
5
171
100
AcDbEntity
8
1
62
256
6
ByLayer
370
-1
48
1
60
0
100
AcDbSpline
70
4
71
3
72
16
73
12
40
0
40
0
40
0
40
0
40
0.125
40
0.125
40
0.25
40
0.25
40
0.5
40
0.5
40
0.75
40
0.75
40
1
40
1
40
1
40
1
41
1
10
73.6397281305212
20
2.25294849182785
30
0
41
1
10
73.3682403403202
20
2.23463768024723
30
0
41
1
10
73.097743831926
20
2.22448494308154
30
0
41
1
10
72.5584233848463
20
2.2159819717709
30
0
41
1
10
72.2895825330178
20
2.21757174773563
30
0
41
1
10
71.4852930058653
20
2.23624990464199
30
0
41
1
10
70.9521911837537
20
2.26778109446329
30
0
41
1
10
69.8943959685233
20
2.37196214588241
30
0
41
1
10
69.369700017901
20
2.44452604027506
30
0
41
1
10
68.3251233379587
20
2.61215042334507
30
0
41
1
10
67.804917560657
20
2.70582766692908
30
0
41
1
10
67.2862012968041
20
2.80713633858122
30
0
0
SPLINE
5
172
100
AcDbEntity
8
1
62
256
6
ByLayer
370
-1
48
1
60
0
100
AcDbSpline
70
4
71
3
72
8
73
4
40
0
40
0
40
0
40
0
40
1
40
1
40
1
40
1
41
1
10
74.6671468507888
20
1.39834991086545
30
0
41
1
10
74.6965230414629
20
1.38334997777937
30
0
41
1
10
74.7263033757907
20
1.368950484849
30
0
41
1
10
74.7564660641292
20
1.35509997007435
30
0
0
SPLINE
5
173
100
AcDbEntity
8
1
62
256
6
ByLayer
370
-1
48
1
60
0
100
AcDbSpline
70
4
71
3
72
8
73
4
40
0
40
0
40
0
40
0
40
1
40
1
40
1
40
1
41
1
10
32
20
3.93559371912332
30
0
41
1
10
31.9543749796083
20
3.94591409833708
30
0
41
1
10
31.9087445206628
20
3.95673570752263
30
0
41
1
10
31.8631452561148
20
3.9680623812028
30
0
0
SPLINE
5
174
100
AcDbEntity
8
1
62
256
6
ByLayer
370
-1
48
1
60
0
100
AcDbSpline
70
4
71
2
72
6
73
3
40
0
40
0
40
0
40
1
40
1
40
1
41
1
10
31.1503986556831
20
-3.09115760961677
30
0
41
1
10
31.1503986556831
20
-3.31499079752504
30
0
41
1
10
31.1503986556831
20
-3.53882398543331
30
0
0
SPLINE
5
175
100
AcDbEntity
8
1
62
256
6
ByLayer
370
-1
48
1
60
0
100
AcDbSpline
70
4
71
3
72
16
73
12
40
0
40
0
40
0
40
0
40
0.0996575841384142
40
0.0996575841384142
40
0.324743188103811
40
0.324743188103811
40
0.549828792069207
40
0.549828792069207
40
0.774914396034604
40
0.774914396034604
40
1
40
1
40
1
40
1
41
1
10
60.5313569146372
20
4.29619989588156
30
0
41
1
10
60.8957325073219
20
4.37086265721203
30
0
41
1
10
61.2602260402891
20
4.44302189552468
30
0
41
1
10
62.4485011118314
20
4.66965521740443
30
0
41
1
10
63.2737659072091
20
4.81368378452143
30
0
41
1
10
64.9222086266308
20
5.07217037358242
30
0
41
1
10
65.7450750478517
20
5.18667035730769
30
0
41
1
10
67.3900091345689
20
5.38345572771192
30
0
41
1
10
68.2120977956041
20
5.46582357844821
30
0
41
1
10
69.8558966147037
20
5.59791905088099
30
0
41
1
10
70.6782363300451
20
5.6470847387711
30
0
41
1
10
71.5014417304607
20
5.67929669092436
30
0
0
SPLINE
5
176
100
AcDbEntity
8
1
62
256
6
ByLayer
370
-1
48
1
60
0
100
AcDbSpline
70
4
71
3
72
30
73
26
40
0
40
0
40
0
40
0
40
0.125
40
0.125
40
0.249999999999999
40
0.249999999999999
40
0.374999999999999
40
0.374999999999999
40
0.499999999999999
40
0.499999999999999
40
0.624999999999998
40
0.624999999999998
40
0.687499999999999
40
0.687499999999999
40
0.749999999999999
40
0.749999999999999
40
0.8125
40
0.8125
40
0.875000000000001
40
0.875000000000001
40
0.90625
40
0.90625
40
0.937499999999999
40
0.937499999999999
40
1
40
1
40
1
40
1
41
1
10
28.2428131484921
20
-3.94797762113041
30
0
41
1
10
28.3175493272259
20
-3.95070751923831
30
0
41
1
10
28.3884375317459
20
-3.92349410439454
30
0
41
1
10
28.5304832518157
20
-3.84792815049252
30
0
41
1
10
28.6016488376071
20
-3.79898328049649
30
0
41
1
10
28.7525194647477
20
-3.69916070926078
30
0
41
1
10
28.8321959936379
20
-3.6481013505815
30
0
41
1
10
29.0089358600662
20
-3.55616428217777
30
0
41
1
10
29.1057524267012
20
-3.51546654928794
30
0
41
1
10
29.3229953079444
20
-3.45279955015451
30
0
41
1
10
29.4435815581612
20
-3.43066868613647
30
0
41
1
10
29.6493306689758
20
-3.41388611106433
30
0
41
1
10
29.7215088941278
20
-3.41107249633595
30
0
41
1
10
29.8718999817037
20
-3.41076710003668
30
0
41
1
10
29.9503493637231
20
-3.41325128626878
30
0
41
1
10
30.1141515852232
20
-3.4229982165034
30
0
41
1
10
30.1995027575894
20
-3.43025909351684
30
0
41
1
10
30.3775549480529
20
-3.44901199712737
30
0
41
1
10
30.4701819801408
20
-3.460719653919
30
0
41
1
10
30.6117410710558
20
-3.47989366507898
30
0
41
1
10
30.6591050155766
20
-3.4852546213844
30
0
41
1
10
30.754770836941
20
-3.49597796512705
30
0
41
1
10
30.8030699566619
20
-3.5013241617693
30
0
41
1
10
30.949405311895
20
-3.51735616728371
30
0
41
1
10
31.0488767155139
20
-3.52803397722451
30
0
41
1
10
31.150398655841
20
-3.53882398546935
30
0
0
SPLINE
5
177
100
AcDbEntity
8
1
62
256
6
ByLayer
370
-1
48
1
60
0
100
AcDbSpline
70
4
71
3
72
8
73
4
40
0
40
0
40
0
40
0
40
1
40
1
40
1
40
1
41
1
10
76.2867063588497
20
2.51093479250585
30
0
41
1
10
76.2955559206987
20
2.53001188260978
30
0
41
1
10
76.3048113054704
20
2.54878599795143
30
0
41
1
10
76.3144803027789
20
2.56733145696842
30
0
0
SPLINE
5
178
100
AcDbEntity
8
1
62
256
6
ByLayer
370
-1
48
1
60
0
100
AcDbSpline
70
4
71
3
72
18
73
14
40
0
40
0
40
0
40
0
40
0.125000000000001
40
0.125000000000001
40
0.250000000000001
40
0.250000000000001
40
0.375000000000001
40
0.375000000000001
40
0.500000000000002
40
0.500000000000002
40
0.750000000000001
40
0.750000000000001
40
1
40
1
40
1
40
1
41
1
10
73.8653025636766
20
2.68642175307349
30
0
41
1
10
73.84069511812
20
2.67995628193839
30
0
41
1
10
73.8165706621854
20
2.67218191125625
30
0
41
1
10
73.7696920170256
20
2.6529101836972
30
0
41
1
10
73.7466771968793
20
2.64125240369822
30
0
41
1
10
73.7043608860958
20
2.61323807460727
30
0
41
1
10
73.6847351080789
20
2.59659016477451
30
0
41
1
10
73.6520918752597
20
2.55853316086191
30
0
41
1
10
73.6392441804097
20
2.53741002089691
30
0
41
1
10
73.6120952248922
20
2.46883320148328
30
0
41
1
10
73.6107146874195
20
2.42035114938187
30
0
41
1
10
73.624951606653
20
2.32929624037007
30
0
41
1
10
73.6403344535951
20
2.28590869076154
30
0
41
1
10
73.6593335872188
20
2.24516647214196
30
0
0
SPLINE
5
179
100
AcDbEntity
8
1
62
256
6
ByLayer
370
-1
48
1
60
0
100
AcDbSpline
70
4
71
3
72
16
73
12
40
0
40
0
40
0
40
0
40
0.25
40
0.25
40
0.375
40
0.375
40
0.5
40
0.5
40
0.75
40
0.75
40
1
40
1
40
1
40
1
41
1
10
71.5014417304607
20
5.67929669092433
30
0
41
1
10
71.2533568714737
20
5.46704174507596
30
0
41
1
10
70.9795699285322
20
5.3037004050783
30
0
41
1
10
70.5469690618409
20
5.1004051821227
30
0
41
1
10
70.3990723629105
20
5.03967474140629
30
0
41
1
10
70.0978905983495
20
4.92846845432533
30
0
41
1
10
69.945270173536
20
4.87828035811913
30
0
41
1
10
69.4865834216853
20
4.74032868241204
30
0
41
1
10
69.1780211310492
20
4.66420864641898
30
0
41
1
10
68.5577941912953
20
4.52971062324295
30
0
41
1
10
68.2460560396845
20
4.47175298877801
30
0
41
1
10
67.9334248886181
20
4.41890232052063
30
0
0
SPLINE
5
17A
100
AcDbEntity
8
1
62
256
6
ByLayer
370
-1
48
1
60
0
100
AcDbSpline
70
4
71
3
72
12
73
8
40
0
40
0
40
0
40
0
40
0.500000000000009
40
0.500000000000009
40
0.750000000000004
40
0.750000000000004
40
1
40
1
40
1
40
1
41
1
10
76.398022264767
20
-0.211008901289318
30
0
41
1
10
76.0169197882765
20
-0.219822139287629
30
0
41
1
10
75.6420814424634
20
-0.184856380835043
30
0
41
1
10
75.0891283392916
20
-0.0673197181923229
30
0
41
1
10
74.9057266145855
20
-0.0169356517911012
30
0
41
1
10
74.5453112690976
20
0.106278389268965
30
0
41
1
10
74.3694183039944
20
0.178634969791688
30
0
41
1
10
74.1979786785648
20
0.262056826685409
30
0
0
SPLINE
5
17B
100
AcDbEntity
8
1
62
256
6
ByLayer
370
-1
48
1
60
0
100
AcDbSpline
70
4
71
3
72
8
73
4
40
0
40
0
40
0
40
0
40
1
40
1
40
1
40
1
41
1
10
82.9889885366467
20
-1.64443664111772
30
0
41
1
10
83.0024598495582
20
-1.70769597355965
30
0
41
1
10
83.0035698749379
20
-1.77117067062895
30
0
41
1
10
82.9923186127859
20
-1.83486073232564
30
0
0
SPLINE
5
17C
100
AcDbEntity
8
1
62
256
6
ByLayer
370
-1
48
1
60
0
100
AcDbSpline
70
4
71
3
72
24
73
20
40
0
40
0
40
0
40
0
40
0.249999999999881
40
0.249999999999881
40
0.374999999999832
40
0.374999999999832
40
0.437499999999821
40
0.437499999999821
40
0.468749999999815
40
0.468749999999815
40
0.499999999999809
40
0.499999999999809
40
0.562499999999833
40
0.562499999999833
40
0.624999999999856
40
0.624999999999856
40
0.749999999999904
40
0.749999999999904
40
1
40
1
40
1
40
1
41
1
10
82.3007544128769
20
-4.07868113621467
30
0
41
1
10
82.322685011522
20
-4.08379355710051
30
0
41
1
10
82.3458113405831
20
-4.08743572435569
30
0
41
1
10
82.385684422902
20
-4.08586155541042
30
0
41
1
10
82.3998314922044
20
-4.08426853686669
30
0
41
1
10
82.4242867605464
20
-4.07675606571024
30
0
41
1
10
82.4330191754381
20
-4.07341931226588
30
0
41
1
10
82.4478723960784
20
-4.06504419445218
30
0
41
1
10
82.4531679984825
20
-4.06163186459767
30
0
41
1
10
82.4641826117172
20
-4.05298421537319
30
0
41
1
10
82.4700875487943
20
-4.04752714329157
30
0
41
1
10
82.4864054064685
20
-4.02887920346581
30
0
41
1
10
82.4936456086507
20
-4.01574229599714
30
0
41
1
10
82.5033778456518
20
-3.99369799026198
30
0
41
1
10
82.5064159132916
20
-3.98380976879525
30
0
41
1
10
82.5132893013688
20
-3.95636492605999
30
0
41
1
10
82.5149869467862
20
-3.94043706832107
30
0
41
1
10
82.5173136871262
20
-3.89509037796512
30
0
41
1
10
82.5148019052373
20
-3.8687096320713
30
0
41
1
10
82.5109921353695
20
-3.84356902002213
30
0
0
SPLINE
5
17D
100
AcDbEntity
8
1
62
256
6
ByLayer
370
-1
48
1
60
0
100
AcDbSpline
70
4
71
3
72
8
73
4
40
0
40
0
40
0
40
0
40
1
40
1
40
1
40
1
41
1
10
82.7734572578776
20
-1.73183890178373
30
0
41
1
10
82.7847085200296
20
-1.66814884008707
30
0
41
1
10
82.7835984946499
20
-1.60467414301775
30
0
41
1
10
82.7701271817384
20
-1.54141481057582
30
0
0
SPLINE
5
17E
100
AcDbEntity
8
1
62
256
6
ByLayer
370
-1
48
1
60
0
100
AcDbSpline
70
4
71
3
72
18
73
14
40
0
40
0
40
0
40
0
40
0.25
40
0.25
40
0.5
40
0.5
40
0.75
40
0.75
40
0.875
40
0.875
40
0.9375
40
0.9375
40
1
40
1
40
1
40
1
41
1
10
82.5109921353686
20
-3.84356902002611
30
0
41
1
10
82.5061683605161
20
-3.81173700486824
30
0
41
1
10
82.5015744733633
20
-3.77893382830658
30
0
41
1
10
82.4931587849151
20
-3.71006579573776
30
0
41
1
10
82.4893174275439
20
-3.67408355444218
30
0
41
1
10
82.4831524457119
20
-3.59570740378101
30
0
41
1
10
82.4806631490285
20
-3.5540133773089
30
0
41
1
10
82.4803411953655
20
-3.47705836797607
30
0
41
1
10
82.4808095381438
20
-3.44866593075361
30
0
41
1
10
82.4838934091667
20
-3.39923535074709
30
0
41
1
10
82.4853648051026
20
-3.38118551613076
30
0
41
1
10
82.4897103932365
20
-3.34239714771078
30
0
41
1
10
82.4926486702896
20
-3.32141312259265
30
0
41
1
10
82.4963234747482
20
-3.30061114326551
30
0
0
SPLINE
5
17F
100
AcDbEntity
8
1
62
256
6
ByLayer
370
-1
48
1
60
0
100
AcDbSpline
70
4
71
3
72
16
73
12
40
0
40
0
40
0
40
0
40
0.0625
40
0.0625
40
0.125
40
0.125
40
0.25
40
0.25
40
0.5
40
0.5
40
1
40
1
40
1
40
1
41
1
10
82.517747393962
20
-0.356275915691953
30
0
41
1
10
82.5150663623214
20
-0.343686179787767
30
0
41
1
10
82.5128434219961
20
-0.331297501256273
30
0
41
1
10
82.5094904516175
20
-0.309328567835507
30
0
41
1
10
82.5082921343524
20
-0.299487462762556
30
0
41
1
10
82.5055891334963
20
-0.272952570797543
30
0
41
1
10
82.5048611499752
20
-0.258535996560994
30
0
41
1
10
82.5038473052018
20
-0.220081155445115
30
0
41
1
10
82.504737988458
20
-0.199984819655867
30
0
41
1
10
82.508694287665
20
-0.144790852282398
30
0
41
1
10
82.5132390116495
20
-0.115630946823131
30
0
41
1
10
82.5182386222924
20
-0.0882923310550439
30
0
0
SPLINE
5
180
100
AcDbEntity
8
1
62
256
6
ByLayer
370
-1
48
1
60
0
100
AcDbSpline
70
4
71
3
72
10
73
6
40
0
40
0
40
0
40
0
40
0.5
40
0.5
40
1
40
1
40
1
40
1
41
1
10
82.6115695709037
20
-3.99016825611699
30
0
41
1
10
82.6019148332043
20
-4.04482086588141
30
0
41
1
10
82.5767579921023
20
-4.09644338034417
30
0
41
1
10
82.5028916519963
20
-4.17894977531896
30
0
41
1
10
82.4546416681037
20
-4.20951873786487
30
0
41
1
10
82.4013318484113
20
-4.22528037230953
30
0
0
SPLINE
5
181
100
AcDbEntity
8
1
62
256
6
ByLayer
370
-1
48
1
60
0
100
AcDbSpline
70
4
71
3
72
8
73
4
40
0
40
0
40
0
40
0
40
1
40
1
40
1
40
1
41
1
10
82.09949980137
20
0.121926602767246
30
0
41
1
10
82.1377214900439
20
0.130854660244836
30
0
41
1
10
82.1691466149326
20
0.139383154522193
30
0
41
1
10
82.1986476192479
20
0.147751479114135
30
0
0
SPLINE
5
182
100
AcDbEntity
8
1
62
256
6
ByLayer
370
-1
48
1
60
0
100
AcDbSpline
70
4
71
3
72
26
73
22
40
0
40
0
40
0
40
0
40
0.249999999999992
40
0.249999999999992
40
0.374999999999987
40
0.374999999999987
40
0.437499999999983
40
0.437499999999983
40
0.468749999999976
40
0.468749999999976
40
0.499999999999968
40
0.499999999999968
40
0.531249999999961
40
0.531249999999961
40
0.562499999999954
40
0.562499999999954
40
0.624999999999959
40
0.624999999999959
40
0.749999999999968
40
0.749999999999968
40
1
40
1
40
1
40
1
41
1
10
82.5182386222925
20
-0.0882923310552712
30
0
41
1
10
82.5233306257824
20
-0.0604484974362265
30
0
41
1
10
82.5262140264506
20
-0.0315757518164332
30
0
41
1
10
82.5214246556625
20
0.0173472308219402
30
0
41
1
10
82.5184818665172
20
0.0344453581533344
30
0
41
1
10
82.5075120789297
20
0.06408423842106
30
0
41
1
10
82.502851381355
20
0.0745899480494359
30
0
41
1
10
82.4912149676738
20
0.0928114247778069
30
0
41
1
10
82.4865391464726
20
0.0993499887248959
30
0
41
1
10
82.4734434893322
20
0.114029801540596
30
0
41
1
10
82.4643880802022
20
0.122565757617224
30
0
41
1
10
82.4432417263938
20
0.137611076977493
30
0
41
1
10
82.4325573880998
20
0.143243640071745
30
0
41
1
10
82.4145599903924
20
0.151232686597297
30
0
41
1
10
82.40656039735
20
0.153989742246608
30
0
41
1
10
82.3845973090239
20
0.160519070430183
30
0
41
1
10
82.3722094383419
20
0.162706270293143
30
0
41
1
10
82.3372132428219
20
0.167141883347256
30
0
41
1
10
82.3174753815541
20
0.166955582892825
30
0
41
1
10
82.2615643675733
20
0.163360169873954
30
0
41
1
10
82.2292671037396
20
0.156437074435786
30
0
41
1
10
82.198647619248
20
0.147751479114163
30
0
0
SPLINE
5
183
100
AcDbEntity
8
1
62
256
6
ByLayer
370
-1
48
1
60
0
100
AcDbSpline
70
4
71
3
72
12
73
8
40
0
40
0
40
0
40
0
40
0.499999999999962
40
0.499999999999962
40
0.749999999999981
40
0.749999999999981
40
1
40
1
40
1
40
1
41
1
10
82.319419513227
20
0.235053215011135
30
0
41
1
10
82.3918055956086
20
0.241374364366578
30
0
41
1
10
82.4659775306257
20
0.220383081477166
30
0
41
1
10
82.5532710366396
20
0.155820166072601
30
0
41
1
10
82.5784743837198
20
0.128915128789686
30
0
41
1
10
82.6175901328797
20
0.0680891759430438
30
0
41
1
10
82.6314568157706
20
0.0344804873029716
30
0
41
1
10
82.6390105162714
20
-0.0009905951581004
30
0
0
SPLINE
5
184
100
AcDbEntity
8
1
62
256
6
ByLayer
370
-1
48
1
60
0
100
AcDbSpline
70
4
71
3
72
12
73
8
40
0
40
0
40
0
40
0
40
0.331885470508516
40
0.331885470508516
40
0.665942735254258
40
0.665942735254258
40
1
40
1
40
1
40
1
41
1
10
81.9977555249577
20
-4.04146453214872
30
0
41
1
10
82.0440706279135
20
-4.04047705671488
30
0
41
1
10
82.0816267344058
20
-4.04309025735753
30
0
41
1
10
82.1520367721762
20
-4.05036777179296
30
0
41
1
10
82.1839697433032
20
-4.05525435766361
30
0
41
1
10
82.2445694417715
20
-4.06617662236746
30
0
41
1
10
82.2731633666855
20
-4.07224916219087
30
0
41
1
10
82.300754412877
20
-4.07868113621467
30
0
0
SPLINE
5
185
100
AcDbEntity
8
SK1
62
256
6
ByLayer
370
-1
48
1
60
0
100
AcDbSpline
70
4
71
3
72
28
73
24
40
0
40
0
40
0
40
0
40
0.250000000000005
40
0.250000000000005
40
0.375000000000007
40
0.375000000000007
40
0.437500000000008
40
0.437500000000008
40
0.468750000000009
40
0.468750000000009
40
0.484375000000008
40
0.484375000000008
40
0.500000000000008
40
0.500000000000008
40
0.531250000000007
40
0.531250000000007
40
0.562500000000006
40
0.562500000000006
40
0.625000000000005
40
0.625000000000005
40
0.750000000000003
40
0.750000000000003
40
1
40
1
40
1
40
1
41
1
10
-1.69996145737014
20
2.58069190327927
30
0
41
1
10
-1.69966082572924
20
2.4852880584769
30
0
41
1
10
-1.69786774013508
20
2.38961915098
30
0
41
1
10
-1.68940593614445
20
2.2453867587985
30
0
41
1
10
-1.68574462899303
20
2.19700570840237
30
0
41
1
10
-1.67599695382782
20
2.1249364253261
30
0
41
1
10
-1.67216972725893
20
2.10077755320236
30
0
41
1
10
-1.66272403248817
20
2.06599013940286
30
0
41
1
10
-1.65906888566519
20
2.05420805594815
30
0
41
1
10
-1.64993183086071
20
2.03993783982096
30
0
41
1
10
-1.64600859456112
20
2.03592067906061
30
0
41
1
10
-1.63743284430143
20
2.0338866734763
30
0
41
1
10
-1.63318667655162
20
2.03591143131487
30
0
41
1
10
-1.62270815487443
20
2.04494307123127
30
0
41
1
10
-1.61759766930601
20
2.05422387946916
30
0
41
1
10
-1.60839312671521
20
2.07302163226026
30
0
41
1
10
-1.60436560886294
20
2.083083020088
30
0
41
1
10
-1.59320608402808
20
2.11364429054081
30
0
41
1
10
-1.58690532487131
20
2.13477582008474
30
0
41
1
10
-1.56924690509348
20
2.198952707839
30
0
41
1
10
-1.5592324256281
20
2.24288446323848
30
0
41
1
10
-1.53109034368467
20
2.37539687024329
30
0
41
1
10
-1.51504209864746
20
2.46485730987436
30
0
41
1
10
-1.49999999999937
20
2.55452876952231
30
0
0
SPLINE
5
186
100
AcDbEntity
8
SK1
62
256
6
ByLayer
370
-1
48
1
60
0
100
AcDbSpline
70
4
71
3
72
26
73
22
40
0
40
0
40
0
40
0
40
0.25
40
0.25
40
0.5
40
0.5
40
0.625
40
0.625
40
0.75
40
0.75
40
0.8125
40
0.8125
40
0.84375
40
0.84375
40
0.875
40
0.875
40
0.90625
40
0.90625
40
0.9375
40
0.9375
40
1
40
1
40
1
40
1
41
1
10
-1.30710678118675
20
-3.58871727154821
30
0
41
1
10
-1.27704104797238
20
-3.73711146414564
30
0
41
1
10
-1.24290752413313
20
-3.88311142945619
30
0
41
1
10
-1.16210117950382
20
-4.16971195256144
30
0
41
1
10
-1.11567257229953
20
-4.31079630719427
30
0
41
1
10
-1.02833804242206
20
-4.51460953007248
30
0
41
1
10
-0.996091765097134
20
-4.58154434196089
30
0
41
1
10
-0.92170556029248
20
-4.70963530812213
30
0
41
1
10
-0.880235112913908
20
-4.77112026309476
30
0
41
1
10
-0.800265069156637
20
-4.85374621074735
30
0
41
1
10
-0.770443849397282
20
-4.87963350079767
30
0
41
1
10
-0.719001618424329
20
-4.91087235041408
30
0
41
1
10
-0.700626848346559
20
-4.92000200725136
30
0
41
1
10
-0.662017238182784
20
-4.93390554636633
30
0
41
1
10
-0.641280119564868
20
-4.93876771710427
30
0
41
1
10
-0.599568848505072
20
-4.94252622173113
30
0
41
1
10
-0.578082049698907
20
-4.94143807412283
30
0
41
1
10
-0.537045222159946
20
-4.93374887482733
30
0
41
1
10
-0.517080767182222
20
-4.92714534439062
30
0
41
1
10
-0.461393647242801
20
-4.90206528999568
30
0
41
1
10
-0.429024530142669
20
-4.87851306287462
30
0
41
1
10
-0.39999999999992
20
-4.85227456455002
30
0
0
SPLINE
5
187
100
AcDbEntity
8
SK1
62
256
6
ByLayer
370
-1
48
1
60
0
100
AcDbSpline
70
4
71
3
72
79
73
75
40
0
40
0
40
0
40
0
40
0.0069311074461135
40
0.0210187902188045
40
0.0351064729914956
40
0.0491941557641867
40
0.0632818385368777
40
0.0773695213095688
40
0.0914572040822599
40
0.105544886854951
40
0.119632569627642
40
0.133720252400333
40
0.147807935173024
40
0.161895617945715
40
0.175983300718406
40
0.190070983491097
40
0.204158666263788
40
0.218246349036479
40
0.232334031809171
40
0.246421714581862
40
0.260509397354553
40
0.274597080127244
40
0.288684762899935
40
0.302772445672626
40
0.316860128445317
40
0.330947811218008
40
0.345035493990699
40
0.35912317676339
40
0.373210859536081
40
0.387298542308772
40
0.401386225081463
40
0.415473907854154
40
0.429561590626846
40
0.443649273399537
40
0.457736956172228
40
0.471824638944919
40
0.48591232171761
40
0.500000004490301
40
0.514087687262992
40
0.528175370035683
40
0.542263052808374
40
0.556350735581065
40
0.570438418353756
40
0.584526101126447
40
0.598613783899138
40
0.612701466671829
40
0.62678914944452
40
0.640876832217211
40
0.654964514989902
40
0.669052197762594
40
0.683139880535285
40
0.697227563307976
40
0.711315246080667
40
0.725402928853358
40
0.739490611626049
40
0.75357829439874
40
0.767665977171431
40
0.781753659944122
40
0.795841342716813
40
0.809929025489504
40
0.824016708262195
40
0.838104391034886
40
0.852192073807578
40
0.866279756580268
40
0.88036743935296
40
0.894455122125651
40
0.908542804898342
40
0.922630487671033
40
0.936718170443724
40
0.950805853216415
40
0.964893535989106
40
0.978981218761797
40
0.993068901534488
40
1
40
1
40
1
40
1
41
1
10
-2.50000000000006
20
-13.8300380012969
30
0
41
1
10
-2.50000000000003
20
-13.8443994549883
30
0
41
1
10
-2.50000000000003
20
-13.8858550855782
30
0
41
1
10
-2.50000000000003
20
-13.9432745301022
30
0
41
1
10
-2.50000000000003
20
-13.9887542441536
30
0
41
1
10
-2.50000000000003
20
-14.0056234056246
30
0
41
1
10
-2.50000000000003
20
-13.988752133348
30
0
41
1
10
-2.50000000000003
20
-13.9330904587156
30
0
41
1
10
-2.50000000000003
20
-13.8339177083708
30
0
41
1
10
-2.50000000000003
20
-13.6870701821128
30
0
41
1
10
-2.5
20
-13.4891606659135
30
0
41
1
10
-2.5
20
-13.2377634553435
30
0
41
1
10
-2.5
20
-12.9315646731672
30
0
41
1
10
-2.5
20
-12.5704720586786
30
0
41
1
10
-2.5
20
-12.1556745862519
30
0
41
1
10
-2.49999999999997
20
-11.6896573582757
30
0
41
1
10
-2.49999999999997
20
-11.1761598486008
30
0
41
1
10
-2.49999999999997
20
-10.6200921552756
30
0
41
1
10
-2.49999999999994
20
-10.0273966309962
30
0
41
1
10
-2.49999999999994
20
-9.40487698463008
30
0
41
1
10
-2.49999999999994
20
-8.75998301936997
30
0
41
1
10
-2.49999999999994
20
-8.10057759802723
30
0
41
1
10
-2.49999999999994
20
-7.43467620819112
30
0
41
1
10
-2.49999999999994
20
-6.77018655593477
30
0
41
1
10
-2.49999999999994
20
-6.11464187468977
30
0
41
1
10
-2.49999999999994
20
-5.47495238907831
30
0
41
1
10
-2.49999999999994
20
-4.85717257311447
30
0
41
1
10
-2.49999999999994
20
-4.26630223424849
30
0
41
1
10
-2.49999999999994
20
-3.70612309484702
30
0
41
1
10
-2.49999999999994
20
-3.17908000235968
30
0
41
1
10
-2.49999999999994
20
-2.68621197756718
30
0
41
1
10
-2.49999999999994
20
-2.22713214869714
30
0
41
1
10
-2.49999999999994
20
-1.80006432484655
30
0
41
1
10
-2.49999999999994
20
-1.40192548161284
30
0
41
1
10
-2.49999999999994
20
-1.02846311010666
30
0
41
1
10
-2.49999999999994
20
-0.674428687296569
30
0
41
1
10
-2.49999999999994
20
-0.333795915844576
30
0
41
1
10
-2.49999999999994
20
7.12340693E-08
30
0
41
1
10
-2.49999999999994
20
0.333795630908241
30
0
41
1
10
-2.49999999999994
20
0.674428818459575
30
0
41
1
10
-2.49999999999994
20
1.02846287039082
30
0
41
1
10
-2.49999999999994
20
1.40192558052763
30
0
41
1
10
-2.49999999999994
20
1.80006416890296
30
0
41
1
10
-2.49999999999994
20
2.22713219916599
30
0
41
1
10
-2.49999999999994
20
2.68621193163514
30
0
41
1
10
-2.49999999999994
20
3.17907999530164
30
0
41
1
10
-2.49999999999994
20
3.70612316901105
30
0
41
1
10
-2.49999999999994
20
4.26630216899858
30
0
41
1
10
-2.49999999999994
20
4.85717275994992
30
0
41
1
10
-2.49999999999994
20
5.47495227341935
30
0
41
1
10
-2.49999999999994
20
6.11464215048997
30
0
41
1
10
-2.49999999999994
20
6.7701864048623
30
0
41
1
10
-2.49999999999994
20
7.43467653668063
30
0
41
1
10
-2.49999999999994
20
8.10057743145504
30
0
41
1
10
-2.49999999999994
20
8.75998335716918
30
0
41
1
10
-2.49999999999994
20
9.40487682435958
30
0
41
1
10
-2.49999999999997
20
10.027396934279
30
0
41
1
10
-2.49999999999997
20
10.6200920217111
30
0
41
1
10
-2.49999999999997
20
11.1761600795757
30
0
41
1
10
-2.49999999999997
20
11.6896572673894
30
0
41
1
10
-2.49999999999994
20
12.1556747188218
30
0
41
1
10
-2.49999999999994
20
12.5704720196536
30
0
41
1
10
-2.49999999999994
20
12.931564696697
30
0
41
1
10
-2.49999999999994
20
13.2377634692878
30
0
41
1
10
-2.49999999999994
20
13.4891605866066
30
0
41
1
10
-2.49999999999997
20
13.6870702420279
30
0
41
1
10
-2.49999999999997
20
13.8339175480175
30
0
41
1
10
-2.49999999999997
20
13.9330908491367
30
0
41
1
10
-2.49999999999997
20
13.9887513430622
30
0
41
1
10
-2.49999999999997
20
14.0056234821498
30
0
41
1
10
-2.49999999999997
20
13.9887547283385
30
0
41
1
10
-2.49999999999997
20
13.9432743681012
30
0
41
1
10
-2.5
20
13.8858549224138
30
0
41
1
10
-2.5
20
13.8443994046696
30
0
41
1
10
-2.50000000000003
20
13.8300379985885
30
0
0
SPLINE
5
188
100
AcDbEntity
8
SK1
62
256
6
ByLayer
370
-1
48
1
60
0
100
AcDbSpline
70
4
71
3
72
33
73
29
40
0
40
0
40
0
40
0
40
0.0059998055989726
40
0.0460652635678642
40
0.0861307215367558
40
0.126196179505647
40
0.166261637474539
40
0.206327095443431
40
0.246392553412322
40
0.286458011381214
40
0.326523469350105
40
0.366588927318997
40
0.406654385287889
40
0.44671984325678
40
0.486785301225672
40
0.526850759194563
40
0.566916217163455
40
0.606981675132347
40
0.647047133101238
40
0.68711259107013
40
0.727178049039021
40
0.767243507007913
40
0.807308964976805
40
0.847374422945696
40
0.887439880914588
40
0.927505338883479
40
0.967570796852371
40
1
40
1
40
1
40
1
41
1
10
-1.49999999999989
20
-2.55452633951475
30
0
41
1
10
-1.49999999999989
20
-2.57758935777625
30
0
41
1
10
-1.49999999999989
20
-2.75563386385181
30
0
41
1
10
-1.49999999999989
20
-3.10259085919483
30
0
41
1
10
-1.49999999999989
20
-3.62131828040256
30
0
41
1
10
-1.49999999999989
20
-4.17356946094313
30
0
41
1
10
-1.49999999999989
20
-4.75691744833273
30
0
41
1
10
-1.49999999999989
20
-5.36758879010387
30
0
41
1
10
-1.49999999999989
20
-6.00058584498379
30
0
41
1
10
-1.49999999999989
20
-6.64985057156352
30
0
41
1
10
-1.49999999999991
20
-7.30846436616247
30
0
41
1
10
-1.49999999999991
20
-7.96888181888042
30
0
41
1
10
-1.49999999999991
20
-8.62318035716163
30
0
41
1
10
-1.49999999999991
20
-9.26332810646636
30
0
41
1
10
-1.49999999999991
20
-9.88144543350359
30
0
41
1
10
-1.49999999999991
20
-10.4700665265398
30
0
41
1
10
-1.49999999999991
20
-11.022373431452
30
0
41
1
10
-1.49999999999991
20
-11.5324122627522
30
0
41
1
10
-1.49999999999991
20
-11.9952648181666
30
0
41
1
10
-1.49999999999994
20
-12.4071875603976
30
0
41
1
10
-1.49999999999997
20
-12.7656956859389
30
0
41
1
10
-1.49999999999997
20
-13.0696050688166
30
0
41
1
10
-1.49999999999997
20
-13.3190172436223
30
0
41
1
10
-1.49999999999997
20
-13.5152595263794
30
0
41
1
10
-1.49999999999997
20
-13.6607746658667
30
0
41
1
10
-1.49999999999997
20
-13.7589698929487
30
0
41
1
10
-1.49999999999994
20
-13.8105327967465
30
0
41
1
10
-1.49999999999997
20
-13.8227939954556
30
0
41
1
10
-1.49999999999997
20
-13.8245353396795
30
0
0
SPLINE
5
189
100
AcDbEntity
8
SK1
62
256
6
ByLayer
370
-1
48
1
60
0
100
AcDbSpline
70
4
71
3
72
26
73
22
40
0
40
0
40
0
40
0
40
0.03125
40
0.03125
40
0.0625
40
0.0625
40
0.09375
40
0.09375
40
0.125
40
0.125
40
0.1875
40
0.1875
40
0.25
40
0.25
40
0.375
40
0.375
40
0.5
40
0.5
40
0.75
40
0.75
40
1
40
1
40
1
40
1
41
1
10
-0.39999999999992
20
-4.85227456454999
30
0
41
1
10
-0.39376328779295
20
-4.84663650729328
30
0
41
1
10
-0.387019774317395
20
-4.84161680761804
30
0
41
1
10
-0.371803166997239
20
-4.83402988774014
30
0
41
1
10
-0.363361086088162
20
-4.83161196307762
30
0
41
1
10
-0.345926111920136
20
-4.83181330146459
30
0
41
1
10
-0.337033054187288
20
-4.8346054712851
30
0
41
1
10
-0.321475661335342
20
-4.84385857307518
30
0
41
1
10
-0.314735971519241
20
-4.85007481180139
30
0
41
1
10
-0.296994303249903
20
-4.87040355371241
30
0
41
1
10
-0.288166478250474
20
-4.88618386504783
30
0
41
1
10
-0.273212056316083
20
-4.91801622041677
30
0
41
1
10
-0.267127706470149
20
-4.93430736823274
30
0
41
1
10
-0.251022454987464
20
-4.98373448763203
30
0
41
1
10
-0.243149974278253
20
-5.01751323233989
30
0
41
1
10
-0.230204703014522
20
-5.0844364593234
30
0
41
1
10
-0.225172325676738
20
-5.11781324740099
30
0
41
1
10
-0.212639924440282
20
-5.2177046835458
30
0
41
1
10
-0.207671426663865
20
-5.28398101409357
30
0
41
1
10
-0.201305754211546
20
-5.4159585743279
30
0
41
1
10
-0.199999999999903
20
-5.48171544544959
30
0
41
1
10
-0.199999999999903
20
-5.54704286105718
30
0
0
SPLINE
5
18A
100
AcDbEntity
8
SK1
62
256
6
ByLayer
370
-1
48
1
60
0
100
AcDbSpline
70
4
71
3
72
24
73
20
40
0
40
0
40
0
40
0
40
0.0566760783931836
40
0.0566760783931836
40
0.292507058794886
40
0.292507058794886
40
0.528338039196589
40
0.528338039196589
40
0.646253529397442
40
0.646253529397442
40
0.764169019598295
40
0.764169019598295
40
0.823126764698721
40
0.823126764698721
40
0.882084509799147
40
0.882084509799147
40
0.941042254899574
40
0.941042254899574
40
1
40
1
40
1
40
1
41
1
10
-0.218262967664373
20
-13.9259756044902
30
0
41
1
10
-0.219182198007076
20
-13.9243663193604
30
0
41
1
10
-0.220148374140678
20
-13.9227324215877
30
0
41
1
10
-0.22539182130518
20
-13.9141687233657
30
0
41
1
10
-0.230482716048329
20
-13.9068356660934
30
0
41
1
10
-0.243543515905088
20
-13.891029693572
30
0
41
1
10
-0.251423909946539
20
-13.8825628910797
30
0
41
1
10
-0.267620190121932
20
-13.8686743036801
30
0
41
1
10
-0.27378263345841
20
-13.8638193425138
30
0
41
1
10
-0.288879054648476
20
-13.8535372444218
30
0
41
1
10
-0.297539482613246
20
-13.8481844775088
30
0
41
1
10
-0.315471101946542
20
-13.8395368680739
30
0
41
1
10
-0.322291825690968
20
-13.8365782388304
30
0
41
1
10
-0.337698531233258
20
-13.8309872537491
30
0
41
1
10
-0.346484000264098
20
-13.8283381842761
30
0
41
1
10
-0.363738539634682
20
-13.8243096436096
30
0
41
1
10
-0.372122595374435
20
-13.8229165631
30
0
41
1
10
-0.387163049046137
20
-13.821141567135
30
0
41
1
10
-0.393815287664495
20
-13.8207254794661
30
0
41
1
10
-0.400000000000006
20
-13.8205593061294
30
0
0
SPLINE
5
18B
100
AcDbEntity
8
SK1
62
256
6
ByLayer
370
-1
48
1
60
0
100
AcDbSpline
70
4
71
3
72
8
73
4
40
0
40
0
40
0
40
0
40
1
40
1
40
1
40
1
41
1
10
-1.50000000000065
20
2.55452876951017
30
0
41
1
10
-1.44078675385307
20
2.90752061837338
30
0
41
1
10
-1.37540853169588
20
3.2516020134309
30
0
41
1
10
-1.30710678118655
20
3.58871725126212
30
0
0
SPLINE
5
18C
100
AcDbEntity
8
SK1
62
256
6
ByLayer
370
-1
48
1
60
0
100
AcDbSpline
70
4
71
3
72
73
73
69
40
0
40
0
40
0
40
0
40
0.0021269018425581
40
0.0175876597927695
40
0.033048417742981
40
0.0485091756931924
40
0.0639699336434038
40
0.0794306915936151
40
0.0948914495438265
40
0.110352207494038
40
0.125812965444249
40
0.141273723394461
40
0.156734481344672
40
0.172195239294884
40
0.187655997245095
40
0.203116755195307
40
0.218577513145518
40
0.234038271095729
40
0.249499029045941
40
0.264959786996152
40
0.280420544946364
40
0.295881302896575
40
0.311342060846786
40
0.326802818796998
40
0.342263576747209
40
0.357724334697421
40
0.373185092647632
40
0.388645850597844
40
0.404106608548055
40
0.419567366498266
40
0.435028124448478
40
0.450488882398689
40
0.465949640348901
40
0.481410398299112
40
0.496871156249323
40
0.512331914199535
40
0.527792672149746
40
0.543253430099958
40
0.558714188050169
40
0.574174946000381
40
0.589635703950592
40
0.605096461900803
40
0.620557219851015
40
0.636017977801226
40
0.651478735751438
40
0.666939493701649
40
0.68240025165186
40
0.697861009602072
40
0.713321767552283
40
0.728782525502495
40
0.744243283452706
40
0.759704041402917
40
0.775164799353129
40
0.79062555730334
40
0.806086315253552
40
0.821547073203763
40
0.837007831153975
40
0.852468589104186
40
0.867929347054397
40
0.883390105004609
40
0.89885086295482
40
0.914311620905032
40
0.929772378855243
40
0.945233136805455
40
0.960693894755666
40
0.976154652705877
40
0.991615410656089
40
1
40
1
40
1
40
1
41
1
10
-22.5004731679057
20
13.2758819196799
30
0
41
1
10
-22.5004731679057
20
13.2802062558039
30
0
41
1
10
-22.5004731679057
20
13.3155954385512
30
0
41
1
10
-22.5004731679057
20
13.3761852100001
30
0
41
1
10
-22.5004731679057
20
13.4428288363681
30
0
41
1
10
-22.5004731679057
20
13.4866768366259
30
0
41
1
10
-22.5004731679057
20
13.5029401449552
30
0
41
1
10
-22.5004731679057
20
13.4866735728523
30
0
41
1
10
-22.5004731679056
20
13.4330108195396
30
0
41
1
10
-22.5004731679057
20
13.3373970005121
30
0
41
1
10
-22.5004731679057
20
13.1958202698686
30
0
41
1
10
-22.5004731679057
20
13.0050138959383
30
0
41
1
10
-22.5004731679056
20
12.7626398072662
30
0
41
1
10
-22.5004731679056
20
12.4674309788965
30
0
41
1
10
-22.5004731679057
20
12.1192984726134
30
0
41
1
10
-22.5004731679057
20
11.7193888839714
30
0
41
1
10
-22.5004731679057
20
11.2700975146
30
0
41
1
10
-22.5004731679057
20
10.7750305295073
30
0
41
1
10
-22.5004731679057
20
10.2389206082719
30
0
41
1
10
-22.5004731679056
20
9.66749825781361
30
0
41
1
10
-22.5004731679056
20
9.0673213507315
30
0
41
1
10
-22.5004731679056
20
8.44557410053284
30
0
41
1
10
-22.5004731679056
20
7.80983526623567
30
0
41
1
10
-22.5004731679056
20
7.16783457729309
30
0
41
1
10
-22.5004731679056
20
6.52719401685735
30
0
41
1
10
-22.5004731679056
20
5.89517825258662
30
0
41
1
10
-22.5004731679056
20
5.27844782766644
30
0
41
1
10
-22.5004731679056
20
4.68284136974697
30
0
41
1
10
-22.5004731679056
20
4.11317803178855
30
0
41
1
10
-22.5004731679056
20
3.57310471645681
30
0
41
1
10
-22.5004731679056
20
3.06497793170672
30
0
41
1
10
-22.5004731679056
20
2.58979965981254
30
0
41
1
10
-22.5004731679056
20
2.14719700401548
30
0
41
1
10
-22.5004731679056
20
1.73545710126749
30
0
41
1
10
-22.5004731679056
20
1.3516083183068
30
0
41
1
10
-22.5004731679056
20
0.991549758416369
30
0
41
1
10
-22.5004731679056
20
0.650222532349176
30
0
41
1
10
-22.5004731679056
20
0.321815193057745
30
0
41
1
10
-22.5004731679056
20
6.86773944E-08
30
0
41
1
10
-22.5004731679056
20
-0.321815467767181
30
0
41
1
10
-22.5004731679056
20
-0.650222405893771
30
0
41
1
10
-22.5004731679056
20
-0.99154998952838
30
0
41
1
10
-22.5004731679056
20
-1.35160822294213
30
0
41
1
10
-22.5004731679056
20
-1.73545725161395
30
0
41
1
10
-22.5004731679056
20
-2.14719695535797
30
0
41
1
10
-22.5004731679056
20
-2.58979970409595
30
0
41
1
10
-22.5004731679056
20
-3.06497793851139
30
0
41
1
10
-22.5004731679056
20
-3.57310464495461
30
0
41
1
10
-22.5004731679056
20
-4.11317809469651
30
0
41
1
10
-22.5004731679056
20
-4.68284118961725
30
0
41
1
10
-22.5004731679056
20
-5.27844793917416
30
0
41
1
10
-22.5004731679056
20
-5.89517798668527
30
0
41
1
10
-22.5004731679056
20
-6.52719416250753
30
0
41
1
10
-22.5004731679056
20
-7.16783426059351
30
0
41
1
10
-22.5004731679056
20
-7.8098354268293
30
0
41
1
10
-22.5004731679056
20
-8.44557377485771
30
0
41
1
10
-22.5004731679056
20
-9.06732150524962
30
0
41
1
10
-22.5004731679056
20
-9.667497965416
30
0
41
1
10
-22.5004731679057
20
-10.2389207370425
30
0
41
1
10
-22.5004731679057
20
-10.7750303068223
30
0
41
1
10
-22.5004731679057
20
-11.2700976022241
30
0
41
1
10
-22.5004731679057
20
-11.7193887561596
30
0
41
1
10
-22.5004731679057
20
-12.1192985102377
30
0
41
1
10
-22.5004731679057
20
-12.4674309562112
30
0
41
1
10
-22.5004731679057
20
-12.7626397938223
30
0
41
1
10
-22.5004731679057
20
-13.0050139723987
30
0
41
1
10
-22.5004731679057
20
-13.1667104464284
30
0
41
1
10
-22.5004731679057
20
-13.2452876131161
30
0
41
1
10
-22.5004731679057
20
-13.2705909226887
30
0
0
SPLINE
5
18D
100
AcDbEntity
8
SK1
62
256
6
ByLayer
370
-1
48
1
60
0
100
AcDbSpline
70
4
71
3
72
20
73
16
40
0
40
0
40
0
40
0
40
0.125
40
0.125
40
0.1875
40
0.1875
40
0.25
40
0.25
40
0.5
40
0.5
40
0.625
40
0.625
40
0.75
40
0.75
40
1
40
1
40
1
40
1
41
1
10
-1.69996145737096
20
2.5806919032795
30
0
41
1
10
-1.73263695710787
20
2.37550257646083
30
0
41
1
10
-1.76326516119118
20
2.16745376297365
30
0
41
1
10
-1.80483241468929
20
1.8502841102717
30
0
41
1
10
-1.81795721932767
20
1.74370985221802
30
0
41
1
10
-1.84246895166319
20
1.52868290002465
30
0
41
1
10
-1.85383416245216
20
1.42032814794894
30
0
41
1
10
-1.90513167589589
20
0.878984125790311
30
0
41
1
10
-1.92842891958412
20
0.443177729960439
30
0
41
1
10
-1.92863936176101
20
-0.215364275303813
30
0
41
1
10
-1.92302599023009
20
-0.435675602004039
30
0
41
1
10
-1.9008609918707
20
-0.877872368403501
30
0
41
1
10
-1.88448389754703
20
-1.09701544141257
30
0
41
1
10
-1.82304312112112
20
-1.74499641140687
30
0
41
1
10
-1.76589710310134
20
-2.16663380543864
30
0
41
1
10
-1.69996145715962
20
-2.58068890323847
30
0
0
SPLINE
5
18E
100
AcDbEntity
8
SK1
62
256
6
ByLayer
370
-1
48
1
60
0
100
AcDbSpline
70
4
71
3
72
27
73
23
40
0
40
0
40
0
40
0
40
0.0373331933448105
40
0.0884073221032304
40
0.13948145086165
40
0.19055557962007
40
0.24162970837849
40
0.29270383713691
40
0.34377796589533
40
0.39485209465375
40
0.44592622341217
40
0.49700035217059
40
0.54807448092901
40
0.59914860968743
40
0.65022273844585
40
0.70129686720427
40
0.75237099596269
40
0.80344512472111
40
0.85451925347953
40
0.90559338223795
40
0.95666751099637
40
1
40
1
40
1
40
1
41
1
10
-0.39999999999992
20
13.7965780683288
30
0
41
1
10
-0.399999999999949
20
13.7852809573554
30
0
41
1
10
-0.39999999999992
20
13.7501641044363
30
0
41
1
10
-0.39999999999992
20
13.6607745146452
30
0
41
1
10
-0.39999999999992
20
13.5152595834079
30
0
41
1
10
-0.39999999999992
20
13.3190171661248
30
0
41
1
10
-0.39999999999992
20
13.0696050793313
30
0
41
1
10
-0.39999999999992
20
12.765695711353
30
0
41
1
10
-0.39999999999992
20
12.4071875173709
30
0
41
1
10
-0.399999999999949
20
11.9952649527342
30
0
41
1
10
-0.399999999999949
20
11.5324121673266
30
0
41
1
10
-0.39999999999992
20
11.0223736645665
30
0
41
1
10
-0.39999999999992
20
10.470066387995
30
0
41
1
10
-0.39999999999992
20
9.88144573908428
30
0
41
1
10
-0.39999999999992
20
9.26332794093628
30
0
41
1
10
-0.39999999999992
20
8.62318069742537
30
0
41
1
10
-0.39999999999992
20
7.96888164701966
30
0
41
1
10
-0.39999999999992
20
7.30846469728448
30
0
41
1
10
-0.39999999999992
20
6.64985041554641
30
0
41
1
10
-0.39999999999992
20
6.00058612356241
30
0
41
1
10
-0.39999999999992
20
5.39957119182191
30
0
41
1
10
-0.39999999999992
20
5.02226907709917
30
0
41
1
10
-0.39999999999992
20
4.85227506835241
30
0
0
SPLINE
5
18F
100
AcDbEntity
8
SK1
62
256
6
ByLayer
370
-1
48
1
60
0
100
AcDbSpline
70
4
71
3
72
53
73
49
40
0
40
0
40
0
40
0
40
0.0009015265617164
40
0.0080239634126009
40
0.0152429775906239
40
0.0225627502490277
40
0.0299872923156806
40
0.0375204473710903
40
0.045165895189155
40
0.0529271558244656
40
0.080207217145368
40
0.107887540937061
40
0.136107130166446
40
0.164997204912957
40
0.221222029598349
40
0.277014635004373
40
0.306338673308499
40
0.334691917192248
40
0.362228651801152
40
0.389117221213293
40
0.410870127297425
40
0.431237762972972
40
0.450352159287835
40
0.468372914363983
40
0.485490244299182
40
0.501925762492091
40
0.526652472152398
40
0.553195775565474
40
0.582181786882882
40
0.6140931619499
40
0.631894230351441
40
0.649963188977818
40
0.668350925779078
40
0.687105734035322
40
0.706273132659283
40
0.725895769498316
40
0.753753734564024
40
0.781593587907231
40
0.809530725857164
40
0.837679348302838
40
0.866493084772062
40
0.894647651208026
40
0.922273637917797
40
0.94950923963305
40
0.964882110641588
40
0.97980093152866
40
0.994296170112387
40
1
40
1
40
1
40
1
41
1
10
-24
20
-12.5794716111964
30
0
41
1
10
-24
20
-12.5794441226778
30
0
41
1
10
-24
20
-12.5790106306238
30
0
41
1
10
-24
20
-12.5750102454912
30
0
41
1
10
-24
20
-12.5615745885518
30
0
41
1
10
-24
20
-12.5403129223796
30
0
41
1
10
-24
20
-12.5112243715907
30
0
41
1
10
-24
20
-12.4743144356193
30
0
41
1
10
-24
20
-12.4295641486956
30
0
41
1
10
-24
20
-12.3332983728988
30
0
41
1
10
-24
20
-12.1488140883502
30
0
41
1
10
-24
20
-11.8183666241033
30
0
41
1
10
-24
20
-11.3988068147615
30
0
41
1
10
-24
20
-10.7351621337747
30
0
41
1
10
-24
20
-9.73480607524854
30
0
41
1
10
-24
20
-8.50289855695533
30
0
41
1
10
-24
20
-7.39075627731413
30
0
41
1
10
-24
20
-6.49127914507179
30
0
41
1
10
-24
20
-5.5556849882195
30
0
41
1
10
-23.9999999999999
20
-4.63955568105783
30
0
41
1
10
-24
20
-3.76913729325929
30
0
41
1
10
-23.9999999999999
20
-2.96447783194304
30
0
41
1
10
-23.9999999999999
20
-2.1790530124172
30
0
41
1
10
-23.9999999999999
20
-1.41279480441605
30
0
41
1
10
-23.9999999999999
20
-0.665594437609201
30
0
41
1
10
-23.9999999999999
20
0.190530582996331
30
0
41
1
10
-24
20
1.1838590283013
30
0
41
1
10
-23.9999999999999
20
2.32153593904502
30
0
41
1
10
-23.9999999999999
20
3.49834713164501
30
0
41
1
10
-23.9999999999999
20
4.49575550939699
30
0
41
1
10
-23.9999999999999
20
5.31422162579241
30
0
41
1
10
-24
20
5.94369174685866
30
0
41
1
10
-24
20
6.55748161513671
30
0
41
1
10
-24
20
7.15551399202425
30
0
41
1
10
-24
20
7.73777017421654
30
0
41
1
10
-24
20
8.37891321215074
30
0
41
1
10
-24
20
9.05789466220696
30
0
41
1
10
-24
20
9.74741392450429
30
0
41
1
10
-24
20
10.3724214375753
30
0
41
1
10
-24
20
10.9348709055083
30
0
41
1
10
-24
20
11.4282187860647
30
0
41
1
10
-24
20
11.841530117034
30
0
41
1
10
-24
20
12.1662204954186
30
0
41
1
10
-24
20
12.3685088187021
30
0
41
1
10
-24
20
12.4863667597008
30
0
41
1
10
-24
20
12.5496478387326
30
0
41
1
10
-24
20
12.5753275974123
30
0
41
1
10
-24
20
12.5798034620919
30
0
41
1
10
-24
20
12.5802183883914
30
0
0
SPLINE
5
190
100
AcDbEntity
8
SK1
62
256
6
ByLayer
370
-1
48
1
60
0
100
AcDbSpline
70
4
71
3
72
32
73
28
40
0
40
0
40
0
40
0
40
0.0318900995732844
40
0.0318900995732844
40
0.101040806746621
40
0.101040806746621
40
0.170191513919958
40
0.170191513919958
40
0.308492928266632
40
0.308492928266632
40
0.446794342613306
40
0.446794342613306
40
0.585095756959979
40
0.585095756959979
40
0.723397171306653
40
0.723397171306653
40
0.79254787847999
40
0.79254787847999
40
0.861698585653327
40
0.861698585653327
40
0.896273939239995
40
0.896273939239995
40
0.930849292826663
40
0.930849292826663
40
0.965424646413332
40
0.965424646413332
40
1
40
1
40
1
40
1
41
1
10
-1.69993734667219
20
-14.0200998925992
30
0
41
1
10
-1.69994186768889
20
-14.0197056801368
30
0
41
1
10
-1.69994597192198
20
-14.0135858449688
30
0
41
1
10
-1.69995782891479
20
-13.9774503250364
30
0
41
1
10
-1.6999642517909
20
-13.9277695406165
30
0
41
1
10
-1.69997475382922
20
-13.7847828609722
30
0
41
1
10
-1.6999788250202
20
-13.6912957588325
30
0
41
1
10
-1.69998863922481
20
-13.3518485205222
30
0
41
1
10
-1.69999208307536
20
-13.0465849013762
30
0
41
1
10
-1.699996483229
20
-12.3011915217478
30
0
41
1
10
-1.69999741875156
20
-11.8602971411697
30
0
41
1
10
-1.69999843685463
20
-10.8564210971593
30
0
41
1
10
-1.69999851438988
20
-10.2927022373387
30
0
41
1
10
-1.69999799256732
20
-9.05091124162112
30
0
41
1
10
-1.69999740061834
20
-8.3721061456593
30
0
41
1
10
-1.69999502958709
20
-7.2713543324295
30
0
41
1
10
-1.69999397669184
20
-6.89040184870717
30
0
41
1
10
-1.69999101652974
20
-6.10141020276637
30
0
41
1
10
-1.6999891033789
20
-5.69306646653774
30
0
41
1
10
-1.69998524495594
20
-5.06041750139286
30
0
41
1
10
-1.69998379350471
20
-4.84631038003562
30
0
41
1
10
-1.69998049429259
20
-4.4111320962962
30
0
41
1
10
-1.69997864360511
20
-4.18980776264149
30
0
41
1
10
-1.69997449922675
20
-3.74119667368481
30
0
41
1
10
-1.69997220400032
20
-3.51385665934996
30
0
41
1
10
-1.69996715777285
20
-3.05243159507233
30
0
41
1
10
-1.69996439693625
20
-2.81803866041682
30
0
41
1
10
-1.69996145716257
20
-2.58068890323886
30
0
0
SPLINE
5
191
100
AcDbEntity
8
SK1
62
256
6
ByLayer
370
-1
48
1
60
0
100
AcDbSpline
70
4
71
3
72
26
73
22
40
0
40
0
40
0
40
0
40
0.25
40
0.25
40
0.5
40
0.5
40
0.624999999999999
40
0.624999999999999
40
0.749999999999997
40
0.749999999999997
40
0.812499999999997
40
0.812499999999997
40
0.874999999999996
40
0.874999999999996
40
0.906249999999997
40
0.906249999999997
40
0.937499999999998
40
0.937499999999998
40
0.968749999999999
40
0.968749999999999
40
1
40
1
40
1
40
1
41
1
10
-0.199999999999903
20
5.54704287025544
30
0
41
1
10
-0.199999999999903
20
5.48162882321526
30
0
41
1
10
-0.201304969107213
20
5.41586490599749
30
0
41
1
10
-0.207698725150607
20
5.28352555216813
30
0
41
1
10
-0.212702118403314
20
5.21686290430191
30
0
41
1
10
-0.225372797443157
20
5.11639354963779
30
0
41
1
10
-0.230458701357264
20
5.08288973618465
30
0
41
1
10
-0.243504629141455
20
5.01592530726893
30
0
41
1
10
-0.251375408222884
20
4.98240276248384
30
0
41
1
10
-0.267548604682986
20
4.93314759425931
30
0
41
1
10
-0.273702791653733
20
4.91680607655076
30
0
41
1
10
-0.288769973838811
20
4.88507830219544
30
0
41
1
10
-0.297431313447731
20
4.86972146335862
30
0
41
1
10
-0.315312325469875
20
4.8495120628609
30
0
41
1
10
-0.322119716796465
20
4.84337403126673
30
0
41
1
10
-0.337500265830784
20
4.83443774480057
30
0
41
1
10
-0.346263053746242
20
4.83174638192023
30
0
41
1
10
-0.363716126367905
20
4.83167449719483
30
0
41
1
10
-0.372125684789637
20
4.83416445387314
30
0
41
1
10
-0.387061221247677
20
4.84166539782822
30
0
41
1
10
-0.39380700445173
20
4.84667653502061
30
0
41
1
10
-0.39999999999992
20
4.85227506835235
30
0
0
SPLINE
5
192
100
AcDbEntity
8
SK1
62
256
6
ByLayer
370
-1
48
1
60
0
100
AcDbSpline
70
4
71
3
72
26
73
22
40
0
40
0
40
0
40
0
40
0.0307913256326689
40
0.0307913256326689
40
0.127712193069418
40
0.127712193069418
40
0.176172626787792
40
0.176172626787792
40
0.224633060506167
40
0.224633060506167
40
0.248863277365352
40
0.248863277365352
40
0.273093494224536
40
0.273093494224536
40
0.321553927942905
40
0.321553927942905
40
0.418474795379635
40
0.418474795379635
40
0.612316530253091
40
0.612316530253091
40
1
40
1
40
1
40
1
41
1
10
-1.57433614776173
20
13.5697408402965
30
0
41
1
10
-1.57608698429954
20
13.5688168376512
30
0
41
1
10
-1.57787595635503
20
13.5679297492285
30
0
41
1
10
-1.58547170222766
20
13.5644238104942
30
0
41
1
10
-1.59163473346516
20
13.5621602929549
30
0
41
1
10
-1.60238757652303
20
13.5604200520529
30
0
41
1
10
-1.60622023568951
20
13.5601161512167
30
0
41
1
10
-1.61487977434197
20
13.5607220760426
30
0
41
1
10
-1.61966061650892
20
13.5615054149213
30
0
41
1
10
-1.62874276649822
20
13.5655264252002
30
0
41
1
10
-1.63222251279362
20
13.5674114022669
30
0
41
1
10
-1.64030398611314
20
13.573619849459
30
0
41
1
10
-1.64480166471759
20
13.5781096216329
30
0
41
1
10
-1.65569116198287
20
13.5916302553316
30
0
41
1
10
-1.65990888395672
20
13.5997016412416
30
0
41
1
10
-1.67042770926656
20
13.6213807422026
30
0
41
1
10
-1.67437774883194
20
13.6335041506938
30
0
41
1
10
-1.68468937018744
20
13.6684047051555
30
0
41
1
10
-1.68844996321823
20
13.6887386799271
30
0
41
1
10
-1.69734030571789
20
13.7470295418718
30
0
41
1
10
-1.69934373531291
20
13.7816465515501
30
0
41
1
10
-1.69987639962227
20
13.8139891097877
30
0
0
SPLINE
5
193
100
AcDbEntity
8
SK1
62
256
6
ByLayer
370
-1
48
1
60
0
100
AcDbSpline
70
4
71
3
72
34
73
30
40
0
40
0
40
0
40
0
40
0.0691487353716435
40
0.0691487353716435
40
0.103723103057465
40
0.103723103057465
40
0.138297470743287
40
0.138297470743287
40
0.276594941486574
40
0.276594941486574
40
0.345743676858217
40
0.345743676858217
40
0.414892412229861
40
0.414892412229861
40
0.553189882973148
40
0.553189882973148
40
0.622338618344792
40
0.622338618344792
40
0.691487353716435
40
0.691487353716435
40
0.760636089088079
40
0.760636089088079
40
0.829784824459722
40
0.829784824459722
40
0.898933559831366
40
0.898933559831366
40
0.968082295203009
40
0.968082295203009
40
1
40
1
40
1
40
1
41
1
10
-1.69996145737016
20
2.58069190327939
30
0
41
1
10
-1.69996733344885
20
3.05509930631811
30
0
41
1
10
-1.69997243482129
20
3.51761528130072
30
0
41
1
10
-1.69997865337851
20
4.19092322032552
30
0
41
1
10
-1.69998050405434
20
4.41234322785277
30
0
41
1
10
-1.69998380142846
20
4.84743867361578
30
0
41
1
10
-1.69998525071335
20
5.06131925165258
30
0
41
1
10
-1.69999166856414
20
6.11382700256573
30
0
41
1
10
-1.69999423902317
20
6.90428314753061
30
0
41
1
10
-1.69999661083062
20
8.00547171571807
30
0
41
1
10
-1.69999714066637
20
8.35873938181228
30
0
41
1
10
-1.69999789766098
20
9.03705178077976
30
0
41
1
10
-1.69999812321311
20
9.3617433182049
30
0
41
1
10
-1.69999851418868
20
10.2923620885299
30
0
41
1
10
-1.69999843654324
20
10.8567565013492
30
0
41
1
10
-1.69999767337529
20
11.6092172943729
30
0
41
1
10
-1.69999730052001
20
11.8445810270417
30
0
41
1
10
-1.69999615550933
20
12.283924450631
30
0
41
1
10
-1.69999538395524
20
12.4873992298258
30
0
41
1
10
-1.69999318283215
20
12.8602942255247
30
0
41
1
10
-1.69999175218271
20
13.0297885744734
30
0
41
1
10
-1.69998784953967
20
13.3318809933356
30
0
41
1
10
-1.69998537605031
20
13.4646455358602
30
0
41
1
10
-1.69997883083784
20
13.6911630512906
30
0
41
1
10
-1.69997475891142
20
13.7846945374618
30
0
41
1
10
-1.69996425447641
20
13.9277532746907
30
0
41
1
10
-1.69995785433562
20
13.977282564264
30
0
41
1
10
-1.69994833162724
20
14.0135163639104
30
0
41
1
10
-1.69994322325101
20
14.019677931425
30
0
41
1
10
-1.69993757160972
20
14.0200998896343
30
0
0
SPLINE
5
194
100
AcDbEntity
8
SK1
62
256
6
ByLayer
370
-1
48
1
60
0
100
AcDbSpline
70
4
71
3
72
28
73
24
40
0
40
0
40
0
40
0
40
0.249999999999992
40
0.249999999999992
40
0.374999999999987
40
0.374999999999987
40
0.437499999999984
40
0.437499999999984
40
0.468749999999982
40
0.468749999999982
40
0.49999999999998
40
0.49999999999998
40
0.515624999999981
40
0.515624999999981
40
0.531249999999981
40
0.531249999999981
40
0.562499999999982
40
0.562499999999982
40
0.624999999999984
40
0.624999999999984
40
0.749999999999989
40
0.749999999999989
40
1
40
1
40
1
40
1
41
1
10
-1.49999999999989
20
-2.55452633951475
30
0
41
1
10
-1.51517199566123
20
-2.46407938028935
30
0
41
1
10
-1.53136110460483
20
-2.37385196693899
30
0
41
1
10
-1.55981324196594
20
-2.24028158751409
30
0
41
1
10
-1.56995056306621
20
-2.19594811744051
30
0
41
1
10
-1.58796518920622
20
-2.1311657311102
30
0
41
1
10
-1.59441566991623
20
-2.10980654354705
30
0
41
1
10
-1.60591133452704
20
-2.07918416873096
30
0
41
1
10
-1.61004231989739
20
-2.06919519846662
30
0
41
1
10
-1.61967450688274
20
-2.05064590043739
30
0
41
1
10
-1.62504919799494
20
-2.04142660694538
30
0
41
1
10
-1.63640177685482
20
-2.03441195821591
30
0
41
1
10
-1.64099020656781
20
-2.03383680716846
30
0
41
1
10
-1.64923629291991
20
-2.038784943228
30
0
41
1
10
-1.65255399964531
20
-2.0435312415232
30
0
41
1
10
-1.66063967690013
20
-2.05871495105521
30
0
41
1
10
-1.66406773388874
20
-2.07036152075671
30
0
41
1
10
-1.67295327541402
20
-2.10521389033298
30
0
41
1
10
-1.67664822107099
20
-2.12914935367809
30
0
41
1
10
-1.68601976866213
20
-2.20039030781453
30
0
41
1
10
-1.68959945108364
20
-2.24810000899228
30
0
41
1
10
-1.69789374352146
20
-2.3912602075379
30
0
41
1
10
-1.69966348304169
20
-2.48612756096904
30
0
41
1
10
-1.69996145716266
20
-2.58068890323881
30
0
0
SPLINE
5
195
100
AcDbEntity
8
SK1
62
256
6
ByLayer
370
-1
48
1
60
0
100
AcDbSpline
70
4
71
3
72
33
73
29
40
0
40
0
40
0
40
0
40
0.0324085612300011
40
0.0724748836208387
40
0.112541206011676
40
0.152607528402514
40
0.192673850793352
40
0.232740173184189
40
0.272806495575027
40
0.312872817965864
40
0.352939140356702
40
0.39300546274754
40
0.433071785138377
40
0.473138107529215
40
0.513204429920052
40
0.55327075231089
40
0.593337074701727
40
0.633403397092565
40
0.673469719483403
40
0.71353604187424
40
0.753602364265078
40
0.793668686655916
40
0.833735009046753
40
0.873801331437591
40
0.913867653828429
40
0.953933976219266
40
0.994000298610104
40
1
40
1
40
1
40
1
41
1
10
-1.49999999999994
20
13.8245317693761
30
0
41
1
10
-1.49999999999991
20
13.8227864644971
30
0
41
1
10
-1.49999999999989
20
13.8105223070054
30
0
41
1
10
-1.49999999999991
20
13.7589702687857
30
0
41
1
10
-1.49999999999991
20
13.6607745146452
30
0
41
1
10
-1.49999999999991
20
13.5152595834079
30
0
41
1
10
-1.49999999999991
20
13.3190171661248
30
0
41
1
10
-1.49999999999991
20
13.0696050793313
30
0
41
1
10
-1.49999999999991
20
12.765695711353
30
0
41
1
10
-1.49999999999989
20
12.4071875173709
30
0
41
1
10
-1.49999999999991
20
11.9952649527342
30
0
41
1
10
-1.49999999999991
20
11.5324121673266
30
0
41
1
10
-1.49999999999991
20
11.0223736645665
30
0
41
1
10
-1.49999999999991
20
10.470066387995
30
0
41
1
10
-1.49999999999991
20
9.88144573908428
30
0
41
1
10
-1.49999999999991
20
9.26332794093628
30
0
41
1
10
-1.49999999999991
20
8.62318069742537
30
0
41
1
10
-1.49999999999991
20
7.96888164701966
30
0
41
1
10
-1.49999999999991
20
7.30846469728445
30
0
41
1
10
-1.49999999999989
20
6.64985041554638
30
0
41
1
10
-1.49999999999989
20
6.00058612356241
30
0
41
1
10
-1.49999999999989
20
5.36758867042255
30
0
41
1
10
-1.49999999999989
20
4.75691763797593
30
0
41
1
10
-1.49999999999989
20
4.17356939352865
30
0
41
1
10
-1.49999999999989
20
3.62131845460988
30
0
41
1
10
-1.49999999999989
20
3.10259083011954
30
0
41
1
10
-1.49999999999989
20
2.7556344787354
30
0
41
1
10
-1.49999999999989
20
2.57759088989684
30
0
41
1
10
-1.49999999999989
20
2.55452876952208
30
0
0
SPLINE
5
196
100
AcDbEntity
8
SK1
62
256
6
ByLayer
370
-1
48
1
60
0
100
AcDbSpline
70
4
71
3
72
8
73
4
40
0
40
0
40
0
40
0
40
1
40
1
40
1
40
1
41
1
10
-1.30710678118655
20
-3.5887172715492
30
0
41
1
10
-1.37540888210663
20
-3.25160142453237
30
0
41
1
10
-1.44078730620282
20
-2.90751932877146
30
0
41
1
10
-1.49999999999989
20
-2.55452633951475
30
0
0
SPLINE
5
197
100
AcDbEntity
8
SK1
62
256
6
ByLayer
370
-1
48
1
60
0
100
AcDbSpline
70
4
71
3
72
24
73
20
40
0
40
0
40
0
40
0
40
0.0625000000000001
40
0.0625000000000001
40
0.125
40
0.125
40
0.1875
40
0.1875
40
0.25
40
0.25
40
0.3125
40
0.3125
40
0.375
40
0.375
40
0.499999999999999
40
0.499999999999999
40
0.75
40
0.75
40
1
40
1
40
1
40
1
41
1
10
-0.39999999999992
20
4.85227506835235
30
0
41
1
10
-0.429028522387682
20
4.87851715893601
30
0
41
1
10
-0.461669517108362
20
4.9022122740283
30
0
41
1
10
-0.535635842083451
20
4.93548015393125
30
0
41
1
10
-0.57804268720426
20
4.94445593383577
30
0
41
1
10
-0.662695203082052
20
4.936848854717
30
0
41
1
10
-0.701977887727935
20
4.92120757612898
30
0
41
1
10
-0.770280811797022
20
4.87973605687952
30
0
41
1
10
-0.800192972747169
20
4.85380950611167
30
0
41
1
10
-0.853469820313023
20
4.79878665655176
30
0
41
1
10
-0.877345244832242
20
4.76909028975203
30
0
41
1
10
-0.921269196330456
20
4.70771179233336
30
0
41
1
10
-0.941162707941658
20
4.6762162425587
30
0
41
1
10
-0.996843936527853
20
4.5800735638295
30
0
41
1
10
-1.02870604240502
20
4.51379601608861
30
0
41
1
10
-1.11562010765073
20
4.31082835787518
30
0
41
1
10
-1.16210693251719
20
4.16969559228221
30
0
41
1
10
-1.24292111111839
20
3.88305937901257
30
0
41
1
10
-1.27704897241463
20
3.73707282454211
30
0
41
1
10
-1.30710678118675
20
3.58871725126116
30
0
0
SPLINE
5
198
100
AcDbEntity
8
SK1
62
256
6
ByLayer
370
-1
48
1
60
0
100
AcDbSpline
70
4
71
3
72
20
73
16
40
0
40
0
40
0
40
0
40
0.0998383909817682
40
0.0998383909817682
40
0.199676781963536
40
0.199676781963536
40
0.299515172945305
40
0.299515172945305
40
0.399353563927073
40
0.399353563927073
40
0.5990303458906
40
0.5990303458906
40
0.798707127854127
40
0.798707127854127
40
1
40
1
40
1
40
1
41
1
10
-0.399999999999949
20
13.8205590132786
30
0
41
1
10
-0.39376584134564
20
13.8207265187753
30
0
41
1
10
-0.387027117241075
20
13.8211499115544
30
0
41
1
10
-0.371824577325555
20
13.8229590799712
30
0
41
1
10
-0.36339504548647
20
13.824372072028
30
0
41
1
10
-0.345985468161132
20
13.8284726621792
30
0
41
1
10
-0.337106206851047
20
13.8311746690827
30
0
41
1
10
-0.321547617318515
20
13.8368777277562
30
0
41
1
10
-0.314808664695903
20
13.8398348619912
30
0
41
1
10
-0.2970529040835
20
13.8484646203001
30
0
41
1
10
-0.288219391107304
20
13.8539513653589
30
0
41
1
10
-0.273250362863962
20
13.864219309884
30
0
41
1
10
-0.267161640943328
20
13.8690434744368
30
0
41
1
10
-0.256374276517249
20
13.878343433506
30
0
41
1
10
-0.251686990651819
20
13.8828203854395
30
0
41
1
10
-0.247540221312931
20
13.887121655695
30
0
0
SPLINE
5
199
100
AcDbEntity
8
SK1
62
256
6
ByLayer
370
-1
48
1
60
0
100
AcDbSpline
70
4
71
3
72
27
73
23
40
0
40
0
40
0
40
0
40
0.0433318476064758
40
0.0944051784877844
40
0.145478509369093
40
0.196551840250402
40
0.24762517113171
40
0.298698502013019
40
0.349771832894327
40
0.400845163775636
40
0.451918494656945
40
0.502991825538253
40
0.554065156419562
40
0.60513848730087
40
0.656211818182179
40
0.707285149063488
40
0.758358479944796
40
0.809431810826105
40
0.860505141707413
40
0.911578472588722
40
0.962651803470031
40
1
40
1
40
1
40
1
41
1
10
-0.39999999999992
20
-4.85227456455004
30
0
41
1
10
-0.39999999999992
20
-5.02226873502781
30
0
41
1
10
-0.39999999999992
20
-5.39957114455262
30
0
41
1
10
-0.39999999999992
20
-6.00058584498379
30
0
41
1
10
-0.39999999999992
20
-6.64985057156352
30
0
41
1
10
-0.39999999999992
20
-7.30846436616247
30
0
41
1
10
-0.39999999999992
20
-7.96888181888042
30
0
41
1
10
-0.39999999999992
20
-8.62318035716166
30
0
41
1
10
-0.39999999999992
20
-9.26332810646636
30
0
41
1
10
-0.39999999999992
20
-9.88144543350359
30
0
41
1
10
-0.39999999999992
20
-10.4700665265398
30
0
41
1
10
-0.39999999999992
20
-11.022373431452
30
0
41
1
10
-0.399999999999949
20
-11.5324122627522
30
0
41
1
10
-0.399999999999949
20
-11.9952648181666
30
0
41
1
10
-0.399999999999977
20
-12.4071875603976
30
0
41
1
10
-0.399999999999977
20
-12.7656956859389
30
0
41
1
10
-0.399999999999977
20
-13.0696050688166
30
0
41
1
10
-0.399999999999977
20
-13.3190172436223
30
0
41
1
10
-0.399999999999977
20
-13.5152595263794
30
0
41
1
10
-0.399999999999977
20
-13.6607746658667
30
0
41
1
10
-0.399999999999977
20
-13.7501737648384
30
0
41
1
10
-0.399999999999977
20
-13.7852935509645
30
0
41
1
10
-0.399999999999977
20
-13.7965925645609
30
0
0
SPLINE
5
19A
100
AcDbEntity
8
1
62
256
6
ByLayer
370
-1
48
1
60
0
100
AcDbSpline
70
4
71
3
72
11
73
7
40
0
40
0
40
0
40
0
40
0.0084271749953238
40
0.529387158418038
40
0.934578256635704
40
1
40
1
40
1
40
1
41
1
10
77.7583673115698
20
1.47904868374016
30
0
41
1
10
77.7582696127419
20
1.47904778722955
30
0
41
1
10
77.7521322883412
20
1.47899066592024
30
0
41
1
10
77.7413001151099
20
1.47879983002218
30
0
41
1
10
77.7298225454122
20
1.47822436728066
30
0
41
1
10
77.7243777930587
20
1.47788868302302
30
0
41
1
10
77.7236209396306
20
1.47784099923783
30
0
0
SPLINE
5
19B
100
AcDbEntity
8
1
62
256
6
ByLayer
370
-1
48
1
60
0
100
AcDbSpline
70
4
71
3
72
10
73
6
40
0
40
0
40
0
40
0
40
0.453921360825113
40
0.907842721650226
40
1
40
1
40
1
40
1
41
1
10
76.8719201878
20
1.31695333468008
30
0
41
1
10
76.8780971610582
20
1.28455292894401
30
0
41
1
10
76.9005024976668
20
1.22168882106578
30
0
41
1
10
76.9449753348719
20
1.16324229085706
30
0
41
1
10
76.9744135226473
20
1.13671565120777
30
0
41
1
10
76.9795176909059
20
1.13240114183142
30
0
0
SPLINE
5
19C
100
AcDbEntity
8
1
62
256
6
ByLayer
370
-1
48
1
60
0
100
AcDbSpline
70
4
71
3
72
9
73
5
40
0
40
0
40
0
40
0
40
0.44350930306123
40
1
40
1
40
1
40
1
41
1
10
82.4915084360441
20
5.82568821809534
30
0
41
1
10
82.4714719855331
20
5.84262485678323
30
0
41
1
10
82.4215653518434
20
5.87517784132569
30
0
41
1
10
82.3642617899516
20
5.89235842261184
30
0
41
1
10
82.3316856324391
20
5.89670635857934
30
0
0
SPLINE
5
19D
100
AcDbEntity
8
1
62
256
6
ByLayer
370
-1
48
1
60
0
100
AcDbSpline
70
4
71
3
72
8
73
4
40
0
40
0
40
0
40
0
40
1
40
1
40
1
40
1
41
1
10
77.172544993433
20
0.97918905287446
30
0
41
1
10
77.1721865995584
20
0.97919516697732
30
0
41
1
10
77.171828208919
20
0.979201475253177
30
0
41
1
10
77.1714698218279
20
0.97920797769649
30
0
0
SPLINE
5
19E
100
AcDbEntity
8
1
62
256
6
ByLayer
370
-1
48
1
60
0
100
AcDbSpline
70
4
71
3
72
14
73
10
40
0
40
0
40
0
40
0
40
0.004403809873689
40
0.0109971621261811
40
0.0241838666311653
40
0.0505572756411338
40
0.156050911681008
40
0.578025455840504
40
1
40
1
40
1
40
1
41
1
10
82.0197130834337
20
3.88823285839141
30
0
41
1
10
82.0190673278864
20
3.88484499292602
30
0
41
1
10
82.0174254642099
20
3.87638547057333
30
0
41
1
10
82.0137717872896
20
3.85771430802308
30
0
41
1
10
82.0069078618013
20
3.82213075163293
30
0
41
1
10
81.985218443936
20
3.71024377481621
30
0
41
1
10
81.9025412127273
20
3.28310086317848
30
0
41
1
10
81.7607194716114
20
2.55081547117359
30
0
41
1
10
81.6346766799548
20
1.89990460882564
30
0
41
1
10
81.5716552841265
20
1.57444917765164
30
0
0
SPLINE
5
19F
100
AcDbEntity
8
1
62
256
6
ByLayer
370
-1
48
1
60
0
100
AcDbSpline
70
4
71
3
72
8
73
4
40
0
40
0
40
0
40
0
40
1
40
1
40
1
40
1
41
1
10
82.67747076379
20
5.65725427050808
30
0
41
1
10
82.6775296053089
20
5.65695040082036
30
0
41
1
10
82.6775884436463
20
5.65664652998456
30
0
41
1
10
82.6776472788004
20
5.65634265801006
30
0
0
SPLINE
5
1A0
100
AcDbEntity
8
1
62
256
6
ByLayer
370
-1
48
1
60
0
100
AcDbSpline
70
4
71
3
72
11
73
7
40
0
40
0
40
0
40
0
40
0.0084271749960749
40
0.529387158418439
40
0.934578256635833
40
1
40
1
40
1
40
1
41
1
10
81.6877274723148
20
5.4790406761866
30
0
41
1
10
81.6878251711427
20
5.47904157269721
30
0
41
1
10
81.6939624955434
20
5.4790986940065
30
0
41
1
10
81.7047946687747
20
5.47928952990458
30
0
41
1
10
81.7162722384725
20
5.4798649926461
30
0
41
1
10
81.721716990826
20
5.48020067690373
30
0
41
1
10
81.7224738442541
20
5.48024836068893
30
0
0
SPLINE
5
1A1
100
AcDbEntity
8
1
62
256
6
ByLayer
370
-1
48
1
60
0
100
AcDbSpline
70
4
71
3
72
8
73
4
40
0
40
0
40
0
40
0
40
1
40
1
40
1
40
1
41
1
10
76.9297908011914
20
1.07074091005461
30
0
41
1
10
76.9295545726756
20
1.07093988648043
30
0
41
1
10
76.929318574251
20
1.0711391384275
30
0
41
1
10
76.9290828068724
20
1.07133866508954
30
0
0
SPLINE
5
1A2
100
AcDbEntity
8
1
62
256
6
ByLayer
370
-1
48
1
60
0
100
AcDbSpline
70
4
71
3
72
27
73
23
40
0
40
0
40
0
40
0
40
0.0625
40
0.125
40
0.140625
40
0.15625
40
0.1875
40
0.25
40
0.3125
40
0.375
40
0.4375
40
0.46875
40
0.5
40
0.5625
40
0.625
40
0.6875
40
0.71875
40
0.75
40
0.78125
40
0.8125
40
0.875
40
1
40
1
40
1
40
1
41
1
10
77.9698263913025
20
5.79934910411606
30
0
41
1
10
77.95793176638
20
5.79934910411606
30
0
41
1
10
77.934142516535
20
5.79934910411606
30
0
41
1
10
77.9073796104594
20
5.79934910411606
30
0
41
1
10
77.8895376730757
20
5.79934910411606
30
0
41
1
10
77.8776430481532
20
5.79934910411606
30
0
41
1
10
77.8568274545389
20
5.79934910411606
30
0
41
1
10
77.8270908922327
20
5.79934910411606
30
0
41
1
10
77.7914070174652
20
5.79934910411606
30
0
41
1
10
77.7557231426977
20
5.79934910411606
30
0
41
1
10
77.7259865803915
20
5.79934910411606
30
0
41
1
10
77.7021973305465
20
5.79934910411606
30
0
41
1
10
77.6784080807016
20
5.79934910411606
30
0
41
1
10
77.6486715183954
20
5.79934910411606
30
0
41
1
10
77.6129876436279
20
5.79934910411606
30
0
41
1
10
77.5832510813217
20
5.79934910411606
30
0
41
1
10
77.5594618314767
20
5.79934910411606
30
0
41
1
10
77.541619894093
20
5.79934910411606
30
0
41
1
10
77.5237779567093
20
5.79934910411606
30
0
41
1
10
77.4999887068643
20
5.79934910411606
30
0
41
1
10
77.4583575196356
20
5.79934910411606
30
0
41
1
10
77.4226736448682
20
5.79934910411606
30
0
41
1
10
77.3988843950232
20
5.79934910411606
30
0
0
SPLINE
5
1A3
100
AcDbEntity
8
1
62
256
6
ByLayer
370
-1
48
1
60
0
100
AcDbSpline
70
4
71
3
72
10
73
6
40
0
40
0
40
0
40
0
40
0.190146666341339
40
0.481693866458457
40
1
40
1
40
1
40
1
41
1
10
77.7236209396368
20
1.47784099923823
30
0
41
1
10
77.7196902036475
20
1.47759335238399
30
0
41
1
10
77.7097355069305
20
1.47689636753049
30
0
41
1
10
77.6890698318452
20
1.47543787181678
30
0
41
1
10
77.6723348449838
20
1.4742266702817
30
0
41
1
10
77.6616234825843
20
1.47347479775559
30
0
0
SPLINE
5
1A4
100
AcDbEntity
8
1
62
256
6
ByLayer
370
-1
48
1
60
0
100
AcDbSpline
70
4
71
3
72
15
73
11
40
0
40
0
40
0
40
0
40
0.0039823711834269
40
0.0560173982325692
40
0.160087452330854
40
0.368227560527423
40
0.784507776920561
40
0.888577831018846
40
0.99264788511713
40
1
40
1
40
1
40
1
41
1
10
76.5852328417801
20
2.96013625076191
30
0
41
1
10
76.585192527839
20
2.95992660085591
30
0
41
1
10
76.5846265094251
20
2.95697743361393
30
0
41
1
10
76.583054987232
20
2.94854176166342
30
0
41
1
10
76.5800845073681
20
2.92923673912841
30
0
41
1
10
76.5763954290827
20
2.89013812823194
30
0
41
1
10
76.5774378474618
20
2.85066730779752
30
0
41
1
10
76.5816553507383
20
2.81737565604192
30
0
41
1
10
76.5835837300882
20
2.80600882662958
30
0
41
1
10
76.5846627222725
20
2.80013571475564
30
0
41
1
10
76.584734250368
20
2.79974819524341
30
0
0
SPLINE
5
1A5
100
AcDbEntity
8
1
62
256
6
ByLayer
370
-1
48
1
60
0
100
AcDbSpline
70
4
71
3
72
20
73
16
40
0
40
0
40
0
40
0
40
0.0357152536596769
40
0.0558050838432452
40
0.0714305073193539
40
0.0870559307954626
40
0.107145760979031
40
0.125003387808869
40
0.142861014638708
40
0.214291521958062
40
0.285722029277416
40
0.571444058554831
40
0.857166087832247
40
0.928596595151601
40
1
40
1
40
1
40
1
41
1
10
81.7216552973659
20
5.86539238182579
30
0
41
1
10
81.711324373491
20
5.86466721377141
30
0
41
1
10
81.6951823049365
20
5.86353413868645
30
0
41
1
10
81.6745204561292
20
5.86208380415707
30
0
41
1
10
81.659669751539
20
5.86104137734924
30
0
41
1
10
81.6448190460976
20
5.85999895181283
30
0
41
1
10
81.6293226565737
20
5.85891120527489
30
0
41
1
10
81.6131805824677
20
5.85777813848168
30
0
41
1
10
81.5821877966312
20
5.85560265554543
30
0
41
1
10
81.5356986026497
20
5.85233945388416
30
0
41
1
10
81.4117273212468
20
5.84363772834334
30
0
41
1
10
81.2257699118823
20
5.83058586781158
30
0
41
1
10
81.0398169203434
20
5.81752740874589
30
0
41
1
10
80.9158484763387
20
5.80883370487626
30
0
41
1
10
80.8745418339378
20
5.80583031276845
30
0
41
1
10
80.8538812437333
20
5.80447976026986
30
0
0
SPLINE
5
1A6
100
AcDbEntity
8
1
62
256
6
ByLayer
370
-1
48
1
60
0
100
AcDbSpline
70
4
71
3
72
8
73
4
40
0
40
0
40
0
40
0
40
1
40
1
40
1
40
1
41
1
10
82.9647777567544
20
4.17353742249202
30
0
41
1
10
82.9647194734511
20
4.17384139442905
30
0
41
1
10
82.9646609114632
20
4.17414531307125
30
0
41
1
10
82.9646020709334
20
4.17444917765164
30
0
0
SPLINE
5
1A7
100
AcDbEntity
8
1
62
256
6
ByLayer
370
-1
48
1
60
0
100
AcDbSpline
70
4
71
3
72
32
73
28
40
0
40
0
40
0
40
0
40
0.125
40
0.15625
40
0.1875
40
0.203125
40
0.21875
40
0.25
40
0.28125
40
0.3125
40
0.34375
40
0.359375
40
0.375
40
0.4375
40
0.46875
40
0.5
40
0.53125
40
0.546875
40
0.5625
40
0.625
40
0.6875
40
0.75
40
0.8125
40
0.84375
40
0.859375
40
0.875
40
1
40
1
40
1
40
1
41
1
10
82.5991059391499
20
5.64113602524668
30
0
41
1
10
82.5649126411052
20
5.63435760765228
30
0
41
1
10
82.5221710185493
20
5.62588458565929
30
0
41
1
10
82.4708810714823
20
5.61571695926767
30
0
41
1
10
82.4495128593482
20
5.61148036101091
30
0
41
1
10
82.4324084128942
20
5.60809141399452
30
0
41
1
10
82.4152138892867
20
5.60469236657491
30
0
41
1
10
82.3934369129913
20
5.60040504996607
30
0
41
1
10
82.3670643868083
20
5.59523715525913
30
0
41
1
10
82.3405572209265
20
5.59006856795432
30
0
41
1
10
82.3184776637329
20
5.58578605435108
30
0
41
1
10
82.3007682607694
20
5.58235714192065
30
0
41
1
10
82.2741984702619
20
5.57721380522736
30
0
41
1
10
82.2432137533136
20
5.57121439898339
30
0
41
1
10
82.2077997828063
20
5.56435768758351
30
0
41
1
10
82.1812327674758
20
5.5592139345141
30
0
41
1
10
82.1591217233212
20
5.55493306936268
30
0
41
1
10
82.1413618706513
20
5.55149425282258
30
0
41
1
10
82.1151005372511
20
5.546412088155
30
0
41
1
10
82.0753781494367
20
5.53877374642579
30
0
41
1
10
82.0228027072115
20
5.52876352729578
30
0
41
1
10
81.9715258935842
20
5.51910156624703
30
0
41
1
10
81.9306160546265
20
5.51148095493565
30
0
41
1
10
81.9033298337937
20
5.50644390741775
30
0
41
1
10
81.8880974080234
20
5.50364676979424
30
0
41
1
10
81.8496726851955
20
5.49658927607092
30
0
41
1
10
81.8151702981838
20
5.49025277390592
30
0
41
1
10
81.7844713013003
20
5.48461456217117
30
0
0
SPLINE
5
1A8
100
AcDbEntity
8
1
62
256
6
ByLayer
370
-1
48
1
60
0
100
AcDbSpline
70
4
71
2
72
6
73
3
40
0
40
0
40
0
40
1
40
1
40
1
41
1
10
82.0196983688272
20
3.88823568458682
30
0
41
1
10
82.0565382594125
20
4.07904467996337
30
0
41
1
10
82.0196983688272
20
4.26985367533993
30
0
0
SPLINE
5
1A9
100
AcDbEntity
8
1
62
256
6
ByLayer
370
-1
48
1
60
0
100
AcDbSpline
70
4
71
1
72
4
73
2
40
0
40
0
40
1
40
1
41
1
10
79.7230473919423
20
5.47904467996338
30
0
41
1
10
78.7268526938506
20
5.47904467996338
30
0
0
SPLINE
5
1AA
100
AcDbEntity
8
1
62
256
6
ByLayer
370
-1
48
1
60
0
100
AcDbSpline
70
4
71
3
72
20
73
16
40
0
40
0
40
0
40
0
40
0.0357152536596759
40
0.0558050838432435
40
0.0714305073193517
40
0.0870559307954599
40
0.107145760979028
40
0.125003387808865
40
0.142861014638703
40
0.214291521958055
40
0.285722029277407
40
0.571444058554814
40
0.857166087832221
40
0.928596595151572
40
1
40
1
40
1
40
1
41
1
10
77.749370829584
20
1.09269697810095
30
0
41
1
10
77.7597017534589
20
1.09342214615535
30
0
41
1
10
77.7758438220135
20
1.09455522124031
30
0
41
1
10
77.7965056708207
20
1.09600555576969
30
0
41
1
10
77.8113563754109
20
1.09704798257752
30
0
41
1
10
77.8262070808523
20
1.09809040811393
30
0
41
1
10
77.8417034703762
20
1.09917815465187
30
0
41
1
10
77.8578455444822
20
1.10031122144508
30
0
41
1
10
77.8888383303187
20
1.10248670438133
30
0
41
1
10
77.9353275243002
20
1.1057499060426
30
0
41
1
10
78.0592988057031
20
1.11445163158342
30
0
41
1
10
78.2452562150676
20
1.12750349211518
30
0
41
1
10
78.4312092066066
20
1.14056195118084
30
0
41
1
10
78.5551776506112
20
1.1492556550505
30
0
41
1
10
78.5964842930121
20
1.15225904715831
30
0
41
1
10
78.6171448832167
20
1.1536095996569
30
0
0
SPLINE
5
1AB
100
AcDbEntity
8
1
62
256
6
ByLayer
370
-1
48
1
60
0
100
AcDbSpline
70
4
71
3
72
8
73
4
40
0
40
0
40
0
40
0
40
1
40
1
40
1
40
1
41
1
10
78.6242135804083
20
1.07417278408823
30
0
41
1
10
78.6239059576967
20
1.07415119084391
30
0
41
1
10
78.6235983345298
20
1.07412959640078
30
0
41
1
10
78.6232907109078
20
1.07410800075888
30
0
0
SPLINE
5
1AC
100
AcDbEntity
8
1
62
256
6
ByLayer
370
-1
48
1
60
0
100
AcDbSpline
70
4
71
1
72
4
73
2
40
0
40
0
40
1
40
1
41
1
10
81.6877274358608
20
5.47904467996338
30
0
41
1
10
79.7230473919423
20
5.47904467996338
30
0
0
SPLINE
5
1AD
100
AcDbEntity
8
1
62
256
6
ByLayer
370
-1
48
1
60
0
100
AcDbSpline
70
4
71
3
72
8
73
4
40
0
40
0
40
0
40
0
40
1
40
1
40
1
40
1
41
1
10
77.1297180898705
20
0.982352897729584
30
0
41
1
10
77.0564737966955
20
0.992083649461307
30
0
41
1
10
76.9863884475834
20
1.02306843769892
30
0
41
1
10
76.9297908011914
20
1.07074091005461
30
0
0
SPLINE
5
1AE
100
AcDbEntity
8
1
62
256
6
ByLayer
370
-1
48
1
60
0
100
AcDbSpline
70
4
71
3
72
8
73
4
40
0
40
0
40
0
40
0
40
1
40
1
40
1
40
1
41
1
10
76.5078159572908
20
2.97536077100989
30
0
41
1
10
76.5077571028967
20
2.97505690747738
30
0
41
1
10
76.5076982553576
20
2.97475304302262
30
0
41
1
10
76.5076394146747
20
2.97444917765165
30
0
0
SPLINE
5
1AF
100
AcDbEntity
8
1
62
256
6
ByLayer
370
-1
48
1
60
0
100
AcDbSpline
70
4
71
3
72
8
73
4
40
0
40
0
40
0
40
0
40
1
40
1
40
1
40
1
41
1
10
82.3316856324391
20
5.89670635857934
30
0
41
1
10
82.3210648007335
20
5.89812639504262
30
0
41
1
10
82.310364667933
20
5.89877771108326
30
0
41
1
10
82.2996522542563
20
5.89912053405942
30
0
0
SPLINE
5
1B0
100
AcDbEntity
8
1
62
256
6
ByLayer
370
-1
48
1
60
0
100
AcDbSpline
70
4
71
3
72
11
73
7
40
0
40
0
40
0
40
0
40
0.25
40
0.5
40
0.75
40
1
40
1
40
1
40
1
41
1
10
81.5716552841265
20
1.57444917765164
30
0
41
1
10
81.5665440805361
20
1.54386746680984
30
0
41
1
10
81.5557985528109
20
1.47983248729795
30
0
41
1
10
81.5384360857911
20
1.3770751179575
30
0
41
1
10
81.5201546295399
20
1.2695226219567
30
0
41
1
10
81.5075536907826
20
1.19580642899521
30
0
41
1
10
81.5011997356474
20
1.1587402558107
30
0
0
SPLINE
5
1B1
100
AcDbEntity
8
1
62
256
6
ByLayer
370
-1
48
1
60
0
100
AcDbSpline
70
4
71
3
72
14
73
10
40
0
40
0
40
0
40
0
40
0.0278688906942445
40
0.280125361774724
40
0.532381832855203
40
0.658510068395443
40
0.784638303935682
40
0.910766539475922
40
1
40
1
40
1
40
1
41
1
10
82.2978123663054
20
5.89917646471807
30
0
41
1
10
82.296405564212
20
5.89921704083935
30
0
41
1
10
82.2822635685762
20
5.89957599424852
30
0
41
1
10
82.2553877045968
20
5.89952414251758
30
0
41
1
10
82.2235526720681
20
5.89893308294694
30
0
41
1
10
82.1980972595078
20
5.89807183001813
30
0
41
1
10
82.1790149816813
20
5.89721403203671
30
0
41
1
10
82.1618044016039
20
5.8962327395455
30
0
41
1
10
82.1509547950934
20
5.89553377983009
30
0
41
1
10
82.1464598812418
20
5.89523423521462
30
0
0
SPLINE
5
1B2
100
AcDbEntity
8
1
62
256
6
ByLayer
370
-1
48
1
60
0
100
AcDbSpline
70
4
71
3
72
14
73
10
40
0
40
0
40
0
40
0
40
0.25
40
0.25
40
0.5
40
0.5
40
0.75
40
0.75
40
1
40
1
40
1
40
1
41
1
10
82.46465369552
20
1.40180969070107
30
0
41
1
10
82.4557930647819
20
1.35661204754294
30
0
41
1
10
82.4392426384556
20
1.3133791249426
30
0
41
1
10
82.3923414030913
20
1.23454073403551
30
0
41
1
10
82.3619878630572
20
1.19913675151389
30
0
41
1
10
82.2912866520022
20
1.14082614170636
30
0
41
1
10
82.2508291112483
20
1.11781457266295
30
0
41
1
10
82.1646200654598
20
1.08690088780906
30
0
41
1
10
82.1195637662458
20
1.07904466196595
30
0
41
1
10
82.0736745500857
20
1.07904466193733
30
0
0
SPLINE
5
1B3
100
AcDbEntity
8
1
62
256
6
ByLayer
370
-1
48
1
60
0
100
AcDbSpline
70
4
71
3
72
14
73
10
40
0
40
0
40
0
40
0
40
0.25
40
0.25
40
0.5
40
0.5
40
0.75
40
0.75
40
1
40
1
40
1
40
1
41
1
10
77.0075877950245
20
5.55627966922569
30
0
41
1
10
77.0164484257882
20
5.60147731238382
30
0
41
1
10
77.0329988521344
20
5.64471023498416
30
0
41
1
10
77.0799000875254
20
5.72354862589125
30
0
41
1
10
77.1102536275666
20
5.75895260841287
30
0
41
1
10
77.1809548386213
20
5.8172632182204
30
0
41
1
10
77.2214123793683
20
5.84027478726378
30
0
41
1
10
77.3076214251297
20
5.87118847211767
30
0
41
1
10
77.3526777243239
20
5.87904469796081
30
0
41
1
10
77.3985669404582
20
5.87904469798943
30
0
0
SPLINE
5
1B4
100
AcDbEntity
8
1
62
256
6
ByLayer
370
-1
48
1
60
0
100
AcDbSpline
70
4
71
3
72
11
73
7
40
0
40
0
40
0
40
0
40
0.25
40
0.5
40
0.75
40
1
40
1
40
1
40
1
41
1
10
77.8744394997582
20
5.38364018227512
30
0
41
1
10
77.8832024851304
20
5.41422189311692
30
0
41
1
10
77.9005021925141
20
5.4782568726288
30
0
41
1
10
77.9253714887717
20
5.58101424196926
30
0
41
1
10
77.9487590454755
20
5.68856673797006
30
0
41
1
10
77.9630671662101
20
5.76228293093155
30
0
41
1
10
77.9698263913025
20
5.79934910411606
30
0
0
SPLINE
5
1B5
100
AcDbEntity
8
1
62
256
6
ByLayer
370
-1
48
1
60
0
100
AcDbSpline
70
4
71
3
72
11
73
7
40
0
40
0
40
0
40
0
40
0.25
40
0.5
40
0.75
40
1
40
1
40
1
40
1
41
1
10
82.0721417319267
20
1.1587402558107
30
0
41
1
10
82.1088115376324
20
1.15867153776554
30
0
41
1
10
82.1821811868845
20
1.17134755675804
30
0
41
1
10
82.2794059175984
20
1.22657170310328
30
0
41
1
10
82.3523582522028
20
1.31152830884042
30
0
41
1
10
82.3790944386482
20
1.38132796461636
30
0
41
1
10
82.3862016612184
20
1.41747191789702
30
0
0
SPLINE
5
1B6
100
AcDbEntity
8
1
62
256
6
ByLayer
370
-1
48
1
60
0
100
AcDbSpline
70
4
71
3
72
9
73
5
40
0
40
0
40
0
40
0
40
0.5
40
1
40
1
40
1
40
1
41
1
10
77.6616234825843
20
1.47347479775559
30
0
41
1
10
77.6765441960715
20
1.42012347991218
30
0
41
1
10
77.7077862772112
20
1.29690980096839
30
0
41
1
10
77.7366463638882
20
1.15931135053975
30
0
41
1
10
77.749370829584
20
1.09269697810095
30
0
0
SPLINE
5
1B7
100
AcDbEntity
8
1
62
256
6
ByLayer
370
-1
48
1
60
0
100
AcDbSpline
70
4
71
3
72
8
73
4
40
0
40
0
40
0
40
0
40
1
40
1
40
1
40
1
41
1
10
78.7622705175777
20
1.07904446796843
30
0
41
1
10
78.7161954226909
20
1.07902299230537
30
0
41
1
10
78.6701764436344
20
1.07739909767864
30
0
41
1
10
78.6242135804083
20
1.07417278408823
30
0
0
SPLINE
5
1B8
100
AcDbEntity
8
1
62
256
6
ByLayer
370
-1
48
1
60
0
100
AcDbSpline
70
4
71
3
72
27
73
23
40
0
40
0
40
0
40
0
40
0.0625
40
0.125
40
0.140625
40
0.15625
40
0.1875
40
0.25
40
0.3125
40
0.375
40
0.4375
40
0.46875
40
0.5
40
0.5625
40
0.625
40
0.6875
40
0.71875
40
0.75
40
0.78125
40
0.8125
40
0.875
40
1
40
1
40
1
40
1
41
1
10
81.5011997356474
20
1.1587402558107
30
0
41
1
10
81.5130943605699
20
1.1587402558107
30
0
41
1
10
81.5368836104149
20
1.1587402558107
30
0
41
1
10
81.5636465164905
20
1.1587402558107
30
0
41
1
10
81.5814884538742
20
1.1587402558107
30
0
41
1
10
81.5933830787967
20
1.1587402558107
30
0
41
1
10
81.6141986724111
20
1.1587402558107
30
0
41
1
10
81.6439352347173
20
1.1587402558107
30
0
41
1
10
81.6796191094847
20
1.1587402558107
30
0
41
1
10
81.7153029842522
20
1.1587402558107
30
0
41
1
10
81.7450395465584
20
1.1587402558107
30
0
41
1
10
81.7688287964033
20
1.1587402558107
30
0
41
1
10
81.7926180462483
20
1.1587402558107
30
0
41
1
10
81.8223546085546
20
1.1587402558107
30
0
41
1
10
81.858038483322
20
1.1587402558107
30
0
41
1
10
81.8877750456282
20
1.1587402558107
30
0
41
1
10
81.9115642954732
20
1.1587402558107
30
0
41
1
10
81.9294062328569
20
1.1587402558107
30
0
41
1
10
81.9472481702406
20
1.1587402558107
30
0
41
1
10
81.9710374200856
20
1.1587402558107
30
0
41
1
10
82.0126686073143
20
1.1587402558107
30
0
41
1
10
82.0483524820818
20
1.1587402558107
30
0
41
1
10
82.0721417319267
20
1.1587402558107
30
0
0
SPLINE
5
1B9
100
AcDbEntity
8
1
62
256
6
ByLayer
370
-1
48
1
60
0
100
AcDbSpline
70
4
71
3
72
8
73
4
40
0
40
0
40
0
40
0
40
1
40
1
40
1
40
1
41
1
10
82.4648312616266
20
1.40272108181276
30
0
41
1
10
82.4647724154796
20
1.40241718822412
30
0
41
1
10
82.4647132267017
20
1.40211339120825
30
0
41
1
10
82.46465369552
20
1.40180969070107
30
0
0
SPLINE
5
1BA
100
AcDbEntity
8
1
62
256
6
ByLayer
370
-1
48
1
60
0
100
AcDbSpline
70
4
71
3
72
8
73
4
40
0
40
0
40
0
40
0
40
1
40
1
40
1
40
1
41
1
10
77.0074102450824
20
5.555368278114
30
0
41
1
10
77.0074690912294
20
5.55567217170264
30
0
41
1
10
77.0075282746179
20
5.55597596871851
30
0
41
1
10
77.0075877950245
20
5.55627966922569
30
0
0
SPLINE
5
1BB
100
AcDbEntity
8
1
62
256
6
ByLayer
370
-1
48
1
60
0
100
AcDbSpline
70
4
71
1
72
4
73
2
40
0
40
0
40
1
40
1
41
1
10
78.669762680204
20
5.4757648876477
30
0
41
1
10
77.8744394997582
20
5.38364018227512
30
0
0
SPLINE
5
1BC
100
AcDbEntity
8
1
62
256
6
ByLayer
370
-1
48
1
60
0
100
AcDbSpline
70
4
71
3
72
8
73
4
40
0
40
0
40
0
40
0
40
1
40
1
40
1
40
1
41
1
10
76.5074637370227
20
2.78455193743474
30
0
41
1
10
76.5075220289472
20
2.78424796549771
30
0
41
1
10
76.5075805952457
20
2.78394404685551
30
0
41
1
10
76.5076394357755
20
2.78364018227509
30
0
0
SPLINE
5
1BD
100
AcDbEntity
8
1
62
256
6
ByLayer
370
-1
48
1
60
0
100
AcDbSpline
70
4
71
1
72
4
73
2
40
0
40
0
40
1
40
1
41
1
10
77.9698263913025
20
5.79934910411606
30
0
41
1
10
79.735513063475
20
5.79934910411606
30
0
0
SPLINE
5
1BE
100
AcDbEntity
8
1
62
256
6
ByLayer
370
-1
48
1
60
0
100
AcDbSpline
70
4
71
3
72
32
73
28
40
0
40
0
40
0
40
0
40
0.125
40
0.15625
40
0.1875
40
0.203125
40
0.21875
40
0.25
40
0.28125
40
0.3125
40
0.34375
40
0.359375
40
0.375
40
0.4375
40
0.46875
40
0.5
40
0.53125
40
0.546875
40
0.5625
40
0.625
40
0.6875
40
0.75
40
0.8125
40
0.84375
40
0.859375
40
0.875
40
1
40
1
40
1
40
1
41
1
10
76.8719201878
20
1.31695333468008
30
0
41
1
10
76.9072053641846
20
1.32373175227448
30
0
41
1
10
76.9513118346653
20
1.33220477426747
30
0
41
1
10
77.0042395992422
20
1.34237240065906
30
0
41
1
10
77.0262963280402
20
1.34660899891585
30
0
41
1
10
77.0439284355595
20
1.34999794593225
30
0
41
1
10
77.0615739946023
20
1.35339699335182
30
0
41
1
10
77.0837418200589
20
1.35768430996069
30
0
41
1
10
77.1103399813925
20
1.36285220466763
30
0
41
1
10
77.1368106021242
20
1.36802079197244
30
0
41
1
10
77.1586266160919
20
1.37230330557568
30
0
41
1
10
77.1760634107918
20
1.37573221800611
30
0
41
1
10
77.2022125892692
20
1.3808755546994
30
0
41
1
10
77.2327215155655
20
1.38687496094337
30
0
41
1
10
77.2675885274599
20
1.39373167234325
30
0
41
1
10
77.2937447489509
20
1.39887542541265
30
0
41
1
10
77.315512379401
20
1.40315629056408
30
0
41
1
10
77.3330002410717
20
1.40659510710418
30
0
41
1
10
77.3588308661536
20
1.41167727177176
30
0
41
1
10
77.3974011363413
20
1.41931561350097
30
0
41
1
10
77.4474299884328
20
1.42932583263098
30
0
41
1
10
77.4951878395061
20
1.43898779367973
30
0
41
1
10
77.5323889225681
20
1.44660840499111
30
0
41
1
10
77.5567322114698
20
1.45164545250901
30
0
41
1
10
77.5701703201041
20
1.45444259013252
30
0
41
1
10
77.604084589432
20
1.46150008385584
30
0
41
1
10
77.634531063642
20
1.46783658602084
30
0
41
1
10
77.6616234825843
20
1.47347479775559
30
0
0
SPLINE
5
1BF
100
AcDbEntity
8
1
62
256
6
ByLayer
370
-1
48
1
60
0
100
AcDbSpline
70
4
71
3
72
8
73
4
40
0
40
0
40
0
40
0
40
1
40
1
40
1
40
1
41
1
10
82.542450689127
20
5.88734844987215
30
0
41
1
10
82.5426869176428
20
5.88714947344633
30
0
41
1
10
82.5429229161726
20
5.88695022149926
30
0
41
1
10
82.5431586837618
20
5.88675069483722
30
0
0
SPLINE
5
1C0
100
AcDbEntity
8
1
62
256
6
ByLayer
370
-1
48
1
60
0
100
AcDbSpline
70
4
71
3
72
14
73
10
40
0
40
0
40
0
40
0
40
0.276946339130912
40
0.276946339130912
40
0.553892678261423
40
0.553892678261423
40
0.776880838709361
40
0.776880838709361
40
1
40
1
40
1
40
1
41
1
10
77.1705448722792
20
0.979225911901892
30
0
41
1
10
77.1668493966932
20
0.979302275218032
30
0
41
1
10
77.1631546476522
20
0.979434459741242
30
0
41
1
10
77.1557716177391
20
0.979810291780666
30
0
41
1
10
77.1520825017523
20
0.980053981808226
30
0
41
1
10
77.1454317620143
20
0.980594275557394
30
0
41
1
10
77.14246792623
20
0.980871361045473
30
0
41
1
10
77.1365465058127
20
0.98149765282335
30
0
41
1
10
77.133588491084
20
0.981846947373498
30
0
41
1
10
77.1306353443144
20
0.982232144756694
30
0
0
SPLINE
5
1C1
100
AcDbEntity
8
1
62
256
6
ByLayer
370
-1
48
1
60
0
100
AcDbSpline
70
4
71
3
72
10
73
6
40
0
40
0
40
0
40
0
40
0.453921360825141
40
0.907842721650283
40
1
40
1
40
1
40
1
41
1
10
82.5991059391499
20
5.64113602524668
30
0
41
1
10
82.5929289658918
20
5.67353643098275
30
0
41
1
10
82.5705236292831
20
5.73640053886098
30
0
41
1
10
82.526050792078
20
5.7948470690697
30
0
41
1
10
82.4966126043026
20
5.82137370871897
30
0
41
1
10
82.4915084360441
20
5.82568821809534
30
0
0
SPLINE
5
1C2
100
AcDbEntity
8
1
62
256
6
ByLayer
370
-1
48
1
60
0
100
AcDbSpline
70
4
71
3
72
15
73
11
40
0
40
0
40
0
40
0
40
0.0039823711833973
40
0.0560173982325396
40
0.160087452330824
40
0.368227560527393
40
0.784507776920532
40
0.888577831018816
40
0.992647885117101
40
1
40
1
40
1
40
1
41
1
10
82.8857905315456
20
3.99795310916485
30
0
41
1
10
82.885830849819
20
3.99816275907085
30
0
41
1
10
82.8863969299396
20
4.00111192631283
30
0
41
1
10
82.8879686579046
20
4.00954759826334
30
0
41
1
10
82.8909396586057
20
4.02885262079832
30
0
41
1
10
82.8946296066502
20
4.06795123169482
30
0
41
1
10
82.893587956446
20
4.10742205212924
30
0
41
1
10
82.8893710989807
20
4.14071370388484
30
0
41
1
10
82.8874429079342
20
4.15208053329718
30
0
41
1
10
82.8863639818371
20
4.15795364517112
30
0
41
1
10
82.8862924579716
20
4.15834116468335
30
0
0
SPLINE
5
1C3
100
AcDbEntity
8
1
62
256
6
ByLayer
370
-1
48
1
60
0
100
AcDbSpline
70
4
71
3
72
8
73
4
40
0
40
0
40
0
40
0
40
1
40
1
40
1
40
1
41
1
10
82.3416061449648
20
5.97585721517007
30
0
41
1
10
82.3419119439121
20
5.97581732790289
30
0
41
1
10
82.3422176961532
20
5.97577707685596
30
0
41
1
10
82.3425234003997
20
5.97573646219718
30
0
0
SPLINE
5
1C4
100
AcDbEntity
8
1
62
256
6
ByLayer
370
-1
48
1
60
0
100
AcDbSpline
70
4
71
1
72
4
73
2
40
0
40
0
40
1
40
1
41
1
10
80.7763321036806
20
1.48232447227906
30
0
41
1
10
81.5716552841265
20
1.57444917765164
30
0
0
SPLINE
5
1C5
100
AcDbEntity
8
1
62
256
6
ByLayer
370
-1
48
1
60
0
100
AcDbSpline
70
4
71
3
72
9
73
5
40
0
40
0
40
0
40
0
40
0.5
40
1
40
1
40
1
40
1
41
1
10
79.735513063475
20
1.15874025581073
30
0
41
1
10
79.7350689594039
20
1.21698234750465
30
0
41
1
10
79.732447900611
20
1.3351218152097
30
0
41
1
10
79.7265306513179
20
1.43637348479945
30
0
41
1
10
79.7230473919423
20
1.47904467996338
30
0
0
SPLINE
5
1C6
100
AcDbEntity
8
1
62
256
6
ByLayer
370
-1
48
1
60
0
100
AcDbSpline
70
4
71
3
72
18
73
14
40
0
40
0
40
0
40
0
40
0.0103342694142184
40
0.0214541090837216
40
0.0659334677617342
40
0.110412826439747
40
0.12153266610925
40
0.132652505778753
40
0.15489218511776
40
0.199371543795772
40
0.288330261151798
40
0.644165130575899
40
1
40
1
40
1
40
1
41
1
10
76.5847342503686
20
2.79974819524006
30
0
41
1
10
76.5856752109086
20
2.79465033031036
30
0
41
1
10
76.5877477727049
20
2.78407200988715
30
0
41
1
10
76.5941211148333
20
2.75145501337619
30
0
41
1
10
76.6037175218516
20
2.70199009792654
30
0
41
1
10
76.6132622918295
20
2.65255744625367
30
0
41
1
10
76.6196338007283
20
2.61960035416007
30
0
41
1
10
76.623883227246
20
2.59763054188588
30
0
41
1
10
76.63132540245
20
2.55917348060191
30
0
41
1
10
76.6462278564781
20
2.48223647834826
30
0
41
1
10
76.6931304408756
20
2.24035460660642
30
0
41
1
10
76.7697381313264
20
1.84461712246636
30
0
41
1
10
76.8378620823777
20
1.49283304889983
30
0
41
1
10
76.8719201878
20
1.31695333468008
30
0
0
SPLINE
5
1C7
100
AcDbEntity
8
1
62
256
6
ByLayer
370
-1
48
1
60
0
100
AcDbSpline
70
4
71
3
72
14
73
10
40
0
40
0
40
0
40
0
40
0.0044038098736869
40
0.010997162126179
40
0.0241838666311633
40
0.0505572756411319
40
0.156050911681006
40
0.578025455840503
40
1
40
1
40
1
40
1
41
1
10
77.4263817004509
20
3.06985650153536
30
0
41
1
10
77.4270274559983
20
3.07324436700074
30
0
41
1
10
77.4286693196748
20
3.08170388935344
30
0
41
1
10
77.4323229965951
20
3.10037505190365
30
0
41
1
10
77.4391869220834
20
3.13595860829383
30
0
41
1
10
77.4608763399486
20
3.24784558511055
30
0
41
1
10
77.5435535711573
20
3.67498849674828
30
0
41
1
10
77.6853753122732
20
4.40727388875317
30
0
41
1
10
77.8114181039298
20
5.05818475110112
30
0
41
1
10
77.8744394997582
20
5.38364018227512
30
0
0
SPLINE
5
1C8
100
AcDbEntity
8
1
62
256
6
ByLayer
370
-1
48
1
60
0
100
AcDbSpline
70
4
71
2
72
6
73
3
40
0
40
0
40
0
40
1
40
1
40
1
41
1
10
80.7192420195495
20
1.47905974814111
30
0
41
1
10
80.7481011427857
20
1.47921042005498
30
0
41
1
10
80.7763321036806
20
1.48232447227906
30
0
0
SPLINE
5
1C9
100
AcDbEntity
8
1
62
256
6
ByLayer
370
-1
48
1
60
0
100
AcDbSpline
70
4
71
3
72
18
73
14
40
0
40
0
40
0
40
0
40
0.0103342694142156
40
0.0214541090837188
40
0.0659334677617316
40
0.110412826439744
40
0.121532666109248
40
0.132652505778751
40
0.154892185117757
40
0.19937154379577
40
0.288330261151796
40
0.644165130575898
40
1
40
1
40
1
40
1
41
1
10
82.886292457971
20
4.1583411646867
30
0
41
1
10
82.8853515530776
20
4.1634390296164
30
0
41
1
10
82.8832790598559
20
4.17401735003961
30
0
41
1
10
82.8769057947349
20
4.20663434655057
30
0
41
1
10
82.8673095089299
20
4.25609926200022
30
0
41
1
10
82.8577648622136
20
4.30553191367309
30
0
41
1
10
82.8513933448958
20
4.33848900576669
30
0
41
1
10
82.8471438420679
20
4.36045881804088
30
0
41
1
10
82.8397015639809
20
4.39891587932485
30
0
41
1
10
82.8247989720554
20
4.4758528815785
30
0
41
1
10
82.7778961123998
20
4.71773475332034
30
0
41
1
10
82.7012881447019
20
5.1134722374604
30
0
41
1
10
82.6331640642179
20
5.46525631102691
30
0
41
1
10
82.5991059391499
20
5.64113602524668
30
0
0
SPLINE
5
1CA
100
AcDbEntity
8
1
62
256
6
ByLayer
370
-1
48
1
60
0
100
AcDbSpline
70
4
71
3
72
32
73
28
40
0
40
0
40
0
40
0
40
0.125
40
0.140625
40
0.15625
40
0.1875
40
0.25
40
0.3125
40
0.375
40
0.4375
40
0.453125
40
0.46875
40
0.5
40
0.53125
40
0.5625
40
0.625
40
0.640625
40
0.65625
40
0.6875
40
0.71875
40
0.75
40
0.78125
40
0.796875
40
0.8125
40
0.84375
40
0.875
40
1
40
1
40
1
40
1
41
1
10
81.5716552841265
20
1.57444917765164
30
0
41
1
10
81.60235428101
20
1.5688109659169
30
0
41
1
10
81.6368566680217
20
1.56247446375193
30
0
41
1
10
81.6752813908496
20
1.5554169700286
30
0
41
1
10
81.6905138166199
20
1.5526198324051
30
0
41
1
10
81.7178000374526
20
1.5475827848872
30
0
41
1
10
81.7587098764104
20
1.53996217357582
30
0
41
1
10
81.8099866900376
20
1.53030021252707
30
0
41
1
10
81.8625621322628
20
1.52028999339703
30
0
41
1
10
81.9022845200773
20
1.51265165166785
30
0
41
1
10
81.9285458534775
20
1.50756948700024
30
0
41
1
10
81.9463057061474
20
1.50413067046014
30
0
41
1
10
81.968416750302
20
1.49984980530871
30
0
41
1
10
81.9949837656324
20
1.49470605223931
30
0
41
1
10
82.0303977361398
20
1.48784934083946
30
0
41
1
10
82.061382453088
20
1.48184993459549
30
0
41
1
10
82.0879522435956
20
1.47670659790219
30
0
41
1
10
82.1056616465591
20
1.47327768547177
30
0
41
1
10
82.1277412037527
20
1.46899517186853
30
0
41
1
10
82.1542483696344
20
1.46382658456372
30
0
41
1
10
82.1806208958174
20
1.45865868985675
30
0
41
1
10
82.2023978721129
20
1.45437137324791
30
0
41
1
10
82.2195923957204
20
1.4509723258283
30
0
41
1
10
82.2366968421744
20
1.44758337881191
30
0
41
1
10
82.2580650543084
20
1.44334678055515
30
0
41
1
10
82.3093550013755
20
1.43317915416355
30
0
41
1
10
82.3520966239313
20
1.42470613217054
30
0
41
1
10
82.3862899219761
20
1.41792771457614
30
0
0
SPLINE
5
1CB
100
AcDbEntity
8
1
62
256
6
ByLayer
370
-1
48
1
60
0
100
AcDbSpline
70
4
71
1
72
4
73
2
40
0
40
0
40
1
40
1
41
1
10
81.5011997356474
20
1.1587402558107
30
0
41
1
10
79.735513063475
20
1.1587402558107
30
0
0
SPLINE
5
1CC
100
AcDbEntity
8
1
62
256
6
ByLayer
370
-1
48
1
60
0
100
AcDbSpline
70
4
71
3
72
11
73
7
40
0
40
0
40
0
40
0
40
0.25
40
0.5
40
0.75
40
1
40
1
40
1
40
1
41
1
10
77.3988843950232
20
5.79934910411606
30
0
41
1
10
77.3622145893175
20
5.79941782216122
30
0
41
1
10
77.2888449400654
20
5.78674180316872
30
0
41
1
10
77.1916202093516
20
5.73151765682346
30
0
41
1
10
77.1186678747471
20
5.64656105108634
30
0
41
1
10
77.0919316883018
20
5.5767613953104
30
0
41
1
10
77.0848244657315
20
5.54061744202974
30
0
0
SPLINE
5
1CD
100
AcDbEntity
8
1
62
256
6
ByLayer
370
-1
48
1
60
0
100
AcDbSpline
70
4
71
3
72
14
73
10
40
0
40
0
40
0
40
0
40
0.401869826261841
40
0.803739652523683
40
0.904207109089143
40
0.954440837371874
40
0.979557701513239
40
0.992116133583921
40
1
40
1
40
1
40
1
41
1
10
81.7844713013003
20
5.48461456217117
30
0
41
1
10
81.8159819992144
20
5.32188684658419
30
0
41
1
10
81.8790033950428
20
4.9964314154102
30
0
41
1
10
81.9499127812871
20
4.63029062735987
30
0
41
1
10
81.9932219380286
20
4.40654601739209
30
0
41
1
10
82.0070272107487
20
4.33534621436098
30
0
41
1
10
82.0138897116647
20
4.29975964982867
30
0
41
1
10
82.0175054327924
20
4.28129711294915
30
0
41
1
10
82.0191060564555
20
4.27304078399735
30
0
41
1
10
82.0197131957252
20
4.26985652400697
30
0
0
SPLINE
5
1CE
100
AcDbEntity
8
1
62
256
6
ByLayer
370
-1
48
1
60
0
100
AcDbSpline
70
4
71
3
72
8
73
4
40
0
40
0
40
0
40
0
40
1
40
1
40
1
40
1
41
1
10
82.3007716784232
20
5.97888138223027
30
0
41
1
10
82.3010800002592
20
5.97887578815249
30
0
41
1
10
82.3013883135862
20
5.97886981006684
30
0
41
1
10
82.301696616977
20
5.97886344802487
30
0
0
SPLINE
5
1CF
100
AcDbEntity
8
1
62
256
6
ByLayer
370
-1
48
1
60
0
100
AcDbSpline
70
4
71
3
72
9
73
5
40
0
40
0
40
0
40
0
40
0.443509303061187
40
1
40
1
40
1
40
1
41
1
10
76.9795176909059
20
1.13240114183142
30
0
41
1
10
76.9995541414169
20
1.11546450314353
30
0
41
1
10
77.0494607751066
20
1.08291151860106
30
0
41
1
10
77.1067643369983
20
1.06573093731493
30
0
41
1
10
77.1393404945108
20
1.06138300134742
30
0
0
SPLINE
5
1D0
100
AcDbEntity
8
1
62
256
6
ByLayer
370
-1
48
1
60
0
100
AcDbSpline
70
4
71
3
72
18
73
14
40
0
40
0
40
0
40
0
40
0.409045703814911
40
0.818091407629822
40
0.92035283358355
40
0.945918190071982
40
0.958700868316198
40
0.965092207438305
40
0.971483546560413
40
0.984266224804629
40
0.995451068268319
40
0.997048903048845
40
1
40
1
40
1
40
1
41
1
10
82.3862899219761
20
1.41792771457614
30
0
41
1
10
82.4543822936758
20
1.76971730582076
30
0
41
1
10
82.5905820583827
20
2.47332811125349
30
0
41
1
10
82.7438521602425
20
3.26485104432445
30
0
41
1
10
82.8331951700724
20
3.7266439631114
30
0
41
1
10
82.8566464237342
20
3.84750850796945
30
0
41
1
10
82.864096535534
20
3.88597170607051
30
0
41
1
10
82.8683480842911
20
3.90795427120665
30
0
41
1
10
82.8725948621071
20
3.92994295617058
30
0
41
1
10
82.8776281327521
20
3.95606848832543
30
0
41
1
10
82.8818931894111
20
3.97803454015315
30
0
41
1
10
82.8845373759052
20
3.9915265646674
30
0
41
1
10
82.8853040374381
20
3.99542340153082
30
0
41
1
10
82.8857905315456
20
3.99795310916485
30
0
0
SPLINE
5
1D1
100
AcDbEntity
8
1
62
256
6
ByLayer
370
-1
48
1
60
0
100
AcDbSpline
70
4
71
3
72
8
73
4
40
0
40
0
40
0
40
0
40
1
40
1
40
1
40
1
41
1
10
82.2996522542563
20
5.89912053405942
30
0
41
1
10
82.2990389943339
20
5.89914015985039
30
0
41
1
10
82.2984256941636
20
5.89915877462101
30
0
41
1
10
82.2978123663195
20
5.89917646471767
30
0
0
SPLINE
5
1D2
100
AcDbEntity
8
1
62
256
6
ByLayer
370
-1
48
1
60
0
100
AcDbSpline
70
4
71
3
72
32
73
28
40
0
40
0
40
0
40
0
40
0.125
40
0.140625
40
0.15625
40
0.1875
40
0.25
40
0.3125
40
0.375
40
0.4375
40
0.453125
40
0.46875
40
0.5
40
0.53125
40
0.5625
40
0.625
40
0.640625
40
0.65625
40
0.6875
40
0.71875
40
0.75
40
0.78125
40
0.796875
40
0.8125
40
0.84375
40
0.875
40
1
40
1
40
1
40
1
41
1
10
77.8744394997582
20
5.38364018227512
30
0
41
1
10
77.8473470808159
20
5.38927839400984
30
0
41
1
10
77.8169006066058
20
5.39561489617483
30
0
41
1
10
77.7829863372779
20
5.40267238989816
30
0
41
1
10
77.7695482286436
20
5.40546952752166
30
0
41
1
10
77.745204939742
20
5.41050657503956
30
0
41
1
10
77.70800385668
20
5.41812718635094
30
0
41
1
10
77.6602460056066
20
5.42778914739969
30
0
41
1
10
77.6102171535152
20
5.43779936652973
30
0
41
1
10
77.5716468833274
20
5.44543770825891
30
0
41
1
10
77.5458162582455
20
5.45051987292649
30
0
41
1
10
77.5283283965748
20
5.45395868946659
30
0
41
1
10
77.5065607661248
20
5.45823955461802
30
0
41
1
10
77.4804045446338
20
5.46338330768745
30
0
41
1
10
77.4455375327393
20
5.4702400190873
30
0
41
1
10
77.4150286064431
20
5.47623942533127
30
0
41
1
10
77.3888794279656
20
5.48138276202457
30
0
41
1
10
77.3714426332658
20
5.48481167445499
30
0
41
1
10
77.349626619298
20
5.48909418805823
30
0
41
1
10
77.3231559985663
20
5.49426277536304
30
0
41
1
10
77.2965578372327
20
5.49943067006998
30
0
41
1
10
77.2743900117761
20
5.50371798667885
30
0
41
1
10
77.2567444527333
20
5.50711703409846
30
0
41
1
10
77.2391123452141
20
5.51050598111485
30
0
41
1
10
77.217055616416
20
5.51474257937161
30
0
41
1
10
77.1641278518392
20
5.52491020576321
30
0
41
1
10
77.1200213813584
20
5.53338322775622
30
0
41
1
10
77.0847362049739
20
5.54016164535062
30
0
0
SPLINE
5
1D3
100
AcDbEntity
8
1
62
256
6
ByLayer
370
-1
48
1
60
0
100
AcDbSpline
70
4
71
3
72
11
73
7
40
0
40
0
40
0
40
0
40
0.0001630039327589
40
0.429771567358093
40
0.859380130783426
40
1
40
1
40
1
40
1
41
1
10
80.8538823125309
20
5.80447983013559
30
0
41
1
10
80.8538723328298
20
5.80447917778011
30
0
41
1
10
80.8331971229619
20
5.803127727195
30
0
41
1
10
80.791829991551
20
5.80072745186902
30
0
41
1
10
80.7436324997319
20
5.79950796533055
30
0
41
1
10
80.7161425539618
20
5.79934616825679
30
0
41
1
10
80.7093633670486
20
5.79932632332662
30
0
0
SPLINE
5
1D4
100
AcDbEntity
8
1
62
256
6
ByLayer
370
-1
48
1
60
0
100
AcDbSpline
70
4
71
3
72
14
73
10
40
0
40
0
40
0
40
0
40
0.401869826261843
40
0.803739652523685
40
0.904207109089146
40
0.954440837371876
40
0.979557701513241
40
0.992116133583924
40
1
40
1
40
1
40
1
41
1
10
77.6616234825843
20
1.47347479775559
30
0
41
1
10
77.6301127846702
20
1.63620251334257
30
0
41
1
10
77.5670913888418
20
1.96165794451656
30
0
41
1
10
77.4961820025976
20
2.32779873256689
30
0
41
1
10
77.4528728458561
20
2.55154334253464
30
0
41
1
10
77.439067573136
20
2.62274314556578
30
0
41
1
10
77.4322050722199
20
2.65832971009809
30
0
41
1
10
77.4285893510922
20
2.67679224697761
30
0
41
1
10
77.4269887274291
20
2.68504857592941
30
0
41
1
10
77.4263815881595
20
2.68823283591979
30
0
0
SPLINE
5
1D5
100
AcDbEntity
8
1
62
256
6
ByLayer
370
-1
48
1
60
0
100
AcDbSpline
70
4
71
3
72
18
73
14
40
0
40
0
40
0
40
0
40
0.156501894804189
40
0.156501894804189
40
0.31300378960836
40
0.31300378960836
40
0.469505684412534
40
0.469505684412534
40
0.626007579216705
40
0.626007579216705
40
0.782509474020881
40
0.782509474020881
40
1
40
1
40
1
40
1
41
1
10
82.9647777567544
20
4.17353742249202
30
0
41
1
10
82.9666540328049
20
4.16375093941485
30
0
41
1
10
82.9682394012942
20
4.15390372324322
30
0
41
1
10
82.9708198258482
20
4.13414060409372
30
0
41
1
10
82.9718160344646
20
4.12421587387999
30
0
41
1
10
82.9732151048696
20
4.10433326701926
30
0
41
1
10
82.9736185915557
20
4.09436650976699
30
0
41
1
10
82.9738313052762
20
4.07443550772092
30
0
41
1
10
82.9736406273195
20
4.06446236070605
30
0
41
1
10
82.9726662237733
20
4.044554229043
30
0
41
1
10
82.9718820629644
20
4.03461035238885
30
0
41
1
10
82.9693041576227
20
4.0109412388496
30
0
41
1
10
82.9672336021791
20
3.99722990790059
30
0
41
1
10
82.9646020791023
20
3.98364018227511
30
0
0
SPLINE
5
1D6
100
AcDbEntity
8
1
62
256
6
ByLayer
370
-1
48
1
60
0
100
AcDbSpline
70
4
71
3
72
8
73
4
40
0
40
0
40
0
40
0
40
1
40
1
40
1
40
1
41
1
10
77.1714698218279
20
0.97920797769649
30
0
41
1
10
77.1711614999921
20
0.979213571774267
30
0
41
1
10
77.1708531829998
20
0.97921954985992
30
0
41
1
10
77.1705448722792
20
0.979225911901892
30
0
0
SPLINE
5
1D7
100
AcDbEntity
8
1
62
256
6
ByLayer
370
-1
48
1
60
0
100
AcDbSpline
70
4
71
3
72
8
73
4
40
0
40
0
40
0
40
0
40
1
40
1
40
1
40
1
41
1
10
82.2987715160393
20
5.9789156523546
30
0
41
1
10
82.2990798491073
20
5.97891067978136
30
0
41
1
10
82.2993881794324
20
5.97890556467871
30
0
41
1
10
82.2996965068182
20
5.9789003070523
30
0
0
SPLINE
5
1D8
100
AcDbEntity
8
1
62
256
6
ByLayer
370
-1
48
1
60
0
100
AcDbSpline
70
4
71
3
72
18
73
14
40
0
40
0
40
0
40
0
40
0.409045703814912
40
0.818091407629823
40
0.920352833583551
40
0.945918190071983
40
0.958700868316199
40
0.965092207438307
40
0.971483546560415
40
0.984266224804631
40
0.995451068268321
40
0.997048903048847
40
1
40
1
40
1
40
1
41
1
10
77.0847362049739
20
5.54016164535062
30
0
41
1
10
77.016642995656
20
5.188372054106
30
0
41
1
10
76.8804418007354
20
4.48476124867327
30
0
41
1
10
76.7271705662645
20
3.69323831560232
30
0
41
1
10
76.6378271128621
20
3.23144539681536
30
0
41
1
10
76.6143759295092
20
3.11058085195731
30
0
41
1
10
76.6069258875963
20
3.07211765385625
30
0
41
1
10
76.6026743948283
20
3.05013508872011
30
0
41
1
10
76.5984277870731
20
3.02814640375615
30
0
41
1
10
76.5933947755729
20
3.00202087160133
30
0
41
1
10
76.5891299275078
20
2.98005481977361
30
0
41
1
10
76.5864858767952
20
2.96656279525936
30
0
41
1
10
76.585719283612
20
2.96266595839595
30
0
41
1
10
76.5852328417801
20
2.96013625076191
30
0
0
SPLINE
5
1D9
100
AcDbEntity
8
1
62
256
6
ByLayer
370
-1
48
1
60
0
100
AcDbSpline
70
4
71
2
72
6
73
3
40
0
40
0
40
0
40
1
40
1
40
1
41
1
10
78.7268527643351
20
5.47902961178565
30
0
41
1
10
78.6979936410989
20
5.47887893987178
30
0
41
1
10
78.669762680204
20
5.4757648876477
30
0
0
SPLINE
5
1DA
100
AcDbEntity
8
1
62
256
6
ByLayer
370
-1
48
1
60
0
100
AcDbSpline
70
4
71
3
72
8
73
4
40
0
40
0
40
0
40
0
40
1
40
1
40
1
40
1
41
1
10
80.7090458691887
20
5.87904467996339
30
0
41
1
10
80.7093542430499
20
5.87904467996339
30
0
41
1
10
80.7096626174579
20
5.8790447506284
30
0
41
1
10
80.7099709923643
20
5.87904489195833
30
0
0
SPLINE
5
1DB
100
AcDbEntity
8
1
62
256
6
ByLayer
370
-1
48
1
60
0
100
AcDbSpline
70
4
71
3
72
13
73
9
40
0
40
0
40
0
40
0
40
0.042920491053417
40
0.106725791649856
40
0.234336392842734
40
0.489557595228489
40
0.744778797614244
40
1
40
1
40
1
40
1
41
1
10
78.7616627599013
20
1.15876303660013
30
0
41
1
10
78.7755947055412
20
1.15880382002911
30
0
41
1
10
78.8102387515426
20
1.15869461723793
30
0
41
1
10
78.8863088559219
20
1.15876626796836
30
0
41
1
10
79.0312946867716
20
1.15872291437231
30
0
41
1
10
79.2384178560845
20
1.15874603629018
30
0
41
1
10
79.4869654409609
20
1.15874025581073
30
0
41
1
10
79.6526638559703
20
1.15874025581073
30
0
41
1
10
79.735513063475
20
1.15874025581073
30
0
0
SPLINE
5
1DC
100
AcDbEntity
8
1
62
256
6
ByLayer
370
-1
48
1
60
0
100
AcDbSpline
70
4
71
3
72
8
73
4
40
0
40
0
40
0
40
0
40
1
40
1
40
1
40
1
41
1
10
82.9644255494181
20
3.98272858891687
30
0
41
1
10
82.9644843951909
20
3.98303245244938
30
0
41
1
10
82.9645432384194
20
3.98333631690414
30
0
41
1
10
82.9646020791022
20
3.98364018227511
30
0
0
SPLINE
5
1DD
100
AcDbEntity
8
1
62
256
6
ByLayer
370
-1
48
1
60
0
100
AcDbSpline
70
4
71
3
72
13
73
9
40
0
40
0
40
0
40
0
40
0.0429204910534034
40
0.106725791649843
40
0.234336392842723
40
0.489557595228482
40
0.744778797614241
40
1
40
1
40
1
40
1
41
1
10
80.7093633670486
20
5.79932632332662
30
0
41
1
10
80.6954314214087
20
5.79928553989762
30
0
41
1
10
80.6607873754073
20
5.79939474268883
30
0
41
1
10
80.584717271028
20
5.7993230919584
30
0
41
1
10
80.4397314401784
20
5.79936644555445
30
0
41
1
10
80.2326082708653
20
5.79934332363658
30
0
41
1
10
79.9840606859891
20
5.79934910411603
30
0
41
1
10
79.8183622709797
20
5.79934910411603
30
0
41
1
10
79.735513063475
20
5.79934910411603
30
0
0
SPLINE
5
1DE
100
AcDbEntity
8
1
62
256
6
ByLayer
370
-1
48
1
60
0
100
AcDbSpline
70
4
71
3
72
8
73
4
40
0
40
0
40
0
40
0
40
1
40
1
40
1
40
1
41
1
10
76.9290828068724
20
1.07133866508954
30
0
41
1
10
76.860118957942
20
1.12970166780241
30
0
41
1
10
76.8119820560651
20
1.21195225051017
30
0
41
1
10
76.794770726754
20
1.30083508941871
30
0
0
SPLINE
5
1DF
100
AcDbEntity
8
1
62
256
6
ByLayer
370
-1
48
1
60
0
100
AcDbSpline
70
4
71
3
72
10
73
6
40
0
40
0
40
0
40
0
40
0.190146666341512
40
0.481693866458568
40
1
40
1
40
1
40
1
41
1
10
81.7224738442479
20
5.48024836068853
30
0
41
1
10
81.7264045802371
20
5.48049600754277
30
0
41
1
10
81.7363592769541
20
5.48119299239627
30
0
41
1
10
81.7570249520394
20
5.48265148810995
30
0
41
1
10
81.7737599389009
20
5.48386268964506
30
0
41
1
10
81.7844713013003
20
5.48461456217117
30
0
0
SPLINE
5
1E0
100
AcDbEntity
8
1
62
256
6
ByLayer
370
-1
48
1
60
0
100
AcDbSpline
70
4
71
3
72
18
73
14
40
0
40
0
40
0
40
0
40
0.156501894804184
40
0.156501894804184
40
0.313003789608361
40
0.313003789608361
40
0.469505684412536
40
0.469505684412536
40
0.626007579216708
40
0.626007579216708
40
0.782509474020886
40
0.782509474020886
40
1
40
1
40
1
40
1
41
1
10
76.5074637370227
20
2.78455193743474
30
0
41
1
10
76.505587460973
20
2.79433842051191
30
0
41
1
10
76.5040020924844
20
2.80418563668354
30
0
41
1
10
76.5014216679316
20
2.82394875583304
30
0
41
1
10
76.5004254593156
20
2.83387348604677
30
0
41
1
10
76.4990263889112
20
2.85375609290747
30
0
41
1
10
76.4986229022252
20
2.86372285015978
30
0
41
1
10
76.4984101885049
20
2.88365385220584
30
0
41
1
10
76.4986008664615
20
2.89362699922071
30
0
41
1
10
76.4995752700073
20
2.91353513088376
30
0
41
1
10
76.5003594308158
20
2.92347900753791
30
0
41
1
10
76.5029373361564
20
2.94714812107713
30
0
41
1
10
76.5050078915991
20
2.96085945202617
30
0
41
1
10
76.5076394146747
20
2.97444917765165
30
0
0
SPLINE
5
1E1
100
AcDbEntity
8
1
62
256
6
ByLayer
370
-1
48
1
60
0
100
AcDbSpline
70
4
71
3
72
8
73
4
40
0
40
0
40
0
40
0
40
1
40
1
40
1
40
1
41
1
10
77.1713738726936
20
1.05896882586734
30
0
41
1
10
77.171987132616
20
1.05894920007637
30
0
41
1
10
77.1726004327863
20
1.05893058530574
30
0
41
1
10
77.1732137606304
20
1.05891289520909
30
0
0
SPLINE
5
1E2
100
AcDbEntity
8
1
62
256
6
ByLayer
370
-1
48
1
60
0
100
AcDbSpline
70
4
71
3
72
14
73
10
40
0
40
0
40
0
40
0
40
0.0278688906942175
40
0.280125361774728
40
0.532381832855238
40
0.658510068395494
40
0.784638303935749
40
0.910766539476004
40
1
40
1
40
1
40
1
41
1
10
77.1732137606444
20
1.05891289520869
30
0
41
1
10
77.1746205627379
20
1.05887231908741
30
0
41
1
10
77.1887625583737
20
1.05851336567824
30
0
41
1
10
77.2156384223532
20
1.05856521740918
30
0
41
1
10
77.2474734548817
20
1.05915627697982
30
0
41
1
10
77.2729288674421
20
1.06001752990863
30
0
41
1
10
77.2920111452686
20
1.06087532789004
30
0
41
1
10
77.309221725346
20
1.06185662038126
30
0
41
1
10
77.3200713318566
20
1.06255558009667
30
0
41
1
10
77.3245662457081
20
1.06285512471214
30
0
0
SPLINE
5
1E3
100
AcDbEntity
8
1
62
256
6
ByLayer
370
-1
48
1
60
0
100
AcDbSpline
70
4
71
3
72
18
73
14
40
0
40
0
40
0
40
0
40
0.171643617771684
40
0.171643617771684
40
0.343287235543494
40
0.343287235543494
40
0.514930853315209
40
0.514930853315209
40
0.686574471086975
40
0.686574471086975
40
0.843273207856144
40
0.843273207856144
40
1
40
1
40
1
40
1
41
1
10
82.1415309819062
20
5.97471240103471
30
0
41
1
10
82.1505116458003
20
5.97533824179791
30
0
41
1
10
82.1594971190973
20
5.97589804289902
30
0
41
1
10
82.1774747902858
20
5.97688538546564
30
0
41
1
10
82.1864674707263
20
5.977312953433
30
0
41
1
10
82.204457624767
20
5.97803574501663
30
0
41
1
10
82.2134555812514
20
5.97833098803375
30
0
41
1
10
82.2314543549158
20
5.97878907342121
30
0
41
1
10
82.2404556552113
20
5.97895192808724
30
0
41
1
10
82.2576754433156
20
5.97913679489506
30
0
41
1
10
82.2658942390987
20
5.97916983964967
30
0
41
1
10
82.2823326392228
20
5.97912555303881
30
0
41
1
10
82.2905526113246
20
5.97904820091944
30
0
41
1
10
82.2987715160393
20
5.9789156523546
30
0
0
SPLINE
5
1E4
100
AcDbEntity
8
1
62
256
6
ByLayer
370
-1
48
1
60
0
100
AcDbSpline
70
4
71
3
72
8
73
4
40
0
40
0
40
0
40
0
40
1
40
1
40
1
40
1
41
1
10
82.5431586837618
20
5.88675069483722
30
0
41
1
10
82.6121225326883
20
5.82838769212435
30
0
41
1
10
82.6602594345331
20
5.74613710941659
30
0
41
1
10
82.67747076379
20
5.65725427050805
30
0
0
SPLINE
5
1E5
100
AcDbEntity
8
1
62
256
6
ByLayer
370
-1
48
1
60
0
100
AcDbSpline
70
4
71
3
72
14
73
10
40
0
40
0
40
0
40
0
40
0.276946339130612
40
0.276946339130612
40
0.5538926782616
40
0.5538926782616
40
0.776880838709274
40
0.776880838709274
40
1
40
1
40
1
40
1
41
1
10
82.301696616977
20
5.97886344802487
30
0
41
1
10
82.3053920925653
20
5.97878708470873
30
0
41
1
10
82.3090868416086
20
5.97865490018552
30
0
41
1
10
82.3164698715261
20
5.97827906814609
30
0
41
1
10
82.3201589875151
20
5.97803537811853
30
0
41
1
10
82.3268097272569
20
5.97749508436937
30
0
41
1
10
82.3297735630428
20
5.97721799888126
30
0
41
1
10
82.3356949834634
20
5.97659170710341
30
0
41
1
10
82.3386529981937
20
5.97624241255326
30
0
41
1
10
82.3416061449648
20
5.97585721517007
30
0
0
SPLINE
5
1E6
100
AcDbEntity
8
1
62
256
6
ByLayer
370
-1
48
1
60
0
100
AcDbSpline
70
4
71
3
72
8
73
4
40
0
40
0
40
0
40
0
40
1
40
1
40
1
40
1
41
1
10
77.1306353443144
20
0.982232144756694
30
0
41
1
10
77.1303295453673
20
0.982272032023872
30
0
41
1
10
77.1300237934566
20
0.982312283070797
30
0
41
1
10
77.1297180898705
20
0.982352897729584
30
0
0
SPLINE
5
1E7
100
AcDbEntity
8
1
62
256
6
ByLayer
370
-1
48
1
60
0
100
AcDbSpline
70
4
71
3
72
8
73
4
40
0
40
0
40
0
40
0
40
1
40
1
40
1
40
1
41
1
10
77.1734699871789
20
0.979173707572158
30
0
41
1
10
77.1731616541109
20
0.979178680145395
30
0
41
1
10
77.1728533227968
20
0.979183795248048
30
0
41
1
10
77.172544993433
20
0.97918905287446
30
0
0
SPLINE
5
1E8
100
AcDbEntity
8
1
62
256
6
ByLayer
370
-1
48
1
60
0
100
AcDbSpline
70
4
71
3
72
8
73
4
40
0
40
0
40
0
40
0
40
1
40
1
40
1
40
1
41
1
10
82.0727494218062
20
1.07904467996337
30
0
41
1
10
82.0730577952004
20
1.07904466794585
30
0
41
1
10
82.0733661712968
20
1.07904466193713
30
0
41
1
10
82.0736745500857
20
1.07904466193733
30
0
0
SPLINE
5
1E9
100
AcDbEntity
8
1
62
256
6
ByLayer
370
-1
48
1
60
0
100
AcDbSpline
70
4
71
2
72
6
73
3
40
0
40
0
40
0
40
1
40
1
40
1
41
1
10
77.4263964150574
20
3.06985367533991
30
0
41
1
10
77.3895565244721
20
2.87904467996339
30
0
41
1
10
77.4263964150574
20
2.68823568458683
30
0
0
SPLINE
5
1EA
100
AcDbEntity
8
1
62
256
6
ByLayer
370
-1
48
1
60
0
100
AcDbSpline
70
4
71
3
72
8
73
4
40
0
40
0
40
0
40
0
40
1
40
1
40
1
40
1
41
1
10
77.3994920849027
20
5.87904467996339
30
0
41
1
10
77.3991837007318
20
5.87904469198091
30
0
41
1
10
77.3988753192471
20
5.8790446979896
30
0
41
1
10
77.3985669404583
20
5.8790446979894
30
0
0
SPLINE
5
1EB
100
AcDbEntity
8
1
62
256
6
ByLayer
370
-1
48
1
60
0
100
AcDbSpline
70
4
71
3
72
18
73
14
40
0
40
0
40
0
40
0
40
0.171643617771768
40
0.171643617771768
40
0.343287235543494
40
0.343287235543494
40
0.514930853315216
40
0.514930853315216
40
0.686574471086905
40
0.686574471086905
40
0.843273207856145
40
0.843273207856145
40
1
40
1
40
1
40
1
41
1
10
77.3307105213078
20
0.983376958892052
30
0
41
1
10
77.321729857414
20
0.982751118128846
30
0
41
1
10
77.3127443841172
20
0.982191317027741
30
0
41
1
10
77.2947667129293
20
0.981203974461124
30
0
41
1
10
77.285774032489
20
0.98077640649376
30
0
41
1
10
77.2677838784487
20
0.980053614910133
30
0
41
1
10
77.2587859219646
20
0.979758371892984
30
0
41
1
10
77.2407871483007
20
0.979300286505548
30
0
41
1
10
77.2317858480053
20
0.979137431839519
30
0
41
1
10
77.2145660599016
20
0.978952565031676
30
0
41
1
10
77.2063472641186
20
0.978919520277088
30
0
41
1
10
77.1899088639949
20
0.978963806887947
30
0
41
1
10
77.1816888918933
20
0.979041159007323
30
0
41
1
10
77.1734699871789
20
0.979173707572158
30
0
0
SPLINE
5
1EC
100
AcDbEntity
8
1
62
256
6
ByLayer
370
-1
48
1
60
0
100
AcDbSpline
70
4
71
3
72
9
73
5
40
0
40
0
40
0
40
0
40
0.5
40
1
40
1
40
1
40
1
41
1
10
81.7844713013003
20
5.48461456217117
30
0
41
1
10
81.7765981129747
20
5.53796588001458
30
0
41
1
10
81.7572783879123
20
5.66117955895837
30
0
41
1
10
81.7335725613297
20
5.79877800938701
30
0
41
1
10
81.7216552973659
20
5.86539238182579
30
0
0
SPLINE
5
1ED
100
AcDbEntity
8
1
62
256
6
ByLayer
370
-1
48
1
60
0
100
AcDbSpline
70
4
71
3
72
9
73
5
40
0
40
0
40
0
40
0
40
0.5
40
1
40
1
40
1
40
1
41
1
10
79.735513063475
20
5.79934910411603
30
0
41
1
10
79.7350689594039
20
5.74110701242211
30
0
41
1
10
79.732447900611
20
5.62296754471706
30
0
41
1
10
79.7265306513179
20
5.52171587512728
30
0
41
1
10
79.7230473919423
20
5.47904467996338
30
0
0
SPLINE
5
1EE
100
AcDbEntity
8
1
62
256
6
ByLayer
370
-1
48
1
60
0
100
AcDbSpline
70
4
71
3
72
8
73
4
40
0
40
0
40
0
40
0
40
1
40
1
40
1
40
1
41
1
10
77.1393404945108
20
1.06138300134742
30
0
41
1
10
77.1499613262164
20
1.05996296488414
30
0
41
1
10
77.1606614590169
20
1.0593116488435
30
0
41
1
10
77.1713738726937
20
1.05896882586734
30
0
0
SPLINE
5
1EF
100
AcDbEntity
8
1
62
256
6
ByLayer
370
-1
48
1
60
0
100
AcDbSpline
70
4
71
3
72
8
73
4
40
0
40
0
40
0
40
0
40
1
40
1
40
1
40
1
41
1
10
80.7099709923643
20
5.87904489195833
30
0
41
1
10
80.756046087251
20
5.87906636762139
30
0
41
1
10
80.8020650663075
20
5.88069026224812
30
0
41
1
10
80.8480279295337
20
5.88391657583853
30
0
0
SPLINE
5
1F0
100
AcDbEntity
8
1
62
256
6
ByLayer
370
-1
48
1
60
0
100
AcDbSpline
70
4
71
3
72
8
73
4
40
0
40
0
40
0
40
0
40
1
40
1
40
1
40
1
41
1
10
82.3425234003997
20
5.97573646219718
30
0
41
1
10
82.4157676936093
20
5.96600571046545
30
0
41
1
10
82.4858530427381
20
5.93502092222784
30
0
41
1
10
82.542450689127
20
5.88734844987215
30
0
0
SPLINE
5
1F1
100
AcDbEntity
8
1
62
256
6
ByLayer
370
-1
48
1
60
0
100
AcDbSpline
70
4
71
3
72
8
73
4
40
0
40
0
40
0
40
0
40
1
40
1
40
1
40
1
41
1
10
80.8480279295337
20
5.88391657583853
30
0
41
1
10
80.8483355522452
20
5.88393816908282
30
0
41
1
10
80.8486431743345
20
5.88395976352595
30
0
41
1
10
80.8489507958011
20
5.88398135916788
30
0
0
SPLINE
5
1F2
100
AcDbEntity
8
1
62
256
6
ByLayer
370
-1
48
1
60
0
100
AcDbSpline
70
4
71
3
72
19
73
15
40
0
40
0
40
0
40
0
40
0.0131218002037845
40
0.102838000185259
40
0.192554200166733
40
0.282270400148207
40
0.327128500138944
40
0.371986600129681
40
0.461702800111155
40
0.551419000092629
40
0.641135200074104
40
0.730851400055578
40
0.820567600037052
40
1
40
1
40
1
40
1
41
1
10
77.3245662457081
20
1.06285512471214
30
0
41
1
10
77.3264247283255
20
1.0629789754642
30
0
41
1
10
77.3409892843282
20
1.06396292908775
30
0
41
1
10
77.3682510814079
20
1.0659696122319
30
0
41
1
10
77.4063625995481
20
1.06865799160963
30
0
41
1
10
77.4381241605618
20
1.07085612983062
30
0
41
1
10
77.4635330161927
20
1.07262228897886
30
0
41
1
10
77.488941631878
20
1.07439303655434
30
0
41
1
10
77.5207019931643
20
1.07661411691146
30
0
41
1
10
77.5588139064427
20
1.07928858303808
30
0
41
1
10
77.5969254325033
20
1.08196915514034
30
0
41
1
10
77.6350367043938
20
1.08465276949585
30
0
41
1
10
77.6858516293003
20
1.0882318039296
30
0
41
1
10
77.7239629696034
20
1.09091350078458
30
0
41
1
10
77.749370829584
20
1.09269697810095
30
0
0
SPLINE
5
1F3
100
AcDbEntity
8
1
62
256
6
ByLayer
370
-1
48
1
60
0
100
AcDbSpline
70
4
71
3
72
8
73
4
40
0
40
0
40
0
40
0
40
1
40
1
40
1
40
1
41
1
10
78.7631956375202
20
1.07904467996337
30
0
41
1
10
78.7628872636591
20
1.07904467996337
30
0
41
1
10
78.7625788903287
20
1.07904460929836
30
0
41
1
10
78.7622705175777
20
1.07904446796843
30
0
0
SPLINE
5
1F4
100
AcDbEntity
8
1
62
256
6
ByLayer
370
-1
48
1
60
0
100
AcDbSpline
70
4
71
1
72
4
73
2
40
0
40
0
40
1
40
1
41
1
10
79.7230473919423
20
1.47904467996338
30
0
41
1
10
80.7192420900341
20
1.47904467996338
30
0
0
SPLINE
5
1F5
100
AcDbEntity
8
1
62
256
6
ByLayer
370
-1
48
1
60
0
100
AcDbSpline
70
4
71
3
72
19
73
15
40
0
40
0
40
0
40
0
40
0.0131218002037518
40
0.102838000185229
40
0.192554200166706
40
0.282270400148183
40
0.327128500138922
40
0.37198660012966
40
0.461702800111137
40
0.551419000092614
40
0.641135200074092
40
0.730851400055569
40
0.820567600037046
40
1
40
1
40
1
40
1
41
1
10
82.1464598812418
20
5.89523423521462
30
0
41
1
10
82.1446013986244
20
5.89511038446256
30
0
41
1
10
82.1300368426217
20
5.89412643083901
30
0
41
1
10
82.1027750455419
20
5.89211974769486
30
0
41
1
10
82.0646635274018
20
5.88943136831713
30
0
41
1
10
82.0329019663881
20
5.88723323009614
30
0
41
1
10
82.0074931107573
20
5.8854670709479
30
0
41
1
10
81.9820844950719
20
5.88369632337242
30
0
41
1
10
81.9503241337856
20
5.8814752430153
30
0
41
1
10
81.9122122205072
20
5.87880077688868
30
0
41
1
10
81.8741006944466
20
5.87612020478639
30
0
41
1
10
81.8359894225561
20
5.87343659043091
30
0
41
1
10
81.7851744976496
20
5.86985755599716
30
0
41
1
10
81.7470631573465
20
5.86717585914218
30
0
41
1
10
81.7216552973659
20
5.86539238182581
30
0
0
SPLINE
5
1F6
100
AcDbEntity
8
1
62
256
6
ByLayer
370
-1
48
1
60
0
100
AcDbSpline
70
4
71
3
72
8
73
4
40
0
40
0
40
0
40
0
40
1
40
1
40
1
40
1
41
1
10
76.794770726754
20
1.30083508941871
30
0
41
1
10
76.7947118852349
20
1.3011389591064
30
0
41
1
10
76.7946530522859
20
1.3014428299422
30
0
41
1
10
76.7945942279085
20
1.3017467019167
30
0
0
SPLINE
5
1F7
100
AcDbEntity
8
1
62
256
6
ByLayer
370
-1
48
1
60
0
100
AcDbSpline
70
4
71
1
72
4
73
2
40
0
40
0
40
1
40
1
41
1
10
77.7583673480239
20
1.47904467996338
30
0
41
1
10
79.7230473919423
20
1.47904467996338
30
0
0
SPLINE
5
1F8
100
AcDbEntity
8
1
62
256
6
ByLayer
370
-1
48
1
60
0
100
AcDbSpline
70
4
71
3
72
11
73
7
40
0
40
0
40
0
40
0
40
0.0001630039325758
40
0.42977156735803
40
0.859380130783483
40
1
40
1
40
1
40
1
41
1
10
78.6171438144191
20
1.15360952979117
30
0
41
1
10
78.6171537941201
20
1.15361018214662
30
0
41
1
10
78.637829003988
20
1.15496163273173
30
0
41
1
10
78.6791961353989
20
1.15736190805771
30
0
41
1
10
78.727393627218
20
1.15858139459621
30
0
41
1
10
78.7548835729881
20
1.15874319166997
30
0
41
1
10
78.7616627599013
20
1.15876303660013
30
0
0
SPLINE
5
1F9
100
AcDbEntity
8
1
62
256
6
ByLayer
370
-1
48
1
60
0
100
AcDbSpline
70
4
71
3
72
8
73
4
40
0
40
0
40
0
40
0
40
1
40
1
40
1
40
1
41
1
10
82.2996965068181
20
5.9789003070523
30
0
41
1
10
82.3000549006927
20
5.97889419294944
30
0
41
1
10
82.3004132913322
20
5.97888788467358
30
0
41
1
10
82.3007716784232
20
5.97888138223027
30
0
0
LINE
5
45
100
AcDbEntity
8
80
62
256
6
ByLayer
370
-1
48
1
60
0
100
AcDbLine
10
0
20
0
30
0
11
-7
21
0
31
0
39
0
210
0
220
0
230
1
0
LINE
5
46
100
AcDbEntity
8
81
62
256
6
ByLayer
370
-1
48
1
60
0
100
AcDbLine
10
83
20
0
30
0
11
90
21
0
31
0
39
0
210
0
220
0
230
1
0
LINE
5
47
100
AcDbEntity
8
1
62
256
6
ByLayer
370
-1
48
1
60
0
100
AcDbLine
10
19.4
20
-20
30
0
11
19.7
21
-19.7
31
0
39
0
210
0
220
0
230
1
0
LINE
5
49
100
AcDbEntity
8
1
62
256
6
ByLayer
370
-1
48
1
60
0
100
AcDbLine
10
19.7
20
19.7
30
0
11
19.4
21
20
31
0
39
0
210
0
220
0
230
1
0
LINE
5
4A
100
AcDbEntity
8
1
62
256
6
ByLayer
370
-1
48
1
60
0
100
AcDbLine
10
0.3
20
20
30
0
11
0
21
19.7
31
0
39
0
210
0
220
0
230
1
0
LINE
5
4B
100
AcDbEntity
8
1
62
256
6
ByLayer
370
-1
48
1
60
0
100
AcDbLine
10
0
20
-19.7
30
0
11
0.3
21
-20
31
0
39
0
210
0
220
0
230
1
0
LINE
5
4C
100
AcDbEntity
8
1
62
256
6
ByLayer
370
-1
48
1
60
0
100
AcDbLine
10
19.4
20
20
30
0
11
0.3
21
20
31
0
39
0
210
0
220
0
230
1
0
LINE
5
4D
100
AcDbEntity
8
1
62
256
6
ByLayer
370
-1
48
1
60
0
100
AcDbLine
10
0.3
20
-20
30
0
11
19.4
21
-20
31
0
39
0
210
0
220
0
230
1
0
LINE
5
4E
100
AcDbEntity
8
1
62
256
6
ByLayer
370
-1
48
1
60
0
100
AcDbLine
10
24.9
20
-12.5
30
0
11
25.025882
21
-12.403407
31
0
39
0
210
0
220
0
230
1
0
LINE
5
4F
100
AcDbEntity
8
1
62
256
6
ByLayer
370
-1
48
1
60
0
100
AcDbLine
10
24.9
20
12.5
30
0
11
20.1
21
12.5
31
0
39
0
210
0
220
0
230
1
0
LINE
5
50
100
AcDbEntity
8
1
62
256
6
ByLayer
370
-1
48
1
60
0
100
AcDbLine
10
20.1
20
-12.5
30
0
11
24.9
21
-12.5
31
0
39
0
210
0
220
0
230
1
0
LINE
5
51
100
AcDbEntity
8
1
62
256
6
ByLayer
370
-1
48
1
60
0
100
AcDbLine
10
20.1
20
12.5
30
0
11
20
21
12.4
31
0
39
0
210
0
220
0
230
1
0
LINE
5
52
100
AcDbEntity
8
1
62
256
6
ByLayer
370
-1
48
1
60
0
100
AcDbLine
10
20
20
-12.4
30
0
11
20.1
21
-12.5
31
0
39
0
210
0
220
0
230
1
0
LINE
5
53
100
AcDbEntity
8
1
62
256
6
ByLayer
370
-1
48
1
60
0
100
AcDbLine
10
20
20
12.5
30
0
11
19.7
21
12.5
31
0
39
0
210
0
220
0
230
1
0
LINE
5
54
100
AcDbEntity
8
1
62
256
6
ByLayer
370
-1
48
1
60
0
100
AcDbLine
10
19.7
20
-12.5
30
0
11
20
21
-12.5
31
0
39
0
210
0
220
0
230
1
0
LINE
5
55
100
AcDbEntity
8
1
62
256
6
ByLayer
370
-1
48
1
60
0
100
AcDbLine
10
25.025882
20
-12.403407
30
0
11
25.243045
21
-11.592945
31
0
39
0
210
0
220
0
230
1
0
LINE
5
56
100
AcDbEntity
8
1
62
256
6
ByLayer
370
-1
48
1
60
0
100
AcDbLine
10
26.015785
20
-11
30
0
11
26.5
21
-11
31
0
39
0
210
0
220
0
230
1
0
LINE
5
57
100
AcDbEntity
8
1
62
256
6
ByLayer
370
-1
48
1
60
0
100
AcDbLine
10
25.025882
20
12.403407
30
0
11
24.9
21
12.5
31
0
39
0
210
0
220
0
230
1
0
LINE
5
58
100
AcDbEntity
8
1
62
256
6
ByLayer
370
-1
48
1
60
0
100
AcDbLine
10
25.243045
20
11.592945
30
0
11
25.025882
21
12.403407
31
0
39
0
210
0
220
0
230
1
0
LINE
5
59
100
AcDbEntity
8
1
62
256
6
ByLayer
370
-1
48
1
60
0
100
AcDbLine
10
26.5
20
11
30
0
11
26.015785
21
11
31
0
39
0
210
0
220
0
230
1
0
LINE
5
5A
100
AcDbEntity
8
1
62
256
6
ByLayer
370
-1
48
1
60
0
100
AcDbLine
10
76.887412
20
5.725
30
0
11
74.963964
21
5.725
31
0
39
0
210
0
220
0
230
1
0
LINE
5
5B
100
AcDbEntity
8
1
62
256
6
ByLayer
370
-1
48
1
60
0
100
AcDbLine
10
32
20
-5.725
30
0
11
48.146529
21
-5.725
31
0
39
0
210
0
220
0
230
1
0
LINE
5
5C
100
AcDbEntity
8
1
62
256
6
ByLayer
370
-1
48
1
60
0
100
AcDbLine
10
47.390277
20
5.725
30
0
11
32
21
5.725
31
0
39
0
210
0
220
0
230
1
0
LINE
5
5D
100
AcDbEntity
8
SK4
62
256
6
ByLayer
370
-1
48
0.05
60
0
100
AcDbLine
10
83
20
0
30
0
11
-24
21
0
31
0
39
0
210
0
220
0
230
1
0
LINE
5
5F
100
AcDbEntity
8
4
62
256
6
ByLayer
370
-1
48
0.05
60
0
100
AcDbLine
10
83
20
0
30
0
11
0
21
0
31
0
39
0
210
0
220
0
230
1
0
LINE
5
61
100
AcDbEntity
8
1
62
256
6
ByLayer
370
-1
48
1
60
0
100
AcDbLine
10
74.876868
20
3.383328
30
0
11
67.933425
21
4.418902
31
0
39
0
210
0
220
0
230
1
0
LINE
5
62
100
AcDbEntity
8
1
62
256
6
ByLayer
370
-1
48
1
60
0
100
AcDbLine
10
82.089182
20
0.20539
30
0
11
82.147199
21
0.186327
31
0
39
0
210
0
220
0
230
1
0
LINE
5
63
100
AcDbEntity
8
1
62
256
6
ByLayer
370
-1
48
1
60
0
100
AcDbLine
10
0.3
20
-20
30
0
11
0.3
21
20
31
0
39
0
210
0
220
0
230
1
0
LINE
5
64
100
AcDbEntity
8
1
62
256
6
ByLayer
370
-1
48
1
60
0
100
AcDbLine
10
76.224505
20
2.518243
30
0
11
76.230066
21
2.518243
31
0
39
0
210
0
220
0
230
1
0
LINE
5
65
100
AcDbEntity
8
1
62
256
6
ByLayer
370
-1
48
1
60
0
100
AcDbLine
10
76.206419
20
2.326892
30
0
11
76.200858
21
2.326892
31
0
39
0
210
0
220
0
230
1
0
LINE
5
66
100
AcDbEntity
8
1
62
256
6
ByLayer
370
-1
48
1
60
0
100
AcDbLine
10
80.540567
20
-2.532895
30
0
11
80.415455
21
-2.532895
31
0
39
0
210
0
220
0
230
1
0
LINE
5
67
100
AcDbEntity
8
1
62
256
6
ByLayer
370
-1
48
1
60
0
100
AcDbLine
10
24.9
20
-12.5
30
0
11
24.9
21
7.083449
31
0
39
0
210
0
220
0
230
1
0
LINE
5
68
100
AcDbEntity
8
1
62
256
6
ByLayer
370
-1
48
1
60
0
100
AcDbLine
10
24.9
20
12.5
30
0
11
24.9
21
9.385918
31
0
39
0
210
0
220
0
230
1
0
LINE
5
69
100
AcDbEntity
8
1
62
256
6
ByLayer
370
-1
48
1
60
0
100
AcDbLine
10
19.7
20
19.7
30
0
11
19.7
21
-19.7
31
0
39
0
210
0
220
0
230
1
0
LINE
5
6A
100
AcDbEntity
8
1
62
256
6
ByLayer
370
-1
48
1
60
0
100
AcDbLine
10
75.069924
20
2.122552
30
0
11
73.865303
21
2.686422
31
0
39
0
210
0
220
0
230
1
0
LINE
5
6B
100
AcDbEntity
8
1
62
256
6
ByLayer
370
-1
48
1
60
0
100
AcDbLine
10
82.002715
20
-5.720785
30
0
11
82.2153
21
-4.517404
31
0
39
0
210
0
220
0
230
1
0
LINE
5
6C
100
AcDbEntity
8
1
62
256
6
ByLayer
370
-1
48
1
60
0
100
AcDbLine
10
82.40072
20
-1.627435
30
0
11
82.035405
21
-3.695373
31
0
39
0
210
0
220
0
230
1
0
LINE
5
6D
100
AcDbEntity
8
1
62
256
6
ByLayer
370
-1
48
1
60
0
100
AcDbLine
10
78.191624
20
0.906797
30
0
11
81.459896
21
0.906797
31
0
39
0
210
0
220
0
230
1
0
LINE
5
6E
100
AcDbEntity
8
1
62
256
6
ByLayer
370
-1
48
1
60
0
100
AcDbLine
10
32
20
5.725
30
0
11
32
21
3.935594
31
0
39
0
210
0
220
0
230
1
0
LINE
5
6F
100
AcDbEntity
8
1
62
256
6
ByLayer
370
-1
48
1
60
0
100
AcDbLine
10
78.191624
20
0.906797
30
0
11
78.029341
21
0.827663
31
0
39
0
210
0
220
0
230
1
0
LINE
5
70
100
AcDbEntity
8
1
62
256
6
ByLayer
370
-1
48
1
60
0
100
AcDbLine
10
26.5
20
4.426427
30
0
11
26.5
21
-11
31
0
39
0
210
0
220
0
230
1
0
LINE
5
71
100
AcDbEntity
8
1
62
256
6
ByLayer
370
-1
48
1
60
0
100
AcDbLine
10
74.283042
20
0.523574
30
0
11
74.197979
21
0.262057
31
0
39
0
210
0
220
0
230
1
0
LINE
5
72
100
AcDbEntity
8
1
62
256
6
ByLayer
370
-1
48
1
60
0
100
AcDbLine
10
76.31448
20
2.567331
30
0
11
76.434203
21
2.567331
31
0
39
0
210
0
220
0
230
1
0
LINE
5
73
100
AcDbEntity
8
1
62
256
6
ByLayer
370
-1
48
1
60
0
100
AcDbLine
10
0
20
-19.7
30
0
11
0
21
19.7
31
0
39
0
210
0
220
0
230
1
0
LINE
5
74
100
AcDbEntity
8
1
62
256
6
ByLayer
370
-1
48
1
60
0
100
AcDbLine
10
81.686075
20
-0.088372
30
0
11
81.876612
21
0.869123
31
0
39
0
210
0
220
0
230
1
0
LINE
5
75
100
AcDbEntity
8
1
62
256
6
ByLayer
370
-1
48
1
60
0
100
AcDbLine
10
76.497355
20
2.703278
30
0
11
76.434203
21
2.567331
31
0
39
0
210
0
220
0
230
1
0
LINE
5
76
100
AcDbEntity
8
1
62
256
6
ByLayer
370
-1
48
1
60
0
100
AcDbLine
10
74.876868
20
3.383328
30
0
11
74.876868
21
5.724995
31
0
39
0
210
0
220
0
230
1
0
LINE
5
77
100
AcDbEntity
8
1
62
256
6
ByLayer
370
-1
48
1
60
0
100
AcDbLine
10
76.398022
20
-0.211009
30
0
11
76.46793
21
0.003913
31
0
39
0
210
0
220
0
230
1
0
LINE
5
78
100
AcDbEntity
8
1
62
256
6
ByLayer
370
-1
48
1
60
0
100
AcDbLine
10
25.025882
20
12.403407
30
0
11
25.025882
21
9.437922
31
0
39
0
210
0
220
0
230
1
0
LINE
5
79
100
AcDbEntity
8
1
62
256
6
ByLayer
370
-1
48
1
60
0
100
AcDbLine
10
81.587703
20
0.906797
30
0
11
82.056802
21
0.865599
31
0
39
0
210
0
220
0
230
1
0
LINE
5
7A
100
AcDbEntity
8
1
62
256
6
ByLayer
370
-1
48
1
60
0
100
AcDbLine
10
9.076795
20
-19.122283
30
0
11
6.923205
21
-19.122283
31
0
39
0
210
0
220
0
230
1
0
LINE
5
7B
100
AcDbEntity
8
1
62
256
6
ByLayer
370
-1
48
1
60
0
100
AcDbLine
10
26.015785
20
4.660845
30
0
11
26.015785
21
-11
31
0
39
0
210
0
220
0
230
1
0
LINE
5
7C
100
AcDbEntity
8
1
62
256
6
ByLayer
370
-1
48
1
60
0
100
AcDbLine
10
32
20
-3.678445
30
0
11
32
21
-5.725
31
0
39
0
210
0
220
0
230
1
0
LINE
5
7D
100
AcDbEntity
8
1
62
256
6
ByLayer
370
-1
48
1
60
0
100
AcDbLine
10
9.336603
20
6.16973
30
0
11
9.336603
21
19.024574
31
0
39
0
210
0
220
0
230
1
0
LINE
5
7E
100
AcDbEntity
8
1
62
256
6
ByLayer
370
-1
48
1
60
0
100
AcDbLine
10
9.336603
20
-19.024574
30
0
11
9.336603
21
-6.16973
31
0
39
0
210
0
220
0
230
1
0
LINE
5
7F
100
AcDbEntity
8
1
62
256
6
ByLayer
370
-1
48
1
60
0
100
AcDbLine
10
9.076795
20
5.85989
30
0
11
9.076795
21
19.122283
31
0
39
0
210
0
220
0
230
1
0
LINE
5
80
100
AcDbEntity
8
1
62
256
6
ByLayer
370
-1
48
1
60
0
100
AcDbLine
10
76.563065
20
0.931609
30
0
11
76.608948
21
0.931609
31
0
39
0
210
0
220
0
230
1
0
LINE
5
81
100
AcDbEntity
8
1
62
256
6
ByLayer
370
-1
48
1
60
0
100
AcDbLine
10
20
20
12.5
30
0
11
20
21
-12.5
31
0
39
0
210
0
220
0
230
1
0
LINE
5
82
100
AcDbEntity
8
1
62
256
6
ByLayer
370
-1
48
1
60
0
100
AcDbLine
10
6.663397
20
6.16973
30
0
11
6.663397
21
19.024574
31
0
39
0
210
0
220
0
230
1
0
LINE
5
83
100
AcDbEntity
8
1
62
256
6
ByLayer
370
-1
48
1
60
0
100
AcDbLine
10
9.076795
20
-19.122283
30
0
11
9.076795
21
-5.85989
31
0
39
0
210
0
220
0
230
1
0
LINE
5
84
100
AcDbEntity
8
1
62
256
6
ByLayer
370
-1
48
1
60
0
100
AcDbLine
10
9.076795
20
5.85989
30
0
11
6.923205
21
5.85989
31
0
39
0
210
0
220
0
230
1
0
LINE
5
85
100
AcDbEntity
8
1
62
256
6
ByLayer
370
-1
48
1
60
0
100
AcDbLine
10
26.015785
20
11
30
0
11
26.015785
21
8.852286
31
0
39
0
210
0
220
0
230
1
0
LINE
5
86
100
AcDbEntity
8
1
62
256
6
ByLayer
370
-1
48
1
60
0
100
AcDbLine
10
25.243045
20
-11.592945
30
0
11
25.243045
21
5.838025
31
0
39
0
210
0
220
0
230
1
0
LINE
5
87
100
AcDbEntity
8
1
62
256
6
ByLayer
370
-1
48
1
60
0
100
AcDbLine
10
82.40072
20
-1.627435
30
0
11
82.003958
21
-1.440673
31
0
39
0
210
0
220
0
230
1
0
LINE
5
88
100
AcDbEntity
8
1
62
256
6
ByLayer
370
-1
48
1
60
0
100
AcDbLine
10
82.077867
20
1.07968
30
0
11
82.082517
21
0.640731
31
0
39
0
210
0
220
0
230
1
0
LINE
5
89
100
AcDbEntity
8
1
62
256
6
ByLayer
370
-1
48
1
60
0
100
AcDbLine
10
78.862081
20
-2.532895
30
0
11
78.736968
21
-2.532895
31
0
39
0
210
0
220
0
230
1
0
LINE
5
8A
100
AcDbEntity
8
1
62
256
6
ByLayer
370
-1
48
1
60
0
100
AcDbLine
10
81.991666
20
-4.479742
30
0
11
82.2153
21
-4.517404
31
0
39
0
210
0
220
0
230
1
0
LINE
5
8B
100
AcDbEntity
8
1
62
256
6
ByLayer
370
-1
48
1
60
0
100
AcDbLine
10
82.056802
20
0.865599
30
0
11
81.876612
21
0.869123
31
0
39
0
210
0
220
0
230
1
0
LINE
5
8C
100
AcDbEntity
8
1
62
256
6
ByLayer
370
-1
48
1
60
0
100
AcDbLine
10
82.150114
20
-0.450625
30
0
11
82.40072
21
-1.627435
31
0
39
0
210
0
220
0
230
1
0
LINE
5
8D
100
AcDbEntity
8
1
62
256
6
ByLayer
370
-1
48
1
60
0
100
AcDbLine
10
6.923205
20
-5.85989
30
0
11
9.076795
21
-5.85989
31
0
39
0
210
0
220
0
230
1
0
LINE
5
8E
100
AcDbEntity
8
1
62
256
6
ByLayer
370
-1
48
1
60
0
100
AcDbLine
10
81.876612
20
0.869123
30
0
11
81.459896
21
0.906797
31
0
39
0
210
0
220
0
230
1
0
LINE
5
8F
100
AcDbEntity
8
1
62
256
6
ByLayer
370
-1
48
1
60
0
100
AcDbLine
10
6.923205
20
5.85989
30
0
11
6.923205
21
19.122283
31
0
39
0
210
0
220
0
230
1
0
LINE
5
90
100
AcDbEntity
8
1
62
256
6
ByLayer
370
-1
48
1
60
0
100
AcDbLine
10
20.1
20
12.5
30
0
11
20.1
21
-12.5
31
0
39
0
210
0
220
0
230
1
0
LINE
5
91
100
AcDbEntity
8
1
62
256
6
ByLayer
370
-1
48
1
60
0
100
AcDbLine
10
25.025882
20
6.820528
30
0
11
25.025882
21
-12.403407
31
0
39
0
210
0
220
0
230
1
0
LINE
5
92
100
AcDbEntity
8
1
62
256
6
ByLayer
370
-1
48
1
60
0
100
AcDbLine
10
76.224505
20
2.518243
30
0
11
76.854642
21
5.72261
31
0
39
0
210
0
220
0
230
1
0
LINE
5
93
100
AcDbEntity
8
1
62
256
6
ByLayer
370
-1
48
1
60
0
100
AcDbLine
10
81.587705
20
0.906797
30
0
11
81.459896
21
0.906797
31
0
39
0
210
0
220
0
230
1
0
LINE
5
94
100
AcDbEntity
8
1
62
256
6
ByLayer
370
-1
48
1
60
0
100
AcDbLine
10
26.5
20
11
30
0
11
26.5
21
8.981871
31
0
39
0
210
0
220
0
230
1
0
LINE
5
95
100
AcDbEntity
8
1
62
256
6
ByLayer
370
-1
48
1
60
0
100
AcDbLine
10
82.147199
20
0.186327
30
0
11
82.151164
21
0.189109
31
0
39
0
210
0
220
0
230
1
0
LINE
5
96
100
AcDbEntity
8
1
62
256
6
ByLayer
370
-1
48
1
60
0
100
AcDbLine
10
76.555359
20
0.272703
30
0
11
76.635866
21
0.520212
31
0
39
0
210
0
220
0
230
1
0
LINE
5
97
100
AcDbEntity
8
1
62
256
6
ByLayer
370
-1
48
1
60
0
100
AcDbLine
10
82.080067
20
0.203786
30
0
11
82.089182
21
0.20539
31
0
39
0
210
0
220
0
230
1
0
LINE
5
98
100
AcDbEntity
8
1
62
256
6
ByLayer
370
-1
48
1
60
0
100
AcDbLine
10
6.923205
20
-19.122283
30
0
11
6.923205
21
-5.85989
31
0
39
0
210
0
220
0
230
1
0
LINE
5
99
100
AcDbEntity
8
1
62
256
6
ByLayer
370
-1
48
1
60
0
100
AcDbLine
10
82.068836
20
0.172536
30
0
11
82.147199
21
0.186327
31
0
39
0
210
0
220
0
230
1
0
LINE
5
9A
100
AcDbEntity
8
1
62
256
6
ByLayer
370
-1
48
1
60
0
100
AcDbLine
10
6.923205
20
19.122283
30
0
11
9.076795
21
19.122283
31
0
39
0
210
0
220
0
230
1
0
LINE
5
9B
100
AcDbEntity
8
1
62
256
6
ByLayer
370
-1
48
1
60
0
100
AcDbLine
10
25.243045
20
11.592945
30
0
11
25.243045
21
8.950875
31
0
39
0
210
0
220
0
230
1
0
LINE
5
9C
100
AcDbEntity
8
1
62
256
6
ByLayer
370
-1
48
1
60
0
100
AcDbLine
10
76.860496
20
5.724094
30
0
11
76.230066
21
2.518243
31
0
39
0
210
0
220
0
230
1
0
LINE
5
9D
100
AcDbEntity
8
1
62
256
6
ByLayer
370
-1
48
1
60
0
100
AcDbLine
10
76.721949
20
0.784863
30
0
11
76.726664
21
0.799358
31
0
39
0
210
0
220
0
230
1
0
LINE
5
9E
100
AcDbEntity
8
1
62
256
6
ByLayer
370
-1
48
1
60
0
100
AcDbLine
10
19.4
20
20
30
0
11
19.4
21
-20
31
0
39
0
210
0
220
0
230
1
0
LINE
5
9F
100
AcDbEntity
8
1
62
256
6
ByLayer
370
-1
48
1
60
0
100
AcDbLine
10
75.807787
20
-5.720785
30
0
11
82.002715
21
-5.720785
31
0
39
0
210
0
220
0
230
1
0
LINE
5
A0
100
AcDbEntity
8
1
62
256
6
ByLayer
370
-1
48
1
60
0
100
AcDbLine
10
6.663397
20
-19.024574
30
0
11
6.663397
21
-6.16973
31
0
39
0
210
0
220
0
230
1
0
LINE
5
A1
100
AcDbEntity
8
1
62
256
6
ByLayer
370
-1
48
1
60
0
100
AcDbLine
10
76.384202
20
2.703278
30
0
11
76.497355
21
2.703278
31
0
39
0
210
0
220
0
230
1
0
LINE
5
A2
100
AcDbEntity
8
1
62
256
6
ByLayer
370
-1
48
1
60
0
100
AcDbLine
10
82.401332
20
-4.22528
30
0
11
81.963504
21
-4.354729
31
0
39
0
210
0
220
0
230
1
0
LINE
5
A3
100
AcDbEntity
8
1
62
256
6
ByLayer
370
-1
48
1
60
0
100
AcDbLine
10
82.518239
20
-0.088292
30
0
11
82.639011
21
-0.000991
31
0
39
0
210
0
220
0
230
1
0
LINE
5
A4
100
AcDbEntity
8
1
62
256
6
ByLayer
370
-1
48
1
60
0
100
AcDbLine
10
82.510992
20
-3.843569
30
0
11
82.61157
21
-3.990168
31
0
39
0
210
0
220
0
230
1
0
LINE
5
A5
100
AcDbEntity
8
1
62
256
6
ByLayer
370
-1
48
1
60
0
100
AcDbLine
10
82.770127
20
-1.541415
30
0
11
82.517747
21
-0.356276
31
0
39
0
210
0
220
0
230
1
0
LINE
5
A6
100
AcDbEntity
8
1
62
256
6
ByLayer
370
-1
48
1
60
0
100
AcDbLine
10
82.496323
20
-3.300611
30
0
11
82.773457
21
-1.731839
31
0
39
0
210
0
220
0
230
1
0
LINE
5
A7
100
AcDbEntity
8
1
62
256
6
ByLayer
370
-1
48
1
60
0
100
AcDbLine
10
82.476048
20
-0.679218
30
0
11
82.649372
21
-1.493124
31
0
39
0
210
0
220
0
230
1
0
LINE
5
A8
100
AcDbEntity
8
1
62
256
6
ByLayer
370
-1
48
1
60
0
100
AcDbLine
10
82.198648
20
0.147751
30
0
11
82.31942
21
0.235053
31
0
39
0
210
0
220
0
230
1
0
LINE
5
A9
100
AcDbEntity
8
1
62
256
6
ByLayer
370
-1
48
1
60
0
100
AcDbLine
10
82.31942
20
0.235053
30
0
11
82.141936
21
0.219554
31
0
39
0
210
0
220
0
230
1
0
LINE
5
AA
100
AcDbEntity
8
1
62
256
6
ByLayer
370
-1
48
1
60
0
100
AcDbLine
10
82.654484
20
-1.785437
30
0
11
82.382527
21
-3.324906
31
0
39
0
210
0
220
0
230
1
0
LINE
5
AB
100
AcDbEntity
8
1
62
256
6
ByLayer
370
-1
48
1
60
0
100
AcDbLine
10
82.992319
20
-1.834861
30
0
11
82.61157
21
-3.990168
31
0
39
0
210
0
220
0
230
1
0
LINE
5
AC
100
AcDbEntity
8
1
62
256
6
ByLayer
370
-1
48
1
60
0
100
AcDbLine
10
82.773457
20
-1.731839
30
0
11
82.992319
21
-1.834861
31
0
39
0
210
0
220
0
230
1
0
LINE
5
AD
100
AcDbEntity
8
1
62
256
6
ByLayer
370
-1
48
1
60
0
100
AcDbLine
10
82.639011
20
-0.000991
30
0
11
82.988989
21
-1.644437
31
0
39
0
210
0
220
0
230
1
0
LINE
5
AE
100
AcDbEntity
8
1
62
256
6
ByLayer
370
-1
48
1
60
0
100
AcDbLine
10
82.300754
20
-4.078681
30
0
11
82.401332
21
-4.22528
31
0
39
0
210
0
220
0
230
1
0
LINE
5
AF
100
AcDbEntity
8
1
62
256
6
ByLayer
370
-1
48
1
60
0
100
AcDbLine
10
82.770127
20
-1.541415
30
0
11
82.988989
21
-1.644437
31
0
39
0
210
0
220
0
230
1
0
LINE
5
B0
100
AcDbEntity
8
SK1
62
256
6
ByLayer
370
-1
48
1
60
0
100
AcDbLine
10
-0.2
20
14.083485
30
0
11
-0.2
21
5.547043
31
0
39
0
210
0
220
0
230
1
0
LINE
5
B2
100
AcDbEntity
8
SK1
62
256
6
ByLayer
370
-1
48
1
60
0
100
AcDbLine
10
-1.307107
20
-3.588717
30
0
11
-1.307107
21
3.588717
31
0
39
0
210
0
220
0
230
1
0
LINE
5
B3
100
AcDbEntity
8
SK1
62
256
6
ByLayer
370
-1
48
1
60
0
100
AcDbLine
10
-0.2
20
-14.083485
30
0
11
-0.2
21
-5.547043
31
0
39
0
210
0
220
0
230
1
0
LINE
5
B4
100
AcDbEntity
8
1
62
256
6
ByLayer
370
-1
48
1
60
0
100
AcDbLine
10
77.170545
20
0.979226
30
0
11
77.171372
21
1.058907
31
0
39
0
210
0
220
0
230
1
0
LINE
5
B5
100
AcDbEntity
8
1
62
256
6
ByLayer
370
-1
48
1
60
0
100
AcDbLine
10
82.886237
20
4.158331
30
0
11
82.964778
21
4.173537
31
0
39
0
210
0
220
0
230
1
0
LINE
5
B6
100
AcDbEntity
8
1
62
256
6
ByLayer
370
-1
48
1
60
0
100
AcDbLine
10
76.507816
20
2.975361
30
0
11
76.585142
21
2.960154
31
0
39
0
210
0
220
0
230
1
0
LINE
5
B7
100
AcDbEntity
8
1
62
256
6
ByLayer
370
-1
48
1
60
0
100
AcDbLine
10
76.794594
20
1.301747
30
0
11
76.87192
21
1.316953
31
0
39
0
210
0
220
0
230
1
0
LINE
5
B8
100
AcDbEntity
8
1
62
256
6
ByLayer
370
-1
48
1
60
0
100
AcDbLine
10
82.543159
20
5.886751
30
0
11
82.491519
21
5.825701
31
0
39
0
210
0
220
0
230
1
0
LINE
5
B9
100
AcDbEntity
8
1
62
256
6
ByLayer
370
-1
48
1
60
0
100
AcDbLine
10
76.584789
20
2.799758
30
0
11
76.507464
21
2.784552
31
0
39
0
210
0
220
0
230
1
0
LINE
5
BA
100
AcDbEntity
8
1
62
256
6
ByLayer
370
-1
48
1
60
0
100
AcDbLine
10
78.623291
20
1.074108
30
0
11
77.330711
21
0.983377
31
0
39
0
210
0
220
0
230
1
0
LINE
5
BB
100
AcDbEntity
8
1
62
256
6
ByLayer
370
-1
48
1
60
0
100
AcDbLine
10
76.794594
20
1.301747
30
0
11
76.507639
21
2.78364
31
0
39
0
210
0
220
0
230
1
0
LINE
5
BC
100
AcDbEntity
8
1
62
256
6
ByLayer
370
-1
48
1
60
0
100
AcDbLine
10
82.464654
20
1.40181
30
0
11
82.386113
21
1.417016
31
0
39
0
210
0
220
0
230
1
0
LINE
5
BD
100
AcDbEntity
8
1
62
256
6
ByLayer
370
-1
48
1
60
0
100
AcDbLine
10
82.342523
20
5.975736
30
0
11
82.331686
21
5.896706
31
0
39
0
210
0
220
0
230
1
0
LINE
5
BE
100
AcDbEntity
8
1
62
256
6
ByLayer
370
-1
48
1
60
0
100
AcDbLine
10
80.709046
20
5.879045
30
0
11
77.399492
21
5.879045
31
0
39
0
210
0
220
0
230
1
0
LINE
5
BF
100
AcDbEntity
8
1
62
256
6
ByLayer
370
-1
48
1
60
0
100
AcDbLine
10
82.677647
20
5.656343
30
0
11
82.599106
21
5.641136
31
0
39
0
210
0
220
0
230
1
0
LINE
5
C0
100
AcDbEntity
8
1
62
256
6
ByLayer
370
-1
48
1
60
0
100
AcDbLine
10
77.007588
20
5.55628
30
0
11
77.084913
21
5.541073
31
0
39
0
210
0
220
0
230
1
0
LINE
5
C1
100
AcDbEntity
8
1
62
256
6
ByLayer
370
-1
48
1
60
0
100
AcDbLine
10
78.762271
20
1.079044
30
0
11
78.761663
21
1.15874
31
0
39
0
210
0
220
0
230
1
0
LINE
5
C2
100
AcDbEntity
8
1
62
256
6
ByLayer
370
-1
48
1
60
0
100
AcDbLine
10
82.299697
20
5.9789
30
0
11
82.297813
21
5.899215
31
0
39
0
210
0
220
0
230
1
0
LINE
5
C3
100
AcDbEntity
8
1
62
256
6
ByLayer
370
-1
48
1
60
0
100
AcDbLine
10
80.709971
20
5.879045
30
0
11
80.709363
21
5.799349
31
0
39
0
210
0
220
0
230
1
0
LINE
5
C4
100
AcDbEntity
8
1
62
256
6
ByLayer
370
-1
48
1
60
0
100
AcDbLine
10
77.172545
20
0.979189
30
0
11
77.173213
21
1.058874
31
0
39
0
210
0
220
0
230
1
0
LINE
5
C5
100
AcDbEntity
8
1
62
256
6
ByLayer
370
-1
48
1
60
0
100
AcDbLine
10
80.848951
20
5.883981
30
0
11
80.853881
21
5.80448
31
0
39
0
210
0
220
0
230
1
0
LINE
5
C6
100
AcDbEntity
8
1
62
256
6
ByLayer
370
-1
48
1
60
0
100
AcDbLine
10
82.072749
20
1.079045
30
0
11
78.763196
21
1.079045
31
0
39
0
210
0
220
0
230
1
0
LINE
5
C7
100
AcDbEntity
8
1
62
256
6
ByLayer
370
-1
48
1
60
0
100
AcDbLine
10
77.330711
20
0.983377
30
0
11
77.324565
21
1.062878
31
0
39
0
210
0
220
0
230
1
0
LINE
5
C8
100
AcDbEntity
8
1
62
256
6
ByLayer
370
-1
48
1
60
0
100
AcDbLine
10
82.141531
20
5.974713
30
0
11
82.146461
21
5.895211
31
0
39
0
210
0
220
0
230
1
0
LINE
5
C9
100
AcDbEntity
8
1
62
256
6
ByLayer
370
-1
48
1
60
0
100
AcDbLine
10
82.677647
20
5.656343
30
0
11
82.964602
21
4.174449
31
0
39
0
210
0
220
0
230
1
0
LINE
5
CA
100
AcDbEntity
8
1
62
256
6
ByLayer
370
-1
48
1
60
0
100
AcDbLine
10
82.964426
20
3.982729
30
0
11
82.885884
21
3.997935
31
0
39
0
210
0
220
0
230
1
0
LINE
5
CB
100
AcDbEntity
8
1
62
256
6
ByLayer
370
-1
48
1
60
0
100
AcDbLine
10
76.929083
20
1.071339
30
0
11
76.979507
21
1.132388
31
0
39
0
210
0
220
0
230
1
0
LINE
5
CC
100
AcDbEntity
8
1
62
256
6
ByLayer
370
-1
48
1
60
0
100
AcDbLine
10
77.00741
20
5.555368
30
0
11
76.507816
21
2.975361
31
0
39
0
210
0
220
0
230
1
0
LINE
5
CD
100
AcDbEntity
8
1
62
256
6
ByLayer
370
-1
48
1
60
0
100
AcDbLine
10
82.464831
20
1.402721
30
0
11
82.964426
21
3.982729
31
0
39
0
210
0
220
0
230
1
0
LINE
5
CE
100
AcDbEntity
8
1
62
256
6
ByLayer
370
-1
48
1
60
0
100
AcDbLine
10
82.301697
20
5.978863
30
0
11
82.299654
21
5.899182
31
0
39
0
210
0
220
0
230
1
0
LINE
5
CF
100
AcDbEntity
8
1
62
256
6
ByLayer
370
-1
48
1
60
0
100
AcDbLine
10
77.129718
20
0.982353
30
0
11
77.13934
21
1.061383
31
0
39
0
210
0
220
0
230
1
0
LINE
5
D0
100
AcDbEntity
8
1
62
256
6
ByLayer
370
-1
48
1
60
0
100
AcDbLine
10
82.072749
20
1.079045
30
0
11
82.072142
21
1.15874
31
0
39
0
210
0
220
0
230
1
0
LINE
5
D1
100
AcDbEntity
8
1
62
256
6
ByLayer
370
-1
48
1
60
0
100
AcDbLine
10
77.399492
20
5.879045
30
0
11
77.398884
21
5.799349
31
0
39
0
210
0
220
0
230
1
0
LINE
5
D2
100
AcDbEntity
8
1
62
256
6
ByLayer
370
-1
48
1
60
0
100
AcDbLine
10
80.848951
20
5.883981
30
0
11
82.141531
21
5.974713
31
0
39
0
210
0
220
0
230
1
0
LINE
5
D3
100
AcDbEntity
8
1
62
256
6
ByLayer
370
-1
48
1
60
0
100
AcDbLine
10
78.623291
20
1.074108
30
0
11
78.617145
21
1.153609
31
0
39
0
210
0
220
0
230
1
0
MTEXT
5
1FA
100
AcDbEntity
8
SK6
62
256
6
ByLayer
370
-1
48
1
60
0
100
AcDbMText
10
0.79375
20
-80.79375
30
0
210
0
220
0
230
1
1
\W00.721;\fsimplex.shx,bigfont.shx;880-D1200C4-04 
40
3.175
41
0
44
1.084337
50
0
71
7
72
5
7
DEFAULT
0
DIMENSION
5
22A
100
AcDbEntity
8
SK2
62
256
6
ByLayer
370
-3
48
1
60
0
100
AcDbDimension
2
DimnDraft3D1
10
83
20
-58.81875
30
0
11
29.5
21
-58.81875
31
0
70
32
71
5
72
1
41
1
210
0
220
0
230
1
3
Standard
100
AcDbAlignedDimension
13
-24
23
-3.5875
33
0
14
83
24
-7.5875
34
0
50
0
100
AcDbRotatedDimension
1001
ACAD
1000
DSTYLE
1002
{
1070
   279
1070
     0
1070
   172
1070
     1
1070
   173
1070
     1
1070
   340
1005
1FB
1070
   271
1070
     1
1070
   272
1070
     2
1070
    77
1070
     1
1070
    73
1070
     0
1070
   171
1070
     3
1070
   274
1070
     4
1070
   177
1070
   150
1070
   176
1070
     9
1070
   178
1070
    43
1070
    78
1070
     8
1070
    48
1040
-0.005
1070
    41
1041
4.175
1070
   147
1041
2.25
1070
    42
1041
1.5875
1070
    44
1041
3.175
1070
   140
1041
4.5
1070
   343
1005
0
1070
   344
1005
0
1002
}
0
DIMENSION
5
234
100
AcDbEntity
8
SK2
62
256
6
ByLayer
370
-3
48
1
60
0
100
AcDbDimension
2
DimnDraft3D2
10
0
20
-46.85
30
0
11
-12
21
-46.85
31
0
70
32
71
5
72
1
41
1
210
0
220
0
230
1
3
Standard
100
AcDbAlignedDimension
13
-24
23
-3.5875
33
0
14
0
24
-21.5875
34
0
50
0
100
AcDbRotatedDimension
1001
ACAD
1000
DSTYLE
1002
{
1070
   279
1070
     0
1070
   172
1070
     1
1070
   173
1070
     1
1070
   340
1005
1FB
1070
   271
1070
     1
1070
   272
1070
     2
1070
    77
1070
     1
1070
    73
1070
     0
1070
   171
1070
     3
1070
   274
1070
     4
1070
   177
1070
   150
1070
   176
1070
     9
1070
   178
1070
    43
1070
    78
1070
     8
1070
    48
1040
-0.005
1070
    41
1041
4.175
1070
   147
1041
2.25
1070
    42
1041
1.5875
1070
    44
1041
3.175
1070
   140
1041
4.5
1070
   343
1005
0
1070
   344
1005
0
1002
}
0
DIMENSION
5
23F
100
AcDbEntity
8
2
62
256
6
ByLayer
370
-3
48
1
60
0
100
AcDbDimension
2
DimnDraft3D3
10
83
20
-46.85
30
0
11
41.5
21
-46.85
31
0
70
32
71
5
72
1
41
1
210
0
220
0
230
1
3
Standard
100
AcDbAlignedDimension
13
0
23
-21.5875
33
0
14
83
24
-7.5875
34
0
50
0
100
AcDbRotatedDimension
1001
ACAD
1000
DSTYLE
1002
{
1070
   279
1070
     0
1070
   172
1070
     1
1070
   173
1070
     1
1070
   340
1005
1FB
1070
   271
1070
     1
1070
   272
1070
     2
1070
    77
1070
     1
1070
    73
1070
     0
1070
   171
1070
     3
1070
   274
1070
     4
1070
   177
1070
   150
1070
   176
1070
     9
1070
   178
1070
    43
1070
    78
1070
     8
1070
    48
1040
-0.005
1070
    41
1041
4.175
1070
   147
1041
2.25
1070
    42
1041
1.5875
1070
    44
1041
3.175
1070
   140
1041
4.5
1070
   343
1005
0
1070
   344
1005
0
1002
}
0
DIMENSION
5
249
100
AcDbEntity
8
SK2
62
256
6
ByLayer
370
-3
48
1
60
0
100
AcDbDimension
2
DimnDraft3D4
10
83
20
-36.85
30
0
11
57.5
21
-36.85
31
0
70
32
71
5
72
1
41
1
210
0
220
0
230
1
3
Standard
100
AcDbAlignedDimension
13
32
23
-11.5875
33
0
14
83
24
-7.5875
34
0
50
0
100
AcDbRotatedDimension
1001
ACAD
1000
DSTYLE
1002
{
1070
   279
1070
     0
1070
   172
1070
     1
1070
   173
1070
     1
1070
   340
1005
1FB
1070
   271
1070
     1
1070
   272
1070
     2
1070
    77
1070
     1
1070
    73
1070
     0
1070
   171
1070
     3
1070
   274
1070
     4
1070
   177
1070
   150
1070
   176
1070
     9
1070
   178
1070
    43
1070
    78
1070
     8
1070
    48
1040
-0.005
1070
    41
1041
4.175
1070
   147
1041
2.25
1070
    42
1041
1.5875
1070
    44
1041
3.175
1070
   140
1041
4.5
1070
   343
1005
0
1070
   344
1005
0
1002
}
0
DIMENSION
5
254
100
AcDbEntity
8
SK2
62
256
6
ByLayer
370
-3
48
1
60
0
100
AcDbDimension
2
DimnDraft3D5
10
-46.078766
20
20
30
0
11
-46.278766
21
3.884211
31
0
70
33
71
5
72
1
41
1
210
0
220
0
230
1
3
Standard
100
AcDbAlignedDimension
13
-1.5875
23
-20
33
0
14
-1.5875
24
20
34
0
1001
ACAD
1000
DSTYLE
1002
{
1070
   279
1070
     0
1070
    74
1070
     0
1070
   173
1070
     1
1070
   340
1005
1FB
1070
   271
1070
     1
1070
   272
1070
     2
1070
    77
1070
     1
1070
    73
1070
     0
1070
   171
1070
     3
1070
   274
1070
     4
1070
   177
1070
   150
1070
   176
1070
     9
1070
   178
1070
    43
1070
    78
1070
     8
1070
    48
1040
-0.005
1070
    41
1041
4.175
1070
   147
1041
2.25
1070
    42
1041
1.5875
1070
    44
1041
3.175
1070
   140
1041
4.5
1070
   343
1005
0
1070
   344
1005
0
1002
}
0
DIMENSION
5
25F
100
AcDbEntity
8
2
62
256
6
ByLayer
370
-3
48
1
60
0
100
AcDbDimension
2
DimnDraft3D6
10
113.15
20
-6
30
0
11
106.6
21
-22.245395
31
0
70
33
71
5
72
1
41
1
210
0
220
0
230
1
3
Standard
100
AcDbAlignedDimension
13
84.5875
23
6
33
0
14
84.5875
24
-6
34
0
1001
ACAD
1000
DSTYLE
1002
{
1070
   279
1070
     0
1070
    74
1070
     0
1070
   173
1070
     1
1070
   340
1005
1FB
1070
   271
1070
     2
1070
   272
1070
     2
1070
    77
1070
     1
1070
    73
1070
     0
1070
   171
1070
     3
1070
   274
1070
     4
1070
   177
1070
   150
1070
   176
1070
     9
1070
   178
1070
    43
1070
    78
1070
     8
1070
    48
1040
-0.005
1070
    41
1041
4.175
1070
   147
1041
2.25
1070
    42
1041
1.5875
1070
    44
1041
3.175
1070
   140
1041
4.5
1070
   343
1005
0
1070
   344
1005
0
1002
}
0
ENDSEC
0
SECTION
2
OBJECTS
0
DICTIONARY
5
290
330
0
100
AcDbDictionary
280
0
281
1
3
ACAD_GROUP
350
291
3
ACAD_MLINESTYLE
350
292
0
DICTIONARY
5
291
330
0
100
AcDbDictionary
280
0
281
1
0
DICTIONARY
5
292
330
0
100
AcDbDictionary
280
0
281
1
3
Standard
350
18
0
MLINESTYLE
5
18
330
292
100
AcDbMlineStyle
2
Standard
70
0
3

62
256
51
90
52
90
71
2
49
-0.5
62
256
6
ByLayer
49
0.5
62
256
6
ByLayer
0
RASTERVARIABLES
5
27e
330

100
AcDbRasterVariables
90
0
70
1
71
1
72
1
0
ENDSEC
0
EOF
