0
SECTION
2
HEADER
9
$ACADVER
1
AC1015
9
$DWGCODEPAGE
3
ANSI_1252
9
$HANDSEED
5
2dd
9
$ANGBASE
50
0
9
$ANGDIR
70
0
9
$ATTMODE
70
1
9
$AUNITS
70
0
9
$AUPREC
70
0
9
$CECOLOR
62
256
9
$CELTSCALE
40
1
9
$CELTYPE
6
ByLayer
9
$CELWEIGHT
370
18
9
$CLAYER
8
0
9
$CMLJUST
70
0
9
$CMLSCALE
40
1
9
$CMLSTYLE
2
Standard
9
$DIMSTYLE
2
Standard
9
$TEXTSIZE
40
0.2
9
$TEXTSTYLE
7
Standard
9
$LUNITS
70
2
9
$LUPREC
70
4
9
$EXTNAMES
290
1
9
$INSUNITS
70
4
9
$LTSCALE
40
1
9
$LWDISPLAY
290
1
9
$PDMODE
70
0
9
$PDSIZE
40
0
9
$PLINEGEN
70
0
0
ENDSEC
0
SECTION
2
CLASSES
0
CLASS
1
RASTERVARIABLES
2
AcDbRasterVariables
3
ISM
90
0
280
0
281
0
0
ENDSEC
0
SECTION
2
TABLES
0
TABLE
2
VPORT
5
2d3
100
AcDbSymbolTable
0
VPORT
5
1
100
AcDbSymbolTableRecord
100
AcDbViewportTableRecord
2
*Active
70
0
10
0
20
0
11
1
21
1
12
-1
22
1
13
0
23
0
14
0.5
24
0.5
15
10
25
10
16
0
26
0
36
1
17
0
27
0
37
0
0
ENDTAB
0
TABLE
2
LTYPE
5
2d4
100
AcDbSymbolTable
0
LTYPE
5
14
100
AcDbSymbolTableRecord
100
AcDbLinetypeTableRecord
70
0
2
ByBlock
3

72
65
73
0
40
0
0
LTYPE
5
15
100
AcDbSymbolTableRecord
100
AcDbLinetypeTableRecord
70
0
2
ByLayer
3

72
65
73
0
40
0
0
LTYPE
5
16
100
AcDbSymbolTableRecord
100
AcDbLinetypeTableRecord
70
0
2
CONTINUOUS
3
Solid line
72
65
73
0
40
0
0
LTYPE
5
6A
100
AcDbSymbolTableRecord
100
AcDbLinetypeTableRecord
70
0
2
CENTER
3
____ _ ____ _ ____ _ ____
72
65
73
4
40
47.5
49
22
74
0
49
-8.5
74
0
49
8.5
74
0
49
-8.5
74
0
0
LTYPE
5
6B
100
AcDbSymbolTableRecord
100
AcDbLinetypeTableRecord
70
0
2
DASHED
3
__ __ __ __ __ __ __ __ __
72
65
73
2
40
25.72
49
12.86
74
0
49
-12.86
74
0
0
ENDTAB
0
TABLE
2
LAYER
5
2d5
100
AcDbSymbolTable
0
LAYER
5
10
100
AcDbSymbolTableRecord
100
AcDbLayerTableRecord
2
0
70
0
62
7
6
CONTINUOUS
290
1
370
-3
390
0
0
LAYER
5
6D
100
AcDbSymbolTableRecord
100
AcDbLayerTableRecord
2
81
70
0
62
-3
6
CONTINUOUS
290
1
370
-3
390
0
0
LAYER
5
6F
100
AcDbSymbolTableRecord
100
AcDbLayerTableRecord
2
80
70
0
62
-6
6
CONTINUOUS
290
1
370
-3
390
0
0
LAYER
5
73
100
AcDbSymbolTableRecord
100
AcDbLayerTableRecord
2
1
70
0
62
4
6
CONTINUOUS
290
1
370
-3
390
0
0
LAYER
5
8B
100
AcDbSymbolTableRecord
100
AcDbLayerTableRecord
2
4
70
0
62
-2
6
CENTER
290
1
370
-3
390
0
0
LAYER
5
23D
100
AcDbSymbolTableRecord
100
AcDbLayerTableRecord
2
2
70
0
62
7
6
CONTINUOUS
290
1
370
-3
390
0
0
LAYER
5
2bf
100
AcDbSymbolTableRecord
100
AcDbLayerTableRecord
2
SK4
70
0
62
2
6
CENTER
290
1
370
-3
390
0
0
LAYER
5
2c0
100
AcDbSymbolTableRecord
100
AcDbLayerTableRecord
2
SK1
70
0
62
4
6
CONTINUOUS
290
1
370
-3
390
0
0
LAYER
5
2c1
100
AcDbSymbolTableRecord
100
AcDbLayerTableRecord
2
SK6
70
0
62
5
6
CONTINUOUS
290
1
370
-3
390
0
0
LAYER
5
2c2
100
AcDbSymbolTableRecord
100
AcDbLayerTableRecord
2
SK2
70
0
62
7
6
CONTINUOUS
290
1
370
-3
390
0
0
ENDTAB
0
TABLE
2
STYLE
5
2d6
100
AcDbSymbolTable
0
STYLE
5
11
100
AcDbSymbolTableRecord
100
AcDbTextStyleTableRecord
2
Standard
3
txt
70
0
71
0
40
0
41
1
42
0
50
0
0
STYLE
5
223
100
AcDbSymbolTableRecord
100
AcDbTextStyleTableRecord
2
iso_b_vert
3
simplex.shx
70
0
71
0
40
0
41
1
42
0
50
0
0
STYLE
5
224
100
AcDbSymbolTableRecord
100
AcDbTextStyleTableRecord
2
DWGDirectTextStyle
3
simplex
70
0
71
0
40
0
41
1
42
0
50
0
0
ENDTAB
0
TABLE
2
DIMSTYLE
5
2d7
100
AcDbSymbolTable
100
AcDbDimStyleTable
0
DIMSTYLE
105
27
100
AcDbSymbolTableRecord
100
AcDbDimStyleTableRecord
2
Standard
70
0
3
<>
41
0.18
42
0.0625
44
0.18
140
0.18
147
0.09
73
0
74
0
77
1
271
2
275
0
278
52
280
0
340
11
0
ENDTAB
0
TABLE
2
VIEW
5
2d8
100
AcDbSymbolTable
0
ENDTAB
0
TABLE
2
UCS
5
2d9
100
AcDbSymbolTable
0
ENDTAB
0
TABLE
2
APPID
5
2da
100
AcDbSymbolTable
0
APPID
5
12
100
AcDbSymbolTableRecord
100
AcDbRegAppTableRecord
2
ACAD
70
0
0
ENDTAB
0
TABLE
2
BLOCK_RECORD
5
2db
100
AcDbSymbolTable
0
BLOCK_RECORD
5
1F
100
AcDbSymbolTableRecord
100
AcDbBlockTableRecord
2
*Model_Space
340
0
70
0
0
BLOCK_RECORD
5
1B
100
AcDbSymbolTableRecord
100
AcDbBlockTableRecord
2
*Paper_Space
340
0
70
0
0
BLOCK_RECORD
5
23
100
AcDbSymbolTableRecord
100
AcDbBlockTableRecord
2
*Paper_Space0
340
0
70
0
0
BLOCK_RECORD
5
226
100
AcDbSymbolTableRecord
100
AcDbBlockTableRecord
2
DimnDraft3D1
340
0
70
0
0
BLOCK_RECORD
5
231
100
AcDbSymbolTableRecord
100
AcDbBlockTableRecord
2
DimnDraft3D2
340
0
70
0
0
BLOCK_RECORD
5
23B
100
AcDbSymbolTableRecord
100
AcDbBlockTableRecord
2
DimnDraft3D3
340
0
70
0
0
BLOCK_RECORD
5
246
100
AcDbSymbolTableRecord
100
AcDbBlockTableRecord
2
DimnDraft3D4
340
0
70
0
0
BLOCK_RECORD
5
250
100
AcDbSymbolTableRecord
100
AcDbBlockTableRecord
2
DimnDraft3D5
340
0
70
0
0
BLOCK_RECORD
5
25B
100
AcDbSymbolTableRecord
100
AcDbBlockTableRecord
2
DimnDraft3D6
340
0
70
0
0
ENDTAB
0
ENDSEC
0
SECTION
2
BLOCKS
0
BLOCK
5
20
100
AcDbEntity
8
0
100
AcDbBlockBegin
2
*Model_Space
70
0
10
0
20
0
30
0
3
*Model_Space
0
ENDBLK
5
21
100
AcDbEntity
8
0
100
AcDbBlockEnd
0
BLOCK
5
1C
100
AcDbEntity
8
0
100
AcDbBlockBegin
2
*Paper_Space
70
0
10
0
20
0
30
0
3
*Paper_Space
0
ENDBLK
5
1D
100
AcDbEntity
8
0
100
AcDbBlockEnd
0
BLOCK
5
24
100
AcDbEntity
8
0
100
AcDbBlockBegin
2
*Paper_Space0
70
0
10
0
20
0
30
0
3
*Paper_Space0
0
ENDBLK
5
25
100
AcDbEntity
8
0
100
AcDbBlockEnd
0
BLOCK
5
22E
100
AcDbEntity
8
0
100
AcDbBlockBegin
2
DimnDraft3D1
70
0
10
0
20
0
30
0
3
DimnDraft3D1
0
MTEXT
5
227
100
AcDbEntity
8
SK2
62
256
6
ByLayer
370
18
48
1
60
0
100
AcDbMText
10
17.436842
20
-55.725
30
0
210
0
220
0
230
1
1
\W1.0459;(95)
40
4.5
41
0
44
1.084337
50
0
71
7
72
5
7
iso_b_vert
0
LINE
5
229
100
AcDbEntity
8
SK2
62
256
6
ByLayer
370
13
48
1
60
0
100
AcDbLine
10
-24
20
-3.5875
30
0
11
-24
21
-61.99375
31
0
39
0
210
0
220
0
230
1
0
LINE
5
22A
100
AcDbEntity
8
SK2
62
256
6
ByLayer
370
13
48
1
60
0
100
AcDbLine
10
71
20
-7.5875
30
0
11
71
21
-61.99375
31
0
39
0
210
0
220
0
230
1
0
LINE
5
22B
100
AcDbEntity
8
SK2
62
256
6
ByLayer
370
13
48
1
60
0
100
AcDbLine
10
-24
20
-58.81875
30
0
11
71
21
-58.81875
31
0
39
0
210
0
220
0
230
1
0
SOLID
5
22C
100
AcDbEntity
8
SK2
62
256
6
ByLayer
370
13
48
1
60
0
100
AcDbTrace
10
-24
20
-58.81875
30
0
11
-19.825003
21
-57.893175
31
0
12
-19.824997
22
-59.744325
32
0
13
-24
23
-58.81875
33
0
39
0
210
0
220
0
230
1
0
SOLID
5
22D
100
AcDbEntity
8
SK2
62
256
6
ByLayer
370
13
48
1
60
0
100
AcDbTrace
10
71
20
-58.81875
30
0
11
66.825003
21
-59.744325
31
0
12
66.824997
22
-57.893175
32
0
13
71
23
-58.81875
33
0
39
0
210
0
220
0
230
1
0
ENDBLK
5
22F
100
AcDbEntity
8
0
100
AcDbBlockEnd
0
BLOCK
5
238
100
AcDbEntity
8
0
100
AcDbBlockBegin
2
DimnDraft3D2
70
0
10
0
20
0
30
0
3
DimnDraft3D2
0
MTEXT
5
232
100
AcDbEntity
8
SK2
62
256
6
ByLayer
370
18
48
1
60
0
100
AcDbMText
10
-13.8
20
-45.725
30
0
210
0
220
0
230
1
1
\W0.7167;24
40
4.5
41
0
44
1.084337
50
0
71
7
72
5
7
iso_b_vert
0
LINE
5
233
100
AcDbEntity
8
SK2
62
256
6
ByLayer
370
13
48
1
60
0
100
AcDbLine
10
-24
20
-3.5875
30
0
11
-24
21
-50.025
31
0
39
0
210
0
220
0
230
1
0
LINE
5
234
100
AcDbEntity
8
SK2
62
256
6
ByLayer
370
13
48
1
60
0
100
AcDbLine
10
0
20
-21.5875
30
0
11
0
21
-50.025
31
0
39
0
210
0
220
0
230
1
0
LINE
5
235
100
AcDbEntity
8
SK2
62
256
6
ByLayer
370
13
48
1
60
0
100
AcDbLine
10
-24
20
-46.85
30
0
11
0
21
-46.85
31
0
39
0
210
0
220
0
230
1
0
SOLID
5
236
100
AcDbEntity
8
SK2
62
256
6
ByLayer
370
13
48
1
60
0
100
AcDbTrace
10
-24
20
-46.85
30
0
11
-19.825003
21
-45.924425
31
0
12
-19.824997
22
-47.775575
32
0
13
-24
23
-46.85
33
0
39
0
210
0
220
0
230
1
0
SOLID
5
237
100
AcDbEntity
8
SK2
62
256
6
ByLayer
370
13
48
1
60
0
100
AcDbTrace
10
0
20
-46.85
30
0
11
-4.174997
21
-47.775575
31
0
12
-4.175003
22
-45.924425
32
0
13
0
23
-46.85
33
0
39
0
210
0
220
0
230
1
0
ENDBLK
5
239
100
AcDbEntity
8
0
100
AcDbBlockEnd
0
BLOCK
5
243
100
AcDbEntity
8
0
100
AcDbBlockBegin
2
DimnDraft3D3
70
0
10
0
20
0
30
0
3
DimnDraft3D3
0
MTEXT
5
23C
100
AcDbEntity
8
2
62
256
6
ByLayer
370
18
48
1
60
0
100
AcDbMText
10
34.499342
20
-45.725
30
0
210
0
220
0
230
1
1
\W0.6351;71
40
4.5
41
0
44
1.084337
50
0
71
7
72
5
7
iso_b_vert
0
LINE
5
23E
100
AcDbEntity
8
2
62
256
6
ByLayer
370
13
48
1
60
0
100
AcDbLine
10
0
20
-21.5875
30
0
11
0
21
-50.025
31
0
39
0
210
0
220
0
230
1
0
LINE
5
23F
100
AcDbEntity
8
2
62
256
6
ByLayer
370
13
48
1
60
0
100
AcDbLine
10
71
20
-7.5875
30
0
11
71
21
-50.025
31
0
39
0
210
0
220
0
230
1
0
LINE
5
240
100
AcDbEntity
8
2
62
256
6
ByLayer
370
13
48
1
60
0
100
AcDbLine
10
0
20
-46.85
30
0
11
71
21
-46.85
31
0
39
0
210
0
220
0
230
1
0
SOLID
5
241
100
AcDbEntity
8
2
62
256
6
ByLayer
370
13
48
1
60
0
100
AcDbTrace
10
0
20
-46.85
30
0
11
4.174997
21
-45.924425
31
0
12
4.175003
22
-47.775575
32
0
13
0
23
-46.85
33
0
39
0
210
0
220
0
230
1
0
SOLID
5
242
100
AcDbEntity
8
2
62
256
6
ByLayer
370
13
48
1
60
0
100
AcDbTrace
10
71
20
-46.85
30
0
11
66.825003
21
-47.775575
31
0
12
66.824997
22
-45.924425
32
0
13
71
23
-46.85
33
0
39
0
210
0
220
0
230
1
0
ENDBLK
5
244
100
AcDbEntity
8
0
100
AcDbBlockEnd
0
BLOCK
5
24D
100
AcDbEntity
8
0
100
AcDbBlockBegin
2
DimnDraft3D4
70
0
10
0
20
0
30
0
3
DimnDraft3D4
0
MTEXT
5
247
100
AcDbEntity
8
SK2
62
256
6
ByLayer
370
18
48
1
60
0
100
AcDbMText
10
49.936842
20
-35.725
30
0
210
0
220
0
230
1
1
\W0.6927;39
40
4.5
41
0
44
1.084337
50
0
71
7
72
5
7
iso_b_vert
0
LINE
5
248
100
AcDbEntity
8
SK2
62
256
6
ByLayer
370
13
48
1
60
0
100
AcDbLine
10
32
20
-11.5875
30
0
11
32
21
-40.025
31
0
39
0
210
0
220
0
230
1
0
LINE
5
249
100
AcDbEntity
8
SK2
62
256
6
ByLayer
370
13
48
1
60
0
100
AcDbLine
10
71
20
-7.5875
30
0
11
71
21
-40.025
31
0
39
0
210
0
220
0
230
1
0
LINE
5
24A
100
AcDbEntity
8
SK2
62
256
6
ByLayer
370
13
48
1
60
0
100
AcDbLine
10
32
20
-36.85
30
0
11
71
21
-36.85
31
0
39
0
210
0
220
0
230
1
0
SOLID
5
24B
100
AcDbEntity
8
SK2
62
256
6
ByLayer
370
13
48
1
60
0
100
AcDbTrace
10
32
20
-36.85
30
0
11
36.174997
21
-35.924425
31
0
12
36.175003
22
-37.775575
32
0
13
32
23
-36.85
33
0
39
0
210
0
220
0
230
1
0
SOLID
5
24C
100
AcDbEntity
8
SK2
62
256
6
ByLayer
370
13
48
1
60
0
100
AcDbTrace
10
71
20
-36.85
30
0
11
66.825003
21
-37.775575
31
0
12
66.824997
22
-35.924425
32
0
13
71
23
-36.85
33
0
39
0
210
0
220
0
230
1
0
ENDBLK
5
24E
100
AcDbEntity
8
0
100
AcDbBlockEnd
0
BLOCK
5
258
100
AcDbEntity
8
0
100
AcDbBlockBegin
2
DimnDraft3D5
70
0
10
0
20
0
30
0
3
DimnDraft3D5
0
MTEXT
5
251
100
AcDbEntity
8
SK2
62
256
6
ByLayer
370
18
48
1
60
0
100
AcDbMText
10
-45.153766
20
4.95
30
0
210
0
220
0
230
1
1
\W0.7361;40
40
4.5
41
0
44
1.084337
50
90
71
7
72
5
7
iso_b_vert
0
MTEXT
5
252
100
AcDbEntity
8
SK2
62
256
6
ByLayer
370
18
48
1
60
0
100
AcDbMText
10
-45.153766
20
-6.264844
30
0
210
0
220
0
230
1
1
%%c
40
4.5
41
0
44
1.084337
50
90
71
7
72
5
7
iso_b_vert
0
LINE
5
253
100
AcDbEntity
8
SK2
62
256
6
ByLayer
370
13
48
1
60
0
100
AcDbLine
10
-1.5875
20
-20
30
0
11
-46.078766
21
-20
31
0
39
0
210
0
220
0
230
1
0
LINE
5
254
100
AcDbEntity
8
SK2
62
256
6
ByLayer
370
13
48
1
60
0
100
AcDbLine
10
-1.5875
20
20
30
0
11
-46.078766
21
20
31
0
39
0
210
0
220
0
230
1
0
LINE
5
255
100
AcDbEntity
8
SK2
62
256
6
ByLayer
370
13
48
1
60
0
100
AcDbLine
10
-42.903766
20
-20
30
0
11
-42.903766
21
20
31
0
39
0
210
0
220
0
230
1
0
SOLID
5
256
100
AcDbEntity
8
SK2
62
256
6
ByLayer
370
13
48
1
60
0
100
AcDbTrace
10
-42.903766
20
-20
30
0
11
-43.829341
21
-15.825003
31
0
12
-41.97819
22
-15.824997
32
0
13
-42.903766
23
-20
33
0
39
0
210
0
220
0
230
1
0
SOLID
5
257
100
AcDbEntity
8
SK2
62
256
6
ByLayer
370
13
48
1
60
0
100
AcDbTrace
10
-42.903766
20
20
30
0
11
-41.97819
21
15.825003
31
0
12
-43.829341
22
15.824997
32
0
13
-42.903766
23
20
33
0
39
0
210
0
220
0
230
1
0
ENDBLK
5
259
100
AcDbEntity
8
0
100
AcDbBlockEnd
0
BLOCK
5
263
100
AcDbEntity
8
0
100
AcDbBlockBegin
2
DimnDraft3D6
70
0
10
0
20
0
30
0
3
DimnDraft3D6
0
MTEXT
5
25C
100
AcDbEntity
8
2
62
256
6
ByLayer
370
18
48
1
60
0
100
AcDbMText
10
95.725
20
-21.238816
30
0
210
0
220
0
230
1
1
\W0.5321;12
40
4.5
41
0
44
1.084337
50
90
71
7
72
5
7
iso_b_vert
0
MTEXT
5
25D
100
AcDbEntity
8
2
62
256
6
ByLayer
370
18
48
1
60
0
100
AcDbMText
10
95.725
20
-32.45366
30
0
210
0
220
0
230
1
1
%%c
40
4.5
41
0
44
1.084337
50
90
71
7
72
5
7
iso_b_vert
0
LINE
5
25E
100
AcDbEntity
8
2
62
256
6
ByLayer
370
13
48
1
60
0
100
AcDbLine
10
72.5875
20
6
30
0
11
101.15
21
6
31
0
39
0
210
0
220
0
230
1
0
LINE
5
25F
100
AcDbEntity
8
2
62
256
6
ByLayer
370
13
48
1
60
0
100
AcDbLine
10
72.5875
20
-6
30
0
11
101.15
21
-6
31
0
39
0
210
0
220
0
230
1
0
LINE
5
260
100
AcDbEntity
8
2
62
256
6
ByLayer
370
13
48
1
60
0
100
AcDbLine
10
97.975
20
6
30
0
11
97.975
21
-35.863816
31
0
39
0
210
0
220
0
230
1
0
SOLID
5
261
100
AcDbEntity
8
2
62
256
6
ByLayer
370
13
48
1
60
0
100
AcDbTrace
10
97.975
20
6
30
0
11
98.900575
21
1.825003
31
0
12
97.049425
22
1.824997
32
0
13
97.975
23
6
33
0
39
0
210
0
220
0
230
1
0
SOLID
5
262
100
AcDbEntity
8
2
62
256
6
ByLayer
370
13
48
1
60
0
100
AcDbTrace
10
97.975
20
-6
30
0
11
97.049425
21
-1.825003
31
0
12
98.900575
22
-1.824997
32
0
13
97.975
23
-6
33
0
39
0
210
0
220
0
230
1
0
ENDBLK
5
264
100
AcDbEntity
8
0
100
AcDbBlockEnd
0
ENDSEC
0
SECTION
2
ENTITIES
0
ARC
5
FF
100
AcDbEntity
8
1
62
256
6
ByLayer
370
18
48
1
60
0
100
AcDbCircle
39
0
10
-25.815785
20
-11.8
30
0
40
0.8
210
0
220
0
230
-1
100
AcDbArc
50
15
51
90
0
ARC
5
100
100
AcDbEntity
8
1
62
256
6
ByLayer
370
18
48
1
60
0
100
AcDbCircle
39
0
10
-25.815785
20
11.8
30
0
40
0.8
210
0
220
0
230
-1
100
AcDbArc
50
270
51
345
0
ARC
5
101
100
AcDbEntity
8
SK1
62
256
6
ByLayer
370
18
48
1
60
0
100
AcDbCircle
39
0
10
0.6
20
-15
30
0
40
1
210
0
220
0
230
-1
100
AcDbArc
50
113.578178
51
126.869898
0
ARC
5
102
100
AcDbEntity
8
SK1
62
256
6
ByLayer
370
18
48
1
60
0
100
AcDbCircle
39
0
10
0.6
20
15
30
0
40
1
210
0
220
0
230
-1
100
AcDbArc
50
233.130102
51
246.421822
0
ELLIPSE
5
103
100
AcDbEntity
8
1
62
256
6
ByLayer
370
18
48
1
60
0
100
AcDbEllipse
10
65.716214
20
2.132743
30
0
11
1.58146201212697E-15
21
1.35
31
0
210
0
220
0
230
1
40
0.996195
41
1.10303974584835
42
1.13446401379632
0
ELLIPSE
5
104
100
AcDbEntity
8
1
62
256
6
ByLayer
370
18
48
1
60
0
100
AcDbEllipse
10
65.066204
20
2.271499
30
0
11
0.634846249717449
21
-0.294907170512502
31
0
210
0
220
0
230
1
40
0.036834
41
2.51622148183159
42
3.0624665457979
0
ELLIPSE
5
105
100
AcDbEntity
8
1
62
256
6
ByLayer
370
18
48
1
60
0
100
AcDbEllipse
10
63.265703
20
0
30
0
11
-20.2672642051534
21
-2.29648307974236E-14
31
0
210
0
220
0
230
-1
40
0.282475
41
1.32359037721081
42
1.57747647000036
0
ELLIPSE
5
106
100
AcDbEntity
8
1
62
256
6
ByLayer
370
18
48
1
60
0
100
AcDbEllipse
10
70.234809
20
-0.478453
30
0
11
-0.15080960216463
21
0.684208661374267
31
0
210
0
220
0
230
-1
40
0.109732
41
-1.5059437361337
42
0.064852590660474
0
ELLIPSE
5
107
100
AcDbEntity
8
1
62
256
6
ByLayer
370
18
48
1
60
0
100
AcDbEllipse
10
69.900859
20
1.581968
30
0
11
-0.157861884029879
21
0.716182327145922
31
0
210
0
220
0
230
-1
40
0.104097
41
2.37200310449895
42
-3.11650852696674
0
ELLIPSE
5
108
100
AcDbEntity
8
1
62
256
6
ByLayer
370
18
48
1
60
0
100
AcDbEllipse
10
70.12749
20
-3.710881
30
0
11
-0.135913575182828
21
-0.768845004889327
31
0
210
0
220
0
230
-1
40
0.119599
41
-0.000971506603720286
42
1.56982482018983
0
ELLIPSE
5
109
100
AcDbEntity
8
1
62
256
6
ByLayer
370
18
48
1
60
0
100
AcDbEllipse
10
63.735135
20
-8.3E-05
30
0
11
-1.14270640249793
21
-5.72427527363088
31
0
210
0
220
0
230
-1
40
0.084159
41
3.09589713471075
42
3.10699905747081
0
ELLIPSE
5
10A
100
AcDbEntity
8
1
62
256
6
ByLayer
370
18
48
1
60
0
100
AcDbEllipse
10
65.737193
20
1.996797
30
0
11
-1.2013314269416
21
-1.03359171363441
31
0
210
0
220
0
230
-1
40
0.722898
41
-1.22238510542337
42
-0.218778579089424
0
ELLIPSE
5
10B
100
AcDbEntity
8
1
62
256
6
ByLayer
370
18
48
1
60
0
100
AcDbEllipse
10
65.818556
20
0.132586
30
0
11
-1.50022599506284
21
0.0121701808576462
31
0
210
0
220
0
230
-1
40
0.138789
41
0.560985578083629
42
-0.473237625662522
0
ELLIPSE
5
10C
100
AcDbEntity
8
1
62
256
6
ByLayer
370
18
48
1
60
0
100
AcDbEllipse
10
64.838166
20
5.929045
30
0
11
4.92010403772836E-15
21
4.2
31
0
210
0
220
0
230
1
40
0.996195
41
2.70526034059121
42
2.98295464065568
0
ELLIPSE
5
10D
100
AcDbEntity
8
1
62
256
6
ByLayer
370
18
48
1
60
0
100
AcDbEllipse
10
65.434211
20
5.02703
30
0
11
-1.23306514782905
21
-2.65326343897359
31
0
210
0
220
0
230
-1
40
0.018911
41
-0.512545196763881
42
-0.393223043601167
0
ELLIPSE
5
10E
100
AcDbEntity
8
1
62
256
6
ByLayer
370
18
48
1
60
0
100
AcDbEllipse
10
64.9142
20
2.382678
30
0
11
0.686845440335521
21
-0.135067912882017
31
0
210
0
220
0
230
1
40
0.016879
41
2.72612601530698
42
3.05597018042306
0
ELLIPSE
5
10F
100
AcDbEntity
8
1
62
256
6
ByLayer
370
18
48
1
60
0
100
AcDbEllipse
10
63.000199
20
2.122552
30
0
11
-0.339154326220879
21
-0.724551132085004
31
0
210
0
220
0
230
1
40
0.07899
41
0.240016162613479
42
1.60775379831957
0
ELLIPSE
5
110
100
AcDbEntity
8
1
62
256
6
ByLayer
370
18
48
1
60
0
100
AcDbEllipse
10
63.528567
20
3.20067
30
0
11
0.347956288963745
21
2.87904956903673
31
0
210
0
220
0
230
1
40
0.270018
41
-3.10897039816153
42
-2.39736414895914
0
ELLIPSE
5
111
100
AcDbEntity
8
1
62
256
6
ByLayer
370
18
48
1
60
0
100
AcDbEllipse
10
-0.948929
20
0
30
0
11
-9.36741787978217
21
-19.7417491527504
31
0
210
0
220
0
230
-1
40
0.341999
41
-2.98886640869145
42
-2.0452731260899
0
ELLIPSE
5
112
100
AcDbEntity
8
1
62
256
6
ByLayer
370
18
48
1
60
0
100
AcDbEllipse
10
65.653063
20
1.996797
30
0
11
1.58146201212697E-15
21
1.35
31
0
210
0
220
0
230
1
40
0.996195
41
1.13446401379632
42
3.01060284160609
0
ELLIPSE
5
113
100
AcDbEntity
8
1
62
256
6
ByLayer
370
18
48
1
60
0
100
AcDbEllipse
10
47.946289
20
5.083913
30
0
11
-15.4510095870115
21
1.83679315969691
31
0
210
0
220
0
230
-1
40
0.186368
41
3.11944114856503
42
-2.81123726949799
0
ELLIPSE
5
114
100
AcDbEntity
8
1
62
256
6
ByLayer
370
18
48
1
60
0
100
AcDbEllipse
10
56.843535
20
3.982904
30
0
11
-6.51012155287527
21
3.62466713544264
31
0
210
0
220
0
230
-1
40
0.107898
41
-2.6147556978391
42
-2.23696261109081
0
ELLIPSE
5
115
100
AcDbEntity
8
1
62
256
6
ByLayer
370
18
48
1
60
0
100
AcDbEllipse
10
70.499118
20
0.622286
30
0
11
-0.0238435923340455
21
0.843437382662585
31
0
210
0
220
0
230
-1
40
0.493236
41
-2.09615478468261
42
-1.53498582978153
0
ELLIPSE
5
116
100
AcDbEntity
8
1
62
256
6
ByLayer
370
18
48
1
60
0
100
AcDbEllipse
10
67.638768
20
-1.904183
30
0
11
1
21
0
31
0
210
0
220
0
230
1
40
0.998135
41
-0.681407527738341
42
-2.46018512585145
0
ELLIPSE
5
117
100
AcDbEntity
8
1
62
256
6
ByLayer
370
18
48
1
60
0
100
AcDbEllipse
10
-0.948929
20
0
30
0
11
-9.36741787978237
21
19.7417491527507
31
0
210
0
220
0
230
-1
40
0.341999
41
2.04527312608991
42
2.98886640869146
0
ELLIPSE
5
118
100
AcDbEntity
8
1
62
256
6
ByLayer
370
18
48
1
60
0
100
AcDbEllipse
10
16.948929
20
0
30
0
11
-9.36741787978239
21
19.7417491527506
31
0
210
0
220
0
230
-1
40
0.341999
41
-1.09631952749988
42
-0.152726244898338
0
ELLIPSE
5
119
100
AcDbEntity
8
1
62
256
6
ByLayer
370
18
48
1
60
0
100
AcDbEllipse
10
67.788396
20
3.279045
30
0
11
1.37645767722162E-15
21
1.175
31
0
210
0
220
0
230
1
40
0.996195
41
-1.35706947271372
42
-3.79391849690253E-16
0
ELLIPSE
5
11A
100
AcDbEntity
8
1
62
256
6
ByLayer
370
18
48
1
60
0
100
AcDbEllipse
10
67.788396
20
3.279045
30
0
11
1.37645767722162E-15
21
1.175
31
0
210
0
220
0
230
1
40
0.996195
41
0
42
0.549680320645903
0
ELLIPSE
5
11B
100
AcDbEntity
8
1
62
256
6
ByLayer
370
18
48
1
60
0
100
AcDbEllipse
10
67.805918
20
3.279045
30
0
11
1.17145334231628E-15
21
1
31
0
210
0
220
0
230
1
40
0.996195
41
-2.15886357377865
42
-1.33735627015814E-15
0
ELLIPSE
5
11C
100
AcDbEntity
8
1
62
256
6
ByLayer
370
18
48
1
60
0
100
AcDbEllipse
10
67.805918
20
3.279045
30
0
11
1.17145334231628E-15
21
1
31
0
210
0
220
0
230
1
40
0.996195
41
0
42
1.36286196826277
0
ELLIPSE
5
11D
100
AcDbEntity
8
1
62
256
6
ByLayer
370
18
48
1
60
0
100
AcDbEllipse
10
64.768441
20
5.929045
30
0
11
-5.35934686386741E-15
21
-5
31
0
210
0
220
0
230
1
40
0.996195
41
-0.369546655904
42
-0.0320260714809247
0
ELLIPSE
5
11E
100
AcDbEntity
8
1
62
256
6
ByLayer
370
18
48
1
60
0
100
AcDbEllipse
10
67.638768
20
-1.904183
30
0
11
-1.1
21
1.1117029605906E-15
31
0
210
0
220
0
230
1
40
0.998135
41
-3.1415737643151
42
-1.8301993495892E-05
0
ELLIPSE
5
11F
100
AcDbEntity
8
1
62
256
6
ByLayer
370
18
48
1
60
0
100
AcDbEllipse
10
27.5
20
4.095211
30
0
11
3
21
0
31
0
210
0
220
0
230
1
40
0.676517
41
1.28748691838514
42
2.59576387935429
0
ELLIPSE
5
120
100
AcDbEntity
8
1
62
256
6
ByLayer
370
18
48
1
60
0
100
AcDbEllipse
10
70.995719
20
0
30
0
11
-0.981203969827498
21
-5.72354764889977
31
0
210
0
220
0
230
-1
40
0.131417
41
0.0158517623437941
42
1.2938904430485
0
ELLIPSE
5
121
100
AcDbEntity
8
1
62
256
6
ByLayer
370
18
48
1
60
0
100
AcDbEllipse
10
66.451609
20
0
30
0
11
-12.4831598240494
21
5.54572357235271
31
0
210
0
220
0
230
-1
40
0.113871
41
-1.27408999428699
42
-1.04036930791677
0
ELLIPSE
5
122
100
AcDbEntity
8
1
62
256
6
ByLayer
370
18
48
1
60
0
100
AcDbEllipse
10
62.613537
20
0
30
0
11
-22.64634803859
21
0.373258694594911
31
0
210
0
220
0
230
-1
40
0.252262
41
-1.59766348271398
42
-1.47494209881794
0
ELLIPSE
5
123
100
AcDbEntity
8
1
62
256
6
ByLayer
370
18
48
1
60
0
100
AcDbEllipse
10
16.948929
20
0
30
0
11
-9.36741787978098
21
-19.7417491527488
31
0
210
0
220
0
230
-1
40
0.341999
41
0.152726244898349
42
1.09631952749995
0
ELLIPSE
5
124
100
AcDbEntity
8
1
62
256
6
ByLayer
370
18
48
1
60
0
100
AcDbEllipse
10
65.976826
20
1.43388
30
0
11
-0.35100127149786
21
0.605638594713783
31
0
210
0
220
0
230
1
40
0.075479
41
-2.66861506644286
42
-2.30531881019142
0
ELLIPSE
5
125
100
AcDbEntity
8
1
62
256
6
ByLayer
370
18
48
1
60
0
100
AcDbEllipse
10
65.129356
20
2.407445
30
0
11
0.634846249717449
21
-0.294907170512502
31
0
210
0
220
0
230
1
40
0.036834
41
2.8496731212479
42
3.0624665457979
0
ELLIPSE
5
126
100
AcDbEntity
8
1
62
256
6
ByLayer
370
18
48
1
60
0
100
AcDbEllipse
10
65.549468
20
2.256797
30
0
11
1.58146201212697E-15
21
1.35
31
0
210
0
220
0
230
1
40
0.996195
41
1.37590122698887
42
1.51885076396386
0
ELLIPSE
5
127
100
AcDbEntity
8
1
62
256
6
ByLayer
370
18
48
1
60
0
100
AcDbEllipse
10
62.963964
20
2E-06
30
0
11
-65.4370382880317
21
-7.41466878290889E-14
31
0
210
0
220
0
230
-1
40
0.087489
41
1.57747647113613
42
1.59969343280028
0
ELLIPSE
5
128
100
AcDbEntity
8
1
62
256
6
ByLayer
370
18
48
1
60
0
100
AcDbEllipse
10
8.04096
20
0
30
0
11
-253.730479566536
21
-5.53151902797306
31
0
210
0
220
0
230
-1
40
0.005816
41
-1.81608059822324
42
-1.7946515019732
0
ELLIPSE
5
129
100
AcDbEntity
8
1
62
256
6
ByLayer
370
18
48
1
60
0
100
AcDbEllipse
10
67.527256
20
1.606797
30
0
11
-1.20926485993294
21
-0.699499662441588
31
0
210
0
220
0
230
-1
40
0.021882
41
-0.703202982715578
42
-0.0378114582686326
0
ELLIPSE
5
12A
100
AcDbEntity
8
1
62
256
6
ByLayer
370
18
48
1
60
0
100
AcDbEllipse
10
70.309588
20
0
30
0
11
-1.27344746855254
21
5.72337582768952
31
0
210
0
220
0
230
-1
40
0.10708
41
-1.80135612143218
42
-1.56241233187098
0
ELLIPSE
5
12B
100
AcDbEntity
8
1
62
256
6
ByLayer
370
18
48
1
60
0
100
AcDbEllipse
10
67.953992
20
3.279045
30
0
11
-1.07186937277348E-15
21
-1
31
0
210
0
220
0
230
1
40
0.996195
41
-2.67811026910846
42
-1.00334658078592
0
ELLIPSE
5
12C
100
AcDbEntity
8
1
62
256
6
ByLayer
370
18
48
1
60
0
100
AcDbEllipse
10
65.543907
20
2.256797
30
0
11
1.58146201212697E-15
21
1.35
31
0
210
0
220
0
230
1
40
0.996195
41
1.37590122698886
42
1.51885076396386
0
ELLIPSE
5
12D
100
AcDbEntity
8
1
62
256
6
ByLayer
370
18
48
1
60
0
100
AcDbEllipse
10
65.504898
20
1.996797
30
0
11
1.58146201212697E-15
21
1.35
31
0
210
0
220
0
230
1
40
0.996195
41
1.32377705753461
42
1.73074728884203
0
ELLIPSE
5
12E
100
AcDbEntity
8
1
62
256
6
ByLayer
370
18
48
1
60
0
100
AcDbEllipse
10
67.797112
20
3.279045
30
0
11
1.37645767722162E-15
21
1.175
31
0
210
0
220
0
230
1
40
0.996195
41
0
42
0.575402233088666
0
ELLIPSE
5
12F
100
AcDbEntity
8
1
62
256
6
ByLayer
370
18
48
1
60
0
100
AcDbEllipse
10
67.638768
20
-2.056741
30
0
11
-1
21
1.01063905508236E-15
31
0
210
0
220
0
230
1
40
0.998135
41
-3.06511479948056
42
-0.0765765515875745
0
ELLIPSE
5
130
100
AcDbEntity
8
1
62
256
6
ByLayer
370
18
48
1
60
0
100
AcDbEllipse
10
67.926992
20
3.479045
30
0
11
1.2885986765479E-15
21
1.1
31
0
210
0
220
0
230
1
40
0.996195
41
0.040840711514283
42
1.5707962760005
0
ELLIPSE
5
131
100
AcDbEntity
8
1
62
256
6
ByLayer
370
18
48
1
60
0
100
AcDbEllipse
10
67.926992
20
3.479045
30
0
11
1.2885986765479E-15
21
1.1
31
0
210
0
220
0
230
1
40
0.996195
41
1.5707962760005
42
3.1007518400993
0
ELLIPSE
5
132
100
AcDbEntity
8
1
62
256
6
ByLayer
370
18
48
1
60
0
100
AcDbEllipse
10
67.766169
20
3.479045
30
0
11
-1.50850481115741E-15
21
-1.40735881579873
31
0
210
0
220
0
230
1
40
0.996195
41
2.21550985223124
42
-3.16753210611074E-16
0
ELLIPSE
5
133
100
AcDbEntity
8
1
62
256
6
ByLayer
370
18
48
1
60
0
100
AcDbEllipse
10
67.766169
20
3.479045
30
0
11
-1.50850481115741E-15
21
-1.40735881579873
31
0
210
0
220
0
230
1
40
0.996195
41
0
42
0.926082690006853
0
ELLIPSE
5
134
100
AcDbEntity
8
1
62
256
6
ByLayer
370
18
48
1
60
0
100
AcDbEllipse
10
67.75268
20
3.479045
30
0
11
-1.52010474797794E-15
21
-1.41818097110531
31
0
210
0
220
0
230
1
40
0.996195
41
0
42
6.28318530717959
0
ELLIPSE
5
135
100
AcDbEntity
8
1
62
256
6
ByLayer
370
18
48
1
60
0
100
AcDbEllipse
10
67.781246
20
3.479045
30
0
11
-1.43308077703746E-15
21
-1.33699200055445
31
0
210
0
220
0
230
1
40
0.996195
41
0
42
6.28318530717959
0
ELLIPSE
5
136
100
AcDbEntity
8
1
62
256
6
ByLayer
370
18
48
1
60
0
100
AcDbEllipse
10
67.837582
20
3.479045
30
0
11
-1.17905631005083E-15
21
-1.1
31
0
210
0
220
0
230
1
40
0.996195
41
0
42
6.28318530717959
0
ELLIPSE
5
137
100
AcDbEntity
8
1
62
256
6
ByLayer
370
18
48
1
60
0
100
AcDbEllipse
10
67.723047
20
3.479045
30
0
11
-1.70009851535478E-15
21
-1.58610606715606
31
0
210
0
220
0
230
1
40
0.996195
41
0
42
6.28318530717959
0
ELLIPSE
5
138
100
AcDbEntity
8
1
62
256
6
ByLayer
370
18
48
1
60
0
100
AcDbEllipse
10
69.577416
20
-3.183208
30
0
11
0.817531508496598
21
0
31
0
210
0
220
0
230
1
40
0.998135
41
-1.01923640413895
42
-0.174532925199444
0
ELLIPSE
5
139
100
AcDbEntity
8
1
62
256
6
ByLayer
370
18
48
1
60
0
100
AcDbEllipse
10
69.529358
20
-3.130427
30
0
11
0.981882963782138
21
0
31
0
210
0
220
0
230
1
40
0.998135
41
-1.08271959555056
42
-0.174532925199441
0
ELLIPSE
5
13A
100
AcDbEntity
8
1
62
256
6
ByLayer
370
18
48
1
60
0
100
AcDbEllipse
10
67.795666
20
-2.256923
30
0
11
-1.1
21
1.1117029605906E-15
31
0
210
0
220
0
230
1
40
0.998135
41
-1.96496782723774
42
-4.04471803413425E-16
0
ELLIPSE
5
13B
100
AcDbEntity
8
1
62
256
6
ByLayer
370
18
48
1
60
0
100
AcDbEllipse
10
67.795666
20
-2.256923
30
0
11
-1.13
21
1.14202213224307E-15
31
0
210
0
220
0
230
1
40
0.998135
41
-1.84195466398747
42
-0.0919896797621612
0
ELLIPSE
5
13C
100
AcDbEntity
8
1
62
256
6
ByLayer
370
18
48
1
60
0
100
AcDbEllipse
10
67.795666
20
-2.255702
30
0
11
1.20924645102467
21
0
31
0
210
0
220
0
230
1
40
0.998135
41
1.69901262148109
42
2.77638227164409
0
ELLIPSE
5
13D
100
AcDbEntity
8
1
62
256
6
ByLayer
370
18
48
1
60
0
100
AcDbEllipse
10
67.795666
20
-2.312835
30
0
11
1.1
21
0
31
0
210
0
220
0
230
1
40
0.998135
41
1.02023216493592
42
3.07748491090677
0
ELLIPSE
5
13E
100
AcDbEntity
8
1
62
256
6
ByLayer
370
18
48
1
60
0
100
AcDbEllipse
10
70.382527
20
-3.29133
30
0
11
-0.54161371775654
21
0.0956795732533265
31
0
210
0
220
0
230
1
40
0.060121
41
1.05445084784108
42
1.58141670500792
0
ELLIPSE
5
13F
100
AcDbEntity
8
1
62
256
6
ByLayer
370
18
48
1
60
0
100
AcDbEllipse
10
69.961668
20
-0.474254
30
0
11
0.568502493118137
21
0
31
0
210
0
220
0
230
1
40
0.998135
41
0.209439510239322
42
1.38336830908963
0
ELLIPSE
5
140
100
AcDbEntity
8
1
62
256
6
ByLayer
370
18
48
1
60
0
100
AcDbEllipse
10
69.676382
20
-0.848875
30
0
11
0.817531508496598
21
0
31
0
210
0
220
0
230
1
40
0.998135
41
0.209439510239317
42
1.03483740944072
0
ELLIPSE
5
141
100
AcDbEntity
8
1
62
256
6
ByLayer
370
18
48
1
60
0
100
AcDbEllipse
10
70.476048
20
-0.645641
30
0
11
-0.537937687900339
21
-0.114555855094523
31
0
210
0
220
0
230
1
40
0.059714
41
1.04053525962972
42
1.5580805884048
0
ELLIPSE
5
142
100
AcDbEntity
8
1
62
256
6
ByLayer
370
18
48
1
60
0
100
AcDbEllipse
10
70.654484
20
-1.75186
30
0
11
-0.54161371775654
21
0.0956795732533265
31
0
210
0
220
0
230
1
40
0.060121
41
1.05445084784105
42
1.5814167050079
0
ELLIPSE
5
143
100
AcDbEntity
8
1
62
256
6
ByLayer
370
18
48
1
60
0
100
AcDbEllipse
10
69.898613
20
-1.652405
30
0
11
0.767531508496599
21
0
31
0
210
0
220
0
230
1
40
0.998135
41
-0.17453292519944
42
0.20943951023932
0
ELLIPSE
5
144
100
AcDbEntity
8
1
62
256
6
ByLayer
370
18
48
1
60
0
100
AcDbEllipse
10
70.649372
20
-1.459547
30
0
11
-0.537937687900339
21
-0.114555855094523
31
0
210
0
220
0
230
1
40
0.059714
41
1.04053525962975
42
1.55808058840482
0
POINT
5
6C
100
AcDbEntity
8
81
62
256
6
ByLayer
370
18
48
1
60
0
100
AcDbPoint
10
71
20
0
30
0
39
0
210
0
220
0
230
1
50
360
0
POINT
5
6E
100
AcDbEntity
8
80
62
256
6
ByLayer
370
18
48
1
60
0
100
AcDbPoint
10
0
20
0
30
0
39
0
210
0
220
0
230
1
50
360
0
SPLINE
5
145
100
AcDbEntity
8
1
62
256
6
ByLayer
370
18
48
1
60
0
100
AcDbSpline
70
4
71
3
72
18
73
14
40
0
40
0
40
0
40
0
40
0.074833292181347
40
0.14309354732647
40
0.214779495590721
40
0.33493694237489
40
0.465612050651523
40
0.553705572596508
40
0.640049725347775
40
0.724939541676275
40
0.812581010081547
40
0.906189196540419
40
1
40
1
40
1
40
1
41
1
10
26.3
20
-11
30
0
41
1
10
26.521445589485
20
-11.0020427681786
30
0
41
1
10
26.911379507903
20
-10.9334367694512
30
0
41
1
10
27.4284878365037
20
-10.5917481443237
30
0
41
1
10
27.8713131924421
20
-10.0074252575964
30
0
41
1
10
28.2466123299478
20
-9.18349354609586
30
0
41
1
10
28.5845698055085
20
-8.30010311449053
30
0
41
1
10
28.9399035346785
20
-7.52396222305543
30
0
41
1
10
29.3195333404309
20
-6.90412755900169
30
0
41
1
10
29.8164132050363
20
-6.36710800372114
30
0
41
1
10
30.4696810914824
20
-5.99129945669569
30
0
41
1
10
31.2154591582396
20
-5.77938997644557
30
0
41
1
10
31.7343368842718
20
-5.72608470653725
30
0
41
1
10
32
20
-5.72500000000005
30
0
0
SPLINE
5
146
100
AcDbEntity
8
1
62
256
6
ByLayer
370
18
48
1
60
0
100
AcDbSpline
70
4
71
3
72
9
73
5
40
0
40
0
40
0
40
0
40
0.899308013947821
40
1
40
1
40
1
40
1
41
1
10
64.3865631865939
20
0.422360045650237
30
0
41
1
10
64.4738686615275
20
0.447776334526878
30
0
41
1
10
64.5695092754524
20
0.480296865472241
30
0
41
1
10
64.6628353082372
20
0.518909799286718
30
0
41
1
10
64.6722152886039
20
0.522847663274405
30
0
0
SPLINE
5
147
100
AcDbEntity
8
1
62
256
6
ByLayer
370
18
48
1
60
0
100
AcDbSpline
70
4
71
3
72
18
73
14
40
0
40
0
40
0
40
0
40
0.0938108034595811
40
0.187418989918453
40
0.275060458323725
40
0.359950274652224
40
0.446294427403492
40
0.534387949348478
40
0.665063057625111
40
0.78522050440928
40
0.856906452673531
40
0.925166707818653
40
1
40
1
40
1
40
1
41
1
10
32
20
5.72499999999997
30
0
41
1
10
31.7343368842718
20
5.72608470653719
30
0
41
1
10
31.2154591582396
20
5.77938997644551
30
0
41
1
10
30.4696810914824
20
5.99129945669563
30
0
41
1
10
29.8164132050363
20
6.36710800372106
30
0
41
1
10
29.3195333404309
20
6.90412755900164
30
0
41
1
10
28.9399035346785
20
7.52396222305538
30
0
41
1
10
28.5845698055085
20
8.30010311449047
30
0
41
1
10
28.2466123299478
20
9.1834935460958
30
0
41
1
10
27.8713131924421
20
10.0074252575964
30
0
41
1
10
27.4284878365037
20
10.5917481443236
30
0
41
1
10
26.911379507903
20
10.9334367694511
30
0
41
1
10
26.521445589485
20
11.0020427681785
30
0
41
1
10
26.3
20
11
30
0
0
SPLINE
5
148
100
AcDbEntity
8
1
62
256
6
ByLayer
370
18
48
1
60
0
100
AcDbSpline
70
4
71
1
72
4
73
2
40
0
40
0
40
1
40
1
41
1
10
40.2104075763618
20
-0.0112018697861345
30
0
41
1
10
40.2104171031972
20
-0.0112070067472985
30
0
0
SPLINE
5
149
100
AcDbEntity
8
SK1
62
256
6
ByLayer
370
18
48
1
60
0
100
AcDbSpline
70
4
71
2
72
6
73
3
40
0
40
0
40
0
40
1
40
1
40
1
41
1
10
-2.5
20
14.0000000000425
30
0
41
1
10
-12.5002365839528
20
13.7487592491499
30
0
41
1
10
-22.5004731679057
20
13.4975184982574
30
0
0
SPLINE
5
14A
100
AcDbEntity
8
SK1
62
256
6
ByLayer
370
18
48
1
60
0
100
AcDbSpline
70
4
71
2
72
6
73
3
40
0
40
0
40
0
40
1
40
1
40
1
41
1
10
-22.5004731679057
20
-13.4975184982324
30
0
41
1
10
-12.5002365839529
20
-13.7487592491244
30
0
41
1
10
-2.50000000000003
20
-14.0000000000165
30
0
0
SPLINE
5
14B
100
AcDbEntity
8
SK1
62
256
6
ByLayer
370
18
48
1
60
0
100
AcDbSpline
70
4
71
2
72
6
73
3
40
0
40
0
40
0
40
1
40
1
40
1
41
1
10
-1.69501459340779
20
14.0202240353752
30
0
41
1
10
-2.0975072967039
20
14.0101120177089
30
0
41
1
10
-2.5
20
14.0000000000425
30
0
0
SPLINE
5
14C
100
AcDbEntity
8
SK1
62
256
6
ByLayer
370
18
48
1
60
0
100
AcDbSpline
70
4
71
2
72
6
73
3
40
0
40
0
40
0
40
1
40
1
40
1
41
1
10
-2.50000000000003
20
-14.0000000000165
30
0
41
1
10
-2.09750729670392
20
-14.0101120176829
30
0
41
1
10
-1.69501459340782
20
-14.0202240353492
30
0
0
SPLINE
5
14D
100
AcDbEntity
8
SK1
62
256
6
ByLayer
370
18
48
1
60
0
100
AcDbSpline
70
4
71
2
72
6
73
3
40
0
40
0
40
0
40
1
40
1
40
1
41
1
10
-22.5003908351881
20
13.4978822065961
30
0
41
1
10
-23.250195418969
20
13.0391711516489
30
0
41
1
10
-24
20
12.5804569169116
30
0
0
SPLINE
5
14E
100
AcDbEntity
8
SK1
62
256
6
ByLayer
370
18
48
1
60
0
100
AcDbSpline
70
4
71
2
72
6
73
3
40
0
40
0
40
0
40
1
40
1
40
1
41
1
10
-24
20
-12.5792497909748
30
0
41
1
10
-23.2502022101313
20
-13.0377782366816
30
0
41
1
10
-22.5004044650254
20
-13.4963063059167
30
0
0
SPLINE
5
14F
100
AcDbEntity
8
SK1
62
256
6
ByLayer
370
18
48
1
60
0
100
AcDbSpline
70
4
71
1
72
4
73
2
40
0
40
0
40
1
40
1
41
1
10
-1.53130590457357
20
13.618315394559
30
0
41
1
10
-1.53248549198227
20
13.6035488735108
30
0
0
SPLINE
5
150
100
AcDbEntity
8
SK1
62
256
6
ByLayer
370
18
48
1
60
0
100
AcDbSpline
70
4
71
3
72
12
73
8
40
0
40
0
40
0
40
0
40
0.206082366692305
40
0.448551004323562
40
0.70136808861964
40
0.955628443573868
40
1
40
1
40
1
40
1
41
1
10
-1.6732373831
20
-7.03173855039418
30
0
41
1
10
-1.66891584747063
20
-7.49703771035641
30
0
41
1
10
-1.65896818437474
20
-8.46121732402418
30
0
41
1
10
-1.64147446563652
20
-9.80884739238272
30
0
41
1
10
-1.62081384062992
20
-11.0423654429251
30
0
41
1
10
-1.60470593089275
20
-11.8486552107853
30
0
41
1
10
-1.5949251842994
20
-12.1743433075456
30
0
41
1
10
-1.59345638303472
20
-12.2210841903316
30
0
0
SPLINE
5
151
100
AcDbEntity
8
SK1
62
256
6
ByLayer
370
18
48
1
60
0
100
AcDbSpline
70
4
71
2
72
6
73
3
40
0
40
0
40
0
40
1
40
1
40
1
41
1
10
-1.49999999999997
20
-13.7870504860688
30
0
41
1
10
-0.94999999999996
20
-13.7870504860688
30
0
41
1
10
-0.399999999999977
20
-13.7870504860688
30
0
0
SPLINE
5
152
100
AcDbEntity
8
SK1
62
256
6
ByLayer
370
18
48
1
60
0
100
AcDbSpline
70
4
71
2
72
6
73
3
40
0
40
0
40
0
40
1
40
1
40
1
41
1
10
-0.399999999999949
20
13.7870502939328
30
0
41
1
10
-0.949999999999932
20
13.7870502939328
30
0
41
1
10
-1.49999999999994
20
13.7870502939328
30
0
0
SPLINE
5
153
100
AcDbEntity
8
1
62
256
6
ByLayer
370
18
48
1
60
0
100
AcDbSpline
70
4
71
1
72
4
73
2
40
0
40
0
40
1
40
1
41
1
10
70.2442892164059
20
5.89526607225059
30
0
41
1
10
70.2250251462566
20
5.89889445301694
30
0
0
SPLINE
5
154
100
AcDbEntity
8
1
62
256
6
ByLayer
370
18
48
1
60
0
100
AcDbSpline
70
4
71
1
72
4
73
2
40
0
40
0
40
1
40
1
41
1
10
70.4590361426964
20
5.84975304687228
30
0
41
1
10
70.3832865415133
20
5.86724083517413
30
0
0
SPLINE
5
155
100
AcDbEntity
8
1
62
256
6
ByLayer
370
18
48
1
60
0
100
AcDbSpline
70
4
71
2
72
6
73
3
40
0
40
0
40
0
40
1
40
1
40
1
41
1
10
69.9710754152445
20
1.1587402558107
30
0
41
1
10
70.0596317574168
20
1.16548558800156
30
0
41
1
10
70.1477411455738
20
1.16771817822885
30
0
0
SPLINE
5
156
100
AcDbEntity
8
1
62
256
6
ByLayer
370
18
48
1
60
0
100
AcDbSpline
70
4
71
2
72
6
73
3
40
0
40
0
40
0
40
1
40
1
40
1
41
1
10
65.4999507117055
20
5.79934910411606
30
0
41
1
10
65.4121357072236
20
5.79261479700858
30
0
41
1
10
65.3234059673135
20
5.79040047151267
30
0
0
SPLINE
5
157
100
AcDbEntity
8
1
62
256
6
ByLayer
370
18
48
1
60
0
100
AcDbSpline
70
4
71
1
72
4
73
2
40
0
40
0
40
1
40
1
41
1
10
65.2268211962727
20
1.0628305363052
30
0
41
1
10
65.2460586394481
20
1.0591963287452
30
0
0
SPLINE
5
158
100
AcDbEntity
8
1
62
256
6
ByLayer
370
18
48
1
60
0
100
AcDbSpline
70
4
71
1
72
4
73
2
40
0
40
0
40
1
40
1
41
1
10
65.0123369125218
20
1.10811248911534
30
0
41
1
10
65.0881649570743
20
1.0907691633148
30
0
0
SPLINE
5
159
100
AcDbEntity
8
1
62
256
6
ByLayer
370
18
48
1
60
0
100
AcDbSpline
70
4
71
3
72
14
73
10
40
0
40
0
40
0
40
0
40
0.25
40
0.25
40
0.5
40
0.5
40
0.75
40
0.75
40
1
40
1
40
1
40
1
41
1
10
6.92320508075693
20
19.1222825906925
30
0
41
1
10
6.88563301332897
20
19.1222825906926
30
0
41
1
10
6.850312724042
20
19.1177281115534
30
0
41
1
10
6.79136513419891
20
19.1042242696216
30
0
41
1
10
6.76786471768483
20
19.0956673725615
30
0
41
1
10
6.7277415401015
20
19.0770274497583
30
0
41
1
10
6.71161954962218
20
19.06709867989
30
0
41
1
10
6.68411546052442
20
19.0464153092313
30
0
41
1
10
6.67279157843186
20
19.0356185274184
30
0
41
1
10
6.66339745962156
20
19.0245744101322
30
0
0
SPLINE
5
15A
100
AcDbEntity
8
1
62
256
6
ByLayer
370
18
48
1
60
0
100
AcDbSpline
70
4
71
3
72
8
73
4
40
0
40
0
40
0
40
0
40
1
40
1
40
1
40
1
41
1
10
26.4770090652454
20
3.04241974853181
30
0
41
1
10
26.5384672717428
20
2.82934293760212
30
0
41
1
10
26.5999301795897
20
2.61766875811767
30
0
41
1
10
26.6613960369164
20
2.40731158839173
30
0
0
SPLINE
5
15B
100
AcDbEntity
8
1
62
256
6
ByLayer
370
18
48
1
60
0
100
AcDbSpline
70
4
71
3
72
20
73
16
40
0
40
0
40
0
40
0
40
0.125
40
0.125
40
0.25
40
0.25
40
0.375
40
0.375
40
0.5
40
0.5
40
0.625
40
0.625
40
0.75
40
0.75
40
1
40
1
40
1
40
1
41
1
10
64.5491668097563
20
0.253665685759955
30
0
41
1
10
64.5185835717528
20
0.247169953263864
30
0
41
1
10
64.490058358431
20
0.240409812864186
30
0
41
1
10
64.4379363451158
20
0.225933531304861
30
0
41
1
10
64.4141397806605
20
0.218119210169505
30
0
41
1
10
64.3744638471729
20
0.201683540129039
30
0
41
1
10
64.3583657515314
20
0.19303292804608
30
0
41
1
10
64.3346621434715
20
0.174535130180601
30
0
41
1
10
64.327429250255
20
0.164874364208771
30
0
41
1
10
64.3225034568987
20
0.145372557184686
30
0
41
1
10
64.3248115804805
20
0.135302755352399
30
0
41
1
10
64.3380286171345
20
0.115735634318071
30
0
41
1
10
64.3488496888475
20
0.10615598238067
30
0
41
1
10
64.3919681529894
20
0.0784894661239548
30
0
41
1
10
64.4330816417271
20
0.0623295268785
30
0
41
1
10
64.4824392908114
20
0.0485204566499533
30
0
0
SPLINE
5
15C
100
AcDbEntity
8
1
62
256
6
ByLayer
370
18
48
1
60
0
100
AcDbSpline
70
4
71
3
72
26
73
22
40
0
40
0
40
0
40
0
40
0.125000000000008
40
0.125000000000008
40
0.250000000000016
40
0.250000000000016
40
0.375000000000024
40
0.375000000000024
40
0.437500000000028
40
0.437500000000028
40
0.500000000000032
40
0.500000000000032
40
0.62500000000004
40
0.62500000000004
40
0.687500000000034
40
0.687500000000034
40
0.750000000000027
40
0.750000000000027
40
0.875000000000013
40
0.875000000000013
40
1
40
1
40
1
40
1
41
1
10
68.4154547265443
20
-2.53289465036409
30
0
41
1
10
68.3707285421823
20
-2.58986674344104
30
0
41
1
10
68.3205590200963
20
-2.6416090276866
30
0
41
1
10
68.208709715754
20
-2.73455507748628
30
0
41
1
10
68.1461230336668
20
-2.77611190689538
30
0
41
1
10
68.0137682331554
20
-2.84362620707546
30
0
41
1
10
67.9437022734244
20
-2.8701096565872
30
0
41
1
10
67.8318800106784
20
-2.89761675893197
30
0
41
1
10
67.7936872980046
20
-2.90462743628424
30
0
41
1
10
67.7175934050742
20
-2.91393470405907
30
0
41
1
10
67.679392493989
20
-2.91631131192256
30
0
41
1
10
67.5643248303793
20
-2.91658269008264
30
0
41
1
10
67.4861585707471
20
-2.90726714215194
30
0
41
1
10
67.3749862997285
20
-2.88037798094237
30
0
41
1
10
67.3386730548291
20
-2.8692883235264
30
0
41
1
10
67.267486494784
20
-2.8429449033132
30
0
41
1
10
67.232562586994
20
-2.82763055777519
30
0
41
1
10
67.1324375611204
20
-2.77678534475342
30
0
41
1
10
67.070779789604
20
-2.73603361835936
30
0
41
1
10
66.957359354469
20
-2.64206922111009
30
0
41
1
10
66.9068739505643
20
-2.58995189681957
30
0
41
1
10
66.8620809161797
20
-2.53289465036409
30
0
0
SPLINE
5
15D
100
AcDbEntity
8
1
62
256
6
ByLayer
370
18
48
1
60
0
100
AcDbSpline
70
4
71
3
72
8
73
4
40
0
40
0
40
0
40
0
40
1
40
1
40
1
40
1
41
1
10
64.386529950928
20
0.431964030177596
30
0
41
1
10
64.0341397306557
20
0.354235971257594
30
0
41
1
10
63.6734288331183
20
0.311051015271289
30
0
41
1
10
63.3158376085188
20
0.30189587299617
30
0
0
SPLINE
5
15E
100
AcDbEntity
8
1
62
256
6
ByLayer
370
18
48
1
60
0
100
AcDbSpline
70
4
71
3
72
16
73
12
40
0
40
0
40
0
40
0
40
0.249999999999999
40
0.249999999999999
40
0.374999999999999
40
0.374999999999999
40
0.499999999999998
40
0.499999999999998
40
0.749999999999999
40
0.749999999999999
40
1
40
1
40
1
40
1
41
1
10
24.7
20
7.87364940902384
30
0
41
1
10
24.6322511469193
20
7.73537465931895
30
0
41
1
10
24.5823330753994
20
7.59206694618095
30
0
41
1
10
24.5324817960526
20
7.3694322750701
30
0
41
1
10
24.5200638891669
20
7.29393753292445
30
0
41
1
10
24.5036587321373
20
7.1403080444675
30
0
41
1
10
24.4996924079729
20
7.06176649280948
30
0
41
1
10
24.5006717024115
20
6.8261037476959
30
0
41
1
10
24.518133844246
20
6.66849578124524
30
0
41
1
10
24.5849711054972
20
6.35240396131067
30
0
41
1
10
24.6347955934629
20
6.19303429273083
30
0
41
1
10
24.7
20
6.03646027816802
30
0
0
SPLINE
5
15F
100
AcDbEntity
8
1
62
256
6
ByLayer
370
18
48
1
60
0
100
AcDbSpline
70
4
71
3
72
30
73
26
40
0
40
0
40
0
40
0
40
0.125000000000001
40
0.125000000000001
40
0.250000000000003
40
0.250000000000003
40
0.281250000000003
40
0.281250000000003
40
0.312500000000003
40
0.312500000000003
40
0.343750000000004
40
0.343750000000004
40
0.375000000000004
40
0.375000000000004
40
0.500000000000004
40
0.500000000000004
40
0.562500000000004
40
0.562500000000004
40
0.625000000000004
40
0.625000000000004
40
0.750000000000003
40
0.750000000000003
40
0.875000000000001
40
0.875000000000001
40
1
40
1
40
1
40
1
41
1
10
32
20
3.0952854724024
30
0
41
1
10
31.8116758268564
20
3.21317888149252
30
0
41
1
10
31.6201656763885
20
3.32919572847203
30
0
41
1
10
31.2317530998224
20
3.56095355573484
30
0
41
1
10
31.0348393514515
20
3.67668493531429
30
0
41
1
10
30.7866232154535
20
3.82456831718676
30
0
41
1
10
30.736879488914
20
3.85431116962923
30
0
41
1
10
30.6372373129537
20
3.91423597797785
30
0
41
1
10
30.5870649209673
20
3.94354653432632
30
0
41
1
10
30.4867813566959
20
4.00328070389912
30
0
41
1
10
30.4366852762626
20
4.03374353436098
30
0
41
1
10
30.3367096924321
20
4.09614546151565
30
0
41
1
10
30.286760691477
20
4.12814055305299
30
0
41
1
10
30.0423067490504
20
4.28955995900535
30
0
41
1
10
29.8604651307438
20
4.42567560632068
30
0
41
1
10
29.6105793563909
20
4.64585793843597
30
0
41
1
10
29.5305451869247
20
4.72241805645649
30
0
41
1
10
29.3808620134656
20
4.87773483498452
30
0
41
1
10
29.3110451398846
20
4.95651639322136
30
0
41
1
10
29.1138942598428
20
5.19627175510493
30
0
41
1
10
28.9987927831623
20
5.36070069915954
30
0
41
1
10
28.7883418470089
20
5.69704157412369
30
0
41
1
10
28.6932251338306
20
5.8686434187801
30
0
41
1
10
28.5123162269934
20
6.21427633442184
30
0
41
1
10
28.4263554344815
20
6.38874251421274
30
0
41
1
10
28.3386039630844
20
6.56395711327906
30
0
0
SPLINE
5
160
100
AcDbEntity
8
1
62
256
6
ByLayer
370
18
48
1
60
0
100
AcDbSpline
70
4
71
3
72
8
73
4
40
0
40
0
40
0
40
0
40
1
40
1
40
1
40
1
41
1
10
62.684372134249
20
1.41240230815515
30
0
41
1
10
62.7725985688283
20
1.35522734221024
30
0
41
1
10
62.868086152596
20
1.30760399734021
30
0
41
1
10
62.9693500441487
20
1.26658874988757
30
0
0
SPLINE
5
161
100
AcDbEntity
8
1
62
256
6
ByLayer
370
18
48
1
60
0
100
AcDbSpline
70
4
71
3
72
8
73
4
40
0
40
0
40
0
40
0
40
1
40
1
40
1
40
1
41
1
10
32
20
-4.46870490578547
30
0
41
1
10
31.5840408832799
20
-4.36588578483361
30
0
41
1
10
31.1717265989308
20
-4.31481490868387
30
0
41
1
10
30.7688888638006
20
-4.31045195299816
30
0
0
SPLINE
5
162
100
AcDbEntity
8
1
62
256
6
ByLayer
370
18
48
1
60
0
100
AcDbSpline
70
4
71
3
72
14
73
10
40
0
40
0
40
0
40
0
40
0.25
40
0.25
40
0.5
40
0.5
40
0.75
40
0.75
40
1
40
1
40
1
40
1
41
1
10
9.0767949192431
20
-19.1222825906926
30
0
41
1
10
9.11436698667103
20
-19.1222825906926
30
0
41
1
10
9.14968727595803
20
-19.1177281115534
30
0
41
1
10
9.20863486580109
20
-19.1042242696216
30
0
41
1
10
9.23213528231517
20
-19.0956673725615
30
0
41
1
10
9.2722584598985
20
-19.0770274497584
30
0
41
1
10
9.28838045037784
20
-19.06709867989
30
0
41
1
10
9.31588453947558
20
-19.0464153092313
30
0
41
1
10
9.32720842156814
20
-19.0356185274185
30
0
41
1
10
9.33660254037844
20
-19.0245744101322
30
0
0
SPLINE
5
163
100
AcDbEntity
8
1
62
256
6
ByLayer
370
18
48
1
60
0
100
AcDbSpline
70
4
71
3
72
14
73
10
40
0
40
0
40
0
40
0
40
0.25
40
0.25
40
0.5
40
0.5
40
0.75
40
0.75
40
1
40
1
40
1
40
1
41
1
10
6.92320508075687
20
-5.85988980456935
30
0
41
1
10
6.88563301332894
20
-5.85988980456935
30
0
41
1
10
6.85031272404197
20
-5.87477627667434
30
0
41
1
10
6.79136513419888
20
-5.9185420083206
30
0
41
1
10
6.7678647176848
20
-5.94612987812172
30
0
41
1
10
6.72774154010148
20
-6.00566371121201
30
0
41
1
10
6.71161954962216
20
-6.03712755983022
30
0
41
1
10
6.6841154605244
20
-6.10206728171732
30
0
41
1
10
6.67279157843183
20
-6.13567510453112
30
0
41
1
10
6.66339745962154
20
-6.16973001948568
30
0
0
SPLINE
5
164
100
AcDbEntity
8
1
62
256
6
ByLayer
370
18
48
1
60
0
100
AcDbSpline
70
4
71
2
72
6
73
3
40
0
40
0
40
0
40
1
40
1
40
1
41
1
10
28.0733013709274
20
-5.22892174241653
30
0
41
1
10
28.0733013709275
20
-3.38302148722474
30
0
41
1
10
28.0733013709275
20
-1.53712123203295
30
0
0
SPLINE
5
165
100
AcDbEntity
8
1
62
256
6
ByLayer
370
18
48
1
60
0
100
AcDbSpline
70
4
71
3
72
8
73
4
40
0
40
0
40
0
40
0
40
1
40
1
40
1
40
1
41
1
10
64.485667557539
20
2.87203299024296
30
0
41
1
10
64.4482159181188
20
2.81875056605861
30
0
41
1
10
64.4144057483454
20
2.76294050754746
30
0
41
1
10
64.3842015050024
20
2.70327762502393
30
0
0
SPLINE
5
166
100
AcDbEntity
8
1
62
256
6
ByLayer
370
18
48
1
60
0
100
AcDbSpline
70
4
71
3
72
14
73
10
40
0
40
0
40
0
40
0
40
0.0660289091990548
40
0.0660289091990548
40
0.377352606132703
40
0.377352606132703
40
0.688676303066352
40
0.688676303066352
40
1
40
1
40
1
40
1
41
1
10
69.6345443980002
20
1.07160440604454
30
0
41
1
10
69.6335131733719
20
1.06465451084412
30
0
41
1
10
69.6324782920871
20
1.05790594470844
30
0
41
1
10
69.6265523388826
20
1.02055550874033
30
0
41
1
10
69.6215102289044
20
0.993803312401468
30
0
41
1
10
69.6115085077086
20
0.950743570918235
30
0
41
1
10
69.6065882482938
20
0.934472796143154
30
0
41
1
10
69.5969023386982
20
0.912403394039302
30
0
41
1
10
69.5921510054235
20
0.906796803618505
30
0
41
1
10
69.5877061849748
20
0.906796803618477
30
0
0
SPLINE
5
167
100
AcDbEntity
8
1
62
256
6
ByLayer
370
18
48
1
60
0
100
AcDbSpline
70
4
71
3
72
14
73
10
40
0
40
0
40
0
40
0
40
0.0977300394814032
40
0.0977300394814032
40
0.398486692987602
40
0.398486692987602
40
0.699243346493801
40
0.699243346493801
40
1
40
1
40
1
40
1
41
1
10
25.4512248041261
20
3.82043386448609
30
0
41
1
10
25.5118105490821
20
3.90948659074047
30
0
41
1
10
25.577933925469
20
3.99928167373815
30
0
41
1
10
25.8683241447301
20
4.36552944599327
30
0
41
1
10
26.1355816634499
20
4.64200403975218
30
0
41
1
10
26.7259866528924
20
5.15338154498338
30
0
41
1
10
27.0489018244631
20
5.38808325124424
30
0
41
1
10
27.7014856766957
20
5.7801368254068
30
0
41
1
10
28.0308975934784
20
5.93733443696854
30
0
41
1
10
28.3386039630818
20
6.04385595717022
30
0
0
SPLINE
5
168
100
AcDbEntity
8
1
62
256
6
ByLayer
370
18
48
1
60
0
100
AcDbSpline
70
4
71
3
72
16
73
12
40
0
40
0
40
0
40
0
40
0.0327651288015252
40
0.0327651288015252
40
0.274573846601144
40
0.274573846601144
40
0.395478205500955
40
0.395478205500955
40
0.516382564400764
40
0.516382564400764
40
1
40
1
40
1
40
1
41
1
10
51.5262130200715
20
4.30089703090479
30
0
41
1
10
51.6004046209918
20
4.32039289783043
30
0
41
1
10
51.674601711783
20
4.33971630548129
30
0
41
1
10
52.2964344738321
20
4.50018405731831
30
0
41
1
10
52.8444650040852
20
4.63205606944157
30
0
41
1
10
53.6675231531709
20
4.81455605340628
30
0
41
1
10
53.9415706468783
20
4.87272144803561
30
0
41
1
10
54.4891098077506
20
4.98366754040515
30
0
41
1
10
54.7622885701962
20
5.03684262027431
30
0
41
1
10
56.1275129581244
20
5.2881286714603
30
0
41
1
10
57.2162564894523
20
5.44405034067177
30
0
41
1
10
58.3063882987041
20
5.55095941568351
30
0
0
SPLINE
5
169
100
AcDbEntity
8
1
62
256
6
ByLayer
370
18
48
1
60
0
100
AcDbSpline
70
4
71
3
72
12
73
8
40
0
40
0
40
0
40
0
40
0.25
40
0.25
40
0.5
40
0.5
40
1
40
1
40
1
40
1
41
1
10
64.3558640016749
20
0.942555589300383
30
0
41
1
10
64.3940103559349
20
0.930441258002048
30
0
41
1
10
64.4308014899238
20
0.918485092726399
30
0
41
1
10
64.5012973123764
20
0.894615829092885
30
0
41
1
10
64.5350869314938
20
0.882665717023173
30
0
41
1
10
64.6293444744462
20
0.847054689866383
30
0
41
1
10
64.6834008915995
20
0.823463767262723
30
0
41
1
10
64.7264401951674
20
0.798670053382352
30
0
0
SPLINE
5
16A
100
AcDbEntity
8
1
62
256
6
ByLayer
370
18
48
1
60
0
100
AcDbSpline
70
4
71
3
72
28
73
24
40
0
40
0
40
0
40
0
40
0.125
40
0.125
40
0.25
40
0.25
40
0.375
40
0.375
40
0.5
40
0.5
40
0.5625
40
0.5625
40
0.625
40
0.625
40
0.75
40
0.75
40
0.781250000000001
40
0.781250000000001
40
0.812500000000001
40
0.812500000000001
40
0.875000000000001
40
0.875000000000001
40
1
40
1
40
1
40
1
41
1
10
32.0386039630821
20
3.07096499786382
30
0
41
1
10
33.2202883595282
20
2.6706780884208
30
0
41
1
10
34.3997275019763
20
2.24326756532622
30
0
41
1
10
36.7619069832288
20
1.35360936191469
30
0
41
1
10
37.9465850502096
20
0.890740555357837
30
0
41
1
10
40.3071633451844
20
-0.0478319890325167
30
0
41
1
10
41.4846658114499
20
-0.524653967605332
30
0
41
1
10
43.8471041294965
20
-1.46067222383107
30
0
41
1
10
45.0250391746033
20
-1.91643671362101
30
0
41
1
10
46.7945903752642
20
-2.56199374157461
30
0
41
1
10
47.3848787693204
20
-2.77097861389953
30
0
41
1
10
48.5673540422767
20
-3.17425601668833
30
0
41
1
10
49.1579410644187
20
-3.36799018675475
30
0
41
1
10
50.9284549774667
20
-3.9215128462084
30
0
41
1
10
52.1077857301261
20
-4.25345484547589
30
0
41
1
10
53.5864087227373
20
-4.61184882923942
30
0
41
1
10
53.8819681474166
20
-4.68061196149722
30
0
41
1
10
54.4722789319137
20
-4.81200708338338
30
0
41
1
10
54.766782556392
20
-4.87514171391351
30
0
41
1
10
55.6497590053964
20
-5.05473018631321
30
0
41
1
10
56.2374251385147
20
-5.1617873180258
30
0
41
1
10
57.9996975174471
20
-5.44252273299088
30
0
41
1
10
59.17378071491
20
-5.57543545709242
30
0
41
1
10
60.352384708823
20
-5.65087081958563
30
0
0
SPLINE
5
16B
100
AcDbEntity
8
1
62
256
6
ByLayer
370
18
48
1
60
0
100
AcDbSpline
70
4
71
3
72
24
73
20
40
0
40
0
40
0
40
0
40
0.249999999999998
40
0.249999999999998
40
0.374999999999997
40
0.374999999999997
40
0.499999999999996
40
0.499999999999996
40
0.562499999999996
40
0.562499999999996
40
0.624999999999996
40
0.624999999999996
40
0.749999999999997
40
0.749999999999997
40
0.812499999999997
40
0.812499999999997
40
0.874999999999997
40
0.874999999999997
40
1
40
1
40
1
40
1
41
1
10
28.338603963082
20
6.56395711327789
30
0
41
1
10
28.2405245376084
20
6.76146750452131
30
0
41
1
10
28.1403689286272
20
6.9555638565248
30
0
41
1
10
27.9694454638342
20
7.23575487610717
30
0
41
1
10
27.9089564009185
20
7.32727309316942
30
0
41
1
10
27.7761354285316
20
7.50422942366109
30
0
41
1
10
27.703408559651
20
7.59004997615796
30
0
41
1
10
27.5828371496987
20
7.70819681372495
30
0
41
1
10
27.5406696210104
20
7.74588617522727
30
0
41
1
10
27.4515172688774
20
7.81699315707812
30
0
41
1
10
27.4042701749451
20
7.85057120349563
30
0
41
1
10
27.2555938871761
20
7.9420208710545
30
0
41
1
10
27.1487841434039
20
7.9897775573526
30
0
41
1
10
26.9757757262655
20
8.03654480128554
30
0
41
1
10
26.9154224353777
20
8.0480293022303
30
0
41
1
10
26.7932973255656
20
8.06153938212705
30
0
41
1
10
26.7318548915782
20
8.06363345220805
30
0
41
1
10
26.5468493270612
20
8.05686542061918
30
0
41
1
10
26.421688926081
20
8.03461722221766
30
0
41
1
10
26.3
20
7.99815280069632
30
0
0
SPLINE
5
16C
100
AcDbEntity
8
1
62
256
6
ByLayer
370
18
48
1
60
0
100
AcDbSpline
70
4
71
3
72
10
73
6
40
0
40
0
40
0
40
0
40
0.5
40
0.5
40
1
40
1
40
1
40
1
41
1
10
64.6314582645944
20
0.50666024667737
30
0
41
1
10
64.597233536002
20
0.492356040802235
30
0
41
1
10
64.5594420216309
20
0.478862256048842
30
0
41
1
10
64.4773963329682
20
0.453797718473766
30
0
41
1
10
64.432885805252
20
0.442188918295614
30
0
41
1
10
64.3865299509287
20
0.43196403017771
30
0
0
SPLINE
5
16D
100
AcDbEntity
8
1
62
256
6
ByLayer
370
18
48
1
60
0
100
AcDbSpline
70
4
71
3
72
32
73
28
40
0
40
0
40
0
40
0
40
0.125
40
0.125
40
0.25
40
0.25
40
0.3125
40
0.3125
40
0.375000000000001
40
0.375000000000001
40
0.500000000000001
40
0.500000000000001
40
0.562500000000001
40
0.562500000000001
40
0.593750000000001
40
0.593750000000001
40
0.625000000000001
40
0.625000000000001
40
0.750000000000001
40
0.750000000000001
40
0.781250000000001
40
0.781250000000001
40
0.812500000000001
40
0.812500000000001
40
0.875
40
0.875
40
1
40
1
40
1
40
1
41
1
10
26.4770090652462
20
3.0424197485228
30
0
41
1
10
26.5163496369146
20
2.66306316058714
30
0
41
1
10
26.5594591694784
20
2.28095635455591
30
0
41
1
10
26.6531714738313
20
1.51113145529553
30
0
41
1
10
26.7037691833463
20
1.12341702668849
30
0
41
1
10
26.7856977407172
20
0.537306894795421
30
0
41
1
10
26.8140952412652
20
0.34066106403327
30
0
41
1
10
26.8727012769448
20
-0.0518727897732845
30
0
41
1
10
26.9027573792096
20
-0.24677418840264
30
0
41
1
10
26.995259151606
20
-0.827298797981001
30
0
41
1
10
27.0600096460293
20
-1.20878170631562
30
0
41
1
10
27.1624876763034
20
-1.77178129368511
30
0
41
1
10
27.1975453479182
20
-1.9579017298839
30
0
41
1
10
27.2516489185407
20
-2.234540284421
30
0
41
1
10
27.2699713402624
20
-2.32649165425832
30
0
41
1
10
27.3068323920237
20
-2.50790167696854
30
0
41
1
10
27.3254007665197
20
-2.5975186723675
30
0
41
1
10
27.4189690289488
20
-3.04004780881931
30
0
41
1
10
27.4961120687685
20
-3.37647344186342
30
0
41
1
10
27.5963248317556
20
-3.77146399740508
30
0
41
1
10
27.6165589777333
20
-3.8491731777643
30
0
41
1
10
27.6574440411961
20
-4.0018745397241
30
0
41
1
10
27.6780962260089
20
-4.076852021896
30
0
41
1
10
27.7399180505754
20
-4.29470095949455
30
0
41
1
10
27.7812144692988
20
-4.43148248517158
30
0
41
1
10
27.9055129725159
20
-4.81643482423803
30
0
41
1
10
27.9889326892835
20
-5.03887837321821
30
0
41
1
10
28.0733013709273
20
-5.22892174241622
30
0
0
SPLINE
5
16E
100
AcDbEntity
8
1
62
256
6
ByLayer
370
18
48
1
60
0
100
AcDbSpline
70
4
71
3
72
16
73
12
40
0
40
0
40
0
40
0
40
0.249999999999999
40
0.249999999999999
40
0.499999999999998
40
0.499999999999998
40
0.624999999999999
40
0.624999999999999
40
0.749999999999999
40
0.749999999999999
40
1
40
1
40
1
40
1
41
1
10
28.0733013709275
20
-1.53712123203292
30
0
41
1
10
28.1433731317197
20
-1.64541921072862
30
0
41
1
10
28.2216069510777
20
-1.75851580336601
30
0
41
1
10
28.3924465456994
20
-1.99675910703945
30
0
41
1
10
28.4850458097425
20
-2.1219053666438
30
0
41
1
10
28.6339518031947
20
-2.31837556025462
30
0
41
1
10
28.6850834464622
20
-2.38505837987128
30
0
41
1
10
28.7890911019068
20
-2.51904025205448
30
0
41
1
10
28.842132854011
20
-2.58655645673755
30
0
41
1
10
29.0043294280985
20
-2.79021492417061
30
0
41
1
10
29.1165332861482
20
-2.92746344485744
30
0
41
1
10
29.2330534238943
20
-3.06489065623705
30
0
0
SPLINE
5
16F
100
AcDbEntity
8
1
62
256
6
ByLayer
370
18
48
1
60
0
100
AcDbSpline
70
4
71
3
72
14
73
10
40
0
40
0
40
0
40
0
40
0.25
40
0.25
40
0.5
40
0.5
40
0.75
40
0.75
40
1
40
1
40
1
40
1
41
1
10
9.33660254037846
20
19.0245744101322
30
0
41
1
10
9.32721186043483
20
19.0356144845436
30
0
41
1
10
9.31597445228968
20
19.0463346141653
30
0
41
1
10
9.28852371889985
20
19.0670039094876
30
0
41
1
10
9.2722622465561
20
19.0770249518318
30
0
41
1
10
9.23214899512473
20
19.0956617404786
30
0
41
1
10
9.20824291947474
20
19.1043106800553
30
0
41
1
10
9.1501693661348
20
19.1176210455321
30
0
41
1
10
9.11431735240404
20
19.1222825906926
30
0
41
1
10
9.07679491924313
20
19.1222825906926
30
0
0
SPLINE
5
170
100
AcDbEntity
8
1
62
256
6
ByLayer
370
18
48
1
60
0
100
AcDbSpline
70
4
71
4
72
10
73
5
40
0
40
0
40
0
40
0
40
0
40
1
40
1
40
1
40
1
40
1
41
1
10
32.0386039630825
20
3.07096499786363
30
0
41
1
10
32.0386039630827
20
2.70357254816943
30
0
41
1
10
32.0386039630831
20
2.33618009847518
30
0
41
1
10
32.0386039630836
20
1.96878764878093
30
0
41
1
10
32.0386039630843
20
1.60139519908665
30
0
0
SPLINE
5
171
100
AcDbEntity
8
1
62
256
6
ByLayer
370
18
48
1
60
0
100
AcDbSpline
70
4
71
3
72
22
73
18
40
0
40
0
40
0
40
0
40
0.0660534223987133
40
0.0660534223987133
40
0.112750751278777
40
0.112750751278777
40
0.159448080158841
40
0.159448080158841
40
0.25284273791897
40
0.25284273791897
40
0.439632053439228
40
0.439632053439228
40
0.626421368959485
40
0.626421368959485
40
0.813210684479743
40
0.813210684479743
40
1
40
1
40
1
40
1
41
1
10
41.1265258813898
20
5.72497418736541
30
0
41
1
10
41.5337658502575
20
5.72506516487246
30
0
41
1
10
41.941604124302
20
5.7182782545139
30
0
41
1
10
42.6391382933943
20
5.69483012012435
30
0
41
1
10
42.9285976836825
20
5.6816407901297
30
0
41
1
10
43.5066949660712
20
5.64843500951284
30
0
41
1
10
43.795515810765
20
5.62841658652906
30
0
41
1
10
44.6614947390361
20
5.55824522652816
30
0
41
1
10
45.2381745994558
20
5.49798161194394
30
0
41
1
10
46.9677191176197
20
5.27771231383056
30
0
41
1
10
48.1199884204281
20
5.07798724028959
30
0
41
1
10
50.4325906878286
20
4.58092345890736
30
0
41
1
10
51.5811147923397
20
4.28634025536212
30
0
41
1
10
53.8714232386483
20
3.6218823600025
30
0
41
1
10
55.0130739266755
20
3.25168445929012
30
0
41
1
10
57.2983264260916
20
2.45332526948599
30
0
41
1
10
58.4420178248373
20
2.02532518010591
30
0
41
1
10
59.5916333382169
20
1.57944432470401
30
0
0
SPLINE
5
172
100
AcDbEntity
8
1
62
256
6
ByLayer
370
18
48
1
60
0
100
AcDbSpline
70
4
71
1
72
4
73
2
40
0
40
0
40
1
40
1
41
1
10
28.3386039630844
20
6.56395711328355
30
0
41
1
10
28.3386039630847
20
6.04385595717417
30
0
0
SPLINE
5
173
100
AcDbEntity
8
1
62
256
6
ByLayer
370
18
48
1
60
0
100
AcDbSpline
70
4
71
3
72
22
73
18
40
0
40
0
40
0
40
0
40
0.249999999999999
40
0.249999999999999
40
0.374999999999998
40
0.374999999999998
40
0.499999999999998
40
0.499999999999998
40
0.624999999999997
40
0.624999999999997
40
0.749999999999997
40
0.749999999999997
40
0.874999999999996
40
0.874999999999996
40
0.937499999999998
40
0.937499999999998
40
1
40
1
40
1
40
1
41
1
10
62.50338504029
20
0.405022364952828
30
0
41
1
10
62.50406535609
20
0.412550891113511
30
0
41
1
10
62.497042976619
20
0.44847561091521
30
0
41
1
10
62.4685805289889
20
0.541988555556173
30
0
41
1
10
62.4560418341925
20
0.57975972490982
30
0
41
1
10
62.4239438156947
20
0.665720896209109
30
0
41
1
10
62.4043502584408
20
0.714104463429294
30
0
41
1
10
62.3558557626544
20
0.820315511612648
30
0
41
1
10
62.3270041348857
20
0.878165556539784
30
0
41
1
10
62.2560053302945
20
1.0016154893647
30
0
41
1
10
62.2145638299197
20
1.06611783409605
30
0
41
1
10
62.1138793255454
20
1.19634085891488
30
0
41
1
10
62.054122349949
20
1.26274523425798
30
0
41
1
10
61.9455532126115
20
1.35340763910975
30
0
41
1
10
61.9061198328121
20
1.38219808425265
30
0
41
1
10
61.8183282393094
20
1.43478013756214
30
0
41
1
10
61.770927996303
20
1.45792044438031
30
0
41
1
10
61.7196628291559
20
1.47649304030412
30
0
0
SPLINE
5
174
100
AcDbEntity
8
1
62
256
6
ByLayer
370
18
48
1
60
0
100
AcDbSpline
70
4
71
3
72
8
73
4
40
0
40
0
40
0
40
0
40
1
40
1
40
1
40
1
41
1
10
24.8258819045103
20
5.6967779484759
30
0
41
1
10
24.8967559225761
20
5.3575496761384
30
0
41
1
10
24.9696094158346
20
5.02770479959412
30
0
41
1
10
25.0430447179987
20
4.70317637999588
30
0
0
SPLINE
5
175
100
AcDbEntity
8
1
62
256
6
ByLayer
370
18
48
1
60
0
100
AcDbSpline
70
4
71
3
72
8
73
4
40
0
40
0
40
0
40
0
40
1
40
1
40
1
40
1
41
1
10
62.9693500441487
20
1.26658874988757
30
0
41
1
10
63.2307241461524
20
1.1607235366609
30
0
41
1
10
63.5051123643562
20
1.07738947953183
30
0
41
1
10
63.7992173169943
20
1.01916466008032
30
0
0
SPLINE
5
176
100
AcDbEntity
8
1
62
256
6
ByLayer
370
18
48
1
60
0
100
AcDbSpline
70
4
71
3
72
8
73
4
40
0
40
0
40
0
40
0
40
1
40
1
40
1
40
1
41
1
10
25.0430447179989
20
7.69581146380011
30
0
41
1
10
24.9695038445515
20
7.82007473640573
30
0
41
1
10
24.8968915224775
20
7.9322010500706
30
0
41
1
10
24.8258819045103
20
8.02154487546673
30
0
0
SPLINE
5
177
100
AcDbEntity
8
1
62
256
6
ByLayer
370
18
48
1
60
0
100
AcDbSpline
70
4
71
3
72
11
73
7
40
0
40
0
40
0
40
0
40
0.455890504255831
40
0.797808382447704
40
0.911781008511662
40
1
40
1
40
1
40
1
41
1
10
32.0386039630843
20
1.60139519908665
30
0
41
1
10
33.2754247252493
20
1.381137667887
30
0
41
1
10
35.4468680526194
20
0.967328381886574
30
0
41
1
10
37.9350819372432
20
0.463183384377714
30
0
41
1
10
39.4195090116796
20
0.154716428747634
30
0
41
1
10
39.9709074273185
20
0.0391096356197522
30
0
41
1
10
40.2114501520534
20
-0.0114208817781787
30
0
0
SPLINE
5
178
100
AcDbEntity
8
1
62
256
6
ByLayer
370
18
48
1
60
0
100
AcDbSpline
70
4
71
3
72
26
73
22
40
0
40
0
40
0
40
0
40
0.053417436890334
40
0.053417436890334
40
0.139470397173031
40
0.139470397173031
40
0.311576317738425
40
0.311576317738425
40
0.397629278021122
40
0.397629278021122
40
0.483682238303819
40
0.483682238303819
40
0.569735198586516
40
0.569735198586516
40
0.655788158869212
40
0.655788158869212
40
0.741841119151909
40
0.741841119151909
40
0.827894079434606
40
0.827894079434606
40
1
40
1
40
1
40
1
41
1
10
51.7094480241385
20
-4.12521043689836
30
0
41
1
10
51.3372796280397
20
-4.21232862056684
30
0
41
1
10
50.9650026377048
20
-4.29527304000533
30
0
41
1
10
49.9923748295665
20
-4.50074316087509
30
0
41
1
10
49.3911794200898
20
-4.61658027028352
30
0
41
1
10
47.5897966306117
20
-4.92843349615157
30
0
41
1
10
46.3907415167899
20
-5.08925356030002
30
0
41
1
10
44.5889195575399
20
-5.24526551802734
30
0
41
1
10
43.987256356146
20
-5.28321869111508
30
0
41
1
10
42.7860093150711
20
-5.33045572040587
30
0
41
1
10
42.1860626342699
20
-5.33975626890282
30
0
41
1
10
40.9862856990197
20
-5.32971955928059
30
0
41
1
10
40.3864568724522
20
-5.31037365397353
30
0
41
1
10
39.185624518457
20
-5.24283340001978
30
0
41
1
10
38.5841685010378
20
-5.19457560618986
30
0
41
1
10
37.3826843760546
20
-5.06962146352896
30
0
41
1
10
36.7822973827598
20
-4.99294109161264
30
0
41
1
10
35.5808327410569
20
-4.81413393989871
30
0
41
1
10
34.9793828987943
20
-4.71195066131278
30
0
41
1
10
33.1751448800596
20
-4.37188116252756
30
0
41
1
10
31.973371364227
20
-4.10121868951387
30
0
41
1
10
30.7688888638006
20
-3.79111176036628
30
0
0
SPLINE
5
179
100
AcDbEntity
8
1
62
256
6
ByLayer
370
18
48
1
60
0
100
AcDbSpline
70
4
71
3
72
14
73
10
40
0
40
0
40
0
40
0
40
0.25
40
0.25
40
0.5
40
0.5
40
0.75
40
0.75
40
1
40
1
40
1
40
1
41
1
10
9.33660254037844
20
-6.16973001948566
30
0
41
1
10
9.3272118604348
20
-6.13568757087461
30
0
41
1
10
9.31597445228965
20
-6.10231901184943
30
0
41
1
10
9.28852371889982
20
-6.03742672607427
30
0
41
1
10
9.27226224655607
20
-6.00567161829602
30
0
41
1
10
9.2321489951247
20
-5.94614793734939
30
0
41
1
10
9.20824291947471
20
-5.91826181931597
30
0
41
1
10
9.15016936613478
20
-5.87512340989326
30
0
41
1
10
9.11431735240402
20
-5.85988980456935
30
0
41
1
10
9.0767949192431
20
-5.85988980456935
30
0
0
SPLINE
5
17A
100
AcDbEntity
8
1
62
256
6
ByLayer
370
18
48
1
60
0
100
AcDbSpline
70
4
71
3
72
8
73
4
40
0
40
0
40
0
40
0
40
1
40
1
40
1
40
1
41
1
10
64.3144803027789
20
2.56733145696842
30
0
41
1
10
64.3048113054704
20
2.54878599795145
30
0
41
1
10
64.2955559206987
20
2.53001188260978
30
0
41
1
10
64.2867063588498
20
2.51093479250585
30
0
0
SPLINE
5
17B
100
AcDbEntity
8
1
62
256
6
ByLayer
370
18
48
1
60
0
100
AcDbSpline
70
4
71
3
72
12
73
8
40
0
40
0
40
0
40
0
40
0.500000000000018
40
0.500000000000018
40
0.750000000000009
40
0.750000000000009
40
1
40
1
40
1
40
1
41
1
10
64.2867063588498
20
2.51093479250585
30
0
41
1
10
64.2673172464911
20
2.46913748662644
30
0
41
1
10
64.2504662621435
20
2.42789602663765
30
0
41
1
10
64.2295939409495
20
2.37510228631172
30
0
41
1
10
64.2232630416198
20
2.35881137862898
30
0
41
1
10
64.212850949728
20
2.33465255428436
30
0
41
1
10
64.208713626181
20
2.32689178014977
30
0
41
1
10
64.2064191459846
20
2.32689178014977
30
0
0
SPLINE
5
17C
100
AcDbEntity
8
1
62
256
6
ByLayer
370
18
48
1
60
0
100
AcDbSpline
70
4
71
3
72
8
73
4
40
0
40
0
40
0
40
0
40
1
40
1
40
1
40
1
41
1
10
32.0386039630817
20
1.60139519908751
30
0
41
1
10
30.8430450038014
20
3.06128929450176
30
0
41
1
10
29.6225295417403
20
4.55275109463207
30
0
41
1
10
28.3386039630847
20
6.04385595717417
30
0
0
SPLINE
5
17D
100
AcDbEntity
8
1
62
256
6
ByLayer
370
18
48
1
60
0
100
AcDbSpline
70
4
71
3
72
18
73
14
40
0
40
0
40
0
40
0
40
0.249999999999999
40
0.249999999999999
40
0.499999999999999
40
0.499999999999999
40
0.624999999999999
40
0.624999999999999
40
0.749999999999999
40
0.749999999999999
40
0.875
40
0.875
40
1
40
1
40
1
40
1
41
1
10
25.8157853790299
20
3.42317143280769
30
0
41
1
10
25.7127233722824
20
3.49936191759474
30
0
41
1
10
25.6227735971271
20
3.59081596724945
30
0
41
1
10
25.458659862473
20
3.79185752899971
30
0
41
1
10
25.3870604674046
20
3.89892950598008
30
0
41
1
10
25.2916139383389
20
4.06504123568394
30
0
41
1
10
25.2617895901005
20
4.12144625439655
30
0
41
1
10
25.2059122689087
20
4.23615566459202
30
0
41
1
10
25.1797513544594
20
4.29474210375818
30
0
41
1
10
25.1321257114998
20
4.41182757217558
30
0
41
1
10
25.110585092107
20
4.47041777912159
30
0
41
1
10
25.072592507334
20
4.58724402408032
30
0
41
1
10
25.0560979190009
20
4.64549111736437
30
0
41
1
10
25.043044717999
20
4.70317637999665
30
0
0
SPLINE
5
17E
100
AcDbEntity
8
1
62
256
6
ByLayer
370
18
48
1
60
0
100
AcDbSpline
70
4
71
3
72
8
73
4
40
0
40
0
40
0
40
0
40
1
40
1
40
1
40
1
41
1
10
26.3
20
3.12864754147174
30
0
41
1
10
26.358899116036
20
3.09992601159166
30
0
41
1
10
26.4179683304306
20
3.07132542161548
30
0
41
1
10
26.4770090652454
20
3.04241974853181
30
0
0
SPLINE
5
17F
100
AcDbEntity
8
1
62
256
6
ByLayer
370
18
48
1
60
0
100
AcDbSpline
70
4
71
3
72
10
73
6
40
0
40
0
40
0
40
0
40
0.5
40
0.5
40
1
40
1
40
1
40
1
41
1
10
63.3158376085185
20
0.301895872996141
30
0
41
1
10
63.2249405211108
20
0.299568702443963
30
0
41
1
10
63.1277412840077
20
0.304425929243138
30
0
41
1
10
62.9251725328548
20
0.327729967869487
30
0
41
1
10
62.8197298122671
20
0.346209934098084
30
0
41
1
10
62.7111328625702
20
0.371905872954784
30
0
0
SPLINE
5
180
100
AcDbEntity
8
1
62
256
6
ByLayer
370
18
48
1
60
0
100
AcDbSpline
70
4
71
3
72
20
73
16
40
0
40
0
40
0
40
0
40
0.178679214007551
40
0.178679214007551
40
0.357358428015101
40
0.357358428015101
40
0.536037642022652
40
0.536037642022652
40
0.714716856030202
40
0.714716856030202
40
0.804056463033978
40
0.804056463033978
40
0.893396070037753
40
0.893396070037753
40
1
40
1
40
1
40
1
41
1
10
31.9999999999999
20
-4.46870490578544
30
0
41
1
10
33.2134901188736
20
-4.76866223882865
30
0
41
1
10
34.4191293962518
20
-5.02014322284776
30
0
41
1
10
36.824895573677
20
-5.41361835054289
30
0
41
1
10
38.0250950951324
20
-5.55554018847235
30
0
41
1
10
40.4304058676926
20
-5.72133670982501
30
0
41
1
10
41.6360101528229
20
-5.74516621512893
30
0
41
1
10
44.0607321156495
20
-5.67040257525082
30
0
41
1
10
45.2686660686269
20
-5.57240023913803
30
0
41
1
10
47.0807959140414
20
-5.33839645837028
30
0
41
1
10
47.684875586615
20
-5.24588525034483
30
0
41
1
10
48.8944721079717
20
-5.03282170264015
30
0
41
1
10
49.5009525342172
20
-4.91202967401702
30
0
41
1
10
50.8255689799813
20
-4.61986217610217
30
0
41
1
10
51.5435829544374
20
-4.44315557019999
30
0
41
1
10
52.2600084378661
20
-4.25063681743458
30
0
0
SPLINE
5
181
100
AcDbEntity
8
1
62
256
6
ByLayer
370
18
48
1
60
0
100
AcDbSpline
70
4
71
3
72
14
73
10
40
0
40
0
40
0
40
0
40
0.25
40
0.25
40
0.5
40
0.5
40
0.75
40
0.75
40
1
40
1
40
1
40
1
41
1
10
29.2330533687517
20
-3.06489119279385
30
0
41
1
10
29.3243743996646
20
-3.15198023607442
30
0
41
1
10
29.4220932363476
20
-3.23288351454047
30
0
41
1
10
29.6247222485026
20
-3.37745612240334
30
0
41
1
10
29.7298974248766
20
-3.44154559058845
30
0
41
1
10
29.9481419721741
20
-3.55371657638801
30
0
41
1
10
30.0613101477356
20
-3.6018331060917
30
0
41
1
10
30.2955567705381
20
-3.68132276185864
30
0
41
1
10
30.4142563995136
20
-3.71190513058778
30
0
41
1
10
30.5344345854463
20
-3.7336307800411
30
0
0
SPLINE
5
182
100
AcDbEntity
8
1
62
256
6
ByLayer
370
18
48
1
60
0
100
AcDbSpline
70
4
71
3
72
8
73
4
40
0
40
0
40
0
40
0
40
1
40
1
40
1
40
1
41
1
10
26.661396036918
20
2.40731158838611
30
0
41
1
10
26.7096794041158
20
2.24674774701083
30
0
41
1
10
26.7579612089928
20
2.08697795092019
30
0
41
1
10
26.8062427322953
20
1.92800418214057
30
0
0
SPLINE
5
183
100
AcDbEntity
8
1
62
256
6
ByLayer
370
18
48
1
60
0
100
AcDbSpline
70
4
71
3
72
12
73
8
40
0
40
0
40
0
40
0
40
0.273430936684802
40
0.273430936684802
40
0.636715468342401
40
0.636715468342401
40
1
40
1
40
1
40
1
41
1
10
52.8041839393574
20
3.91952969203243
30
0
41
1
10
52.960580311435
20
3.9724276985406
30
0
41
1
10
53.1175610478334
20
4.02179295929386
30
0
41
1
10
53.4827076722094
20
4.12973483374097
30
0
41
1
10
53.6912854501719
20
4.18614556167353
30
0
41
1
10
54.1090457990685
20
4.29058802228403
30
0
41
1
10
54.3182974623827
20
4.33834436753222
30
0
41
1
10
54.5275663898638
20
4.38378892689181
30
0
0
SPLINE
5
184
100
AcDbEntity
8
1
62
256
6
ByLayer
370
18
48
1
60
0
100
AcDbSpline
70
4
71
3
72
16
73
12
40
0
40
0
40
0
40
0
40
0.124999999999996
40
0.124999999999996
40
0.249999999999992
40
0.249999999999992
40
0.499999999999995
40
0.499999999999995
40
0.749999999999997
40
0.749999999999997
40
1
40
1
40
1
40
1
41
1
10
64.6314582645947
20
0.506660246677313
30
0
41
1
10
64.6582629469748
20
0.517863248452642
30
0
41
1
10
64.6827114127477
20
0.529532381589775
30
0
41
1
10
64.7255862300398
20
0.553147436890441
30
0
41
1
10
64.7442145905487
20
0.565171341010796
30
0
41
1
10
64.7917354189469
20
0.601887338367249
30
0
41
1
10
64.8122990270576
20
0.627541230365097
30
0
41
1
10
64.8285874287074
20
0.678079820278015
30
0
41
1
10
64.8247697441591
20
0.703330520286727
30
0
41
1
10
64.7927965396539
20
0.752791063598437
30
0
41
1
10
64.765243605078
20
0.776316516893928
30
0
41
1
10
64.7264401951731
20
0.798670053382921
30
0
0
SPLINE
5
185
100
AcDbEntity
8
1
62
256
6
ByLayer
370
18
48
1
60
0
100
AcDbSpline
70
4
71
3
72
8
73
4
40
0
40
0
40
0
40
0
40
1
40
1
40
1
40
1
41
1
10
24.7
20
6.03646027816802
30
0
41
1
10
24.7378906568784
20
5.92288935796495
30
0
41
1
10
24.7800192622615
20
5.80967588393992
30
0
41
1
10
24.8258819045103
20
5.6967779484759
30
0
0
SPLINE
5
186
100
AcDbEntity
8
1
62
256
6
ByLayer
370
18
48
1
60
0
100
AcDbSpline
70
4
71
3
72
18
73
14
40
0
40
0
40
0
40
0
40
0.124999999999999
40
0.124999999999999
40
0.249999999999998
40
0.249999999999998
40
0.499999999999997
40
0.499999999999997
40
0.749999999999995
40
0.749999999999995
40
0.874999999999997
40
0.874999999999997
40
1
40
1
40
1
40
1
41
1
10
25.0430447179991
20
7.69581146379613
30
0
41
1
10
25.0565111498689
20
7.67305700337164
30
0
41
1
10
25.0739111905166
20
7.65745482716258
30
0
41
1
10
25.1148213537951
20
7.6353722205354
30
0
41
1
10
25.1386341961611
20
7.62895931171997
30
0
41
1
10
25.2162694238207
20
7.62002144421029
30
0
41
1
10
25.2760236841882
20
7.62687478116425
30
0
41
1
10
25.4110440242202
20
7.65593652525089
30
0
41
1
10
25.4841115302815
20
7.67792712827628
30
0
41
1
10
25.6029117385964
20
7.72080709938879
30
0
41
1
10
25.6441910086702
20
7.73687634414699
30
0
41
1
10
25.7284363467891
20
7.77213159757054
30
0
41
1
10
25.7715770564695
20
7.7913721546953
30
0
41
1
10
25.815785379029
20
7.81250018722574
30
0
0
SPLINE
5
187
100
AcDbEntity
8
1
62
256
6
ByLayer
370
18
48
1
60
0
100
AcDbSpline
70
4
71
3
72
10
73
6
40
0
40
0
40
0
40
0
40
0.5
40
0.5
40
1
40
1
40
1
40
1
41
1
10
63.7992173169942
20
1.01916466008035
30
0
41
1
10
63.8941800507782
20
1.00036460935152
30
0
41
1
10
63.9883999537043
20
0.98465583483636
30
0
41
1
10
64.1750142710173
20
0.959138862698154
30
0
41
1
10
64.2668731715614
20
0.949427854047684
30
0
41
1
10
64.3558640016749
20
0.942555589300355
30
0
0
SPLINE
5
188
100
AcDbEntity
8
1
62
256
6
ByLayer
370
18
48
1
60
0
100
AcDbSpline
70
4
71
3
72
12
73
8
40
0
40
0
40
0
40
0
40
0.500000000000009
40
0.500000000000009
40
0.750000000000004
40
0.750000000000004
40
1
40
1
40
1
40
1
41
1
10
64.398022264767
20
-0.211008901289318
30
0
41
1
10
64.0169197882766
20
-0.219822139287629
30
0
41
1
10
63.6420814424635
20
-0.184856380835015
30
0
41
1
10
63.0891283392917
20
-0.0673197181922944
30
0
41
1
10
62.9057266145855
20
-0.0169356517911012
30
0
41
1
10
62.5453112690976
20
0.106278389268965
30
0
41
1
10
62.3694183039945
20
0.178634969791688
30
0
41
1
10
62.1979786785649
20
0.262056826685409
30
0
0
SPLINE
5
189
100
AcDbEntity
8
1
62
256
6
ByLayer
370
18
48
1
60
0
100
AcDbSpline
70
4
71
3
72
8
73
4
40
0
40
0
40
0
40
0
40
1
40
1
40
1
40
1
41
1
10
30.5344345854463
20
-3.73363078004107
30
0
41
1
10
30.6116664430865
20
-3.75256503734519
30
0
41
1
10
30.6898164402041
20
-3.77164368776155
30
0
41
1
10
30.7688888634345
20
-3.79111176027627
30
0
0
SPLINE
5
18A
100
AcDbEntity
8
1
62
256
6
ByLayer
370
18
48
1
60
0
100
AcDbSpline
70
4
71
3
72
8
73
4
40
0
40
0
40
0
40
0
40
1
40
1
40
1
40
1
41
1
10
64.3558640016749
20
0.942555589300355
30
0
41
1
10
64.4246955963856
20
0.937485994501827
30
0
41
1
10
64.4937613322074
20
0.933829678538217
30
0
41
1
10
64.5630650290954
20
0.931608633941011
30
0
0
SPLINE
5
18B
100
AcDbEntity
8
1
62
256
6
ByLayer
370
18
48
1
60
0
100
AcDbSpline
70
4
71
3
72
14
73
10
40
0
40
0
40
0
40
0
40
0.25
40
0.25
40
0.5
40
0.5
40
0.75
40
0.75
40
1
40
1
40
1
40
1
41
1
10
6.66339745962156
20
6.16973001948566
30
0
41
1
10
6.6727881395652
20
6.13568757087461
30
0
41
1
10
6.68402554771035
20
6.10231901184943
30
0
41
1
10
6.71147628110018
20
6.03742672607427
30
0
41
1
10
6.72773775344393
20
6.00567161829602
30
0
41
1
10
6.7678510048753
20
5.94614793734937
30
0
41
1
10
6.79175708052529
20
5.91826181931594
30
0
41
1
10
6.84983063386525
20
5.87512340989323
30
0
41
1
10
6.88568264759598
20
5.85988980456932
30
0
41
1
10
6.9232050807569
20
5.85988980456932
30
0
0
SPLINE
5
18C
100
AcDbEntity
8
1
62
256
6
ByLayer
370
18
48
1
60
0
100
AcDbSpline
70
4
71
3
72
8
73
4
40
0
40
0
40
0
40
0
40
1
40
1
40
1
40
1
41
1
10
30.7688888634346
20
-4.31045195299004
30
0
41
1
10
30.7688888634346
20
-4.13733855541878
30
0
41
1
10
30.7688888634345
20
-3.96422515784752
30
0
41
1
10
30.7688888634345
20
-3.79111176027627
30
0
0
SPLINE
5
18D
100
AcDbEntity
8
1
62
256
6
ByLayer
370
18
48
1
60
0
100
AcDbSpline
70
4
71
3
72
10
73
6
40
0
40
0
40
0
40
0
40
0.934360855982833
40
0.934360855982833
40
1
40
1
40
1
40
1
41
1
10
61.7196628291559
20
1.47649304030412
30
0
41
1
10
61.2879105655075
20
1.38188350064951
30
0
41
1
10
60.8545408452575
20
1.31114419262334
30
0
41
1
10
60.3892361685737
20
1.26176025740804
30
0
41
1
10
60.3586872629256
20
1.25863773232268
30
0
41
1
10
60.3281318364352
20
1.25563224412164
30
0
0
SPLINE
5
18E
100
AcDbEntity
8
1
62
256
6
ByLayer
370
18
48
1
60
0
100
AcDbSpline
70
4
71
3
72
14
73
10
40
0
40
0
40
0
40
0
40
0.25
40
0.25
40
0.5
40
0.5
40
0.75
40
0.75
40
1
40
1
40
1
40
1
41
1
10
58.3063882987041
20
5.55095941568351
30
0
41
1
10
58.0080347700305
20
5.39513347621198
30
0
41
1
10
57.7018055573771
20
5.26717830152947
30
0
41
1
10
57.081022769443
20
5.04072651771909
30
0
41
1
10
56.766383864328
20
4.94253187699786
30
0
41
1
10
56.1324832547056
20
4.7625019308031
30
0
41
1
10
55.8131810935962
20
4.68080979466467
30
0
41
1
10
55.1720114088299
20
4.52650392324134
30
0
41
1
10
54.8501574009564
20
4.45384235779693
30
0
41
1
10
54.5275663898632
20
4.38378892688877
30
0
0
SPLINE
5
18F
100
AcDbEntity
8
1
62
256
6
ByLayer
370
18
48
1
60
0
100
AcDbSpline
70
4
71
3
72
8
73
4
40
0
40
0
40
0
40
0
40
1
40
1
40
1
40
1
41
1
10
25.8157853790299
20
3.42317143280769
30
0
41
1
10
25.9675187279471
20
3.31099976278878
30
0
41
1
10
26.1286088151731
20
3.21222463680854
30
0
41
1
10
26.3
20
3.12864754147174
30
0
0
SPLINE
5
190
100
AcDbEntity
8
1
62
256
6
ByLayer
370
18
48
1
60
0
100
AcDbSpline
70
4
71
3
72
8
73
4
40
0
40
0
40
0
40
0
40
1
40
1
40
1
40
1
41
1
10
62.7111328625701
20
0.371905872955125
30
0
41
1
10
62.5632340362542
20
0.406901323643183
30
0
41
1
10
62.4176807575429
20
0.448286609941022
30
0
41
1
10
62.2742532866514
20
0.496553361227711
30
0
0
SPLINE
5
191
100
AcDbEntity
8
1
62
256
6
ByLayer
370
18
48
1
60
0
100
AcDbSpline
70
4
71
3
72
8
73
4
40
0
40
0
40
0
40
0
40
1
40
1
40
1
40
1
41
1
10
64.7266641226242
20
0.799358489725506
30
0
41
1
10
64.6606013358706
20
0.840954361558488
30
0
41
1
10
64.6077994989673
20
0.885585041442084
30
0
41
1
10
64.5630650290954
20
0.931608633941011
30
0
0
SPLINE
5
192
100
AcDbEntity
8
1
62
256
6
ByLayer
370
18
48
1
60
0
100
AcDbSpline
70
4
71
3
72
8
73
4
40
0
40
0
40
0
40
0
40
1
40
1
40
1
40
1
41
1
10
26.3
20
7.99815280069632
30
0
41
1
10
26.1303462423097
20
7.94731558541034
30
0
41
1
10
25.9689390370486
20
7.88569535233293
30
0
41
1
10
25.8157853790299
20
7.81250018722733
30
0
0
SPLINE
5
193
100
AcDbEntity
8
1
62
256
6
ByLayer
370
18
48
1
60
0
100
AcDbSpline
70
4
71
3
72
50
73
46
40
0
40
0
40
0
40
0
40
0.0178154673366599
40
0.0401378430790087
40
0.0457184370145958
40
0.0512990309501829
40
0.0568796248857698
40
0.0624602188213573
40
0.107104970306055
40
0.151749721790752
40
0.196394473275449
40
0.241039224760146
40
0.252200412631321
40
0.263361600502495
40
0.274522788373669
40
0.285683976244844
40
0.308006351987192
40
0.330328727729541
40
0.374973479214238
40
0.419618230698935
40
0.464262982183633
40
0.50890773366833
40
0.520068921539504
40
0.531230109410679
40
0.542391297281853
40
0.553552485153027
40
0.575874860895376
40
0.598197236637725
40
0.620519612380073
40
0.642841988122422
40
0.66516436386477
40
0.687486739607119
40
0.709809115349468
40
0.732131491091816
40
0.754453866834165
40
0.776776242576514
40
0.799098618318862
40
0.821420994061211
40
0.843743369803559
40
0.866065745545908
40
0.910710497030605
40
0.933032872772954
40
0.955355248515303
40
0.977677624257651
40
1
40
1
40
1
40
1
41
1
10
28.7995516226386
20
-2.52551122537847
30
0
41
1
10
28.7902033733459
20
-2.50135490049988
30
0
41
1
10
28.7706941464662
20
-2.44594882225667
30
0
41
1
10
28.7524889472407
20
-2.38051946112301
30
0
41
1
10
28.7411892049814
20
-2.33156016926756
30
0
41
1
10
28.7359454604807
20
-2.30687965127259
30
0
41
1
10
28.7311072694567
20
-2.28200533205802
30
0
41
1
10
28.7163299004594
20
-2.19846850010245
30
0
41
1
10
28.7015207560661
20
-2.05187456790304
30
0
41
1
10
28.7054354234573
20
-1.8371689513672
30
0
41
1
10
28.732461634683
20
-1.6183944629926
30
0
41
1
10
28.7684095557672
20
-1.45384595084874
30
0
41
1
10
28.7981137385659
20
-1.34491451846918
30
0
41
1
10
28.8140570702197
20
-1.29068455087892
30
0
41
1
10
28.831035101967
20
-1.23677256534449
30
0
41
1
10
28.8551282949951
20
-1.16498502892549
30
0
41
1
10
28.888117351165
20
-1.07481231936293
30
0
41
1
10
28.948270790589
20
-0.926873453745827
30
0
41
1
10
29.0373393293304
20
-0.736546185029766
30
0
41
1
10
29.1669990008037
20
-0.502112130224646
30
0
41
1
10
29.3193741648398
20
-0.26475476830376
30
0
41
1
10
29.4501026095157
20
-0.0871989741117147
30
0
41
1
10
29.5436209929549
20
0.0297837565635746
30
0
41
1
10
29.5916172066606
20
0.0879361723560237
30
0
41
1
10
29.6408142469412
20
0.14568824881519
30
0
41
1
10
29.7079631421996
20
0.222075378599044
30
0
41
1
10
29.7947203506522
20
0.316251493555626
30
0
41
1
10
29.9029672680421
20
0.426691825089961
30
0
41
1
10
30.0149769769181
20
0.534082619434344
30
0
41
1
10
30.1303051436606
20
0.637984249251872
30
0
41
1
10
30.2485074346497
20
0.737957087205643
30
0
41
1
10
30.36909333732
20
0.833624630392762
30
0
41
1
10
30.4915723391059
20
0.924610375910362
30
0
41
1
10
30.6154343757538
20
1.01061976908443
30
0
41
1
10
30.74016938301
20
1.09135825524095
30
0
41
1
10
30.865275002447
20
1.16662559695857
30
0
41
1
10
30.9902488756372
20
1.23622155681596
30
0
41
1
10
31.1146211932193
20
1.30004405476433
30
0
41
1
10
31.237922145832
20
1.35799101075483
30
0
41
1
10
31.4003393032943
20
1.42741005700461
30
0
41
1
10
31.558946852631
20
1.48504950195732
30
0
41
1
10
31.7123459667463
20
1.53122013411141
30
0
41
1
10
31.8245162312435
20
1.56026203126029
30
0
41
1
10
31.9335325711726
20
1.58386618087511
30
0
41
1
10
32.003974830068
20
1.59611156928926
30
0
41
1
10
32.0386039630817
20
1.60139519908751
30
0
0
SPLINE
5
194
100
AcDbEntity
8
1
62
256
6
ByLayer
370
18
48
1
60
0
100
AcDbSpline
70
4
71
3
72
14
73
10
40
0
40
0
40
0
40
0
40
0.25
40
0.25
40
0.5
40
0.5
40
0.75
40
0.75
40
1
40
1
40
1
40
1
41
1
10
6.66339745962154
20
-19.0245744101322
30
0
41
1
10
6.67278813956517
20
-19.0356144845436
30
0
41
1
10
6.68402554771032
20
-19.0463346141653
30
0
41
1
10
6.71147628110015
20
-19.0670039094876
30
0
41
1
10
6.7277377534439
20
-19.0770249518319
30
0
41
1
10
6.76785100487527
20
-19.0956617404786
30
0
41
1
10
6.79175708052526
20
-19.1043106800553
30
0
41
1
10
6.84983063386522
20
-19.1176210455322
30
0
41
1
10
6.88568264759596
20
-19.1222825906926
30
0
41
1
10
6.92320508075687
20
-19.1222825906926
30
0
0
SPLINE
5
195
100
AcDbEntity
8
1
62
256
6
ByLayer
370
18
48
1
60
0
100
AcDbSpline
70
4
71
3
72
16
73
12
40
0
40
0
40
0
40
0
40
0.25
40
0.25
40
0.5
40
0.5
40
0.75
40
0.75
40
0.875
40
0.875
40
1
40
1
40
1
40
1
41
1
10
26.8062427322953
20
1.92800418214057
30
0
41
1
10
26.9113215545701
20
1.59196079152648
30
0
41
1
10
27.0164439335221
20
1.26423844602064
30
0
41
1
10
27.2270711963143
20
0.628204975314816
30
0
41
1
10
27.33259871734
20
0.31975470853493
30
0
41
1
10
27.5443869622116
20
-0.272368164553285
30
0
41
1
10
27.6501021589108
20
-0.554679697603518
30
0
41
1
10
27.8086785120204
20
-0.949332318695923
30
0
41
1
10
27.8615390187362
20
-1.07603029659063
30
0
41
1
10
27.9673361338215
20
-1.31701490607259
30
0
41
1
10
28.0202717190616
20
-1.43136675608747
30
0
41
1
10
28.0733013709275
20
-1.53712123203292
30
0
0
SPLINE
5
196
100
AcDbEntity
8
1
62
256
6
ByLayer
370
18
48
1
60
0
100
AcDbSpline
70
4
71
3
72
8
73
4
40
0
40
0
40
0
40
0
40
1
40
1
40
1
40
1
41
1
10
64.8604955014409
20
5.72409356891185
30
0
41
1
10
64.8637187144099
20
5.72472383102163
30
0
41
1
10
64.8695532397024
20
5.72501358233964
30
0
41
1
10
64.8779326573741
20
5.72499968179326
30
0
0
SPLINE
5
197
100
AcDbEntity
8
1
62
256
6
ByLayer
370
18
48
1
60
0
100
AcDbSpline
70
4
71
3
72
10
73
6
40
0
40
0
40
0
40
0
40
0.261688499178723
40
0.261688499178723
40
1
40
1
40
1
40
1
41
1
10
64.920207340275
20
5.72364506721092
30
0
41
1
10
64.9299447831227
20
5.72317811083411
30
0
41
1
10
64.9407513044062
20
5.7226026785705
30
0
41
1
10
64.9857185618003
20
5.720069824566
30
0
41
1
10
65.0271440354869
20
5.71747698842498
30
0
41
1
10
65.0752979500573
20
5.71473377770525
30
0
0
SPLINE
5
198
100
AcDbEntity
8
1
62
256
6
ByLayer
370
18
48
1
60
0
100
AcDbSpline
70
4
71
3
72
22
73
18
40
0
40
0
40
0
40
0
40
0.125
40
0.125
40
0.25
40
0.25
40
0.375
40
0.375
40
0.5
40
0.5
40
0.625
40
0.625
40
0.75
40
0.75
40
0.875
40
0.875
40
1
40
1
40
1
40
1
41
1
10
64.6089477106918
20
0.931608633941011
30
0
41
1
10
64.614088072554
20
0.931608633941011
30
0
41
1
10
64.6102193962266
20
0.938445950422391
30
0
41
1
10
64.5887011399425
20
0.963987874771107
30
0
41
1
10
64.5717120958446
20
0.982141968473115
30
0
41
1
10
64.5308815511061
20
1.02777072367019
30
0
41
1
10
64.5073974465454
20
1.05487832445363
30
0
41
1
10
64.4587585708276
20
1.1160271836824
30
0
41
1
10
64.4333693414661
20
1.15030321844779
30
0
41
1
10
64.3826931953072
20
1.22642604301623
30
0
41
1
10
64.3579607651338
20
1.26742203826006
30
0
41
1
10
64.3109529239562
20
1.35565868140716
30
0
41
1
10
64.2885314142673
20
1.4032183150176
30
0
41
1
10
64.2477826758586
20
1.50426963239423
30
0
41
1
10
64.2297794647826
20
1.55686942794412
30
0
41
1
10
64.1991116856653
20
1.66665465012514
30
0
41
1
10
64.186416968203
20
1.72444693882511
30
0
41
1
10
64.1772022567744
20
1.78178258061456
30
0
0
SPLINE
5
199
100
AcDbEntity
8
1
62
256
6
ByLayer
370
18
48
1
60
0
100
AcDbSpline
70
4
71
3
72
12
73
8
40
0
40
0
40
0
40
0
40
0.0202976387258281
40
0.0202976387258281
40
0.510148819362914
40
0.510148819362914
40
1
40
1
40
1
40
1
41
1
10
67.8757485839379
20
4.27648333046506
30
0
41
1
10
67.8730628178481
20
4.27629006524657
30
0
41
1
10
67.8703782459285
20
4.27608584842224
30
0
41
1
10
67.8029358282347
20
4.2706777990613
30
0
41
1
10
67.7383500194748
20
4.25880510586572
30
0
41
1
10
67.6181809657078
20
4.22407083151603
30
0
41
1
10
67.5612089963493
20
4.20099926355496
30
0
41
1
10
67.5086274531658
20
4.17354574940575
30
0
0
SPLINE
5
19A
100
AcDbEntity
8
1
62
256
6
ByLayer
370
18
48
1
60
0
100
AcDbSpline
70
4
71
3
72
10
73
6
40
0
40
0
40
0
40
0
40
0.835321527584958
40
0.835321527584958
40
1
40
1
40
1
40
1
41
1
10
61.7196628291559
20
1.47649304030412
30
0
41
1
10
61.6829608964342
20
1.25291863333163
30
0
41
1
10
61.6381376827501
20
1.0465594686425
30
0
41
1
10
61.5765446046943
20
0.82836371504564
30
0
41
1
10
61.5661442966109
20
0.793369129707742
30
0
41
1
10
61.5555015691504
20
0.7593525020323
30
0
0
SPLINE
5
19B
100
AcDbEntity
8
1
62
256
6
ByLayer
370
18
48
1
60
0
100
AcDbSpline
70
4
71
3
72
52
73
48
40
0
40
0
40
0
40
0
40
0.0625000000000063
40
0.0625000000000063
40
0.125000000000013
40
0.125000000000013
40
0.156250000000016
40
0.156250000000016
40
0.187500000000019
40
0.187500000000019
40
0.250000000000027
40
0.250000000000027
40
0.281250000000032
40
0.281250000000032
40
0.312500000000038
40
0.312500000000038
40
0.375000000000044
40
0.375000000000044
40
0.406250000000048
40
0.406250000000048
40
0.437500000000051
40
0.437500000000051
40
0.468750000000054
40
0.468750000000054
40
0.500000000000057
40
0.500000000000057
40
0.562500000000055
40
0.562500000000055
40
0.625000000000053
40
0.625000000000053
40
0.656250000000048
40
0.656250000000048
40
0.687500000000044
40
0.687500000000044
40
0.718750000000039
40
0.718750000000039
40
0.750000000000035
40
0.750000000000035
40
0.812500000000026
40
0.812500000000026
40
0.843750000000022
40
0.843750000000022
40
0.875000000000017
40
0.875000000000017
40
0.937500000000009
40
0.937500000000009
40
1
40
1
40
1
40
1
41
1
10
66.7369682046613
20
-2.53289465036411
30
0
41
1
10
66.6822723636276
20
-2.45200020653266
30
0
41
1
10
66.6390002340561
20
-2.36613315828669
30
0
41
1
10
66.5739891936048
20
-2.18439343064387
30
0
41
1
10
66.5524722890659
20
-2.08764556158567
30
0
41
1
10
66.5391341592799
20
-1.94195148225148
30
0
41
1
10
66.53773751444
20
-1.89301839140194
30
0
41
1
10
66.5412947621961
20
-1.79439660824508
30
0
41
1
10
66.5463138120558
20
-1.74435130085209
30
0
41
1
10
66.5713158341999
20
-1.59571963371727
30
0
41
1
10
66.6006737760074
20
-1.49975578060199
30
0
41
1
10
66.664782636049
20
-1.36107784482027
30
0
41
1
10
66.6897775144074
20
-1.31543973550117
30
0
41
1
10
66.7453316749329
20
-1.2289408709039
30
0
41
1
10
66.7759670724947
20
-1.18779491615834
30
0
41
1
10
66.8764726334252
20
-1.07077969939834
30
0
41
1
10
66.956270879446
20
-1.00059728430955
30
0
41
1
10
67.0867078003648
20
-0.915578082451447
30
0
41
1
10
67.1321409002519
20
-0.890346971859231
30
0
41
1
10
67.2269967345935
20
-0.846275396421362
30
0
41
1
10
67.2766428745279
20
-0.82743207134007
30
0
41
1
10
67.3767761425179
20
-0.797490364665919
30
0
41
1
10
67.4276283337271
20
-0.786186733811775
30
0
41
1
10
67.5308959625892
20
-0.770895782999048
30
0
41
1
10
67.5837276915629
20
-0.766917521873921
30
0
41
1
10
67.7414505118217
20
-0.766560342356229
30
0
41
1
10
67.844638404878
20
-0.781247010935004
30
0
41
1
10
68.0470470022751
20
-0.840721016367525
30
0
41
1
10
68.141922981741
20
-0.884338833120438
30
0
41
1
10
68.2736366715025
20
-0.969258893718347
30
0
41
1
10
68.3158790237453
20
-1.00102278759718
30
0
41
1
10
68.3942310834163
20
-1.06914107122225
30
0
41
1
10
68.4307136298833
20
-1.10570716427603
30
0
41
1
10
68.4983773117863
20
-1.18371348737438
30
0
41
1
10
68.5297662961232
20
-1.2255021048214
30
0
41
1
10
68.5858541892099
20
-1.31214518798231
30
0
41
1
10
68.6105631134574
20
-1.35688428233615
30
0
41
1
10
68.6751572741491
20
-1.49505506169967
30
0
41
1
10
68.705614208396
20
-1.59361954569994
30
0
41
1
10
68.7308208708982
20
-1.74124884277802
30
0
41
1
10
68.7359504616153
20
-1.79065281973726
30
0
41
1
10
68.7398271945584
20
-1.88980824946529
30
0
41
1
10
68.7385216440635
20
-1.93978516990751
30
0
41
1
10
68.7253110283498
20
-2.08660168648208
30
0
41
1
10
68.7044267355109
20
-2.18141444923171
30
0
41
1
10
68.6390338383915
20
-2.36524712643379
30
0
41
1
10
68.5952892124253
20
-2.45196185147375
30
0
41
1
10
68.5405674380628
20
-2.53289465036411
30
0
0
SPLINE
5
19C
100
AcDbEntity
8
1
62
256
6
ByLayer
370
18
48
1
60
0
100
AcDbSpline
70
4
71
3
72
22
73
18
40
0
40
0
40
0
40
0
40
0.0624999999999978
40
0.0624999999999978
40
0.124999999999996
40
0.124999999999996
40
0.187499999999993
40
0.187499999999993
40
0.249999999999991
40
0.249999999999991
40
0.374999999999991
40
0.374999999999991
40
0.499999999999991
40
0.499999999999991
40
0.749999999999995
40
0.749999999999995
40
1
40
1
40
1
40
1
41
1
10
62.4507767619217
20
2.4123677927214
30
0
41
1
10
62.4213875607206
20
2.40064665569557
30
0
41
1
10
62.3930014310073
20
2.38706816268527
30
0
41
1
10
62.3389158154702
20
2.35493002534491
30
0
41
1
10
62.3129175565932
20
2.33605687935358
30
0
41
1
10
62.2671069843259
20
2.29345000753881
30
0
41
1
10
62.2468169989193
20
2.2691913787317
30
0
41
1
10
62.214832076945
20
2.21736476713559
30
0
41
1
10
62.2030237143254
20
2.18980895885716
30
0
41
1
10
62.1799754632764
20
2.10508380208839
30
0
41
1
10
62.1814596222865
20
2.04831052498241
30
0
41
1
10
62.2025174214874
20
1.94316936616616
30
0
41
1
10
62.2222449134217
20
1.8933984258465
30
0
41
1
10
62.2949724507374
20
1.75570960039826
30
0
41
1
10
62.3626114373255
20
1.67558919497122
30
0
41
1
10
62.5123503108862
20
1.53300134758592
30
0
41
1
10
62.5954576695029
20
1.470023150685
30
0
41
1
10
62.684372134249
20
1.41240230815512
30
0
0
SPLINE
5
19D
100
AcDbEntity
8
1
62
256
6
ByLayer
370
18
48
1
60
0
100
AcDbSpline
70
4
71
3
72
8
73
4
40
0
40
0
40
0
40
0
40
1
40
1
40
1
40
1
41
1
10
24.8258819045103
20
8.02154487546673
30
0
41
1
10
24.7794626754954
20
7.97781152310873
30
0
41
1
10
24.7374261016109
20
7.92865841464985
30
0
41
1
10
24.7
20
7.87364940902384
30
0
0
SPLINE
5
19E
100
AcDbEntity
8
1
62
256
6
ByLayer
370
18
48
1
60
0
100
AcDbSpline
70
4
71
3
72
8
73
4
40
0
40
0
40
0
40
0
40
1
40
1
40
1
40
1
41
1
10
32
20
3.09528547240242
30
0
41
1
10
32.0128897735421
20
3.08721630464819
30
0
41
1
10
32.0257577420148
20
3.07910936988398
30
0
41
1
10
32.0386039630817
20
3.07096499786388
30
0
0
SPLINE
5
19F
100
AcDbEntity
8
1
62
256
6
ByLayer
370
18
48
1
60
0
100
AcDbSpline
70
4
71
3
72
22
73
18
40
0
40
0
40
0
40
0
40
0.125
40
0.125
40
0.249999999999999
40
0.249999999999999
40
0.374999999999999
40
0.374999999999999
40
0.499999999999998
40
0.499999999999998
40
0.624999999999999
40
0.624999999999999
40
0.749999999999999
40
0.749999999999999
40
0.875
40
0.875
40
1
40
1
40
1
40
1
41
1
10
30.5344345854463
20
-3.73363078004104
30
0
41
1
10
30.5873142184313
20
-3.71377050706738
30
0
41
1
10
30.6509967797392
20
-3.64665451392804
30
0
41
1
10
30.7938983382833
20
-3.42430773957025
30
0
41
1
10
30.8730951716766
20
-3.26911144404298
30
0
41
1
10
31.0394329007183
20
-2.88546439505552
30
0
41
1
10
31.1265479976046
20
-2.65707314474616
30
0
41
1
10
31.3003679408438
20
-2.14892257367234
30
0
41
1
10
31.3870458279531
20
-1.8692420663906
30
0
41
1
10
31.5516763872234
20
-1.28532623634987
30
0
41
1
10
31.629603525402
20
-0.981181478165212
30
0
41
1
10
31.7692544842361
20
-0.377505528154018
30
0
41
1
10
31.8309566452122
20
-0.0780679656703285
30
0
41
1
10
31.9322336564147
20
0.487467712251657
30
0
41
1
10
31.9717927987103
20
0.753478113852935
30
0
41
1
10
32.0249820768385
20
1.22663127684865
30
0
41
1
10
32.0386039630843
20
1.43370065281215
30
0
41
1
10
32.0386039630843
20
1.60139519908668
30
0
0
SPLINE
5
1A0
100
AcDbEntity
8
1
62
256
6
ByLayer
370
18
48
1
60
0
100
AcDbSpline
70
4
71
3
72
8
73
4
40
0
40
0
40
0
40
0
40
1
40
1
40
1
40
1
41
1
10
60.5591607727495
20
1.19069864782904
30
0
41
1
10
60.2377405726727
20
1.31374009487021
30
0
41
1
10
59.9150860854225
20
1.444194946083
30
0
41
1
10
59.5916333382169
20
1.57944432470401
30
0
0
SPLINE
5
1A1
100
AcDbEntity
8
1
62
256
6
ByLayer
370
18
48
1
60
0
100
AcDbSpline
70
4
71
3
72
28
73
24
40
0
40
0
40
0
40
0
40
0.125
40
0.125
40
0.25
40
0.25
40
0.375
40
0.375
40
0.5
40
0.5
40
0.625
40
0.625
40
0.75
40
0.75
40
0.8125
40
0.8125
40
0.875
40
0.875
40
0.9375
40
0.9375
40
0.96875
40
0.96875
40
1
40
1
40
1
40
1
41
1
10
28.0733013709274
20
-5.22892174241653
30
0
41
1
10
28.1453329839835
20
-5.2503086846209
30
0
41
1
10
28.2176469496331
20
-5.23272052226361
30
0
41
1
10
28.3633677579224
20
-5.15922366029426
30
0
41
1
10
28.4371396082134
20
-5.10271606891433
30
0
41
1
10
28.5888628014195
20
-4.97664418134269
30
0
41
1
10
28.667016896729
20
-4.90690712720149
30
0
41
1
10
28.8344732741122
20
-4.76906897331943
30
0
41
1
10
28.9237587846427
20
-4.70086151422564
30
0
41
1
10
29.1207739118862
20
-4.57550487460477
30
0
41
1
10
29.2284614374094
20
-4.51830081842928
30
0
41
1
10
29.4711476856738
20
-4.42137083644752
30
0
41
1
10
29.6031213865268
20
-4.38294136109764
30
0
41
1
10
29.8204625910125
20
-4.34157960067463
30
0
41
1
10
29.8961435623839
20
-4.33047963484429
30
0
41
1
10
30.0546077612854
20
-4.31364140277205
30
0
41
1
10
30.1378187772802
20
-4.30789173861044
30
0
41
1
10
30.3098106891308
20
-4.30172945462908
30
0
41
1
10
30.3983335043253
20
-4.3012906446088
30
0
41
1
10
30.5349931716972
20
-4.30417731128395
30
0
41
1
10
30.5813201070037
20
-4.30613906240691
30
0
41
1
10
30.6745668125829
20
-4.30887476041008
30
0
41
1
10
30.721419921578
20
-4.30945305085388
30
0
41
1
10
30.7688888634346
20
-4.31045195299004
30
0
0
SPLINE
5
1A2
100
AcDbEntity
8
1
62
256
6
ByLayer
370
18
48
1
60
0
100
AcDbSpline
70
4
71
3
72
14
73
10
40
0
40
0
40
0
40
0
40
0.25
40
0.25
40
0.5
40
0.5
40
0.75
40
0.75
40
1
40
1
40
1
40
1
41
1
10
9.07679491924313
20
5.85988980456935
30
0
41
1
10
9.11436698667106
20
5.85988980456932
30
0
41
1
10
9.14968727595806
20
5.87477627667431
30
0
41
1
10
9.20863486580112
20
5.91854200832057
30
0
41
1
10
9.2321352823152
20
5.9461298781217
30
0
41
1
10
9.27225845989852
20
6.00566371121198
30
0
41
1
10
9.28838045037787
20
6.0371275598302
30
0
41
1
10
9.31588453947563
20
6.1020672817173
30
0
41
1
10
9.32720842156817
20
6.13567510453109
30
0
41
1
10
9.33660254037846
20
6.16973001948563
30
0
0
SPLINE
5
1A3
100
AcDbEntity
8
1
62
256
6
ByLayer
370
18
48
1
60
0
100
AcDbSpline
70
4
71
3
72
11
73
7
40
0
40
0
40
0
40
0
40
0.0084271749961001
40
0.529387158418396
40
0.934578256635736
40
1
40
1
40
1
40
1
41
1
10
65.7583673115699
20
1.47904868374016
30
0
41
1
10
65.7582696127419
20
1.47904778722955
30
0
41
1
10
65.7521322883412
20
1.47899066592026
30
0
41
1
10
65.7413001151099
20
1.47879983002221
30
0
41
1
10
65.7298225454122
20
1.47822436728066
30
0
41
1
10
65.7243777930587
20
1.47788868302302
30
0
41
1
10
65.7236209396306
20
1.47784099923783
30
0
0
SPLINE
5
1A4
100
AcDbEntity
8
1
62
256
6
ByLayer
370
18
48
1
60
0
100
AcDbSpline
70
4
71
3
72
8
73
4
40
0
40
0
40
0
40
0
40
1
40
1
40
1
40
1
41
1
10
65.171469821828
20
0.97920797769649
30
0
41
1
10
65.1711614999921
20
0.979213571774267
30
0
41
1
10
65.1708531829998
20
0.97921954985992
30
0
41
1
10
65.1705448722792
20
0.979225911901892
30
0
0
SPLINE
5
1A5
100
AcDbEntity
8
1
62
256
6
ByLayer
370
18
48
1
60
0
100
AcDbSpline
70
4
71
3
72
11
73
7
40
0
40
0
40
0
40
0
40
0.000163003932472
40
0.429771567357941
40
0.859380130783411
40
1
40
1
40
1
40
1
41
1
10
66.6171438144191
20
1.15360952979117
30
0
41
1
10
66.6171537941201
20
1.15361018214665
30
0
41
1
10
66.637829003988
20
1.15496163273175
30
0
41
1
10
66.6791961353989
20
1.15736190805774
30
0
41
1
10
66.727393627218
20
1.15858139459621
30
0
41
1
10
66.7548835729881
20
1.15874319166997
30
0
41
1
10
66.7616627599013
20
1.15876303660013
30
0
0
SPLINE
5
1A6
100
AcDbEntity
8
1
62
256
6
ByLayer
370
18
48
1
60
0
100
AcDbSpline
70
4
71
3
72
27
73
23
40
0
40
0
40
0
40
0
40
0.0625
40
0.125
40
0.140625
40
0.15625
40
0.1875
40
0.25
40
0.3125
40
0.375
40
0.4375
40
0.46875
40
0.5
40
0.5625
40
0.625
40
0.6875
40
0.71875
40
0.75
40
0.78125
40
0.8125
40
0.875
40
1
40
1
40
1
40
1
41
1
10
65.9698263913025
20
5.79934910411606
30
0
41
1
10
65.95793176638
20
5.79934910411606
30
0
41
1
10
65.934142516535
20
5.79934910411606
30
0
41
1
10
65.9073796104594
20
5.79934910411606
30
0
41
1
10
65.8895376730757
20
5.79934910411606
30
0
41
1
10
65.8776430481532
20
5.79934910411606
30
0
41
1
10
65.8568274545389
20
5.79934910411606
30
0
41
1
10
65.8270908922327
20
5.79934910411606
30
0
41
1
10
65.7914070174652
20
5.79934910411606
30
0
41
1
10
65.7557231426977
20
5.79934910411606
30
0
41
1
10
65.7259865803915
20
5.79934910411606
30
0
41
1
10
65.7021973305465
20
5.79934910411606
30
0
41
1
10
65.6784080807016
20
5.79934910411606
30
0
41
1
10
65.6486715183954
20
5.79934910411606
30
0
41
1
10
65.6129876436279
20
5.79934910411606
30
0
41
1
10
65.5832510813217
20
5.79934910411606
30
0
41
1
10
65.5594618314767
20
5.79934910411606
30
0
41
1
10
65.541619894093
20
5.79934910411606
30
0
41
1
10
65.5237779567093
20
5.79934910411606
30
0
41
1
10
65.4999887068643
20
5.79934910411606
30
0
41
1
10
65.4583575196356
20
5.79934910411606
30
0
41
1
10
65.4226736448682
20
5.79934910411606
30
0
41
1
10
65.3988843950232
20
5.79934910411606
30
0
0
SPLINE
5
1A7
100
AcDbEntity
8
1
62
256
6
ByLayer
370
18
48
1
60
0
100
AcDbSpline
70
4
71
3
72
18
73
14
40
0
40
0
40
0
40
0
40
0.0103342694142148
40
0.021454109083718
40
0.0659334677617309
40
0.110412826439744
40
0.121532666109247
40
0.13265250577875
40
0.154892185117756
40
0.199371543795769
40
0.288330261151795
40
0.644165130575897
40
1
40
1
40
1
40
1
41
1
10
64.5847342503686
20
2.79974819524006
30
0
41
1
10
64.5856752109086
20
2.79465033031036
30
0
41
1
10
64.5877477727049
20
2.78407200988715
30
0
41
1
10
64.5941211148333
20
2.75145501337622
30
0
41
1
10
64.6037175218516
20
2.70199009792654
30
0
41
1
10
64.6132622918295
20
2.65255744625367
30
0
41
1
10
64.6196338007283
20
2.61960035416007
30
0
41
1
10
64.623883227246
20
2.59763054188588
30
0
41
1
10
64.63132540245
20
2.55917348060191
30
0
41
1
10
64.6462278564781
20
2.48223647834826
30
0
41
1
10
64.6931304408756
20
2.24035460660645
30
0
41
1
10
64.7697381313265
20
1.84461712246636
30
0
41
1
10
64.8378620823777
20
1.49283304889985
30
0
41
1
10
64.8719201878
20
1.31695333468008
30
0
0
SPLINE
5
1A8
100
AcDbEntity
8
1
62
256
6
ByLayer
370
18
48
1
60
0
100
AcDbSpline
70
4
71
1
72
4
73
2
40
0
40
0
40
1
40
1
41
1
10
67.7230473919423
20
5.47904467996338
30
0
41
1
10
66.7268526938506
20
5.47904467996338
30
0
0
SPLINE
5
1A9
100
AcDbEntity
8
1
62
256
6
ByLayer
370
18
48
1
60
0
100
AcDbSpline
70
4
71
3
72
11
73
7
40
0
40
0
40
0
40
0
40
0.25
40
0.5
40
0.75
40
1
40
1
40
1
40
1
41
1
10
69.5716552841265
20
1.57444917765164
30
0
41
1
10
69.5665440805361
20
1.54386746680984
30
0
41
1
10
69.555798552811
20
1.47983248729795
30
0
41
1
10
69.5384360857911
20
1.3770751179575
30
0
41
1
10
69.52015462954
20
1.2695226219567
30
0
41
1
10
69.5075536907826
20
1.19580642899521
30
0
41
1
10
69.5011997356474
20
1.1587402558107
30
0
0
SPLINE
5
1AA
100
AcDbEntity
8
1
62
256
6
ByLayer
370
18
48
1
60
0
100
AcDbSpline
70
4
71
3
72
8
73
4
40
0
40
0
40
0
40
0
40
1
40
1
40
1
40
1
41
1
10
65.1306353443144
20
0.982232144756722
30
0
41
1
10
65.1303295453673
20
0.9822720320239
30
0
41
1
10
65.1300237934566
20
0.982312283070797
30
0
41
1
10
65.1297180898705
20
0.982352897729584
30
0
0
SPLINE
5
1AB
100
AcDbEntity
8
1
62
256
6
ByLayer
370
18
48
1
60
0
100
AcDbSpline
70
4
71
3
72
8
73
4
40
0
40
0
40
0
40
0
40
1
40
1
40
1
40
1
41
1
10
70.3007716784232
20
5.97888138223027
30
0
41
1
10
70.3010800002592
20
5.97887578815249
30
0
41
1
10
70.3013883135862
20
5.97886981006684
30
0
41
1
10
70.301696616977
20
5.97886344802487
30
0
0
SPLINE
5
1AC
100
AcDbEntity
8
1
62
256
6
ByLayer
370
18
48
1
60
0
100
AcDbSpline
70
4
71
3
72
18
73
14
40
0
40
0
40
0
40
0
40
0.409045703814912
40
0.818091407629825
40
0.920352833583553
40
0.945918190071985
40
0.958700868316201
40
0.965092207438309
40
0.971483546560417
40
0.984266224804633
40
0.995451068268322
40
0.997048903048849
40
1
40
1
40
1
40
1
41
1
10
70.3862899219761
20
1.41792771457614
30
0
41
1
10
70.4543822936758
20
1.76971730582076
30
0
41
1
10
70.5905820583827
20
2.47332811125349
30
0
41
1
10
70.7438521602425
20
3.26485104432445
30
0
41
1
10
70.8331951700724
20
3.7266439631114
30
0
41
1
10
70.8566464237341
20
3.84750850796945
30
0
41
1
10
70.864096535534
20
3.88597170607051
30
0
41
1
10
70.8683480842911
20
3.90795427120665
30
0
41
1
10
70.8725948621071
20
3.92994295617058
30
0
41
1
10
70.8776281327521
20
3.95606848832543
30
0
41
1
10
70.8818931894111
20
3.97803454015315
30
0
41
1
10
70.8845373759052
20
3.99152656466737
30
0
41
1
10
70.8853040374381
20
3.99542340153082
30
0
41
1
10
70.8857905315456
20
3.99795310916485
30
0
0
SPLINE
5
1AD
100
AcDbEntity
8
1
62
256
6
ByLayer
370
18
48
1
60
0
100
AcDbSpline
70
4
71
3
72
32
73
28
40
0
40
0
40
0
40
0
40
0.125
40
0.15625
40
0.1875
40
0.203125
40
0.21875
40
0.25
40
0.28125
40
0.3125
40
0.34375
40
0.359375
40
0.375
40
0.4375
40
0.46875
40
0.5
40
0.53125
40
0.546875
40
0.5625
40
0.625
40
0.6875
40
0.75
40
0.8125
40
0.84375
40
0.859375
40
0.875
40
1
40
1
40
1
40
1
41
1
10
70.5991059391499
20
5.64113602524668
30
0
41
1
10
70.5649126411053
20
5.63435760765228
30
0
41
1
10
70.5221710185493
20
5.62588458565929
30
0
41
1
10
70.4708810714823
20
5.61571695926767
30
0
41
1
10
70.4495128593482
20
5.61148036101091
30
0
41
1
10
70.4324084128942
20
5.60809141399452
30
0
41
1
10
70.4152138892867
20
5.60469236657491
30
0
41
1
10
70.3934369129913
20
5.60040504996607
30
0
41
1
10
70.3670643868083
20
5.59523715525913
30
0
41
1
10
70.3405572209265
20
5.59006856795432
30
0
41
1
10
70.3184776637329
20
5.58578605435108
30
0
41
1
10
70.3007682607694
20
5.58235714192065
30
0
41
1
10
70.2741984702619
20
5.57721380522736
30
0
41
1
10
70.2432137533136
20
5.57121439898339
30
0
41
1
10
70.2077997828062
20
5.56435768758351
30
0
41
1
10
70.1812327674758
20
5.5592139345141
30
0
41
1
10
70.1591217233212
20
5.55493306936268
30
0
41
1
10
70.1413618706514
20
5.55149425282258
30
0
41
1
10
70.1151005372511
20
5.546412088155
30
0
41
1
10
70.0753781494367
20
5.53877374642579
30
0
41
1
10
70.0228027072115
20
5.52876352729578
30
0
41
1
10
69.9715258935842
20
5.51910156624703
30
0
41
1
10
69.9306160546264
20
5.51148095493565
30
0
41
1
10
69.9033298337938
20
5.50644390741775
30
0
41
1
10
69.8880974080234
20
5.50364676979424
30
0
41
1
10
69.8496726851955
20
5.49658927607092
30
0
41
1
10
69.8151702981838
20
5.49025277390592
30
0
41
1
10
69.7844713013003
20
5.48461456217117
30
0
0
SPLINE
5
1AE
100
AcDbEntity
8
1
62
256
6
ByLayer
370
18
48
1
60
0
100
AcDbSpline
70
4
71
3
72
14
73
10
40
0
40
0
40
0
40
0
40
0.401869826261841
40
0.803739652523681
40
0.904207109089141
40
0.954440837371871
40
0.979557701513236
40
0.992116133583919
40
1
40
1
40
1
40
1
41
1
10
65.6616234825843
20
1.47347479775559
30
0
41
1
10
65.6301127846702
20
1.63620251334257
30
0
41
1
10
65.5670913888418
20
1.96165794451656
30
0
41
1
10
65.4961820025976
20
2.32779873256692
30
0
41
1
10
65.4528728458561
20
2.55154334253467
30
0
41
1
10
65.439067573136
20
2.62274314556578
30
0
41
1
10
65.4322050722199
20
2.65832971009809
30
0
41
1
10
65.4285893510922
20
2.67679224697761
30
0
41
1
10
65.4269887274291
20
2.68504857592941
30
0
41
1
10
65.4263815881595
20
2.68823283591979
30
0
0
SPLINE
5
1AF
100
AcDbEntity
8
1
62
256
6
ByLayer
370
18
48
1
60
0
100
AcDbSpline
70
4
71
3
72
9
73
5
40
0
40
0
40
0
40
0
40
0.5
40
1
40
1
40
1
40
1
41
1
10
67.735513063475
20
1.15874025581073
30
0
41
1
10
67.7350689594039
20
1.21698234750465
30
0
41
1
10
67.7324479006111
20
1.3351218152097
30
0
41
1
10
67.7265306513179
20
1.43637348479947
30
0
41
1
10
67.7230473919423
20
1.47904467996338
30
0
0
SPLINE
5
1B0
100
AcDbEntity
8
1
62
256
6
ByLayer
370
18
48
1
60
0
100
AcDbSpline
70
4
71
3
72
8
73
4
40
0
40
0
40
0
40
0
40
1
40
1
40
1
40
1
41
1
10
66.7622705175777
20
1.07904446796843
30
0
41
1
10
66.7161954226909
20
1.0790229923054
30
0
41
1
10
66.6701764436344
20
1.07739909767866
30
0
41
1
10
66.6242135804083
20
1.07417278408823
30
0
0
SPLINE
5
1B1
100
AcDbEntity
8
1
62
256
6
ByLayer
370
18
48
1
60
0
100
AcDbSpline
70
4
71
3
72
11
73
7
40
0
40
0
40
0
40
0
40
0.25
40
0.5
40
0.75
40
1
40
1
40
1
40
1
41
1
10
70.0721417319267
20
1.1587402558107
30
0
41
1
10
70.1088115376324
20
1.15867153776554
30
0
41
1
10
70.1821811868845
20
1.17134755675804
30
0
41
1
10
70.2794059175984
20
1.22657170310328
30
0
41
1
10
70.3523582522028
20
1.31152830884042
30
0
41
1
10
70.3790944386482
20
1.38132796461636
30
0
41
1
10
70.3862016612185
20
1.41747191789702
30
0
0
SPLINE
5
1B2
100
AcDbEntity
8
1
62
256
6
ByLayer
370
18
48
1
60
0
100
AcDbSpline
70
4
71
1
72
4
73
2
40
0
40
0
40
1
40
1
41
1
10
65.7583673480239
20
1.47904467996338
30
0
41
1
10
67.7230473919423
20
1.47904467996338
30
0
0
SPLINE
5
1B3
100
AcDbEntity
8
1
62
256
6
ByLayer
370
18
48
1
60
0
100
AcDbSpline
70
4
71
3
72
8
73
4
40
0
40
0
40
0
40
0
40
1
40
1
40
1
40
1
41
1
10
64.794770726754
20
1.30083508941871
30
0
41
1
10
64.7947118852349
20
1.3011389591064
30
0
41
1
10
64.7946530522859
20
1.3014428299422
30
0
41
1
10
64.7945942279085
20
1.3017467019167
30
0
0
SPLINE
5
1B4
100
AcDbEntity
8
1
62
256
6
ByLayer
370
18
48
1
60
0
100
AcDbSpline
70
4
71
3
72
8
73
4
40
0
40
0
40
0
40
0
40
1
40
1
40
1
40
1
41
1
10
64.5078159572908
20
2.97536077100992
30
0
41
1
10
64.5077571028967
20
2.97505690747738
30
0
41
1
10
64.5076982553576
20
2.97475304302262
30
0
41
1
10
64.5076394146747
20
2.97444917765165
30
0
0
SPLINE
5
1B5
100
AcDbEntity
8
1
62
256
6
ByLayer
370
18
48
1
60
0
100
AcDbSpline
70
4
71
3
72
18
73
14
40
0
40
0
40
0
40
0
40
0.156501894804184
40
0.156501894804184
40
0.313003789608361
40
0.313003789608361
40
0.469505684412536
40
0.469505684412536
40
0.626007579216708
40
0.626007579216708
40
0.782509474020886
40
0.782509474020886
40
1
40
1
40
1
40
1
41
1
10
64.5074637370227
20
2.78455193743474
30
0
41
1
10
64.505587460973
20
2.79433842051191
30
0
41
1
10
64.5040020924844
20
2.80418563668354
30
0
41
1
10
64.5014216679316
20
2.82394875583304
30
0
41
1
10
64.5004254593156
20
2.83387348604677
30
0
41
1
10
64.4990263889112
20
2.8537560929075
30
0
41
1
10
64.4986229022252
20
2.86372285015978
30
0
41
1
10
64.4984101885049
20
2.88365385220584
30
0
41
1
10
64.4986008664615
20
2.89362699922071
30
0
41
1
10
64.4995752700073
20
2.91353513088376
30
0
41
1
10
64.5003594308158
20
2.92347900753791
30
0
41
1
10
64.5029373361564
20
2.94714812107716
30
0
41
1
10
64.5050078915991
20
2.9608594520262
30
0
41
1
10
64.5076394146747
20
2.97444917765165
30
0
0
SPLINE
5
1B6
100
AcDbEntity
8
1
62
256
6
ByLayer
370
18
48
1
60
0
100
AcDbSpline
70
4
71
3
72
8
73
4
40
0
40
0
40
0
40
0
40
1
40
1
40
1
40
1
41
1
10
70.2996965068181
20
5.9789003070523
30
0
41
1
10
70.3000549006927
20
5.97889419294944
30
0
41
1
10
70.3004132913322
20
5.97888788467358
30
0
41
1
10
70.3007716784232
20
5.97888138223027
30
0
0
SPLINE
5
1B7
100
AcDbEntity
8
1
62
256
6
ByLayer
370
18
48
1
60
0
100
AcDbSpline
70
4
71
3
72
32
73
28
40
0
40
0
40
0
40
0
40
0.125
40
0.15625
40
0.1875
40
0.203125
40
0.21875
40
0.25
40
0.28125
40
0.3125
40
0.34375
40
0.359375
40
0.375
40
0.4375
40
0.46875
40
0.5
40
0.53125
40
0.546875
40
0.5625
40
0.625
40
0.6875
40
0.75
40
0.8125
40
0.84375
40
0.859375
40
0.875
40
1
40
1
40
1
40
1
41
1
10
64.8719201878
20
1.31695333468008
30
0
41
1
10
64.9072053641846
20
1.32373175227448
30
0
41
1
10
64.9513118346653
20
1.33220477426749
30
0
41
1
10
65.0042395992422
20
1.34237240065909
30
0
41
1
10
65.0262963280402
20
1.34660899891585
30
0
41
1
10
65.0439284355595
20
1.34999794593225
30
0
41
1
10
65.0615739946023
20
1.35339699335185
30
0
41
1
10
65.0837418200589
20
1.35768430996069
30
0
41
1
10
65.1103399813925
20
1.36285220466763
30
0
41
1
10
65.1368106021242
20
1.36802079197244
30
0
41
1
10
65.1586266160919
20
1.37230330557568
30
0
41
1
10
65.1760634107918
20
1.37573221800611
30
0
41
1
10
65.2022125892692
20
1.38087555469943
30
0
41
1
10
65.2327215155655
20
1.38687496094337
30
0
41
1
10
65.2675885274599
20
1.39373167234325
30
0
41
1
10
65.2937447489509
20
1.39887542541265
30
0
41
1
10
65.315512379401
20
1.40315629056408
30
0
41
1
10
65.3330002410717
20
1.40659510710418
30
0
41
1
10
65.3588308661536
20
1.41167727177176
30
0
41
1
10
65.3974011363413
20
1.41931561350097
30
0
41
1
10
65.4474299884328
20
1.42932583263098
30
0
41
1
10
65.4951878395061
20
1.43898779367973
30
0
41
1
10
65.5323889225681
20
1.44660840499111
30
0
41
1
10
65.5567322114698
20
1.45164545250904
30
0
41
1
10
65.5701703201041
20
1.45444259013252
30
0
41
1
10
65.604084589432
20
1.46150008385584
30
0
41
1
10
65.634531063642
20
1.46783658602084
30
0
41
1
10
65.6616234825843
20
1.47347479775559
30
0
0
SPLINE
5
1B8
100
AcDbEntity
8
1
62
256
6
ByLayer
370
18
48
1
60
0
100
AcDbSpline
70
4
71
2
72
6
73
3
40
0
40
0
40
0
40
1
40
1
40
1
41
1
10
66.7268527643351
20
5.47902961178565
30
0
41
1
10
66.6979936410989
20
5.47887893987178
30
0
41
1
10
66.6697626802041
20
5.4757648876477
30
0
0
SPLINE
5
1B9
100
AcDbEntity
8
1
62
256
6
ByLayer
370
18
48
1
60
0
100
AcDbSpline
70
4
71
3
72
11
73
7
40
0
40
0
40
0
40
0
40
0.25
40
0.5
40
0.75
40
1
40
1
40
1
40
1
41
1
10
65.8744394997582
20
5.38364018227512
30
0
41
1
10
65.8832024851304
20
5.41422189311692
30
0
41
1
10
65.9005021925141
20
5.47825687262883
30
0
41
1
10
65.9253714887717
20
5.58101424196926
30
0
41
1
10
65.9487590454755
20
5.68856673797006
30
0
41
1
10
65.9630671662101
20
5.76228293093155
30
0
41
1
10
65.9698263913025
20
5.79934910411606
30
0
0
SPLINE
5
1BA
100
AcDbEntity
8
1
62
256
6
ByLayer
370
18
48
1
60
0
100
AcDbSpline
70
4
71
3
72
11
73
7
40
0
40
0
40
0
40
0
40
0.25
40
0.5
40
0.75
40
1
40
1
40
1
40
1
41
1
10
65.3988843950232
20
5.79934910411606
30
0
41
1
10
65.3622145893175
20
5.79941782216125
30
0
41
1
10
65.2888449400654
20
5.78674180316872
30
0
41
1
10
65.1916202093516
20
5.73151765682348
30
0
41
1
10
65.1186678747471
20
5.64656105108634
30
0
41
1
10
65.0919316883018
20
5.5767613953104
30
0
41
1
10
65.0848244657315
20
5.54061744202974
30
0
0
SPLINE
5
1BB
100
AcDbEntity
8
1
62
256
6
ByLayer
370
18
48
1
60
0
100
AcDbSpline
70
4
71
3
72
13
73
9
40
0
40
0
40
0
40
0
40
0.0429204910534079
40
0.106725791649847
40
0.234336392842726
40
0.489557595228484
40
0.744778797614242
40
1
40
1
40
1
40
1
41
1
10
68.7093633670486
20
5.79932632332662
30
0
41
1
10
68.6954314214087
20
5.79928553989765
30
0
41
1
10
68.6607873754073
20
5.79939474268883
30
0
41
1
10
68.584717271028
20
5.79932309195843
30
0
41
1
10
68.4397314401783
20
5.79936644555445
30
0
41
1
10
68.2326082708653
20
5.79934332363658
30
0
41
1
10
67.9840606859891
20
5.79934910411603
30
0
41
1
10
67.8183622709797
20
5.79934910411603
30
0
41
1
10
67.735513063475
20
5.79934910411603
30
0
0
SPLINE
5
1BC
100
AcDbEntity
8
1
62
256
6
ByLayer
370
18
48
1
60
0
100
AcDbSpline
70
4
71
3
72
18
73
14
40
0
40
0
40
0
40
0
40
0.0103342694142126
40
0.0214541090837159
40
0.0659334677617288
40
0.110412826439742
40
0.121532666109245
40
0.132652505778748
40
0.154892185117755
40
0.199371543795767
40
0.288330261151793
40
0.644165130575897
40
1
40
1
40
1
40
1
41
1
10
70.886292457971
20
4.1583411646867
30
0
41
1
10
70.8853515530776
20
4.1634390296164
30
0
41
1
10
70.8832790598558
20
4.17401735003961
30
0
41
1
10
70.8769057947349
20
4.20663434655057
30
0
41
1
10
70.8673095089299
20
4.25609926200022
30
0
41
1
10
70.8577648622136
20
4.30553191367309
30
0
41
1
10
70.8513933448958
20
4.33848900576669
30
0
41
1
10
70.8471438420679
20
4.36045881804088
30
0
41
1
10
70.8397015639809
20
4.39891587932485
30
0
41
1
10
70.8247989720554
20
4.4758528815785
30
0
41
1
10
70.7778961123998
20
4.71773475332034
30
0
41
1
10
70.7012881447019
20
5.1134722374604
30
0
41
1
10
70.6331640642179
20
5.46525631102693
30
0
41
1
10
70.5991059391499
20
5.64113602524668
30
0
0
SPLINE
5
1BD
100
AcDbEntity
8
1
62
256
6
ByLayer
370
18
48
1
60
0
100
AcDbSpline
70
4
71
2
72
6
73
3
40
0
40
0
40
0
40
1
40
1
40
1
41
1
10
70.0196983688272
20
3.88823568458682
30
0
41
1
10
70.0565382594125
20
4.07904467996337
30
0
41
1
10
70.0196983688272
20
4.26985367533993
30
0
0
SPLINE
5
1BE
100
AcDbEntity
8
1
62
256
6
ByLayer
370
18
48
1
60
0
100
AcDbSpline
70
4
71
3
72
14
73
10
40
0
40
0
40
0
40
0
40
0.0278688906942125
40
0.280125361774677
40
0.532381832855142
40
0.658510068395375
40
0.784638303935607
40
0.91076653947584
40
1
40
1
40
1
40
1
41
1
10
65.1732137606444
20
1.05891289520869
30
0
41
1
10
65.1746205627379
20
1.05887231908741
30
0
41
1
10
65.1887625583738
20
1.05851336567824
30
0
41
1
10
65.2156384223532
20
1.05856521740918
30
0
41
1
10
65.2474734548817
20
1.05915627697982
30
0
41
1
10
65.2729288674421
20
1.06001752990866
30
0
41
1
10
65.2920111452686
20
1.06087532789004
30
0
41
1
10
65.309221725346
20
1.06185662038126
30
0
41
1
10
65.3200713318566
20
1.06255558009667
30
0
41
1
10
65.3245662457082
20
1.06285512471214
30
0
0
SPLINE
5
1BF
100
AcDbEntity
8
1
62
256
6
ByLayer
370
18
48
1
60
0
100
AcDbSpline
70
4
71
3
72
27
73
23
40
0
40
0
40
0
40
0
40
0.0625
40
0.125
40
0.140625
40
0.15625
40
0.1875
40
0.25
40
0.3125
40
0.375
40
0.4375
40
0.46875
40
0.5
40
0.5625
40
0.625
40
0.6875
40
0.71875
40
0.75
40
0.78125
40
0.8125
40
0.875
40
1
40
1
40
1
40
1
41
1
10
69.5011997356474
20
1.1587402558107
30
0
41
1
10
69.5130943605699
20
1.1587402558107
30
0
41
1
10
69.5368836104149
20
1.1587402558107
30
0
41
1
10
69.5636465164905
20
1.1587402558107
30
0
41
1
10
69.5814884538742
20
1.1587402558107
30
0
41
1
10
69.5933830787967
20
1.1587402558107
30
0
41
1
10
69.6141986724111
20
1.1587402558107
30
0
41
1
10
69.6439352347173
20
1.1587402558107
30
0
41
1
10
69.6796191094847
20
1.1587402558107
30
0
41
1
10
69.7153029842522
20
1.1587402558107
30
0
41
1
10
69.7450395465584
20
1.1587402558107
30
0
41
1
10
69.7688287964034
20
1.1587402558107
30
0
41
1
10
69.7926180462483
20
1.1587402558107
30
0
41
1
10
69.8223546085546
20
1.1587402558107
30
0
41
1
10
69.858038483322
20
1.1587402558107
30
0
41
1
10
69.8877750456282
20
1.1587402558107
30
0
41
1
10
69.9115642954732
20
1.1587402558107
30
0
41
1
10
69.9294062328569
20
1.1587402558107
30
0
41
1
10
69.9472481702406
20
1.1587402558107
30
0
41
1
10
69.9710374200856
20
1.1587402558107
30
0
41
1
10
70.0126686073143
20
1.1587402558107
30
0
41
1
10
70.0483524820818
20
1.1587402558107
30
0
41
1
10
70.0721417319267
20
1.1587402558107
30
0
0
SPLINE
5
1C0
100
AcDbEntity
8
1
62
256
6
ByLayer
370
18
48
1
60
0
100
AcDbSpline
70
4
71
3
72
8
73
4
40
0
40
0
40
0
40
0
40
1
40
1
40
1
40
1
41
1
10
70.9644255494181
20
3.98272858891687
30
0
41
1
10
70.9644843951909
20
3.98303245244938
30
0
41
1
10
70.9645432384194
20
3.98333631690414
30
0
41
1
10
70.9646020791022
20
3.98364018227511
30
0
0
SPLINE
5
1C1
100
AcDbEntity
8
1
62
256
6
ByLayer
370
18
48
1
60
0
100
AcDbSpline
70
4
71
1
72
4
73
2
40
0
40
0
40
1
40
1
41
1
10
66.6697626802041
20
5.4757648876477
30
0
41
1
10
65.8744394997582
20
5.38364018227512
30
0
0
SPLINE
5
1C2
100
AcDbEntity
8
1
62
256
6
ByLayer
370
18
48
1
60
0
100
AcDbSpline
70
4
71
3
72
8
73
4
40
0
40
0
40
0
40
0
40
1
40
1
40
1
40
1
41
1
10
64.5074637370227
20
2.78455193743474
30
0
41
1
10
64.5075220289472
20
2.78424796549771
30
0
41
1
10
64.5075805952457
20
2.78394404685551
30
0
41
1
10
64.5076394357755
20
2.78364018227512
30
0
0
SPLINE
5
1C3
100
AcDbEntity
8
1
62
256
6
ByLayer
370
18
48
1
60
0
100
AcDbSpline
70
4
71
1
72
4
73
2
40
0
40
0
40
1
40
1
41
1
10
69.5011997356474
20
1.1587402558107
30
0
41
1
10
67.735513063475
20
1.1587402558107
30
0
0
SPLINE
5
1C4
100
AcDbEntity
8
1
62
256
6
ByLayer
370
18
48
1
60
0
100
AcDbSpline
70
4
71
3
72
10
73
6
40
0
40
0
40
0
40
0
40
0.45392136082516
40
0.90784272165032
40
1
40
1
40
1
40
1
41
1
10
70.5991059391499
20
5.64113602524668
30
0
41
1
10
70.5929289658918
20
5.67353643098275
30
0
41
1
10
70.5705236292831
20
5.73640053886098
30
0
41
1
10
70.526050792078
20
5.7948470690697
30
0
41
1
10
70.4966126043026
20
5.82137370871897
30
0
41
1
10
70.4915084360441
20
5.82568821809534
30
0
0
SPLINE
5
1C5
100
AcDbEntity
8
1
62
256
6
ByLayer
370
18
48
1
60
0
100
AcDbSpline
70
4
71
3
72
10
73
6
40
0
40
0
40
0
40
0
40
0.190146666341515
40
0.48169386645857
40
1
40
1
40
1
40
1
41
1
10
65.7236209396368
20
1.47784099923823
30
0
41
1
10
65.7196902036475
20
1.47759335238399
30
0
41
1
10
65.7097355069305
20
1.47689636753049
30
0
41
1
10
65.6890698318452
20
1.47543787181681
30
0
41
1
10
65.6723348449838
20
1.47422667028172
30
0
41
1
10
65.6616234825843
20
1.47347479775559
30
0
0
SPLINE
5
1C6
100
AcDbEntity
8
1
62
256
6
ByLayer
370
18
48
1
60
0
100
AcDbSpline
70
4
71
3
72
18
73
14
40
0
40
0
40
0
40
0
40
0.171643617771684
40
0.171643617771684
40
0.343287235543494
40
0.343287235543494
40
0.514930853315209
40
0.514930853315209
40
0.686574471086975
40
0.686574471086975
40
0.843273207856144
40
0.843273207856144
40
1
40
1
40
1
40
1
41
1
10
70.1415309819062
20
5.97471240103471
30
0
41
1
10
70.1505116458003
20
5.97533824179791
30
0
41
1
10
70.1594971190973
20
5.97589804289902
30
0
41
1
10
70.1774747902857
20
5.97688538546564
30
0
41
1
10
70.1864674707263
20
5.977312953433
30
0
41
1
10
70.204457624767
20
5.97803574501663
30
0
41
1
10
70.2134555812514
20
5.97833098803378
30
0
41
1
10
70.2314543549158
20
5.97878907342121
30
0
41
1
10
70.2404556552113
20
5.97895192808724
30
0
41
1
10
70.2576754433156
20
5.97913679489506
30
0
41
1
10
70.2658942390987
20
5.97916983964967
30
0
41
1
10
70.2823326392228
20
5.97912555303881
30
0
41
1
10
70.2905526113246
20
5.97904820091944
30
0
41
1
10
70.2987715160392
20
5.9789156523546
30
0
0
SPLINE
5
1C7
100
AcDbEntity
8
1
62
256
6
ByLayer
370
18
48
1
60
0
100
AcDbSpline
70
4
71
3
72
8
73
4
40
0
40
0
40
0
40
0
40
1
40
1
40
1
40
1
41
1
10
65.172544993433
20
0.97918905287446
30
0
41
1
10
65.1721865995584
20
0.97919516697732
30
0
41
1
10
65.171828208919
20
0.979201475253177
30
0
41
1
10
65.171469821828
20
0.97920797769649
30
0
0
SPLINE
5
1C8
100
AcDbEntity
8
1
62
256
6
ByLayer
370
18
48
1
60
0
100
AcDbSpline
70
4
71
1
72
4
73
2
40
0
40
0
40
1
40
1
41
1
10
68.7763321036806
20
1.48232447227906
30
0
41
1
10
69.5716552841265
20
1.57444917765164
30
0
0
SPLINE
5
1C9
100
AcDbEntity
8
1
62
256
6
ByLayer
370
18
48
1
60
0
100
AcDbSpline
70
4
71
3
72
11
73
7
40
0
40
0
40
0
40
0
40
0.0001630039326856
40
0.429771567358065
40
0.859380130783443
40
1
40
1
40
1
40
1
41
1
10
68.8538823125309
20
5.80447983013559
30
0
41
1
10
68.8538723328298
20
5.80447917778014
30
0
41
1
10
68.8331971229619
20
5.80312772719503
30
0
41
1
10
68.791829991551
20
5.80072745186905
30
0
41
1
10
68.7436324997319
20
5.79950796533055
30
0
41
1
10
68.7161425539618
20
5.79934616825679
30
0
41
1
10
68.7093633670486
20
5.79932632332662
30
0
0
SPLINE
5
1CA
100
AcDbEntity
8
1
62
256
6
ByLayer
370
18
48
1
60
0
100
AcDbSpline
70
4
71
3
72
19
73
15
40
0
40
0
40
0
40
0
40
0.0131218002037212
40
0.102838000185201
40
0.192554200166681
40
0.282270400148161
40
0.327128500138901
40
0.371986600129641
40
0.461702800111121
40
0.5514190000926
40
0.64113520007408
40
0.73085140005556
40
0.82056760003704
40
1
40
1
40
1
40
1
41
1
10
65.3245662457082
20
1.06285512471214
30
0
41
1
10
65.3264247283255
20
1.0629789754642
30
0
41
1
10
65.3409892843282
20
1.06396292908775
30
0
41
1
10
65.3682510814079
20
1.06596961223193
30
0
41
1
10
65.4063625995481
20
1.06865799160963
30
0
41
1
10
65.4381241605618
20
1.07085612983062
30
0
41
1
10
65.4635330161927
20
1.07262228897886
30
0
41
1
10
65.488941631878
20
1.07439303655434
30
0
41
1
10
65.5207019931643
20
1.07661411691146
30
0
41
1
10
65.5588139064427
20
1.07928858303811
30
0
41
1
10
65.5969254325033
20
1.08196915514037
30
0
41
1
10
65.6350367043938
20
1.08465276949585
30
0
41
1
10
65.6858516293003
20
1.08823180392963
30
0
41
1
10
65.7239629696034
20
1.09091350078458
30
0
41
1
10
65.749370829584
20
1.09269697810097
30
0
0
SPLINE
5
1CB
100
AcDbEntity
8
1
62
256
6
ByLayer
370
18
48
1
60
0
100
AcDbSpline
70
4
71
3
72
32
73
28
40
0
40
0
40
0
40
0
40
0.125
40
0.140625
40
0.15625
40
0.1875
40
0.25
40
0.3125
40
0.375
40
0.4375
40
0.453125
40
0.46875
40
0.5
40
0.53125
40
0.5625
40
0.625
40
0.640625
40
0.65625
40
0.6875
40
0.71875
40
0.75
40
0.78125
40
0.796875
40
0.8125
40
0.84375
40
0.875
40
1
40
1
40
1
40
1
41
1
10
69.5716552841265
20
1.57444917765164
30
0
41
1
10
69.60235428101
20
1.56881096591692
30
0
41
1
10
69.6368566680217
20
1.56247446375193
30
0
41
1
10
69.6752813908496
20
1.5554169700286
30
0
41
1
10
69.69051381662
20
1.5526198324051
30
0
41
1
10
69.7178000374526
20
1.5475827848872
30
0
41
1
10
69.7587098764104
20
1.53996217357582
30
0
41
1
10
69.8099866900376
20
1.53030021252707
30
0
41
1
10
69.8625621322628
20
1.52028999339703
30
0
41
1
10
69.9022845200773
20
1.51265165166785
30
0
41
1
10
69.9285458534775
20
1.50756948700027
30
0
41
1
10
69.9463057061474
20
1.50413067046017
30
0
41
1
10
69.968416750302
20
1.49984980530871
30
0
41
1
10
69.9949837656324
20
1.49470605223931
30
0
41
1
10
70.0303977361398
20
1.48784934083946
30
0
41
1
10
70.061382453088
20
1.48184993459549
30
0
41
1
10
70.0879522435956
20
1.47670659790219
30
0
41
1
10
70.1056616465591
20
1.47327768547177
30
0
41
1
10
70.1277412037527
20
1.46899517186853
30
0
41
1
10
70.1542483696344
20
1.46382658456372
30
0
41
1
10
70.1806208958174
20
1.45865868985675
30
0
41
1
10
70.2023978721129
20
1.45437137324791
30
0
41
1
10
70.2195923957204
20
1.4509723258283
30
0
41
1
10
70.2366968421743
20
1.44758337881191
30
0
41
1
10
70.2580650543084
20
1.44334678055515
30
0
41
1
10
70.3093550013755
20
1.43317915416355
30
0
41
1
10
70.3520966239314
20
1.42470613217054
30
0
41
1
10
70.3862899219761
20
1.41792771457614
30
0
0
SPLINE
5
1CC
100
AcDbEntity
8
1
62
256
6
ByLayer
370
18
48
1
60
0
100
AcDbSpline
70
4
71
3
72
8
73
4
40
0
40
0
40
0
40
0
40
1
40
1
40
1
40
1
41
1
10
70.0727494218062
20
1.07904467996337
30
0
41
1
10
70.0730577952004
20
1.07904466794585
30
0
41
1
10
70.0733661712967
20
1.07904466193713
30
0
41
1
10
70.0736745500857
20
1.07904466193733
30
0
0
SPLINE
5
1CD
100
AcDbEntity
8
1
62
256
6
ByLayer
370
18
48
1
60
0
100
AcDbSpline
70
4
71
3
72
14
73
10
40
0
40
0
40
0
40
0
40
0.25
40
0.25
40
0.5
40
0.5
40
0.75
40
0.75
40
1
40
1
40
1
40
1
41
1
10
70.46465369552
20
1.40180969070107
30
0
41
1
10
70.4557930647819
20
1.35661204754294
30
0
41
1
10
70.4392426384556
20
1.3133791249426
30
0
41
1
10
70.3923414030913
20
1.23454073403551
30
0
41
1
10
70.3619878630572
20
1.19913675151386
30
0
41
1
10
70.2912866520022
20
1.14082614170636
30
0
41
1
10
70.2508291112483
20
1.11781457266295
30
0
41
1
10
70.1646200654598
20
1.08690088780906
30
0
41
1
10
70.1195637662458
20
1.07904466196595
30
0
41
1
10
70.0736745500857
20
1.07904466193733
30
0
0
SPLINE
5
1CE
100
AcDbEntity
8
1
62
256
6
ByLayer
370
18
48
1
60
0
100
AcDbSpline
70
4
71
3
72
9
73
5
40
0
40
0
40
0
40
0
40
0.443509303061258
40
1
40
1
40
1
40
1
41
1
10
70.4915084360441
20
5.82568821809534
30
0
41
1
10
70.4714719855331
20
5.84262485678323
30
0
41
1
10
70.4215653518434
20
5.87517784132569
30
0
41
1
10
70.3642617899516
20
5.89235842261184
30
0
41
1
10
70.3316856324391
20
5.89670635857934
30
0
0
SPLINE
5
1CF
100
AcDbEntity
8
1
62
256
6
ByLayer
370
18
48
1
60
0
100
AcDbSpline
70
4
71
3
72
14
73
10
40
0
40
0
40
0
40
0
40
0.276946339130612
40
0.276946339130612
40
0.5538926782616
40
0.5538926782616
40
0.776880838709275
40
0.776880838709275
40
1
40
1
40
1
40
1
41
1
10
70.301696616977
20
5.97886344802487
30
0
41
1
10
70.3053920925653
20
5.97878708470873
30
0
41
1
10
70.3090868416086
20
5.97865490018552
30
0
41
1
10
70.3164698715261
20
5.97827906814609
30
0
41
1
10
70.3201589875151
20
5.97803537811853
30
0
41
1
10
70.3268097272569
20
5.97749508436937
30
0
41
1
10
70.3297735630428
20
5.97721799888129
30
0
41
1
10
70.3356949834634
20
5.97659170710341
30
0
41
1
10
70.3386529981937
20
5.97624241255326
30
0
41
1
10
70.3416061449648
20
5.97585721517007
30
0
0
SPLINE
5
1D0
100
AcDbEntity
8
1
62
256
6
ByLayer
370
18
48
1
60
0
100
AcDbSpline
70
4
71
3
72
10
73
6
40
0
40
0
40
0
40
0
40
0.453921360825103
40
0.907842721650206
40
1
40
1
40
1
40
1
41
1
10
64.8719201878
20
1.31695333468008
30
0
41
1
10
64.8780971610582
20
1.28455292894401
30
0
41
1
10
64.9005024976668
20
1.22168882106578
30
0
41
1
10
64.9449753348719
20
1.16324229085706
30
0
41
1
10
64.9744135226473
20
1.13671565120779
30
0
41
1
10
64.9795176909059
20
1.13240114183142
30
0
0
SPLINE
5
1D1
100
AcDbEntity
8
1
62
256
6
ByLayer
370
18
48
1
60
0
100
AcDbSpline
70
4
71
3
72
8
73
4
40
0
40
0
40
0
40
0
40
1
40
1
40
1
40
1
41
1
10
70.3425234003998
20
5.97573646219718
30
0
41
1
10
70.4157676936093
20
5.96600571046545
30
0
41
1
10
70.4858530427381
20
5.93502092222784
30
0
41
1
10
70.542450689127
20
5.88734844987215
30
0
0
SPLINE
5
1D2
100
AcDbEntity
8
1
62
256
6
ByLayer
370
18
48
1
60
0
100
AcDbSpline
70
4
71
3
72
19
73
15
40
0
40
0
40
0
40
0
40
0.0131218002037916
40
0.102838000185265
40
0.192554200166739
40
0.282270400148212
40
0.327128500138949
40
0.371986600129686
40
0.461702800111159
40
0.551419000092633
40
0.641135200074106
40
0.73085140005558
40
0.820567600037053
40
1
40
1
40
1
40
1
41
1
10
70.1464598812418
20
5.89523423521462
30
0
41
1
10
70.1446013986244
20
5.89511038446256
30
0
41
1
10
70.1300368426217
20
5.89412643083901
30
0
41
1
10
70.1027750455419
20
5.89211974769486
30
0
41
1
10
70.0646635274018
20
5.88943136831713
30
0
41
1
10
70.0329019663881
20
5.88723323009614
30
0
41
1
10
70.0074931107573
20
5.8854670709479
30
0
41
1
10
69.9820844950719
20
5.88369632337242
30
0
41
1
10
69.9503241337856
20
5.8814752430153
30
0
41
1
10
69.9122122205073
20
5.87880077688868
30
0
41
1
10
69.8741006944466
20
5.87612020478639
30
0
41
1
10
69.8359894225561
20
5.87343659043091
30
0
41
1
10
69.7851744976496
20
5.86985755599716
30
0
41
1
10
69.7470631573465
20
5.86717585914218
30
0
41
1
10
69.7216552973659
20
5.86539238182581
30
0
0
SPLINE
5
1D3
100
AcDbEntity
8
1
62
256
6
ByLayer
370
18
48
1
60
0
100
AcDbSpline
70
4
71
3
72
8
73
4
40
0
40
0
40
0
40
0
40
1
40
1
40
1
40
1
41
1
10
70.4648312616266
20
1.40272108181276
30
0
41
1
10
70.4647724154796
20
1.40241718822412
30
0
41
1
10
70.4647132267017
20
1.40211339120825
30
0
41
1
10
70.46465369552
20
1.40180969070107
30
0
0
SPLINE
5
1D4
100
AcDbEntity
8
1
62
256
6
ByLayer
370
18
48
1
60
0
100
AcDbSpline
70
4
71
3
72
14
73
10
40
0
40
0
40
0
40
0
40
0.401869826261841
40
0.803739652523681
40
0.904207109089141
40
0.954440837371872
40
0.979557701513237
40
0.992116133583919
40
1
40
1
40
1
40
1
41
1
10
69.7844713013003
20
5.48461456217117
30
0
41
1
10
69.8159819992144
20
5.32188684658419
30
0
41
1
10
69.8790033950428
20
4.9964314154102
30
0
41
1
10
69.9499127812871
20
4.63029062735987
30
0
41
1
10
69.9932219380286
20
4.40654601739212
30
0
41
1
10
70.0070272107487
20
4.33534621436098
30
0
41
1
10
70.0138897116647
20
4.29975964982867
30
0
41
1
10
70.0175054327924
20
4.28129711294915
30
0
41
1
10
70.0191060564556
20
4.27304078399735
30
0
41
1
10
70.0197131957252
20
4.26985652400697
30
0
0
SPLINE
5
1D5
100
AcDbEntity
8
1
62
256
6
ByLayer
370
18
48
1
60
0
100
AcDbSpline
70
4
71
2
72
6
73
3
40
0
40
0
40
0
40
1
40
1
40
1
41
1
10
68.7192420195496
20
1.47905974814111
30
0
41
1
10
68.7481011427857
20
1.47921042005498
30
0
41
1
10
68.7763321036806
20
1.48232447227906
30
0
0
SPLINE
5
1D6
100
AcDbEntity
8
1
62
256
6
ByLayer
370
18
48
1
60
0
100
AcDbSpline
70
4
71
3
72
8
73
4
40
0
40
0
40
0
40
0
40
1
40
1
40
1
40
1
41
1
10
70.3416061449648
20
5.97585721517007
30
0
41
1
10
70.3419119439121
20
5.97581732790289
30
0
41
1
10
70.3422176961532
20
5.97577707685596
30
0
41
1
10
70.3425234003998
20
5.97573646219718
30
0
0
SPLINE
5
1D7
100
AcDbEntity
8
1
62
256
6
ByLayer
370
18
48
1
60
0
100
AcDbSpline
70
4
71
3
72
8
73
4
40
0
40
0
40
0
40
0
40
1
40
1
40
1
40
1
41
1
10
65.1713738726937
20
1.05896882586734
30
0
41
1
10
65.171987132616
20
1.05894920007637
30
0
41
1
10
65.1726004327863
20
1.05893058530574
30
0
41
1
10
65.1732137606304
20
1.05891289520909
30
0
0
SPLINE
5
1D8
100
AcDbEntity
8
1
62
256
6
ByLayer
370
18
48
1
60
0
100
AcDbSpline
70
4
71
3
72
18
73
14
40
0
40
0
40
0
40
0
40
0.156501894804189
40
0.156501894804189
40
0.31300378960836
40
0.31300378960836
40
0.469505684412535
40
0.469505684412535
40
0.626007579216706
40
0.626007579216706
40
0.782509474020882
40
0.782509474020882
40
1
40
1
40
1
40
1
41
1
10
70.9647777567544
20
4.17353742249202
30
0
41
1
10
70.9666540328049
20
4.16375093941485
30
0
41
1
10
70.9682394012942
20
4.15390372324322
30
0
41
1
10
70.9708198258482
20
4.13414060409372
30
0
41
1
10
70.9718160344646
20
4.12421587387999
30
0
41
1
10
70.9732151048696
20
4.10433326701926
30
0
41
1
10
70.9736185915558
20
4.09436650976699
30
0
41
1
10
70.9738313052762
20
4.07443550772092
30
0
41
1
10
70.9736406273195
20
4.06446236070605
30
0
41
1
10
70.9726662237733
20
4.044554229043
30
0
41
1
10
70.9718820629645
20
4.03461035238885
30
0
41
1
10
70.9693041576227
20
4.0109412388496
30
0
41
1
10
70.9672336021791
20
3.99722990790059
30
0
41
1
10
70.9646020791023
20
3.98364018227511
30
0
0
SPLINE
5
1D9
100
AcDbEntity
8
1
62
256
6
ByLayer
370
18
48
1
60
0
100
AcDbSpline
70
4
71
3
72
18
73
14
40
0
40
0
40
0
40
0
40
0.171643617771768
40
0.171643617771768
40
0.343287235543494
40
0.343287235543494
40
0.514930853315216
40
0.514930853315216
40
0.686574471086905
40
0.686574471086905
40
0.843273207856145
40
0.843273207856145
40
1
40
1
40
1
40
1
41
1
10
65.3307105213078
20
0.98337695889208
30
0
41
1
10
65.321729857414
20
0.982751118128846
30
0
41
1
10
65.3127443841172
20
0.982191317027741
30
0
41
1
10
65.2947667129293
20
0.981203974461124
30
0
41
1
10
65.285774032489
20
0.98077640649376
30
0
41
1
10
65.2677838784487
20
0.980053614910133
30
0
41
1
10
65.2587859219646
20
0.979758371893013
30
0
41
1
10
65.2407871483007
20
0.979300286505548
30
0
41
1
10
65.2317858480053
20
0.979137431839519
30
0
41
1
10
65.2145660599016
20
0.978952565031705
30
0
41
1
10
65.2063472641186
20
0.978919520277088
30
0
41
1
10
65.1899088639949
20
0.978963806887947
30
0
41
1
10
65.1816888918933
20
0.979041159007323
30
0
41
1
10
65.1734699871789
20
0.979173707572158
30
0
0
SPLINE
5
1DA
100
AcDbEntity
8
1
62
256
6
ByLayer
370
18
48
1
60
0
100
AcDbSpline
70
4
71
1
72
4
73
2
40
0
40
0
40
1
40
1
41
1
10
69.6877274358608
20
5.47904467996338
30
0
41
1
10
67.7230473919423
20
5.47904467996338
30
0
0
SPLINE
5
1DB
100
AcDbEntity
8
1
62
256
6
ByLayer
370
18
48
1
60
0
100
AcDbSpline
70
4
71
3
72
8
73
4
40
0
40
0
40
0
40
0
40
1
40
1
40
1
40
1
41
1
10
70.542450689127
20
5.88734844987215
30
0
41
1
10
70.5426869176428
20
5.88714947344633
30
0
41
1
10
70.5429229161726
20
5.88695022149926
30
0
41
1
10
70.5431586837618
20
5.88675069483722
30
0
0
SPLINE
5
1DC
100
AcDbEntity
8
1
62
256
6
ByLayer
370
18
48
1
60
0
100
AcDbSpline
70
4
71
1
72
4
73
2
40
0
40
0
40
1
40
1
41
1
10
67.7230473919423
20
1.47904467996338
30
0
41
1
10
68.7192420900341
20
1.47904467996338
30
0
0
SPLINE
5
1DD
100
AcDbEntity
8
1
62
256
6
ByLayer
370
18
48
1
60
0
100
AcDbSpline
70
4
71
3
72
8
73
4
40
0
40
0
40
0
40
0
40
1
40
1
40
1
40
1
41
1
10
65.0074102450824
20
5.555368278114
30
0
41
1
10
65.0074690912294
20
5.55567217170264
30
0
41
1
10
65.0075282746179
20
5.55597596871851
30
0
41
1
10
65.0075877950245
20
5.55627966922569
30
0
0
SPLINE
5
1DE
100
AcDbEntity
8
1
62
256
6
ByLayer
370
18
48
1
60
0
100
AcDbSpline
70
4
71
3
72
9
73
5
40
0
40
0
40
0
40
0
40
0.5
40
1
40
1
40
1
40
1
41
1
10
67.735513063475
20
5.79934910411603
30
0
41
1
10
67.7350689594039
20
5.74110701242211
30
0
41
1
10
67.7324479006111
20
5.62296754471706
30
0
41
1
10
67.7265306513179
20
5.52171587512731
30
0
41
1
10
67.7230473919423
20
5.47904467996338
30
0
0
SPLINE
5
1DF
100
AcDbEntity
8
1
62
256
6
ByLayer
370
18
48
1
60
0
100
AcDbSpline
70
4
71
3
72
15
73
11
40
0
40
0
40
0
40
0
40
0.0039823711834061
40
0.0560173982325478
40
0.160087452330831
40
0.368227560527398
40
0.784507776920531
40
0.888577831018814
40
0.992647885117098
40
1
40
1
40
1
40
1
41
1
10
64.58523284178
20
2.96013625076191
30
0
41
1
10
64.585192527839
20
2.95992660085594
30
0
41
1
10
64.5846265094251
20
2.95697743361393
30
0
41
1
10
64.583054987232
20
2.94854176166342
30
0
41
1
10
64.5800845073681
20
2.92923673912844
30
0
41
1
10
64.5763954290827
20
2.89013812823194
30
0
41
1
10
64.5774378474618
20
2.85066730779752
30
0
41
1
10
64.5816553507383
20
2.81737565604192
30
0
41
1
10
64.5835837300882
20
2.80600882662961
30
0
41
1
10
64.5846627222725
20
2.80013571475564
30
0
41
1
10
64.584734250368
20
2.79974819524341
30
0
0
SPLINE
5
1E0
100
AcDbEntity
8
1
62
256
6
ByLayer
370
18
48
1
60
0
100
AcDbSpline
70
4
71
3
72
14
73
10
40
0
40
0
40
0
40
0
40
0.0278688906940713
40
0.280125361774625
40
0.532381832855179
40
0.658510068395455
40
0.784638303935732
40
0.910766539476009
40
1
40
1
40
1
40
1
41
1
10
70.2978123663054
20
5.89917646471807
30
0
41
1
10
70.296405564212
20
5.89921704083935
30
0
41
1
10
70.2822635685762
20
5.89957599424852
30
0
41
1
10
70.2553877045968
20
5.89952414251758
30
0
41
1
10
70.2235526720682
20
5.89893308294694
30
0
41
1
10
70.1980972595078
20
5.89807183001813
30
0
41
1
10
70.1790149816813
20
5.89721403203671
30
0
41
1
10
70.1618044016039
20
5.8962327395455
30
0
41
1
10
70.1509547950934
20
5.89553377983009
30
0
41
1
10
70.1464598812418
20
5.89523423521462
30
0
0
SPLINE
5
1E1
100
AcDbEntity
8
1
62
256
6
ByLayer
370
18
48
1
60
0
100
AcDbSpline
70
4
71
3
72
20
73
16
40
0
40
0
40
0
40
0
40
0.0357152536596765
40
0.0558050838432445
40
0.071430507319353
40
0.0870559307954615
40
0.10714576097903
40
0.125003387808868
40
0.142861014638706
40
0.214291521958059
40
0.285722029277412
40
0.571444058554824
40
0.857166087832236
40
0.928596595151589
40
1
40
1
40
1
40
1
41
1
10
69.7216552973659
20
5.86539238182581
30
0
41
1
10
69.711324373491
20
5.86466721377141
30
0
41
1
10
69.6951823049365
20
5.86353413868645
30
0
41
1
10
69.6745204561292
20
5.86208380415707
30
0
41
1
10
69.659669751539
20
5.86104137734924
30
0
41
1
10
69.6448190460976
20
5.85999895181283
30
0
41
1
10
69.6293226565737
20
5.85891120527489
30
0
41
1
10
69.6131805824677
20
5.85777813848168
30
0
41
1
10
69.5821877966312
20
5.85560265554543
30
0
41
1
10
69.5356986026497
20
5.85233945388416
30
0
41
1
10
69.4117273212468
20
5.84363772834334
30
0
41
1
10
69.2257699118823
20
5.83058586781158
30
0
41
1
10
69.0398169203434
20
5.81752740874592
30
0
41
1
10
68.9158484763387
20
5.80883370487626
30
0
41
1
10
68.8745418339378
20
5.80583031276845
30
0
41
1
10
68.8538812437333
20
5.80447976026986
30
0
0
SPLINE
5
1E2
100
AcDbEntity
8
1
62
256
6
ByLayer
370
18
48
1
60
0
100
AcDbSpline
70
4
71
3
72
8
73
4
40
0
40
0
40
0
40
0
40
1
40
1
40
1
40
1
41
1
10
64.9290828068724
20
1.07133866508957
30
0
41
1
10
64.860118957942
20
1.12970166780241
30
0
41
1
10
64.8119820560651
20
1.21195225051017
30
0
41
1
10
64.794770726754
20
1.30083508941871
30
0
0
SPLINE
5
1E3
100
AcDbEntity
8
1
62
256
6
ByLayer
370
18
48
1
60
0
100
AcDbSpline
70
4
71
3
72
8
73
4
40
0
40
0
40
0
40
0
40
1
40
1
40
1
40
1
41
1
10
70.3316856324391
20
5.89670635857934
30
0
41
1
10
70.3210648007335
20
5.89812639504262
30
0
41
1
10
70.310364667933
20
5.89877771108326
30
0
41
1
10
70.2996522542563
20
5.89912053405942
30
0
0
SPLINE
5
1E4
100
AcDbEntity
8
1
62
256
6
ByLayer
370
18
48
1
60
0
100
AcDbSpline
70
4
71
3
72
13
73
9
40
0
40
0
40
0
40
0
40
0.0429204910534076
40
0.106725791649847
40
0.234336392842726
40
0.489557595228484
40
0.744778797614242
40
1
40
1
40
1
40
1
41
1
10
66.7616627599013
20
1.15876303660013
30
0
41
1
10
66.7755947055412
20
1.15880382002914
30
0
41
1
10
66.8102387515426
20
1.15869461723793
30
0
41
1
10
66.8863088559219
20
1.15876626796836
30
0
41
1
10
67.0312946867716
20
1.15872291437231
30
0
41
1
10
67.2384178560845
20
1.15874603629018
30
0
41
1
10
67.4869654409609
20
1.15874025581073
30
0
41
1
10
67.6526638559703
20
1.15874025581073
30
0
41
1
10
67.735513063475
20
1.15874025581073
30
0
0
SPLINE
5
1E5
100
AcDbEntity
8
1
62
256
6
ByLayer
370
18
48
1
60
0
100
AcDbSpline
70
4
71
3
72
14
73
10
40
0
40
0
40
0
40
0
40
0.0044038098736876
40
0.0109971621261797
40
0.024183866631164
40
0.0505572756411325
40
0.156050911681007
40
0.578025455840503
40
1
40
1
40
1
40
1
41
1
10
65.4263817004509
20
3.06985650153538
30
0
41
1
10
65.4270274559983
20
3.07324436700074
30
0
41
1
10
65.4286693196748
20
3.08170388935344
30
0
41
1
10
65.4323229965951
20
3.10037505190368
30
0
41
1
10
65.4391869220834
20
3.13595860829383
30
0
41
1
10
65.4608763399486
20
3.24784558511055
30
0
41
1
10
65.5435535711573
20
3.67498849674828
30
0
41
1
10
65.6853753122732
20
4.40727388875319
30
0
41
1
10
65.8114181039299
20
5.05818475110115
30
0
41
1
10
65.8744394997582
20
5.38364018227512
30
0
0
SPLINE
5
1E6
100
AcDbEntity
8
1
62
256
6
ByLayer
370
18
48
1
60
0
100
AcDbSpline
70
4
71
3
72
14
73
10
40
0
40
0
40
0
40
0
40
0.0044038098736866
40
0.0109971621261788
40
0.0241838666311631
40
0.0505572756411316
40
0.156050911681006
40
0.578025455840503
40
1
40
1
40
1
40
1
41
1
10
70.0197130834337
20
3.88823285839141
30
0
41
1
10
70.0190673278864
20
3.88484499292602
30
0
41
1
10
70.0174254642099
20
3.87638547057333
30
0
41
1
10
70.0137717872896
20
3.85771430802308
30
0
41
1
10
70.0069078618012
20
3.82213075163293
30
0
41
1
10
69.985218443936
20
3.71024377481621
30
0
41
1
10
69.9025412127273
20
3.28310086317848
30
0
41
1
10
69.7607194716114
20
2.55081547117359
30
0
41
1
10
69.6346766799548
20
1.89990460882564
30
0
41
1
10
69.5716552841265
20
1.57444917765164
30
0
0
SPLINE
5
1E7
100
AcDbEntity
8
1
62
256
6
ByLayer
370
18
48
1
60
0
100
AcDbSpline
70
4
71
3
72
32
73
28
40
0
40
0
40
0
40
0
40
0.125
40
0.140625
40
0.15625
40
0.1875
40
0.25
40
0.3125
40
0.375
40
0.4375
40
0.453125
40
0.46875
40
0.5
40
0.53125
40
0.5625
40
0.625
40
0.640625
40
0.65625
40
0.6875
40
0.71875
40
0.75
40
0.78125
40
0.796875
40
0.8125
40
0.84375
40
0.875
40
1
40
1
40
1
40
1
41
1
10
65.8744394997582
20
5.38364018227512
30
0
41
1
10
65.8473470808159
20
5.38927839400986
30
0
41
1
10
65.8169006066058
20
5.39561489617483
30
0
41
1
10
65.782986337278
20
5.40267238989816
30
0
41
1
10
65.7695482286436
20
5.40546952752166
30
0
41
1
10
65.745204939742
20
5.41050657503959
30
0
41
1
10
65.70800385668
20
5.41812718635097
30
0
41
1
10
65.6602460056066
20
5.42778914739972
30
0
41
1
10
65.6102171535152
20
5.43779936652973
30
0
41
1
10
65.5716468833274
20
5.44543770825894
30
0
41
1
10
65.5458162582455
20
5.45051987292652
30
0
41
1
10
65.5283283965748
20
5.45395868946662
30
0
41
1
10
65.5065607661248
20
5.45823955461805
30
0
41
1
10
65.4804045446338
20
5.46338330768745
30
0
41
1
10
65.4455375327393
20
5.47024001908733
30
0
41
1
10
65.4150286064431
20
5.47623942533127
30
0
41
1
10
65.3888794279656
20
5.48138276202457
30
0
41
1
10
65.3714426332658
20
5.48481167445499
30
0
41
1
10
65.349626619298
20
5.48909418805823
30
0
41
1
10
65.3231559985663
20
5.49426277536307
30
0
41
1
10
65.2965578372327
20
5.49943067007001
30
0
41
1
10
65.2743900117761
20
5.50371798667885
30
0
41
1
10
65.2567444527333
20
5.50711703409846
30
0
41
1
10
65.2391123452141
20
5.51050598111485
30
0
41
1
10
65.217055616416
20
5.51474257937161
30
0
41
1
10
65.1641278518392
20
5.52491020576323
30
0
41
1
10
65.1200213813584
20
5.53338322775622
30
0
41
1
10
65.0847362049739
20
5.54016164535062
30
0
0
SPLINE
5
1E8
100
AcDbEntity
8
1
62
256
6
ByLayer
370
18
48
1
60
0
100
AcDbSpline
70
4
71
3
72
14
73
10
40
0
40
0
40
0
40
0
40
0.25
40
0.25
40
0.5
40
0.5
40
0.75
40
0.75
40
1
40
1
40
1
40
1
41
1
10
65.0075877950245
20
5.55627966922569
30
0
41
1
10
65.0164484257883
20
5.60147731238382
30
0
41
1
10
65.0329988521344
20
5.64471023498416
30
0
41
1
10
65.0799000875255
20
5.72354862589125
30
0
41
1
10
65.1102536275666
20
5.7589526084129
30
0
41
1
10
65.1809548386213
20
5.8172632182204
30
0
41
1
10
65.2214123793682
20
5.84027478726381
30
0
41
1
10
65.3076214251297
20
5.87118847211769
30
0
41
1
10
65.3526777243239
20
5.87904469796081
30
0
41
1
10
65.3985669404582
20
5.87904469798943
30
0
0
SPLINE
5
1E9
100
AcDbEntity
8
1
62
256
6
ByLayer
370
18
48
1
60
0
100
AcDbSpline
70
4
71
1
72
4
73
2
40
0
40
0
40
1
40
1
41
1
10
65.9698263913025
20
5.79934910411606
30
0
41
1
10
67.735513063475
20
5.79934910411606
30
0
0
SPLINE
5
1EA
100
AcDbEntity
8
1
62
256
6
ByLayer
370
18
48
1
60
0
100
AcDbSpline
70
4
71
3
72
15
73
11
40
0
40
0
40
0
40
0
40
0.0039823711834518
40
0.0560173982325906
40
0.160087452330868
40
0.368227560527424
40
0.784507776920534
40
0.888577831018812
40
0.992647885117089
40
1
40
1
40
1
40
1
41
1
10
70.8857905315456
20
3.99795310916485
30
0
41
1
10
70.885830849819
20
3.99816275907082
30
0
41
1
10
70.8863969299397
20
4.00111192631283
30
0
41
1
10
70.8879686579046
20
4.00954759826334
30
0
41
1
10
70.8909396586057
20
4.02885262079832
30
0
41
1
10
70.8946296066502
20
4.06795123169482
30
0
41
1
10
70.893587956446
20
4.10742205212924
30
0
41
1
10
70.8893710989807
20
4.14071370388484
30
0
41
1
10
70.8874429079342
20
4.15208053329718
30
0
41
1
10
70.886363981837
20
4.15795364517112
30
0
41
1
10
70.8862924579716
20
4.15834116468335
30
0
0
SPLINE
5
1EB
100
AcDbEntity
8
1
62
256
6
ByLayer
370
18
48
1
60
0
100
AcDbSpline
70
4
71
3
72
9
73
5
40
0
40
0
40
0
40
0
40
0.443509303061172
40
1
40
1
40
1
40
1
41
1
10
64.9795176909059
20
1.13240114183142
30
0
41
1
10
64.9995541414169
20
1.11546450314353
30
0
41
1
10
65.0494607751066
20
1.08291151860106
30
0
41
1
10
65.1067643369983
20
1.06573093731493
30
0
41
1
10
65.1393404945108
20
1.06138300134745
30
0
0
SPLINE
5
1EC
100
AcDbEntity
8
1
62
256
6
ByLayer
370
18
48
1
60
0
100
AcDbSpline
70
4
71
3
72
8
73
4
40
0
40
0
40
0
40
0
40
1
40
1
40
1
40
1
41
1
10
66.7631956375202
20
1.07904467996337
30
0
41
1
10
66.7628872636591
20
1.07904467996337
30
0
41
1
10
66.7625788903287
20
1.07904460929839
30
0
41
1
10
66.7622705175777
20
1.07904446796843
30
0
0
SPLINE
5
1ED
100
AcDbEntity
8
1
62
256
6
ByLayer
370
18
48
1
60
0
100
AcDbSpline
70
4
71
3
72
8
73
4
40
0
40
0
40
0
40
0
40
1
40
1
40
1
40
1
41
1
10
70.67747076379
20
5.65725427050808
30
0
41
1
10
70.6775296053089
20
5.65695040082036
30
0
41
1
10
70.6775884436463
20
5.65664652998456
30
0
41
1
10
70.6776472788004
20
5.65634265801006
30
0
0
SPLINE
5
1EE
100
AcDbEntity
8
1
62
256
6
ByLayer
370
18
48
1
60
0
100
AcDbSpline
70
4
71
3
72
8
73
4
40
0
40
0
40
0
40
0
40
1
40
1
40
1
40
1
41
1
10
70.9647777567544
20
4.17353742249202
30
0
41
1
10
70.9647194734511
20
4.17384139442905
30
0
41
1
10
70.9646609114632
20
4.17414531307125
30
0
41
1
10
70.9646020709334
20
4.17444917765164
30
0
0
SPLINE
5
1EF
100
AcDbEntity
8
1
62
256
6
ByLayer
370
18
48
1
60
0
100
AcDbSpline
70
4
71
3
72
8
73
4
40
0
40
0
40
0
40
0
40
1
40
1
40
1
40
1
41
1
10
65.1393404945108
20
1.06138300134745
30
0
41
1
10
65.1499613262164
20
1.05996296488414
30
0
41
1
10
65.160661459017
20
1.0593116488435
30
0
41
1
10
65.1713738726937
20
1.05896882586734
30
0
0
SPLINE
5
1F0
100
AcDbEntity
8
1
62
256
6
ByLayer
370
18
48
1
60
0
100
AcDbSpline
70
4
71
3
72
8
73
4
40
0
40
0
40
0
40
0
40
1
40
1
40
1
40
1
41
1
10
65.3994920849027
20
5.87904467996339
30
0
41
1
10
65.3991837007318
20
5.87904469198091
30
0
41
1
10
65.3988753192471
20
5.8790446979896
30
0
41
1
10
65.3985669404583
20
5.87904469798943
30
0
0
SPLINE
5
1F1
100
AcDbEntity
8
1
62
256
6
ByLayer
370
18
48
1
60
0
100
AcDbSpline
70
4
71
3
72
8
73
4
40
0
40
0
40
0
40
0
40
1
40
1
40
1
40
1
41
1
10
68.8480279295337
20
5.88391657583853
30
0
41
1
10
68.8483355522452
20
5.88393816908285
30
0
41
1
10
68.8486431743345
20
5.88395976352598
30
0
41
1
10
68.8489507958011
20
5.88398135916788
30
0
0
SPLINE
5
1F2
100
AcDbEntity
8
1
62
256
6
ByLayer
370
18
48
1
60
0
100
AcDbSpline
70
4
71
3
72
9
73
5
40
0
40
0
40
0
40
0
40
0.5
40
1
40
1
40
1
40
1
41
1
10
69.7844713013003
20
5.48461456217117
30
0
41
1
10
69.7765981129747
20
5.53796588001458
30
0
41
1
10
69.7572783879123
20
5.66117955895837
30
0
41
1
10
69.7335725613297
20
5.79877800938701
30
0
41
1
10
69.7216552973659
20
5.86539238182581
30
0
0
SPLINE
5
1F3
100
AcDbEntity
8
1
62
256
6
ByLayer
370
18
48
1
60
0
100
AcDbSpline
70
4
71
3
72
8
73
4
40
0
40
0
40
0
40
0
40
1
40
1
40
1
40
1
41
1
10
64.9297908011914
20
1.07074091005461
30
0
41
1
10
64.9295545726756
20
1.07093988648046
30
0
41
1
10
64.929318574251
20
1.0711391384275
30
0
41
1
10
64.9290828068724
20
1.07133866508957
30
0
0
SPLINE
5
1F4
100
AcDbEntity
8
1
62
256
6
ByLayer
370
18
48
1
60
0
100
AcDbSpline
70
4
71
3
72
8
73
4
40
0
40
0
40
0
40
0
40
1
40
1
40
1
40
1
41
1
10
70.2996522542563
20
5.89912053405942
30
0
41
1
10
70.2990389943339
20
5.89914015985039
30
0
41
1
10
70.2984256941636
20
5.89915877462101
30
0
41
1
10
70.2978123663195
20
5.89917646471767
30
0
0
SPLINE
5
1F5
100
AcDbEntity
8
1
62
256
6
ByLayer
370
18
48
1
60
0
100
AcDbSpline
70
4
71
3
72
8
73
4
40
0
40
0
40
0
40
0
40
1
40
1
40
1
40
1
41
1
10
66.6242135804083
20
1.07417278408823
30
0
41
1
10
66.6239059576967
20
1.07415119084393
30
0
41
1
10
66.6235983345298
20
1.07412959640081
30
0
41
1
10
66.6232907109078
20
1.07410800075888
30
0
0
SPLINE
5
1F6
100
AcDbEntity
8
1
62
256
6
ByLayer
370
18
48
1
60
0
100
AcDbSpline
70
4
71
3
72
8
73
4
40
0
40
0
40
0
40
0
40
1
40
1
40
1
40
1
41
1
10
68.7099709923643
20
5.87904489195833
30
0
41
1
10
68.756046087251
20
5.87906636762139
30
0
41
1
10
68.8020650663075
20
5.88069026224812
30
0
41
1
10
68.8480279295337
20
5.88391657583853
30
0
0
SPLINE
5
1F7
100
AcDbEntity
8
1
62
256
6
ByLayer
370
18
48
1
60
0
100
AcDbSpline
70
4
71
3
72
8
73
4
40
0
40
0
40
0
40
0
40
1
40
1
40
1
40
1
41
1
10
70.5431586837618
20
5.88675069483722
30
0
41
1
10
70.6121225326883
20
5.82838769212435
30
0
41
1
10
70.6602594345331
20
5.74613710941659
30
0
41
1
10
70.67747076379
20
5.65725427050805
30
0
0
SPLINE
5
1F8
100
AcDbEntity
8
1
62
256
6
ByLayer
370
18
48
1
60
0
100
AcDbSpline
70
4
71
2
72
6
73
3
40
0
40
0
40
0
40
1
40
1
40
1
41
1
10
65.4263964150574
20
3.06985367533994
30
0
41
1
10
65.3895565244721
20
2.87904467996339
30
0
41
1
10
65.4263964150574
20
2.68823568458683
30
0
0
SPLINE
5
1F9
100
AcDbEntity
8
1
62
256
6
ByLayer
370
18
48
1
60
0
100
AcDbSpline
70
4
71
3
72
9
73
5
40
0
40
0
40
0
40
0
40
0.5
40
1
40
1
40
1
40
1
41
1
10
65.6616234825843
20
1.47347479775559
30
0
41
1
10
65.6765441960715
20
1.42012347991218
30
0
41
1
10
65.7077862772112
20
1.29690980096839
30
0
41
1
10
65.7366463638882
20
1.15931135053975
30
0
41
1
10
65.749370829584
20
1.09269697810097
30
0
0
SPLINE
5
1FA
100
AcDbEntity
8
1
62
256
6
ByLayer
370
18
48
1
60
0
100
AcDbSpline
70
4
71
3
72
18
73
14
40
0
40
0
40
0
40
0
40
0.409045703814911
40
0.818091407629822
40
0.92035283358355
40
0.945918190071982
40
0.958700868316198
40
0.965092207438306
40
0.971483546560414
40
0.98426622480463
40
0.995451068268319
40
0.997048903048846
40
1
40
1
40
1
40
1
41
1
10
65.0847362049739
20
5.54016164535062
30
0
41
1
10
65.016642995656
20
5.18837205410603
30
0
41
1
10
64.8804418007354
20
4.48476124867327
30
0
41
1
10
64.7271705662645
20
3.69323831560232
30
0
41
1
10
64.6378271128621
20
3.23144539681536
30
0
41
1
10
64.6143759295092
20
3.11058085195731
30
0
41
1
10
64.6069258875963
20
3.07211765385628
30
0
41
1
10
64.6026743948283
20
3.05013508872011
30
0
41
1
10
64.5984277870731
20
3.02814640375618
30
0
41
1
10
64.5933947755729
20
3.00202087160133
30
0
41
1
10
64.5891299275078
20
2.98005481977364
30
0
41
1
10
64.5864858767952
20
2.96656279525939
30
0
41
1
10
64.585719283612
20
2.96266595839595
30
0
41
1
10
64.58523284178
20
2.96013625076191
30
0
0
SPLINE
5
1FB
100
AcDbEntity
8
1
62
256
6
ByLayer
370
18
48
1
60
0
100
AcDbSpline
70
4
71
3
72
8
73
4
40
0
40
0
40
0
40
0
40
1
40
1
40
1
40
1
41
1
10
65.1297180898705
20
0.982352897729584
30
0
41
1
10
65.0564737966955
20
0.992083649461307
30
0
41
1
10
64.9863884475834
20
1.02306843769892
30
0
41
1
10
64.9297908011914
20
1.07074091005461
30
0
0
SPLINE
5
1FC
100
AcDbEntity
8
1
62
256
6
ByLayer
370
18
48
1
60
0
100
AcDbSpline
70
4
71
3
72
11
73
7
40
0
40
0
40
0
40
0
40
0.0084271749950114
40
0.529387158417938
40
0.934578256635769
40
1
40
1
40
1
40
1
41
1
10
69.6877274723148
20
5.4790406761866
30
0
41
1
10
69.6878251711427
20
5.47904157269721
30
0
41
1
10
69.6939624955434
20
5.4790986940065
30
0
41
1
10
69.7047946687747
20
5.47928952990458
30
0
41
1
10
69.7162722384725
20
5.4798649926461
30
0
41
1
10
69.721716990826
20
5.48020067690373
30
0
41
1
10
69.7224738442541
20
5.48024836068893
30
0
0
SPLINE
5
1FD
100
AcDbEntity
8
1
62
256
6
ByLayer
370
18
48
1
60
0
100
AcDbSpline
70
4
71
3
72
14
73
10
40
0
40
0
40
0
40
0
40
0.276946339130912
40
0.276946339130912
40
0.553892678261765
40
0.553892678261765
40
0.776880838709361
40
0.776880838709361
40
1
40
1
40
1
40
1
41
1
10
65.1705448722792
20
0.979225911901892
30
0
41
1
10
65.1668493966932
20
0.97930227521806
30
0
41
1
10
65.1631546476522
20
0.979434459741242
30
0
41
1
10
65.1557716177391
20
0.979810291780666
30
0
41
1
10
65.1520825017522
20
0.980053981808226
30
0
41
1
10
65.1454317620143
20
0.980594275557394
30
0
41
1
10
65.14246792623
20
0.980871361045502
30
0
41
1
10
65.1365465058127
20
0.98149765282335
30
0
41
1
10
65.133588491084
20
0.981846947373498
30
0
41
1
10
65.1306353443144
20
0.982232144756694
30
0
0
SPLINE
5
1FE
100
AcDbEntity
8
1
62
256
6
ByLayer
370
18
48
1
60
0
100
AcDbSpline
70
4
71
3
72
20
73
16
40
0
40
0
40
0
40
0
40
0.0357152536596752
40
0.0558050838432426
40
0.0714305073193505
40
0.0870559307954584
40
0.107145760979026
40
0.125003387808863
40
0.142861014638701
40
0.214291521958052
40
0.285722029277402
40
0.571444058554804
40
0.857166087832206
40
0.928596595151556
40
1
40
1
40
1
40
1
41
1
10
65.749370829584
20
1.09269697810097
30
0
41
1
10
65.7597017534589
20
1.09342214615535
30
0
41
1
10
65.7758438220135
20
1.09455522124031
30
0
41
1
10
65.7965056708207
20
1.09600555576972
30
0
41
1
10
65.8113563754109
20
1.09704798257752
30
0
41
1
10
65.8262070808523
20
1.09809040811393
30
0
41
1
10
65.8417034703762
20
1.09917815465187
30
0
41
1
10
65.8578455444822
20
1.10031122144508
30
0
41
1
10
65.8888383303187
20
1.10248670438133
30
0
41
1
10
65.9353275243002
20
1.1057499060426
30
0
41
1
10
66.0592988057031
20
1.11445163158342
30
0
41
1
10
66.2452562150676
20
1.12750349211518
30
0
41
1
10
66.4312092066066
20
1.14056195118087
30
0
41
1
10
66.5551776506112
20
1.1492556550505
30
0
41
1
10
66.5964842930121
20
1.15225904715831
30
0
41
1
10
66.6171448832167
20
1.1536095996569
30
0
0
SPLINE
5
1FF
100
AcDbEntity
8
1
62
256
6
ByLayer
370
18
48
1
60
0
100
AcDbSpline
70
4
71
3
72
8
73
4
40
0
40
0
40
0
40
0
40
1
40
1
40
1
40
1
41
1
10
70.2987715160392
20
5.9789156523546
30
0
41
1
10
70.2990798491073
20
5.97891067978136
30
0
41
1
10
70.2993881794324
20
5.97890556467871
30
0
41
1
10
70.2996965068182
20
5.9789003070523
30
0
0
SPLINE
5
200
100
AcDbEntity
8
1
62
256
6
ByLayer
370
18
48
1
60
0
100
AcDbSpline
70
4
71
3
72
8
73
4
40
0
40
0
40
0
40
0
40
1
40
1
40
1
40
1
41
1
10
65.1734699871789
20
0.979173707572158
30
0
41
1
10
65.1731616541109
20
0.979178680145395
30
0
41
1
10
65.1728533227968
20
0.979183795248048
30
0
41
1
10
65.172544993433
20
0.97918905287446
30
0
0
SPLINE
5
201
100
AcDbEntity
8
1
62
256
6
ByLayer
370
18
48
1
60
0
100
AcDbSpline
70
4
71
3
72
10
73
6
40
0
40
0
40
0
40
0
40
0.190146666341727
40
0.481693866458705
40
1
40
1
40
1
40
1
41
1
10
69.7224738442479
20
5.48024836068853
30
0
41
1
10
69.7264045802371
20
5.48049600754277
30
0
41
1
10
69.7363592769541
20
5.48119299239627
30
0
41
1
10
69.7570249520394
20
5.48265148810998
30
0
41
1
10
69.7737599389009
20
5.48386268964506
30
0
41
1
10
69.7844713013003
20
5.48461456217117
30
0
0
SPLINE
5
202
100
AcDbEntity
8
1
62
256
6
ByLayer
370
18
48
1
60
0
100
AcDbSpline
70
4
71
3
72
8
73
4
40
0
40
0
40
0
40
0
40
1
40
1
40
1
40
1
41
1
10
68.7090458691888
20
5.87904467996339
30
0
41
1
10
68.7093542430499
20
5.87904467996339
30
0
41
1
10
68.7096626174579
20
5.8790447506284
30
0
41
1
10
68.7099709923643
20
5.87904489195833
30
0
0
SPLINE
5
203
100
AcDbEntity
8
1
62
256
6
ByLayer
370
18
48
1
60
0
100
AcDbSpline
70
4
71
3
72
12
73
8
40
0
40
0
40
0
40
0
40
0.499999999999962
40
0.499999999999962
40
0.749999999999981
40
0.749999999999981
40
1
40
1
40
1
40
1
41
1
10
70.3194195132271
20
0.235053215011135
30
0
41
1
10
70.3918055956086
20
0.241374364366578
30
0
41
1
10
70.4659775306257
20
0.220383081477138
30
0
41
1
10
70.5532710366396
20
0.155820166072601
30
0
41
1
10
70.5784743837198
20
0.128915128789686
30
0
41
1
10
70.6175901328798
20
0.0680891759430438
30
0
41
1
10
70.6314568157707
20
0.0344804873029716
30
0
41
1
10
70.6390105162715
20
-0.0009905951581288
30
0
0
SPLINE
5
204
100
AcDbEntity
8
1
62
256
6
ByLayer
370
18
48
1
60
0
100
AcDbSpline
70
4
71
3
72
24
73
20
40
0
40
0
40
0
40
0
40
0.249999999999977
40
0.249999999999977
40
0.374999999999955
40
0.374999999999955
40
0.437499999999931
40
0.437499999999931
40
0.468749999999918
40
0.468749999999918
40
0.499999999999905
40
0.499999999999905
40
0.562499999999917
40
0.562499999999917
40
0.624999999999929
40
0.624999999999929
40
0.749999999999951
40
0.749999999999951
40
1
40
1
40
1
40
1
41
1
10
70.300754412877
20
-4.0786811362147
30
0
41
1
10
70.3226850115221
20
-4.08379355710053
30
0
41
1
10
70.3458113405831
20
-4.08743572435569
30
0
41
1
10
70.385684422902
20
-4.08586155541042
30
0
41
1
10
70.3998314922044
20
-4.08426853686669
30
0
41
1
10
70.4242867605464
20
-4.07675606571024
30
0
41
1
10
70.4330191754381
20
-4.07341931226586
30
0
41
1
10
70.4478723960785
20
-4.06504419445218
30
0
41
1
10
70.4531679984825
20
-4.06163186459767
30
0
41
1
10
70.4641826117173
20
-4.05298421537319
30
0
41
1
10
70.4700875487943
20
-4.0475271432916
30
0
41
1
10
70.4864054064686
20
-4.02887920346581
30
0
41
1
10
70.4936456086508
20
-4.01574229599714
30
0
41
1
10
70.5033778456518
20
-3.99369799026198
30
0
41
1
10
70.5064159132916
20
-3.98380976879525
30
0
41
1
10
70.5132893013689
20
-3.95636492605999
30
0
41
1
10
70.5149869467863
20
-3.9404370683211
30
0
41
1
10
70.5173136871263
20
-3.89509037796512
30
0
41
1
10
70.5148019052373
20
-3.8687096320713
30
0
41
1
10
70.5109921353696
20
-3.84356902002213
30
0
0
SPLINE
5
205
100
AcDbEntity
8
1
62
256
6
ByLayer
370
18
48
1
60
0
100
AcDbSpline
70
4
71
3
72
10
73
6
40
0
40
0
40
0
40
0
40
0.5
40
0.5
40
1
40
1
40
1
40
1
41
1
10
70.6115695709038
20
-3.99016825611699
30
0
41
1
10
70.6019148332043
20
-4.04482086588141
30
0
41
1
10
70.5767579921024
20
-4.09644338034417
30
0
41
1
10
70.5028916519963
20
-4.17894977531896
30
0
41
1
10
70.4546416681038
20
-4.20951873786487
30
0
41
1
10
70.4013318484114
20
-4.22528037230953
30
0
0
SPLINE
5
206
100
AcDbEntity
8
1
62
256
6
ByLayer
370
18
48
1
60
0
100
AcDbSpline
70
4
71
3
72
8
73
4
40
0
40
0
40
0
40
0
40
1
40
1
40
1
40
1
41
1
10
70.9889885366467
20
-1.64443664111772
30
0
41
1
10
71.0024598495583
20
-1.70769597355965
30
0
41
1
10
71.003569874938
20
-1.77117067062898
30
0
41
1
10
70.9923186127859
20
-1.83486073232564
30
0
0
SPLINE
5
207
100
AcDbEntity
8
1
62
256
6
ByLayer
370
18
48
1
60
0
100
AcDbSpline
70
4
71
3
72
18
73
14
40
0
40
0
40
0
40
0
40
0.25
40
0.25
40
0.499999999999999
40
0.499999999999999
40
0.749999999999999
40
0.749999999999999
40
0.874999999999999
40
0.874999999999999
40
0.9375
40
0.9375
40
1
40
1
40
1
40
1
41
1
10
70.5109921353686
20
-3.84356902002611
30
0
41
1
10
70.5061683605161
20
-3.81173700486824
30
0
41
1
10
70.5015744733634
20
-3.77893382830658
30
0
41
1
10
70.4931587849152
20
-3.71006579573776
30
0
41
1
10
70.4893174275439
20
-3.67408355444218
30
0
41
1
10
70.483152445712
20
-3.59570740378101
30
0
41
1
10
70.4806631490286
20
-3.5540133773089
30
0
41
1
10
70.4803411953656
20
-3.47705836797607
30
0
41
1
10
70.4808095381437
20
-3.44866593075361
30
0
41
1
10
70.4838934091668
20
-3.39923535074709
30
0
41
1
10
70.4853648051026
20
-3.38118551613076
30
0
41
1
10
70.4897103932366
20
-3.34239714771078
30
0
41
1
10
70.4926486702896
20
-3.32141312259265
30
0
41
1
10
70.4963234747482
20
-3.30061114326551
30
0
0
SPLINE
5
208
100
AcDbEntity
8
1
62
256
6
ByLayer
370
18
48
1
60
0
100
AcDbSpline
70
4
71
3
72
8
73
4
40
0
40
0
40
0
40
0
40
1
40
1
40
1
40
1
41
1
10
70.0994998013701
20
0.121926602767275
30
0
41
1
10
70.137721490044
20
0.130854660244836
30
0
41
1
10
70.1691466149327
20
0.139383154522193
30
0
41
1
10
70.198647619248
20
0.147751479114135
30
0
0
SPLINE
5
209
100
AcDbEntity
8
1
62
256
6
ByLayer
370
18
48
1
60
0
100
AcDbSpline
70
4
71
3
72
26
73
22
40
0
40
0
40
0
40
0
40
0.249999999999975
40
0.249999999999975
40
0.374999999999963
40
0.374999999999963
40
0.437499999999954
40
0.437499999999954
40
0.46874999999995
40
0.46874999999995
40
0.499999999999946
40
0.499999999999946
40
0.531249999999942
40
0.531249999999942
40
0.562499999999938
40
0.562499999999938
40
0.624999999999949
40
0.624999999999949
40
0.74999999999997
40
0.74999999999997
40
1
40
1
40
1
40
1
41
1
10
70.5182386222925
20
-0.0882923310552712
30
0
41
1
10
70.5233306257825
20
-0.0604484974362265
30
0
41
1
10
70.5262140264506
20
-0.0315757518164332
30
0
41
1
10
70.5214246556626
20
0.0173472308219118
30
0
41
1
10
70.5184818665172
20
0.034445358153306
30
0
41
1
10
70.5075120789298
20
0.0640842384210316
30
0
41
1
10
70.5028513813551
20
0.0745899480494359
30
0
41
1
10
70.4912149676738
20
0.0928114247777785
30
0
41
1
10
70.4865391464727
20
0.0993499887248674
30
0
41
1
10
70.4734434893323
20
0.114029801540568
30
0
41
1
10
70.4643880802023
20
0.122565757617196
30
0
41
1
10
70.4432417263938
20
0.137611076977493
30
0
41
1
10
70.4325573880999
20
0.143243640071745
30
0
41
1
10
70.4145599903924
20
0.151232686597297
30
0
41
1
10
70.4065603973501
20
0.153989742246608
30
0
41
1
10
70.384597309024
20
0.160519070430183
30
0
41
1
10
70.372209438342
20
0.162706270293143
30
0
41
1
10
70.337213242822
20
0.167141883347256
30
0
41
1
10
70.3174753815542
20
0.166955582892825
30
0
41
1
10
70.2615643675733
20
0.163360169873954
30
0
41
1
10
70.2292671037396
20
0.156437074435786
30
0
41
1
10
70.1986476192481
20
0.147751479114163
30
0
0
SPLINE
5
20A
100
AcDbEntity
8
1
62
256
6
ByLayer
370
18
48
1
60
0
100
AcDbSpline
70
4
71
3
72
12
73
8
40
0
40
0
40
0
40
0
40
0.331885470514473
40
0.331885470514473
40
0.665942735257236
40
0.665942735257236
40
1
40
1
40
1
40
1
41
1
10
69.997755524954
20
-4.04146453214886
30
0
41
1
10
70.0440706279116
20
-4.04047705671479
30
0
41
1
10
70.0816267344049
20
-4.04309025735742
30
0
41
1
10
70.1520367721763
20
-4.05036777179296
30
0
41
1
10
70.1839697433033
20
-4.05525435766361
30
0
41
1
10
70.2445694417715
20
-4.06617662236746
30
0
41
1
10
70.2731633666855
20
-4.07224916219087
30
0
41
1
10
70.300754412877
20
-4.07868113621467
30
0
0
SPLINE
5
20B
100
AcDbEntity
8
1
62
256
6
ByLayer
370
18
48
1
60
0
100
AcDbSpline
70
4
71
3
72
8
73
4
40
0
40
0
40
0
40
0
40
1
40
1
40
1
40
1
41
1
10
70.7734572578776
20
-1.73183890178373
30
0
41
1
10
70.7847085200296
20
-1.66814884008707
30
0
41
1
10
70.7835984946499
20
-1.60467414301775
30
0
41
1
10
70.7701271817384
20
-1.54141481057582
30
0
0
SPLINE
5
20C
100
AcDbEntity
8
1
62
256
6
ByLayer
370
18
48
1
60
0
100
AcDbSpline
70
4
71
3
72
16
73
12
40
0
40
0
40
0
40
0
40
0.0624999999999999
40
0.0624999999999999
40
0.125
40
0.125
40
0.25
40
0.25
40
0.5
40
0.5
40
1
40
1
40
1
40
1
41
1
10
70.517747393962
20
-0.356275915691953
30
0
41
1
10
70.5150663623214
20
-0.343686179787767
30
0
41
1
10
70.5128434219962
20
-0.331297501256273
30
0
41
1
10
70.5094904516175
20
-0.309328567835507
30
0
41
1
10
70.5082921343524
20
-0.299487462762556
30
0
41
1
10
70.5055891334963
20
-0.272952570797543
30
0
41
1
10
70.5048611499753
20
-0.258535996560994
30
0
41
1
10
70.5038473052018
20
-0.220081155445115
30
0
41
1
10
70.5047379884581
20
-0.199984819655867
30
0
41
1
10
70.508694287665
20
-0.144790852282398
30
0
41
1
10
70.5132390116495
20
-0.115630946823131
30
0
41
1
10
70.5182386222924
20
-0.0882923310550439
30
0
0
SPLINE
5
20D
100
AcDbEntity
8
SK1
62
256
6
ByLayer
370
18
48
1
60
0
100
AcDbSpline
70
4
71
3
72
27
73
23
40
0
40
0
40
0
40
0
40
0.0433317729095595
40
0.094405057638901
40
0.145478342368243
40
0.196551627097584
40
0.247624911826926
40
0.298698196556267
40
0.349771481285609
40
0.40084476601495
40
0.451918050744292
40
0.502991335473633
40
0.554064620202975
40
0.605137904932316
40
0.656211189661658
40
0.707284474390999
40
0.758357759120341
40
0.809431043849682
40
0.860504328579024
40
0.911577613308365
40
0.962650898037707
40
1
40
1
40
1
40
1
41
1
10
-0.39999999999992
20
4.85227506835241
30
0
41
1
10
-0.39999999999992
20
5.02226907709917
30
0
41
1
10
-0.39999999999992
20
5.39957119182191
30
0
41
1
10
-0.39999999999992
20
6.00058612356241
30
0
41
1
10
-0.39999999999992
20
6.64985041554641
30
0
41
1
10
-0.39999999999992
20
7.30846469728448
30
0
41
1
10
-0.39999999999992
20
7.96888164701966
30
0
41
1
10
-0.39999999999992
20
8.62318069742537
30
0
41
1
10
-0.39999999999992
20
9.26332794093628
30
0
41
1
10
-0.39999999999992
20
9.88144573908428
30
0
41
1
10
-0.39999999999992
20
10.470066387995
30
0
41
1
10
-0.39999999999992
20
11.0223736645665
30
0
41
1
10
-0.39999999999992
20
11.5324121673266
30
0
41
1
10
-0.39999999999992
20
11.9952649527342
30
0
41
1
10
-0.39999999999992
20
12.4071875173709
30
0
41
1
10
-0.39999999999992
20
12.765695711353
30
0
41
1
10
-0.39999999999992
20
13.0696050793313
30
0
41
1
10
-0.399999999999949
20
13.3190171661248
30
0
41
1
10
-0.399999999999949
20
13.5152595834079
30
0
41
1
10
-0.399999999999949
20
13.6607745146452
30
0
41
1
10
-0.399999999999949
20
13.7501746953666
30
0
41
1
10
-0.399999999999949
20
13.7852940852798
30
0
41
1
10
-0.399999999999949
20
13.7965930685277
30
0
0
SPLINE
5
20E
100
AcDbEntity
8
SK1
62
256
6
ByLayer
370
18
48
1
60
0
100
AcDbSpline
70
4
71
3
72
27
73
23
40
0
40
0
40
0
40
0
40
0.037333348839777
40
0.0884074674628125
40
0.139481586085848
40
0.190555704708883
40
0.241629823331919
40
0.292703941954954
40
0.34377806057799
40
0.394852179201025
40
0.445926297824061
40
0.497000416447096
40
0.548074535070131
40
0.599148653693167
40
0.650222772316202
40
0.701296890939238
40
0.752371009562273
40
0.803445128185309
40
0.854519246808344
40
0.90559336543138
40
0.956667484054415
40
1
40
1
40
1
40
1
41
1
10
-0.399999999999977
20
-13.7965785644578
30
0
41
1
10
-0.399999999999977
20
-13.7852812983138
30
0
41
1
10
-0.399999999999977
20
-13.7501638802654
30
0
41
1
10
-0.399999999999977
20
-13.6607746658667
30
0
41
1
10
-0.399999999999977
20
-13.5152595263794
30
0
41
1
10
-0.399999999999977
20
-13.3190172436223
30
0
41
1
10
-0.399999999999977
20
-13.0696050688166
30
0
41
1
10
-0.399999999999949
20
-12.7656956859389
30
0
41
1
10
-0.399999999999949
20
-12.4071875603976
30
0
41
1
10
-0.399999999999949
20
-11.9952648181666
30
0
41
1
10
-0.399999999999949
20
-11.5324122627522
30
0
41
1
10
-0.399999999999949
20
-11.022373431452
30
0
41
1
10
-0.399999999999949
20
-10.4700665265398
30
0
41
1
10
-0.399999999999949
20
-9.88144543350359
30
0
41
1
10
-0.399999999999949
20
-9.26332810646636
30
0
41
1
10
-0.39999999999992
20
-8.62318035716166
30
0
41
1
10
-0.39999999999992
20
-7.96888181888042
30
0
41
1
10
-0.39999999999992
20
-7.30846436616247
30
0
41
1
10
-0.39999999999992
20
-6.64985057156352
30
0
41
1
10
-0.39999999999992
20
-6.00058584498379
30
0
41
1
10
-0.39999999999992
20
-5.3995711445526
30
0
41
1
10
-0.39999999999992
20
-5.02226873502781
30
0
41
1
10
-0.39999999999992
20
-4.85227456455004
30
0
0
SPLINE
5
20F
100
AcDbEntity
8
SK1
62
256
6
ByLayer
370
18
48
1
60
0
100
AcDbSpline
70
4
71
3
72
33
73
29
40
0
40
0
40
0
40
0
40
0.0059995898399567
40
0.0460651672944133
40
0.08613074474887
40
0.126196322203327
40
0.166261899657783
40
0.20632747711224
40
0.246393054566697
40
0.286458632021153
40
0.32652420947561
40
0.366589786930067
40
0.406655364384523
40
0.44672094183898
40
0.486786519293436
40
0.526852096747893
40
0.56691767420235
40
0.606983251656806
40
0.647048829111263
40
0.68711440656572
40
0.727179984020176
40
0.767245561474633
40
0.80731113892909
40
0.847376716383546
40
0.887442293838003
40
0.927507871292459
40
0.967573448746916
40
1
40
1
40
1
40
1
41
1
10
-1.49999999999989
20
2.55452876952208
30
0
41
1
10
-1.49999999999989
20
2.57759088989684
30
0
41
1
10
-1.49999999999989
20
2.7556344787354
30
0
41
1
10
-1.49999999999989
20
3.10259083011954
30
0
41
1
10
-1.49999999999989
20
3.62131845460991
30
0
41
1
10
-1.49999999999989
20
4.17356939352865
30
0
41
1
10
-1.49999999999989
20
4.75691763797596
30
0
41
1
10
-1.49999999999989
20
5.36758867042255
30
0
41
1
10
-1.49999999999989
20
6.00058612356241
30
0
41
1
10
-1.49999999999989
20
6.64985041554641
30
0
41
1
10
-1.49999999999989
20
7.30846469728445
30
0
41
1
10
-1.49999999999989
20
7.96888164701966
30
0
41
1
10
-1.49999999999989
20
8.62318069742537
30
0
41
1
10
-1.49999999999989
20
9.26332794093628
30
0
41
1
10
-1.49999999999989
20
9.88144573908428
30
0
41
1
10
-1.49999999999991
20
10.470066387995
30
0
41
1
10
-1.49999999999991
20
11.0223736645665
30
0
41
1
10
-1.49999999999991
20
11.5324121673266
30
0
41
1
10
-1.49999999999991
20
11.9952649527342
30
0
41
1
10
-1.49999999999991
20
12.4071875173709
30
0
41
1
10
-1.49999999999991
20
12.765695711353
30
0
41
1
10
-1.49999999999991
20
13.0696050793313
30
0
41
1
10
-1.49999999999991
20
13.3190171661248
30
0
41
1
10
-1.49999999999991
20
13.5152595834079
30
0
41
1
10
-1.49999999999991
20
13.6607745146452
30
0
41
1
10
-1.49999999999991
20
13.7589702687857
30
0
41
1
10
-1.49999999999997
20
13.8105308239154
30
0
41
1
10
-1.49999999999991
20
13.8227927556879
30
0
41
1
10
-1.49999999999991
20
13.8245347695506
30
0
0
SPLINE
5
210
100
AcDbEntity
8
SK1
62
256
6
ByLayer
370
18
48
1
60
0
100
AcDbSpline
70
4
71
3
72
33
73
29
40
0
40
0
40
0
40
0
40
0.0324112044302648
40
0.0724774076953728
40
0.112543610960481
40
0.152609814225589
40
0.192676017490697
40
0.232742220755805
40
0.272808424020913
40
0.312874627286021
40
0.352940830551129
40
0.393007033816237
40
0.433073237081345
40
0.473139440346454
40
0.513205643611562
40
0.55327184687667
40
0.593338050141778
40
0.633404253406886
40
0.673470456671994
40
0.713536659937102
40
0.75360286320221
40
0.793669066467318
40
0.833735269732426
40
0.873801472997534
40
0.913867676262642
40
0.95393387952775
40
0.994000082792858
40
1
40
1
40
1
40
1
41
1
10
-1.49999999999997
20
-13.8245323394426
30
0
41
1
10
-1.49999999999994
20
-13.8227877018024
30
0
41
1
10
-1.5
20
-13.8105242754917
30
0
41
1
10
-1.49999999999997
20
-13.7589698929487
30
0
41
1
10
-1.49999999999997
20
-13.6607746658667
30
0
41
1
10
-1.49999999999994
20
-13.5152595263794
30
0
41
1
10
-1.49999999999994
20
-13.3190172436223
30
0
41
1
10
-1.49999999999994
20
-13.0696050688166
30
0
41
1
10
-1.49999999999994
20
-12.7656956859389
30
0
41
1
10
-1.49999999999994
20
-12.4071875603976
30
0
41
1
10
-1.49999999999994
20
-11.9952648181666
30
0
41
1
10
-1.49999999999994
20
-11.5324122627522
30
0
41
1
10
-1.49999999999994
20
-11.022373431452
30
0
41
1
10
-1.49999999999991
20
-10.4700665265398
30
0
41
1
10
-1.49999999999991
20
-9.88144543350359
30
0
41
1
10
-1.49999999999991
20
-9.26332810646636
30
0
41
1
10
-1.49999999999991
20
-8.62318035716163
30
0
41
1
10
-1.49999999999991
20
-7.96888181888042
30
0
41
1
10
-1.49999999999991
20
-7.30846436616247
30
0
41
1
10
-1.49999999999991
20
-6.64985057156352
30
0
41
1
10
-1.49999999999991
20
-6.00058584498379
30
0
41
1
10
-1.49999999999991
20
-5.36758879010387
30
0
41
1
10
-1.49999999999989
20
-4.75691744833273
30
0
41
1
10
-1.49999999999989
20
-4.17356946094313
30
0
41
1
10
-1.49999999999989
20
-3.62131828040256
30
0
41
1
10
-1.49999999999989
20
-3.10259085919483
30
0
41
1
10
-1.49999999999989
20
-2.75563386385181
30
0
41
1
10
-1.49999999999989
20
-2.57758935777625
30
0
41
1
10
-1.49999999999989
20
-2.55452633951475
30
0
0
SPLINE
5
211
100
AcDbEntity
8
SK1
62
256
6
ByLayer
370
18
48
1
60
0
100
AcDbSpline
70
4
71
3
72
32
73
28
40
0
40
0
40
0
40
0
40
0.0318901005864405
40
0.0318901005864405
40
0.101040807687409
40
0.101040807687409
40
0.170191514788378
40
0.170191514788378
40
0.308492928990315
40
0.308492928990315
40
0.446794343192252
40
0.446794343192252
40
0.585095757394189
40
0.585095757394189
40
0.723397171596126
40
0.723397171596126
40
0.792547878697094
40
0.792547878697094
40
0.861698585798063
40
0.861698585798063
40
0.896273939348547
40
0.896273939348547
40
0.930849292899032
40
0.930849292899032
40
0.965424646449516
40
0.965424646449516
40
1
40
1
40
1
40
1
41
1
10
-1.69993734667173
20
-14.0200998926381
30
0
41
1
10
-1.69994186768864
20
-14.0197056805385
30
0
41
1
10
-1.69994597192186
20
-14.0135858453431
30
0
41
1
10
-1.69995782891479
20
-13.9774503250364
30
0
41
1
10
-1.6999642517909
20
-13.9277695406165
30
0
41
1
10
-1.69997475382922
20
-13.7847828609722
30
0
41
1
10
-1.6999788250202
20
-13.6912957588325
30
0
41
1
10
-1.69998863922478
20
-13.3518485205222
30
0
41
1
10
-1.69999208307536
20
-13.0465849013762
30
0
41
1
10
-1.699996483229
20
-12.3011915217478
30
0
41
1
10
-1.69999741875159
20
-11.8602971411697
30
0
41
1
10
-1.69999843685463
20
-10.8564210971593
30
0
41
1
10
-1.69999851438988
20
-10.2927022373387
30
0
41
1
10
-1.69999799256735
20
-9.05091124162109
30
0
41
1
10
-1.69999740061834
20
-8.3721061456593
30
0
41
1
10
-1.69999502958709
20
-7.2713543324295
30
0
41
1
10
-1.69999397669187
20
-6.89040184870717
30
0
41
1
10
-1.69999101652976
20
-6.10141020276637
30
0
41
1
10
-1.6999891033789
20
-5.69306646653774
30
0
41
1
10
-1.69998524495594
20
-5.06041750139286
30
0
41
1
10
-1.69998379350474
20
-4.84631038003562
30
0
41
1
10
-1.69998049429259
20
-4.4111320962962
30
0
41
1
10
-1.69997864360511
20
-4.18980776264149
30
0
41
1
10
-1.69997449922675
20
-3.74119667368481
30
0
41
1
10
-1.69997220400032
20
-3.51385665934996
30
0
41
1
10
-1.69996715777285
20
-3.05243159507233
30
0
41
1
10
-1.69996439693625
20
-2.81803866041682
30
0
41
1
10
-1.6999614571626
20
-2.58068890323889
30
0
0
SPLINE
5
212
100
AcDbEntity
8
SK1
62
256
6
ByLayer
370
18
48
1
60
0
100
AcDbSpline
70
4
71
3
72
34
73
30
40
0
40
0
40
0
40
0
40
0.0691487353632072
40
0.0691487353632072
40
0.103723103044811
40
0.103723103044811
40
0.138297470726414
40
0.138297470726414
40
0.276594941452829
40
0.276594941452829
40
0.345743676816036
40
0.345743676816036
40
0.414892412179243
40
0.414892412179243
40
0.553189882905658
40
0.553189882905658
40
0.622338618268865
40
0.622338618268865
40
0.691487353632072
40
0.691487353632072
40
0.760636088995279
40
0.760636088995279
40
0.829784824358486
40
0.829784824358486
40
0.898933559721693
40
0.898933559721693
40
0.9680822950849
40
0.9680822950849
40
1
40
1
40
1
40
1
41
1
10
-1.69996145737016
20
2.58069190327939
30
0
41
1
10
-1.69996733344885
20
3.05509930631811
30
0
41
1
10
-1.69997243482129
20
3.51761528130072
30
0
41
1
10
-1.69997865337851
20
4.19092322032554
30
0
41
1
10
-1.69998050405434
20
4.41234322785277
30
0
41
1
10
-1.69998380142843
20
4.84743867361578
30
0
41
1
10
-1.69998525071335
20
5.06131925165261
30
0
41
1
10
-1.69999166856414
20
6.11382700256573
30
0
41
1
10
-1.69999423902317
20
6.90428314753061
30
0
41
1
10
-1.69999661083062
20
8.0054717157181
30
0
41
1
10
-1.69999714066637
20
8.35873938181228
30
0
41
1
10
-1.69999789766095
20
9.03705178077976
30
0
41
1
10
-1.69999812321308
20
9.36174331820493
30
0
41
1
10
-1.69999851418865
20
10.2923620885299
30
0
41
1
10
-1.69999843654321
20
10.8567565013492
30
0
41
1
10
-1.69999767337529
20
11.609217294373
30
0
41
1
10
-1.69999730051998
20
11.8445810270417
30
0
41
1
10
-1.69999615550935
20
12.283924450631
30
0
41
1
10
-1.69999538395524
20
12.4873992298258
30
0
41
1
10
-1.69999318283217
20
12.8602942255247
30
0
41
1
10
-1.69999175218271
20
13.0297885744734
30
0
41
1
10
-1.69998784953967
20
13.3318809933356
30
0
41
1
10
-1.69998537605034
20
13.4646455358602
30
0
41
1
10
-1.69997883083784
20
13.6911630512906
30
0
41
1
10
-1.69997475891142
20
13.7846945374618
30
0
41
1
10
-1.69996425447641
20
13.9277532746907
30
0
41
1
10
-1.69995785433565
20
13.977282564264
30
0
41
1
10
-1.69994833162724
20
14.0135163639541
30
0
41
1
10
-1.69994322325101
20
14.0196779314721
30
0
41
1
10
-1.69993757160969
20
14.0200998896391
30
0
0
SPLINE
5
213
100
AcDbEntity
8
SK1
62
256
6
ByLayer
370
18
48
1
60
0
100
AcDbSpline
70
4
71
3
72
79
73
75
40
0
40
0
40
0
40
0
40
0.0043177006711251
40
0.0184424549640358
40
0.0325672092569465
40
0.0466919635498572
40
0.0608167178427679
40
0.0749414721356786
40
0.0890662264285893
40
0.1031909807215
40
0.117315735014411
40
0.131440489307321
40
0.145565243600232
40
0.159689997893143
40
0.173814752186053
40
0.187939506478964
40
0.202064260771875
40
0.216189015064786
40
0.230313769357696
40
0.244438523650607
40
0.258563277943518
40
0.272688032236428
40
0.286812786529339
40
0.30093754082225
40
0.31506229511516
40
0.329187049408071
40
0.343311803700982
40
0.357436557993893
40
0.371561312286803
40
0.385686066579714
40
0.399810820872624
40
0.413935575165535
40
0.428060329458446
40
0.442185083751357
40
0.456309838044267
40
0.470434592337178
40
0.484559346630089
40
0.498684100922999
40
0.51280885521591
40
0.526933609508821
40
0.541058363801732
40
0.555183118094642
40
0.569307872387553
40
0.583432626680464
40
0.597557380973374
40
0.611682135266285
40
0.625806889559196
40
0.639931643852106
40
0.654056398145017
40
0.668181152437928
40
0.682305906730838
40
0.696430661023749
40
0.71055541531666
40
0.72468016960957
40
0.738804923902481
40
0.752929678195392
40
0.767054432488303
40
0.781179186781213
40
0.795303941074124
40
0.809428695367035
40
0.823553449659945
40
0.837678203952856
40
0.851802958245767
40
0.865927712538678
40
0.880052466831588
40
0.894177221124499
40
0.90830197541741
40
0.92242672971032
40
0.936551484003231
40
0.950676238296142
40
0.964800992589052
40
0.978925746881963
40
0.993050501174874
40
1
40
1
40
1
40
1
41
1
10
-2.50000000000003
20
-13.8460520008658
30
0
41
1
10
-2.50000000000003
20
-13.8546426979683
30
0
41
1
10
-2.50000000000003
20
-13.890148056014
30
0
41
1
10
-2.50000000000003
20
-13.9432745301022
30
0
41
1
10
-2.50000000000003
20
-13.9887542441536
30
0
41
1
10
-2.50000000000003
20
-14.0056234056246
30
0
41
1
10
-2.5
20
-13.988752133348
30
0
41
1
10
-2.5
20
-13.9330904587156
30
0
41
1
10
-2.5
20
-13.8339177083708
30
0
41
1
10
-2.5
20
-13.6870701821128
30
0
41
1
10
-2.5
20
-13.4891606659135
30
0
41
1
10
-2.5
20
-13.2377634553435
30
0
41
1
10
-2.5
20
-12.9315646731672
30
0
41
1
10
-2.5
20
-12.5704720586786
30
0
41
1
10
-2.49999999999997
20
-12.1556745862519
30
0
41
1
10
-2.49999999999997
20
-11.6896573582757
30
0
41
1
10
-2.49999999999997
20
-11.1761598486008
30
0
41
1
10
-2.49999999999997
20
-10.6200921552756
30
0
41
1
10
-2.49999999999997
20
-10.0273966309962
30
0
41
1
10
-2.49999999999997
20
-9.40487698463008
30
0
41
1
10
-2.49999999999997
20
-8.75998301936997
30
0
41
1
10
-2.49999999999997
20
-8.10057759802723
30
0
41
1
10
-2.49999999999994
20
-7.43467620819112
30
0
41
1
10
-2.49999999999994
20
-6.77018655593477
30
0
41
1
10
-2.49999999999994
20
-6.11464187468977
30
0
41
1
10
-2.49999999999994
20
-5.47495238907831
30
0
41
1
10
-2.49999999999994
20
-4.85717257311447
30
0
41
1
10
-2.49999999999994
20
-4.26630223424849
30
0
41
1
10
-2.49999999999994
20
-3.70612309484702
30
0
41
1
10
-2.49999999999994
20
-3.17908000235968
30
0
41
1
10
-2.49999999999994
20
-2.68621197756718
30
0
41
1
10
-2.49999999999994
20
-2.22713214869714
30
0
41
1
10
-2.49999999999994
20
-1.80006432484655
30
0
41
1
10
-2.49999999999994
20
-1.40192548161284
30
0
41
1
10
-2.49999999999994
20
-1.02846311010666
30
0
41
1
10
-2.49999999999994
20
-0.674428687296569
30
0
41
1
10
-2.49999999999994
20
-0.333795915844547
30
0
41
1
10
-2.49999999999994
20
7.12340693E-08
30
0
41
1
10
-2.49999999999994
20
0.333795630908241
30
0
41
1
10
-2.49999999999994
20
0.674428818459575
30
0
41
1
10
-2.49999999999994
20
1.02846287039082
30
0
41
1
10
-2.49999999999994
20
1.40192558052763
30
0
41
1
10
-2.49999999999994
20
1.80006416890296
30
0
41
1
10
-2.49999999999994
20
2.22713219916599
30
0
41
1
10
-2.49999999999994
20
2.68621193163514
30
0
41
1
10
-2.49999999999994
20
3.17907999530164
30
0
41
1
10
-2.49999999999994
20
3.70612316901105
30
0
41
1
10
-2.49999999999994
20
4.26630216899858
30
0
41
1
10
-2.49999999999994
20
4.85717275994992
30
0
41
1
10
-2.49999999999994
20
5.47495227341935
30
0
41
1
10
-2.49999999999994
20
6.11464215048997
30
0
41
1
10
-2.49999999999994
20
6.7701864048623
30
0
41
1
10
-2.49999999999994
20
7.43467653668063
30
0
41
1
10
-2.49999999999994
20
8.10057743145504
30
0
41
1
10
-2.49999999999994
20
8.75998335716918
30
0
41
1
10
-2.49999999999994
20
9.40487682435958
30
0
41
1
10
-2.49999999999994
20
10.027396934279
30
0
41
1
10
-2.49999999999994
20
10.6200920217111
30
0
41
1
10
-2.49999999999994
20
11.1761600795757
30
0
41
1
10
-2.49999999999994
20
11.6896572673894
30
0
41
1
10
-2.49999999999994
20
12.1556747188218
30
0
41
1
10
-2.49999999999997
20
12.5704720196537
30
0
41
1
10
-2.49999999999997
20
12.931564696697
30
0
41
1
10
-2.49999999999997
20
13.2377634692878
30
0
41
1
10
-2.49999999999997
20
13.4891605866066
30
0
41
1
10
-2.49999999999997
20
13.6870702420279
30
0
41
1
10
-2.49999999999997
20
13.8339175480175
30
0
41
1
10
-2.49999999999997
20
13.9330908491367
30
0
41
1
10
-2.49999999999997
20
13.9887513430622
30
0
41
1
10
-2.49999999999997
20
14.0056234821498
30
0
41
1
10
-2.49999999999997
20
13.9887547283385
30
0
41
1
10
-2.5
20
13.9432743681012
30
0
41
1
10
-2.49999999999997
20
13.8858546593185
30
0
41
1
10
-2.49999999999997
20
13.8443987701481
30
0
41
1
10
-2.49999999999997
20
13.8300369986856
30
0
0
SPLINE
5
214
100
AcDbEntity
8
SK1
62
256
6
ByLayer
370
18
48
1
60
0
100
AcDbSpline
70
4
71
3
72
20
73
16
40
0
40
0
40
0
40
0
40
0.125
40
0.125
40
0.1875
40
0.1875
40
0.25
40
0.25
40
0.5
40
0.5
40
0.625
40
0.625
40
0.75
40
0.75
40
1
40
1
40
1
40
1
41
1
10
-1.69996145737096
20
2.5806919032795
30
0
41
1
10
-1.73263695710787
20
2.37550257646083
30
0
41
1
10
-1.76326516119118
20
2.16745376297365
30
0
41
1
10
-1.80483241468929
20
1.85028411027173
30
0
41
1
10
-1.81795721932767
20
1.74370985221802
30
0
41
1
10
-1.84246895166319
20
1.52868290002465
30
0
41
1
10
-1.85383416245216
20
1.42032814794894
30
0
41
1
10
-1.90513167589589
20
0.878984125790311
30
0
41
1
10
-1.92842891958412
20
0.443177729960439
30
0
41
1
10
-1.92863936176101
20
-0.215364275303813
30
0
41
1
10
-1.92302599023012
20
-0.435675602004039
30
0
41
1
10
-1.9008609918707
20
-0.877872368403501
30
0
41
1
10
-1.88448389754703
20
-1.09701544141257
30
0
41
1
10
-1.82304312112112
20
-1.74499641140687
30
0
41
1
10
-1.76589710310134
20
-2.16663380543864
30
0
41
1
10
-1.69996145715962
20
-2.58068890323847
30
0
0
SPLINE
5
215
100
AcDbEntity
8
SK1
62
256
6
ByLayer
370
18
48
1
60
0
100
AcDbSpline
70
4
71
3
72
28
73
24
40
0
40
0
40
0
40
0
40
0.249999999999998
40
0.249999999999998
40
0.374999999999996
40
0.374999999999996
40
0.437499999999995
40
0.437499999999995
40
0.468749999999995
40
0.468749999999995
40
0.484374999999995
40
0.484374999999995
40
0.499999999999995
40
0.499999999999995
40
0.531249999999994
40
0.531249999999994
40
0.562499999999994
40
0.562499999999994
40
0.624999999999994
40
0.624999999999994
40
0.749999999999995
40
0.749999999999995
40
1
40
1
40
1
40
1
41
1
10
-1.69996145737014
20
2.58069190327927
30
0
41
1
10
-1.69966082572924
20
2.4852880584769
30
0
41
1
10
-1.69786774013505
20
2.38961915098
30
0
41
1
10
-1.68940593614445
20
2.2453867587985
30
0
41
1
10
-1.68574462899301
20
2.19700570840237
30
0
41
1
10
-1.67599695382782
20
2.1249364253261
30
0
41
1
10
-1.67216972725893
20
2.10077755320236
30
0
41
1
10
-1.66272403248817
20
2.06599013940286
30
0
41
1
10
-1.65906888566519
20
2.05420805594815
30
0
41
1
10
-1.64993183086071
20
2.03993783982096
30
0
41
1
10
-1.64600859456112
20
2.03592067906061
30
0
41
1
10
-1.63743284430143
20
2.03388667347628
30
0
41
1
10
-1.63318667655162
20
2.03591143131484
30
0
41
1
10
-1.62270815487443
20
2.04494307123124
30
0
41
1
10
-1.61759766930601
20
2.05422387946916
30
0
41
1
10
-1.60839312671521
20
2.07302163226029
30
0
41
1
10
-1.60436560886294
20
2.083083020088
30
0
41
1
10
-1.59320608402808
20
2.11364429054081
30
0
41
1
10
-1.58690532487131
20
2.13477582008474
30
0
41
1
10
-1.56924690509348
20
2.198952707839
30
0
41
1
10
-1.55923242562812
20
2.24288446323848
30
0
41
1
10
-1.53109034368467
20
2.37539687024329
30
0
41
1
10
-1.51504209864746
20
2.46485730987436
30
0
41
1
10
-1.49999999999937
20
2.55452876952231
30
0
0
SPLINE
5
216
100
AcDbEntity
8
SK1
62
256
6
ByLayer
370
18
48
1
60
0
100
AcDbSpline
70
4
71
3
72
26
73
22
40
0
40
0
40
0
40
0
40
0.0307913256417309
40
0.0307913256417309
40
0.127712193077574
40
0.127712193077574
40
0.176172626795495
40
0.176172626795495
40
0.224633060513416
40
0.224633060513416
40
0.248863277372375
40
0.248863277372375
40
0.273093494231333
40
0.273093494231333
40
0.321553927949248
40
0.321553927949248
40
0.418474795385072
40
0.418474795385072
40
0.612316530256716
40
0.612316530256716
40
1
40
1
40
1
40
1
41
1
10
-1.57433614776013
20
13.5697408402973
30
0
41
1
10
-1.57608698429846
20
13.5688168376518
30
0
41
1
10
-1.57787595635446
20
13.5679297492288
30
0
41
1
10
-1.58547170222769
20
13.5644238104942
30
0
41
1
10
-1.59163473346519
20
13.5621602929549
30
0
41
1
10
-1.60238757652306
20
13.5604200520529
30
0
41
1
10
-1.60622023568951
20
13.5601161512167
30
0
41
1
10
-1.61487977434197
20
13.5607220760426
30
0
41
1
10
-1.61966061650892
20
13.5615054149213
30
0
41
1
10
-1.62874276649825
20
13.5655264252002
30
0
41
1
10
-1.63222251279362
20
13.5674114022669
30
0
41
1
10
-1.64030398611317
20
13.573619849459
30
0
41
1
10
-1.64480166471762
20
13.5781096216329
30
0
41
1
10
-1.6556911619829
20
13.5916302553316
30
0
41
1
10
-1.65990888395672
20
13.5997016412416
30
0
41
1
10
-1.67042770926656
20
13.6213807422026
30
0
41
1
10
-1.67437774883194
20
13.6335041506938
30
0
41
1
10
-1.68468937018747
20
13.6684047051555
30
0
41
1
10
-1.68844996321826
20
13.6887386799271
30
0
41
1
10
-1.69734030571792
20
13.7470295418718
30
0
41
1
10
-1.69934373531291
20
13.7816465515501
30
0
41
1
10
-1.6998763996223
20
13.8139891097877
30
0
0
SPLINE
5
217
100
AcDbEntity
8
SK1
62
256
6
ByLayer
370
18
48
1
60
0
100
AcDbSpline
70
4
71
3
72
20
73
16
40
0
40
0
40
0
40
0
40
0.0998383909824243
40
0.0998383909824243
40
0.199676781964849
40
0.199676781964849
40
0.299515172947273
40
0.299515172947273
40
0.399353563929697
40
0.399353563929697
40
0.599030345894536
40
0.599030345894536
40
0.798707127859376
40
0.798707127859376
40
1
40
1
40
1
40
1
41
1
10
-0.399999999999949
20
13.8205590132786
30
0
41
1
10
-0.39376584134564
20
13.8207265187753
30
0
41
1
10
-0.387027117241104
20
13.8211499115544
30
0
41
1
10
-0.371824577325583
20
13.8229590799712
30
0
41
1
10
-0.363395045486499
20
13.824372072028
30
0
41
1
10
-0.34598546816116
20
13.8284726621792
30
0
41
1
10
-0.337106206851047
20
13.8311746690827
30
0
41
1
10
-0.321547617318544
20
13.8368777277562
30
0
41
1
10
-0.314808664695903
20
13.8398348619912
30
0
41
1
10
-0.2970529040835
20
13.8484646203001
30
0
41
1
10
-0.288219391107304
20
13.8539513653589
30
0
41
1
10
-0.273250362863962
20
13.864219309884
30
0
41
1
10
-0.267161640943357
20
13.8690434744368
30
0
41
1
10
-0.256374276517448
20
13.8783434335058
30
0
41
1
10
-0.251686990652189
20
13.8828203854392
30
0
41
1
10
-0.247540221313386
20
13.8871216556946
30
0
0
SPLINE
5
218
100
AcDbEntity
8
SK1
62
256
6
ByLayer
370
18
48
1
60
0
100
AcDbSpline
70
4
71
3
72
53
73
49
40
0
40
0
40
0
40
0
40
0.0009015193746167
40
0.0080239562360817
40
0.0152429704248288
40
0.0225627430941064
40
0.0299872851717886
40
0.037520440238389
40
0.0451658880678113
40
0.0529271487146514
40
0.0802072100760792
40
0.107887533908892
40
0.136107123180198
40
0.164997197969626
40
0.221222022738541
40
0.277014628227447
40
0.306338666575135
40
0.334691910501004
40
0.362228645150814
40
0.389117214602899
40
0.410870120719345
40
0.431237756425149
40
0.450352152768407
40
0.468372907871325
40
0.485490237831952
40
0.501925756049277
40
0.526652465746316
40
0.553195769198824
40
0.582181780559291
40
0.614093155673714
40
0.631894224101699
40
0.649963182754918
40
0.668350919583493
40
0.687105727867598
40
0.706273126520034
40
0.725895763388216
40
0.753753728495308
40
0.781593581879872
40
0.809530719871306
40
0.837679342358795
40
0.866493078870823
40
0.894647645348612
40
0.922273632099422
40
0.949509233855134
40
0.96488210488651
40
0.979800925795743
40
0.994296164401004
40
1
40
1
40
1
40
1
41
1
10
-24
20
-12.5794716105389
30
0
41
1
10
-24
20
-12.579444121901
30
0
41
1
10
-24
20
-12.5790106287372
30
0
41
1
10
-24
20
-12.5750102454912
30
0
41
1
10
-24
20
-12.5615745885518
30
0
41
1
10
-24
20
-12.5403129223796
30
0
41
1
10
-24
20
-12.5112243715907
30
0
41
1
10
-24
20
-12.4743144356193
30
0
41
1
10
-24
20
-12.4295641486956
30
0
41
1
10
-24
20
-12.3332983728988
30
0
41
1
10
-24
20
-12.1488140883502
30
0
41
1
10
-24
20
-11.8183666241033
30
0
41
1
10
-24
20
-11.3988068147615
30
0
41
1
10
-24
20
-10.7351621337747
30
0
41
1
10
-24
20
-9.73480607524854
30
0
41
1
10
-24
20
-8.50289855695533
30
0
41
1
10
-24
20
-7.39075627731413
30
0
41
1
10
-24
20
-6.49127914507179
30
0
41
1
10
-24
20
-5.5556849882195
30
0
41
1
10
-24
20
-4.63955568105783
30
0
41
1
10
-24
20
-3.76913729325929
30
0
41
1
10
-23.9999999999999
20
-2.96447783194304
30
0
41
1
10
-24
20
-2.1790530124172
30
0
41
1
10
-23.9999999999999
20
-1.41279480441605
30
0
41
1
10
-23.9999999999999
20
-0.665594437609201
30
0
41
1
10
-23.9999999999999
20
0.190530582996331
30
0
41
1
10
-24
20
1.1838590283013
30
0
41
1
10
-23.9999999999999
20
2.32153593904502
30
0
41
1
10
-23.9999999999999
20
3.49834713164501
30
0
41
1
10
-23.9999999999999
20
4.49575550939699
30
0
41
1
10
-23.9999999999999
20
5.31422162579241
30
0
41
1
10
-23.9999999999999
20
5.94369174685866
30
0
41
1
10
-23.9999999999999
20
6.55748161513671
30
0
41
1
10
-23.9999999999999
20
7.15551399202425
30
0
41
1
10
-24
20
7.73777017421654
30
0
41
1
10
-23.9999999999999
20
8.37891321215074
30
0
41
1
10
-24
20
9.05789466220696
30
0
41
1
10
-24
20
9.74741392450429
30
0
41
1
10
-24
20
10.3724214375753
30
0
41
1
10
-24
20
10.9348709055083
30
0
41
1
10
-24
20
11.4282187860647
30
0
41
1
10
-24
20
11.841530117034
30
0
41
1
10
-24
20
12.1662204954186
30
0
41
1
10
-24
20
12.3685088187021
30
0
41
1
10
-24
20
12.4863667597008
30
0
41
1
10
-24
20
12.5496478387326
30
0
41
1
10
-24
20
12.5753276015826
30
0
41
1
10
-24
20
12.5798034646193
30
0
41
1
10
-24
20
12.580218389636
30
0
0
SPLINE
5
219
100
AcDbEntity
8
SK1
62
256
6
ByLayer
370
18
48
1
60
0
100
AcDbSpline
70
4
71
3
72
72
73
68
40
0
40
0
40
0
40
0
40
0.0150365755596474
40
0.03051010127764
40
0.0459836269956325
40
0.0614571527136251
40
0.0769306784316176
40
0.0924042041496101
40
0.107877729867603
40
0.123351255585595
40
0.138824781303588
40
0.154298307021581
40
0.169771832739573
40
0.185245358457566
40
0.200718884175558
40
0.216192409893551
40
0.231665935611543
40
0.247139461329536
40
0.262612987047528
40
0.278086512765521
40
0.293560038483513
40
0.309033564201506
40
0.324507089919499
40
0.339980615637491
40
0.355454141355484
40
0.370927667073476
40
0.386401192791469
40
0.401874718509461
40
0.417348244227454
40
0.432821769945446
40
0.448295295663439
40
0.463768821381432
40
0.479242347099424
40
0.494715872817417
40
0.510189398535409
40
0.525662924253402
40
0.541136449971394
40
0.556609975689387
40
0.57208350140738
40
0.587557027125372
40
0.603030552843364
40
0.618504078561357
40
0.63397760427935
40
0.649451129997342
40
0.664924655715335
40
0.680398181433327
40
0.69587170715132
40
0.711345232869312
40
0.726818758587305
40
0.742292284305297
40
0.75776581002329
40
0.773239335741283
40
0.788712861459275
40
0.804186387177268
40
0.81965991289526
40
0.835133438613253
40
0.850606964331245
40
0.866080490049238
40
0.88155401576723
40
0.897027541485223
40
0.912501067203216
40
0.927974592921208
40
0.943448118639201
40
0.958921644357193
40
0.974395170075186
40
0.989868695793178
40
1
40
1
40
1
40
1
41
1
10
-22.5004731679057
20
13.2913209175295
30
0
41
1
10
-22.5004731679057
20
13.3210932341281
30
0
41
1
10
-22.5004731679057
20
13.3768125167869
30
0
41
1
10
-22.5004731679057
20
13.4428288363681
30
0
41
1
10
-22.5004731679057
20
13.4866768366259
30
0
41
1
10
-22.5004731679057
20
13.5029401449552
30
0
41
1
10
-22.5004731679057
20
13.4866735728523
30
0
41
1
10
-22.5004731679057
20
13.4330108195395
30
0
41
1
10
-22.5004731679057
20
13.3373970005121
30
0
41
1
10
-22.5004731679057
20
13.1958202698686
30
0
41
1
10
-22.5004731679057
20
13.0050138959383
30
0
41
1
10
-22.5004731679057
20
12.7626398072662
30
0
41
1
10
-22.5004731679057
20
12.4674309788965
30
0
41
1
10
-22.5004731679056
20
12.1192984726134
30
0
41
1
10
-22.5004731679056
20
11.7193888839714
30
0
41
1
10
-22.5004731679056
20
11.2700975146
30
0
41
1
10
-22.5004731679056
20
10.7750305295073
30
0
41
1
10
-22.5004731679056
20
10.2389206082719
30
0
41
1
10
-22.5004731679056
20
9.66749825781361
30
0
41
1
10
-22.5004731679056
20
9.0673213507315
30
0
41
1
10
-22.5004731679056
20
8.44557410053284
30
0
41
1
10
-22.5004731679056
20
7.80983526623567
30
0
41
1
10
-22.5004731679056
20
7.16783457729309
30
0
41
1
10
-22.5004731679056
20
6.52719401685735
30
0
41
1
10
-22.5004731679056
20
5.89517825258662
30
0
41
1
10
-22.5004731679056
20
5.27844782766644
30
0
41
1
10
-22.5004731679056
20
4.68284136974697
30
0
41
1
10
-22.5004731679056
20
4.11317803178855
30
0
41
1
10
-22.5004731679056
20
3.57310471645681
30
0
41
1
10
-22.5004731679056
20
3.06497793170672
30
0
41
1
10
-22.5004731679056
20
2.58979965981254
30
0
41
1
10
-22.5004731679056
20
2.14719700401548
30
0
41
1
10
-22.5004731679056
20
1.73545710126749
30
0
41
1
10
-22.5004731679056
20
1.35160831830677
30
0
41
1
10
-22.5004731679056
20
0.991549758416369
30
0
41
1
10
-22.5004731679056
20
0.650222532349176
30
0
41
1
10
-22.5004731679056
20
0.321815193057716
30
0
41
1
10
-22.5004731679056
20
6.86773944E-08
30
0
41
1
10
-22.5004731679056
20
-0.321815467767181
30
0
41
1
10
-22.5004731679056
20
-0.6502224058938
30
0
41
1
10
-22.5004731679056
20
-0.99154998952838
30
0
41
1
10
-22.5004731679056
20
-1.35160822294213
30
0
41
1
10
-22.5004731679056
20
-1.73545725161395
30
0
41
1
10
-22.5004731679056
20
-2.147196955358
30
0
41
1
10
-22.5004731679056
20
-2.58979970409595
30
0
41
1
10
-22.5004731679056
20
-3.06497793851139
30
0
41
1
10
-22.5004731679056
20
-3.57310464495461
30
0
41
1
10
-22.5004731679056
20
-4.11317809469651
30
0
41
1
10
-22.5004731679056
20
-4.68284118961725
30
0
41
1
10
-22.5004731679056
20
-5.27844793917419
30
0
41
1
10
-22.5004731679056
20
-5.89517798668527
30
0
41
1
10
-22.5004731679056
20
-6.52719416250753
30
0
41
1
10
-22.5004731679056
20
-7.16783426059351
30
0
41
1
10
-22.5004731679057
20
-7.8098354268293
30
0
41
1
10
-22.5004731679057
20
-8.44557377485771
30
0
41
1
10
-22.5004731679057
20
-9.06732150524962
30
0
41
1
10
-22.5004731679057
20
-9.667497965416
30
0
41
1
10
-22.5004731679057
20
-10.2389207370425
30
0
41
1
10
-22.5004731679057
20
-10.7750303068223
30
0
41
1
10
-22.5004731679057
20
-11.2700976022241
30
0
41
1
10
-22.5004731679057
20
-11.7193887561596
30
0
41
1
10
-22.5004731679057
20
-12.1192985102377
30
0
41
1
10
-22.5004731679057
20
-12.4674309562112
30
0
41
1
10
-22.5004731679057
20
-12.7626397938223
30
0
41
1
10
-22.5004731679057
20
-13.0050139723987
30
0
41
1
10
-22.5004731679057
20
-13.1738616484515
30
0
41
1
10
-22.5004731679057
20
-13.2566406313252
30
0
41
1
10
-22.5004731679057
20
-13.2860299212734
30
0
0
SPLINE
5
21A
100
AcDbEntity
8
SK1
62
256
6
ByLayer
370
18
48
1
60
0
100
AcDbSpline
70
4
71
3
72
28
73
24
40
0
40
0
40
0
40
0
40
0.250000000000011
40
0.250000000000011
40
0.375000000000018
40
0.375000000000018
40
0.437500000000021
40
0.437500000000021
40
0.468750000000022
40
0.468750000000022
40
0.500000000000024
40
0.500000000000024
40
0.515625000000023
40
0.515625000000023
40
0.531250000000022
40
0.531250000000022
40
0.56250000000002
40
0.56250000000002
40
0.625000000000017
40
0.625000000000017
40
0.750000000000011
40
0.750000000000011
40
1
40
1
40
1
40
1
41
1
10
-1.49999999999989
20
-2.55452633951475
30
0
41
1
10
-1.51517199566123
20
-2.46407938028932
30
0
41
1
10
-1.53136110460483
20
-2.37385196693896
30
0
41
1
10
-1.55981324196594
20
-2.24028158751409
30
0
41
1
10
-1.56995056306621
20
-2.19594811744051
30
0
41
1
10
-1.58796518920624
20
-2.1311657311102
30
0
41
1
10
-1.59441566991623
20
-2.10980654354705
30
0
41
1
10
-1.60591133452704
20
-2.07918416873096
30
0
41
1
10
-1.61004231989739
20
-2.06919519846659
30
0
41
1
10
-1.61967450688274
20
-2.05064590043739
30
0
41
1
10
-1.62504919799494
20
-2.04142660694535
30
0
41
1
10
-1.6364017768548
20
-2.03441195821586
30
0
41
1
10
-1.64099020656781
20
-2.03383680716846
30
0
41
1
10
-1.64923629291991
20
-2.038784943228
30
0
41
1
10
-1.65255399964531
20
-2.0435312415232
30
0
41
1
10
-1.66063967690013
20
-2.05871495105521
30
0
41
1
10
-1.66406773388874
20
-2.07036152075671
30
0
41
1
10
-1.67295327541402
20
-2.10521389033298
30
0
41
1
10
-1.67664822107099
20
-2.12914935367809
30
0
41
1
10
-1.68601976866213
20
-2.20039030781453
30
0
41
1
10
-1.68959945108364
20
-2.24810000899228
30
0
41
1
10
-1.69789374352146
20
-2.3912602075379
30
0
41
1
10
-1.69966348304169
20
-2.48612756096904
30
0
41
1
10
-1.69996145716266
20
-2.58068890323881
30
0
0
SPLINE
5
21B
100
AcDbEntity
8
SK1
62
256
6
ByLayer
370
18
48
1
60
0
100
AcDbSpline
70
4
71
3
72
26
73
22
40
0
40
0
40
0
40
0
40
0.0312500000000001
40
0.0312500000000001
40
0.0625000000000003
40
0.0625000000000003
40
0.0937500000000004
40
0.0937500000000004
40
0.125000000000001
40
0.125000000000001
40
0.187500000000001
40
0.187500000000001
40
0.250000000000001
40
0.250000000000001
40
0.375000000000002
40
0.375000000000002
40
0.500000000000002
40
0.500000000000002
40
0.750000000000001
40
0.750000000000001
40
1
40
1
40
1
40
1
41
1
10
-0.39999999999992
20
-4.85227456454999
30
0
41
1
10
-0.39376328779295
20
-4.84663650729328
30
0
41
1
10
-0.387019774317395
20
-4.84161680761804
30
0
41
1
10
-0.371803166997239
20
-4.83402988774014
30
0
41
1
10
-0.363361086088162
20
-4.83161196307762
30
0
41
1
10
-0.345926111920136
20
-4.83181330146459
30
0
41
1
10
-0.337033054187316
20
-4.83460547128513
30
0
41
1
10
-0.32147566133537
20
-4.84385857307521
30
0
41
1
10
-0.314735971519241
20
-4.85007481180139
30
0
41
1
10
-0.296994303249903
20
-4.87040355371243
30
0
41
1
10
-0.288166478250474
20
-4.88618386504783
30
0
41
1
10
-0.273212056316083
20
-4.91801622041677
30
0
41
1
10
-0.267127706470149
20
-4.93430736823274
30
0
41
1
10
-0.251022454987464
20
-4.98373448763203
30
0
41
1
10
-0.243149974278282
20
-5.01751323233989
30
0
41
1
10
-0.230204703014522
20
-5.0844364593234
30
0
41
1
10
-0.225172325676738
20
-5.11781324740099
30
0
41
1
10
-0.21263992444031
20
-5.2177046835458
30
0
41
1
10
-0.207671426663865
20
-5.28398101409357
30
0
41
1
10
-0.201305754211575
20
-5.4159585743279
30
0
41
1
10
-0.199999999999932
20
-5.48171544544959
30
0
41
1
10
-0.199999999999932
20
-5.54704286105718
30
0
0
SPLINE
5
21C
100
AcDbEntity
8
SK1
62
256
6
ByLayer
370
18
48
1
60
0
100
AcDbSpline
70
4
71
3
72
24
73
20
40
0
40
0
40
0
40
0
40
0.0566760783907113
40
0.0566760783907113
40
0.292507058793032
40
0.292507058793032
40
0.528338039195353
40
0.528338039195353
40
0.646253529396515
40
0.646253529396515
40
0.764169019597677
40
0.764169019597677
40
0.823126764698257
40
0.823126764698257
40
0.882084509798838
40
0.882084509798838
40
0.941042254899419
40
0.941042254899419
40
1
40
1
40
1
40
1
41
1
10
-0.218262967664543
20
-13.9259756044899
30
0
41
1
10
-0.219182198007161
20
-13.9243663193602
30
0
41
1
10
-0.220148374140706
20
-13.9227324215875
30
0
41
1
10
-0.22539182130518
20
-13.9141687233657
30
0
41
1
10
-0.2304827160483
20
-13.9068356660934
30
0
41
1
10
-0.243543515905088
20
-13.891029693572
30
0
41
1
10
-0.25142390994651
20
-13.8825628910797
30
0
41
1
10
-0.267620190121903
20
-13.8686743036801
30
0
41
1
10
-0.27378263345841
20
-13.8638193425138
30
0
41
1
10
-0.288879054648476
20
-13.8535372444218
30
0
41
1
10
-0.297539482613246
20
-13.8481844775088
30
0
41
1
10
-0.315471101946542
20
-13.8395368680739
30
0
41
1
10
-0.32229182569094
20
-13.8365782388304
30
0
41
1
10
-0.337698531233258
20
-13.8309872537491
30
0
41
1
10
-0.34648400026407
20
-13.8283381842761
30
0
41
1
10
-0.363738539634682
20
-13.8243096436096
30
0
41
1
10
-0.372122595374435
20
-13.8229165631
30
0
41
1
10
-0.387163049046109
20
-13.821141567135
30
0
41
1
10
-0.393815287664467
20
-13.8207254794661
30
0
41
1
10
-0.399999999999977
20
-13.8205593061294
30
0
0
SPLINE
5
21D
100
AcDbEntity
8
SK1
62
256
6
ByLayer
370
18
48
1
60
0
100
AcDbSpline
70
4
71
3
72
26
73
22
40
0
40
0
40
0
40
0
40
0.250000000000003
40
0.250000000000003
40
0.500000000000005
40
0.500000000000005
40
0.625000000000005
40
0.625000000000005
40
0.750000000000005
40
0.750000000000005
40
0.812500000000005
40
0.812500000000005
40
0.875000000000005
40
0.875000000000005
40
0.906250000000003
40
0.906250000000003
40
0.937500000000002
40
0.937500000000002
40
0.968750000000001
40
0.968750000000001
40
1
40
1
40
1
40
1
41
1
10
-0.199999999999903
20
5.54704287025544
30
0
41
1
10
-0.199999999999903
20
5.48162882321526
30
0
41
1
10
-0.201304969107213
20
5.41586490599749
30
0
41
1
10
-0.207698725150607
20
5.28352555216813
30
0
41
1
10
-0.212702118403314
20
5.21686290430191
30
0
41
1
10
-0.225372797443157
20
5.11639354963779
30
0
41
1
10
-0.230458701357264
20
5.08288973618465
30
0
41
1
10
-0.243504629141455
20
5.01592530726893
30
0
41
1
10
-0.251375408222884
20
4.98240276248384
30
0
41
1
10
-0.267548604682986
20
4.93314759425931
30
0
41
1
10
-0.273702791653733
20
4.91680607655076
30
0
41
1
10
-0.288769973838811
20
4.88507830219544
30
0
41
1
10
-0.297431313447731
20
4.86972146335862
30
0
41
1
10
-0.315312325469875
20
4.8495120628609
30
0
41
1
10
-0.322119716796465
20
4.84337403126676
30
0
41
1
10
-0.337500265830784
20
4.83443774480057
30
0
41
1
10
-0.346263053746242
20
4.83174638192023
30
0
41
1
10
-0.363716126367905
20
4.83167449719483
30
0
41
1
10
-0.372125684789609
20
4.83416445387314
30
0
41
1
10
-0.387061221247677
20
4.84166539782822
30
0
41
1
10
-0.39380700445173
20
4.84667653502061
30
0
41
1
10
-0.39999999999992
20
4.85227506835235
30
0
0
SPLINE
5
21E
100
AcDbEntity
8
SK1
62
256
6
ByLayer
370
18
48
1
60
0
100
AcDbSpline
70
4
71
3
72
8
73
4
40
0
40
0
40
0
40
0
40
1
40
1
40
1
40
1
41
1
10
-1.30710678118655
20
-3.5887172715492
30
0
41
1
10
-1.37540888210663
20
-3.25160142453237
30
0
41
1
10
-1.44078730620282
20
-2.90751932877146
30
0
41
1
10
-1.49999999999989
20
-2.55452633951475
30
0
0
SPLINE
5
21F
100
AcDbEntity
8
SK1
62
256
6
ByLayer
370
18
48
1
60
0
100
AcDbSpline
70
4
71
3
72
26
73
22
40
0
40
0
40
0
40
0
40
0.25
40
0.25
40
0.499999999999999
40
0.499999999999999
40
0.624999999999999
40
0.624999999999999
40
0.749999999999999
40
0.749999999999999
40
0.812499999999999
40
0.812499999999999
40
0.843749999999999
40
0.843749999999999
40
0.874999999999999
40
0.874999999999999
40
0.90625
40
0.90625
40
0.9375
40
0.9375
40
1
40
1
40
1
40
1
41
1
10
-1.30710678118675
20
-3.58871727154821
30
0
41
1
10
-1.2770410479724
20
-3.73711146414564
30
0
41
1
10
-1.24290752413313
20
-3.88311142945619
30
0
41
1
10
-1.16210117950382
20
-4.16971195256144
30
0
41
1
10
-1.11567257229956
20
-4.31079630719424
30
0
41
1
10
-1.02833804242206
20
-4.51460953007248
30
0
41
1
10
-0.996091765097134
20
-4.58154434196089
30
0
41
1
10
-0.92170556029248
20
-4.70963530812213
30
0
41
1
10
-0.880235112913937
20
-4.77112026309476
30
0
41
1
10
-0.800265069156637
20
-4.85374621074735
30
0
41
1
10
-0.770443849397282
20
-4.87963350079767
30
0
41
1
10
-0.719001618424358
20
-4.91087235041408
30
0
41
1
10
-0.700626848346559
20
-4.92000200725136
30
0
41
1
10
-0.662017238182784
20
-4.9339055463663
30
0
41
1
10
-0.641280119564868
20
-4.93876771710427
30
0
41
1
10
-0.599568848505072
20
-4.9425262217311
30
0
41
1
10
-0.578082049698907
20
-4.94143807412283
30
0
41
1
10
-0.537045222159946
20
-4.93374887482733
30
0
41
1
10
-0.517080767182222
20
-4.92714534439065
30
0
41
1
10
-0.461393647242801
20
-4.90206528999568
30
0
41
1
10
-0.429024530142669
20
-4.87851306287462
30
0
41
1
10
-0.39999999999992
20
-4.85227456455002
30
0
0
SPLINE
5
220
100
AcDbEntity
8
SK1
62
256
6
ByLayer
370
18
48
1
60
0
100
AcDbSpline
70
4
71
3
72
8
73
4
40
0
40
0
40
0
40
0
40
1
40
1
40
1
40
1
41
1
10
-1.50000000000063
20
2.55452876951017
30
0
41
1
10
-1.44078675385307
20
2.90752061837338
30
0
41
1
10
-1.37540853169585
20
3.2516020134309
30
0
41
1
10
-1.30710678118652
20
3.58871725126212
30
0
0
SPLINE
5
221
100
AcDbEntity
8
SK1
62
256
6
ByLayer
370
18
48
1
60
0
100
AcDbSpline
70
4
71
3
72
24
73
20
40
0
40
0
40
0
40
0
40
0.0625000000000002
40
0.0625000000000002
40
0.125
40
0.125
40
0.187500000000001
40
0.187500000000001
40
0.250000000000001
40
0.250000000000001
40
0.312500000000001
40
0.312500000000001
40
0.375000000000001
40
0.375000000000001
40
0.5
40
0.5
40
0.75
40
0.75
40
1
40
1
40
1
40
1
41
1
10
-0.399999999999892
20
4.85227506835235
30
0
41
1
10
-0.429028522387654
20
4.87851715893601
30
0
41
1
10
-0.461669517108362
20
4.9022122740283
30
0
41
1
10
-0.535635842083423
20
4.93548015393125
30
0
41
1
10
-0.578042687204231
20
4.94445593383577
30
0
41
1
10
-0.662695203082052
20
4.936848854717
30
0
41
1
10
-0.701977887727935
20
4.92120757612898
30
0
41
1
10
-0.770280811796994
20
4.87973605687952
30
0
41
1
10
-0.800192972747141
20
4.85380950611167
30
0
41
1
10
-0.853469820313023
20
4.79878665655178
30
0
41
1
10
-0.877345244832242
20
4.76909028975203
30
0
41
1
10
-0.921269196330456
20
4.70771179233338
30
0
41
1
10
-0.941162707941658
20
4.6762162425587
30
0
41
1
10
-0.996843936527853
20
4.5800735638295
30
0
41
1
10
-1.02870604240499
20
4.51379601608861
30
0
41
1
10
-1.11562010765073
20
4.31082835787518
30
0
41
1
10
-1.16210693251719
20
4.16969559228221
30
0
41
1
10
-1.24292111111839
20
3.88305937901257
30
0
41
1
10
-1.27704897241461
20
3.73707282454211
30
0
41
1
10
-1.30710678118675
20
3.58871725126116
30
0
0
LINE
5
70
100
AcDbEntity
8
80
62
256
6
ByLayer
370
18
48
1
60
0
100
AcDbLine
10
0
20
0
30
0
11
-7
21
0
31
0
39
0
210
0
220
0
230
1
0
LINE
5
71
100
AcDbEntity
8
81
62
256
6
ByLayer
370
18
48
1
60
0
100
AcDbLine
10
71
20
0
30
0
11
78
21
0
31
0
39
0
210
0
220
0
230
1
0
LINE
5
72
100
AcDbEntity
8
1
62
256
6
ByLayer
370
18
48
1
60
0
100
AcDbLine
10
0.3
20
20
30
0
11
0
21
19.7
31
0
39
0
210
0
220
0
230
1
0
LINE
5
74
100
AcDbEntity
8
1
62
256
6
ByLayer
370
18
48
1
60
0
100
AcDbLine
10
0
20
-19.7
30
0
11
0.3
21
-20
31
0
39
0
210
0
220
0
230
1
0
LINE
5
75
100
AcDbEntity
8
1
62
256
6
ByLayer
370
18
48
1
60
0
100
AcDbLine
10
19.4
20
-20
30
0
11
19.7
21
-19.7
31
0
39
0
210
0
220
0
230
1
0
LINE
5
76
100
AcDbEntity
8
1
62
256
6
ByLayer
370
18
48
1
60
0
100
AcDbLine
10
19.4
20
20
30
0
11
0.3
21
20
31
0
39
0
210
0
220
0
230
1
0
LINE
5
77
100
AcDbEntity
8
1
62
256
6
ByLayer
370
18
48
1
60
0
100
AcDbLine
10
0.3
20
-20
30
0
11
19.4
21
-20
31
0
39
0
210
0
220
0
230
1
0
LINE
5
78
100
AcDbEntity
8
1
62
256
6
ByLayer
370
18
48
1
60
0
100
AcDbLine
10
20
20
-12.4
30
0
11
20.1
21
-12.5
31
0
39
0
210
0
220
0
230
1
0
LINE
5
79
100
AcDbEntity
8
1
62
256
6
ByLayer
370
18
48
1
60
0
100
AcDbLine
10
19.7
20
-12.5
30
0
11
20
21
-12.5
31
0
39
0
210
0
220
0
230
1
0
LINE
5
7A
100
AcDbEntity
8
1
62
256
6
ByLayer
370
18
48
1
60
0
100
AcDbLine
10
24.7
20
12.5
30
0
11
20.1
21
12.5
31
0
39
0
210
0
220
0
230
1
0
LINE
5
7B
100
AcDbEntity
8
1
62
256
6
ByLayer
370
18
48
1
60
0
100
AcDbLine
10
20.1
20
-12.5
30
0
11
24.7
21
-12.5
31
0
39
0
210
0
220
0
230
1
0
LINE
5
7C
100
AcDbEntity
8
1
62
256
6
ByLayer
370
18
48
1
60
0
100
AcDbLine
10
25.043045
20
11.592945
30
0
11
24.825882
21
12.403407
31
0
39
0
210
0
220
0
230
1
0
LINE
5
7D
100
AcDbEntity
8
1
62
256
6
ByLayer
370
18
48
1
60
0
100
AcDbLine
10
41.133605
20
5.725
30
0
11
32
21
5.725
31
0
39
0
210
0
220
0
230
1
0
LINE
5
7E
100
AcDbEntity
8
1
62
256
6
ByLayer
370
18
48
1
60
0
100
AcDbLine
10
64.887412
20
5.725
30
0
11
63.265703
21
5.725
31
0
39
0
210
0
220
0
230
1
0
LINE
5
7F
100
AcDbEntity
8
1
62
256
6
ByLayer
370
18
48
1
60
0
100
AcDbLine
10
32
20
-5.725
30
0
11
41.732952
21
-5.725
31
0
39
0
210
0
220
0
230
1
0
LINE
5
80
100
AcDbEntity
8
1
62
256
6
ByLayer
370
18
48
1
60
0
100
AcDbLine
10
19.7
20
19.7
30
0
11
19.4
21
20
31
0
39
0
210
0
220
0
230
1
0
LINE
5
81
100
AcDbEntity
8
1
62
256
6
ByLayer
370
18
48
1
60
0
100
AcDbLine
10
20.1
20
12.5
30
0
11
20
21
12.4
31
0
39
0
210
0
220
0
230
1
0
LINE
5
82
100
AcDbEntity
8
1
62
256
6
ByLayer
370
18
48
1
60
0
100
AcDbLine
10
24.7
20
-12.5
30
0
11
24.825882
21
-12.403407
31
0
39
0
210
0
220
0
230
1
0
LINE
5
83
100
AcDbEntity
8
1
62
256
6
ByLayer
370
18
48
1
60
0
100
AcDbLine
10
20
20
12.5
30
0
11
19.7
21
12.5
31
0
39
0
210
0
220
0
230
1
0
LINE
5
84
100
AcDbEntity
8
1
62
256
6
ByLayer
370
18
48
1
60
0
100
AcDbLine
10
24.825882
20
-12.403407
30
0
11
25.043045
21
-11.592945
31
0
39
0
210
0
220
0
230
1
0
LINE
5
85
100
AcDbEntity
8
1
62
256
6
ByLayer
370
18
48
1
60
0
100
AcDbLine
10
25.815785
20
-11
30
0
11
26.3
21
-11
31
0
39
0
210
0
220
0
230
1
0
LINE
5
86
100
AcDbEntity
8
1
62
256
6
ByLayer
370
18
48
1
60
0
100
AcDbLine
10
24.825882
20
12.403407
30
0
11
24.7
21
12.5
31
0
39
0
210
0
220
0
230
1
0
LINE
5
87
100
AcDbEntity
8
1
62
256
6
ByLayer
370
18
48
1
60
0
100
AcDbLine
10
26.3
20
11
30
0
11
25.815785
21
11
31
0
39
0
210
0
220
0
230
1
0
LINE
5
88
100
AcDbEntity
8
SK4
62
256
6
ByLayer
370
13
48
0.05
60
0
100
AcDbLine
10
71
20
0
30
0
11
-24
21
0
31
0
39
0
210
0
220
0
230
1
0
LINE
5
8A
100
AcDbEntity
8
4
62
256
6
ByLayer
370
18
48
0.05
60
0
100
AcDbLine
10
71
20
0
30
0
11
0
21
0
31
0
39
0
210
0
220
0
230
1
0
LINE
5
8C
100
AcDbEntity
8
1
62
256
6
ByLayer
370
18
48
1
60
0
100
AcDbLine
10
70.068836
20
0.172536
30
0
11
70.147199
21
0.186327
31
0
39
0
210
0
220
0
230
1
0
LINE
5
8D
100
AcDbEntity
8
1
62
256
6
ByLayer
370
18
48
1
60
0
100
AcDbLine
10
25.043045
20
11.592945
30
0
11
25.043045
21
7.695811
31
0
39
0
210
0
220
0
230
1
0
LINE
5
8E
100
AcDbEntity
8
1
62
256
6
ByLayer
370
18
48
1
60
0
100
AcDbLine
10
62.274253
20
0.496553
30
0
11
62.197979
21
0.262057
31
0
39
0
210
0
220
0
230
1
0
LINE
5
8F
100
AcDbEntity
8
1
62
256
6
ByLayer
370
18
48
1
60
0
100
AcDbLine
10
64.563065
20
0.931609
30
0
11
64.608948
21
0.931609
31
0
39
0
210
0
220
0
230
1
0
LINE
5
90
100
AcDbEntity
8
1
62
256
6
ByLayer
370
18
48
1
60
0
100
AcDbLine
10
70.077867
20
1.07968
30
0
11
70.082517
21
0.640731
31
0
39
0
210
0
220
0
230
1
0
LINE
5
91
100
AcDbEntity
8
1
62
256
6
ByLayer
370
18
48
1
60
0
100
AcDbLine
10
64.434203
20
2.567331
30
0
11
64.31448
21
2.567331
31
0
39
0
210
0
220
0
230
1
0
LINE
5
92
100
AcDbEntity
8
1
62
256
6
ByLayer
370
18
48
1
60
0
100
AcDbLine
10
9.076795
20
-5.85989
30
0
11
9.076795
21
-19.122283
31
0
39
0
210
0
220
0
230
1
0
LINE
5
93
100
AcDbEntity
8
1
62
256
6
ByLayer
370
18
48
1
60
0
100
AcDbLine
10
6.923205
20
19.122283
30
0
11
6.923205
21
5.85989
31
0
39
0
210
0
220
0
230
1
0
LINE
5
94
100
AcDbEntity
8
1
62
256
6
ByLayer
370
18
48
1
60
0
100
AcDbLine
10
6.923205
20
19.122283
30
0
11
9.076795
21
19.122283
31
0
39
0
210
0
220
0
230
1
0
LINE
5
95
100
AcDbEntity
8
1
62
256
6
ByLayer
370
18
48
1
60
0
100
AcDbLine
10
64.434203
20
2.567331
30
0
11
64.497355
21
2.703278
31
0
39
0
210
0
220
0
230
1
0
LINE
5
96
100
AcDbEntity
8
1
62
256
6
ByLayer
370
18
48
1
60
0
100
AcDbLine
10
64.200858
20
2.326892
30
0
11
64.206419
21
2.326892
31
0
39
0
210
0
220
0
230
1
0
LINE
5
97
100
AcDbEntity
8
1
62
256
6
ByLayer
370
18
48
1
60
0
100
AcDbLine
10
70.40072
20
-1.627435
30
0
11
70.035405
21
-3.695373
31
0
39
0
210
0
220
0
230
1
0
LINE
5
98
100
AcDbEntity
8
1
62
256
6
ByLayer
370
18
48
1
60
0
100
AcDbLine
10
66.191624
20
0.906797
30
0
11
66.029341
21
0.827663
31
0
39
0
210
0
220
0
230
1
0
LINE
5
99
100
AcDbEntity
8
1
62
256
6
ByLayer
370
18
48
1
60
0
100
AcDbLine
10
9.076795
20
19.122283
30
0
11
9.076795
21
5.85989
31
0
39
0
210
0
220
0
230
1
0
LINE
5
9A
100
AcDbEntity
8
1
62
256
6
ByLayer
370
18
48
1
60
0
100
AcDbLine
10
70.089182
20
0.20539
30
0
11
70.080067
21
0.203786
31
0
39
0
210
0
220
0
230
1
0
LINE
5
9B
100
AcDbEntity
8
1
62
256
6
ByLayer
370
18
48
1
60
0
100
AcDbLine
10
6.923205
20
-5.85989
30
0
11
9.076795
21
-5.85989
31
0
39
0
210
0
220
0
230
1
0
LINE
5
9C
100
AcDbEntity
8
1
62
256
6
ByLayer
370
18
48
1
60
0
100
AcDbLine
10
70.40072
20
-1.627435
30
0
11
70.003958
21
-1.440673
31
0
39
0
210
0
220
0
230
1
0
LINE
5
9D
100
AcDbEntity
8
1
62
256
6
ByLayer
370
18
48
1
60
0
100
AcDbLine
10
70.150114
20
-0.450625
30
0
11
70.40072
21
-1.627435
31
0
39
0
210
0
220
0
230
1
0
LINE
5
9E
100
AcDbEntity
8
1
62
256
6
ByLayer
370
18
48
1
60
0
100
AcDbLine
10
25.815785
20
3.423171
30
0
11
25.815785
21
-11
31
0
39
0
210
0
220
0
230
1
0
LINE
5
9F
100
AcDbEntity
8
1
62
256
6
ByLayer
370
18
48
1
60
0
100
AcDbLine
10
24.825882
20
5.696778
30
0
11
24.825882
21
-12.403407
31
0
39
0
210
0
220
0
230
1
0
LINE
5
A0
100
AcDbEntity
8
1
62
256
6
ByLayer
370
18
48
1
60
0
100
AcDbLine
10
69.876612
20
0.869123
30
0
11
69.459896
21
0.906797
31
0
39
0
210
0
220
0
230
1
0
LINE
5
A1
100
AcDbEntity
8
1
62
256
6
ByLayer
370
18
48
1
60
0
100
AcDbLine
10
69.686075
20
-0.088372
30
0
11
69.876612
21
0.869123
31
0
39
0
210
0
220
0
230
1
0
LINE
5
A2
100
AcDbEntity
8
1
62
256
6
ByLayer
370
18
48
1
60
0
100
AcDbLine
10
25.815785
20
11
30
0
11
25.815785
21
7.8125
31
0
39
0
210
0
220
0
230
1
0
LINE
5
A3
100
AcDbEntity
8
1
62
256
6
ByLayer
370
18
48
1
60
0
100
AcDbLine
10
64.224505
20
2.518243
30
0
11
64.854642
21
5.72261
31
0
39
0
210
0
220
0
230
1
0
LINE
5
A4
100
AcDbEntity
8
1
62
256
6
ByLayer
370
18
48
1
60
0
100
AcDbLine
10
64.549167
20
0.253666
30
0
11
64.631458
21
0.50666
31
0
39
0
210
0
220
0
230
1
0
LINE
5
A5
100
AcDbEntity
8
1
62
256
6
ByLayer
370
18
48
1
60
0
100
AcDbLine
10
9.336603
20
19.024574
30
0
11
9.336603
21
6.16973
31
0
39
0
210
0
220
0
230
1
0
LINE
5
A6
100
AcDbEntity
8
1
62
256
6
ByLayer
370
18
48
1
60
0
100
AcDbLine
10
6.663397
20
-6.16973
30
0
11
6.663397
21
-19.024574
31
0
39
0
210
0
220
0
230
1
0
LINE
5
A7
100
AcDbEntity
8
1
62
256
6
ByLayer
370
18
48
1
60
0
100
AcDbLine
10
70.056802
20
0.865599
30
0
11
69.876612
21
0.869123
31
0
39
0
210
0
220
0
230
1
0
LINE
5
A8
100
AcDbEntity
8
1
62
256
6
ByLayer
370
18
48
1
60
0
100
AcDbLine
10
64.230066
20
2.518243
30
0
11
64.224505
21
2.518243
31
0
39
0
210
0
220
0
230
1
0
LINE
5
A9
100
AcDbEntity
8
1
62
256
6
ByLayer
370
18
48
1
60
0
100
AcDbLine
10
26.3
20
11
30
0
11
26.3
21
7.998153
31
0
39
0
210
0
220
0
230
1
0
LINE
5
AA
100
AcDbEntity
8
1
62
256
6
ByLayer
370
18
48
1
60
0
100
AcDbLine
10
66.191624
20
0.906797
30
0
11
69.459896
21
0.906797
31
0
39
0
210
0
220
0
230
1
0
LINE
5
AB
100
AcDbEntity
8
1
62
256
6
ByLayer
370
18
48
1
60
0
100
AcDbLine
10
70.002715
20
-5.720785
30
0
11
70.2153
21
-4.517404
31
0
39
0
210
0
220
0
230
1
0
LINE
5
AC
100
AcDbEntity
8
1
62
256
6
ByLayer
370
18
48
1
60
0
100
AcDbLine
10
19.4
20
20
30
0
11
19.4
21
-20
31
0
39
0
210
0
220
0
230
1
0
LINE
5
AD
100
AcDbEntity
8
1
62
256
6
ByLayer
370
18
48
1
60
0
100
AcDbLine
10
54.527566
20
4.383789
30
0
11
63.40109
21
3.311352
31
0
39
0
210
0
220
0
230
1
0
LINE
5
AE
100
AcDbEntity
8
1
62
256
6
ByLayer
370
18
48
1
60
0
100
AcDbLine
10
25.043045
20
-11.592945
30
0
11
25.043045
21
4.703176
31
0
39
0
210
0
220
0
230
1
0
LINE
5
AF
100
AcDbEntity
8
1
62
256
6
ByLayer
370
18
48
1
60
0
100
AcDbLine
10
24.7
20
-12.5
30
0
11
24.7
21
6.03646
31
0
39
0
210
0
220
0
230
1
0
LINE
5
B0
100
AcDbEntity
8
1
62
256
6
ByLayer
370
18
48
1
60
0
100
AcDbLine
10
6.923205
20
-5.85989
30
0
11
6.923205
21
-19.122283
31
0
39
0
210
0
220
0
230
1
0
LINE
5
B1
100
AcDbEntity
8
1
62
256
6
ByLayer
370
18
48
1
60
0
100
AcDbLine
10
19.7
20
19.7
30
0
11
19.7
21
-19.7
31
0
39
0
210
0
220
0
230
1
0
LINE
5
B2
100
AcDbEntity
8
1
62
256
6
ByLayer
370
18
48
1
60
0
100
AcDbLine
10
64.230066
20
2.518243
30
0
11
64.860496
21
5.724094
31
0
39
0
210
0
220
0
230
1
0
LINE
5
B3
100
AcDbEntity
8
1
62
256
6
ByLayer
370
18
48
1
60
0
100
AcDbLine
10
24.825882
20
12.403407
30
0
11
24.825882
21
8.021545
31
0
39
0
210
0
220
0
230
1
0
LINE
5
B4
100
AcDbEntity
8
1
62
256
6
ByLayer
370
18
48
1
60
0
100
AcDbLine
10
26.3
20
3.128648
30
0
11
26.3
21
-11
31
0
39
0
210
0
220
0
230
1
0
LINE
5
B5
100
AcDbEntity
8
1
62
256
6
ByLayer
370
18
48
1
60
0
100
AcDbLine
10
66.862081
20
-2.532895
30
0
11
66.736968
21
-2.532895
31
0
39
0
210
0
220
0
230
1
0
LINE
5
B6
100
AcDbEntity
8
1
62
256
6
ByLayer
370
18
48
1
60
0
100
AcDbLine
10
9.336603
20
-6.16973
30
0
11
9.336603
21
-19.024574
31
0
39
0
210
0
220
0
230
1
0
LINE
5
B7
100
AcDbEntity
8
1
62
256
6
ByLayer
370
18
48
1
60
0
100
AcDbLine
10
20
20
12.5
30
0
11
20
21
-12.5
31
0
39
0
210
0
220
0
230
1
0
LINE
5
B8
100
AcDbEntity
8
1
62
256
6
ByLayer
370
18
48
1
60
0
100
AcDbLine
10
70.147199
20
0.186327
30
0
11
70.151164
21
0.189109
31
0
39
0
210
0
220
0
230
1
0
LINE
5
B9
100
AcDbEntity
8
1
62
256
6
ByLayer
370
18
48
1
60
0
100
AcDbLine
10
69.459896
20
0.906797
30
0
11
69.587705
21
0.906797
31
0
39
0
210
0
220
0
230
1
0
LINE
5
BA
100
AcDbEntity
8
1
62
256
6
ByLayer
370
18
48
1
60
0
100
AcDbLine
10
20.1
20
12.5
30
0
11
20.1
21
-12.5
31
0
39
0
210
0
220
0
230
1
0
LINE
5
BB
100
AcDbEntity
8
1
62
256
6
ByLayer
370
18
48
1
60
0
100
AcDbLine
10
32
20
-5.725
30
0
11
32
21
-4.468705
31
0
39
0
210
0
220
0
230
1
0
LINE
5
BC
100
AcDbEntity
8
1
62
256
6
ByLayer
370
18
48
1
60
0
100
AcDbLine
10
63.40109
20
3.311352
30
0
11
63.40109
21
5.724872
31
0
39
0
210
0
220
0
230
1
0
LINE
5
BD
100
AcDbEntity
8
1
62
256
6
ByLayer
370
18
48
1
60
0
100
AcDbLine
10
70.089182
20
0.20539
30
0
11
70.147199
21
0.186327
31
0
39
0
210
0
220
0
230
1
0
LINE
5
BE
100
AcDbEntity
8
1
62
256
6
ByLayer
370
18
48
1
60
0
100
AcDbLine
10
32
20
5.725
30
0
11
32
21
3.095285
31
0
39
0
210
0
220
0
230
1
0
LINE
5
BF
100
AcDbEntity
8
1
62
256
6
ByLayer
370
18
48
1
60
0
100
AcDbLine
10
63.127782
20
-5.720785
30
0
11
70.002715
21
-5.720785
31
0
39
0
210
0
220
0
230
1
0
LINE
5
C0
100
AcDbEntity
8
1
62
256
6
ByLayer
370
18
48
1
60
0
100
AcDbLine
10
9.076795
20
5.85989
30
0
11
6.923205
21
5.85989
31
0
39
0
210
0
220
0
230
1
0
LINE
5
C1
100
AcDbEntity
8
1
62
256
6
ByLayer
370
18
48
1
60
0
100
AcDbLine
10
0
20
-19.7
30
0
11
0
21
19.7
31
0
39
0
210
0
220
0
230
1
0
LINE
5
C2
100
AcDbEntity
8
1
62
256
6
ByLayer
370
18
48
1
60
0
100
AcDbLine
10
64.398022
20
-0.211009
30
0
11
64.482439
21
0.04852
31
0
39
0
210
0
220
0
230
1
0
LINE
5
C3
100
AcDbEntity
8
1
62
256
6
ByLayer
370
18
48
1
60
0
100
AcDbLine
10
70.056802
20
0.865599
30
0
11
69.587703
21
0.906797
31
0
39
0
210
0
220
0
230
1
0
LINE
5
C4
100
AcDbEntity
8
1
62
256
6
ByLayer
370
18
48
1
60
0
100
AcDbLine
10
24.7
20
12.5
30
0
11
24.7
21
7.873649
31
0
39
0
210
0
220
0
230
1
0
LINE
5
C5
100
AcDbEntity
8
1
62
256
6
ByLayer
370
18
48
1
60
0
100
AcDbLine
10
0.3
20
-20
30
0
11
0.3
21
20
31
0
39
0
210
0
220
0
230
1
0
LINE
5
C6
100
AcDbEntity
8
1
62
256
6
ByLayer
370
18
48
1
60
0
100
AcDbLine
10
64.72644
20
0.79867
30
0
11
64.726664
21
0.799358
31
0
39
0
210
0
220
0
230
1
0
LINE
5
C7
100
AcDbEntity
8
1
62
256
6
ByLayer
370
18
48
1
60
0
100
AcDbLine
10
69.991666
20
-4.479742
30
0
11
70.2153
21
-4.517404
31
0
39
0
210
0
220
0
230
1
0
LINE
5
C8
100
AcDbEntity
8
1
62
256
6
ByLayer
370
18
48
1
60
0
100
AcDbLine
10
64.497355
20
2.703278
30
0
11
64.384202
21
2.703278
31
0
39
0
210
0
220
0
230
1
0
LINE
5
C9
100
AcDbEntity
8
1
62
256
6
ByLayer
370
18
48
1
60
0
100
AcDbLine
10
68.540567
20
-2.532895
30
0
11
68.415455
21
-2.532895
31
0
39
0
210
0
220
0
230
1
0
LINE
5
CA
100
AcDbEntity
8
1
62
256
6
ByLayer
370
18
48
1
60
0
100
AcDbLine
10
9.076795
20
-19.122283
30
0
11
6.923205
21
-19.122283
31
0
39
0
210
0
220
0
230
1
0
LINE
5
CB
100
AcDbEntity
8
1
62
256
6
ByLayer
370
18
48
1
60
0
100
AcDbLine
10
63.069924
20
2.122552
30
0
11
62.450777
21
2.412368
31
0
39
0
210
0
220
0
230
1
0
LINE
5
CC
100
AcDbEntity
8
1
62
256
6
ByLayer
370
18
48
1
60
0
100
AcDbLine
10
6.663397
20
19.024574
30
0
11
6.663397
21
6.16973
31
0
39
0
210
0
220
0
230
1
0
LINE
5
CD
100
AcDbEntity
8
1
62
256
6
ByLayer
370
18
48
1
60
0
100
AcDbLine
10
70.543159
20
5.886751
30
0
11
70.491519
21
5.825701
31
0
39
0
210
0
220
0
230
1
0
LINE
5
CE
100
AcDbEntity
8
1
62
256
6
ByLayer
370
18
48
1
60
0
100
AcDbLine
10
70.072749
20
1.079045
30
0
11
66.763196
21
1.079045
31
0
39
0
210
0
220
0
230
1
0
LINE
5
CF
100
AcDbEntity
8
1
62
256
6
ByLayer
370
18
48
1
60
0
100
AcDbLine
10
65.007588
20
5.55628
30
0
11
65.084913
21
5.541073
31
0
39
0
210
0
220
0
230
1
0
LINE
5
D0
100
AcDbEntity
8
1
62
256
6
ByLayer
370
18
48
1
60
0
100
AcDbLine
10
70.299697
20
5.9789
30
0
11
70.297813
21
5.899215
31
0
39
0
210
0
220
0
230
1
0
LINE
5
D1
100
AcDbEntity
8
1
62
256
6
ByLayer
370
18
48
1
60
0
100
AcDbLine
10
65.129718
20
0.982353
30
0
11
65.13934
21
1.061383
31
0
39
0
210
0
220
0
230
1
0
LINE
5
D2
100
AcDbEntity
8
1
62
256
6
ByLayer
370
18
48
1
60
0
100
AcDbLine
10
64.929083
20
1.071339
30
0
11
64.979507
21
1.132388
31
0
39
0
210
0
220
0
230
1
0
LINE
5
D3
100
AcDbEntity
8
1
62
256
6
ByLayer
370
18
48
1
60
0
100
AcDbLine
10
70.141531
20
5.974713
30
0
11
70.146461
21
5.895211
31
0
39
0
210
0
220
0
230
1
0
LINE
5
D4
100
AcDbEntity
8
1
62
256
6
ByLayer
370
18
48
1
60
0
100
AcDbLine
10
70.886237
20
4.158331
30
0
11
70.964778
21
4.173537
31
0
39
0
210
0
220
0
230
1
0
LINE
5
D5
100
AcDbEntity
8
1
62
256
6
ByLayer
370
18
48
1
60
0
100
AcDbLine
10
66.762271
20
1.079044
30
0
11
66.761663
21
1.15874
31
0
39
0
210
0
220
0
230
1
0
LINE
5
D6
100
AcDbEntity
8
1
62
256
6
ByLayer
370
18
48
1
60
0
100
AcDbLine
10
70.677647
20
5.656343
30
0
11
70.599106
21
5.641136
31
0
39
0
210
0
220
0
230
1
0
LINE
5
D7
100
AcDbEntity
8
1
62
256
6
ByLayer
370
18
48
1
60
0
100
AcDbLine
10
65.172545
20
0.979189
30
0
11
65.173213
21
1.058874
31
0
39
0
210
0
220
0
230
1
0
LINE
5
D8
100
AcDbEntity
8
1
62
256
6
ByLayer
370
18
48
1
60
0
100
AcDbLine
10
65.330711
20
0.983377
30
0
11
65.324565
21
1.062878
31
0
39
0
210
0
220
0
230
1
0
LINE
5
D9
100
AcDbEntity
8
1
62
256
6
ByLayer
370
18
48
1
60
0
100
AcDbLine
10
70.464654
20
1.40181
30
0
11
70.386113
21
1.417016
31
0
39
0
210
0
220
0
230
1
0
LINE
5
DA
100
AcDbEntity
8
1
62
256
6
ByLayer
370
18
48
1
60
0
100
AcDbLine
10
70.677647
20
5.656343
30
0
11
70.964602
21
4.174449
31
0
39
0
210
0
220
0
230
1
0
LINE
5
DB
100
AcDbEntity
8
1
62
256
6
ByLayer
370
18
48
1
60
0
100
AcDbLine
10
64.794594
20
1.301747
30
0
11
64.87192
21
1.316953
31
0
39
0
210
0
220
0
230
1
0
LINE
5
DC
100
AcDbEntity
8
1
62
256
6
ByLayer
370
18
48
1
60
0
100
AcDbLine
10
70.072749
20
1.079045
30
0
11
70.072142
21
1.15874
31
0
39
0
210
0
220
0
230
1
0
LINE
5
DD
100
AcDbEntity
8
1
62
256
6
ByLayer
370
18
48
1
60
0
100
AcDbLine
10
65.170545
20
0.979226
30
0
11
65.171372
21
1.058907
31
0
39
0
210
0
220
0
230
1
0
LINE
5
DE
100
AcDbEntity
8
1
62
256
6
ByLayer
370
18
48
1
60
0
100
AcDbLine
10
64.794594
20
1.301747
30
0
11
64.507639
21
2.78364
31
0
39
0
210
0
220
0
230
1
0
LINE
5
DF
100
AcDbEntity
8
1
62
256
6
ByLayer
370
18
48
1
60
0
100
AcDbLine
10
64.507816
20
2.975361
30
0
11
64.585142
21
2.960154
31
0
39
0
210
0
220
0
230
1
0
LINE
5
E0
100
AcDbEntity
8
1
62
256
6
ByLayer
370
18
48
1
60
0
100
AcDbLine
10
65.399492
20
5.879045
30
0
11
65.398884
21
5.799349
31
0
39
0
210
0
220
0
230
1
0
LINE
5
E1
100
AcDbEntity
8
1
62
256
6
ByLayer
370
18
48
1
60
0
100
AcDbLine
10
68.709971
20
5.879045
30
0
11
68.709363
21
5.799349
31
0
39
0
210
0
220
0
230
1
0
LINE
5
E2
100
AcDbEntity
8
1
62
256
6
ByLayer
370
18
48
1
60
0
100
AcDbLine
10
70.342523
20
5.975736
30
0
11
70.331686
21
5.896706
31
0
39
0
210
0
220
0
230
1
0
LINE
5
E3
100
AcDbEntity
8
1
62
256
6
ByLayer
370
18
48
1
60
0
100
AcDbLine
10
66.623291
20
1.074108
30
0
11
65.330711
21
0.983377
31
0
39
0
210
0
220
0
230
1
0
LINE
5
E4
100
AcDbEntity
8
1
62
256
6
ByLayer
370
18
48
1
60
0
100
AcDbLine
10
70.964426
20
3.982729
30
0
11
70.885884
21
3.997935
31
0
39
0
210
0
220
0
230
1
0
LINE
5
E5
100
AcDbEntity
8
1
62
256
6
ByLayer
370
18
48
1
60
0
100
AcDbLine
10
65.00741
20
5.555368
30
0
11
64.507816
21
2.975361
31
0
39
0
210
0
220
0
230
1
0
LINE
5
E6
100
AcDbEntity
8
1
62
256
6
ByLayer
370
18
48
1
60
0
100
AcDbLine
10
66.623291
20
1.074108
30
0
11
66.617145
21
1.153609
31
0
39
0
210
0
220
0
230
1
0
LINE
5
E7
100
AcDbEntity
8
1
62
256
6
ByLayer
370
18
48
1
60
0
100
AcDbLine
10
64.584789
20
2.799758
30
0
11
64.507464
21
2.784552
31
0
39
0
210
0
220
0
230
1
0
LINE
5
E8
100
AcDbEntity
8
1
62
256
6
ByLayer
370
18
48
1
60
0
100
AcDbLine
10
68.848951
20
5.883981
30
0
11
70.141531
21
5.974713
31
0
39
0
210
0
220
0
230
1
0
LINE
5
E9
100
AcDbEntity
8
1
62
256
6
ByLayer
370
18
48
1
60
0
100
AcDbLine
10
68.709046
20
5.879045
30
0
11
65.399492
21
5.879045
31
0
39
0
210
0
220
0
230
1
0
LINE
5
EA
100
AcDbEntity
8
1
62
256
6
ByLayer
370
18
48
1
60
0
100
AcDbLine
10
70.464831
20
1.402721
30
0
11
70.964426
21
3.982729
31
0
39
0
210
0
220
0
230
1
0
LINE
5
EB
100
AcDbEntity
8
1
62
256
6
ByLayer
370
18
48
1
60
0
100
AcDbLine
10
70.301697
20
5.978863
30
0
11
70.299654
21
5.899182
31
0
39
0
210
0
220
0
230
1
0
LINE
5
EC
100
AcDbEntity
8
1
62
256
6
ByLayer
370
18
48
1
60
0
100
AcDbLine
10
68.848951
20
5.883981
30
0
11
68.853881
21
5.80448
31
0
39
0
210
0
220
0
230
1
0
LINE
5
ED
100
AcDbEntity
8
1
62
256
6
ByLayer
370
18
48
1
60
0
100
AcDbLine
10
70.992319
20
-1.834861
30
0
11
70.61157
21
-3.990168
31
0
39
0
210
0
220
0
230
1
0
LINE
5
EE
100
AcDbEntity
8
1
62
256
6
ByLayer
370
18
48
1
60
0
100
AcDbLine
10
70.198648
20
0.147751
30
0
11
70.31942
21
0.235053
31
0
39
0
210
0
220
0
230
1
0
LINE
5
EF
100
AcDbEntity
8
1
62
256
6
ByLayer
370
18
48
1
60
0
100
AcDbLine
10
70.770127
20
-1.541415
30
0
11
70.517747
21
-0.356276
31
0
39
0
210
0
220
0
230
1
0
LINE
5
F0
100
AcDbEntity
8
1
62
256
6
ByLayer
370
18
48
1
60
0
100
AcDbLine
10
70.476048
20
-0.679218
30
0
11
70.649372
21
-1.493124
31
0
39
0
210
0
220
0
230
1
0
LINE
5
F1
100
AcDbEntity
8
1
62
256
6
ByLayer
370
18
48
1
60
0
100
AcDbLine
10
70.496323
20
-3.300611
30
0
11
70.773457
21
-1.731839
31
0
39
0
210
0
220
0
230
1
0
LINE
5
F2
100
AcDbEntity
8
1
62
256
6
ByLayer
370
18
48
1
60
0
100
AcDbLine
10
70.518239
20
-0.088292
30
0
11
70.639011
21
-0.000991
31
0
39
0
210
0
220
0
230
1
0
LINE
5
F3
100
AcDbEntity
8
1
62
256
6
ByLayer
370
18
48
1
60
0
100
AcDbLine
10
70.31942
20
0.235053
30
0
11
70.141936
21
0.219554
31
0
39
0
210
0
220
0
230
1
0
LINE
5
F4
100
AcDbEntity
8
1
62
256
6
ByLayer
370
18
48
1
60
0
100
AcDbLine
10
70.773457
20
-1.731839
30
0
11
70.992319
21
-1.834861
31
0
39
0
210
0
220
0
230
1
0
LINE
5
F5
100
AcDbEntity
8
1
62
256
6
ByLayer
370
18
48
1
60
0
100
AcDbLine
10
70.654484
20
-1.785437
30
0
11
70.382527
21
-3.324906
31
0
39
0
210
0
220
0
230
1
0
LINE
5
F6
100
AcDbEntity
8
1
62
256
6
ByLayer
370
18
48
1
60
0
100
AcDbLine
10
70.639011
20
-0.000991
30
0
11
70.988989
21
-1.644437
31
0
39
0
210
0
220
0
230
1
0
LINE
5
F7
100
AcDbEntity
8
1
62
256
6
ByLayer
370
18
48
1
60
0
100
AcDbLine
10
70.770127
20
-1.541415
30
0
11
70.988989
21
-1.644437
31
0
39
0
210
0
220
0
230
1
0
LINE
5
F8
100
AcDbEntity
8
1
62
256
6
ByLayer
370
18
48
1
60
0
100
AcDbLine
10
70.510992
20
-3.843569
30
0
11
70.61157
21
-3.990168
31
0
39
0
210
0
220
0
230
1
0
LINE
5
F9
100
AcDbEntity
8
1
62
256
6
ByLayer
370
18
48
1
60
0
100
AcDbLine
10
70.300754
20
-4.078681
30
0
11
70.401332
21
-4.22528
31
0
39
0
210
0
220
0
230
1
0
LINE
5
FA
100
AcDbEntity
8
1
62
256
6
ByLayer
370
18
48
1
60
0
100
AcDbLine
10
70.401332
20
-4.22528
30
0
11
69.963504
21
-4.354729
31
0
39
0
210
0
220
0
230
1
0
LINE
5
FB
100
AcDbEntity
8
SK1
62
256
6
ByLayer
370
18
48
1
60
0
100
AcDbLine
10
-1.307107
20
3.588717
30
0
11
-1.307107
21
-3.588717
31
0
39
0
210
0
220
0
230
1
0
LINE
5
FD
100
AcDbEntity
8
SK1
62
256
6
ByLayer
370
18
48
1
60
0
100
AcDbLine
10
-0.2
20
-14.083485
30
0
11
-0.2
21
-5.547043
31
0
39
0
210
0
220
0
230
1
0
LINE
5
FE
100
AcDbEntity
8
SK1
62
256
6
ByLayer
370
18
48
1
60
0
100
AcDbLine
10
-0.2
20
14.083485
30
0
11
-0.2
21
5.547043
31
0
39
0
210
0
220
0
230
1
0
MTEXT
5
222
100
AcDbEntity
8
SK6
62
256
6
ByLayer
370
18
48
1
60
0
100
AcDbMText
10
0.875
20
-80.875
30
0
210
0
220
0
230
1
1
\W0.7295;880-D1200C4-03
40
3.5
41
0
44
1.084337
50
0
71
7
72
5
7
iso_b_vert
0
DIMENSION
5
230
100
AcDbEntity
8
SK2
62
256
6
ByLayer
370
13
48
1
60
0
100
AcDbDimension
2
DimnDraft3D1
10
71
20
-58.81875
30
0
11
23.5
21
-58.81875
31
0
70
32
71
5
72
1
41
1
210
0
220
0
230
1
3
Standard
100
AcDbAlignedDimension
13
-24
23
-3.5875
33
0
14
71
24
-7.5875
34
0
50
0
100
AcDbRotatedDimension
1001
ACAD
1000
DSTYLE
1002
{
1070
   279
1070
     0
1070
   172
1070
     1
1070
   173
1070
     1
1070
   340
1005
223
1070
   271
1070
     1
1070
   272
1070
     2
1070
    77
1070
     1
1070
    73
1070
     0
1070
   171
1070
     3
1070
   274
1070
     4
1070
   177
1070
   150
1070
   176
1070
     9
1070
   178
1070
    43
1070
    78
1070
     8
1070
    48
1040
-0.005
1070
    41
1041
4.175
1070
   147
1041
2.25
1070
    42
1041
1.5875
1070
    44
1041
3.175
1070
   140
1041
4.5
1070
   343
1005
0
1070
   344
1005
0
1002
}
0
DIMENSION
5
23A
100
AcDbEntity
8
SK2
62
256
6
ByLayer
370
13
48
1
60
0
100
AcDbDimension
2
DimnDraft3D2
10
0
20
-46.85
30
0
11
-12
21
-46.85
31
0
70
32
71
5
72
1
41
1
210
0
220
0
230
1
3
Standard
100
AcDbAlignedDimension
13
-24
23
-3.5875
33
0
14
0
24
-21.5875
34
0
50
0
100
AcDbRotatedDimension
1001
ACAD
1000
DSTYLE
1002
{
1070
   279
1070
     0
1070
   172
1070
     1
1070
   173
1070
     1
1070
   340
1005
223
1070
   271
1070
     1
1070
   272
1070
     2
1070
    77
1070
     1
1070
    73
1070
     0
1070
   171
1070
     3
1070
   274
1070
     4
1070
   177
1070
   150
1070
   176
1070
     9
1070
   178
1070
    43
1070
    78
1070
     8
1070
    48
1040
-0.005
1070
    41
1041
4.175
1070
   147
1041
2.25
1070
    42
1041
1.5875
1070
    44
1041
3.175
1070
   140
1041
4.5
1070
   343
1005
0
1070
   344
1005
0
1002
}
0
DIMENSION
5
245
100
AcDbEntity
8
2
62
256
6
ByLayer
370
13
48
1
60
0
100
AcDbDimension
2
DimnDraft3D3
10
71
20
-46.85
30
0
11
35.5
21
-46.85
31
0
70
32
71
5
72
1
41
1
210
0
220
0
230
1
3
Standard
100
AcDbAlignedDimension
13
0
23
-21.5875
33
0
14
71
24
-7.5875
34
0
50
0
100
AcDbRotatedDimension
1001
ACAD
1000
DSTYLE
1002
{
1070
   279
1070
     0
1070
   172
1070
     1
1070
   173
1070
     1
1070
   340
1005
223
1070
   271
1070
     1
1070
   272
1070
     2
1070
    77
1070
     1
1070
    73
1070
     0
1070
   171
1070
     3
1070
   274
1070
     4
1070
   177
1070
   150
1070
   176
1070
     9
1070
   178
1070
    43
1070
    78
1070
     8
1070
    48
1040
-0.005
1070
    41
1041
4.175
1070
   147
1041
2.25
1070
    42
1041
1.5875
1070
    44
1041
3.175
1070
   140
1041
4.5
1070
   343
1005
0
1070
   344
1005
0
1002
}
0
DIMENSION
5
24F
100
AcDbEntity
8
SK2
62
256
6
ByLayer
370
13
48
1
60
0
100
AcDbDimension
2
DimnDraft3D4
10
71
20
-36.85
30
0
11
51.5
21
-36.85
31
0
70
32
71
5
72
1
41
1
210
0
220
0
230
1
3
Standard
100
AcDbAlignedDimension
13
32
23
-11.5875
33
0
14
71
24
-7.5875
34
0
50
0
100
AcDbRotatedDimension
1001
ACAD
1000
DSTYLE
1002
{
1070
   279
1070
     0
1070
   172
1070
     1
1070
   173
1070
     1
1070
   340
1005
223
1070
   271
1070
     1
1070
   272
1070
     2
1070
    77
1070
     1
1070
    73
1070
     0
1070
   171
1070
     3
1070
   274
1070
     4
1070
   177
1070
   150
1070
   176
1070
     9
1070
   178
1070
    43
1070
    78
1070
     8
1070
    48
1040
-0.005
1070
    41
1041
4.175
1070
   147
1041
2.25
1070
    42
1041
1.5875
1070
    44
1041
3.175
1070
   140
1041
4.5
1070
   343
1005
0
1070
   344
1005
0
1002
}
0
DIMENSION
5
25A
100
AcDbEntity
8
SK2
62
256
6
ByLayer
370
13
48
1
60
0
100
AcDbDimension
2
DimnDraft3D5
10
-46.078766
20
20
30
0
11
-46.278766
21
3.825
31
0
70
33
71
5
72
1
41
1
210
0
220
0
230
1
3
Standard
100
AcDbAlignedDimension
13
-1.5875
23
-20
33
0
14
-1.5875
24
20
34
0
1001
ACAD
1000
DSTYLE
1002
{
1070
   279
1070
     0
1070
    74
1070
     0
1070
   173
1070
     1
1070
   340
1005
223
1070
   271
1070
     1
1070
   272
1070
     2
1070
    77
1070
     1
1070
    73
1070
     0
1070
   171
1070
     3
1070
   274
1070
     4
1070
   177
1070
   150
1070
   176
1070
     9
1070
   178
1070
    43
1070
    78
1070
     8
1070
    48
1040
-0.005
1070
    41
1041
4.175
1070
   147
1041
2.25
1070
    42
1041
1.5875
1070
    44
1041
3.175
1070
   140
1041
4.5
1070
   343
1005
0
1070
   344
1005
0
1002
}
0
DIMENSION
5
265
100
AcDbEntity
8
2
62
256
6
ByLayer
370
13
48
1
60
0
100
AcDbDimension
2
DimnDraft3D6
10
101.15
20
-6
30
0
11
94.6
21
-22.363816
31
0
70
33
71
5
72
1
41
1
210
0
220
0
230
1
3
Standard
100
AcDbAlignedDimension
13
72.5875
23
6
33
0
14
72.5875
24
-6
34
0
1001
ACAD
1000
DSTYLE
1002
{
1070
   279
1070
     0
1070
    74
1070
     0
1070
   173
1070
     1
1070
   340
1005
223
1070
   271
1070
     2
1070
   272
1070
     2
1070
    77
1070
     1
1070
    73
1070
     0
1070
   171
1070
     3
1070
   274
1070
     4
1070
   177
1070
   150
1070
   176
1070
     9
1070
   178
1070
    43
1070
    78
1070
     8
1070
    48
1040
-0.005
1070
    41
1041
4.175
1070
   147
1041
2.25
1070
    42
1041
1.5875
1070
    44
1041
3.175
1070
   140
1041
4.5
1070
   343
1005
0
1070
   344
1005
0
1002
}
0
ENDSEC
0
SECTION
2
OBJECTS
0
DICTIONARY
5
2d0
330
0
100
AcDbDictionary
280
0
281
1
3
ACAD_GROUP
350
2d1
3
ACAD_MLINESTYLE
350
2d2
0
DICTIONARY
5
2d1
330
0
100
AcDbDictionary
280
0
281
1
0
DICTIONARY
5
2d2
330
0
100
AcDbDictionary
280
0
281
1
3
Standard
350
18
0
MLINESTYLE
5
18
330
2d2
100
AcDbMlineStyle
2
Standard
70
0
3

62
256
51
90
52
90
71
2
49
-0.5
62
256
6
ByLayer
49
0.5
62
256
6
ByLayer
0
RASTERVARIABLES
5
2be
330

100
AcDbRasterVariables
90
0
70
1
71
1
72
1
0
ENDSEC
0
EOF
