0
SECTION
2
HEADER
9
$ACADVER
1
AC1015
9
$DWGCODEPAGE
3
ANSI_1252
9
$HANDSEED
5
23d
9
$ANGBASE
50
0
9
$ANGDIR
70
0
9
$ATTMODE
70
1
9
$AUNITS
70
0
9
$AUPREC
70
0
9
$CECOLOR
62
256
9
$CELTSCALE
40
1
9
$CELTYPE
6
ByLayer
9
$CELWEIGHT
370
18
9
$CLAYER
8
0
9
$CMLJUST
70
0
9
$CMLSCALE
40
1
9
$CMLSTYLE
2
Standard
9
$DIMSTYLE
2
Standard
9
$TEXTSIZE
40
0.2
9
$TEXTSTYLE
7
Standard
9
$LUNITS
70
2
9
$LUPREC
70
4
9
$EXTNAMES
290
1
9
$INSUNITS
70
4
9
$LTSCALE
40
1
9
$LWDISPLAY
290
1
9
$PDMODE
70
0
9
$PDSIZE
40
0
9
$PLINEGEN
70
0
0
ENDSEC
0
SECTION
2
CLASSES
0
CLASS
1
RASTERVARIABLES
2
AcDbRasterVariables
3
ISM
90
0
280
0
281
0
0
ENDSEC
0
SECTION
2
TABLES
0
TABLE
2
VPORT
5
233
100
AcDbSymbolTable
0
VPORT
5
1
100
AcDbSymbolTableRecord
100
AcDbViewportTableRecord
2
*Active
70
0
10
0
20
0
11
1
21
1
12
-1
22
1
13
0
23
0
14
0.5
24
0.5
15
10
25
10
16
0
26
0
36
1
17
0
27
0
37
0
0
ENDTAB
0
TABLE
2
LTYPE
5
234
100
AcDbSymbolTable
0
LTYPE
5
14
100
AcDbSymbolTableRecord
100
AcDbLinetypeTableRecord
70
0
2
ByBlock
3

72
65
73
0
40
0
0
LTYPE
5
15
100
AcDbSymbolTableRecord
100
AcDbLinetypeTableRecord
70
0
2
ByLayer
3

72
65
73
0
40
0
0
LTYPE
5
16
100
AcDbSymbolTableRecord
100
AcDbLinetypeTableRecord
70
0
2
CONTINUOUS
3
Solid line
72
65
73
0
40
0
0
LTYPE
5
6A
100
AcDbSymbolTableRecord
100
AcDbLinetypeTableRecord
70
0
2
CENTER
3
____ _ ____ _ ____ _ ____
72
65
73
4
40
47.5
49
22
74
0
49
-8.5
74
0
49
8.5
74
0
49
-8.5
74
0
0
LTYPE
5
6B
100
AcDbSymbolTableRecord
100
AcDbLinetypeTableRecord
70
0
2
DASHED
3
__ __ __ __ __ __ __ __ __
72
65
73
2
40
25.72
49
12.86
74
0
49
-12.86
74
0
0
ENDTAB
0
TABLE
2
LAYER
5
235
100
AcDbSymbolTable
0
LAYER
5
10
100
AcDbSymbolTableRecord
100
AcDbLayerTableRecord
2
0
70
0
62
7
6
CONTINUOUS
290
1
370
-3
390
0
0
LAYER
5
6D
100
AcDbSymbolTableRecord
100
AcDbLayerTableRecord
2
80
70
0
62
-6
6
CONTINUOUS
290
1
370
-3
390
0
0
LAYER
5
6F
100
AcDbSymbolTableRecord
100
AcDbLayerTableRecord
2
81
70
0
62
-3
6
CONTINUOUS
290
1
370
-3
390
0
0
LAYER
5
72
100
AcDbSymbolTableRecord
100
AcDbLayerTableRecord
2
1
70
0
62
4
6
CONTINUOUS
290
1
370
-3
390
0
0
LAYER
5
93
100
AcDbSymbolTableRecord
100
AcDbLayerTableRecord
2
4
70
0
62
-2
6
CENTER
290
1
370
-3
390
0
0
LAYER
5
193
100
AcDbSymbolTableRecord
100
AcDbLayerTableRecord
2
2
70
0
62
7
6
CONTINUOUS
290
1
370
-3
390
0
0
LAYER
5
21f
100
AcDbSymbolTableRecord
100
AcDbLayerTableRecord
2
SK1
70
0
62
4
6
CONTINUOUS
290
1
370
-3
390
0
0
LAYER
5
220
100
AcDbSymbolTableRecord
100
AcDbLayerTableRecord
2
SK4
70
0
62
2
6
CENTER
290
1
370
-3
390
0
0
LAYER
5
221
100
AcDbSymbolTableRecord
100
AcDbLayerTableRecord
2
SK6
70
0
62
5
6
CONTINUOUS
290
1
370
-3
390
0
0
LAYER
5
222
100
AcDbSymbolTableRecord
100
AcDbLayerTableRecord
2
SK2
70
0
62
7
6
CONTINUOUS
290
1
370
-3
390
0
0
ENDTAB
0
TABLE
2
STYLE
5
236
100
AcDbSymbolTable
0
STYLE
5
11
100
AcDbSymbolTableRecord
100
AcDbTextStyleTableRecord
2
Standard
3
txt
70
0
71
0
40
0
41
1
42
0
50
0
0
STYLE
5
18E
100
AcDbSymbolTableRecord
100
AcDbTextStyleTableRecord
2
iso_b_vert
3
simplex.shx
70
0
71
0
40
0
41
1
42
0
50
0
0
STYLE
5
18F
100
AcDbSymbolTableRecord
100
AcDbTextStyleTableRecord
2
DWGDirectTextStyle
3
simplex
70
0
71
0
40
0
41
1
42
0
50
0
0
ENDTAB
0
TABLE
2
DIMSTYLE
5
237
100
AcDbSymbolTable
100
AcDbDimStyleTable
0
DIMSTYLE
105
27
100
AcDbSymbolTableRecord
100
AcDbDimStyleTableRecord
2
Standard
70
0
3
<>
41
0.18
42
0.0625
44
0.18
140
0.18
147
0.09
73
0
74
0
77
1
271
2
275
0
278
52
280
0
340
11
0
ENDTAB
0
TABLE
2
VIEW
5
238
100
AcDbSymbolTable
0
ENDTAB
0
TABLE
2
UCS
5
239
100
AcDbSymbolTable
0
ENDTAB
0
TABLE
2
APPID
5
23a
100
AcDbSymbolTable
0
APPID
5
12
100
AcDbSymbolTableRecord
100
AcDbRegAppTableRecord
2
ACAD
70
0
0
ENDTAB
0
TABLE
2
BLOCK_RECORD
5
23b
100
AcDbSymbolTable
0
BLOCK_RECORD
5
1F
100
AcDbSymbolTableRecord
100
AcDbBlockTableRecord
2
*Model_Space
340
0
70
0
0
BLOCK_RECORD
5
1B
100
AcDbSymbolTableRecord
100
AcDbBlockTableRecord
2
*Paper_Space
340
0
70
0
0
BLOCK_RECORD
5
23
100
AcDbSymbolTableRecord
100
AcDbBlockTableRecord
2
*Paper_Space0
340
0
70
0
0
BLOCK_RECORD
5
191
100
AcDbSymbolTableRecord
100
AcDbBlockTableRecord
2
DimnDraft3D1
340
0
70
0
0
BLOCK_RECORD
5
19C
100
AcDbSymbolTableRecord
100
AcDbBlockTableRecord
2
DimnDraft3D2
340
0
70
0
0
BLOCK_RECORD
5
1A6
100
AcDbSymbolTableRecord
100
AcDbBlockTableRecord
2
DimnDraft3D3
340
0
70
0
0
BLOCK_RECORD
5
1B1
100
AcDbSymbolTableRecord
100
AcDbBlockTableRecord
2
DimnDraft3D4
340
0
70
0
0
BLOCK_RECORD
5
1BB
100
AcDbSymbolTableRecord
100
AcDbBlockTableRecord
2
DimnDraft3D5
340
0
70
0
0
ENDTAB
0
ENDSEC
0
SECTION
2
BLOCKS
0
BLOCK
5
20
100
AcDbEntity
8
0
100
AcDbBlockBegin
2
*Model_Space
70
0
10
0
20
0
30
0
3
*Model_Space
0
ENDBLK
5
21
100
AcDbEntity
8
0
100
AcDbBlockEnd
0
BLOCK
5
1C
100
AcDbEntity
8
0
100
AcDbBlockBegin
2
*Paper_Space
70
0
10
0
20
0
30
0
3
*Paper_Space
0
ENDBLK
5
1D
100
AcDbEntity
8
0
100
AcDbBlockEnd
0
BLOCK
5
24
100
AcDbEntity
8
0
100
AcDbBlockBegin
2
*Paper_Space0
70
0
10
0
20
0
30
0
3
*Paper_Space0
0
ENDBLK
5
25
100
AcDbEntity
8
0
100
AcDbBlockEnd
0
BLOCK
5
199
100
AcDbEntity
8
0
100
AcDbBlockBegin
2
DimnDraft3D1
70
0
10
0
20
0
30
0
3
DimnDraft3D1
0
MTEXT
5
192
100
AcDbEntity
8
2
62
256
6
ByLayer
370
13
48
1
60
0
100
AcDbMText
10
158.60863
20
-27.749886
30
0
210
0
220
0
230
1
1
\W0.7468;273.0
40
3
41
0
44
1.084337
50
0
71
7
72
5
7
iso_b_vert
0
LINE
5
194
100
AcDbEntity
8
2
62
256
6
ByLayer
370
13
48
1
60
0
100
AcDbLine
10
299
20
-1.5875
30
0
11
299
21
-30.5
31
0
39
0
210
0
220
0
230
1
0
LINE
5
195
100
AcDbEntity
8
2
62
256
6
ByLayer
370
13
48
1
60
0
100
AcDbLine
10
26
20
-17.0875
30
0
11
26
21
-30.5
31
0
39
0
210
0
220
0
230
1
0
LINE
5
196
100
AcDbEntity
8
2
62
256
6
ByLayer
370
13
48
1
60
0
100
AcDbLine
10
299
20
-28.5
30
0
11
26
21
-28.5
31
0
39
0
210
0
220
0
230
1
0
SOLID
5
197
100
AcDbEntity
8
2
62
256
6
ByLayer
370
13
48
1
60
0
100
AcDbTrace
10
299
20
-28.5
30
0
11
295.500002
21
-28.960784
31
0
12
295.499998
22
-28.039216
32
0
13
299
23
-28.5
33
0
39
0
210
0
220
0
230
1
0
SOLID
5
198
100
AcDbEntity
8
2
62
256
6
ByLayer
370
13
48
1
60
0
100
AcDbTrace
10
26
20
-28.5
30
0
11
29.499998
21
-28.039216
31
0
12
29.500002
22
-28.960784
32
0
13
26
23
-28.5
33
0
39
0
210
0
220
0
230
1
0
ENDBLK
5
19A
100
AcDbEntity
8
0
100
AcDbBlockEnd
0
BLOCK
5
1A3
100
AcDbEntity
8
0
100
AcDbBlockBegin
2
DimnDraft3D2
70
0
10
0
20
0
30
0
3
DimnDraft3D2
0
MTEXT
5
19D
100
AcDbEntity
8
2
62
256
6
ByLayer
370
13
48
1
60
0
100
AcDbMText
10
160.35863
20
23.250114
30
0
210
0
220
0
230
1
1
\W0.7468;269.5
40
3
41
0
44
1.084337
50
0
71
7
72
5
7
iso_b_vert
0
LINE
5
19E
100
AcDbEntity
8
2
62
256
6
ByLayer
370
13
48
1
60
0
100
AcDbLine
10
299
20
1.5875
30
0
11
299
21
24.5
31
0
39
0
210
0
220
0
230
1
0
LINE
5
19F
100
AcDbEntity
8
2
62
256
6
ByLayer
370
13
48
1
60
0
100
AcDbLine
10
29.5
20
17.0875
30
0
11
29.5
21
24.5
31
0
39
0
210
0
220
0
230
1
0
LINE
5
1A0
100
AcDbEntity
8
2
62
256
6
ByLayer
370
13
48
1
60
0
100
AcDbLine
10
299
20
22.5
30
0
11
29.5
21
22.5
31
0
39
0
210
0
220
0
230
1
0
SOLID
5
1A1
100
AcDbEntity
8
2
62
256
6
ByLayer
370
13
48
1
60
0
100
AcDbTrace
10
299
20
22.5
30
0
11
295.500002
21
22.039216
31
0
12
295.499998
22
22.960784
32
0
13
299
23
22.5
33
0
39
0
210
0
220
0
230
1
0
SOLID
5
1A2
100
AcDbEntity
8
2
62
256
6
ByLayer
370
13
48
1
60
0
100
AcDbTrace
10
29.5
20
22.5
30
0
11
32.999998
21
22.960784
31
0
12
33.000002
22
22.039216
32
0
13
29.5
23
22.5
33
0
39
0
210
0
220
0
230
1
0
ENDBLK
5
1A4
100
AcDbEntity
8
0
100
AcDbBlockEnd
0
BLOCK
5
1AE
100
AcDbEntity
8
0
100
AcDbBlockBegin
2
DimnDraft3D3
70
0
10
0
20
0
30
0
3
DimnDraft3D3
0
MTEXT
5
1A7
100
AcDbEntity
8
SK2
62
256
6
ByLayer
370
13
48
1
60
0
100
AcDbMText
10
-32.770456
20
-38.249886
30
0
210
0
220
0
230
1
1
\W0.7346;60.0
40
3
41
0
44
1.084337
50
0
71
7
72
5
7
iso_b_vert
0
LINE
5
1A9
100
AcDbEntity
8
SK2
62
256
6
ByLayer
370
13
48
1
60
0
100
AcDbLine
10
-60
20
-17.5875
30
0
11
-60
21
-41
31
0
39
0
210
0
220
0
230
1
0
LINE
5
1AA
100
AcDbEntity
8
SK2
62
256
6
ByLayer
370
13
48
1
60
0
100
AcDbLine
10
0
20
-21.5875
30
0
11
0
21
-41
31
0
39
0
210
0
220
0
230
1
0
LINE
5
1AB
100
AcDbEntity
8
SK2
62
256
6
ByLayer
370
13
48
1
60
0
100
AcDbLine
10
-60
20
-39
30
0
11
0
21
-39
31
0
39
0
210
0
220
0
230
1
0
SOLID
5
1AC
100
AcDbEntity
8
SK2
62
256
6
ByLayer
370
13
48
1
60
0
100
AcDbTrace
10
-60
20
-39
30
0
11
-56.500002
21
-38.539216
31
0
12
-56.499998
22
-39.460784
32
0
13
-60
23
-39
33
0
39
0
210
0
220
0
230
1
0
SOLID
5
1AD
100
AcDbEntity
8
SK2
62
256
6
ByLayer
370
13
48
1
60
0
100
AcDbTrace
10
0
20
-39
30
0
11
-3.499998
21
-39.460784
31
0
12
-3.500002
22
-38.539216
32
0
13
0
23
-39
33
0
39
0
210
0
220
0
230
1
0
ENDBLK
5
1AF
100
AcDbEntity
8
0
100
AcDbBlockEnd
0
BLOCK
5
1B8
100
AcDbEntity
8
0
100
AcDbBlockBegin
2
DimnDraft3D4
70
0
10
0
20
0
30
0
3
DimnDraft3D4
0
MTEXT
5
1B2
100
AcDbEntity
8
2
62
256
6
ByLayer
370
13
48
1
60
0
100
AcDbMText
10
145.60863
20
-38.249886
30
0
210
0
220
0
230
1
1
\W0.7468;299.0
40
3
41
0
44
1.084337
50
0
71
7
72
5
7
iso_b_vert
0
LINE
5
1B3
100
AcDbEntity
8
2
62
256
6
ByLayer
370
13
48
1
60
0
100
AcDbLine
10
0
20
-21.5875
30
0
11
0
21
-41
31
0
39
0
210
0
220
0
230
1
0
LINE
5
1B4
100
AcDbEntity
8
2
62
256
6
ByLayer
370
13
48
1
60
0
100
AcDbLine
10
299
20
-1.5875
30
0
11
299
21
-41
31
0
39
0
210
0
220
0
230
1
0
LINE
5
1B5
100
AcDbEntity
8
2
62
256
6
ByLayer
370
13
48
1
60
0
100
AcDbLine
10
0
20
-39
30
0
11
299
21
-39
31
0
39
0
210
0
220
0
230
1
0
SOLID
5
1B6
100
AcDbEntity
8
2
62
256
6
ByLayer
370
13
48
1
60
0
100
AcDbTrace
10
0
20
-39
30
0
11
3.499998
21
-38.539216
31
0
12
3.500002
22
-39.460784
32
0
13
0
23
-39
33
0
39
0
210
0
220
0
230
1
0
SOLID
5
1B7
100
AcDbEntity
8
2
62
256
6
ByLayer
370
13
48
1
60
0
100
AcDbTrace
10
299
20
-39
30
0
11
295.500002
21
-39.460784
31
0
12
295.499998
22
-38.539216
32
0
13
299
23
-39
33
0
39
0
210
0
220
0
230
1
0
ENDBLK
5
1B9
100
AcDbEntity
8
0
100
AcDbBlockEnd
0
BLOCK
5
1C3
100
AcDbEntity
8
0
100
AcDbBlockBegin
2
DimnDraft3D5
70
0
10
0
20
0
30
0
3
DimnDraft3D5
0
MTEXT
5
1BC
100
AcDbEntity
8
SK2
62
256
6
ByLayer
370
13
48
1
60
0
100
AcDbMText
10
-67.750114
20
0.229544
30
0
210
0
220
0
230
1
1
\W0.7346;32.0
40
3
41
0
44
1.084337
50
90
71
7
72
5
7
iso_b_vert
0
MTEXT
5
1BD
100
AcDbEntity
8
SK2
62
256
6
ByLayer
370
13
48
1
60
0
100
AcDbMText
10
-67.750114
20
-4.247019
30
0
210
0
220
0
230
1
1
%%c
40
3
41
0
44
1.084337
50
90
71
7
72
5
7
iso_b_vert
0
LINE
5
1BE
100
AcDbEntity
8
SK2
62
256
6
ByLayer
370
13
48
1
60
0
100
AcDbLine
10
-61.5875
20
16
30
0
11
-68.25
21
16
31
0
39
0
210
0
220
0
230
1
0
LINE
5
1BF
100
AcDbEntity
8
SK2
62
256
6
ByLayer
370
13
48
1
60
0
100
AcDbLine
10
-61.5875
20
-16
30
0
11
-68.25
21
-16
31
0
39
0
210
0
220
0
230
1
0
LINE
5
1C0
100
AcDbEntity
8
SK2
62
256
6
ByLayer
370
13
48
1
60
0
100
AcDbLine
10
-66.25
20
16
30
0
11
-66.25
21
-16
31
0
39
0
210
0
220
0
230
1
0
SOLID
5
1C1
100
AcDbEntity
8
SK2
62
256
6
ByLayer
370
13
48
1
60
0
100
AcDbTrace
10
-66.25
20
16
30
0
11
-65.789216
21
12.500002
31
0
12
-66.710784
22
12.499998
32
0
13
-66.25
23
16
33
0
39
0
210
0
220
0
230
1
0
SOLID
5
1C2
100
AcDbEntity
8
SK2
62
256
6
ByLayer
370
13
48
1
60
0
100
AcDbTrace
10
-66.25
20
-16
30
0
11
-66.710784
21
-12.500002
31
0
12
-65.789216
22
-12.499998
32
0
13
-66.25
23
-16
33
0
39
0
210
0
220
0
230
1
0
ENDBLK
5
1C4
100
AcDbEntity
8
0
100
AcDbBlockEnd
0
ENDSEC
0
SECTION
2
ENTITIES
0
ARC
5
E2
100
AcDbEntity
8
SK1
62
256
6
ByLayer
370
18
48
1
60
0
100
AcDbCircle
39
0
10
57.946236
20
-16.496
30
0
40
0.800000000000005
210
0
220
0
230
-1
100
AcDbArc
50
51
51
130.534532
0
ARC
5
E3
100
AcDbEntity
8
SK1
62
256
6
ByLayer
370
18
48
1
60
0
100
AcDbCircle
39
0
10
0.975195
20
16.146
30
0
40
0.4
210
0
220
0
230
-1
100
AcDbArc
50
270
51
295
0
ARC
5
E4
100
AcDbEntity
8
SK1
62
256
6
ByLayer
370
18
48
1
60
0
100
AcDbCircle
39
0
10
0.15
20
-16.146
30
0
40
0.4
210
0
220
0
230
-1
100
AcDbArc
50
90
51
112.024313
0
ARC
5
E5
100
AcDbEntity
8
SK1
62
256
6
ByLayer
370
18
48
1
60
0
100
AcDbCircle
39
0
10
0.975195
20
-16.146
30
0
40
0.4
210
0
220
0
230
-1
100
AcDbArc
50
65
51
90
0
ARC
5
E6
100
AcDbEntity
8
SK1
62
256
6
ByLayer
370
18
48
1
60
0
100
AcDbCircle
39
0
10
0.15
20
16.146
30
0
40
0.4
210
0
220
0
230
-1
100
AcDbArc
50
247.975687
51
270
0
ARC
5
E7
100
AcDbEntity
8
1
62
256
6
ByLayer
370
18
48
1
60
0
100
AcDbCircle
39
0
10
-26
20
-23
30
0
40
7.99999999999999
210
0
220
0
230
-1
100
AcDbArc
50
71.860743
51
90
0
ARC
5
E8
100
AcDbEntity
8
SK1
62
256
6
ByLayer
370
18
48
1
60
0
100
AcDbCircle
39
0
10
57.946236
20
16.496
30
0
40
0.800000000000005
210
0
220
0
230
-1
100
AcDbArc
50
229.465468
51
309
0
ARC
5
E9
100
AcDbEntity
8
1
62
256
6
ByLayer
370
18
48
1
60
0
100
AcDbCircle
39
0
10
-26
20
23
30
0
40
7.99999999999999
210
0
220
0
230
-1
100
AcDbArc
50
270
51
288.139257
0
ELLIPSE
5
EA
100
AcDbEntity
8
1
62
256
6
ByLayer
370
18
48
1
60
0
100
AcDbEllipse
10
299
20
0
30
0
11
6.6096706209345
21
16.1807267028457
31
0
210
0
220
0
230
1
40
0.349717
41
2.95778508723265
42
-2.9822432705734
0
ELLIPSE
5
EB
100
AcDbEntity
8
1
62
256
6
ByLayer
370
18
48
1
60
0
100
AcDbEllipse
10
281.557218
20
0.000118
30
0
11
17.0130033310944
21
0.00010601003482702
31
0
210
0
220
0
230
1
40
0.931414
41
-1.69201911879428
42
-1.68715176447815
0
ELLIPSE
5
EC
100
AcDbEntity
8
1
62
256
6
ByLayer
370
18
48
1
60
0
100
AcDbEllipse
10
298.959708
20
-0.195106
30
0
11
0.0469726588382838
21
0.154498068048997
31
0
210
0
220
0
230
1
40
0.05855
41
1.75038094571814
42
2.43183944701444
0
ELLIPSE
5
ED
100
AcDbEntity
8
1
62
256
6
ByLayer
370
18
48
1
60
0
100
AcDbEllipse
10
288.024167
20
-1.560967
30
0
11
0.438434463539888
21
-1.76127998073542
31
0
210
0
220
0
230
1
40
0.321467
41
0
42
6.28318530717959
0
ELLIPSE
5
EE
100
AcDbEntity
8
1
62
256
6
ByLayer
370
13
48
1
60
0
100
AcDbEllipse
10
297.101469
20
1.493904
30
0
11
-0.0572879177554247
21
-0.0819639828171356
31
0
210
0
220
0
230
1
40
0.550074
41
-2.35740611773346
42
-1.67594761247724
0
ELLIPSE
5
EF
100
AcDbEntity
8
1
62
256
6
ByLayer
370
18
48
1
60
0
100
AcDbEllipse
10
299
20
0
30
0
11
6.60967062072934
21
-16.1807267023474
31
0
210
0
220
0
230
1
40
0.349717
41
2.98224327057098
42
2.99970145412309
0
ELLIPSE
5
F0
100
AcDbEntity
8
1
62
256
6
ByLayer
370
18
48
1
60
0
100
AcDbEllipse
10
25.889852
20
9.992117
30
0
11
7.15655494455239
21
6.98453443871548
31
0
210
0
220
0
230
1
40
0.308159
41
1.18470908146839
42
2.73550608843541
0
ELLIPSE
5
F1
100
AcDbEntity
8
1
62
256
6
ByLayer
370
18
48
1
60
0
100
AcDbEllipse
10
299
20
0
30
0
11
5.68953050925882
21
16.3390961902783
31
0
210
0
220
0
230
1
40
0.077207
41
-3.09726106997825
42
-2.90366994128451
0
ELLIPSE
5
F2
100
AcDbEntity
8
1
62
256
6
ByLayer
370
18
48
1
60
0
100
AcDbEllipse
10
275.365
20
0
30
0
11
15.6052969350451
21
4.86145314608365
31
0
210
0
220
0
230
1
40
1
41
-1.60307171894902
42
-1.54937364747964
0
ELLIPSE
5
F3
100
AcDbEntity
8
1
62
256
6
ByLayer
370
18
48
1
60
0
100
AcDbEllipse
10
270.452169
20
-88.497371
30
0
11
78.6124991202694
21
0.0592224046528003
31
0
210
0
220
0
230
1
40
0.931827
41
1.45192258537215
42
1.45369167313146
0
ELLIPSE
5
F4
100
AcDbEntity
8
1
62
256
6
ByLayer
370
18
48
1
60
0
100
AcDbEllipse
10
298.959708
20
0.195106
30
0
11
0.0469726588671809
21
-0.154498068131291
31
0
210
0
220
0
230
1
40
0.05855
41
-2.43183944708108
42
-1.75038094608062
0
ELLIPSE
5
F5
100
AcDbEntity
8
1
62
256
6
ByLayer
370
18
48
1
60
0
100
AcDbEllipse
10
299.007347
20
-0.019991
30
0
11
5.74787412440469
21
-16.5066450393798
31
0
210
0
220
0
230
1
40
0.077207
41
2.81376199237581
42
2.90504824494223
0
ELLIPSE
5
F6
100
AcDbEntity
8
1
62
256
6
ByLayer
370
13
48
1
60
0
100
AcDbEllipse
10
297.07867
20
1.509933
30
0
11
-0.0577459160528887
21
-0.0816419572230647
31
0
210
0
220
0
230
1
40
0.55048
41
-2.35154129708656
42
-1.67287953496299
0
ELLIPSE
5
F7
100
AcDbEntity
8
1
62
256
6
ByLayer
370
18
48
1
60
0
100
AcDbEllipse
10
299
20
0
30
0
11
5.6895305155494
21
-16.3390962089959
31
0
210
0
220
0
230
1
40
0.077207
41
2.95664744243457
42
3.09726107000396
0
ELLIPSE
5
F8
100
AcDbEntity
8
1
62
256
6
ByLayer
370
18
48
1
60
0
100
AcDbEllipse
10
299.007347
20
0.019991
30
0
11
5.74787429081343
21
16.5066455538119
31
0
210
0
220
0
230
1
40
0.077207
41
-2.90504824855618
42
-2.81376199746144
0
ELLIPSE
5
F9
100
AcDbEntity
8
1
62
256
6
ByLayer
370
18
48
1
60
0
100
AcDbEllipse
10
259.820633
20
16.168356
30
0
11
27.4747741945462
21
-10
31
0
210
0
220
0
230
1
40
0.34202
41
-0.401673663388004
42
-0.375893041925473
0
ELLIPSE
5
FA
100
AcDbEntity
8
1
62
256
6
ByLayer
370
18
48
1
60
0
100
AcDbEllipse
10
311.305521
20
0
30
0
11
20.6119127337262
21
13.9717514514476
31
0
210
0
220
0
230
1
40
0.290406
41
2.97225059261347
42
-3.09680352736503
0
ELLIPSE
5
FB
100
AcDbEntity
8
1
62
256
6
ByLayer
370
18
48
1
60
0
100
AcDbEllipse
10
252.144088
20
1.8E-05
30
0
11
60.9392187410512
21
-12.7281296918824
31
0
210
0
220
0
230
1
40
0.136345
41
-1.38109383776064
42
-1.3587270852029
0
POINT
5
6C
100
AcDbEntity
8
80
62
256
6
ByLayer
370
18
48
1
60
0
100
AcDbPoint
10
0
20
0
30
0
39
0
210
0
220
0
230
1
50
360
0
POINT
5
6E
100
AcDbEntity
8
81
62
256
6
ByLayer
370
18
48
1
60
0
100
AcDbPoint
10
279.5
20
0
30
0
39
0
210
0
220
0
230
1
50
360
0
SPLINE
5
FC
100
AcDbEntity
8
1
62
256
6
ByLayer
370
18
48
1
60
0
100
AcDbSpline
70
4
71
3
72
14
73
10
40
0
40
0
40
0
40
0
40
0.189583787026498
40
0.378800906965751
40
0.566133257577159
40
0.675245386407329
40
0.78350696057037
40
0.891427255510451
40
1
40
1
40
1
40
1
41
1
10
23.4143488015985
20
15.4287116102869
30
0
41
1
10
22.4335622563431
20
15.7682581998533
30
0
41
1
10
20.4811033538412
20
16.4660820834284
30
0
41
1
10
17.6107553131108
20
17.6337185548185
30
0
41
1
10
15.1221790982981
20
18.5706879125509
30
0
41
1
10
13.0065208109652
20
19.230478840043
30
0
41
1
10
11.2757238469849
20
19.6523870576215
30
0
41
1
10
9.51681722321369
20
19.9334737582411
30
0
41
1
10
8.33432624010597
20
19.9968538521081
30
0
41
1
10
7.73790000000001
20
20
30
0
0
SPLINE
5
FD
100
AcDbEntity
8
1
62
256
6
ByLayer
370
18
48
1
60
0
100
AcDbSpline
70
4
71
3
72
55
73
51
40
0
40
0
40
0
40
0
40
0.0083271218787098
40
0.0288916191330479
40
0.0480859570879591
40
0.0687276168989564
40
0.0899777264204754
40
0.108992379077228
40
0.12562832293263
40
0.139889069927488
40
0.158901245672114
40
0.179082746628243
40
0.201433201284905
40
0.22455779358914
40
0.25084872947233
40
0.279252404388151
40
0.304560061146071
40
0.326142240677882
40
0.345679211967198
40
0.360077909003783
40
0.376215922923945
40
0.394146921560088
40
0.411066886632677
40
0.42551166588122
40
0.442007137450231
40
0.465150927272656
40
0.489337738713388
40
0.523815544335805
40
0.553993727631155
40
0.580086718869965
40
0.603172416450814
40
0.620834933051271
40
0.636384920404985
40
0.651138618483473
40
0.668964610685011
40
0.689932724801084
40
0.71257086722913
40
0.736560994418727
40
0.762145546629375
40
0.791226915470184
40
0.821625456853379
40
0.848876050690516
40
0.872485267946889
40
0.893383709292465
40
0.912563538041863
40
0.93025509552443
40
0.949146936491739
40
0.970018801824277
40
0.993372071676842
40
1
40
1
40
1
40
1
41
1
10
225.278823395823
20
14.6927346665254
30
0
41
1
10
225.146857085434
20
14.6920414882705
30
0
41
1
10
224.682675206373
20
14.6895409087719
30
0
41
1
10
223.849763415257
20
14.6811333022326
30
0
41
1
10
222.798527942678
20
14.6785898329634
30
0
41
1
10
221.735492467012
20
14.6825376334538
30
0
41
1
10
220.692885421454
20
14.6890311876887
30
0
41
1
10
219.713748458654
20
14.6921149578151
30
0
41
1
10
218.854063591025
20
14.6937205946523
30
0
41
1
10
217.992571457107
20
14.694361861555
30
0
41
1
10
217.065848127065
20
14.6943142856198
30
0
41
1
10
215.993077434987
20
14.6946699738608
30
0
41
1
10
214.850948627493
20
14.6957477607551
30
0
41
1
10
213.601454919137
20
14.696739747402
30
0
41
1
10
212.246501234116
20
14.6975951912006
30
0
41
1
10
210.853427536426
20
14.6975946115836
30
0
41
1
10
209.542364506585
20
14.6969545923169
30
0
41
1
10
208.385688581082
20
14.6961229306462
30
0
41
1
10
207.418969655606
20
14.6953877543247
30
0
41
1
10
206.54704765341
20
14.6947360563415
30
0
41
1
10
205.70309161571
20
14.6941422463028
30
0
41
1
10
204.815235271644
20
14.6935919483889
30
0
41
1
10
203.956865472867
20
14.6931667208161
30
0
41
1
10
203.123464253437
20
14.6928692134969
30
0
41
1
10
202.181845966315
20
14.6926909637888
30
0
41
1
10
201.071595332636
20
14.6926166609843
30
0
41
1
10
199.648039502474
20
14.6927596102994
30
0
41
1
10
198.101272782648
20
14.6929179099425
30
0
41
1
10
196.520701159394
20
14.6919100698527
30
0
41
1
10
195.140166255944
20
14.6904243080785
30
0
41
1
10
193.976973798781
20
14.6888024471752
30
0
41
1
10
192.996953586713
20
14.6876324329858
30
0
41
1
10
192.161763164248
20
14.6868268386405
30
0
41
1
10
191.323678311808
20
14.686229547948
30
0
41
1
10
190.391307079377
20
14.6858327625646
30
0
41
1
10
189.321717864983
20
14.6857458998043
30
0
41
1
10
188.144647419183
20
14.686170637305
30
0
41
1
10
186.887262814945
20
14.6872295011336
30
0
41
1
10
185.517654290405
20
14.6890947176421
30
0
41
1
10
184.036486682033
20
14.6913106551269
30
0
41
1
10
182.527052665482
20
14.6922595956233
30
0
41
1
10
181.111939926386
20
14.6914733342884
30
0
41
1
10
179.862614355651
20
14.6904398345819
30
0
41
1
10
178.75439206693
20
14.6894590800365
30
0
41
1
10
177.748544667785
20
14.6886562465631
30
0
41
1
10
176.777535269253
20
14.688052807585
30
0
41
1
10
175.777090058538
20
14.6876474604734
30
0
41
1
10
174.678073633943
20
14.687489735325
30
0
41
1
10
173.792587861643
20
14.6876500016565
30
0
41
1
10
173.270554596803
20
14.6878647097557
30
0
41
1
10
173.155148641805
20
14.6879183334358
30
0
0
SPLINE
5
FE
100
AcDbEntity
8
1
62
256
6
ByLayer
370
18
48
1
60
0
100
AcDbSpline
70
4
71
2
72
6
73
3
40
0
40
0
40
0
40
1
40
1
40
1
41
1
10
230.630441953703
20
-3.76325909751694
30
0
41
1
10
230.820861089042
20
-3.82546377574226
30
0
41
1
10
231.011223104308
20
-3.89127286627928
30
0
0
SPLINE
5
FF
100
AcDbEntity
8
1
62
256
6
ByLayer
370
18
48
1
60
0
100
AcDbSpline
70
4
71
3
72
60
73
56
40
0
40
0
40
0
40
0
40
0.0140707576895746
40
0.0294717017650835
40
0.0446392931781304
40
0.0617159197704764
40
0.0795054580679295
40
0.0953405169032836
40
0.109161718162406
40
0.120972007840036
40
0.137067635964636
40
0.155062564008457
40
0.174924768140394
40
0.19631443142109
40
0.217784468002679
40
0.240587815367579
40
0.265037996206799
40
0.289832288875959
40
0.312369357753533
40
0.332650891968119
40
0.351601750727012
40
0.369771497387503
40
0.389264523507752
40
0.417540558667926
40
0.446979294276001
40
0.477672304703643
40
0.503480688013626
40
0.531070651591792
40
0.558419315572417
40
0.58506527248619
40
0.611090528478893
40
0.635187674562343
40
0.649927830184169
40
0.663638542407335
40
0.676544241008966
40
0.690189630060041
40
0.705709517795751
40
0.721673456767692
40
0.734786939482308
40
0.747756148295119
40
0.762209708952188
40
0.777322835668409
40
0.792206582080524
40
0.806861202324346
40
0.822936989440996
40
0.842142714147717
40
0.85938868396856
40
0.877649773773915
40
0.894386633587849
40
0.909473016272115
40
0.92376075376039
40
0.941258602596898
40
0.962900500014557
40
0.988735352909898
40
1
40
1
40
1
40
1
41
1
10
162.274108648593
20
-14.6873998243562
30
0
41
1
10
162.526185512044
20
-14.6860262363977
30
0
41
1
10
163.074280524961
20
-14.6831378719454
30
0
41
1
10
163.995669413489
20
-14.6746664525322
30
0
41
1
10
164.991655612228
20
-14.6741871649527
30
0
41
1
10
166.032624220231
20
-14.6802693942085
30
0
41
1
10
167.072459278518
20
-14.6873602507365
30
0
41
1
10
168.051078689357
20
-14.6905010109489
30
0
41
1
10
168.907438162134
20
-14.6914441798275
30
0
41
1
10
169.771299274543
20
-14.6910092029854
30
0
41
1
10
170.726474671283
20
-14.6895898918817
30
0
41
1
10
171.85334484599
20
-14.688376326336
30
0
41
1
10
173.088026536387
20
-14.6878524349686
30
0
41
1
10
174.396588376647
20
-14.6874792743246
30
0
41
1
10
175.766705997116
20
-14.6876077880615
30
0
41
1
10
177.200690554209
20
-14.6882377465016
30
0
41
1
10
178.703401710172
20
-14.68925079226
30
0
41
1
10
180.200312547824
20
-14.6904252045185
30
0
41
1
10
181.611777443553
20
-14.6916559312645
30
0
41
1
10
182.898940743834
20
-14.6922347829907
30
0
41
1
10
184.095819799708
20
-14.6911628089987
30
0
41
1
10
185.277266539751
20
-14.6894871034934
30
0
41
1
10
186.653086049413
20
-14.6874858797243
30
0
41
1
10
188.264131497259
20
-14.686023397809
30
0
41
1
10
190.108732923766
20
-14.6856271770769
30
0
41
1
10
191.902327941695
20
-14.6864863452615
30
0
41
1
10
193.655046959715
20
-14.6881608352482
30
0
41
1
10
195.332016364376
20
-14.6885678677827
30
0
41
1
10
197.033922472261
20
-14.6891448696286
30
0
41
1
10
198.705186658115
20
-14.6904161534611
30
0
41
1
10
200.298772261477
20
-14.6925589188636
30
0
41
1
10
201.64717703545
20
-14.6926664134887
30
0
41
1
10
202.743696390148
20
-14.6927725826886
30
0
41
1
10
203.606625286335
20
-14.6930272805089
30
0
41
1
10
204.446726668465
20
-14.6933981996024
30
0
41
1
10
205.324574030952
20
-14.6938962101953
30
0
41
1
10
206.266235280664
20
-14.6945291831799
30
0
41
1
10
207.196797714287
20
-14.6952199636816
30
0
41
1
10
208.074137358843
20
-14.6958859219451
30
0
41
1
10
208.919960833564
20
-14.6965136899707
30
0
41
1
10
209.807510395631
20
-14.6970925528173
30
0
41
1
10
210.735007983707
20
-14.6974982709241
30
0
41
1
10
211.666699806718
20
-14.6976196342524
30
0
41
1
10
212.618473999527
20
-14.6973596355833
30
0
41
1
10
213.660429566008
20
-14.6967107993527
30
0
41
1
10
214.756472845396
20
-14.6958677466336
30
0
41
1
10
215.898068728431
20
-14.695061191023
30
0
41
1
10
216.988298200228
20
-14.6945409060201
30
0
41
1
10
218.032519541142
20
-14.6941640492431
30
0
41
1
10
218.991204114145
20
-14.6936605059711
30
0
41
1
10
219.959622937931
20
-14.6916131405849
30
0
41
1
10
221.076377348889
20
-14.6911550928364
30
0
41
1
10
222.431456405896
20
-14.6923157664756
30
0
41
1
10
223.655216758117
20
-14.6942333696326
30
0
41
1
10
224.426681335567
20
-14.6948630739624
30
0
41
1
10
224.660813788234
20
-14.695029077909
30
0
0
SPLINE
5
100
100
AcDbEntity
8
1
62
256
6
ByLayer
370
18
48
1
60
0
100
AcDbSpline
70
4
71
3
72
8
73
4
40
0
40
0
40
0
40
0
40
1
40
1
40
1
40
1
41
1
10
224.730203613787
20
-14.6950775684048
30
0
41
1
10
224.7728781415
20
-14.6951069712352
30
0
41
1
10
224.815549087483
20
-14.6951356301429
30
0
41
1
10
224.858216584165
20
-14.6951637171771
30
0
0
SPLINE
5
101
100
AcDbEntity
8
1
62
256
6
ByLayer
370
18
48
1
60
0
100
AcDbSpline
70
4
71
3
72
50
73
46
40
0
40
0
40
0
40
0
40
0.0024108349368872
40
0.0135984006253646
40
0.0239779204574462
40
0.0336864712999013
40
0.0429087601819403
40
0.051872155310448
40
0.0742262919230483
40
0.0941949467915034
40
0.111582973615118
40
0.127856117405282
40
0.147669005124523
40
0.17064533494438
40
0.195581022258977
40
0.230483097475771
40
0.267233625413547
40
0.30403285471781
40
0.33865701042313
40
0.367691596360443
40
0.394701947191259
40
0.419592338826233
40
0.441964726238748
40
0.462089069035576
40
0.483243108141127
40
0.506411049683279
40
0.531194272501815
40
0.55934462136968
40
0.58769916076048
40
0.613684484812945
40
0.641836569334934
40
0.672751891031329
40
0.705977155794225
40
0.729606969034669
40
0.753979287350389
40
0.776083145887219
40
0.795070143169611
40
0.81115871347439
40
0.827361216073389
40
0.844643274264716
40
0.877365361984377
40
0.913036788634118
40
0.950292134543241
40
0.987573542037459
40
1
40
1
40
1
40
1
41
1
10
91.5131476645894
20
14.6961054210229
30
0
41
1
10
91.4783430743573
20
14.6958890430362
30
0
41
1
10
91.280276948003
20
14.6943618101388
30
0
41
1
10
90.9068426105415
20
14.6859953677225
30
0
41
1
10
90.4008160439237
20
14.6753658607359
30
0
41
1
10
89.9029914679536
20
14.6666864283809
30
0
41
1
10
89.4160255351498
20
14.6627283082864
30
0
41
1
10
88.7034739630709
20
14.6655548758704
30
0
41
1
10
87.852454514449
20
14.6838467998552
30
0
41
1
10
86.8382097641067
20
14.6915048448686
30
0
41
1
10
85.9191509292975
20
14.6952654612803
30
0
41
1
10
84.9882342987204
20
14.6959464717495
30
0
41
1
10
83.9530322042861
20
14.6957259568166
30
0
41
1
10
82.7714437039266
20
14.6946457313689
30
0
41
1
10
81.3259068031746
20
14.6926545583636
30
0
41
1
10
79.6342246075067
20
14.6918036539082
30
0
41
1
10
77.7400635145051
20
14.6922359281292
30
0
41
1
10
75.8536226447036
20
14.6916059693553
30
0
41
1
10
74.0962360285171
20
14.6905652449992
30
0
41
1
10
72.5099467658743
20
14.6903469144901
30
0
41
1
10
71.0939740238752
20
14.69071378573
30
0
41
1
10
69.7945462681378
20
14.6915520549279
30
0
41
1
10
68.6156231046446
20
14.6927858231662
30
0
41
1
10
67.5019701511682
20
14.6939949775564
30
0
41
1
10
66.3748459008616
20
14.6952588630004
30
0
41
1
10
65.1921013545285
20
14.6922254868672
30
0
41
1
10
63.8583957785936
20
14.6871657311199
30
0
41
1
10
62.443749894533
20
14.6921550974919
30
0
41
1
10
61.0256689411254
20
14.6924924472271
30
0
41
1
10
59.5766287161411
20
14.691056164488
30
0
41
1
10
58.0902907832137
20
14.6904516113985
30
0
41
1
10
56.4751105267276
20
14.6902303154055
30
0
41
1
10
54.9396957768591
20
14.6907929325962
30
0
41
1
10
53.518580035654
20
14.6919465281891
30
0
41
1
10
52.29207039275
20
14.692838737192
30
0
41
1
10
51.1467790337475
20
14.69301069526
30
0
41
1
10
50.1464140144407
20
14.6922746574918
30
0
41
1
10
49.2493004863977
20
14.691141314539
30
0
41
1
10
48.3820135289756
20
14.6897583485931
30
0
41
1
10
47.2237176928123
20
14.6877176590203
30
0
41
1
10
45.7248101307814
20
14.6851109392677
30
0
41
1
10
43.8764691081871
20
14.6825416219809
30
0
41
1
10
41.9483500568552
20
14.6812499955969
30
0
41
1
10
40.426938197781
20
14.681873844615
30
0
41
1
10
39.5572885738299
20
14.6830075669907
30
0
41
1
10
39.3398855306947
20
14.6833334023641
30
0
0
SPLINE
5
102
100
AcDbEntity
8
1
62
256
6
ByLayer
370
18
48
1
60
0
100
AcDbSpline
70
4
71
1
72
4
73
2
40
0
40
0
40
1
40
1
41
1
10
133.662318288645
20
7.85078478314267
30
0
41
1
10
133.292584168695
20
7.95528663661634
30
0
0
SPLINE
5
103
100
AcDbEntity
8
1
62
256
6
ByLayer
370
18
48
1
60
0
100
AcDbSpline
70
4
71
3
72
15
73
11
40
0
40
0
40
0
40
0
40
0.110533407209021
40
0.220412974423687
40
0.330672713812152
40
0.441829875151696
40
0.554002194544912
40
0.702147225981301
40
0.851051394619176
40
1
40
1
40
1
40
1
41
1
10
7.73790000000002
20
-20
30
0
41
1
10
8.34517243903824
20
-19.9966653341882
30
0
41
1
10
9.54901612646673
20
-19.9310544051026
30
0
41
1
10
11.339367764156
20
-19.640185948183
30
0
41
1
10
13.1006502515899
20
-19.2044764641831
30
0
41
1
10
14.8427901233188
20
-18.6550406771956
30
0
41
1
10
16.7538507271864
20
-17.9601658909422
30
0
41
1
10
18.8370376506639
20
-17.1375233613576
30
0
41
1
10
21.1049240031556
20
-16.2336614364735
30
0
41
1
10
22.6420508012613
20
-15.6905948233351
30
0
41
1
10
23.4143488015985
20
-15.4287116102869
30
0
0
SPLINE
5
104
100
AcDbEntity
8
1
62
256
6
ByLayer
370
18
48
1
60
0
100
AcDbSpline
70
4
71
2
72
6
73
3
40
0
40
0
40
0
40
1
40
1
40
1
41
1
10
96.7145971759272
20
-3.75160240147085
30
0
41
1
10
96.9043530982557
20
-3.81324652111823
30
0
41
1
10
97.0956315048548
20
-3.87903105801976
30
0
0
SPLINE
5
105
100
AcDbEntity
8
1
62
256
6
ByLayer
370
18
48
1
60
0
100
AcDbSpline
70
4
71
2
72
6
73
3
40
0
40
0
40
0
40
1
40
1
40
1
41
1
10
267.060807885478
20
8.14763578906425
30
0
41
1
10
267.060815405718
20
8.14776390069881
30
0
41
1
10
267.060822925957
20
8.14789183694649
30
0
0
SPLINE
5
106
100
AcDbEntity
8
1
62
256
6
ByLayer
370
18
48
1
60
0
100
AcDbSpline
70
4
71
3
72
53
73
49
40
0
40
0
40
0
40
0
40
0.0274616400721888
40
0.0510570592870137
40
0.0709587727715155
40
0.0893427063984719
40
0.106876814223426
40
0.128526200331424
40
0.148473813082625
40
0.167194448066195
40
0.186374462631974
40
0.208650773599786
40
0.232083906061681
40
0.253621861450264
40
0.27334768086525
40
0.293170573985554
40
0.334778024224666
40
0.377189796906051
40
0.419652035727556
40
0.43624436343386
40
0.451843632468475
40
0.465059754561042
40
0.475881399445574
40
0.48684495985562
40
0.50030857740681
40
0.52236517710331
40
0.546529814063549
40
0.572568962260274
40
0.597567383385324
40
0.620468511679429
40
0.641489913697423
40
0.662149823507178
40
0.681030786128301
40
0.698687871680541
40
0.713473445210877
40
0.72622096023446
40
0.740266486530188
40
0.755954181882054
40
0.776950248249987
40
0.800438216261221
40
0.826715145625726
40
0.855803885221203
40
0.887174933537797
40
0.911933447706505
40
0.936724669021004
40
0.961335501238483
40
0.98624243363394
40
1
40
1
40
1
40
1
41
1
10
32.9000000001012
20
-14.6998064322091
30
0
41
1
10
33.4345746495274
20
-14.6983236988882
30
0
41
1
10
34.4285760362652
20
-14.6955453694898
30
0
41
1
10
35.8103301511126
20
-14.6914237527492
30
0
41
1
10
37.0155247009755
20
-14.6881166364571
30
0
41
1
10
38.1026222091872
20
-14.6855257839905
30
0
41
1
10
39.223773166807
20
-14.6833913568714
30
0
41
1
10
40.3753738689191
20
-14.6819594965765
30
0
41
1
10
41.5500814044855
20
-14.6814728690299
30
0
41
1
10
42.6766974630507
20
-14.6817388534935
30
0
41
1
10
43.8486698479932
20
-14.682648280045
30
0
41
1
10
45.1124078761464
20
-14.6842204717204
30
0
41
1
10
46.4220723677237
20
-14.6863050664148
30
0
41
1
10
47.6820735472646
20
-14.688530894619
30
0
41
1
10
48.8717477992034
20
-14.6905877049401
30
0
41
1
10
50.452285781082
20
-14.6928347022364
30
0
41
1
10
52.4746549628996
20
-14.6931201174462
30
0
41
1
10
54.9379328003127
20
-14.6905446880139
30
0
41
1
10
56.9140320727174
20
-14.6902128124675
30
0
41
1
10
58.3679452050088
20
-14.6905769510785
30
0
41
1
10
59.2522728304528
20
-14.6909891710763
30
0
41
1
10
60.0242220018453
20
-14.6914744276919
30
0
41
1
10
60.7058384305108
20
-14.6919754485274
30
0
41
1
10
61.3924031090186
20
-14.6925476030062
30
0
41
1
10
62.2970180035315
20
-14.6933554958676
30
0
41
1
10
63.4581760539142
20
-14.6942401687959
30
0
41
1
10
64.8659656793093
20
-14.69515407352
30
0
41
1
10
66.3299693584927
20
-14.6951631478129
30
0
41
1
10
67.7696020736364
20
-14.6937438592169
30
0
41
1
10
69.111862898346
20
-14.6922037983884
30
0
41
1
10
70.3696211172823
20
-14.6911229341984
30
0
41
1
10
71.5491025442132
20
-14.6905520676545
30
0
41
1
10
72.6630434707262
20
-14.6903843314962
30
0
41
1
10
73.6625621294739
20
-14.6905221010245
30
0
41
1
10
74.5426516898125
20
-14.6908482045661
30
0
41
1
10
75.3524341122832
20
-14.6912979293028
30
0
41
1
10
76.1796435617291
20
-14.6918835980347
30
0
41
1
10
77.1671821026557
20
-14.692697115129
30
0
41
1
10
78.3379512881463
20
-14.6936508258617
30
0
41
1
10
79.714636840368
20
-14.694328938255
30
0
41
1
10
81.2502958668285
20
-14.6947042250484
30
0
41
1
10
82.9394377975803
20
-14.6948110712155
30
0
41
1
10
84.5994517455635
20
-14.6951995487526
30
0
41
1
10
86.1739909448427
20
-14.694568106094
30
0
41
1
10
87.5956544223183
20
-14.6877310135677
30
0
41
1
10
89.04581286893
20
-14.6843625541507
30
0
41
1
10
90.279517219778
20
-14.6928781638743
30
0
41
1
10
91.0026846700569
20
-14.6956051332278
30
0
41
1
10
91.2576115080618
20
-14.6966541665532
30
0
0
SPLINE
5
107
100
AcDbEntity
8
1
62
256
6
ByLayer
370
18
48
1
60
0
100
AcDbSpline
70
4
71
3
72
8
73
4
40
0
40
0
40
0
40
0
40
1
40
1
40
1
40
1
41
1
10
293.718186788287
20
-16.1310001622866
30
0
41
1
10
293.692338803684
20
-16.1335451586829
30
0
41
1
10
293.666492796152
20
-16.136076178862
30
0
41
1
10
293.640648684115
20
-16.1385931930715
30
0
0
SPLINE
5
108
100
AcDbEntity
8
1
62
256
6
ByLayer
370
18
48
1
60
0
100
AcDbSpline
70
4
71
3
72
16
73
12
40
0
40
0
40
0
40
0
40
0.0501444281186009
40
0.0501444281186009
40
0.36676295207908
40
0.36676295207908
40
0.525072214059313
40
0.525072214059313
40
0.683381476039546
40
0.683381476039546
40
1
40
1
40
1
40
1
41
1
10
290.830098526085
20
-16.3561193989779
30
0
41
1
10
290.649064446913
20
-16.3664585094939
30
0
41
1
10
290.46804571809
20
-16.3760879704786
30
0
41
1
10
289.144164147829
20
-16.4413488148426
30
0
41
1
10
288.001836256007
20
-16.4695647378161
30
0
41
1
10
286.289654618814
20
-16.4696967878139
30
0
41
1
10
285.719293521164
20
-16.4626601899498
30
0
41
1
10
284.57745957472
20
-16.4344853916845
30
0
41
1
10
284.006153784381
20
-16.4133649982855
30
0
41
1
10
282.291070218919
20
-16.3290156973219
30
0
41
1
10
281.146102679354
20
-16.2448763600121
30
0
41
1
10
279.999781720317
20
-16.1323396182787
30
0
0
SPLINE
5
109
100
AcDbEntity
8
1
62
256
6
ByLayer
370
18
48
1
60
0
100
AcDbSpline
70
4
71
3
72
16
73
12
40
0
40
0
40
0
40
0
40
0.1559935151735
40
0.1559935151735
40
0.3247948121388
40
0.3247948121388
40
0.6623974060694
40
0.6623974060694
40
0.8311987030347
40
0.8311987030347
40
1
40
1
40
1
40
1
41
1
10
267.156204187456
20
8.11964399075927
30
0
41
1
10
268.162925737485
20
7.82391972496799
30
0
41
1
10
269.169679340302
20
7.52105439605316
30
0
41
1
10
271.266430751674
20
6.87688993424399
30
0
41
1
10
272.356772425812
20
6.53438295702182
30
0
41
1
10
275.627731116203
20
5.48696843651305
30
0
41
1
10
277.805519393697
20
4.76304961870784
30
0
41
1
10
281.071825163871
20
3.64884320524996
30
0
41
1
10
282.160541583177
20
3.27273188560105
30
0
41
1
10
284.338644273855
20
2.51303609166328
30
0
41
1
10
285.42824714449
20
2.12937161083761
30
0
41
1
10
286.51683640999
20
1.74366885760594
30
0
0
SPLINE
5
10A
100
AcDbEntity
8
1
62
256
6
ByLayer
370
18
48
1
60
0
100
AcDbSpline
70
4
71
3
72
8
73
4
40
0
40
0
40
0
40
0
40
1
40
1
40
1
40
1
41
1
10
26.5908569298533
20
14.6652818114506
30
0
41
1
10
26.9895619723364
20
14.684160421174
30
0
41
1
10
27.3839744875183
20
14.6972801014547
30
0
41
1
10
27.7742428271293
20
14.70404164513
30
0
0
SPLINE
5
10B
100
AcDbEntity
8
1
62
256
6
ByLayer
370
18
48
1
60
0
100
AcDbSpline
70
4
71
3
72
12
73
8
40
0
40
0
40
0
40
0
40
0.141215963779856
40
0.141215963779856
40
0.570607981889928
40
0.570607981889928
40
1
40
1
40
1
40
1
41
1
10
24.1879778051369
20
0.133311232047788
30
0
41
1
10
24.2671735105622
20
0.16866831776494
30
0
41
1
10
24.3485991602636
20
0.215272651505529
30
0
41
1
10
24.6855383583575
20
0.448698037637684
30
0
41
1
10
24.9571878806064
20
0.72755429786946
30
0
41
1
10
25.5192443322131
20
1.4737668461521
30
0
41
1
10
25.809612032102
20
1.94107105131712
30
0
41
1
10
26.1000000000009
20
2.48757529280346
30
0
0
SPLINE
5
10C
100
AcDbEntity
8
1
62
256
6
ByLayer
370
18
48
1
60
0
100
AcDbSpline
70
4
71
3
72
12
73
8
40
0
40
0
40
0
40
0
40
0.508162318518124
40
0.508162318518124
40
0.762243477777186
40
0.762243477777186
40
1
40
1
40
1
40
1
41
1
10
279.722057245112
20
-16.0050413752265
30
0
41
1
10
280.894318634382
20
-16.1202779294418
30
0
41
1
10
282.065641009837
20
-16.2059088013431
30
0
41
1
10
283.820804284201
20
-16.2908687038182
30
0
41
1
10
284.405562600114
20
-16.3119189954965
30
0
41
1
10
285.53693000597
20
-16.3385309730775
30
0
41
1
10
286.083405448965
20
-16.3449898376292
30
0
41
1
10
286.630183422475
20
-16.3449996970112
30
0
0
SPLINE
5
10D
100
AcDbEntity
8
1
62
256
6
ByLayer
370
18
48
1
60
0
100
AcDbSpline
70
4
71
3
72
8
73
4
40
0
40
0
40
0
40
0
40
1
40
1
40
1
40
1
41
1
10
29.1
20
14.7858141758757
30
0
41
1
10
29.2580610937967
20
14.776389900201
30
0
41
1
10
29.410477235692
20
14.7638996597079
30
0
41
1
10
29.5575024479074
20
14.7481027900274
30
0
0
SPLINE
5
10E
100
AcDbEntity
8
1
62
256
6
ByLayer
370
18
48
1
60
0
100
AcDbSpline
70
4
71
3
72
8
73
4
40
0
40
0
40
0
40
0
40
1
40
1
40
1
40
1
41
1
10
23.4143488015985
20
-0.393646810358717
30
0
41
1
10
23.4459952045033
20
-0.395396240184141
30
0
41
1
10
23.4776831948896
20
-0.396515646958278
30
0
41
1
10
23.5093790659909
20
-0.397015050974545
30
0
0
SPLINE
5
10F
100
AcDbEntity
8
1
62
256
6
ByLayer
370
18
48
1
60
0
100
AcDbSpline
70
4
71
3
72
8
73
4
40
0
40
0
40
0
40
0
40
1
40
1
40
1
40
1
41
1
10
262.838809876632
20
-10.4285665537692
30
0
41
1
10
262.983956692879
20
-10.4546181704203
30
0
41
1
10
263.129098298882
20
-10.4805969619969
30
0
41
1
10
263.274234313201
20
-10.5065019313496
30
0
0
SPLINE
5
110
100
AcDbEntity
8
1
62
256
6
ByLayer
370
18
48
1
60
0
100
AcDbSpline
70
4
71
3
72
8
73
4
40
0
40
0
40
0
40
0
40
1
40
1
40
1
40
1
41
1
10
293.768060413478
20
-15.9823479505979
30
0
41
1
10
293.751444855487
20
-16.031892568421
30
0
41
1
10
293.734820317486
20
-16.0814433031098
30
0
41
1
10
293.718186788284
20
-16.1310001622859
30
0
0
SPLINE
5
111
100
AcDbEntity
8
1
62
256
6
ByLayer
370
18
48
1
60
0
100
AcDbSpline
70
4
71
3
72
60
73
56
40
0
40
0
40
0
40
0
40
0.0357500353060449
40
0.0357500353060449
40
0.0715000706120899
40
0.0715000706120899
40
0.107250105918135
40
0.107250105918135
40
0.14300014122418
40
0.14300014122418
40
0.214500211836268
40
0.214500211836268
40
0.250250247142312
40
0.250250247142312
40
0.286000282448357
40
0.286000282448357
40
0.321750317754401
40
0.321750317754401
40
0.357500353060445
40
0.357500353060445
40
0.393250388366489
40
0.393250388366489
40
0.429000423672533
40
0.429000423672533
40
0.464750458978577
40
0.464750458978577
40
0.500500494284622
40
0.500500494284622
40
0.536250529590666
40
0.536250529590666
40
0.57200056489671
40
0.57200056489671
40
0.607750600202754
40
0.607750600202754
40
0.643500635508798
40
0.643500635508798
40
0.679250670814843
40
0.679250670814843
40
0.715000706120887
40
0.715000706120887
40
0.750750741426932
40
0.750750741426932
40
0.786500776732977
40
0.786500776732977
40
0.822250812039022
40
0.822250812039022
40
0.858000847345067
40
0.858000847345067
40
0.893750882651111
40
0.893750882651111
40
0.929500917957156
40
0.929500917957156
40
0.965250953263201
40
0.965250953263201
40
1
40
1
40
1
40
1
41
1
10
261.930914630881
20
-10.5597764992005
30
0
41
1
10
260.742531938217
20
-10.2550586194797
30
0
41
1
10
259.55402319617
20
-9.93758789938406
30
0
41
1
10
257.177780111286
20
-9.28063081526395
30
0
41
1
10
255.990057747042
20
-8.94121923919963
30
0
41
1
10
253.614112484125
20
-8.24361310108515
30
0
41
1
10
252.425854538264
20
-7.88553168239147
30
0
41
1
10
250.048915090874
20
-7.15045551181942
30
0
41
1
10
248.860377813483
20
-6.77302738995309
30
0
41
1
10
245.297902426472
20
-5.61653249262278
30
0
41
1
10
242.925215248298
20
-4.81304788504977
30
0
41
1
10
239.359441813765
20
-3.58671363002807
30
0
41
1
10
238.171156354282
20
-3.1743399655804
30
0
41
1
10
235.795123021599
20
-2.34263563149079
30
0
41
1
10
234.607314931595
20
-1.92346651003439
30
0
41
1
10
232.231203155604
20
-1.08102098059385
30
0
41
1
10
231.042497026222
20
-0.657573417631681
30
0
41
1
10
228.666164718256
20
0.189727376720469
30
0
41
1
10
227.478407821482
20
0.613361967535269
30
0
41
1
10
225.102225545617
20
1.45643277715945
30
0
41
1
10
223.913935466464
20
1.87625332384968
30
0
41
1
10
221.537208945596
20
2.71315594383344
30
0
41
1
10
220.348790028321
20
3.13001011116268
30
0
41
1
10
217.973767644443
20
3.95601360583925
30
0
41
1
10
216.786753632984
20
4.36530528211236
30
0
41
1
10
214.412445827672
20
5.17299132344877
30
0
41
1
10
213.22500132001
20
5.57129827747161
30
0
41
1
10
210.848277534257
20
6.35167466421396
30
0
41
1
10
209.660080413319
20
6.73359054137711
30
0
41
1
10
207.284058292174
20
7.48114790740757
30
0
41
1
10
206.096221502651
20
7.84674189878484
30
0
41
1
10
203.719997001174
20
8.55933037877702
30
0
41
1
10
202.53120926458
20
8.90643184121183
30
0
41
1
10
200.154877548315
20
9.57899308643195
30
0
41
1
10
198.967202495563
20
9.90448597859745
30
0
41
1
10
196.591175379084
20
10.5304519419031
30
0
41
1
10
195.402790901762
20
10.8309097489172
30
0
41
1
10
193.025625469939
20
11.4074569711135
30
0
41
1
10
191.837089604114
20
11.6835401335132
30
0
41
1
10
189.461839649853
20
12.2082722728076
30
0
41
1
10
188.274724130926
20
12.457001383132
30
0
41
1
10
185.900261620445
20
12.9249642670489
30
0
41
1
10
184.712760303222
20
13.1442553243203
30
0
41
1
10
182.336437586333
20
13.5505386128459
30
0
41
1
10
181.148366473559
20
13.7373217119805
30
0
41
1
10
178.77234945752
20
14.0785112893489
30
0
41
1
10
177.584471834321
20
14.2329677492345
30
0
41
1
10
175.208173741552
20
14.5086928683631
30
0
41
1
10
174.01936237543
20
14.6299699908766
30
0
41
1
10
171.643114993887
20
14.8381279317019
30
0
41
1
10
170.455522637923
20
14.9250534801066
30
0
41
1
10
168.07979892582
20
15.0637794179459
30
0
41
1
10
166.891524022874
20
15.1155768701582
30
0
41
1
10
164.54747419676
20
15.1832141549079
30
0
41
1
10
163.392164590846
20
15.1999987510026
30
0
41
1
10
162.237713890531
20
15.1999999653243
30
0
0
SPLINE
5
112
100
AcDbEntity
8
1
62
256
6
ByLayer
370
18
48
1
60
0
100
AcDbSpline
70
4
71
3
72
8
73
4
40
0
40
0
40
0
40
0
40
1
40
1
40
1
40
1
41
1
10
39.3413812654736
20
-14.6984933465795
30
0
41
1
10
37.5082631245637
20
-14.865698272703
30
0
41
1
10
35.6756480214664
20
-14.9916727104501
30
0
41
1
10
33.8405739368646
20
-15.0751912495778
30
0
0
SPLINE
5
113
100
AcDbEntity
8
1
62
256
6
ByLayer
370
18
48
1
60
0
100
AcDbSpline
70
4
71
3
72
8
73
4
40
0
40
0
40
0
40
0
40
1
40
1
40
1
40
1
41
1
10
29.1
20
-2.21164391646673
30
0
41
1
10
28.0674815577075
20
-1.79475597620612
30
0
41
1
10
27.0343468194599
20
-1.38037782123669
30
0
41
1
10
26
20
-0.969975891683276
30
0
0
SPLINE
5
114
100
AcDbEntity
8
1
62
256
6
ByLayer
370
18
48
1
60
0
100
AcDbSpline
70
4
71
3
72
14
73
10
40
0
40
0
40
0
40
0
40
0.25
40
0.25
40
0.375
40
0.375
40
0.5
40
0.5
40
1
40
1
40
1
40
1
41
1
10
267.00000000002
20
8.16707864226873
30
0
41
1
10
268.603402650978
20
7.66147927531912
30
0
41
1
10
270.206992232215
20
7.13674927586871
30
0
41
1
10
272.614721183693
20
6.32572122226091
30
0
41
1
10
273.417964916694
20
6.05128837059058
30
0
41
1
10
275.022017230851
20
5.49650755560026
30
0
41
1
10
275.823224800266
20
5.21603466231966
30
0
41
1
10
279.825999408636
20
3.80046918465595
30
0
41
1
10
283.017789526153
20
2.62577516915764
30
0
41
1
10
286.209863857007
20
1.43764931370146
30
0
0
SPLINE
5
115
100
AcDbEntity
8
1
62
256
6
ByLayer
370
13
48
1
60
0
100
AcDbSpline
70
4
71
3
72
8
73
4
40
0
40
0
40
0
40
0
40
1
40
1
40
1
40
1
41
1
10
297.039846553976
20
1.54987573155824
30
0
41
1
10
297.04742932658
20
1.54451134167476
30
0
41
1
10
297.055028710989
20
1.53916779086177
30
0
41
1
10
297.062644365483
20
1.53384490432583
30
0
0
SPLINE
5
116
100
AcDbEntity
8
1
62
256
6
ByLayer
370
18
48
1
60
0
100
AcDbSpline
70
4
71
3
72
12
73
8
40
0
40
0
40
0
40
0
40
0.499999999999993
40
0.499999999999993
40
0.749999999999997
40
0.749999999999997
40
1
40
1
40
1
40
1
41
1
10
292.013330241233
20
0.569949685753954
30
0
41
1
10
291.917960481026
20
0.934950355295143
30
0
41
1
10
291.837879844743
20
1.30217558588743
30
0
41
1
10
291.736489660805
20
1.85573875094286
30
0
41
1
10
291.705454537901
20
2.04066161832941
30
0
41
1
10
291.649628732028
20
2.41141591646652
30
0
41
1
10
291.624544765239
20
2.59720467454554
30
0
41
1
10
291.601558925991
20
2.78329870929261
30
0
0
SPLINE
5
117
100
AcDbEntity
8
1
62
256
6
ByLayer
370
18
48
1
60
0
100
AcDbSpline
70
4
71
3
72
14
73
10
40
0
40
0
40
0
40
0
40
0.249999999999992
40
0.249999999999992
40
0.374999999999988
40
0.374999999999988
40
0.499999999999984
40
0.499999999999984
40
1
40
1
40
1
40
1
41
1
10
298.192273363283
20
-2.34545120654161
30
0
41
1
10
298.110674313418
20
-2.52033145876607
30
0
41
1
10
298.026094464066
20
-2.68679290705612
30
0
41
1
10
297.895003219438
20
-2.92456219321008
30
0
41
1
10
297.850601052161
20
-3.00182721707901
30
0
41
1
10
297.760411738064
20
-3.15244560578455
30
0
41
1
10
297.714439082058
20
-3.22607917762076
30
0
41
1
10
297.483568258715
20
-3.5809114710037
30
0
41
1
10
297.297412599017
20
-3.82059637536162
30
0
41
1
10
297.110132611143
20
-4.02623478901333
30
0
0
SPLINE
5
118
100
AcDbEntity
8
1
62
256
6
ByLayer
370
18
48
1
60
0
100
AcDbSpline
70
4
71
3
72
10
73
6
40
0
40
0
40
0
40
0
40
0.5
40
0.5
40
1
40
1
40
1
40
1
41
1
10
26
20
-0.969975891683276
30
0
41
1
10
25.628434876475
20
-0.839273979449416
30
0
41
1
10
25.2563617262457
20
-0.726356090432944
30
0
41
1
10
24.5124460869006
20
-0.533808721449418
30
0
41
1
10
24.1406018452116
20
-0.454162555766601
30
0
41
1
10
23.7694577716985
20
-0.390877895661106
30
0
0
SPLINE
5
119
100
AcDbEntity
8
1
62
256
6
ByLayer
370
18
48
1
60
0
100
AcDbSpline
70
4
71
3
72
8
73
4
40
0
40
0
40
0
40
0
40
1
40
1
40
1
40
1
41
1
10
295.27663643816
20
5.40192046973485
30
0
41
1
10
294.982955071738
20
5.37670187151829
30
0
41
1
10
294.688945471932
20
5.35546534922497
30
0
41
1
10
294.394718714637
20
5.33681168247512
30
0
0
SPLINE
5
11A
100
AcDbEntity
8
1
62
256
6
ByLayer
370
18
48
1
60
0
100
AcDbSpline
70
2053
71
3
72
39
73
35
40
0
40
0
40
0
40
0
40
0.0312441310050716
40
0.0623702116125266
40
0.0935900079618094
40
0.12487940592392
40
0.156054503107869
40
0.187430759734184
40
0.218644747139144
40
0.250023002691977
40
0.281354962449081
40
0.312627195197939
40
0.344004771460021
40
0.375182503547134
40
0.406481781666009
40
0.437643978839668
40
0.468917171207965
40
0.500170145150095
40
0.531291172583115
40
0.562467855501433
40
0.593733527177757
40
0.624879218057224
40
0.656224786699476
40
0.68743530364385
40
0.718779310491917
40
0.750122680173495
40
0.781384688832868
40
0.812784706007312
40
0.843997646744781
40
0.87532218152072
40
0.90654981379509
40
0.937704630750521
40
0.968945293930905
40
1
40
1
40
1
40
1
41
1
10
272.37
20
-8.39436793504268
30
0
41
1
10
272.57473725343
20
-8.39436890869269
30
0
41
1
10
272.983448519209
20
-8.42912024434114
30
0
41
1
10
273.571710658353
20
-8.58177760432395
30
0
41
1
10
274.112350652208
20
-8.82513114761102
30
0
41
1
10
274.585209191214
20
-9.14501905814456
30
0
41
1
10
274.97373731751
20
-9.52454358792806
30
0
41
1
10
275.262685202594
20
-9.9440126553869
30
0
41
1
10
275.441427592873
20
-10.3847629849523
30
0
41
1
10
275.501911760749
20
-10.825909671505
30
0
41
1
10
275.441303432092
20
-11.249296909385
30
0
41
1
10
275.262424298318
20
-11.6388836870603
30
0
41
1
10
274.973086065248
20
-11.9819769103283
30
0
41
1
10
274.584320904375
20
-12.2708861002977
30
0
41
1
10
274.111519624431
20
-12.4995912780099
30
0
41
1
10
273.570244604003
20
-12.6653673622396
30
0
41
1
10
272.981215077103
20
-12.7656454007483
30
0
41
1
10
272.367482884453
20
-12.7989661336467
30
0
41
1
10
271.75453607402
20
-12.7650877835224
30
0
41
1
10
271.166509080012
20
-12.6646076669014
30
0
41
1
10
270.626356233029
20
-12.4987442795364
30
0
41
1
10
270.153343475399
20
-12.2694923463332
30
0
41
1
10
269.765607059668
20
-11.9807646195747
30
0
41
1
10
269.47656864474
20
-11.6371941108273
30
0
41
1
10
269.298201153328
20
-11.2478139783022
30
0
41
1
10
269.238158169246
20
-10.8244526936998
30
0
41
1
10
269.299025180209
20
-10.3829306255631
30
0
41
1
10
269.478062180549
20
-9.94260964325483
30
0
41
1
10
269.76796692425
20
-9.52254635561349
30
0
41
1
10
270.156588485973
20
-9.14349325400011
30
0
41
1
10
270.629970729745
20
-8.82391690506731
30
0
41
1
10
271.170721694876
20
-8.58089318513467
30
0
41
1
10
271.758303747185
20
-8.42886229621203
30
0
41
1
10
272.166504014606
20
-8.39436696729565
30
0
41
1
10
272.37
20
-8.39436793504268
30
0
0
SPLINE
5
11B
100
AcDbEntity
8
1
62
256
6
ByLayer
370
18
48
1
60
0
100
AcDbSpline
70
4
71
3
72
8
73
4
40
0
40
0
40
0
40
0
40
1
40
1
40
1
40
1
41
1
10
265.24928870973
20
12.7735097962216
30
0
41
1
10
265.192826433322
20
12.7603293106316
30
0
41
1
10
265.136499314706
20
12.7510377988227
30
0
41
1
10
265.080314284314
20
12.745431408064
30
0
0
SPLINE
5
11C
100
AcDbEntity
8
1
62
256
6
ByLayer
370
18
48
1
60
0
100
AcDbSpline
70
4
71
3
72
10
73
6
40
0
40
0
40
0
40
0
40
0.5
40
0.5
40
1
40
1
40
1
40
1
41
1
10
265.974875601487
20
-13.4599656571795
30
0
41
1
10
268.212317251936
20
-13.8509251019228
30
0
41
1
10
270.448288941332
20
-14.1792681462637
30
0
41
1
10
274.926075127515
20
-14.7027974944674
30
0
41
1
10
277.162665317347
20
-14.8971747950977
30
0
41
1
10
279.4
20
-15.0236214472069
30
0
0
SPLINE
5
11D
100
AcDbEntity
8
1
62
256
6
ByLayer
370
18
48
1
60
0
100
AcDbSpline
70
4
71
3
72
8
73
4
40
0
40
0
40
0
40
0
40
1
40
1
40
1
40
1
41
1
10
279.5
20
5.55000000000001
30
0
41
1
10
279.5
20
5.55278793610944
30
0
41
1
10
279.5
20
5.55557865278885
30
0
41
1
10
279.5
20
5.55837214965442
30
0
0
SPLINE
5
11E
100
AcDbEntity
8
1
62
256
6
ByLayer
370
18
48
1
60
0
100
AcDbSpline
70
4
71
3
72
8
73
4
40
0
40
0
40
0
40
0
40
1
40
1
40
1
40
1
41
1
10
279.3
20
4.23894133948158
30
0
41
1
10
279.3
20
4.46330631712445
30
0
41
1
10
279.3
20
4.71307767908647
30
0
41
1
10
279.3
20
4.98811033948161
30
0
0
SPLINE
5
11F
100
AcDbEntity
8
1
62
256
6
ByLayer
370
18
48
1
60
0
100
AcDbSpline
70
4
71
3
72
8
73
4
40
0
40
0
40
0
40
0
40
1
40
1
40
1
40
1
41
1
10
279.5
20
-14.4866283171758
30
0
41
1
10
279.466666666667
20
-14.5186076291343
30
0
41
1
10
279.433333333333
20
-14.5505869410927
30
0
41
1
10
279.4
20
-14.5825662530511
30
0
0
SPLINE
5
120
100
AcDbEntity
8
1
62
256
6
ByLayer
370
18
48
1
60
0
100
AcDbSpline
70
4
71
3
72
10
73
6
40
0
40
0
40
0
40
0
40
0.5
40
0.5
40
1
40
1
40
1
40
1
41
1
10
279.405271176726
20
14.3731261989788
30
0
41
1
10
277.273571513871
20
14.2806992603755
30
0
41
1
10
275.14596554574
20
14.1292390206922
30
0
41
1
10
270.89267942343
20
13.701633704031
30
0
41
1
10
268.766776345971
20
13.4267779850072
30
0
41
1
10
266.637898155047
20
13.0949729820781
30
0
0
SPLINE
5
121
100
AcDbEntity
8
1
62
256
6
ByLayer
370
18
48
1
60
0
100
AcDbSpline
70
4
71
4
72
10
73
5
40
0
40
0
40
0
40
0
40
0
40
1
40
1
40
1
40
1
40
1
41
1
10
279.5
20
16.1345484619957
30
0
41
1
10
279.5
20
15.054150288212
30
0
41
1
10
279.5
20
13.9737521144284
30
0
41
1
10
279.5
20
12.8933539406447
30
0
41
1
10
279.5
20
11.8129557668611
30
0
0
SPLINE
5
122
100
AcDbEntity
8
1
62
256
6
ByLayer
370
18
48
1
60
0
100
AcDbSpline
70
4
71
3
72
8
73
4
40
0
40
0
40
0
40
0
40
1
40
1
40
1
40
1
41
1
10
279.999781720321
20
-16.3436773668571
30
0
41
1
10
279.833207615511
20
-16.2744635529303
30
0
41
1
10
279.666615754611
20
-16.204749116424
30
0
41
1
10
279.5
20
-16.1345484619956
30
0
0
SPLINE
5
123
100
AcDbEntity
8
1
62
256
6
ByLayer
370
18
48
1
60
0
100
AcDbSpline
70
4
71
3
72
8
73
4
40
0
40
0
40
0
40
0
40
1
40
1
40
1
40
1
41
1
10
279.3
20
5.55000000000001
30
0
41
1
10
279.366667976319
20
5.55000000000001
30
0
41
1
10
279.433334640058
20
5.55000000000001
30
0
41
1
10
279.5
20
5.55000000000001
30
0
0
SPLINE
5
124
100
AcDbEntity
8
1
62
256
6
ByLayer
370
18
48
1
60
0
100
AcDbSpline
70
4
71
1
72
4
73
2
40
0
40
0
40
1
40
1
41
1
10
289.517961901995
20
2.82773149629324
30
0
41
1
10
289.51317554627
20
2.83248929342446
30
0
0
SPLINE
5
125
100
AcDbEntity
8
1
62
256
6
ByLayer
370
18
48
1
60
0
100
AcDbSpline
70
4
71
3
72
8
73
4
40
0
40
0
40
0
40
0
40
1
40
1
40
1
40
1
41
1
10
23.4143488015985
20
15.0226699879226
30
0
41
1
10
23.4460213895571
20
15.0134818825977
30
0
41
1
10
23.477698181745
20
15.0042816648472
30
0
41
1
10
23.5093790659908
20
14.9950694415521
30
0
0
SPLINE
5
126
100
AcDbEntity
8
1
62
256
6
ByLayer
370
18
48
1
60
0
100
AcDbSpline
70
4
71
3
72
8
73
4
40
0
40
0
40
0
40
0
40
1
40
1
40
1
40
1
41
1
10
294.394718714637
20
5.33681168247512
30
0
41
1
10
294.384875210779
20
5.33618761469046
30
0
41
1
10
294.375463990462
20
5.33250414731285
30
0
41
1
10
294.367488864918
20
5.32672233644968
30
0
0
SPLINE
5
127
100
AcDbEntity
8
1
62
256
6
ByLayer
370
18
48
1
60
0
100
AcDbSpline
70
4
71
3
72
8
73
4
40
0
40
0
40
0
40
0
40
1
40
1
40
1
40
1
41
1
10
279.3
20
5.55000000000001
30
0
41
1
10
279.3
20
5.3464188825987
30
0
41
1
10
279.3
20
5.15914455857711
30
0
41
1
10
279.3
20
4.98811033948147
30
0
0
SPLINE
5
128
100
AcDbEntity
8
1
62
256
6
ByLayer
370
18
48
1
60
0
100
AcDbSpline
70
4
71
3
72
10
73
6
40
0
40
0
40
0
40
0
40
0.735564594101134
40
0.735564594101134
40
1
40
1
40
1
40
1
41
1
10
265.001780697623
20
13.2331854959133
30
0
41
1
10
262.545294259399
20
12.8041647932213
30
0
41
1
10
260.091593228277
20
12.3082498755932
30
0
41
1
10
256.755382633347
20
11.550241632528
30
0
41
1
10
255.873837197756
20
11.342051613925
30
0
41
1
10
254.992643057593
20
11.1267155525428
30
0
0
SPLINE
5
129
100
AcDbEntity
8
1
62
256
6
ByLayer
370
18
48
1
60
0
100
AcDbSpline
70
4
71
3
72
56
73
52
40
0
40
0
40
0
40
0
40
0.0168050999396174
40
0.0168050999396174
40
0.0465988847899324
40
0.0465988847899324
40
0.106186454490562
40
0.106186454490562
40
0.135980239340877
40
0.135980239340877
40
0.165774024191191
40
0.165774024191191
40
0.225361593891821
40
0.225361593891821
40
0.255155378742136
40
0.255155378742136
40
0.284949163592451
40
0.284949163592451
40
0.34453673329308
40
0.34453673329308
40
0.374330518143395
40
0.374330518143395
40
0.40412430299371
40
0.40412430299371
40
0.463711872694339
40
0.463711872694339
40
0.493505657544654
40
0.493505657544654
40
0.523299442394969
40
0.523299442394969
40
0.582887012095599
40
0.582887012095599
40
0.612680796945913
40
0.612680796945913
40
0.642474581796228
40
0.642474581796228
40
0.702062151496857
40
0.702062151496857
40
0.731855936347171
40
0.731855936347171
40
0.761649721197486
40
0.761649721197486
40
0.821237290898114
40
0.821237290898114
40
0.851031075748428
40
0.851031075748428
40
0.880824860598743
40
0.880824860598743
40
0.940412430299371
40
0.940412430299371
40
1
40
1
40
1
40
1
41
1
10
153.030294778284
20
-15.1999948645907
30
0
41
1
10
152.337924599442
20
-15.199965908884
30
0
41
1
10
151.645401772316
20
-15.1939544192761
30
0
41
1
10
149.725482816962
20
-15.1606529090896
30
0
41
1
10
148.498966540914
20
-15.1205376545248
30
0
41
1
10
144.820820891534
20
-14.9442257879882
30
0
41
1
10
142.371088394923
20
-14.7518299124774
30
0
41
1
10
138.694038069113
20
-14.3531295590396
30
0
41
1
10
137.467553411977
20
-14.2018696326776
30
0
41
1
10
135.013612537605
20
-13.8642436157851
30
0
41
1
10
133.787536766094
20
-13.6780894128295
30
0
41
1
10
130.109541781171
20
-13.0712391701629
30
0
41
1
10
127.658361781922
20
-12.6017271066791
30
0
41
1
10
123.979082270694
20
-11.806344402889
30
0
41
1
10
122.752199957443
20
-11.5260575316909
30
0
41
1
10
120.296495210651
20
-10.9368334570502
30
0
41
1
10
119.069547818527
20
-10.6283582698163
30
0
41
1
10
115.390753728836
20
-9.66502186920081
30
0
41
1
10
112.940996507361
20
-8.97112010810426
30
0
41
1
10
109.264589993696
20
-7.8651673981978
30
0
41
1
10
108.03877570778
20
-7.48578153627452
30
0
41
1
10
105.584941894174
20
-6.70916006751659
30
0
41
1
10
104.357924640268
20
-6.31226080616557
30
0
41
1
10
100.678931777465
20
-5.10387455866618
30
0
41
1
10
98.2275362244368
20
-4.27293091530277
30
0
41
1
10
94.5487066370391
20
-2.99852063590717
30
0
41
1
10
93.3221048827514
20
-2.56913651007912
30
0
41
1
10
90.8672344618057
20
-1.70397686156849
30
0
41
1
10
89.6392631730967
20
-1.26832053415657
30
0
41
1
10
85.9595115308035
20
0.0405621290515228
30
0
41
1
10
83.5096649831592
20
0.917978649967267
30
0
41
1
10
79.8339523576382
20
2.22459786185178
30
0
41
1
10
78.6085083111561
20
2.6584146822351
30
0
41
1
10
76.1556802412656
20
3.51833107880071
30
0
41
1
10
74.9280787716887
20
3.94447465624768
30
0
41
1
10
71.2483198220587
20
5.20173123949093
30
0
41
1
10
68.7968884603889
20
6.01395664837077
30
0
41
1
10
65.1186667402697
20
7.18414739373088
30
0
41
1
10
63.8923794840455
20
7.56608100289694
30
0
41
1
10
61.4383497461523
20
8.31106001328047
30
0
41
1
10
60.2100538615794
20
8.67424396166876
30
0
41
1
10
56.5292196708022
20
9.72905937182637
30
0
41
1
10
54.0791377073011
20
10.3876456011842
30
0
41
1
10
50.4039679585773
20
11.2957017913917
30
0
41
1
10
49.1788559380261
20
11.5849831716922
30
0
41
1
10
46.7270125119628
20
12.1338491288017
30
0
41
1
10
45.4995715652593
20
12.3935568574547
30
0
41
1
10
41.8181261422999
20
13.1231142512459
30
0
41
1
10
39.3657786736189
20
13.5432797813095
30
0
41
1
10
34.4625285414665
20
14.2495565049409
30
0
41
1
10
32.0116007622638
20
14.5352591695058
30
0
41
1
10
29.5575024479075
20
14.7481027900274
30
0
0
SPLINE
5
12A
100
AcDbEntity
8
1
62
256
6
ByLayer
370
18
48
1
60
0
100
AcDbSpline
70
4
71
3
72
12
73
8
40
0
40
0
40
0
40
0
40
0.5
40
0.5
40
0.75
40
0.75
40
1
40
1
40
1
40
1
41
1
10
258.875907252311
20
10.2041635213137
30
0
41
1
10
259.107845964978
20
10.1239368058348
30
0
41
1
10
259.350147212951
20
10.0685918295006
30
0
41
1
10
259.72974976619
20
10.0261536875928
30
0
41
1
10
259.85885691028
20
10.0189748643183
30
0
41
1
10
260.116129636112
20
10.0192741133872
30
0
41
1
10
260.244701061393
20
10.0266888097855
30
0
41
1
10
260.371858725197
20
10.041210339999
30
0
0
SPLINE
5
12B
100
AcDbEntity
8
1
62
256
6
ByLayer
370
18
48
1
60
0
100
AcDbSpline
70
4
71
3
72
12
73
8
40
0
40
0
40
0
40
0
40
0.5
40
0.5
40
0.75
40
0.75
40
1
40
1
40
1
40
1
41
1
10
29.1
20
14.7858141758757
30
0
41
1
10
28.8811924156076
20
14.7842334667855
30
0
41
1
10
28.6606964876859
20
14.7762482249532
30
0
41
1
10
28.3275020056726
20
14.7556856706249
30
0
41
1
10
28.2158291319185
20
14.7473567406002
30
0
41
1
10
27.9924494306104
20
14.727708264584
30
0
41
1
10
27.8825061503879
20
14.7165485369238
30
0
41
1
10
27.7742428271293
20
14.70404164513
30
0
0
SPLINE
5
12C
100
AcDbEntity
8
1
62
256
6
ByLayer
370
18
48
1
60
0
100
AcDbSpline
70
4
71
3
72
32
73
28
40
0
40
0
40
0
40
0
40
0.0625000000000229
40
0.0625000000000229
40
0.125000000000046
40
0.125000000000046
40
0.250000000000061
40
0.250000000000061
40
0.312500000000068
40
0.312500000000068
40
0.375000000000076
40
0.375000000000076
40
0.437500000000083
40
0.437500000000083
40
0.500000000000091
40
0.500000000000091
40
0.625000000000082
40
0.625000000000082
40
0.687500000000069
40
0.687500000000069
40
0.750000000000055
40
0.750000000000055
40
0.812500000000041
40
0.812500000000041
40
0.875000000000028
40
0.875000000000028
40
1
40
1
40
1
40
1
41
1
10
263.274234313201
20
-10.5065019313496
30
0
41
1
10
263.385437438442
20
-10.5263503029947
30
0
41
1
10
263.497817820548
20
-10.5415647481051
30
0
41
1
10
263.7249334876
20
-10.5628485149316
30
0
41
1
10
263.83922585731
20
-10.5688321858893
30
0
41
1
10
264.179408247364
20
-10.5730165889547
30
0
41
1
10
264.404518672257
20
-10.5578535295049
30
0
41
1
10
264.739620309236
20
-10.5072726757498
30
0
41
1
10
264.850010060535
20
-10.4857978336909
30
0
41
1
10
265.064486040646
20
-10.4344710866812
30
0
41
1
10
265.169160522811
20
-10.4045348941688
30
0
41
1
10
265.373454866101
20
-10.3360157576082
30
0
41
1
10
265.47307502642
20
-10.2974338871235
30
0
41
1
10
265.667136958223
20
-10.2111379263891
30
0
41
1
10
265.760803171273
20
-10.1637039048217
30
0
41
1
10
266.027424557708
20
-10.0108120745965
30
0
41
1
10
266.188136691771
20
-9.89407109205027
30
0
41
1
10
266.403148305722
20
-9.69445862168288
30
0
41
1
10
266.469705387733
20
-9.62439597100285
30
0
41
1
10
266.591066642231
20
-9.47902000313024
30
0
41
1
10
266.646176862809
20
-9.40342705123868
30
0
41
1
10
266.745281520032
20
-9.24620634842648
30
0
41
1
10
266.789277238558
20
-9.1645797495664
30
0
41
1
10
266.865729304079
20
-8.99485684487232
30
0
41
1
10
266.897600563032
20
-8.90797667379195
30
0
41
1
10
266.974022286193
20
-8.64317754094949
30
0
41
1
10
267
20
-8.46031446831063
30
0
41
1
10
267
20
-8.2706253524594
30
0
0
SPLINE
5
12D
100
AcDbEntity
8
1
62
256
6
ByLayer
370
18
48
1
60
0
100
AcDbSpline
70
4
71
3
72
12
73
8
40
0
40
0
40
0
40
0
40
0.500000000000069
40
0.500000000000069
40
0.750000000000035
40
0.750000000000035
40
1
40
1
40
1
40
1
41
1
10
265.001780697622
20
-13.2331854959132
30
0
41
1
10
265.177847947123
20
-13.2569011000266
30
0
41
1
10
265.346971379802
20
-13.2881666922573
30
0
41
1
10
265.590598027985
20
-13.3452304707729
30
0
41
1
10
265.670119799296
20
-13.3659544669437
30
0
41
1
10
265.825723549112
20
-13.4107050827477
30
0
41
1
10
265.901936262656
20
-13.4348010254802
30
0
41
1
10
265.974875601487
20
-13.4599656571795
30
0
0
SPLINE
5
12E
100
AcDbEntity
8
1
62
256
6
ByLayer
370
18
48
1
60
0
100
AcDbSpline
70
4
71
3
72
8
73
4
40
0
40
0
40
0
40
0
40
1
40
1
40
1
40
1
41
1
10
279.999781720321
20
-16.1323396182791
30
0
41
1
10
279.90724741864
20
-16.0900756896551
30
0
41
1
10
279.814672874908
20
-16.0476422517112
30
0
41
1
10
279.722057245112
20
-16.0050413752265
30
0
0
SPLINE
5
12F
100
AcDbEntity
8
1
62
256
6
ByLayer
370
18
48
1
60
0
100
AcDbSpline
70
4
71
3
72
8
73
4
40
0
40
0
40
0
40
0
40
1
40
1
40
1
40
1
41
1
10
32.9000000122906
20
-14.6932825104793
30
0
41
1
10
32.9000000122862
20
-14.6985926846055
30
0
41
1
10
32.9129348420345
20
-14.7006483426902
30
0
41
1
10
32.9381985349823
20
-14.699699944129
30
0
0
SPLINE
5
130
100
AcDbEntity
8
1
62
256
6
ByLayer
370
18
48
1
60
0
100
AcDbSpline
70
4
71
3
72
16
73
12
40
0
40
0
40
0
40
0
40
0.250000000000004
40
0.250000000000004
40
0.500000000000009
40
0.500000000000009
40
0.625000000000006
40
0.625000000000006
40
0.750000000000004
40
0.750000000000004
40
1
40
1
40
1
40
1
41
1
10
297.395235955638
20
-5.67012959777955
30
0
41
1
10
297.231687951312
20
-6.11852935073949
30
0
41
1
10
297.069021526582
20
-6.57000984817398
30
0
41
1
10
296.74549139776
20
-7.4792705823674
30
0
41
1
10
296.584627098134
20
-7.93704873798984
30
0
41
1
10
296.344777110274
20
-8.62877073736428
30
0
41
1
10
296.265068917703
20
-8.86018973679009
30
0
41
1
10
296.106162434946
20
-9.32480962687038
30
0
41
1
10
296.026905119769
20
-9.55819405846955
30
0
41
1
10
295.792104488619
20
-10.2547623726099
30
0
41
1
10
295.6388207007
20
-10.7164005273532
30
0
41
1
10
295.489094624211
20
-11.1750384368211
30
0
0
SPLINE
5
131
100
AcDbEntity
8
1
62
256
6
ByLayer
370
18
48
1
60
0
100
AcDbSpline
70
4
71
1
72
4
73
2
40
0
40
0
40
1
40
1
41
1
10
29.5575024479074
20
14.7481027900274
30
0
41
1
10
29.4018613233208
20
14.0770136446689
30
0
0
SPLINE
5
132
100
AcDbEntity
8
1
62
256
6
ByLayer
370
18
48
1
60
0
100
AcDbSpline
70
4
71
3
72
12
73
8
40
0
40
0
40
0
40
0
40
0.499999999999931
40
0.499999999999931
40
0.749999999999965
40
0.749999999999965
40
1
40
1
40
1
40
1
41
1
10
265.001780697623
20
13.2331854959133
30
0
41
1
10
265.177847947122
20
13.2569011000265
30
0
41
1
10
265.3469713798
20
13.288166692257
30
0
41
1
10
265.590598027982
20
13.3452304707721
30
0
41
1
10
265.670119799292
20
13.3659544669426
30
0
41
1
10
265.825723549107
20
13.4107050827463
30
0
41
1
10
265.901936262651
20
13.4348010254786
30
0
41
1
10
265.974875601481
20
13.4599656571776
30
0
0
SPLINE
5
133
100
AcDbEntity
8
1
62
256
6
ByLayer
370
18
48
1
60
0
100
AcDbSpline
70
4
71
3
72
32
73
28
40
0
40
0
40
0
40
0
40
0.0625000000000037
40
0.0625000000000037
40
0.125000000000007
40
0.125000000000007
40
0.250000000000012
40
0.250000000000012
40
0.375000000000017
40
0.375000000000017
40
0.406250000000017
40
0.406250000000017
40
0.437500000000017
40
0.437500000000017
40
0.500000000000017
40
0.500000000000017
40
0.625000000000013
40
0.625000000000013
40
0.68750000000001
40
0.68750000000001
40
0.750000000000008
40
0.750000000000008
40
0.875000000000004
40
0.875000000000004
40
0.937500000000002
40
0.937500000000002
40
1
40
1
40
1
40
1
41
1
10
289.513185915073
20
2.8324368459171
30
0
41
1
10
289.49064681556
20
2.69243243422272
30
0
41
1
10
289.465049336082
20
2.55779439338139
30
0
41
1
10
289.407475982316
20
2.29971012971427
30
0
41
1
10
289.375331918103
20
2.17575059611576
30
0
41
1
10
289.270245836937
20
1.82627897757652
30
0
41
1
10
289.188854838093
20
1.62282183190362
30
0
41
1
10
289.003463417162
20
1.27480484004587
30
0
41
1
10
288.89946913246
20
1.13022900604187
30
0
41
1
10
288.754530971205
20
0.988441570071444
30
0
41
1
10
288.724795240122
20
0.962060433416127
30
0
41
1
10
288.664396201529
20
0.913723833523619
30
0
41
1
10
288.633663079854
20
0.89169614991863
30
0
41
1
10
288.539888224093
20
0.831933388047702
30
0
41
1
10
288.475272993168
20
0.800510599946023
30
0
41
1
10
288.27525804935
20
0.730991000132832
30
0
41
1
10
288.13371922231
20
0.717522054772928
30
0
41
1
10
287.909065359686
20
0.746844728436685
30
0
41
1
10
287.832013905286
20
0.765015058690324
30
0
41
1
10
287.676465760893
20
0.817096389337337
30
0
41
1
10
287.597649171035
20
0.851020299588157
30
0
41
1
10
287.358187309434
20
0.975568679652866
30
0
41
1
10
287.194544123354
20
1.08886259081396
30
0
41
1
10
286.943253690186
20
1.30285552440972
30
0
41
1
10
286.85832296363
20
1.38176944072399
30
0
41
1
10
286.688060065156
20
1.55279138219856
30
0
41
1
10
286.602605811837
20
1.64497360226838
30
0
41
1
10
286.516836409996
20
1.74366885760517
30
0
0
SPLINE
5
134
100
AcDbEntity
8
1
62
256
6
ByLayer
370
18
48
1
60
0
100
AcDbSpline
70
4
71
3
72
16
73
12
40
0
40
0
40
0
40
0
40
0.25
40
0.25
40
0.5
40
0.5
40
0.625
40
0.625
40
0.75
40
0.75
40
1
40
1
40
1
40
1
41
1
10
294.28547820282
20
-6.40017697098449
30
0
41
1
10
294.071162839229
20
-5.82770643981604
30
0
41
1
10
293.862906193641
20
-5.25309039808812
30
0
41
1
10
293.453643381154
20
-4.10129077830206
30
0
41
1
10
293.2529571771
20
-3.52399207132757
30
0
41
1
10
292.965738493437
20
-2.6531588804348
30
0
41
1
10
292.871487109507
20
-2.36243712797793
30
0
41
1
10
292.686607677399
20
-1.77991254127858
30
0
41
1
10
292.596723385861
20
-1.48788779501572
30
0
41
1
10
292.33298176774
20
-0.610049835676506
30
0
41
1
10
292.167899057688
20
-0.0216185715109418
30
0
41
1
10
292.013330237865
20
0.569949684643149
30
0
0
SPLINE
5
135
100
AcDbEntity
8
1
62
256
6
ByLayer
370
18
48
1
60
0
100
AcDbSpline
70
4
71
3
72
34
73
30
40
0
40
0
40
0
40
0
40
0.109379422180014
40
0.109379422180014
40
0.164069133270022
40
0.164069133270022
40
0.218758844360029
40
0.218758844360029
40
0.328138266540044
40
0.328138266540044
40
0.382827977630052
40
0.382827977630052
40
0.43751768872006
40
0.43751768872006
40
0.546897110900075
40
0.546897110900075
40
0.601586821990083
40
0.601586821990083
40
0.656276533080091
40
0.656276533080091
40
0.765655955260106
40
0.765655955260106
40
0.820345666350114
40
0.820345666350114
40
0.875035377440122
40
0.875035377440122
40
0.984414799620137
40
0.984414799620137
40
1
40
1
40
1
40
1
41
1
10
29.4018613238224
20
14.0770136445936
30
0
41
1
10
31.8544004865142
20
13.8542417645338
30
0
41
1
10
34.3058407873688
20
13.5576898209599
30
0
41
1
10
37.9876676199699
20
13.0093807354536
30
0
41
1
10
39.2145862560866
20
12.8095241114588
30
0
41
1
10
41.6674566762914
20
12.3812643498743
30
0
41
1
10
42.8935784001214
20
12.1530340488273
30
0
41
1
10
46.5717168170892
20
11.4316374621683
30
0
41
1
10
49.0233455283599
20
10.9005590710431
30
0
41
1
10
52.70633578319
20
10.027436188751
30
0
41
1
10
53.9343876630181
20
9.7238906824744
30
0
41
1
10
56.3885901139224
20
9.094652648432
30
0
41
1
10
57.6152810285846
20
8.76874870671998
30
0
41
1
10
61.2952710117402
20
7.76106821313829
30
0
41
1
10
63.748264956198
20
7.04911692893444
30
0
41
1
10
67.4327350549959
20
5.93007609532282
30
0
41
1
10
68.6617825755781
20
5.54865772417301
30
0
41
1
10
71.117112035085
20
4.7734702584219
30
0
41
1
10
72.344078751653
20
4.37948854220679
30
0
41
1
10
76.0238554862112
20
3.18228488559879
30
0
41
1
10
78.4752944922707
20
2.36328849842314
30
0
41
1
10
82.1572807385862
20
1.12200686739581
30
0
41
1
10
83.3859046614775
20
0.706070680976353
30
0
41
1
10
85.840902471105
20
-0.124823898065841
30
0
41
1
10
87.0678187915182
20
-0.539895935901029
30
0
41
1
10
90.7481662060378
20
-1.7803128447506
30
0
41
1
10
93.2009654499064
20
-2.60162158212623
30
0
41
1
10
96.0064710169423
20
-3.52075040983377
30
0
41
1
10
96.3564766672585
20
-3.63504988073365
30
0
41
1
10
96.7065388248945
20
-3.74897423487931
30
0
0
SPLINE
5
136
100
AcDbEntity
8
1
62
256
6
ByLayer
370
18
48
1
60
0
100
AcDbSpline
70
4
71
3
72
10
73
6
40
0
40
0
40
0
40
0
40
0.198075351734073
40
0.198075351734073
40
1
40
1
40
1
40
1
41
1
10
255.893463083298
20
10.9184285223341
30
0
41
1
10
256.499747438387
20
11.0571484741052
30
0
41
1
10
257.105966722491
20
11.1926704107595
30
0
41
1
10
260.166552709605
20
11.8591320780349
30
0
41
1
10
262.621182180684
20
12.3352739564804
30
0
41
1
10
265.080314284315
20
12.7454314080641
30
0
0
SPLINE
5
137
100
AcDbEntity
8
1
62
256
6
ByLayer
370
13
48
1
60
0
100
AcDbSpline
70
4
71
3
72
16
73
12
40
0
40
0
40
0
40
0
40
0.250000000000003
40
0.250000000000003
40
0.500000000000007
40
0.500000000000007
40
0.75000000000001
40
0.75000000000001
40
0.875000000000005
40
0.875000000000005
40
1
40
1
40
1
40
1
41
1
10
297.087385773046
20
1.5899756103353
30
0
41
1
10
296.789707815017
20
1.79735356951221
30
0
41
1
10
296.501214668053
20
2.02867393076019
30
0
41
1
10
295.955822250549
20
2.54050502976773
30
0
41
1
10
295.69798428006
20
2.82130342186065
30
0
41
1
10
295.220728105704
20
3.44702803838305
30
0
41
1
10
295.005978723108
20
3.78578341841987
30
0
41
1
10
294.731711539924
20
4.34163960842886
30
0
41
1
10
294.649532588879
20
4.53262719430049
30
0
41
1
10
294.50605265372
20
4.92573503263401
30
0
41
1
10
294.444535254919
20
5.12800883752655
30
0
41
1
10
294.394718714637
20
5.33681168247509
30
0
0
SPLINE
5
138
100
AcDbEntity
8
1
62
256
6
ByLayer
370
18
48
1
60
0
100
AcDbSpline
70
4
71
3
72
66
73
62
40
0
40
0
40
0
40
0
40
0.0511168941114277
40
0.0511168941114277
40
0.0766753411671415
40
0.0766753411671415
40
0.102233788222855
40
0.102233788222855
40
0.127792235278569
40
0.127792235278569
40
0.153350682334283
40
0.153350682334283
40
0.204467576445711
40
0.204467576445711
40
0.255584470557139
40
0.255584470557139
40
0.281142917612852
40
0.281142917612852
40
0.306701364668565
40
0.306701364668565
40
0.357818258779993
40
0.357818258779993
40
0.383376705835706
40
0.383376705835706
40
0.40893515289142
40
0.40893515289142
40
0.460052047002847
40
0.460052047002847
40
0.48561049405856
40
0.48561049405856
40
0.511168941114273
40
0.511168941114273
40
0.562285835225699
40
0.562285835225699
40
0.587844282281412
40
0.587844282281412
40
0.613402729337125
40
0.613402729337125
40
0.664519623448551
40
0.664519623448551
40
0.690078070504264
40
0.690078070504264
40
0.715636517559976
40
0.715636517559976
40
0.766753411671402
40
0.766753411671402
40
0.792311858727114
40
0.792311858727114
40
0.817870305782826
40
0.817870305782826
40
0.868987199894251
40
0.868987199894251
40
0.894545646949963
40
0.894545646949963
40
0.920104094005676
40
0.920104094005676
40
0.9712209881171
40
0.9712209881171
40
0.996779435172811
40
0.996779435172811
40
1
40
1
40
1
40
1
41
1
10
265.001780697622
20
-13.2331854959132
30
0
41
1
10
262.545294259398
20
-12.8041647932212
30
0
41
1
10
260.091593228276
20
-12.3082498755931
30
0
41
1
10
256.410595640133
20
-11.4719038371397
30
0
41
1
10
255.18488622721
20
-11.1781384793091
30
0
41
1
10
252.734349489395
20
-10.5638682297972
30
0
41
1
10
251.509779923438
20
-10.2428019804756
30
0
41
1
10
249.058363166452
20
-9.58085081113839
30
0
41
1
10
247.832180804778
20
-9.23865056863073
30
0
41
1
10
245.379167862194
20
-8.53124280273934
30
0
41
1
10
244.152169715512
20
-8.16639013751904
30
0
41
1
10
240.468462537211
20
-7.04108959070101
30
0
41
1
10
238.016288636959
20
-6.25232474928146
30
0
41
1
10
233.113634005842
20
-4.62097881723614
30
0
41
1
10
230.663174582682
20
-3.7768346781701
30
0
41
1
10
226.982671285436
20
-2.48387619524405
30
0
41
1
10
225.755750075236
20
-2.04885574957817
30
0
41
1
10
223.304066886313
20
-1.17636125327672
30
0
41
1
10
222.078717795226
20
-0.738741600155066
30
0
41
1
10
218.40176651775
20
0.571519615894545
30
0
41
1
10
215.949848433626
20
1.44322199443283
30
0
41
1
10
212.267301900746
20
2.7375129358411
30
0
41
1
10
211.039088087043
20
3.1665675929078
30
0
41
1
10
208.585608487494
20
4.01524642948121
30
0
41
1
10
207.359634121789
20
4.43507898792083
30
0
41
1
10
203.682383242047
20
5.6766513923273
30
0
41
1
10
201.232289564708
20
6.48181061408553
30
0
41
1
10
197.553175055389
20
7.63932929726894
30
0
41
1
10
196.325748633351
20
8.01674977528964
30
0
41
1
10
193.873503318423
20
8.74915351488886
30
0
41
1
10
192.648014276606
20
9.10430756315608
30
0
41
1
10
188.971030370197
20
10.1315764907872
30
0
41
1
10
186.519583149385
20
10.7669207237177
30
0
41
1
10
182.838436887268
20
11.638196688173
30
0
41
1
10
181.610074740472
20
11.9150133386567
30
0
41
1
10
179.155962303825
20
12.4381011973543
30
0
41
1
10
177.9297854618
20
12.6844633965024
30
0
41
1
10
174.252239008832
20
13.3754349318348
30
0
41
1
10
171.802356057535
20
13.7726357989209
30
0
41
1
10
168.124240795318
20
14.2642254566336
30
0
41
1
10
166.896893142055
20
14.4107259245629
30
0
41
1
10
164.443734210255
20
14.6668565472877
30
0
41
1
10
163.217908814742
20
14.7764992185212
30
0
41
1
10
159.540276121183
20
15.0492237265541
30
0
41
1
10
157.08884820279
20
15.1566925172017
30
0
41
1
10
153.40850984676
20
15.2056753397589
30
0
41
1
10
152.180548106345
20
15.2032366762402
30
0
41
1
10
149.725482816961
20
15.1606529090896
30
0
41
1
10
148.498966540914
20
15.1205376545248
30
0
41
1
10
144.820820891534
20
14.9442257879882
30
0
41
1
10
142.371088394923
20
14.7518299124774
30
0
41
1
10
138.694038069113
20
14.3531295590396
30
0
41
1
10
137.467553411976
20
14.2018696326775
30
0
41
1
10
135.013612537604
20
13.8642436157851
30
0
41
1
10
133.787536766094
20
13.6780894128294
30
0
41
1
10
130.109541781171
20
13.0712391701628
30
0
41
1
10
127.658361781922
20
12.601727106679
30
0
41
1
10
123.979082270694
20
11.806344402889
30
0
41
1
10
122.752199957443
20
11.5260575316908
30
0
41
1
10
121.369628552874
20
11.1943220665271
30
0
41
1
10
121.214923890973
20
11.1569785199094
30
0
41
1
10
121.060233153606
20
11.1194173078437
30
0
0
SPLINE
5
139
100
AcDbEntity
8
1
62
256
6
ByLayer
370
18
48
1
60
0
100
AcDbSpline
70
4
71
3
72
18
73
14
40
0
40
0
40
0
40
0
40
0.249999999999998
40
0.249999999999998
40
0.374999999999997
40
0.374999999999997
40
0.499999999999996
40
0.499999999999996
40
0.624999999999996
40
0.624999999999996
40
0.749999999999995
40
0.749999999999995
40
1
40
1
40
1
40
1
41
1
10
297.494964733463
20
5.37267006784998
30
0
41
1
10
297.621637329306
20
4.99484561496709
30
0
41
1
10
297.742766421513
20
4.6238683875907
30
0
41
1
10
297.915952233937
20
4.0779112491
30
0
41
1
10
297.972006135395
20
3.89844271547054
30
0
41
1
10
298.079322440081
20
3.54920972088195
30
0
41
1
10
298.130812935202
20
3.37873238165685
30
0
41
1
10
298.229417663923
20
3.04613420811069
30
0
41
1
10
298.276536743707
20
2.88400411995994
30
0
41
1
10
298.36625446575
20
2.56837575374482
30
0
41
1
10
298.409055036853
20
2.41412421962636
30
0
41
1
10
298.528284261003
20
1.97241057023052
30
0
41
1
10
298.595953137879
20
1.70488186821043
30
0
41
1
10
298.651265532637
20
1.46552979628089
30
0
0
SPLINE
5
13A
100
AcDbEntity
8
1
62
256
6
ByLayer
370
18
48
1
60
0
100
AcDbSpline
70
4
71
3
72
18
73
14
40
0
40
0
40
0
40
0
40
0.25
40
0.25
40
0.375
40
0.375
40
0.5
40
0.5
40
0.625000000000001
40
0.625000000000001
40
0.750000000000001
40
0.750000000000001
40
1
40
1
40
1
40
1
41
1
10
27.7742428271293
20
14.70404164513
30
0
41
1
10
27.8964210810856
20
14.6237921173496
30
0
41
1
10
28.0224169539588
20
14.5472226856856
30
0
41
1
10
28.2189444435508
20
14.4400491293009
30
0
41
1
10
28.2856754157748
20
14.4056644762351
30
0
41
1
10
28.4199239324017
20
14.3410139562203
30
0
41
1
10
28.4876810685598
20
14.3106124553222
30
0
41
1
10
28.6246618912782
20
14.2542043686456
30
0
41
1
10
28.6938851027258
20
14.228196368607
30
0
41
1
10
28.8340518410474
20
14.1812766900333
30
0
41
1
10
28.9053824861292
20
14.1602782118902
30
0
41
1
10
29.1189275131897
20
14.1070952149396
30
0
41
1
10
29.2606782742522
20
14.084545820147
30
0
41
1
10
29.4018613243375
20
14.0770136446147
30
0
0
SPLINE
5
13B
100
AcDbEntity
8
1
62
256
6
ByLayer
370
18
48
1
60
0
100
AcDbSpline
70
4
71
2
72
9
73
6
40
0
40
0
40
0
40
0.244329928990468
40
0.496219952660312
40
0.748109976330156
40
1
40
1
40
1
41
1
10
288.243936094255
20
-5.17004911833743
30
0
41
1
10
288.394146965536
20
-6.30070679967622
30
0
41
1
10
288.827939455593
20
-8.43499417487092
30
0
41
1
10
289.391226378982
20
-10.3744551358048
30
0
41
1
10
290.062446947723
20
-12.0352339112025
30
0
41
1
10
290.443190548502
20
-12.7040634400317
30
0
0
SPLINE
5
13C
100
AcDbEntity
8
1
62
256
6
ByLayer
370
13
48
1
60
0
100
AcDbSpline
70
4
71
3
72
24
73
20
40
0
40
0
40
0
40
0
40
0.125000000000005
40
0.125000000000005
40
0.25000000000001
40
0.25000000000001
40
0.375000000000016
40
0.375000000000016
40
0.500000000000021
40
0.500000000000021
40
0.750000000000032
40
0.750000000000032
40
0.875000000000037
40
0.875000000000037
40
0.937500000000029
40
0.937500000000029
40
0.968750000000015
40
0.968750000000015
40
1
40
1
40
1
40
1
41
1
10
294.367488853488
20
5.32672233517863
30
0
41
1
10
294.416815608054
20
5.11695463669386
30
0
41
1
10
294.477631309031
20
4.91358971722045
30
0
41
1
10
294.619658505335
20
4.51821077325167
30
0
41
1
10
294.700971790337
20
4.32597847755306
30
0
41
1
10
294.88201536473
20
3.95292220500323
30
0
41
1
10
294.98047427576
20
3.77447547339506
30
0
41
1
10
295.191226152001
20
3.43165838753453
30
0
41
1
10
295.303681853287
20
3.26709768069571
30
0
41
1
10
295.658778208609
20
2.79372180333391
30
0
41
1
10
295.914750987003
20
2.51021074963896
30
0
41
1
10
296.321232571128
20
2.12249441979733
30
0
41
1
10
296.460497573854
20
1.99954930373505
30
0
41
1
10
296.674665053077
20
1.82392225372035
30
0
41
1
10
296.746806635383
20
1.7669508910455
30
0
41
1
10
296.855966435605
20
1.68384087421438
30
0
41
1
10
296.892517955292
20
1.65652304054771
30
0
41
1
10
296.965942905084
20
1.60263963205276
30
0
41
1
10
297.003071908722
20
1.57589329654948
30
0
41
1
10
297.039846553976
20
1.54987573155824
30
0
0
SPLINE
5
13D
100
AcDbEntity
8
1
62
256
6
ByLayer
370
18
48
1
60
0
100
AcDbSpline
70
4
71
3
72
10
73
6
40
0
40
0
40
0
40
0
40
0.5
40
0.5
40
1
40
1
40
1
40
1
41
1
10
279.5
20
4.51974851005468
30
0
41
1
10
280.287616604171
20
4.37531164969175
30
0
41
1
10
281.065528511527
20
4.21014805090783
30
0
41
1
10
282.604974330813
20
3.84105276633892
30
0
41
1
10
283.366540946644
20
3.63722595483
30
0
41
1
10
284.121555237361
20
3.41691136427735
30
0
0
SPLINE
5
13E
100
AcDbEntity
8
1
62
256
6
ByLayer
370
18
48
1
60
0
100
AcDbSpline
70
4
71
3
72
92
73
88
40
0
40
0
40
0
40
0
40
0.0117647058823528
40
0.0235294117647059
40
0.0352941176470586
40
0.047058823529412
40
0.0588235294117647
40
0.0705882352941178
40
0.0823529411764705
40
0.0941176470588235
40
0.105882352941176
40
0.117647058823529
40
0.129411764705882
40
0.141176470588235
40
0.152941176470588
40
0.164705882352941
40
0.176470588235294
40
0.188235294117647
40
0.2
40
0.211764705882353
40
0.223529411764706
40
0.235294117647059
40
0.247058823529412
40
0.258823529411765
40
0.270588235294117
40
0.28235294117647
40
0.294117647058823
40
0.305882352941176
40
0.317647058823529
40
0.329411764705882
40
0.341176470588235
40
0.352941176470588
40
0.364705882352941
40
0.376470588235294
40
0.388235294117647
40
0.4
40
0.411764705882352
40
0.423529411764706
40
0.435294117647059
40
0.447058823529412
40
0.458823529411765
40
0.470588235294117
40
0.48235294117647
40
0.494117647058823
40
0.505882352941176
40
0.517647058823529
40
0.529411764705882
40
0.541176470588235
40
0.552941176470588
40
0.564705882352941
40
0.576470588235294
40
0.588235294117647
40
0.6
40
0.611764705882353
40
0.623529411764706
40
0.635294117647059
40
0.647058823529412
40
0.658823529411765
40
0.670588235294118
40
0.68235294117647
40
0.694117647058823
40
0.705882352941177
40
0.717647058823529
40
0.729411764705882
40
0.741176470588235
40
0.752941176470588
40
0.764705882352941
40
0.776470588235294
40
0.788235294117647
40
0.8
40
0.811764705882353
40
0.823529411764706
40
0.835294117647059
40
0.847058823529412
40
0.858823529411765
40
0.870588235294118
40
0.882352941176471
40
0.894117647058823
40
0.905882352941176
40
0.917647058823529
40
0.929411764705882
40
0.941176470588235
40
0.952941176470588
40
0.964705882352941
40
0.976470588235294
40
0.988235294117647
40
1
40
1
40
1
40
1
41
1
10
26.1000000000009
20
2.48757529280346
30
0
41
1
10
26.1175138513131
20
2.52070137015923
30
0
41
1
10
26.1525415539374
20
2.58695352487078
30
0
41
1
10
26.2050707209733
20
2.68848725449041
30
0
41
1
10
26.2575751171283
20
2.79156870307233
30
0
41
1
10
26.310042364262
20
2.89633000859249
30
0
41
1
10
26.3624600929919
20
3.00270455517733
30
0
41
1
10
26.4148159456099
20
3.11067849644121
30
0
41
1
10
26.4670975789951
20
3.22022336748378
30
0
41
1
10
26.5192926675244
20
3.33131414903627
30
0
41
1
10
26.571388905978
20
3.44392443488471
30
0
41
1
10
26.6233740124404
20
3.55802773456065
30
0
41
1
10
26.6752357311959
20
3.67359713219974
30
0
41
1
10
26.726961835618
20
3.79060538596912
30
0
41
1
10
26.778540131052
20
3.90902490954861
30
0
41
1
10
26.8299584576896
20
4.0288277853173
30
0
41
1
10
26.8812046934361
20
4.14998576914459
30
0
41
1
10
26.9322667567676
20
4.27247029752863
30
0
41
1
10
26.9831326095802
20
4.39625249420166
30
0
41
1
10
27.0337902600269
20
4.52130317697231
30
0
41
1
10
27.0842277653458
20
4.64759286459613
30
0
41
1
10
27.1344332346748
20
4.77509178372839
30
0
41
1
10
27.1843948318555
20
4.90376987594254
30
0
41
1
10
27.2341007782234
20
5.03359680481697
30
0
41
1
10
27.2835393553849
20
5.16454196308675
30
0
41
1
10
27.3326989079794
20
5.29657447985949
30
0
41
1
10
27.3815678464282
20
5.42966322789334
30
0
41
1
10
27.4301346496659
20
5.5637768309353
30
0
41
1
10
27.4783878678564
20
5.69888367111824
30
0
41
1
10
27.5263161250933
20
5.83495189641519
30
0
41
1
10
27.5739081220806
20
5.97194942814832
30
0
41
1
10
27.6211526387975
20
6.10984396855187
30
0
41
1
10
27.6680385371432
20
6.24860300838625
30
0
41
1
10
27.7145547635623
20
6.38819383460245
30
0
41
1
10
27.7606903516517
20
6.52858353805414
30
0
41
1
10
27.8064344247451
20
6.66973902125619
30
0
41
1
10
27.8517761984777
20
6.81162700618765
30
0
41
1
10
27.8967049833286
20
6.95421404213693
30
0
41
1
10
27.9412101871407
20
7.09746651358827
30
0
41
1
10
27.985281317618
20
7.24135064814647
30
0
41
1
10
28.0289079847991
20
7.38583252449905
30
0
41
1
10
28.0720799035071
20
7.53087808041332
30
0
41
1
10
28.1147868957737
20
7.67645312076661
30
0
41
1
10
28.1570188932391
20
7.82252332560802
30
0
41
1
10
28.1987659395257
20
7.96905425824946
30
0
41
1
10
28.2400181925852
20
8.11601137338425
30
0
41
1
10
28.280765927019
20
8.26336002523135
30
0
41
1
10
28.3209995363707
20
8.41106547570314
30
0
41
1
10
28.3607095353916
20
8.5590929025953
30
0
41
1
10
28.3998865622761
20
8.70740740779607
30
0
41
1
10
28.4385213808692
20
8.85597402551375
30
0
41
1
10
28.4766048828437
20
9.00475773052003
30
0
41
1
10
28.5141280898481
20
9.15372344640733
30
0
41
1
10
28.5510821556224
20
9.30283605385813
30
0
41
1
10
28.5874583680847
20
9.45206039892474
30
0
41
1
10
28.6232481513837
20
9.60136130131667
30
0
41
1
10
28.6584430679224
20
9.75070356269484
30
0
41
1
10
28.6930348203451
20
9.9000519749695
30
0
41
1
10
28.7270152534958
20
10.0493713286009
30
0
41
1
10
28.7603763563387
20
10.1986264208999
30
0
41
1
10
28.7931102638484
20
10.3477820643273
30
0
41
1
10
28.8252092588634
20
10.4968030947895
30
0
41
1
10
28.8566657739057
20
10.6456543799282
30
0
41
1
10
28.8874723929644
20
10.7943008274036
30
0
41
1
10
28.9176218532447
20
10.9427073931672
30
0
41
1
10
28.94710704688
20
11.0908390897236
30
0
41
1
10
28.975921022607
20
11.238660994379
30
0
41
1
10
29.0040569874053
20
11.3861382574745
30
0
41
1
10
29.0315083080986
20
11.5332361106018
30
0
41
1
10
29.0582685129181
20
11.6799198748003
30
0
41
1
10
29.0843312930286
20
11.8261549687324
30
0
41
1
10
29.1096905040168
20
11.9719069168377
30
0
41
1
10
29.1343401673353
20
12.1171413574549
30
0
41
1
10
29.1582744717283
20
12.2618240509439
30
0
41
1
10
29.1814877745427
20
12.405920887681
30
0
41
1
10
29.2039746032765
20
12.5493978963844
30
0
41
1
10
29.225729656057
20
12.6922212510663
30
0
41
1
10
29.2467478059186
20
12.83435728295
30
0
41
1
10
29.2670240907135
20
12.9757724736936
30
0
41
1
10
29.2865537564455
20
13.1164335182053
30
0
41
1
10
29.3053321010321
20
13.2563071275569
30
0
41
1
10
29.3233550626844
20
13.3953608016716
30
0
41
1
10
29.3406170291381
20
13.5335599825643
30
0
41
1
10
29.3571190186116
20
13.6708787153373
30
0
41
1
10
29.3728381527522
20
13.8072598973266
30
0
41
1
10
29.38784158965
20
13.9427636666057
30
0
41
1
10
29.3971880794414
20
14.032263651945
30
0
41
1
10
29.4018613243372
20
14.0770136446147
30
0
0
SPLINE
5
13F
100
AcDbEntity
8
1
62
256
6
ByLayer
370
18
48
1
60
0
100
AcDbSpline
70
4
71
3
72
12
73
8
40
0
40
0
40
0
40
0
40
0.414295831063617
40
0.414295831063617
40
0.707147874958021
40
0.707147874958021
40
1
40
1
40
1
40
1
41
1
10
279.499999999591
20
14.9189392341928
30
0
41
1
10
279.486784434538
20
14.9328792692818
30
0
41
1
10
279.473565817407
20
14.9468180920404
30
0
41
1
10
279.450998230833
20
14.9706077714826
30
0
41
1
10
279.441650774671
20
14.9804592261659
30
0
41
1
10
279.422952852408
20
15.0001609602677
30
0
41
1
10
279.413602385659
20
15.0100112403682
30
0
41
1
10
279.404250423664
20
15.0198609386497
30
0
0
SPLINE
5
140
100
AcDbEntity
8
1
62
256
6
ByLayer
370
18
48
1
60
0
100
AcDbSpline
70
4
71
3
72
77
73
73
40
0
40
0
40
0
40
0
40
0.0624999999999989
40
0.0624999999999989
40
0.124999999999998
40
0.124999999999998
40
0.187499999999997
40
0.187499999999997
40
0.218749999999996
40
0.218749999999996
40
0.249999999999996
40
0.249999999999996
40
0.281249999999995
40
0.281249999999995
40
0.312499999999995
40
0.312499999999995
40
0.343749999999994
40
0.343749999999994
40
0.359374999999994
40
0.359374999999994
40
0.374999999999993
40
0.374999999999993
40
0.390624999999992
40
0.390624999999992
40
0.398437499999992
40
0.398437499999992
40
0.406249999999992
40
0.406249999999992
40
0.437499999999993
40
0.437499999999993
40
0.445312499999993
40
0.445312499999993
40
0.453124999999994
40
0.453124999999994
40
0.468749999999994
40
0.484374999999995
40
0.484374999999995
40
0.492187499999995
40
0.492187499999995
40
0.499999999999996
40
0.499999999999996
40
0.531249999999996
40
0.531249999999996
40
0.546874999999997
40
0.546874999999997
40
0.562499999999997
40
0.562499999999997
40
0.578124999999998
40
0.578124999999998
40
0.593749999999998
40
0.593749999999998
40
0.624999999999999
40
0.624999999999999
40
0.65625
40
0.65625
40
0.671875
40
0.671875
40
0.6875
40
0.6875
40
0.75
40
0.75
40
0.78125
40
0.78125
40
0.796875
40
0.796875
40
0.8125
40
0.8125
40
0.875
40
0.875
40
0.9375
40
0.9375
40
1
40
1
40
1
40
1
41
1
10
23.4143488015985
20
15.0226699879226
30
0
41
1
10
22.6439573531329
20
15.2461578121299
30
0
41
1
10
21.8859992107254
20
15.4841904688145
30
0
41
1
10
20.3833787338581
20
15.9671600639985
30
0
41
1
10
19.6387664124253
20
16.2121691788328
30
0
41
1
10
18.1539535691631
20
16.6848423568435
30
0
41
1
10
17.4154411689285
20
16.9120462607531
30
0
41
1
10
16.3102109349894
20
17.2169016971969
30
0
41
1
10
15.9421961442184
20
17.3125003281565
30
0
41
1
10
15.2065653074649
20
17.4871945854527
30
0
41
1
10
14.8387430967378
20
17.5663413985232
30
0
41
1
10
14.1042193892169
20
17.7026331240628
30
0
41
1
10
13.739831084607
20
17.7593434061236
30
0
41
1
10
13.0184793413484
20
17.8442546321246
30
0
41
1
10
12.6615016799328
20
17.8724800773899
30
0
41
1
10
11.9576165591195
20
17.8936146633174
30
0
41
1
10
11.6106780680858
20
17.8865820712299
30
0
41
1
10
11.1010145639232
20
17.8426947190292
30
0
41
1
10
10.934100501429
20
17.8225527997222
30
0
41
1
10
10.6090130539712
20
17.7706945251611
30
0
41
1
10
10.4505296347261
20
17.7389552082424
30
0
41
1
10
10.1426936685028
20
17.6630162382348
30
0
41
1
10
9.99333797242743
20
17.6188202870011
30
0
41
1
10
9.77709132555376
20
17.5423920252189
30
0
41
1
10
9.70630912663135
20
17.5152248535398
30
0
41
1
10
9.56753449543547
20
17.4573445162369
30
0
41
1
10
9.49956537362742
20
17.42662383142
30
0
41
1
10
9.17071393176394
20
17.2655699600204
30
0
41
1
10
8.93961758631862
20
17.111869396004
30
0
41
1
10
8.69634928068541
20
16.8869451301502
30
0
41
1
10
8.64998985033509
20
16.840308650947
30
0
41
1
10
8.56206720250462
20
16.7436337874752
30
0
41
1
10
8.52047875229799
20
16.6935226861068
30
0
41
1
10
8.40480439206952
20
16.5401564959969
30
0
41
1
10
8.27350294480672
20
16.3263065586822
30
0
41
1
10
8.18742561228363
20
16.0944025330921
30
0
41
1
10
8.13994360829044
20
15.9137025435243
30
0
41
1
10
8.12696599943776
20
15.8523379187228
30
0
41
1
10
8.10677632729676
20
15.7273128936588
30
0
41
1
10
8.09956813823321
20
15.6634817244457
30
0
41
1
10
8.07831351226449
20
15.3426274624497
30
0
41
1
10
8.10760147749041
20
15.0781108807628
30
0
41
1
10
8.21311622102657
20
14.669312942811
30
0
41
1
10
8.25892455718719
20
14.5303940121504
30
0
41
1
10
8.36836589991617
20
14.2532379523545
30
0
41
1
10
8.43201945102408
20
14.1145876066493
30
0
41
1
10
8.57545036980683
20
13.8367209132954
30
0
41
1
10
8.65523327674745
20
13.6975046152572
30
0
41
1
10
8.82960293979876
20
13.4180775481687
30
0
41
1
10
8.92459292588174
20
13.27735233065
30
0
41
1
10
9.22568803425611
20
12.8590501126976
30
0
41
1
10
9.44838153739552
20
12.5839897160944
30
0
41
1
10
9.92746271069345
20
12.036667734347
30
0
41
1
10
10.1839231248515
20
11.7644277978677
30
0
41
1
10
10.5887204596845
20
11.3555617552739
30
0
41
1
10
10.7272396086406
20
11.2190000900564
30
0
41
1
10
11.0072907571883
20
10.9482353108972
30
0
41
1
10
11.1491631003475
20
10.8136796049037
30
0
41
1
10
11.8662132420854
20
10.1438305400046
30
0
41
1
10
12.4637449659769
20
9.61671351468945
30
0
41
1
10
13.3767744576296
20
8.82505154183841
30
0
41
1
10
13.6840465524934
20
8.5611209007788
30
0
41
1
10
14.147897891236
20
8.16420749326778
30
0
41
1
10
14.3030866708301
20
8.03167292422691
30
0
41
1
10
14.6128980064326
20
7.76732356578111
30
0
41
1
10
14.7676912500919
20
7.63536280803959
30
0
41
1
10
15.5408846059385
20
6.97623975310691
30
0
41
1
10
16.1568307158029
20
6.4509140652959
30
0
41
1
10
17.3807553498831
20
5.39819616951922
30
0
41
1
10
17.9888027955253
20
4.87089766381072
30
0
41
1
10
19.1964411367792
20
3.8118445249587
30
0
41
1
10
19.7960674085398
20
3.28013749105017
30
0
41
1
10
20.3914948835642
20
2.74565728415052
30
0
0
SPLINE
5
141
100
AcDbEntity
8
1
62
256
6
ByLayer
370
18
48
1
60
0
100
AcDbSpline
70
4
71
3
72
28
73
24
40
0
40
0
40
0
40
0
40
0.125
40
0.125
40
0.1875
40
0.1875
40
0.25
40
0.25
40
0.375
40
0.375
40
0.5
40
0.5
40
0.624999999999999
40
0.624999999999999
40
0.687499999999999
40
0.687499999999999
40
0.749999999999999
40
0.749999999999999
40
0.812499999999999
40
0.812499999999999
40
0.874999999999998
40
0.874999999999998
40
1
40
1
40
1
40
1
41
1
10
23.4143488015985
20
-0.393646810358717
30
0
41
1
10
23.2636169064572
20
-0.385314271782477
30
0
41
1
10
23.1159899222818
20
-0.363629074920425
30
0
41
1
10
22.8992254045109
20
-0.310140249353481
30
0
41
1
10
22.8277528644504
20
-0.288798643436962
30
0
41
1
10
22.6864157823762
20
-0.238679392959341
30
0
41
1
10
22.6162493229081
20
-0.209725525925279
30
0
41
1
10
22.4125425315618
20
-0.112999390439057
30
0
41
1
10
22.284599242938
20
-0.0351638191440884
30
0
41
1
10
22.0442529466606
20
0.147823780556507
30
0
41
1
10
21.9309732021852
20
0.254365512197808
30
0
41
1
10
21.7295176428463
20
0.486182194878552
30
0
41
1
10
21.6401494574455
20
0.611997773819496
30
0
41
1
10
21.5218630368683
20
0.814809372793263
30
0
41
1
10
21.4850625716899
20
0.884880001518866
30
0
41
1
10
21.4178354770041
20
1.02684017167198
30
0
41
1
10
21.3872017290733
20
1.09905802744407
30
0
41
1
10
21.3313898448303
20
1.2457733816976
30
0
41
1
10
21.3062128527213
20
1.32027133214865
30
0
41
1
10
21.2609223741657
20
1.47139551208932
30
0
41
1
10
21.2407478595884
20
1.5483105534752
30
0
41
1
10
21.1878498137431
20
1.77978328213217
30
0
41
1
10
21.1627173010085
20
1.93449129785
30
0
41
1
10
21.1456738510662
20
2.08946049726333
30
0
0
SPLINE
5
142
100
AcDbEntity
8
1
62
256
6
ByLayer
370
18
48
1
60
0
100
AcDbSpline
70
4
71
3
72
44
73
40
40
0
40
0
40
0
40
0
40
0.015748007985314
40
0.015748007985314
40
0.0536038538320322
40
0.0536038538320322
40
0.0914596996787501
40
0.0914596996787501
40
0.167171391372187
40
0.167171391372187
40
0.205027237218905
40
0.205027237218905
40
0.242883083065623
40
0.242883083065623
40
0.318594774759059
40
0.318594774759059
40
0.356450620605778
40
0.356450620605778
40
0.394306466452497
40
0.394306466452497
40
0.470018158145934
40
0.470018158145934
40
0.507874003992653
40
0.507874003992653
40
0.545729849839372
40
0.545729849839372
40
0.62144154153281
40
0.62144154153281
40
0.659297387379529
40
0.659297387379529
40
0.697153233226248
40
0.697153233226248
40
0.772864924919686
40
0.772864924919686
40
0.848576616613124
40
0.848576616613124
40
0.924288308306562
40
0.924288308306562
40
1
40
1
40
1
40
1
41
1
10
120.706510669481
20
-11.0381092596439
30
0
41
1
10
120.196532154223
20
-11.1459912562768
30
0
41
1
10
119.686531055291
20
-11.2515303504526
30
0
41
1
10
117.950351710207
20
-11.6024713590276
30
0
41
1
10
116.72386832984
20
-11.8362140032079
30
0
41
1
10
114.269103819831
20
-12.2734535665977
30
0
41
1
10
113.040778233561
20
-12.4769350442558
30
0
41
1
10
109.359292022811
20
-13.0379925873833
30
0
41
1
10
106.907084073401
20
-13.3461397391365
30
0
41
1
10
103.227295702522
20
-13.7061785502985
30
0
41
1
10
102.000446686514
20
-13.8091660078977
30
0
41
1
10
99.5455091442246
20
-13.981210596814
30
0
41
1
10
98.3169915558367
20
-14.0502721539303
30
0
41
1
10
94.6354401227382
20
-14.2066271093586
30
0
41
1
10
92.1845314188276
20
-14.24297092611
30
0
41
1
10
88.5067238113104
20
-14.1915223297208
30
0
41
1
10
87.2805399154303
20
-14.1567170898132
30
0
41
1
10
84.8266084875848
20
-14.0517776072927
30
0
41
1
10
83.5982218237762
20
-13.9815924662827
30
0
41
1
10
79.9154048758491
20
-13.7184688068116
30
0
41
1
10
77.4628104713434
20
-13.4724895838746
30
0
41
1
10
73.7832191103759
20
-13.0040078229405
30
0
41
1
10
72.5565652189996
20
-12.8312808183833
30
0
41
1
10
70.102276829062
20
-12.4543437847344
30
0
41
1
10
68.8741008287193
20
-12.2500369084803
30
0
41
1
10
65.1911674192275
20
-11.5930382527182
30
0
41
1
10
62.7398569191181
20
-11.0963244372186
30
0
41
1
10
59.0622846418021
20
-10.2728799926805
30
0
41
1
10
57.8363188280463
20
-9.98535368744103
30
0
41
1
10
55.3831085709259
20
-9.38626667277634
30
0
41
1
10
54.1555855441622
20
-9.07463555312768
30
0
41
1
10
50.4713720911094
20
-8.10707704981508
30
0
41
1
10
48.0182937959298
20
-7.41954313180568
30
0
41
1
10
43.1117361964078
20
-5.97838316898068
30
0
41
1
10
40.6580139867735
20
-5.22492378400187
30
0
41
1
10
35.7450372410752
20
-3.67276231887641
30
0
41
1
10
33.2922284159303
20
-2.87580867067001
30
0
41
1
10
28.3865333578656
20
-1.26100670926539
30
0
41
1
10
25.9335812315747
20
-0.443250819650842
30
0
41
1
10
23.4765264441023
20
0.373429821530095
30
0
0
SPLINE
5
143
100
AcDbEntity
8
1
62
256
6
ByLayer
370
18
48
1
60
0
100
AcDbSpline
70
4
71
3
72
23
73
19
40
0
40
0
40
0
40
0
40
0.0236126995504726
40
0.0471539249825841
40
0.0706619699522616
40
0.0941752902285336
40
0.11773231574538
40
0.141371263282399
40
0.211839443772737
40
0.281804283216342
40
0.352405766269516
40
0.422316557712826
40
0.562421968632382
40
0.702251697610054
40
0.841609176540786
40
0.911153996299783
40
0.981090769606374
40
1
40
1
40
1
40
1
41
1
10
279.400000090224
20
-14.582566253067
30
0
41
1
10
279.400190787329
20
-14.5779352157129
30
0
41
1
10
279.400571604312
20
-14.5686871588561
30
0
41
1
10
279.403635484596
20
-14.5546593012216
30
0
41
1
10
279.408526650418
20
-14.5405580913959
30
0
41
1
10
279.415422636596
20
-14.5263723294653
30
0
41
1
10
279.424274941115
20
-14.5121071721393
30
0
41
1
10
279.442225798587
20
-14.4883272668012
30
0
41
1
10
279.475938225107
20
-14.4551132733354
30
0
41
1
10
279.536022353434
20
-14.413190072565
30
0
41
1
10
279.611542281572
20
-14.3729041565821
30
0
41
1
10
279.732027933741
20
-14.3224915170755
30
0
41
1
10
279.917248010619
20
-14.2677621415785
30
0
41
1
10
280.182097415661
20
-14.2230103263543
30
0
41
1
10
280.423817847896
20
-14.2083055086283
30
0
41
1
10
280.617333633307
20
-14.2113290670123
30
0
41
1
10
280.725716581851
20
-14.2184468711382
30
0
41
1
10
280.784866931348
20
-14.2244657708648
30
0
41
1
10
280.797455990393
20
-14.2257467824681
30
0
0
SPLINE
5
144
100
AcDbEntity
8
1
62
256
6
ByLayer
370
18
48
1
60
0
100
AcDbSpline
70
4
71
3
72
8
73
4
40
0
40
0
40
0
40
0
40
1
40
1
40
1
40
1
41
1
10
23.4765264441034
20
0.373429821529669
30
0
41
1
10
23.575912302005
20
0.123844762925756
30
0
41
1
10
23.6737099443419
20
-0.131017255078859
30
0
41
1
10
23.7694577716984
20
-0.390877895661077
30
0
0
SPLINE
5
145
100
AcDbEntity
8
1
62
256
6
ByLayer
370
18
48
1
60
0
100
AcDbSpline
70
4
71
3
72
8
73
4
40
0
40
0
40
0
40
0
40
1
40
1
40
1
40
1
41
1
10
26
20
14.6372848102702
30
0
41
1
10
26.1975510895394
20
14.6475052534076
30
0
41
1
10
26.3945045308272
20
14.6568504393395
30
0
41
1
10
26.5908569298532
20
14.6652818114505
30
0
0
SPLINE
5
146
100
AcDbEntity
8
1
62
256
6
ByLayer
370
18
48
1
60
0
100
AcDbSpline
70
4
71
3
72
8
73
4
40
0
40
0
40
0
40
0
40
1
40
1
40
1
40
1
41
1
10
33.7507489997589
20
-14.6979973803936
30
0
41
1
10
33.7788882949234
20
-14.8243886214707
30
0
41
1
10
33.8086924860404
20
-14.9501691514664
30
0
41
1
10
33.8405739368643
20
-15.075191249567
30
0
0
SPLINE
5
147
100
AcDbEntity
8
1
62
256
6
ByLayer
370
18
48
1
60
0
100
AcDbSpline
70
4
71
3
72
10
73
6
40
0
40
0
40
0
40
0
40
0.650652670152923
40
0.650652670152923
40
1
40
1
40
1
40
1
41
1
10
265.24928870973
20
12.7735097962216
30
0
41
1
10
265.16208526617
20
11.8390178701665
30
0
41
1
10
265.028249460655
20
10.9412221504761
30
0
41
1
10
264.759440058897
20
9.67517396642481
30
0
41
1
10
264.653705603981
20
9.25428315200526
30
0
41
1
10
264.537534648587
20
8.85961743558642
30
0
0
SPLINE
5
148
100
AcDbEntity
8
1
62
256
6
ByLayer
370
18
48
1
60
0
100
AcDbSpline
70
4
71
3
72
24
73
20
40
0
40
0
40
0
40
0
40
0.249999999999992
40
0.249999999999992
40
0.312499999999993
40
0.312499999999993
40
0.374999999999994
40
0.374999999999994
40
0.499999999999996
40
0.499999999999996
40
0.562499999999997
40
0.562499999999997
40
0.624999999999998
40
0.624999999999998
40
0.749999999999998
40
0.749999999999998
40
0.874999999999999
40
0.874999999999999
40
1
40
1
40
1
40
1
41
1
10
23.187145891239
20
0.46960261722657
30
0
41
1
10
22.9196315096819
20
0.559151232840861
30
0
41
1
10
22.6696324568743
20
0.665261824352257
30
0
41
1
10
22.3788784304392
20
0.818439594024682
30
0
41
1
10
22.3220746767725
20
0.850012290125193
30
0
41
1
10
22.2126202397902
20
0.914131968816889
30
0
41
1
10
22.1597317381108
20
0.946802477725072
30
0
41
1
10
22.0063829261377
20
1.04662232668611
30
0
41
1
10
21.9112161047861
20
1.11556997207981
30
0
41
1
10
21.778726753454
20
1.22269501066876
30
0
41
1
10
21.7362289295153
20
1.2590858218837
30
0
41
1
10
21.6558021529295
20
1.33206975159072
30
0
41
1
10
21.6177084156912
20
1.3687886018966
30
0
41
1
10
21.5094866389535
20
1.47966016638264
30
0
41
1
10
21.4453908651217
20
1.5545255451546
30
0
41
1
10
21.3324638132069
20
1.70640210757873
30
0
41
1
10
21.2836648847084
20
1.78356314575737
30
0
41
1
10
21.2028519356334
20
1.93667079885637
30
0
41
1
10
21.1704614850194
20
2.01307298564709
30
0
41
1
10
21.1456738510662
20
2.08946049726333
30
0
0
SPLINE
5
149
100
AcDbEntity
8
1
62
256
6
ByLayer
370
18
48
1
60
0
100
AcDbSpline
70
4
71
3
72
8
73
4
40
0
40
0
40
0
40
0
40
1
40
1
40
1
40
1
41
1
10
32.900000000019
20
-3.12654603609653
30
0
41
1
10
32.9000000000202
20
-3.26643313725222
30
0
41
1
10
32.9000000000214
20
-3.40693628166488
30
0
41
1
10
32.9000000000227
20
-3.5480549162148
30
0
0
SPLINE
5
14A
100
AcDbEntity
8
1
62
256
6
ByLayer
370
18
48
1
60
0
100
AcDbSpline
70
4
71
3
72
10
73
6
40
0
40
0
40
0
40
0
40
0.5
40
0.5
40
1
40
1
40
1
40
1
41
1
10
265.974875601484
20
13.459965657179
30
0
41
1
10
268.212317251933
20
13.8509251019224
30
0
41
1
10
270.44828894133
20
14.1792681462634
30
0
41
1
10
274.926075127514
20
14.7027974944673
30
0
41
1
10
277.162665317347
20
14.8971747950977
30
0
41
1
10
279.4
20
15.0236214472069
30
0
0
SPLINE
5
14B
100
AcDbEntity
8
1
62
256
6
ByLayer
370
18
48
1
60
0
100
AcDbSpline
70
4
71
3
72
22
73
18
40
0
40
0
40
0
40
0
40
0.210172351777423
40
0.210172351777423
40
0.315258527666134
40
0.315258527666134
40
0.420344703554845
40
0.420344703554845
40
0.525430879443557
40
0.525430879443557
40
0.630517055332268
40
0.630517055332268
40
0.735603231220979
40
0.735603231220979
40
0.840689407109691
40
0.840689407109691
40
1
40
1
40
1
40
1
41
1
10
258.875907253193
20
10.2041635210086
30
0
41
1
10
256.51987294984
20
10.7897557839488
30
0
41
1
10
254.164443917935
20
11.3255960390659
30
0
41
1
10
250.628663190259
20
12.0482456273816
30
0
41
1
10
249.450195206328
20
12.2755003139013
30
0
41
1
10
247.094944307497
20
12.7019493728857
30
0
41
1
10
245.917850124247
20
12.901160313618
30
0
41
1
10
243.564546840441
20
13.2708223657829
30
0
41
1
10
242.388578101218
20
13.4415171803497
30
0
41
1
10
240.036266981359
20
13.7512987472678
30
0
41
1
10
238.85999353337
20
13.8905181225888
30
0
41
1
10
236.506010669235
20
14.1363111919335
30
0
41
1
10
235.32792673124
20
14.242881712479
30
0
41
1
10
232.973960983399
20
14.4225472357619
30
0
41
1
10
231.797543048033
20
14.4957230259774
30
0
41
1
10
228.837754030187
20
14.6379598641855
30
0
41
1
10
227.054378919348
20
14.6851610698387
30
0
41
1
10
225.269851364718
20
14.6940051009203
30
0
0
SPLINE
5
14C
100
AcDbEntity
8
1
62
256
6
ByLayer
370
18
48
1
60
0
100
AcDbSpline
70
4
71
3
72
42
73
38
40
0
40
0
40
0
40
0
40
0.0388463716346916
40
0.0388463716346916
40
0.0788944394832472
40
0.0788944394832472
40
0.118942507331803
40
0.118942507331803
40
0.199038643028913
40
0.199038643028913
40
0.239086710877468
40
0.239086710877468
40
0.279134778726022
40
0.279134778726022
40
0.359230914423131
40
0.359230914423131
40
0.399278982271685
40
0.399278982271685
40
0.439327050120239
40
0.439327050120239
40
0.519423185817348
40
0.519423185817348
40
0.559471253665902
40
0.559471253665902
40
0.599519321514455
40
0.599519321514455
40
0.679615457211564
40
0.679615457211564
40
0.759711592908673
40
0.759711592908673
40
0.799759660757227
40
0.799759660757227
40
0.839807728605782
40
0.839807728605782
40
0.919903864302891
40
0.919903864302891
40
1
40
1
40
1
40
1
41
1
10
121.048622531882
20
-11.129102074265
30
0
41
1
10
119.908066529993
20
-11.3870708708055
30
0
41
1
10
118.76748459932
20
-11.6330656811455
30
0
41
1
10
116.449837107866
20
-12.1062325089742
30
0
41
1
10
115.272382858454
20
-12.3327327695613
30
0
41
1
10
112.916691523609
20
-12.7564975271361
30
0
41
1
10
111.739499717487
20
-12.9535930984663
30
0
41
1
10
108.208648786078
20
-13.4987148734811
30
0
41
1
10
105.855689198941
20
-13.8003517365183
30
0
41
1
10
102.323601281774
20
-14.1589152161651
30
0
41
1
10
101.145810930922
20
-14.2627579284927
30
0
41
1
10
98.7888888052459
20
-14.438467429652
30
0
41
1
10
97.6103754080446
20
-14.5103096364781
30
0
41
1
10
94.079142963127
20
-14.6756595889132
30
0
41
1
10
91.7287327869768
20
-14.718048610124
30
0
41
1
10
88.2012793948908
20
-14.6782648336716
30
0
41
1
10
87.0251288561875
20
-14.6479311397947
30
0
41
1
10
84.6710462235925
20
-14.5538010805842
30
0
41
1
10
83.4926610095307
20
-14.4900065842633
30
0
41
1
10
79.9602889570946
20
-14.2497603035655
30
0
41
1
10
77.6072122224349
20
-14.02379675427
30
0
41
1
10
74.076151821184
20
-13.5931899736561
30
0
41
1
10
72.8988951142362
20
-13.4343780984482
30
0
41
1
10
70.5434095877022
20
-13.0867307665774
30
0
41
1
10
69.3646697063936
20
-12.8978265646046
30
0
41
1
10
65.8300565401731
20
-12.2866027531386
30
0
41
1
10
63.4785378599465
20
-11.8186180622388
30
0
41
1
10
58.7759641200746
20
-10.7751329410281
30
0
41
1
10
56.4246540181088
20
-10.2005992911762
30
0
41
1
10
52.8910405095746
20
-9.27480992128571
30
0
41
1
10
51.71343224028
20
-8.95580293732502
30
0
41
1
10
49.3603481531956
20
-8.29948336696901
30
0
41
1
10
48.1844794786734
20
-7.96215264654842
30
0
41
1
10
44.6578759679771
20
-6.92566763891307
30
0
41
1
10
42.3080272473972
20
-6.20242752291026
30
0
41
1
10
37.6065485094651
20
-4.70248794297362
30
0
41
1
10
35.2553733553427
20
-3.92438722183368
30
0
41
1
10
32.9000000000189
20
-3.12654475781218
30
0
0
SPLINE
5
14D
100
AcDbEntity
8
1
62
256
6
ByLayer
370
18
48
1
60
0
100
AcDbSpline
70
4
71
3
72
10
73
6
40
0
40
0
40
0
40
0
40
0.5
40
0.5
40
1
40
1
40
1
40
1
41
1
10
265.9825526595
20
13.1126614621642
30
0
41
1
10
266.094047235281
20
13.1178492743976
30
0
41
1
10
266.204432238213
20
13.1191658643552
30
0
41
1
10
266.422932223217
20
13.1134903780151
30
0
41
1
10
266.531364586243
20
13.1064640784525
30
0
41
1
10
266.637898155047
20
13.0949729820781
30
0
0
SPLINE
5
14E
100
AcDbEntity
8
1
62
256
6
ByLayer
370
18
48
1
60
0
100
AcDbSpline
70
4
71
3
72
16
73
12
40
0
40
0
40
0
40
0
40
0.117900156687185
40
0.225573328205566
40
0.32301816622943
40
0.410233233203152
40
0.487217061699668
40
0.553968211356321
40
0.753271891937679
40
0.937934491963202
40
1
40
1
40
1
40
1
41
1
10
289.513187785175
20
2.83246157033756
30
0
41
1
10
289.195462398201
20
2.85504418769421
30
0
41
1
10
288.587572001707
20
2.89825054381674
30
0
41
1
10
287.717261066795
20
2.9626196199585
30
0
41
1
10
286.929737434693
20
3.02236209242739
30
0
41
1
10
286.224990023665
20
3.07715263218967
30
0
41
1
10
285.602995658718
20
3.12651107042163
30
0
41
1
10
284.679223075756
20
3.20105676226817
30
0
41
1
10
283.465728333779
20
3.30204744596273
30
0
41
1
10
282.265194129025
20
3.40605997668899
30
0
41
1
10
281.601277590093
20
3.46554569103634
30
0
41
1
10
281.434273547658
20
3.48058792039174
30
0
0
SPLINE
5
14F
100
AcDbEntity
8
1
62
256
6
ByLayer
370
18
48
1
60
0
100
AcDbSpline
70
4
71
3
72
12
73
8
40
0
40
0
40
0
40
0
40
0.25
40
0.25
40
0.5
40
0.5
40
1
40
1
40
1
40
1
41
1
10
298.87937528956
20
-0.350266240802768
30
0
41
1
10
298.825651791733
20
-0.515071267421376
30
0
41
1
10
298.770770543878
20
-0.681219519282052
30
0
41
1
10
298.658525968614
20
-1.01639573954208
30
0
41
1
10
298.601117584045
20
-1.1855272546093
30
0
41
1
10
298.428309876363
20
-1.68765288777152
30
0
41
1
10
298.311277891161
20
-2.01860348351278
30
0
41
1
10
298.192273363284
20
-2.34545120654272
30
0
0
SPLINE
5
150
100
AcDbEntity
8
1
62
256
6
ByLayer
370
18
48
1
60
0
100
AcDbSpline
70
4
71
3
72
8
73
4
40
0
40
0
40
0
40
0
40
1
40
1
40
1
40
1
41
1
10
298.94241678968
20
-0.219996500002907
30
0
41
1
10
298.954433758332
20
-0.178907163421485
30
0
41
1
10
298.966491206178
20
-0.137739437199969
30
0
41
1
10
298.978589349867
20
-0.0964929017911516
30
0
0
SPLINE
5
151
100
AcDbEntity
8
1
62
256
6
ByLayer
370
18
48
1
60
0
100
AcDbSpline
70
2053
71
3
72
41
73
37
40
0
40
0
40
0
40
0
40
0.0303349698047145
40
0.0624371966996599
40
0.093637698697373
40
0.12488311344915
40
0.156192879622818
40
0.187358878804253
40
0.219452462437762
40
0.24985830939009
40
0.280268839406558
40
0.312382800049434
40
0.343546164536051
40
0.374876727552041
40
0.406039914372542
40
0.437351252558935
40
0.468593836293151
40
0.484309377251705
40
0.499830621175295
40
0.530245758533445
40
0.562499160110012
40
0.577318701702567
40
0.593744561539721
40
0.625061559219658
40
0.656224522001249
40
0.687554835123846
40
0.719620573637845
40
0.749996437878294
40
0.780344412180841
40
0.812426069129985
40
0.843755007456763
40
0.874915272042668
40
0.906222317445378
40
0.937487808978971
40
0.969662240209156
40
1
40
1
40
1
40
1
41
1
10
272.37
20
-8.40661495491748
30
0
41
1
10
272.176955293454
20
-8.40661713577365
30
0
41
1
10
271.779619222478
20
-8.43954319389209
30
0
41
1
10
271.206833941198
20
-8.58597274943853
30
0
41
1
10
270.675891943813
20
-8.82438429238547
30
0
41
1
10
270.214928007034
20
-9.13500831116821
30
0
41
1
10
269.836461889565
20
-9.5032723584506
30
0
41
1
10
269.551785699217
20
-9.91452360365491
30
0
41
1
10
269.378683763456
20
-10.341754184898
30
0
41
1
10
269.321401389486
20
-10.765922102679
30
0
41
1
10
269.37779012361
20
-11.1722893951081
30
0
41
1
10
269.550107091936
20
-11.5497998770059
30
0
41
1
10
269.834164481066
20
-11.8844381248372
30
0
41
1
10
270.211764241345
20
-12.1628910349296
30
0
41
1
10
270.672385160539
20
-12.3836817983339
30
0
41
1
10
271.19821891621
20
-12.5432635557797
30
0
41
1
10
271.676472606242
20
-12.6239144495881
30
0
41
1
10
272.069511590065
20
-12.6561850200497
30
0
41
1
10
272.461326648902
20
-12.6668621291603
30
0
41
1
10
272.959139607628
20
-12.6413224951501
30
0
41
1
10
273.433390601827
20
-12.562107696402
30
0
41
1
10
273.797597267531
20
-12.4656377466509
30
0
41
1
10
274.138036080353
20
-12.3497756403216
30
0
41
1
10
274.526012906426
20
-12.1642240473974
30
0
41
1
10
274.904548691933
20
-11.8856098263662
30
0
41
1
10
275.188990059995
20
-11.5513553441099
30
0
41
1
10
275.361760483069
20
-11.1736155481048
30
0
41
1
10
275.418543111332
20
-10.7679883545425
30
0
41
1
10
275.361975824436
20
-10.344344290735
30
0
41
1
10
275.18946111356
20
-9.91664229001009
30
0
41
1
10
274.905197602887
20
-9.505212324757
30
0
41
1
10
274.526823752435
20
-9.13649172226278
30
0
41
1
10
274.066365853439
20
-8.82556356521513
30
0
41
1
10
273.534491696476
20
-8.58636167113204
30
0
41
1
10
272.960875290538
20
-8.4395724232038
30
0
41
1
10
272.56306246137
20
-8.40661277386074
30
0
41
1
10
272.37
20
-8.40661495491748
30
0
0
SPLINE
5
152
100
AcDbEntity
8
1
62
256
6
ByLayer
370
18
48
1
60
0
100
AcDbSpline
70
4
71
3
72
18
73
14
40
0
40
0
40
0
40
0
40
0.25000000000001
40
0.25000000000001
40
0.37500000000001
40
0.37500000000001
40
0.50000000000001
40
0.50000000000001
40
0.75000000000001
40
0.75000000000001
40
0.875000000000005
40
0.875000000000005
40
1
40
1
40
1
40
1
41
1
10
279.999781720321
20
16.3436773668571
30
0
41
1
10
281.168065941647
20
16.4112243510159
30
0
41
1
10
282.334893690791
20
16.4490527862217
30
0
41
1
10
284.082845414355
20
16.4621429743167
30
0
41
1
10
284.665097859421
20
16.4592183658482
30
0
41
1
10
285.828575408397
20
16.4387032636192
30
0
41
1
10
286.409715421075
20
16.4210706985383
30
0
41
1
10
288.153873461023
20
16.3463942713005
30
0
41
1
10
289.31729295143
20
16.2676771589952
30
0
41
1
10
291.063497911392
20
16.106413640629
30
0
41
1
10
291.645712466925
20
16.0454357068938
30
0
41
1
10
292.810365384145
20
15.908827543398
30
0
41
1
10
293.39267243323
20
15.8330917607681
30
0
41
1
10
293.975941062308
20
15.7504530186595
30
0
0
SPLINE
5
153
100
AcDbEntity
8
1
62
256
6
ByLayer
370
18
48
1
60
0
100
AcDbSpline
70
4
71
3
72
21
73
17
40
0
40
0
40
0
40
0
40
0.0509863564678155
40
0.160260460366345
40
0.21489751231561
40
0.269534564264874
40
0.378808668163404
40
0.433445720112668
40
0.488082772061933
40
0.597356875960462
40
0.651993927909727
40
0.706630979858991
40
0.815905083757521
40
0.870542135706786
40
0.92517918765605
40
1
40
1
40
1
40
1
41
1
10
95.3306158571069
20
-0.0038846156127761
30
0
41
1
10
96.4684160136409
20
-0.396694848709302
30
0
41
1
10
100.045123349871
20
-1.63516215071266
30
0
41
1
10
104.839435891351
20
-3.27630665354604
30
0
41
1
10
109.714894064554
20
-4.88042223490365
30
0
41
1
10
114.593594429253
20
-6.44101795612096
30
0
41
1
10
119.471984938758
20
-7.91253127193892
30
0
41
1
10
124.348322782332
20
-9.26274479610871
30
0
41
1
10
129.225967251455
20
-10.5237649684811
30
0
41
1
10
134.101811855807
20
-11.6378461913974
30
0
41
1
10
138.977381481423
20
-12.5729756619873
30
0
41
1
10
143.856196364728
20
-13.3790424198324
30
0
41
1
10
148.734688065694
20
-13.9962982548862
30
0
41
1
10
153.61105735572
20
-14.4083309712013
30
0
41
1
10
157.719739075482
20
-14.6285441681618
30
0
41
1
10
160.608145036167
20
-14.6866684760216
30
0
41
1
10
162.277389671121
20
-14.6874013071076
30
0
0
SPLINE
5
154
100
AcDbEntity
8
1
62
256
6
ByLayer
370
18
48
1
60
0
100
AcDbSpline
70
4
71
3
72
16
73
12
40
0
40
0
40
0
40
0
40
0.250000000000003
40
0.250000000000003
40
0.500000000000005
40
0.500000000000005
40
0.625000000000006
40
0.625000000000006
40
0.750000000000007
40
0.750000000000007
40
1
40
1
40
1
40
1
41
1
10
295.489094626135
20
11.1750384373487
30
0
41
1
10
295.638687164229
20
10.716809579986
30
0
41
1
10
295.791116982379
20
10.2577677132175
30
0
41
1
10
296.101023261173
20
9.33823789186184
30
0
41
1
10
296.258503718679
20
8.87774879090367
30
0
41
1
10
296.498278723678
20
8.18599666732595
30
0
41
1
10
296.578798166154
20
7.95524229211225
30
0
41
1
10
296.741008944678
20
7.49339774148154
30
0
41
1
10
296.82288506937
20
7.26179192631525
30
0
41
1
10
297.068221274342
20
6.57219775554611
30
0
41
1
10
297.231744698999
20
6.1183737655393
30
0
41
1
10
297.395235955637
20
5.67012959777955
30
0
0
SPLINE
5
155
100
AcDbEntity
8
1
62
256
6
ByLayer
370
18
48
1
60
0
100
AcDbSpline
70
4
71
3
72
8
73
4
40
0
40
0
40
0
40
0
40
1
40
1
40
1
40
1
41
1
10
279.404250424142
20
-15.0198609379649
30
0
41
1
10
279.402833604996
20
-15.0211145688235
30
0
41
1
10
279.401416796942
20
-15.0223680719152
30
0
41
1
10
279.4
20
-15.0236214472069
30
0
0
SPLINE
5
156
100
AcDbEntity
8
1
62
256
6
ByLayer
370
18
48
1
60
0
100
AcDbSpline
70
4
71
3
72
8
73
4
40
0
40
0
40
0
40
0
40
1
40
1
40
1
40
1
41
1
10
279.722057245112
20
-15.7880576306948
30
0
41
1
10
279.722057245112
20
-15.7768833375173
30
0
41
1
10
279.721485115244
20
-15.7655466671872
30
0
41
1
10
279.720341691497
20
-15.7540478528632
30
0
0
SPLINE
5
157
100
AcDbEntity
8
1
62
256
6
ByLayer
370
18
48
1
60
0
100
AcDbSpline
70
4
71
3
72
16
73
12
40
0
40
0
40
0
40
0
40
0.0361002973966276
40
0.253636496116491
40
0.362404595476423
40
0.471172694836354
40
0.62072883145626
40
0.688708893556216
40
0.756688955656173
40
0.90624509227608
40
1
40
1
40
1
40
1
41
1
10
229.209549223699
20
-0.0040508418125
30
0
41
1
10
229.614346386369
20
-0.143541172858619
30
0
41
1
10
232.458496699174
20
-1.1237465887649
30
0
41
1
10
236.522134575337
20
-2.51818286745407
30
0
41
1
10
241.398546728582
20
-4.14789333023182
30
0
41
1
10
245.513263462987
20
-5.49647249028848
30
0
41
1
10
249.169656511783
20
-6.64954712092421
30
0
41
1
10
252.369133091148
20
-7.60830414358091
30
0
41
1
10
255.570203997489
20
-8.53271429775171
30
0
41
1
10
259.060921102893
20
-9.48419085135723
30
0
41
1
10
261.788081493894
20
-10.172571860307
30
0
41
1
10
262.838809801199
20
-10.4285665402301
30
0
0
SPLINE
5
158
100
AcDbEntity
8
1
62
256
6
ByLayer
370
18
48
1
60
0
100
AcDbSpline
70
4
71
3
72
8
73
4
40
0
40
0
40
0
40
0
40
1
40
1
40
1
40
1
41
1
10
280.559619407771
20
-15.4975789789375
30
0
41
1
10
280.571892379154
20
-15.4934652128182
30
0
41
1
10
280.584691268215
20
-15.4894889752462
30
0
41
1
10
280.59796099747
20
-15.4856748319213
30
0
0
SPLINE
5
159
100
AcDbEntity
8
1
62
256
6
ByLayer
370
18
48
1
60
0
100
AcDbSpline
70
4
71
3
72
8
73
4
40
0
40
0
40
0
40
0
40
1
40
1
40
1
40
1
41
1
10
295.489094626135
20
-11.1750384373487
30
0
41
1
10
294.993777402746
20
-12.6922842050919
30
0
41
1
10
294.489511179356
20
-14.2173194277152
30
0
41
1
10
293.975941062308
20
-15.750453018659
30
0
0
SPLINE
5
15A
100
AcDbEntity
8
1
62
256
6
ByLayer
370
18
48
1
60
0
100
AcDbSpline
70
4
71
4
72
10
73
5
40
0
40
0
40
0
40
0
40
0
40
1
40
1
40
1
40
1
40
1
41
1
10
279.50000000013
20
11.8129557668669
30
0
41
1
10
279.50000000013
20
10.0768877916231
30
0
41
0.993745997226192
10
279.50000000013
20
8.26533070269818
30
0
41
0.994801796498007
10
279.50000000013
20
6.71110260701534
30
0
41
0.99711957065734
10
279.50000000013
20
5.55837214945333
30
0
0
SPLINE
5
15B
100
AcDbEntity
8
1
62
256
6
ByLayer
370
18
48
1
60
0
100
AcDbSpline
70
4
71
3
72
8
73
4
40
0
40
0
40
0
40
0
40
1
40
1
40
1
40
1
41
1
10
29.1
20
-2.21164391646673
30
0
41
1
10
30.3671230398201
20
-2.66059551677813
30
0
41
1
10
31.633499081907
20
-3.10686404938608
30
0
41
1
10
32.9000000000373
20
-3.54805491621792
30
0
0
SPLINE
5
15C
100
AcDbEntity
8
1
62
256
6
ByLayer
370
18
48
1
60
0
100
AcDbSpline
70
4
71
3
72
8
73
4
40
0
40
0
40
0
40
0
40
1
40
1
40
1
40
1
41
1
10
265.080314284313
20
12.7454314080637
30
0
41
1
10
265.053836133492
20
12.9088432681355
30
0
41
1
10
265.027641793865
20
13.0714242108231
30
0
41
1
10
265.001780697623
20
13.2331854959133
30
0
0
SPLINE
5
15D
100
AcDbEntity
8
1
62
256
6
ByLayer
370
18
48
1
60
0
100
AcDbSpline
70
4
71
3
72
31
73
27
40
0
40
0
40
0
40
0
40
0.019695841905732
40
0.0392775628923017
40
0.0587452681898277
40
0.078099064888588
40
0.0973390619812939
40
0.116465370406526
40
0.135478103093357
40
0.154377375007191
40
0.173163303196876
40
0.19183600684311
40
0.210395607308196
40
0.22884222818717
40
0.247175995360376
40
0.265397037047491
40
0.398771281367211
40
0.528021144848818
40
0.659494908558776
40
0.788000583798194
40
0.823715634786949
40
0.859275329446657
40
0.894681621378906
40
0.929936489687726
40
0.965041939087728
40
1
40
1
40
1
40
1
41
1
10
290.304619696826
20
-12.7630837904036
30
0
41
1
10
290.285397508657
20
-12.728374971474
30
0
41
1
10
290.247064508812
20
-12.6591584421704
30
0
41
1
10
290.190284435898
20
-12.5530321612234
30
0
41
1
10
290.134244284356
20
-12.4456570647287
30
0
41
1
10
290.078983012514
20
-12.3368925171372
30
0
41
1
10
290.024490272442
20
-12.2268341985211
30
0
41
1
10
289.970768812286
20
-12.1155145375299
30
0
41
1
10
289.917817901606
20
-12.0029822630382
30
0
41
1
10
289.86563773511
20
-11.8892812666857
30
0
41
1
10
289.814228256998
20
-11.7744561920365
30
0
41
1
10
289.76358949578
20
-11.658550984874
30
0
41
1
10
289.713721391791
20
-11.5416090968122
30
0
41
1
10
289.664624152055
20
-11.4236740511364
30
0
41
1
10
289.616297013138
20
-11.3047869518829
30
0
41
1
10
289.468467488561
20
-10.9323977769719
30
0
41
1
10
289.23425609753
20
-10.2819128786089
30
0
41
1
10
288.933138866162
20
-9.29033198847347
30
0
41
1
10
288.665462843382
20
-8.2393718321467
30
0
41
1
10
288.486325134197
20
-7.39182826163699
30
0
41
1
10
288.376480109072
20
-6.80105297587565
30
0
41
1
10
288.320444928398
20
-6.48146636786939
30
0
41
1
10
288.267272681847
20
-6.15939062582476
30
0
41
1
10
288.217029458658
20
-5.83495168230957
30
0
41
1
10
288.169466865751
20
-5.50863917366385
30
0
41
1
10
288.140099073861
20
-5.28882841190278
30
0
41
1
10
288.125446067565
20
-5.17915423251088
30
0
0
SPLINE
5
15E
100
AcDbEntity
8
1
62
256
6
ByLayer
370
18
48
1
60
0
100
AcDbSpline
70
4
71
3
72
8
73
4
40
0
40
0
40
0
40
0
40
1
40
1
40
1
40
1
41
1
10
20.3914948835449
20
2.74565728416914
30
0
41
1
10
20.6353318423584
20
2.51333894619344
30
0
41
1
10
20.886536605993
20
2.29460061332912
30
0
41
1
10
21.1456738510662
20
2.08946049726333
30
0
0
SPLINE
5
15F
100
AcDbEntity
8
1
62
256
6
ByLayer
370
18
48
1
60
0
100
AcDbSpline
70
4
71
3
72
20
73
16
40
0
40
0
40
0
40
0
40
0.289898765250969
40
0.289898765250969
40
0.434848147876453
40
0.434848147876453
40
0.579797530501938
40
0.579797530501938
40
0.724746913127423
40
0.724746913127423
40
0.797221604440169
40
0.797221604440169
40
0.869696295752916
40
0.869696295752916
40
1
40
1
40
1
40
1
41
1
10
266.637898155047
20
13.0949729820781
30
0
41
1
10
266.465184891248
20
12.6402705932302
30
0
41
1
10
266.285080159925
20
12.1936528892789
30
0
41
1
10
266.011031429392
20
11.5336313354455
30
0
41
1
10
265.91909601035
20
11.3152617238306
30
0
41
1
10
265.737058881478
20
10.8809651772205
30
0
41
1
10
265.648004229677
20
10.6675205215681
30
0
41
1
10
265.479374487688
20
10.2480415236558
30
0
41
1
10
265.399824021217
20
10.0418498742071
30
0
41
1
10
265.292391121212
20
9.7373210353918
30
0
41
1
10
265.258564108205
20
9.63660679043375
30
0
41
1
10
265.195426137887
20
9.43674475471886
30
0
41
1
10
265.166206411409
20
9.33781944039751
30
0
41
1
10
265.091871676108
20
9.067061598755
30
0
41
1
10
265.052532698414
20
8.89890866105193
30
0
41
1
10
265.019262410711
20
8.73636845194645
30
0
0
SPLINE
5
160
100
AcDbEntity
8
1
62
256
6
ByLayer
370
18
48
1
60
0
100
AcDbSpline
70
4
71
3
72
78
73
74
40
0
40
0
40
0
40
0
40
0.0194810790876418
40
0.0194810790876418
40
0.0410788865827918
40
0.0410788865827918
40
0.0626766940779418
40
0.0626766940779418
40
0.0842745015730919
40
0.0842745015730919
40
0.105872309068242
40
0.105872309068242
40
0.127470116563392
40
0.127470116563392
40
0.149067924058542
40
0.149067924058542
40
0.192263539048841
40
0.192263539048841
40
0.213861346543991
40
0.213861346543991
40
0.23545915403914
40
0.23545915403914
40
0.27865476902944
40
0.27865476902944
40
0.300252576524591
40
0.300252576524591
40
0.321850384019741
40
0.321850384019741
40
0.365045999010041
40
0.365045999010041
40
0.386643806505191
40
0.386643806505191
40
0.408241614000341
40
0.408241614000341
40
0.429839421495491
40
0.429839421495491
40
0.451437228990641
40
0.451437228990641
40
0.473035036485791
40
0.473035036485791
40
0.494632843980941
40
0.494632843980941
40
0.537828458971241
40
0.537828458971241
40
0.581024073961541
40
0.581024073961541
40
0.624219688951841
40
0.624219688951841
40
0.667415303942141
40
0.667415303942141
40
0.689013111437292
40
0.689013111437292
40
0.710610918932442
40
0.710610918932442
40
0.753806533922742
40
0.753806533922742
40
0.775404341417893
40
0.775404341417893
40
0.797002148913043
40
0.797002148913043
40
0.840197763903344
40
0.840197763903344
40
0.861795571398495
40
0.861795571398495
40
0.883393378893645
40
0.883393378893645
40
0.926588993883946
40
0.926588993883946
40
0.948186801379096
40
0.948186801379096
40
0.969784608874247
40
0.969784608874247
40
1
40
1
40
1
40
1
41
1
10
254.99565153123
20
-11.1229382000702
30
0
41
1
10
253.933066342149
20
-11.3618138253755
30
0
41
1
10
252.870340353191
20
-11.5900873863319
30
0
41
1
10
250.628663190259
20
-12.0482456273816
30
0
41
1
10
249.450195206328
20
-12.2755003139013
30
0
41
1
10
247.094944307497
20
-12.7019493728857
30
0
41
1
10
245.917850124247
20
-12.901160313618
30
0
41
1
10
243.564546840441
20
-13.2708223657829
30
0
41
1
10
242.388578101219
20
-13.4415171803497
30
0
41
1
10
240.036266981359
20
-13.7512987472678
30
0
41
1
10
238.85999353337
20
-13.8905181225888
30
0
41
1
10
236.506010669235
20
-14.1363111919335
30
0
41
1
10
235.32792673124
20
-14.242881712479
30
0
41
1
10
232.973960983399
20
-14.4225472357619
30
0
41
1
10
231.797543048033
20
-14.4957230259774
30
0
41
1
10
228.268382187719
20
-14.6653218315923
30
0
41
1
10
225.915655192214
20
-14.7113756347639
30
0
41
1
10
222.382573025974
20
-14.6804394432388
30
0
41
1
10
221.203650034815
20
-14.6535870412271
30
0
41
1
10
218.846734460893
20
-14.567131076559
30
0
41
1
10
217.669112889566
20
-14.5075582314792
30
0
41
1
10
214.138028183894
20
-14.2798244280283
30
0
41
1
10
211.786797508832
20
-14.0619307718733
30
0
41
1
10
208.258049652433
20
-13.6357412360548
30
0
41
1
10
207.081430031119
20
-13.4773071692484
30
0
41
1
10
204.726176782574
20
-13.1294423757792
30
0
41
1
10
203.548990896047
20
-12.9402361400521
30
0
41
1
10
200.018955470912
20
-12.3302143458585
30
0
41
1
10
197.666628902006
20
-11.8671599649699
30
0
41
1
10
194.135283291131
20
-11.0959796819428
30
0
41
1
10
192.95770834757
20
-10.8262698626147
30
0
41
1
10
190.6009942557
20
-10.2630614226867
30
0
41
1
10
189.421757374364
20
-9.96950306122895
30
0
41
1
10
187.066025568629
20
-9.36066750195275
30
0
41
1
10
185.888931335752
20
-9.04529176076045
30
0
41
1
10
183.53588531735
20
-8.39304968687162
30
0
41
1
10
182.359903909674
20
-8.05617262857774
30
0
41
1
10
180.007867268812
20
-7.36330883751088
30
0
41
1
10
178.831815249237
20
-7.00734179052606
30
0
41
1
10
176.478378302999
20
-6.27959985601589
30
0
41
1
10
175.300365778254
20
-5.90768444298294
30
0
41
1
10
171.768171111138
20
-4.77492669841925
30
0
41
1
10
169.415649922021
20
-3.99770387365936
30
0
41
1
10
164.70859806538
20
-2.41763079942234
30
0
41
1
10
162.353936898025
20
-1.61471757963088
30
0
41
1
10
157.638671496653
20
0.002019225297289
30
0
41
1
10
155.285183619859
20
0.814571819689547
30
0
41
1
10
150.58132443001
20
2.43204052621209
30
0
41
1
10
148.230522499549
20
3.23566524302922
30
0
41
1
10
144.698524989711
20
4.41216275114954
30
0
41
1
10
143.520475421388
20
4.79948531464669
30
0
41
1
10
141.166297703399
20
5.56018775458085
30
0
41
1
10
139.989574396841
20
5.93377154909584
30
0
41
1
10
136.459363345586
20
7.0310761739409
30
0
41
1
10
134.105806746073
20
7.73149378296824
30
0
41
1
10
130.571546713513
20
8.72702798868124
30
0
41
1
10
129.392270555666
20
9.04987231676819
30
0
41
1
10
127.036117891355
20
9.67482091599362
30
0
41
1
10
125.859013764208
20
9.97710161273827
30
0
41
1
10
122.329697736495
20
10.8499670333185
30
0
41
1
10
119.979260902296
20
11.3856715664531
30
0
41
1
10
116.449837107866
20
12.1062325089742
30
0
41
1
10
115.272382858454
20
12.3327327695613
30
0
41
1
10
112.916691523609
20
12.7564975271361
30
0
41
1
10
111.739499717487
20
12.9535930984663
30
0
41
1
10
108.208648786078
20
13.4987148734811
30
0
41
1
10
105.855689198941
20
13.8003517365183
30
0
41
1
10
102.323601281774
20
14.1589152161651
30
0
41
1
10
101.145810930922
20
14.2627579284927
30
0
41
1
10
98.7888888052459
20
14.438467429652
30
0
41
1
10
97.6103754080447
20
14.5103096364781
30
0
41
1
10
94.7865633446184
20
14.6425346309118
30
0
41
1
10
93.1416610951972
20
14.6864466227558
30
0
41
1
10
91.4968900382079
20
14.6967969749345
30
0
0
SPLINE
5
161
100
AcDbEntity
8
1
62
256
6
ByLayer
370
18
48
1
60
0
100
AcDbSpline
70
4
71
3
72
18
73
14
40
0
40
0
40
0
40
0
40
0.138114490629016
40
0.138114490629016
40
0.324197484722419
40
0.324197484722419
40
0.51028050050161
40
0.51028050050161
40
0.696363538601556
40
0.696363538601556
40
0.882446599568598
40
0.882446599568598
40
1
40
1
40
1
40
1
41
1
10
265.9825526595
20
13.1126614621642
30
0
41
1
10
265.981996904402
20
13.1286391720131
30
0
41
1
10
265.981467860352
20
13.1446180478283
30
0
41
1
10
265.980289929493
20
13.1821285637634
30
0
41
1
10
265.979663234797
20
13.2036613328649
30
0
41
1
10
265.97851117973
20
13.2467325454482
30
0
41
1
10
265.977985818088
20
13.2682710484669
30
0
41
1
10
265.977038923514
20
13.3113546050559
30
0
41
1
10
265.976617389555
20
13.3328997212517
30
0
41
1
10
265.975880628107
20
13.3759973734857
30
0
41
1
10
265.975565399869
20
13.3975499753225
30
0
41
1
10
265.975139764894
20
13.4327246592748
30
0
41
1
10
265.974996680217
20
13.4463442764748
30
0
41
1
10
265.974875601487
20
13.4599656572014
30
0
0
SPLINE
5
162
100
AcDbEntity
8
1
62
256
6
ByLayer
370
18
48
1
60
0
100
AcDbSpline
70
4
71
1
72
4
73
2
40
0
40
0
40
1
40
1
41
1
10
290.443191779185
20
-12.7040532466516
30
0
41
1
10
290.304619903739
20
-12.7630825006448
30
0
0
SPLINE
5
163
100
AcDbEntity
8
1
62
256
6
ByLayer
370
18
48
1
60
0
100
AcDbSpline
70
4
71
3
72
12
73
8
40
0
40
0
40
0
40
0
40
0.25
40
0.25
40
0.5
40
0.5
40
1
40
1
40
1
40
1
41
1
10
284.121555237361
20
3.41691136427724
30
0
41
1
10
284.744135246971
20
3.35425319413855
30
0
41
1
10
285.366869293389
20
3.29360974792567
30
0
41
1
10
286.612902945596
20
3.17972008736177
30
0
41
1
10
287.236160554598
20
3.1259245761928
30
0
41
1
10
289.106236607858
20
2.9685040894507
30
0
41
1
10
290.353422358144
20
2.86968329183196
30
0
41
1
10
291.601558925991
20
2.78329870929264
30
0
0
SPLINE
5
164
100
AcDbEntity
8
1
62
256
6
ByLayer
370
18
48
1
60
0
100
AcDbSpline
70
4
71
3
72
52
73
48
40
0
40
0
40
0
40
0
40
0.0282561910990749
40
0.0282561910990749
40
0.0621775024133207
40
0.0621775024133207
40
0.0960988137275664
40
0.0960988137275664
40
0.163941436356057
40
0.163941436356057
40
0.197862747670303
40
0.197862747670303
40
0.231784058984549
40
0.231784058984549
40
0.299626681613041
40
0.299626681613041
40
0.333547992927287
40
0.333547992927287
40
0.367469304241533
40
0.367469304241533
40
0.435311926870024
40
0.435311926870024
40
0.46923323818427
40
0.46923323818427
40
0.503154549498515
40
0.503154549498515
40
0.570997172127006
40
0.570997172127006
40
0.604918483441251
40
0.604918483441251
40
0.638839794755497
40
0.638839794755497
40
0.706682417383988
40
0.706682417383988
40
0.740603728698233
40
0.740603728698233
40
0.774525040012478
40
0.774525040012478
40
0.842367662640969
40
0.842367662640969
40
0.876288973955215
40
0.876288973955215
40
0.91021028526946
40
0.91021028526946
40
0.978052907897951
40
0.978052907897951
40
1
40
1
40
1
40
1
41
1
10
122.044686957032
20
10.9025303949694
30
0
41
1
10
123.066681805539
20
11.1282744832643
30
0
41
1
10
124.088808028597
20
11.3444674121613
30
0
41
1
10
126.338841949391
20
11.7974072150429
30
0
41
1
10
127.56719647034
20
12.0296275902803
30
0
41
1
10
130.024795933128
20
12.4636291540648
30
0
41
1
10
131.253120323996
20
12.6650251423131
30
0
41
1
10
134.937596320686
20
13.2251933864913
30
0
41
1
10
137.393879617652
20
13.5412809326394
30
0
41
1
10
141.0772480063
20
13.9081573638321
30
0
41
1
10
142.305126052514
20
14.0126555502655
30
0
41
1
10
144.762170098939
20
14.1855888664448
30
0
41
1
10
145.990031547091
20
14.2537176470663
30
0
41
1
10
149.672175034696
20
14.4054307891304
30
0
41
1
10
152.12516944054
20
14.43727393775
30
0
41
1
10
155.807242085655
20
14.3723399249743
30
0
41
1
10
157.035062924746
20
14.3319931397418
30
0
41
1
10
159.492397409529
20
14.2153461928167
30
0
41
1
10
160.721141297747
20
14.138861738494
30
0
41
1
10
164.403714080587
20
13.8603001187319
30
0
41
1
10
166.855615186804
20
13.6098907609132
30
0
41
1
10
170.535863494164
20
13.1314911715976
30
0
41
1
10
171.763046350532
20
12.9549905713852
30
0
41
1
10
174.219369534816
20
12.5696041877661
30
0
41
1
10
175.448424106158
20
12.3605676374514
30
0
41
1
10
179.132039110757
20
11.6901370097186
30
0
41
1
10
181.585469186858
20
11.1853867947551
30
0
41
1
10
185.267343082362
20
10.3447317119081
30
0
41
1
10
186.49495662514
20
10.0507148501186
30
0
41
1
10
188.951610273935
20
9.4376974340633
30
0
41
1
10
190.181014732481
20
9.11849836946593
30
0
41
1
10
193.865020419999
20
8.12990090364761
30
0
41
1
10
196.317426822922
20
7.4289870196443
30
0
41
1
10
199.997689935672
20
6.32601922013365
30
0
41
1
10
201.22475466493
20
5.94988353031846
30
0
41
1
10
203.680604035142
20
5.18377451075483
30
0
41
1
10
204.910017950606
20
4.79358360910095
30
0
41
1
10
208.595495171105
20
3.60885463124936
30
0
41
1
10
211.04969879085
20
2.79942161370988
30
0
41
1
10
214.731928990941
20
1.56937954915034
30
0
41
1
10
215.959528019332
20
1.15683067206064
30
0
41
1
10
218.415889437005
20
0.329211475605661
30
0
41
1
10
219.645259980091
20
-0.0860009473025514
30
0
41
1
10
223.331172665249
20
-1.33097105410076
30
0
41
1
10
225.784365524948
20
-2.16069404304869
30
0
41
1
10
229.031869432206
20
-3.23834970313115
30
0
41
1
10
229.825719748086
20
-3.5000999494398
30
0
41
1
10
230.619789283333
20
-3.75977197592078
30
0
0
SPLINE
5
165
100
AcDbEntity
8
1
62
256
6
ByLayer
370
18
48
1
60
0
100
AcDbSpline
70
4
71
3
72
10
73
6
40
0
40
0
40
0
40
0
40
0.5
40
0.5
40
1
40
1
40
1
40
1
41
1
10
23.5093790659908
20
14.9950694415521
30
0
41
1
10
23.91248718842
20
14.8778529520409
30
0
41
1
10
24.3214223249139
20
14.7905748925912
30
0
41
1
10
25.1513252335576
20
14.6719468286192
30
0
41
1
10
25.5722899968523
20
14.6406355297669
30
0
41
1
10
26
20
14.6372848102702
30
0
0
SPLINE
5
166
100
AcDbEntity
8
1
62
256
6
ByLayer
370
18
48
1
60
0
100
AcDbSpline
70
4
71
3
72
8
73
4
40
0
40
0
40
0
40
0
40
1
40
1
40
1
40
1
41
1
10
267
20
8.16602264021472
30
0
41
1
10
264.790026587348
20
8.83047446569705
30
0
41
1
10
262.581831544798
20
9.45791145741839
30
0
41
1
10
260.371858725197
20
10.041210339999
30
0
0
SPLINE
5
167
100
AcDbEntity
8
1
62
256
6
ByLayer
370
18
48
1
60
0
100
AcDbSpline
70
4
71
3
72
8
73
4
40
0
40
0
40
0
40
0
40
1
40
1
40
1
40
1
41
1
10
23.1871458912389
20
0.469602617226599
30
0
41
1
10
23.2840210078048
20
0.435702290356033
30
0
41
1
10
23.3804824229305
20
0.403744342957424
30
0
41
1
10
23.4765264441035
20
0.373429821529669
30
0
0
SPLINE
5
168
100
AcDbEntity
8
1
62
256
6
ByLayer
370
18
48
1
60
0
100
AcDbSpline
70
4
71
3
72
8
73
4
40
0
40
0
40
0
40
0
40
1
40
1
40
1
40
1
41
1
10
298.978589349864
20
0.096492901802776
30
0
41
1
10
298.948587070131
20
-0.0514107790989158
30
0
41
1
10
298.91561996256
20
-0.200295982148532
30
0
41
1
10
298.879375289558
20
-0.350266240802853
30
0
0
SPLINE
5
169
100
AcDbEntity
8
1
62
256
6
ByLayer
370
18
48
1
60
0
100
AcDbSpline
70
4
71
3
72
14
73
10
40
0
40
0
40
0
40
0
40
0.241305381859178
40
0.241305381859178
40
0.482610763718355
40
0.482610763718355
40
0.965221527436692
40
0.965221527436692
40
1
40
1
40
1
40
1
41
1
10
293.718186788287
20
16.1310001622866
30
0
41
1
10
293.145389126944
20
16.1873979049467
30
0
41
1
10
292.57356235849
20
16.2369322566242
30
0
41
1
10
291.430075134271
20
16.3216266249806
30
0
41
1
10
290.858481636681
20
16.3568414016844
30
0
41
1
10
289.144164147828
20
16.4413488148426
30
0
41
1
10
288.001836256008
20
16.4695647378161
30
0
41
1
10
286.778124980807
20
16.469659115111
30
0
41
1
10
286.695875735489
20
16.4695183776099
30
0
41
1
10
286.613631334956
20
16.4692306479012
30
0
0
SPLINE
5
16A
100
AcDbEntity
8
1
62
256
6
ByLayer
370
18
48
1
60
0
100
AcDbSpline
70
4
71
3
72
34
73
30
40
0
40
0
40
0
40
0
40
0.0293638995346625
40
0.0585705990698038
40
0.0876203620153577
40
0.116513456073847
40
0.145250153326574
40
0.173830730321797
40
0.202255468164857
40
0.230524652610391
40
0.258638574156586
40
0.286597528141611
40
0.314401814842187
40
0.342051739574425
40
0.369547612796928
40
0.396889750216212
40
0.42407847289454
40
0.451114107360166
40
0.477996985720067
40
0.504727445775238
40
0.561488983729874
40
0.617809285513786
40
0.673691834175032
40
0.729140195261478
40
0.784158018742402
40
0.838749040950687
40
0.892917086543318
40
0.946666070477566
40
1
40
1
40
1
40
1
41
1
10
288.125453187465
20
-5.17924610035138
30
0
41
1
10
288.102766895168
20
-5.11840715603984
30
0
41
1
10
288.057515761919
20
-4.99705496945796
30
0
41
1
10
287.990549709963
20
-4.81424247190512
30
0
41
1
10
287.924483157662
20
-4.63152397905873
30
0
41
1
10
287.859367543269
20
-4.44884573465799
30
0
41
1
10
287.795189194877
20
-4.26627083132627
30
0
41
1
10
287.731951746023
20
-4.08383043436513
30
0
41
1
10
287.669654230819
20
-3.90156332302757
30
0
41
1
10
287.608296905776
20
-3.71950538049396
30
0
41
1
10
287.547879702533
20
-3.53769238666641
30
0
41
1
10
287.4884026391
20
-3.35615927597638
30
0
41
1
10
287.429865710421
20
-3.17494033478641
30
0
41
1
10
287.372268918004
20
-2.99406915043164
30
0
41
1
10
287.315612260031
20
-2.81357862310574
30
0
41
1
10
287.259895741442
20
-2.63350097447918
30
0
41
1
10
287.205119343667
20
-2.4538677091814
30
0
41
1
10
287.151283134766
20
-2.274709768121
30
0
41
1
10
287.098386862353
20
-2.09605696888323
30
0
41
1
10
287.02687610213
20
-1.85089914050647
30
0
41
1
10
286.938055774377
20
-1.5391116883786
30
0
41
1
10
286.833678181853
20
-1.16053388777763
30
0
41
1
10
286.733103737716
20
-0.783372230611036
30
0
41
1
10
286.636331022179
20
-0.407871726972871
30
0
41
1
10
286.543365963752
20
-0.0342678891019261
30
0
41
1
10
286.4541865553
20
0.337212238460609
30
0
41
1
10
286.368874061189
20
0.70634445164157
30
0
41
1
10
286.28712873977
20
1.07293081555298
30
0
41
1
10
286.235548545308
20
1.31638946356216
30
0
41
1
10
286.209858410745
20
1.43764696352551
30
0
0
SPLINE
5
16B
100
AcDbEntity
8
1
62
256
6
ByLayer
370
18
48
1
60
0
100
AcDbSpline
70
4
71
3
72
8
73
4
40
0
40
0
40
0
40
0
40
1
40
1
40
1
40
1
41
1
10
279.405271175576
20
14.3731261989789
30
0
41
1
10
279.4049319972
20
14.5890393647747
30
0
41
1
10
279.404591761231
20
14.8046189029571
30
0
41
1
10
279.404250494887
20
15.0198608960137
30
0
0
SPLINE
5
16C
100
AcDbEntity
8
1
62
256
6
ByLayer
370
18
48
1
60
0
100
AcDbSpline
70
4
71
3
72
20
73
16
40
0
40
0
40
0
40
0
40
0.24999999999999
40
0.24999999999999
40
0.312499999999988
40
0.312499999999988
40
0.374999999999985
40
0.374999999999985
40
0.499999999999988
40
0.499999999999988
40
0.624999999999991
40
0.624999999999991
40
0.749999999999994
40
0.749999999999994
40
1
40
1
40
1
40
1
41
1
10
298.651265532637
20
-1.46552979628174
30
0
41
1
10
298.595963801774
20
-1.70483572257993
30
0
41
1
10
298.528263143937
20
-1.97251066928791
30
0
41
1
10
298.428740874772
20
-2.34118775409345
30
0
41
1
10
298.408053327529
20
-2.41674698828942
30
0
41
1
10
298.365584993988
20
-2.56982433878085
30
0
41
1
10
298.343762082
20
-2.64750518314531
30
0
41
1
10
298.276566432045
20
-2.88389793934408
30
0
41
1
10
298.229471785924
20
-3.04595036293145
30
0
41
1
10
298.130818162403
20
-3.37871603854026
30
0
41
1
10
298.079254345653
20
-3.54943867893053
30
0
41
1
10
297.971669378696
20
-3.89953121232989
30
0
41
1
10
297.91539561938
20
-4.0796795087638
30
0
41
1
10
297.742588703974
20
-4.62440134196558
30
0
41
1
10
297.621614590011
20
-4.99491344053556
30
0
41
1
10
297.494964733913
20
-5.37267006791961
30
0
0
SPLINE
5
16D
100
AcDbEntity
8
1
62
256
6
ByLayer
370
18
48
1
60
0
100
AcDbSpline
70
4
71
3
72
9
73
5
40
0
40
0
40
0
40
0
40
0.4973229879583
40
1
40
1
40
1
40
1
41
1
10
279.500000000908
20
14.1909144474421
30
0
41
1
10
279.48447807028
20
14.2212063861427
30
0
41
1
10
279.453267104762
20
14.2821163771023
30
0
41
1
10
279.421326821998
20
14.3426815034319
30
0
41
1
10
279.405271176095
20
14.3731262001692
30
0
0
SPLINE
5
16E
100
AcDbEntity
8
1
62
256
6
ByLayer
370
18
48
1
60
0
100
AcDbSpline
70
4
71
1
72
4
73
2
40
0
40
0
40
1
40
1
41
1
10
288.240748645232
20
-5.10000890206754
30
0
41
1
10
288.243936801053
20
-5.17005443849658
30
0
0
SPLINE
5
16F
100
AcDbEntity
8
1
62
256
6
ByLayer
370
18
48
1
60
0
100
AcDbSpline
70
4
71
3
72
8
73
4
40
0
40
0
40
0
40
0
40
1
40
1
40
1
40
1
41
1
10
293.975941062308
20
15.7504530186599
30
0
41
1
10
294.48947478565
20
14.2174280719135
30
0
41
1
10
294.993742747744
20
12.6923903531474
30
0
41
1
10
295.48909462421
20
11.1750384368262
30
0
0
SPLINE
5
170
100
AcDbEntity
8
1
62
256
6
ByLayer
370
18
48
1
60
0
100
AcDbSpline
70
4
71
3
72
32
73
28
40
0
40
0
40
0
40
0
40
0.124999999999986
40
0.124999999999986
40
0.187499999999978
40
0.187499999999978
40
0.24999999999997
40
0.24999999999997
40
0.312499999999962
40
0.312499999999962
40
0.374999999999955
40
0.374999999999955
40
0.499999999999939
40
0.499999999999939
40
0.562499999999943
40
0.562499999999943
40
0.624999999999946
40
0.624999999999946
40
0.68749999999995
40
0.68749999999995
40
0.749999999999954
40
0.749999999999954
40
0.874999999999962
40
0.874999999999962
40
0.937499999999981
40
0.937499999999981
40
1
40
1
40
1
40
1
41
1
10
267
20
-8.55575848611991
30
0
41
1
10
267
20
-8.74536457286032
30
0
41
1
10
266.974033883992
20
-8.92830203049539
30
0
41
1
10
266.89763988589
20
-9.19342150475666
30
0
41
1
10
266.865784846496
20
-9.28043269911319
30
0
41
1
10
266.789345157267
20
-9.45053248184388
30
0
41
1
10
266.74535432539
20
-9.53237771453377
30
0
41
1
10
266.646256447459
20
-9.69008503689642
30
0
41
1
10
266.59114811943
20
-9.76594600357038
30
0
41
1
10
266.469788207399
20
-9.91189769480542
30
0
41
1
10
266.403244178664
20
-9.98225745604998
30
0
41
1
10
266.188160936201
20
-10.1828957852039
30
0
41
1
10
266.027396936467
20
-10.3003376714054
30
0
41
1
10
265.760723031925
20
-10.4542535271596
30
0
41
1
10
265.66706140504
20
-10.5020188035696
30
0
41
1
10
265.472916781791
20
-10.5889980867807
30
0
41
1
10
265.373262575962
20
-10.6279030616532
30
0
41
1
10
265.168919683058
20
-10.6970285161704
30
0
41
1
10
265.064230676773
20
-10.727247906729
30
0
41
1
10
264.849750722804
20
-10.779098599579
30
0
41
1
10
264.739388904887
20
-10.8008131464732
30
0
41
1
10
264.404261185278
20
-10.8520597960969
30
0
41
1
10
264.179171159402
20
-10.8675537711757
30
0
41
1
10
263.839078879012
20
-10.8637142847601
30
0
41
1
10
263.724837825864
20
-10.8578221007305
30
0
41
1
10
263.49776754488
20
-10.8366649975915
30
0
41
1
10
263.385411507821
20
-10.8214871983901
30
0
41
1
10
263.274234313201
20
-10.8016513995603
30
0
0
SPLINE
5
171
100
AcDbEntity
8
1
62
256
6
ByLayer
370
18
48
1
60
0
100
AcDbSpline
70
4
71
3
72
8
73
4
40
0
40
0
40
0
40
0
40
1
40
1
40
1
40
1
41
1
10
288.243936539711
20
-5.17004868587799
30
0
41
1
10
288.204437228017
20
-5.17314316912984
30
0
41
1
10
288.164942405627
20
-5.17614615065503
30
0
41
1
10
288.125452076664
20
-5.17905754981979
30
0
0
SPLINE
5
172
100
AcDbEntity
8
1
62
256
6
ByLayer
370
13
48
1
60
0
100
AcDbSpline
70
4
71
3
72
20
73
16
40
0
40
0
40
0
40
0
40
0.124596803654739
40
0.249193607309479
40
0.373790410964218
40
0.404939611877902
40
0.436088812791588
40
0.498387214618957
40
0.622984018273696
40
0.747580821928436
40
0.809879223755805
40
0.84102842466949
40
0.872177625583175
40
0.996774429237914
40
1
40
1
40
1
40
1
41
1
10
279.5
20
11.8129557668611
30
0
41
1
10
280.164162253292
20
11.8429447470646
30
0
41
1
10
281.492627711387
20
11.8869526211606
30
0
41
1
10
283.48465763555
20
11.9082758952128
30
0
41
1
10
284.978538661436
20
11.8933571750312
30
0
41
1
10
285.974455117093
20
11.87164396707
30
0
41
1
10
286.638542415923
20
11.8548196899701
30
0
41
1
10
287.800811116637
20
11.8152243980666
30
0
41
1
10
289.461241179034
20
11.7307265270111
30
0
41
1
10
291.121057922585
20
11.6118094506137
30
0
41
1
10
292.282968952776
20
11.5117789999297
30
0
41
1
10
292.946997204307
20
11.4505931626928
30
0
41
1
10
293.943202477955
20
11.3534108742053
30
0
41
1
10
294.790616853912
20
11.2596267586378
30
0
41
1
10
295.471902574884
20
11.1771248646482
30
0
41
1
10
295.489094623679
20
11.1750384384521
30
0
0
SPLINE
5
173
100
AcDbEntity
8
1
62
256
6
ByLayer
370
18
48
1
60
0
100
AcDbSpline
70
4
71
3
72
8
73
4
40
0
40
0
40
0
40
0
40
1
40
1
40
1
40
1
41
1
10
261.930914630881
20
-10.5597764992005
30
0
41
1
10
262.223998892462
20
-10.5048047761333
30
0
41
1
10
262.527240727209
20
-10.4617860542295
30
0
41
1
10
262.838809875806
20
-10.428566555662
30
0
0
SPLINE
5
174
100
AcDbEntity
8
1
62
256
6
ByLayer
370
18
48
1
60
0
100
AcDbSpline
70
4
71
3
72
8
73
4
40
0
40
0
40
0
40
0
40
1
40
1
40
1
40
1
41
1
10
286.20985943236
20
1.43763954295051
30
0
41
1
10
286.250301415189
20
1.43750223504514
30
0
41
1
10
286.290743397053
20
1.43745028028155
30
0
41
1
10
286.331185377808
20
1.43748354791495
30
0
0
SPLINE
5
175
100
AcDbEntity
8
1
62
256
6
ByLayer
370
13
48
1
60
0
100
AcDbSpline
70
4
71
3
72
16
73
12
40
0
40
0
40
0
40
0
40
0.419564442724533
40
0.419564442724533
40
0.629346664086799
40
0.629346664086799
40
0.734237774767933
40
0.734237774767933
40
0.839128885449066
40
0.839128885449066
40
1
40
1
40
1
40
1
41
1
10
295.042301877675
20
-2.58094488338119
30
0
41
1
10
294.637017716953
20
-2.29767551470266
30
0
41
1
10
294.128565459799
20
-1.88719326947543
30
0
41
1
10
293.545497325316
20
-1.33470005514712
30
0
41
1
10
293.2934368648
20
-1.07657208529696
30
0
41
1
10
293.008248001461
20
-0.758413391510089
30
0
41
1
10
292.883100846753
20
-0.612782626534198
30
0
41
1
10
292.695542754209
20
-0.384476796845434
30
0
41
1
10
292.571018204838
20
-0.225955279813178
30
0
41
1
10
292.338728304601
20
0.0842205297079772
30
0
41
1
10
292.163907623123
20
0.336708506172755
30
0
41
1
10
292.013330241233
20
0.569949685753983
30
0
0
SPLINE
5
176
100
AcDbEntity
8
1
62
256
6
ByLayer
370
18
48
1
60
0
100
AcDbSpline
70
4
71
3
72
10
73
6
40
0
40
0
40
0
40
0
40
0.925176357612469
40
0.925176357612469
40
1
40
1
40
1
40
1
41
1
10
279.999781720321
20
-16.3436773668571
30
0
41
1
10
281.168065941649
20
-16.411224351016
30
0
41
1
10
282.334893690794
20
-16.4490527862218
30
0
41
1
10
283.59443857589
20
-16.4584853576353
30
0
41
1
10
283.688671895656
20
-16.4590004604456
30
0
41
1
10
283.78289431018
20
-16.4593246965432
30
0
0
SPLINE
5
177
100
AcDbEntity
8
1
62
256
6
ByLayer
370
18
48
1
60
0
100
AcDbSpline
70
4
71
3
72
8
73
4
40
0
40
0
40
0
40
0
40
1
40
1
40
1
40
1
41
1
10
279.299999999999
20
4.98811033948104
30
0
41
1
10
278.37881206881
20
5.05924231800509
30
0
41
1
10
277.457676497578
20
5.12593489897361
30
0
41
1
10
276.536535644855
20
5.18816782633908
30
0
0
SPLINE
5
178
100
AcDbEntity
8
1
62
256
6
ByLayer
370
18
48
1
60
0
100
AcDbSpline
70
4
71
3
72
16
73
12
40
0
40
0
40
0
40
0
40
0.304463190256545
40
0.304463190256545
40
0.456694785384817
40
0.456694785384817
40
0.60892638051309
40
0.60892638051309
40
0.913389570769641
40
0.913389570769641
40
1
40
1
40
1
40
1
41
1
10
33.8405739368652
20
15.0751912495779
30
0
41
1
10
33.6912365734008
20
15.0962411789751
30
0
41
1
10
33.558653469115
20
15.1161210572186
30
0
41
1
10
33.3842748317074
20
15.1423639697201
30
0
41
1
10
33.3302591644903
20
15.1505161399696
30
0
41
1
10
33.2306867778638
20
15.1653136215893
30
0
41
1
10
33.1852754882096
20
15.1719341673828
30
0
41
1
10
33.0646489905689
20
15.1887455349083
30
0
41
1
10
33.0038091058304
20
15.1960552493019
30
0
41
1
10
32.9508642231105
20
15.1995701153826
30
0
41
1
10
32.9407448198991
20
15.1999712689556
30
0
41
1
10
32.9322666623863
20
15.1999868671952
30
0
0
SPLINE
5
179
100
AcDbEntity
8
1
62
256
6
ByLayer
370
18
48
1
60
0
100
AcDbSpline
70
4
71
4
72
10
73
5
40
0
40
0
40
0
40
0
40
0
40
1
40
1
40
1
40
1
40
1
41
0.997136484839127
10
279.500000000001
20
5.55000000000004
30
0
41
0.99774590183
10
279.500000000001
20
5.24926819547433
30
0
41
0.998440531967107
10
279.500000000002
20
4.97627993593861
30
0
41
0.999110765207766
10
279.500000000002
20
4.73295584623126
30
0
41
0.999554357371486
10
279.500000000002
20
4.51974851003033
30
0
0
SPLINE
5
17A
100
AcDbEntity
8
1
62
256
6
ByLayer
370
18
48
1
60
0
100
AcDbSpline
70
4
71
3
72
56
73
52
40
0
40
0
40
0
40
0
40
0.0246076221350991
40
0.0246076221350991
40
0.0550249477391009
40
0.0550249477391009
40
0.0854422733431027
40
0.0854422733431027
40
0.115859598947105
40
0.115859598947105
40
0.146276924551106
40
0.146276924551106
40
0.176694250155108
40
0.176694250155108
40
0.20711157575911
40
0.20711157575911
40
0.267946226967115
40
0.267946226967115
40
0.298363552571117
40
0.298363552571117
40
0.32878087817512
40
0.32878087817512
40
0.389615529383125
40
0.389615529383125
40
0.420032854987126
40
0.420032854987126
40
0.450450180591128
40
0.450450180591128
40
0.511284831799131
40
0.511284831799131
40
0.541702157403133
40
0.541702157403133
40
0.572119483007134
40
0.572119483007134
40
0.632954134215138
40
0.632954134215138
40
0.66337145981914
40
0.66337145981914
40
0.693788785423142
40
0.693788785423142
40
0.754623436631145
40
0.754623436631145
40
0.815458087839149
40
0.815458087839149
40
0.876292739047153
40
0.876292739047153
40
0.937127390255156
40
0.937127390255156
40
0.99796204146316
40
0.99796204146316
40
1
40
1
40
1
40
1
41
1
10
254.657017874854
20
-11.0472749768633
30
0
41
1
10
253.664652110855
20
-11.2554327427088
30
0
41
1
10
252.672138659794
20
-11.4540951166673
30
0
41
1
10
250.451969812806
20
-11.8764488938795
30
0
41
1
10
249.225181735185
20
-12.0946843473002
30
0
41
1
10
246.772823247386
20
-12.5004369921383
30
0
41
1
10
245.54706448005
20
-12.6877739454199
30
0
41
1
10
243.095749346788
20
-13.0335961350736
30
0
41
1
10
241.870215841588
20
-13.192070702714
30
0
41
1
10
239.418271016165
20
-13.476222727873
30
0
41
1
10
238.191878672676
20
-13.602260177879
30
0
41
1
10
235.737233855792
20
-13.8206603072786
30
0
41
1
10
234.509514991373
20
-13.9129303585296
30
0
41
1
10
232.05600671491
20
-14.0624929707722
30
0
41
1
10
230.829691639202
20
-14.1198355861096
30
0
41
1
10
227.150746572334
20
-14.2379609612528
30
0
41
1
10
224.698118350761
20
-14.2442552520198
30
0
41
1
10
221.01457692437
20
-14.1465084496556
30
0
41
1
10
219.785892510295
20
-14.0960492727069
30
0
41
1
10
217.331253841558
20
-13.9607152293699
30
0
41
1
10
216.104667294261
20
-13.875824371124
30
0
41
1
10
212.426004019727
20
-13.5713194305963
30
0
41
1
10
209.975046927474
20
-13.3014213033536
30
0
41
1
10
206.294100129723
20
-12.7993244101234
30
0
41
1
10
205.065892965358
20
-12.6156771090133
30
0
41
1
10
202.611650303643
20
-12.2179115314154
30
0
41
1
10
201.385134255911
20
-12.0037366430564
30
0
41
1
10
197.705933539674
20
-11.3172778432441
30
0
41
1
10
195.253602522524
20
-10.8005964962628
30
0
41
1
10
191.571234683658
20
-9.94716218404736
30
0
41
1
10
190.342508388914
20
-9.64947889254407
30
0
41
1
10
187.886984087453
20
-9.03116093554908
30
0
41
1
10
186.660078683063
20
-8.71051634359614
30
0
41
1
10
182.980830327879
20
-7.71741155473876
30
0
41
1
10
180.529989152036
20
-7.01347272326703
30
0
41
1
10
176.850041663369
20
-5.91004887975615
30
0
41
1
10
175.622212872984
20
-5.53416935906304
30
0
41
1
10
173.167025931938
20
-4.77026245732071
30
0
41
1
10
171.940180372984
20
-4.38240376369555
30
0
41
1
10
168.260428901935
20
-3.20521883611156
30
0
41
1
10
165.808315189812
20
-2.40214576336808
30
0
41
1
10
160.900030498727
20
-0.778189773272487
30
0
41
1
10
158.442671585941
20
0.0428979704748826
30
0
41
1
10
153.532415368031
20
1.67974412205658
30
0
41
1
10
151.077050377502
20
2.49650237470598
30
0
41
1
10
146.167859029904
20
4.09579692431313
30
0
41
1
10
143.71144228524
20
4.87895966039926
30
0
41
1
10
138.804094960849
20
6.38253675041599
30
0
41
1
10
136.351957343334
20
7.10322432782769
30
0
41
1
10
133.81609004077
20
7.80815740720823
30
0
41
1
10
133.733890455924
20
7.83096379748332
30
0
41
1
10
133.651689013028
20
7.85372659762626
30
0
0
SPLINE
5
17B
100
AcDbEntity
8
1
62
256
6
ByLayer
370
18
48
1
60
0
100
AcDbSpline
70
4
71
2
72
9
73
6
40
0
40
0
40
0
40
0.25
40
0.5
40
0.75
40
1
40
1
40
1
41
1
10
286.331184322928
20
1.43749289014676
30
0
41
1
10
286.506025683853
20
0.610893924382196
30
0
41
1
10
286.924862847065
20
-1.0529869809169
30
0
41
1
10
287.406141878568
20
-2.70074042499374
30
0
41
1
10
287.945931585608
20
-4.318842567394
30
0
41
1
10
288.240748018935
20
-5.09999939376902
30
0
0
SPLINE
5
17C
100
AcDbEntity
8
1
62
256
6
ByLayer
370
18
48
1
60
0
100
AcDbSpline
70
4
71
3
72
8
73
4
40
0
40
0
40
0
40
0
40
1
40
1
40
1
40
1
41
1
10
286.516836409997
20
1.74366885760216
30
0
41
1
10
286.455428882831
20
1.6403083754285
30
0
41
1
10
286.393548955105
20
1.53823720983991
30
0
41
1
10
286.331186298721
20
1.43748354918026
30
0
0
SPLINE
5
17D
100
AcDbEntity
8
1
62
256
6
ByLayer
370
18
48
1
60
0
100
AcDbSpline
70
4
71
3
72
10
73
6
40
0
40
0
40
0
40
0
40
0.5
40
0.5
40
1
40
1
40
1
40
1
41
1
10
297.395235955638
20
5.67012959777762
30
0
41
1
10
297.045947410913
20
5.60596693538898
30
0
41
1
10
296.692872400286
20
5.55472021231614
30
0
41
1
10
295.986148462251
20
5.46793101459983
30
0
41
1
10
295.63172963092
20
5.43241253937899
30
0
41
1
10
295.276636391753
20
5.40192046574981
30
0
0
SPLINE
5
17E
100
AcDbEntity
8
1
62
256
6
ByLayer
370
13
48
1
60
0
100
AcDbSpline
70
4
71
3
72
10
73
6
40
0
40
0
40
0
40
0
40
0.0018135934860239
40
0.0018135934860239
40
1
40
1
40
1
40
1
41
1
10
297.110184376035
20
1.57418683978162
30
0
41
1
10
297.110170564962
20
1.57419634808664
30
0
41
1
10
297.110156753838
20
1.57420585632519
30
0
41
1
10
297.102541474453
20
1.57944869104136
30
0
41
1
10
297.094955639904
20
1.58470204708351
30
0
41
1
10
297.087385773046
20
1.5899756103353
30
0
0
SPLINE
5
17F
100
AcDbEntity
8
1
62
256
6
ByLayer
370
18
48
1
60
0
100
AcDbSpline
70
4
71
3
72
8
73
4
40
0
40
0
40
0
40
0
40
1
40
1
40
1
40
1
41
1
10
279.404250424142
20
15.0198609379649
30
0
41
1
10
279.402833604996
20
15.0211145688235
30
0
41
1
10
279.401416796942
20
15.0223680719152
30
0
41
1
10
279.4
20
15.0236214472069
30
0
0
SPLINE
5
180
100
AcDbEntity
8
1
62
256
6
ByLayer
370
18
48
1
60
0
100
AcDbSpline
70
4
71
3
72
8
73
4
40
0
40
0
40
0
40
0
40
1
40
1
40
1
40
1
41
1
10
23.5093790659908
20
-0.397015050974545
30
0
41
1
10
23.5961308207211
20
-0.398381922217624
30
0
41
1
10
23.6828222473013
20
-0.396288224631661
30
0
41
1
10
23.7694577716985
20
-0.390877895661106
30
0
0
SPLINE
5
181
100
AcDbEntity
8
1
62
256
6
ByLayer
370
18
48
1
60
0
100
AcDbSpline
70
4
71
3
72
16
73
12
40
0
40
0
40
0
40
0
40
0.125
40
0.125
40
0.25
40
0.25
40
0.5
40
0.5
40
0.75
40
0.75
40
1
40
1
40
1
40
1
41
1
10
291.601558925991
20
2.78329870929267
30
0
41
1
10
291.690301106914
20
2.88577589333846
30
0
41
1
10
291.783759158217
20
2.99056316789867
30
0
41
1
10
291.977220932769
20
3.20136598836709
30
0
41
1
10
292.077261328574
20
3.30744972437671
30
0
41
1
10
292.387110590792
20
3.62735387874648
30
0
41
1
10
292.606638346603
20
3.8428015110411
30
0
41
1
10
293.071615348187
20
4.27602813179595
30
0
41
1
10
293.31806909494
20
4.49499373194004
30
0
41
1
10
293.827770284776
20
4.91995405823792
30
0
41
1
10
294.092188639903
20
5.12713494470029
30
0
41
1
10
294.367488865493
20
5.32672233686685
30
0
0
SPLINE
5
182
100
AcDbEntity
8
1
62
256
6
ByLayer
370
18
48
1
60
0
100
AcDbSpline
70
4
71
3
72
12
73
8
40
0
40
0
40
0
40
0
40
0.5
40
0.5
40
0.75
40
0.75
40
1
40
1
40
1
40
1
41
1
10
265.249288709278
20
12.7735097961306
30
0
41
1
10
265.382659274831
20
12.8003844356752
30
0
41
1
10
265.510224511732
20
12.8429645938227
30
0
41
1
10
265.693556259517
20
12.9284345051145
30
0
41
1
10
265.75332638499
20
12.960531273792
30
0
41
1
10
265.87025146603
20
13.0316918815147
30
0
41
1
10
265.927645268548
20
13.0709740976698
30
0
41
1
10
265.982552659504
20
13.1126614621675
30
0
0
SPLINE
5
183
100
AcDbEntity
8
1
62
256
6
ByLayer
370
18
48
1
60
0
100
AcDbSpline
70
4
71
3
72
12
73
8
40
0
40
0
40
0
40
0
40
0.414295831063952
40
0.414295831063952
40
0.707147874958436
40
0.707147874958436
40
1
40
1
40
1
40
1
41
1
10
279.499999999591
20
-14.9189392341928
30
0
41
1
10
279.486784434538
20
-14.9328792692819
30
0
41
1
10
279.473565817407
20
-14.9468180920403
30
0
41
1
10
279.450998230833
20
-14.9706077714826
30
0
41
1
10
279.441650774671
20
-14.9804592261659
30
0
41
1
10
279.422952852408
20
-15.0001609602677
30
0
41
1
10
279.413602385659
20
-15.0100112403682
30
0
41
1
10
279.404250423664
20
-15.0198609386496
30
0
0
SPLINE
5
184
100
AcDbEntity
8
1
62
256
6
ByLayer
370
18
48
1
60
0
100
AcDbSpline
70
4
71
3
72
10
73
6
40
0
40
0
40
0
40
0
40
0.25494491282955
40
0.65266439548908
40
1
40
1
40
1
40
1
41
1
10
279.51317231937
20
-14.4331256218542
30
0
41
1
10
279.510948246254
20
-14.4377242953744
30
0
41
1
10
279.505960922912
20
-14.449478679547
30
0
41
1
10
279.500976210566
20
-14.4673725026436
30
0
41
1
10
279.500310395072
20
-14.4805049546281
30
0
41
1
10
279.5
20
-14.4866271437484
30
0
0
SPLINE
5
185
100
AcDbEntity
8
1
62
256
6
ByLayer
370
13
48
1
60
0
100
AcDbSpline
70
4
71
2
72
6
73
3
40
0
40
0
40
0
40
1
40
1
40
1
41
0.998871961228234
10
297.039846553976
20
1.54987573155826
30
0
41
0.92444779413695
10
295.465468959292
20
-0.445476147096409
30
0
41
1
10
295.042301877675
20
-2.58094488338119
30
0
0
SPLINE
5
186
100
AcDbEntity
8
1
62
256
6
ByLayer
370
18
48
1
60
0
100
AcDbSpline
70
4
71
3
72
14
73
10
40
0
40
0
40
0
40
0
40
0.372096585868579
40
0.372096585868579
40
0.558144878802869
40
0.558144878802869
40
0.744193171737158
40
0.744193171737158
40
1
40
1
40
1
40
1
41
1
10
33.8405739368652
20
-15.0751912495779
30
0
41
1
10
33.6912365734008
20
-15.0962411789751
30
0
41
1
10
33.558653469115
20
-15.1161210572186
30
0
41
1
10
33.3842748317074
20
-15.1423639697201
30
0
41
1
10
33.3302591644903
20
-15.1505161399696
30
0
41
1
10
33.2306867778638
20
-15.1653136215893
30
0
41
1
10
33.1852754882096
20
-15.1719341673828
30
0
41
1
10
33.0897815801602
20
-15.1852428782885
30
0
41
1
10
33.0437493722449
20
-15.191105588164
30
0
41
1
10
33.0069839504429
20
-15.1949066336234
30
0
0
SPLINE
5
187
100
AcDbEntity
8
1
62
256
6
ByLayer
370
18
48
1
60
0
100
AcDbSpline
70
4
71
3
72
8
73
4
40
0
40
0
40
0
40
0
40
1
40
1
40
1
40
1
41
1
10
32.9322665963513
20
-15.1999868673166
30
0
41
1
10
32.9109413786385
20
-15.2000260967713
30
0
41
1
10
32.900000012782
20
-15.1976259903795
30
0
41
1
10
32.9000000127859
20
-15.192654823576
30
0
0
SPLINE
5
188
100
AcDbEntity
8
1
62
256
6
ByLayer
370
18
48
1
60
0
100
AcDbSpline
70
4
71
3
72
82
73
78
40
0
40
0
40
0
40
0
40
0.0023023525971364
40
0.0023023525971364
40
0.0278843435561842
40
0.0278843435561842
40
0.053466334515232
40
0.053466334515232
40
0.0790483254742797
40
0.0790483254742797
40
0.104630316433328
40
0.104630316433328
40
0.130212307392375
40
0.130212307392375
40
0.181376289310471
40
0.181376289310471
40
0.206958280269519
40
0.206958280269519
40
0.232540271228566
40
0.232540271228566
40
0.258122262187614
40
0.258122262187614
40
0.283704253146662
40
0.283704253146662
40
0.30928624410571
40
0.30928624410571
40
0.334868235064757
40
0.334868235064757
40
0.360450226023805
40
0.360450226023805
40
0.386032216982853
40
0.386032216982853
40
0.411614207941901
40
0.411614207941901
40
0.437196198900949
40
0.437196198900949
40
0.462778189859997
40
0.462778189859997
40
0.488360180819044
40
0.488360180819044
40
0.513942171778092
40
0.513942171778092
40
0.53952416273714
40
0.53952416273714
40
0.565106153696188
40
0.565106153696188
40
0.590688144655235
40
0.590688144655235
40
0.616270135614283
40
0.616270135614283
40
0.641852126573331
40
0.641852126573331
40
0.667434117532379
40
0.667434117532379
40
0.693016108491427
40
0.693016108491427
40
0.718598099450474
40
0.718598099450474
40
0.744180090409522
40
0.744180090409522
40
0.76976208136857
40
0.76976208136857
40
0.795344072327618
40
0.795344072327618
40
0.820926063286666
40
0.820926063286666
40
0.846508054245714
40
0.846508054245714
40
0.872090045204761
40
0.872090045204761
40
0.897672036163809
40
0.897672036163809
40
0.923254027122857
40
0.923254027122857
40
0.948836018081905
40
0.948836018081905
40
1
40
1
40
1
40
1
41
1
10
173.152044102476
20
-14.7055305050181
30
0
41
1
10
173.045104049237
20
-14.7151756611538
30
0
41
1
10
172.938168581927
20
-14.7246819621287
30
0
41
1
10
171.643114993887
20
-14.8381279317019
30
0
41
1
10
170.455522637924
20
-14.9250534801066
30
0
41
1
10
168.07979892582
20
-15.0637794179459
30
0
41
1
10
166.891524022874
20
-15.1155768701582
30
0
41
1
10
164.514191960826
20
-15.1841745099498
30
0
41
1
10
163.325604454759
20
-15.200952016057
30
0
41
1
10
160.950295498105
20
-15.1989645525878
30
0
41
1
10
159.763160841808
20
-15.1801975069523
30
0
41
1
10
157.388682142149
20
-15.107017137523
30
0
41
1
10
156.201139076222
20
-15.0525523757864
30
0
41
1
10
152.63731984284
20
-14.836666828096
30
0
41
1
10
150.261824691378
20
-14.6237690429687
30
0
41
1
10
146.697194907951
20
-14.2037680497995
30
0
41
1
10
145.508326374452
20
-14.0469386840288
30
0
41
1
10
143.13204065838
20
-13.7009962496859
30
0
41
1
10
141.944406348614
20
-13.5117851056691
30
0
41
1
10
139.568759642276
20
-13.1026691386534
30
0
41
1
10
138.380576929207
20
-12.8830263668742
30
0
41
1
10
136.002985125238
20
-12.4145000179415
30
0
41
1
10
134.814235985121
20
-12.1653757407177
30
0
41
1
10
132.43863404141
20
-11.6383124936761
30
0
41
1
10
131.251363119468
20
-11.3604441526493
30
0
41
1
10
128.87665260846
20
-10.7780586897524
30
0
41
1
10
127.688944961784
20
-10.4733707089409
30
0
41
1
10
125.313291520053
20
-9.84065028115882
30
0
41
1
10
124.125721661098
20
-9.51311363071207
30
0
41
1
10
121.749972474813
20
-8.83843940551259
30
0
41
1
10
120.561980426777
20
-8.49090109623984
30
0
41
1
10
118.185468092184
20
-7.77611098001796
30
0
41
1
10
116.996587717731
20
-7.40889500452886
30
0
41
1
10
114.620364956952
20
-6.65817030284961
30
0
41
1
10
113.432730520149
20
-6.27449552467638
30
0
41
1
10
111.05725697538
20
-5.49345957185639
30
0
41
1
10
109.869282779588
20
-5.09644918988909
30
0
41
1
10
107.491734088538
20
-4.29250689347762
30
0
41
1
10
106.302956785505
20
-3.88525666328732
30
0
41
1
10
103.927241794913
20
-3.06072989968914
30
0
41
1
10
102.739923034198
20
-2.64362973060921
30
0
41
1
10
100.365139626957
20
-1.80306226771535
30
0
41
1
10
99.1773354222659
20
-1.37943089277593
30
0
41
1
10
96.8019557864878
20
-0.530139856766112
30
0
41
1
10
95.6146721419881
20
-0.104910962573143
30
0
41
1
10
93.2392320393131
20
0.741990855951713
30
0
41
1
10
92.0512302769045
20
1.16410012354382
30
0
41
1
10
89.6746114944088
20
2.00549424127124
30
0
41
1
10
88.4857006408984
20
2.42471223491097
30
0
41
1
10
86.1094452048425
20
3.25636104146858
30
0
41
1
10
84.9217440683987
20
3.66892972947676
30
0
41
1
10
82.5462226757697
20
4.48487883439935
30
0
41
1
10
81.3583399716916
20
4.88808422283211
30
0
41
1
10
78.9807742402072
20
5.68083167545663
30
0
41
1
10
77.791946420763
20
6.07040879156625
30
0
41
1
10
75.4159052040828
20
6.83630100120359
30
0
41
1
10
74.2284307571143
20
7.21255377130632
30
0
41
1
10
71.8533750962021
20
7.94850378360508
30
0
41
1
10
70.665406806946
20
8.3083076708308
30
0
41
1
10
68.2900787423061
20
9.00764404309737
30
0
41
1
10
67.1029617807031
20
9.34704042622525
30
0
41
1
10
64.7278775007934
20
10.0011591368186
30
0
41
1
10
63.5399197996066
20
10.3159525642852
30
0
41
1
10
61.1632422194595
20
10.9213134336509
30
0
41
1
10
59.9743557649934
20
11.2119008146996
30
0
41
1
10
57.5981836018918
20
11.7662130164154
30
0
41
1
10
56.4105070284953
20
12.030036653105
30
0
41
1
10
54.0350205698725
20
12.5293006047553
30
0
41
1
10
52.8472299703543
20
12.7647505133237
30
0
41
1
10
50.4698876748084
20
13.2047526841129
30
0
41
1
10
49.2811824841517
20
13.4090950964063
30
0
41
1
10
46.9048181338859
20
13.7867412368592
30
0
41
1
10
45.7170869910062
20
13.9601231817197
30
0
41
1
10
43.3415698239339
20
14.2745412882484
30
0
41
1
10
42.1533629234014
20
14.4155935390141
30
0
41
1
10
38.5905257295826
20
14.7875853528463
30
0
41
1
10
36.2176127923536
20
14.9670066185996
30
0
41
1
10
33.8405739368647
20
15.0751912495778
30
0
0
SPLINE
5
189
100
AcDbEntity
8
1
62
256
6
ByLayer
370
18
48
1
60
0
100
AcDbSpline
70
4
71
3
72
8
73
4
40
0
40
0
40
0
40
0
40
1
40
1
40
1
40
1
41
1
10
279.999781720321
20
16.3436773668571
30
0
41
1
10
279.833207615511
20
16.2744635529303
30
0
41
1
10
279.666615754611
20
16.204749116424
30
0
41
1
10
279.5
20
16.1345484619956
30
0
0
SPLINE
5
18A
100
AcDbEntity
8
1
62
256
6
ByLayer
370
18
48
1
60
0
100
AcDbSpline
70
4
71
3
72
8
73
4
40
0
40
0
40
0
40
0
40
1
40
1
40
1
40
1
41
1
10
298.978589349864
20
0.0964929018028045
30
0
41
1
10
298.966491910291
20
0.137737036648531
30
0
41
1
10
298.954434456559
20
0.178904775988684
30
0
41
1
10
298.94241678968
20
0.219996500002907
30
0
0
SPLINE
5
18B
100
AcDbEntity
8
SK1
62
256
6
ByLayer
370
18
48
1
60
0
100
AcDbSpline
70
4
71
3
72
70
73
66
40
0
40
0
40
0
40
0
40
0.0312500000000009
40
0.0312500000000009
40
0.0468750000000009
40
0.0468750000000009
40
0.0625000000000008
40
0.0625000000000008
40
0.0781250000000008
40
0.0781250000000008
40
0.0937500000000008
40
0.0937500000000008
40
0.125000000000001
40
0.125000000000001
40
0.156250000000001
40
0.156250000000001
40
0.1875
40
0.1875
40
0.21875
40
0.21875
40
0.25
40
0.25
40
0.3125
40
0.3125
40
0.34375
40
0.34375
40
0.375
40
0.375
40
0.4375
40
0.4375
40
0.5
40
0.5
40
0.5625
40
0.5625
40
0.59375
40
0.59375
40
0.625
40
0.625
40
0.687499999999999
40
0.687499999999999
40
0.749999999999999
40
0.749999999999999
40
0.781249999999999
40
0.781249999999999
40
0.812499999999999
40
0.812499999999999
40
0.843749999999999
40
0.843749999999999
40
0.859374999999999
40
0.859374999999999
40
0.874999999999999
40
0.874999999999999
40
0.90625
40
0.90625
40
0.921875
40
0.921875
40
0.9375
40
0.9375
40
0.953125
40
0.953125
40
0.96875
40
0.96875
40
0.984375
40
0.984375
40
1
40
1
40
1
40
1
41
1
10
-6.5
20
-8.08217792429738
30
0
41
1
10
-6.28762555995463
20
-8.08217792429738
30
0
41
1
10
-6.0810498691127
20
-8.05368849473035
30
0
41
1
10
-5.77910858566648
20
-7.97161548876423
30
0
41
1
10
-5.68022589061654
20
-7.93763423525914
30
0
41
1
10
-5.49054490854958
20
-7.85917405972873
30
0
41
1
10
-5.398995235009
20
-7.81450307998708
30
0
41
1
10
-5.22185646564661
20
-7.71512651881918
30
0
41
1
10
-5.13594421810531
20
-7.66012522444171
30
0
41
1
10
-4.9730710583807
20
-7.54325327411436
30
0
41
1
10
-4.89566707429053
20
-7.48118572785879
30
0
41
1
10
-4.6739132088681
20
-7.28529466076768
30
0
41
1
10
-4.53991230602644
20
-7.14180694426813
30
0
41
1
10
-4.29416855767026
20
-6.83312930612388
30
0
41
1
10
-4.18521185387127
20
-6.6715007799863
30
0
41
1
10
-3.98806828865871
20
-6.33636750757177
30
0
41
1
10
-3.89994716555164
20
-6.16283546371301
30
0
41
1
10
-3.74020554839619
20
-5.80545940076314
30
0
41
1
10
-3.6683892050804
20
-5.62093024300796
30
0
41
1
10
-3.53937133315314
20
-5.24594125113808
30
0
41
1
10
-3.48231441550429
20
-5.05612691162614
30
0
41
1
10
-3.32871181677947
20
-4.48051810886963
30
0
41
1
10
-3.24948709448095
20
-4.08860232749163
30
0
41
1
10
-3.15366535436109
20
-3.49035454453516
30
0
41
1
10
-3.1256376318379
20
-3.28919601457946
30
0
41
1
10
-3.07615885164303
20
-2.8835794753536
30
0
41
1
10
-3.05468247616594
20
-2.6788066175184
30
0
41
1
10
-2.99892560884548
20
-2.06183265419932
30
0
41
1
10
-2.97341374459452
20
-1.65021464829943
30
0
41
1
10
-2.93990884487631
20
-0.826427708852918
30
0
41
1
10
-2.93195209632363
20
-0.414258490969502
30
0
41
1
10
-2.93190451240991
20
0.410616418566406
30
0
41
1
10
-2.93981190900011
20
0.823322087871986
30
0
41
1
10
-2.96496313204877
20
1.44279742981084
30
0
41
1
10
-2.97558958394542
20
1.64935895031218
30
0
41
1
10
-3.00193375507486
20
2.06262743969191
30
0
41
1
10
-3.01768796297789
20
2.26962385434214
30
0
41
1
10
-3.07336906956125
20
2.88522451010573
30
0
41
1
10
-3.12161720280069
20
3.29012272731185
30
0
41
1
10
-3.24933181748246
20
4.08777686756457
30
0
41
1
10
-3.32863739699849
20
4.48055429019126
30
0
41
1
10
-3.48310032098841
20
5.05891332672573
30
0
41
1
10
-3.54076942872437
20
5.25033331669707
30
0
41
1
10
-3.66965942312491
20
5.62428672514505
30
0
41
1
10
-3.74096306693001
20
5.80730424563461
30
0
41
1
10
-3.90070915193935
20
6.16438864035223
30
0
41
1
10
-3.98911623857579
20
6.33846735616979
30
0
41
1
10
-4.13836234295802
20
6.59169519349339
30
0
41
1
10
-4.19087366086718
20
6.67469064307952
30
0
41
1
10
-4.30098015289811
20
6.83590272214585
30
0
41
1
10
-4.35870319203545
20
6.91434756669076
30
0
41
1
10
-4.54085622294416
20
7.14267001525303
30
0
41
1
10
-4.67411746978665
20
7.28563237868227
30
0
41
1
10
-4.89762414313628
20
7.48283481508952
30
0
41
1
10
-4.97599664741573
20
7.54549364627977
30
0
41
1
10
-5.13838907908936
20
7.66173374977816
30
0
41
1
10
-5.22276337997239
20
7.71564866991193
30
0
41
1
10
-5.39862205954024
20
7.81428032092916
30
0
41
1
10
-5.49010121423035
20
7.85900465123581
30
0
41
1
10
-5.68125471270633
20
7.93804563435424
30
0
41
1
10
-5.77882786643026
20
7.97148061306467
30
0
41
1
10
-5.97815227640164
20
8.02577693282768
30
0
41
1
10
-6.07990178078997
20
8.04664365567402
30
0
41
1
10
-6.28791316484741
20
8.07490697119016
30
0
41
1
10
-6.39402083858315
20
8.08217792429738
30
0
41
1
10
-6.5
20
8.08217792429738
30
0
0
SPLINE
5
18C
100
AcDbEntity
8
SK1
62
256
6
ByLayer
370
18
48
1
60
0
100
AcDbSpline
70
4
71
3
72
70
73
66
40
0
40
0
40
0
40
0
40
0.03125
40
0.03125
40
0.0468749999999999
40
0.0468749999999999
40
0.0624999999999999
40
0.0624999999999999
40
0.0781249999999998
40
0.0781249999999998
40
0.0937499999999998
40
0.0937499999999998
40
0.125
40
0.125
40
0.15625
40
0.15625
40
0.1875
40
0.1875
40
0.218749999999999
40
0.218749999999999
40
0.249999999999999
40
0.249999999999999
40
0.312499999999999
40
0.312499999999999
40
0.343749999999999
40
0.343749999999999
40
0.374999999999999
40
0.374999999999999
40
0.437499999999999
40
0.437499999999999
40
0.499999999999999
40
0.499999999999999
40
0.562499999999999
40
0.562499999999999
40
0.593749999999999
40
0.593749999999999
40
0.624999999999999
40
0.624999999999999
40
0.687499999999999
40
0.687499999999999
40
0.749999999999999
40
0.749999999999999
40
0.781249999999999
40
0.781249999999999
40
0.812499999999999
40
0.812499999999999
40
0.843749999999999
40
0.843749999999999
40
0.859374999999999
40
0.859374999999999
40
0.874999999999999
40
0.874999999999999
40
0.906249999999999
40
0.906249999999999
40
0.921875
40
0.921875
40
0.9375
40
0.9375
40
0.953125
40
0.953125
40
0.96875
40
0.96875
40
0.984375
40
0.984375
40
1
40
1
40
1
40
1
41
1
10
-53.5
20
8.08217792429738
30
0
41
1
10
-53.7123744400454
20
8.08217792429738
30
0
41
1
10
-53.9189501308873
20
8.05368849473035
30
0
41
1
10
-54.2208914143335
20
7.9716154887642
30
0
41
1
10
-54.3197741093835
20
7.93763423525914
30
0
41
1
10
-54.5094550914504
20
7.85917405972873
30
0
41
1
10
-54.601004764991
20
7.81450307998708
30
0
41
1
10
-54.7781435343534
20
7.71512651881918
30
0
41
1
10
-54.8640557818947
20
7.66012522444171
30
0
41
1
10
-55.0269289416193
20
7.54325327411436
30
0
41
1
10
-55.1043329257095
20
7.48118572785879
30
0
41
1
10
-55.3260867911319
20
7.28529466076768
30
0
41
1
10
-55.4600876939736
20
7.14180694426813
30
0
41
1
10
-55.7058314423298
20
6.83312930612388
30
0
41
1
10
-55.8147881461287
20
6.6715007799863
30
0
41
1
10
-56.0119317113413
20
6.33636750757177
30
0
41
1
10
-56.1000528344483
20
6.16283546371301
30
0
41
1
10
-56.2597944516038
20
5.80545940076314
30
0
41
1
10
-56.3316107949196
20
5.62093024300796
30
0
41
1
10
-56.4606286668468
20
5.24594125113808
30
0
41
1
10
-56.5176855844957
20
5.05612691162611
30
0
41
1
10
-56.6712881832205
20
4.48051810886963
30
0
41
1
10
-56.750512905519
20
4.08860232749163
30
0
41
1
10
-56.8463346456389
20
3.49035454453516
30
0
41
1
10
-56.8743623681621
20
3.28919601457946
30
0
41
1
10
-56.923841148357
20
2.8835794753536
30
0
41
1
10
-56.945317523834
20
2.6788066175184
30
0
41
1
10
-57.0010743911545
20
2.06183265419932
30
0
41
1
10
-57.0265862554055
20
1.65021464829943
30
0
41
1
10
-57.0600911551237
20
0.826427708852918
30
0
41
1
10
-57.0680479036764
20
0.414258490969502
30
0
41
1
10
-57.0680954875901
20
-0.410616418566406
30
0
41
1
10
-57.0601880909999
20
-0.823322087871986
30
0
41
1
10
-57.0350368679512
20
-1.44279742981084
30
0
41
1
10
-57.0244104160546
20
-1.64935895031215
30
0
41
1
10
-56.9980662449251
20
-2.06262743969191
30
0
41
1
10
-56.9823120370221
20
-2.26962385434214
30
0
41
1
10
-56.9266309304388
20
-2.88522451010573
30
0
41
1
10
-56.8783827971993
20
-3.29012272731185
30
0
41
1
10
-56.7506681825175
20
-4.08777686756457
30
0
41
1
10
-56.6713626030015
20
-4.48055429019126
30
0
41
1
10
-56.5168996790116
20
-5.05891332672573
30
0
41
1
10
-56.4592305712756
20
-5.25033331669707
30
0
41
1
10
-56.3303405768751
20
-5.62428672514505
30
0
41
1
10
-56.25903693307
20
-5.80730424563461
30
0
41
1
10
-56.0992908480606
20
-6.16438864035223
30
0
41
1
10
-56.0108837614242
20
-6.33846735616979
30
0
41
1
10
-55.861637657042
20
-6.59169519349339
30
0
41
1
10
-55.8091263391328
20
-6.67469064307952
30
0
41
1
10
-55.6990198471019
20
-6.83590272214585
30
0
41
1
10
-55.6412968079646
20
-6.91434756669076
30
0
41
1
10
-55.4591437770559
20
-7.14267001525306
30
0
41
1
10
-55.3258825302133
20
-7.28563237868227
30
0
41
1
10
-55.1023758568637
20
-7.48283481508952
30
0
41
1
10
-55.0240033525843
20
-7.54549364627977
30
0
41
1
10
-54.8616109209106
20
-7.66173374977816
30
0
41
1
10
-54.7772366200276
20
-7.71564866991193
30
0
41
1
10
-54.6013779404598
20
-7.81428032092916
30
0
41
1
10
-54.5098987857697
20
-7.85900465123581
30
0
41
1
10
-54.3187452872937
20
-7.93804563435424
30
0
41
1
10
-54.2211721335697
20
-7.97148061306467
30
0
41
1
10
-54.0218477235983
20
-8.02577693282768
30
0
41
1
10
-53.92009821921
20
-8.04664365567402
30
0
41
1
10
-53.7120868351526
20
-8.07490697119016
30
0
41
1
10
-53.6059791614169
20
-8.08217792429738
30
0
41
1
10
-53.5
20
-8.08217792429738
30
0
0
LINE
5
70
100
AcDbEntity
8
81
62
256
6
ByLayer
370
18
48
1
60
0
100
AcDbLine
10
279.5
20
0
30
0
11
284.5
21
0
31
0
39
0
210
0
220
0
230
1
0
LINE
5
71
100
AcDbEntity
8
1
62
256
6
ByLayer
370
18
48
1
60
0
100
AcDbLine
10
0.2
20
20
30
0
11
0
21
19.8
31
0
39
0
210
0
220
0
230
1
0
LINE
5
73
100
AcDbEntity
8
1
62
256
6
ByLayer
370
18
48
1
60
0
100
AcDbLine
10
0
20
-19.8
30
0
11
0.2
21
-20
31
0
39
0
210
0
220
0
230
1
0
LINE
5
74
100
AcDbEntity
8
1
62
256
6
ByLayer
370
18
48
1
60
0
100
AcDbLine
10
7.7379
20
20
30
0
11
0.2
21
20
31
0
39
0
210
0
220
0
230
1
0
LINE
5
75
100
AcDbEntity
8
1
62
256
6
ByLayer
370
18
48
1
60
0
100
AcDbLine
10
0.2
20
-20
30
0
11
7.7379
21
-20
31
0
39
0
210
0
220
0
230
1
0
LINE
5
76
100
AcDbEntity
8
SK1
62
256
6
ByLayer
370
18
48
1
60
0
100
AcDbLine
10
-58.6
20
15.996
30
0
11
-59
21
15.996
31
0
39
0
210
0
220
0
230
1
0
LINE
5
78
100
AcDbEntity
8
SK1
62
256
6
ByLayer
370
18
48
1
60
0
100
AcDbLine
10
-59
20
-15.996
30
0
11
-58.6
21
-15.996
31
0
39
0
210
0
220
0
230
1
0
LINE
5
79
100
AcDbEntity
8
SK1
62
256
6
ByLayer
370
18
48
1
60
0
100
AcDbLine
10
-1.6
20
-15.996
30
0
11
-1.144243
21
-15.783477
31
0
39
0
210
0
220
0
230
1
0
LINE
5
7A
100
AcDbEntity
8
SK1
62
256
6
ByLayer
370
18
48
1
60
0
100
AcDbLine
10
-1.144243
20
15.783477
30
0
11
-1.6
21
15.996
31
0
39
0
210
0
220
0
230
1
0
LINE
5
7B
100
AcDbEntity
8
SK1
62
256
6
ByLayer
370
18
48
1
60
0
100
AcDbLine
10
-57.3
20
15.996
30
0
11
-57.426311
21
15.887988
31
0
39
0
210
0
220
0
230
1
0
LINE
5
7C
100
AcDbEntity
8
SK1
62
256
6
ByLayer
370
18
48
1
60
0
100
AcDbLine
10
-57.426311
20
-15.887988
30
0
11
-57.3
21
-15.996
31
0
39
0
210
0
220
0
230
1
0
LINE
5
7D
100
AcDbEntity
8
SK1
62
256
6
ByLayer
370
18
48
1
60
0
100
AcDbLine
10
-58.6
20
-15.996
30
0
11
-58.449692
21
-15.874283
31
0
39
0
210
0
220
0
230
1
0
LINE
5
7E
100
AcDbEntity
8
SK1
62
256
6
ByLayer
370
18
48
1
60
0
100
AcDbLine
10
-58.449692
20
15.874283
30
0
11
-58.6
21
15.996
31
0
39
0
210
0
220
0
230
1
0
LINE
5
7F
100
AcDbEntity
8
SK1
62
256
6
ByLayer
370
18
48
1
60
0
100
AcDbLine
10
-59
20
15.996
30
0
11
-60
21
14.996
31
0
39
0
210
0
220
0
230
1
0
LINE
5
80
100
AcDbEntity
8
SK1
62
256
6
ByLayer
370
18
48
1
60
0
100
AcDbLine
10
-60
20
-14.996
30
0
11
-59
21
-15.996
31
0
39
0
210
0
220
0
230
1
0
LINE
5
81
100
AcDbEntity
8
SK1
62
256
6
ByLayer
370
18
48
1
60
0
100
AcDbLine
10
-0.975195
20
-15.746
30
0
11
-0.15
21
-15.746
31
0
39
0
210
0
220
0
230
1
0
LINE
5
82
100
AcDbEntity
8
SK1
62
256
6
ByLayer
370
18
48
1
60
0
100
AcDbLine
10
-0.15
20
15.746
30
0
11
-0.975195
21
15.746
31
0
39
0
210
0
220
0
230
1
0
LINE
5
83
100
AcDbEntity
8
1
62
256
6
ByLayer
370
18
48
1
60
0
100
AcDbLine
10
23.414349
20
-15.428712
30
0
11
23.509379
21
-15.397579
31
0
39
0
210
0
220
0
230
1
0
LINE
5
84
100
AcDbEntity
8
1
62
256
6
ByLayer
370
18
48
1
60
0
100
AcDbLine
10
29.1
20
-15.2
30
0
11
32.940046
21
-15.2
31
0
39
0
210
0
220
0
230
1
0
LINE
5
85
100
AcDbEntity
8
1
62
256
6
ByLayer
370
18
48
1
60
0
100
AcDbLine
10
162.240597
20
15.2
30
0
11
153.035473
21
15.2
31
0
39
0
210
0
220
0
230
1
0
LINE
5
86
100
AcDbEntity
8
1
62
256
6
ByLayer
370
18
48
1
60
0
100
AcDbLine
10
153.035473
20
-15.2
30
0
11
162.240597
21
-15.2
31
0
39
0
210
0
220
0
230
1
0
LINE
5
87
100
AcDbEntity
8
1
62
256
6
ByLayer
370
18
48
1
60
0
100
AcDbLine
10
32.940046
20
15.2
30
0
11
29.1
21
15.2
31
0
39
0
210
0
220
0
230
1
0
LINE
5
88
100
AcDbEntity
8
1
62
256
6
ByLayer
370
18
48
1
60
0
100
AcDbLine
10
26
20
-15
30
0
11
29.1
21
-15.2
31
0
39
0
210
0
220
0
230
1
0
LINE
5
89
100
AcDbEntity
8
1
62
256
6
ByLayer
370
18
48
1
60
0
100
AcDbLine
10
286.632541
20
-16.345
30
0
11
293.257012
21
-16.345
31
0
39
0
210
0
220
0
230
1
0
LINE
5
8A
100
AcDbEntity
8
1
62
256
6
ByLayer
370
18
48
1
60
0
100
AcDbLine
10
29.1
20
15.2
30
0
11
26
21
15
31
0
39
0
210
0
220
0
230
1
0
LINE
5
8B
100
AcDbEntity
8
1
62
256
6
ByLayer
370
18
48
1
60
0
100
AcDbLine
10
23.509379
20
15.397579
30
0
11
23.414349
21
15.428712
31
0
39
0
210
0
220
0
230
1
0
LINE
5
8C
100
AcDbEntity
8
1
62
256
6
ByLayer
370
18
48
1
60
0
100
AcDbLine
10
293.257012
20
16.345
30
0
11
290.832973
21
16.345
31
0
39
0
210
0
220
0
230
1
0
LINE
5
8D
100
AcDbEntity
8
1
62
256
6
ByLayer
370
18
48
1
60
0
100
AcDbLine
10
286.612767
20
16.469229
30
0
11
283.777362
21
16.459305
31
0
39
0
210
0
220
0
230
1
0
LINE
5
8E
100
AcDbEntity
8
1
62
256
6
ByLayer
370
18
48
1
60
0
100
AcDbLine
10
283.777362
20
-16.459305
30
0
11
286.612767
21
-16.469229
31
0
39
0
210
0
220
0
230
1
0
LINE
5
8F
100
AcDbEntity
8
SK1
62
256
6
ByLayer
370
18
48
1
60
0
100
AcDbLine
10
-1.6
20
15.996
30
0
11
-57.3
21
15.996
31
0
39
0
210
0
220
0
230
1
0
LINE
5
90
100
AcDbEntity
8
SK1
62
256
6
ByLayer
370
18
48
1
60
0
100
AcDbLine
10
-57.3
20
-15.996
30
0
11
-1.6
21
-15.996
31
0
39
0
210
0
220
0
230
1
0
LINE
5
91
100
AcDbEntity
8
80
62
256
6
ByLayer
370
18
48
1
60
0
100
AcDbLine
10
0
20
0
30
0
11
-5
21
0
31
0
39
0
210
0
220
0
230
1
0
LINE
5
92
100
AcDbEntity
8
4
62
256
6
ByLayer
370
18
48
0.05
60
0
100
AcDbLine
10
279.5
20
0
30
0
11
0
21
0
31
0
39
0
210
0
220
0
230
1
0
LINE
5
94
100
AcDbEntity
8
SK4
62
256
6
ByLayer
370
18
48
0.05
60
0
100
AcDbLine
10
304
20
0
30
0
11
-65
21
0
31
0
39
0
210
0
220
0
230
1
0
LINE
5
96
100
AcDbEntity
8
1
62
256
6
ByLayer
370
18
48
1
60
0
100
AcDbLine
10
290.904268
20
-14.222082
30
0
11
291.462286
21
-13.73317
31
0
39
0
210
0
220
0
230
1
0
LINE
5
97
100
AcDbEntity
8
1
62
256
6
ByLayer
370
18
48
1
60
0
100
AcDbLine
10
29.1
20
15.2
30
0
11
29.1
21
14.785814
31
0
39
0
210
0
220
0
230
1
0
LINE
5
98
100
AcDbEntity
8
1
62
256
6
ByLayer
370
18
48
1
60
0
100
AcDbLine
10
280.597961
20
-15.485675
30
0
11
280.597961
21
-14.215213
31
0
39
0
210
0
220
0
230
1
0
LINE
5
99
100
AcDbEntity
8
1
62
256
6
ByLayer
370
18
48
1
60
0
100
AcDbLine
10
267
20
-8.555758
30
0
11
267
21
8.167079
31
0
39
0
210
0
220
0
230
1
0
LINE
5
9A
100
AcDbEntity
8
1
62
256
6
ByLayer
370
18
48
1
60
0
100
AcDbLine
10
279.5
20
-15.729757
30
0
11
279.5
21
-14.522802
31
0
39
0
210
0
220
0
230
1
0
LINE
5
9B
100
AcDbEntity
8
1
62
256
6
ByLayer
370
18
48
1
60
0
100
AcDbLine
10
288.240749
20
-5.1
30
0
11
291.465684
21
-5.1
31
0
39
0
210
0
220
0
230
1
0
LINE
5
9C
100
AcDbEntity
8
1
62
256
6
ByLayer
370
18
48
1
60
0
100
AcDbLine
10
279.5
20
4.519749
30
0
11
279.5
21
4.168572
31
0
39
0
210
0
220
0
230
1
0
LINE
5
9D
100
AcDbEntity
8
1
62
256
6
ByLayer
370
13
48
1
60
0
100
AcDbLine
10
279.3
20
4.55
30
0
11
279.505013
21
4.55
31
0
39
0
210
0
220
0
230
1
0
LINE
5
9E
100
AcDbEntity
8
1
62
256
6
ByLayer
370
18
48
1
60
0
100
AcDbLine
10
299
20
0
30
0
11
298.978589
21
0.096493
31
0
39
0
210
0
220
0
230
1
0
LINE
5
9F
100
AcDbEntity
8
1
62
256
6
ByLayer
370
18
48
1
60
0
100
AcDbLine
10
280.797488
20
-14.22575
30
0
11
290.895949
21
-14.22575
31
0
39
0
210
0
220
0
230
1
0
LINE
5
A0
100
AcDbEntity
8
1
62
256
6
ByLayer
370
18
48
1
60
0
100
AcDbLine
10
32.9
20
-15.192655
30
0
11
32.9
21
-3.548055
31
0
39
0
210
0
220
0
230
1
0
LINE
5
A1
100
AcDbEntity
8
1
62
256
6
ByLayer
370
18
48
1
60
0
100
AcDbLine
10
293.371965
20
-16.342511
30
0
11
298.192273
21
-2.345451
31
0
39
0
210
0
220
0
230
1
0
LINE
5
A2
100
AcDbEntity
8
1
62
256
6
ByLayer
370
13
48
1
60
0
100
AcDbLine
10
23.414349
20
-0.393647
30
0
11
23.414349
21
-15.428712
31
0
39
0
210
0
220
0
230
1
0
LINE
5
A3
100
AcDbEntity
8
1
62
256
6
ByLayer
370
13
48
1
60
0
100
AcDbLine
10
7.7379
20
0
30
0
11
7.7379
21
-20
31
0
39
0
210
0
220
0
230
1
0
LINE
5
A4
100
AcDbEntity
8
1
62
256
6
ByLayer
370
13
48
1
60
0
100
AcDbLine
10
7.7379
20
20
30
0
11
7.7379
21
0
31
0
39
0
210
0
220
0
230
1
0
LINE
5
A5
100
AcDbEntity
8
1
62
256
6
ByLayer
370
13
48
1
60
0
100
AcDbLine
10
279.582225
20
-15.738897
30
0
11
279.722057
21
-15.788058
31
0
39
0
210
0
220
0
230
1
0
LINE
5
A6
100
AcDbEntity
8
1
62
256
6
ByLayer
370
13
48
1
60
0
100
AcDbLine
10
298.918183
20
0.310504
30
0
11
297.110184
21
1.574187
31
0
39
0
210
0
220
0
230
1
0
LINE
5
A7
100
AcDbEntity
8
1
62
256
6
ByLayer
370
18
48
1
60
0
100
AcDbLine
10
291.465798
20
-13.726668
30
0
11
291.465798
21
-5.101398
31
0
39
0
210
0
220
0
230
1
0
LINE
5
A8
100
AcDbEntity
8
1
62
256
6
ByLayer
370
18
48
1
60
0
100
AcDbLine
10
298.978589
20
-0.096493
30
0
11
299
21
0
31
0
39
0
210
0
220
0
230
1
0
LINE
5
A9
100
AcDbEntity
8
1
62
256
6
ByLayer
370
18
48
1
60
0
100
AcDbLine
10
294.478518
20
-6.915818
30
0
11
294.285478
21
-6.400177
31
0
39
0
210
0
220
0
230
1
0
LINE
5
AA
100
AcDbEntity
8
1
62
256
6
ByLayer
370
18
48
1
60
0
100
AcDbLine
10
291.467408
20
-15.485675
30
0
11
294.478518
21
-6.915818
31
0
39
0
210
0
220
0
230
1
0
LINE
5
AB
100
AcDbEntity
8
1
62
256
6
ByLayer
370
13
48
1
60
0
100
AcDbLine
10
263.274234
20
-10.506502
30
0
11
263.274234
21
-10.801651
31
0
39
0
210
0
220
0
230
1
0
LINE
5
AC
100
AcDbEntity
8
1
62
256
6
ByLayer
370
18
48
1
60
0
100
AcDbLine
10
279.4
20
-15.023621
30
0
11
279.4
21
-14.582566
31
0
39
0
210
0
220
0
230
1
0
LINE
5
AD
100
AcDbEntity
8
1
62
256
6
ByLayer
370
13
48
1
60
0
100
AcDbLine
10
297.110133
20
-4.026235
30
0
11
295.042302
21
-2.580945
31
0
39
0
210
0
220
0
230
1
0
LINE
5
AE
100
AcDbEntity
8
1
62
256
6
ByLayer
370
13
48
1
60
0
100
AcDbLine
10
297.062644
20
1.533845
30
0
11
298.942417
21
0.219997
31
0
39
0
210
0
220
0
230
1
0
LINE
5
AF
100
AcDbEntity
8
1
62
256
6
ByLayer
370
18
48
1
60
0
100
AcDbLine
10
297.494965
20
-5.37267
30
0
11
297.395236
21
-5.67013
31
0
39
0
210
0
220
0
230
1
0
LINE
5
B0
100
AcDbEntity
8
1
62
256
6
ByLayer
370
18
48
1
60
0
100
AcDbLine
10
29.1
20
-15.2
30
0
11
29.1
21
-2.211644
31
0
39
0
210
0
220
0
230
1
0
LINE
5
B1
100
AcDbEntity
8
1
62
256
6
ByLayer
370
18
48
1
60
0
100
AcDbLine
10
298.879375
20
-0.350266
30
0
11
299
21
0
31
0
39
0
210
0
220
0
230
1
0
LINE
5
B2
100
AcDbEntity
8
1
62
256
6
ByLayer
370
18
48
1
60
0
100
AcDbLine
10
279.5
20
-14.486628
30
0
11
279.5
21
-14.522802
31
0
39
0
210
0
220
0
230
1
0
LINE
5
B3
100
AcDbEntity
8
1
62
256
6
ByLayer
370
18
48
1
60
0
100
AcDbLine
10
297.395236
20
5.67013
30
0
11
297.494965
21
5.37267
31
0
39
0
210
0
220
0
230
1
0
LINE
5
B4
100
AcDbEntity
8
1
62
256
6
ByLayer
370
13
48
1
60
0
100
AcDbLine
10
23.414349
20
15.428712
30
0
11
23.414349
21
15.02267
31
0
39
0
210
0
220
0
230
1
0
LINE
5
B5
100
AcDbEntity
8
1
62
256
6
ByLayer
370
13
48
1
60
0
100
AcDbLine
10
294.285478
20
-6.400177
30
0
11
295.042302
21
-2.580945
31
0
39
0
210
0
220
0
230
1
0
LINE
5
B6
100
AcDbEntity
8
1
62
256
6
ByLayer
370
18
48
1
60
0
100
AcDbLine
10
291.465684
20
-5.1
30
0
11
289.51796
21
2.827733
31
0
39
0
210
0
220
0
230
1
0
LINE
5
B7
100
AcDbEntity
8
1
62
256
6
ByLayer
370
18
48
1
60
0
100
AcDbLine
10
26
20
-15
30
0
11
26
21
-0.969976
31
0
39
0
210
0
220
0
230
1
0
LINE
5
B8
100
AcDbEntity
8
1
62
256
6
ByLayer
370
18
48
1
60
0
100
AcDbLine
10
291.462286
20
-13.73317
30
0
11
291.465798
21
-13.726668
31
0
39
0
210
0
220
0
230
1
0
LINE
5
B9
100
AcDbEntity
8
1
62
256
6
ByLayer
370
18
48
1
60
0
100
AcDbLine
10
280.597961
20
-15.485675
30
0
11
291.467408
21
-15.485675
31
0
39
0
210
0
220
0
230
1
0
LINE
5
BA
100
AcDbEntity
8
1
62
256
6
ByLayer
370
18
48
1
60
0
100
AcDbLine
10
26
20
15
30
0
11
26
21
14.637285
31
0
39
0
210
0
220
0
230
1
0
LINE
5
BB
100
AcDbEntity
8
1
62
256
6
ByLayer
370
18
48
1
60
0
100
AcDbLine
10
279.999782
20
-16.343677
30
0
11
279.999782
21
-16.13234
31
0
39
0
210
0
220
0
230
1
0
LINE
5
BC
100
AcDbEntity
8
1
62
256
6
ByLayer
370
18
48
1
60
0
100
AcDbLine
10
0.2
20
0
30
0
11
0.2
21
-20
31
0
39
0
210
0
220
0
230
1
0
LINE
5
BD
100
AcDbEntity
8
1
62
256
6
ByLayer
370
18
48
1
60
0
100
AcDbLine
10
0.2
20
20
30
0
11
0.2
21
0
31
0
39
0
210
0
220
0
230
1
0
LINE
5
BE
100
AcDbEntity
8
1
62
256
6
ByLayer
370
18
48
1
60
0
100
AcDbLine
10
290.895949
20
-14.22575
30
0
11
290.904268
21
-14.222082
31
0
39
0
210
0
220
0
230
1
0
LINE
5
BF
100
AcDbEntity
8
1
62
256
6
ByLayer
370
18
48
1
60
0
100
AcDbLine
10
290.443191
20
-12.70406
30
0
11
291.465798
21
-13.726668
31
0
39
0
210
0
220
0
230
1
0
LINE
5
C0
100
AcDbEntity
8
1
62
256
6
ByLayer
370
18
48
1
60
0
100
AcDbLine
10
279.5
20
-16.134548
30
0
11
279.5
21
-15.729757
31
0
39
0
210
0
220
0
230
1
0
LINE
5
C1
100
AcDbEntity
8
1
62
256
6
ByLayer
370
18
48
1
60
0
100
AcDbLine
10
279.722057
20
-16.005041
30
0
11
279.722057
21
-15.788058
31
0
39
0
210
0
220
0
230
1
0
LINE
5
C2
100
AcDbEntity
8
1
62
256
6
ByLayer
370
13
48
1
60
0
100
AcDbLine
10
23.509379
20
15.397579
30
0
11
23.509379
21
14.995069
31
0
39
0
210
0
220
0
230
1
0
LINE
5
C3
100
AcDbEntity
8
1
62
256
6
ByLayer
370
13
48
1
60
0
100
AcDbLine
10
23.509379
20
-0.397015
30
0
11
23.509379
21
-15.397579
31
0
39
0
210
0
220
0
230
1
0
LINE
5
C4
100
AcDbEntity
8
1
62
256
6
ByLayer
370
18
48
1
60
0
100
AcDbLine
10
298.918183
20
-0.310504
30
0
11
298.651266
21
-1.46553
31
0
39
0
210
0
220
0
230
1
0
LINE
5
C5
100
AcDbEntity
8
1
62
256
6
ByLayer
370
18
48
1
60
0
100
AcDbLine
10
291.465798
20
-5.101398
30
0
11
291.465684
21
-5.1
31
0
39
0
210
0
220
0
230
1
0
LINE
5
C6
100
AcDbEntity
8
1
62
256
6
ByLayer
370
13
48
1
60
0
100
AcDbLine
10
297.110184
20
1.574187
30
0
11
298.651266
21
1.46553
31
0
39
0
210
0
220
0
230
1
0
LINE
5
C7
100
AcDbEntity
8
1
62
256
6
ByLayer
370
18
48
1
60
0
100
AcDbLine
10
0
20
19.8
30
0
11
0
21
-19.8
31
0
39
0
210
0
220
0
230
1
0
LINE
5
C8
100
AcDbEntity
8
1
62
256
6
ByLayer
370
18
48
1
60
0
100
AcDbLine
10
298.651266
20
1.46553
30
0
11
298.918183
21
0.310504
31
0
39
0
210
0
220
0
230
1
0
LINE
5
C9
100
AcDbEntity
8
1
62
256
6
ByLayer
370
18
48
1
60
0
100
AcDbLine
10
297.110133
20
-4.026235
30
0
11
294.478518
21
-6.915818
31
0
39
0
210
0
220
0
230
1
0
LINE
5
CA
100
AcDbEntity
8
1
62
256
6
ByLayer
370
13
48
1
60
0
100
AcDbLine
10
295.276636
20
5.40192
30
0
11
297.494965
21
5.37267
31
0
39
0
210
0
220
0
230
1
0
LINE
5
CB
100
AcDbEntity
8
1
62
256
6
ByLayer
370
13
48
1
60
0
100
AcDbLine
10
280.559619
20
-14.213627
30
0
11
280.559619
21
-15.497579
31
0
39
0
210
0
220
0
230
1
0
LINE
5
CC
100
AcDbEntity
8
SK1
62
256
6
ByLayer
370
18
48
1
60
0
100
AcDbLine
10
-59
20
0
30
0
11
-59
21
-15.996
31
0
39
0
210
0
220
0
230
1
0
LINE
5
CD
100
AcDbEntity
8
SK1
62
256
6
ByLayer
370
18
48
1
60
0
100
AcDbLine
10
-59
20
15.996
30
0
11
-59
21
0
31
0
39
0
210
0
220
0
230
1
0
LINE
5
CE
100
AcDbEntity
8
SK1
62
256
6
ByLayer
370
13
48
1
60
0
100
AcDbLine
10
-0.15
20
0
30
0
11
-0.15
21
-15.746
31
0
39
0
210
0
220
0
230
1
0
LINE
5
CF
100
AcDbEntity
8
SK1
62
256
6
ByLayer
370
13
48
1
60
0
100
AcDbLine
10
-0.15
20
15.746
30
0
11
-0.15
21
0
31
0
39
0
210
0
220
0
230
1
0
LINE
5
D0
100
AcDbEntity
8
SK1
62
256
6
ByLayer
370
18
48
1
60
0
100
AcDbLine
10
-57.3
20
0
30
0
11
-57.3
21
-15.996
31
0
39
0
210
0
220
0
230
1
0
LINE
5
D1
100
AcDbEntity
8
SK1
62
256
6
ByLayer
370
18
48
1
60
0
100
AcDbLine
10
-57.3
20
15.996
30
0
11
-57.3
21
0
31
0
39
0
210
0
220
0
230
1
0
LINE
5
D2
100
AcDbEntity
8
SK1
62
256
6
ByLayer
370
13
48
1
60
0
100
AcDbLine
10
-0.975195
20
15.746
30
0
11
-0.975195
21
-15.746
31
0
39
0
210
0
220
0
230
1
0
LINE
5
D3
100
AcDbEntity
8
SK1
62
256
6
ByLayer
370
18
48
1
60
0
100
AcDbLine
10
-6.5
20
8.082178
30
0
11
-53.5
21
8.082178
31
0
39
0
210
0
220
0
230
1
0
LINE
5
D4
100
AcDbEntity
8
SK1
62
256
6
ByLayer
370
18
48
1
60
0
100
AcDbLine
10
-60
20
0
30
0
11
-60
21
-14.996
31
0
39
0
210
0
220
0
230
1
0
LINE
5
D5
100
AcDbEntity
8
SK1
62
256
6
ByLayer
370
18
48
1
60
0
100
AcDbLine
10
-60
20
14.996
30
0
11
-60
21
0
31
0
39
0
210
0
220
0
230
1
0
LINE
5
D6
100
AcDbEntity
8
SK1
62
256
6
ByLayer
370
18
48
1
60
0
100
AcDbLine
10
-1.6
20
-15.996
30
0
11
-1.6
21
0
31
0
39
0
210
0
220
0
230
1
0
LINE
5
D7
100
AcDbEntity
8
SK1
62
256
6
ByLayer
370
18
48
1
60
0
100
AcDbLine
10
-1.6
20
0
30
0
11
-1.6
21
15.996
31
0
39
0
210
0
220
0
230
1
0
LINE
5
D8
100
AcDbEntity
8
SK1
62
256
6
ByLayer
370
18
48
1
60
0
100
AcDbLine
10
-53.5
20
-8.082178
30
0
11
-6.5
21
-8.082178
31
0
39
0
210
0
220
0
230
1
0
LINE
5
D9
100
AcDbEntity
8
SK1
62
256
6
ByLayer
370
18
48
1
60
0
100
AcDbLine
10
-58.6
20
-15.996
30
0
11
-58.6
21
15.996
31
0
39
0
210
0
220
0
230
1
0
LINE
5
DA
100
AcDbEntity
8
SK1
62
256
6
ByLayer
370
13
48
1
60
0
100
AcDbLine
10
-6.5
20
-8.082178
30
0
11
-6.5
21
8.082178
31
0
39
0
210
0
220
0
230
1
0
LINE
5
DB
100
AcDbEntity
8
SK1
62
256
6
ByLayer
370
13
48
1
60
0
100
AcDbLine
10
-58.449692
20
-15.874283
30
0
11
-58.449692
21
0
31
0
39
0
210
0
220
0
230
1
0
LINE
5
DC
100
AcDbEntity
8
SK1
62
256
6
ByLayer
370
13
48
1
60
0
100
AcDbLine
10
-58.449692
20
0
30
0
11
-58.449692
21
15.874283
31
0
39
0
210
0
220
0
230
1
0
LINE
5
DD
100
AcDbEntity
8
SK1
62
256
6
ByLayer
370
13
48
1
60
0
100
AcDbLine
10
-57.426311
20
-15.887988
30
0
11
-57.426311
21
0
31
0
39
0
210
0
220
0
230
1
0
LINE
5
DE
100
AcDbEntity
8
SK1
62
256
6
ByLayer
370
13
48
1
60
0
100
AcDbLine
10
-57.426311
20
0
30
0
11
-57.426311
21
15.887988
31
0
39
0
210
0
220
0
230
1
0
LINE
5
DF
100
AcDbEntity
8
SK1
62
256
6
ByLayer
370
13
48
1
60
0
100
AcDbLine
10
-53.5
20
8.082178
30
0
11
-53.5
21
-8.082178
31
0
39
0
210
0
220
0
230
1
0
LINE
5
E0
100
AcDbEntity
8
SK1
62
256
6
ByLayer
370
13
48
1
60
0
100
AcDbLine
10
-1.144243
20
0
30
0
11
-1.144243
21
-15.783477
31
0
39
0
210
0
220
0
230
1
0
LINE
5
E1
100
AcDbEntity
8
SK1
62
256
6
ByLayer
370
13
48
1
60
0
100
AcDbLine
10
-1.144243
20
15.783477
30
0
11
-1.144243
21
0
31
0
39
0
210
0
220
0
230
1
0
MTEXT
5
18D
100
AcDbEntity
8
SK6
62
256
6
ByLayer
370
13
48
1
60
0
100
AcDbMText
10
100.851137
20
37.875134
30
0
210
0
220
0
230
1
1
\W0.7057;870-3100-31L32-8
40
3.5
41
0
44
1.084337
50
0
71
7
72
5
7
iso_b_vert
0
DIMENSION
5
19B
100
AcDbEntity
8
2
62
256
6
ByLayer
370
13
48
1
60
0
100
AcDbDimension
2
DimnDraft3D1
10
26
20
-28.5
30
0
11
162.5
21
-28.5
31
0
70
32
71
5
72
1
41
1
210
0
220
0
230
1
3
Standard
100
AcDbAlignedDimension
13
299
23
-1.5875
33
0
14
26
24
-17.0875
34
0
50
0
100
AcDbRotatedDimension
1001
ACAD
1000
DSTYLE
1002
{
1070
   279
1070
     0
1070
   172
1070
     1
1070
   173
1070
     1
1070
   340
1005
18E
1070
   271
1070
     1
1070
   272
1070
     2
1070
    77
1070
     1
1070
    73
1070
     0
1070
   171
1070
     3
1070
   274
1070
     4
1070
   177
1070
     7
1070
   176
1070
     7
1070
   178
1070
     7
1070
    48
1040
-0.005
1070
    41
1041
3.5
1070
   147
1041
1.5
1070
    42
1041
1.5875
1070
    44
1041
2.0
1070
   140
1041
3.0
1070
   343
1005
0
1070
   344
1005
0
1002
}
0
DIMENSION
5
1A5
100
AcDbEntity
8
2
62
256
6
ByLayer
370
13
48
1
60
0
100
AcDbDimension
2
DimnDraft3D2
10
29.5
20
22.5
30
0
11
164.25
21
22.5
31
0
70
32
71
5
72
1
41
1
210
0
220
0
230
1
3
Standard
100
AcDbAlignedDimension
13
299
23
1.5875
33
0
14
29.5
24
17.0875
34
0
50
0
100
AcDbRotatedDimension
1001
ACAD
1000
DSTYLE
1002
{
1070
   279
1070
     0
1070
   172
1070
     1
1070
   173
1070
     1
1070
   340
1005
18E
1070
   271
1070
     1
1070
   272
1070
     2
1070
    77
1070
     1
1070
    73
1070
     0
1070
   171
1070
     3
1070
   274
1070
     4
1070
   177
1070
     7
1070
   176
1070
     7
1070
   178
1070
     7
1070
    48
1040
-0.005
1070
    41
1041
3.5
1070
   147
1041
1.5
1070
    42
1041
1.5875
1070
    44
1041
2.0
1070
   140
1041
3.0
1070
   343
1005
0
1070
   344
1005
0
1002
}
0
DIMENSION
5
1B0
100
AcDbEntity
8
SK2
62
256
6
ByLayer
370
13
48
1
60
0
100
AcDbDimension
2
DimnDraft3D3
10
0
20
-39
30
0
11
-30
21
-39
31
0
70
32
71
5
72
1
41
1
210
0
220
0
230
1
3
Standard
100
AcDbAlignedDimension
13
-60
23
-17.5875
33
0
14
0
24
-21.5875
34
0
50
0
100
AcDbRotatedDimension
1001
ACAD
1000
DSTYLE
1002
{
1070
   279
1070
     0
1070
   172
1070
     1
1070
   173
1070
     1
1070
   340
1005
18E
1070
   271
1070
     1
1070
   272
1070
     2
1070
    77
1070
     1
1070
    73
1070
     0
1070
   171
1070
     3
1070
   274
1070
     4
1070
   177
1070
     7
1070
   176
1070
     7
1070
   178
1070
     7
1070
    48
1040
-0.005
1070
    41
1041
3.5
1070
   147
1041
1.5
1070
    42
1041
1.5875
1070
    44
1041
2.0
1070
   140
1041
3.0
1070
   343
1005
0
1070
   344
1005
0
1002
}
0
DIMENSION
5
1BA
100
AcDbEntity
8
2
62
256
6
ByLayer
370
13
48
1
60
0
100
AcDbDimension
2
DimnDraft3D4
10
299
20
-39
30
0
11
149.5
21
-39
31
0
70
32
71
5
72
1
41
1
210
0
220
0
230
1
3
Standard
100
AcDbAlignedDimension
13
0
23
-21.5875
33
0
14
299
24
-1.5875
34
0
50
0
100
AcDbRotatedDimension
1001
ACAD
1000
DSTYLE
1002
{
1070
   279
1070
     0
1070
   172
1070
     1
1070
   173
1070
     1
1070
   340
1005
18E
1070
   271
1070
     1
1070
   272
1070
     2
1070
    77
1070
     1
1070
    73
1070
     0
1070
   171
1070
     3
1070
   274
1070
     4
1070
   177
1070
     7
1070
   176
1070
     7
1070
   178
1070
     7
1070
    48
1040
-0.005
1070
    41
1041
3.5
1070
   147
1041
1.5
1070
    42
1041
1.5875
1070
    44
1041
2.0
1070
   140
1041
3.0
1070
   343
1005
0
1070
   344
1005
0
1002
}
0
DIMENSION
5
1C5
100
AcDbEntity
8
SK2
62
256
6
ByLayer
370
13
48
1
60
0
100
AcDbDimension
2
DimnDraft3D5
10
-68.25
20
-16
30
0
11
-68.5
21
-0.520456
31
0
70
33
71
5
72
1
41
1
210
0
220
0
230
1
3
Standard
100
AcDbAlignedDimension
13
-61.5875
23
16
33
0
14
-61.5875
24
-16
34
0
1001
ACAD
1000
DSTYLE
1002
{
1070
   279
1070
     0
1070
    74
1070
     0
1070
   173
1070
     1
1070
   340
1005
18E
1070
   271
1070
     1
1070
   272
1070
     2
1070
    77
1070
     1
1070
    73
1070
     0
1070
   171
1070
     3
1070
   274
1070
     4
1070
   177
1070
     7
1070
   176
1070
     7
1070
   178
1070
     7
1070
    48
1040
-0.005
1070
    41
1041
3.5
1070
   147
1041
1.5
1070
    42
1041
1.5875
1070
    44
1041
2.0
1070
   140
1041
3.0
1070
   343
1005
0
1070
   344
1005
0
1002
}
0
ENDSEC
0
SECTION
2
OBJECTS
0
DICTIONARY
5
230
330
0
100
AcDbDictionary
280
0
281
1
3
ACAD_GROUP
350
231
3
ACAD_MLINESTYLE
350
232
0
DICTIONARY
5
231
330
0
100
AcDbDictionary
280
0
281
1
0
DICTIONARY
5
232
330
0
100
AcDbDictionary
280
0
281
1
3
Standard
350
18
0
MLINESTYLE
5
18
330
232
100
AcDbMlineStyle
2
Standard
70
0
3

62
256
51
90
52
90
71
2
49
-0.5
62
256
6
ByLayer
49
0.5
62
256
6
ByLayer
0
RASTERVARIABLES
5
21e
330

100
AcDbRasterVariables
90
0
70
1
71
1
72
1
0
ENDSEC
0
EOF
