0
SECTION
2
HEADER
9
$ACADVER
1
AC1015
9
$DWGCODEPAGE
3
ANSI_1252
9
$HANDSEED
5
1a3
9
$ANGBASE
50
0
9
$ANGDIR
70
0
9
$ATTMODE
70
1
9
$AUNITS
70
0
9
$AUPREC
70
0
9
$CECOLOR
62
256
9
$CELTSCALE
40
1
9
$CELTYPE
6
ByLayer
9
$CELWEIGHT
370
18
9
$CLAYER
8
0
9
$CMLJUST
70
0
9
$CMLSCALE
40
1
9
$CMLSTYLE
2
Standard
9
$DIMSTYLE
2
Standard
9
$TEXTSIZE
40
0.2
9
$TEXTSTYLE
7
Standard
9
$LUNITS
70
2
9
$LUPREC
70
4
9
$EXTNAMES
290
1
9
$INSUNITS
70
4
9
$LTSCALE
40
1
9
$LWDISPLAY
290
1
9
$PDMODE
70
0
9
$PDSIZE
40
0
9
$PLINEGEN
70
0
0
ENDSEC
0
SECTION
2
CLASSES
0
CLASS
1
RASTERVARIABLES
2
AcDbRasterVariables
3
ISM
90
0
280
0
281
0
0
ENDSEC
0
SECTION
2
TABLES
0
TABLE
2
VPORT
5
199
100
AcDbSymbolTable
0
VPORT
5
1
100
AcDbSymbolTableRecord
100
AcDbViewportTableRecord
2
*Active
70
0
10
0
20
0
11
1
21
1
12
-1
22
1
13
0
23
0
14
0.5
24
0.5
15
10
25
10
16
0
26
0
36
1
17
0
27
0
37
0
0
ENDTAB
0
TABLE
2
LTYPE
5
19a
100
AcDbSymbolTable
0
LTYPE
5
14
100
AcDbSymbolTableRecord
100
AcDbLinetypeTableRecord
70
0
2
ByBlock
3

72
65
73
0
40
0
0
LTYPE
5
15
100
AcDbSymbolTableRecord
100
AcDbLinetypeTableRecord
70
0
2
ByLayer
3

72
65
73
0
40
0
0
LTYPE
5
16
100
AcDbSymbolTableRecord
100
AcDbLinetypeTableRecord
70
0
2
CONTINUOUS
3
Solid line
72
65
73
0
40
0
0
LTYPE
5
6A
100
AcDbSymbolTableRecord
100
AcDbLinetypeTableRecord
70
0
2
CENTER
3
____ _ ____ _ ____ _ ____
72
65
73
4
40
47.5
49
22
74
0
49
-8.5
74
0
49
8.5
74
0
49
-8.5
74
0
0
LTYPE
5
6B
100
AcDbSymbolTableRecord
100
AcDbLinetypeTableRecord
70
0
2
DASHED
3
__ __ __ __ __ __ __ __ __
72
65
73
2
40
25.72
49
12.86
74
0
49
-12.86
74
0
0
ENDTAB
0
TABLE
2
LAYER
5
19b
100
AcDbSymbolTable
0
LAYER
5
10
100
AcDbSymbolTableRecord
100
AcDbLayerTableRecord
2
0
70
0
62
7
6
CONTINUOUS
290
1
370
-3
390
0
0
LAYER
5
6D
100
AcDbSymbolTableRecord
100
AcDbLayerTableRecord
2
81
70
0
62
-3
6
CONTINUOUS
290
1
370
-3
390
0
0
LAYER
5
6F
100
AcDbSymbolTableRecord
100
AcDbLayerTableRecord
2
80
70
0
62
-6
6
CONTINUOUS
290
1
370
-3
390
0
0
LAYER
5
72
100
AcDbSymbolTableRecord
100
AcDbLayerTableRecord
2
1
70
0
62
4
6
CONTINUOUS
290
1
370
-3
390
0
0
LAYER
5
7A
100
AcDbSymbolTableRecord
100
AcDbLayerTableRecord
2
4
70
0
62
-2
6
CENTER
290
1
370
-3
390
0
0
LAYER
5
AF
100
AcDbSymbolTableRecord
100
AcDbLayerTableRecord
2
2
70
0
62
7
6
CONTINUOUS
290
1
370
-3
390
0
0
LAYER
5
184
100
AcDbSymbolTableRecord
100
AcDbLayerTableRecord
2
SK1
70
0
62
4
6
CONTINUOUS
290
1
370
-3
390
0
0
LAYER
5
185
100
AcDbSymbolTableRecord
100
AcDbLayerTableRecord
2
SK4
70
0
62
2
6
CENTER
290
1
370
-3
390
0
0
LAYER
5
186
100
AcDbSymbolTableRecord
100
AcDbLayerTableRecord
2
SK6
70
0
62
5
6
CONTINUOUS
290
1
370
-3
390
0
0
ENDTAB
0
TABLE
2
STYLE
5
19c
100
AcDbSymbolTable
0
STYLE
5
11
100
AcDbSymbolTableRecord
100
AcDbTextStyleTableRecord
2
Standard
3
txt
70
0
71
0
40
0
41
1
42
0
50
0
0
STYLE
5
109
100
AcDbSymbolTableRecord
100
AcDbTextStyleTableRecord
2
iso_b_vert
3
simplex.shx
70
0
71
0
40
0
41
1
42
0
50
0
0
STYLE
5
10A
100
AcDbSymbolTableRecord
100
AcDbTextStyleTableRecord
2
DWGDirectTextStyle
3
simplex
70
0
71
0
40
0
41
1
42
0
50
0
0
ENDTAB
0
TABLE
2
DIMSTYLE
5
19d
100
AcDbSymbolTable
100
AcDbDimStyleTable
0
DIMSTYLE
105
27
100
AcDbSymbolTableRecord
100
AcDbDimStyleTableRecord
2
Standard
70
0
3
<>
41
0.18
42
0.0625
44
0.18
140
0.18
147
0.09
73
0
74
0
77
1
271
2
275
0
278
52
280
0
340
11
0
ENDTAB
0
TABLE
2
VIEW
5
19e
100
AcDbSymbolTable
0
ENDTAB
0
TABLE
2
UCS
5
19f
100
AcDbSymbolTable
0
ENDTAB
0
TABLE
2
APPID
5
1a0
100
AcDbSymbolTable
0
APPID
5
12
100
AcDbSymbolTableRecord
100
AcDbRegAppTableRecord
2
ACAD
70
0
0
ENDTAB
0
TABLE
2
BLOCK_RECORD
5
1a1
100
AcDbSymbolTable
0
BLOCK_RECORD
5
1F
100
AcDbSymbolTableRecord
100
AcDbBlockTableRecord
2
*Model_Space
340
0
70
0
0
BLOCK_RECORD
5
1B
100
AcDbSymbolTableRecord
100
AcDbBlockTableRecord
2
*Paper_Space
340
0
70
0
0
BLOCK_RECORD
5
23
100
AcDbSymbolTableRecord
100
AcDbBlockTableRecord
2
*Paper_Space0
340
0
70
0
0
BLOCK_RECORD
5
115
100
AcDbSymbolTableRecord
100
AcDbBlockTableRecord
2
DimnDraft3D1
340
0
70
0
0
BLOCK_RECORD
5
11F
100
AcDbSymbolTableRecord
100
AcDbBlockTableRecord
2
DimnDraft3D2
340
0
70
0
0
ENDTAB
0
ENDSEC
0
SECTION
2
BLOCKS
0
BLOCK
5
20
100
AcDbEntity
8
0
100
AcDbBlockBegin
2
*Model_Space
70
0
10
0
20
0
30
0
3
*Model_Space
0
ENDBLK
5
21
100
AcDbEntity
8
0
100
AcDbBlockEnd
0
BLOCK
5
1C
100
AcDbEntity
8
0
100
AcDbBlockBegin
2
*Paper_Space
70
0
10
0
20
0
30
0
3
*Paper_Space
0
ENDBLK
5
1D
100
AcDbEntity
8
0
100
AcDbBlockEnd
0
BLOCK
5
24
100
AcDbEntity
8
0
100
AcDbBlockBegin
2
*Paper_Space0
70
0
10
0
20
0
30
0
3
*Paper_Space0
0
ENDBLK
5
25
100
AcDbEntity
8
0
100
AcDbBlockEnd
0
BLOCK
5
11C
100
AcDbEntity
8
0
100
AcDbBlockBegin
2
DimnDraft3D1
70
0
10
0
20
0
30
0
3
DimnDraft3D1
0
MTEXT
5
116
100
AcDbEntity
8
2
62
256
6
ByLayer
370
13
48
1
60
0
100
AcDbMText
10
24.730308
20
-23.25
30
0
210
0
220
0
230
1
1
\W0.6883;6.1
40
3
41
0
44
1.084337
50
0
71
7
72
5
7
iso_b_vert
0
LINE
5
117
100
AcDbEntity
8
2
62
256
6
ByLayer
370
13
48
1
60
0
100
AcDbLine
10
19.505308
20
-1.5875
30
0
11
19.505308
21
-26
31
0
39
0
210
0
220
0
230
1
0
LINE
5
118
100
AcDbEntity
8
2
62
256
6
ByLayer
370
13
48
1
60
0
100
AcDbLine
10
13.397213
20
-17.0875
30
0
11
13.397213
21
-26
31
0
39
0
210
0
220
0
230
1
0
LINE
5
119
100
AcDbEntity
8
2
62
256
6
ByLayer
370
13
48
1
60
0
100
AcDbLine
10
5.897213
20
-24
30
0
11
28.030308
21
-24
31
0
39
0
210
0
220
0
230
1
0
SOLID
5
11A
100
AcDbEntity
8
2
62
256
6
ByLayer
370
13
48
1
60
0
100
AcDbTrace
10
19.505308
20
-24
30
0
11
23.005307
21
-23.539216
31
0
12
23.00531
22
-24.460784
32
0
13
19.505308
23
-24
33
0
39
0
210
0
220
0
230
1
0
SOLID
5
11B
100
AcDbEntity
8
2
62
256
6
ByLayer
370
13
48
1
60
0
100
AcDbTrace
10
13.397213
20
-24
30
0
11
9.897215
21
-24.460784
31
0
12
9.897212
22
-23.539216
32
0
13
13.397213
23
-24
33
0
39
0
210
0
220
0
230
1
0
ENDBLK
5
11D
100
AcDbEntity
8
0
100
AcDbBlockEnd
0
BLOCK
5
126
100
AcDbEntity
8
0
100
AcDbBlockBegin
2
DimnDraft3D2
70
0
10
0
20
0
30
0
3
DimnDraft3D2
0
MTEXT
5
120
100
AcDbEntity
8
2
62
256
6
ByLayer
370
13
48
1
60
0
100
AcDbMText
10
31.721498
20
22.483095
30
0
210
0
220
0
230
1
1
\W1.0184;%%c31.00
40
3.5
41
0
44
1.084337
50
90
71
7
72
5
7
iso_b_vert
0
LINE
5
121
100
AcDbEntity
8
2
62
256
6
ByLayer
370
13
48
1
60
0
100
AcDbLine
10
14.984713
20
15.5
30
0
11
35.471498
21
15.5
31
0
39
0
210
0
220
0
230
1
0
LINE
5
122
100
AcDbEntity
8
2
62
256
6
ByLayer
370
13
48
1
60
0
100
AcDbLine
10
14.984713
20
-15.5
30
0
11
35.471498
21
-15.5
31
0
39
0
210
0
220
0
230
1
0
LINE
5
123
100
AcDbEntity
8
2
62
256
6
ByLayer
370
13
48
1
60
0
100
AcDbLine
10
33.471498
20
-15.5
30
0
11
33.471498
21
39.614674
31
0
39
0
210
0
220
0
230
1
0
SOLID
5
124
100
AcDbEntity
8
2
62
256
6
ByLayer
370
13
48
1
60
0
100
AcDbTrace
10
33.471498
20
15.5
30
0
11
33.932282
21
12.000002
31
0
12
33.010715
22
11.999998
32
0
13
33.471498
23
15.5
33
0
39
0
210
0
220
0
230
1
0
SOLID
5
125
100
AcDbEntity
8
2
62
256
6
ByLayer
370
13
48
1
60
0
100
AcDbTrace
10
33.471498
20
-15.5
30
0
11
33.010715
21
-12.000002
31
0
12
33.932282
22
-11.999998
32
0
13
33.471498
23
-15.5
33
0
39
0
210
0
220
0
230
1
0
ENDBLK
5
127
100
AcDbEntity
8
0
100
AcDbBlockEnd
0
ENDSEC
0
SECTION
2
ENTITIES
0
ARC
5
B8
100
AcDbEntity
8
SK1
62
256
6
ByLayer
370
18
48
1
60
0
100
AcDbCircle
39
0
10
-0.25
20
-4.75
30
0
40
0.249999999999936
210
0
220
0
230
1
100
AcDbArc
50
360
51
36.869898
0
ARC
5
B9
100
AcDbEntity
8
SK1
62
256
6
ByLayer
370
18
48
1
60
0
100
AcDbCircle
39
0
10
-0.25
20
4.45
30
0
40
0.250000000000635
210
0
220
0
230
1
100
AcDbArc
50
323.130102
51
360
0
ELLIPSE
5
BA
100
AcDbEntity
8
SK1
62
256
6
ByLayer
370
13
48
1
60
0
100
AcDbEllipse
10
-1.15
20
-1.023946
30
0
11
1.1
21
0
31
0
210
0
220
0
230
1
40
0.115937
41
-1.5707963267949
42
-0.0869187938960718
0
ELLIPSE
5
BB
100
AcDbEntity
8
SK1
62
256
6
ByLayer
370
18
48
1
60
0
100
AcDbEllipse
10
-7.779615
20
-1.041192
30
0
11
-6.68111921449034E-17
21
-0.363715202230033
31
0
210
0
220
0
230
1
40
0.824821
41
3.14159265358979
42
-2.61799387799189
0
ELLIPSE
5
BC
100
AcDbEntity
8
SK1
62
256
6
ByLayer
370
18
48
1
60
0
100
AcDbEllipse
10
-5.779334
20
-1.398539
30
0
11
3.64718360085679
21
-1.79105055666375
31
0
210
0
220
0
230
1
40
0.316597
41
-0.995398540873011
42
1.11435629181827
0
ELLIPSE
5
BD
100
AcDbEntity
8
SK1
62
256
6
ByLayer
370
18
48
1
60
0
100
AcDbEllipse
10
-6.420666
20
-1.398539
30
0
11
3.64718360085681
21
1.79105055666375
31
0
210
0
220
0
230
1
40
0.316597
41
2.02723636177152
42
-2.14619411271679
0
ELLIPSE
5
BE
100
AcDbEntity
8
SK1
62
256
6
ByLayer
370
18
48
1
60
0
100
AcDbEllipse
10
-4.420385
20
-1.041192
30
0
11
-6.68111921447094E-17
21
-0.363715202228977
31
0
210
0
220
0
230
1
40
0.824821
41
2.61799387799109
42
3.14159265358979
0
ELLIPSE
5
BF
100
AcDbEntity
8
SK1
62
256
6
ByLayer
370
13
48
1
60
0
100
AcDbEllipse
10
-1.15
20
0.747756
30
0
11
-1.1
21
1.34706698920462E-16
31
0
210
0
220
0
230
1
40
0.115937
41
1.5707963267949
42
3.14159265358979
0
ELLIPSE
5
C0
100
AcDbEntity
8
SK1
62
256
6
ByLayer
370
18
48
1
60
0
100
AcDbEllipse
10
-1.15
20
9.176962
30
0
11
0.777817456200652
21
-13.3726716037745
31
0
210
0
220
0
230
1
40
0.058165
41
0.69847937021999
42
0.785398164252519
0
ELLIPSE
5
C1
100
AcDbEntity
8
1
62
256
6
ByLayer
370
18
48
1
60
0
100
AcDbEllipse
10
19.442692
20
-0.292005
30
0
11
0.0446240259132819
21
0.146773164694242
31
0
210
0
220
0
230
1
40
0.05855
41
1.75038094605669
42
2.43183944723214
0
ELLIPSE
5
C2
100
AcDbEntity
8
1
62
256
6
ByLayer
370
13
48
1
60
0
100
AcDbEllipse
10
17.669851
20
1.531115
30
0
11
-0.0544235218676439
21
-0.0778657836762855
31
0
210
0
220
0
230
1
40
0.550074
41
-2.35740611748145
42
-1.67594761247646
0
ELLIPSE
5
C3
100
AcDbEntity
8
1
62
256
6
ByLayer
370
18
48
1
60
0
100
AcDbEllipse
10
-4.135
20
0
30
0
11
4.87096769020042
21
-14.4614538929894
31
0
210
0
220
0
230
1
40
1
41
-0.0241002883009876
42
0.0218693853694922
0
ELLIPSE
5
C4
100
AcDbEntity
8
1
62
256
6
ByLayer
370
18
48
1
60
0
100
AcDbEllipse
10
-9.530829
20
-88.472445
30
0
11
79.9604297900056
21
-0.00581211655178948
31
0
210
0
220
0
230
1
40
0.931372
41
1.44652138258238
42
1.45138564815123
0
ELLIPSE
5
C5
100
AcDbEntity
8
1
62
256
6
ByLayer
370
18
48
1
60
0
100
AcDbEllipse
10
19.442692
20
0.292005
30
0
11
0.044624025914377
21
-0.146773164697342
31
0
210
0
220
0
230
1
40
0.05855
41
-2.43183944723564
42
-1.75038094607166
0
ELLIPSE
5
C6
100
AcDbEntity
8
1
62
256
6
ByLayer
370
13
48
1
60
0
100
AcDbEllipse
10
17.647051
20
1.547143
30
0
11
-0.054845208577149
21
-0.0775693437907595
31
0
210
0
220
0
230
1
40
0.550468
41
-2.35172195198928
42
-1.67297432255558
0
POINT
5
6C
100
AcDbEntity
8
81
62
256
6
ByLayer
370
18
48
1
60
0
100
AcDbPoint
10
8.705308
20
0
30
0
39
0
210
0
220
0
230
1
50
360
0
POINT
5
6E
100
AcDbEntity
8
80
62
256
6
ByLayer
370
18
48
1
60
0
100
AcDbPoint
10
0
20
0
30
0
39
0
210
0
220
0
230
1
50
360
0
SPLINE
5
C7
100
AcDbEntity
8
1
62
256
6
ByLayer
370
18
48
1
60
0
100
AcDbSpline
70
4
71
2
72
6
73
3
40
0
40
0
40
0
40
1
40
1
40
1
41
1
10
13.4026552010895
20
-15.0959570528328
30
0
41
1
10
14.1754077832862
20
-14.3560284735419
30
0
41
1
10
14.9481603738248
20
-13.6160999031592
30
0
0
SPLINE
5
C8
100
AcDbEntity
8
1
62
256
6
ByLayer
370
18
48
1
60
0
100
AcDbSpline
70
4
71
2
72
6
73
3
40
0
40
0
40
0
40
1
40
1
40
1
41
1
10
14.9481603738248
20
13.6160999031592
30
0
41
1
10
14.1754077832948
20
14.3560284735337
30
0
41
1
10
13.4026552011066
20
15.0959570528164
30
0
0
SPLINE
5
C9
100
AcDbEntity
8
SK1
62
256
6
ByLayer
370
18
48
1
60
0
100
AcDbSpline
70
4
71
3
72
15
73
11
40
0
40
0
40
0
40
0
40
0.0919618808492887
40
0.196196788102025
40
0.312453590583374
40
0.439536113507244
40
0.575182613094084
40
0.716221220648996
40
0.859010607263123
40
1
40
1
40
1
40
1
41
1
10
-1.15000000000001
20
-3.52953917360892
30
0
41
1
10
-1.09762796582569
20
-3.52957036374903
30
0
41
1
10
-0.987150695880104
20
-3.53709339973507
30
0
41
1
10
-0.813631405233707
20
-3.57467554785114
30
0
41
1
10
-0.630289771607409
20
-3.6475261113371
30
0
41
1
10
-0.448173403785873
20
-3.76229126542231
30
0
41
1
10
-0.282940678415017
20
-3.92120638767518
30
0
41
1
10
-0.151697249430342
20
-4.1190563627794
30
0
41
1
10
-0.0685427245516337
20
-4.34471313923417
30
0
41
1
10
-0.0502347349112569
20
-4.50018923031942
30
0
41
1
10
-0.0499999999999972
20
-4.57960750812764
30
0
0
SPLINE
5
CA
100
AcDbEntity
8
SK1
62
256
6
ByLayer
370
18
48
1
60
0
100
AcDbSpline
70
4
71
1
72
4
73
2
40
0
40
0
40
1
40
1
41
1
10
-12.9735239655925
20
-3.46881198191477
30
0
41
1
10
-12.8
20
-3.52953894887308
30
0
0
SPLINE
5
CB
100
AcDbEntity
8
SK1
62
256
6
ByLayer
370
18
48
1
60
0
100
AcDbSpline
70
4
71
3
72
15
73
11
40
0
40
0
40
0
40
0
40
0.103226970086173
40
0.214905798434424
40
0.335027175684499
40
0.462722525786141
40
0.596123971168915
40
0.732421521277734
40
0.868200385784906
40
1
40
1
40
1
40
1
41
1
10
-0.0499999999999972
20
4.24733038687531
30
0
41
1
10
-0.0499707617181144
20
4.19075769191943
30
0
41
1
10
-0.0599705848128025
20
4.07419516836643
30
0
41
1
10
-0.108632737123301
20
3.89289349544973
30
0
41
1
10
-0.19770369410584
20
3.71077473058237
30
0
41
1
10
-0.329567194590709
20
3.53933352825219
30
0
41
1
10
-0.501292565499739
20
3.39235252179307
30
0
41
1
10
-0.70369603592539
20
3.28168226067653
30
0
41
1
10
-0.924266493856635
20
3.21470769409081
30
0
41
1
10
-1.07439790151353
20
3.20010146857973
30
0
41
1
10
-1.15000000000001
20
3.19999977497525
30
0
0
SPLINE
5
CC
100
AcDbEntity
8
SK1
62
256
6
ByLayer
370
18
48
1
60
0
100
AcDbSpline
70
4
71
1
72
4
73
2
40
0
40
0
40
1
40
1
41
1
10
-12.8
20
3.19999961355686
30
0
41
1
10
-13
20
3.13050726552964
30
0
0
SPLINE
5
CD
100
AcDbEntity
8
SK1
62
256
6
ByLayer
370
18
48
1
60
0
100
AcDbSpline
70
4
71
4
72
13
73
8
40
0
40
0
40
0
40
0
40
0
40
0.834777549689276
40
0.834777549689276
40
0.834777549689276
40
1
40
1
40
1
40
1
40
1
41
1
10
-13
20
-1.15991690782025
30
0
41
1
10
-13
20
-1.69413418382426
30
0
41
0.986390067145945
10
-13
20
-2.30073117737469
30
0
41
1
10
-13
20
-2.78598984126731
30
0
41
1
10
-13
20
-3.152284464167
30
0
41
0.999466846114799
10
-13
20
-3.20787054915405
30
0
41
0.99871711007541
10
-13
20
-3.25736437812889
30
0
41
0.997942049372865
10
-13
20
-3.30000000000021
30
0
0
SPLINE
5
CE
100
AcDbEntity
8
SK1
62
256
6
ByLayer
370
18
48
1
60
0
100
AcDbSpline
70
4
71
3
72
10
73
6
40
0
40
0
40
0
40
0
40
0.5
40
0.5
40
1
40
1
40
1
40
1
41
1
10
-7.92961524227069
20
-3.34192632401128
30
0
41
1
10
-7.90714958807769
20
-3.33609523258586
30
0
41
1
10
-7.88327310844252
20
-3.33151844520199
30
0
41
1
10
-7.83265656170542
20
-3.32519622207748
30
0
41
1
10
-7.80621028788848
20
-3.3235288972614
30
0
41
1
10
-7.77961524227066
20
-3.3235288972614
30
0
0
SPLINE
5
CF
100
AcDbEntity
8
SK1
62
256
6
ByLayer
370
18
48
1
60
0
100
AcDbSpline
70
4
71
3
72
12
73
8
40
0
40
0
40
0
40
0
40
0.0016898957940368
40
0.0016898957940368
40
0.500844947897018
40
0.500844947897018
40
1
40
1
40
1
40
1
41
1
10
-12.9702252132009
20
-3.46996553368516
30
0
41
1
10
-12.9702248507019
20
-3.46996646577769
30
0
41
1
10
-12.9702245015688
20
-3.4699674028613
30
0
41
1
10
-12.9702017657825
20
-3.4700303030729
30
0
41
1
10
-12.9765991679563
20
-3.45418436587227
30
0
41
1
10
-12.9917396460163
20
-3.39545525711976
30
0
41
1
10
-13
20
-3.35291369962542
30
0
41
1
10
-13
20
-3.3000000000002
30
0
0
SPLINE
5
D0
100
AcDbEntity
8
SK1
62
256
6
ByLayer
370
18
48
1
60
0
100
AcDbSpline
70
4
71
4
72
10
73
5
40
0
40
0
40
0
40
0
40
0
40
1
40
1
40
1
40
1
40
1
41
1
10
-13
20
2.69743163302078
30
0
41
0.957697670971951
10
-13
20
2.32616805766123
30
0
41
0.943596894629268
10
-13
20
1.83049412516798
30
0
41
0.957697670971951
10
-13
20
1.24459810044277
30
0
41
1
10
-13
20
0.611785511338226
30
0
0
SPLINE
5
D1
100
AcDbEntity
8
SK1
62
256
6
ByLayer
370
18
48
1
60
0
100
AcDbSpline
70
4
71
3
72
8
73
4
40
0
40
0
40
0
40
0
40
1
40
1
40
1
40
1
41
1
10
-4.42038475772934
20
-3.3235288972614
30
0
41
1
10
-4.36718809994085
20
-3.3235288972614
30
0
41
1
10
-4.31532701864622
20
-3.33026129836725
30
0
41
1
10
-4.27038475772933
20
-3.34192632401128
30
0
0
SPLINE
5
D2
100
AcDbEntity
8
SK1
62
256
6
ByLayer
370
18
48
1
60
0
100
AcDbSpline
70
4
71
2
72
6
73
3
40
0
40
0
40
0
40
1
40
1
40
1
41
1
10
-1.15000000000001
20
2.75843783893343
30
0
41
0.707106781186548
10
-0.0499999999999923
20
2.75843783893342
30
0
41
1
10
-0.0499999999999972
20
3.6803102914874
30
0
0
SPLINE
5
D3
100
AcDbEntity
8
SK1
62
256
6
ByLayer
370
18
48
1
60
0
100
AcDbSpline
70
4
71
3
72
10
73
6
40
0
40
0
40
0
40
0
40
0.5
40
0.5
40
1
40
1
40
1
40
1
41
1
10
-0.0499999999999972
20
-2.10545359980721
30
0
41
1
10
-0.0499999999999972
20
-1.92704219021844
30
0
41
1
10
-0.0528803578271066
20
-1.74865312830067
30
0
41
1
10
-0.0561627110584482
20
-1.39185577573348
30
0
41
1
10
-0.0561259320928542
20
-1.2134440807899
30
0
41
1
10
-0.0541525668707123
20
-1.03501736056283
30
0
0
SPLINE
5
D4
100
AcDbEntity
8
SK1
62
256
6
ByLayer
370
18
48
1
60
0
100
AcDbSpline
70
4
71
4
72
10
73
5
40
0
40
0
40
0
40
0
40
0
40
1
40
1
40
1
40
1
40
1
41
0.993874047146136
10
-13
20
3.13050285049189
30
0
41
0.994218767369982
10
-13
20
3.13126249769477
30
0
41
0.996362726308903
10
-13
20
3.05350670014332
30
0
41
1
10
-13
20
2.89908446709228
30
0
41
1
10
-13
20
2.69743163302078
30
0
0
SPLINE
5
D5
100
AcDbEntity
8
1
62
256
6
ByLayer
370
18
48
1
60
0
100
AcDbSpline
70
4
71
3
72
8
73
4
40
0
40
0
40
0
40
0
40
1
40
1
40
1
40
1
41
1
10
-7.11E-14
20
14.9884750920435
30
0
41
1
10
-7.11E-14
20
14.0496152992235
30
0
41
1
10
-5.68E-14
20
13.1107560924432
30
0
41
1
10
-5.68E-14
20
12.171897521576
30
0
0
SPLINE
5
D6
100
AcDbEntity
8
1
62
256
6
ByLayer
370
18
48
1
60
0
100
AcDbSpline
70
4
71
3
72
14
73
10
40
0
40
0
40
0
40
0
40
0.5
40
0.5
40
0.75
40
0.75
40
0.875
40
0.875
40
1
40
1
40
1
40
1
41
1
10
15.3712810568871
20
-13.0026427928252
30
0
41
1
10
15.2333156776057
20
-13.2442828108276
30
0
41
1
10
15.1153561260126
20
-13.4240847410694
30
0
41
1
10
14.9692645856306
20
-13.5984370121087
30
0
41
1
10
14.9257326488829
20
-13.640588649299
30
0
41
1
10
14.8683580959838
20
-13.6793249939084
30
0
41
1
10
14.8505263937948
20
-13.6881613364445
30
0
41
1
10
14.8176873826322
20
-13.6975360935919
30
0
41
1
10
14.8026830496015
20
-13.6980896443389
30
0
41
1
10
14.7890718472937
20
-13.6945737531321
30
0
0
SPLINE
5
D7
100
AcDbEntity
8
1
62
256
6
ByLayer
370
18
48
1
60
0
100
AcDbSpline
70
4
71
3
72
26
73
22
40
0
40
0
40
0
40
0
40
0.125000000000001
40
0.125000000000001
40
0.250000000000001
40
0.250000000000001
40
0.312500000000001
40
0.312500000000001
40
0.375000000000001
40
0.375000000000001
40
0.500000000000001
40
0.500000000000001
40
0.625000000000001
40
0.625000000000001
40
0.687500000000001
40
0.687500000000001
40
0.75
40
0.75
40
0.875
40
0.875
40
1
40
1
40
1
40
1
41
1
10
-5.68E-14
20
12.171897521576
30
0
41
1
10
-5.68E-14
20
11.7606702421089
30
0
41
1
10
-5.68E-14
20
11.3573813964836
30
0
41
1
10
-4.26E-14
20
10.5660604517336
30
0
41
1
10
-4.26E-14
20
10.1780303366146
30
0
41
1
10
-4.26E-14
20
9.60750132166763
30
0
41
1
10
-4.26E-14
20
9.41924968410078
30
0
41
1
10
-4.26E-14
20
9.04667488520539
30
0
41
1
10
-4.26E-14
20
8.86197083098141
30
0
41
1
10
-4.26E-14
20
8.32125807166955
30
0
41
1
10
-4.26E-14
20
7.97628891595301
30
0
41
1
10
-2.84E-14
20
7.31652829776101
30
0
41
1
10
-2.84E-14
20
7.00173785607387
30
0
41
1
10
-2.84E-14
20
6.5526086118109
30
0
41
1
10
-2.84E-14
20
6.40655421380154
30
0
41
1
10
-2.84E-14
20
6.12320561878809
30
0
41
1
10
-2.84E-14
20
5.98692633471757
30
0
41
1
10
-2.84E-14
20
5.59391058235794
30
0
41
1
10
-1.42E-14
20
5.35293753867361
30
0
41
1
10
-1.42E-14
20
4.91262481850498
30
0
41
1
10
-2.84E-14
20
4.71328113175714
30
0
41
1
10
-1.42E-14
20
4.53550205386286
30
0
0
SPLINE
5
D8
100
AcDbEntity
8
1
62
256
6
ByLayer
370
13
48
1
60
0
100
AcDbSpline
70
4
71
3
72
8
73
4
40
0
40
0
40
0
40
0
40
1
40
1
40
1
40
1
41
1
10
14.8761770478452
20
-6.26692852200071
30
0
41
1
10
15.1221957648504
20
-5.02542061288727
30
0
41
1
10
15.3682144818556
20
-3.78391270377384
30
0
41
1
10
15.6142331988608
20
-2.54240479466041
30
0
0
SPLINE
5
D9
100
AcDbEntity
8
1
62
256
6
ByLayer
370
18
48
1
60
0
100
AcDbSpline
70
4
71
3
72
8
73
4
40
0
40
0
40
0
40
0
40
1
40
1
40
1
40
1
41
1
10
19.4262657880126
20
0.315650869389088
30
0
41
1
10
19.4386867719848
20
0.273180092782056
30
0
41
1
10
19.4511522322864
20
0.230621416037337
30
0
41
1
10
19.4636619202034
20
0.187976072216486
30
0
0
SPLINE
5
DA
100
AcDbEntity
8
1
62
256
6
ByLayer
370
18
48
1
60
0
100
AcDbSpline
70
4
71
3
72
8
73
4
40
0
40
0
40
0
40
0
40
1
40
1
40
1
40
1
41
1
10
0.424290495757447
20
-14.7397866277148
30
0
41
1
10
0.424290495757433
20
-14.6882384755295
30
0
41
1
10
0.411440883420255
20
-14.6331591315555
30
0
41
1
10
0.386061651859095
20
-14.5746345272391
30
0
0
SPLINE
5
DB
100
AcDbEntity
8
1
62
256
6
ByLayer
370
13
48
1
60
0
100
AcDbSpline
70
4
71
3
72
18
73
14
40
0
40
0
40
0
40
0
40
0.25
40
0.25
40
0.375
40
0.375
40
0.5
40
0.5
40
0.75
40
0.75
40
0.875
40
0.875
40
1
40
1
40
1
40
1
41
1
10
-5.68E-14
20
12.171897521576
30
0
41
1
10
1.31937415563621
20
12.2304244460307
30
0
41
1
10
2.63879160907976
20
12.2591439028425
30
0
41
1
10
4.61734010252317
20
12.2634599285862
30
0
41
1
10
5.276823089636
20
12.2584446304114
30
0
41
1
10
6.59577453946244
20
12.2365509818121
30
0
41
1
10
7.25534003786484
20
12.2206410089016
30
0
41
1
10
9.23436141066856
20
12.151394149097
30
0
41
1
10
10.5536908054106
20
12.0770956521084
30
0
41
1
10
12.532118793881
20
11.9292237111437
30
0
41
1
10
13.191562220337
20
11.8738317758027
30
0
41
1
10
14.5107024891078
20
11.7525947411027
30
0
41
1
10
15.1704436435975
20
11.6853879409117
30
0
41
1
10
15.8301106962512
20
11.6118094041769
30
0
0
SPLINE
5
DC
100
AcDbEntity
8
1
62
256
6
ByLayer
370
18
48
1
60
0
100
AcDbSpline
70
4
71
3
72
18
73
14
40
0
40
0
40
0
40
0
40
0.25
40
0.25
40
0.375000000000001
40
0.375000000000001
40
0.500000000000001
40
0.500000000000001
40
0.75
40
0.75
40
0.875
40
0.875
40
1
40
1
40
1
40
1
41
1
10
17.5973130764467
20
-3.92845892508267
30
0
41
1
10
17.7216713732569
20
-3.79191020372255
30
0
41
1
10
17.8453063067406
20
-3.640405925173
30
0
41
1
10
18.0295047223358
20
-3.38722333973455
30
0
41
1
10
18.0906943658465
20
-3.29849093744001
30
0
41
1
10
18.2126122892486
20
-3.11148742700502
30
0
41
1
10
18.2737178232005
20
-3.01254936464528
30
0
41
1
10
18.4528531503312
20
-2.70570269571141
30
0
41
1
10
18.5667489503724
20
-2.48810350408794
30
0
41
1
10
18.72895983585
20
-2.14134805898507
30
0
41
1
10
18.7818221921617
20
-2.02177461468959
30
0
41
1
10
18.8831333463149
20
-1.77901977222413
30
0
41
1
10
18.9316004416885
20
-1.65588267455529
30
0
41
1
10
18.9779495036268
20
-1.53104254527239
30
0
0
SPLINE
5
DD
100
AcDbEntity
8
1
62
256
6
ByLayer
370
18
48
1
60
0
100
AcDbSpline
70
4
71
3
72
8
73
4
40
0
40
0
40
0
40
0
40
1
40
1
40
1
40
1
41
1
10
15.8301106962512
20
-11.6118094041768
30
0
41
1
10
15.6780355365293
20
-12.0745184586648
30
0
41
1
10
15.5250964301884
20
-12.5381253204765
30
0
41
1
10
15.371281056887
20
-13.0026427928252
30
0
0
SPLINE
5
DE
100
AcDbEntity
8
1
62
256
6
ByLayer
370
18
48
1
60
0
100
AcDbSpline
70
4
71
3
72
8
73
4
40
0
40
0
40
0
40
0
40
1
40
1
40
1
40
1
41
1
10
1.05104076400856
20
-14.3514790616348
30
0
41
1
10
1.06807965381384
20
-14.3453218999427
30
0
41
1
10
1.08584856802582
20
-14.3393893314866
30
0
41
1
10
1.10435897051197
20
-14.3336926527151
30
0
0
SPLINE
5
DF
100
AcDbEntity
8
1
62
256
6
ByLayer
370
18
48
1
60
0
100
AcDbSpline
70
4
71
3
72
10
73
6
40
0
40
0
40
0
40
0
40
0.800597376066384
40
0.800597376066384
40
1
40
1
40
1
40
1
41
1
10
15.3712810568871
20
13.0026427928252
30
0
41
1
10
15.2333156776056
20
13.2442828108276
30
0
41
1
10
15.1153561260126
20
13.4240847410694
30
0
41
1
10
14.9937040157681
20
13.5692698876042
30
0
41
1
10
14.9707279593144
20
13.5942584672944
30
0
41
1
10
14.9490480572585
20
13.615240628922
30
0
0
SPLINE
5
E0
100
AcDbEntity
8
1
62
256
6
ByLayer
370
18
48
1
60
0
100
AcDbSpline
70
4
71
3
72
8
73
4
40
0
40
0
40
0
40
0
40
1
40
1
40
1
40
1
41
1
10
7.8545751683493
20
15.4903891196278
30
0
41
1
10
9.61893452358663
20
15.4966612207029
30
0
41
1
10
11.3854324410088
20
15.4449244821226
30
0
41
1
10
13.1532852417734
20
15.3346620898615
30
0
0
SPLINE
5
E1
100
AcDbEntity
8
1
62
256
6
ByLayer
370
18
48
1
60
0
100
AcDbSpline
70
4
71
3
72
8
73
4
40
0
40
0
40
0
40
0
40
1
40
1
40
1
40
1
41
1
10
18.9779495036268
20
-1.5310425452724
30
0
41
1
10
19.0333451524402
20
-1.37227418923092
30
0
41
1
10
19.0880429985035
20
-1.21341281680292
30
0
41
1
10
19.1420741446661
20
-1.05446257396611
30
0
0
SPLINE
5
E2
100
AcDbEntity
8
1
62
256
6
ByLayer
370
18
48
1
60
0
100
AcDbSpline
70
4
71
3
72
20
73
16
40
0
40
0
40
0
40
0
40
0.25
40
0.25
40
0.3125
40
0.3125
40
0.375
40
0.375
40
0.5
40
0.5
40
0.625000000000001
40
0.625000000000001
40
0.750000000000001
40
0.750000000000001
40
1
40
1
40
1
40
1
41
1
10
19.148562704408
20
1.50370813648183
30
0
41
1
10
19.0916007898818
20
1.75019813781123
30
0
41
1
10
19.0218827375932
20
2.02587445055353
30
0
41
1
10
18.91941021058
20
2.40553367596766
30
0
41
1
10
18.8981089160874
20
2.48334615729561
30
0
41
1
10
18.8543802648575
20
2.640990665857
30
0
41
1
10
18.8319101407767
20
2.72098817035068
30
0
41
1
10
18.7627229745696
20
2.96442766761085
30
0
41
1
10
18.714234090719
20
3.13130703680034
30
0
41
1
10
18.6126633327668
20
3.47397618528211
30
0
41
1
10
18.5595763034234
20
3.64977596575353
30
0
41
1
10
18.4488171031346
20
4.01027071040443
30
0
41
1
10
18.3908823585167
20
4.19577564920831
30
0
41
1
10
18.2129492887281
20
4.75677818553257
30
0
41
1
10
18.0883846455833
20
5.13837472908041
30
0
41
1
10
17.9579748431773
20
5.52744159683824
30
0
0
SPLINE
5
E3
100
AcDbEntity
8
1
62
256
6
ByLayer
370
13
48
1
60
0
100
AcDbSpline
70
4
71
3
72
10
73
6
40
0
40
0
40
0
40
0
40
0.0018123199793514
40
0.0018123199793514
40
1
40
1
40
1
40
1
41
1
10
17.6781304071638
20
1.60738393927944
30
0
41
1
10
17.6781166057276
20
1.60739345240833
30
0
41
1
10
17.6781028042418
20
1.60740296547284
30
0
41
1
10
17.6704874901639
20
1.61265214488436
30
0
41
1
10
17.6629011567808
20
1.61791124349701
30
0
41
1
10
17.6553303162225
20
1.62318994093806
30
0
0
SPLINE
5
E4
100
AcDbEntity
8
1
62
256
6
ByLayer
370
18
48
1
60
0
100
AcDbSpline
70
4
71
3
72
12
73
8
40
0
40
0
40
0
40
0
40
0.434736346193604
40
0.434736346193604
40
0.869472692387208
40
0.869472692387208
40
1
40
1
40
1
40
1
41
1
10
0.424290495757063
20
-14.919139018636
30
0
41
1
10
1.50924507208762
20
-15.0178303785061
30
0
41
1
10
2.59352012204167
20
-15.0948687171646
30
0
41
1
10
4.76033929138376
20
-15.2064407150743
30
0
41
1
10
5.8427937324694
20
-15.2409605526479
30
0
41
1
10
7.24943573601854
20
-15.2578144223813
30
0
41
1
10
7.57432752375021
20
-15.2597720993231
30
0
41
1
10
7.89929419752593
20
-15.2597931529588
30
0
0
SPLINE
5
E5
100
AcDbEntity
8
1
62
256
6
ByLayer
370
18
48
1
60
0
100
AcDbSpline
70
4
71
3
72
8
73
4
40
0
40
0
40
0
40
0
40
1
40
1
40
1
40
1
41
1
10
15.8301106962512
20
11.6118094041769
30
0
41
1
10
15.6780355365293
20
12.0745184586648
30
0
41
1
10
15.5250964301884
20
12.5381253204765
30
0
41
1
10
15.371281056887
20
13.0026427928252
30
0
0
SPLINE
5
E6
100
AcDbEntity
8
1
62
256
6
ByLayer
370
18
48
1
60
0
100
AcDbSpline
70
4
71
3
72
10
73
6
40
0
40
0
40
0
40
0
40
0.5
40
0.5
40
1
40
1
40
1
40
1
41
1
10
12.6648984107001
20
0.45780005590882
30
0
41
1
10
12.5507458086258
20
0.88392655107468
30
0
41
1
10
12.4564848986876
20
1.31539346671291
30
0
41
1
10
12.3039421560752
20
2.18798677791101
30
0
41
1
10
12.2456100383401
20
2.62629039850483
30
0
41
1
10
12.1994362905601
20
3.06593172180507
30
0
0
SPLINE
5
E7
100
AcDbEntity
8
1
62
256
6
ByLayer
370
13
48
1
60
0
100
AcDbSpline
70
4
71
3
72
20
73
16
40
0
40
0
40
0
40
0
40
0.125
40
0.125
40
0.249999999999999
40
0.249999999999999
40
0.374999999999999
40
0.374999999999999
40
0.499999999999998
40
0.499999999999998
40
0.749999999999999
40
0.749999999999999
40
0.874999999999999
40
0.874999999999999
40
1
40
1
40
1
40
1
41
1
10
14.8893850481351
20
5.32884163180073
30
0
41
1
10
14.9446739391573
20
5.12034820717267
30
0
41
1
10
15.0110482060083
20
4.91754071679823
30
0
41
1
10
15.1637770594078
20
4.52254859534233
30
0
41
1
10
15.2490002088241
20
4.33326043044056
30
0
41
1
10
15.4346674020351
20
3.96877422918601
30
0
41
1
10
15.53511927477
20
3.7935854717731
30
0
41
1
10
15.7496080990941
20
3.45578598521104
30
0
41
1
10
15.864096321377
20
3.29265482097091
30
0
41
1
10
16.2232142023859
20
2.82448850762323
30
0
41
1
10
16.4810522519204
20
2.54298300309168
30
0
41
1
10
16.8896069102688
20
2.15697623692934
30
0
41
1
10
17.0294824756693
20
2.03435828865972
30
0
41
1
10
17.3159162164521
20
1.80060805704309
30
0
41
1
10
17.4614848770915
20
1.69023842761536
30
0
41
1
10
17.6101680349447
20
1.58508796250862
30
0
0
SPLINE
5
E8
100
AcDbEntity
8
1
62
256
6
ByLayer
370
18
48
1
60
0
100
AcDbSpline
70
4
71
3
72
8
73
4
40
0
40
0
40
0
40
0
40
1
40
1
40
1
40
1
41
1
10
13.3972132702467
20
15.0101895962386
30
0
41
1
10
13.3166392329181
20
15.1460219656832
30
0
41
1
10
13.2355355705791
20
15.2541734615079
30
0
41
1
10
13.1532852417734
20
15.3346620898615
30
0
0
SPLINE
5
E9
100
AcDbEntity
8
1
62
256
6
ByLayer
370
18
48
1
60
0
100
AcDbSpline
70
4
71
3
72
8
73
4
40
0
40
0
40
0
40
0
40
1
40
1
40
1
40
1
41
1
10
15.3712810568871
20
13.0026427928252
30
0
41
1
10
14.711577577114
20
13.6756329713441
30
0
41
1
10
14.054639800591
20
14.3457924255852
30
0
41
1
10
13.3972132702467
20
15.0101895962386
30
0
0
SPLINE
5
EA
100
AcDbEntity
8
1
62
256
6
ByLayer
370
18
48
1
60
0
100
AcDbSpline
70
4
71
3
72
8
73
4
40
0
40
0
40
0
40
0
40
1
40
1
40
1
40
1
41
1
10
0.991898116024586
20
15.3941858105225
30
0
41
1
10
0.661748176920014
20
15.2607753301738
30
0
41
1
10
0.331130953820306
20
15.1255070622863
30
0
41
1
10
-7.11E-14
20
14.9884750920435
30
0
0
SPLINE
5
EB
100
AcDbEntity
8
1
62
256
6
ByLayer
370
18
48
1
60
0
100
AcDbSpline
70
4
71
3
72
16
73
12
40
0
40
0
40
0
40
0
40
0.25
40
0.25
40
0.375
40
0.375
40
0.5
40
0.5
40
0.75
40
0.75
40
1
40
1
40
1
40
1
41
1
10
0.991898116024586
20
15.3941858105225
30
0
41
1
10
2.02723632273893
20
15.4416227949445
30
0
41
1
10
3.06194191260238
20
15.4689973349015
30
0
41
1
10
4.61292583746783
20
15.4804077339648
30
0
41
1
10
5.12973634922122
20
15.4792631142356
30
0
41
1
10
6.16283257663031
20
15.4670236954037
30
0
41
1
10
6.67902510173005
20
15.4559063595408
30
0
41
1
10
8.22762257931552
20
15.4075925919469
30
0
41
1
10
9.26049839457673
20
15.3555725711748
30
0
41
1
10
11.32786268419
20
15.2124144673634
30
0
41
1
10
12.3622821141991
20
15.1212887416566
30
0
41
1
10
13.3972132702467
20
15.0101895962386
30
0
0
SPLINE
5
EC
100
AcDbEntity
8
1
62
256
6
ByLayer
370
18
48
1
60
0
100
AcDbSpline
70
4
71
3
72
8
73
4
40
0
40
0
40
0
40
0
40
1
40
1
40
1
40
1
41
1
10
0.991898116024586
20
-15.3941858105225
30
0
41
1
10
0.661748176920042
20
-15.2607753301739
30
0
41
1
10
0.331130953820391
20
-15.1255070622864
30
0
41
1
10
5.68E-14
20
-14.9884750920435
30
0
0
SPLINE
5
ED
100
AcDbEntity
8
1
62
256
6
ByLayer
370
18
48
1
60
0
100
AcDbSpline
70
4
71
3
72
8
73
4
40
0
40
0
40
0
40
0
40
1
40
1
40
1
40
1
41
1
10
13.1532852417734
20
-15.3346620898615
30
0
41
1
10
13.2438710755679
20
-15.24778002529
30
0
41
1
10
13.3344391124854
20
-15.1607178500841
30
0
41
1
10
13.4249892771495
20
-15.0734924518004
30
0
0
SPLINE
5
EE
100
AcDbEntity
8
1
62
256
6
ByLayer
370
18
48
1
60
0
100
AcDbSpline
70
4
71
3
72
16
73
12
40
0
40
0
40
0
40
0
40
0.233252826798165
40
0.233252826798165
40
0.488835217865444
40
0.488835217865444
40
0.616626413399083
40
0.616626413399083
40
0.744417608932722
40
0.744417608932722
40
1
40
1
40
1
40
1
41
1
10
13.3994780909052
20
-15.0990025295644
30
0
41
1
10
13.3106786904669
20
-15.1845085023187
30
0
41
1
10
13.2221938293025
20
-15.2353803752661
30
0
41
1
10
13.0375821479415
20
-15.2720649011796
30
0
41
1
10
12.9414937935523
20
-15.2511766239824
30
0
41
1
10
12.7992563705367
20
-15.1592595087958
30
0
41
1
10
12.7521783253784
20
-15.1184929097128
30
0
41
1
10
12.6591340013786
20
-15.0162326645719
30
0
41
1
10
12.6131184449077
20
-14.9545860569684
30
0
41
1
10
12.4793187290786
20
-14.7399754838541
30
0
41
1
10
12.3951902750664
20
-14.5571114264974
30
0
41
1
10
12.3201679334097
20
-14.3336926527151
30
0
0
SPLINE
5
EF
100
AcDbEntity
8
1
62
256
6
ByLayer
370
13
48
1
60
0
100
AcDbSpline
70
4
71
3
72
8
73
4
40
0
40
0
40
0
40
0
40
1
40
1
40
1
40
1
41
1
10
17.6101680349447
20
1.58508796250859
30
0
41
1
10
17.6177518497216
20
1.57972488544679
30
0
41
1
10
17.6253517439996
20
1.5743819862123
30
0
41
1
10
17.6329673971461
20
1.56905910061271
30
0
0
SPLINE
5
F0
100
AcDbEntity
8
1
62
256
6
ByLayer
370
18
48
1
60
0
100
AcDbSpline
70
4
71
3
72
8
73
4
40
0
40
0
40
0
40
0
40
1
40
1
40
1
40
1
41
1
10
19.4262657880127
20
-0.315650869388762
30
0
41
1
10
19.4386867719848
20
-0.273180092781857
30
0
41
1
10
19.4511522322864
20
-0.230621416037195
30
0
41
1
10
19.4636619202034
20
-0.187976072216486
30
0
0
SPLINE
5
F1
100
AcDbEntity
8
1
62
256
6
ByLayer
370
13
48
1
60
0
100
AcDbSpline
70
4
71
3
72
8
73
4
40
0
40
0
40
0
40
0
40
1
40
1
40
1
40
1
41
1
10
17.6781304071452
20
1.60738393928075
30
0
41
1
10
18.1682745062328
20
1.57282533834778
30
0
41
1
10
18.6584186053204
20
1.5382667374148
30
0
41
1
10
19.148562704408
20
1.50370813648183
30
0
0
SPLINE
5
F2
100
AcDbEntity
8
1
62
256
6
ByLayer
370
18
48
1
60
0
100
AcDbSpline
70
4
71
3
72
14
73
10
40
0
40
0
40
0
40
0
40
0.5
40
0.5
40
0.625
40
0.625
40
0.75
40
0.75
40
1
40
1
40
1
40
1
41
1
10
14.7890718472937
20
-13.6945737531321
30
0
41
1
10
14.3307235237598
20
-14.0415544483815
30
0
41
1
10
13.8965462174336
20
-14.2784517781165
30
0
41
1
10
13.3903809221457
20
-14.4080829429472
30
0
41
1
10
13.2908559061517
20
-14.425617081981
30
0
41
1
10
13.0962968964804
20
-14.442840524653
30
0
41
1
10
13.0019904529794
20
-14.4424874281848
30
0
41
1
10
12.7279918648084
20
-14.4145289864664
30
0
41
1
10
12.5572043381448
20
-14.3600731093714
30
0
41
1
10
12.3984876830141
20
-14.2692193407273
30
0
0
SPLINE
5
F3
100
AcDbEntity
8
1
62
256
6
ByLayer
370
18
48
1
60
0
100
AcDbSpline
70
4
71
3
72
16
73
12
40
0
40
0
40
0
40
0
40
0.25
40
0.25
40
0.5
40
0.5
40
0.75
40
0.75
40
0.875
40
0.875
40
1
40
1
40
1
40
1
41
1
10
17.9579748431773
20
5.52744159683824
30
0
41
1
10
17.7747079667981
20
6.02307971037611
30
0
41
1
10
17.592790597468
20
6.52175402085278
30
0
41
1
10
17.231634597419
20
7.52512941874997
30
0
41
1
10
17.0523955846748
20
8.02982964666873
30
0
41
1
10
16.6967180726565
20
9.04553085538441
30
0
41
1
10
16.5202777600148
20
9.5565277563648
30
0
41
1
10
16.2579380020564
20
10.3282443741123
30
0
41
1
10
16.1707988747881
20
10.5866088248722
30
0
41
1
10
15.9989137810662
20
11.1005257346338
30
0
41
1
10
15.9139815986128
20
11.3566209434067
30
0
41
1
10
15.8301106962512
20
11.6118094041769
30
0
0
SPLINE
5
F4
100
AcDbEntity
8
1
62
256
6
ByLayer
370
18
48
1
60
0
100
AcDbSpline
70
4
71
3
72
16
73
12
40
0
40
0
40
0
40
0
40
0.25
40
0.25
40
0.499999999999999
40
0.499999999999999
40
0.749999999999999
40
0.749999999999999
40
0.874999999999999
40
0.874999999999999
40
1
40
1
40
1
40
1
41
1
10
17.9579748431774
20
-5.52744159683803
30
0
41
1
10
17.7747079667981
20
-6.02307971037592
30
0
41
1
10
17.5927905974681
20
-6.52175402085261
30
0
41
1
10
17.2316345974191
20
-7.52512941874983
30
0
41
1
10
17.0523955846749
20
-8.0298296466686
30
0
41
1
10
16.6967180726565
20
-9.0455308553843
30
0
41
1
10
16.5202777600148
20
-9.55652775636469
30
0
41
1
10
16.2579380020565
20
-10.3282443741122
30
0
41
1
10
16.1707988747882
20
-10.5866088248721
30
0
41
1
10
15.9989137810662
20
-11.1005257346338
30
0
41
1
10
15.9139815986128
20
-11.3566209434067
30
0
41
1
10
15.8301106962512
20
-11.6118094041768
30
0
0
SPLINE
5
F5
100
AcDbEntity
8
1
62
256
6
ByLayer
370
18
48
1
60
0
100
AcDbSpline
70
4
71
3
72
16
73
12
40
0
40
0
40
0
40
0
40
0.25
40
0.25
40
0.375
40
0.375
40
0.5
40
0.5
40
0.75
40
0.75
40
1
40
1
40
1
40
1
41
1
10
14.8893850481351
20
5.32884163180073
30
0
41
1
10
14.6186818990491
20
5.16135527764155
30
0
41
1
10
14.3611352403057
20
4.98131969386179
30
0
41
1
10
13.9888917477793
20
4.70103072424401
30
0
41
1
10
13.8668034185464
20
4.60553120619475
30
0
41
1
10
13.6292005152516
20
4.41349914697089
30
0
41
1
10
13.5137684906566
20
4.31705804512049
30
0
41
1
10
13.1768520303644
20
4.02730886577018
30
0
41
1
10
12.9647342646866
20
3.83357240738259
30
0
41
1
10
12.5641806527294
20
3.44788141964284
30
0
41
1
10
12.3757349756585
20
3.25591542407821
30
0
41
1
10
12.1994362905523
20
3.06593172180652
30
0
0
SPLINE
5
F6
100
AcDbEntity
8
1
62
256
6
ByLayer
370
18
48
1
60
0
100
AcDbSpline
70
4
71
3
72
8
73
4
40
0
40
0
40
0
40
0
40
1
40
1
40
1
40
1
41
1
10
14.8893850481351
20
5.32884163180073
30
0
41
1
10
14.8974368781845
20
5.33382336793437
30
0
41
1
10
14.9066821339118
20
5.33671077164708
30
0
41
1
10
14.9161669645529
20
5.33705146418137
30
0
0
SPLINE
5
F7
100
AcDbEntity
8
1
62
256
6
ByLayer
370
13
48
1
60
0
100
AcDbSpline
70
4
71
3
72
18
73
14
40
0
40
0
40
0
40
0
40
0.249999999999999
40
0.249999999999999
40
0.499999999999998
40
0.499999999999998
40
0.624999999999998
40
0.624999999999998
40
0.749999999999999
40
0.749999999999999
40
0.874999999999999
40
0.874999999999999
40
1
40
1
40
1
40
1
41
1
10
17.6553303162225
20
1.62318994093806
30
0
41
1
10
17.3574420558245
20
1.83088973144022
30
0
41
1
10
17.0683698054482
20
2.06188581660622
30
0
41
1
10
16.520753344739
20
2.57161748044744
30
0
41
1
10
16.2612809468031
20
2.85046792392553
30
0
41
1
10
15.8996521998413
20
3.31459159249006
30
0
41
1
10
15.7842804051682
20
3.47635114410421
30
0
41
1
10
15.5680996363453
20
3.81149458058975
30
0
41
1
10
15.4667825289753
20
3.98536103524822
30
0
41
1
10
15.2794474225036
20
4.34728629180016
30
0
41
1
10
15.1933763015301
20
4.53531110199064
30
0
41
1
10
15.039137878456
20
4.92795617753325
30
0
41
1
10
14.9720330870077
20
5.12961333845456
30
0
41
1
10
14.916166964553
20
5.33705146418136
30
0
0
SPLINE
5
F8
100
AcDbEntity
8
1
62
256
6
ByLayer
370
13
48
1
60
0
100
AcDbSpline
70
4
71
3
72
34
73
30
40
0
40
0
40
0
40
0
40
0.250000000000006
40
0.250000000000006
40
0.375000000000008
40
0.43750000000001
40
0.43750000000001
40
0.46875000000001
40
0.46875000000001
40
0.500000000000011
40
0.625000000000013
40
0.656250000000014
40
0.656250000000014
40
0.671875000000013
40
0.671875000000013
40
0.687500000000013
40
0.750000000000011
40
0.765625000000011
40
0.765625000000011
40
0.78125000000001
40
0.78125000000001
40
0.812500000000009
40
0.875000000000006
40
0.875000000000006
40
0.890625000000005
40
0.890625000000005
40
0.906250000000004
40
0.937500000000003
40
1
40
1
40
1
40
1
41
1
10
15.6142331988608
20
-2.54240479466041
30
0
41
1
10
15.3787409528889
20
-2.37780981091774
30
0
41
1
10
15.110135562395
20
-2.17199841251963
30
0
41
1
10
14.7187099608428
20
-1.84786857078099
30
0
41
1
10
14.5258674022689
20
-1.68195018516596
30
0
41
1
10
14.3487959519213
20
-1.51895388336961
30
0
41
1
10
14.263844417839
20
-1.43866812528769
30
0
41
1
10
14.2349727445208
20
-1.41099526263437
30
0
41
1
10
14.1749391843587
20
-1.3527133154876
30
0
41
1
10
14.0206009654999
20
-1.20108774846496
30
0
41
1
10
13.8201252372338
20
-0.993894766189484
30
0
41
1
10
13.674520451482
20
-0.834469354203918
30
0
41
1
10
13.6326394287888
20
-0.787950113031073
30
0
41
1
10
13.6188753555677
20
-0.772543753208083
30
0
41
1
10
13.5897687579741
20
-0.739729287148023
30
0
41
1
10
13.5145996431109
20
-0.654422486492109
30
0
41
1
10
13.4152489034385
20
-0.538520994892508
30
0
41
1
10
13.3423900174636
20
-0.450957093903838
30
0
41
1
10
13.3143923697555
20
-0.41705928997439
30
0
41
1
10
13.3009783977911
20
-0.400685914562274
30
0
41
1
10
13.2579904477338
20
-0.34780514489961
30
0
41
1
10
13.1660380475894
20
-0.233133736602667
30
0
41
1
10
13.0692401889757
20
-0.108289213546584
30
0
41
1
10
13.0004215168955
20
-0.0169973664932002
30
0
41
1
10
12.9873638258469
20
0.0004737156784387
30
0
41
1
10
12.960126301949
20
0.0372471898612048
30
0
41
1
10
12.9184794770213
20
0.0939508572253516
30
0
41
1
10
12.8167424622599
20
0.235666732245562
30
0
41
1
10
12.7250542793628
20
0.36847624456631
30
0
41
1
10
12.6648984107001
20
0.45780005590882
30
0
0
SPLINE
5
F9
100
AcDbEntity
8
1
62
256
6
ByLayer
370
18
48
1
60
0
100
AcDbSpline
70
4
71
3
72
10
73
6
40
0
40
0
40
0
40
0
40
0.5
40
0.5
40
1
40
1
40
1
40
1
41
1
10
19.1420741446661
20
-1.05446257396611
30
0
41
1
10
19.2091856092839
20
-0.843799050307581
30
0
41
1
10
19.2687712980965
20
-0.635135057600863
30
0
41
1
10
19.3753177644732
20
-0.221161397569844
30
0
41
1
10
19.4222633418056
20
-0.0158557688104111
30
0
41
1
10
19.4636619202034
20
0.187976072216486
30
0
0
SPLINE
5
FA
100
AcDbEntity
8
1
62
256
6
ByLayer
370
18
48
1
60
0
100
AcDbSpline
70
4
71
3
72
8
73
4
40
0
40
0
40
0
40
0
40
1
40
1
40
1
40
1
41
1
10
12.3984876830127
20
-14.2692193407297
30
0
41
1
10
12.3723837190358
20
-14.2907136203949
30
0
41
1
10
12.3462771308963
20
-14.3122047306892
30
0
41
1
10
12.3201679334097
20
-14.3336926527151
30
0
0
SPLINE
5
FB
100
AcDbEntity
8
1
62
256
6
ByLayer
370
13
48
1
60
0
100
AcDbSpline
70
4
71
3
72
8
73
4
40
0
40
0
40
0
40
0
40
1
40
1
40
1
40
1
41
1
10
17.5973130764466
20
-3.92845892508262
30
0
41
1
10
16.9362864505846
20
-3.46644088160852
30
0
41
1
10
16.2752598247226
20
-3.00442283813442
30
0
41
1
10
15.6142331988607
20
-2.54240479466033
30
0
0
SPLINE
5
FC
100
AcDbEntity
8
1
62
256
6
ByLayer
370
18
48
1
60
0
100
AcDbSpline
70
4
71
3
72
12
73
8
40
0
40
0
40
0
40
0
40
0.25
40
0.25
40
0.5
40
0.5
40
1
40
1
40
1
40
1
41
1
10
0.991898116024572
20
-15.1748247420095
30
0
41
1
10
2.00705390975398
20
-15.2643256659345
30
0
41
1
10
3.02146997774079
20
-15.3347316610591
30
0
41
1
10
5.04857238853171
20
-15.4377702025721
30
0
41
1
10
6.06109893070413
20
-15.4703956102448
30
0
41
1
10
9.09729757379077
20
-15.5106636692565
30
0
41
1
10
11.1243991403528
20
-15.4612053377333
30
0
41
1
10
13.1532852417734
20
-15.3346620898615
30
0
0
SPLINE
5
FD
100
AcDbEntity
8
1
62
256
6
ByLayer
370
18
48
1
60
0
100
AcDbSpline
70
4
71
3
72
16
73
12
40
0
40
0
40
0
40
0
40
0.25
40
0.25
40
0.5
40
0.5
40
0.75
40
0.75
40
0.875
40
0.875
40
1
40
1
40
1
40
1
41
1
10
14.8761770478452
20
-6.26692852200071
30
0
41
1
10
14.6692052544524
20
-5.71407383853277
30
0
41
1
10
14.4678368153192
20
-5.15921433383156
30
0
41
1
10
14.0718236681586
20
-4.04708964414139
30
0
41
1
10
13.8770778573839
20
-3.48985818482692
30
0
41
1
10
13.5046317488653
20
-2.36930636748225
30
0
41
1
10
13.3241823005997
20
-1.80740500765512
30
0
41
1
10
13.0663211745868
20
-0.96094569352357
30
0
41
1
10
12.9826511368403
20
-0.678149663828989
30
0
41
1
10
12.819530358833
20
-0.111369739875144
30
0
41
1
10
12.7412099890229
20
0.172932389115957
30
0
41
1
10
12.6648984107001
20
0.457800055908905
30
0
0
SPLINE
5
FE
100
AcDbEntity
8
1
62
256
6
ByLayer
370
18
48
1
60
0
100
AcDbSpline
70
4
71
3
72
8
73
4
40
0
40
0
40
0
40
0
40
1
40
1
40
1
40
1
41
1
10
0.991898116024572
20
-15.1748247420095
30
0
41
1
10
0.802852089469837
20
-15.0902018564357
30
0
41
1
10
0.613651925283577
20
-15.0049675409336
30
0
41
1
10
0.424290495757063
20
-14.919139018636
30
0
0
SPLINE
5
FF
100
AcDbEntity
8
1
62
256
6
ByLayer
370
18
48
1
60
0
100
AcDbSpline
70
4
71
3
72
10
73
6
40
0
40
0
40
0
40
0
40
0.5
40
0.5
40
1
40
1
40
1
40
1
41
1
10
14.9161669645529
20
5.3370514641813
30
0
41
1
10
15.4241481261465
20
5.35529800920173
30
0
41
1
10
15.931818507217
20
5.37757422381195
30
0
41
1
10
16.9460116601158
20
5.43740581144637
30
0
41
1
10
17.4525566586941
20
5.47460780037095
30
0
41
1
10
17.9579748431774
20
5.52744159683756
30
0
0
SPLINE
5
100
100
AcDbEntity
8
1
62
256
6
ByLayer
370
18
48
1
60
0
100
AcDbSpline
70
4
71
3
72
20
73
16
40
0
40
0
40
0
40
0
40
0.250000000000002
40
0.250000000000002
40
0.312500000000002
40
0.312500000000002
40
0.375000000000002
40
0.375000000000002
40
0.500000000000002
40
0.500000000000002
40
0.625000000000001
40
0.625000000000001
40
0.750000000000001
40
0.750000000000001
40
1
40
1
40
1
40
1
41
1
10
19.148562704409
20
-1.50370813647821
30
0
41
1
10
19.0916007898832
20
-1.75019813780681
30
0
41
1
10
19.0218827375942
20
-2.02587445055036
30
0
41
1
10
18.9194102105806
20
-2.4055336759661
30
0
41
1
10
18.898108916088
20
-2.48334615729394
30
0
41
1
10
18.8543802648583
20
-2.64099066585473
30
0
41
1
10
18.8319101407776
20
-2.72098817034819
30
0
41
1
10
18.7627229745706
20
-2.96442766760788
30
0
41
1
10
18.7142340907201
20
-3.1313070367973
30
0
41
1
10
18.6126633327678
20
-3.47397618527955
30
0
41
1
10
18.5595763034242
20
-3.64977596575162
30
0
41
1
10
18.4488171031349
20
-4.0102707104043
30
0
41
1
10
18.3908823585167
20
-4.19577564920895
30
0
41
1
10
18.2129492887286
20
-4.75677818553184
30
0
41
1
10
18.0883846455843
20
-5.1383747290789
30
0
41
1
10
17.9579748431774
20
-5.52744159683803
30
0
0
SPLINE
5
101
100
AcDbEntity
8
1
62
256
6
ByLayer
370
13
48
1
60
0
100
AcDbSpline
70
4
71
3
72
14
73
10
40
0
40
0
40
0
40
0
40
0.25
40
0.25
40
0.5
40
0.5
40
0.75
40
0.75
40
1
40
1
40
1
40
1
41
1
10
17.6101680349447
20
1.58508796250859
30
0
41
1
10
17.3675181418876
20
1.27755555132441
30
0
41
1
10
17.1349085745382
20
0.949118241914974
30
0
41
1
10
16.7052642650929
20
0.266159628971337
30
0
41
1
10
16.5083300613027
20
-0.0882592779229725
30
0
41
1
10
16.162762250279
20
-0.802994393102352
30
0
41
1
10
16.0141924753694
20
-1.16317741418423
30
0
41
1
10
15.7724998981425
20
-1.86856097163511
30
0
41
1
10
15.6793799821556
20
-2.21364831751762
30
0
41
1
10
15.6142331988608
20
-2.54240479466041
30
0
0
SPLINE
5
102
100
AcDbEntity
8
1
62
256
6
ByLayer
370
18
48
1
60
0
100
AcDbSpline
70
4
71
3
72
8
73
4
40
0
40
0
40
0
40
0
40
1
40
1
40
1
40
1
41
1
10
13.1532852417734
20
15.3346620898615
30
0
41
1
10
13.2438710755679
20
15.24778002529
30
0
41
1
10
13.3344391124854
20
15.1607178500841
30
0
41
1
10
13.4249892771495
20
15.0734924518004
30
0
0
SPLINE
5
103
100
AcDbEntity
8
1
62
256
6
ByLayer
370
18
48
1
60
0
100
AcDbSpline
70
4
71
3
72
16
73
12
40
0
40
0
40
0
40
0
40
0.25
40
0.25
40
0.5
40
0.5
40
0.625
40
0.625
40
0.75
40
0.75
40
1
40
1
40
1
40
1
41
1
10
1.10435897051532
20
3.97613937976649
30
0
41
1
10
2.02663094223394
20
3.88070197757773
30
0
41
1
10
2.94949726247735
20
3.78897699671163
30
0
41
1
10
4.79659808534501
20
3.61407297937414
30
0
41
1
10
5.72078784597969
20
3.53061447536946
30
0
41
1
10
7.10887637180548
20
3.41669414981737
30
0
41
1
10
7.57160226592237
20
3.3808911784603
30
0
41
1
10
8.49707826998883
20
3.31113353161498
30
0
41
1
10
8.95983116170234
20
3.27736416836043
30
0
41
1
10
10.3481381398203
20
3.17965523106493
30
0
41
1
10
11.2737361245266
20
3.11898660821652
30
0
41
1
10
12.1994362905501
20
3.06593172181442
30
0
0
SPLINE
5
104
100
AcDbEntity
8
1
62
256
6
ByLayer
370
18
48
1
60
0
100
AcDbSpline
70
4
71
3
72
8
73
4
40
0
40
0
40
0
40
0
40
1
40
1
40
1
40
1
41
1
10
1.05104076400856
20
4.00059014888458
30
0
41
1
10
1.06801080793915
20
3.99225761690666
30
0
41
1
10
1.0859017470476
20
3.98405418321698
30
0
41
1
10
1.10435897051413
20
3.97613937976591
30
0
0
SPLINE
5
105
100
AcDbEntity
8
1
62
256
6
ByLayer
370
18
48
1
60
0
100
AcDbSpline
70
4
71
3
72
10
73
6
40
0
40
0
40
0
40
0
40
0.908316696702186
40
0.908316696702186
40
1
40
1
40
1
40
1
41
1
10
0.991898116024586
20
-15.3941858105225
30
0
41
1
10
2.02723632273893
20
-15.4416227949445
30
0
41
1
10
3.06194191260235
20
-15.4689973349015
30
0
41
1
10
4.20029958784687
20
-15.477372093107
30
0
41
1
10
4.30466047589402
20
-15.4779382663185
30
0
41
1
10
4.4090132160643
20
-15.4783025650827
30
0
0
SPLINE
5
106
100
AcDbEntity
8
1
62
256
6
ByLayer
370
18
48
1
60
0
100
AcDbSpline
70
4
71
3
72
8
73
4
40
0
40
0
40
0
40
0
40
1
40
1
40
1
40
1
41
1
10
13.4249892771495
20
15.0734924518004
30
0
41
1
10
13.4164826041615
20
15.0823140675806
30
0
41
1
10
13.407978742824
20
15.0908171612869
30
0
41
1
10
13.3994777641425
20
15.0990028442079
30
0
0
SPLINE
5
107
100
AcDbEntity
8
1
62
256
6
ByLayer
370
18
48
1
60
0
100
AcDbSpline
70
4
71
3
72
8
73
4
40
0
40
0
40
0
40
0
40
1
40
1
40
1
40
1
41
1
10
1.05104076400858
20
4.00059014888458
30
0
41
1
10
0.699264380171073
20
4.17331733682789
30
0
41
1
10
0.348648655276733
20
4.35166897640816
30
0
41
1
10
-1.42E-14
20
4.53550205386284
30
0
0
LINE
5
70
100
AcDbEntity
8
80
62
256
6
ByLayer
370
18
48
1
60
0
100
AcDbLine
10
0
20
0
30
0
11
-20
21
0
31
0
39
0
210
0
220
0
230
1
0
LINE
5
71
100
AcDbEntity
8
1
62
256
6
ByLayer
370
18
48
1
60
0
100
AcDbLine
10
7.900584
20
-15.25975
30
0
11
13.065125
21
-15.25975
31
0
39
0
210
0
220
0
230
1
0
LINE
5
73
100
AcDbEntity
8
SK1
62
256
6
ByLayer
370
18
48
1
60
0
100
AcDbLine
10
-3.021222
20
-3.529539
30
0
11
-1.15
21
-3.529539
31
0
39
0
210
0
220
0
230
1
0
LINE
5
75
100
AcDbEntity
8
SK1
62
256
6
ByLayer
370
18
48
1
60
0
100
AcDbLine
10
-1.15
20
3.2
30
0
11
-12.8
21
3.2
31
0
39
0
210
0
220
0
230
1
0
LINE
5
76
100
AcDbEntity
8
1
62
256
6
ByLayer
370
18
48
1
60
0
100
AcDbLine
10
7.855437
20
15.490365
30
0
11
4.406996
21
15.478295
31
0
39
0
210
0
220
0
230
1
0
LINE
5
77
100
AcDbEntity
8
1
62
256
6
ByLayer
370
18
48
1
60
0
100
AcDbLine
10
4.406996
20
-15.478295
30
0
11
7.855437
21
-15.490365
31
0
39
0
210
0
220
0
230
1
0
LINE
5
78
100
AcDbEntity
8
SK1
62
256
6
ByLayer
370
18
48
1
60
0
100
AcDbLine
10
-12.8
20
-3.529539
30
0
11
-9.178778
21
-3.529539
31
0
39
0
210
0
220
0
230
1
0
LINE
5
79
100
AcDbEntity
8
4
62
256
6
ByLayer
370
18
48
0.05
60
0
100
AcDbLine
10
0
20
0
30
0
11
19.505308
21
0
31
0
39
0
210
0
220
0
230
1
0
LINE
5
7B
100
AcDbEntity
8
SK4
62
256
6
ByLayer
370
18
48
0.05
60
0
100
AcDbLine
10
-29.505308
20
0
30
0
11
29.505308
21
0
31
0
39
0
210
0
220
0
230
1
0
LINE
5
7D
100
AcDbEntity
8
81
62
256
6
ByLayer
370
18
48
1
60
0
100
AcDbLine
10
19.505308
20
0
30
0
11
39.505308
21
0
31
0
39
0
210
0
220
0
230
1
0
LINE
5
7E
100
AcDbEntity
8
SK1
62
256
6
ByLayer
370
18
48
1
60
0
100
AcDbLine
10
-0.05
20
-4.6
30
0
11
-0.05
21
-2.105454
31
0
39
0
210
0
220
0
230
1
0
LINE
5
7F
100
AcDbEntity
8
SK1
62
256
6
ByLayer
370
18
48
1
60
0
100
AcDbLine
10
-12.8
20
0.620225
30
0
11
-12.8
21
-1.151477
31
0
39
0
210
0
220
0
230
1
0
LINE
5
80
100
AcDbEntity
8
SK1
62
256
6
ByLayer
370
18
48
1
60
0
100
AcDbLine
10
-0.05
20
-0.246955
30
0
11
-0.05
21
4.3
31
0
39
0
210
0
220
0
230
1
0
LINE
5
81
100
AcDbEntity
8
SK1
62
256
6
ByLayer
370
13
48
1
60
0
100
AcDbLine
10
-8.537172
20
-1.151477
30
0
11
-12.8
21
-1.151477
31
0
39
0
210
0
220
0
230
1
0
LINE
5
82
100
AcDbEntity
8
SK1
62
256
6
ByLayer
370
13
48
1
60
0
100
AcDbLine
10
-12.8
20
0.620225
30
0
11
-13
21
0.611786
31
0
39
0
210
0
220
0
230
1
0
LINE
5
83
100
AcDbEntity
8
SK1
62
256
6
ByLayer
370
13
48
1
60
0
100
AcDbLine
10
-12.8
20
-1.151477
30
0
11
-13
21
-1.159917
31
0
39
0
210
0
220
0
230
1
0
LINE
5
84
100
AcDbEntity
8
SK1
62
256
6
ByLayer
370
13
48
1
60
0
100
AcDbLine
10
-4.270385
20
-3.341926
30
0
11
-4.270385
21
-0.726205
31
0
39
0
210
0
220
0
230
1
0
LINE
5
85
100
AcDbEntity
8
SK1
62
256
6
ByLayer
370
18
48
1
60
0
100
AcDbLine
10
-12.8
20
2.758438
30
0
11
-1.15
21
2.758438
31
0
39
0
210
0
220
0
230
1
0
LINE
5
86
100
AcDbEntity
8
SK1
62
256
6
ByLayer
370
18
48
1
60
0
100
AcDbLine
10
-13
20
0.611786
30
0
11
-13
21
-1.159917
31
0
39
0
210
0
220
0
230
1
0
LINE
5
87
100
AcDbEntity
8
SK1
62
256
6
ByLayer
370
13
48
1
60
0
100
AcDbLine
10
-1.15
20
2.758438
30
0
11
-1.15
21
3.2
31
0
39
0
210
0
220
0
230
1
0
LINE
5
88
100
AcDbEntity
8
SK1
62
256
6
ByLayer
370
13
48
1
60
0
100
AcDbLine
10
-1.15
20
2.758438
30
0
11
-1.15
21
0.620225
31
0
39
0
210
0
220
0
230
1
0
LINE
5
89
100
AcDbEntity
8
SK1
62
256
6
ByLayer
370
18
48
1
60
0
100
AcDbLine
10
-12.8
20
2.758438
30
0
11
-12.8
21
0.620225
31
0
39
0
210
0
220
0
230
1
0
LINE
5
8A
100
AcDbEntity
8
SK1
62
256
6
ByLayer
370
13
48
1
60
0
100
AcDbLine
10
-1.15
20
0.620225
30
0
11
-12.8
21
0.620225
31
0
39
0
210
0
220
0
230
1
0
LINE
5
8B
100
AcDbEntity
8
SK1
62
256
6
ByLayer
370
13
48
1
60
0
100
AcDbLine
10
-1.15
20
-3.529539
30
0
11
-1.15
21
-1.151477
31
0
39
0
210
0
220
0
230
1
0
LINE
5
8C
100
AcDbEntity
8
SK1
62
256
6
ByLayer
370
13
48
1
60
0
100
AcDbLine
10
-4.420385
20
-3.323529
30
0
11
-4.420385
21
-0.677477
31
0
39
0
210
0
220
0
230
1
0
LINE
5
8D
100
AcDbEntity
8
SK1
62
256
6
ByLayer
370
18
48
1
60
0
100
AcDbLine
10
0
20
-4.75
30
0
11
0
21
4.45
31
0
39
0
210
0
220
0
230
1
0
LINE
5
8E
100
AcDbEntity
8
SK1
62
256
6
ByLayer
370
13
48
1
60
0
100
AcDbLine
10
-7.929615
20
-3.341926
30
0
11
-7.929615
21
-0.726205
31
0
39
0
210
0
220
0
230
1
0
LINE
5
8F
100
AcDbEntity
8
SK1
62
256
6
ByLayer
370
18
48
1
60
0
100
AcDbLine
10
-3.662828
20
-1.151477
30
0
11
-4.270385
21
-0.726205
31
0
39
0
210
0
220
0
230
1
0
LINE
5
90
100
AcDbEntity
8
SK1
62
256
6
ByLayer
370
18
48
1
60
0
100
AcDbLine
10
-12.8
20
-3.529539
30
0
11
-12.8
21
-1.151477
31
0
39
0
210
0
220
0
230
1
0
LINE
5
91
100
AcDbEntity
8
SK1
62
256
6
ByLayer
370
13
48
1
60
0
100
AcDbLine
10
-1.15
20
-1.151477
30
0
11
-3.662828
21
-1.151477
31
0
39
0
210
0
220
0
230
1
0
LINE
5
92
100
AcDbEntity
8
SK1
62
256
6
ByLayer
370
18
48
1
60
0
100
AcDbLine
10
-7.779615
20
-3.323529
30
0
11
-4.420385
21
-3.323529
31
0
39
0
210
0
220
0
230
1
0
LINE
5
93
100
AcDbEntity
8
SK1
62
256
6
ByLayer
370
13
48
1
60
0
100
AcDbLine
10
-7.779615
20
-3.323529
30
0
11
-7.779615
21
-0.677477
31
0
39
0
210
0
220
0
230
1
0
LINE
5
94
100
AcDbEntity
8
SK1
62
256
6
ByLayer
370
18
48
1
60
0
100
AcDbLine
10
-12.8
20
2.758438
30
0
11
-12.8
21
3.2
31
0
39
0
210
0
220
0
230
1
0
LINE
5
95
100
AcDbEntity
8
SK1
62
256
6
ByLayer
370
13
48
1
60
0
100
AcDbLine
10
-1.15
20
0.620225
30
0
11
-1.15
21
-1.151477
31
0
39
0
210
0
220
0
230
1
0
LINE
5
96
100
AcDbEntity
8
SK1
62
256
6
ByLayer
370
18
48
1
60
0
100
AcDbLine
10
-13
20
2.697432
30
0
11
-12.8
21
2.758438
31
0
39
0
210
0
220
0
230
1
0
LINE
5
97
100
AcDbEntity
8
SK1
62
256
6
ByLayer
370
18
48
1
60
0
100
AcDbLine
10
-7.929615
20
-0.726205
30
0
11
-8.537172
21
-1.151477
31
0
39
0
210
0
220
0
230
1
0
LINE
5
98
100
AcDbEntity
8
SK1
62
256
6
ByLayer
370
18
48
1
60
0
100
AcDbLine
10
-4.420385
20
-0.677477
30
0
11
-7.779615
21
-0.677477
31
0
39
0
210
0
220
0
230
1
0
LINE
5
99
100
AcDbEntity
8
1
62
256
6
ByLayer
370
18
48
1
60
0
100
AcDbLine
10
15.048472
20
-6.727155
30
0
11
14.876177
21
-6.266929
31
0
39
0
210
0
220
0
230
1
0
LINE
5
9A
100
AcDbEntity
8
1
62
256
6
ByLayer
370
18
48
1
60
0
100
AcDbLine
10
12.398488
20
-14.269219
30
0
11
15.048472
21
-6.727155
31
0
39
0
210
0
220
0
230
1
0
LINE
5
9B
100
AcDbEntity
8
1
62
256
6
ByLayer
370
13
48
1
60
0
100
AcDbLine
10
1.051041
20
4.00059
30
0
11
1.051041
21
-14.351479
31
0
39
0
210
0
220
0
230
1
0
LINE
5
9C
100
AcDbEntity
8
1
62
256
6
ByLayer
370
13
48
1
60
0
100
AcDbLine
10
0
20
-14.59062
30
0
11
0.42429
21
-14.739787
31
0
39
0
210
0
220
0
230
1
0
LINE
5
9D
100
AcDbEntity
8
1
62
256
6
ByLayer
370
13
48
1
60
0
100
AcDbLine
10
17.632967
20
1.569059
30
0
11
19.426266
21
0.315651
31
0
39
0
210
0
220
0
230
1
0
LINE
5
9E
100
AcDbEntity
8
1
62
256
6
ByLayer
370
13
48
1
60
0
100
AcDbLine
10
19.403244
20
0.401633
30
0
11
17.67813
21
1.607384
31
0
39
0
210
0
220
0
230
1
0
LINE
5
9F
100
AcDbEntity
8
1
62
256
6
ByLayer
370
18
48
1
60
0
100
AcDbLine
10
14.789072
20
-13.694574
30
0
11
18.97795
21
-1.531043
31
0
39
0
210
0
220
0
230
1
0
LINE
5
A0
100
AcDbEntity
8
1
62
256
6
ByLayer
370
18
48
1
60
0
100
AcDbLine
10
0
20
-14.59062
30
0
11
0
21
-14.530577
31
0
39
0
210
0
220
0
230
1
0
LINE
5
A1
100
AcDbEntity
8
1
62
256
6
ByLayer
370
18
48
1
60
0
100
AcDbLine
10
19.463662
20
0.187976
30
0
11
19.505308
21
0.000285
31
0
39
0
210
0
220
0
230
1
0
LINE
5
A2
100
AcDbEntity
8
1
62
256
6
ByLayer
370
18
48
1
60
0
100
AcDbLine
10
0.42429
20
-14.919139
30
0
11
0.42429
21
-14.739787
31
0
39
0
210
0
220
0
230
1
0
LINE
5
A3
100
AcDbEntity
8
1
62
256
6
ByLayer
370
18
48
1
60
0
100
AcDbLine
10
19.505308
20
0.000285
30
0
11
19.505308
21
-0.000285
31
0
39
0
210
0
220
0
230
1
0
LINE
5
A4
100
AcDbEntity
8
1
62
256
6
ByLayer
370
18
48
1
60
0
100
AcDbLine
10
15.048472
20
-6.727155
30
0
11
17.597313
21
-3.928459
31
0
39
0
210
0
220
0
230
1
0
LINE
5
A5
100
AcDbEntity
8
1
62
256
6
ByLayer
370
18
48
1
60
0
100
AcDbLine
10
19.142074
20
-1.054463
30
0
11
19.505308
21
0.000285
31
0
39
0
210
0
220
0
230
1
0
LINE
5
A6
100
AcDbEntity
8
1
62
256
6
ByLayer
370
18
48
1
60
0
100
AcDbLine
10
0
20
-14.59062
30
0
11
0
21
-14.988475
31
0
39
0
210
0
220
0
230
1
0
LINE
5
A7
100
AcDbEntity
8
1
62
256
6
ByLayer
370
18
48
1
60
0
100
AcDbLine
10
0
20
-14.530577
30
0
11
0
21
4.535502
31
0
39
0
210
0
220
0
230
1
0
LINE
5
A8
100
AcDbEntity
8
1
62
256
6
ByLayer
370
18
48
1
60
0
100
AcDbLine
10
0.991898
20
-15.394186
30
0
11
0.991898
21
-15.174825
31
0
39
0
210
0
220
0
230
1
0
LINE
5
A9
100
AcDbEntity
8
1
62
256
6
ByLayer
370
18
48
1
60
0
100
AcDbLine
10
19.403244
20
-0.401633
30
0
11
19.148563
21
-1.503708
31
0
39
0
210
0
220
0
230
1
0
LINE
5
AA
100
AcDbEntity
8
1
62
256
6
ByLayer
370
18
48
1
60
0
100
AcDbLine
10
19.505308
20
-0.000285
30
0
11
19.463662
21
-0.187976
31
0
39
0
210
0
220
0
230
1
0
LINE
5
AB
100
AcDbEntity
8
1
62
256
6
ByLayer
370
18
48
1
60
0
100
AcDbLine
10
1.104359
20
-14.333693
30
0
11
1.104359
21
3.976139
31
0
39
0
210
0
220
0
230
1
0
LINE
5
AC
100
AcDbEntity
8
1
62
256
6
ByLayer
370
18
48
1
60
0
100
AcDbLine
10
1.104359
20
-14.333693
30
0
11
12.320168
21
-14.333693
31
0
39
0
210
0
220
0
230
1
0
LINE
5
AD
100
AcDbEntity
8
1
62
256
6
ByLayer
370
18
48
1
60
0
100
AcDbLine
10
19.403244
20
0.401633
30
0
11
19.148563
21
1.503708
31
0
39
0
210
0
220
0
230
1
0
LINE
5
AE
100
AcDbEntity
8
2
62
256
6
ByLayer
370
13
48
1
60
0
100
AcDbLine
10
0
20
-34.25
30
0
11
29.583598
21
-34.25
31
0
39
0
210
0
220
0
230
1
0
LINE
5
B0
100
AcDbEntity
8
2
62
256
6
ByLayer
370
13
48
1
60
0
100
AcDbLine
10
0
20
-1.5875
30
0
11
0
21
-36.25
31
0
39
0
210
0
220
0
230
1
0
LINE
5
B1
100
AcDbEntity
8
2
62
256
6
ByLayer
370
13
48
1
60
0
100
AcDbLine
10
19.505308
20
-1.5875
30
0
11
19.505308
21
-36.25
31
0
39
0
210
0
220
0
230
1
0
LINE
5
B2
100
AcDbEntity
8
1
62
256
6
ByLayer
370
18
48
1
60
1
100
AcDbLine
10
0
20
-34.25
30
0
11
3.499998
21
-33.789216
31
0
39
0
210
0
220
0
230
1
0
LINE
5
B3
100
AcDbEntity
8
1
62
256
6
ByLayer
370
18
48
1
60
1
100
AcDbLine
10
3.499998
20
-33.789216
30
0
11
3.500002
21
-34.710784
31
0
39
0
210
0
220
0
230
1
0
LINE
5
B4
100
AcDbEntity
8
1
62
256
6
ByLayer
370
18
48
1
60
1
100
AcDbLine
10
3.500002
20
-34.710784
30
0
11
0
21
-34.25
31
0
39
0
210
0
220
0
230
1
0
LINE
5
B5
100
AcDbEntity
8
1
62
256
6
ByLayer
370
18
48
1
60
1
100
AcDbLine
10
19.505308
20
-34.25
30
0
11
16.00531
21
-34.710784
31
0
39
0
210
0
220
0
230
1
0
LINE
5
B6
100
AcDbEntity
8
1
62
256
6
ByLayer
370
18
48
1
60
1
100
AcDbLine
10
16.00531
20
-34.710784
30
0
11
16.005307
21
-33.789216
31
0
39
0
210
0
220
0
230
1
0
LINE
5
B7
100
AcDbEntity
8
1
62
256
6
ByLayer
370
18
48
1
60
1
100
AcDbLine
10
16.005307
20
-33.789216
30
0
11
19.505308
21
-34.25
31
0
39
0
210
0
220
0
230
1
0
LINE
5
10D
100
AcDbEntity
8
1
62
256
6
ByLayer
370
18
48
1
60
1
100
AcDbLine
10
0
20
-34.25
30
0
11
3.499998
21
-33.789216
31
0
39
0
210
0
220
0
230
1
0
LINE
5
10E
100
AcDbEntity
8
1
62
256
6
ByLayer
370
18
48
1
60
1
100
AcDbLine
10
3.499998
20
-33.789216
30
0
11
3.500002
21
-34.710784
31
0
39
0
210
0
220
0
230
1
0
LINE
5
10F
100
AcDbEntity
8
1
62
256
6
ByLayer
370
18
48
1
60
1
100
AcDbLine
10
3.500002
20
-34.710784
30
0
11
0
21
-34.25
31
0
39
0
210
0
220
0
230
1
0
LINE
5
111
100
AcDbEntity
8
1
62
256
6
ByLayer
370
18
48
1
60
1
100
AcDbLine
10
19.505308
20
-34.25
30
0
11
16.00531
21
-34.710784
31
0
39
0
210
0
220
0
230
1
0
LINE
5
112
100
AcDbEntity
8
1
62
256
6
ByLayer
370
18
48
1
60
1
100
AcDbLine
10
16.00531
20
-34.710784
30
0
11
16.005307
21
-33.789216
31
0
39
0
210
0
220
0
230
1
0
LINE
5
113
100
AcDbEntity
8
1
62
256
6
ByLayer
370
18
48
1
60
1
100
AcDbLine
10
16.005307
20
-33.789216
30
0
11
19.505308
21
-34.25
31
0
39
0
210
0
220
0
230
1
0
MTEXT
5
108
100
AcDbEntity
8
SK6
62
256
6
ByLayer
370
13
48
1
60
0
100
AcDbMText
10
-11.66696
20
30.25
30
0
210
0
220
0
230
1
1
\W0.7012;870-3100-31-KM
40
3
41
0
44
1.084337
50
0
71
7
72
5
7
iso_b_vert
0
MTEXT
5
10C
100
AcDbEntity
8
2
62
256
6
ByLayer
370
13
48
1
60
0
100
AcDbMText
10
23.302019
20
-33.375
30
0
210
0
220
0
230
1
1
\W0.6563;19.5
40
3.5
41
0
44
1.084337
50
0
71
7
72
5
7
iso_b_vert
0
HATCH
5
110
100
AcDbEntity
8
2
62
256
6
ByLayer
370
13
48
1
60
0
100
AcDbHatch
10
0
20
0
30
0
210
0
220
0
230
1
2
ANSI31
70
0
71
0
91
1
92
5
93
3
72
1
10
0
20
-34.25
11
3.49999830744682
21
-33.7892162584472
72
1
10
3.49999830744682
20
-33.7892162584472
11
3.50000169255318
21
-34.7107837415528
72
1
10
3.50000169255318
20
-34.7107837415528
11
0
21
-34.25
97
0
75
0
76
1
52
0
41
0.02
77
0
78
1
53
44.9999999999999
43
0
44
0
45
-0.0449012806053457
46
0.0449012806053459
79
0
47
0
98
1
10
0
20
0
0
HATCH
5
114
100
AcDbEntity
8
2
62
256
6
ByLayer
370
13
48
1
60
0
100
AcDbHatch
10
0
20
0
30
0
210
0
220
0
230
1
2
ANSI31
70
0
71
0
91
1
92
5
93
3
72
1
10
19.5053083
20
-34.25
11
16.0053099925532
21
-34.7107837415528
72
1
10
16.0053099925532
20
-34.7107837415528
11
16.0053066074468
21
-33.7892162584472
72
1
10
16.0053066074468
20
-33.7892162584472
11
19.5053083
21
-34.25
97
0
75
0
76
1
52
0
41
0.02
77
0
78
1
53
44.9999999999999
43
0
44
0
45
-0.0449012806053457
46
0.0449012806053459
79
0
47
0
98
1
10
0
20
0
0
DIMENSION
5
11E
100
AcDbEntity
8
2
62
256
6
ByLayer
370
13
48
1
60
0
100
AcDbDimension
2
DimnDraft3D1
10
13.397213
20
-24
30
0
11
26.005308
21
-24
31
0
70
32
71
5
72
1
41
1
210
0
220
0
230
1
3
Standard
100
AcDbAlignedDimension
13
19.505308
23
-1.5875
33
0
14
13.397213
24
-17.0875
34
0
50
0
100
AcDbRotatedDimension
1001
ACAD
1000
DSTYLE
1002
{
1070
   279
1070
     0
1070
   172
1070
     1
1070
   173
1070
     1
1070
   340
1005
109
1070
   271
1070
     1
1070
   272
1070
     2
1070
    77
1070
     1
1070
    73
1070
     0
1070
   171
1070
     3
1070
   274
1070
     4
1070
   177
1070
    35
1070
   176
1070
    35
1070
   178
1070
    35
1070
    78
1070
     8
1070
    48
1040
-0.005
1070
    41
1041
3.5
1070
   147
1041
1.5
1070
    42
1041
1.5875
1070
    44
1041
2.0
1070
   140
1041
3.0
1070
   343
1005
0
1070
   344
1005
0
1002
}
0
DIMENSION
5
128
100
AcDbEntity
8
2
62
256
6
ByLayer
370
13
48
1
60
0
100
AcDbDimension
2
DimnDraft3D2
10
33.471498
20
-15.5
30
0
11
33.471498
21
21.608095
31
0
70
32
71
5
72
1
41
1
210
0
220
0
230
1
3
Standard
100
AcDbAlignedDimension
13
14.984713
23
15.5
33
0
14
14.984713
24
-15.5
34
0
50
90
100
AcDbRotatedDimension
1001
ACAD
1000
DSTYLE
1002
{
1070
    74
1070
     0
1070
   279
1070
     0
1070
   172
1070
     1
1070
   173
1070
     1
1070
   340
1005
109
1070
   271
1070
     1
1070
   272
1070
     2
1070
    77
1070
     1
1070
    73
1070
     0
1070
   171
1070
     3
1070
   274
1070
     4
1070
   177
1070
    35
1070
   176
1070
    35
1070
   178
1070
    35
1070
    78
1070
     8
1070
    48
1040
-0.005
1070
    41
1041
3.5
1070
   147
1041
1.75
1070
    42
1041
1.5875
1070
    44
1041
2.0
1070
   140
1041
3.5
1070
   343
1005
0
1070
   344
1005
0
1002
}
0
ENDSEC
0
SECTION
2
OBJECTS
0
DICTIONARY
5
195
330
0
100
AcDbDictionary
280
0
281
1
3
ACAD_GROUP
350
196
3
ACAD_GROUP
350
197
3
ACAD_MLINESTYLE
350
198
0
DICTIONARY
5
196
330
0
100
AcDbDictionary
280
0
281
1
0
DICTIONARY
5
197
330
0
100
AcDbDictionary
280
0
281
1
3
15027176888091751_1_ASS2D_2D
350
131
3
DIMENSION
350
132
0
DICTIONARY
5
198
330
0
100
AcDbDictionary
280
0
281
1
3
Standard
350
18
0
GROUP
5
131
330
197
100
AcDbGroup
300

70
0
71
1
340
6C
340
6E
340
70
340
71
340
73
340
75
340
76
340
77
340
78
340
79
340
7B
340
7D
340
7E
340
7F
340
80
340
81
340
82
340
83
340
84
340
85
340
86
340
87
340
88
340
89
340
8A
340
8B
340
8C
340
8D
340
8E
340
8F
340
90
340
91
340
92
340
93
340
94
340
95
340
96
340
97
340
98
340
99
340
9A
340
9B
340
9C
340
9D
340
9E
340
9F
340
A0
340
A1
340
A2
340
A3
340
A4
340
A5
340
A6
340
A7
340
A8
340
A9
340
AA
340
AB
340
AC
340
AD
340
AE
340
B0
340
B1
340
B2
340
B3
340
B4
340
B5
340
B6
340
B7
340
B8
340
B9
340
BA
340
BB
340
BC
340
BD
340
BE
340
BF
340
C0
340
C1
340
C2
340
C3
340
C4
340
C5
340
C6
340
C7
340
C8
340
C9
340
CA
340
CB
340
CC
340
CD
340
CE
340
CF
340
D0
340
D1
340
D2
340
D3
340
D4
340
D5
340
D6
340
D7
340
D8
340
D9
340
DA
340
DB
340
DC
340
DD
340
DE
340
DF
340
E0
340
E1
340
E2
340
E3
340
E4
340
E5
340
E6
340
E7
340
E8
340
E9
340
EA
340
EB
340
EC
340
ED
340
EE
340
EF
340
F0
340
F1
340
F2
340
F3
340
F4
340
F5
340
F6
340
F7
340
F8
340
F9
340
FA
340
FB
340
FC
340
FD
340
FE
340
FF
340
100
340
101
340
102
340
103
340
104
340
105
340
106
340
107
340
AE
340
B0
340
B1
340
10C
340
110
340
114
340
108
340
10C
340
110
340
114
340
11E
340
128
0
GROUP
5
132
330
197
100
AcDbGroup
300

70
0
71
1
340
AE
340
B0
340
B1
340
10C
340
110
340
114
0
MLINESTYLE
5
18
330
198
100
AcDbMlineStyle
2
Standard
70
0
3

62
256
51
90
52
90
71
2
49
-0.5
62
256
6
ByLayer
49
0.5
62
256
6
ByLayer
0
RASTERVARIABLES
5
183
330

100
AcDbRasterVariables
90
0
70
1
71
1
72
1
0
ENDSEC
0
EOF
