0
SECTION
2
HEADER
9
$ACADVER
1
AC1015
9
$DWGCODEPAGE
3
ANSI_1252
9
$HANDSEED
5
23e
9
$ANGBASE
50
0
9
$ANGDIR
70
0
9
$ATTMODE
70
1
9
$AUNITS
70
0
9
$AUPREC
70
0
9
$CECOLOR
62
256
9
$CELTSCALE
40
1
9
$CELTYPE
6
ByLayer
9
$CELWEIGHT
370
18
9
$CLAYER
8
0
9
$CMLJUST
70
0
9
$CMLSCALE
40
1
9
$CMLSTYLE
2
Standard
9
$DIMSTYLE
2
Standard
9
$TEXTSIZE
40
0.2
9
$TEXTSTYLE
7
Standard
9
$LUNITS
70
2
9
$LUPREC
70
4
9
$EXTNAMES
290
1
9
$INSUNITS
70
4
9
$LTSCALE
40
1
9
$LWDISPLAY
290
1
9
$PDMODE
70
0
9
$PDSIZE
40
0
9
$PLINEGEN
70
0
0
ENDSEC
0
SECTION
2
CLASSES
0
CLASS
1
RASTERVARIABLES
2
AcDbRasterVariables
3
ISM
90
0
280
0
281
0
0
ENDSEC
0
SECTION
2
TABLES
0
TABLE
2
VPORT
5
234
100
AcDbSymbolTable
0
VPORT
5
1
100
AcDbSymbolTableRecord
100
AcDbViewportTableRecord
2
*Active
70
0
10
0
20
0
11
1
21
1
12
-1
22
1
13
0
23
0
14
0.5
24
0.5
15
10
25
10
16
0
26
0
36
1
17
0
27
0
37
0
0
ENDTAB
0
TABLE
2
LTYPE
5
235
100
AcDbSymbolTable
0
LTYPE
5
14
100
AcDbSymbolTableRecord
100
AcDbLinetypeTableRecord
70
0
2
ByBlock
3

72
65
73
0
40
0
0
LTYPE
5
15
100
AcDbSymbolTableRecord
100
AcDbLinetypeTableRecord
70
0
2
ByLayer
3

72
65
73
0
40
0
0
LTYPE
5
16
100
AcDbSymbolTableRecord
100
AcDbLinetypeTableRecord
70
0
2
CONTINUOUS
3
Solid line
72
65
73
0
40
0
0
LTYPE
5
6A
100
AcDbSymbolTableRecord
100
AcDbLinetypeTableRecord
70
0
2
CENTER
3
____ _ ____ _ ____ _ ____
72
65
73
4
40
47.5
49
22
74
0
49
-8.5
74
0
49
8.5
74
0
49
-8.5
74
0
0
LTYPE
5
6B
100
AcDbSymbolTableRecord
100
AcDbLinetypeTableRecord
70
0
2
DASHED
3
__ __ __ __ __ __ __ __ __
72
65
73
2
40
25.72
49
12.86
74
0
49
-12.86
74
0
0
ENDTAB
0
TABLE
2
LAYER
5
236
100
AcDbSymbolTable
0
LAYER
5
10
100
AcDbSymbolTableRecord
100
AcDbLayerTableRecord
2
0
70
0
62
7
6
CONTINUOUS
290
1
370
-3
390
0
0
LAYER
5
6D
100
AcDbSymbolTableRecord
100
AcDbLayerTableRecord
2
80
70
0
62
-6
6
CONTINUOUS
290
1
370
-3
390
0
0
LAYER
5
6F
100
AcDbSymbolTableRecord
100
AcDbLayerTableRecord
2
81
70
0
62
-3
6
CONTINUOUS
290
1
370
-3
390
0
0
LAYER
5
72
100
AcDbSymbolTableRecord
100
AcDbLayerTableRecord
2
1
70
0
62
4
6
CONTINUOUS
290
1
370
-3
390
0
0
LAYER
5
91
100
AcDbSymbolTableRecord
100
AcDbLayerTableRecord
2
4
70
0
62
-2
6
CENTER
290
1
370
-3
390
0
0
LAYER
5
194
100
AcDbSymbolTableRecord
100
AcDbLayerTableRecord
2
2
70
0
62
7
6
CONTINUOUS
290
1
370
-3
390
0
0
LAYER
5
220
100
AcDbSymbolTableRecord
100
AcDbLayerTableRecord
2
SK1
70
0
62
4
6
CONTINUOUS
290
1
370
-3
390
0
0
LAYER
5
221
100
AcDbSymbolTableRecord
100
AcDbLayerTableRecord
2
SK4
70
0
62
2
6
CENTER
290
1
370
-3
390
0
0
LAYER
5
222
100
AcDbSymbolTableRecord
100
AcDbLayerTableRecord
2
SK6
70
0
62
5
6
CONTINUOUS
290
1
370
-3
390
0
0
LAYER
5
223
100
AcDbSymbolTableRecord
100
AcDbLayerTableRecord
2
SK2
70
0
62
7
6
CONTINUOUS
290
1
370
-3
390
0
0
ENDTAB
0
TABLE
2
STYLE
5
237
100
AcDbSymbolTable
0
STYLE
5
11
100
AcDbSymbolTableRecord
100
AcDbTextStyleTableRecord
2
Standard
3
txt
70
0
71
0
40
0
41
1
42
0
50
0
0
STYLE
5
18F
100
AcDbSymbolTableRecord
100
AcDbTextStyleTableRecord
2
iso_b_vert
3
simplex.shx
70
0
71
0
40
0
41
1
42
0
50
0
0
STYLE
5
190
100
AcDbSymbolTableRecord
100
AcDbTextStyleTableRecord
2
DWGDirectTextStyle
3
simplex
70
0
71
0
40
0
41
1
42
0
50
0
0
ENDTAB
0
TABLE
2
DIMSTYLE
5
238
100
AcDbSymbolTable
100
AcDbDimStyleTable
0
DIMSTYLE
105
27
100
AcDbSymbolTableRecord
100
AcDbDimStyleTableRecord
2
Standard
70
0
3
<>
41
0.18
42
0.0625
44
0.18
140
0.18
147
0.09
73
0
74
0
77
1
271
2
275
0
278
52
280
0
340
11
0
ENDTAB
0
TABLE
2
VIEW
5
239
100
AcDbSymbolTable
0
ENDTAB
0
TABLE
2
UCS
5
23a
100
AcDbSymbolTable
0
ENDTAB
0
TABLE
2
APPID
5
23b
100
AcDbSymbolTable
0
APPID
5
12
100
AcDbSymbolTableRecord
100
AcDbRegAppTableRecord
2
ACAD
70
0
0
ENDTAB
0
TABLE
2
BLOCK_RECORD
5
23c
100
AcDbSymbolTable
0
BLOCK_RECORD
5
1F
100
AcDbSymbolTableRecord
100
AcDbBlockTableRecord
2
*Model_Space
340
0
70
0
0
BLOCK_RECORD
5
1B
100
AcDbSymbolTableRecord
100
AcDbBlockTableRecord
2
*Paper_Space
340
0
70
0
0
BLOCK_RECORD
5
23
100
AcDbSymbolTableRecord
100
AcDbBlockTableRecord
2
*Paper_Space0
340
0
70
0
0
BLOCK_RECORD
5
192
100
AcDbSymbolTableRecord
100
AcDbBlockTableRecord
2
DimnDraft3D1
340
0
70
0
0
BLOCK_RECORD
5
19D
100
AcDbSymbolTableRecord
100
AcDbBlockTableRecord
2
DimnDraft3D2
340
0
70
0
0
BLOCK_RECORD
5
1A7
100
AcDbSymbolTableRecord
100
AcDbBlockTableRecord
2
DimnDraft3D3
340
0
70
0
0
BLOCK_RECORD
5
1B2
100
AcDbSymbolTableRecord
100
AcDbBlockTableRecord
2
DimnDraft3D4
340
0
70
0
0
BLOCK_RECORD
5
1BC
100
AcDbSymbolTableRecord
100
AcDbBlockTableRecord
2
DimnDraft3D5
340
0
70
0
0
ENDTAB
0
ENDSEC
0
SECTION
2
BLOCKS
0
BLOCK
5
20
100
AcDbEntity
8
0
100
AcDbBlockBegin
2
*Model_Space
70
0
10
0
20
0
30
0
3
*Model_Space
0
ENDBLK
5
21
100
AcDbEntity
8
0
100
AcDbBlockEnd
0
BLOCK
5
1C
100
AcDbEntity
8
0
100
AcDbBlockBegin
2
*Paper_Space
70
0
10
0
20
0
30
0
3
*Paper_Space
0
ENDBLK
5
1D
100
AcDbEntity
8
0
100
AcDbBlockEnd
0
BLOCK
5
24
100
AcDbEntity
8
0
100
AcDbBlockBegin
2
*Paper_Space0
70
0
10
0
20
0
30
0
3
*Paper_Space0
0
ENDBLK
5
25
100
AcDbEntity
8
0
100
AcDbBlockEnd
0
BLOCK
5
19A
100
AcDbEntity
8
0
100
AcDbBlockBegin
2
DimnDraft3D1
70
0
10
0
20
0
30
0
3
DimnDraft3D1
0
MTEXT
5
193
100
AcDbEntity
8
2
62
256
6
ByLayer
370
13
48
1
60
0
100
AcDbMText
10
102.483572
20
-26.749886
30
0
210
0
220
0
230
1
1
\W0.6864;158.0
40
3
41
0
44
1.084337
50
0
71
7
72
5
7
iso_b_vert
0
LINE
5
195
100
AcDbEntity
8
2
62
256
6
ByLayer
370
13
48
1
60
0
100
AcDbLine
10
185
20
-1.5875
30
0
11
185
21
-29.5
31
0
39
0
210
0
220
0
230
1
0
LINE
5
196
100
AcDbEntity
8
2
62
256
6
ByLayer
370
13
48
1
60
0
100
AcDbLine
10
27
20
-16.0875
30
0
11
27
21
-29.5
31
0
39
0
210
0
220
0
230
1
0
LINE
5
197
100
AcDbEntity
8
2
62
256
6
ByLayer
370
13
48
1
60
0
100
AcDbLine
10
185
20
-27.5
30
0
11
27
21
-27.5
31
0
39
0
210
0
220
0
230
1
0
SOLID
5
198
100
AcDbEntity
8
2
62
256
6
ByLayer
370
13
48
1
60
0
100
AcDbTrace
10
185
20
-27.5
30
0
11
181.500002
21
-27.960784
31
0
12
181.499998
22
-27.039216
32
0
13
185
23
-27.5
33
0
39
0
210
0
220
0
230
1
0
SOLID
5
199
100
AcDbEntity
8
2
62
256
6
ByLayer
370
13
48
1
60
0
100
AcDbTrace
10
27
20
-27.5
30
0
11
30.499998
21
-27.039216
31
0
12
30.500002
22
-27.960784
32
0
13
27
23
-27.5
33
0
39
0
210
0
220
0
230
1
0
ENDBLK
5
19B
100
AcDbEntity
8
0
100
AcDbBlockEnd
0
BLOCK
5
1A4
100
AcDbEntity
8
0
100
AcDbBlockBegin
2
DimnDraft3D2
70
0
10
0
20
0
30
0
3
DimnDraft3D2
0
MTEXT
5
19E
100
AcDbEntity
8
2
62
256
6
ByLayer
370
13
48
1
60
0
100
AcDbMText
10
103.975629
20
22.250114
30
0
210
0
220
0
230
1
1
\W0.7091;154.7
40
3
41
0
44
1.084337
50
0
71
7
72
5
7
iso_b_vert
0
LINE
5
19F
100
AcDbEntity
8
2
62
256
6
ByLayer
370
13
48
1
60
0
100
AcDbLine
10
185
20
1.5875
30
0
11
185
21
23.5
31
0
39
0
210
0
220
0
230
1
0
LINE
5
1A0
100
AcDbEntity
8
2
62
256
6
ByLayer
370
13
48
1
60
0
100
AcDbLine
10
30.3
20
16.0875
30
0
11
30.3
21
23.5
31
0
39
0
210
0
220
0
230
1
0
LINE
5
1A1
100
AcDbEntity
8
2
62
256
6
ByLayer
370
13
48
1
60
0
100
AcDbLine
10
185
20
21.5
30
0
11
30.3
21
21.5
31
0
39
0
210
0
220
0
230
1
0
SOLID
5
1A2
100
AcDbEntity
8
2
62
256
6
ByLayer
370
13
48
1
60
0
100
AcDbTrace
10
185
20
21.5
30
0
11
181.500002
21
21.039216
31
0
12
181.499998
22
21.960784
32
0
13
185
23
21.5
33
0
39
0
210
0
220
0
230
1
0
SOLID
5
1A3
100
AcDbEntity
8
2
62
256
6
ByLayer
370
13
48
1
60
0
100
AcDbTrace
10
30.3
20
21.5
30
0
11
33.799998
21
21.960784
31
0
12
33.800002
22
21.039216
32
0
13
30.3
23
21.5
33
0
39
0
210
0
220
0
230
1
0
ENDBLK
5
1A5
100
AcDbEntity
8
0
100
AcDbBlockEnd
0
BLOCK
5
1AF
100
AcDbEntity
8
0
100
AcDbBlockBegin
2
DimnDraft3D3
70
0
10
0
20
0
30
0
3
DimnDraft3D3
0
MTEXT
5
1A8
100
AcDbEntity
8
SK2
62
256
6
ByLayer
370
13
48
1
60
0
100
AcDbMText
10
-32.770456
20
-38.249886
30
0
210
0
220
0
230
1
1
\W0.7346;60.0
40
3
41
0
44
1.084337
50
0
71
7
72
5
7
iso_b_vert
0
LINE
5
1AA
100
AcDbEntity
8
SK2
62
256
6
ByLayer
370
13
48
1
60
0
100
AcDbLine
10
-60
20
-17.5875
30
0
11
-60
21
-41
31
0
39
0
210
0
220
0
230
1
0
LINE
5
1AB
100
AcDbEntity
8
SK2
62
256
6
ByLayer
370
13
48
1
60
0
100
AcDbLine
10
0
20
-21.5875
30
0
11
0
21
-41
31
0
39
0
210
0
220
0
230
1
0
LINE
5
1AC
100
AcDbEntity
8
SK2
62
256
6
ByLayer
370
13
48
1
60
0
100
AcDbLine
10
-60
20
-39
30
0
11
0
21
-39
31
0
39
0
210
0
220
0
230
1
0
SOLID
5
1AD
100
AcDbEntity
8
SK2
62
256
6
ByLayer
370
13
48
1
60
0
100
AcDbTrace
10
-60
20
-39
30
0
11
-56.500002
21
-38.539216
31
0
12
-56.499998
22
-39.460784
32
0
13
-60
23
-39
33
0
39
0
210
0
220
0
230
1
0
SOLID
5
1AE
100
AcDbEntity
8
SK2
62
256
6
ByLayer
370
13
48
1
60
0
100
AcDbTrace
10
0
20
-39
30
0
11
-3.499998
21
-39.460784
31
0
12
-3.500002
22
-38.539216
32
0
13
0
23
-39
33
0
39
0
210
0
220
0
230
1
0
ENDBLK
5
1B0
100
AcDbEntity
8
0
100
AcDbBlockEnd
0
BLOCK
5
1B9
100
AcDbEntity
8
0
100
AcDbBlockBegin
2
DimnDraft3D4
70
0
10
0
20
0
30
0
3
DimnDraft3D4
0
MTEXT
5
1B3
100
AcDbEntity
8
2
62
256
6
ByLayer
370
13
48
1
60
0
100
AcDbMText
10
88.983572
20
-38.249886
30
0
210
0
220
0
230
1
1
\W0.6864;185.0
40
3
41
0
44
1.084337
50
0
71
7
72
5
7
iso_b_vert
0
LINE
5
1B4
100
AcDbEntity
8
2
62
256
6
ByLayer
370
13
48
1
60
0
100
AcDbLine
10
0
20
-21.5875
30
0
11
0
21
-41
31
0
39
0
210
0
220
0
230
1
0
LINE
5
1B5
100
AcDbEntity
8
2
62
256
6
ByLayer
370
13
48
1
60
0
100
AcDbLine
10
185
20
-1.5875
30
0
11
185
21
-41
31
0
39
0
210
0
220
0
230
1
0
LINE
5
1B6
100
AcDbEntity
8
2
62
256
6
ByLayer
370
13
48
1
60
0
100
AcDbLine
10
0
20
-39
30
0
11
185
21
-39
31
0
39
0
210
0
220
0
230
1
0
SOLID
5
1B7
100
AcDbEntity
8
2
62
256
6
ByLayer
370
13
48
1
60
0
100
AcDbTrace
10
0
20
-39
30
0
11
3.499998
21
-38.539216
31
0
12
3.500002
22
-39.460784
32
0
13
0
23
-39
33
0
39
0
210
0
220
0
230
1
0
SOLID
5
1B8
100
AcDbEntity
8
2
62
256
6
ByLayer
370
13
48
1
60
0
100
AcDbTrace
10
185
20
-39
30
0
11
181.500002
21
-39.460784
31
0
12
181.499998
22
-38.539216
32
0
13
185
23
-39
33
0
39
0
210
0
220
0
230
1
0
ENDBLK
5
1BA
100
AcDbEntity
8
0
100
AcDbBlockEnd
0
BLOCK
5
1C4
100
AcDbEntity
8
0
100
AcDbBlockBegin
2
DimnDraft3D5
70
0
10
0
20
0
30
0
3
DimnDraft3D5
0
MTEXT
5
1BD
100
AcDbEntity
8
SK2
62
256
6
ByLayer
370
13
48
1
60
0
100
AcDbMText
10
-67.750114
20
0.229544
30
0
210
0
220
0
230
1
1
\W0.7346;32.0
40
3
41
0
44
1.084337
50
90
71
7
72
5
7
iso_b_vert
0
MTEXT
5
1BE
100
AcDbEntity
8
SK2
62
256
6
ByLayer
370
13
48
1
60
0
100
AcDbMText
10
-67.750114
20
-4.247019
30
0
210
0
220
0
230
1
1
%%c
40
3
41
0
44
1.084337
50
90
71
7
72
5
7
iso_b_vert
0
LINE
5
1BF
100
AcDbEntity
8
SK2
62
256
6
ByLayer
370
13
48
1
60
0
100
AcDbLine
10
-61.5875
20
16
30
0
11
-68.25
21
16
31
0
39
0
210
0
220
0
230
1
0
LINE
5
1C0
100
AcDbEntity
8
SK2
62
256
6
ByLayer
370
13
48
1
60
0
100
AcDbLine
10
-61.5875
20
-16
30
0
11
-68.25
21
-16
31
0
39
0
210
0
220
0
230
1
0
LINE
5
1C1
100
AcDbEntity
8
SK2
62
256
6
ByLayer
370
13
48
1
60
0
100
AcDbLine
10
-66.25
20
16
30
0
11
-66.25
21
-16
31
0
39
0
210
0
220
0
230
1
0
SOLID
5
1C2
100
AcDbEntity
8
SK2
62
256
6
ByLayer
370
13
48
1
60
0
100
AcDbTrace
10
-66.25
20
16
30
0
11
-65.789216
21
12.500002
31
0
12
-66.710784
22
12.499998
32
0
13
-66.25
23
16
33
0
39
0
210
0
220
0
230
1
0
SOLID
5
1C3
100
AcDbEntity
8
SK2
62
256
6
ByLayer
370
13
48
1
60
0
100
AcDbTrace
10
-66.25
20
-16
30
0
11
-66.710784
21
-12.500002
31
0
12
-65.789216
22
-12.499998
32
0
13
-66.25
23
-16
33
0
39
0
210
0
220
0
230
1
0
ENDBLK
5
1C5
100
AcDbEntity
8
0
100
AcDbBlockEnd
0
ENDSEC
0
SECTION
2
ENTITIES
0
ARC
5
E1
100
AcDbEntity
8
SK1
62
256
6
ByLayer
370
18
48
1
60
0
100
AcDbCircle
39
0
10
57.946236
20
-16.496
30
0
40
0.800000000000005
210
0
220
0
230
-1
100
AcDbArc
50
51
51
130.534532
0
ARC
5
E2
100
AcDbEntity
8
SK1
62
256
6
ByLayer
370
18
48
1
60
0
100
AcDbCircle
39
0
10
57.946236
20
16.496
30
0
40
0.800000000000005
210
0
220
0
230
-1
100
AcDbArc
50
229.465468
51
309
0
ARC
5
E3
100
AcDbEntity
8
SK1
62
256
6
ByLayer
370
18
48
1
60
0
100
AcDbCircle
39
0
10
0.975195
20
16.146
30
0
40
0.4
210
0
220
0
230
-1
100
AcDbArc
50
270
51
295
0
ARC
5
E4
100
AcDbEntity
8
SK1
62
256
6
ByLayer
370
18
48
1
60
0
100
AcDbCircle
39
0
10
0.975195
20
-16.146
30
0
40
0.4
210
0
220
0
230
-1
100
AcDbArc
50
65
51
90
0
ARC
5
E5
100
AcDbEntity
8
1
62
256
6
ByLayer
370
18
48
1
60
0
100
AcDbCircle
39
0
10
-27
20
22
30
0
40
8.00000000000001
210
0
220
0
230
-1
100
AcDbArc
50
270
51
290.286225
0
ARC
5
E6
100
AcDbEntity
8
1
62
256
6
ByLayer
370
18
48
1
60
0
100
AcDbCircle
39
0
10
-27
20
-22
30
0
40
8.00000000000001
210
0
220
0
230
-1
100
AcDbArc
50
69.713775
51
90
0
ARC
5
E7
100
AcDbEntity
8
SK1
62
256
6
ByLayer
370
18
48
1
60
0
100
AcDbCircle
39
0
10
0.15
20
16.146
30
0
40
0.4
210
0
220
0
230
-1
100
AcDbArc
50
247.975687
51
270
0
ARC
5
E8
100
AcDbEntity
8
SK1
62
256
6
ByLayer
370
18
48
1
60
0
100
AcDbCircle
39
0
10
0.15
20
-16.146
30
0
40
0.4
210
0
220
0
230
-1
100
AcDbArc
50
90
51
112.024313
0
ARC
5
E9
100
AcDbEntity
8
1
62
256
6
ByLayer
370
18
48
1
60
0
100
AcDbCircle
39
0
10
166.45
20
3.55
30
0
40
0.249999999983654
210
0
220
0
230
1
100
AcDbArc
50
323.130102
51
0
0
ELLIPSE
5
EA
100
AcDbEntity
8
1
62
256
6
ByLayer
370
18
48
1
60
0
100
AcDbEllipse
10
185.005308
20
0
30
0
11
4.96315377161096
21
-14.2530999262641
31
0
210
0
220
0
230
1
40
0.077207
41
3.00073840859155
42
3.09734072975007
0
ELLIPSE
5
EB
100
AcDbEntity
8
1
62
256
6
ByLayer
370
18
48
1
60
0
100
AcDbEllipse
10
185.01177
20
0.017582
30
0
11
5.05548509381367
21
14.5182542385328
31
0
210
0
220
0
230
1
40
0.077207
41
-2.88503074304082
42
-2.78708220308142
0
ELLIPSE
5
EC
100
AcDbEntity
8
1
62
256
6
ByLayer
370
13
48
1
60
0
100
AcDbEllipse
10
150.1
20
14.623758
30
0
11
-0.574453466736063
21
-9.98348652598655
31
0
210
0
220
0
230
1
40
0.337719
41
0.850982041048191
42
1.2764726344732
0
ELLIPSE
5
ED
100
AcDbEntity
8
1
62
256
6
ByLayer
370
18
48
1
60
0
100
AcDbEllipse
10
152.145452
20
12.369173
30
0
11
2.76773454146445
21
9.58507721465455
31
0
210
0
220
0
230
1
40
0.120753
41
-1.62142899283164
42
-1.5457381625523
0
ELLIPSE
5
EE
100
AcDbEntity
8
1
62
256
6
ByLayer
370
18
48
1
60
0
100
AcDbEllipse
10
25.88019
20
-5.743172
30
0
11
2.99996105044146
21
14.640989071166
31
0
210
0
220
0
230
1
40
0.000864
41
-1.82072171610009
42
-1.75744121248898
0
ELLIPSE
5
EF
100
AcDbEntity
8
1
62
256
6
ByLayer
370
13
48
1
60
0
100
AcDbEllipse
10
183.390924
20
1.361826
30
0
11
-0.0549004614611981
21
-0.07753024784784
31
0
210
0
220
0
230
1
40
0.550519
41
-2.35097774692049
42
-1.67258373171955
0
ELLIPSE
5
F0
100
AcDbEntity
8
1
62
256
6
ByLayer
370
13
48
1
60
0
100
AcDbEllipse
10
180.920345
20
4.909778
30
0
11
-0.0927988807876764
21
-0.0203314466911387
31
0
210
0
220
0
230
1
40
0.128899
41
-1.68833555382246
42
-1.40214508064652
0
ELLIPSE
5
F1
100
AcDbEntity
8
1
62
256
6
ByLayer
370
18
48
1
60
0
100
AcDbEllipse
10
184.946792
20
0.274263
30
0
11
0.0446240258064517
21
-0.146773164390466
31
0
210
0
220
0
230
1
40
0.05855
41
-2.43183944696552
42
-1.75038094464201
0
ELLIPSE
5
F2
100
AcDbEntity
8
1
62
256
6
ByLayer
370
18
48
1
60
0
100
AcDbEllipse
10
27.1
20
0.300945
30
0
11
-1.9932840448658
21
-9.79932746245799
31
0
210
0
220
0
230
1
40
0.004051
41
2.65859615138233
42
2.65886908792821
0
ELLIPSE
5
F3
100
AcDbEntity
8
1
62
256
6
ByLayer
370
18
48
1
60
0
100
AcDbEllipse
10
157.304033
20
-87.13973
30
0
11
79.3436526545947
21
0.144496758115596
31
0
210
0
220
0
230
1
40
0.932386
41
1.44867594895202
42
1.45039878401525
0
ELLIPSE
5
F4
100
AcDbEntity
8
1
62
256
6
ByLayer
370
13
48
1
60
0
100
AcDbEllipse
10
27.1
20
0.300945
30
0
11
0.203162279929502
21
9.99793604140444
31
0
210
0
220
0
230
1
40
0.706961
41
0.500493037687119
42
2.64462171408303
0
ELLIPSE
5
F5
100
AcDbEntity
8
1
62
256
6
ByLayer
370
18
48
1
60
0
100
AcDbEllipse
10
184.946792
20
-0.274263
30
0
11
0.0446240258667355
21
0.146773164561865
31
0
210
0
220
0
230
1
40
0.05855
41
1.75038094546472
42
2.43183944715273
0
ELLIPSE
5
F6
100
AcDbEntity
8
1
62
256
6
ByLayer
370
13
48
1
60
0
100
AcDbEllipse
10
180.919674
20
4.912828
30
0
11
-0.0927699273740767
21
-0.0204631516391912
31
0
210
0
220
0
230
1
40
0.128734
41
-1.68851840488388
42
-1.40232874378645
0
ELLIPSE
5
F7
100
AcDbEntity
8
1
62
256
6
ByLayer
370
18
48
1
60
0
100
AcDbEllipse
10
185.005308
20
0
30
0
11
4.96315377161097
21
14.2530999262641
31
0
210
0
220
0
230
1
40
0.077207
41
-3.09734072975007
42
-2.88312236809855
0
ELLIPSE
5
F8
100
AcDbEntity
8
1
62
256
6
ByLayer
370
18
48
1
60
0
100
AcDbEllipse
10
196.581384
20
0
30
0
11
19.2558658539141
21
13.0525572838745
31
0
210
0
220
0
230
1
40
0.290406
41
2.96433312242389
42
-3.10073135928152
0
ELLIPSE
5
F9
100
AcDbEntity
8
1
62
256
6
ByLayer
370
18
48
1
60
0
100
AcDbEllipse
10
185.01177
20
-0.017582
30
0
11
5.05548508544356
21
-14.5182542125662
31
0
210
0
220
0
230
1
40
0.077207
41
2.78708220276605
42
2.88503074281648
0
ELLIPSE
5
FA
100
AcDbEntity
8
1
62
256
6
ByLayer
370
18
48
1
60
0
100
AcDbEllipse
10
160.47
20
-6.208867
30
0
11
-3.03000000000001
21
3.71055725208182E-16
31
0
210
0
220
0
230
1
40
0.702153
41
1.04124148504218
42
2.09809273112403
0
ELLIPSE
5
FB
100
AcDbEntity
8
1
62
256
6
ByLayer
370
18
48
1
60
0
100
AcDbEllipse
10
174.942866
20
-1.986881
30
0
11
0.441877294577909
21
-1.76650351866246
31
0
210
0
220
0
230
1
40
0.320538
41
0
42
6.28318530717959
0
ELLIPSE
5
FC
100
AcDbEntity
8
1
62
256
6
ByLayer
370
13
48
1
60
0
100
AcDbEllipse
10
27.1
20
0.300945
30
0
11
-1.9932840448658
21
-9.79932746245799
31
0
210
0
220
0
230
1
40
0.004051
41
0.464992478360924
42
2.65859615138233
0
ELLIPSE
5
FD
100
AcDbEntity
8
1
62
256
6
ByLayer
370
13
48
1
60
0
100
AcDbEllipse
10
183.413718
20
1.34579
30
0
11
-0.0544235218676416
21
-0.0778657836762871
31
0
210
0
220
0
230
1
40
0.550074
41
-2.35740611856506
42
-1.67594761247616
0
ELLIPSE
5
FE
100
AcDbEntity
8
1
62
256
6
ByLayer
370
18
48
1
60
0
100
AcDbEllipse
10
185.005664
20
0
30
0
11
5.76582050343904
21
-14.1149493120402
31
0
210
0
220
0
230
1
40
0.349717
41
2.98232293033943
42
2.9996984980423
0
ELLIPSE
5
FF
100
AcDbEntity
8
1
62
256
6
ByLayer
370
18
48
1
60
0
100
AcDbEllipse
10
150.1
20
14.623758
30
0
11
-0.574453466736063
21
-9.98348652598655
31
0
210
0
220
0
230
1
40
0.337719
41
1.2764726344732
42
1.2773482019002
0
ELLIPSE
5
100
100
AcDbEntity
8
1
62
256
6
ByLayer
370
18
48
1
60
0
100
AcDbEllipse
10
28.284303
20
6.055211
30
0
11
3.00049658490253
21
15.0359397382424
31
0
210
0
220
0
230
1
40
0.001084
41
-1.375029423862
42
-1.3472334938188
0
ELLIPSE
5
101
100
AcDbEntity
8
1
62
256
6
ByLayer
370
18
48
1
60
0
100
AcDbEllipse
10
27.1
20
0.300945
30
0
11
-1.9932840448658
21
-9.79932746245799
31
0
210
0
220
0
230
1
40
0.004051
41
0.464766916879746
42
0.464992478360924
0
ELLIPSE
5
102
100
AcDbEntity
8
1
62
256
6
ByLayer
370
18
48
1
60
0
100
AcDbEllipse
10
162.865
20
0
30
0
11
14.2582499887281
21
-1.61560186487947E-14
31
0
210
0
220
0
230
1
40
1
41
-1.28857913330525
42
-1.22102641564132
0
ELLIPSE
5
103
100
AcDbEntity
8
1
62
256
6
ByLayer
370
18
48
1
60
0
100
AcDbEllipse
10
185.005664
20
0
30
0
11
5.76582050339681
21
14.1149493119449
31
0
210
0
220
0
230
1
40
0.349717
41
2.93006132948269
42
-2.98232293033895
0
POINT
5
6C
100
AcDbEntity
8
80
62
256
6
ByLayer
370
18
48
1
60
0
100
AcDbPoint
10
0
20
0
30
0
39
0
210
0
220
0
230
1
50
360
0
POINT
5
6E
100
AcDbEntity
8
81
62
256
6
ByLayer
370
18
48
1
60
0
100
AcDbPoint
10
166.7
20
0
30
0
39
0
210
0
220
0
230
1
50
360
0
SPLINE
5
104
100
AcDbEntity
8
1
62
256
6
ByLayer
370
18
48
1
60
0
100
AcDbSpline
70
4
71
3
72
15
73
11
40
0
40
0
40
0
40
0
40
0.110096073801583
40
0.219340550492929
40
0.329087503907507
40
0.440007097390013
40
0.55224294948909
40
0.700828593677335
40
0.850380652047471
40
1
40
1
40
1
40
1
41
1
10
7.7679
20
-20
30
0
41
1
10
8.40874342836332
20
-19.9960893143545
30
0
41
1
10
9.67565448123116
20
-19.917237152643
30
0
41
1
10
11.5547853777745
20
-19.5668218413415
30
0
41
1
10
13.3938269954222
20
-19.0425211240557
30
0
41
1
10
15.2067705643259
20
-18.3825137902678
30
0
41
1
10
17.1923570194714
20
-17.5489532987408
30
0
41
1
10
19.3555926720434
20
-16.5644335748083
30
0
41
1
10
21.7146779628955
20
-15.4861051063513
30
0
41
1
10
23.3229381986566
20
-14.8411062088279
30
0
41
1
10
24.1325215290688
20
-14.5308924750847
30
0
0
SPLINE
5
105
100
AcDbEntity
8
1
62
256
6
ByLayer
370
18
48
1
60
0
100
AcDbSpline
70
4
71
3
72
15
73
11
40
0
40
0
40
0
40
0
40
0.142815524555644
40
0.285601035622642
40
0.427589126848336
40
0.567955790023615
40
0.676813997884374
40
0.784560348537695
40
0.891855196840529
40
1
40
1
40
1
40
1
41
1
10
24.1325215290688
20
14.5308924750847
30
0
41
1
10
23.3594440852439
20
14.8261920478174
30
0
41
1
10
21.8236192951628
20
15.4405925978732
30
0
41
1
10
19.5687423593201
20
16.4659641372306
30
0
41
1
10
17.329099040942
20
17.488732139551
30
0
41
1
10
15.2423416260895
20
18.3734995145399
30
0
41
1
10
13.2955868604418
20
19.0737213776532
30
0
41
1
10
11.4880915866904
20
19.5815514199484
30
0
41
1
10
9.64177995837508
20
19.9201346618339
30
0
41
1
10
8.39729683947309
20
19.9963158028859
30
0
41
1
10
7.7679
20
20
30
0
0
SPLINE
5
106
100
AcDbEntity
8
1
62
256
6
ByLayer
370
18
48
1
60
0
100
AcDbSpline
70
4
71
3
72
62
73
58
40
0
40
0
40
0
40
0
40
0.0209872969009715
40
0.0577530063578393
40
0.0914103505876206
40
0.121971536675296
40
0.149448102409749
40
0.17385641631683
40
0.195159434135677
40
0.212659382255166
40
0.222575931360995
40
0.230506461391115
40
0.236451109702429
40
0.242681320340236
40
0.252062254448972
40
0.264354373741616
40
0.279678959376408
40
0.296122680990963
40
0.312425760548492
40
0.333388559526329
40
0.354113921436552
40
0.374601723891421
40
0.394851845696242
40
0.41485728487685
40
0.433069116691769
40
0.448305808689886
40
0.459658958555337
40
0.468511788408053
40
0.474864209915024
40
0.481570691021701
40
0.492347684299483
40
0.507210917958964
40
0.537792373681852
40
0.565746988674906
40
0.590779971358178
40
0.615170760550214
40
0.642443131027124
40
0.656905001063467
40
0.672070875185599
40
0.686487770341438
40
0.697958349343539
40
0.706460601638447
40
0.712001425679603
40
0.71731903319486
40
0.724660059139989
40
0.736929182663326
40
0.752474679014848
40
0.77129543136301
40
0.792452283719235
40
0.813264219184704
40
0.833565457875331
40
0.853355992320098
40
0.87263584764204
40
0.901901127689931
40
0.930964417343483
40
0.96355749647661
40
1
40
1
40
1
40
1
41
1
10
88.8716099009999
20
13.6994900478134
30
0
41
1
10
88.4760382904679
20
13.6995394137674
30
0
41
1
10
87.3873044896605
20
13.6995024267575
30
0
41
1
10
85.663081731357
20
13.6983035123704
30
0
41
1
10
83.7574110259856
20
13.6967851555491
30
0
41
1
10
82.0262981829544
20
13.6955800557763
30
0
41
1
10
80.4697818717447
20
13.6950737071885
30
0
41
1
10
79.0884929356231
20
13.6952191915282
30
0
41
1
10
77.8986863518758
20
13.6957619848035
30
0
41
1
10
76.9818681662642
20
13.69563558904
30
0
41
1
10
76.3164366065432
20
13.6953046467972
30
0
41
1
10
75.8683671287754
20
13.6949921521445
30
0
41
1
10
75.4896230180565
20
13.6946745286244
30
0
41
1
10
75.0827957506143
20
13.6943501290182
30
0
41
1
10
74.5560038876853
20
13.693979062755
30
0
41
1
10
73.8575175229473
20
13.6935164938122
30
0
41
1
10
73.0257305947827
20
13.6930018951102
30
0
41
1
10
72.1182347793835
20
13.6924524263172
30
0
41
1
10
71.1042852979837
20
13.6918553664463
30
0
41
1
10
70.009496556491
20
13.6912429792486
30
0
41
1
10
68.8356944227011
20
13.690635435255
30
0
41
1
10
67.6753371805441
20
13.6900924370456
30
0
41
1
10
66.5285638768016
20
13.6896199292441
30
0
41
1
10
65.4247534026765
20
13.6892321413024
30
0
41
1
10
64.4155914569245
20
13.6889401688247
30
0
41
1
10
63.5697770682472
20
13.6887432598696
30
0
41
1
10
62.900652036121
20
13.6886182170275
30
0
41
1
10
62.3992538228535
20
13.6885422566234
30
0
41
1
10
61.9855803674508
20
13.6884906886414
30
0
41
1
10
61.5355801422511
20
13.6884450263628
30
0
41
1
10
60.924903451802
20
13.6884021079152
30
0
41
1
10
59.8634887338125
20
13.6883762109239
30
0
41
1
10
58.4777760048481
20
13.6884552317183
30
0
41
1
10
56.9000675253325
20
13.6887077437135
30
0
41
1
10
55.4392335228895
20
13.6890724815385
30
0
41
1
10
53.991279905503
20
13.6895484330796
30
0
41
1
10
52.7428989435452
20
13.690054643815
30
0
41
1
10
51.6686761549285
20
13.6905496662045
30
0
41
1
10
50.837153158383
20
13.6909630439344
30
0
41
1
10
50.0621030678935
20
13.6913738706914
30
0
41
1
10
49.4128561446981
20
13.6917347628406
30
0
41
1
10
48.9311814302659
20
13.6920111453177
30
0
41
1
10
48.565669278269
20
13.6922250910528
30
0
41
1
10
48.2220801373491
20
13.6924290764324
30
0
41
1
10
47.7514668640576
20
13.6927127450204
30
0
41
1
10
47.0877604241492
20
13.6931212014018
30
0
41
1
10
46.2073272294846
20
13.6936757890076
30
0
41
1
10
45.1591017788296
20
13.694348855132
30
0
41
1
10
44.0114506371247
20
13.6950922670773
30
0
41
1
10
42.8358490421278
20
13.6958482067719
30
0
41
1
10
41.6860421458942
20
13.6965695705902
30
0
41
1
10
40.565159466518
20
13.6972433301921
30
0
41
1
10
39.2750438138585
20
13.6979714392663
30
0
41
1
10
37.8098672229547
20
13.698711585499
30
0
41
1
10
36.093349733733
20
13.699408400628
30
0
41
1
10
34.2413311681833
20
13.6999194393006
30
0
41
1
10
32.9380016550313
20
13.7000158303104
30
0
41
1
10
32.2500000000953
20
13.6999999282834
30
0
0
SPLINE
5
107
100
AcDbEntity
8
1
62
256
6
ByLayer
370
18
48
1
60
0
100
AcDbSpline
70
4
71
2
72
6
73
3
40
0
40
0
40
0
40
1
40
1
40
1
41
1
10
88.6862293079327
20
-1.32894356120693
30
0
41
1
10
88.7758781136311
20
-1.34544382783486
30
0
41
1
10
88.8655234836164
20
-1.36305371837221
30
0
0
SPLINE
5
108
100
AcDbEntity
8
1
62
256
6
ByLayer
370
18
48
1
60
0
100
AcDbSpline
70
4
71
1
72
4
73
2
40
0
40
0
40
1
40
1
41
1
10
98.0077204424998
20
0.0018215799484551
30
0
41
1
10
98.0070315730626
20
0.0019517906005717
30
0
0
SPLINE
5
109
100
AcDbEntity
8
1
62
256
6
ByLayer
370
18
48
1
60
0
100
AcDbSpline
70
4
71
3
72
53
73
49
40
0
40
0
40
0
40
0
40
0.0394146868207551
40
0.0764025635711194
40
0.114241242189457
40
0.153387513275507
40
0.178169992402819
40
0.202591530872732
40
0.226663643681484
40
0.250398656845731
40
0.272587965599495
40
0.288404933680277
40
0.301774133330529
40
0.314325497508045
40
0.329329422772126
40
0.346878870452795
40
0.366753400202355
40
0.391285765201775
40
0.416685635192689
40
0.442952711687607
40
0.469310214836874
40
0.488043229461951
40
0.503547697624859
40
0.51595786760803
40
0.528996433181988
40
0.544348752292365
40
0.562014755941719
40
0.58124427525517
40
0.608398245888602
40
0.636363454204307
40
0.665142513209867
40
0.693547288079332
40
0.715971296291674
40
0.736850158217825
40
0.756074647143597
40
0.763745973640497
40
0.770169589351358
40
0.775345698492111
40
0.7793421957706
40
0.784638637485216
40
0.796548949378177
40
0.813610103788036
40
0.8358218590241
40
0.863183063473836
40
0.895692043355747
40
0.933346968468167
40
0.976150729191499
40
1
40
1
40
1
40
1
41
1
10
32.2500000000953
20
-13.6999999282834
30
0
41
1
10
32.990225028444
20
-13.7000151987322
30
0
41
1
10
34.4250888409911
20
-13.6998990090196
30
0
41
1
10
36.5706109001325
20
-13.6992497599529
30
0
41
1
10
38.7109348654803
20
-13.6982960277699
30
0
41
1
10
40.6206624171527
20
-13.6968203957104
30
0
41
1
10
42.2790371735298
20
-13.6951629145136
30
0
41
1
10
43.6553010936789
20
-13.6941398394245
30
0
41
1
10
45.0117881879358
20
-13.6935062839432
30
0
41
1
10
46.3254097460558
20
-13.6932211978932
30
0
41
1
10
47.4832400503873
20
-13.6928268869804
30
0
41
1
10
48.447569303084
20
-13.6922905663401
30
0
41
1
10
49.2313567531583
20
-13.6918370068356
30
0
41
1
10
49.99995009015
20
-13.6914071664774
30
0
41
1
10
50.8470304936484
20
-13.690957083883
30
0
41
1
10
51.8316493989841
20
-13.6904691069296
30
0
41
1
10
52.9952141090152
20
-13.6899462198556
30
0
41
1
10
54.306213690393
20
-13.6894363917485
30
0
41
1
10
55.7372676764466
20
-13.6889870530607
30
0
41
1
10
57.2025985761912
20
-13.6886490898259
30
0
41
1
10
58.5427231323771
20
-13.6884599301982
30
0
41
1
10
59.6807216542876
20
-13.6883894290849
30
0
41
1
10
60.5567835776834
20
-13.6883884466257
30
0
41
1
10
61.3259015270243
20
-13.6884258809913
30
0
41
1
10
62.0921612879318
20
-13.6884977586558
30
0
41
1
10
62.9571189027595
20
-13.6886214550769
30
0
41
1
10
63.9383200982672
20
-13.6888136142797
30
0
41
1
10
65.1411840661125
20
-13.6891210200942
30
0
41
1
10
66.5374929863061
20
-13.6896103924388
30
0
41
1
10
68.11297039778
20
-13.6902953504848
30
0
41
1
10
69.7114419465533
20
-13.6910013918693
30
0
41
1
10
71.2058876491446
20
-13.6915668776996
30
0
41
1
10
72.5526279928199
20
-13.6923108553725
30
0
41
1
10
73.7269633935559
20
-13.6931707309231
30
0
41
1
10
74.6237445577318
20
-13.6939700143971
30
0
41
1
10
75.248977040904
20
-13.6944959995095
30
0
41
1
10
75.6105345819563
20
-13.6947855179132
30
0
41
1
10
75.9031254797623
20
-13.6950084328739
30
0
41
1
10
76.174311858834
20
-13.6952024171824
30
0
41
1
10
76.5723750808856
20
-13.6954631692078
30
0
41
1
10
77.215887619981
20
-13.6958826478722
30
0
41
1
10
78.177120454075
20
-13.6965028461788
30
0
41
1
10
79.4285367282919
20
-13.6972866730463
30
0
41
1
10
80.9700684667602
20
-13.6981782707551
30
0
41
1
10
82.8016230883616
20
-13.6990791911471
30
0
41
1
10
84.9231910718929
20
-13.6997889163935
30
0
41
1
10
86.882127218992
20
-13.7000827693995
30
0
41
1
10
88.1338946848453
20
-13.6998792029683
30
0
41
1
10
88.5817926211963
20
-13.6997662744431
30
0
0
SPLINE
5
10A
100
AcDbEntity
8
SK1
62
256
6
ByLayer
370
18
48
1
60
0
100
AcDbSpline
70
4
71
3
72
70
73
66
40
0
40
0
40
0
40
0
40
0.03125
40
0.03125
40
0.0468749999999999
40
0.0468749999999999
40
0.0624999999999999
40
0.0624999999999999
40
0.0781249999999998
40
0.0781249999999998
40
0.0937499999999998
40
0.0937499999999998
40
0.125
40
0.125
40
0.15625
40
0.15625
40
0.1875
40
0.1875
40
0.218749999999999
40
0.218749999999999
40
0.249999999999999
40
0.249999999999999
40
0.312499999999999
40
0.312499999999999
40
0.343749999999999
40
0.343749999999999
40
0.374999999999999
40
0.374999999999999
40
0.437499999999999
40
0.437499999999999
40
0.499999999999999
40
0.499999999999999
40
0.562499999999999
40
0.562499999999999
40
0.593749999999999
40
0.593749999999999
40
0.624999999999999
40
0.624999999999999
40
0.687499999999999
40
0.687499999999999
40
0.749999999999999
40
0.749999999999999
40
0.781249999999999
40
0.781249999999999
40
0.812499999999999
40
0.812499999999999
40
0.843749999999999
40
0.843749999999999
40
0.859374999999999
40
0.859374999999999
40
0.874999999999999
40
0.874999999999999
40
0.906249999999999
40
0.906249999999999
40
0.921875
40
0.921875
40
0.9375
40
0.9375
40
0.953125
40
0.953125
40
0.96875
40
0.96875
40
0.984375
40
0.984375
40
1
40
1
40
1
40
1
41
1
10
-53.5
20
8.08217792429738
30
0
41
1
10
-53.7123744400454
20
8.08217792429738
30
0
41
1
10
-53.9189501308873
20
8.05368849473035
30
0
41
1
10
-54.2208914143336
20
7.9716154887642
30
0
41
1
10
-54.3197741093835
20
7.93763423525914
30
0
41
1
10
-54.5094550914505
20
7.85917405972873
30
0
41
1
10
-54.601004764991
20
7.81450307998708
30
0
41
1
10
-54.7781435343534
20
7.71512651881918
30
0
41
1
10
-54.8640557818947
20
7.66012522444171
30
0
41
1
10
-55.0269289416193
20
7.54325327411436
30
0
41
1
10
-55.1043329257095
20
7.48118572785879
30
0
41
1
10
-55.3260867911319
20
7.28529466076768
30
0
41
1
10
-55.4600876939736
20
7.14180694426813
30
0
41
1
10
-55.7058314423298
20
6.83312930612388
30
0
41
1
10
-55.8147881461287
20
6.6715007799863
30
0
41
1
10
-56.0119317113413
20
6.33636750757177
30
0
41
1
10
-56.1000528344483
20
6.16283546371301
30
0
41
1
10
-56.2597944516038
20
5.80545940076314
30
0
41
1
10
-56.3316107949196
20
5.62093024300796
30
0
41
1
10
-56.4606286668468
20
5.24594125113808
30
0
41
1
10
-56.5176855844957
20
5.05612691162611
30
0
41
1
10
-56.6712881832205
20
4.48051810886963
30
0
41
1
10
-56.7505129055191
20
4.08860232749163
30
0
41
1
10
-56.8463346456389
20
3.49035454453516
30
0
41
1
10
-56.8743623681621
20
3.28919601457946
30
0
41
1
10
-56.923841148357
20
2.8835794753536
30
0
41
1
10
-56.9453175238341
20
2.6788066175184
30
0
41
1
10
-57.0010743911545
20
2.06183265419932
30
0
41
1
10
-57.0265862554055
20
1.65021464829943
30
0
41
1
10
-57.0600911551237
20
0.826427708852918
30
0
41
1
10
-57.0680479036764
20
0.414258490969502
30
0
41
1
10
-57.0680954875901
20
-0.410616418566406
30
0
41
1
10
-57.0601880909999
20
-0.823322087871986
30
0
41
1
10
-57.0350368679512
20
-1.44279742981084
30
0
41
1
10
-57.0244104160546
20
-1.64935895031215
30
0
41
1
10
-56.9980662449252
20
-2.06262743969191
30
0
41
1
10
-56.9823120370221
20
-2.26962385434214
30
0
41
1
10
-56.9266309304388
20
-2.88522451010573
30
0
41
1
10
-56.8783827971993
20
-3.29012272731185
30
0
41
1
10
-56.7506681825176
20
-4.08777686756457
30
0
41
1
10
-56.6713626030015
20
-4.48055429019126
30
0
41
1
10
-56.5168996790116
20
-5.05891332672573
30
0
41
1
10
-56.4592305712756
20
-5.25033331669707
30
0
41
1
10
-56.3303405768751
20
-5.62428672514505
30
0
41
1
10
-56.25903693307
20
-5.80730424563461
30
0
41
1
10
-56.0992908480606
20
-6.16438864035223
30
0
41
1
10
-56.0108837614242
20
-6.33846735616979
30
0
41
1
10
-55.861637657042
20
-6.59169519349339
30
0
41
1
10
-55.8091263391329
20
-6.67469064307952
30
0
41
1
10
-55.6990198471019
20
-6.83590272214585
30
0
41
1
10
-55.6412968079646
20
-6.91434756669076
30
0
41
1
10
-55.4591437770559
20
-7.14267001525306
30
0
41
1
10
-55.3258825302133
20
-7.28563237868227
30
0
41
1
10
-55.1023758568637
20
-7.48283481508952
30
0
41
1
10
-55.0240033525843
20
-7.54549364627977
30
0
41
1
10
-54.8616109209107
20
-7.66173374977816
30
0
41
1
10
-54.7772366200276
20
-7.71564866991193
30
0
41
1
10
-54.6013779404598
20
-7.81428032092916
30
0
41
1
10
-54.5098987857697
20
-7.85900465123581
30
0
41
1
10
-54.3187452872937
20
-7.93804563435424
30
0
41
1
10
-54.2211721335698
20
-7.97148061306467
30
0
41
1
10
-54.0218477235984
20
-8.02577693282768
30
0
41
1
10
-53.92009821921
20
-8.04664365567402
30
0
41
1
10
-53.7120868351526
20
-8.07490697119016
30
0
41
1
10
-53.6059791614169
20
-8.08217792429738
30
0
41
1
10
-53.5
20
-8.08217792429738
30
0
0
SPLINE
5
10B
100
AcDbEntity
8
SK1
62
256
6
ByLayer
370
18
48
1
60
0
100
AcDbSpline
70
4
71
3
72
70
73
66
40
0
40
0
40
0
40
0
40
0.0312500000000009
40
0.0312500000000009
40
0.0468750000000009
40
0.0468750000000009
40
0.0625000000000008
40
0.0625000000000008
40
0.0781250000000008
40
0.0781250000000008
40
0.0937500000000008
40
0.0937500000000008
40
0.125000000000001
40
0.125000000000001
40
0.156250000000001
40
0.156250000000001
40
0.1875
40
0.1875
40
0.21875
40
0.21875
40
0.25
40
0.25
40
0.3125
40
0.3125
40
0.34375
40
0.34375
40
0.375
40
0.375
40
0.4375
40
0.4375
40
0.5
40
0.5
40
0.5625
40
0.5625
40
0.59375
40
0.59375
40
0.625
40
0.625
40
0.687499999999999
40
0.687499999999999
40
0.749999999999999
40
0.749999999999999
40
0.781249999999999
40
0.781249999999999
40
0.812499999999999
40
0.812499999999999
40
0.843749999999999
40
0.843749999999999
40
0.859374999999999
40
0.859374999999999
40
0.874999999999999
40
0.874999999999999
40
0.90625
40
0.90625
40
0.921875
40
0.921875
40
0.9375
40
0.9375
40
0.953125
40
0.953125
40
0.96875
40
0.96875
40
0.984375
40
0.984375
40
1
40
1
40
1
40
1
41
1
10
-6.5
20
-8.08217792429738
30
0
41
1
10
-6.28762555995465
20
-8.08217792429738
30
0
41
1
10
-6.08104986911272
20
-8.05368849473035
30
0
41
1
10
-5.77910858566651
20
-7.97161548876423
30
0
41
1
10
-5.68022589061655
20
-7.93763423525914
30
0
41
1
10
-5.4905449085496
20
-7.85917405972873
30
0
41
1
10
-5.39899523500901
20
-7.81450307998708
30
0
41
1
10
-5.22185646564662
20
-7.71512651881918
30
0
41
1
10
-5.13594421810532
20
-7.66012522444171
30
0
41
1
10
-4.9730710583807
20
-7.54325327411436
30
0
41
1
10
-4.89566707429054
20
-7.48118572785879
30
0
41
1
10
-4.6739132088681
20
-7.28529466076768
30
0
41
1
10
-4.53991230602645
20
-7.14180694426813
30
0
41
1
10
-4.29416855767028
20
-6.83312930612388
30
0
41
1
10
-4.18521185387129
20
-6.6715007799863
30
0
41
1
10
-3.98806828865872
20
-6.33636750757177
30
0
41
1
10
-3.89994716555165
20
-6.16283546371301
30
0
41
1
10
-3.7402055483962
20
-5.80545940076314
30
0
41
1
10
-3.66838920508042
20
-5.62093024300796
30
0
41
1
10
-3.53937133315316
20
-5.24594125113808
30
0
41
1
10
-3.4823144155043
20
-5.05612691162614
30
0
41
1
10
-3.3287118167795
20
-4.48051810886963
30
0
41
1
10
-3.24948709448097
20
-4.08860232749163
30
0
41
1
10
-3.15366535436112
20
-3.49035454453516
30
0
41
1
10
-3.12563763183792
20
-3.28919601457946
30
0
41
1
10
-3.07615885164304
20
-2.8835794753536
30
0
41
1
10
-3.05468247616597
20
-2.6788066175184
30
0
41
1
10
-2.9989256088455
20
-2.06183265419932
30
0
41
1
10
-2.97341374459455
20
-1.65021464829943
30
0
41
1
10
-2.93990884487633
20
-0.826427708852918
30
0
41
1
10
-2.93195209632364
20
-0.414258490969502
30
0
41
1
10
-2.93190451240991
20
0.410616418566406
30
0
41
1
10
-2.93981190900013
20
0.823322087871986
30
0
41
1
10
-2.96496313204878
20
1.44279742981084
30
0
41
1
10
-2.97558958394543
20
1.64935895031218
30
0
41
1
10
-3.00193375507487
20
2.06262743969191
30
0
41
1
10
-3.0176879629779
20
2.26962385434214
30
0
41
1
10
-3.07336906956127
20
2.88522451010573
30
0
41
1
10
-3.12161720280071
20
3.29012272731185
30
0
41
1
10
-3.24933181748247
20
4.08777686756457
30
0
41
1
10
-3.32863739699849
20
4.48055429019126
30
0
41
1
10
-3.48310032098843
20
5.05891332672573
30
0
41
1
10
-3.54076942872439
20
5.25033331669707
30
0
41
1
10
-3.66965942312493
20
5.62428672514505
30
0
41
1
10
-3.74096306693002
20
5.80730424563461
30
0
41
1
10
-3.90070915193937
20
6.16438864035223
30
0
41
1
10
-3.9891162385758
20
6.33846735616979
30
0
41
1
10
-4.13836234295803
20
6.59169519349339
30
0
41
1
10
-4.1908736608672
20
6.67469064307952
30
0
41
1
10
-4.30098015289812
20
6.83590272214585
30
0
41
1
10
-4.35870319203548
20
6.91434756669076
30
0
41
1
10
-4.54085622294417
20
7.14267001525303
30
0
41
1
10
-4.67411746978667
20
7.28563237868227
30
0
41
1
10
-4.89762414313628
20
7.48283481508952
30
0
41
1
10
-4.97599664741574
20
7.54549364627977
30
0
41
1
10
-5.13838907908939
20
7.66173374977816
30
0
41
1
10
-5.22276337997241
20
7.71564866991193
30
0
41
1
10
-5.39862205954026
20
7.81428032092916
30
0
41
1
10
-5.49010121423038
20
7.85900465123581
30
0
41
1
10
-5.68125471270633
20
7.93804563435424
30
0
41
1
10
-5.77882786643028
20
7.97148061306467
30
0
41
1
10
-5.97815227640166
20
8.02577693282768
30
0
41
1
10
-6.07990178078998
20
8.04664365567402
30
0
41
1
10
-6.28791316484742
20
8.07490697119016
30
0
41
1
10
-6.39402083858317
20
8.08217792429738
30
0
41
1
10
-6.5
20
8.08217792429738
30
0
0
SPLINE
5
10C
100
AcDbEntity
8
1
62
256
6
ByLayer
370
13
48
1
60
0
100
AcDbSpline
70
4
71
3
72
14
73
10
40
0
40
0
40
0
40
0
40
0.25
40
0.25
40
0.5
40
0.5
40
0.75
40
0.75
40
1
40
1
40
1
40
1
41
1
10
183.354042017444
20
1.3997708286351
30
0
41
1
10
183.111391434669
20
1.09223811332217
30
0
41
1
10
182.878781151758
20
0.763800354422898
30
0
41
1
10
182.44913546925
20
0.080840610117491
30
0
41
1
10
182.252200609134
20
-0.273578977897046
30
0
41
1
10
181.906631649563
20
-0.988315572325945
30
0
41
1
10
181.758061383336
20
-1.34849939014947
30
0
41
1
10
181.516368054571
20
-2.05388451914379
30
0
41
1
10
181.423247878531
20
-2.39897263853334
30
0
41
1
10
181.358100955952
20
-2.72772981855516
30
0
0
SPLINE
5
10D
100
AcDbEntity
8
1
62
256
6
ByLayer
370
18
48
1
60
0
100
AcDbSpline
70
4
71
3
72
26
73
22
40
0
40
0
40
0
40
0
40
0.125
40
0.125
40
0.250000000000001
40
0.250000000000001
40
0.375000000000001
40
0.375000000000001
40
0.437500000000002
40
0.437500000000002
40
0.500000000000002
40
0.500000000000002
40
0.625000000000002
40
0.625000000000002
40
0.750000000000002
40
0.750000000000002
40
0.812500000000002
40
0.812500000000002
40
0.875000000000003
40
0.875000000000003
40
1
40
1
40
1
40
1
41
1
10
151.337839363146
20
-9.266129444082
30
0
41
1
10
151.558471257297
20
-9.30092397294908
30
0
41
1
10
151.78441432554
20
-9.31702966927844
30
0
41
1
10
152.229935222587
20
-9.31253759080263
30
0
41
1
10
152.45099456721
20
-9.29238518414448
30
0
41
1
10
152.889580375147
20
-9.21426592943752
30
0
41
1
10
153.098945426766
20
-9.15773000187863
30
0
41
1
10
153.398374861729
20
-9.04657566518807
30
0
41
1
10
153.495741140961
20
-9.00508427235761
30
0
41
1
10
153.685398299167
20
-8.91261066144065
30
0
41
1
10
153.775889237671
20
-8.86250324458823
30
0
41
1
10
154.034781421395
20
-8.70059983142687
30
0
41
1
10
154.190891389864
20
-8.57724798123832
30
0
41
1
10
154.468164943894
20
-8.29688469755197
30
0
41
1
10
154.584243853008
20
-8.14504157650794
30
0
41
1
10
154.726038444487
20
-7.89912630163079
30
0
41
1
10
154.767880427101
20
-7.81407495162853
30
0
41
1
10
154.84029955737
20
-7.63761730441701
30
0
41
1
10
154.870203788539
20
-7.54786441504078
30
0
41
1
10
154.941907944519
20
-7.27404641057015
30
0
41
1
10
154.965900446862
20
-7.08545282235397
30
0
41
1
10
154.965900734412
20
-6.890475212941
30
0
0
SPLINE
5
10E
100
AcDbEntity
8
1
62
256
6
ByLayer
370
18
48
1
60
0
100
AcDbSpline
70
4
71
3
72
18
73
14
40
0
40
0
40
0
40
0
40
0.250000000000001
40
0.250000000000001
40
0.375000000000001
40
0.375000000000001
40
0.500000000000001
40
0.500000000000001
40
0.625000000000001
40
0.625000000000001
40
0.750000000000001
40
0.750000000000001
40
1
40
1
40
1
40
1
41
1
10
25.3359453047434
20
-8.46254820374767
30
0
41
1
10
25.159327011623
20
-8.44066947207722
30
0
41
1
10
24.9869328535609
20
-8.42344589727225
30
0
41
1
10
24.7346975315888
20
-8.40463345305812
30
0
41
1
10
24.6511874012663
20
-8.39951604979893
30
0
41
1
10
24.4892642324155
20
-8.39178895148973
30
0
41
1
10
24.4108791578769
20
-8.38916185869692
30
0
41
1
10
24.2590116740655
20
-8.38618916445859
30
0
41
1
10
24.1855299355365
20
-8.38584383273084
30
0
41
1
10
24.0433474265758
20
-8.38728563332336
30
0
41
1
10
23.9743821019436
20
-8.38908509773043
30
0
41
1
10
23.776519911007
20
-8.39742721094544
30
0
41
1
10
23.6580561167743
20
-8.40677586111218
30
0
41
1
10
23.5515675730989
20
-8.41907098891653
30
0
0
SPLINE
5
10F
100
AcDbEntity
8
1
62
256
6
ByLayer
370
18
48
1
60
0
100
AcDbSpline
70
4
71
3
72
10
73
6
40
0
40
0
40
0
40
0
40
0.5
40
0.5
40
1
40
1
40
1
40
1
41
1
10
24.2263187608239
20
-9.3137741568824
30
0
41
1
10
24.3693479984624
20
-9.34002763785961
30
0
41
1
10
24.5179495147696
20
-9.35621505045597
30
0
41
1
10
24.8259659942545
20
-9.3729316374482
30
0
41
1
10
24.9857474339168
20
-9.37341708790333
30
0
41
1
10
25.1504685924805
20
-9.36686556347144
30
0
0
SPLINE
5
110
100
AcDbEntity
8
1
62
256
6
ByLayer
370
18
48
1
60
0
100
AcDbSpline
70
4
71
3
72
14
73
10
40
0
40
0
40
0
40
0
40
0.249999999999999
40
0.249999999999999
40
0.374999999999999
40
0.374999999999999
40
0.499999999999998
40
0.499999999999998
40
1
40
1
40
1
40
1
41
1
10
154.965900734848
20
7.08908236694603
30
0
41
1
10
156.504325053356
20
6.5959935319168
30
0
41
1
10
158.043211965244
20
6.0856596623629
30
0
41
1
10
160.354244675896
20
5.2990783607672
30
0
41
1
10
161.12441430734
20
5.03357639850873
30
0
41
1
10
162.662614665317
20
4.49757590677788
30
0
41
1
10
163.430968680898
20
4.22697288864043
30
0
41
1
10
167.26980508286
20
2.86311138021833
30
0
41
1
10
170.331516952242
20
1.73737451423793
30
0
41
1
10
173.394277221614
20
0.605452194240428
30
0
0
SPLINE
5
111
100
AcDbEntity
8
1
62
256
6
ByLayer
370
18
48
1
60
0
100
AcDbSpline
70
4
71
3
72
16
73
12
40
0
40
0
40
0
40
0
40
0.287048301743275
40
0.287048301743275
40
0.430572452614909
40
0.430572452614909
40
0.574096603486543
40
0.574096603486543
40
0.861144905229812
40
0.861144905229812
40
1
40
1
40
1
40
1
41
1
10
167.404881252276
20
-14.1937264304994
30
0
41
1
10
168.491379100176
20
-14.2955640310036
30
0
41
1
10
169.576436700594
20
-14.3703468527204
30
0
41
1
10
171.201577405778
20
-14.4425069952167
30
0
41
1
10
171.742884951787
20
-14.4598720366721
30
0
41
1
10
172.824723551709
20
-14.4811210082612
30
0
41
1
10
173.365385065704
20
-14.4849733654723
30
0
41
1
10
174.988444125748
20
-14.4763264225604
30
0
41
1
10
176.071031514756
20
-14.4437451927748
30
0
41
1
10
177.677888877116
20
-14.3553850480019
30
0
41
1
10
178.201756380047
20
-14.3201766470246
30
0
41
1
10
178.725994263295
20
-14.2786846393565
30
0
0
SPLINE
5
112
100
AcDbEntity
8
1
62
256
6
ByLayer
370
18
48
1
60
0
100
AcDbSpline
70
4
71
3
72
8
73
4
40
0
40
0
40
0
40
0
40
1
40
1
40
1
40
1
41
1
10
180.25509103042
20
-14.1400913988425
30
0
41
1
10
180.305453671461
20
-14.1349537488997
30
0
41
1
10
180.355823094552
20
-14.1297593905642
30
0
41
1
10
180.406199633065
20
-14.1245084271025
30
0
0
SPLINE
5
113
100
AcDbEntity
8
1
62
256
6
ByLayer
370
18
48
1
60
0
100
AcDbSpline
70
2053
71
3
72
41
73
37
40
0
40
0
40
0
40
0
40
0.0154755080267655
40
0.0311663865507312
40
0.0624779195292728
40
0.0936643922141154
40
0.124924977980256
40
0.156228398669256
40
0.187401117505698
40
0.219491034679469
40
0.249894930052319
40
0.280302953549343
40
0.31241685682736
40
0.343586805042837
40
0.374915791748991
40
0.406079582313917
40
0.437396143951748
40
0.468631821873223
40
0.499836126685102
40
0.531160795242437
40
0.562476422022099
40
0.593707473886812
40
0.625014509298484
40
0.656184869425473
40
0.687519376811982
40
0.719600115829867
40
0.749962981474798
40
0.780312553299494
40
0.81238690995406
40
0.843714316017594
40
0.874869794013035
40
0.906187269513793
40
0.922640628488529
40
0.937477824748308
40
0.969664555685772
40
1
40
1
40
1
40
1
41
1
10
160.47
20
-7.67892608403343
30
0
41
1
10
160.371547843254
20
-7.67891109041872
30
0
41
1
10
160.173382994453
20
-7.68735468856727
30
0
41
1
10
159.780132113938
20
-7.73763052763312
30
0
41
1
10
159.302089711536
20
-7.86279635524423
30
0
41
1
10
158.775770949408
20
-8.10190554392344
30
0
41
1
10
158.31501615222
20
-8.41566150161938
30
0
41
1
10
157.93662213242
20
-8.78701332616441
30
0
41
1
10
157.651930799007
20
-9.20088809368801
30
0
41
1
10
157.478725318986
20
-9.62995861991064
30
0
41
1
10
157.421386793357
20
-10.0549062998227
30
0
41
1
10
157.477809455212
20
-10.4608038824384
30
0
41
1
10
157.650219503983
20
-10.8366363710412
30
0
41
1
10
157.934304540906
20
-11.1684922250869
30
0
41
1
10
158.311803457871
20
-11.4436276349576
30
0
41
1
10
158.772203544113
20
-11.6610900148569
30
0
41
1
10
159.297993257547
20
-11.8178655343796
30
0
41
1
10
159.87060261292
20
-11.912616582559
30
0
41
1
10
160.467579278353
20
-11.9445193482941
30
0
41
1
10
161.065208578021
20
-11.9131372577305
30
0
41
1
10
161.638735749245
20
-11.8186081419887
30
0
41
1
10
162.165586148692
20
-11.6619490136656
30
0
41
1
10
162.625870319925
20
-11.4449829191694
30
0
41
1
10
163.004372315418
20
-11.1696993847457
30
0
41
1
10
163.288895887465
20
-10.8381653096871
30
0
41
1
10
163.461755941209
20
-10.4620825179901
30
0
41
1
10
163.51855336373
20
-10.0569007107765
30
0
41
1
10
163.461926283975
20
-9.63252232089869
30
0
41
1
10
163.289318421875
20
-9.20303370615594
30
0
41
1
10
163.005064894381
20
-8.78901324955385
30
0
41
1
10
162.626892341478
20
-8.41728031067257
30
0
41
1
10
162.239138000505
20
-8.15267109642656
30
0
41
1
10
161.89862467596
20
-7.98125711543162
30
0
41
1
10
161.534633624403
20
-7.83513385417771
30
0
41
1
10
161.061173047432
20
-7.71233804371764
30
0
41
1
10
160.662988166425
20
-7.67895547485945
30
0
41
1
10
160.47
20
-7.67892608403343
30
0
0
SPLINE
5
114
100
AcDbEntity
8
1
62
256
6
ByLayer
370
18
48
1
60
0
100
AcDbSpline
70
4
71
3
72
20
73
16
40
0
40
0
40
0
40
0
40
0.247157697172713
40
0.247157697172713
40
0.370736545759069
40
0.370736545759069
40
0.494315394345426
40
0.494315394345426
40
0.741473091518139
40
0.741473091518139
40
0.865051940104496
40
0.865051940104496
40
0.988630788690853
40
0.988630788690853
40
1
40
1
40
1
40
1
41
1
10
155.419174824531
20
12.2758576087585
30
0
41
1
10
155.278309221391
20
11.8385550344823
30
0
41
1
10
155.130900870763
20
11.4057483761146
30
0
41
1
10
154.902388021503
20
10.7627972366739
30
0
41
1
10
154.825579998992
20
10.5511877360419
30
0
41
1
10
154.672662948855
20
10.136698738096
30
0
41
1
10
154.596353928628
20
9.93325347303281
30
0
41
1
10
154.368995085808
20
9.33403959748202
30
0
41
1
10
154.219363618542
20
8.94932440622134
30
0
41
1
10
154.003237175155
20
8.39455939792958
30
0
41
1
10
153.932369115846
20
8.21258498834086
30
0
41
1
10
153.796771102486
20
7.86315453484156
30
0
41
1
10
153.731785592257
20
7.69504116261308
30
0
41
1
10
153.663831688031
20
7.51849235044517
30
0
41
1
10
153.658130217654
20
7.50367256376265
30
0
41
1
10
153.652452104572
20
7.48890703558905
30
0
0
SPLINE
5
115
100
AcDbEntity
8
1
62
256
6
ByLayer
370
18
48
1
60
0
100
AcDbSpline
70
4
71
3
72
18
73
14
40
0
40
0
40
0
40
0
40
0.249999999999999
40
0.249999999999999
40
0.374999999999998
40
0.374999999999998
40
0.499999999999997
40
0.499999999999997
40
0.624999999999997
40
0.624999999999997
40
0.749999999999996
40
0.749999999999996
40
1
40
1
40
1
40
1
41
1
10
184.688059934338
20
1.33279266990181
30
0
41
1
10
184.637734592462
20
1.55056438124052
30
0
41
1
10
184.576126192925
20
1.79415172612676
30
0
41
1
10
184.467446772335
20
2.1967512271288
30
0
41
1
10
184.428610754148
20
2.3366988143857
30
0
41
1
10
184.347078493306
20
2.6235274851937
30
0
41
1
10
184.304221658831
20
2.77099764860597
30
0
41
1
10
184.214445523929
20
3.07381889150616
30
0
41
1
10
184.16752183476
20
3.22917848486353
30
0
41
1
10
184.069618529794
20
3.54776590179799
30
0
41
1
10
184.018408874819
20
3.71170266628019
30
0
41
1
10
183.86115154085
20
4.20740915483782
30
0
41
1
10
183.751063184451
20
4.54458099683416
30
0
41
1
10
183.635810077136
20
4.88834471265045
30
0
0
SPLINE
5
116
100
AcDbEntity
8
1
62
256
6
ByLayer
370
18
48
1
60
0
100
AcDbSpline
70
4
71
3
72
8
73
4
40
0
40
0
40
0
40
0
40
1
40
1
40
1
40
1
41
1
10
166.605154966702
20
13.3586087816998
30
0
41
1
10
166.604797685324
20
13.5744706415677
30
0
41
1
10
166.604439255638
20
13.7900037664241
30
0
41
1
10
166.604079710696
20
14.0052038932538
30
0
0
SPLINE
5
117
100
AcDbEntity
8
1
62
256
6
ByLayer
370
18
48
1
60
0
100
AcDbSpline
70
4
71
3
72
8
73
4
40
0
40
0
40
0
40
0
40
1
40
1
40
1
40
1
41
1
10
166.5
20
5.34999999999999
30
0
41
1
10
166.566666292124
20
5.34999999999999
30
0
41
1
10
166.63333296892
20
5.34999999999999
30
0
41
1
10
166.7
20
5.34999999999999
30
0
0
SPLINE
5
118
100
AcDbEntity
8
1
62
256
6
ByLayer
370
18
48
1
60
0
100
AcDbSpline
70
4
71
3
72
8
73
4
40
0
40
0
40
0
40
0
40
1
40
1
40
1
40
1
41
1
10
25.1480573481684
20
-9.378918956782
30
0
41
1
10
25.1488607293161
20
-9.37490291919119
30
0
41
1
10
25.1496644774338
20
-9.37088512135577
30
0
41
1
10
25.1504685924788
20
-9.36686556347959
30
0
0
SPLINE
5
119
100
AcDbEntity
8
1
62
256
6
ByLayer
370
13
48
1
60
0
100
AcDbSpline
70
4
71
3
72
8
73
4
40
0
40
0
40
0
40
0
40
1
40
1
40
1
40
1
41
1
10
180.901522310763
20
4.92117049878632
30
0
41
1
10
180.846825718218
20
4.90784360242358
30
0
41
1
10
180.792130381774
20
4.89441111823075
30
0
41
1
10
180.737469136305
20
4.8808794218331
30
0
0
SPLINE
5
11A
100
AcDbEntity
8
1
62
256
6
ByLayer
370
18
48
1
60
0
100
AcDbSpline
70
4
71
3
72
12
73
8
40
0
40
0
40
0
40
0
40
0.522876876441681
40
0.522876876441681
40
0.784315314662517
40
0.784315314662517
40
1
40
1
40
1
40
1
41
1
10
166.845421537682
20
-13.9384701665263
30
0
41
1
10
167.985095752787
20
-14.0500784903757
30
0
41
1
10
169.1234728886
20
-14.1321291789185
30
0
41
1
10
170.828668639031
20
-14.2119017524536
30
0
41
1
10
171.396679881837
20
-14.2312498247748
30
0
41
1
10
172.432592680556
20
-14.2532699762447
30
0
41
1
10
172.900564274484
20
-14.2582482920608
30
0
41
1
10
173.368732546585
20
-14.2582480556191
30
0
0
SPLINE
5
11B
100
AcDbEntity
8
1
62
256
6
ByLayer
370
18
48
1
60
0
100
AcDbSpline
70
4
71
3
72
8
73
4
40
0
40
0
40
0
40
0
40
1
40
1
40
1
40
1
41
1
10
154.268554083625
20
12.4457769523119
30
0
41
1
10
154.261577721413
20
12.4867691449201
30
0
41
1
10
154.254373457241
20
12.527627114358
30
0
41
1
10
154.246917932753
20
12.5683410062845
30
0
0
SPLINE
5
11C
100
AcDbEntity
8
1
62
256
6
ByLayer
370
18
48
1
60
0
100
AcDbSpline
70
4
71
3
72
25
73
21
40
0
40
0
40
0
40
0
40
0.125000000000001
40
0.125000000000001
40
0.250000000000001
40
0.250000000000001
40
0.312500000000001
40
0.312500000000001
40
0.375000000000001
40
0.375000000000001
40
0.500000000000001
40
0.625000000000001
40
0.625000000000001
40
0.687500000000001
40
0.687500000000001
40
0.75
40
0.75
40
0.875
40
0.875
40
1
40
1
40
1
40
1
41
1
10
166.7
20
10.7391674041015
30
0
41
1
10
166.7
20
10.3674875109988
30
0
41
1
10
166.7
20
10.0031540050328
30
0
41
1
10
166.7
20
9.28860047579872
30
0
41
1
10
166.7
20
8.93838229381396
30
0
41
1
10
166.7
20
8.42372785664503
30
0
41
1
10
166.7
20
8.25396036646904
30
0
41
1
10
166.7
20
7.91807322927181
30
0
41
1
10
166.7
20
7.75198094169713
30
0
41
1
10
166.7
20
7.26631435149275
30
0
41
1
10
166.7
20
6.64735840394846
30
0
41
1
10
166.7
20
6.08424832727829
30
0
41
1
10
166.7
20
5.68336702995589
30
0
41
1
10
166.7
20
5.55287946383456
30
0
41
1
10
166.7
20
5.30200224455612
30
0
41
1
10
166.7
20
5.18156665633489
30
0
41
1
10
166.7
20
4.83494069077659
30
0
41
1
10
166.7
20
4.62337424383355
30
0
41
1
10
166.7
20
4.23896739689411
30
0
41
1
10
166.7
20
4.06612193168053
30
0
41
1
10
166.7
20
3.91342989631241
30
0
0
SPLINE
5
11D
100
AcDbEntity
8
1
62
256
6
ByLayer
370
18
48
1
60
0
100
AcDbSpline
70
4
71
2
72
7
73
4
40
0
40
0
40
0
40
0.5
40
1
40
1
40
1
41
1
10
173.517136969776
20
0.610353500082738
30
0
41
1
10
173.816093493348
20
-0.68649626820357
30
0
41
1
10
174.586597601107
20
-3.27077197094562
30
0
41
1
10
175.040866764187
20
-4.50000000949953
30
0
0
SPLINE
5
11E
100
AcDbEntity
8
1
62
256
6
ByLayer
370
18
48
1
60
0
100
AcDbSpline
70
4
71
2
72
9
73
6
40
0
40
0
40
0
40
0.244123562302964
40
0.496082374868642
40
0.748041187434321
40
1
40
1
40
1
41
1
10
175.043526775348
20
-4.56947953298524
30
0
41
1
10
175.178565331503
20
-5.6506387455085
30
0
41
1
10
175.578393144771
20
-7.69732206222454
30
0
41
1
10
176.104693341944
20
-9.56123157211923
30
0
41
1
10
176.736665832264
20
-11.1588957041181
30
0
41
1
10
177.096871349733
20
-11.8024525111721
30
0
0
SPLINE
5
11F
100
AcDbEntity
8
1
62
256
6
ByLayer
370
18
48
1
60
0
100
AcDbSpline
70
4
71
3
72
14
73
10
40
0
40
0
40
0
40
0
40
0.399150830099774
40
0.399150830099774
40
0.699575415049887
40
0.699575415049887
40
0.849787707524943
40
0.849787707524943
40
1
40
1
40
1
40
1
41
1
10
153.443233865867
20
7.57146421286106
30
0
41
1
10
156.135222260017
20
6.78536740407441
30
0
41
1
10
158.826220376084
20
5.94850722859942
30
0
41
1
10
163.5497815132
20
4.41675056043221
30
0
41
1
10
165.575783593664
20
3.73934187926784
30
0
41
1
10
168.61445944712
20
2.70302235512494
30
0
41
1
10
169.627311242211
20
2.35423412736335
30
0
41
1
10
171.653618934398
20
1.65176394336012
30
0
41
1
10
172.667269014824
20
1.29801164830314
30
0
41
1
10
173.680114494301
20
0.943313429958863
30
0
0
SPLINE
5
120
100
AcDbEntity
8
1
62
256
6
ByLayer
370
18
48
1
60
0
100
AcDbSpline
70
4
71
3
72
8
73
4
40
0
40
0
40
0
40
0
40
1
40
1
40
1
40
1
41
1
10
166.604079636646
20
14.0052039371333
30
0
41
1
10
166.602719745634
20
14.0064032894915
30
0
41
1
10
166.601359866745
20
14.0076025241978
30
0
41
1
10
166.6
20
14.0088016412186
30
0
0
SPLINE
5
121
100
AcDbEntity
8
1
62
256
6
ByLayer
370
18
48
1
60
0
100
AcDbSpline
70
4
71
3
72
45
73
41
40
0
40
0
40
0
40
0
40
0.132432768509803
40
0.132432768509803
40
0.165540960637253
40
0.165540960637253
40
0.198649152764704
40
0.198649152764704
40
0.264865537019605
40
0.264865537019605
40
0.331081921274507
40
0.331081921274507
40
0.397298305529409
40
0.397298305529409
40
0.43040649765686
40
0.43040649765686
40
0.46351468978431
40
0.46351468978431
40
0.52973107403921
40
0.52973107403921
40
0.662163842549011
40
0.662163842549011
40
0.695272034676461
40
0.695272034676461
40
0.728380226803911
40
0.728380226803911
40
0.794596611058811
40
0.794596611058811
40
0.92702937956861
40
0.92702937956861
40
0.96013757169606
40
0.96013757169606
40
0.964276095711992
40
0.964276095711992
40
0.968414619727923
40
0.976691667759785
40
0.976691667759785
40
0.993245763823509
40
0.993245763823509
40
1
40
1
40
1
40
1
41
1
10
32.2500000000658
20
-9.80144703531604
30
0
41
1
10
37.0352177939065
20
-10.430370128696
30
0
41
1
10
41.8217267140739
20
-10.988088267966
30
0
41
1
10
47.8027233195879
20
-11.5970361778882
30
0
41
1
10
48.998841422167
20
-11.7144079228206
30
0
41
1
10
51.390923689893
20
-11.9402528796873
30
0
41
1
10
52.5868352013887
20
-12.0488519849151
30
0
41
1
10
56.1748203011412
20
-12.3599538167427
30
0
41
1
10
58.567402499765
20
-12.5470138842068
30
0
41
1
10
63.352038566873
20
-12.880387078569
30
0
41
1
10
65.744366083715
20
-13.0267353058735
30
0
41
1
10
70.5293548341056
20
-13.2781113363936
30
0
41
1
10
72.9222221812935
20
-13.3831642986279
30
0
41
1
10
76.5103696814529
20
-13.5084297248252
30
0
41
1
10
77.7062892040678
20
-13.5447852921588
30
0
41
1
10
80.0978741013358
20
-13.6064033495891
30
0
41
1
10
81.2934925215662
20
-13.6316674954247
30
0
41
1
10
84.8809181453433
20
-13.6899341013321
30
0
41
1
10
87.2734627395377
20
-13.7054779683404
30
0
41
1
10
94.4511040417596
20
-13.6832190280217
30
0
41
1
10
99.2364693378148
20
-13.5778477416503
30
0
41
1
10
105.218008105328
20
-13.3385990135737
30
0
41
1
10
106.414136646758
20
-13.2853286394567
30
0
41
1
10
108.806018347299
20
-13.1678334116457
30
0
41
1
10
110.001840166432
20
-13.1036834019545
30
0
41
1
10
113.589685561182
20
-12.8962362941452
30
0
41
1
10
115.981893692139
20
-12.7377214047684
30
0
41
1
10
123.159989059584
20
-12.2032876493231
30
0
41
1
10
127.944685239848
20
-11.7690071959203
30
0
41
1
10
133.925280691957
20
-11.1287425384052
30
0
41
1
10
135.121308022328
20
-10.9957933323182
30
0
41
1
10
136.466647776765
20
-10.8404517179124
30
0
41
1
10
136.615777324574
20
-10.8220525059163
30
0
41
1
10
136.914180053573
20
-10.785534290294
30
0
41
1
10
137.361622406939
20
-10.7300382438786
30
0
41
1
10
137.808539525552
20
-10.6722395610528
30
0
41
1
10
138.701565440073
20
-10.5531224470521
30
0
41
1
10
139.295850682909
20
-10.4691087967709
30
0
41
1
10
140.130607934534
20
-10.3417608911172
30
0
41
1
10
140.372162668921
20
-10.3038163199569
30
0
41
1
10
140.613281484375
20
-10.2646258153868
30
0
0
SPLINE
5
122
100
AcDbEntity
8
1
62
256
6
ByLayer
370
18
48
1
60
0
100
AcDbSpline
70
4
71
3
72
12
73
8
40
0
40
0
40
0
40
0
40
0.500000000000009
40
0.500000000000009
40
0.750000000000004
40
0.750000000000004
40
1
40
1
40
1
40
1
41
1
10
24.1325215290688
20
-9.29415054181985
30
0
41
1
10
23.9038016342997
20
-9.24025154306747
30
0
41
1
10
23.704045212347
20
-9.15116745300051
30
0
41
1
10
23.4469667796586
20
-8.95961504499556
30
0
41
1
10
23.3708961292969
20
-8.88782985448015
30
0
41
1
10
23.2359266628168
20
-8.72904670948105
30
0
41
1
10
23.1769314241022
20
-8.64183542584263
30
0
41
1
10
23.1261920627136
20
-8.54745443072858
30
0
0
SPLINE
5
123
100
AcDbEntity
8
1
62
256
6
ByLayer
370
18
48
1
60
0
100
AcDbSpline
70
4
71
3
72
8
73
4
40
0
40
0
40
0
40
0
40
1
40
1
40
1
40
1
41
1
10
181.858981836402
20
-10.0798200341983
30
0
41
1
10
181.466409548597
20
-11.2896517648415
30
0
41
1
10
181.066766701288
20
-12.5073907887059
30
0
41
1
10
180.659756746805
20
-13.7333687470715
30
0
0
SPLINE
5
124
100
AcDbEntity
8
1
62
256
6
ByLayer
370
18
48
1
60
0
100
AcDbSpline
70
4
71
3
72
28
73
24
40
0
40
0
40
0
40
0
40
0.125000000000006
40
0.125000000000006
40
0.250000000000012
40
0.250000000000012
40
0.375000000000018
40
0.375000000000018
40
0.437500000000019
40
0.437500000000019
40
0.50000000000002
40
0.50000000000002
40
0.625000000000017
40
0.625000000000017
40
0.687500000000016
40
0.687500000000016
40
0.750000000000014
40
0.750000000000014
40
0.875000000000012
40
0.875000000000012
40
0.937500000000006
40
0.937500000000006
40
1
40
1
40
1
40
1
41
1
10
32.2500000001036
20
12.4400629929054
30
0
41
1
10
32.2500000001036
20
12.3557095943235
30
0
41
1
10
32.2645367520521
20
12.2697361326504
30
0
41
1
10
32.3221154867538
20
12.0949576830619
30
0
41
1
10
32.3653413219908
20
12.0058592704092
30
0
41
1
10
32.481410706001
20
11.8266440283022
30
0
41
1
10
32.5528112373194
20
11.7386231775457
30
0
41
1
10
32.6794192129059
20
11.6096932705796
30
0
41
1
10
32.7248906743749
20
11.5672374292096
30
0
41
1
10
32.822492668188
20
11.483541813215
30
0
41
1
10
32.8748803793213
20
11.4421188536633
30
0
41
1
10
33.0404938245717
20
11.3213950499866
30
0
41
1
10
33.1611978447847
20
11.2461445716641
30
0
41
1
10
33.3572351403086
20
11.1418476196079
30
0
41
1
10
33.4250918079833
20
11.1085185542548
30
0
41
1
10
33.5659186594143
20
11.0449455264512
30
0
41
1
10
33.6392596233533
20
11.0145726856611
30
0
41
1
10
33.8635285717412
20
10.9298521244539
30
0
41
1
10
34.0190107300047
20
10.8815902114262
30
0
41
1
10
34.2609679723762
20
10.8219529224514
30
0
41
1
10
34.3430842723074
20
10.80420884574
30
0
41
1
10
34.5103078161968
20
10.7731784586891
30
0
41
1
10
34.5955836872972
20
10.7598820901159
30
0
41
1
10
34.6814821662261
20
10.7490488556056
30
0
0
SPLINE
5
125
100
AcDbEntity
8
1
62
256
6
ByLayer
370
18
48
1
60
0
100
AcDbSpline
70
4
71
3
72
16
73
12
40
0
40
0
40
0
40
0
40
0.250000000000002
40
0.250000000000002
40
0.500000000000004
40
0.500000000000004
40
0.625000000000001
40
0.625000000000001
40
0.749999999999998
40
0.749999999999998
40
1
40
1
40
1
40
1
41
1
10
167.804358970516
20
3.37434964539355
30
0
41
1
10
168.661431218579
20
3.27125013246112
30
0
41
1
10
169.519021702666
20
3.17104217383937
30
0
41
1
10
171.235194063624
20
2.97615784054642
30
0
41
1
10
172.093805395532
20
2.88164581346257
30
0
41
1
10
173.383908411519
20
2.75207489892506
30
0
41
1
10
173.814036333519
20
2.71049474938673
30
0
41
1
10
174.674323809718
20
2.62790617315454
30
0
41
1
10
175.104496174677
20
2.58711071273248
30
0
41
1
10
176.395122218634
20
2.46662278706231
30
0
41
1
10
177.255647150688
20
2.38817191796014
30
0
41
1
10
178.116491648467
20
2.31528953391844
30
0
0
SPLINE
5
126
100
AcDbEntity
8
1
62
256
6
ByLayer
370
18
48
1
60
0
100
AcDbSpline
70
4
71
1
72
4
73
2
40
0
40
0
40
1
40
1
41
1
10
177.096872445858
20
-11.8024424998963
30
0
41
1
10
176.958848356499
20
-11.8619747575404
30
0
0
SPLINE
5
127
100
AcDbEntity
8
1
62
256
6
ByLayer
370
13
48
1
60
0
100
AcDbSpline
70
4
71
3
72
8
73
4
40
0
40
0
40
0
40
0
40
1
40
1
40
1
40
1
41
1
10
151.31597482234
20
-9.60076573069463
30
0
41
1
10
151.323245145828
20
-9.48925917103298
30
0
41
1
10
151.330533490401
20
-9.37771386410975
30
0
41
1
10
151.337839363146
20
-9.266129444082
30
0
0
SPLINE
5
128
100
AcDbEntity
8
1
62
256
6
ByLayer
370
13
48
1
60
0
100
AcDbSpline
70
4
71
3
72
8
73
4
40
0
40
0
40
0
40
0
40
1
40
1
40
1
40
1
41
1
10
183.10041956393
20
-3.94550623310852
30
0
41
1
10
182.519646694604
20
-3.53958076159071
30
0
41
1
10
181.938873825278
20
-3.13365529007291
30
0
41
1
10
181.358100955952
20
-2.72772981855511
30
0
0
SPLINE
5
129
100
AcDbEntity
8
1
62
256
6
ByLayer
370
18
48
1
60
0
100
AcDbSpline
70
4
71
3
72
8
73
4
40
0
40
0
40
0
40
0
40
1
40
1
40
1
40
1
41
1
10
167.404881252276
20
-14.3855541899646
30
0
41
1
10
167.170204416224
20
-14.2893533814198
30
0
41
1
10
166.935249368674
20
-14.1919878903331
30
0
41
1
10
166.7
20
-14.0934996160614
30
0
0
SPLINE
5
12A
100
AcDbEntity
8
1
62
256
6
ByLayer
370
18
48
1
60
0
100
AcDbSpline
70
4
71
3
72
46
73
42
40
0
40
0
40
0
40
0
40
0.0135635523200044
40
0.0135635523200044
40
0.260172664239982
40
0.260172664239982
40
0.321824942219978
40
0.321824942219978
40
0.383477220199973
40
0.383477220199973
40
0.506781776159964
40
0.506781776159964
40
0.753390888079947
40
0.753390888079947
40
0.815043166059943
40
0.815043166059943
40
0.822749700807443
40
0.822749700807443
40
0.830456235554943
40
0.845869305049942
40
0.845869305049942
40
0.876695444039942
40
0.876695444039942
40
0.907521583029942
40
0.907521583029942
40
0.938347722019942
40
0.938347722019942
40
0.953760791514943
40
0.953760791514943
40
0.961467326262443
40
0.961467326262443
40
0.963393959949319
40
0.963393959949319
40
0.963875618371038
40
0.963875618371038
40
0.964357276792757
40
0.964357276792757
40
0.965320593636195
40
0.965320593636195
40
0.969173861009951
40
1
40
1
40
1
40
1
41
1
10
88.8764676409035
20
13.6996727838167
30
0
41
1
10
89.1396475229018
20
13.699412789402
30
0
41
1
10
89.4028286664254
20
13.6988744857912
30
0
41
1
10
94.4511040417596
20
13.6832190280217
30
0
41
1
10
99.2364693378148
20
13.5778477416503
30
0
41
1
10
105.218008105328
20
13.3385990135737
30
0
41
1
10
106.414136646758
20
13.2853286394567
30
0
41
1
10
108.806018347299
20
13.1678334116457
30
0
41
1
10
110.001840166432
20
13.1036834019545
30
0
41
1
10
113.589685561182
20
12.8962362941452
30
0
41
1
10
115.981893692139
20
12.7377214047684
30
0
41
1
10
123.159989059584
20
12.203287649323
30
0
41
1
10
127.944685239848
20
11.7690071959203
30
0
41
1
10
133.925280691957
20
11.1287425384052
30
0
41
1
10
135.121308022327
20
10.9957933323178
30
0
41
1
10
136.466647776765
20
10.8404517179124
30
0
41
1
10
136.615777324574
20
10.8220525059163
30
0
41
1
10
136.914180053573
20
10.785534290294
30
0
41
1
10
137.361622406939
20
10.7300382438786
30
0
41
1
10
137.808539525552
20
10.6722395610528
30
0
41
1
10
138.701565440073
20
10.553122447052
30
0
41
1
10
139.295850682909
20
10.4691087967709
30
0
41
1
10
140.481577022389
20
10.2882181657313
30
0
41
1
10
141.072401727836
20
10.1915136582963
30
0
41
1
10
142.247130624179
20
9.9795807969993
30
0
41
1
10
142.83124336359
20
9.86486509488967
30
0
41
1
10
143.697924485005
20
9.66742176423713
30
0
41
1
10
143.985227127553
20
9.59733736820195
30
0
41
1
10
144.412066177275
20
9.48138198159668
30
0
41
1
10
144.553653269454
20
9.44090793780234
30
0
41
1
10
144.729331238248
20
9.38692550046045
30
0
41
1
10
144.764397798623
20
9.37595051635591
30
0
41
1
10
144.808153445664
20
9.3620273260164
30
0
41
1
10
144.816900062287
20
9.35923097649774
30
0
41
1
10
144.834376950647
20
9.35359758677836
30
0
41
1
10
144.842920649538
20
9.35032164513538
30
0
41
1
10
144.869919362666
20
9.34370745343236
30
0
41
1
10
144.887903096511
20
9.33925894550879
30
0
41
1
10
144.977858021931
20
9.31708764545019
30
0
41
1
10
145.625540063668
20
9.15706557327479
30
0
41
1
10
146.273285067892
20
8.99355288034755
30
0
41
1
10
146.849131416138
20
8.84548052072273
30
0
0
SPLINE
5
12B
100
AcDbEntity
8
1
62
256
6
ByLayer
370
18
48
1
60
0
100
AcDbSpline
70
4
71
1
72
4
73
2
40
0
40
0
40
1
40
1
41
1
10
175.040868647551
20
-4.50005048873462
30
0
41
1
10
175.043526744148
20
-4.56947928318809
30
0
0
SPLINE
5
12C
100
AcDbEntity
8
1
62
256
6
ByLayer
370
18
48
1
60
0
100
AcDbSpline
70
4
71
3
72
8
73
4
40
0
40
0
40
0
40
0
40
1
40
1
40
1
40
1
41
1
10
166.5
20
5.34999999999999
30
0
41
1
10
166.5
20
4.99824387110598
30
0
41
1
10
166.5
20
4.68184129986685
30
0
41
1
10
166.5
20
4.40020593042505
30
0
0
SPLINE
5
12D
100
AcDbEntity
8
1
62
256
6
ByLayer
370
18
48
1
60
0
100
AcDbSpline
70
4
71
3
72
18
73
14
40
0
40
0
40
0
40
0
40
0.249999999999998
40
0.249999999999998
40
0.499999999999996
40
0.499999999999996
40
0.624999999999997
40
0.624999999999997
40
0.749999999999998
40
0.749999999999998
40
0.874999999999999
40
0.874999999999999
40
1
40
1
40
1
40
1
41
1
10
180.64668458439
20
-6.31781866512287
30
0
41
1
10
180.445366891652
20
-5.78006698664234
30
0
41
1
10
180.249793859002
20
-5.24026249683973
30
0
41
1
10
179.865319019679
20
-4.15826960452048
30
0
41
1
10
179.676704929994
20
-3.61597730984843
30
0
41
1
10
179.406848288783
20
-2.79787360872152
30
0
41
1
10
179.318284945879
20
-2.52474688424641
30
0
41
1
10
179.144484372942
20
-1.97747445622446
30
0
41
1
10
179.059999339589
20
-1.70309831170769
30
0
41
1
10
178.894616542331
20
-1.15324703636892
30
0
41
1
10
178.814131231272
20
-0.877645547592863
30
0
41
1
10
178.658915407937
20
-0.324679545226445
30
0
41
1
10
178.58386571489
20
-0.0474724737173347
30
0
41
1
10
178.511101037367
20
0.23023981853504
30
0
0
SPLINE
5
12E
100
AcDbEntity
8
1
62
256
6
ByLayer
370
18
48
1
60
0
100
AcDbSpline
70
4
71
3
72
8
73
4
40
0
40
0
40
0
40
0
40
1
40
1
40
1
40
1
41
1
10
24.1325215290688
20
-9.29415054181985
30
0
41
1
10
24.1633886756273
20
-9.30142454085487
30
0
41
1
10
24.194654615567
20
-9.30796210020861
30
0
41
1
10
24.2263187608239
20
-9.3137741568824
30
0
0
SPLINE
5
12F
100
AcDbEntity
8
1
62
256
6
ByLayer
370
18
48
1
60
0
100
AcDbSpline
70
4
71
3
72
12
73
8
40
0
40
0
40
0
40
0
40
0.5
40
0.5
40
0.75
40
0.75
40
1
40
1
40
1
40
1
41
1
10
180.907472095169
20
5.0199464187163
30
0
41
1
10
181.336254640822
20
5.06221917517681
30
0
41
1
10
181.763437683009
20
5.11315665370449
30
0
41
1
10
182.399677621882
20
5.21412753234461
30
0
41
1
10
182.610989553518
20
5.25194510954347
30
0
41
1
10
183.03135862403
20
5.33979477488245
30
0
41
1
10
183.240436988064
20
5.38971188353239
30
0
41
1
10
183.447718557122
20
5.44936246848064
30
0
0
SPLINE
5
130
100
AcDbEntity
8
1
62
256
6
ByLayer
370
13
48
1
60
0
100
AcDbSpline
70
4
71
3
72
8
73
4
40
0
40
0
40
0
40
0
40
1
40
1
40
1
40
1
41
1
10
180.882267760394
20
5.00846121876108
30
0
41
1
10
180.888685943851
20
4.979364312103
30
0
41
1
10
180.895104127308
20
4.95026740544492
30
0
41
1
10
180.901522310765
20
4.92117049878684
30
0
0
SPLINE
5
131
100
AcDbEntity
8
1
62
256
6
ByLayer
370
18
48
1
60
0
100
AcDbSpline
70
4
71
3
72
8
73
4
40
0
40
0
40
0
40
0
40
1
40
1
40
1
40
1
41
1
10
27
20
9.30590625900356
30
0
41
1
10
27.1999973534607
20
9.31369486036937
30
0
41
1
10
27.3992481385085
20
9.31677739021606
30
0
41
1
10
27.597766509166
20
9.31520837985431
30
0
0
SPLINE
5
132
100
AcDbEntity
8
1
62
256
6
ByLayer
370
18
48
1
60
0
100
AcDbSpline
70
4
71
3
72
12
73
8
40
0
40
0
40
0
40
0
40
0.5
40
0.5
40
0.75
40
0.75
40
1
40
1
40
1
40
1
41
1
10
183.447718557122
20
5.44936246848019
30
0
41
1
10
183.17140185472
20
6.21637422306549
30
0
41
1
10
182.90022072886
20
6.98654935886591
30
0
41
1
10
182.501658232639
20
8.14686871109299
30
0
41
1
10
182.37018447483
20
8.53449212358183
30
0
41
1
10
182.110271487675
20
9.31160813895173
30
0
41
1
10
181.983073054199
20
9.69739494346373
30
0
41
1
10
181.858981836402
20
10.0798200341983
30
0
0
SPLINE
5
133
100
AcDbEntity
8
1
62
256
6
ByLayer
370
13
48
1
60
0
100
AcDbSpline
70
4
71
3
72
8
73
4
40
0
40
0
40
0
40
0
40
1
40
1
40
1
40
1
41
1
10
180.64668458439
20
-6.31781866512287
30
0
41
1
10
180.883823374911
20
-5.12112238293363
30
0
41
1
10
181.120962165432
20
-3.9244261007444
30
0
41
1
10
181.358100955952
20
-2.72772981855516
30
0
0
SPLINE
5
134
100
AcDbEntity
8
1
62
256
6
ByLayer
370
18
48
1
60
0
100
AcDbSpline
70
4
71
2
72
6
73
3
40
0
40
0
40
0
40
1
40
1
40
1
41
0.500000065070689
10
153.377645267174
20
-12.2648940770515
30
0
41
0.499999934929311
10
153.374757582882
20
-12.2700653331727
30
0
41
0.500000065070689
10
153.371866478591
20
-12.2752237750249
30
0
0
SPLINE
5
135
100
AcDbEntity
8
1
62
256
6
ByLayer
370
18
48
1
60
0
100
AcDbSpline
70
4
71
3
72
12
73
8
40
0
40
0
40
0
40
0
40
0.25
40
0.25
40
0.5
40
0.5
40
1
40
1
40
1
40
1
41
1
10
154.268554083625
20
12.4457769523118
30
0
41
1
10
154.371396424102
20
12.4471271517267
30
0
41
1
10
154.474021092415
20
12.4447967592473
30
0
41
1
10
154.675220810422
20
12.4323282954895
30
0
41
1
10
154.773570333648
20
12.4222478872022
30
0
41
1
10
155.061903050101
20
12.3802301697781
30
0
41
1
10
155.245220421487
20
12.3365958257766
30
0
41
1
10
155.419174824534
20
12.2758576087575
30
0
0
SPLINE
5
136
100
AcDbEntity
8
1
62
256
6
ByLayer
370
13
48
1
60
0
100
AcDbSpline
70
4
71
3
72
18
73
14
40
0
40
0
40
0
40
0
40
0.249999999999994
40
0.249999999999994
40
0.374999999999993
40
0.374999999999993
40
0.499999999999993
40
0.499999999999993
40
0.749999999999996
40
0.749999999999996
40
0.874999999999998
40
0.874999999999998
40
1
40
1
40
1
40
1
41
1
10
166.7
20
10.7391674041015
30
0
41
1
10
167.963680675214
20
10.7970937047388
30
0
41
1
10
169.227169832932
20
10.8224680579814
30
0
41
1
10
171.121621094364
20
10.8184752823326
30
0
41
1
10
171.75298513602
20
10.8101357668998
30
0
41
1
10
173.01603491913
20
10.7823321412985
30
0
41
1
10
173.647916229256
20
10.7630940907478
30
0
41
1
10
175.543196012688
20
10.6806797054042
30
0
41
1
10
176.806241123436
20
10.5954772757694
30
0
41
1
10
178.700545257695
20
10.4307732469447
30
0
41
1
10
179.332260772988
20
10.3706415746075
30
0
41
1
10
180.595686207286
20
10.2353982396337
30
0
41
1
10
181.227378955101
20
10.1608873334563
30
0
41
1
10
181.858981836402
20
10.0798200341983
30
0
0
SPLINE
5
137
100
AcDbEntity
8
1
62
256
6
ByLayer
370
18
48
1
60
0
100
AcDbSpline
70
4
71
3
72
12
73
8
40
0
40
0
40
0
40
0
40
0.500000000000032
40
0.500000000000032
40
0.750000000000016
40
0.750000000000016
40
1
40
1
40
1
40
1
41
1
10
153.371866478591
20
12.2752237750249
30
0
41
1
10
153.533936882889
20
12.312116352663
30
0
41
1
10
153.688469228773
20
12.3555742308225
30
0
41
1
10
153.908842339393
20
12.4297008039393
30
0
41
1
10
153.980731068509
20
12.4560527443873
30
0
41
1
10
154.118301224486
20
12.5107556398459
30
0
41
1
10
154.184074061107
20
12.5391104595143
30
0
41
1
10
154.246917932753
20
12.5683410062846
30
0
0
SPLINE
5
138
100
AcDbEntity
8
1
62
256
6
ByLayer
370
18
48
1
60
0
100
AcDbSpline
70
4
71
3
72
14
73
10
40
0
40
0
40
0
40
0
40
0.500000000000001
40
0.500000000000001
40
0.625
40
0.625
40
0.75
40
0.75
40
1
40
1
40
1
40
1
41
1
10
24.2263187608354
20
9.18134062156824
30
0
41
1
10
24.6507282931789
20
9.22297784491747
30
0
41
1
10
25.0942776612199
20
9.25130877138531
30
0
41
1
10
25.6755200255732
20
9.27607690755778
30
0
41
1
10
25.7931209177932
20
9.28048145997064
30
0
41
1
10
26.0311556665205
20
9.28827106732575
30
0
41
1
10
26.1515971569627
20
9.29165243628998
30
0
41
1
10
26.5131092397061
20
9.30025628556922
30
0
41
1
10
26.755728239007
20
9.3040087047639
30
0
41
1
10
26.9999999999999
20
9.30590625900359
30
0
0
SPLINE
5
139
100
AcDbEntity
8
1
62
256
6
ByLayer
370
13
48
1
60
0
100
AcDbSpline
70
4
71
3
72
8
73
4
40
0
40
0
40
0
40
0
40
1
40
1
40
1
40
1
41
1
10
183.421998164381
20
1.42205891537114
30
0
41
1
10
183.844018754367
20
1.3923035002147
30
0
41
1
10
184.266039344352
20
1.36254808505825
30
0
41
1
10
184.688059934338
20
1.33279266990181
30
0
0
SPLINE
5
13A
100
AcDbEntity
8
1
62
256
6
ByLayer
370
18
48
1
60
0
100
AcDbSpline
70
4
71
3
72
8
73
4
40
0
40
0
40
0
40
0
40
1
40
1
40
1
40
1
41
1
10
166.835720346466
20
-13.6941985158921
30
0
41
1
10
166.842180490998
20
-13.721193976489
30
0
41
1
10
166.845421537682
20
-13.7472671602718
30
0
41
1
10
166.845421537682
20
-13.7724119126861
30
0
0
SPLINE
5
13B
100
AcDbEntity
8
1
62
256
6
ByLayer
370
18
48
1
60
0
100
AcDbSpline
70
4
71
3
72
8
73
4
40
0
40
0
40
0
40
0
40
1
40
1
40
1
40
1
41
1
10
7.7679
20
0.425696805264977
30
0
41
1
10
7.7679
20
0.412837769618903
30
0
41
1
10
7.7679
20
0.399978733972858
30
0
41
1
10
7.7679
20
0.387119698326813
30
0
0
SPLINE
5
13C
100
AcDbEntity
8
1
62
256
6
ByLayer
370
18
48
1
60
0
100
AcDbSpline
70
4
71
3
72
8
73
4
40
0
40
0
40
0
40
0
40
1
40
1
40
1
40
1
41
1
10
29.9
20
-10.0398831284381
30
0
41
1
10
30.6833204275075
20
-10.1481289263888
30
0
41
1
10
31.4666512606369
20
-10.2544926379139
30
0
41
1
10
32.2500000000924
20
-10.3589594367609
30
0
0
SPLINE
5
13D
100
AcDbEntity
8
1
62
256
6
ByLayer
370
18
48
1
60
0
100
AcDbSpline
70
4
71
3
72
28
73
24
40
0
40
0
40
0
40
0
40
0.0373080861845233
40
0.0744129966870252
40
0.111315140553894
40
0.148014933611981
40
0.184512798604895
40
0.22080916533232
40
0.256904470792382
40
0.292799159327144
40
0.328493682771296
40
0.363988500604099
40
0.39928408010465
40
0.434380896510532
40
0.469279433179927
40
0.503980181757236
40
0.576918836769651
40
0.649156047656188
40
0.720696794962011
40
0.791546206131258
40
0.861709560193673
40
0.931192292570805
40
1
40
1
40
1
40
1
41
1
10
174.925289408962
20
-4.57902556202654
30
0
41
1
10
174.902983941075
20
-4.51788023718674
30
0
41
1
10
174.858494478394
20
-4.39592257813595
30
0
41
1
10
174.792746271648
20
-4.21218460321208
30
0
41
1
10
174.727953011235
20
-4.02854748776161
30
0
41
1
10
174.66417143435
20
-3.84495945216369
30
0
41
1
10
174.601386462784
20
-3.66148837497988
30
0
41
1
10
174.539602103355
20
-3.47816934207887
30
0
41
1
10
174.478817291063
20
-3.2950451578208
30
0
41
1
10
174.419032309079
20
-3.1121555787615
30
0
41
1
10
174.360247080851
20
-2.92954017005371
30
0
41
1
10
174.30246163091
20
-2.74723755832124
30
0
41
1
10
174.245675936619
20
-2.56528558355717
30
0
41
1
10
174.189890063073
20
-2.38372143106824
30
0
41
1
10
174.13510377382
20
-2.20258096083839
30
0
41
1
10
174.061459975114
20
-1.95519349019014
30
0
41
1
10
173.970393614083
20
-1.64154837550046
30
0
41
1
10
173.863812534764
20
-1.26159952282768
30
0
41
1
10
173.761438216323
20
-0.883542455111268
30
0
41
1
10
173.66324751855
20
-0.507668118419446
30
0
41
1
10
173.569326695274
20
-0.134241466549327
30
0
41
1
10
173.479358251517
20
0.236439597112877
30
0
41
1
10
173.422516884637
20
0.482842521173183
30
0
41
1
10
173.394234928576
20
0.605442610754068
30
0
0
SPLINE
5
13E
100
AcDbEntity
8
1
62
256
6
ByLayer
370
18
48
1
60
0
100
AcDbSpline
70
4
71
3
72
12
73
8
40
0
40
0
40
0
40
0
40
0.499999999999997
40
0.499999999999997
40
0.749999999999998
40
0.749999999999998
40
1
40
1
40
1
40
1
41
1
10
178.511101037367
20
0.23023981853504
30
0
41
1
10
178.421546640809
20
0.572031434966561
30
0
41
1
10
178.345231676736
20
0.917441209353058
30
0
41
1
10
178.247719716226
20
1.44019094240943
30
0
41
1
10
178.217735367561
20
1.61475523096925
30
0
41
1
10
178.163451780666
20
1.96457403909156
30
0
41
1
10
178.139023178129
20
2.13981564732649
30
0
41
1
10
178.116491648467
20
2.3152895339185
30
0
0
SPLINE
5
13F
100
AcDbEntity
8
1
62
256
6
ByLayer
370
18
48
1
60
0
100
AcDbSpline
70
4
71
3
72
14
73
10
40
0
40
0
40
0
40
0
40
0.25
40
0.25
40
0.5
40
0.5
40
0.75
40
0.75
40
1
40
1
40
1
40
1
41
1
10
153.161321527386
20
11.5502771880841
30
0
41
1
10
153.275937103644
20
11.5805486915141
30
0
41
1
10
153.386916569897
20
11.6266578567374
30
0
41
1
10
153.599356374559
20
11.7460021416281
30
0
41
1
10
153.697382889701
20
11.8169625807229
30
0
41
1
10
153.881287263781
20
11.9753653974936
30
0
41
1
10
153.967653622954
20
12.0635456103267
30
0
41
1
10
154.126943661117
20
12.2485061288868
30
0
41
1
10
154.20021661812
20
12.3454384298263
30
0
41
1
10
154.268554083625
20
12.4457769523118
30
0
0
SPLINE
5
140
100
AcDbEntity
8
1
62
256
6
ByLayer
370
18
48
1
60
0
100
AcDbSpline
70
4
71
3
72
18
73
14
40
0
40
0
40
0
40
0
40
0.250000000000019
40
0.250000000000019
40
0.37500000000001
40
0.37500000000001
40
0.5
40
0.5
40
0.749999999999982
40
0.749999999999982
40
0.874999999999991
40
0.874999999999991
40
1
40
1
40
1
40
1
41
1
10
149.004530078271
20
8.83809863078378
30
0
41
1
10
148.83396058586
20
8.78123516137072
30
0
41
1
10
148.658514378301
20
8.73854360744315
30
0
41
1
10
148.388032495388
20
8.696420594637
30
0
41
1
10
148.29664519022
20
8.68605099104067
30
0
41
1
10
148.111310323835
20
8.67303159456063
30
0
41
1
10
148.01860572261
20
8.67049008837429
30
0
41
1
10
147.742510309739
20
8.67449260923081
30
0
41
1
10
147.560194980734
20
8.69250681584268
30
0
41
1
10
147.289374528323
20
8.74251972803935
30
0
41
1
10
147.200005723334
20
8.76300298080153
30
0
41
1
10
147.025896116931
20
8.81061007305414
30
0
41
1
10
146.940719959397
20
8.83781022731961
30
0
41
1
10
146.857380553935
20
8.86826281054954
30
0
0
SPLINE
5
141
100
AcDbEntity
8
1
62
256
6
ByLayer
370
18
48
1
60
0
100
AcDbSpline
70
4
71
3
72
8
73
4
40
0
40
0
40
0
40
0
40
1
40
1
40
1
40
1
41
1
10
167.404881252276
20
-14.3855541899646
30
0
41
1
10
168.461583073631
20
-14.4403688298411
30
0
41
1
10
169.517130519618
20
-14.4693376437088
30
0
41
1
10
170.571450988449
20
-14.4729600908058
30
0
0
SPLINE
5
142
100
AcDbEntity
8
1
62
256
6
ByLayer
370
18
48
1
60
0
100
AcDbSpline
70
4
71
1
72
4
73
2
40
0
40
0
40
1
40
1
41
1
10
176.439302503638
20
2.11979299653703
30
0
41
1
10
176.434479558379
20
2.12474410873281
30
0
0
SPLINE
5
143
100
AcDbEntity
8
1
62
256
6
ByLayer
370
18
48
1
60
0
100
AcDbSpline
70
4
71
3
72
8
73
4
40
0
40
0
40
0
40
0
40
1
40
1
40
1
40
1
41
1
10
24.1325215290688
20
9.17162229668548
30
0
41
1
10
24.1637242699239
20
9.17502780984572
30
0
41
1
10
24.1949907555585
20
9.17826714877043
30
0
41
1
10
24.2263187608354
20
9.18134062156827
30
0
0
SPLINE
5
144
100
AcDbEntity
8
1
62
256
6
ByLayer
370
18
48
1
60
0
100
AcDbSpline
70
4
71
3
72
8
73
4
40
0
40
0
40
0
40
0
40
1
40
1
40
1
40
1
41
1
10
167.404881252276
20
14.3855541899646
30
0
41
1
10
167.170204416224
20
14.2893533814198
30
0
41
1
10
166.935249368674
20
14.191987890333
30
0
41
1
10
166.7
20
14.0934996160614
30
0
0
SPLINE
5
145
100
AcDbEntity
8
1
62
256
6
ByLayer
370
18
48
1
60
0
100
AcDbSpline
70
4
71
3
72
8
73
4
40
0
40
0
40
0
40
0
40
1
40
1
40
1
40
1
41
1
10
167.751040764009
20
-13.3949355621797
30
0
41
1
10
167.768019333066
20
-13.3887423274198
30
0
41
1
10
167.785913780803
20
-13.3827093213463
30
0
41
1
10
167.804358970512
20
-13.3769752957274
30
0
0
SPLINE
5
146
100
AcDbEntity
8
1
62
256
6
ByLayer
370
18
48
1
60
0
100
AcDbSpline
70
4
71
3
72
8
73
4
40
0
40
0
40
0
40
0
40
1
40
1
40
1
40
1
41
1
10
184.395365314735
20
-1.77084791589402
30
0
41
1
10
184.505496014428
20
-1.45918627264345
30
0
41
1
10
184.612870073132
20
-1.14715717199337
30
0
41
1
10
184.717724251128
20
-0.834792173845273
30
0
0
SPLINE
5
147
100
AcDbEntity
8
1
62
256
6
ByLayer
370
18
48
1
60
0
100
AcDbSpline
70
4
71
3
72
10
73
6
40
0
40
0
40
0
40
0
40
0.5
40
0.5
40
1
40
1
40
1
40
1
41
1
10
154.246917932753
20
12.5683410062846
30
0
41
1
10
156.305339089373
20
12.9223026710889
30
0
41
1
10
158.362580581531
20
13.2215273412891
30
0
41
1
10
162.482276834562
20
13.7036110649181
30
0
41
1
10
164.541061263832
20
13.8858487747459
30
0
41
1
10
166.6
20
14.0088016412186
30
0
0
SPLINE
5
148
100
AcDbEntity
8
1
62
256
6
ByLayer
370
18
48
1
60
0
100
AcDbSpline
70
4
71
3
72
8
73
4
40
0
40
0
40
0
40
0
40
1
40
1
40
1
40
1
41
1
10
24.1325215290688
20
9.17162229668548
30
0
41
1
10
24.0497491780472
20
9.16258840020771
30
0
41
1
10
23.967764697371
20
9.15255653323692
30
0
41
1
10
23.8865348214285
20
9.14151640269804
30
0
0
SPLINE
5
149
100
AcDbEntity
8
1
62
256
6
ByLayer
370
13
48
1
60
0
100
AcDbSpline
70
4
71
3
72
8
73
4
40
0
40
0
40
0
40
0
40
1
40
1
40
1
40
1
41
1
10
180.928624584244
20
4.92404108086214
30
0
41
1
10
181.831019748541
20
4.91214229145825
30
0
41
1
10
182.733414912839
20
4.90024350205437
30
0
41
1
10
183.635810077136
20
4.88834471265045
30
0
0
SPLINE
5
14A
100
AcDbEntity
8
1
62
256
6
ByLayer
370
18
48
1
60
0
100
AcDbSpline
70
2053
71
3
72
39
73
35
40
0
40
0
40
0
40
0
40
0.0312364418456654
40
0.0623726011433236
40
0.09357709406109
40
0.124875636028413
40
0.156046404977727
40
0.187423483765036
40
0.218648135459382
40
0.250019105972812
40
0.281370831299361
40
0.312634413783272
40
0.344018541521606
40
0.37520411852728
40
0.406492148735187
40
0.437674857215964
40
0.468920750876326
40
0.500164587620723
40
0.531288419690764
40
0.562454631614989
40
0.593722860690214
40
0.624867881781559
40
0.656212335032725
40
0.687431795398729
40
0.718770417336047
40
0.750125712730186
40
0.781385473003143
40
0.812791194958235
40
0.84401319913544
40
0.875331833196736
40
0.90657333269265
40
0.937711482247438
40
0.968953272996571
40
1
40
1
40
1
40
1
41
1
10
160.47
20
-7.66585797035062
30
0
41
1
10
160.674723166087
20
-7.66585896501375
30
0
41
1
10
161.083522529524
20
-7.70109809099026
30
0
41
1
10
161.671622208405
20
-7.85576304111461
30
0
41
1
10
162.211972043658
20
-8.10197598190859
30
0
41
1
10
162.684389101757
20
-8.42498849874133
30
0
41
1
10
163.072631283905
20
-8.80757666606434
30
0
41
1
10
163.361478278617
20
-9.22964144291706
30
0
41
1
10
163.540221792757
20
-9.67220123437656
30
0
41
1
10
163.600735038392
20
-10.1141674424257
30
0
41
1
10
163.540087086122
20
-10.5370083257551
30
0
41
1
10
163.361147350039
20
-10.9248154659618
30
0
41
1
10
163.071904909831
20
-11.2650683717198
30
0
41
1
10
162.683398403517
20
-11.5505685621751
30
0
41
1
10
162.210886288417
20
-11.7759234134276
30
0
41
1
10
161.669988450421
20
-11.9388156027095
30
0
41
1
10
161.081133950021
20
-12.0371897205737
30
0
41
1
10
160.467514454346
20
-12.0698623228439
30
0
41
1
10
159.854565942324
20
-12.0366477916786
30
0
41
1
10
159.266653174139
20
-11.9380431692416
30
0
41
1
10
158.726845105428
20
-11.7750306292403
30
0
41
1
10
158.25421341213
20
-11.5491623374803
30
0
41
1
10
157.86673732096
20
-11.2638156703593
30
0
41
1
10
157.577812053458
20
-10.9230907112655
30
0
41
1
10
157.399407481194
20
-10.5354861840945
30
0
41
1
10
157.339336696355
20
-10.1126620560864
30
0
41
1
10
157.400234454694
20
-9.67035129112159
30
0
41
1
10
157.579293958644
20
-9.22818122082612
30
0
41
1
10
157.869114626715
20
-8.80550874102389
30
0
41
1
10
158.257516233057
20
-8.42335751522029
30
0
41
1
10
158.730487348027
20
-8.10066732267256
30
0
41
1
10
159.270935096496
20
-7.85482882591563
30
0
41
1
10
159.858292426844
20
-7.70083091094281
30
0
41
1
10
160.266520222111
20
-7.66585698172858
30
0
41
1
10
160.47
20
-7.66585797035062
30
0
0
SPLINE
5
14B
100
AcDbEntity
8
1
62
256
6
ByLayer
370
18
48
1
60
0
100
AcDbSpline
70
4
71
3
72
8
73
4
40
0
40
0
40
0
40
0
40
1
40
1
40
1
40
1
41
1
10
166.604079636646
20
-14.0052039371333
30
0
41
1
10
166.602719745634
20
-14.0064032894915
30
0
41
1
10
166.601359866745
20
-14.0076025241978
30
0
41
1
10
166.6
20
-14.0088016412186
30
0
0
SPLINE
5
14C
100
AcDbEntity
8
1
62
256
6
ByLayer
370
18
48
1
60
0
100
AcDbSpline
70
4
71
3
72
8
73
4
40
0
40
0
40
0
40
0
40
1
40
1
40
1
40
1
41
1
10
166.5
20
3.49453017022091
30
0
41
1
10
166.547125376915
20
3.4918658828345
30
0
41
1
10
166.594251390308
20
3.4892128294876
30
0
41
1
10
166.641378033497
20
3.48657103493818
30
0
0
SPLINE
5
14D
100
AcDbEntity
8
1
62
256
6
ByLayer
370
18
48
1
60
0
100
AcDbSpline
70
4
71
3
72
44
73
40
40
0
40
0
40
0
40
0
40
0.125
40
0.125
40
0.187499999999999
40
0.187499999999999
40
0.249999999999999
40
0.249999999999999
40
0.374999999999999
40
0.374999999999999
40
0.499999999999999
40
0.499999999999999
40
0.624999999999998
40
0.624999999999998
40
0.687499999999998
40
0.687499999999998
40
0.749999999999998
40
0.749999999999998
40
0.812499999999998
40
0.812499999999998
40
0.843749999999998
40
0.843749999999998
40
0.859374999999998
40
0.859374999999998
40
0.874999999999998
40
0.874999999999998
40
0.890624999999998
40
0.890624999999998
40
0.906249999999999
40
0.906249999999999
40
0.914062499999999
40
0.914062499999999
40
0.921874999999999
40
0.921874999999999
40
0.929687499999999
40
0.929687499999999
40
0.9375
40
0.9375
40
1
40
1
40
1
40
1
41
1
10
34.6814821662261
20
10.7490488556056
30
0
41
1
10
39.5435471000686
20
10.1358611683574
30
0
41
1
10
44.4056345694208
20
9.45371622901854
30
0
41
1
10
51.6988948846705
20
8.34516379653141
30
0
41
1
10
54.1302314482838
20
7.96144763504608
30
0
41
1
10
58.9922929881897
20
7.16949981747342
30
0
41
1
10
61.4232501474386
20
6.76123893228706
30
0
41
1
10
68.7171840261703
20
5.50542525885146
30
0
41
1
10
73.5792549963887
20
4.62732407527091
30
0
41
1
10
83.3038229103186
20
2.82163671939037
30
0
41
1
10
88.1658797894955
20
1.89276885379627
30
0
41
1
10
97.8900137531836
20
0.0255978299931598
30
0
41
1
10
102.752644594995
20
-0.913507597781717
30
0
41
1
10
110.04587589398
20
-2.30474780258356
30
0
41
1
10
112.47726030784
20
-2.76560186555975
30
0
41
1
10
117.339482112172
20
-3.67691398204644
30
0
41
1
10
119.770388403282
20
-4.12738192091373
30
0
41
1
10
124.632610336942
20
-5.01382562564029
30
0
41
1
10
127.063777813261
20
-5.4499647508963
30
0
41
1
10
130.71019646116
20
-6.08942512222032
30
0
41
1
10
131.925697956008
20
-6.29999981955859
30
0
41
1
10
133.749095289277
20
-6.61153793813324
30
0
41
1
10
134.356898017398
20
-6.71476042781853
30
0
41
1
10
135.572319124735
20
-6.92081913458662
30
0
41
1
10
136.179877613383
20
-7.02400542127023
30
0
41
1
10
137.395029665486
20
-7.22843726982791
30
0
41
1
10
138.002686406971
20
-7.32942839142086
30
0
41
1
10
139.219158194106
20
-7.52503806419128
30
0
41
1
10
139.828143988457
20
-7.61901737192503
30
0
41
1
10
140.740018784652
20
-7.76516920034862
30
0
41
1
10
141.043705374607
20
-7.81476018617053
30
0
41
1
10
141.65006849099
20
-7.91745866899777
30
0
41
1
10
141.952655394351
20
-7.97091579524246
30
0
41
1
10
142.556895903693
20
-8.08091903810694
30
0
41
1
10
142.858638729002
20
-8.13711118731737
30
0
41
1
10
143.462333617952
20
-8.24809406080831
30
0
41
1
10
143.764338887192
20
-8.30268668266353
30
0
41
1
10
146.48292442522
20
-8.78944659388392
30
0
41
1
10
148.899056698467
20
-9.20558762469753
30
0
41
1
10
151.315974822339
20
-9.60076573069463
30
0
0
SPLINE
5
14E
100
AcDbEntity
8
1
62
256
6
ByLayer
370
18
48
1
60
0
100
AcDbSpline
70
4
71
3
72
12
73
8
40
0
40
0
40
0
40
0
40
0.5
40
0.5
40
0.75
40
0.75
40
1
40
1
40
1
40
1
41
1
10
183.447718557122
20
-5.44936246848019
30
0
41
1
10
183.17140185472
20
-6.21637422306549
30
0
41
1
10
182.90022072886
20
-6.98654935886589
30
0
41
1
10
182.501658232639
20
-8.14686871109302
30
0
41
1
10
182.370184474831
20
-8.53449212358186
30
0
41
1
10
182.110271487676
20
-9.31160813895175
30
0
41
1
10
181.983073054199
20
-9.69739494346376
30
0
41
1
10
181.858981836402
20
-10.0798200341983
30
0
0
SPLINE
5
14F
100
AcDbEntity
8
1
62
256
6
ByLayer
370
18
48
1
60
0
100
AcDbSpline
70
4
71
3
72
10
73
6
40
0
40
0
40
0
40
0
40
0.5
40
0.5
40
1
40
1
40
1
40
1
41
1
10
166.605154967944
20
13.3586087817086
30
0
41
1
10
164.737873769514
20
13.2738592692612
30
0
41
1
10
162.873633399824
20
13.1430684772785
30
0
41
1
10
159.146831958633
20
12.7814778700074
30
0
41
1
10
157.284099314857
20
12.5516257284393
30
0
41
1
10
155.419174824534
20
12.275857608759
30
0
0
SPLINE
5
150
100
AcDbEntity
8
1
62
256
6
ByLayer
370
18
48
1
60
0
100
AcDbSpline
70
4
71
3
72
12
73
8
40
0
40
0
40
0
40
0
40
0.412131301711401
40
0.412131301711401
40
0.706065605214935
40
0.706065605214935
40
1
40
1
40
1
40
1
41
1
10
166.699999999507
20
-13.903306248103
30
0
41
1
10
166.686831307848
20
-13.9173083343684
30
0
41
1
10
166.673659059688
20
-13.9313088849082
30
0
41
1
10
166.651086252626
20
-13.9552921153879
30
0
41
1
10
166.641687424783
20
-13.9652755389989
30
0
41
1
10
166.62288620114
20
-13.9852408705469
30
0
41
1
10
166.613483804609
20
-13.9952227792584
30
0
41
1
10
166.604079636133
20
-14.0052039379017
30
0
0
SPLINE
5
151
100
AcDbEntity
8
1
62
256
6
ByLayer
370
18
48
1
60
0
100
AcDbSpline
70
4
71
3
72
8
73
4
40
0
40
0
40
0
40
0
40
1
40
1
40
1
40
1
41
1
10
184.930365754076
20
0.297909179304128
30
0
41
1
10
184.942564835939
20
0.256197147326702
30
0
41
1
10
184.954806817716
20
0.21440033289997
30
0
41
1
10
184.967091463721
20
0.172519904197912
30
0
0
SPLINE
5
152
100
AcDbEntity
8
1
62
256
6
ByLayer
370
18
48
1
60
0
100
AcDbSpline
70
4
71
3
72
23
73
19
40
0
40
0
40
0
40
0
40
0.0236026815675261
40
0.0471348089640218
40
0.0706346821052053
40
0.0941407585689572
40
0.1176914655437
40
0.141325012516689
40
0.211769306547371
40
0.281715352284138
40
0.352292651900635
40
0.42217736276766
40
0.562210155054591
40
0.701950072134715
40
0.841206548180567
40
0.910697611606384
40
0.980586447598646
40
1
40
1
40
1
40
1
41
1
10
166.60000080049
20
-13.6284693632704
30
0
41
1
10
166.600191847144
20
-13.623854456331
30
0
41
1
10
166.600573369366
20
-13.6146384375344
30
0
41
1
10
166.603641174907
20
-13.6006443719418
30
0
41
1
10
166.608538338437
20
-13.5865662331612
30
0
41
1
10
166.615442631907
20
-13.572391978535
30
0
41
1
10
166.624305433076
20
-13.5581271789549
30
0
41
1
10
166.642276373866
20
-13.5343313308687
30
0
41
1
10
166.676020378845
20
-13.5010474703396
30
0
41
1
10
166.736144199061
20
-13.4589547416923
30
0
41
1
10
166.811701809271
20
-13.4184336719159
30
0
41
1
10
166.932224680829
20
-13.3676492747237
30
0
41
1
10
167.117476927985
20
-13.3123905975278
30
0
41
1
10
167.382422282014
20
-13.2671093588268
30
0
41
1
10
167.624282181135
20
-13.2522355703171
30
0
41
1
10
167.81788580483
20
-13.2553375211037
30
0
41
1
10
167.926659766264
20
-13.2625936130057
30
0
41
1
10
167.98615373262
20
-13.2687533760634
30
0
41
1
10
167.999087196709
20
-13.2700924542791
30
0
0
SPLINE
5
153
100
AcDbEntity
8
1
62
256
6
ByLayer
370
13
48
1
60
0
100
AcDbSpline
70
4
71
3
72
10
73
6
40
0
40
0
40
0
40
0
40
0.0018142572428703
40
0.0018142572428703
40
1
40
1
40
1
40
1
41
1
10
183.421998164406
20
1.4220589153694
30
0
41
1
10
183.421984348356
20
1.42206842118367
30
0
41
1
10
183.42197053225
20
1.42207792692508
30
0
41
1
10
183.414355298701
20
1.4273174741233
30
0
41
1
10
183.406770993982
20
1.43256945241507
30
0
41
1
10
183.399204203299
20
1.43784358094587
30
0
0
SPLINE
5
154
100
AcDbEntity
8
1
62
256
6
ByLayer
370
18
48
1
60
0
100
AcDbSpline
70
4
71
3
72
8
73
4
40
0
40
0
40
0
40
0
40
1
40
1
40
1
40
1
41
1
10
184.717724251128
20
-0.834792173845273
30
0
41
1
10
184.818305080103
20
-0.49331358930246
30
0
41
1
10
184.900005220214
20
-0.158007894449611
30
0
41
1
10
184.967091463721
20
0.172519904197912
30
0
0
SPLINE
5
155
100
AcDbEntity
8
1
62
256
6
ByLayer
370
18
48
1
60
0
100
AcDbSpline
70
4
71
3
72
8
73
4
40
0
40
0
40
0
40
0
40
1
40
1
40
1
40
1
41
1
10
27
20
-9.41275922093561
30
0
41
1
10
26.3794959128681
20
-9.32396717228573
30
0
41
1
10
25.7618079612162
20
-9.31235082299264
30
0
41
1
10
25.1480573481683
20
-9.37891895678212
30
0
0
SPLINE
5
156
100
AcDbEntity
8
1
62
256
6
ByLayer
370
18
48
1
60
0
100
AcDbSpline
70
4
71
3
72
18
73
14
40
0
40
0
40
0
40
0
40
0.249999999999989
40
0.249999999999989
40
0.374999999999991
40
0.374999999999991
40
0.499999999999993
40
0.499999999999993
40
0.749999999999996
40
0.749999999999996
40
0.874999999999998
40
0.874999999999998
40
1
40
1
40
1
40
1
41
1
10
180.737469136305
20
4.8808794218331
30
0
41
1
10
180.489204124394
20
4.66024473351558
30
0
41
1
10
180.242851471559
20
4.44232718168558
30
0
41
1
10
179.883567044546
20
4.11291525089865
30
0
41
1
10
179.765048632454
20
4.00255019560322
30
0
41
1
10
179.533609715766
20
3.78346968829848
30
0
41
1
10
179.420519546102
20
3.67463055326334
30
0
41
1
10
179.089159480632
20
3.350455733823
30
0
41
1
10
178.878849037537
20
3.1374498671874
30
0
41
1
10
178.579854519185
20
2.82390574359104
30
0
41
1
10
178.482940380616
20
2.72038033611446
30
0
41
1
10
178.294814669651
20
2.51552816409421
30
0
41
1
10
178.203655977949
20
2.41424002959613
30
0
41
1
10
178.116491648467
20
2.31528953391842
30
0
0
SPLINE
5
157
100
AcDbEntity
8
1
62
256
6
ByLayer
370
18
48
1
60
0
100
AcDbSpline
70
4
71
3
72
8
73
4
40
0
40
0
40
0
40
0
40
1
40
1
40
1
40
1
41
1
10
28.9660506385087
20
9.38860362316112
30
0
41
1
10
29.2773885631428
20
9.35907698964584
30
0
41
1
10
29.5887053500339
20
9.3291221654311
30
0
41
1
10
29.9
20
9.29873863087573
30
0
0
SPLINE
5
158
100
AcDbEntity
8
1
62
256
6
ByLayer
370
18
48
1
60
0
100
AcDbSpline
70
4
71
3
72
8
73
4
40
0
40
0
40
0
40
0
40
1
40
1
40
1
40
1
41
1
10
166.7
20
-13.53249422686
30
0
41
1
10
166.666666666667
20
-13.5644859389802
30
0
41
1
10
166.633333333333
20
-13.5964776511005
30
0
41
1
10
166.6
20
-13.6284693632207
30
0
0
SPLINE
5
159
100
AcDbEntity
8
1
62
256
6
ByLayer
370
13
48
1
60
0
100
AcDbSpline
70
4
71
3
72
32
73
28
40
0
40
0
40
0
40
0
40
0.249999999999911
40
0.249999999999911
40
0.374999999999873
40
0.406249999999869
40
0.406249999999869
40
0.437499999999866
40
0.437499999999866
40
0.499999999999859
40
0.624999999999856
40
0.624999999999856
40
0.640624999999859
40
0.640624999999859
40
0.656249999999861
40
0.687499999999866
40
0.718749999999871
40
0.734374999999873
40
0.734374999999873
40
0.749999999999875
40
0.749999999999875
40
0.812499999999913
40
0.812499999999913
40
0.843749999999928
40
0.843749999999928
40
0.874999999999942
40
1
40
1
40
1
40
1
41
1
10
181.358100955952
20
-2.72772981855516
30
0
41
1
10
181.133645932475
20
-2.57084919266575
30
0
41
1
10
180.872493644662
20
-2.36991409216259
30
0
41
1
10
180.495456344057
20
-2.05557473455357
30
0
41
1
10
180.341417687105
20
-1.92190454173695
30
0
41
1
10
180.200284578058
20
-1.79178524320113
30
0
41
1
10
180.1450454429
20
-1.74016005852883
30
0
41
1
10
180.11845178514
20
-1.7149582248463
30
0
41
1
10
180.033816245333
20
-1.63353493318823
30
0
41
1
10
179.851625686661
20
-1.45373239351034
30
0
41
1
10
179.658764930905
20
-1.25125937733054
30
0
41
1
10
179.536872999993
20
-1.11626860071161
30
0
41
1
10
179.523834118936
20
-1.10171361317762
30
0
41
1
10
179.496041335391
20
-1.07044031723814
30
0
41
1
10
179.452683774233
20
-1.02130342180393
30
0
41
1
10
179.375086327366
20
-0.931751925451863
30
0
41
1
10
179.298392457347
20
-0.841264041934153
30
0
41
1
10
179.256390395142
20
-0.790722777624666
30
0
41
1
10
179.229682052592
20
-0.758326064788889
30
0
41
1
10
179.21656038635
20
-0.742268006195019
30
0
41
1
10
179.14643682376
20
-0.655780236953376
30
0
41
1
10
179.082120901505
20
-0.574379564779861
30
0
41
1
10
178.993213934078
20
-0.459144403120064
30
0
41
1
10
178.965040425964
20
-0.422146763948433
30
0
41
1
10
178.913711806524
20
-0.353537472481832
30
0
41
1
10
178.778980444676
20
-0.170048382806897
30
0
41
1
10
178.622770934405
20
0.0580706107376727
30
0
41
1
10
178.511101037367
20
0.230239818535068
30
0
0
SPLINE
5
15A
100
AcDbEntity
8
1
62
256
6
ByLayer
370
18
48
1
60
0
100
AcDbSpline
70
4
71
3
72
12
73
8
40
0
40
0
40
0
40
0
40
0.177758974446477
40
0.350687290010966
40
0.518785587978856
40
0.775659622556403
40
1
40
1
40
1
40
1
41
1
10
176.434481869298
20
2.1247387323383
30
0
41
1
10
175.939279680246
20
2.16692503419674
30
0
41
1
10
174.962332585298
20
2.25015121121751
30
0
41
1
10
173.517379179033
20
2.37656125258943
30
0
41
1
10
171.852346893365
20
2.52536227417971
30
0
41
1
10
170.044497701412
20
2.69095066580476
30
0
41
1
10
168.705215599847
20
2.81937793776879
30
0
41
1
10
168.080864047728
20
2.87942810230345
30
0
0
SPLINE
5
15B
100
AcDbEntity
8
1
62
256
6
ByLayer
370
18
48
1
60
0
100
AcDbSpline
70
4
71
3
72
27
73
23
40
0
40
0
40
0
40
0
40
0.171968976300534
40
0.171968976300534
40
0.18271703731932
40
0.18271703731932
40
0.185404052574016
40
0.185404052574016
40
0.188091067828713
40
0.193465098338106
40
0.193465098338106
40
0.214961220375685
40
0.214961220375685
40
0.257953464450844
40
0.257953464450844
40
0.343937952601161
40
0.343937952601161
40
0.515906928901789
40
0.515906928901789
40
0.687875905202416
40
0.687875905202416
40
1
40
1
40
1
40
1
41
1
10
153.15998498079
20
11.5419599533338
30
0
41
1
10
152.533176154473
20
11.4392399943842
30
0
41
1
10
151.906409405471
20
11.3331204114789
30
0
41
1
10
151.240325880319
20
11.2146652247709
30
0
41
1
10
151.201141188415
20
11.2077485738425
30
0
41
1
10
151.152163291567
20
11.1988400295175
30
0
41
1
10
151.142329551045
20
11.1979706529305
30
0
41
1
10
151.122694401897
20
11.1954332214638
30
0
41
1
10
151.093240084919
20
11.1916367377448
30
0
41
1
10
151.06378040592
20
11.1878667687825
30
0
41
1
10
150.965567164819
20
11.1753483262926
30
0
41
1
10
150.886950701312
20
11.1654642185872
30
0
41
1
10
150.650914011289
20
11.1353292068191
30
0
41
1
10
150.493298486756
20
11.114520491009
30
0
41
1
10
150.019855623692
20
11.0520747903051
30
0
41
1
10
149.703426804762
20
11.0102869973223
30
0
41
1
10
148.751970042937
20
10.8840259616106
30
0
41
1
10
148.11480615914
20
10.7990471756284
30
0
41
1
10
146.835967511609
20
10.6290495625225
30
0
41
1
10
146.194321427243
20
10.5443919788663
30
0
41
1
10
144.382980472796
20
10.3072540659256
30
0
41
1
10
143.211332871758
20
10.1565570228623
30
0
41
1
10
142.037252351487
20
10.0085850575351
30
0
0
SPLINE
5
15C
100
AcDbEntity
8
1
62
256
6
ByLayer
370
18
48
1
60
0
100
AcDbSpline
70
4
71
3
72
53
73
49
40
0
40
0
40
0
40
0
40
0.0156249999999933
40
0.016601562499993
40
0.016601562499993
40
0.0175781249999926
40
0.0175781249999926
40
0.0195312499999919
40
0.0195312499999919
40
0.0234374999999912
40
0.0234374999999912
40
0.0312499999999904
40
0.0312499999999904
40
0.0624999999999877
40
0.0624999999999877
40
0.093749999999985
40
0.093749999999985
40
0.101562499999984
40
0.101562499999984
40
0.105468749999984
40
0.105468749999984
40
0.109374999999983
40
0.109374999999983
40
0.117187499999983
40
0.117187499999983
40
0.124999999999982
40
0.124999999999982
40
0.249999999999984
40
0.249999999999984
40
0.312499999999985
40
0.312499999999985
40
0.374999999999986
40
0.374999999999986
40
0.499999999999988
40
0.499999999999988
40
0.562499999999989
40
0.562499999999989
40
0.624999999999991
40
0.624999999999991
40
0.687499999999992
40
0.687499999999992
40
0.749999999999994
40
0.749999999999994
40
0.812499999999995
40
0.812499999999995
40
0.874999999999997
40
0.874999999999997
40
1
40
1
40
1
40
1
41
1
10
153.377645267174
20
-12.2648940770514
30
0
41
1
10
152.757696298551
20
-12.1558555365079
30
0
41
1
10
152.099101902379
20
-12.0355014057699
30
0
41
1
10
151.440567290865
20
-11.9104545180762
30
0
41
1
10
151.363093027461
20
-11.8957106696191
30
0
41
1
10
151.324000031253
20
-11.8889851308329
30
0
41
1
10
151.2069593816
20
-11.8683260899482
30
0
41
1
10
151.128877320066
20
-11.8546010554749
30
0
41
1
10
150.894476286882
20
-11.8135572772156
30
0
41
1
10
150.738000152763
20
-11.7863742895444
30
0
41
1
10
150.267979790446
20
-11.7053518973433
30
0
41
1
10
149.9538447722
20
-11.6520384375135
30
0
41
1
10
148.37965602793
20
-11.388771580062
30
0
41
1
10
147.109233674146
20
-11.1887030579702
30
0
41
1
10
144.554038328202
20
-10.804175928156
30
0
41
1
10
143.271119749206
20
-10.6199849958344
30
0
41
1
10
141.663418706951
20
-10.3972232743978
30
0
41
1
10
141.341660926213
20
-10.3530472558221
30
0
41
1
10
140.858723218409
20
-10.2873098094507
30
0
41
1
10
140.697693760522
20
-10.2654851834236
30
0
41
1
10
140.375538204445
20
-10.2220059316997
30
0
41
1
10
140.214334001466
20
-10.2006143117391
30
0
41
1
10
139.731091171206
20
-10.1349711303618
30
0
41
1
10
139.409041635993
20
-10.0905220446783
30
0
41
1
10
138.764809555989
20
-10.001455144302
30
0
41
1
10
138.442684732844
20
-9.95664316586016
30
0
41
1
10
132.966455010256
20
-9.18997011350021
30
0
41
1
10
127.813526731614
20
-8.39684318411386
30
0
41
1
10
120.08149847149
20
-7.12106633461963
30
0
41
1
10
117.504461923705
20
-6.68157796219779
30
0
41
1
10
112.351241752478
20
-5.77704597342299
30
0
41
1
10
109.774934228748
20
-5.31183239507183
30
0
41
1
10
102.043619062782
20
-3.89300417465893
30
0
41
1
10
96.8901943566395
20
-2.91433391758022
30
0
41
1
10
89.1585575233579
20
-1.42119779286418
30
0
41
1
10
86.581567611674
20
-0.919040587868238
30
0
41
1
10
81.4286611679109
20
0.0887912850807311
30
0
41
1
10
78.852071971771
20
0.592327001912821
30
0
41
1
10
73.6977827782971
20
1.59432613935891
30
0
41
1
10
71.1204704388487
20
2.09264149977912
30
0
41
1
10
65.9666517239422
20
3.07954368337136
30
0
41
1
10
63.3898610986583
20
3.56819578517573
30
0
41
1
10
58.2358025659608
20
4.53225791581204
30
0
41
1
10
55.6591074595844
20
5.00833327799938
30
0
41
1
10
50.5072704211707
20
5.93688140699803
30
0
41
1
10
47.9317622718314
20
6.38990215588623
30
0
41
1
10
40.2052003982485
20
7.70961969809773
30
0
41
1
10
35.0540794601002
20
8.53691506602144
30
0
41
1
10
29.9
20
9.29873863087573
30
0
0
SPLINE
5
15D
100
AcDbEntity
8
1
62
256
6
ByLayer
370
18
48
1
60
0
100
AcDbSpline
70
4
71
3
72
8
73
4
40
0
40
0
40
0
40
0
40
1
40
1
40
1
40
1
41
1
10
180.488295180504
20
-13.8775864120501
30
0
41
1
10
180.460960100933
20
-13.9598663996909
30
0
41
1
10
180.43359473505
20
-14.0421743431573
30
0
41
1
10
180.406199633065
20
-14.1245084271025
30
0
0
SPLINE
5
15E
100
AcDbEntity
8
1
62
256
6
ByLayer
370
18
48
1
60
0
100
AcDbSpline
70
4
71
3
72
26
73
22
40
0
40
0
40
0
40
0
40
0.0244854157320351
40
0.0244854157320351
40
0.0895197213498993
40
0.0895197213498993
40
0.219588332585628
40
0.219588332585628
40
0.349656943821357
40
0.349656943821357
40
0.479725555057085
40
0.479725555057085
40
0.54475986067495
40
0.54475986067495
40
0.609794166292814
40
0.609794166292814
40
0.739862777528542
40
0.739862777528542
40
0.869931388764271
40
0.869931388764271
40
1
40
1
40
1
40
1
41
1
10
88.6901967408974
20
-1.3296783736038
30
0
41
1
10
88.2020934632394
20
-1.23915065492034
30
0
41
1
10
87.7139896701474
20
-1.14850583412863
30
0
41
1
10
85.9294469486994
20
-0.816735687353855
30
0
41
1
10
84.6329959977013
20
-0.574870350344412
30
0
41
1
10
80.7432300644028
20
0.150662761332256
30
0
41
1
10
78.1499861168236
20
0.634001060257503
30
0
41
1
10
72.9639076541708
20
1.59630440999356
30
0
41
1
10
70.3708882863717
20
2.07526193581071
30
0
41
1
10
65.1840737962698
20
3.02401626813389
30
0
41
1
10
62.5907630709086
20
3.49369722204361
30
0
41
1
10
58.7014772361792
20
4.18652862981037
30
0
41
1
10
57.4051136975726
20
4.4154881339785
30
0
41
1
10
54.8122881812633
20
4.86876983518246
30
0
41
1
10
53.5157962347876
20
5.09322513716899
30
0
41
1
10
49.6259658476275
20
5.75930185657077
30
0
41
1
10
47.0326883567029
20
6.19363204401915
30
0
41
1
10
41.8472740459696
20
7.03755212384624
30
0
41
1
10
39.254851989309
20
7.4472577746522
30
0
41
1
10
34.0697506122178
20
8.2362051659523
30
0
41
1
10
31.4770769971473
20
8.61553041557289
30
0
41
1
10
28.8837045476937
20
8.97555016654869
30
0
0
SPLINE
5
15F
100
AcDbEntity
8
1
62
256
6
ByLayer
370
18
48
1
60
0
100
AcDbSpline
70
4
71
3
72
36
73
32
40
0
40
0
40
0
40
0
40
0.0312500000000001
40
0.0312500000000001
40
0.0625000000000002
40
0.0625000000000002
40
0.125
40
0.125
40
0.15625
40
0.15625
40
0.1875
40
0.1875
40
0.21875
40
0.21875
40
0.250000000000001
40
0.250000000000001
40
0.3125
40
0.3125
40
0.375
40
0.375
40
0.4375
40
0.4375
40
0.5
40
0.5
40
0.625
40
0.625
40
0.75
40
0.75
40
0.875
40
0.875
40
1
40
1
40
1
40
1
41
1
10
7.7679
20
0.425696805264977
30
0
41
1
10
7.76874670044481
20
0.654916119770917
30
0
41
1
10
7.78464288372345
20
0.882578991039566
30
0
41
1
10
7.84585738444787
20
1.33485370828933
30
0
41
1
10
7.89127521971
20
1.55982224596389
30
0
41
1
10
8.07135009218342
20
2.22787787308295
30
0
41
1
10
8.24476453458243
20
2.64801191387693
30
0
41
1
10
8.57284832571028
20
3.24535240845074
30
0
41
1
10
8.69418566993548
20
3.43949706785892
30
0
41
1
10
8.95231760495466
20
3.80893348672862
30
0
41
1
10
9.08964162938344
20
3.98535698027689
30
0
41
1
10
9.37868038015853
20
4.3234101413733
30
0
41
1
10
9.53040231962225
20
4.48503280886737
30
0
41
1
10
9.84659655585835
20
4.79483244470691
30
0
41
1
10
10.0114594658733
20
4.94332450094655
30
0
41
1
10
10.5206258640383
20
5.3681660925055
30
0
41
1
10
10.8738754134509
20
5.61981346260296
30
0
41
1
10
11.5988693360709
20
6.07556423830374
30
0
41
1
10
11.9706818753753
20
6.27954830069879
30
0
41
1
10
12.7270854424604
20
6.65035784116307
30
0
41
1
10
13.1128052914423
20
6.81748722516164
30
0
41
1
10
13.883122771121
20
7.11888964846824
30
0
41
1
10
14.2687984118621
20
7.25376793788868
30
0
41
1
10
15.425682893906
20
7.62294037059257
30
0
41
1
10
16.1965559924471
20
7.82236733648429
30
0
41
1
10
17.7360795510545
20
8.16947218885628
30
0
41
1
10
18.5023622066632
20
8.31628605127159
30
0
41
1
10
20.0324624592717
20
8.58230730670948
30
0
41
1
10
20.7967411831873
20
8.70142180468093
30
0
41
1
10
22.3329698792043
20
8.92794708215337
30
0
41
1
10
23.1048442704682
20
9.03527512603162
30
0
41
1
10
23.8865348214285
20
9.14151640269807
30
0
0
SPLINE
5
160
100
AcDbEntity
8
1
62
256
6
ByLayer
370
18
48
1
60
0
100
AcDbSpline
70
4
71
3
72
8
73
4
40
0
40
0
40
0
40
0
40
1
40
1
40
1
40
1
41
1
10
166.5
20
3.49453017022091
30
0
41
1
10
166.5
20
3.75791324657678
30
0
41
1
10
166.5
20
4.05990131767976
30
0
41
1
10
166.5
20
4.40020593042527
30
0
0
SPLINE
5
161
100
AcDbEntity
8
1
62
256
6
ByLayer
370
18
48
1
60
0
100
AcDbSpline
70
4
71
3
72
10
73
6
40
0
40
0
40
0
40
0
40
0.5
40
0.5
40
1
40
1
40
1
40
1
41
1
10
23.1261920627109
20
-8.5474544307375
30
0
41
1
10
23.1780097241608
20
-8.51735082579239
30
0
41
1
10
23.2388211747041
20
-8.49051367509767
30
0
41
1
10
23.3807264399336
20
-8.44646947263664
30
0
41
1
10
23.4608373221138
20
-8.42954667008453
30
0
41
1
10
23.5515675730989
20
-8.41907098891659
30
0
0
SPLINE
5
162
100
AcDbEntity
8
1
62
256
6
ByLayer
370
13
48
1
60
0
100
AcDbSpline
70
4
71
3
72
18
73
14
40
0
40
0
40
0
40
0
40
0.125
40
0.125
40
0.1875
40
0.1875
40
0.25
40
0.25
40
0.5
40
0.5
40
0.75
40
0.75
40
1
40
1
40
1
40
1
41
1
10
180.902184713858
20
4.91815696660831
30
0
41
1
10
180.945119750698
20
4.72214220340467
30
0
41
1
10
180.999259868127
20
4.53148335745334
30
0
41
1
10
181.095601881456
20
4.25272333875233
30
0
41
1
10
181.130360834935
20
4.16075576591098
30
0
41
1
10
181.20402977453
20
3.98083723604563
30
0
41
1
10
181.24294741894
20
3.89280804684463
30
0
41
1
10
181.447182048258
20
3.46159262527965
30
0
41
1
10
181.640913867862
20
3.14472051777443
30
0
41
1
10
182.076927809637
20
2.55591198279907
30
0
41
1
10
182.313240615719
20
2.29190973941093
30
0
41
1
10
182.814194074823
20
1.81116853102537
30
0
41
1
10
183.0796772781
20
1.59410559626744
30
0
41
1
10
183.354042017444
20
1.39977082863513
30
0
0
SPLINE
5
163
100
AcDbEntity
8
1
62
256
6
ByLayer
370
18
48
1
60
0
100
AcDbSpline
70
4
71
3
72
12
73
8
40
0
40
0
40
0
40
0
40
0.0812571987330367
40
0.0812571987330367
40
0.540628599366518
40
0.540628599366518
40
1
40
1
40
1
40
1
41
1
10
173.332313253893
20
14.4826197926339
30
0
41
1
10
173.523650440937
20
14.4832875436604
30
0
41
1
10
173.715005182719
20
14.4831107436694
30
0
41
1
10
174.988444125748
20
14.4763264225604
30
0
41
1
10
176.071031514756
20
14.4437451927748
30
0
41
1
10
178.236995349677
20
14.3246401107
30
0
41
1
10
179.319943326933
20
14.2377335978232
30
0
41
1
10
180.406199633065
20
14.1245084271025
30
0
0
SPLINE
5
164
100
AcDbEntity
8
1
62
256
6
ByLayer
370
18
48
1
60
0
100
AcDbSpline
70
4
71
3
72
8
73
4
40
0
40
0
40
0
40
0
40
1
40
1
40
1
40
1
41
1
10
146.857380553932
20
8.86826281054152
30
0
41
1
10
146.854628453298
20
8.86067623151126
30
0
41
1
10
146.851878740383
20
8.85308213590437
30
0
41
1
10
146.849131416138
20
8.84548052072273
30
0
0
SPLINE
5
165
100
AcDbEntity
8
1
62
256
6
ByLayer
370
18
48
1
60
0
100
AcDbSpline
70
4
71
3
72
8
73
4
40
0
40
0
40
0
40
0
40
1
40
1
40
1
40
1
41
1
10
180.882267760394
20
5.00846121876108
30
0
41
1
10
180.833758090009
20
4.96610500412606
30
0
41
1
10
180.785494352901
20
4.9235597359598
30
0
41
1
10
180.737469136305
20
4.8808794218331
30
0
0
SPLINE
5
166
100
AcDbEntity
8
1
62
256
6
ByLayer
370
18
48
1
60
0
100
AcDbSpline
70
4
71
3
72
8
73
4
40
0
40
0
40
0
40
0
40
1
40
1
40
1
40
1
41
1
10
173.680114494313
20
0.943313429952667
30
0
41
1
10
173.62623784172
20
0.831170432358931
30
0
41
1
10
173.571919891332
20
0.720155762611597
30
0
41
1
10
173.517150192385
20
0.610296141639338
30
0
0
SPLINE
5
167
100
AcDbEntity
8
1
62
256
6
ByLayer
370
18
48
1
60
0
100
AcDbSpline
70
4
71
3
72
12
73
8
40
0
40
0
40
0
40
0
40
0.250000000000007
40
0.250000000000007
40
0.500000000000015
40
0.500000000000015
40
1
40
1
40
1
40
1
41
1
10
27.597766509166
20
9.31520837985431
30
0
41
1
10
27.7090634370651
20
9.34052578062906
30
0
41
1
10
27.8221752210348
20
9.36117191913081
30
0
41
1
10
28.0521503361453
20
9.39289265433769
30
0
41
1
10
28.1675166677158
20
9.40372884158029
30
0
41
1
10
28.5114155842006
20
9.42136036724571
30
0
41
1
10
28.7391854698376
20
9.41371813694818
30
0
41
1
10
28.9654257777109
20
9.38558502126111
30
0
0
SPLINE
5
168
100
AcDbEntity
8
1
62
256
6
ByLayer
370
18
48
1
60
0
100
AcDbSpline
70
4
71
3
72
8
73
4
40
0
40
0
40
0
40
0
40
1
40
1
40
1
40
1
41
1
10
175.043526252174
20
-4.56947911326066
30
0
41
1
10
175.00412004001
20
-4.57275526304602
30
0
41
1
10
174.964717850345
20
-4.57594186370562
30
0
41
1
10
174.925319686586
20
-4.57903884150022
30
0
0
SPLINE
5
169
100
AcDbEntity
8
1
62
256
6
ByLayer
370
18
48
1
60
0
100
AcDbSpline
70
4
71
3
72
30
73
26
40
0
40
0
40
0
40
0
40
0.0212538988289665
40
0.0423747233168421
40
0.0633626141924933
40
0.0842177148764923
40
0.104940171547163
40
0.125530133208569
40
0.145987751760503
40
0.166313182070528
40
0.186506582048178
40
0.206568112721348
40
0.226497938314966
40
0.246296226332033
40
0.265963147637087
40
0.399587126144859
40
0.529087614870047
40
0.660777827830794
40
0.789531722959627
40
0.824973687320786
40
0.860267367915398
40
0.895414783117068
40
0.930417976602057
40
0.965279017411517
40
1
40
1
40
1
40
1
41
1
10
176.958848189613
20
-11.8619758957355
30
0
41
1
10
176.939252432089
20
-11.8259279243881
30
0
41
1
10
176.900183609474
20
-11.7540576842843
30
0
41
1
10
176.842394483486
20
-11.6436761399213
30
0
41
1
10
176.7854364499
20
-11.5319033996913
30
0
41
1
10
176.729353883422
20
-11.4185866241788
30
0
41
1
10
176.674135005896
20
-11.3038375180576
30
0
41
1
10
176.619782942566
20
-11.1876969218762
30
0
41
1
10
176.566296864767
20
-11.0702238182667
30
0
41
1
10
176.51367698768
20
-10.9514716772052
30
0
41
1
10
176.46192326968
20
-10.8314947696603
30
0
41
1
10
176.411035662601
20
-10.7103462787514
30
0
41
1
10
176.361014395996
20
-10.5880795134418
30
0
41
1
10
176.311858605874
20
-10.4647448816862
30
0
41
1
10
176.170200210766
20
-10.099960051584
30
0
41
1
10
175.948849719901
20
-9.46977879796304
30
0
41
1
10
175.666902661796
20
-8.51442705845486
30
0
41
1
10
175.41765928033
20
-7.50249573059028
30
0
41
1
10
175.252300087728
20
-6.68809940463424
30
0
41
1
10
175.151735971515
20
-6.12207320792629
30
0
41
1
10
175.100883756905
20
-5.81785389494974
30
0
41
1
10
175.052766026156
20
-5.51134599801725
30
0
41
1
10
175.007446324174
20
-5.20267363038164
30
0
41
1
10
174.964685838287
20
-4.89229033047744
30
0
41
1
10
174.938423821413
20
-4.68330992888934
30
0
41
1
10
174.925319243735
20
-4.57903005126383
30
0
0
SPLINE
5
16A
100
AcDbEntity
8
1
62
256
6
ByLayer
370
18
48
1
60
0
100
AcDbSpline
70
4
71
3
72
26
73
22
40
0
40
0
40
0
40
0
40
0.12499999999999
40
0.12499999999999
40
0.187499999999985
40
0.187499999999985
40
0.24999999999998
40
0.24999999999998
40
0.374999999999971
40
0.374999999999971
40
0.49999999999996
40
0.49999999999996
40
0.562499999999962
40
0.562499999999962
40
0.624999999999963
40
0.624999999999963
40
0.749999999999975
40
0.749999999999975
40
0.874999999999988
40
0.874999999999988
40
1
40
1
40
1
40
1
41
1
10
151.31597482234
20
-9.60076573069463
30
0
41
1
10
151.537108559797
20
-9.63692219403424
30
0
41
1
10
151.759518431292
20
-9.65404647689954
30
0
41
1
10
152.094975604047
20
-9.652631316932
30
0
41
1
10
152.207104630263
20
-9.64759124634085
30
0
41
1
10
152.432006530109
20
-9.62798360157643
30
0
41
1
10
152.542680567288
20
-9.61359584538735
30
0
41
1
10
152.869294258354
20
-9.55707029948567
30
0
41
1
10
153.080018253041
20
-9.50175921830561
30
0
41
1
10
153.486894600831
20
-9.35299488512428
30
0
41
1
10
153.675491036303
20
-9.26225860463316
30
0
41
1
10
153.936460003403
20
-9.10119318906425
30
0
41
1
10
154.019789849155
20
-9.04329429330889
30
0
41
1
10
154.178852226451
20
-8.91845924600682
30
0
41
1
10
154.253157327036
20
-8.85262855435286
30
0
41
1
10
154.460432035172
20
-8.64535414080004
30
0
41
1
10
154.578206732282
20
-8.49403879880137
30
0
41
1
10
154.771723633886
20
-8.16234521939674
30
0
41
1
10
154.843811296543
20
-7.98815193754132
30
0
41
1
10
154.941023174618
20
-7.62333550023789
30
0
41
1
10
154.965900734382
20
-7.43128906551283
30
0
41
1
10
154.965900734384
20
-7.23640833732244
30
0
0
SPLINE
5
16B
100
AcDbEntity
8
1
62
256
6
ByLayer
370
18
48
1
60
0
100
AcDbSpline
70
4
71
3
72
8
73
4
40
0
40
0
40
0
40
0
40
1
40
1
40
1
40
1
41
1
10
149.004530078272
20
8.83809863078389
30
0
41
1
10
150.992056564468
20
8.29612323027595
30
0
41
1
10
152.978277050848
20
7.71892650246704
30
0
41
1
10
154.965900734875
20
7.1126621462719
30
0
0
SPLINE
5
16C
100
AcDbEntity
8
1
62
256
6
ByLayer
370
18
48
1
60
0
100
AcDbSpline
70
4
71
3
72
18
73
14
40
0
40
0
40
0
40
0
40
0.25
40
0.25
40
0.375
40
0.375
40
0.5
40
0.5
40
0.75
40
0.75
40
0.875
40
0.875
40
1
40
1
40
1
40
1
41
1
10
167.404881252276
20
14.3855541899646
30
0
41
1
10
168.512317722989
20
14.4430006049336
30
0
41
1
10
169.618486308937
20
14.4720597813041
30
0
41
1
10
171.275712006865
20
14.4739300515418
30
0
41
1
10
171.827710534115
20
14.4675866755468
30
0
41
1
10
172.930621977035
20
14.4408006440964
30
0
41
1
10
173.481754834263
20
14.4203583496266
30
0
41
1
10
175.135997897368
20
14.3382927137219
30
0
41
1
10
176.239676371518
20
14.2560352801033
30
0
41
1
10
177.896083383952
20
14.0912110902496
30
0
41
1
10
178.448336188999
20
14.029329646417
30
0
41
1
10
179.553037577969
20
13.8914322767434
30
0
41
1
10
180.105999894239
20
13.8157116683872
30
0
41
1
10
180.659756746805
20
13.7333687470715
30
0
0
SPLINE
5
16D
100
AcDbEntity
8
1
62
256
6
ByLayer
370
18
48
1
60
0
100
AcDbSpline
70
4
71
3
72
8
73
4
40
0
40
0
40
0
40
0
40
1
40
1
40
1
40
1
41
1
10
184.930365754076
20
-0.297909179304213
30
0
41
1
10
184.942564835939
20
-0.256197147326759
30
0
41
1
10
184.954806817716
20
-0.214400332899999
30
0
41
1
10
184.967091463721
20
-0.172519904197912
30
0
0
SPLINE
5
16E
100
AcDbEntity
8
1
62
256
6
ByLayer
370
18
48
1
60
0
100
AcDbSpline
70
4
71
3
72
17
73
13
40
0
40
0
40
0
40
0
40
0.201113475731347
40
0.537616978056974
40
0.648857979874012
40
0.705903432480589
40
0.762945396667257
40
0.819988554185779
40
0.847597811348693
40
0.875207435687413
40
0.902817665309549
40
1
40
1
40
1
40
1
41
1.10374900959774
10
98.0260982581486
20
-0.001587993662963
30
0
41
1.10374900959774
10
101.606584963384
20
-0.66586268965808
30
0
41
1.10374900959774
10
111.184973663007
20
-2.44161420063258
30
0
41
1.10374900959774
10
122.748798394293
20
-4.52552148131914
30
0
41
1.10374900959774
10
131.72613984467
20
-6.04642005505812
30
0
41
1.10374900959774
10
135.729137654134
20
-6.70178408864219
30
0
41
1.10374900959774
10
138.765405292576
20
-7.19835445201185
30
0
41
1.10374900959774
10
141.28183250068
20
-7.56467624791344
30
0
41
1.10374900959774
10
143.262213383004
20
-7.92451377313532
30
0
41
1.10374900959774
10
144.725363701308
20
-8.17611642139738
30
0
41
1.10374900959774
10
147.417067901836
20
-8.63504684110353
30
0
41
1.10374900959774
10
149.6216044955
20
-8.99547236671395
30
0
41
1.10374900959774
10
151.337839363146
20
-9.266129444082
30
0
0
SPLINE
5
16F
100
AcDbEntity
8
1
62
256
6
ByLayer
370
13
48
1
60
0
100
AcDbSpline
70
4
71
3
72
20
73
16
40
0
40
0
40
0
40
0
40
0.249999999999998
40
0.249999999999998
40
0.499999999999996
40
0.499999999999996
40
0.749999999999995
40
0.749999999999995
40
0.812499999999996
40
0.812499999999996
40
0.874999999999997
40
0.874999999999997
40
0.937499999999999
40
0.937499999999999
40
1
40
1
40
1
40
1
41
1
10
183.399204203299
20
1.43784358094587
30
0
41
1
10
183.123679646245
20
1.62988694361491
30
0
41
1
10
182.856803616262
20
1.84441041467173
30
0
41
1
10
182.352859832629
20
2.31977295838888
30
0
41
1
10
182.114903691642
20
2.58090901063315
30
0
41
1
10
181.675403286211
20
3.16386159491719
30
0
41
1
10
181.479836096098
20
3.4778065428919
30
0
41
1
10
181.273450431802
20
3.9055784731583
30
0
41
1
10
181.23408529486
20
3.99291572854298
30
0
41
1
10
181.159579748337
20
4.17150236223796
30
0
41
1
10
181.124431919723
20
4.26283145988336
30
0
41
1
10
181.059444498746
20
4.44741052913449
30
0
41
1
10
181.029472459772
20
4.54091323141279
30
0
41
1
10
180.9749349698
20
4.73050595524913
30
0
41
1
10
180.950250207525
20
4.82713366811436
30
0
41
1
10
180.928624584508
20
4.92404108085864
30
0
0
SPLINE
5
170
100
AcDbEntity
8
1
62
256
6
ByLayer
370
18
48
1
60
0
100
AcDbSpline
70
4
71
1
72
4
73
2
40
0
40
0
40
1
40
1
41
1
10
25.3361548752738
20
-8.46155889789623
30
0
41
1
10
25.1480573481683
20
-9.37891895678212
30
0
0
SPLINE
5
171
100
AcDbEntity
8
1
62
256
6
ByLayer
370
18
48
1
60
0
100
AcDbSpline
70
4
71
2
72
6
73
3
40
0
40
0
40
0
40
1
40
1
40
1
41
0.500000001330335
10
28.9654257777109
20
9.38558502126114
30
0
41
0.499999998669665
10
28.9657382453099
20
9.38709450947131
30
0
41
0.500000001330335
10
28.9660506385087
20
9.3886036231611
30
0
0
SPLINE
5
172
100
AcDbEntity
8
1
62
256
6
ByLayer
370
18
48
1
60
0
100
AcDbSpline
70
4
71
3
72
18
73
14
40
0
40
0
40
0
40
0
40
0.249999999999996
40
0.249999999999996
40
0.374999999999995
40
0.374999999999995
40
0.499999999999995
40
0.499999999999995
40
0.624999999999995
40
0.624999999999995
40
0.749999999999995
40
0.749999999999995
40
1
40
1
40
1
40
1
41
1
10
184.688059934338
20
-1.33279266990181
30
0
41
1
10
184.637734592462
20
-1.55056438124052
30
0
41
1
10
184.576126192925
20
-1.79415172612673
30
0
41
1
10
184.467446772335
20
-2.1967512271288
30
0
41
1
10
184.428610754148
20
-2.33669881438573
30
0
41
1
10
184.347078493306
20
-2.6235274851937
30
0
41
1
10
184.304221658831
20
-2.77099764860597
30
0
41
1
10
184.214445523929
20
-3.07381889150616
30
0
41
1
10
184.16752183476
20
-3.22917848486353
30
0
41
1
10
184.069618529794
20
-3.54776590179799
30
0
41
1
10
184.018408874819
20
-3.71170266628022
30
0
41
1
10
183.86115154085
20
-4.20740915483785
30
0
41
1
10
183.751063184451
20
-4.54458099683416
30
0
41
1
10
183.635810077136
20
-4.88834471265045
30
0
0
SPLINE
5
173
100
AcDbEntity
8
1
62
256
6
ByLayer
370
18
48
1
60
0
100
AcDbSpline
70
4
71
3
72
12
73
8
40
0
40
0
40
0
40
0
40
0.412131301711207
40
0.412131301711207
40
0.706065605214655
40
0.706065605214655
40
1
40
1
40
1
40
1
41
1
10
166.699999999507
20
13.903306248103
30
0
41
1
10
166.686831307848
20
13.9173083343684
30
0
41
1
10
166.673659059688
20
13.9313088849082
30
0
41
1
10
166.651086252626
20
13.9552921153879
30
0
41
1
10
166.641687424783
20
13.9652755389989
30
0
41
1
10
166.62288620114
20
13.9852408705469
30
0
41
1
10
166.613483804609
20
13.9952227792584
30
0
41
1
10
166.604079636133
20
14.0052039379017
30
0
0
SPLINE
5
174
100
AcDbEntity
8
1
62
256
6
ByLayer
370
18
48
1
60
0
100
AcDbSpline
70
4
71
3
72
18
73
14
40
0
40
0
40
0
40
0
40
0.250000000000007
40
0.250000000000007
40
0.37500000000001
40
0.37500000000001
40
0.500000000000013
40
0.500000000000013
40
0.750000000000006
40
0.750000000000006
40
0.875000000000003
40
0.875000000000003
40
1
40
1
40
1
40
1
41
1
10
183.100419563931
20
-3.94550623310857
30
0
41
1
10
183.215593985589
20
-3.81904165121665
30
0
41
1
10
183.33024094115
20
-3.67963615537479
30
0
41
1
10
183.501303614847
20
-3.44825683196618
30
0
41
1
10
183.558172678328
20
-3.36740543130594
30
0
41
1
10
183.671579206541
20
-3.19756714813425
30
0
41
1
10
183.728443225416
20
-3.10802667031172
30
0
41
1
10
183.895775241601
20
-2.83045283981025
30
0
41
1
10
184.00262784339
20
-2.63436097817532
30
0
41
1
10
184.155651774848
20
-2.32318516877996
30
0
41
1
10
184.205447553914
20
-2.21661309905792
30
0
41
1
10
184.302540982092
20
-1.9976021988567
30
0
41
1
10
184.349945097652
20
-1.88485408998025
30
0
41
1
10
184.395365314735
20
-1.77084791589402
30
0
0
SPLINE
5
175
100
AcDbEntity
8
1
62
256
6
ByLayer
370
18
48
1
60
0
100
AcDbSpline
70
4
71
3
72
8
73
4
40
0
40
0
40
0
40
0
40
1
40
1
40
1
40
1
41
1
10
167.751040764009
20
3.39793791767087
30
0
41
1
10
167.768020197994
20
3.3899247667359
30
0
41
1
10
167.785912228124
20
3.3820115142166
30
0
41
1
10
167.804358970515
20
3.37434964539298
30
0
0
SPLINE
5
176
100
AcDbEntity
8
1
62
256
6
ByLayer
370
13
48
1
60
0
100
AcDbSpline
70
4
71
3
72
8
73
4
40
0
40
0
40
0
40
0
40
1
40
1
40
1
40
1
41
1
10
183.354042017444
20
1.39977082863513
30
0
41
1
10
183.361621646455
20
1.39440248034541
30
0
41
1
10
183.369219495417
20
1.3890569662581
30
0
41
1
10
183.376835154238
20
1.38373407671796
30
0
0
SPLINE
5
177
100
AcDbEntity
8
1
62
256
6
ByLayer
370
18
48
1
60
0
100
AcDbSpline
70
4
71
3
72
9
73
5
40
0
40
0
40
0
40
0
40
0.497491334099953
40
1
40
1
40
1
40
1
41
1
10
166.700000001156
20
13.1613953239095
30
0
41
1
10
166.68449097067
20
13.1941937537448
30
0
41
1
10
166.65331649702
20
13.2601213942627
30
0
41
1
10
166.621262419217
20
13.3256700269617
30
0
41
1
10
166.605154967343
20
13.3586087829309
30
0
0
SPLINE
5
178
100
AcDbEntity
8
1
62
256
6
ByLayer
370
18
48
1
60
0
100
AcDbSpline
70
4
71
3
72
8
73
4
40
0
40
0
40
0
40
0
40
1
40
1
40
1
40
1
41
1
10
154.965900734875
20
7.11266197534925
30
0
41
1
10
154.965900734866
20
7.10480208245514
30
0
41
1
10
154.965900734857
20
7.09694221298741
30
0
41
1
10
154.965900734848
20
7.08908236694603
30
0
0
SPLINE
5
179
100
AcDbEntity
8
1
62
256
6
ByLayer
370
18
48
1
60
0
100
AcDbSpline
70
4
71
3
72
12
73
8
40
0
40
0
40
0
40
0
40
0.500000000000003
40
0.500000000000003
40
0.750000000000001
40
0.750000000000001
40
1
40
1
40
1
40
1
41
1
10
154.24691793277
20
-12.5683410062874
30
0
41
1
10
156.305805881107
20
-12.9223829395889
30
0
41
1
10
158.363513604118
20
-13.2216630058545
30
0
41
1
10
161.453988279564
20
-13.5832682649441
30
0
41
1
10
162.483907733476
20
-13.6891294802791
30
0
41
1
10
164.542434381518
20
-13.8711524825263
30
0
41
1
10
165.571279998418
20
-13.9473699576185
30
0
41
1
10
166.6
20
-14.0088016412186
30
0
0
SPLINE
5
17A
100
AcDbEntity
8
1
62
256
6
ByLayer
370
18
48
1
60
0
100
AcDbSpline
70
4
71
1
72
4
73
2
40
0
40
0
40
1
40
1
41
1
10
28.9660506385087
20
9.38860362316112
30
0
41
1
10
28.8837045476937
20
8.97555016654869
30
0
0
SPLINE
5
17B
100
AcDbEntity
8
1
62
256
6
ByLayer
370
18
48
1
60
0
100
AcDbSpline
70
4
71
3
72
40
73
36
40
0
40
0
40
0
40
0
40
0.125
40
0.125
40
0.250000000000001
40
0.250000000000001
40
0.375000000000001
40
0.375000000000001
40
0.500000000000001
40
0.500000000000001
40
0.562500000000002
40
0.562500000000002
40
0.625000000000003
40
0.625000000000003
40
0.656250000000003
40
0.656250000000003
40
0.687500000000003
40
0.687500000000003
40
0.750000000000003
40
0.750000000000003
40
0.781250000000003
40
0.781250000000003
40
0.812500000000002
40
0.812500000000002
40
0.875000000000001
40
0.875000000000001
40
0.890625000000001
40
0.890625000000001
40
0.906250000000001
40
0.906250000000001
40
0.9375
40
0.9375
40
0.96875
40
0.96875
40
1
40
1
40
1
40
1
41
1
10
23.1261920626974
20
-8.54745443073108
30
0
41
1
10
22.3817912804108
20
-8.42599607645798
30
0
41
1
10
21.6444032247075
20
-8.30191014240481
30
0
41
1
10
20.1738596028531
20
-8.03914150656294
30
0
41
1
10
19.4405229056878
20
-7.90049289994383
30
0
41
1
10
17.9719047004729
20
-7.59358383418046
30
0
41
1
10
17.2365571304891
20
-7.42549776525837
30
0
41
1
10
15.7588430104849
20
-7.03505804153804
30
0
41
1
10
15.0143971444843
20
-6.81215428375387
30
0
41
1
10
13.9072587746807
20
-6.41166569557899
30
0
41
1
10
13.5394675686311
20
-6.26694781160617
30
0
41
1
10
12.8082226185906
20
-5.94831046804947
30
0
41
1
10
12.4447510648653
20
-5.77443065593064
30
0
41
1
10
11.9050200346744
20
-5.48486433832034
30
0
41
1
10
11.7260329338995
20
-5.38352906091862
30
0
41
1
10
11.3704469152669
20
-5.16972114880085
30
0
41
1
10
11.193356058011
20
-5.0568939559227
30
0
41
1
10
10.6723417470275
20
-4.70288564449592
30
0
41
1
10
10.3375385901612
20
-4.44583488971367
30
0
41
1
10
9.86071004907038
20
-4.02062359657234
30
0
41
1
10
9.70601972920849
20
-3.87225386466798
30
0
41
1
10
9.40665405645973
20
-3.5603973562171
30
0
41
1
10
9.26308299545005
20
-3.39795785238087
30
0
41
1
10
8.85692695614688
20
-2.89454845597024
30
0
41
1
10
8.6168421341888
20
-2.53581424224239
30
0
41
1
10
8.36382758956293
20
-2.05292846825401
30
0
41
1
10
8.31559908210602
20
-1.95461357449975
30
0
41
1
10
8.22420720812539
20
-1.7542984525285
30
0
41
1
10
8.18094633190611
20
-1.65200224503442
30
0
41
1
10
8.06086829599124
20
-1.34345258212545
30
0
41
1
10
7.9931981845213
20
-1.13452797203905
30
0
41
1
10
7.88335879304748
20
-0.71006939742918
30
0
41
1
10
7.84118325948575
20
-0.494537062064154
30
0
41
1
10
7.78375804189142
20
-0.0565148360929584
30
0
41
1
10
7.76871380027328
20
0.166798501481708
30
0
41
1
10
7.7679
20
0.387119698326813
30
0
0
SPLINE
5
17C
100
AcDbEntity
8
1
62
256
6
ByLayer
370
18
48
1
60
0
100
AcDbSpline
70
4
71
3
72
8
73
4
40
0
40
0
40
0
40
0
40
1
40
1
40
1
40
1
41
1
10
166.7
20
14.0934996160614
30
0
41
1
10
166.7
20
12.9753877834001
30
0
41
1
10
166.7
20
11.8572770031817
30
0
41
1
10
166.7
20
10.7391674041015
30
0
0
SPLINE
5
17D
100
AcDbEntity
8
1
62
256
6
ByLayer
370
18
48
1
60
0
100
AcDbSpline
70
4
71
3
72
8
73
4
40
0
40
0
40
0
40
0
40
1
40
1
40
1
40
1
41
1
10
181.858981836402
20
10.0798200341983
30
0
41
1
10
181.466409548597
20
11.2896517648415
30
0
41
1
10
181.066766701288
20
12.5073907887059
30
0
41
1
10
180.659756746805
20
13.7333687470715
30
0
0
SPLINE
5
17E
100
AcDbEntity
8
1
62
256
6
ByLayer
370
18
48
1
60
0
100
AcDbSpline
70
4
71
3
72
48
73
44
40
0
40
0
40
0
40
0
40
0.132890365437169
40
0.132890365437169
40
0.199335548155754
40
0.199335548155754
40
0.232558139515047
40
0.232558139515047
40
0.265780730874339
40
0.265780730874339
40
0.398671096311508
40
0.398671096311508
40
0.465116279030093
40
0.465116279030093
40
0.498338870389385
40
0.498338870389385
40
0.531561461748677
40
0.531561461748677
40
0.598006644467263
40
0.598006644467263
40
0.664451827185848
40
0.664451827185848
40
0.697674418545141
40
0.697674418545141
40
0.730897009904433
40
0.730897009904433
40
0.797342192623018
40
0.797342192623018
40
0.863787375341603
40
0.863787375341603
40
0.930232558060187
40
0.930232558060187
40
0.96345514941948
40
0.96345514941948
40
0.967607973339391
40
0.967607973339391
40
0.971760797259303
40
0.971760797259303
40
0.980066445099127
40
0.980066445099127
40
0.996677740778775
40
0.996677740778775
40
1
40
1
40
1
40
1
41
1
10
25.3361548752739
20
-8.46155889789628
30
0
41
1
10
30.4162932895345
20
-9.17813054329349
30
0
41
1
10
35.4968644348129
20
-9.83798046284213
30
0
41
1
10
43.1163768331603
20
-10.7151028501507
30
0
41
1
10
45.6561549906122
20
-10.9884382911939
30
0
41
1
10
49.4664087570823
20
-11.365196821283
30
0
41
1
10
50.7365140351139
20
-11.4852060673398
30
0
41
1
10
53.2763679031741
20
-11.7132847037499
30
0
41
1
10
54.5462039659818
20
-11.821424074135
30
0
41
1
10
60.8955817902107
20
-12.3394069223661
30
0
41
1
10
65.9763201748254
20
-12.6756831780262
30
0
41
1
10
73.5957455482014
20
-13.0343035004548
30
0
41
1
10
76.1354007329053
20
-13.1294714535268
30
0
41
1
10
79.9453404461432
20
-13.2316074027814
30
0
41
1
10
81.2154392409742
20
-13.2584038316549
30
0
41
1
10
83.7554471919442
20
-13.3015347351578
30
0
41
1
10
85.0254102648965
20
-13.3176965984375
30
0
41
1
10
88.835274264526
20
-13.3494743900211
30
0
41
1
10
91.3751420699753
20
-13.3484164081879
30
0
41
1
10
96.4554705354337
20
-13.2985876050376
30
0
41
1
10
98.9959005286502
20
-13.2497313835334
30
0
41
1
10
102.805704943262
20
-13.1379868033224
30
0
41
1
10
104.075579102828
20
-13.0943338334655
30
0
41
1
10
106.615320325978
20
-12.993697749995
30
0
41
1
10
107.885175535725
20
-12.9362472342468
30
0
41
1
10
111.695005029474
20
-12.746222174373
30
0
41
1
10
114.235370536243
20
-12.5987386214715
30
0
41
1
10
119.315319154702
20
-12.2617811770864
30
0
41
1
10
121.855160722267
20
-12.0720970237196
30
0
41
1
10
126.935295469596
20
-11.6487181743074
30
0
41
1
10
129.475741839378
20
-11.4150126509637
30
0
41
1
10
133.285976105704
20
-11.0304011216393
30
0
41
1
10
134.556041633358
20
-10.8965666360205
30
0
41
1
10
135.984896015133
20
-10.7395299343401
30
0
41
1
10
136.143656717393
20
-10.7219724918105
30
0
41
1
10
136.461152777255
20
-10.6867349982866
30
0
41
1
10
136.619762257382
20
-10.6678568007589
30
0
41
1
10
137.095413978502
20
-10.6105705129476
30
0
41
1
10
137.412245205707
20
-10.571351474122
30
0
41
1
10
138.361801371723
20
-10.45014112246
30
0
41
1
10
138.993646884383
20
-10.3644686035137
30
0
41
1
10
139.749977086407
20
-10.2538278989865
30
0
41
1
10
139.875969291066
20
-10.2351316461483
30
0
41
1
10
140.001893855451
20
-10.2161521530956
30
0
0
SPLINE
5
17F
100
AcDbEntity
8
1
62
256
6
ByLayer
370
18
48
1
60
0
100
AcDbSpline
70
4
71
3
72
25
73
21
40
0
40
0
40
0
40
0
40
0.149209193786871
40
0.158534768398552
40
0.158534768398552
40
0.167860343010233
40
0.167860343010233
40
0.186511492233588
40
0.186511492233588
40
0.223813790680306
40
0.223813790680306
40
0.298418387573747
40
0.298418387573747
40
0.596836775147511
40
0.596836775147511
40
0.895255162721276
40
0.895255162721276
40
0.969859759614719
40
0.969859759614719
40
1
40
1
40
1
40
1
41
1
10
153.377645267174
20
12.2648940770514
30
0
41
1
10
152.757696298551
20
12.1558555365079
30
0
41
1
10
152.099101902379
20
12.03550140577
30
0
41
1
10
151.440567290865
20
11.9104545180762
30
0
41
1
10
151.363093027461
20
11.8957106696191
30
0
41
1
10
151.324000031253
20
11.8889851308329
30
0
41
1
10
151.2069593816
20
11.8683260899482
30
0
41
1
10
151.128877320066
20
11.8546010554749
30
0
41
1
10
150.894476286882
20
11.8135572772157
30
0
41
1
10
150.738000152763
20
11.7863742895445
30
0
41
1
10
150.267979790446
20
11.7053518973433
30
0
41
1
10
149.9538447722
20
11.6520384375135
30
0
41
1
10
148.37965602793
20
11.3887715800619
30
0
41
1
10
147.109233674146
20
11.1887030579702
30
0
41
1
10
144.554038328202
20
10.804175928156
30
0
41
1
10
143.271119749206
20
10.6199849958344
30
0
41
1
10
141.663418706951
20
10.3972232743977
30
0
41
1
10
141.341660926213
20
10.3530472558221
30
0
41
1
10
140.889631304035
20
10.2915170158636
30
0
41
1
10
140.759527365659
20
10.2738690981716
30
0
41
1
10
140.629391642439
20
10.2562770319569
30
0
0
SPLINE
5
180
100
AcDbEntity
8
1
62
256
6
ByLayer
370
18
48
1
60
0
100
AcDbSpline
70
4
71
3
72
8
73
4
40
0
40
0
40
0
40
0
40
1
40
1
40
1
40
1
41
1
10
32.2500000000658
20
-9.80145382784681
30
0
41
1
10
32.2500000000663
20
-9.9872203817097
30
0
41
1
10
32.2500000000668
20
-10.1730555913308
30
0
41
1
10
32.2500000000673
20
-10.3589594367599
30
0
0
SPLINE
5
181
100
AcDbEntity
8
1
62
256
6
ByLayer
370
18
48
1
60
0
100
AcDbSpline
70
4
71
1
72
4
73
2
40
0
40
0
40
1
40
1
41
1
10
166.641377525419
20
3.48657163943341
30
0
41
1
10
166.705004754716
20
3.41031469189926
30
0
0
SPLINE
5
182
100
AcDbEntity
8
1
62
256
6
ByLayer
370
18
48
1
60
0
100
AcDbSpline
70
4
71
3
72
30
73
26
40
0
40
0
40
0
40
0
40
0.0624999999999989
40
0.0624999999999989
40
0.124999999999998
40
0.124999999999998
40
0.249999999999997
40
0.249999999999997
40
0.374999999999997
40
0.374999999999997
40
0.437499999999996
40
0.437499999999996
40
0.499999999999996
40
0.499999999999996
40
0.624999999999995
40
0.624999999999995
40
0.687499999999996
40
0.687499999999996
40
0.749999999999997
40
0.749999999999997
40
0.874999999999998
40
0.874999999999998
40
0.937499999999999
40
0.937499999999999
40
1
40
1
40
1
40
1
41
1
10
176.434481451765
20
2.12473429949424
30
0
41
1
10
176.411697203963
20
1.99844106886874
30
0
41
1
10
176.386244216986
20
1.87676910588752
30
0
41
1
10
176.329751892604
20
1.64309866945632
30
0
41
1
10
176.298715372113
20
1.5312858326285
30
0
41
1
10
176.198619942085
20
1.2161689198841
30
0
41
1
10
176.122162180384
20
1.03113765938838
30
0
41
1
10
175.949687336845
20
0.711437237278545
30
0
41
1
10
175.853675445222
20
0.576754711694662
30
0
41
1
10
175.694149426526
20
0.414661992124763
30
0
41
1
10
175.63870483531
20
0.367703174927385
30
0
41
1
10
175.52449611116
20
0.288589419581797
30
0
41
1
10
175.465565276304
20
0.256260464048239
30
0
41
1
10
175.283401092866
20
0.180531005178523
30
0
41
1
10
175.154818442798
20
0.158299355292598
30
0
41
1
10
174.95124779007
20
0.167281968175672
30
0
41
1
10
174.881314805803
20
0.177436787729789
30
0
41
1
10
174.739397730774
20
0.211727784857203
30
0
41
1
10
174.667503054485
20
0.23577368163464
30
0
41
1
10
174.449122296715
20
0.327789304406053
30
0
41
1
10
174.299950642459
20
0.415554729590696
30
0
41
1
10
174.071034944424
20
0.58522473971459
30
0
41
1
10
173.99386709768
20
0.648139847971834
30
0
41
1
10
173.83780933851
20
0.786663630099525
30
0
41
1
10
173.759067235599
20
0.862164119925723
30
0
41
1
10
173.680114494311
20
0.943313429957158
30
0
0
SPLINE
5
183
100
AcDbEntity
8
1
62
256
6
ByLayer
370
18
48
1
60
0
100
AcDbSpline
70
4
71
3
72
8
73
4
40
0
40
0
40
0
40
0
40
1
40
1
40
1
40
1
41
1
10
173.394241492638
20
0.605392533557591
30
0
41
1
10
173.435209018356
20
0.606934688260907
30
0
41
1
10
173.476176542405
20
0.608569196626064
30
0
41
1
10
173.517144064754
20
0.610295879280613
30
0
0
SPLINE
5
184
100
AcDbEntity
8
1
62
256
6
ByLayer
370
18
48
1
60
0
100
AcDbSpline
70
4
71
3
72
12
73
8
40
0
40
0
40
0
40
0
40
0.5
40
0.5
40
0.75
40
0.75
40
1
40
1
40
1
40
1
41
1
10
153.371866478591
20
-12.2752237750249
30
0
41
1
10
153.533936882891
20
-12.3121163526635
30
0
41
1
10
153.688469228777
20
-12.3555742308237
30
0
41
1
10
153.908842339401
20
-12.429700803942
30
0
41
1
10
153.980731068517
20
-12.4560527443904
30
0
41
1
10
154.118301224496
20
-12.51075563985
30
0
41
1
10
154.184074061117
20
-12.5391104595188
30
0
41
1
10
154.246917932764
20
-12.5683410062897
30
0
0
SPLINE
5
185
100
AcDbEntity
8
1
62
256
6
ByLayer
370
18
48
1
60
0
100
AcDbSpline
70
4
71
3
72
8
73
4
40
0
40
0
40
0
40
0
40
1
40
1
40
1
40
1
41
1
10
167.751040764009
20
3.39793791767087
30
0
41
1
10
167.399387597601
20
3.56389456273001
30
0
41
1
10
167.048659788629
20
3.73584587058338
30
0
41
1
10
166.7
20
3.91342989631232
30
0
0
SPLINE
5
186
100
AcDbEntity
8
1
62
256
6
ByLayer
370
18
48
1
60
0
100
AcDbSpline
70
4
71
3
72
16
73
12
40
0
40
0
40
0
40
0
40
0.249999999999964
40
0.249999999999964
40
0.37499999999996
40
0.37499999999996
40
0.499999999999957
40
0.499999999999957
40
0.749999999999978
40
0.749999999999978
40
1
40
1
40
1
40
1
41
1
10
28.883947556557
20
8.97679397062646
30
0
41
1
10
28.7683077579922
20
8.98982429706993
30
0
41
1
10
28.6529720857099
20
9.00840952041364
30
0
41
1
10
28.4803478960866
20
9.04370754342881
30
0
41
1
10
28.422696267512
20
9.05675960293479
30
0
41
1
10
28.3104151397854
20
9.08432421564413
30
0
41
1
10
28.2554005613482
20
9.09890614913249
30
0
41
1
10
28.093219070806
20
9.14452290133769
30
0
41
1
10
27.9885517102162
20
9.17752104582715
30
0
41
1
10
27.7863042056056
20
9.24578858788766
30
0
41
1
10
27.6902305579533
20
9.28051895977046
30
0
41
1
10
27.597766509166
20
9.31520837985431
30
0
0
SPLINE
5
187
100
AcDbEntity
8
1
62
256
6
ByLayer
370
18
48
1
60
0
100
AcDbSpline
70
4
71
3
72
8
73
4
40
0
40
0
40
0
40
0
40
1
40
1
40
1
40
1
41
1
10
166.499999999984
20
4.40020593042493
30
0
41
1
10
165.314693504602
20
4.484928614577
30
0
41
1
10
164.129083979801
20
4.56096142874378
30
0
41
1
10
162.943054192716
20
4.62880337416067
30
0
0
SPLINE
5
188
100
AcDbEntity
8
1
62
256
6
ByLayer
370
13
48
1
60
0
100
AcDbSpline
70
4
71
3
72
8
73
4
40
0
40
0
40
0
40
0
40
1
40
1
40
1
40
1
41
1
10
180.928624584235
20
4.92404108090724
30
0
41
1
10
180.928401784724
20
4.92505800556788
30
0
41
1
10
180.928178261091
20
4.92607478335884
30
0
41
1
10
180.927954013419
20
4.92709141269597
30
0
0
SPLINE
5
189
100
AcDbEntity
8
1
62
256
6
ByLayer
370
13
48
1
60
0
100
AcDbSpline
70
4
71
3
72
10
73
6
40
0
40
0
40
0
40
0
40
0.0192839502696862
40
0.0192839502696862
40
1
40
1
40
1
40
1
41
1
10
180.901522310768
20
4.92117049878743
30
0
41
1
10
180.901526582678
20
4.92115113072956
30
0
41
1
10
180.901530854864
20
4.9211317627279
30
0
41
1
10
180.901752367324
20
4.92012739824474
30
0
41
1
10
180.901968896505
20
4.91914225505857
30
0
41
1
10
180.902184713855
20
4.91815696660743
30
0
0
SPLINE
5
18A
100
AcDbEntity
8
1
62
256
6
ByLayer
370
18
48
1
60
0
100
AcDbSpline
70
4
71
3
72
10
73
6
40
0
40
0
40
0
40
0
40
0.522032347657075
40
0.522032347657075
40
1
40
1
40
1
40
1
41
1
10
180.882267760394
20
5.00846121876108
30
0
41
1
10
180.885935870649
20
5.01166402892349
30
0
41
1
10
180.89008203504
20
5.01445633428821
30
0
41
1
10
180.898614086064
20
5.01830381166789
30
0
41
1
10
180.903046086665
20
5.01951006798754
30
0
41
1
10
180.907472095166
20
5.01994641872389
30
0
0
SPLINE
5
18B
100
AcDbEntity
8
1
62
256
6
ByLayer
370
18
48
1
60
0
100
AcDbSpline
70
4
71
3
72
8
73
4
40
0
40
0
40
0
40
0
40
1
40
1
40
1
40
1
41
1
10
29.9
20
-10.0398831284381
30
0
41
1
10
28.9334815133844
20
-9.83296197795042
30
0
41
1
10
27.9668329156377
20
-9.62384967971261
30
0
41
1
10
27
20
-9.41275922093561
30
0
0
SPLINE
5
18C
100
AcDbEntity
8
1
62
256
6
ByLayer
370
18
48
1
60
0
100
AcDbSpline
70
4
71
3
72
11
73
7
40
0
40
0
40
0
40
0
40
0.0153438756307925
40
0.342728059951349
40
0.670437833162673
40
1
40
1
40
1
40
1
41
1
10
166.685222512608
20
3.35968612191439
30
0
41
1
10
166.684858420072
20
3.36031591487014
30
0
41
1
10
166.676774314489
20
3.37439075571857
30
0
41
1
10
166.66307732802
20
3.40224871014081
30
0
41
1
10
166.648467980148
20
3.44393860347844
30
0
41
1
10
166.643745330072
20
3.47233346926896
30
0
41
1
10
166.641377350097
20
3.48657091487826
30
0
0
SPLINE
5
18D
100
AcDbEntity
8
1
62
256
6
ByLayer
370
18
48
1
60
0
100
AcDbSpline
70
4
71
3
72
8
73
4
40
0
40
0
40
0
40
0
40
1
40
1
40
1
40
1
41
1
10
167.404881252276
20
-14.1937264304994
30
0
41
1
10
167.218574860287
20
-14.1093689055871
30
0
41
1
10
167.032091135411
20
-14.0242765255173
30
0
41
1
10
166.845421537682
20
-13.9384701665263
30
0
0
LINE
5
70
100
AcDbEntity
8
81
62
256
6
ByLayer
370
18
48
1
60
0
100
AcDbLine
10
166.7
20
0
30
0
11
171.7
21
0
31
0
39
0
210
0
220
0
230
1
0
LINE
5
71
100
AcDbEntity
8
1
62
256
6
ByLayer
370
18
48
1
60
0
100
AcDbLine
10
0.2
20
20
30
0
11
0
21
19.8
31
0
39
0
210
0
220
0
230
1
0
LINE
5
73
100
AcDbEntity
8
1
62
256
6
ByLayer
370
18
48
1
60
0
100
AcDbLine
10
0
20
-19.8
30
0
11
0.2
21
-20
31
0
39
0
210
0
220
0
230
1
0
LINE
5
74
100
AcDbEntity
8
SK1
62
256
6
ByLayer
370
18
48
1
60
0
100
AcDbLine
10
-1.6
20
-15.996
30
0
11
-1.144243
21
-15.783477
31
0
39
0
210
0
220
0
230
1
0
LINE
5
76
100
AcDbEntity
8
SK1
62
256
6
ByLayer
370
18
48
1
60
0
100
AcDbLine
10
-1.144243
20
15.783477
30
0
11
-1.6
21
15.996
31
0
39
0
210
0
220
0
230
1
0
LINE
5
77
100
AcDbEntity
8
SK1
62
256
6
ByLayer
370
18
48
1
60
0
100
AcDbLine
10
-58.6
20
15.996
30
0
11
-59
21
15.996
31
0
39
0
210
0
220
0
230
1
0
LINE
5
78
100
AcDbEntity
8
SK1
62
256
6
ByLayer
370
18
48
1
60
0
100
AcDbLine
10
-59
20
-15.996
30
0
11
-58.6
21
-15.996
31
0
39
0
210
0
220
0
230
1
0
LINE
5
79
100
AcDbEntity
8
SK1
62
256
6
ByLayer
370
18
48
1
60
0
100
AcDbLine
10
-58.6
20
-15.996
30
0
11
-58.449692
21
-15.874283
31
0
39
0
210
0
220
0
230
1
0
LINE
5
7A
100
AcDbEntity
8
SK1
62
256
6
ByLayer
370
18
48
1
60
0
100
AcDbLine
10
-58.449692
20
15.874283
30
0
11
-58.6
21
15.996
31
0
39
0
210
0
220
0
230
1
0
LINE
5
7B
100
AcDbEntity
8
SK1
62
256
6
ByLayer
370
18
48
1
60
0
100
AcDbLine
10
-57.3
20
15.996
30
0
11
-57.426311
21
15.887988
31
0
39
0
210
0
220
0
230
1
0
LINE
5
7C
100
AcDbEntity
8
SK1
62
256
6
ByLayer
370
18
48
1
60
0
100
AcDbLine
10
-57.426311
20
-15.887988
30
0
11
-57.3
21
-15.996
31
0
39
0
210
0
220
0
230
1
0
LINE
5
7D
100
AcDbEntity
8
SK1
62
256
6
ByLayer
370
18
48
1
60
0
100
AcDbLine
10
-59
20
15.996
30
0
11
-60
21
14.996
31
0
39
0
210
0
220
0
230
1
0
LINE
5
7E
100
AcDbEntity
8
SK1
62
256
6
ByLayer
370
18
48
1
60
0
100
AcDbLine
10
-60
20
-14.996
30
0
11
-59
21
-15.996
31
0
39
0
210
0
220
0
230
1
0
LINE
5
7F
100
AcDbEntity
8
SK1
62
256
6
ByLayer
370
18
48
1
60
0
100
AcDbLine
10
-0.975195
20
-15.746
30
0
11
-0.15
21
-15.746
31
0
39
0
210
0
220
0
230
1
0
LINE
5
80
100
AcDbEntity
8
SK1
62
256
6
ByLayer
370
18
48
1
60
0
100
AcDbLine
10
-0.15
20
15.746
30
0
11
-0.975195
21
15.746
31
0
39
0
210
0
220
0
230
1
0
LINE
5
81
100
AcDbEntity
8
1
62
256
6
ByLayer
370
18
48
1
60
0
100
AcDbLine
10
32.25
20
14.2
30
0
11
29.9
21
14.2
31
0
39
0
210
0
220
0
230
1
0
LINE
5
82
100
AcDbEntity
8
1
62
256
6
ByLayer
370
18
48
1
60
0
100
AcDbLine
10
24.226319
20
14.496221
30
0
11
24.132522
21
14.530892
31
0
39
0
210
0
220
0
230
1
0
LINE
5
83
100
AcDbEntity
8
1
62
256
6
ByLayer
370
18
48
1
60
0
100
AcDbLine
10
24.132522
20
-14.530892
30
0
11
24.226319
21
-14.496221
31
0
39
0
210
0
220
0
230
1
0
LINE
5
84
100
AcDbEntity
8
1
62
256
6
ByLayer
370
18
48
1
60
0
100
AcDbLine
10
173.368227
20
-14.25825
30
0
11
179.995878
21
-14.25825
31
0
39
0
210
0
220
0
230
1
0
LINE
5
85
100
AcDbEntity
8
1
62
256
6
ByLayer
370
18
48
1
60
0
100
AcDbLine
10
179.995878
20
14.25825
30
0
11
178.729064
21
14.25825
31
0
39
0
210
0
220
0
230
1
0
LINE
5
86
100
AcDbEntity
8
1
62
256
6
ByLayer
370
18
48
1
60
0
100
AcDbLine
10
173.331421
20
14.48262
30
0
11
170.567874
21
14.472947
31
0
39
0
210
0
220
0
230
1
0
LINE
5
87
100
AcDbEntity
8
1
62
256
6
ByLayer
370
18
48
1
60
0
100
AcDbLine
10
170.567874
20
-14.472947
30
0
11
173.331421
21
-14.48262
31
0
39
0
210
0
220
0
230
1
0
LINE
5
88
100
AcDbEntity
8
1
62
256
6
ByLayer
370
18
48
1
60
0
100
AcDbLine
10
7.7679
20
20
30
0
11
0.2
21
20
31
0
39
0
210
0
220
0
230
1
0
LINE
5
89
100
AcDbEntity
8
1
62
256
6
ByLayer
370
18
48
1
60
0
100
AcDbLine
10
0.2
20
-20
30
0
11
7.7679
21
-20
31
0
39
0
210
0
220
0
230
1
0
LINE
5
8A
100
AcDbEntity
8
1
62
256
6
ByLayer
370
18
48
1
60
0
100
AcDbLine
10
29.9
20
14.2
30
0
11
27
21
14
31
0
39
0
210
0
220
0
230
1
0
LINE
5
8B
100
AcDbEntity
8
1
62
256
6
ByLayer
370
18
48
1
60
0
100
AcDbLine
10
27
20
-14
30
0
11
29.9
21
-14.2
31
0
39
0
210
0
220
0
230
1
0
LINE
5
8C
100
AcDbEntity
8
1
62
256
6
ByLayer
370
18
48
1
60
0
100
AcDbLine
10
29.9
20
-14.2
30
0
11
32.25
21
-14.2
31
0
39
0
210
0
220
0
230
1
0
LINE
5
8D
100
AcDbEntity
8
SK1
62
256
6
ByLayer
370
18
48
1
60
0
100
AcDbLine
10
-1.6
20
15.996
30
0
11
-57.3
21
15.996
31
0
39
0
210
0
220
0
230
1
0
LINE
5
8E
100
AcDbEntity
8
SK1
62
256
6
ByLayer
370
18
48
1
60
0
100
AcDbLine
10
-57.3
20
-15.996
30
0
11
-1.6
21
-15.996
31
0
39
0
210
0
220
0
230
1
0
LINE
5
8F
100
AcDbEntity
8
80
62
256
6
ByLayer
370
18
48
1
60
0
100
AcDbLine
10
0
20
0
30
0
11
-5
21
0
31
0
39
0
210
0
220
0
230
1
0
LINE
5
90
100
AcDbEntity
8
4
62
256
6
ByLayer
370
18
48
0.05
60
0
100
AcDbLine
10
166.7
20
0
30
0
11
0
21
0
31
0
39
0
210
0
220
0
230
1
0
LINE
5
92
100
AcDbEntity
8
SK4
62
256
6
ByLayer
370
18
48
0.05
60
0
100
AcDbLine
10
190
20
0
30
0
11
-65
21
0
31
0
39
0
210
0
220
0
230
1
0
LINE
5
94
100
AcDbEntity
8
SK1
62
256
6
ByLayer
370
13
48
1
60
0
100
AcDbLine
10
-57.426311
20
-15.887988
30
0
11
-57.426311
21
0
31
0
39
0
210
0
220
0
230
1
0
LINE
5
95
100
AcDbEntity
8
SK1
62
256
6
ByLayer
370
13
48
1
60
0
100
AcDbLine
10
-57.426311
20
0
30
0
11
-57.426311
21
15.887988
31
0
39
0
210
0
220
0
230
1
0
LINE
5
96
100
AcDbEntity
8
SK1
62
256
6
ByLayer
370
18
48
1
60
0
100
AcDbLine
10
-58.6
20
-15.996
30
0
11
-58.6
21
15.996
31
0
39
0
210
0
220
0
230
1
0
LINE
5
97
100
AcDbEntity
8
SK1
62
256
6
ByLayer
370
18
48
1
60
0
100
AcDbLine
10
-53.5
20
-8.082178
30
0
11
-6.5
21
-8.082178
31
0
39
0
210
0
220
0
230
1
0
LINE
5
98
100
AcDbEntity
8
SK1
62
256
6
ByLayer
370
18
48
1
60
0
100
AcDbLine
10
-59
20
0
30
0
11
-59
21
-15.996
31
0
39
0
210
0
220
0
230
1
0
LINE
5
99
100
AcDbEntity
8
SK1
62
256
6
ByLayer
370
18
48
1
60
0
100
AcDbLine
10
-59
20
15.996
30
0
11
-59
21
0
31
0
39
0
210
0
220
0
230
1
0
LINE
5
9A
100
AcDbEntity
8
SK1
62
256
6
ByLayer
370
13
48
1
60
0
100
AcDbLine
10
-53.5
20
8.082178
30
0
11
-53.5
21
-8.082178
31
0
39
0
210
0
220
0
230
1
0
LINE
5
9B
100
AcDbEntity
8
SK1
62
256
6
ByLayer
370
18
48
1
60
0
100
AcDbLine
10
-1.6
20
-15.996
30
0
11
-1.6
21
0
31
0
39
0
210
0
220
0
230
1
0
LINE
5
9C
100
AcDbEntity
8
SK1
62
256
6
ByLayer
370
18
48
1
60
0
100
AcDbLine
10
-1.6
20
0
30
0
11
-1.6
21
15.996
31
0
39
0
210
0
220
0
230
1
0
LINE
5
9D
100
AcDbEntity
8
SK1
62
256
6
ByLayer
370
18
48
1
60
0
100
AcDbLine
10
-57.3
20
0
30
0
11
-57.3
21
-15.996
31
0
39
0
210
0
220
0
230
1
0
LINE
5
9E
100
AcDbEntity
8
SK1
62
256
6
ByLayer
370
18
48
1
60
0
100
AcDbLine
10
-57.3
20
15.996
30
0
11
-57.3
21
0
31
0
39
0
210
0
220
0
230
1
0
LINE
5
9F
100
AcDbEntity
8
SK1
62
256
6
ByLayer
370
13
48
1
60
0
100
AcDbLine
10
-0.975195
20
15.746
30
0
11
-0.975195
21
-15.746
31
0
39
0
210
0
220
0
230
1
0
LINE
5
A0
100
AcDbEntity
8
SK1
62
256
6
ByLayer
370
18
48
1
60
0
100
AcDbLine
10
-6.5
20
8.082178
30
0
11
-53.5
21
8.082178
31
0
39
0
210
0
220
0
230
1
0
LINE
5
A1
100
AcDbEntity
8
SK1
62
256
6
ByLayer
370
18
48
1
60
0
100
AcDbLine
10
-60
20
0
30
0
11
-60
21
-14.996
31
0
39
0
210
0
220
0
230
1
0
LINE
5
A2
100
AcDbEntity
8
SK1
62
256
6
ByLayer
370
18
48
1
60
0
100
AcDbLine
10
-60
20
14.996
30
0
11
-60
21
0
31
0
39
0
210
0
220
0
230
1
0
LINE
5
A3
100
AcDbEntity
8
SK1
62
256
6
ByLayer
370
13
48
1
60
0
100
AcDbLine
10
-6.5
20
-8.082178
30
0
11
-6.5
21
8.082178
31
0
39
0
210
0
220
0
230
1
0
LINE
5
A4
100
AcDbEntity
8
SK1
62
256
6
ByLayer
370
13
48
1
60
0
100
AcDbLine
10
-0.15
20
0
30
0
11
-0.15
21
-15.746
31
0
39
0
210
0
220
0
230
1
0
LINE
5
A5
100
AcDbEntity
8
SK1
62
256
6
ByLayer
370
13
48
1
60
0
100
AcDbLine
10
-0.15
20
15.746
30
0
11
-0.15
21
0
31
0
39
0
210
0
220
0
230
1
0
LINE
5
A6
100
AcDbEntity
8
SK1
62
256
6
ByLayer
370
13
48
1
60
0
100
AcDbLine
10
-58.449692
20
-15.874283
30
0
11
-58.449692
21
0
31
0
39
0
210
0
220
0
230
1
0
LINE
5
A7
100
AcDbEntity
8
SK1
62
256
6
ByLayer
370
13
48
1
60
0
100
AcDbLine
10
-58.449692
20
0
30
0
11
-58.449692
21
15.874283
31
0
39
0
210
0
220
0
230
1
0
LINE
5
A8
100
AcDbEntity
8
SK1
62
256
6
ByLayer
370
13
48
1
60
0
100
AcDbLine
10
-1.144243
20
0
30
0
11
-1.144243
21
-15.783477
31
0
39
0
210
0
220
0
230
1
0
LINE
5
A9
100
AcDbEntity
8
SK1
62
256
6
ByLayer
370
13
48
1
60
0
100
AcDbLine
10
-1.144243
20
15.783477
30
0
11
-1.144243
21
0
31
0
39
0
210
0
220
0
230
1
0
LINE
5
AA
100
AcDbEntity
8
1
62
256
6
ByLayer
370
13
48
1
60
0
100
AcDbLine
10
184.907344
20
0.383891
30
0
11
183.421998
21
1.422059
31
0
39
0
210
0
220
0
230
1
0
LINE
5
AB
100
AcDbEntity
8
1
62
256
6
ByLayer
370
18
48
1
60
0
100
AcDbLine
10
167.404881
20
-14.385554
30
0
11
167.404881
21
-14.193726
31
0
39
0
210
0
220
0
230
1
0
LINE
5
AC
100
AcDbEntity
8
1
62
256
6
ByLayer
370
18
48
1
60
0
100
AcDbLine
10
184.967091
20
0.17252
30
0
11
185.005308
21
0.000285
31
0
39
0
210
0
220
0
230
1
0
LINE
5
AD
100
AcDbEntity
8
1
62
256
6
ByLayer
370
13
48
1
60
0
100
AcDbLine
10
180.927954
20
4.927091
30
0
11
180.907472
21
5.019946
31
0
39
0
210
0
220
0
230
1
0
LINE
5
AE
100
AcDbEntity
8
1
62
256
6
ByLayer
370
18
48
1
60
0
100
AcDbLine
10
0
20
19.8
30
0
11
0
21
-19.8
31
0
39
0
210
0
220
0
230
1
0
LINE
5
AF
100
AcDbEntity
8
1
62
256
6
ByLayer
370
18
48
1
60
0
100
AcDbLine
10
166.7
20
-13.721286
30
0
11
166.7
21
-13.679029
31
0
39
0
210
0
220
0
230
1
0
LINE
5
B0
100
AcDbEntity
8
1
62
256
6
ByLayer
370
18
48
1
60
0
100
AcDbLine
10
32.25
20
-14.2
30
0
11
32.25
21
-10.358959
31
0
39
0
210
0
220
0
230
1
0
LINE
5
B1
100
AcDbEntity
8
1
62
256
6
ByLayer
370
18
48
1
60
0
100
AcDbLine
10
166.7
20
-14.0935
30
0
11
166.7
21
-13.721286
31
0
39
0
210
0
220
0
230
1
0
LINE
5
B2
100
AcDbEntity
8
1
62
256
6
ByLayer
370
18
48
1
60
0
100
AcDbLine
10
178.062286
20
-12.777879
30
0
11
178.065798
21
-12.771376
31
0
39
0
210
0
220
0
230
1
0
LINE
5
B3
100
AcDbEntity
8
1
62
256
6
ByLayer
370
18
48
1
60
0
100
AcDbLine
10
32.25
20
14.2
30
0
11
32.25
21
12.440063
31
0
39
0
210
0
220
0
230
1
0
LINE
5
B4
100
AcDbEntity
8
1
62
256
6
ByLayer
370
18
48
1
60
0
100
AcDbLine
10
180.095694
20
-14.256098
30
0
11
184.395365
21
-1.770848
31
0
39
0
210
0
220
0
230
1
0
LINE
5
B5
100
AcDbEntity
8
1
62
256
6
ByLayer
370
18
48
1
60
0
100
AcDbLine
10
167.804359
20
-13.376975
30
0
11
178.33196
21
-13.376975
31
0
39
0
210
0
220
0
230
1
0
LINE
5
B6
100
AcDbEntity
8
1
62
256
6
ByLayer
370
13
48
1
60
0
100
AcDbLine
10
167.751041
20
3.397938
30
0
11
167.751041
21
2.993335
31
0
39
0
210
0
220
0
230
1
0
LINE
5
B7
100
AcDbEntity
8
1
62
256
6
ByLayer
370
13
48
1
60
0
100
AcDbLine
10
167.751041
20
-13.257444
30
0
11
167.751041
21
-13.394936
31
0
39
0
210
0
220
0
230
1
0
LINE
5
B8
100
AcDbEntity
8
1
62
256
6
ByLayer
370
18
48
1
60
0
100
AcDbLine
10
166.6
20
-14.008802
30
0
11
166.6
21
-13.628469
31
0
39
0
210
0
220
0
230
1
0
LINE
5
B9
100
AcDbEntity
8
1
62
256
6
ByLayer
370
18
48
1
60
0
100
AcDbLine
10
178.065684
20
-4.5
30
0
11
176.439301
21
2.119795
31
0
39
0
210
0
220
0
230
1
0
LINE
5
BA
100
AcDbEntity
8
1
62
256
6
ByLayer
370
18
48
1
60
0
100
AcDbLine
10
167.99912
20
-13.270096
30
0
11
177.496434
21
-13.270096
31
0
39
0
210
0
220
0
230
1
0
LINE
5
BB
100
AcDbEntity
8
1
62
256
6
ByLayer
370
18
48
1
60
0
100
AcDbLine
10
178.33196
20
-13.376975
30
0
11
180.732102
21
-6.545982
31
0
39
0
210
0
220
0
230
1
0
LINE
5
BC
100
AcDbEntity
8
1
62
256
6
ByLayer
370
18
48
1
60
0
100
AcDbLine
10
154.965901
20
-7.236408
30
0
11
154.965901
21
7.089082
31
0
39
0
210
0
220
0
230
1
0
LINE
5
BD
100
AcDbEntity
8
1
62
256
6
ByLayer
370
18
48
1
60
0
100
AcDbLine
10
185.005308
20
-0.000285
30
0
11
185.005308
21
0.000285
31
0
39
0
210
0
220
0
230
1
0
LINE
5
BE
100
AcDbEntity
8
1
62
256
6
ByLayer
370
18
48
1
60
0
100
AcDbLine
10
27
20
-14
30
0
11
27
21
-9.412759
31
0
39
0
210
0
220
0
230
1
0
LINE
5
BF
100
AcDbEntity
8
1
62
256
6
ByLayer
370
18
48
1
60
0
100
AcDbLine
10
184.717724
20
-0.834792
30
0
11
185.005308
21
0.000285
31
0
39
0
210
0
220
0
230
1
0
LINE
5
C0
100
AcDbEntity
8
1
62
256
6
ByLayer
370
18
48
1
60
0
100
AcDbLine
10
183.63581
20
4.888345
30
0
11
183.447719
21
5.449362
31
0
39
0
210
0
220
0
230
1
0
LINE
5
C1
100
AcDbEntity
8
1
62
256
6
ByLayer
370
18
48
1
60
0
100
AcDbLine
10
166.7
20
-13.532494
30
0
11
166.7
21
-13.568448
31
0
39
0
210
0
220
0
230
1
0
LINE
5
C2
100
AcDbEntity
8
1
62
256
6
ByLayer
370
13
48
1
60
0
100
AcDbLine
10
24.226319
20
-14.496221
30
0
11
24.226319
21
-9.313774
31
0
39
0
210
0
220
0
230
1
0
LINE
5
C3
100
AcDbEntity
8
1
62
256
6
ByLayer
370
18
48
1
60
0
100
AcDbLine
10
180.732102
20
-6.545982
30
0
11
183.10042
21
-3.945506
31
0
39
0
210
0
220
0
230
1
0
LINE
5
C4
100
AcDbEntity
8
1
62
256
6
ByLayer
370
18
48
1
60
0
100
AcDbLine
10
29.9
20
-10.039883
30
0
11
29.9
21
-14.2
31
0
39
0
210
0
220
0
230
1
0
LINE
5
C5
100
AcDbEntity
8
1
62
256
6
ByLayer
370
13
48
1
60
0
100
AcDbLine
10
166.5
20
4.35
30
0
11
166.705013
21
4.35
31
0
39
0
210
0
220
0
230
1
0
LINE
5
C6
100
AcDbEntity
8
1
62
256
6
ByLayer
370
18
48
1
60
0
100
AcDbLine
10
177.496434
20
-13.270096
30
0
11
177.504591
21
-13.266506
31
0
39
0
210
0
220
0
230
1
0
LINE
5
C7
100
AcDbEntity
8
1
62
256
6
ByLayer
370
18
48
1
60
0
100
AcDbLine
10
183.63581
20
-4.888345
30
0
11
183.447719
21
-5.449362
31
0
39
0
210
0
220
0
230
1
0
LINE
5
C8
100
AcDbEntity
8
1
62
256
6
ByLayer
370
18
48
1
60
0
100
AcDbLine
10
178.065798
20
-12.771376
30
0
11
178.065798
21
-4.501398
31
0
39
0
210
0
220
0
230
1
0
LINE
5
C9
100
AcDbEntity
8
1
62
256
6
ByLayer
370
18
48
1
60
0
100
AcDbLine
10
177.504591
20
-13.266506
30
0
11
178.062286
21
-12.777879
31
0
39
0
210
0
220
0
230
1
0
LINE
5
CA
100
AcDbEntity
8
1
62
256
6
ByLayer
370
18
48
1
60
0
100
AcDbLine
10
29.9
20
14.2
30
0
11
29.9
21
9.298739
31
0
39
0
210
0
220
0
230
1
0
LINE
5
CB
100
AcDbEntity
8
1
62
256
6
ByLayer
370
18
48
1
60
0
100
AcDbLine
10
180.732102
20
-6.545982
30
0
11
180.646685
21
-6.317819
31
0
39
0
210
0
220
0
230
1
0
LINE
5
CC
100
AcDbEntity
8
1
62
256
6
ByLayer
370
13
48
1
60
0
100
AcDbLine
10
24.132522
20
14.530892
30
0
11
24.132522
21
9.171622
31
0
39
0
210
0
220
0
230
1
0
LINE
5
CD
100
AcDbEntity
8
1
62
256
6
ByLayer
370
13
48
1
60
0
100
AcDbLine
10
7.7679
20
0.38712
30
0
11
7.7679
21
-20
31
0
39
0
210
0
220
0
230
1
0
LINE
5
CE
100
AcDbEntity
8
1
62
256
6
ByLayer
370
13
48
1
60
0
100
AcDbLine
10
24.132522
20
-14.530892
30
0
11
24.132522
21
-9.294151
31
0
39
0
210
0
220
0
230
1
0
LINE
5
CF
100
AcDbEntity
8
1
62
256
6
ByLayer
370
18
48
1
60
0
100
AcDbLine
10
0.2
20
0
30
0
11
0.2
21
-20
31
0
39
0
210
0
220
0
230
1
0
LINE
5
D0
100
AcDbEntity
8
1
62
256
6
ByLayer
370
18
48
1
60
0
100
AcDbLine
10
0.2
20
20
30
0
11
0.2
21
0
31
0
39
0
210
0
220
0
230
1
0
LINE
5
D1
100
AcDbEntity
8
1
62
256
6
ByLayer
370
18
48
1
60
0
100
AcDbLine
10
177.096872
20
-11.802449
30
0
11
178.065798
21
-12.771376
31
0
39
0
210
0
220
0
230
1
0
LINE
5
D2
100
AcDbEntity
8
1
62
256
6
ByLayer
370
18
48
1
60
0
100
AcDbLine
10
166.7
20
3.55
30
0
11
166.7
21
3.91343
31
0
39
0
210
0
220
0
230
1
0
LINE
5
D3
100
AcDbEntity
8
1
62
256
6
ByLayer
370
13
48
1
60
0
100
AcDbLine
10
7.7679
20
20
30
0
11
7.7679
21
0.425697
31
0
39
0
210
0
220
0
230
1
0
LINE
5
D4
100
AcDbEntity
8
1
62
256
6
ByLayer
370
18
48
1
60
0
100
AcDbLine
10
167.804359
20
-13.376975
30
0
11
167.804359
21
-13.259454
31
0
39
0
210
0
220
0
230
1
0
LINE
5
D5
100
AcDbEntity
8
1
62
256
6
ByLayer
370
18
48
1
60
0
100
AcDbLine
10
167.804359
20
2.974935
30
0
11
167.804359
21
3.37435
31
0
39
0
210
0
220
0
230
1
0
LINE
5
D6
100
AcDbEntity
8
1
62
256
6
ByLayer
370
18
48
1
60
0
100
AcDbLine
10
175.040869
20
-4.5
30
0
11
178.065684
21
-4.5
31
0
39
0
210
0
220
0
230
1
0
LINE
5
D7
100
AcDbEntity
8
1
62
256
6
ByLayer
370
13
48
1
60
0
100
AcDbLine
10
166.845422
20
-13.772412
30
0
11
166.7
21
-13.721286
31
0
39
0
210
0
220
0
230
1
0
LINE
5
D8
100
AcDbEntity
8
1
62
256
6
ByLayer
370
18
48
1
60
0
100
AcDbLine
10
27
20
9.305906
30
0
11
27
21
14
31
0
39
0
210
0
220
0
230
1
0
LINE
5
D9
100
AcDbEntity
8
1
62
256
6
ByLayer
370
18
48
1
60
0
100
AcDbLine
10
185.005308
20
-0.000285
30
0
11
184.967091
21
-0.17252
31
0
39
0
210
0
220
0
230
1
0
LINE
5
DA
100
AcDbEntity
8
1
62
256
6
ByLayer
370
18
48
1
60
0
100
AcDbLine
10
178.065798
20
-4.501398
30
0
11
178.065684
21
-4.5
31
0
39
0
210
0
220
0
230
1
0
LINE
5
DB
100
AcDbEntity
8
1
62
256
6
ByLayer
370
18
48
1
60
0
100
AcDbLine
10
184.907344
20
-0.383891
30
0
11
184.68806
21
-1.332793
31
0
39
0
210
0
220
0
230
1
0
LINE
5
DC
100
AcDbEntity
8
1
62
256
6
ByLayer
370
13
48
1
60
0
100
AcDbLine
10
183.376835
20
1.383734
30
0
11
184.930366
21
0.297909
31
0
39
0
210
0
220
0
230
1
0
LINE
5
DD
100
AcDbEntity
8
1
62
256
6
ByLayer
370
18
48
1
60
0
100
AcDbLine
10
166.845422
20
-13.93847
30
0
11
166.845422
21
-13.772412
31
0
39
0
210
0
220
0
230
1
0
LINE
5
DE
100
AcDbEntity
8
1
62
256
6
ByLayer
370
18
48
1
60
0
100
AcDbLine
10
166.7
20
-13.679029
30
0
11
166.7
21
-13.568448
31
0
39
0
210
0
220
0
230
1
0
LINE
5
DF
100
AcDbEntity
8
1
62
256
6
ByLayer
370
13
48
1
60
0
100
AcDbLine
10
24.226319
20
14.496221
30
0
11
24.226319
21
9.181341
31
0
39
0
210
0
220
0
230
1
0
LINE
5
E0
100
AcDbEntity
8
1
62
256
6
ByLayer
370
18
48
1
60
0
100
AcDbLine
10
184.907344
20
0.383891
30
0
11
184.68806
21
1.332793
31
0
39
0
210
0
220
0
230
1
0
MTEXT
5
18E
100
AcDbEntity
8
SK6
62
256
6
ByLayer
370
13
48
1
60
0
100
AcDbMText
10
42.97627
20
36.875134
30
0
210
0
220
0
230
1
1
\W0.7373;870-2900-29L32-5
40
3.5
41
0
44
1.084337
50
0
71
7
72
5
7
iso_b_vert
0
DIMENSION
5
19C
100
AcDbEntity
8
2
62
256
6
ByLayer
370
13
48
1
60
0
100
AcDbDimension
2
DimnDraft3D1
10
27
20
-27.5
30
0
11
106
21
-27.5
31
0
70
32
71
5
72
1
41
1
210
0
220
0
230
1
3
Standard
100
AcDbAlignedDimension
13
185
23
-1.5875
33
0
14
27
24
-16.0875
34
0
50
0
100
AcDbRotatedDimension
1001
ACAD
1000
DSTYLE
1002
{
1070
   279
1070
     0
1070
   172
1070
     1
1070
   173
1070
     1
1070
   340
1005
18F
1070
   271
1070
     1
1070
   272
1070
     2
1070
    77
1070
     1
1070
    73
1070
     0
1070
   171
1070
     3
1070
   274
1070
     4
1070
   177
1070
     7
1070
   176
1070
     7
1070
   178
1070
     7
1070
    48
1040
-0.005
1070
    41
1041
3.5
1070
   147
1041
1.5
1070
    42
1041
1.5875
1070
    44
1041
2.0
1070
   140
1041
3.0
1070
   343
1005
0
1070
   344
1005
0
1002
}
0
DIMENSION
5
1A6
100
AcDbEntity
8
2
62
256
6
ByLayer
370
13
48
1
60
0
100
AcDbDimension
2
DimnDraft3D2
10
30.3
20
21.5
30
0
11
107.65
21
21.5
31
0
70
32
71
5
72
1
41
1
210
0
220
0
230
1
3
Standard
100
AcDbAlignedDimension
13
185
23
1.5875
33
0
14
30.3
24
16.0875
34
0
50
0
100
AcDbRotatedDimension
1001
ACAD
1000
DSTYLE
1002
{
1070
   279
1070
     0
1070
   172
1070
     1
1070
   173
1070
     1
1070
   340
1005
18F
1070
   271
1070
     1
1070
   272
1070
     2
1070
    77
1070
     1
1070
    73
1070
     0
1070
   171
1070
     3
1070
   274
1070
     4
1070
   177
1070
     7
1070
   176
1070
     7
1070
   178
1070
     7
1070
    48
1040
-0.005
1070
    41
1041
3.5
1070
   147
1041
1.5
1070
    42
1041
1.5875
1070
    44
1041
2.0
1070
   140
1041
3.0
1070
   343
1005
0
1070
   344
1005
0
1002
}
0
DIMENSION
5
1B1
100
AcDbEntity
8
SK2
62
256
6
ByLayer
370
13
48
1
60
0
100
AcDbDimension
2
DimnDraft3D3
10
0
20
-39
30
0
11
-30
21
-39
31
0
70
32
71
5
72
1
41
1
210
0
220
0
230
1
3
Standard
100
AcDbAlignedDimension
13
-60
23
-17.5875
33
0
14
0
24
-21.5875
34
0
50
0
100
AcDbRotatedDimension
1001
ACAD
1000
DSTYLE
1002
{
1070
   279
1070
     0
1070
   172
1070
     1
1070
   173
1070
     1
1070
   340
1005
18F
1070
   271
1070
     1
1070
   272
1070
     2
1070
    77
1070
     1
1070
    73
1070
     0
1070
   171
1070
     3
1070
   274
1070
     4
1070
   177
1070
     7
1070
   176
1070
     7
1070
   178
1070
     7
1070
    48
1040
-0.005
1070
    41
1041
3.5
1070
   147
1041
1.5
1070
    42
1041
1.5875
1070
    44
1041
2.0
1070
   140
1041
3.0
1070
   343
1005
0
1070
   344
1005
0
1002
}
0
DIMENSION
5
1BB
100
AcDbEntity
8
2
62
256
6
ByLayer
370
13
48
1
60
0
100
AcDbDimension
2
DimnDraft3D4
10
185
20
-39
30
0
11
92.5
21
-39
31
0
70
32
71
5
72
1
41
1
210
0
220
0
230
1
3
Standard
100
AcDbAlignedDimension
13
0
23
-21.5875
33
0
14
185
24
-1.5875
34
0
50
0
100
AcDbRotatedDimension
1001
ACAD
1000
DSTYLE
1002
{
1070
   279
1070
     0
1070
   172
1070
     1
1070
   173
1070
     1
1070
   340
1005
18F
1070
   271
1070
     1
1070
   272
1070
     2
1070
    77
1070
     1
1070
    73
1070
     0
1070
   171
1070
     3
1070
   274
1070
     4
1070
   177
1070
     7
1070
   176
1070
     7
1070
   178
1070
     7
1070
    48
1040
-0.005
1070
    41
1041
3.5
1070
   147
1041
1.5
1070
    42
1041
1.5875
1070
    44
1041
2.0
1070
   140
1041
3.0
1070
   343
1005
0
1070
   344
1005
0
1002
}
0
DIMENSION
5
1C6
100
AcDbEntity
8
SK2
62
256
6
ByLayer
370
13
48
1
60
0
100
AcDbDimension
2
DimnDraft3D5
10
-68.25
20
-16
30
0
11
-68.5
21
-0.520456
31
0
70
33
71
5
72
1
41
1
210
0
220
0
230
1
3
Standard
100
AcDbAlignedDimension
13
-61.5875
23
16
33
0
14
-61.5875
24
-16
34
0
1001
ACAD
1000
DSTYLE
1002
{
1070
   279
1070
     0
1070
    74
1070
     0
1070
   173
1070
     1
1070
   340
1005
18F
1070
   271
1070
     1
1070
   272
1070
     2
1070
    77
1070
     1
1070
    73
1070
     0
1070
   171
1070
     3
1070
   274
1070
     4
1070
   177
1070
     7
1070
   176
1070
     7
1070
   178
1070
     7
1070
    48
1040
-0.005
1070
    41
1041
3.5
1070
   147
1041
1.5
1070
    42
1041
1.5875
1070
    44
1041
2.0
1070
   140
1041
3.0
1070
   343
1005
0
1070
   344
1005
0
1002
}
0
ENDSEC
0
SECTION
2
OBJECTS
0
DICTIONARY
5
231
330
0
100
AcDbDictionary
280
0
281
1
3
ACAD_GROUP
350
232
3
ACAD_MLINESTYLE
350
233
0
DICTIONARY
5
232
330
0
100
AcDbDictionary
280
0
281
1
0
DICTIONARY
5
233
330
0
100
AcDbDictionary
280
0
281
1
3
Standard
350
18
0
MLINESTYLE
5
18
330
233
100
AcDbMlineStyle
2
Standard
70
0
3

62
256
51
90
52
90
71
2
49
-0.5
62
256
6
ByLayer
49
0.5
62
256
6
ByLayer
0
RASTERVARIABLES
5
21f
330

100
AcDbRasterVariables
90
0
70
1
71
1
72
1
0
ENDSEC
0
EOF
