0
SECTION
2
HEADER
9
$ACADVER
1
AC1015
9
$DWGCODEPAGE
3
ANSI_1252
9
$HANDSEED
5
237
9
$ANGBASE
50
0
9
$ANGDIR
70
0
9
$ATTMODE
70
1
9
$AUNITS
70
0
9
$AUPREC
70
0
9
$CECOLOR
62
256
9
$CELTSCALE
40
1
9
$CELTYPE
6
ByLayer
9
$CELWEIGHT
370
18
9
$CLAYER
8
0
9
$CMLJUST
70
0
9
$CMLSCALE
40
1
9
$CMLSTYLE
2
Standard
9
$DIMSTYLE
2
Standard
9
$TEXTSIZE
40
0.2
9
$TEXTSTYLE
7
Standard
9
$LUNITS
70
2
9
$LUPREC
70
4
9
$EXTNAMES
290
1
9
$INSUNITS
70
4
9
$LTSCALE
40
1
9
$LWDISPLAY
290
1
9
$PDMODE
70
0
9
$PDSIZE
40
0
9
$PLINEGEN
70
0
0
ENDSEC
0
SECTION
2
CLASSES
0
CLASS
1
RASTERVARIABLES
2
AcDbRasterVariables
3
ISM
90
0
280
0
281
0
0
ENDSEC
0
SECTION
2
TABLES
0
TABLE
2
VPORT
5
22d
100
AcDbSymbolTable
0
VPORT
5
1
100
AcDbSymbolTableRecord
100
AcDbViewportTableRecord
2
*Active
70
0
10
0
20
0
11
1
21
1
12
-1
22
1
13
0
23
0
14
0.5
24
0.5
15
10
25
10
16
0
26
0
36
1
17
0
27
0
37
0
0
ENDTAB
0
TABLE
2
LTYPE
5
22e
100
AcDbSymbolTable
0
LTYPE
5
14
100
AcDbSymbolTableRecord
100
AcDbLinetypeTableRecord
70
0
2
ByBlock
3

72
65
73
0
40
0
0
LTYPE
5
15
100
AcDbSymbolTableRecord
100
AcDbLinetypeTableRecord
70
0
2
ByLayer
3

72
65
73
0
40
0
0
LTYPE
5
16
100
AcDbSymbolTableRecord
100
AcDbLinetypeTableRecord
70
0
2
CONTINUOUS
3
Solid line
72
65
73
0
40
0
0
LTYPE
5
6A
100
AcDbSymbolTableRecord
100
AcDbLinetypeTableRecord
70
0
2
CENTER
3
____ _ ____ _ ____ _ ____
72
65
73
4
40
47.5
49
22
74
0
49
-8.5
74
0
49
8.5
74
0
49
-8.5
74
0
0
LTYPE
5
6B
100
AcDbSymbolTableRecord
100
AcDbLinetypeTableRecord
70
0
2
DASHED
3
__ __ __ __ __ __ __ __ __
72
65
73
2
40
25.72
49
12.86
74
0
49
-12.86
74
0
0
ENDTAB
0
TABLE
2
LAYER
5
22f
100
AcDbSymbolTable
0
LAYER
5
10
100
AcDbSymbolTableRecord
100
AcDbLayerTableRecord
2
0
70
0
62
7
6
CONTINUOUS
290
1
370
-3
390
0
0
LAYER
5
6D
100
AcDbSymbolTableRecord
100
AcDbLayerTableRecord
2
80
70
0
62
-6
6
CONTINUOUS
290
1
370
-3
390
0
0
LAYER
5
6F
100
AcDbSymbolTableRecord
100
AcDbLayerTableRecord
2
81
70
0
62
-3
6
CONTINUOUS
290
1
370
-3
390
0
0
LAYER
5
72
100
AcDbSymbolTableRecord
100
AcDbLayerTableRecord
2
1
70
0
62
4
6
CONTINUOUS
290
1
370
-3
390
0
0
LAYER
5
91
100
AcDbSymbolTableRecord
100
AcDbLayerTableRecord
2
4
70
0
62
-2
6
CENTER
290
1
370
-3
390
0
0
LAYER
5
18D
100
AcDbSymbolTableRecord
100
AcDbLayerTableRecord
2
2
70
0
62
7
6
CONTINUOUS
290
1
370
-3
390
0
0
LAYER
5
219
100
AcDbSymbolTableRecord
100
AcDbLayerTableRecord
2
SK1
70
0
62
4
6
CONTINUOUS
290
1
370
-3
390
0
0
LAYER
5
21a
100
AcDbSymbolTableRecord
100
AcDbLayerTableRecord
2
SK4
70
0
62
2
6
CENTER
290
1
370
-3
390
0
0
LAYER
5
21b
100
AcDbSymbolTableRecord
100
AcDbLayerTableRecord
2
SK6
70
0
62
5
6
CONTINUOUS
290
1
370
-3
390
0
0
LAYER
5
21c
100
AcDbSymbolTableRecord
100
AcDbLayerTableRecord
2
SK2
70
0
62
7
6
CONTINUOUS
290
1
370
-3
390
0
0
ENDTAB
0
TABLE
2
STYLE
5
230
100
AcDbSymbolTable
0
STYLE
5
11
100
AcDbSymbolTableRecord
100
AcDbTextStyleTableRecord
2
Standard
3
txt
70
0
71
0
40
0
41
1
42
0
50
0
0
STYLE
5
188
100
AcDbSymbolTableRecord
100
AcDbTextStyleTableRecord
2
iso_b_vert
3
simplex.shx
70
0
71
0
40
0
41
1
42
0
50
0
0
STYLE
5
189
100
AcDbSymbolTableRecord
100
AcDbTextStyleTableRecord
2
DWGDirectTextStyle
3
simplex
70
0
71
0
40
0
41
1
42
0
50
0
0
ENDTAB
0
TABLE
2
DIMSTYLE
5
231
100
AcDbSymbolTable
100
AcDbDimStyleTable
0
DIMSTYLE
105
27
100
AcDbSymbolTableRecord
100
AcDbDimStyleTableRecord
2
Standard
70
0
3
<>
41
0.18
42
0.0625
44
0.18
140
0.18
147
0.09
73
0
74
0
77
1
271
2
275
0
278
52
280
0
340
11
0
ENDTAB
0
TABLE
2
VIEW
5
232
100
AcDbSymbolTable
0
ENDTAB
0
TABLE
2
UCS
5
233
100
AcDbSymbolTable
0
ENDTAB
0
TABLE
2
APPID
5
234
100
AcDbSymbolTable
0
APPID
5
12
100
AcDbSymbolTableRecord
100
AcDbRegAppTableRecord
2
ACAD
70
0
0
ENDTAB
0
TABLE
2
BLOCK_RECORD
5
235
100
AcDbSymbolTable
0
BLOCK_RECORD
5
1F
100
AcDbSymbolTableRecord
100
AcDbBlockTableRecord
2
*Model_Space
340
0
70
0
0
BLOCK_RECORD
5
1B
100
AcDbSymbolTableRecord
100
AcDbBlockTableRecord
2
*Paper_Space
340
0
70
0
0
BLOCK_RECORD
5
23
100
AcDbSymbolTableRecord
100
AcDbBlockTableRecord
2
*Paper_Space0
340
0
70
0
0
BLOCK_RECORD
5
18B
100
AcDbSymbolTableRecord
100
AcDbBlockTableRecord
2
DimnDraft3D1
340
0
70
0
0
BLOCK_RECORD
5
196
100
AcDbSymbolTableRecord
100
AcDbBlockTableRecord
2
DimnDraft3D2
340
0
70
0
0
BLOCK_RECORD
5
1A0
100
AcDbSymbolTableRecord
100
AcDbBlockTableRecord
2
DimnDraft3D3
340
0
70
0
0
BLOCK_RECORD
5
1AB
100
AcDbSymbolTableRecord
100
AcDbBlockTableRecord
2
DimnDraft3D4
340
0
70
0
0
BLOCK_RECORD
5
1B5
100
AcDbSymbolTableRecord
100
AcDbBlockTableRecord
2
DimnDraft3D5
340
0
70
0
0
ENDTAB
0
ENDSEC
0
SECTION
2
BLOCKS
0
BLOCK
5
20
100
AcDbEntity
8
0
100
AcDbBlockBegin
2
*Model_Space
70
0
10
0
20
0
30
0
3
*Model_Space
0
ENDBLK
5
21
100
AcDbEntity
8
0
100
AcDbBlockEnd
0
BLOCK
5
1C
100
AcDbEntity
8
0
100
AcDbBlockBegin
2
*Paper_Space
70
0
10
0
20
0
30
0
3
*Paper_Space
0
ENDBLK
5
1D
100
AcDbEntity
8
0
100
AcDbBlockEnd
0
BLOCK
5
24
100
AcDbEntity
8
0
100
AcDbBlockBegin
2
*Paper_Space0
70
0
10
0
20
0
30
0
3
*Paper_Space0
0
ENDBLK
5
25
100
AcDbEntity
8
0
100
AcDbBlockEnd
0
BLOCK
5
193
100
AcDbEntity
8
0
100
AcDbBlockBegin
2
DimnDraft3D1
70
0
10
0
20
0
30
0
3
DimnDraft3D1
0
MTEXT
5
18C
100
AcDbEntity
8
2
62
256
6
ByLayer
370
13
48
1
60
0
100
AcDbMText
10
98.983572
20
-26.249886
30
0
210
0
220
0
230
1
1
\W0.6864;153.0
40
3
41
0
44
1.084337
50
0
71
7
72
5
7
iso_b_vert
0
LINE
5
18E
100
AcDbEntity
8
2
62
256
6
ByLayer
370
13
48
1
60
0
100
AcDbLine
10
179
20
-1.5875
30
0
11
179
21
-29
31
0
39
0
210
0
220
0
230
1
0
LINE
5
18F
100
AcDbEntity
8
2
62
256
6
ByLayer
370
13
48
1
60
0
100
AcDbLine
10
26
20
-15.5875
30
0
11
26
21
-29
31
0
39
0
210
0
220
0
230
1
0
LINE
5
190
100
AcDbEntity
8
2
62
256
6
ByLayer
370
13
48
1
60
0
100
AcDbLine
10
179
20
-27
30
0
11
26
21
-27
31
0
39
0
210
0
220
0
230
1
0
SOLID
5
191
100
AcDbEntity
8
2
62
256
6
ByLayer
370
13
48
1
60
0
100
AcDbTrace
10
179
20
-27
30
0
11
175.500002
21
-27.460784
31
0
12
175.499998
22
-26.539216
32
0
13
179
23
-27
33
0
39
0
210
0
220
0
230
1
0
SOLID
5
192
100
AcDbEntity
8
2
62
256
6
ByLayer
370
13
48
1
60
0
100
AcDbTrace
10
26
20
-27
30
0
11
29.499998
21
-26.539216
31
0
12
29.500002
22
-27.460784
32
0
13
26
23
-27
33
0
39
0
210
0
220
0
230
1
0
ENDBLK
5
194
100
AcDbEntity
8
0
100
AcDbBlockEnd
0
BLOCK
5
19D
100
AcDbEntity
8
0
100
AcDbBlockBegin
2
DimnDraft3D2
70
0
10
0
20
0
30
0
3
DimnDraft3D2
0
MTEXT
5
197
100
AcDbEntity
8
2
62
256
6
ByLayer
370
13
48
1
60
0
100
AcDbMText
10
100.425629
20
21.750114
30
0
210
0
220
0
230
1
1
\W0.7091;149.8
40
3
41
0
44
1.084337
50
0
71
7
72
5
7
iso_b_vert
0
LINE
5
198
100
AcDbEntity
8
2
62
256
6
ByLayer
370
13
48
1
60
0
100
AcDbLine
10
179
20
1.5875
30
0
11
179
21
23
31
0
39
0
210
0
220
0
230
1
0
LINE
5
199
100
AcDbEntity
8
2
62
256
6
ByLayer
370
13
48
1
60
0
100
AcDbLine
10
29.2
20
15.5875
30
0
11
29.2
21
23
31
0
39
0
210
0
220
0
230
1
0
LINE
5
19A
100
AcDbEntity
8
2
62
256
6
ByLayer
370
13
48
1
60
0
100
AcDbLine
10
179
20
21
30
0
11
29.2
21
21
31
0
39
0
210
0
220
0
230
1
0
SOLID
5
19B
100
AcDbEntity
8
2
62
256
6
ByLayer
370
13
48
1
60
0
100
AcDbTrace
10
179
20
21
30
0
11
175.500002
21
20.539216
31
0
12
175.499998
22
21.460784
32
0
13
179
23
21
33
0
39
0
210
0
220
0
230
1
0
SOLID
5
19C
100
AcDbEntity
8
2
62
256
6
ByLayer
370
13
48
1
60
0
100
AcDbTrace
10
29.2
20
21
30
0
11
32.699998
21
21.460784
31
0
12
32.700002
22
20.539216
32
0
13
29.2
23
21
33
0
39
0
210
0
220
0
230
1
0
ENDBLK
5
19E
100
AcDbEntity
8
0
100
AcDbBlockEnd
0
BLOCK
5
1A8
100
AcDbEntity
8
0
100
AcDbBlockBegin
2
DimnDraft3D3
70
0
10
0
20
0
30
0
3
DimnDraft3D3
0
MTEXT
5
1A1
100
AcDbEntity
8
SK2
62
256
6
ByLayer
370
13
48
1
60
0
100
AcDbMText
10
-32.770456
20
-38.249886
30
0
210
0
220
0
230
1
1
\W0.7346;60.0
40
3
41
0
44
1.084337
50
0
71
7
72
5
7
iso_b_vert
0
LINE
5
1A3
100
AcDbEntity
8
SK2
62
256
6
ByLayer
370
13
48
1
60
0
100
AcDbLine
10
-60
20
-17.5875
30
0
11
-60
21
-41
31
0
39
0
210
0
220
0
230
1
0
LINE
5
1A4
100
AcDbEntity
8
SK2
62
256
6
ByLayer
370
13
48
1
60
0
100
AcDbLine
10
0
20
-21.5875
30
0
11
0
21
-41
31
0
39
0
210
0
220
0
230
1
0
LINE
5
1A5
100
AcDbEntity
8
SK2
62
256
6
ByLayer
370
13
48
1
60
0
100
AcDbLine
10
-60
20
-39
30
0
11
0
21
-39
31
0
39
0
210
0
220
0
230
1
0
SOLID
5
1A6
100
AcDbEntity
8
SK2
62
256
6
ByLayer
370
13
48
1
60
0
100
AcDbTrace
10
-60
20
-39
30
0
11
-56.500002
21
-38.539216
31
0
12
-56.499998
22
-39.460784
32
0
13
-60
23
-39
33
0
39
0
210
0
220
0
230
1
0
SOLID
5
1A7
100
AcDbEntity
8
SK2
62
256
6
ByLayer
370
13
48
1
60
0
100
AcDbTrace
10
0
20
-39
30
0
11
-3.499998
21
-39.460784
31
0
12
-3.500002
22
-38.539216
32
0
13
0
23
-39
33
0
39
0
210
0
220
0
230
1
0
ENDBLK
5
1A9
100
AcDbEntity
8
0
100
AcDbBlockEnd
0
BLOCK
5
1B2
100
AcDbEntity
8
0
100
AcDbBlockBegin
2
DimnDraft3D4
70
0
10
0
20
0
30
0
3
DimnDraft3D4
0
MTEXT
5
1AC
100
AcDbEntity
8
2
62
256
6
ByLayer
370
13
48
1
60
0
100
AcDbMText
10
85.983572
20
-38.249886
30
0
210
0
220
0
230
1
1
\W0.6864;179.0
40
3
41
0
44
1.084337
50
0
71
7
72
5
7
iso_b_vert
0
LINE
5
1AD
100
AcDbEntity
8
2
62
256
6
ByLayer
370
13
48
1
60
0
100
AcDbLine
10
0
20
-21.5875
30
0
11
0
21
-41
31
0
39
0
210
0
220
0
230
1
0
LINE
5
1AE
100
AcDbEntity
8
2
62
256
6
ByLayer
370
13
48
1
60
0
100
AcDbLine
10
179
20
-1.5875
30
0
11
179
21
-41
31
0
39
0
210
0
220
0
230
1
0
LINE
5
1AF
100
AcDbEntity
8
2
62
256
6
ByLayer
370
13
48
1
60
0
100
AcDbLine
10
0
20
-39
30
0
11
179
21
-39
31
0
39
0
210
0
220
0
230
1
0
SOLID
5
1B0
100
AcDbEntity
8
2
62
256
6
ByLayer
370
13
48
1
60
0
100
AcDbTrace
10
0
20
-39
30
0
11
3.499998
21
-38.539216
31
0
12
3.500002
22
-39.460784
32
0
13
0
23
-39
33
0
39
0
210
0
220
0
230
1
0
SOLID
5
1B1
100
AcDbEntity
8
2
62
256
6
ByLayer
370
13
48
1
60
0
100
AcDbTrace
10
179
20
-39
30
0
11
175.500002
21
-39.460784
31
0
12
175.499998
22
-38.539216
32
0
13
179
23
-39
33
0
39
0
210
0
220
0
230
1
0
ENDBLK
5
1B3
100
AcDbEntity
8
0
100
AcDbBlockEnd
0
BLOCK
5
1BD
100
AcDbEntity
8
0
100
AcDbBlockBegin
2
DimnDraft3D5
70
0
10
0
20
0
30
0
3
DimnDraft3D5
0
MTEXT
5
1B6
100
AcDbEntity
8
SK2
62
256
6
ByLayer
370
13
48
1
60
0
100
AcDbMText
10
-67.750114
20
0.229544
30
0
210
0
220
0
230
1
1
\W0.7346;32.0
40
3
41
0
44
1.084337
50
90
71
7
72
5
7
iso_b_vert
0
MTEXT
5
1B7
100
AcDbEntity
8
SK2
62
256
6
ByLayer
370
13
48
1
60
0
100
AcDbMText
10
-67.750114
20
-4.247019
30
0
210
0
220
0
230
1
1
%%c
40
3
41
0
44
1.084337
50
90
71
7
72
5
7
iso_b_vert
0
LINE
5
1B8
100
AcDbEntity
8
SK2
62
256
6
ByLayer
370
13
48
1
60
0
100
AcDbLine
10
-61.5875
20
16
30
0
11
-68.25
21
16
31
0
39
0
210
0
220
0
230
1
0
LINE
5
1B9
100
AcDbEntity
8
SK2
62
256
6
ByLayer
370
13
48
1
60
0
100
AcDbLine
10
-61.5875
20
-16
30
0
11
-68.25
21
-16
31
0
39
0
210
0
220
0
230
1
0
LINE
5
1BA
100
AcDbEntity
8
SK2
62
256
6
ByLayer
370
13
48
1
60
0
100
AcDbLine
10
-66.25
20
16
30
0
11
-66.25
21
-16
31
0
39
0
210
0
220
0
230
1
0
SOLID
5
1BB
100
AcDbEntity
8
SK2
62
256
6
ByLayer
370
13
48
1
60
0
100
AcDbTrace
10
-66.25
20
16
30
0
11
-65.789216
21
12.500002
31
0
12
-66.710784
22
12.499998
32
0
13
-66.25
23
16
33
0
39
0
210
0
220
0
230
1
0
SOLID
5
1BC
100
AcDbEntity
8
SK2
62
256
6
ByLayer
370
13
48
1
60
0
100
AcDbTrace
10
-66.25
20
-16
30
0
11
-66.710784
21
-12.500002
31
0
12
-65.789216
22
-12.499998
32
0
13
-66.25
23
-16
33
0
39
0
210
0
220
0
230
1
0
ENDBLK
5
1BE
100
AcDbEntity
8
0
100
AcDbBlockEnd
0
ENDSEC
0
SECTION
2
ENTITIES
0
ARC
5
DF
100
AcDbEntity
8
SK1
62
256
6
ByLayer
370
18
48
1
60
0
100
AcDbCircle
39
0
10
57.946236
20
-16.496
30
0
40
0.800000000000005
210
0
220
0
230
-1
100
AcDbArc
50
51
51
130.534532
0
ARC
5
E0
100
AcDbEntity
8
SK1
62
256
6
ByLayer
370
18
48
1
60
0
100
AcDbCircle
39
0
10
57.946236
20
16.496
30
0
40
0.800000000000005
210
0
220
0
230
-1
100
AcDbArc
50
229.465468
51
309
0
ARC
5
E1
100
AcDbEntity
8
SK1
62
256
6
ByLayer
370
18
48
1
60
0
100
AcDbCircle
39
0
10
0.975195
20
16.146
30
0
40
0.4
210
0
220
0
230
-1
100
AcDbArc
50
270
51
295
0
ARC
5
E2
100
AcDbEntity
8
SK1
62
256
6
ByLayer
370
18
48
1
60
0
100
AcDbCircle
39
0
10
0.975195
20
-16.146
30
0
40
0.4
210
0
220
0
230
-1
100
AcDbArc
50
65
51
90
0
ARC
5
E3
100
AcDbEntity
8
1
62
256
6
ByLayer
370
18
48
1
60
0
100
AcDbCircle
39
0
10
-26
20
-21.5
30
0
40
7.99999999999999
210
0
220
0
230
-1
100
AcDbArc
50
67.875433
51
90
0
ARC
5
E4
100
AcDbEntity
8
1
62
256
6
ByLayer
370
18
48
1
60
0
100
AcDbCircle
39
0
10
-26
20
21.5
30
0
40
7.99999999999999
210
0
220
0
230
-1
100
AcDbArc
50
270
51
292.124567
0
ARC
5
E5
100
AcDbEntity
8
SK1
62
256
6
ByLayer
370
18
48
1
60
0
100
AcDbCircle
39
0
10
0.15
20
16.146
30
0
40
0.4
210
0
220
0
230
-1
100
AcDbArc
50
247.975687
51
270
0
ARC
5
E6
100
AcDbEntity
8
SK1
62
256
6
ByLayer
370
18
48
1
60
0
100
AcDbCircle
39
0
10
0.15
20
-16.146
30
0
40
0.4
210
0
220
0
230
-1
100
AcDbArc
50
90
51
112.024313
0
ELLIPSE
5
E7
100
AcDbEntity
8
1
62
256
6
ByLayer
370
18
48
1
60
0
100
AcDbEllipse
10
179.011548
20
-0.016977
30
0
11
4.88126614683382
21
-14.0179353151138
31
0
210
0
220
0
230
1
40
0.077207
41
2.78971856203609
42
2.88798891751558
0
ELLIPSE
5
E8
100
AcDbEntity
8
1
62
256
6
ByLayer
370
13
48
1
60
0
100
AcDbEllipse
10
144.9
20
13.574992
30
0
11
-0.319232519958922
21
-8.99433658466263
31
0
210
0
220
0
230
1
40
0.34039
41
0.944485569100139
42
1.28028404554604
0
ELLIPSE
5
E9
100
AcDbEntity
8
1
62
256
6
ByLayer
370
13
48
1
60
0
100
AcDbEllipse
10
175.06329
20
4.747322
30
0
11
-0.0927998585703029
21
-0.0203269832816326
31
0
210
0
220
0
230
1
40
0.128904
41
-1.68832935400059
42
-1.40213884336381
0
ELLIPSE
5
EA
100
AcDbEntity
8
1
62
256
6
ByLayer
370
18
48
1
60
0
100
AcDbEllipse
10
178.947768
20
0.270039
30
0
11
0.0446240258667352
21
-0.146773164561865
31
0
210
0
220
0
230
1
40
0.05855
41
-2.43183944715273
42
-1.75038094546472
0
ELLIPSE
5
EB
100
AcDbEntity
8
1
62
256
6
ByLayer
370
18
48
1
60
0
100
AcDbEllipse
10
178.947768
20
-0.270039
30
0
11
0.0446240260104814
21
0.146773164970149
31
0
210
0
220
0
230
1
40
0.05855
41
1.75038094737919
42
2.43183944753109
0
ELLIPSE
5
EC
100
AcDbEntity
8
1
62
256
6
ByLayer
370
18
48
1
60
0
100
AcDbEllipse
10
26.1
20
2.247933
30
0
11
-1.77073252885103
21
-8.82408671258781
31
0
210
0
220
0
230
1
40
0.032857
41
0.255502886447594
42
0.255736967526059
0
ELLIPSE
5
ED
100
AcDbEntity
8
1
62
256
6
ByLayer
370
13
48
1
60
0
100
AcDbEllipse
10
175.06262
20
4.750373
30
0
11
-0.0927699273740774
21
-0.0204631516391879
31
0
210
0
220
0
230
1
40
0.128734
41
-1.68851840491612
42
-1.40232874382076
0
ELLIPSE
5
EE
100
AcDbEntity
8
1
62
256
6
ByLayer
370
18
48
1
60
0
100
AcDbEllipse
10
179.005308
20
0
30
0
11
4.78910878988029
21
13.7532805312732
31
0
210
0
220
0
230
1
40
0.077207
41
-3.09734362474046
42
-2.88603410007919
0
ELLIPSE
5
EF
100
AcDbEntity
8
1
62
256
6
ByLayer
370
18
48
1
60
0
100
AcDbEllipse
10
27.137155
20
6.89391
30
0
11
2.99770109277329
21
16.9098939701214
31
0
210
0
220
0
230
1
40
0.006999
41
-1.40223810905836
42
-1.37344735416854
0
ELLIPSE
5
F0
100
AcDbEntity
8
1
62
256
6
ByLayer
370
18
48
1
60
0
100
AcDbEllipse
10
179.005664
20
0
30
0
11
5.56362807072435
21
-13.6199744966995
31
0
210
0
220
0
230
1
40
0.349717
41
2.9823258253194
42
2.99969757948868
0
ELLIPSE
5
F1
100
AcDbEntity
8
1
62
256
6
ByLayer
370
13
48
1
60
0
100
AcDbEllipse
10
177.452175
20
1.315477
30
0
11
-0.0549166112544875
21
-0.0775188093840682
31
0
210
0
220
0
230
1
40
0.550533
41
-2.35076024902877
42
-1.67246952219619
0
ELLIPSE
5
F2
100
AcDbEntity
8
1
62
256
6
ByLayer
370
18
48
1
60
0
100
AcDbEllipse
10
190.119229
20
0
30
0
11
18.577842404797
21
12.5929601940813
31
0
210
0
220
0
230
1
40
0.290406
41
2.96003051453386
42
-3.10291238841509
0
ELLIPSE
5
F3
100
AcDbEntity
8
1
62
256
6
ByLayer
370
18
48
1
60
0
100
AcDbEllipse
10
25.014772
20
-3.254022
30
0
11
2.99802714598021
21
13.7322870443304
31
0
210
0
220
0
230
1
40
0.007925
41
-1.85627110158096
42
-1.79306587458757
0
ELLIPSE
5
F4
100
AcDbEntity
8
1
62
256
6
ByLayer
370
18
48
1
60
0
100
AcDbEllipse
10
179.011548
20
0.016977
30
0
11
4.88126614011404
21
14.0179352941124
31
0
210
0
220
0
230
1
40
0.077207
41
-2.88798891733201
42
-2.78971856177549
0
ELLIPSE
5
F5
100
AcDbEntity
8
1
62
256
6
ByLayer
370
13
48
1
60
0
100
AcDbEllipse
10
26.1
20
2.247933
30
0
11
-1.77073252885103
21
-8.82408671258781
31
0
210
0
220
0
230
1
40
0.032857
41
0.255736967526059
42
2.58489067158291
0
ELLIPSE
5
F6
100
AcDbEntity
8
1
62
256
6
ByLayer
370
18
48
1
60
0
100
AcDbEllipse
10
144.9
20
13.574992
30
0
11
-0.319232519958922
21
-8.99433658466263
31
0
210
0
220
0
230
1
40
0.34039
41
1.28028404554604
42
1.28109445953472
0
ELLIPSE
5
F7
100
AcDbEntity
8
1
62
256
6
ByLayer
370
18
48
1
60
0
100
AcDbEllipse
10
152.064224
20
-86.374082
30
0
11
79.1800663522555
21
-0.11085039851789
31
0
210
0
220
0
230
1
40
0.930641
41
1.45217911801358
42
1.45391876149995
0
ELLIPSE
5
F8
100
AcDbEntity
8
1
62
256
6
ByLayer
370
18
48
1
60
0
100
AcDbEllipse
10
169.175593
20
-1.678954
30
0
11
0.443136405300384
21
-1.76265040954384
31
0
210
0
220
0
230
1
40
0.321335
41
0
42
6.28318530717959
0
ELLIPSE
5
F9
100
AcDbEntity
8
1
62
256
6
ByLayer
370
18
48
1
60
0
100
AcDbEllipse
10
155.17
20
-6.208867
30
0
11
-3.02999999999998
21
3.71055725208178E-16
31
0
210
0
220
0
230
1
40
0.702153
41
0.902226177084232
42
2.24152653844868
0
ELLIPSE
5
FA
100
AcDbEntity
8
1
62
256
6
ByLayer
370
18
48
1
60
0
100
AcDbEllipse
10
26.1
20
2.247933
30
0
11
-1.77073252885103
21
-8.82408671258781
31
0
210
0
220
0
230
1
40
0.032857
41
2.58489067158291
42
2.58514301099772
0
ELLIPSE
5
FB
100
AcDbEntity
8
1
62
256
6
ByLayer
370
18
48
1
60
0
100
AcDbEllipse
10
157.715
20
0
30
0
11
13.0815861161138
21
4.26163619378922
31
0
210
0
220
0
230
1
40
1
41
-1.60424516334145
42
-1.53430630527137
0
ELLIPSE
5
FC
100
AcDbEntity
8
1
62
256
6
ByLayer
370
18
48
1
60
0
100
AcDbEllipse
10
154.96
20
-6.208867
30
0
11
2.09999999999999
21
0
31
0
210
0
220
0
230
1
40
0.702153
41
-2.03369037034971
42
-1.0058005596788
0
ELLIPSE
5
FD
100
AcDbEntity
8
1
62
256
6
ByLayer
370
13
48
1
60
0
100
AcDbEllipse
10
177.474967
20
1.299439
30
0
11
-0.0544235218676433
21
-0.077865783676286
31
0
210
0
220
0
230
1
40
0.550074
41
-2.3574061189031
42
-1.67594761247646
0
ELLIPSE
5
FE
100
AcDbEntity
8
1
62
256
6
ByLayer
370
18
48
1
60
0
100
AcDbEllipse
10
179.005664
20
0
30
0
11
5.56362807073242
21
13.6199744967206
31
0
210
0
220
0
230
1
40
0.349717
41
2.92827441175804
42
-2.98232582531953
0
ELLIPSE
5
FF
100
AcDbEntity
8
1
62
256
6
ByLayer
370
18
48
1
60
0
100
AcDbEllipse
10
179.005308
20
0
30
0
11
4.7891087874906
21
-13.7532805241777
31
0
210
0
220
0
230
1
40
0.077207
41
3.01789451928245
42
3.09734362472889
0
ELLIPSE
5
100
100
AcDbEntity
8
1
62
256
6
ByLayer
370
18
48
1
60
0
100
AcDbEllipse
10
146.696501
20
11.805774
30
0
11
2.74476144937569
21
9.15434140986284
31
0
210
0
220
0
230
1
40
0.132276
41
-1.63002341864885
42
-1.55391966639361
0
ELLIPSE
5
101
100
AcDbEntity
8
1
62
256
6
ByLayer
370
13
48
1
60
0
100
AcDbEllipse
10
26.1
20
2.247933
30
0
11
1.4634986148249
21
8.88021237383463
31
0
210
0
220
0
230
1
40
0.697438
41
0.636860818564042
42
2.88064835890511
0
POINT
5
6C
100
AcDbEntity
8
80
62
256
6
ByLayer
370
18
48
1
60
0
100
AcDbPoint
10
0
20
0
30
0
39
0
210
0
220
0
230
1
50
360
0
POINT
5
6E
100
AcDbEntity
8
81
62
256
6
ByLayer
370
18
48
1
60
0
100
AcDbPoint
10
161.4
20
0
30
0
39
0
210
0
220
0
230
1
50
360
0
SPLINE
5
102
100
AcDbEntity
8
1
62
256
6
ByLayer
370
18
48
1
60
0
100
AcDbSpline
70
4
71
3
72
15
73
11
40
0
40
0
40
0
40
0
40
0.143401606623541
40
0.286752953809748
40
0.42914613702828
40
0.569592113955429
40
0.678219340475458
40
0.785501835322588
40
0.892236375303546
40
1
40
1
40
1
40
1
41
1
10
22.8943912263771
20
14.1267243273294
30
0
41
1
10
22.1415189021467
20
14.4432570744895
30
0
41
1
10
20.64828433496
20
15.1021906704699
30
0
41
1
10
18.4666381694136
20
16.2022714927436
30
0
41
1
10
16.303746751944
20
17.3000637230564
30
0
41
1
10
14.2876225144382
20
18.2507103767624
30
0
41
1
10
12.4025451152224
20
19.0036543234983
30
0
41
1
10
10.6473731939218
20
19.5499930419625
30
0
41
1
10
8.84607555721269
20
19.9143663960887
30
0
41
1
10
7.62909461371385
20
19.9961670102577
30
0
41
1
10
7.01209999999998
20
20
30
0
0
SPLINE
5
103
100
AcDbEntity
8
1
62
256
6
ByLayer
370
18
48
1
60
0
100
AcDbSpline
70
4
71
3
72
15
73
11
40
0
40
0
40
0
40
0
40
0.109704829330226
40
0.218378607654336
40
0.327662086923967
40
0.438363553951381
40
0.550651207752702
40
0.699628604069618
40
0.849766583062125
40
1
40
1
40
1
40
1
41
1
10
7.01209999999998
20
-20
30
0
41
1
10
7.64031643703055
20
-19.9959254836114
30
0
41
1
10
8.87918890672569
20
-19.9112588449931
30
0
41
1
10
10.7123456555919
20
-19.5341329091034
30
0
41
1
10
12.4978627104397
20
-18.970074379137
30
0
41
1
10
14.2525475945934
20
-18.2606222601693
30
0
41
1
10
16.1714218791272
20
-17.3649300997114
30
0
41
1
10
18.2607642828826
20
-16.3078589396589
30
0
41
1
10
20.5425278307855
20
-15.1509967890885
30
0
41
1
10
22.1060303312182
20
-14.4592386321573
30
0
41
1
10
22.8943912263771
20
-14.1267243273294
30
0
0
SPLINE
5
104
100
AcDbEntity
8
1
62
256
6
ByLayer
370
18
48
1
60
0
100
AcDbSpline
70
4
71
3
72
71
73
67
40
0
40
0
40
0
40
0
40
0.0129835085665167
40
0.0347134175458009
40
0.0596668272347141
40
0.0880131361715713
40
0.107624346448748
40
0.127956487765643
40
0.146031990120148
40
0.161506748201471
40
0.174380988919624
40
0.183123106875145
40
0.190059450036712
40
0.195190118259403
40
0.19879429917837
40
0.204018439590906
40
0.21174582131608
40
0.221324775408358
40
0.233014632694363
40
0.244886125016054
40
0.256251142417498
40
0.267110481812193
40
0.288475491706487
40
0.308106199270626
40
0.329395658818698
40
0.340218410536143
40
0.351545353169007
40
0.363376702121659
40
0.375182388546196
40
0.385035831950694
40
0.393520326975314
40
0.399354430626028
40
0.403542933012475
40
0.40910256932523
40
0.416236750589498
40
0.424945402155928
40
0.435228433470444
40
0.447085738905556
40
0.479630584714771
40
0.513555540315955
40
0.548724377192004
40
0.562881030159395
40
0.576876201669052
40
0.588594462580289
40
0.597684271336288
40
0.604145698971118
40
0.608707988892836
40
0.6162005531483
40
0.626453611973917
40
0.639467204648776
40
0.655201880675672
40
0.671596553514039
40
0.702334879171398
40
0.731131190365222
40
0.755606591999526
40
0.777494759051498
40
0.796239011192175
40
0.812330301964853
40
0.827138438140894
40
0.838371167660498
40
0.854093894677268
40
0.874305680101289
40
0.899005020324216
40
0.928189650688716
40
0.961856232384486
40
1
40
1
40
1
40
1
41
1
10
94.6738771169598
20
13.1981084948892
30
0
41
1
10
94.4115234207932
20
13.1973699971655
30
0
41
1
10
93.7040539174273
20
13.1951855266297
30
0
41
1
10
92.4449845427699
20
13.1876369688779
30
0
41
1
10
90.8563623015462
20
13.1841549557427
30
0
41
1
10
89.3094015119026
20
13.1857932026796
30
0
41
1
10
87.8646698376897
20
13.1900524954561
30
0
41
1
10
86.6404485975735
20
13.1942541044996
30
0
41
1
10
85.5030165068254
20
13.196941105771
30
0
41
1
10
84.5229768442738
20
13.1985842533984
30
0
41
1
10
83.739822860136
20
13.199408838092
30
0
41
1
10
83.1368307612015
20
13.199774477882
30
0
41
1
10
82.6972398747736
20
13.1999039119287
30
0
41
1
10
82.3660788222376
20
13.1999286499548
30
0
41
1
10
82.0707996533086
20
13.1999112529283
30
0
41
1
10
81.7200631017769
20
13.199874647253
30
0
41
1
10
81.2427244743995
20
13.1998049128828
30
0
41
1
10
80.6282722190296
20
13.1996889638718
30
0
41
1
10
79.9259786974412
20
13.1995204473049
30
0
41
1
10
79.1856966298265
20
13.1993384178688
30
0
41
1
10
78.4629048334878
20
13.1991899321137
30
0
41
1
10
77.5388033094437
20
13.1990617881393
30
0
41
1
10
76.4393302632152
20
13.199059540838
30
0
41
1
10
75.1198395856082
20
13.1992672893525
30
0
41
1
10
74.0230955911842
20
13.1992358072587
30
0
41
1
10
73.1022661403786
20
13.1992073075377
30
0
41
1
10
72.3818820491653
20
13.1991830172
30
0
41
1
10
71.6406368236068
20
13.1991662335123
30
0
41
1
10
70.930623106235
20
13.1991609859766
30
0
41
1
10
70.2915656050834
20
13.1991667493722
30
0
41
1
10
69.7791079226675
20
13.1991784884201
30
0
41
1
10
69.3867494320488
20
13.1991918102001
30
0
41
1
10
69.0563988689779
20
13.1992055844404
30
0
41
1
10
68.6984860008058
20
13.1992232367666
30
0
41
1
10
68.2447439521144
20
13.1992499973754
30
0
41
1
10
67.6908638112388
20
13.1992887541981
30
0
41
1
10
67.0368513180964
20
13.1993421288478
30
0
41
1
10
65.8775007399273
20
13.1994497127794
30
0
41
1
10
64.216930580383
20
13.1996315842107
30
0
41
1
10
62.0621452740022
20
13.1998609756245
30
0
41
1
10
60.2971980348071
20
13.1999760789848
30
0
41
1
10
58.9547712753317
20
13.1999833764737
30
0
41
1
10
58.1095073707603
20
13.19996570936
30
0
41
1
10
57.3716628681222
20
13.1999359083539
30
0
41
1
10
56.7935371759384
20
13.1999053170176
30
0
41
1
10
56.3671213099225
20
13.1998794759539
30
0
41
1
10
55.974567890735
20
13.1998538697785
30
0
41
1
10
55.5016302339905
20
13.1998208938422
30
0
41
1
10
54.8495211998582
20
13.1997720189839
30
0
41
1
10
54.0226757045047
20
13.1997063054428
30
0
41
1
10
53.0656252121286
20
13.1996280394554
30
0
41
1
10
51.7328022527609
20
13.1995206461252
30
0
41
1
10
50.123066401466
20
13.1994018434552
30
0
41
1
10
48.3420153039875
20
13.1992985225481
30
0
41
1
10
46.7485926844408
20
13.1992431195227
30
0
41
1
10
45.3682781976683
20
13.1992289461775
30
0
41
1
10
44.1657097950405
20
13.1992447846771
30
0
41
1
10
43.1132412262873
20
13.1992802250652
30
0
41
1
10
42.2200207711943
20
13.1993260722993
30
0
41
1
10
41.334614959954
20
13.1993838026507
30
0
41
1
10
40.3346493135367
20
13.1994622819534
30
0
41
1
10
39.049185203491
20
13.1995835090077
30
0
41
1
10
37.4783219361103
20
13.1997494729857
30
0
41
1
10
35.6222103224638
20
13.199935717939
30
0
41
1
10
33.481071015971
20
13.2000899632336
30
0
41
1
10
31.9586625925197
20
13.2000525526619
30
0
41
1
10
31.1499999998849
20
13.1999999945347
30
0
0
SPLINE
5
105
100
AcDbEntity
8
1
62
256
6
ByLayer
370
18
48
1
60
0
100
AcDbSpline
70
4
71
2
72
6
73
3
40
0
40
0
40
0
40
1
40
1
40
1
41
1
10
92.6516113419457
20
-1.66238930098223
30
0
41
1
10
92.7464606033041
20
-1.68053291587012
30
0
41
1
10
92.8413053230011
20
-1.6999385661733
30
0
0
SPLINE
5
106
100
AcDbEntity
8
1
62
256
6
ByLayer
370
18
48
1
60
0
100
AcDbSpline
70
4
71
3
72
72
73
68
40
0
40
0
40
0
40
0
40
0.0353824329814775
40
0.0670184223856928
40
0.0949041831234773
40
0.119036960699614
40
0.139414802920901
40
0.156036359117471
40
0.168900708374546
40
0.178746013585604
40
0.187086960834536
40
0.195859274378053
40
0.205079463778019
40
0.215137611139294
40
0.235592755827482
40
0.259181431972098
40
0.284802315378885
40
0.312055909805156
40
0.340941816208294
40
0.357715314128314
40
0.372580019793182
40
0.384637051773346
40
0.393886487163078
40
0.400328346668731
40
0.40521068536145
40
0.4124603387838
40
0.422086443677653
40
0.434089076260439
40
0.447730233097271
40
0.477715860025809
40
0.506836673669321
40
0.535092640452855
40
0.562345246713396
40
0.574816863193467
40
0.585567688948347
40
0.594597605202416
40
0.601906510978844
40
0.607494323945016
40
0.611965674849357
40
0.61878353701395
40
0.62757824477015
40
0.638807379100295
40
0.651781374585635
40
0.664335546565362
40
0.676312736721732
40
0.687713233204248
40
0.708785531612756
40
0.728916350492928
40
0.751226572365322
40
0.765455967071639
40
0.7804899650841
40
0.794956117011029
40
0.805976037543183
40
0.812552734546545
40
0.816629183530231
40
0.82093602906476
40
0.827079242519931
40
0.835058992546734
40
0.844875347477384
40
0.858802535444637
40
0.875281053841645
40
0.894311178872683
40
0.914705844359495
40
0.941597022847855
40
0.965749867335723
40
0.987260446946695
40
1
40
1
40
1
40
1
41
1
10
31.1499999998849
20
-13.1999999945347
30
0
41
1
10
31.8875410106985
20
-13.2000499991387
30
0
41
1
10
33.2845302316984
20
-13.200090113627
30
0
41
1
10
35.2627984679664
20
-13.1999655138509
30
0
41
1
10
37.00656931393
20
-13.1997990041161
30
0
41
1
10
38.5156648482542
20
-13.1996390490947
30
0
41
1
10
39.7899584903711
20
-13.1995117195556
30
0
41
1
10
40.8293624429664
20
-13.1994220414415
30
0
41
1
10
41.6492166404875
20
-13.19936241403
30
0
41
1
10
42.2964626499572
20
-13.1993227005571
30
0
41
1
10
42.8584111219012
20
-13.199293652361
30
0
41
1
10
43.40732929214
20
-13.1992704754189
30
0
41
1
10
43.9920424319495
20
-13.199251762647
30
0
41
1
10
44.8202831117637
20
-13.1992344523955
30
0
41
1
10
45.9480332750767
20
-13.1992307623882
30
0
41
1
10
47.4001861525173
20
-13.1992611914663
30
0
41
1
10
48.994053074452
20
-13.1993329821649
30
0
41
1
10
50.6983406282253
20
-13.1994423744682
30
0
41
1
10
52.2182051296535
20
-13.1995590724659
30
0
41
1
10
53.4798240887137
20
-13.1996619912955
30
0
41
1
10
54.3906467721365
20
-13.1997359231711
30
0
41
1
10
55.1446311043214
20
-13.1997945517117
30
0
41
1
10
55.7230420852896
20
-13.1998366356058
30
0
41
1
10
56.1518973071143
20
-13.1998656514878
30
0
41
1
10
56.5390674050003
20
-13.1998901369325
30
0
41
1
10
56.9926128519085
20
-13.199916387548
30
0
41
1
10
57.5945801533805
20
-13.1999459448486
30
0
41
1
10
58.3297777499989
20
-13.1999717526768
30
0
41
1
10
59.4893676563855
20
-13.1999899207901
30
0
41
1
10
61.0057844269323
20
-13.1999414621624
30
0
41
1
10
62.8268455434425
20
-13.1997815803154
30
0
41
1
10
64.5909371068249
20
-13.1995896472989
30
0
41
1
10
66.0079776421723
20
-13.1994374759028
30
0
41
1
10
67.0601251396676
20
-13.1993400049782
30
0
41
1
10
67.732422430337
20
-13.1992855430408
30
0
41
1
10
68.2971035355652
20
-13.199246604759
30
0
41
1
10
68.7541621488912
20
-13.1992202415508
30
0
41
1
10
69.1161979527536
20
-13.1992028871687
30
0
41
1
10
69.4679978334922
20
-13.1991887379192
30
0
41
1
10
69.8866447403357
20
-13.1991754886777
30
0
41
1
10
70.4461568752062
20
-13.1991643869905
30
0
41
1
10
71.1339926032232
20
-13.1991609872395
30
0
41
1
10
71.9001953989284
20
-13.1991707321962
30
0
41
1
10
72.6819770453768
20
-13.1991923738812
30
0
41
1
10
73.4309224858502
20
-13.1992184503067
30
0
41
1
10
74.3573542138623
20
-13.1992455862424
30
0
41
1
10
75.4534440512466
20
-13.1992363925424
30
0
41
1
10
76.7766178710266
20
-13.1990245353453
30
0
41
1
10
77.958089702342
20
-13.1991001894264
30
0
41
1
10
79.0330740428805
20
-13.1993001598647
30
0
41
1
10
79.9444190718574
20
-13.1995262142173
30
0
41
1
10
80.7886925406535
20
-13.199724767067
30
0
41
1
10
81.456696315244
20
-13.1998399183503
30
0
41
1
10
81.9081524866703
20
-13.1998954720454
30
0
41
1
10
82.2196133291608
20
-13.1999230482375
30
0
41
1
10
82.5215124833613
20
-13.1999243375584
30
0
41
1
10
82.9043872402235
20
-13.1998573446012
30
0
41
1
10
83.4015309574693
20
-13.1996386742914
30
0
41
1
10
84.0601850039339
20
-13.1991140834677
30
0
41
1
10
84.8951315051057
20
-13.1980355579024
30
0
41
1
10
85.9212330910231
20
-13.1960498801498
30
0
41
1
10
87.0812753851283
20
-13.1928753162027
30
0
41
1
10
88.4580349364085
20
-13.1880545362902
30
0
41
1
10
89.946129677651
20
-13.1845910614378
30
0
41
1
10
91.4598215447193
20
-13.1851080644087
30
0
41
1
10
92.673631859422
20
-13.1890395815768
30
0
41
1
10
93.3822593046862
20
-13.1930639060995
30
0
41
1
10
93.6432200936752
20
-13.1943869913149
30
0
0
SPLINE
5
107
100
AcDbEntity
8
1
62
256
6
ByLayer
370
18
48
1
60
0
100
AcDbSpline
70
4
71
3
72
8
73
4
40
0
40
0
40
0
40
0
40
1
40
1
40
1
40
1
41
1
10
94.3167975347388
20
-13.1972109450163
30
0
41
1
10
94.4387760251355
20
-13.1975971888503
30
0
41
1
10
94.5600400460628
20
-13.1979216369411
30
0
41
1
10
94.6807501423075
20
-13.1982146805682
30
0
0
SPLINE
5
108
100
AcDbEntity
8
SK1
62
256
6
ByLayer
370
18
48
1
60
0
100
AcDbSpline
70
4
71
3
72
70
73
66
40
0
40
0
40
0
40
0
40
0.0312500000000009
40
0.0312500000000009
40
0.0468750000000009
40
0.0468750000000009
40
0.0625000000000008
40
0.0625000000000008
40
0.0781250000000008
40
0.0781250000000008
40
0.0937500000000008
40
0.0937500000000008
40
0.125000000000001
40
0.125000000000001
40
0.156250000000001
40
0.156250000000001
40
0.1875
40
0.1875
40
0.21875
40
0.21875
40
0.25
40
0.25
40
0.3125
40
0.3125
40
0.34375
40
0.34375
40
0.375
40
0.375
40
0.4375
40
0.4375
40
0.5
40
0.5
40
0.5625
40
0.5625
40
0.59375
40
0.59375
40
0.625
40
0.625
40
0.687499999999999
40
0.687499999999999
40
0.749999999999999
40
0.749999999999999
40
0.781249999999999
40
0.781249999999999
40
0.812499999999999
40
0.812499999999999
40
0.843749999999999
40
0.843749999999999
40
0.859374999999999
40
0.859374999999999
40
0.874999999999999
40
0.874999999999999
40
0.90625
40
0.90625
40
0.921875
40
0.921875
40
0.9375
40
0.9375
40
0.953125
40
0.953125
40
0.96875
40
0.96875
40
0.984375
40
0.984375
40
1
40
1
40
1
40
1
41
1
10
-6.5
20
-8.08217792429738
30
0
41
1
10
-6.28762555995465
20
-8.08217792429738
30
0
41
1
10
-6.08104986911272
20
-8.05368849473035
30
0
41
1
10
-5.77910858566651
20
-7.97161548876423
30
0
41
1
10
-5.68022589061655
20
-7.93763423525914
30
0
41
1
10
-5.4905449085496
20
-7.85917405972873
30
0
41
1
10
-5.39899523500901
20
-7.81450307998708
30
0
41
1
10
-5.22185646564662
20
-7.71512651881918
30
0
41
1
10
-5.13594421810532
20
-7.66012522444171
30
0
41
1
10
-4.9730710583807
20
-7.54325327411436
30
0
41
1
10
-4.89566707429054
20
-7.48118572785879
30
0
41
1
10
-4.6739132088681
20
-7.28529466076768
30
0
41
1
10
-4.53991230602645
20
-7.14180694426813
30
0
41
1
10
-4.29416855767028
20
-6.83312930612388
30
0
41
1
10
-4.18521185387129
20
-6.6715007799863
30
0
41
1
10
-3.98806828865872
20
-6.33636750757177
30
0
41
1
10
-3.89994716555165
20
-6.16283546371301
30
0
41
1
10
-3.7402055483962
20
-5.80545940076314
30
0
41
1
10
-3.66838920508042
20
-5.62093024300796
30
0
41
1
10
-3.53937133315316
20
-5.24594125113808
30
0
41
1
10
-3.4823144155043
20
-5.05612691162614
30
0
41
1
10
-3.3287118167795
20
-4.48051810886963
30
0
41
1
10
-3.24948709448097
20
-4.08860232749163
30
0
41
1
10
-3.15366535436112
20
-3.49035454453516
30
0
41
1
10
-3.12563763183792
20
-3.28919601457946
30
0
41
1
10
-3.07615885164304
20
-2.8835794753536
30
0
41
1
10
-3.05468247616597
20
-2.6788066175184
30
0
41
1
10
-2.9989256088455
20
-2.06183265419932
30
0
41
1
10
-2.97341374459455
20
-1.65021464829943
30
0
41
1
10
-2.93990884487633
20
-0.826427708852918
30
0
41
1
10
-2.93195209632364
20
-0.414258490969502
30
0
41
1
10
-2.93190451240991
20
0.410616418566406
30
0
41
1
10
-2.93981190900013
20
0.823322087871986
30
0
41
1
10
-2.96496313204878
20
1.44279742981084
30
0
41
1
10
-2.97558958394543
20
1.64935895031218
30
0
41
1
10
-3.00193375507487
20
2.06262743969191
30
0
41
1
10
-3.0176879629779
20
2.26962385434214
30
0
41
1
10
-3.07336906956127
20
2.88522451010573
30
0
41
1
10
-3.12161720280071
20
3.29012272731185
30
0
41
1
10
-3.24933181748247
20
4.08777686756457
30
0
41
1
10
-3.32863739699849
20
4.48055429019126
30
0
41
1
10
-3.48310032098843
20
5.05891332672573
30
0
41
1
10
-3.54076942872439
20
5.25033331669707
30
0
41
1
10
-3.66965942312493
20
5.62428672514505
30
0
41
1
10
-3.74096306693002
20
5.80730424563461
30
0
41
1
10
-3.90070915193937
20
6.16438864035223
30
0
41
1
10
-3.9891162385758
20
6.33846735616979
30
0
41
1
10
-4.13836234295803
20
6.59169519349339
30
0
41
1
10
-4.1908736608672
20
6.67469064307952
30
0
41
1
10
-4.30098015289812
20
6.83590272214585
30
0
41
1
10
-4.35870319203548
20
6.91434756669076
30
0
41
1
10
-4.54085622294417
20
7.14267001525303
30
0
41
1
10
-4.67411746978667
20
7.28563237868227
30
0
41
1
10
-4.89762414313628
20
7.48283481508952
30
0
41
1
10
-4.97599664741574
20
7.54549364627977
30
0
41
1
10
-5.13838907908939
20
7.66173374977816
30
0
41
1
10
-5.22276337997241
20
7.71564866991193
30
0
41
1
10
-5.39862205954026
20
7.81428032092916
30
0
41
1
10
-5.49010121423038
20
7.85900465123581
30
0
41
1
10
-5.68125471270633
20
7.93804563435424
30
0
41
1
10
-5.77882786643028
20
7.97148061306467
30
0
41
1
10
-5.97815227640166
20
8.02577693282768
30
0
41
1
10
-6.07990178078998
20
8.04664365567402
30
0
41
1
10
-6.28791316484742
20
8.07490697119016
30
0
41
1
10
-6.39402083858317
20
8.08217792429738
30
0
41
1
10
-6.5
20
8.08217792429738
30
0
0
SPLINE
5
109
100
AcDbEntity
8
SK1
62
256
6
ByLayer
370
18
48
1
60
0
100
AcDbSpline
70
4
71
3
72
70
73
66
40
0
40
0
40
0
40
0
40
0.03125
40
0.03125
40
0.0468749999999999
40
0.0468749999999999
40
0.0624999999999999
40
0.0624999999999999
40
0.0781249999999998
40
0.0781249999999998
40
0.0937499999999998
40
0.0937499999999998
40
0.125
40
0.125
40
0.15625
40
0.15625
40
0.1875
40
0.1875
40
0.218749999999999
40
0.218749999999999
40
0.249999999999999
40
0.249999999999999
40
0.312499999999999
40
0.312499999999999
40
0.343749999999999
40
0.343749999999999
40
0.374999999999999
40
0.374999999999999
40
0.437499999999999
40
0.437499999999999
40
0.499999999999999
40
0.499999999999999
40
0.562499999999999
40
0.562499999999999
40
0.593749999999999
40
0.593749999999999
40
0.624999999999999
40
0.624999999999999
40
0.687499999999999
40
0.687499999999999
40
0.749999999999999
40
0.749999999999999
40
0.781249999999999
40
0.781249999999999
40
0.812499999999999
40
0.812499999999999
40
0.843749999999999
40
0.843749999999999
40
0.859374999999999
40
0.859374999999999
40
0.874999999999999
40
0.874999999999999
40
0.906249999999999
40
0.906249999999999
40
0.921875
40
0.921875
40
0.9375
40
0.9375
40
0.953125
40
0.953125
40
0.96875
40
0.96875
40
0.984375
40
0.984375
40
1
40
1
40
1
40
1
41
1
10
-53.5
20
8.08217792429738
30
0
41
1
10
-53.7123744400454
20
8.08217792429738
30
0
41
1
10
-53.9189501308873
20
8.05368849473035
30
0
41
1
10
-54.2208914143336
20
7.9716154887642
30
0
41
1
10
-54.3197741093835
20
7.93763423525914
30
0
41
1
10
-54.5094550914505
20
7.85917405972873
30
0
41
1
10
-54.601004764991
20
7.81450307998708
30
0
41
1
10
-54.7781435343534
20
7.71512651881918
30
0
41
1
10
-54.8640557818947
20
7.66012522444171
30
0
41
1
10
-55.0269289416193
20
7.54325327411436
30
0
41
1
10
-55.1043329257095
20
7.48118572785879
30
0
41
1
10
-55.3260867911319
20
7.28529466076768
30
0
41
1
10
-55.4600876939736
20
7.14180694426813
30
0
41
1
10
-55.7058314423298
20
6.83312930612388
30
0
41
1
10
-55.8147881461287
20
6.6715007799863
30
0
41
1
10
-56.0119317113413
20
6.33636750757177
30
0
41
1
10
-56.1000528344483
20
6.16283546371301
30
0
41
1
10
-56.2597944516038
20
5.80545940076314
30
0
41
1
10
-56.3316107949196
20
5.62093024300796
30
0
41
1
10
-56.4606286668468
20
5.24594125113808
30
0
41
1
10
-56.5176855844957
20
5.05612691162611
30
0
41
1
10
-56.6712881832205
20
4.48051810886963
30
0
41
1
10
-56.7505129055191
20
4.08860232749163
30
0
41
1
10
-56.8463346456389
20
3.49035454453516
30
0
41
1
10
-56.8743623681621
20
3.28919601457946
30
0
41
1
10
-56.923841148357
20
2.8835794753536
30
0
41
1
10
-56.9453175238341
20
2.6788066175184
30
0
41
1
10
-57.0010743911545
20
2.06183265419932
30
0
41
1
10
-57.0265862554055
20
1.65021464829943
30
0
41
1
10
-57.0600911551237
20
0.826427708852918
30
0
41
1
10
-57.0680479036764
20
0.414258490969502
30
0
41
1
10
-57.0680954875901
20
-0.410616418566406
30
0
41
1
10
-57.0601880909999
20
-0.823322087871986
30
0
41
1
10
-57.0350368679512
20
-1.44279742981084
30
0
41
1
10
-57.0244104160546
20
-1.64935895031215
30
0
41
1
10
-56.9980662449252
20
-2.06262743969191
30
0
41
1
10
-56.9823120370221
20
-2.26962385434214
30
0
41
1
10
-56.9266309304388
20
-2.88522451010573
30
0
41
1
10
-56.8783827971993
20
-3.29012272731185
30
0
41
1
10
-56.7506681825176
20
-4.08777686756457
30
0
41
1
10
-56.6713626030015
20
-4.48055429019126
30
0
41
1
10
-56.5168996790116
20
-5.05891332672573
30
0
41
1
10
-56.4592305712756
20
-5.25033331669707
30
0
41
1
10
-56.3303405768751
20
-5.62428672514505
30
0
41
1
10
-56.25903693307
20
-5.80730424563461
30
0
41
1
10
-56.0992908480606
20
-6.16438864035223
30
0
41
1
10
-56.0108837614242
20
-6.33846735616979
30
0
41
1
10
-55.861637657042
20
-6.59169519349339
30
0
41
1
10
-55.8091263391329
20
-6.67469064307952
30
0
41
1
10
-55.6990198471019
20
-6.83590272214585
30
0
41
1
10
-55.6412968079646
20
-6.91434756669076
30
0
41
1
10
-55.4591437770559
20
-7.14267001525306
30
0
41
1
10
-55.3258825302133
20
-7.28563237868227
30
0
41
1
10
-55.1023758568637
20
-7.48283481508952
30
0
41
1
10
-55.0240033525843
20
-7.54549364627977
30
0
41
1
10
-54.8616109209107
20
-7.66173374977816
30
0
41
1
10
-54.7772366200276
20
-7.71564866991193
30
0
41
1
10
-54.6013779404598
20
-7.81428032092916
30
0
41
1
10
-54.5098987857697
20
-7.85900465123581
30
0
41
1
10
-54.3187452872937
20
-7.93804563435424
30
0
41
1
10
-54.2211721335698
20
-7.97148061306467
30
0
41
1
10
-54.0218477235984
20
-8.02577693282768
30
0
41
1
10
-53.92009821921
20
-8.04664365567402
30
0
41
1
10
-53.7120868351526
20
-8.07490697119016
30
0
41
1
10
-53.6059791614169
20
-8.08217792429738
30
0
41
1
10
-53.5
20
-8.08217792429738
30
0
0
SPLINE
5
10A
100
AcDbEntity
8
1
62
256
6
ByLayer
370
18
48
1
60
0
100
AcDbSpline
70
4
71
3
72
18
73
14
40
0
40
0
40
0
40
0
40
0.250000000000003
40
0.250000000000003
40
0.375000000000005
40
0.375000000000005
40
0.500000000000007
40
0.500000000000007
40
0.749999999999997
40
0.749999999999997
40
0.874999999999998
40
0.874999999999998
40
1
40
1
40
1
40
1
41
1
10
174.901582112758
20
4.72365867647025
30
0
41
1
10
174.655355711579
20
4.50928199043207
30
0
41
1
10
174.41076599506
20
4.29786178251936
30
0
41
1
10
174.053456396935
20
3.97864327298433
30
0
41
1
10
173.935472237341
20
3.87174531123941
30
0
41
1
10
173.704710453336
20
3.65955386823487
30
0
41
1
10
173.591848281823
20
3.55419934088843
30
0
41
1
10
173.26071875397
20
3.2407427778752
30
0
41
1
10
173.049945593977
20
3.03524804718595
30
0
41
1
10
172.749319793625
20
2.73343323182994
30
0
41
1
10
172.651698628718
20
2.63390433315101
30
0
41
1
10
172.461811043141
20
2.43721756887351
30
0
41
1
10
172.369506731344
20
2.3400079926665
30
0
41
1
10
172.28099580122
20
2.24517254239734
30
0
0
SPLINE
5
10B
100
AcDbEntity
8
1
62
256
6
ByLayer
370
18
48
1
60
0
100
AcDbSpline
70
4
71
3
72
8
73
4
40
0
40
0
40
0
40
0
40
1
40
1
40
1
40
1
41
1
10
31.14999999993
20
-7.79040697957595
30
0
41
1
10
31.1499999999294
20
-7.97053066168382
30
0
41
1
10
31.1499999999287
20
-8.1507723750909
30
0
41
1
10
31.1499999999282
20
-8.33113208044762
30
0
0
SPLINE
5
10C
100
AcDbEntity
8
1
62
256
6
ByLayer
370
18
48
1
60
0
100
AcDbSpline
70
4
71
3
72
8
73
4
40
0
40
0
40
0
40
0
40
1
40
1
40
1
40
1
41
1
10
162.110292996961
20
-13.7078169080905
30
0
41
1
10
161.922192560694
20
-13.6227544923397
30
0
41
1
10
161.733905213621
20
-13.5369172774916
30
0
41
1
10
161.545421537682
20
-13.4503283066957
30
0
0
SPLINE
5
10D
100
AcDbEntity
8
1
62
256
6
ByLayer
370
18
48
1
60
0
100
AcDbSpline
70
4
71
3
72
8
73
4
40
0
40
0
40
0
40
0
40
1
40
1
40
1
40
1
41
1
10
161.304348490502
20
-13.4932306014214
30
0
41
1
10
161.302898980191
20
-13.4944839020905
30
0
41
1
10
161.301449483348
20
-13.4957370428341
30
0
41
1
10
161.3
20
-13.4969900236073
30
0
0
SPLINE
5
10E
100
AcDbEntity
8
1
62
256
6
ByLayer
370
18
48
1
60
0
100
AcDbSpline
70
4
71
3
72
28
73
24
40
0
40
0
40
0
40
0
40
0.0624999999999976
40
0.0624999999999976
40
0.124999999999995
40
0.124999999999995
40
0.249999999999993
40
0.249999999999993
40
0.312499999999992
40
0.312499999999992
40
0.374999999999992
40
0.374999999999992
40
0.499999999999994
40
0.499999999999994
40
0.562499999999994
40
0.562499999999994
40
0.624999999999993
40
0.624999999999993
40
0.749999999999995
40
0.749999999999995
40
0.874999999999998
40
0.874999999999998
40
1
40
1
40
1
40
1
41
1
10
170.646394661264
20
2.07282403574206
30
0
41
1
10
170.623638603596
20
1.95565247220011
30
0
41
1
10
170.598121576995
20
1.84297809073169
30
0
41
1
10
170.541562402602
20
1.62824412536358
30
0
41
1
10
170.510806779262
20
1.52722368843715
30
0
41
1
10
170.411197512727
20
1.24298231919084
30
0
41
1
10
170.33503607811
20
1.07849262905009
30
0
41
1
10
170.205880876132
20
0.86998304253251
30
0
41
1
10
170.160335166722
20
0.806872374511755
30
0
41
1
10
170.064098117867
20
0.693840254857179
30
0
41
1
10
170.013197186793
20
0.643812562713123
30
0
41
1
10
169.855386825851
20
0.516468343876397
30
0
41
1
10
169.742764557004
20
0.460760589830358
30
0
41
1
10
169.563094487701
20
0.419460689781772
30
0
41
1
10
169.501408221572
20
0.412764439307523
30
0
41
1
10
169.374428457453
20
0.413570746649981
30
0
41
1
10
169.308882841278
20
0.421136046012748
30
0
41
1
10
169.108593335561
20
0.465076525869847
30
0
41
1
10
168.971266315714
20
0.522113593368658
30
0
41
1
10
168.689539731654
20
0.687814381674997
30
0
41
1
10
168.54513732469
20
0.796498853393246
30
0
41
1
10
168.249351822412
20
1.06482393914931
30
0
41
1
10
168.100307483456
20
1.22234828748131
30
0
41
1
10
167.950291327285
20
1.40187607022102
30
0
0
SPLINE
5
10F
100
AcDbEntity
8
1
62
256
6
ByLayer
370
18
48
1
60
0
100
AcDbSpline
70
4
71
3
72
25
73
21
40
0
40
0
40
0
40
0
40
0.125
40
0.125
40
0.250000000000001
40
0.250000000000001
40
0.312500000000001
40
0.312500000000001
40
0.375000000000001
40
0.375000000000001
40
0.500000000000001
40
0.625000000000001
40
0.625000000000001
40
0.687500000000001
40
0.687500000000001
40
0.75
40
0.75
40
0.875
40
0.875
40
1
40
1
40
1
40
1
41
1
10
161.4
20
10.3819212707617
30
0
41
1
10
161.4
20
10.0240343550604
30
0
41
1
10
161.4
20
9.67319880854546
30
0
41
1
10
161.4
20
8.98507512376531
30
0
41
1
10
161.4
20
8.64778875268473
30
0
41
1
10
161.4
20
8.15210136979167
30
0
41
1
10
161.4
20
7.98858421435128
30
0
41
1
10
161.4
20
7.66504962388635
30
0
41
1
10
161.4
20
7.50500049301351
30
0
41
1
10
161.4
20
7.03696023868338
30
0
41
1
10
161.4
20
6.44037021696866
30
0
41
1
10
161.4
20
5.89738409787967
30
0
41
1
10
161.4
20
5.51071886292186
30
0
41
1
10
161.4
20
5.38484453240162
30
0
41
1
10
161.4
20
5.14259363136307
30
0
41
1
10
161.4
20
5.02626913022908
30
0
41
1
10
161.4
20
4.69138235343726
30
0
41
1
10
161.4
20
4.48685255570865
30
0
41
1
10
161.4
20
4.11493924097252
30
0
41
1
10
161.4
20
3.94755104725516
30
0
41
1
10
161.4
20
3.79948166679233
30
0
0
SPLINE
5
110
100
AcDbEntity
8
1
62
256
6
ByLayer
370
18
48
1
60
0
100
AcDbSpline
70
4
71
3
72
8
73
4
40
0
40
0
40
0
40
0
40
1
40
1
40
1
40
1
41
1
10
28.8
20
-7.94460028697387
30
0
41
1
10
27.8668162980791
20
-7.71825495976222
30
0
41
1
10
26.9335043257487
20
-7.49046932169856
30
0
41
1
10
26
20
-7.26148950548097
30
0
0
SPLINE
5
111
100
AcDbEntity
8
1
62
256
6
ByLayer
370
18
48
1
60
0
100
AcDbSpline
70
4
71
3
72
8
73
4
40
0
40
0
40
0
40
0
40
1
40
1
40
1
40
1
41
1
10
141.870496371088
20
9.38440571621859
30
0
41
1
10
141.867637756386
20
9.37728958080319
30
0
41
1
10
141.864781618021
20
9.370164690612
30
0
41
1
10
141.861927957023
20
9.36303104200564
30
0
0
SPLINE
5
112
100
AcDbEntity
8
1
62
256
6
ByLayer
370
13
48
1
60
0
100
AcDbSpline
70
4
71
3
72
18
73
14
40
0
40
0
40
0
40
0
40
0.124999999999992
40
0.124999999999992
40
0.187499999999988
40
0.187499999999988
40
0.249999999999984
40
0.249999999999984
40
0.499999999999989
40
0.499999999999989
40
0.749999999999994
40
0.749999999999994
40
1
40
1
40
1
40
1
41
1
10
175.045130108447
20
4.75570277946326
30
0
41
1
10
175.086633442903
20
4.5661785848888
30
0
41
1
10
175.13896668572
20
4.38183104293003
30
0
41
1
10
175.232093003044
20
4.11229647832712
30
0
41
1
10
175.265691845813
20
4.02337217847699
30
0
41
1
10
175.336902615642
20
3.84940296569221
30
0
41
1
10
175.374521495164
20
3.76428369814459
30
0
41
1
10
175.571942684011
20
3.34732079631195
30
0
41
1
10
175.759213180343
20
3.04091173604527
30
0
41
1
10
176.180691636327
20
2.47153056070812
30
0
41
1
10
176.409131554825
20
2.21622637071206
30
0
41
1
10
176.893408794028
20
1.75130455785109
30
0
41
1
10
177.150059103906
20
1.54137417969761
30
0
41
1
10
177.415292581757
20
1.35342200938766
30
0
0
SPLINE
5
113
100
AcDbEntity
8
1
62
256
6
ByLayer
370
18
48
1
60
0
100
AcDbSpline
70
4
71
3
72
12
73
8
40
0
40
0
40
0
40
0
40
0.499999999999984
40
0.499999999999984
40
0.749999999999992
40
0.749999999999992
40
1
40
1
40
1
40
1
41
1
10
175.053321751859
20
4.84432608319096
30
0
41
1
10
175.467183614842
20
4.88386656471911
30
0
41
1
10
175.879613020428
20
4.93145306431987
30
0
41
1
10
176.494228553094
20
5.02546105600129
30
0
41
1
10
176.698418497008
20
5.06062724197406
30
0
41
1
10
177.104814219565
20
5.14210453849435
30
0
41
1
10
177.307037171623
20
5.18831918711055
30
0
41
1
10
177.507703036402
20
5.24327989157851
30
0
0
SPLINE
5
114
100
AcDbEntity
8
1
62
256
6
ByLayer
370
13
48
1
60
0
100
AcDbSpline
70
4
71
3
72
33
73
29
40
0
40
0
40
0
40
0
40
0.250000000000058
40
0.250000000000058
40
0.375000000000087
40
0.406250000000097
40
0.406250000000097
40
0.437500000000107
40
0.437500000000107
40
0.500000000000115
40
0.625000000000118
40
0.64062500000012
40
0.64062500000012
40
0.656250000000121
40
0.656250000000121
40
0.687500000000113
40
0.750000000000097
40
0.750000000000097
40
0.765625000000093
40
0.765625000000093
40
0.781250000000089
40
0.812500000000091
40
0.843750000000092
40
0.859375000000088
40
0.859375000000088
40
0.875000000000084
40
0.875000000000084
40
1
40
1
40
1
40
1
41
1
10
175.419349700779
20
-2.77408094379928
30
0
41
1
10
175.205748815075
20
-2.62478671050207
30
0
41
1
10
174.957124677333
20
-2.43382801630736
30
0
41
1
10
174.596307440028
20
-2.13421495909111
30
0
41
1
10
174.448491289491
20
-2.00663108999066
30
0
41
1
10
174.312248847772
20
-1.88203810434331
30
0
41
1
10
174.258846182807
20
-1.83256867591541
30
0
41
1
10
174.233148259816
20
-1.80845697054588
30
0
41
1
10
174.154743052822
20
-1.73378073494348
30
0
41
1
10
173.984070855949
20
-1.5668013204432
30
0
41
1
10
173.782344206054
20
-1.35695756884141
30
0
41
1
10
173.66324845363
20
-1.22607549649803
30
0
41
1
10
173.637380914794
20
-1.19743690799155
30
0
41
1
10
173.624959315677
20
-1.18357813171389
30
0
41
1
10
173.585293433679
20
-1.13897153872514
30
0
41
1
10
173.49951055185
20
-1.04118984264841
30
0
41
1
10
173.407756813844
20
-0.933182843149751
30
0
41
1
10
173.342847564298
20
-0.854696921393156
30
0
41
1
10
173.330614279355
20
-0.839781543734887
30
0
41
1
10
173.304260275932
20
-0.807383828009847
30
0
41
1
10
173.263134182796
20
-0.756452240887654
30
0
41
1
10
173.189497577404
20
-0.66354013053305
30
0
41
1
10
173.116754062298
20
-0.569654297238884
30
0
41
1
10
173.076967716661
20
-0.517262337980441
30
0
41
1
10
173.051685541576
20
-0.483696399681804
30
0
41
1
10
173.0396662801
20
-0.467592645602366
30
0
41
1
10
172.92613631984
20
-0.314064857855072
30
0
41
1
10
172.807614551465
20
-0.14407506748401
30
0
41
1
10
172.696563461102
20
0.0233636770000487
30
0
0
SPLINE
5
115
100
AcDbEntity
8
1
62
256
6
ByLayer
370
18
48
1
60
0
100
AcDbSpline
70
4
71
3
72
30
73
26
40
0
40
0
40
0
40
0
40
0.0212928676702175
40
0.0424558229177456
40
0.0634890018570676
40
0.0843925431383512
40
0.105166588007999
40
0.125811280370916
40
0.146326766854576
40
0.1667131968749
40
0.186970722704058
40
0.207099499540212
40
0.227099685579289
40
0.246971442088843
40
0.266714933484071
40
0.400708038420515
40
0.530648031922208
40
0.662753607822558
40
0.791948417363249
40
0.826978642249323
40
0.861864417240465
40
0.896607574412139
40
0.931209968493634
40
0.965673476941144
40
1
40
1
40
1
40
1
41
1
10
171.186409698393
20
-11.4117909986923
30
0
41
1
10
171.167997984996
20
-11.3775996225333
30
0
41
1
10
171.131286892075
20
-11.3094254792474
30
0
41
1
10
171.076972444584
20
-11.2047990244526
30
0
41
1
10
171.023423891376
20
-11.0988966487342
30
0
41
1
10
170.970682361012
20
-10.9915767487777
30
0
41
1
10
170.918736934296
20
-10.8829408358309
30
0
41
1
10
170.867590509317
20
-10.7730253079465
30
0
41
1
10
170.817242317439
20
-10.661883264677
30
0
41
1
10
170.767692558491
20
-10.5495627595745
30
0
41
1
10
170.718941193277
20
-10.4361126062629
30
0
41
1
10
170.670988179315
20
-10.3215806458024
30
0
41
1
10
170.623833721643
20
-10.2060148489142
30
0
41
1
10
170.577477047909
20
-10.089460587125
30
0
41
1
10
170.443949744882
20
-9.74508993669227
30
0
41
1
10
170.235077123087
20
-9.15085775676016
30
0
41
1
10
169.968415618683
20
-8.25147363630225
30
0
41
1
10
169.731857626969
20
-7.29966141348513
30
0
41
1
10
169.574476371881
20
-6.53554833147095
30
0
41
1
10
169.478670917045
20
-6.00640333837725
30
0
41
1
10
169.43056047899
20
-5.72482133881437
30
0
41
1
10
169.384894187751
20
-5.44115292180598
30
0
41
1
10
169.341728597861
20
-5.15550121807914
30
0
41
1
10
169.300851129534
20
-4.86827442783368
30
0
41
1
10
169.2756013456
20
-4.67488586007491
30
0
41
1
10
169.263001594278
20
-4.57838412886295
30
0
0
SPLINE
5
116
100
AcDbEntity
8
1
62
256
6
ByLayer
370
18
48
1
60
0
100
AcDbSpline
70
4
71
3
72
8
73
4
40
0
40
0
40
0
40
0
40
1
40
1
40
1
40
1
41
1
10
161.536770209694
20
-13.2167891534516
30
0
41
1
10
161.54253176373
20
-13.2418393939816
30
0
41
1
10
161.545421533566
20
-13.2660610343993
30
0
41
1
10
161.545421537682
20
-13.2894489934712
30
0
0
SPLINE
5
117
100
AcDbEntity
8
1
62
256
6
ByLayer
370
18
48
1
60
0
100
AcDbSpline
70
4
71
3
72
44
73
40
40
0
40
0
40
0
40
0
40
0.125
40
0.125
40
0.1875
40
0.1875
40
0.249999999999999
40
0.249999999999999
40
0.374999999999999
40
0.374999999999999
40
0.437499999999999
40
0.437499999999999
40
0.499999999999999
40
0.499999999999999
40
0.625
40
0.625
40
0.75
40
0.75
40
0.812500000000001
40
0.812500000000001
40
0.843750000000001
40
0.843750000000001
40
0.875000000000001
40
0.875000000000001
40
0.890625
40
0.890625
40
0.90625
40
0.90625
40
0.921875
40
0.921875
40
0.937499999999999
40
0.937499999999999
40
0.945312499999999
40
0.945312499999999
40
0.953125
40
0.953125
40
0.96875
40
0.96875
40
1
40
1
40
1
40
1
41
1
10
33.5518018386844
20
11.4269919417628
30
0
41
1
10
38.2522861634728
20
10.8993652858834
30
0
41
1
10
42.9524893466974
20
10.2885856710143
30
0
41
1
10
50.0027375943092
20
9.26650075950948
30
0
41
1
10
52.3531236774456
20
8.90810986437745
30
0
41
1
10
57.0530891862604
20
8.16018478508209
30
0
41
1
10
59.4029492729997
20
7.77064667116238
30
0
41
1
10
66.4537239658891
20
6.5615682751926
30
0
41
1
10
71.1536060626022
20
5.70176276790889
30
0
41
1
10
78.2040998432747
20
4.35914071299257
30
0
41
1
10
80.5539584573029
20
3.90286870227766
30
0
41
1
10
85.2540253121612
20
2.97736224572341
30
0
41
1
10
87.6043837567913
20
2.50811808234437
30
0
41
1
10
94.6543664213251
20
1.08995206168697
30
0
41
1
10
99.354995537437
20
0.130421772179375
30
0
41
1
10
108.754879590286
20
-1.77794144111351
30
0
41
1
10
113.455139150466
20
-2.726928632403
30
0
41
1
10
120.505288951486
20
-4.10894391373114
30
0
41
1
10
122.855799622627
20
-4.56263418895566
30
0
41
1
10
126.380776254742
20
-5.2299146179366
30
0
41
1
10
127.555666452333
20
-5.45029226554851
30
0
41
1
10
129.90565666565
20
-5.88508400241648
30
0
41
1
10
131.080864333813
20
-6.09903797496523
30
0
41
1
10
132.843332023998
20
-6.41771443518761
30
0
41
1
10
133.43068671857
20
-6.52389482338779
30
0
41
1
10
134.605514532665
20
-6.73445920414758
30
0
41
1
10
135.193125296097
20
-6.83812870742602
30
0
41
1
10
136.369507670145
20
-7.0391748761634
30
0
41
1
10
136.957911435217
20
-7.13807744754288
30
0
41
1
10
138.129958848574
20
-7.35205303950139
30
0
41
1
10
138.71320359482
20
-7.46851408689199
30
0
41
1
10
139.587958437462
20
-7.64170629537955
30
0
41
1
10
139.879588309457
20
-7.69896554448951
30
0
41
1
10
140.463216925701
20
-7.8115365275055
30
0
41
1
10
140.75515844012
20
-7.86706172767842
30
0
41
1
10
141.631086327322
20
-8.0324025684439
30
0
41
1
10
142.215042214673
20
-8.14147005592571
30
0
41
1
10
143.966448088045
20
-8.46684240512761
30
0
41
1
10
145.134124267079
20
-8.6788460880986
30
0
41
1
10
146.301992694298
20
-8.88552840556443
30
0
0
SPLINE
5
118
100
AcDbEntity
8
1
62
256
6
ByLayer
370
18
48
1
60
0
100
AcDbSpline
70
4
71
3
72
38
73
34
40
0
40
0
40
0
40
0
40
0.124999999999999
40
0.124999999999999
40
0.249999999999998
40
0.249999999999998
40
0.374999999999998
40
0.374999999999998
40
0.437499999999997
40
0.437499999999997
40
0.499999999999997
40
0.499999999999997
40
0.562499999999997
40
0.562499999999997
40
0.624999999999997
40
0.624999999999997
40
0.687499999999996
40
0.687499999999996
40
0.749999999999996
40
0.749999999999996
40
0.812499999999996
40
0.812499999999996
40
0.843749999999996
40
0.843749999999996
40
0.859374999999996
40
0.859374999999996
40
0.874999999999996
40
0.874999999999996
40
0.906249999999997
40
0.906249999999997
40
0.937499999999998
40
0.937499999999998
40
1
40
1
40
1
40
1
41
1
10
22.2348834614731
20
-6.01192561064008
30
0
41
1
10
21.503655676383
20
-5.8414818703553
30
0
41
1
10
20.7819897613068
20
-5.66813672512734
30
0
41
1
10
19.3457034161777
20
-5.31103624939942
30
0
41
1
10
18.6311489072495
20
-5.1273279740918
30
0
41
1
10
17.1993938674349
20
-4.73825048038179
30
0
41
1
10
16.4821929942352
20
-4.53306023724744
30
0
41
1
10
15.3980274942841
20
-4.1932991300969
30
0
41
1
10
15.0351487958702
20
-4.07457374438317
30
0
41
1
10
14.3086839528067
20
-3.82311076427345
30
0
41
1
10
13.9447988933539
20
-3.69030171022493
30
0
41
1
10
13.2159384230712
20
-3.40533114081129
30
0
41
1
10
12.8509524791156
20
-3.25319931618463
30
0
41
1
10
12.1207598395384
20
-2.92239570942786
30
0
41
1
10
11.7548069590328
20
-2.74324341907897
30
0
41
1
10
11.0359478678553
20
-2.35463991211097
30
0
41
1
10
10.681855499428
20
-2.14476254020965
30
0
41
1
10
9.98989539198763
20
-1.68357212469721
30
0
41
1
10
9.65196058644437
20
-1.43237855805688
30
0
41
1
10
9.00094368001186
20
-0.873376298997187
30
0
41
1
10
8.69566996994078
20
-0.572016945959973
30
0
41
1
10
8.27873269415505
20
-0.0807419876780386
30
0
41
1
10
8.14652088078481
20
0.0896642765150091
30
0
41
1
10
7.95995190910102
20
0.356681378542618
30
0
41
1
10
7.89960229006249
20
0.447813491003444
30
0
41
1
10
7.7844540525887
20
0.632026964283824
30
0
41
1
10
7.72950479779127
20
0.725302167582043
30
0
41
1
10
7.57276439135484
20
1.00874600120349
30
0
41
1
10
7.479058838275
20
1.20252325201807
30
0
41
1
10
7.31490334131547
20
1.60050160313108
30
0
41
1
10
7.24435080124937
20
1.80502716279037
30
0
41
1
10
7.07189015472034
20
2.43394514230385
30
0
41
1
10
7.01340398573387
20
2.85620389326965
30
0
41
1
10
7.01209999999998
20
3.28169290197789
30
0
0
SPLINE
5
119
100
AcDbEntity
8
1
62
256
6
ByLayer
370
18
48
1
60
0
100
AcDbSpline
70
4
71
3
72
12
73
8
40
0
40
0
40
0
40
0
40
0.414206247563901
40
0.414206247563901
40
0.707103070594576
40
0.707103070594576
40
1
40
1
40
1
40
1
41
1
10
161.399999999415
20
13.3921504559136
30
0
41
1
10
161.386801369491
20
13.4061098353357
30
0
41
1
10
161.373599461747
20
13.4200678009518
30
0
41
1
10
161.351056573847
20
13.4438934572721
30
0
41
1
10
161.341717215617
20
13.4537618453924
30
0
41
1
10
161.32303526969
20
13.4734972491883
30
0
41
1
10
161.313692681145
20
13.4833642657593
30
0
41
1
10
161.304348489791
20
13.4932306024689
30
0
0
SPLINE
5
11A
100
AcDbEntity
8
1
62
256
6
ByLayer
370
18
48
1
60
0
100
AcDbSpline
70
4
71
3
72
14
73
10
40
0
40
0
40
0
40
0
40
0.249999999999981
40
0.249999999999981
40
0.374999999999979
40
0.374999999999979
40
0.499999999999977
40
0.499999999999977
40
1
40
1
40
1
40
1
41
1
10
23.5935478579377
20
9.99431023931351
30
0
41
1
10
23.7777366841449
20
10.00626967565
30
0
41
1
10
23.9666120759076
20
10.0161547520946
30
0
41
1
10
24.2575263064804
20
10.0286399446287
30
0
41
1
10
24.3557666858832
20
10.0324095192116
30
0
41
1
10
24.5549109914267
20
10.0392701546621
30
0
41
1
10
24.6561228230584
20
10.042368899422
30
0
41
1
10
25.164275370399
20
10.056261980944
30
0
41
1
10
25.5781966211093
20
10.0626058415215
30
0
41
1
10
25.9999999999997
20
10.065899733695
30
0
0
SPLINE
5
11B
100
AcDbEntity
8
1
62
256
6
ByLayer
370
18
48
1
60
0
100
AcDbSpline
70
4
71
3
72
8
73
4
40
0
40
0
40
0
40
0
40
1
40
1
40
1
40
1
41
1
10
161.2
20
3.7593815532185
30
0
41
1
10
161.2
20
3.92225160869106
30
0
41
1
10
161.2
20
4.09910236497512
30
0
41
1
10
161.2
20
4.28986055321849
30
0
0
SPLINE
5
11C
100
AcDbEntity
8
1
62
256
6
ByLayer
370
13
48
1
60
0
100
AcDbSpline
70
4
71
3
72
18
73
14
40
0
40
0
40
0
40
0
40
0.250000000000003
40
0.250000000000003
40
0.375000000000004
40
0.375000000000004
40
0.500000000000005
40
0.500000000000005
40
0.750000000000003
40
0.750000000000003
40
0.875000000000001
40
0.875000000000001
40
1
40
1
40
1
40
1
41
1
10
161.4
20
10.3819212707617
30
0
41
1
10
162.613597934157
20
10.4373030387377
30
0
41
1
10
163.827014189149
20
10.4616307182713
30
0
41
1
10
165.646392481265
20
10.4579466931351
30
0
41
1
10
166.252736561946
20
10.4500295286886
30
0
41
1
10
167.465712951706
20
10.423472969278
30
0
41
1
10
168.072539854035
20
10.4051983982835
30
0
41
1
10
169.892719395444
20
10.3268013516536
30
0
41
1
10
171.105742884254
20
10.2456984635699
30
0
41
1
10
172.924949223094
20
10.0884268577795
30
0
41
1
10
173.531601479461
20
10.0310849386573
30
0
41
1
10
174.744955214923
20
9.90216536433024
30
0
41
1
10
175.351620586045
20
9.83112811484213
30
0
41
1
10
175.958198334037
20
9.7538094719076
30
0
0
SPLINE
5
11D
100
AcDbEntity
8
1
62
256
6
ByLayer
370
13
48
1
60
0
100
AcDbSpline
70
4
71
3
72
8
73
4
40
0
40
0
40
0
40
0
40
1
40
1
40
1
40
1
41
1
10
175.028076583259
20
4.8330260038388
30
0
41
1
10
175.033540408582
20
4.80825569048213
30
0
41
1
10
175.039004233905
20
4.78348537712546
30
0
41
1
10
175.044468059227
20
4.75871506376876
30
0
0
SPLINE
5
11E
100
AcDbEntity
8
1
62
256
6
ByLayer
370
18
48
1
60
0
100
AcDbSpline
70
4
71
3
72
8
73
4
40
0
40
0
40
0
40
0
40
1
40
1
40
1
40
1
41
1
10
24.2724250501344
20
-7.15770098759356
30
0
41
1
10
24.2732538812138
20
-7.15313901702444
30
0
41
1
10
24.2740830922118
20
-7.14857558212941
30
0
41
1
10
24.2749126830877
20
-7.14401068306501
30
0
0
SPLINE
5
11F
100
AcDbEntity
8
1
62
256
6
ByLayer
370
18
48
1
60
0
100
AcDbSpline
70
4
71
3
72
8
73
4
40
0
40
0
40
0
40
0
40
1
40
1
40
1
40
1
41
1
10
162.110292996961
20
13.8921828633232
30
0
41
1
10
161.873826482448
20
13.7954104009789
30
0
41
1
10
161.637068040097
20
13.6974149078145
30
0
41
1
10
161.4
20
13.5982423467958
30
0
0
SPLINE
5
120
100
AcDbEntity
8
1
62
256
6
ByLayer
370
18
48
1
60
0
100
AcDbSpline
70
4
71
3
72
12
73
8
40
0
40
0
40
0
40
0
40
0.5
40
0.5
40
0.75
40
0.75
40
1
40
1
40
1
40
1
41
1
10
177.507703036402
20
5.24327989157811
30
0
41
1
10
177.238414660579
20
5.98962488443362
30
0
41
1
10
176.974018038771
20
6.73948879672272
30
0
41
1
10
176.585241934665
20
7.86990919734768
30
0
41
1
10
176.456936772394
20
8.24774560635828
30
0
41
1
10
176.203332671029
20
9.00516196569592
30
0
41
1
10
176.079277230164
20
9.3810265458248
30
0
41
1
10
175.958198334037
20
9.7538094719076
30
0
0
SPLINE
5
121
100
AcDbEntity
8
1
62
256
6
ByLayer
370
13
48
1
60
0
100
AcDbSpline
70
4
71
3
72
8
73
4
40
0
40
0
40
0
40
0
40
1
40
1
40
1
40
1
41
1
10
175.071570255559
20
4.76158564690502
30
0
41
1
10
175.071347506296
20
4.7626025761935
30
0
41
1
10
175.071124008375
20
4.76361935368234
30
0
41
1
10
175.070899761881
20
4.76463597767787
30
0
0
SPLINE
5
122
100
AcDbEntity
8
1
62
256
6
ByLayer
370
18
48
1
60
0
100
AcDbSpline
70
4
71
1
72
4
73
2
40
0
40
0
40
1
40
1
41
1
10
24.46019716439
20
-6.30388653666597
30
0
41
1
10
24.2724250501343
20
-7.15770098759364
30
0
0
SPLINE
5
123
100
AcDbEntity
8
1
62
256
6
ByLayer
370
18
48
1
60
0
100
AcDbSpline
70
4
71
3
72
18
73
14
40
0
40
0
40
0
40
0
40
0.250000000000002
40
0.250000000000002
40
0.500000000000004
40
0.500000000000004
40
0.625000000000003
40
0.625000000000003
40
0.750000000000002
40
0.750000000000002
40
0.875000000000001
40
0.875000000000001
40
1
40
1
40
1
40
1
41
1
10
174.738447746475
20
-6.21018195225182
30
0
41
1
10
174.546727163393
20
-5.69806568492578
30
0
41
1
10
174.360399580607
20
-5.18401565245577
30
0
41
1
10
173.993912332069
20
-4.15370396090452
30
0
41
1
10
173.813799569589
20
-3.63742447538729
30
0
41
1
10
173.555970476916
20
-2.85858351024118
30
0
41
1
10
173.471440920505
20
-2.598535890986
30
0
41
1
10
173.305164103227
20
-2.0775864335325
30
0
41
1
10
173.224198703727
20
-1.8164445486604
30
0
41
1
10
173.065619327125
20
-1.29313182693826
30
0
41
1
10
172.988538597717
20
-1.03079727265694
30
0
41
1
10
172.838636971846
20
-0.504820312378854
30
0
41
1
10
172.766725760227
20
-0.240903321199454
30
0
41
1
10
172.696563461102
20
0.0233636770000487
30
0
0
SPLINE
5
124
100
AcDbEntity
8
1
62
256
6
ByLayer
370
18
48
1
60
0
100
AcDbSpline
70
4
71
3
72
8
73
4
40
0
40
0
40
0
40
0
40
1
40
1
40
1
40
1
41
1
10
161.938643531779
20
3.52936105655112
30
0
41
1
10
161.758631213256
20
3.61782532100185
30
0
41
1
10
161.579027144091
20
3.70788333864482
30
0
41
1
10
161.4
20
3.79948166679225
30
0
0
SPLINE
5
125
100
AcDbEntity
8
1
62
256
6
ByLayer
370
18
48
1
60
0
100
AcDbSpline
70
4
71
3
72
8
73
4
40
0
40
0
40
0
40
0
40
1
40
1
40
1
40
1
41
1
10
161.2
20
5.34999999999999
30
0
41
1
10
161.2
20
4.94011249426734
30
0
41
1
10
161.2
20
4.58717021040167
30
0
41
1
10
161.2
20
4.28986055321849
30
0
0
SPLINE
5
126
100
AcDbEntity
8
1
62
256
6
ByLayer
370
18
48
1
60
0
100
AcDbSpline
70
4
71
3
72
12
73
8
40
0
40
0
40
0
40
0
40
0.414206247563949
40
0.414206247563949
40
0.707103070594472
40
0.707103070594472
40
1
40
1
40
1
40
1
41
1
10
161.399999999415
20
-13.3921504559136
30
0
41
1
10
161.386801369491
20
-13.4061098353357
30
0
41
1
10
161.373599461747
20
-13.4200678009517
30
0
41
1
10
161.351056573847
20
-13.4438934572721
30
0
41
1
10
161.341717215617
20
-13.4537618453925
30
0
41
1
10
161.32303526969
20
-13.4734972491883
30
0
41
1
10
161.313692681145
20
-13.4833642657593
30
0
41
1
10
161.304348489791
20
-13.4932306024689
30
0
0
SPLINE
5
127
100
AcDbEntity
8
1
62
256
6
ByLayer
370
18
48
1
60
0
100
AcDbSpline
70
4
71
3
72
8
73
4
40
0
40
0
40
0
40
0
40
1
40
1
40
1
40
1
41
1
10
147.953550205825
20
-11.5972464882587
30
0
41
1
10
148.197692163205
20
-11.6581686256415
30
0
41
1
10
148.421571139001
20
-11.7342620906769
30
0
41
1
10
148.62450468039
20
-11.8221709847486
30
0
0
SPLINE
5
128
100
AcDbEntity
8
1
62
256
6
ByLayer
370
13
48
1
60
0
100
AcDbSpline
70
4
71
3
72
8
73
4
40
0
40
0
40
0
40
0
40
1
40
1
40
1
40
1
41
1
10
146.301992694298
20
-8.88552840556446
30
0
41
1
10
146.309832238233
20
-8.77880779063469
30
0
41
1
10
146.31769386682
20
-8.67204066672855
30
0
41
1
10
146.32557697316
20
-8.56522653251332
30
0
0
SPLINE
5
129
100
AcDbEntity
8
1
62
256
6
ByLayer
370
18
48
1
60
0
100
AcDbSpline
70
4
71
3
72
18
73
14
40
0
40
0
40
0
40
0
40
0.249999999999997
40
0.249999999999997
40
0.374999999999996
40
0.374999999999996
40
0.499999999999995
40
0.499999999999995
40
0.749999999999997
40
0.749999999999997
40
0.874999999999999
40
0.874999999999999
40
1
40
1
40
1
40
1
41
1
10
162.110292996961
20
13.8921828633232
30
0
41
1
10
163.1706649028
20
13.9464159078555
30
0
41
1
10
164.229846922508
20
13.973763722923
30
0
41
1
10
165.81671797607
20
13.9752576144245
30
0
41
1
10
166.345292312748
20
13.9691551740524
30
0
41
1
10
167.401409229118
20
13.9435921812365
30
0
41
1
10
167.929153532948
20
13.9241308416573
30
0
41
1
10
169.513176516202
20
13.8460892538906
30
0
41
1
10
170.570013300741
20
13.7679572565638
30
0
41
1
10
172.156128489917
20
13.6115109646655
30
0
41
1
10
172.684967681046
20
13.5528006149086
30
0
41
1
10
173.742779140558
20
13.4219676562746
30
0
41
1
10
174.272182517811
20
13.3500834764683
30
0
41
1
10
174.802382092217
20
13.2719485317942
30
0
0
SPLINE
5
12A
100
AcDbEntity
8
1
62
256
6
ByLayer
370
18
48
1
60
0
100
AcDbSpline
70
4
71
3
72
14
73
10
40
0
40
0
40
0
40
0
40
0.312329608452191
40
0.312329608452191
40
0.656164804226094
40
0.656164804226094
40
0.828082402113047
40
0.828082402113047
40
1
40
1
40
1
40
1
41
1
10
150.344851151311
20
7.28502625526704
30
0
41
1
10
152.177735058987
20
6.74309577572441
30
0
41
1
10
154.010759900028
20
6.17306551937179
30
0
41
1
10
157.866148877948
20
4.92670091986179
30
0
41
1
10
159.883454572336
20
4.24713981367441
30
0
41
1
10
162.908318638217
20
3.19870392498669
30
0
41
1
10
163.916478432111
20
2.84436322638663
30
0
41
1
10
165.933379753231
20
2.12803837381637
30
0
41
1
10
166.942367737676
20
1.76599280750264
30
0
41
1
10
167.95029132728
20
1.40187607022179
30
0
0
SPLINE
5
12B
100
AcDbEntity
8
1
62
256
6
ByLayer
370
18
48
1
60
0
100
AcDbSpline
70
4
71
1
72
4
73
2
40
0
40
0
40
1
40
1
41
1
10
27.841634918159
20
10.1916700700356
30
0
41
1
10
27.756552248708
20
9.7088613842439
30
0
0
SPLINE
5
12C
100
AcDbEntity
8
1
62
256
6
ByLayer
370
18
48
1
60
0
100
AcDbSpline
70
4
71
2
72
6
73
3
40
0
40
0
40
0
40
1
40
1
40
1
41
0.500000071248115
10
147.959512659025
20
-11.5861953242653
30
0
41
0.499999928751885
10
147.956533182591
20
-11.5917275436692
30
0
41
0.500000071248115
10
147.953550205825
20
-11.5972464882587
30
0
0
SPLINE
5
12D
100
AcDbEntity
8
1
62
256
6
ByLayer
370
18
48
1
60
0
100
AcDbSpline
70
4
71
3
72
8
73
4
40
0
40
0
40
0
40
0
40
1
40
1
40
1
40
1
41
1
10
178.931341936472
20
0.293684967379477
30
0
41
1
10
178.943488174894
20
0.252153621730599
30
0
41
1
10
178.955676942025
20
0.210538227748202
30
0
41
1
10
178.967908005215
20
0.168839938496973
30
0
0
SPLINE
5
12E
100
AcDbEntity
8
1
62
256
6
ByLayer
370
18
48
1
60
0
100
AcDbSpline
70
4
71
1
72
4
73
2
40
0
40
0
40
1
40
1
41
1
10
169.378798137277
20
-4.50000623608298
30
0
41
1
10
169.38177435697
20
-4.56931044727113
30
0
0
SPLINE
5
12F
100
AcDbEntity
8
1
62
256
6
ByLayer
370
18
48
1
60
0
100
AcDbSpline
70
4
71
3
72
16
73
12
40
0
40
0
40
0
40
0
40
0.282083807776496
40
0.282083807776496
40
0.423125711664744
40
0.423125711664744
40
0.564167615552992
40
0.564167615552992
40
0.846251423329488
40
0.846251423329488
40
1
40
1
40
1
40
1
41
1
10
162.110292996961
20
-13.7078169080905
30
0
41
1
10
163.150479085727
20
-13.8046803042548
30
0
41
1
10
164.18930844863
20
-13.8759275228514
30
0
41
1
10
165.745251264785
20
-13.9448950170123
30
0
41
1
10
166.263517335701
20
-13.9615489958442
30
0
41
1
10
167.299316926192
20
-13.982088712733
30
0
41
1
10
167.816958734758
20
-13.9859447967781
30
0
41
1
10
169.3709265017
20
-13.9783698200275
30
0
41
1
10
170.407437934461
20
-13.9479138867826
30
0
41
1
10
172.009485358157
20
-13.8613975636467
30
0
41
1
10
172.574614155207
20
-13.8231777211211
30
0
41
1
10
173.140234993347
20
-13.7774147608499
30
0
0
SPLINE
5
130
100
AcDbEntity
8
1
62
256
6
ByLayer
370
18
48
1
60
0
100
AcDbSpline
70
4
71
3
72
8
73
4
40
0
40
0
40
0
40
0
40
1
40
1
40
1
40
1
41
1
10
174.39476766975
20
-13.6637095211786
30
0
41
1
10
174.449153516765
20
-13.6582556540887
30
0
41
1
10
174.503547418225
20
-13.652733360976
30
0
41
1
10
174.557949831681
20
-13.6471427801002
30
0
0
SPLINE
5
131
100
AcDbEntity
8
1
62
256
6
ByLayer
370
18
48
1
60
0
100
AcDbSpline
70
4
71
3
72
8
73
4
40
0
40
0
40
0
40
0
40
1
40
1
40
1
40
1
41
1
10
178.380920737694
20
-1.8127916244556
30
0
41
1
10
178.500608217298
20
-1.47482915740841
30
0
41
1
10
178.617039815427
20
-1.13643268472038
30
0
41
1
10
178.730517856161
20
-0.797642505879139
30
0
0
SPLINE
5
132
100
AcDbEntity
8
1
62
256
6
ByLayer
370
18
48
1
60
0
100
AcDbSpline
70
4
71
3
72
8
73
4
40
0
40
0
40
0
40
0
40
1
40
1
40
1
40
1
41
1
10
161.4
20
13.5982423467958
30
0
41
1
10
161.4
20
12.5261342430393
30
0
41
1
10
161.4
20
11.4540271758363
30
0
41
1
10
161.4
20
10.3819212707617
30
0
0
SPLINE
5
133
100
AcDbEntity
8
1
62
256
6
ByLayer
370
18
48
1
60
0
100
AcDbSpline
70
4
71
3
72
8
73
4
40
0
40
0
40
0
40
0
40
1
40
1
40
1
40
1
41
1
10
26
20
10.0658997336948
30
0
41
1
10
26.1033285026126
20
10.0705620293122
30
0
41
1
10
26.2064225228129
20
10.0739570845015
30
0
41
1
10
26.3092848887249
20
10.0760958180927
30
0
0
SPLINE
5
134
100
AcDbEntity
8
1
62
256
6
ByLayer
370
18
48
1
60
0
100
AcDbSpline
70
4
71
3
72
18
73
14
40
0
40
0
40
0
40
0
40
0.167300990948981
40
0.167300990948981
40
0.334601981897963
40
0.334601981897963
40
0.669203963795926
40
0.669203963795926
40
0.836504954744907
40
0.836504954744907
40
0.920155450219395
40
0.920155450219395
40
1
40
1
40
1
40
1
41
1
10
149.394499135186
20
11.5286798266181
30
0
41
1
10
149.31597940482
20
11.3190047913602
30
0
41
1
10
149.23526952969
20
11.1104071796008
30
0
41
1
10
149.069978910702
20
10.6951993169411
30
0
41
1
10
148.985281046003
20
10.4883408954004
30
0
41
1
10
148.72746717086
20
9.87186044486461
30
0
41
1
10
148.553603102341
20
9.47511754517328
30
0
41
1
10
148.306176335147
20
8.89777633169319
30
0
41
1
10
148.226112277879
20
8.70827296556661
30
0
41
1
10
148.11341233485
20
8.42788048630041
30
0
41
1
10
148.076975750877
20
8.33473972447266
30
0
41
1
10
148.00965351816
20
8.15603911565333
30
0
41
1
10
147.978547560193
20
8.07022789096573
30
0
41
1
10
147.949353886401
20
7.98585455847916
30
0
0
SPLINE
5
135
100
AcDbEntity
8
1
62
256
6
ByLayer
370
18
48
1
60
0
100
AcDbSpline
70
4
71
3
72
18
73
14
40
0
40
0
40
0
40
0
40
0.249999999999997
40
0.249999999999997
40
0.374999999999998
40
0.374999999999998
40
0.499999999999998
40
0.499999999999998
40
0.624999999999999
40
0.624999999999999
40
0.749999999999999
40
0.749999999999999
40
1
40
1
40
1
40
1
41
1
10
178.697934241821
20
1.29006380325646
30
0
41
1
10
178.649285218058
20
1.50058162133013
30
0
41
1
10
178.589729008866
20
1.73605500281937
30
0
41
1
10
178.48466983397
20
2.12524344647818
30
0
41
1
10
178.447127306212
20
2.26052988462305
30
0
41
1
10
178.368310765702
20
2.53780471996959
30
0
41
1
10
178.326881456897
20
2.68036277499527
30
0
41
1
10
178.240095748437
20
2.97309709651768
30
0
41
1
10
178.194735106749
20
3.12328159218944
30
0
41
1
10
178.100093080815
20
3.43125647987506
30
0
41
1
10
178.050589265831
20
3.5897323803546
30
0
41
1
10
177.898569921205
20
4.06892769886932
30
0
41
1
10
177.792148493162
20
4.39486869250953
30
0
41
1
10
177.680734424001
20
4.72718176683992
30
0
0
SPLINE
5
136
100
AcDbEntity
8
1
62
256
6
ByLayer
370
18
48
1
60
0
100
AcDbSpline
70
4
71
3
72
48
73
44
40
0
40
0
40
0
40
0
40
0.122678939945038
40
0.122678939945038
40
0.195789028282959
40
0.195789028282959
40
0.268899116620879
40
0.268899116620879
40
0.415119293296721
40
0.415119293296721
40
0.561339469972562
40
0.561339469972562
40
0.707559646648404
40
0.707559646648404
40
0.780669734986325
40
0.780669734986325
40
0.789808496028566
40
0.789808496028566
40
0.798947257070806
40
0.798947257070806
40
0.817224779155285
40
0.817224779155285
40
0.853779823324242
40
0.853779823324242
40
0.890334867493198
40
0.890334867493198
40
0.926889911662155
40
0.926889911662155
40
0.945167433746632
40
0.945167433746632
40
0.954306194788871
40
0.954306194788871
40
0.955448539919151
40
0.955448539919151
40
0.95601971248429
40
0.95601971248429
40
0.956590885049429
40
0.956590885049429
40
0.958875575309986
40
0.958875575309986
40
0.963444955831097
40
0.963444955831097
40
1
40
1
40
1
40
1
41
1
10
94.6778582452071
20
13.1990657198714
30
0
41
1
10
96.6173080623757
20
13.1960816869575
30
0
41
1
10
98.5567105124497
20
13.1766596753576
30
0
41
1
10
101.651950288266
20
13.1194366487214
30
0
41
1
10
102.807799882865
20
13.0921834058909
30
0
41
1
10
105.118860373918
20
13.0257286646158
30
0
41
1
10
106.274150440264
20
12.9864919324504
30
0
41
1
10
109.740451335514
20
12.8517619517287
30
0
41
1
10
112.051575615568
20
12.7390796209806
30
0
41
1
10
116.674937652482
20
12.469114155214
30
0
41
1
10
118.98736744092
20
12.311876314888
30
0
41
1
10
123.611200178487
20
11.9547572726472
30
0
41
1
10
125.922858323335
20
11.7547048885675
30
0
41
1
10
129.390149187068
20
11.4222326679623
30
0
41
1
10
130.545902929692
20
11.3060675359419
30
0
41
1
10
131.845865072151
20
11.1691636071438
30
0
41
1
10
131.990414753802
20
11.1541443446751
30
0
41
1
10
132.278840265217
20
11.1222746208502
30
0
41
1
10
132.422992462816
20
11.1061043217243
30
0
41
1
10
132.855262437657
20
11.0568600000305
30
0
41
1
10
133.143184107605
20
11.0230285096281
30
0
41
1
10
134.006085837774
20
10.9181809051085
30
0
41
1
10
134.580197979117
20
10.8438513168831
30
0
41
1
10
135.72518130688
20
10.6831014757205
30
0
41
1
10
136.296354114477
20
10.5967237554527
30
0
41
1
10
137.430658273304
20
10.4058135103589
30
0
41
1
10
137.994278725858
20
10.3017567834815
30
0
41
1
10
138.828814020887
20
10.1206854932715
30
0
41
1
10
139.105167172295
20
10.0561379871225
30
0
41
1
10
139.514808715511
20
9.94823862803804
30
0
41
1
10
139.650531833229
20
9.91040398025058
30
0
41
1
10
139.801784647648
20
9.86461948500312
30
0
41
1
10
139.81857011179
20
9.85948658928481
30
0
41
1
10
139.843715261626
20
9.85171340814185
30
0
41
1
10
139.852038269309
20
9.84900389285229
30
0
41
1
10
139.868868438015
20
9.84394958383399
30
0
41
1
10
139.877739070011
20
9.8423305311656
30
0
41
1
10
139.921056818546
20
9.83216527462423
30
0
41
1
10
139.955706592601
20
9.8240110472301
30
0
41
1
10
140.0596682096
20
9.79953340008811
30
0
41
1
10
140.1289753823
20
9.78316109164689
30
0
41
1
10
140.752749680886
20
9.63535509448772
30
0
41
1
10
141.307307324466
20
9.50076376334781
30
0
41
1
10
141.861927957023
20
9.36303104200564
30
0
0
SPLINE
5
137
100
AcDbEntity
8
1
62
256
6
ByLayer
370
18
48
1
60
0
100
AcDbSpline
70
4
71
3
72
8
73
4
40
0
40
0
40
0
40
0
40
1
40
1
40
1
40
1
41
1
10
161.2
20
4.28986055321852
30
0
41
1
10
160.591860714095
20
4.33467568781137
30
0
41
1
10
159.983642182781
20
4.37708679179241
30
0
41
1
10
159.37533929296
20
4.41713754488023
30
0
0
SPLINE
5
138
100
AcDbEntity
8
1
62
256
6
ByLayer
370
18
48
1
60
0
100
AcDbSpline
70
4
71
3
72
18
73
14
40
0
40
0
40
0
40
0
40
0.249999999999986
40
0.249999999999986
40
0.374999999999986
40
0.374999999999986
40
0.499999999999987
40
0.499999999999987
40
0.749999999999987
40
0.749999999999987
40
0.874999999999993
40
0.874999999999993
40
1
40
1
40
1
40
1
41
1
10
177.101159203808
20
-3.94956511597187
30
0
41
1
10
177.214699215605
20
-3.82489515962879
30
0
41
1
10
177.327742544259
20
-3.68762968660795
30
0
41
1
10
177.496453922223
20
-3.46008443253379
30
0
41
1
10
177.552548287579
20
-3.38061571061536
30
0
41
1
10
177.66442559994
20
-3.21378092806293
30
0
41
1
10
177.720518559057
20
-3.12589318974406
30
0
41
1
10
177.885748136885
20
-2.85336867298389
30
0
41
1
10
177.991413120158
20
-2.66084804852355
30
0
41
1
10
178.142969974005
20
-2.35530717041527
30
0
41
1
10
178.192329322024
20
-2.25066004625035
30
0
41
1
10
178.288656495105
20
-2.03559084142503
30
0
41
1
10
178.335738748196
20
-1.92484807901286
30
0
41
1
10
178.380920737694
20
-1.8127916244556
30
0
0
SPLINE
5
139
100
AcDbEntity
8
1
62
256
6
ByLayer
370
18
48
1
60
0
100
AcDbSpline
70
4
71
3
72
8
73
4
40
0
40
0
40
0
40
0
40
1
40
1
40
1
40
1
41
1
10
161.304348490502
20
13.4932306014213
30
0
41
1
10
161.302898980191
20
13.4944839020905
30
0
41
1
10
161.301449483348
20
13.495737042834
30
0
41
1
10
161.3
20
13.4969900236073
30
0
0
SPLINE
5
13A
100
AcDbEntity
8
1
62
256
6
ByLayer
370
18
48
1
60
0
100
AcDbSpline
70
4
71
3
72
8
73
4
40
0
40
0
40
0
40
0
40
1
40
1
40
1
40
1
41
1
10
161.4
20
-13.0554165004415
30
0
41
1
10
161.366666666667
20
-13.0874150702955
30
0
41
1
10
161.333333333333
20
-13.1194136401495
30
0
41
1
10
161.3
20
-13.1514122100036
30
0
0
SPLINE
5
13B
100
AcDbEntity
8
1
62
256
6
ByLayer
370
18
48
1
60
0
100
AcDbSpline
70
4
71
3
72
14
73
10
40
0
40
0
40
0
40
0
40
0.25
40
0.25
40
0.5
40
0.5
40
0.75
40
0.75
40
1
40
1
40
1
40
1
41
1
10
143.546453958611
20
9.23732551153765
30
0
41
1
10
143.405244655787
20
9.21486945649858
30
0
41
1
10
143.263321886301
20
9.20125563182503
30
0
41
1
10
142.978087276361
20
9.19146416430257
30
0
41
1
10
142.834275355263
20
9.19533102638343
30
0
41
1
10
142.547307279768
20
9.22105287641566
30
0
41
1
10
142.407310885572
20
9.2425581224432
30
0
41
1
10
142.133910791569
20
9.30157476549917
30
0
41
1
10
142.000166831869
20
9.33921617857206
30
0
41
1
10
141.870496371091
20
9.38440571622721
30
0
0
SPLINE
5
13C
100
AcDbEntity
8
1
62
256
6
ByLayer
370
18
48
1
60
0
100
AcDbSpline
70
4
71
3
72
8
73
4
40
0
40
0
40
0
40
0
40
1
40
1
40
1
40
1
41
1
10
22.8943912263771
20
-6.80003165714621
30
0
41
1
10
22.9245815937708
20
-6.81866744989003
30
0
41
1
10
22.9554583891676
20
-6.83629372000721
30
0
41
1
10
22.9870279491685
20
-6.85291593436938
30
0
0
SPLINE
5
13D
100
AcDbEntity
8
1
62
256
6
ByLayer
370
18
48
1
60
0
100
AcDbSpline
70
4
71
3
72
12
73
8
40
0
40
0
40
0
40
0
40
0.223627933085284
40
0.441146660592006
40
0.65255721082218
40
0.970572547200807
40
1
40
1
40
1
40
1
41
1
10
170.646395168253
20
2.07282902121878
30
0
41
1
10
170.179244561013
20
2.11553166275215
30
0
41
1
10
169.257705254478
20
2.19977036876264
30
0
41
1
10
167.894856109247
20
2.3278322152124
30
0
41
1
10
166.33518751101
20
2.47762169077851
30
0
41
1
10
165.168560733244
20
2.59276040625707
30
0
41
1
10
164.443455710613
20
2.66625618929453
30
0
41
1
10
164.382042573375
20
2.67249359859397
30
0
0
SPLINE
5
13E
100
AcDbEntity
8
1
62
256
6
ByLayer
370
18
48
1
60
0
100
AcDbSpline
70
4
71
3
72
8
73
4
40
0
40
0
40
0
40
0
40
1
40
1
40
1
40
1
41
1
10
161.3054891537
20
12.8588636044659
30
0
41
1
10
161.305110461422
20
13.0707216068416
30
0
41
1
10
161.30473026153
20
13.2821789068024
30
0
41
1
10
161.304348587641
20
13.493230517433
30
0
0
SPLINE
5
13F
100
AcDbEntity
8
1
62
256
6
ByLayer
370
18
48
1
60
0
100
AcDbSpline
70
4
71
3
72
8
73
4
40
0
40
0
40
0
40
0
40
1
40
1
40
1
40
1
41
1
10
162.110292996961
20
-13.8921828633232
30
0
41
1
10
161.873826482448
20
-13.7954104009789
30
0
41
1
10
161.637068040097
20
-13.6974149078146
30
0
41
1
10
161.4
20
-13.5982423467958
30
0
0
SPLINE
5
140
100
AcDbEntity
8
1
62
256
6
ByLayer
370
13
48
1
60
0
100
AcDbSpline
70
4
71
3
72
20
73
16
40
0
40
0
40
0
40
0
40
0.249999999999998
40
0.249999999999998
40
0.499999999999996
40
0.499999999999996
40
0.749999999999994
40
0.749999999999994
40
0.812499999999996
40
0.812499999999996
40
0.874999999999997
40
0.874999999999997
40
0.937499999999999
40
0.937499999999999
40
1
40
1
40
1
40
1
41
1
10
177.460454739722
20
1.39148621812632
30
0
41
1
10
177.1940583317
20
1.57714911942969
30
0
41
1
10
176.936018359531
20
1.78453829300656
30
0
41
1
10
176.448750748919
20
2.24408214923653
30
0
41
1
10
176.218667659286
20
2.49652079063787
30
0
41
1
10
175.793702797882
20
3.06004742538596
30
0
41
1
10
175.604597017538
20
3.36353011291362
30
0
41
1
10
175.405024825595
20
3.77705057445471
30
0
41
1
10
175.366958453947
20
3.86147811732718
30
0
41
1
10
175.294911061416
20
4.03411585286244
30
0
41
1
10
175.260923348378
20
4.12240188982037
30
0
41
1
10
175.198079757743
20
4.30083107884789
30
0
41
1
10
175.169095413194
20
4.39121860240363
30
0
41
1
10
175.116355195319
20
4.57449586515173
30
0
41
1
10
175.092483994281
20
4.6679052908442
30
0
41
1
10
175.071570255851
20
4.76158564685304
30
0
0
SPLINE
5
141
100
AcDbEntity
8
1
62
256
6
ByLayer
370
18
48
1
60
0
100
AcDbSpline
70
4
71
3
72
8
73
4
40
0
40
0
40
0
40
0
40
1
40
1
40
1
40
1
41
1
10
23.5935478579377
20
9.99431023931351
30
0
41
1
10
23.3888747343354
20
9.98102075133582
30
0
41
1
10
23.1867550879355
20
9.97100481694551
30
0
41
1
10
22.9870279491685
20
9.96466646524365
30
0
0
SPLINE
5
142
100
AcDbEntity
8
1
62
256
6
ByLayer
370
18
48
1
60
0
100
AcDbSpline
70
4
71
3
72
12
73
8
40
0
40
0
40
0
40
0
40
0.499999999999988
40
0.499999999999988
40
0.749999999999994
40
0.749999999999994
40
1
40
1
40
1
40
1
41
1
10
22.9870279491685
20
-6.85291593436938
30
0
41
1
10
23.1703819500407
20
-6.94945670042929
30
0
41
1
10
23.3707541846197
20
-7.01785545796469
30
0
41
1
10
23.6961712102047
20
-7.08885613946808
30
0
41
1
10
23.8096306027707
20
-7.10719053409133
30
0
41
1
10
24.0395295722296
20
-7.13315057013909
30
0
41
1
10
24.1563090344429
20
-7.14093330295603
30
0
41
1
10
24.2749126830893
20
-7.144010683056
30
0
0
SPLINE
5
143
100
AcDbEntity
8
1
62
256
6
ByLayer
370
18
48
1
60
0
100
AcDbSpline
70
4
71
3
72
8
73
4
40
0
40
0
40
0
40
0
40
1
40
1
40
1
40
1
41
1
10
167.624355756509
20
1.04712571373659
30
0
41
1
10
167.665159343888
20
1.04690995883198
30
0
41
1
10
167.705962919024
20
1.04679241087194
30
0
41
1
10
167.746766482952
20
1.04677287684686
30
0
0
SPLINE
5
144
100
AcDbEntity
8
1
62
256
6
ByLayer
370
18
48
1
60
0
100
AcDbSpline
70
4
71
3
72
8
73
4
40
0
40
0
40
0
40
0
40
1
40
1
40
1
40
1
41
1
10
26
20
-7.26148950548099
30
0
41
1
10
25.4225031269488
20
-7.16287936347248
30
0
41
1
10
24.8463140320055
20
-7.12822056704431
30
0
41
1
10
24.2724250501343
20
-7.15770098759364
30
0
0
SPLINE
5
145
100
AcDbEntity
8
1
62
256
6
ByLayer
370
18
48
1
60
0
100
AcDbSpline
70
4
71
3
72
8
73
4
40
0
40
0
40
0
40
0
40
1
40
1
40
1
40
1
41
1
10
27.841634918159
20
10.1916700700356
30
0
41
1
10
28.161115713276
20
10.1673225316643
30
0
41
1
10
28.4805711981637
20
10.1424617810334
30
0
41
1
10
28.8
20
10.1170862747668
30
0
0
SPLINE
5
146
100
AcDbEntity
8
1
62
256
6
ByLayer
370
13
48
1
60
0
100
AcDbSpline
70
4
71
3
72
8
73
4
40
0
40
0
40
0
40
0
40
1
40
1
40
1
40
1
41
1
10
177.101159203808
20
-3.94956511597187
30
0
41
1
10
176.540556036131
20
-3.55773705858101
30
0
41
1
10
175.979952868455
20
-3.16590900119016
30
0
41
1
10
175.419349700779
20
-2.77408094379928
30
0
0
SPLINE
5
147
100
AcDbEntity
8
1
62
256
6
ByLayer
370
18
48
1
60
0
100
AcDbSpline
70
4
71
3
72
8
73
4
40
0
40
0
40
0
40
0
40
1
40
1
40
1
40
1
41
1
10
167.950291327287
20
1.40187607021809
30
0
41
1
10
167.883124924663
20
1.28169743494433
30
0
41
1
10
167.815289925034
20
1.16331261615025
30
0
41
1
10
167.746767221443
20
1.04677287695955
30
0
0
SPLINE
5
148
100
AcDbEntity
8
1
62
256
6
ByLayer
370
18
48
1
60
0
100
AcDbSpline
70
4
71
3
72
18
73
14
40
0
40
0
40
0
40
0
40
0.249999999999997
40
0.249999999999997
40
0.374999999999998
40
0.374999999999998
40
0.499999999999998
40
0.499999999999998
40
0.624999999999999
40
0.624999999999999
40
0.749999999999999
40
0.749999999999999
40
1
40
1
40
1
40
1
41
1
10
178.697934241821
20
-1.29006380325646
30
0
41
1
10
178.649285218058
20
-1.5005816213301
30
0
41
1
10
178.589729008866
20
-1.73605500281937
30
0
41
1
10
178.48466983397
20
-2.12524344647818
30
0
41
1
10
178.447127306212
20
-2.26052988462305
30
0
41
1
10
178.368310765702
20
-2.53780471996959
30
0
41
1
10
178.326881456897
20
-2.68036277499525
30
0
41
1
10
178.240095748437
20
-2.97309709651765
30
0
41
1
10
178.194735106749
20
-3.12328159218947
30
0
41
1
10
178.100093080815
20
-3.43125647987509
30
0
41
1
10
178.050589265831
20
-3.5897323803546
30
0
41
1
10
177.898569921205
20
-4.06892769886932
30
0
41
1
10
177.792148493162
20
-4.39486869250956
30
0
41
1
10
177.680734424001
20
-4.72718176683992
30
0
0
SPLINE
5
149
100
AcDbEntity
8
1
62
256
6
ByLayer
370
18
48
1
60
0
100
AcDbSpline
70
4
71
3
72
8
73
4
40
0
40
0
40
0
40
0
40
1
40
1
40
1
40
1
41
1
10
169.381774100756
20
-4.56930449943525
30
0
41
1
10
169.342180224609
20
-4.57240298644385
30
0
41
1
10
169.302591132141
20
-4.57540163910397
30
0
41
1
10
169.263006827995
20
-4.57830036359394
30
0
0
SPLINE
5
14A
100
AcDbEntity
8
1
62
256
6
ByLayer
370
18
48
1
60
0
100
AcDbSpline
70
4
71
3
72
52
73
48
40
0
40
0
40
0
40
0
40
0.128225682681174
40
0.128225682681174
40
0.160282103351468
40
0.160282103351468
40
0.192338524021761
40
0.192338524021761
40
0.256451365362348
40
0.256451365362348
40
0.320564206702935
40
0.320564206702935
40
0.384677048043521
40
0.384677048043521
40
0.416733468713815
40
0.416733468713815
40
0.448789889384108
40
0.448789889384108
40
0.512902730724694
40
0.512902730724694
40
0.641128413405868
40
0.641128413405868
40
0.673184834076161
40
0.673184834076161
40
0.705241254746455
40
0.705241254746455
40
0.769354096087042
40
0.769354096087042
40
0.83346693742763
40
0.83346693742763
40
0.897579778768217
40
0.897579778768217
40
0.92963619943851
40
0.92963619943851
40
0.933643252022297
40
0.933643252022297
40
0.937650304606084
40
0.937650304606084
40
0.945664409773657
40
0.945664409773657
40
0.961692620108802
40
0.961692620108802
40
0.977720830443947
40
0.977720830443947
40
0.993749040779092
40
0.993749040779092
40
1
40
1
40
1
40
1
41
1
10
31.14999999993
20
-7.79040298481411
30
0
41
1
10
35.773748231939
20
-8.52512624574086
30
0
41
1
10
40.3987399697776
20
-9.19841555988017
30
0
41
1
10
46.1772425697092
20
-9.958988360283
30
0
41
1
10
47.3328364029907
20
-10.1070232973941
30
0
41
1
10
49.6438342201202
20
-10.3947138513957
30
0
41
1
10
50.7991680626415
20
-10.5345747017489
30
0
41
1
10
54.2654659573867
20
-10.9395503295491
30
0
41
1
10
56.577257324442
20
-11.1889531395618
30
0
41
1
10
61.2002522569333
20
-11.6451838922612
30
0
41
1
10
63.5118000274191
20
-11.8519605790252
30
0
41
1
10
68.1353005670225
20
-12.2232448847852
30
0
41
1
10
70.4475895289731
20
-12.3878457411326
30
0
41
1
10
73.9149439323821
20
-12.6024252413972
30
0
41
1
10
75.070549439463
20
-12.6685425801418
30
0
41
1
10
77.3814158276043
20
-12.7897190841903
30
0
41
1
10
78.5366194051696
20
-12.8448239517748
30
0
41
1
10
82.0026616230136
20
-12.9921263344755
30
0
41
1
10
84.3140516620337
20
-13.0663340484685
30
0
41
1
10
91.2499403009704
20
-13.2183661322483
30
0
41
1
10
95.8729427662016
20
-13.226275641923
30
0
41
1
10
101.651950288267
20
-13.1194366487214
30
0
41
1
10
102.807799882866
20
-13.0921834058909
30
0
41
1
10
105.118860373918
20
-13.0257286646158
30
0
41
1
10
106.274150440263
20
-12.9864919324504
30
0
41
1
10
109.740451335514
20
-12.8517619517287
30
0
41
1
10
112.051575615568
20
-12.7390796209806
30
0
41
1
10
116.674937652482
20
-12.469114155214
30
0
41
1
10
118.98736744092
20
-12.311876314888
30
0
41
1
10
123.611200178487
20
-11.9547572726472
30
0
41
1
10
125.922858323335
20
-11.7547048885675
30
0
41
1
10
129.390149187068
20
-11.4222326679623
30
0
41
1
10
130.545902929692
20
-11.3060675359419
30
0
41
1
10
131.845865072151
20
-11.1691636071438
30
0
41
1
10
131.990414753802
20
-11.1541443446751
30
0
41
1
10
132.278840265217
20
-11.1222746208502
30
0
41
1
10
132.422992462816
20
-11.1061043217243
30
0
41
1
10
132.855262437657
20
-11.0568600000305
30
0
41
1
10
133.143184107605
20
-11.0230285096281
30
0
41
1
10
134.006085837774
20
-10.9181809051085
30
0
41
1
10
134.580197979117
20
-10.8438513168832
30
0
41
1
10
135.72518130688
20
-10.6831014757205
30
0
41
1
10
136.296354114477
20
-10.5967237554526
30
0
41
1
10
137.430658273304
20
-10.4058135103589
30
0
41
1
10
137.994278725858
20
-10.3017567834815
30
0
41
1
10
138.767613279943
20
-10.1339643769695
30
0
41
1
10
138.98348048537
20
-10.0843367537638
30
0
41
1
10
139.197556944908
20
-10.0306435624123
30
0
0
SPLINE
5
14B
100
AcDbEntity
8
1
62
256
6
ByLayer
370
18
48
1
60
0
100
AcDbSpline
70
4
71
3
72
8
73
4
40
0
40
0
40
0
40
0
40
1
40
1
40
1
40
1
41
1
10
147.953550205825
20
11.5972464882587
30
0
41
1
10
148.197692163201
20
11.6581686256404
30
0
41
1
10
148.421571138994
20
11.7342620906743
30
0
41
1
10
148.624504680379
20
11.822170984744
30
0
0
SPLINE
5
14C
100
AcDbEntity
8
1
62
256
6
ByLayer
370
18
48
1
60
0
100
AcDbSpline
70
4
71
3
72
40
73
36
40
0
40
0
40
0
40
0
40
0.015625
40
0.015625
40
0.03125
40
0.03125
40
0.0624999999999998
40
0.0624999999999998
40
0.0937499999999995
40
0.0937499999999995
40
0.124999999999999
40
0.124999999999999
40
0.156249999999999
40
0.156249999999999
40
0.187499999999999
40
0.187499999999999
40
0.249999999999998
40
0.249999999999998
40
0.281249999999997
40
0.281249999999997
40
0.312499999999996
40
0.312499999999996
40
0.374999999999996
40
0.374999999999996
40
0.437499999999996
40
0.437499999999996
40
0.499999999999996
40
0.499999999999996
40
0.624999999999997
40
0.624999999999997
40
0.749999999999998
40
0.749999999999998
40
0.874999999999999
40
0.874999999999999
40
1
40
1
40
1
40
1
41
1
10
7.01209999999998
20
3.31048378719345
30
0
41
1
10
7.01243846809604
20
3.42089859837839
30
0
41
1
10
7.01666949681538
20
3.53153113101917
30
0
41
1
10
7.03311559361441
20
3.75324060455893
30
0
41
1
10
7.04535336545592
20
3.86409076431579
30
0
41
1
10
7.09330889830309
20
4.19174174750398
30
0
41
1
10
7.14034344378416
20
4.40549027090808
30
0
41
1
10
7.26284476996574
20
4.82400276185268
30
0
41
1
10
7.33832061758898
20
5.02876389585273
30
0
41
1
10
7.51698035033783
20
5.42930864472629
30
0
41
1
10
7.61837753015297
20
5.62111210093255
30
0
41
1
10
7.84243653068103
20
5.98904134582773
30
0
41
1
10
7.96513391154483
20
6.16520709019687
30
0
41
1
10
8.22992436955056
20
6.50291973909705
30
0
41
1
10
8.37253800329029
20
6.66482341261335
30
0
41
1
10
8.81738223011499
20
7.12033721310607
30
0
41
1
10
9.1389741905021
20
7.38769610483106
30
0
41
1
10
9.64852206825043
20
7.74532082560546
30
0
41
1
10
9.82295154792115
20
7.85723314185643
30
0
41
1
10
10.1797110497539
20
8.06780833380256
30
0
41
1
10
10.3608670465256
20
8.1657509358572
30
0
41
1
10
10.9074365013126
20
8.43866175603699
30
0
41
1
10
11.2774705973477
20
8.59379923944877
30
0
41
1
10
12.0238851769927
20
8.86382442289562
30
0
41
1
10
12.4003003187665
20
8.97864018998354
30
0
41
1
10
13.1565952638697
20
9.17751885603153
30
0
41
1
10
13.5372102298315
20
9.26164877113362
30
0
41
1
10
14.672151822098
20
9.47732984683108
30
0
41
1
10
15.4222931321486
20
9.57388453303454
30
0
41
1
10
16.9144951206357
20
9.71862597585752
30
0
41
1
10
17.6567923686126
20
9.76639832679436
30
0
41
1
10
19.1411577414898
20
9.84040173580365
30
0
41
1
10
19.8828986447911
20
9.86645532343948
30
0
41
1
10
21.3770770417897
20
9.9144343977465
30
0
41
1
10
22.1294039046318
20
9.9362748411975
30
0
41
1
10
22.8943912263771
20
9.96165959850177
30
0
0
SPLINE
5
14D
100
AcDbEntity
8
1
62
256
6
ByLayer
370
13
48
1
60
0
100
AcDbSpline
70
4
71
3
72
14
73
10
40
0
40
0
40
0
40
0
40
0.25
40
0.25
40
0.5
40
0.5
40
0.75
40
0.75
40
1
40
1
40
1
40
1
41
1
10
177.415292581757
20
1.35342200938766
30
0
41
1
10
177.1726417974
20
1.04588920518816
30
0
41
1
10
176.940031305353
20
0.717451314917923
30
0
41
1
10
176.510385221543
20
0.0344912399525299
30
0
41
1
10
176.313450169605
20
-0.319928547131269
30
0
41
1
10
175.967880874349
20
-1.0346655738968
30
0
41
1
10
175.819310464526
20
-1.39484962458218
30
0
41
1
10
175.577616916111
20
-2.10023521288792
30
0
41
1
10
175.484496664065
20
-2.4453235583486
30
0
41
1
10
175.419349700779
20
-2.77408094379928
30
0
0
SPLINE
5
14E
100
AcDbEntity
8
1
62
256
6
ByLayer
370
18
48
1
60
0
100
AcDbSpline
70
4
71
3
72
28
73
24
40
0
40
0
40
0
40
0
40
0.124999999999999
40
0.124999999999999
40
0.249999999999999
40
0.249999999999999
40
0.312499999999998
40
0.312499999999998
40
0.374999999999998
40
0.374999999999998
40
0.437499999999998
40
0.437499999999998
40
0.499999999999997
40
0.499999999999997
40
0.624999999999997
40
0.624999999999997
40
0.749999999999997
40
0.749999999999997
40
0.812499999999997
40
0.812499999999997
40
0.874999999999997
40
0.874999999999997
40
1
40
1
40
1
40
1
41
1
10
146.32557697316
20
-8.56522653251332
30
0
41
1
10
146.546973919687
20
-8.60296662940178
30
0
41
1
10
146.774114167738
20
-8.62122922137411
30
0
41
1
10
147.222401563742
20
-8.61932631735638
30
0
41
1
10
147.444789279315
20
-8.59964625135032
30
0
41
1
10
147.775651670159
20
-8.54067809487015
30
0
41
1
10
147.884001337607
20
-8.51629331790593
30
0
41
1
10
148.095135456731
20
-8.45859805398308
30
0
41
1
10
148.198221177267
20
-8.42523406582782
30
0
41
1
10
148.399441211907
20
-8.34927628981657
30
0
41
1
10
148.497576042436
20
-8.3066840765768
30
0
41
1
10
148.688715112707
20
-8.21166804540005
30
0
41
1
10
148.780266788373
20
-8.15993906754082
30
0
41
1
10
149.041618370357
20
-7.99300792696462
30
0
41
1
10
149.199028584049
20
-7.8658472399261
30
0
41
1
10
149.479024833402
20
-7.57627891680167
30
0
41
1
10
149.596288817175
20
-7.41930855930397
30
0
41
1
10
149.739400202613
20
-7.16532484367841
30
0
41
1
10
149.781607342986
20
-7.07753447818081
30
0
41
1
10
149.85469930932
20
-6.89530491490126
30
0
41
1
10
149.88488769549
20
-6.80259291048787
30
0
41
1
10
149.957225852457
20
-6.51994661588293
30
0
41
1
10
149.981397883739
20
-6.32542014874849
30
0
41
1
10
149.981398087173
20
-6.12447766453778
30
0
0
SPLINE
5
14F
100
AcDbEntity
8
1
62
256
6
ByLayer
370
18
48
1
60
0
100
AcDbSpline
70
4
71
3
72
26
73
22
40
0
40
0
40
0
40
0
40
0.125000000000001
40
0.125000000000001
40
0.250000000000002
40
0.250000000000002
40
0.375000000000003
40
0.375000000000003
40
0.437500000000003
40
0.437500000000003
40
0.500000000000003
40
0.500000000000003
40
0.625000000000004
40
0.625000000000004
40
0.6875
40
0.6875
40
0.749999999999997
40
0.749999999999997
40
0.874999999999999
40
0.874999999999999
40
1
40
1
40
1
40
1
41
1
10
31.149999999876
20
12.782493681141
30
0
41
1
10
31.1499999998759
20
12.7199328037158
30
0
41
1
10
31.1643179182629
20
12.6551758771189
30
0
41
1
10
31.2210731944986
20
12.5217326527424
30
0
41
1
10
31.2636573788225
20
12.4528568741841
30
0
41
1
10
31.378195758396
20
12.3125429206908
30
0
41
1
10
31.4486789639004
20
12.242831323348
30
0
41
1
10
31.5736825973616
20
12.1397773376765
30
0
41
1
10
31.6185807674485
20
12.1056807842622
30
0
41
1
10
31.7149532368142
20
12.0381766347139
30
0
41
1
10
31.7666508999153
20
12.0046367559007
30
0
41
1
10
31.9304029411341
20
11.9063181070147
30
0
41
1
10
32.0497717884581
20
11.8445088180945
30
0
41
1
10
32.2436397197156
20
11.7582938970016
30
0
41
1
10
32.3107452307211
20
11.7306434049989
30
0
41
1
10
32.4500054218642
20
11.6777319990419
30
0
41
1
10
32.5225522338629
20
11.652351956171
30
0
41
1
10
32.7446173336124
20
11.5812626022143
30
0
41
1
10
32.8983399219083
20
11.5405247269379
30
0
41
1
10
33.2167241224432
20
11.4729570389891
30
0
41
1
10
33.3813845178892
20
11.4461211877856
30
0
41
1
10
33.5518018386843
20
11.4269919417628
30
0
0
SPLINE
5
150
100
AcDbEntity
8
1
62
256
6
ByLayer
370
18
48
1
60
0
100
AcDbSpline
70
4
71
3
72
14
73
10
40
0
40
0
40
0
40
0
40
0.250000000000006
40
0.250000000000006
40
0.375000000000009
40
0.375000000000009
40
0.500000000000013
40
0.500000000000013
40
1
40
1
40
1
40
1
41
1
10
26.3092848887249
20
10.0760958180927
30
0
41
1
10
26.4328175402367
20
10.1072631574493
30
0
41
1
10
26.5582521162912
20
10.1330379483711
30
0
41
1
10
26.7492529872797
20
10.1637487784343
30
0
41
1
10
26.8133963164673
20
10.1726554705598
30
0
41
1
10
26.9426545024232
20
10.1877684849497
30
0
41
1
10
27.0079646272499
20
10.1939819686873
30
0
41
1
10
27.3325272602875
20
10.2178268121713
30
0
41
1
10
27.5885464767967
20
10.2146859448244
30
0
41
1
10
27.8409690283985
20
10.1888669274819
30
0
0
SPLINE
5
151
100
AcDbEntity
8
1
62
256
6
ByLayer
370
18
48
1
60
0
100
AcDbSpline
70
4
71
3
72
8
73
4
40
0
40
0
40
0
40
0
40
1
40
1
40
1
40
1
41
1
10
162.451040764009
20
-12.9174053487591
30
0
41
1
10
162.468079059985
20
-12.9111584236132
30
0
41
1
10
162.48584785416
20
-12.9051357285257
30
0
41
1
10
162.504358970512
20
-12.8993495209061
30
0
0
SPLINE
5
152
100
AcDbEntity
8
1
62
256
6
ByLayer
370
18
48
1
60
0
100
AcDbSpline
70
4
71
3
72
57
73
53
40
0
40
0
40
0
40
0
40
0.0156249999999938
40
0.0156249999999938
40
0.0166015624999934
40
0.0166015624999934
40
0.017578124999993
40
0.017578124999993
40
0.0195312499999929
40
0.0195312499999929
40
0.0234374999999927
40
0.0312499999999923
40
0.0312499999999923
40
0.0624999999999912
40
0.0624999999999912
40
0.0937499999999902
40
0.0937499999999902
40
0.10156249999999
40
0.10156249999999
40
0.105468749999989
40
0.105468749999989
40
0.109374999999989
40
0.109374999999989
40
0.124999999999988
40
0.124999999999988
40
0.187499999999989
40
0.187499999999989
40
0.249999999999989
40
0.249999999999989
40
0.312499999999989
40
0.312499999999989
40
0.343749999999989
40
0.343749999999989
40
0.374999999999989
40
0.374999999999989
40
0.43749999999999
40
0.43749999999999
40
0.499999999999991
40
0.499999999999991
40
0.562499999999992
40
0.562499999999992
40
0.624999999999992
40
0.624999999999992
40
0.687499999999993
40
0.687499999999993
40
0.749999999999994
40
0.749999999999994
40
0.812499999999996
40
0.812499999999996
40
0.874999999999997
40
0.874999999999997
40
1
40
1
40
1
40
1
41
1
10
147.959512659025
20
-11.5861953242653
30
0
41
1
10
147.363127371479
20
-11.4698400043249
30
0
41
1
10
146.76685114892
20
-11.3491287059734
30
0
41
1
10
146.133375044624
20
-11.2163376152328
30
0
41
1
10
146.096112016314
20
-11.2085096530195
30
0
41
1
10
146.021586428164
20
-11.1928204266528
30
0
41
1
10
145.984518274337
20
-11.1845889972296
30
0
41
1
10
145.871849247355
20
-11.1626343625485
30
0
41
1
10
145.796659151463
20
-11.1480894524195
30
0
41
1
10
145.570954293948
20
-11.1045507364005
30
0
41
1
10
145.11888238228
20
-11.0180926325253
30
0
41
1
10
144.664928337848
20
-10.9334617333673
30
0
41
1
10
143.148027978108
20
-10.6551500307667
30
0
41
1
10
141.922789537755
20
-10.4445951301668
30
0
41
1
10
139.457184190846
20
-10.0411628084046
30
0
41
1
10
138.218351216803
20
-9.84852285562999
30
0
41
1
10
136.66621486283
20
-9.61618866470928
30
0
41
1
10
136.355571993987
20
-9.57014680737745
30
0
41
1
10
135.889311366589
20
-9.50167131034817
30
0
41
1
10
135.733837764631
20
-9.47895786670276
30
0
41
1
10
135.422811659556
20
-9.43366409220349
30
0
41
1
10
135.267501774495
20
-9.41023890794619
30
0
41
1
10
134.490545380024
20
-9.29415917848758
30
0
41
1
10
133.868977030106
20
-9.20013594256483
30
0
41
1
10
130.761074178208
20
-8.72440328389965
30
0
41
1
10
128.274545081835
20
-8.32588612796957
30
0
41
1
10
123.300102883506
20
-7.49701370702698
30
0
41
1
10
120.812742079101
20
-7.06679038208651
30
0
41
1
10
115.839081846628
20
-6.1786641928453
30
0
41
1
10
113.352440935202
20
-5.7207764202546
30
0
41
1
10
109.622218378817
20
-5.01540471275601
30
0
41
1
10
108.378728814928
20
-4.77691326490029
30
0
41
1
10
105.891977092774
20
-4.29602666660389
30
0
41
1
10
104.648663986529
20
-4.05355336088528
30
0
41
1
10
100.9187269026
20
-3.32095051444887
30
0
41
1
10
98.432089518383
20
-2.82571323888109
30
0
41
1
10
93.4578907239923
20
-1.82596319955664
30
0
41
1
10
90.970219957969
20
-1.3214497392166
30
0
41
1
10
85.9965635270206
20
-0.307833984428015
30
0
41
1
10
83.5102594714125
20
0.201865896651441
30
0
41
1
10
78.5373320970593
20
1.22035522220949
30
0
41
1
10
76.04993463425
20
1.72687577282028
30
0
41
1
10
71.0761967948629
20
2.72902931898892
30
0
41
1
10
68.5894996169944
20
3.2246888902813
30
0
41
1
10
63.6155774883816
20
4.20104707888424
30
0
41
1
10
61.1279368832818
20
4.68183749989288
30
0
41
1
10
56.1543555031581
20
5.62412226573468
30
0
41
1
10
53.6684404668034
20
6.08650437519262
30
0
41
1
10
48.6955137367273
20
6.9810658437944
30
0
41
1
10
46.2082421187572
20
7.41393295456223
30
0
41
1
10
38.7466039827055
20
8.66304711334516
30
0
41
1
10
33.7739865187344
20
9.42956425915224
30
0
41
1
10
28.8
20
10.1170862747668
30
0
0
SPLINE
5
153
100
AcDbEntity
8
1
62
256
6
ByLayer
370
18
48
1
60
0
100
AcDbSpline
70
4
71
3
72
8
73
4
40
0
40
0
40
0
40
0
40
1
40
1
40
1
40
1
41
1
10
28.8
20
-7.94460028697387
30
0
41
1
10
29.5833168665034
20
-8.07527310431075
30
0
41
1
10
30.3666469727855
20
-8.20412529259829
30
0
41
1
10
31.1499999999549
20
-8.33113208044941
30
0
0
SPLINE
5
154
100
AcDbEntity
8
1
62
256
6
ByLayer
370
13
48
1
60
0
100
AcDbSpline
70
4
71
3
72
10
73
6
40
0
40
0
40
0
40
0
40
0.0018148238749767
40
0.0018148238749767
40
1
40
1
40
1
40
1
41
1
10
177.48324690928
20
1.3757077901204
30
0
41
1
10
177.483233088959
20
1.37571729379354
30
0
41
1
10
177.483219268581
20
1.37572679739134
30
0
41
1
10
177.475604060257
20
1.38096353022496
30
0
41
1
10
177.468020347768
20
1.38621342653533
30
0
41
1
10
177.460454739722
20
1.39148621812632
30
0
0
SPLINE
5
155
100
AcDbEntity
8
1
62
256
6
ByLayer
370
18
48
1
60
0
100
AcDbSpline
70
4
71
3
72
9
73
5
40
0
40
0
40
0
40
0
40
0.497082758674237
40
1
40
1
40
1
40
1
41
1
10
161.400000001185
20
12.6930465862076
30
0
41
1
10
161.384501595672
20
12.7206067950709
30
0
41
1
10
161.353322872931
20
12.7760506992947
30
0
41
1
10
161.321495625712
20
12.8311521412025
30
0
41
1
10
161.305489154341
20
12.8588636063598
30
0
0
SPLINE
5
156
100
AcDbEntity
8
1
62
256
6
ByLayer
370
18
48
1
60
0
100
AcDbSpline
70
4
71
2
72
6
73
3
40
0
40
0
40
0
40
1
40
1
40
1
41
0.50000000613936
10
27.8409690283985
20
10.1888669274819
30
0
41
0.49999999386064
10
27.8413020137459
20
10.1902687365325
30
0
41
0.50000000613936
10
27.8416349181591
20
10.1916700700356
30
0
0
SPLINE
5
157
100
AcDbEntity
8
1
62
256
6
ByLayer
370
18
48
1
60
0
100
AcDbSpline
70
4
71
3
72
20
73
16
40
0
40
0
40
0
40
0
40
0.112215195319177
40
0.300606986402972
40
0.459179570850918
40
0.554975361975182
40
0.635830866240405
40
0.716709136992275
40
0.764645546408973
40
0.812591585457792
40
0.857066630223684
40
0.901539561997871
40
0.94601439587219
40
0.990491219901673
40
1
40
1
40
1
40
1
41
1.10374900959774
10
100.030963710283
20
-0.0057634833582783
30
0
41
1.10374900959774
10
101.766990721959
20
-0.345834073515811
30
0
41
1.10374900959774
10
106.416992306456
20
-1.25681506659752
30
0
41
1.10374900959774
10
113.513228036427
20
-2.63731696313988
30
0
41
1.10374900959774
10
120.357125900063
20
-3.93428958210383
30
0
41
1.10374900959774
10
125.538921988924
20
-4.8879176362347
30
0
41
1.10374900959774
10
129.517282833654
20
-5.60373538708962
30
0
41
1.10374900959774
10
132.755170140386
20
-6.16836481773939
30
0
41
1.10374900959774
10
135.481439637708
20
-6.6409723279272
30
0
41
1.10374900959774
10
137.649885870794
20
-6.98617157504915
30
0
41
1.10374900959774
10
139.745503981051
20
-7.39764942039103
30
0
41
1.10374900959774
10
141.793713384496
20
-7.76871600935211
30
0
41
1.10374900959774
10
143.84068281654
20
-8.13603477784431
30
0
41
1.10374900959774
10
145.351448760817
20
-8.3987420033448
30
0
41
1.10374900959774
10
146.179696528507
20
-8.54035924232853
30
0
41
1.10374900959774
10
146.32557697316
20
-8.56522653251328
30
0
0
SPLINE
5
158
100
AcDbEntity
8
1
62
256
6
ByLayer
370
18
48
1
60
0
100
AcDbSpline
70
4
71
3
72
8
73
4
40
0
40
0
40
0
40
0
40
1
40
1
40
1
40
1
41
1
10
22.9870279491685
20
9.96466646524365
30
0
41
1
10
22.9561515760469
20
9.96368660184936
30
0
41
1
10
22.9252726288525
20
9.96268434346783
30
0
41
1
10
22.8943912263771
20
9.96165959850177
30
0
0
SPLINE
5
159
100
AcDbEntity
8
1
62
256
6
ByLayer
370
13
48
1
60
0
100
AcDbSpline
70
4
71
3
72
8
73
4
40
0
40
0
40
0
40
0
40
1
40
1
40
1
40
1
41
1
10
175.071570255568
20
4.76158564685676
30
0
41
1
10
175.941291645046
20
4.75011768685116
30
0
41
1
10
176.811013034523
20
4.73864972684555
30
0
41
1
10
177.680734424
20
4.72718176683992
30
0
0
SPLINE
5
15A
100
AcDbEntity
8
1
62
256
6
ByLayer
370
18
48
1
60
0
100
AcDbSpline
70
4
71
3
72
10
73
6
40
0
40
0
40
0
40
0
40
0.525988194707215
40
0.525988194707215
40
1
40
1
40
1
40
1
41
1
10
175.028076583259
20
4.8330260038388
30
0
41
1
10
175.03179212289
20
4.83621506464203
30
0
41
1
10
175.035988943777
20
4.83898403734582
30
0
41
1
10
175.044543456365
20
4.84274391127047
30
0
41
1
10
175.048936630591
20
4.84390712744772
30
0
41
1
10
175.053321751857
20
4.84432608319599
30
0
0
SPLINE
5
15B
100
AcDbEntity
8
1
62
256
6
ByLayer
370
18
48
1
60
0
100
AcDbSpline
70
4
71
3
72
8
73
4
40
0
40
0
40
0
40
0
40
1
40
1
40
1
40
1
41
1
10
175.958198334037
20
9.7538094719076
30
0
41
1
10
175.579754410803
20
10.9189789405391
30
0
41
1
10
175.194576335203
20
12.0915881064809
30
0
41
1
10
174.802382092217
20
13.2719485317942
30
0
0
SPLINE
5
15C
100
AcDbEntity
8
1
62
256
6
ByLayer
370
18
48
1
60
0
100
AcDbSpline
70
4
71
2
72
9
73
6
40
0
40
0
40
0
40
0.243735889423558
40
0.495823926282372
40
0.747911963141186
40
1
40
1
40
1
41
1
10
169.381773641319
20
-4.56930494530792
30
0
41
1
10
169.513148542991
20
-5.57932321138617
30
0
41
1
10
169.894530454203
20
-7.49334679263507
30
0
41
1
10
170.39208171562
20
-9.24049757539018
30
0
41
1
10
170.986355162737
20
-10.7429431136943
30
0
41
1
10
171.324152667162
20
-11.3520120570903
30
0
0
SPLINE
5
15D
100
AcDbEntity
8
1
62
256
6
ByLayer
370
18
48
1
60
0
100
AcDbSpline
70
4
71
3
72
14
73
10
40
0
40
0
40
0
40
0
40
0.25
40
0.25
40
0.5
40
0.5
40
0.75
40
0.75
40
1
40
1
40
1
40
1
41
1
10
22.2348834614731
20
-6.01192561064008
30
0
41
1
10
22.2777357398037
20
-6.00532059950032
30
0
41
1
10
22.3277611179902
20
-6.00054450154721
30
0
41
1
10
22.4411564935851
20
-5.99632897584044
30
0
41
1
10
22.5044441022887
20
-5.99685287179014
30
0
41
1
10
22.645536060868
20
-6.00449990061654
30
0
41
1
10
22.7235109520125
20
-6.01164394993802
30
0
41
1
10
22.895568872996
20
-6.03401877270966
30
0
41
1
10
22.9882650095389
20
-6.04907112246187
30
0
41
1
10
23.0881923667717
20
-6.06832248084345
30
0
0
SPLINE
5
15E
100
AcDbEntity
8
1
62
256
6
ByLayer
370
18
48
1
60
0
100
AcDbSpline
70
4
71
3
72
16
73
12
40
0
40
0
40
0
40
0
40
0.226118483691139
40
0.226118483691139
40
0.484078989127426
40
0.484078989127426
40
0.613059241845569
40
0.613059241845569
40
0.742039494563713
40
0.742039494563713
40
1
40
1
40
1
40
1
41
1
10
162.805296966064
20
3.22247847607159
30
0
41
1
10
163.517695567471
20
3.13697023931255
30
0
41
1
10
164.230464548752
20
3.05351391128531
30
0
41
1
10
165.757134763623
20
2.87905973193927
30
0
41
1
10
166.571154310366
20
2.78871733683246
30
0
41
1
10
167.794227260229
20
2.66452547635061
30
0
41
1
10
168.20201386388
20
2.62470340155221
30
0
41
1
10
169.017621130911
20
2.54564530069908
30
0
41
1
10
169.425451752632
20
2.50656604253084
30
0
41
1
10
170.649045474721
20
2.39102584129648
30
0
41
1
10
171.464889017381
20
2.31590556982306
30
0
41
1
10
172.28099580122
20
2.24517254239737
30
0
0
SPLINE
5
15F
100
AcDbEntity
8
1
62
256
6
ByLayer
370
18
48
1
60
0
100
AcDbSpline
70
4
71
3
72
8
73
4
40
0
40
0
40
0
40
0
40
1
40
1
40
1
40
1
41
1
10
174.640160256861
20
-13.4000734634575
30
0
41
1
10
174.612787740997
20
-13.4824022397457
30
0
41
1
10
174.585384068643
20
-13.5647593286409
30
0
41
1
10
174.557949831681
20
-13.6471427801002
30
0
0
SPLINE
5
160
100
AcDbEntity
8
1
62
256
6
ByLayer
370
18
48
1
60
0
100
AcDbSpline
70
4
71
3
72
8
73
4
40
0
40
0
40
0
40
0
40
1
40
1
40
1
40
1
41
1
10
175.028076583259
20
4.8330260038388
30
0
41
1
10
174.98573917588
20
4.79668765737981
30
0
41
1
10
174.943575631519
20
4.76022027727282
30
0
41
1
10
174.901582112758
20
4.72365867647025
30
0
0
SPLINE
5
161
100
AcDbEntity
8
1
62
256
6
ByLayer
370
18
48
1
60
0
100
AcDbSpline
70
4
71
3
72
10
73
6
40
0
40
0
40
0
40
0
40
0.5
40
0.5
40
1
40
1
40
1
40
1
41
1
10
161.305489155436
20
12.858863604473
30
0
41
1
10
159.315450110258
20
12.7589905320914
30
0
41
1
10
157.330135808109
20
12.6001092704099
30
0
41
1
10
153.362612924253
20
12.1556404494066
30
0
41
1
10
151.380104351916
20
11.8712272304041
30
0
41
1
10
149.394499135186
20
11.5286798266181
30
0
0
SPLINE
5
162
100
AcDbEntity
8
1
62
256
6
ByLayer
370
18
48
1
60
0
100
AcDbSpline
70
2053
71
3
72
39
73
35
40
0
40
0
40
0
40
0
40
0.031127715835299
40
0.0624439450918891
40
0.093625346976546
40
0.12489664894278
40
0.156198375213815
40
0.187377975814669
40
0.219468036018122
40
0.24987340158278
40
0.280283007134274
40
0.312398108928809
40
0.343574750700273
40
0.374904905348354
40
0.406071837167957
40
0.437393625410069
40
0.468627561788177
40
0.499838487512796
40
0.531162653356338
40
0.5624665499419
40
0.593713274036922
40
0.625015735303839
40
0.656194293148004
40
0.687532688030756
40
0.718715027456584
40
0.749983306778987
40
0.781254941573075
40
0.812409607013976
40
0.843737611894347
40
0.87489382516351
40
0.906218917208145
40
0.93746620811497
40
0.96868296580632
40
1
40
1
40
1
40
1
41
1
10
155.17
20
-7.31419275937605
30
0
41
1
10
154.971760054478
20
-7.31419179218422
30
0
41
1
10
154.57408938057
20
-7.34848951307822
30
0
41
1
10
154.002018530525
20
-7.49941734750752
30
0
41
1
10
153.475665476004
20
-7.74010099491079
30
0
41
1
10
153.01506995845
20
-8.0555783053201
30
0
41
1
10
152.636710478187
20
-8.42864682009682
30
0
41
1
10
152.352013257539
20
-8.84397475456629
30
0
41
1
10
152.178747055566
20
-9.27407351826662
30
0
41
1
10
152.121377590438
20
-9.69946180212193
30
0
41
1
10
152.177824487128
20
-10.1051035051905
30
0
41
1
10
152.350292110456
20
-10.4800041434088
30
0
41
1
10
152.634393619359
20
-10.8103094615113
30
0
41
1
10
153.011834260073
20
-11.0835984884035
30
0
41
1
10
153.472121131912
20
-11.299204950066
30
0
41
1
10
153.997832007412
20
-11.4544133620024
30
0
41
1
10
154.570502087744
20
-11.5481310811674
30
0
41
1
10
155.167612963765
20
-11.5796667513071
30
0
41
1
10
155.765309811768
20
-11.5486398925513
30
0
41
1
10
156.338859332177
20
-11.4551562439503
30
0
41
1
10
156.86560008587
20
-11.3000848518366
30
0
41
1
10
157.325822682764
20
-11.0849462456931
30
0
41
1
10
157.704259612096
20
-10.8115588929022
30
0
41
1
10
157.986111988225
20
-10.4845814489686
30
0
41
1
10
158.160569901557
20
-10.1105598333719
30
0
41
1
10
158.219713358385
20
-9.70142096155823
30
0
41
1
10
158.160704481838
20
-9.27249848266229
30
0
41
1
10
157.986469494559
20
-8.84203640871317
30
0
41
1
10
157.705004190335
20
-8.43069836043406
30
0
41
1
10
157.326838603887
20
-8.05721146636512
30
0
41
1
10
156.866795113614
20
-7.74142201439003
30
0
41
1
10
156.340532669113
20
-7.50035058162345
30
0
41
1
10
155.767708151163
20
-7.34875359855803
30
0
41
1
10
155.369445638264
20
-7.31419373245034
30
0
41
1
10
155.17
20
-7.31419275937605
30
0
0
SPLINE
5
163
100
AcDbEntity
8
1
62
256
6
ByLayer
370
18
48
1
60
0
100
AcDbSpline
70
4
71
3
72
12
73
8
40
0
40
0
40
0
40
0
40
0.519734396518121
40
0.519734396518121
40
0.779601594777176
40
0.779601594777176
40
1
40
1
40
1
40
1
41
1
10
161.545421537682
20
-13.4503283066957
30
0
41
1
10
162.639261178066
20
-13.557143738516
30
0
41
1
10
163.731882725537
20
-13.6358448788605
30
0
41
1
10
165.368582897375
20
-13.7127004089041
30
0
41
1
10
165.913785018017
20
-13.7314288228819
30
0
41
1
10
166.920712760319
20
-13.7532395993205
30
0
41
1
10
167.382473665452
20
-13.7582477765251
30
0
41
1
10
167.844444188143
20
-13.7582485074067
30
0
0
SPLINE
5
164
100
AcDbEntity
8
1
62
256
6
ByLayer
370
18
48
1
60
0
100
AcDbSpline
70
4
71
3
72
8
73
4
40
0
40
0
40
0
40
0
40
1
40
1
40
1
40
1
41
1
10
143.546453958606
20
9.23732551153213
30
0
41
1
10
145.69199396052
20
8.67036981723103
30
0
41
1
10
147.835672308205
20
8.05409727124683
30
0
41
1
10
149.981398093493
20
7.39670400886149
30
0
0
SPLINE
5
165
100
AcDbEntity
8
1
62
256
6
ByLayer
370
18
48
1
60
0
100
AcDbSpline
70
4
71
3
72
28
73
24
40
0
40
0
40
0
40
0
40
0.249750247875701
40
0.249750247875701
40
0.265359638367935
40
0.265359638367935
40
0.273164333614051
40
0.273164333614051
40
0.277066681237109
40
0.277066681237109
40
0.280969028860167
40
0.280969028860167
40
0.312187809844685
40
0.312187809844685
40
0.374625371813731
40
0.374625371813731
40
0.499500495751832
40
0.499500495751832
40
0.749250743628046
40
0.749250743628046
40
0.99900099150426
40
0.99900099150426
40
1
40
1
40
1
40
1
41
1
10
147.741852372642
20
10.8945165653487
30
0
41
1
10
147.138466212373
20
10.7853570239898
30
0
41
1
10
146.535063238494
20
10.6716504178887
30
0
41
1
10
145.893992270676
20
10.5474226903774
30
0
41
1
10
145.856282515641
20
10.5401022585544
30
0
41
1
10
145.799713284489
20
10.5290458207391
30
0
41
1
10
145.780856595605
20
10.5253391981374
30
0
41
1
10
145.752567116618
20
10.5198006051357
30
0
41
1
10
145.743143274984
20
10.5178404306294
30
0
41
1
10
145.724229438244
20
10.5150535041492
30
0
41
1
10
145.714773360998
20
10.5136359014818
30
0
41
1
10
145.629654388711
20
10.5010296076515
30
0
41
1
10
145.553944821996
20
10.4899554079626
30
0
41
1
10
145.326622896209
20
10.456421181107
30
0
41
1
10
145.174812362902
20
10.4336192590873
30
0
41
1
10
144.718748092253
20
10.3653465785022
30
0
41
1
10
144.413844152223
20
10.3197711921147
30
0
41
1
10
143.49681587549
20
10.1825933267518
30
0
41
1
10
142.882421881812
20
10.0909878198376
30
0
41
1
10
141.648854357583
20
9.9087643285028
30
0
41
1
10
141.029711304992
20
9.81845955609566
30
0
41
1
10
140.40617358612
20
9.72861725829881
30
0
41
1
10
140.403689327113
20
9.7282593332682
30
0
41
1
10
140.401205041767
20
9.72790142334171
30
0
0
SPLINE
5
166
100
AcDbEntity
8
1
62
256
6
ByLayer
370
18
48
1
60
0
100
AcDbSpline
70
4
71
3
72
8
73
4
40
0
40
0
40
0
40
0
40
1
40
1
40
1
40
1
41
1
10
178.931341936472
20
-0.293684967379477
30
0
41
1
10
178.943488174894
20
-0.252153621730599
30
0
41
1
10
178.955676942025
20
-0.210538227748231
30
0
41
1
10
178.967908005215
20
-0.168839938496973
30
0
0
SPLINE
5
167
100
AcDbEntity
8
1
62
256
6
ByLayer
370
18
48
1
60
0
100
AcDbSpline
70
4
71
1
72
4
73
2
40
0
40
0
40
1
40
1
41
1
10
171.324153568367
20
-11.3520033578816
30
0
41
1
10
171.186409800153
20
-11.4117902682684
30
0
0
SPLINE
5
168
100
AcDbEntity
8
1
62
256
6
ByLayer
370
18
48
1
60
0
100
AcDbSpline
70
4
71
3
72
8
73
4
40
0
40
0
40
0
40
0
40
1
40
1
40
1
40
1
41
1
10
161.2
20
5.34999999999999
30
0
41
1
10
161.266665069924
20
5.34999999999999
30
0
41
1
10
161.333331763348
20
5.34999999999999
30
0
41
1
10
161.4
20
5.34999999999999
30
0
0
SPLINE
5
169
100
AcDbEntity
8
1
62
256
6
ByLayer
370
18
48
1
60
0
100
AcDbSpline
70
4
71
3
72
10
73
6
40
0
40
0
40
0
40
0
40
0.5
40
0.5
40
1
40
1
40
1
40
1
41
1
10
148.712837990567
20
11.5428709992427
30
0
41
1
10
148.829213089108
20
11.5496588906004
30
0
41
1
10
148.944503004658
20
11.5521431683722
30
0
41
1
10
149.172845026307
20
11.5476372190969
30
0
41
1
10
149.285074219606
20
11.5406362875116
30
0
41
1
10
149.394499135186
20
11.5286798266181
30
0
0
SPLINE
5
16A
100
AcDbEntity
8
1
62
256
6
ByLayer
370
18
48
1
60
0
100
AcDbSpline
70
4
71
3
72
14
73
10
40
0
40
0
40
0
40
0
40
0.249999999999999
40
0.249999999999999
40
0.375
40
0.375
40
0.500000000000002
40
0.500000000000002
40
1
40
1
40
1
40
1
41
1
10
149.981398093186
20
7.40283181791415
30
0
41
1
10
151.454332843357
20
6.92698219663186
30
0
41
1
10
152.927840624359
20
6.43210562568734
30
0
41
1
10
155.141120083529
20
5.66608915626082
30
0
41
1
10
155.878985565517
20
5.40690202510709
30
0
41
1
10
157.352132130495
20
4.882742698366
30
0
41
1
10
158.087843205366
20
4.61757792088318
30
0
41
1
10
161.763377574601
20
3.27967903584403
30
0
41
1
10
164.693383279758
20
2.16874280733444
30
0
41
1
10
167.624358951676
20
1.04713285169254
30
0
0
SPLINE
5
16B
100
AcDbEntity
8
1
62
256
6
ByLayer
370
18
48
1
60
0
100
AcDbSpline
70
4
71
3
72
14
73
10
40
0
40
0
40
0
40
0
40
0.499999999999963
40
0.499999999999963
40
0.624999999999966
40
0.624999999999966
40
0.749999999999969
40
0.749999999999969
40
1
40
1
40
1
40
1
41
1
10
24.460026699271
20
-6.30439562516713
30
0
41
1
10
24.2074482233023
20
-6.26463268654933
30
0
41
1
10
23.9644623274329
20
-6.22469150204032
30
0
41
1
10
23.6728709942885
20
-6.1746173852228
30
0
41
1
10
23.61514623903
20
-6.16458638897834
30
0
41
1
10
23.5028207108033
20
-6.14482058514329
30
0
41
1
10
23.4479729629836
20
-6.13504371514836
30
0
41
1
10
23.2872657699412
20
-6.10599864844414
30
0
41
1
10
23.185227320877
20
-6.08701660754448
30
0
41
1
10
23.0881923667731
20
-6.06832248084362
30
0
0
SPLINE
5
16C
100
AcDbEntity
8
1
62
256
6
ByLayer
370
13
48
1
60
0
100
AcDbSpline
70
4
71
3
72
10
73
6
40
0
40
0
40
0
40
0
40
0.0192920391406758
40
0.0192920391406758
40
1
40
1
40
1
40
1
41
1
10
175.04446805923
20
4.75871506376933
30
0
41
1
10
175.044472331131
20
4.75869569570952
30
0
41
1
10
175.044476603316
20
4.75867632770783
30
0
41
1
10
175.044698021909
20
4.75767238413545
30
0
41
1
10
175.044914433146
20
4.75668765687317
30
0
41
1
10
175.045130108444
20
4.75570277946233
30
0
0
SPLINE
5
16D
100
AcDbEntity
8
1
62
256
6
ByLayer
370
13
48
1
60
0
100
AcDbSpline
70
4
71
3
72
8
73
4
40
0
40
0
40
0
40
0
40
1
40
1
40
1
40
1
41
1
10
177.415292581757
20
1.35342200938763
30
0
41
1
10
177.42287098658
20
1.34805212023693
30
0
41
1
10
177.430468238454
20
1.34270584225706
30
0
41
1
10
177.438083899064
20
1.33738295147381
30
0
0
SPLINE
5
16E
100
AcDbEntity
8
1
62
256
6
ByLayer
370
18
48
1
60
0
100
AcDbSpline
70
4
71
3
72
12
73
8
40
0
40
0
40
0
40
0
40
0.5
40
0.5
40
0.75
40
0.75
40
1
40
1
40
1
40
1
41
1
10
172.696563461102
20
0.0233636770000203
30
0
41
1
10
172.599993166669
20
0.387096652454716
30
0
41
1
10
172.518345617537
20
0.754925285875402
30
0
41
1
10
172.415860567152
20
1.31215361673534
30
0
41
1
10
172.384712033004
20
1.49826278858865
30
0
41
1
10
172.328701405621
20
1.87122286582263
30
0
41
1
10
172.303788191906
20
2.05807134894673
30
0
41
1
10
172.28099580122
20
2.24517254239743
30
0
0
SPLINE
5
16F
100
AcDbEntity
8
1
62
256
6
ByLayer
370
18
48
1
60
0
100
AcDbSpline
70
4
71
3
72
8
73
4
40
0
40
0
40
0
40
0
40
1
40
1
40
1
40
1
41
1
10
175.958198334037
20
-9.7538094719076
30
0
41
1
10
175.579754410803
20
-10.9189789405391
30
0
41
1
10
175.194576335203
20
-12.0915881064809
30
0
41
1
10
174.802382092217
20
-13.2719485317942
30
0
0
SPLINE
5
170
100
AcDbEntity
8
1
62
256
6
ByLayer
370
18
48
1
60
0
100
AcDbSpline
70
4
71
3
72
8
73
4
40
0
40
0
40
0
40
0
40
1
40
1
40
1
40
1
41
1
10
162.110292996961
20
-13.8921828633232
30
0
41
1
10
163.117579800115
20
-13.943700854088
30
0
41
1
10
164.123792872829
20
-13.9709581290558
30
0
41
1
10
165.128865269204
20
-13.9744118718152
30
0
0
SPLINE
5
171
100
AcDbEntity
8
1
62
256
6
ByLayer
370
13
48
1
60
0
100
AcDbSpline
70
4
71
3
72
8
73
4
40
0
40
0
40
0
40
0
40
1
40
1
40
1
40
1
41
1
10
175.044468059225
20
4.75871506376822
30
0
41
1
10
174.996831226559
20
4.74710828714029
30
0
41
1
10
174.949195356489
20
4.7354214261282
30
0
41
1
10
174.901582112758
20
4.72365867647025
30
0
0
SPLINE
5
172
100
AcDbEntity
8
1
62
256
6
ByLayer
370
18
48
1
60
0
100
AcDbSpline
70
4
71
3
72
18
73
14
40
0
40
0
40
0
40
0
40
0.25
40
0.25
40
0.374999999999999
40
0.374999999999999
40
0.499999999999999
40
0.499999999999999
40
0.75
40
0.75
40
0.875
40
0.875
40
1
40
1
40
1
40
1
41
1
10
27.7567261799358
20
9.71005015643175
30
0
41
1
10
27.6285333643075
20
9.72348379208023
30
0
41
1
10
27.5006521991264
20
9.74284757381628
30
0
41
1
10
27.3092134915636
20
9.77978324328649
30
0
41
1
10
27.2451156342136
20
9.793488597297
30
0
41
1
10
27.1187932800804
20
9.8228848272131
30
0
41
1
10
27.0568057757733
20
9.8385007577098
30
0
41
1
10
26.8738859261273
20
9.88755711121297
30
0
41
1
10
26.7559716071353
20
9.92318424277693
30
0
41
1
10
26.5838109931695
20
9.9793035393096
30
0
41
1
10
26.5270808892688
20
9.99851236630133
30
0
41
1
10
26.4164054802367
20
10.0371268727481
30
0
41
1
10
26.36230338886
20
10.0565806969874
30
0
41
1
10
26.3092848887249
20
10.0760958180927
30
0
0
SPLINE
5
173
100
AcDbEntity
8
1
62
256
6
ByLayer
370
18
48
1
60
0
100
AcDbSpline
70
4
71
3
72
54
73
50
40
0
40
0
40
0
40
0
40
0.12882240040507
40
0.12882240040507
40
0.193233600607605
40
0.193233600607605
40
0.225439200708873
40
0.225439200708873
40
0.25764480081014
40
0.25764480081014
40
0.322056001012675
40
0.322056001012675
40
0.38646720121521
40
0.38646720121521
40
0.450878401417745
40
0.450878401417745
40
0.483084001519013
40
0.483084001519013
40
0.51528960162028
40
0.51528960162028
40
0.579700801822816
40
0.579700801822816
40
0.644112002025351
40
0.644112002025351
40
0.708523202227886
40
0.708523202227886
40
0.772934402430421
40
0.772934402430421
40
0.837345602632956
40
0.837345602632956
40
0.901756802835491
40
0.901756802835491
40
0.933962402936759
40
0.933962402936759
40
0.937988102949416
40
0.937988102949416
40
0.940000952955745
40
0.940000952955745
40
0.942013802962074
40
0.942013802962074
40
0.950065202987389
40
0.950065202987389
40
0.966168003038018
40
0.966168003038018
40
0.982270803088647
40
0.982270803088647
40
0.998373603139276
40
0.998373603139276
40
1
40
1
40
1
40
1
41
1
10
24.4601971643897
20
-6.30388653666728
30
0
41
1
10
29.3691844990573
20
-7.12009855629765
30
0
41
1
10
34.2787692095228
20
-7.88828315184838
30
0
41
1
10
41.6414479967758
20
-8.93880907470779
30
0
41
1
10
44.0955674054899
20
-9.27179023116835
30
0
41
1
10
47.7773447403464
20
-9.74043492931807
30
0
41
1
10
49.0047523160361
20
-9.89150186816642
30
0
41
1
10
51.4590825414621
20
-10.1822882850126
30
0
41
1
10
52.6861141336597
20
-10.3220273464558
30
0
41
1
10
56.3673250942127
20
-10.7277799330349
30
0
41
1
10
58.8214653997021
20
-10.9791048884649
30
0
41
1
10
63.7304794944912
20
-11.4386946572486
30
0
41
1
10
66.185398339109
20
-11.6468984802944
30
0
41
1
10
71.0939342555777
20
-12.0144021135085
30
0
41
1
10
73.5479023456922
20
-12.1736683113345
30
0
41
1
10
77.229170241925
20
-12.3712589401432
30
0
41
1
10
78.4563163913889
20
-12.4298283583323
30
0
41
1
10
80.9109151054691
20
-12.5355261027231
30
0
41
1
10
82.1381408655026
20
-12.5827282369681
30
0
41
1
10
85.8197081949317
20
-12.7069188366128
30
0
41
1
10
88.2739252816894
20
-12.7664475533905
30
0
41
1
10
93.1827830137744
20
-12.835195547348
30
0
41
1
10
95.6378114813189
20
-12.8443561997282
30
0
41
1
10
100.546738848268
20
-12.8079687340435
30
0
41
1
10
103.00068861858
20
-12.7618740633106
30
0
41
1
10
107.908759265548
20
-12.6124793329259
30
0
41
1
10
110.363417028945
20
-12.5152142572386
30
0
41
1
10
115.272543996017
20
-12.2744960440906
30
0
41
1
10
117.726769405198
20
-12.1309240086231
30
0
41
1
10
122.6353315212
20
-11.7951628259555
30
0
41
1
10
125.089871499523
20
-11.6029477863747
30
0
41
1
10
128.771868205029
20
-11.2765690255095
30
0
41
1
10
129.999061547834
20
-11.1616164581939
30
0
41
1
10
131.379657722516
20
-11.0248430814369
30
0
41
1
10
131.533061870236
20
-11.0095221738022
30
0
41
1
10
131.763165633536
20
-10.9863992977998
30
0
41
1
10
131.839866335604
20
-10.9786687050193
30
0
41
1
10
131.993263181711
20
-10.9631767930684
30
0
41
1
10
132.069983196989
20
-10.9559137700281
30
0
41
1
10
132.453300959593
20
-10.9143524711362
30
0
41
1
10
132.75980681403
20
-10.8802629374427
30
0
41
1
10
133.678591408593
20
-10.7739833518177
30
0
41
1
10
134.290430061316
20
-10.6984593843138
30
0
41
1
10
135.510608694111
20
-10.5345893104667
30
0
41
1
10
136.118833295637
20
-10.4464325068163
30
0
41
1
10
137.330043654751
20
-10.250768505486
30
0
41
1
10
137.933120032767
20
-10.1436898209199
30
0
41
1
10
138.592294912579
20
-10.0065444818219
30
0
41
1
10
138.652719601143
20
-9.9937825331584
30
0
41
1
10
138.713095598161
20
-9.98081390698101
30
0
0
SPLINE
5
174
100
AcDbEntity
8
1
62
256
6
ByLayer
370
13
48
1
60
0
100
AcDbSpline
70
4
71
3
72
8
73
4
40
0
40
0
40
0
40
0
40
1
40
1
40
1
40
1
41
1
10
174.738447746475
20
-6.21018195225184
30
0
41
1
10
174.965415064576
20
-5.06481494943432
30
0
41
1
10
175.192382382677
20
-3.9194479466168
30
0
41
1
10
175.419349700779
20
-2.77408094379928
30
0
0
SPLINE
5
175
100
AcDbEntity
8
1
62
256
6
ByLayer
370
18
48
1
60
0
100
AcDbSpline
70
4
71
3
72
12
73
8
40
0
40
0
40
0
40
0
40
0.5
40
0.5
40
0.75
40
0.75
40
1
40
1
40
1
40
1
41
1
10
148.624504680379
20
11.822170984744
30
0
41
1
10
150.736773698599
20
12.2367282620398
30
0
41
1
10
152.847216057375
20
12.5867413610724
30
0
41
1
10
156.017891253669
20
13.0075743280048
30
0
41
1
10
157.074808474832
20
13.1303461210038
30
0
41
1
10
159.18753866221
20
13.3402810574426
30
0
41
1
10
160.243675437984
20
13.4275213434281
30
0
41
1
10
161.3
20
13.4969900236073
30
0
0
SPLINE
5
176
100
AcDbEntity
8
1
62
256
6
ByLayer
370
18
48
1
60
0
100
AcDbSpline
70
4
71
3
72
8
73
4
40
0
40
0
40
0
40
0
40
1
40
1
40
1
40
1
41
1
10
178.730517856161
20
-0.797642505879139
30
0
41
1
10
178.825669434188
20
-0.470079255093225
30
0
41
1
10
178.903540500857
20
-0.148342967538127
30
0
41
1
10
178.967908005215
20
0.168839938496973
30
0
0
SPLINE
5
177
100
AcDbEntity
8
1
62
256
6
ByLayer
370
18
48
1
60
0
100
AcDbSpline
70
4
71
3
72
28
73
24
40
0
40
0
40
0
40
0
40
0.0740463319365032
40
0.0740463319365032
40
0.131918436190472
40
0.131918436190472
40
0.18979054044444
40
0.18979054044444
40
0.305534748952377
40
0.305534748952377
40
0.421278957460314
40
0.421278957460314
40
0.537023165968252
40
0.537023165968252
40
0.59489527022222
40
0.59489527022222
40
0.652767374476189
40
0.652767374476189
40
0.768511582984126
40
0.768511582984126
40
0.884255791492063
40
0.884255791492063
40
1
40
1
40
1
40
1
41
1
10
92.6517319346275
20
-1.66240393635581
30
0
41
1
10
91.0497074396706
20
-1.35394264452845
30
0
41
1
10
89.447691092721
20
-1.04392543822766
30
0
41
1
10
86.5941522952974
20
-0.490058684763596
30
0
41
1
10
85.3424053287554
20
-0.246540608214104
30
0
41
1
10
82.8389482777938
20
0.240850110104219
30
0
41
1
10
81.5872588759627
20
0.484835748496323
30
0
41
1
10
77.8317919536746
20
1.21493524084983
30
0
41
1
10
75.3274567782023
20
1.69941713453832
30
0
41
1
10
70.3198344829005
20
2.65914049890009
30
0
41
1
10
67.8162253153134
20
3.13443297301248
30
0
41
1
10
62.8085175482214
20
4.07041701488626
30
0
41
1
10
60.30402706083
20
4.53115578928296
30
0
41
1
10
56.5485456783253
20
5.20582316048649
30
0
41
1
10
55.2968815082689
20
5.42790121191209
30
0
41
1
10
52.7935672566999
20
5.86591432004019
30
0
41
1
10
51.5418762005809
20
6.08202773246737
30
0
41
1
10
47.7865778597327
20
6.72088835258532
30
0
41
1
10
45.2823714470646
20
7.1342975496101
30
0
41
1
10
40.2743980622909
20
7.9303214196797
30
0
41
1
10
37.7709038608651
20
8.31295699066854
30
0
41
1
10
32.7639846275466
20
9.04092484592695
30
0
41
1
10
30.2605627262612
20
9.3863261770336
30
0
41
1
10
27.7565522487079
20
9.7088613842439
30
0
0
SPLINE
5
178
100
AcDbEntity
8
1
62
256
6
ByLayer
370
18
48
1
60
0
100
AcDbSpline
70
4
71
3
72
23
73
19
40
0
40
0
40
0
40
0
40
0.0235971394319549
40
0.0471242267505949
40
0.0706195651242805
40
0.0941216129533016
40
0.117668795763378
40
0.141299318899693
40
0.21173042791307
40
0.281666281273593
40
0.352230171527479
40
0.422100590675403
40
0.562093291456998
40
0.701783480627653
40
0.84098411393632
40
0.910445435213851
40
0.980307780340335
40
1
40
1
40
1
40
1
41
1
10
161.300001209653
20
-13.1514122100742
30
0
41
1
10
161.300192452029
20
-13.1468062684685
30
0
41
1
10
161.300574369046
20
-13.1376080587767
30
0
41
1
10
161.30364435034
20
-13.1236327733723
30
0
41
1
10
161.308544834291
20
-13.1095674564927
30
0
41
1
10
161.315453723683
20
-13.0953995962648
30
0
41
1
10
161.324322330043
20
-13.0811349938489
30
0
41
1
10
161.34230439459
20
-13.0573302486803
30
0
41
1
10
161.376065977554
20
-13.0240074377053
30
0
41
1
10
161.436211840294
20
-12.9818203120719
30
0
41
1
10
161.511790386836
20
-12.9411683221691
30
0
41
1
10
161.632333823948
20
-12.8901770226574
30
0
41
1
10
161.817603552533
20
-12.8346236637909
30
0
41
1
10
162.082601813014
20
-12.7890473913196
30
0
41
1
10
162.324539313374
20
-12.7740795336553
30
0
41
1
10
162.518191855172
20
-12.7772255102752
30
0
41
1
10
162.627182304566
20
-12.7845591244288
30
0
41
1
10
162.686866252371
20
-12.7907979784962
30
0
41
1
10
162.699990199912
20
-12.7921698447435
30
0
0
SPLINE
5
179
100
AcDbEntity
8
1
62
256
6
ByLayer
370
18
48
1
60
0
100
AcDbSpline
70
4
71
3
72
12
73
8
40
0
40
0
40
0
40
0
40
0.500000000000001
40
0.500000000000001
40
0.750000000000001
40
0.750000000000001
40
1
40
1
40
1
40
1
41
1
10
22.8943912263771
20
-6.80003165714621
30
0
41
1
10
22.7451785684041
20
-6.70792624708338
30
0
41
1
10
22.616722631228
20
-6.59531512726232
30
0
41
1
10
22.4515491771426
20
-6.39629997511256
30
0
41
1
10
22.4008123463481
20
-6.32435570990185
30
0
41
1
10
22.3101132341063
20
-6.17319220794357
30
0
41
1
10
22.270122527455
20
-6.09416399623632
30
0
41
1
10
22.234883461473
20
-6.01192561064011
30
0
0
SPLINE
5
17A
100
AcDbEntity
8
1
62
256
6
ByLayer
370
18
48
1
60
0
100
AcDbSpline
70
4
71
3
72
8
73
4
40
0
40
0
40
0
40
0
40
1
40
1
40
1
40
1
41
1
10
148.71283799056
20
11.54287099924
30
0
41
1
10
148.686464761578
20
11.6377935731345
30
0
41
1
10
148.657443559337
20
11.7310938524805
30
0
41
1
10
148.624504680379
20
11.822170984744
30
0
0
SPLINE
5
17B
100
AcDbEntity
8
1
62
256
6
ByLayer
370
18
48
1
60
0
100
AcDbSpline
70
4
71
3
72
31
73
27
40
0
40
0
40
0
40
0
40
0.0329197553139464
40
0.0656523920722401
40
0.0981982472880107
40
0.130557663810722
40
0.162730990450617
40
0.194718582106133
40
0.226520799894394
40
0.258138011284811
40
0.28957059023589
40
0.320818917335328
40
0.351883379943456
40
0.382764372340128
40
0.413462295875123
40
0.443977559122148
40
0.474310578036522
40
0.504461776116632
40
0.568246938319177
40
0.631496583403823
40
0.694215058635275
40
0.756406822675928
40
0.818076448440362
40
0.879228625988372
40
0.939868165453054
40
1
40
1
40
1
40
1
41
1
10
169.263008141947
20
-4.57846288550988
30
0
41
1
10
169.241500661054
20
-4.52027516151119
30
0
41
1
10
169.198607949534
20
-4.40423045725015
30
0
41
1
10
169.13519417921
20
-4.22939598432657
30
0
41
1
10
169.072692303205
20
-4.05468060523657
30
0
41
1
10
169.011154655578
20
-3.88003358640927
30
0
41
1
10
168.950567333295
20
-3.70552023771373
30
0
41
1
10
168.890934029413
20
-3.53117404805843
30
0
41
1
10
168.832253762686
20
-3.35703596455937
30
0
41
1
10
168.774526793561
20
-3.18314395777165
30
0
41
1
10
168.717753052552
20
-3.00953579318309
30
0
41
1
10
168.661932558229
20
-2.83624829627192
30
0
41
1
10
168.607065304243
20
-2.66331754554443
30
0
41
1
10
168.553151296554
20
-2.49077883400292
30
0
41
1
10
168.500190516833
20
-2.31866663919692
30
0
41
1
10
168.448183030985
20
-2.14701478893477
30
0
41
1
10
168.397128594875
20
-1.97585584500905
30
0
41
1
10
168.328298534178
20
-1.74143412295064
30
0
41
1
10
168.243010067388
20
-1.4436240890623
30
0
41
1
10
168.14303128637
20
-1.08227282731426
30
0
41
1
10
168.046902041363
20
-0.722389866547076
30
0
41
1
10
167.954628628122
20
-0.364237974330081
30
0
41
1
10
167.866188827599
20
-0.0080687837523499
30
0
41
1
10
167.781664313884
20
0.3458748750636
30
0
41
1
10
167.700754209485
20
0.697357621037241
30
0
41
1
10
167.649749993844
20
0.930867191481951
30
0
41
1
10
167.624355093097
20
1.04713115692922
30
0
0
SPLINE
5
17C
100
AcDbEntity
8
1
62
256
6
ByLayer
370
18
48
1
60
0
100
AcDbSpline
70
4
71
3
72
26
73
22
40
0
40
0
40
0
40
0
40
0.125000000000009
40
0.125000000000009
40
0.187500000000013
40
0.187500000000013
40
0.250000000000018
40
0.250000000000018
40
0.375000000000012
40
0.375000000000012
40
0.500000000000006
40
0.500000000000006
40
0.562500000000008
40
0.562500000000008
40
0.625000000000011
40
0.625000000000011
40
0.750000000000007
40
0.750000000000007
40
0.875000000000004
40
0.875000000000004
40
1
40
1
40
1
40
1
41
1
10
146.301992694298
20
-8.88552840556446
30
0
41
1
10
146.523908545864
20
-8.92480173586017
30
0
41
1
10
146.747376770002
20
-8.94418697769021
30
0
41
1
10
147.084820796275
20
-8.9449587758977
30
0
41
1
10
147.197722948578
20
-8.94044072699867
30
0
41
1
10
147.424135527559
20
-8.92146656945079
30
0
41
1
10
147.535545194188
20
-8.90718979164069
30
0
41
1
10
147.86458417985
20
-8.85037592659785
30
0
41
1
10
148.077247824149
20
-8.79400768551898
30
0
41
1
10
148.487671010806
20
-8.64160426752775
30
0
41
1
10
148.677879226056
20
-8.5483856189239
30
0
41
1
10
148.941473813449
20
-8.38237561102713
30
0
41
1
10
149.025776738133
20
-8.32255918497691
30
0
41
1
10
149.186403776913
20
-8.19376377487356
30
0
41
1
10
149.261347923336
20
-8.12590664801141
30
0
41
1
10
149.47067921844
20
-7.91194406570372
30
0
41
1
10
149.589948800949
20
-7.75522481718693
30
0
41
1
10
149.785298113973
20
-7.41275382362267
30
0
41
1
10
149.858056573339
20
-7.23301629084855
30
0
41
1
10
149.956296241398
20
-6.85613414124842
30
0
41
1
10
149.981398086792
20
-6.65784592501086
30
0
41
1
10
149.981398086825
20
-6.45691488136026
30
0
0
SPLINE
5
17D
100
AcDbEntity
8
1
62
256
6
ByLayer
370
18
48
1
60
0
100
AcDbSpline
70
4
71
3
72
21
73
17
40
0
40
0
40
0
40
0
40
0.209506969752041
40
0.209506969752041
40
0.222601155361545
40
0.222601155361545
40
0.235695340971049
40
0.235695340971049
40
0.261883712190047
40
0.261883712190047
40
0.314260454628045
40
0.41901393950403
40
0.41901393950403
40
0.83802787900798
40
0.83802787900798
40
1
40
1
40
1
40
1
41
1
10
147.959512659025
20
11.5861953242653
30
0
41
1
10
147.363127371479
20
11.4698400043249
30
0
41
1
10
146.766851148919
20
11.3491287059734
30
0
41
1
10
146.133375044624
20
11.2163376152327
30
0
41
1
10
146.096112016314
20
11.2085096530195
30
0
41
1
10
146.021586428164
20
11.1928204266528
30
0
41
1
10
145.984518274337
20
11.1845889972298
30
0
41
1
10
145.871849247355
20
11.1626343625482
30
0
41
1
10
145.796659151463
20
11.1480894524195
30
0
41
1
10
145.570954293948
20
11.1045507364005
30
0
41
1
10
145.11888238228
20
11.0180926325252
30
0
41
1
10
144.664928337848
20
10.9334617333673
30
0
41
1
10
143.148027978108
20
10.6551500307667
30
0
41
1
10
141.922789537755
20
10.4445951301668
30
0
41
1
10
140.213440274895
20
10.164904488401
30
0
41
1
10
139.735992607136
20
10.0882862209489
30
0
41
1
10
139.257826050564
20
10.0128911080119
30
0
0
SPLINE
5
17E
100
AcDbEntity
8
1
62
256
6
ByLayer
370
13
48
1
60
0
100
AcDbSpline
70
4
71
3
72
8
73
4
40
0
40
0
40
0
40
0
40
1
40
1
40
1
40
1
41
1
10
177.483246909253
20
1.37570779012228
30
0
41
1
10
177.888142686776
20
1.34715979450033
30
0
41
1
10
178.293038464298
20
1.31861179887841
30
0
41
1
10
178.697934241821
20
1.29006380325646
30
0
0
SPLINE
5
17F
100
AcDbEntity
8
1
62
256
6
ByLayer
370
18
48
1
60
0
100
AcDbSpline
70
4
71
3
72
12
73
8
40
0
40
0
40
0
40
0
40
0.0781868405612626
40
0.0781868405612626
40
0.539093420280631
40
0.539093420280631
40
1
40
1
40
1
40
1
41
1
10
167.807823257373
20
13.9837850027867
30
0
41
1
10
167.983507270739
20
13.9843986274931
30
0
41
1
10
168.159207633787
20
13.9842764690893
30
0
41
1
10
169.3709265017
20
13.9783698200275
30
0
41
1
10
170.407437934461
20
13.9479138867825
30
0
41
1
10
172.481224342453
20
13.8359219617404
30
0
41
1
10
173.518031969873
20
13.7540083498663
30
0
41
1
10
174.557949831681
20
13.6471427801002
30
0
0
SPLINE
5
180
100
AcDbEntity
8
1
62
256
6
ByLayer
370
18
48
1
60
0
100
AcDbSpline
70
4
71
1
72
4
73
2
40
0
40
0
40
1
40
1
41
1
10
170.65237736308
20
2.06657742946143
30
0
41
1
10
170.646392474769
20
2.07283544193717
30
0
0
SPLINE
5
181
100
AcDbEntity
8
1
62
256
6
ByLayer
370
18
48
1
60
0
100
AcDbSpline
70
4
71
3
72
8
73
4
40
0
40
0
40
0
40
0
40
1
40
1
40
1
40
1
41
1
10
7.01209999999998
20
3.31048378719345
30
0
41
1
10
7.01208884266998
20
3.30088499508992
30
0
41
1
10
7.01208884266998
20
3.29128801652592
30
0
41
1
10
7.01209999999998
20
3.28169290197789
30
0
0
SPLINE
5
182
100
AcDbEntity
8
1
62
256
6
ByLayer
370
18
48
1
60
0
100
AcDbSpline
70
2053
71
3
72
39
73
35
40
0
40
0
40
0
40
0
40
0.0312317054829662
40
0.0623747180057207
40
0.09356988885413
40
0.124872964577327
40
0.156042337385626
40
0.18741889682916
40
0.218650774498518
40
0.250016440661273
40
0.281378732609396
40
0.312638320022687
40
0.34402521892173
40
0.375216854724262
40
0.406497231259158
40
0.437691779642625
40
0.468921666027495
40
0.500160454830853
40
0.53128636084236
40
0.562446545586775
40
0.593716182440358
40
0.624861280230857
40
0.656204756607844
40
0.68742980977
40
0.718764795455348
40
0.750126690580492
40
0.781385333526486
40
0.812793958569303
40
0.84402173572705
40
0.875336524771255
40
0.90658565236293
40
0.937714940266317
40
0.968957114389036
40
1
40
1
40
1
40
1
41
1
10
155.17
20
-7.30067574073005
30
0
41
1
10
155.374714757028
20
-7.30067673996408
30
0
41
1
10
155.783573104882
20
-7.33618947623447
30
0
41
1
10
156.371584015347
20
-7.49197848219313
30
0
41
1
10
156.911766670388
20
-7.73978552100476
30
0
41
1
10
157.383931925406
20
-8.06452989343242
30
0
41
1
10
157.772011555802
20
-8.44881285042541
30
0
41
1
10
158.060809092317
20
-8.87232184152768
30
0
41
1
10
158.239555525159
20
-9.31588415970617
30
0
41
1
10
158.300086210417
20
-9.75830886143862
30
0
41
1
10
158.239417475867
20
-10.1808479637811
30
0
41
1
10
158.060442455422
20
-10.5676666050775
30
0
41
1
10
157.771247717704
20
-10.9063455253184
30
0
41
1
10
157.38288933095
20
-11.1899444506167
30
0
41
1
10
156.910539881122
20
-11.4134313557601
30
0
41
1
10
156.369866927659
20
-11.5747119135256
30
0
41
1
10
155.781111445621
20
-11.6720238717326
30
0
41
1
10
155.167549548082
20
-11.704336376496
30
0
41
1
10
154.554590024161
20
-11.6714942622728
30
0
41
1
10
153.966736710633
20
-11.5739384795067
30
0
41
1
10
153.427121808544
20
-11.4125185874489
30
0
41
1
10
152.954705421929
20
-11.1885387316559
30
0
41
1
10
152.567371649734
20
-10.9050752866297
30
0
41
1
10
152.278506647815
20
-10.5659355950582
30
0
41
1
10
152.100076014372
20
-10.1793167884513
30
0
41
1
10
152.039985351939
20
-9.75678898551547
30
0
41
1
10
152.100899730897
20
-9.31403568286177
30
0
41
1
10
152.279974548211
20
-8.87083394530313
30
0
41
1
10
152.569749162212
20
-8.44671514150491
30
0
41
1
10
152.958025654773
20
-8.06284677301886
30
0
41
1
10
153.43075995238
20
-7.73842787704203
30
0
41
1
10
153.971034494932
20
-7.49101921089405
30
0
41
1
10
154.558272543066
20
-7.33591807043288
30
0
41
1
10
154.966522902383
20
-7.30067474753717
30
0
41
1
10
155.17
20
-7.30067574073005
30
0
0
SPLINE
5
183
100
AcDbEntity
8
1
62
256
6
ByLayer
370
18
48
1
60
0
100
AcDbSpline
70
4
71
2
72
9
73
6
40
0
40
0
40
0
40
0.25
40
0.5
40
0.75
40
1
40
1
40
1
41
1
10
167.746765793644
20
1.04677941712262
30
0
41
1
10
167.900083572334
20
0.344493552941316
30
0
41
1
10
168.261443594875
20
-1.06626489660042
30
0
41
1
10
168.672394691733
20
-2.46302697441786
30
0
41
1
10
169.129963627657
20
-3.83562769756662
30
0
41
1
10
169.378797172612
20
-4.4999981237095
30
0
0
SPLINE
5
184
100
AcDbEntity
8
1
62
256
6
ByLayer
370
18
48
1
60
0
100
AcDbSpline
70
4
71
3
72
12
73
8
40
0
40
0
40
0
40
0
40
0.5
40
0.5
40
0.75
40
0.75
40
1
40
1
40
1
40
1
41
1
10
148.624504680393
20
-11.8221709847466
30
0
41
1
10
150.737397508267
20
-12.2368506919172
30
0
41
1
10
152.848462543336
20
-12.5869480279234
30
0
41
1
10
156.020077168157
20
-13.0078438171267
30
0
41
1
10
157.077115880437
20
-13.1305976919866
30
0
41
1
10
159.189226195631
20
-13.3404264079933
30
0
41
1
10
160.244696659735
20
-13.4275885035888
30
0
41
1
10
161.3
20
-13.4969900236073
30
0
0
SPLINE
5
185
100
AcDbEntity
8
1
62
256
6
ByLayer
370
18
48
1
60
0
100
AcDbSpline
70
4
71
3
72
16
73
12
40
0
40
0
40
0
40
0
40
0.125000000000001
40
0.125000000000001
40
0.250000000000001
40
0.250000000000001
40
0.500000000000001
40
0.500000000000001
40
0.75
40
0.75
40
1
40
1
40
1
40
1
41
1
10
147.742810017297
20
10.9014759213475
30
0
41
1
10
147.78992229269
20
10.9138673517122
30
0
41
1
10
147.836961619068
20
10.9286145874314
30
0
41
1
10
147.928743553078
20
10.9620411405204
30
0
41
1
10
147.973752304232
20
10.9807795624288
30
0
41
1
10
148.106266035871
20
11.0427361823212
30
0
41
1
10
148.191265184761
20
11.0916830606553
30
0
41
1
10
148.355117312484
20
11.2033993629487
30
0
41
1
10
148.432766158892
20
11.2653961230756
30
0
41
1
10
148.578834885114
20
11.3977724227303
30
0
41
1
10
148.647646462626
20
11.4684329713537
30
0
41
1
10
148.712837990563
20
11.5428709992466
30
0
0
SPLINE
5
186
100
AcDbEntity
8
1
62
256
6
ByLayer
370
18
48
1
60
0
100
AcDbSpline
70
4
71
3
72
12
73
8
40
0
40
0
40
0
40
0
40
0.5
40
0.5
40
0.75
40
0.75
40
1
40
1
40
1
40
1
41
1
10
177.507703036402
20
-5.24327989157811
30
0
41
1
10
177.238414660579
20
-5.98962488443365
30
0
41
1
10
176.974018038771
20
-6.73948879672275
30
0
41
1
10
176.585241934665
20
-7.86990919734768
30
0
41
1
10
176.456936772394
20
-8.24774560635822
30
0
41
1
10
176.203332671029
20
-9.00516196569589
30
0
41
1
10
176.079277230164
20
-9.38102654582477
30
0
41
1
10
175.958198334037
20
-9.7538094719076
30
0
0
LINE
5
70
100
AcDbEntity
8
81
62
256
6
ByLayer
370
18
48
1
60
0
100
AcDbLine
10
161.4
20
0
30
0
11
166.4
21
0
31
0
39
0
210
0
220
0
230
1
0
LINE
5
71
100
AcDbEntity
8
1
62
256
6
ByLayer
370
18
48
1
60
0
100
AcDbLine
10
7.0121
20
20
30
0
11
0.2
21
20
31
0
39
0
210
0
220
0
230
1
0
LINE
5
73
100
AcDbEntity
8
1
62
256
6
ByLayer
370
18
48
1
60
0
100
AcDbLine
10
0.2
20
-20
30
0
11
7.0121
21
-20
31
0
39
0
210
0
220
0
230
1
0
LINE
5
74
100
AcDbEntity
8
1
62
256
6
ByLayer
370
18
48
1
60
0
100
AcDbLine
10
0.2
20
20
30
0
11
0
21
19.8
31
0
39
0
210
0
220
0
230
1
0
LINE
5
75
100
AcDbEntity
8
1
62
256
6
ByLayer
370
18
48
1
60
0
100
AcDbLine
10
0
20
-19.8
30
0
11
0.2
21
-20
31
0
39
0
210
0
220
0
230
1
0
LINE
5
76
100
AcDbEntity
8
SK1
62
256
6
ByLayer
370
18
48
1
60
0
100
AcDbLine
10
-58.6
20
-15.996
30
0
11
-58.449692
21
-15.874283
31
0
39
0
210
0
220
0
230
1
0
LINE
5
78
100
AcDbEntity
8
SK1
62
256
6
ByLayer
370
18
48
1
60
0
100
AcDbLine
10
-58.449692
20
15.874283
30
0
11
-58.6
21
15.996
31
0
39
0
210
0
220
0
230
1
0
LINE
5
79
100
AcDbEntity
8
SK1
62
256
6
ByLayer
370
18
48
1
60
0
100
AcDbLine
10
-58.6
20
15.996
30
0
11
-59
21
15.996
31
0
39
0
210
0
220
0
230
1
0
LINE
5
7A
100
AcDbEntity
8
SK1
62
256
6
ByLayer
370
18
48
1
60
0
100
AcDbLine
10
-59
20
-15.996
30
0
11
-58.6
21
-15.996
31
0
39
0
210
0
220
0
230
1
0
LINE
5
7B
100
AcDbEntity
8
SK1
62
256
6
ByLayer
370
18
48
1
60
0
100
AcDbLine
10
-1.6
20
-15.996
30
0
11
-1.144243
21
-15.783477
31
0
39
0
210
0
220
0
230
1
0
LINE
5
7C
100
AcDbEntity
8
SK1
62
256
6
ByLayer
370
18
48
1
60
0
100
AcDbLine
10
-1.144243
20
15.783477
30
0
11
-1.6
21
15.996
31
0
39
0
210
0
220
0
230
1
0
LINE
5
7D
100
AcDbEntity
8
SK1
62
256
6
ByLayer
370
18
48
1
60
0
100
AcDbLine
10
-59
20
15.996
30
0
11
-60
21
14.996
31
0
39
0
210
0
220
0
230
1
0
LINE
5
7E
100
AcDbEntity
8
SK1
62
256
6
ByLayer
370
18
48
1
60
0
100
AcDbLine
10
-60
20
-14.996
30
0
11
-59
21
-15.996
31
0
39
0
210
0
220
0
230
1
0
LINE
5
7F
100
AcDbEntity
8
SK1
62
256
6
ByLayer
370
18
48
1
60
0
100
AcDbLine
10
-57.3
20
15.996
30
0
11
-57.426311
21
15.887988
31
0
39
0
210
0
220
0
230
1
0
LINE
5
80
100
AcDbEntity
8
SK1
62
256
6
ByLayer
370
18
48
1
60
0
100
AcDbLine
10
-57.426311
20
-15.887988
30
0
11
-57.3
21
-15.996
31
0
39
0
210
0
220
0
230
1
0
LINE
5
81
100
AcDbEntity
8
SK1
62
256
6
ByLayer
370
18
48
1
60
0
100
AcDbLine
10
-0.975195
20
-15.746
30
0
11
-0.15
21
-15.746
31
0
39
0
210
0
220
0
230
1
0
LINE
5
82
100
AcDbEntity
8
SK1
62
256
6
ByLayer
370
18
48
1
60
0
100
AcDbLine
10
-0.15
20
15.746
30
0
11
-0.975195
21
15.746
31
0
39
0
210
0
220
0
230
1
0
LINE
5
83
100
AcDbEntity
8
1
62
256
6
ByLayer
370
18
48
1
60
0
100
AcDbLine
10
31.15
20
13.7
30
0
11
28.8
21
13.7
31
0
39
0
210
0
220
0
230
1
0
LINE
5
84
100
AcDbEntity
8
1
62
256
6
ByLayer
370
18
48
1
60
0
100
AcDbLine
10
22.894391
20
-14.126724
30
0
11
22.987028
21
-14.089062
31
0
39
0
210
0
220
0
230
1
0
LINE
5
85
100
AcDbEntity
8
1
62
256
6
ByLayer
370
18
48
1
60
0
100
AcDbLine
10
28.8
20
-13.7
30
0
11
31.15
21
-13.7
31
0
39
0
210
0
220
0
230
1
0
LINE
5
86
100
AcDbEntity
8
1
62
256
6
ByLayer
370
18
48
1
60
0
100
AcDbLine
10
22.987028
20
14.089062
30
0
11
22.894391
21
14.126724
31
0
39
0
210
0
220
0
230
1
0
LINE
5
87
100
AcDbEntity
8
1
62
256
6
ByLayer
370
18
48
1
60
0
100
AcDbLine
10
167.844082
20
-13.75825
30
0
11
174.171558
21
-13.75825
31
0
39
0
210
0
220
0
230
1
0
LINE
5
88
100
AcDbEntity
8
1
62
256
6
ByLayer
370
18
48
1
60
0
100
AcDbLine
10
174.171558
20
13.75825
30
0
11
173.142849
21
13.75825
31
0
39
0
210
0
220
0
230
1
0
LINE
5
89
100
AcDbEntity
8
1
62
256
6
ByLayer
370
18
48
1
60
0
100
AcDbLine
10
167.807099
20
13.983785
30
0
11
165.125467
21
13.9744
31
0
39
0
210
0
220
0
230
1
0
LINE
5
8A
100
AcDbEntity
8
1
62
256
6
ByLayer
370
18
48
1
60
0
100
AcDbLine
10
165.125467
20
-13.9744
30
0
11
167.807099
21
-13.983785
31
0
39
0
210
0
220
0
230
1
0
LINE
5
8B
100
AcDbEntity
8
1
62
256
6
ByLayer
370
18
48
1
60
0
100
AcDbLine
10
26
20
-13.5
30
0
11
28.8
21
-13.7
31
0
39
0
210
0
220
0
230
1
0
LINE
5
8C
100
AcDbEntity
8
1
62
256
6
ByLayer
370
18
48
1
60
0
100
AcDbLine
10
28.8
20
13.7
30
0
11
26
21
13.5
31
0
39
0
210
0
220
0
230
1
0
LINE
5
8D
100
AcDbEntity
8
SK1
62
256
6
ByLayer
370
18
48
1
60
0
100
AcDbLine
10
-1.6
20
15.996
30
0
11
-57.3
21
15.996
31
0
39
0
210
0
220
0
230
1
0
LINE
5
8E
100
AcDbEntity
8
SK1
62
256
6
ByLayer
370
18
48
1
60
0
100
AcDbLine
10
-57.3
20
-15.996
30
0
11
-1.6
21
-15.996
31
0
39
0
210
0
220
0
230
1
0
LINE
5
8F
100
AcDbEntity
8
80
62
256
6
ByLayer
370
18
48
1
60
0
100
AcDbLine
10
0
20
0
30
0
11
-5
21
0
31
0
39
0
210
0
220
0
230
1
0
LINE
5
90
100
AcDbEntity
8
4
62
256
6
ByLayer
370
18
48
0.05
60
0
100
AcDbLine
10
161.4
20
0
30
0
11
0
21
0
31
0
39
0
210
0
220
0
230
1
0
LINE
5
92
100
AcDbEntity
8
SK4
62
256
6
ByLayer
370
18
48
0.05
60
0
100
AcDbLine
10
184
20
0
30
0
11
-65
21
0
31
0
39
0
210
0
220
0
230
1
0
LINE
5
94
100
AcDbEntity
8
SK1
62
256
6
ByLayer
370
18
48
1
60
0
100
AcDbLine
10
-60
20
0
30
0
11
-60
21
-14.996
31
0
39
0
210
0
220
0
230
1
0
LINE
5
95
100
AcDbEntity
8
SK1
62
256
6
ByLayer
370
18
48
1
60
0
100
AcDbLine
10
-60
20
14.996
30
0
11
-60
21
0
31
0
39
0
210
0
220
0
230
1
0
LINE
5
96
100
AcDbEntity
8
SK1
62
256
6
ByLayer
370
18
48
1
60
0
100
AcDbLine
10
-57.3
20
0
30
0
11
-57.3
21
-15.996
31
0
39
0
210
0
220
0
230
1
0
LINE
5
97
100
AcDbEntity
8
SK1
62
256
6
ByLayer
370
18
48
1
60
0
100
AcDbLine
10
-57.3
20
15.996
30
0
11
-57.3
21
0
31
0
39
0
210
0
220
0
230
1
0
LINE
5
98
100
AcDbEntity
8
SK1
62
256
6
ByLayer
370
13
48
1
60
0
100
AcDbLine
10
-53.5
20
8.082178
30
0
11
-53.5
21
-8.082178
31
0
39
0
210
0
220
0
230
1
0
LINE
5
99
100
AcDbEntity
8
SK1
62
256
6
ByLayer
370
13
48
1
60
0
100
AcDbLine
10
-0.975195
20
15.746
30
0
11
-0.975195
21
-15.746
31
0
39
0
210
0
220
0
230
1
0
LINE
5
9A
100
AcDbEntity
8
SK1
62
256
6
ByLayer
370
18
48
1
60
0
100
AcDbLine
10
-6.5
20
8.082178
30
0
11
-53.5
21
8.082178
31
0
39
0
210
0
220
0
230
1
0
LINE
5
9B
100
AcDbEntity
8
SK1
62
256
6
ByLayer
370
18
48
1
60
0
100
AcDbLine
10
-58.6
20
-15.996
30
0
11
-58.6
21
15.996
31
0
39
0
210
0
220
0
230
1
0
LINE
5
9C
100
AcDbEntity
8
SK1
62
256
6
ByLayer
370
18
48
1
60
0
100
AcDbLine
10
-53.5
20
-8.082178
30
0
11
-6.5
21
-8.082178
31
0
39
0
210
0
220
0
230
1
0
LINE
5
9D
100
AcDbEntity
8
SK1
62
256
6
ByLayer
370
13
48
1
60
0
100
AcDbLine
10
-1.144243
20
0
30
0
11
-1.144243
21
-15.783477
31
0
39
0
210
0
220
0
230
1
0
LINE
5
9E
100
AcDbEntity
8
SK1
62
256
6
ByLayer
370
13
48
1
60
0
100
AcDbLine
10
-1.144243
20
15.783477
30
0
11
-1.144243
21
0
31
0
39
0
210
0
220
0
230
1
0
LINE
5
9F
100
AcDbEntity
8
SK1
62
256
6
ByLayer
370
13
48
1
60
0
100
AcDbLine
10
-0.15
20
0
30
0
11
-0.15
21
-15.746
31
0
39
0
210
0
220
0
230
1
0
LINE
5
A0
100
AcDbEntity
8
SK1
62
256
6
ByLayer
370
13
48
1
60
0
100
AcDbLine
10
-0.15
20
15.746
30
0
11
-0.15
21
0
31
0
39
0
210
0
220
0
230
1
0
LINE
5
A1
100
AcDbEntity
8
SK1
62
256
6
ByLayer
370
18
48
1
60
0
100
AcDbLine
10
-1.6
20
-15.996
30
0
11
-1.6
21
0
31
0
39
0
210
0
220
0
230
1
0
LINE
5
A2
100
AcDbEntity
8
SK1
62
256
6
ByLayer
370
18
48
1
60
0
100
AcDbLine
10
-1.6
20
0
30
0
11
-1.6
21
15.996
31
0
39
0
210
0
220
0
230
1
0
LINE
5
A3
100
AcDbEntity
8
SK1
62
256
6
ByLayer
370
13
48
1
60
0
100
AcDbLine
10
-6.5
20
-8.082178
30
0
11
-6.5
21
8.082178
31
0
39
0
210
0
220
0
230
1
0
LINE
5
A4
100
AcDbEntity
8
SK1
62
256
6
ByLayer
370
13
48
1
60
0
100
AcDbLine
10
-58.449692
20
-15.874283
30
0
11
-58.449692
21
0
31
0
39
0
210
0
220
0
230
1
0
LINE
5
A5
100
AcDbEntity
8
SK1
62
256
6
ByLayer
370
13
48
1
60
0
100
AcDbLine
10
-58.449692
20
0
30
0
11
-58.449692
21
15.874283
31
0
39
0
210
0
220
0
230
1
0
LINE
5
A6
100
AcDbEntity
8
SK1
62
256
6
ByLayer
370
18
48
1
60
0
100
AcDbLine
10
-59
20
0
30
0
11
-59
21
-15.996
31
0
39
0
210
0
220
0
230
1
0
LINE
5
A7
100
AcDbEntity
8
SK1
62
256
6
ByLayer
370
18
48
1
60
0
100
AcDbLine
10
-59
20
15.996
30
0
11
-59
21
0
31
0
39
0
210
0
220
0
230
1
0
LINE
5
A8
100
AcDbEntity
8
SK1
62
256
6
ByLayer
370
13
48
1
60
0
100
AcDbLine
10
-57.426311
20
-15.887988
30
0
11
-57.426311
21
0
31
0
39
0
210
0
220
0
230
1
0
LINE
5
A9
100
AcDbEntity
8
SK1
62
256
6
ByLayer
370
13
48
1
60
0
100
AcDbLine
10
-57.426311
20
0
30
0
11
-57.426311
21
15.887988
31
0
39
0
210
0
220
0
230
1
0
LINE
5
AA
100
AcDbEntity
8
1
62
256
6
ByLayer
370
18
48
1
60
0
100
AcDbLine
10
26
20
13.5
30
0
11
26
21
10.0659
31
0
39
0
210
0
220
0
230
1
0
LINE
5
AB
100
AcDbEntity
8
1
62
256
6
ByLayer
370
18
48
1
60
0
100
AcDbLine
10
162.504359
20
-12.89935
30
0
11
162.504359
21
-12.781446
31
0
39
0
210
0
220
0
230
1
0
LINE
5
AC
100
AcDbEntity
8
1
62
256
6
ByLayer
370
18
48
1
60
0
100
AcDbLine
10
177.680734
20
-4.727182
30
0
11
177.507703
21
-5.24328
31
0
39
0
210
0
220
0
230
1
0
LINE
5
AD
100
AcDbEntity
8
1
62
256
6
ByLayer
370
18
48
1
60
0
100
AcDbLine
10
172.262286
20
-12.300157
30
0
11
172.265798
21
-12.293654
31
0
39
0
210
0
220
0
230
1
0
LINE
5
AE
100
AcDbEntity
8
1
62
256
6
ByLayer
370
18
48
1
60
0
100
AcDbLine
10
161.4
20
-13.201538
30
0
11
161.4
21
-13.091248
31
0
39
0
210
0
220
0
230
1
0
LINE
5
AF
100
AcDbEntity
8
1
62
256
6
ByLayer
370
18
48
1
60
0
100
AcDbLine
10
26
20
-13.5
30
0
11
26
21
-7.26149
31
0
39
0
210
0
220
0
230
1
0
LINE
5
B0
100
AcDbEntity
8
1
62
256
6
ByLayer
370
13
48
1
60
0
100
AcDbLine
10
22.894391
20
14.126724
30
0
11
22.894391
21
9.96166
31
0
39
0
210
0
220
0
230
1
0
LINE
5
B1
100
AcDbEntity
8
1
62
256
6
ByLayer
370
18
48
1
60
0
100
AcDbLine
10
162.504359
20
-12.89935
30
0
11
172.559766
21
-12.89935
31
0
39
0
210
0
220
0
230
1
0
LINE
5
B2
100
AcDbEntity
8
1
62
256
6
ByLayer
370
18
48
1
60
0
100
AcDbLine
10
172.265798
20
-12.293654
30
0
11
172.265798
21
-4.501398
31
0
39
0
210
0
220
0
230
1
0
LINE
5
B3
100
AcDbEntity
8
1
62
256
6
ByLayer
370
18
48
1
60
0
100
AcDbLine
10
174.267858
20
-13.756174
30
0
11
178.380921
21
-1.812792
31
0
39
0
210
0
220
0
230
1
0
LINE
5
B4
100
AcDbEntity
8
1
62
256
6
ByLayer
370
18
48
1
60
0
100
AcDbLine
10
171.32415
20
-11.352006
30
0
11
172.265798
21
-12.293654
31
0
39
0
210
0
220
0
230
1
0
LINE
5
B5
100
AcDbEntity
8
1
62
256
6
ByLayer
370
18
48
1
60
0
100
AcDbLine
10
172.265684
20
-4.5
30
0
11
170.652375
21
2.06658
31
0
39
0
210
0
220
0
230
1
0
LINE
5
B6
100
AcDbEntity
8
1
62
256
6
ByLayer
370
18
48
1
60
0
100
AcDbLine
10
0
20
19.8
30
0
11
0
21
-19.8
31
0
39
0
210
0
220
0
230
1
0
LINE
5
B7
100
AcDbEntity
8
1
62
256
6
ByLayer
370
18
48
1
60
0
100
AcDbLine
10
171.704771
20
-12.788628
30
0
11
172.262286
21
-12.300157
31
0
39
0
210
0
220
0
230
1
0
LINE
5
B8
100
AcDbEntity
8
1
62
256
6
ByLayer
370
18
48
1
60
0
100
AcDbLine
10
178.730518
20
-0.797643
30
0
11
179.005308
21
0.000285
31
0
39
0
210
0
220
0
230
1
0
LINE
5
B9
100
AcDbEntity
8
1
62
256
6
ByLayer
370
18
48
1
60
0
100
AcDbLine
10
162.110293
20
-13.892183
30
0
11
162.110293
21
-13.707817
31
0
39
0
210
0
220
0
230
1
0
LINE
5
BA
100
AcDbEntity
8
1
62
256
6
ByLayer
370
18
48
1
60
0
100
AcDbLine
10
161.4
20
3.71886
30
0
11
161.4
21
3.799482
31
0
39
0
210
0
220
0
230
1
0
LINE
5
BB
100
AcDbEntity
8
1
62
256
6
ByLayer
370
13
48
1
60
0
100
AcDbLine
10
22.894391
20
-6.800032
30
0
11
22.894391
21
-14.126724
31
0
39
0
210
0
220
0
230
1
0
LINE
5
BC
100
AcDbEntity
8
1
62
256
6
ByLayer
370
13
48
1
60
0
100
AcDbLine
10
177.438084
20
1.337383
30
0
11
178.931342
21
0.293685
31
0
39
0
210
0
220
0
230
1
0
LINE
5
BD
100
AcDbEntity
8
1
62
256
6
ByLayer
370
13
48
1
60
0
100
AcDbLine
10
161.545422
20
-13.289449
30
0
11
161.4
21
-13.238323
31
0
39
0
210
0
220
0
230
1
0
LINE
5
BE
100
AcDbEntity
8
1
62
256
6
ByLayer
370
13
48
1
60
0
100
AcDbLine
10
7.0121
20
3.281693
30
0
11
7.0121
21
-20
31
0
39
0
210
0
220
0
230
1
0
LINE
5
BF
100
AcDbEntity
8
1
62
256
6
ByLayer
370
18
48
1
60
0
100
AcDbLine
10
161.4
20
-13.055417
30
0
11
161.4
21
-13.091248
31
0
39
0
210
0
220
0
230
1
0
LINE
5
C0
100
AcDbEntity
8
1
62
256
6
ByLayer
370
18
48
1
60
0
100
AcDbLine
10
172.559766
20
-12.89935
30
0
11
174.826982
21
-6.446672
31
0
39
0
210
0
220
0
230
1
0
LINE
5
C1
100
AcDbEntity
8
1
62
256
6
ByLayer
370
18
48
1
60
0
100
AcDbLine
10
161.4
20
-13.238323
30
0
11
161.4
21
-13.201538
31
0
39
0
210
0
220
0
230
1
0
LINE
5
C2
100
AcDbEntity
8
1
62
256
6
ByLayer
370
18
48
1
60
0
100
AcDbLine
10
169.378798
20
-4.5
30
0
11
172.265684
21
-4.5
31
0
39
0
210
0
220
0
230
1
0
LINE
5
C3
100
AcDbEntity
8
1
62
256
6
ByLayer
370
18
48
1
60
0
100
AcDbLine
10
178.967908
20
0.16884
30
0
11
179.005308
21
0.000285
31
0
39
0
210
0
220
0
230
1
0
LINE
5
C4
100
AcDbEntity
8
1
62
256
6
ByLayer
370
13
48
1
60
0
100
AcDbLine
10
175.0709
20
4.764636
30
0
11
175.053322
21
4.844326
31
0
39
0
210
0
220
0
230
1
0
LINE
5
C5
100
AcDbEntity
8
1
62
256
6
ByLayer
370
13
48
1
60
0
100
AcDbLine
10
22.987028
20
14.089062
30
0
11
22.987028
21
9.964666
31
0
39
0
210
0
220
0
230
1
0
LINE
5
C6
100
AcDbEntity
8
1
62
256
6
ByLayer
370
18
48
1
60
0
100
AcDbLine
10
179.005308
20
-0.000285
30
0
11
178.967908
21
-0.16884
31
0
39
0
210
0
220
0
230
1
0
LINE
5
C7
100
AcDbEntity
8
1
62
256
6
ByLayer
370
18
48
1
60
0
100
AcDbLine
10
174.826982
20
-6.446672
30
0
11
177.101159
21
-3.949565
31
0
39
0
210
0
220
0
230
1
0
LINE
5
C8
100
AcDbEntity
8
1
62
256
6
ByLayer
370
18
48
1
60
0
100
AcDbLine
10
28.8
20
13.7
30
0
11
28.8
21
10.117086
31
0
39
0
210
0
220
0
230
1
0
LINE
5
C9
100
AcDbEntity
8
1
62
256
6
ByLayer
370
18
48
1
60
0
100
AcDbLine
10
178.90832
20
-0.379667
30
0
11
178.697934
21
-1.290064
31
0
39
0
210
0
220
0
230
1
0
LINE
5
CA
100
AcDbEntity
8
1
62
256
6
ByLayer
370
13
48
1
60
0
100
AcDbLine
10
178.90832
20
0.379667
30
0
11
177.483247
21
1.375708
31
0
39
0
210
0
220
0
230
1
0
LINE
5
CB
100
AcDbEntity
8
1
62
256
6
ByLayer
370
18
48
1
60
0
100
AcDbLine
10
161.3
20
-13.49699
30
0
11
161.3
21
-13.151412
31
0
39
0
210
0
220
0
230
1
0
LINE
5
CC
100
AcDbEntity
8
1
62
256
6
ByLayer
370
13
48
1
60
0
100
AcDbLine
10
161.2
20
4.35
30
0
11
161.405013
21
4.35
31
0
39
0
210
0
220
0
230
1
0
LINE
5
CD
100
AcDbEntity
8
1
62
256
6
ByLayer
370
18
48
1
60
0
100
AcDbLine
10
161.545422
20
-13.450328
30
0
11
161.545422
21
-13.289449
31
0
39
0
210
0
220
0
230
1
0
LINE
5
CE
100
AcDbEntity
8
1
62
256
6
ByLayer
370
18
48
1
60
0
100
AcDbLine
10
177.680734
20
4.727182
30
0
11
177.507703
21
5.24328
31
0
39
0
210
0
220
0
230
1
0
LINE
5
CF
100
AcDbEntity
8
1
62
256
6
ByLayer
370
13
48
1
60
0
100
AcDbLine
10
7.0121
20
20
30
0
11
7.0121
21
3.310484
31
0
39
0
210
0
220
0
230
1
0
LINE
5
D0
100
AcDbEntity
8
1
62
256
6
ByLayer
370
18
48
1
60
0
100
AcDbLine
10
31.15
20
-13.7
30
0
11
31.15
21
-8.331132
31
0
39
0
210
0
220
0
230
1
0
LINE
5
D1
100
AcDbEntity
8
1
62
256
6
ByLayer
370
18
48
1
60
0
100
AcDbLine
10
162.700024
20
-12.792174
30
0
11
171.696704
21
-12.792174
31
0
39
0
210
0
220
0
230
1
0
LINE
5
D2
100
AcDbEntity
8
1
62
256
6
ByLayer
370
18
48
1
60
0
100
AcDbLine
10
172.265798
20
-4.501398
30
0
11
172.265684
21
-4.5
31
0
39
0
210
0
220
0
230
1
0
LINE
5
D3
100
AcDbEntity
8
1
62
256
6
ByLayer
370
18
48
1
60
0
100
AcDbLine
10
179.005308
20
-0.000285
30
0
11
179.005308
21
0.000285
31
0
39
0
210
0
220
0
230
1
0
LINE
5
D4
100
AcDbEntity
8
1
62
256
6
ByLayer
370
18
48
1
60
0
100
AcDbLine
10
31.15
20
13.7
30
0
11
31.15
21
12.782494
31
0
39
0
210
0
220
0
230
1
0
LINE
5
D5
100
AcDbEntity
8
1
62
256
6
ByLayer
370
13
48
1
60
0
100
AcDbLine
10
162.451041
20
-12.779201
30
0
11
162.451041
21
-12.917405
31
0
39
0
210
0
220
0
230
1
0
LINE
5
D6
100
AcDbEntity
8
1
62
256
6
ByLayer
370
18
48
1
60
0
100
AcDbLine
10
28.8
20
-13.7
30
0
11
28.8
21
-7.9446
31
0
39
0
210
0
220
0
230
1
0
LINE
5
D7
100
AcDbEntity
8
1
62
256
6
ByLayer
370
13
48
1
60
0
100
AcDbLine
10
22.987028
20
-6.852916
30
0
11
22.987028
21
-14.089062
31
0
39
0
210
0
220
0
230
1
0
LINE
5
D8
100
AcDbEntity
8
1
62
256
6
ByLayer
370
18
48
1
60
0
100
AcDbLine
10
0.2
20
0
30
0
11
0.2
21
-20
31
0
39
0
210
0
220
0
230
1
0
LINE
5
D9
100
AcDbEntity
8
1
62
256
6
ByLayer
370
18
48
1
60
0
100
AcDbLine
10
0.2
20
20
30
0
11
0.2
21
0
31
0
39
0
210
0
220
0
230
1
0
LINE
5
DA
100
AcDbEntity
8
1
62
256
6
ByLayer
370
18
48
1
60
0
100
AcDbLine
10
178.90832
20
0.379667
30
0
11
178.697934
21
1.290064
31
0
39
0
210
0
220
0
230
1
0
LINE
5
DB
100
AcDbEntity
8
1
62
256
6
ByLayer
370
18
48
1
60
0
100
AcDbLine
10
161.4
20
-13.598242
30
0
11
161.4
21
-13.238323
31
0
39
0
210
0
220
0
230
1
0
LINE
5
DC
100
AcDbEntity
8
1
62
256
6
ByLayer
370
18
48
1
60
0
100
AcDbLine
10
171.696704
20
-12.792174
30
0
11
171.704771
21
-12.788628
31
0
39
0
210
0
220
0
230
1
0
LINE
5
DD
100
AcDbEntity
8
1
62
256
6
ByLayer
370
18
48
1
60
0
100
AcDbLine
10
149.981398
20
-6.456915
30
0
11
149.981398
21
7.402832
31
0
39
0
210
0
220
0
230
1
0
LINE
5
DE
100
AcDbEntity
8
1
62
256
6
ByLayer
370
18
48
1
60
0
100
AcDbLine
10
174.826982
20
-6.446672
30
0
11
174.738448
21
-6.210182
31
0
39
0
210
0
220
0
230
1
0
MTEXT
5
187
100
AcDbEntity
8
SK6
62
256
6
ByLayer
370
13
48
1
60
0
100
AcDbMText
10
39.97627
20
36.375134
30
0
210
0
220
0
230
1
1
\W0.7373;870-2800-28L32-5
40
3.5
41
0
44
1.084337
50
0
71
7
72
5
7
iso_b_vert
0
DIMENSION
5
195
100
AcDbEntity
8
2
62
256
6
ByLayer
370
13
48
1
60
0
100
AcDbDimension
2
DimnDraft3D1
10
26
20
-27
30
0
11
102.5
21
-27
31
0
70
32
71
5
72
1
41
1
210
0
220
0
230
1
3
Standard
100
AcDbAlignedDimension
13
179
23
-1.5875
33
0
14
26
24
-15.5875
34
0
50
0
100
AcDbRotatedDimension
1001
ACAD
1000
DSTYLE
1002
{
1070
   279
1070
     0
1070
   172
1070
     1
1070
   173
1070
     1
1070
   340
1005
188
1070
   271
1070
     1
1070
   272
1070
     2
1070
    77
1070
     1
1070
    73
1070
     0
1070
   171
1070
     3
1070
   274
1070
     4
1070
   177
1070
     7
1070
   176
1070
     7
1070
   178
1070
     7
1070
    48
1040
-0.005
1070
    41
1041
3.5
1070
   147
1041
1.5
1070
    42
1041
1.5875
1070
    44
1041
2.0
1070
   140
1041
3.0
1070
   343
1005
0
1070
   344
1005
0
1002
}
0
DIMENSION
5
19F
100
AcDbEntity
8
2
62
256
6
ByLayer
370
13
48
1
60
0
100
AcDbDimension
2
DimnDraft3D2
10
29.2
20
21
30
0
11
104.1
21
21
31
0
70
32
71
5
72
1
41
1
210
0
220
0
230
1
3
Standard
100
AcDbAlignedDimension
13
179
23
1.5875
33
0
14
29.2
24
15.5875
34
0
50
0
100
AcDbRotatedDimension
1001
ACAD
1000
DSTYLE
1002
{
1070
   279
1070
     0
1070
   172
1070
     1
1070
   173
1070
     1
1070
   340
1005
188
1070
   271
1070
     1
1070
   272
1070
     2
1070
    77
1070
     1
1070
    73
1070
     0
1070
   171
1070
     3
1070
   274
1070
     4
1070
   177
1070
     7
1070
   176
1070
     7
1070
   178
1070
     7
1070
    48
1040
-0.005
1070
    41
1041
3.5
1070
   147
1041
1.5
1070
    42
1041
1.5875
1070
    44
1041
2.0
1070
   140
1041
3.0
1070
   343
1005
0
1070
   344
1005
0
1002
}
0
DIMENSION
5
1AA
100
AcDbEntity
8
SK2
62
256
6
ByLayer
370
13
48
1
60
0
100
AcDbDimension
2
DimnDraft3D3
10
0
20
-39
30
0
11
-30
21
-39
31
0
70
32
71
5
72
1
41
1
210
0
220
0
230
1
3
Standard
100
AcDbAlignedDimension
13
-60
23
-17.5875
33
0
14
0
24
-21.5875
34
0
50
0
100
AcDbRotatedDimension
1001
ACAD
1000
DSTYLE
1002
{
1070
   279
1070
     0
1070
   172
1070
     1
1070
   173
1070
     1
1070
   340
1005
188
1070
   271
1070
     1
1070
   272
1070
     2
1070
    77
1070
     1
1070
    73
1070
     0
1070
   171
1070
     3
1070
   274
1070
     4
1070
   177
1070
     7
1070
   176
1070
     7
1070
   178
1070
     7
1070
    48
1040
-0.005
1070
    41
1041
3.5
1070
   147
1041
1.5
1070
    42
1041
1.5875
1070
    44
1041
2.0
1070
   140
1041
3.0
1070
   343
1005
0
1070
   344
1005
0
1002
}
0
DIMENSION
5
1B4
100
AcDbEntity
8
2
62
256
6
ByLayer
370
13
48
1
60
0
100
AcDbDimension
2
DimnDraft3D4
10
179
20
-39
30
0
11
89.5
21
-39
31
0
70
32
71
5
72
1
41
1
210
0
220
0
230
1
3
Standard
100
AcDbAlignedDimension
13
0
23
-21.5875
33
0
14
179
24
-1.5875
34
0
50
0
100
AcDbRotatedDimension
1001
ACAD
1000
DSTYLE
1002
{
1070
   279
1070
     0
1070
   172
1070
     1
1070
   173
1070
     1
1070
   340
1005
188
1070
   271
1070
     1
1070
   272
1070
     2
1070
    77
1070
     1
1070
    73
1070
     0
1070
   171
1070
     3
1070
   274
1070
     4
1070
   177
1070
     7
1070
   176
1070
     7
1070
   178
1070
     7
1070
    48
1040
-0.005
1070
    41
1041
3.5
1070
   147
1041
1.5
1070
    42
1041
1.5875
1070
    44
1041
2.0
1070
   140
1041
3.0
1070
   343
1005
0
1070
   344
1005
0
1002
}
0
DIMENSION
5
1BF
100
AcDbEntity
8
SK2
62
256
6
ByLayer
370
13
48
1
60
0
100
AcDbDimension
2
DimnDraft3D5
10
-68.25
20
-16
30
0
11
-68.5
21
-0.520456
31
0
70
33
71
5
72
1
41
1
210
0
220
0
230
1
3
Standard
100
AcDbAlignedDimension
13
-61.5875
23
16
33
0
14
-61.5875
24
-16
34
0
1001
ACAD
1000
DSTYLE
1002
{
1070
   279
1070
     0
1070
    74
1070
     0
1070
   173
1070
     1
1070
   340
1005
188
1070
   271
1070
     1
1070
   272
1070
     2
1070
    77
1070
     1
1070
    73
1070
     0
1070
   171
1070
     3
1070
   274
1070
     4
1070
   177
1070
     7
1070
   176
1070
     7
1070
   178
1070
     7
1070
    48
1040
-0.005
1070
    41
1041
3.5
1070
   147
1041
1.5
1070
    42
1041
1.5875
1070
    44
1041
2.0
1070
   140
1041
3.0
1070
   343
1005
0
1070
   344
1005
0
1002
}
0
ENDSEC
0
SECTION
2
OBJECTS
0
DICTIONARY
5
22a
330
0
100
AcDbDictionary
280
0
281
1
3
ACAD_GROUP
350
22b
3
ACAD_MLINESTYLE
350
22c
0
DICTIONARY
5
22b
330
0
100
AcDbDictionary
280
0
281
1
0
DICTIONARY
5
22c
330
0
100
AcDbDictionary
280
0
281
1
3
Standard
350
18
0
MLINESTYLE
5
18
330
22c
100
AcDbMlineStyle
2
Standard
70
0
3

62
256
51
90
52
90
71
2
49
-0.5
62
256
6
ByLayer
49
0.5
62
256
6
ByLayer
0
RASTERVARIABLES
5
218
330

100
AcDbRasterVariables
90
0
70
1
71
1
72
1
0
ENDSEC
0
EOF
