0
SECTION
2
HEADER
9
$ACADVER
1
AC1015
9
$DWGCODEPAGE
3
ANSI_1252
9
$HANDSEED
5
238
9
$ANGBASE
50
0
9
$ANGDIR
70
0
9
$ATTMODE
70
1
9
$AUNITS
70
0
9
$AUPREC
70
0
9
$CECOLOR
62
256
9
$CELTSCALE
40
1
9
$CELTYPE
6
ByLayer
9
$CELWEIGHT
370
18
9
$CLAYER
8
0
9
$CMLJUST
70
0
9
$CMLSCALE
40
1
9
$CMLSTYLE
2
Standard
9
$DIMSTYLE
2
Standard
9
$TEXTSIZE
40
0.2
9
$TEXTSTYLE
7
Standard
9
$LUNITS
70
2
9
$LUPREC
70
4
9
$EXTNAMES
290
1
9
$INSUNITS
70
4
9
$LTSCALE
40
1
9
$LWDISPLAY
290
1
9
$PDMODE
70
0
9
$PDSIZE
40
0
9
$PLINEGEN
70
0
0
ENDSEC
0
SECTION
2
CLASSES
0
CLASS
1
RASTERVARIABLES
2
AcDbRasterVariables
3
ISM
90
0
280
0
281
0
0
ENDSEC
0
SECTION
2
TABLES
0
TABLE
2
VPORT
5
22e
100
AcDbSymbolTable
0
VPORT
5
1
100
AcDbSymbolTableRecord
100
AcDbViewportTableRecord
2
*Active
70
0
10
0
20
0
11
1
21
1
12
-1
22
1
13
0
23
0
14
0.5
24
0.5
15
10
25
10
16
0
26
0
36
1
17
0
27
0
37
0
0
ENDTAB
0
TABLE
2
LTYPE
5
22f
100
AcDbSymbolTable
0
LTYPE
5
14
100
AcDbSymbolTableRecord
100
AcDbLinetypeTableRecord
70
0
2
ByBlock
3

72
65
73
0
40
0
0
LTYPE
5
15
100
AcDbSymbolTableRecord
100
AcDbLinetypeTableRecord
70
0
2
ByLayer
3

72
65
73
0
40
0
0
LTYPE
5
16
100
AcDbSymbolTableRecord
100
AcDbLinetypeTableRecord
70
0
2
CONTINUOUS
3
Solid line
72
65
73
0
40
0
0
LTYPE
5
6A
100
AcDbSymbolTableRecord
100
AcDbLinetypeTableRecord
70
0
2
CENTER
3
____ _ ____ _ ____ _ ____
72
65
73
4
40
47.5
49
22
74
0
49
-8.5
74
0
49
8.5
74
0
49
-8.5
74
0
0
LTYPE
5
6B
100
AcDbSymbolTableRecord
100
AcDbLinetypeTableRecord
70
0
2
DASHED
3
__ __ __ __ __ __ __ __ __
72
65
73
2
40
25.72
49
12.86
74
0
49
-12.86
74
0
0
ENDTAB
0
TABLE
2
LAYER
5
230
100
AcDbSymbolTable
0
LAYER
5
10
100
AcDbSymbolTableRecord
100
AcDbLayerTableRecord
2
0
70
0
62
7
6
CONTINUOUS
290
1
370
-3
390
0
0
LAYER
5
6D
100
AcDbSymbolTableRecord
100
AcDbLayerTableRecord
2
80
70
0
62
-6
6
CONTINUOUS
290
1
370
-3
390
0
0
LAYER
5
6F
100
AcDbSymbolTableRecord
100
AcDbLayerTableRecord
2
81
70
0
62
-3
6
CONTINUOUS
290
1
370
-3
390
0
0
LAYER
5
72
100
AcDbSymbolTableRecord
100
AcDbLayerTableRecord
2
1
70
0
62
4
6
CONTINUOUS
290
1
370
-3
390
0
0
LAYER
5
90
100
AcDbSymbolTableRecord
100
AcDbLayerTableRecord
2
4
70
0
62
-2
6
CENTER
290
1
370
-3
390
0
0
LAYER
5
18E
100
AcDbSymbolTableRecord
100
AcDbLayerTableRecord
2
2
70
0
62
7
6
CONTINUOUS
290
1
370
-3
390
0
0
LAYER
5
21a
100
AcDbSymbolTableRecord
100
AcDbLayerTableRecord
2
SK1
70
0
62
4
6
CONTINUOUS
290
1
370
-3
390
0
0
LAYER
5
21b
100
AcDbSymbolTableRecord
100
AcDbLayerTableRecord
2
SK4
70
0
62
2
6
CENTER
290
1
370
-3
390
0
0
LAYER
5
21c
100
AcDbSymbolTableRecord
100
AcDbLayerTableRecord
2
SK6
70
0
62
5
6
CONTINUOUS
290
1
370
-3
390
0
0
LAYER
5
21d
100
AcDbSymbolTableRecord
100
AcDbLayerTableRecord
2
SK2
70
0
62
7
6
CONTINUOUS
290
1
370
-3
390
0
0
ENDTAB
0
TABLE
2
STYLE
5
231
100
AcDbSymbolTable
0
STYLE
5
11
100
AcDbSymbolTableRecord
100
AcDbTextStyleTableRecord
2
Standard
3
txt
70
0
71
0
40
0
41
1
42
0
50
0
0
STYLE
5
189
100
AcDbSymbolTableRecord
100
AcDbTextStyleTableRecord
2
iso_b_vert
3
simplex.shx
70
0
71
0
40
0
41
1
42
0
50
0
0
STYLE
5
18A
100
AcDbSymbolTableRecord
100
AcDbTextStyleTableRecord
2
DWGDirectTextStyle
3
simplex
70
0
71
0
40
0
41
1
42
0
50
0
0
ENDTAB
0
TABLE
2
DIMSTYLE
5
232
100
AcDbSymbolTable
100
AcDbDimStyleTable
0
DIMSTYLE
105
27
100
AcDbSymbolTableRecord
100
AcDbDimStyleTableRecord
2
Standard
70
0
3
<>
41
0.18
42
0.0625
44
0.18
140
0.18
147
0.09
73
0
74
0
77
1
271
2
275
0
278
52
280
0
340
11
0
ENDTAB
0
TABLE
2
VIEW
5
233
100
AcDbSymbolTable
0
ENDTAB
0
TABLE
2
UCS
5
234
100
AcDbSymbolTable
0
ENDTAB
0
TABLE
2
APPID
5
235
100
AcDbSymbolTable
0
APPID
5
12
100
AcDbSymbolTableRecord
100
AcDbRegAppTableRecord
2
ACAD
70
0
0
ENDTAB
0
TABLE
2
BLOCK_RECORD
5
236
100
AcDbSymbolTable
0
BLOCK_RECORD
5
1F
100
AcDbSymbolTableRecord
100
AcDbBlockTableRecord
2
*Model_Space
340
0
70
0
0
BLOCK_RECORD
5
1B
100
AcDbSymbolTableRecord
100
AcDbBlockTableRecord
2
*Paper_Space
340
0
70
0
0
BLOCK_RECORD
5
23
100
AcDbSymbolTableRecord
100
AcDbBlockTableRecord
2
*Paper_Space0
340
0
70
0
0
BLOCK_RECORD
5
18C
100
AcDbSymbolTableRecord
100
AcDbBlockTableRecord
2
DimnDraft3D1
340
0
70
0
0
BLOCK_RECORD
5
197
100
AcDbSymbolTableRecord
100
AcDbBlockTableRecord
2
DimnDraft3D2
340
0
70
0
0
BLOCK_RECORD
5
1A1
100
AcDbSymbolTableRecord
100
AcDbBlockTableRecord
2
DimnDraft3D3
340
0
70
0
0
BLOCK_RECORD
5
1AC
100
AcDbSymbolTableRecord
100
AcDbBlockTableRecord
2
DimnDraft3D4
340
0
70
0
0
BLOCK_RECORD
5
1B6
100
AcDbSymbolTableRecord
100
AcDbBlockTableRecord
2
DimnDraft3D5
340
0
70
0
0
ENDTAB
0
ENDSEC
0
SECTION
2
BLOCKS
0
BLOCK
5
20
100
AcDbEntity
8
0
100
AcDbBlockBegin
2
*Model_Space
70
0
10
0
20
0
30
0
3
*Model_Space
0
ENDBLK
5
21
100
AcDbEntity
8
0
100
AcDbBlockEnd
0
BLOCK
5
1C
100
AcDbEntity
8
0
100
AcDbBlockBegin
2
*Paper_Space
70
0
10
0
20
0
30
0
3
*Paper_Space
0
ENDBLK
5
1D
100
AcDbEntity
8
0
100
AcDbBlockEnd
0
BLOCK
5
24
100
AcDbEntity
8
0
100
AcDbBlockBegin
2
*Paper_Space0
70
0
10
0
20
0
30
0
3
*Paper_Space0
0
ENDBLK
5
25
100
AcDbEntity
8
0
100
AcDbBlockEnd
0
BLOCK
5
194
100
AcDbEntity
8
0
100
AcDbBlockBegin
2
DimnDraft3D1
70
0
10
0
20
0
30
0
3
DimnDraft3D1
0
MTEXT
5
18D
100
AcDbEntity
8
2
62
256
6
ByLayer
370
13
48
1
60
0
100
AcDbMText
10
58.729544
20
-23.749886
30
0
210
0
220
0
230
1
1
\W0.7346;79.0
40
3
41
0
44
1.084337
50
0
71
7
72
5
7
iso_b_vert
0
LINE
5
18F
100
AcDbEntity
8
2
62
256
6
ByLayer
370
13
48
1
60
0
100
AcDbLine
10
101
20
-1.5875
30
0
11
101
21
-26.5
31
0
39
0
210
0
220
0
230
1
0
LINE
5
190
100
AcDbEntity
8
2
62
256
6
ByLayer
370
13
48
1
60
0
100
AcDbLine
10
22
20
-13.0875
30
0
11
22
21
-26.5
31
0
39
0
210
0
220
0
230
1
0
LINE
5
191
100
AcDbEntity
8
2
62
256
6
ByLayer
370
13
48
1
60
0
100
AcDbLine
10
101
20
-24.5
30
0
11
22
21
-24.5
31
0
39
0
210
0
220
0
230
1
0
SOLID
5
192
100
AcDbEntity
8
2
62
256
6
ByLayer
370
13
48
1
60
0
100
AcDbTrace
10
101
20
-24.5
30
0
11
97.500002
21
-24.960784
31
0
12
97.499998
22
-24.039216
32
0
13
101
23
-24.5
33
0
39
0
210
0
220
0
230
1
0
SOLID
5
193
100
AcDbEntity
8
2
62
256
6
ByLayer
370
13
48
1
60
0
100
AcDbTrace
10
22
20
-24.5
30
0
11
25.499998
21
-24.039216
31
0
12
25.500002
22
-24.960784
32
0
13
22
23
-24.5
33
0
39
0
210
0
220
0
230
1
0
ENDBLK
5
195
100
AcDbEntity
8
0
100
AcDbBlockEnd
0
BLOCK
5
19E
100
AcDbEntity
8
0
100
AcDbBlockBegin
2
DimnDraft3D2
70
0
10
0
20
0
30
0
3
DimnDraft3D2
0
MTEXT
5
198
100
AcDbEntity
8
2
62
256
6
ByLayer
370
13
48
1
60
0
100
AcDbMText
10
60.129544
20
19.250114
30
0
210
0
220
0
230
1
1
\W0.7346;76.2
40
3
41
0
44
1.084337
50
0
71
7
72
5
7
iso_b_vert
0
LINE
5
199
100
AcDbEntity
8
2
62
256
6
ByLayer
370
13
48
1
60
0
100
AcDbLine
10
101
20
1.5875
30
0
11
101
21
20.5
31
0
39
0
210
0
220
0
230
1
0
LINE
5
19A
100
AcDbEntity
8
2
62
256
6
ByLayer
370
13
48
1
60
0
100
AcDbLine
10
24.8
20
13.0875
30
0
11
24.8
21
20.5
31
0
39
0
210
0
220
0
230
1
0
LINE
5
19B
100
AcDbEntity
8
2
62
256
6
ByLayer
370
13
48
1
60
0
100
AcDbLine
10
101
20
18.5
30
0
11
24.8
21
18.5
31
0
39
0
210
0
220
0
230
1
0
SOLID
5
19C
100
AcDbEntity
8
2
62
256
6
ByLayer
370
13
48
1
60
0
100
AcDbTrace
10
101
20
18.5
30
0
11
97.500002
21
18.039216
31
0
12
97.499998
22
18.960784
32
0
13
101
23
18.5
33
0
39
0
210
0
220
0
230
1
0
SOLID
5
19D
100
AcDbEntity
8
2
62
256
6
ByLayer
370
13
48
1
60
0
100
AcDbTrace
10
24.8
20
18.5
30
0
11
28.299998
21
18.960784
31
0
12
28.300002
22
18.039216
32
0
13
24.8
23
18.5
33
0
39
0
210
0
220
0
230
1
0
ENDBLK
5
19F
100
AcDbEntity
8
0
100
AcDbBlockEnd
0
BLOCK
5
1A9
100
AcDbEntity
8
0
100
AcDbBlockBegin
2
DimnDraft3D3
70
0
10
0
20
0
30
0
3
DimnDraft3D3
0
MTEXT
5
1A2
100
AcDbEntity
8
SK2
62
256
6
ByLayer
370
13
48
1
60
0
100
AcDbMText
10
-30.770456
20
-34.749886
30
0
210
0
220
0
230
1
1
\W0.7346;56.0
40
3
41
0
44
1.084337
50
0
71
7
72
5
7
iso_b_vert
0
LINE
5
1A4
100
AcDbEntity
8
SK2
62
256
6
ByLayer
370
13
48
1
60
0
100
AcDbLine
10
-56
20
-14.0875
30
0
11
-56
21
-37.5
31
0
39
0
210
0
220
0
230
1
0
LINE
5
1A5
100
AcDbEntity
8
SK2
62
256
6
ByLayer
370
13
48
1
60
0
100
AcDbLine
10
0
20
-17.5875
30
0
11
0
21
-37.5
31
0
39
0
210
0
220
0
230
1
0
LINE
5
1A6
100
AcDbEntity
8
SK2
62
256
6
ByLayer
370
13
48
1
60
0
100
AcDbLine
10
-56
20
-35.5
30
0
11
0
21
-35.5
31
0
39
0
210
0
220
0
230
1
0
SOLID
5
1A7
100
AcDbEntity
8
SK2
62
256
6
ByLayer
370
13
48
1
60
0
100
AcDbTrace
10
-56
20
-35.5
30
0
11
-52.500002
21
-35.039216
31
0
12
-52.499998
22
-35.960784
32
0
13
-56
23
-35.5
33
0
39
0
210
0
220
0
230
1
0
SOLID
5
1A8
100
AcDbEntity
8
SK2
62
256
6
ByLayer
370
13
48
1
60
0
100
AcDbTrace
10
0
20
-35.5
30
0
11
-3.499998
21
-35.960784
31
0
12
-3.500002
22
-35.039216
32
0
13
0
23
-35.5
33
0
39
0
210
0
220
0
230
1
0
ENDBLK
5
1AA
100
AcDbEntity
8
0
100
AcDbBlockEnd
0
BLOCK
5
1B3
100
AcDbEntity
8
0
100
AcDbBlockBegin
2
DimnDraft3D4
70
0
10
0
20
0
30
0
3
DimnDraft3D4
0
MTEXT
5
1AD
100
AcDbEntity
8
2
62
256
6
ByLayer
370
13
48
1
60
0
100
AcDbMText
10
47.358515
20
-34.749886
30
0
210
0
220
0
230
1
1
\W0.6261;101.0
40
3
41
0
44
1.084337
50
0
71
7
72
5
7
iso_b_vert
0
LINE
5
1AE
100
AcDbEntity
8
2
62
256
6
ByLayer
370
13
48
1
60
0
100
AcDbLine
10
0
20
-17.5875
30
0
11
0
21
-37.5
31
0
39
0
210
0
220
0
230
1
0
LINE
5
1AF
100
AcDbEntity
8
2
62
256
6
ByLayer
370
13
48
1
60
0
100
AcDbLine
10
101
20
-1.5875
30
0
11
101
21
-37.5
31
0
39
0
210
0
220
0
230
1
0
LINE
5
1B0
100
AcDbEntity
8
2
62
256
6
ByLayer
370
13
48
1
60
0
100
AcDbLine
10
0
20
-35.5
30
0
11
101
21
-35.5
31
0
39
0
210
0
220
0
230
1
0
SOLID
5
1B1
100
AcDbEntity
8
2
62
256
6
ByLayer
370
13
48
1
60
0
100
AcDbTrace
10
0
20
-35.5
30
0
11
3.499998
21
-35.039216
31
0
12
3.500002
22
-35.960784
32
0
13
0
23
-35.5
33
0
39
0
210
0
220
0
230
1
0
SOLID
5
1B2
100
AcDbEntity
8
2
62
256
6
ByLayer
370
13
48
1
60
0
100
AcDbTrace
10
101
20
-35.5
30
0
11
97.500002
21
-35.960784
31
0
12
97.499998
22
-35.039216
32
0
13
101
23
-35.5
33
0
39
0
210
0
220
0
230
1
0
ENDBLK
5
1B4
100
AcDbEntity
8
0
100
AcDbBlockEnd
0
BLOCK
5
1BE
100
AcDbEntity
8
0
100
AcDbBlockBegin
2
DimnDraft3D5
70
0
10
0
20
0
30
0
3
DimnDraft3D5
0
MTEXT
5
1B7
100
AcDbEntity
8
SK2
62
256
6
ByLayer
370
13
48
1
60
0
100
AcDbMText
10
-63.750114
20
0.229544
30
0
210
0
220
0
230
1
1
\W0.7346;25.0
40
3
41
0
44
1.084337
50
90
71
7
72
5
7
iso_b_vert
0
MTEXT
5
1B8
100
AcDbEntity
8
SK2
62
256
6
ByLayer
370
13
48
1
60
0
100
AcDbMText
10
-63.750114
20
-4.247019
30
0
210
0
220
0
230
1
1
%%c
40
3
41
0
44
1.084337
50
90
71
7
72
5
7
iso_b_vert
0
LINE
5
1B9
100
AcDbEntity
8
SK2
62
256
6
ByLayer
370
13
48
1
60
0
100
AcDbLine
10
-57.5875
20
12.5
30
0
11
-64.25
21
12.5
31
0
39
0
210
0
220
0
230
1
0
LINE
5
1BA
100
AcDbEntity
8
SK2
62
256
6
ByLayer
370
13
48
1
60
0
100
AcDbLine
10
-57.5875
20
-12.5
30
0
11
-64.25
21
-12.5
31
0
39
0
210
0
220
0
230
1
0
LINE
5
1BB
100
AcDbEntity
8
SK2
62
256
6
ByLayer
370
13
48
1
60
0
100
AcDbLine
10
-62.25
20
12.5
30
0
11
-62.25
21
-12.5
31
0
39
0
210
0
220
0
230
1
0
SOLID
5
1BC
100
AcDbEntity
8
SK2
62
256
6
ByLayer
370
13
48
1
60
0
100
AcDbTrace
10
-62.25
20
12.5
30
0
11
-61.789216
21
9.000002
31
0
12
-62.710784
22
8.999998
32
0
13
-62.25
23
12.5
33
0
39
0
210
0
220
0
230
1
0
SOLID
5
1BD
100
AcDbEntity
8
SK2
62
256
6
ByLayer
370
13
48
1
60
0
100
AcDbTrace
10
-62.25
20
-12.5
30
0
11
-62.710784
21
-9.000002
31
0
12
-61.789216
22
-8.999998
32
0
13
-62.25
23
-12.5
33
0
39
0
210
0
220
0
230
1
0
ENDBLK
5
1BF
100
AcDbEntity
8
0
100
AcDbBlockEnd
0
ENDSEC
0
SECTION
2
ENTITIES
0
ARC
5
E1
100
AcDbEntity
8
SK1
62
256
6
ByLayer
370
18
48
1
60
0
100
AcDbCircle
39
0
10
53.946236
20
-12.99675
30
0
40
0.799999999999998
210
0
220
0
230
-1
100
AcDbArc
50
51
51
130.534532
0
ARC
5
E2
100
AcDbEntity
8
SK1
62
256
6
ByLayer
370
18
48
1
60
0
100
AcDbCircle
39
0
10
53.946236
20
12.99675
30
0
40
0.799999999999998
210
0
220
0
230
-1
100
AcDbArc
50
229.465468
51
309
0
ARC
5
E3
100
AcDbEntity
8
SK1
62
256
6
ByLayer
370
18
48
1
60
0
100
AcDbCircle
39
0
10
0.975195
20
12.64675
30
0
40
0.4
210
0
220
0
230
-1
100
AcDbArc
50
270
51
295
0
ARC
5
E4
100
AcDbEntity
8
SK1
62
256
6
ByLayer
370
18
48
1
60
0
100
AcDbCircle
39
0
10
0.975195
20
-12.64675
30
0
40
0.4
210
0
220
0
230
-1
100
AcDbArc
50
65
51
90
0
ARC
5
E5
100
AcDbEntity
8
1
62
256
6
ByLayer
370
18
48
1
60
0
100
AcDbCircle
39
0
10
-22
20
19.05
30
0
40
8
210
0
220
0
230
-1
100
AcDbArc
50
270
51
292.334462
0
ARC
5
E6
100
AcDbEntity
8
1
62
256
6
ByLayer
370
18
48
1
60
0
100
AcDbCircle
39
0
10
-22
20
-19.05
30
0
40
8
210
0
220
0
230
-1
100
AcDbArc
50
67.665538
51
90
0
ARC
5
E7
100
AcDbEntity
8
SK1
62
256
6
ByLayer
370
18
48
1
60
0
100
AcDbCircle
39
0
10
0.15
20
12.64675
30
0
40
0.4
210
0
220
0
230
-1
100
AcDbArc
50
247.975687
51
270
0
ARC
5
E8
100
AcDbEntity
8
SK1
62
256
6
ByLayer
370
18
48
1
60
0
100
AcDbCircle
39
0
10
0.15
20
-12.64675
30
0
40
0.4
210
0
220
0
230
-1
100
AcDbArc
50
90
51
112.024313
0
ARC
5
E9
100
AcDbEntity
8
1
62
256
6
ByLayer
370
18
48
1
60
0
100
AcDbCircle
39
0
10
86.25
20
2.95
30
0
40
0.250000000000896
210
0
220
0
230
1
100
AcDbArc
50
336.718433
51
0
0
ELLIPSE
5
EA
100
AcDbEntity
8
1
62
256
6
ByLayer
370
13
48
1
60
0
100
AcDbEllipse
10
97.773707
20
3.935102
30
0
11
-0.0928058779547539
21
-0.0202994831719266
31
0
210
0
220
0
230
1
40
0.128939
41
-1.68829115096449
42
-1.40156280001132
0
ELLIPSE
5
EB
100
AcDbEntity
8
1
62
256
6
ByLayer
370
18
48
1
60
0
100
AcDbEllipse
10
93.053627
20
-1.630401
30
0
11
0.385545153272209
21
-1.512387499329
31
0
210
0
220
0
230
1
40
0.321418
41
0
42
6.28318530717959
0
ELLIPSE
5
EC
100
AcDbEntity
8
1
62
256
6
ByLayer
370
18
48
1
60
0
100
AcDbEllipse
10
100.953421
20
-0.245576
30
0
11
0.044624026006977
21
0.146773164960991
31
0
210
0
220
0
230
1
40
0.05855
41
1.74905825894151
42
2.43183944733823
0
ELLIPSE
5
ED
100
AcDbEntity
8
1
62
256
6
ByLayer
370
18
48
1
60
0
100
AcDbEllipse
10
21.912032
20
-1.841099
30
0
11
2.68613682903181
21
7.53556029341675
31
0
210
0
220
0
230
1
40
0.708794
41
0.462609807270498
42
2.70901218400937
0
ELLIPSE
5
EE
100
AcDbEntity
8
1
62
256
6
ByLayer
370
18
48
1
60
0
100
AcDbEllipse
10
83.565
20
0
30
0
11
-2.06803867884899E-15
21
-11.2582500349003
31
0
210
0
220
0
230
1
40
1
41
0.276780888743565
42
0.362718411290352
0
ELLIPSE
5
EF
100
AcDbEntity
8
1
62
256
6
ByLayer
370
18
48
1
60
0
100
AcDbEllipse
10
101.010434
20
0.013947
30
0
11
4.01012998880575
21
11.5162216409986
31
0
210
0
220
0
230
1
40
0.077207
41
-2.88983537053553
42
-2.79118703490413
0
ELLIPSE
5
F0
100
AcDbEntity
8
1
62
256
6
ByLayer
370
18
48
1
60
0
100
AcDbEllipse
10
109.966801
20
0
30
0
11
15.2555275258634
21
10.3409344682958
31
0
210
0
220
0
230
1
40
0.290406
41
2.93180375354664
42
-3.11452898924152
0
ELLIPSE
5
F1
100
AcDbEntity
8
1
62
256
6
ByLayer
370
18
48
1
60
0
100
AcDbEllipse
10
24.508788
20
-1E-06
30
0
11
23.9813878136947
21
-8.1676591424823
31
0
210
0
220
0
230
1
40
0.3226
41
1.44615732364404
42
1.47826867525846
0
ELLIPSE
5
F2
100
AcDbEntity
8
1
62
256
6
ByLayer
370
13
48
1
60
0
100
AcDbEllipse
10
97.773037
20
3.938155
30
0
11
-0.0927699273740782
21
-0.0204631516391846
31
0
210
0
220
0
230
1
40
0.128734
41
-1.68851840494172
42
-1.40179130306131
0
ELLIPSE
5
F3
100
AcDbEntity
8
1
62
256
6
ByLayer
370
18
48
1
60
0
100
AcDbEllipse
10
65.937026
20
0
30
0
11
45.1063148312549
21
-9.93590963995252
31
0
210
0
220
0
230
1
40
0.116977
41
-1.40790124493932
42
-1.37045725016377
0
ELLIPSE
5
F4
100
AcDbEntity
8
1
62
256
6
ByLayer
370
18
48
1
60
0
100
AcDbEllipse
10
77.251429
20
-84.205415
30
0
11
79.2718032473844
21
0.108810418755904
31
0
210
0
220
0
230
1
40
0.932162
41
1.45078485352267
42
1.45258148587291
0
ELLIPSE
5
F5
100
AcDbEntity
8
1
62
256
6
ByLayer
370
18
48
1
60
0
100
AcDbEllipse
10
101.010434
20
-0.013947
30
0
11
4.01012996433704
21
-11.5162215651509
31
0
210
0
220
0
230
1
40
0.077207
41
2.7911870337554
42
2.88983536972392
0
ELLIPSE
5
F6
100
AcDbEntity
8
1
62
256
6
ByLayer
370
18
48
1
60
0
100
AcDbEllipse
10
101.005664
20
0
30
0
11
4.55266590787917
21
11.1451004217218
31
0
210
0
220
0
230
1
40
0.349717
41
2.91712144210848
42
-2.98234415737579
0
ELLIPSE
5
F7
100
AcDbEntity
8
1
62
256
6
ByLayer
370
13
48
1
60
0
100
AcDbEllipse
10
99.753948
20
1.084066
30
0
11
-0.0550168912822474
21
-0.0774476705501036
31
0
210
0
220
0
230
1
40
0.550618
41
-2.34940431401267
42
-1.67044131270892
0
ELLIPSE
5
F8
100
AcDbEntity
8
1
62
256
6
ByLayer
370
18
48
1
60
0
100
AcDbEllipse
10
100.953421
20
0.245576
30
0
11
0.0446240260454938
21
-0.146773165070592
31
0
210
0
220
0
230
1
40
0.05855
41
-2.43183944747281
42
-1.74905825947801
0
ELLIPSE
5
F9
100
AcDbEntity
8
1
62
256
6
ByLayer
370
13
48
1
60
0
100
AcDbEllipse
10
73.2
20
11.769509
30
0
11
5.83154257444826
21
-5.47659668063916
31
0
210
0
220
0
230
1
40
0.24061
41
0.915773944207953
42
0.956194261826443
0
ELLIPSE
5
FA
100
AcDbEntity
8
1
62
256
6
ByLayer
370
18
48
1
60
0
100
AcDbEllipse
10
101.005308
20
0
30
0
11
3.9188838705906
21
11.254183524684
31
0
210
0
220
0
230
1
40
0.077207
41
-3.09736195678785
42
-2.88761614998636
0
ELLIPSE
5
FB
100
AcDbEntity
8
1
62
256
6
ByLayer
370
18
48
1
60
0
100
AcDbEllipse
10
101.005664
20
0
30
0
11
4.55266590803775
21
-11.1451004221015
31
0
210
0
220
0
230
1
40
0.349717
41
2.98234415737842
42
2.99970153550066
0
ELLIPSE
5
FC
100
AcDbEntity
8
1
62
256
6
ByLayer
370
13
48
1
60
0
100
AcDbEllipse
10
99.776752
20
1.067997
30
0
11
-0.0544235218676445
21
-0.0778657836762852
31
0
210
0
220
0
230
1
40
0.550074
41
-2.3574061212904
42
-1.67462492420216
0
POINT
5
6C
100
AcDbEntity
8
80
62
256
6
ByLayer
370
18
48
1
60
0
100
AcDbPoint
10
0
20
0
30
0
39
0
210
0
220
0
230
1
50
360
0
POINT
5
6E
100
AcDbEntity
8
81
62
256
6
ByLayer
370
18
48
1
60
0
100
AcDbPoint
10
86.5
20
0
30
0
39
0
210
0
220
0
230
1
50
360
0
SPLINE
5
FD
100
AcDbEntity
8
1
62
256
6
ByLayer
370
18
48
1
60
0
100
AcDbSpline
70
4
71
3
72
14
73
10
40
0
40
0
40
0
40
0
40
0.191047076902741
40
0.381496068293405
40
0.569122526738698
40
0.677790028361766
40
0.785200536792355
40
0.892112589343216
40
1
40
1
40
1
40
1
41
1
10
18.8674012550217
20
11.6881507008796
30
0
41
1
10
18.1207872686327
20
12.0122927502391
30
0
41
1
10
16.637677910151
20
12.6762842131207
30
0
41
1
10
14.4775647796325
20
13.776256540378
30
0
41
1
10
12.6001353005079
20
14.6580349207021
30
0
41
1
10
10.9952301335552
20
15.2784333374985
30
0
41
1
10
9.67654928570573
20
15.6744960804137
30
0
41
1
10
8.32538366458488
20
15.9380776507379
30
0
41
1
10
7.41331206252548
20
15.9972661506327
30
0
41
1
10
6.9513
20
16
30
0
0
SPLINE
5
FE
100
AcDbEntity
8
1
62
256
6
ByLayer
370
18
48
1
60
0
100
AcDbSpline
70
4
71
3
72
15
73
11
40
0
40
0
40
0
40
0
40
0.109829244211365
40
0.218680696418323
40
0.328088138664544
40
0.438822062626922
40
0.551060214592578
40
0.699904973693642
40
0.849902763067502
40
1
40
1
40
1
40
1
41
1
10
6.9513
20
-16
30
0
41
1
10
7.42171491655336
20
-15.9970950389197
30
0
41
1
10
8.35019998346215
20
-15.935824647191
30
0
41
1
10
9.72531547744865
20
-15.6630386182674
30
0
41
1
10
11.0668290263961
20
-15.2539922074867
30
0
41
1
10
12.3861950370868
20
-14.7380606288069
30
0
41
1
10
13.8290356322797
20
-14.0845969344768
30
0
41
1
10
15.3990031762299
20
-13.3097286741769
30
0
41
1
10
17.1101150799711
20
-12.4557700075389
30
0
41
1
10
18.2788640506915
20
-11.9384220987245
30
0
41
1
10
18.8674012550217
20
-11.6881507008796
30
0
0
SPLINE
5
FF
100
AcDbEntity
8
1
62
256
6
ByLayer
370
18
48
1
60
0
100
AcDbSpline
70
4
71
3
72
25
73
21
40
0
40
0
40
0
40
0
40
0.0356908016469238
40
0.0871252449586292
40
0.145511063976099
40
0.198277069543318
40
0.256533803839259
40
0.313817211691951
40
0.368018324998443
40
0.419142398732391
40
0.464087401002694
40
0.506362999786954
40
0.54597598420948
40
0.58293448109374
40
0.621050295207713
40
0.667422961769515
40
0.732911649228401
40
0.81015160097065
40
0.899170824196431
40
1
40
1
40
1
40
1
41
1
10
44.3691852754221
20
10.7247862943809
30
0
41
1
10
44.1930098037227
20
10.7178837645697
30
0
41
1
10
43.7491359962124
20
10.7026903662762
30
0
41
1
10
42.9229556841652
20
10.6807118156731
30
0
41
1
10
41.9886374918027
20
10.6736739607236
30
0
41
1
10
41.0152730302828
20
10.6793166937092
30
0
41
1
10
40.0622532098979
20
10.6940557644105
30
0
41
1
10
39.1006828067193
20
10.7057149363485
30
0
41
1
10
38.1779273383148
20
10.7144589650514
30
0
41
1
10
37.3239200566231
20
10.7206187389286
30
0
41
1
10
36.5364374670407
20
10.7249155322803
30
0
41
1
10
35.8133583575976
20
10.7278905285979
30
0
41
1
10
35.1347041478021
20
10.7299898105262
30
0
41
1
10
34.4788377805786
20
10.7315624882796
30
0
41
1
10
33.7828533029061
20
10.7328416608091
30
0
41
1
10
32.9220371224849
20
10.7342404414836
30
0
41
1
10
31.8359965404235
20
10.7362271495498
30
0
41
1
10
30.5046136380417
20
10.7392948271612
30
0
41
1
10
28.97005383934
20
10.7438231830783
30
0
41
1
10
27.8793056386105
20
10.747724423798
30
0
41
1
10
27.3000000003047
20
10.7499999998179
30
0
0
SPLINE
5
100
100
AcDbEntity
8
1
62
256
6
ByLayer
370
18
48
1
60
0
100
AcDbSpline
70
4
71
1
72
4
73
2
40
0
40
0
40
1
40
1
41
1
10
49.2784930055143
20
-2.47314191709566
30
0
41
1
10
49.6920162239886
20
-2.60603228253262
30
0
0
SPLINE
5
101
100
AcDbEntity
8
1
62
256
6
ByLayer
370
18
48
1
60
0
100
AcDbSpline
70
4
71
3
72
23
73
19
40
0
40
0
40
0
40
0
40
0.0939588298000836
40
0.172392883178984
40
0.235321708648904
40
0.276209687105371
40
0.306172588234596
40
0.325745754880324
40
0.344956098838337
40
0.367625701794883
40
0.39376817060047
40
0.469173476444566
40
0.563986529535798
40
0.648756968340992
40
0.738766626877108
40
0.825829121317371
40
0.910199462912438
40
1
40
1
40
1
40
1
41
1
10
27.3000000003047
20
-10.7499999998179
30
0
41
1
10
27.7572465150633
20
-10.7482096170353
30
0
41
1
10
28.5961912081754
20
-10.7451525514837
30
0
41
1
10
29.7413834122844
20
-10.7415102775485
30
0
41
1
10
30.6283094434625
20
-10.7391077125671
30
0
41
1
10
31.2793534173818
20
-10.7375799748776
30
0
41
1
10
31.7194007932386
20
-10.7366596839965
30
0
41
1
10
32.053963171241
20
-10.7360215671196
30
0
41
1
10
32.3530045173558
20
-10.7354906641146
30
0
41
1
10
32.6835807414419
20
-10.7349273759655
30
0
41
1
10
33.2864364444192
20
-10.7338830359401
30
0
41
1
10
34.2370829982715
20
-10.7319143943753
30
0
41
1
10
35.4686620768707
20
-10.7278220162615
30
0
41
1
10
36.7672537870227
20
-10.7205427684456
30
0
41
1
10
38.0313079360936
20
-10.711794456332
30
0
41
1
10
39.3020575731397
20
-10.7076765490931
30
0
41
1
10
40.5746251906882
20
-10.7095210018604
30
0
41
1
10
41.4198211479398
20
-10.714437364233
30
0
41
1
10
41.8552973168911
20
-10.7180724842887
30
0
0
SPLINE
5
102
100
AcDbEntity
8
1
62
256
6
ByLayer
370
18
48
1
60
0
100
AcDbSpline
70
4
71
3
72
9
73
5
40
0
40
0
40
0
40
0
40
0.957421909713549
40
1
40
1
40
1
40
1
41
1
10
43.1224029300137
20
-10.7305393498357
30
0
41
1
10
43.300506343916
20
-10.7322254329122
30
0
41
1
10
43.4853760036317
20
-10.7337770978525
30
0
41
1
10
43.6684020972374
20
-10.734876614464
30
0
41
1
10
43.6761932850099
20
-10.7349232059634
30
0
0
SPLINE
5
103
100
AcDbEntity
8
SK1
62
256
6
ByLayer
370
18
48
1
60
0
100
AcDbSpline
70
4
71
3
72
64
73
60
40
0
40
0
40
0
40
0
40
0.03125
40
0.03125
40
0.046875
40
0.046875
40
0.0625000000000001
40
0.0625000000000001
40
0.09375
40
0.09375
40
0.109375
40
0.109375
40
0.125
40
0.125
40
0.15625
40
0.15625
40
0.171875
40
0.171875
40
0.1875
40
0.1875
40
0.25
40
0.25
40
0.28125
40
0.28125
40
0.3125
40
0.3125
40
0.375
40
0.375
40
0.4375
40
0.4375
40
0.5
40
0.5
40
0.5625
40
0.5625
40
0.59375
40
0.59375
40
0.625
40
0.625
40
0.6875
40
0.6875
40
0.75
40
0.75
40
0.78125
40
0.78125
40
0.8125
40
0.8125
40
0.84375
40
0.84375
40
0.875
40
0.875
40
0.90625
40
0.90625
40
0.9375
40
0.9375
40
0.953125
40
0.953125
40
0.96875
40
0.96875
40
1
40
1
40
1
40
1
41
1
10
-49.5
20
6.99849805315398
30
0
41
1
10
-49.6914655252153
20
6.99849805315398
30
0
41
1
10
-49.8781166320867
20
6.97840315241657
30
0
41
1
10
-50.1515121226476
20
6.92047351118782
30
0
41
1
10
-50.2415381169684
20
6.89648863827941
30
0
41
1
10
-50.419393374476
20
6.83910391373095
30
0
41
1
10
-50.506273449733
20
6.80596321889971
30
0
41
1
10
-50.7575437595959
20
6.6955243056172
30
0
41
1
10
-50.9143053159318
20
6.60675869544858
30
0
41
1
10
-51.1354699071776
20
6.45287807307128
30
0
41
1
10
-51.2066091628289
20
6.39821944342236
30
0
41
1
10
-51.3419791187847
20
6.28444859172765
30
0
41
1
10
-51.4065709621075
20
6.22509096722015
30
0
41
1
10
-51.5920640683408
20
6.0401455182845
30
0
41
1
10
-51.7047260109742
20
5.90771355623363
30
0
41
1
10
-51.8600324594575
20
5.69675807949747
30
0
41
1
10
-51.9096203323737
20
5.62417904728929
30
0
41
1
10
-52.0034790406928
20
5.47684573321774
30
0
41
1
10
-52.0478850975221
20
5.40193398687597
30
0
41
1
10
-52.2587663604383
20
5.02158235872483
30
0
41
1
10
-52.392448507075
20
4.69897386034114
30
0
41
1
10
-52.5583785014858
20
4.19258700908645
30
0
41
1
10
-52.6079175184408
20
4.01941859873125
30
0
41
1
10
-52.6960282850572
20
3.67068641712225
30
0
41
1
10
-52.7347645974349
20
3.49474424866864
30
0
41
1
10
-52.8380677922781
20
2.96257506816934
30
0
41
1
10
-52.8899084836562
20
2.60203245520535
30
0
41
1
10
-52.9697422695269
20
1.87062537676033
30
0
41
1
10
-52.9976833044348
20
1.49946628375946
30
0
41
1
10
-53.0344727707065
20
0.748365027890884
30
0
41
1
10
-53.0430847983843
20
0.373612626984993
30
0
41
1
10
-53.0430728991595
20
-0.374371447837348
30
0
41
1
10
-53.0344422963174
20
-0.747602890379881
30
0
41
1
10
-53.0071789817881
20
-1.30628204449945
30
0
41
1
10
-52.9956735714348
20
-1.49231292021335
30
0
41
1
10
-52.967178918833
20
-1.86396822844924
30
0
41
1
10
-52.9501324014574
20
-2.05007278812627
30
0
41
1
10
-52.889851187572
20
-2.60297567152125
30
0
41
1
10
-52.837692077745
20
-2.96488095092602
30
0
41
1
10
-52.6998974284753
20
-3.67399084568154
30
0
41
1
10
-52.6144373344436
20
-4.02122114608875
30
0
41
1
10
-52.4481915887
20
-4.52899799146797
30
0
41
1
10
-52.3863996350795
20
-4.69567554573538
30
0
41
1
10
-52.2490807100299
20
-5.01874839515168
30
0
41
1
10
-52.173375931039
20
-5.17576732390657
30
0
41
1
10
-52.0046325127762
20
-5.47977116054182
30
0
41
1
10
-51.9114899210751
20
-5.62695060366965
30
0
41
1
10
-51.7037165721103
20
-5.9089960348042
30
0
41
1
10
-51.5908201246101
20
-6.0415187919846
30
0
41
1
10
-51.3435297220028
20
-6.28781175241014
30
0
41
1
10
-51.209080850035
20
-6.40169909356393
30
0
41
1
10
-50.9136034156047
20
-6.60720933870761
30
0
41
1
10
-50.7568368831618
20
-6.69585312510191
30
0
41
1
10
-50.5062845360234
20
-6.80594926188147
30
0
41
1
10
-50.4201881150016
20
-6.83881764830417
30
0
41
1
10
-50.2423052361807
20
-6.89627071119148
30
0
41
1
10
-50.1517882506761
20
-6.92041108839561
30
0
41
1
10
-49.8778897514919
20
-6.97845904737764
30
0
41
1
10
-49.6911785405792
20
-6.99849805315398
30
0
41
1
10
-49.5
20
-6.99849805315398
30
0
0
SPLINE
5
104
100
AcDbEntity
8
SK1
62
256
6
ByLayer
370
18
48
1
60
0
100
AcDbSpline
70
4
71
3
72
64
73
60
40
0
40
0
40
0
40
0
40
0.0312499999999995
40
0.0312499999999995
40
0.0468749999999992
40
0.0468749999999992
40
0.062499999999999
40
0.062499999999999
40
0.0937499999999985
40
0.0937499999999985
40
0.109374999999998
40
0.109374999999998
40
0.124999999999998
40
0.124999999999998
40
0.156249999999997
40
0.156249999999997
40
0.171874999999997
40
0.171874999999997
40
0.187499999999997
40
0.187499999999997
40
0.249999999999997
40
0.249999999999997
40
0.281249999999998
40
0.281249999999998
40
0.312499999999998
40
0.312499999999998
40
0.374999999999998
40
0.374999999999998
40
0.437499999999999
40
0.437499999999999
40
0.499999999999999
40
0.499999999999999
40
0.562499999999999
40
0.562499999999999
40
0.59375
40
0.59375
40
0.625
40
0.625
40
0.6875
40
0.6875
40
0.750000000000001
40
0.750000000000001
40
0.781250000000001
40
0.781250000000001
40
0.812500000000001
40
0.812500000000001
40
0.843750000000001
40
0.843750000000001
40
0.875000000000001
40
0.875000000000001
40
0.906250000000001
40
0.906250000000001
40
0.937500000000001
40
0.937500000000001
40
0.953125
40
0.953125
40
0.96875
40
0.96875
40
1
40
1
40
1
40
1
41
1
10
-6.5
20
-6.99849805315398
30
0
41
1
10
-6.30853447478469
20
-6.99849805315398
30
0
41
1
10
-6.12188336791326
20
-6.97840315241657
30
0
41
1
10
-5.84848787735237
20
-6.92047351118779
30
0
41
1
10
-5.75846188303157
20
-6.89648863827941
30
0
41
1
10
-5.5806066255239
20
-6.83910391373092
30
0
41
1
10
-5.49372655026696
20
-6.80596321889971
30
0
41
1
10
-5.2424562404041
20
-6.69552430561717
30
0
41
1
10
-5.08569468406813
20
-6.60675869544858
30
0
41
1
10
-4.86453009282241
20
-6.45287807307128
30
0
41
1
10
-4.7933908371711
20
-6.39821944342236
30
0
41
1
10
-4.65802088121532
20
-6.28444859172765
30
0
41
1
10
-4.59342903789255
20
-6.22509096722015
30
0
41
1
10
-4.40793593165918
20
-6.04014551828448
30
0
41
1
10
-4.29527398902582
20
-5.90771355623363
30
0
41
1
10
-4.13996754054247
20
-5.69675807949747
30
0
41
1
10
-4.09037966762625
20
-5.62417904728929
30
0
41
1
10
-3.99652095930719
20
-5.47684573321774
30
0
41
1
10
-3.95211490247786
20
-5.40193398687597
30
0
41
1
10
-3.7412336395617
20
-5.02158235872483
30
0
41
1
10
-3.60755149292498
20
-4.69897386034114
30
0
41
1
10
-3.44162149851414
20
-4.19258700908645
30
0
41
1
10
-3.39208248155919
20
-4.01941859873125
30
0
41
1
10
-3.30397171494275
20
-3.67068641712225
30
0
41
1
10
-3.26523540256505
20
-3.49474424866864
30
0
41
1
10
-3.16193220772186
20
-2.96257506816934
30
0
41
1
10
-3.11009151634377
20
-2.60203245520535
30
0
41
1
10
-3.03025773047307
20
-1.87062537676033
30
0
41
1
10
-3.00231669556513
20
-1.49946628375946
30
0
41
1
10
-2.96552722929346
20
-0.748365027890884
30
0
41
1
10
-2.95691520161572
20
-0.373612626984993
30
0
41
1
10
-2.95692710084049
20
0.374371447837348
30
0
41
1
10
-2.96555770368255
20
0.747602890379881
30
0
41
1
10
-2.99282101821183
20
1.30628204449945
30
0
41
1
10
-3.00432642856521
20
1.49231292021335
30
0
41
1
10
-3.03282108116699
20
1.86396822844924
30
0
41
1
10
-3.04986759854256
20
2.05007278812627
30
0
41
1
10
-3.11014881242801
20
2.60297567152125
30
0
41
1
10
-3.16230792225497
20
2.96488095092602
30
0
41
1
10
-3.30010257152463
20
3.67399084568154
30
0
41
1
10
-3.38556266555634
20
4.02122114608875
30
0
41
1
10
-3.55180841129999
20
4.52899799146797
30
0
41
1
10
-3.61360036492047
20
4.69567554573538
30
0
41
1
10
-3.75091928997011
20
5.01874839515168
30
0
41
1
10
-3.82662406896094
20
5.17576732390657
30
0
41
1
10
-3.99536748722372
20
5.47977116054182
30
0
41
1
10
-4.08851007892491
20
5.62695060366963
30
0
41
1
10
-4.29628342788973
20
5.90899603480418
30
0
41
1
10
-4.40917987538984
20
6.0415187919846
30
0
41
1
10
-4.65647027799722
20
6.28781175241014
30
0
41
1
10
-4.79091914996494
20
6.40169909356391
30
0
41
1
10
-5.08639658439523
20
6.60720933870761
30
0
41
1
10
-5.24316311683816
20
6.69585312510191
30
0
41
1
10
-5.49371546397657
20
6.80594926188147
30
0
41
1
10
-5.57981188499843
20
6.83881764830417
30
0
41
1
10
-5.75769476381925
20
6.89627071119145
30
0
41
1
10
-5.84821174932387
20
6.92041108839561
30
0
41
1
10
-6.12211024850808
20
6.97845904737764
30
0
41
1
10
-6.30882145942076
20
6.99849805315398
30
0
41
1
10
-6.49999999999997
20
6.99849805315398
30
0
0
SPLINE
5
105
100
AcDbEntity
8
1
62
256
6
ByLayer
370
18
48
1
60
0
100
AcDbSpline
70
2053
71
3
72
39
73
35
40
0
40
0
40
0
40
0
40
0.0303481770670767
40
0.0624389582584625
40
0.0936605264176221
40
0.12489155125402
40
0.156211778150556
40
0.187374826059701
40
0.219470275846019
40
0.249883204590548
40
0.280297980782316
40
0.312411415590384
40
0.343571538622054
40
0.374907340156829
40
0.406075229443013
40
0.437383193679301
40
0.46949512887094
40
0.499825288612802
40
0.530257094604479
40
0.562523866852834
40
0.59371260733808
40
0.625042108679323
40
0.656204893817043
40
0.687531048317616
40
0.719606594511197
40
0.749973633083552
40
0.780318624331959
40
0.812412657916478
40
0.843744172014259
40
0.874917107319403
40
0.906214293551479
40
0.937496043466043
40
0.969663457143556
40
1
40
1
40
1
40
1
41
1
10
81.9800000000001
20
-6.3902320163242
30
0
41
1
10
81.8513096260148
20
-6.39023442687163
30
0
41
1
10
81.5865389123367
20
-6.41186385166401
30
0
41
1
10
81.2046757411162
20
-6.50817544974612
30
0
41
1
10
80.8506746718583
20
-6.66516750776711
30
0
41
1
10
80.5432085502016
20
-6.87012536553343
30
0
41
1
10
80.2908547123048
20
-7.11350917444727
30
0
41
1
10
80.1010885003852
20
-7.38587082183116
30
0
41
1
10
79.9857581443101
20
-7.6694343920303
30
0
41
1
10
79.9476092215864
20
-7.95167760310767
30
0
41
1
10
79.9851857543011
20
-8.22291810456497
30
0
41
1
10
80.100002788147
20
-8.4757362397861
30
0
41
1
10
80.2893520040873
20
-8.70073570563056
30
0
41
1
10
80.5411713819929
20
-8.8886486440102
30
0
41
1
10
80.848383134398
20
-9.03814127097829
30
0
41
1
10
81.2022961140076
20
-9.14738422339087
30
0
41
1
10
81.5844024930682
20
-9.21268720793404
30
0
41
1
10
81.978185298972
20
-9.23375763031711
30
0
41
1
10
82.3727178565205
20
-9.21304916671113
30
0
41
1
10
82.7555405050684
20
-9.14790880646157
30
0
41
1
10
83.1103528731769
20
-9.03864481445135
30
0
41
1
10
83.4173741318524
20
-8.8895210354631
30
0
41
1
10
83.6698481990669
20
-8.70147360022241
30
0
41
1
10
83.8594383452759
20
-8.4767188289353
30
0
41
1
10
83.9745331237842
20
-8.22373150743809
30
0
41
1
10
84.0123440405282
20
-7.95302877967774
30
0
41
1
10
83.9746844670021
20
-7.67116361135598
30
0
41
1
10
83.8597441941689
20
-7.38726617777098
30
0
41
1
10
83.6702047162292
20
-7.11473323947484
30
0
41
1
10
83.41786190464
20
-6.87102357632213
30
0
41
1
10
83.1107060965372
20
-6.66587543487586
30
0
41
1
10
82.756053298392
20
-6.50837953803546
30
0
41
1
10
82.3736863469434
20
-6.41186331960716
30
0
41
1
10
82.1086410395257
20
-6.39022960670088
30
0
41
1
10
81.9800000000001
20
-6.3902320163242
30
0
0
SPLINE
5
106
100
AcDbEntity
8
1
62
256
6
ByLayer
370
13
48
1
60
0
100
AcDbSpline
70
4
71
3
72
10
73
6
40
0
40
0
40
0
40
0
40
0.0193239814484708
40
0.0193239814484708
40
1
40
1
40
1
40
1
41
1
10
97.7548357600241
20
3.94648570861691
30
0
41
1
10
97.7548400318644
20
3.94646634054459
30
0
41
1
10
97.7548443040496
20
3.94644697254279
30
0
41
1
10
97.7550653503611
20
3.94544468717379
30
0
41
1
10
97.7552812356867
20
3.94446158609492
30
0
41
1
10
97.7554962312218
20
3.9434783035891
30
0
0
SPLINE
5
107
100
AcDbEntity
8
1
62
256
6
ByLayer
370
18
48
1
60
0
100
AcDbSpline
70
4
71
3
72
12
73
8
40
0
40
0
40
0
40
0
40
0.518488053167466
40
0.518488053167466
40
0.777732079751192
40
0.777732079751192
40
1
40
1
40
1
40
1
41
1
10
86.6454215376824
20
-11.0074664869777
30
0
41
1
10
87.5463700152297
20
-11.0941993926631
30
0
41
1
10
88.446287434433
20
-11.1582063173214
30
0
41
1
10
89.7942342358257
20
-11.2208425716623
30
0
41
1
10
90.2432318154851
20
-11.2361373984885
30
0
41
1
10
91.0766930833984
20
-11.2541028172797
30
0
41
1
10
91.4611729026859
20
-11.2582488459142
30
0
41
1
10
91.8458549735921
20
-11.258248894462
30
0
0
SPLINE
5
108
100
AcDbEntity
8
1
62
256
6
ByLayer
370
13
48
1
60
0
100
AcDbSpline
70
4
71
3
72
8
73
4
40
0
40
0
40
0
40
0
40
1
40
1
40
1
40
1
41
1
10
99.7850322773864
20
1.14426650929701
30
0
41
1
10
100.105790111336
20
1.12165082954024
30
0
41
1
10
100.426547945285
20
1.09903514978347
30
0
41
1
10
100.747305779235
20
1.07641947002668
30
0
0
SPLINE
5
109
100
AcDbEntity
8
1
62
256
6
ByLayer
370
18
48
1
60
0
100
AcDbSpline
70
4
71
3
72
8
73
4
40
0
40
0
40
0
40
0
40
1
40
1
40
1
40
1
41
1
10
77.7974429698997
20
9.54602137519444
30
0
41
1
10
77.8123369891219
20
9.58430858560132
30
0
41
1
10
77.8277854340174
20
9.62223965081267
30
0
41
1
10
77.8437944345415
20
9.65981235330287
30
0
0
SPLINE
5
10A
100
AcDbEntity
8
1
62
256
6
ByLayer
370
18
48
1
60
0
100
AcDbSpline
70
4
71
3
72
18
73
14
40
0
40
0
40
0
40
0
40
0.250000000000012
40
0.250000000000012
40
0.37500000000001
40
0.37500000000001
40
0.500000000000008
40
0.500000000000008
40
0.750000000000004
40
0.750000000000004
40
0.875000000000002
40
0.875000000000002
40
1
40
1
40
1
40
1
41
1
10
99.4560057736409
20
-3.18663466578721
30
0
41
1
10
99.5567728988934
20
-3.07598967899256
30
0
41
1
10
99.6569630821938
20
-2.95328384659979
30
0
41
1
10
99.8062487281332
20
-2.74832807169469
30
0
41
1
10
99.8558433483688
20
-2.67651290979796
30
0
41
1
10
99.9546650016224
20
-2.52519825544843
30
0
41
1
10
100.004195126106
20
-2.44516469540201
30
0
41
1
10
100.149453379493
20
-2.19692639742823
30
0
41
1
10
100.241857975126
20
-2.02090462104655
30
0
41
1
10
100.373537939594
20
-1.74042322165721
30
0
41
1
10
100.416461911164
20
-1.64371470745539
30
0
41
1
10
100.498814869452
20
-1.44723232354474
30
0
41
1
10
100.538232552145
20
-1.34755308163139
30
0
41
1
10
100.575946806077
20
-1.24648106020794
30
0
0
SPLINE
5
10B
100
AcDbEntity
8
1
62
256
6
ByLayer
370
18
48
1
60
0
100
AcDbSpline
70
4
71
3
72
28
73
24
40
0
40
0
40
0
40
0
40
0.0374391630152809
40
0.0746584278512594
40
0.111658281465326
40
0.148439219530249
40
0.185001746622963
40
0.221346376417841
40
0.257473631884513
40
0.293384045490347
40
0.329078159407693
40
0.364556525725988
40
0.399819706668835
40
0.434868274816138
40
0.469702813331419
40
0.504323916194417
40
0.577353787014784
40
0.649633471588148
40
0.72116908459804
40
0.791966933548914
40
0.86203352521788
40
0.931375572265431
40
1
40
1
40
1
40
1
41
1
10
92.92781218344
20
-3.6884491619154
30
0
41
1
10
92.9084177646177
20
-3.63553158067191
30
0
41
1
10
92.8697428397064
20
-3.53000722854583
30
0
41
1
10
92.8126597017265
20
-3.37094011170356
30
0
41
1
10
92.7564756371854
20
-3.21194887836495
30
0
41
1
10
92.7012441068372
20
-3.05298704377631
30
0
41
1
10
92.6469509124243
20
-2.89412283742195
30
0
41
1
10
92.5935998244327
20
-2.73539292093559
30
0
41
1
10
92.5411898412998
20
-2.5768412336891
30
0
41
1
10
92.4897212291847
20
-2.41850867524778
30
0
41
1
10
92.4391939159591
20
-2.26043584010145
30
0
41
1
10
92.3896079254462
20
-2.10266230338055
30
0
41
1
10
92.3409632334028
20
-1.94522676239447
30
0
41
1
10
92.2932599119379
20
-1.78816717612307
30
0
41
1
10
92.2464976985231
20
-1.63152007544576
30
0
41
1
10
92.1836394319908
20
-1.41724164126242
30
0
41
1
10
92.1060474994644
20
-1.14534408172713
30
0
41
1
10
92.0155428350919
20
-0.815845521030553
30
0
41
1
10
91.9290196746696
20
-0.488225533652809
30
0
41
1
10
91.8464556187516
20
-0.162778489974102
30
0
41
1
10
91.7679340263507
20
0.160219072892659
30
0
41
1
10
91.6931483911661
20
0.480493919806889
30
0
41
1
10
91.6462907244946
20
0.693142118213331
30
0
41
1
10
91.6229837539759
20
0.798913182868517
30
0
0
SPLINE
5
10C
100
AcDbEntity
8
1
62
256
6
ByLayer
370
13
48
1
60
0
100
AcDbSpline
70
4
71
3
72
18
73
14
40
0
40
0
40
0
40
0
40
0.124999999999993
40
0.124999999999993
40
0.18749999999999
40
0.18749999999999
40
0.249999999999987
40
0.249999999999987
40
0.499999999999991
40
0.499999999999991
40
0.749999999999996
40
0.749999999999996
40
1
40
1
40
1
40
1
41
1
10
97.7554962312271
20
3.94347830359075
30
0
41
1
10
97.7898388001752
20
3.78641254968659
30
0
41
1
10
97.8331374108272
20
3.63361718103172
30
0
41
1
10
97.9101920019909
20
3.41019204540169
30
0
41
1
10
97.9379927536751
20
3.33648028424361
30
0
41
1
10
97.9968974147048
20
3.19229610648381
30
0
41
1
10
98.0280147531793
20
3.12174323478482
30
0
41
1
10
98.1913307680929
20
2.77611660082985
30
0
41
1
10
98.3462671407596
20
2.52205009443699
30
0
41
1
10
98.6950362045385
20
2.04982677631386
30
0
41
1
10
98.8840961994302
20
1.83802111871543
30
0
41
1
10
99.2849590335706
20
1.45221012518925
30
0
41
1
10
99.4974047205835
20
1.27796517372764
30
0
41
1
10
99.7169881297881
20
1.12191385587556
30
0
0
SPLINE
5
10D
100
AcDbEntity
8
1
62
256
6
ByLayer
370
18
48
1
60
0
100
AcDbSpline
70
4
71
3
72
8
73
4
40
0
40
0
40
0
40
0
40
1
40
1
40
1
40
1
41
1
10
86.3000000000001
20
3.50692733042706
30
0
41
1
10
85.6177891397285
20
3.55893676676411
30
0
41
1
10
84.9355195603369
20
3.60720840238398
30
0
41
1
10
84.2531028941567
20
3.65170343530971
30
0
0
SPLINE
5
10E
100
AcDbEntity
8
1
62
256
6
ByLayer
370
18
48
1
60
0
100
AcDbSpline
70
4
71
3
72
16
73
12
40
0
40
0
40
0
40
0
40
0.25
40
0.25
40
0.375
40
0.375
40
0.5
40
0.5
40
0.75
40
0.75
40
1
40
1
40
1
40
1
41
1
10
87.233141141929
20
11.4202138128361
30
0
41
1
10
88.0950051844248
20
11.4615013676459
30
0
41
1
10
88.9559893954605
20
11.4815252427057
30
0
41
1
10
90.245745670686
20
11.4802368137985
30
0
41
1
10
90.6752487448673
20
11.4745616729319
30
0
41
1
10
91.5337089291348
20
11.4526397726501
30
0
41
1
10
91.9626004149235
20
11.43636443335
30
0
41
1
10
93.2502566632988
20
11.3720414955267
30
0
41
1
10
94.1092553047944
20
11.3084588376744
30
0
41
1
10
95.8282078189462
20
11.1398467985262
30
0
41
1
10
96.6875135038736
20
11.0343097173481
30
0
41
1
10
97.5492066688882
20
10.908757428594
30
0
0
SPLINE
5
10F
100
AcDbEntity
8
1
62
256
6
ByLayer
370
13
48
1
60
0
100
AcDbSpline
70
4
71
3
72
18
73
14
40
0
40
0
40
0
40
0
40
0.249999999999991
40
0.249999999999991
40
0.374999999999989
40
0.374999999999989
40
0.499999999999988
40
0.499999999999988
40
0.749999999999991
40
0.749999999999991
40
0.874999999999995
40
0.874999999999995
40
1
40
1
40
1
40
1
41
1
10
86.5
20
8.59151702607079
30
0
41
1
10
87.4986035008839
20
8.63702909345645
30
0
41
1
10
88.4969665861558
20
8.65672298070797
30
0
41
1
10
89.9939610844314
20
8.65371236502435
30
0
41
1
10
90.492977897683
20
8.64772118233975
30
0
41
1
10
91.4911760978372
20
8.62647161444292
30
0
41
1
10
91.9904463193632
20
8.61153070393897
30
0
41
1
10
93.4881873826143
20
8.54772569354222
30
0
41
1
10
94.4863484295767
20
8.48163774296975
30
0
41
1
10
95.9832456868844
20
8.35305682064222
30
0
41
1
10
96.482407199349
20
8.30619446652895
30
0
41
1
10
97.4808240046333
20
8.20095077137967
30
0
41
1
10
97.9799950125112
20
8.14287940363403
30
0
41
1
10
98.4791137627292
20
8.07968357169889
30
0
0
SPLINE
5
110
100
AcDbEntity
8
1
62
256
6
ByLayer
370
18
48
1
60
0
100
AcDbSpline
70
4
71
3
72
28
73
24
40
0
40
0
40
0
40
0
40
0.0624999999999993
40
0.0624999999999993
40
0.124999999999999
40
0.124999999999999
40
0.249999999999995
40
0.249999999999995
40
0.312499999999994
40
0.312499999999994
40
0.374999999999994
40
0.374999999999994
40
0.499999999999993
40
0.499999999999993
40
0.624999999999992
40
0.624999999999992
40
0.687499999999994
40
0.687499999999994
40
0.749999999999995
40
0.749999999999995
40
0.874999999999998
40
0.874999999999998
40
1
40
1
40
1
40
1
41
1
10
94.0583803138362
20
1.68632363901838
30
0
41
1
10
94.0383292536384
20
1.59385459563598
30
0
41
1
10
94.0162219231698
20
1.50505682391852
30
0
41
1
10
93.9676931874471
20
1.33516364371525
30
0
41
1
10
93.9415334277918
20
1.25500464275586
30
0
41
1
10
93.8576091358724
20
1.02926802525323
30
0
41
1
10
93.7943497528461
20
0.898118528750956
30
0
41
1
10
93.688394308422
20
0.730675452553811
30
0
41
1
10
93.6512259310014
20
0.679755843913483
30
0
41
1
10
93.5731023761462
20
0.587936346796823
30
0
41
1
10
93.5320545228018
20
0.546960078803721
30
0
41
1
10
93.4036240996019
20
0.440107664703646
30
0
41
1
10
93.3124968633115
20
0.391377979686496
30
0
41
1
10
93.1197435464375
20
0.336824214050409
30
0
41
1
10
93.0181156258049
20
0.331007653155666
30
0
41
1
10
92.8577739591819
20
0.354566848947343
30
0
41
1
10
92.8028335059486
20
0.367904723784989
30
0
41
1
10
92.6919485295716
20
0.404914019046544
30
0
41
1
10
92.6358471358631
20
0.42857770829707
30
0
41
1
10
92.4656392533411
20
0.514474213078046
30
0
41
1
10
92.3496367266036
20
0.591552462842145
30
0
41
1
10
92.1127530847429
20
0.783906913008536
30
0
41
1
10
91.9914389063362
20
0.899751258412465
30
0
41
1
10
91.8695532410476
20
1.03267970758122
30
0
0
SPLINE
5
111
100
AcDbEntity
8
1
62
256
6
ByLayer
370
18
48
1
60
0
100
AcDbSpline
70
4
71
3
72
8
73
4
40
0
40
0
40
0
40
0
40
1
40
1
40
1
40
1
41
1
10
18.8674012550217
20
5.77787034777447
30
0
41
1
10
18.8982293232277
20
5.7766526500389
30
0
41
1
10
18.9290620226124
20
5.77539844682877
30
0
41
1
10
18.9598993869815
20
5.77410785816261
30
0
0
SPLINE
5
112
100
AcDbEntity
8
1
62
256
6
ByLayer
370
18
48
1
60
0
100
AcDbSpline
70
4
71
3
72
16
73
12
40
0
40
0
40
0
40
0
40
0.250000000000016
40
0.250000000000016
40
0.375000000000014
40
0.375000000000014
40
0.500000000000011
40
0.500000000000011
40
0.750000000000005
40
0.750000000000005
40
1
40
1
40
1
40
1
41
1
10
23.1225909455987
20
5.72404729583414
30
0
41
1
10
23.2408799236239
20
5.68813099403516
30
0
41
1
10
23.362485008508
20
5.64973422662263
30
0
41
1
10
23.5515120839652
20
5.58876282719191
30
0
41
1
10
23.6157749172735
20
5.56782986686091
30
0
41
1
10
23.7449971990752
20
5.52554816181734
30
0
41
1
10
23.8101562659725
20
5.50413573986273
30
0
41
1
10
24.0075821338096
20
5.43935962370935
30
0
41
1
10
24.1423160237614
20
5.39527860375901
30
0
41
1
10
24.4168679660064
20
5.30801261893453
30
0
41
1
10
24.5536313180251
20
5.2658440145635
30
0
41
1
10
24.6899761288269
20
5.22591309203386
30
0
0
SPLINE
5
113
100
AcDbEntity
8
1
62
256
6
ByLayer
370
18
48
1
60
0
100
AcDbSpline
70
4
71
3
72
8
73
4
40
0
40
0
40
0
40
0
40
1
40
1
40
1
40
1
41
1
10
97.4304548532159
20
-10.9691813389215
30
0
41
1
10
97.4030766560473
20
-11.0515423614998
30
0
41
1
10
97.3756607059149
20
-11.1339378820689
30
0
41
1
10
97.3482078672592
20
-11.2163650514667
30
0
0
SPLINE
5
114
100
AcDbEntity
8
1
62
256
6
ByLayer
370
18
48
1
60
0
100
AcDbSpline
70
4
71
3
72
8
73
4
40
0
40
0
40
0
40
0
40
1
40
1
40
1
40
1
41
1
10
77.0603015511329
20
5.87932508229389
30
0
41
1
10
77.0865719747321
20
5.8716350919548
30
0
41
1
10
77.1128421930166
20
5.86393900715214
30
0
41
1
10
77.1391122135774
20
5.85623684914793
30
0
0
SPLINE
5
115
100
AcDbEntity
8
1
62
256
6
ByLayer
370
18
48
1
60
0
100
AcDbSpline
70
4
71
3
72
14
73
10
40
0
40
0
40
0
40
0
40
0.0358154369048076
40
0.0358154369048076
40
0.357210291269872
40
0.357210291269872
40
0.678605145634936
40
0.678605145634936
40
1
40
1
40
1
40
1
41
1
10
77.5037025159069
20
5.74895056370946
30
0
41
1
10
77.6752631815629
20
5.69828313771393
30
0
41
1
10
77.8468169113192
20
5.6473608552073
30
0
41
1
10
79.5577840502707
20
5.13699754622678
30
0
41
1
10
81.0967898634247
20
4.65763757097167
30
0
41
1
10
84.1768756535079
20
3.66566479295443
30
0
41
1
10
85.7193192646374
20
3.15281505347684
30
0
41
1
10
88.7970826315935
20
2.10613976915329
30
0
41
1
10
90.3335482476609
20
1.57208177513203
30
0
41
1
10
91.8695532410476
20
1.03267970758122
30
0
0
SPLINE
5
116
100
AcDbEntity
8
1
62
256
6
ByLayer
370
18
48
1
60
0
100
AcDbSpline
70
4
71
3
72
10
73
6
40
0
40
0
40
0
40
0
40
0.527178262838249
40
0.527178262838249
40
1
40
1
40
1
40
1
41
1
10
97.74265820634
20
4.00169278474797
30
0
41
1
10
97.7463914207679
20
4.00489086402206
30
0
41
1
10
97.7506070850702
20
4.00766757676698
30
0
41
1
10
97.7591795004258
20
4.01142827155175
30
0
41
1
10
97.7635686128494
20
4.01259103899099
30
0
41
1
10
97.7679504392289
20
4.01301316232184
30
0
0
SPLINE
5
117
100
AcDbEntity
8
1
62
256
6
ByLayer
370
18
48
1
60
0
100
AcDbSpline
70
4
71
3
72
10
73
6
40
0
40
0
40
0
40
0
40
0.605981918751466
40
0.605981918751466
40
1
40
1
40
1
40
1
41
1
10
76.9727157073656
20
9.91993160747884
30
0
41
1
10
76.9737466597418
20
9.94148504787762
30
0
41
1
10
76.9748094999275
20
9.96303597272049
30
0
41
1
10
76.9766163312174
20
9.99859571048412
30
0
41
1
10
76.9773418128171
20
10.0126058988682
30
0
41
1
10
76.9780808978956
20
10.0266151354985
30
0
0
SPLINE
5
118
100
AcDbEntity
8
1
62
256
6
ByLayer
370
18
48
1
60
0
100
AcDbSpline
70
4
71
3
72
8
73
4
40
0
40
0
40
0
40
0
40
1
40
1
40
1
40
1
41
1
10
21.9321524598307
20
5.75209481798927
30
0
41
1
10
21.9547441821473
20
5.75245541041477
30
0
41
1
10
21.977359979033
20
5.75276058563065
30
0
41
1
10
21.9999999999999
20
5.75301005728198
30
0
0
SPLINE
5
119
100
AcDbEntity
8
1
62
256
6
ByLayer
370
18
48
1
60
0
100
AcDbSpline
70
4
71
3
72
16
73
12
40
0
40
0
40
0
40
0
40
0.250000000000021
40
0.250000000000021
40
0.375000000000032
40
0.375000000000032
40
0.500000000000043
40
0.500000000000043
40
0.750000000000022
40
0.750000000000022
40
1
40
1
40
1
40
1
41
1
10
75.7870024805115
20
9.15180897195643
30
0
41
1
10
75.90430916854
20
9.17322892753847
30
0
41
1
10
76.0176605850569
20
9.20728768257248
30
0
41
1
10
76.1820815115549
20
9.2762314349107
30
0
41
1
10
76.2359522491338
20
9.30218899760851
30
0
41
1
10
76.3418534000883
20
9.35988410890866
30
0
41
1
10
76.393798273344
20
9.39161754214507
30
0
41
1
10
76.5437470431741
20
9.49280159079441
30
0
41
1
10
76.637120843166
20
9.5688137518768
30
0
41
1
10
76.8129613795953
20
9.73467945098113
30
0
41
1
10
76.8957842582352
20
9.82503998596619
30
0
41
1
10
76.9727157073655
20
9.91993160747887
30
0
0
SPLINE
5
11A
100
AcDbEntity
8
1
62
256
6
ByLayer
370
18
48
1
60
0
100
AcDbSpline
70
4
71
3
72
8
73
4
40
0
40
0
40
0
40
0
40
1
40
1
40
1
40
1
41
1
10
72.105289107981
20
-6.817895023993
30
0
41
1
10
72.4141659120233
20
-6.77854731912595
30
0
41
1
10
72.7421049847094
20
-6.75770187327331
30
0
41
1
10
73.084083072397
20
-6.75048300531776
30
0
0
SPLINE
5
11B
100
AcDbEntity
8
1
62
256
6
ByLayer
370
18
48
1
60
0
100
AcDbSpline
70
4
71
3
72
12
73
8
40
0
40
0
40
0
40
0
40
0.500000000000004
40
0.500000000000004
40
0.750000000000002
40
0.750000000000002
40
1
40
1
40
1
40
1
41
1
10
76.9780808978949
20
-10.0266151354844
30
0
41
1
10
78.5479504377644
20
-10.2914843850701
30
0
41
1
10
80.1174790994658
20
-10.5152167875978
30
0
41
1
10
82.4756961363203
20
-10.7854850358992
30
0
41
1
10
83.26191585301
20
-10.8646391504745
30
0
41
1
10
84.8331120767041
20
-11.0009091018316
30
0
41
1
10
85.618386303594
20
-11.058061304041
30
0
41
1
10
86.4035322770675
20
-11.1042494641125
30
0
0
SPLINE
5
11C
100
AcDbEntity
8
1
62
256
6
ByLayer
370
18
48
1
60
0
100
AcDbSpline
70
4
71
3
72
10
73
6
40
0
40
0
40
0
40
0
40
0.5
40
0.5
40
1
40
1
40
1
40
1
41
1
10
86.4049745339118
20
10.4295094553275
30
0
41
1
10
84.9757797756565
20
10.3715441815056
30
0
41
1
10
83.5488005860373
20
10.2805755574894
30
0
41
1
10
80.6963491357968
20
10.0248610291067
30
0
41
1
10
79.2708140769511
20
9.85974629138082
30
0
41
1
10
77.8437944345415
20
9.65981235330324
30
0
0
SPLINE
5
11D
100
AcDbEntity
8
1
62
256
6
ByLayer
370
18
48
1
60
0
100
AcDbSpline
70
4
71
3
72
8
73
4
40
0
40
0
40
0
40
0
40
1
40
1
40
1
40
1
41
1
10
86.4049745309439
20
10.4295094553196
30
0
41
1
10
86.4045018317481
20
10.652217157706
30
0
41
1
10
86.4040268252014
20
10.8744564904179
30
0
41
1
10
86.4035495592984
20
11.0962197851986
30
0
0
SPLINE
5
11E
100
AcDbEntity
8
1
62
256
6
ByLayer
370
13
48
1
60
0
100
AcDbSpline
70
4
71
3
72
8
73
4
40
0
40
0
40
0
40
0
40
1
40
1
40
1
40
1
41
1
10
99.716988129788
20
1.12191385587551
30
0
41
1
10
99.7245667148774
20
1.11652854861342
30
0
41
1
10
99.7321681393849
20
1.11117182818771
30
0
41
1
10
99.7397917652101
20
1.10584337025259
30
0
0
SPLINE
5
11F
100
AcDbEntity
8
1
62
256
6
ByLayer
370
18
48
1
60
0
100
AcDbSpline
70
4
71
3
72
8
73
4
40
0
40
0
40
0
40
0
40
1
40
1
40
1
40
1
41
1
10
100.937051100537
20
-0.269030760900307
30
0
41
1
10
100.948841229757
20
-0.228729013705305
30
0
41
1
10
100.960680486443
20
-0.188330204427871
30
0
41
1
10
100.972568552524
20
-0.147835918022224
30
0
0
SPLINE
5
120
100
AcDbEntity
8
1
62
256
6
ByLayer
370
18
48
1
60
0
100
AcDbSpline
70
4
71
3
72
8
73
4
40
0
40
0
40
0
40
0
40
1
40
1
40
1
40
1
41
1
10
86.5000000000001
20
-10.7285134105336
30
0
41
1
10
86.4683333333334
20
-10.7589693727031
30
0
41
1
10
86.4366666666667
20
-10.7894253348725
30
0
41
1
10
86.405
20
-10.819881297042
30
0
0
SPLINE
5
121
100
AcDbEntity
8
1
62
256
6
ByLayer
370
18
48
1
60
0
100
AcDbSpline
70
4
71
3
72
8
73
4
40
0
40
0
40
0
40
0
40
1
40
1
40
1
40
1
41
1
10
86.5
20
11.118204230022
30
0
41
1
10
86.5
20
10.2759741863939
30
0
41
1
10
86.5
20
9.43374508265524
30
0
41
1
10
86.5
20
8.59151702607079
30
0
0
SPLINE
5
122
100
AcDbEntity
8
1
62
256
6
ByLayer
370
18
48
1
60
0
100
AcDbSpline
70
4
71
3
72
8
73
4
40
0
40
0
40
0
40
0
40
1
40
1
40
1
40
1
41
1
10
86.6454215376823
20
-10.8746344338189
30
0
41
1
10
86.6454215376823
20
-10.8600747512754
30
0
41
1
10
86.64409110844
20
-10.8451167856311
30
0
41
1
10
86.6414347761685
20
-10.8297618685953
30
0
0
SPLINE
5
123
100
AcDbEntity
8
1
62
256
6
ByLayer
370
18
48
1
60
0
100
AcDbSpline
70
4
71
3
72
14
73
10
40
0
40
0
40
0
40
0
40
0.25
40
0.25
40
0.5
40
0.5
40
0.75
40
0.75
40
1
40
1
40
1
40
1
41
1
10
19.9457874903406
20
-7.79178696455153
30
0
41
1
10
20.0733140755341
20
-7.43806926728664
30
0
41
1
10
20.2193179927539
20
-7.03388566096172
30
0
41
1
10
20.5408532227342
20
-6.14514758656597
30
0
41
1
10
20.7163704879889
20
-5.66063194644335
30
0
41
1
10
21.0879756965462
20
-4.63595493437595
30
0
41
1
10
21.2840474048431
20
-4.0958383293958
30
0
41
1
10
21.6867547955426
20
-2.98752483540494
30
0
41
1
10
21.8933728841207
20
-2.41937636734096
30
0
41
1
10
22.1000000000008
20
-1.85168713030433
30
0
0
SPLINE
5
124
100
AcDbEntity
8
1
62
256
6
ByLayer
370
18
48
1
60
0
100
AcDbSpline
70
4
71
3
72
18
73
14
40
0
40
0
40
0
40
0
40
0.258781549405199
40
0.258781549405199
40
0.388172324107799
40
0.388172324107799
40
0.517563098810399
40
0.517563098810399
40
0.776344648215598
40
0.776344648215598
40
0.905735422918199
40
0.905735422918199
40
1
40
1
40
1
40
1
41
1
10
24.689976128847
20
5.22591309209247
30
0
41
1
10
26.8110610256939
20
4.6162772680571
30
0
41
1
10
28.930624002876
20
3.97462912727792
30
0
41
1
10
32.1137992063993
20
2.98359491379057
30
0
41
1
10
33.1757831951539
20
2.64841962730179
30
0
41
1
10
35.2972148928716
20
1.9735625772293
30
0
41
1
10
36.357244968268
20
1.6337047662073
30
0
41
1
10
39.5368978094445
20
0.611939806474965
30
0
41
1
10
41.6563216841842
20
-0.0714143499812678
30
0
41
1
10
44.8397061144552
20
-1.08445638589393
30
0
41
1
10
45.9014756301462
20
-1.4203474554146
30
0
41
1
10
47.7384725163103
20
-1.99600313814224
30
0
41
1
10
48.5131428969881
20
-2.23708403452153
30
0
41
1
10
49.2875172990533
20
-2.47592423312912
30
0
0
SPLINE
5
125
100
AcDbEntity
8
1
62
256
6
ByLayer
370
18
48
1
60
0
100
AcDbSpline
70
4
71
3
72
8
73
4
40
0
40
0
40
0
40
0
40
1
40
1
40
1
40
1
41
1
10
86.3
20
4.34999999999999
30
0
41
1
10
86.3666659194091
20
4.34999999999999
30
0
41
1
10
86.4333326095581
20
4.34999999999999
30
0
41
1
10
86.5000000000001
20
4.34999999999999
30
0
0
SPLINE
5
126
100
AcDbEntity
8
1
62
256
6
ByLayer
370
18
48
1
60
0
100
AcDbSpline
70
4
71
3
72
14
73
10
40
0
40
0
40
0
40
0
40
0.25
40
0.25
40
0.5
40
0.5
40
0.75
40
0.75
40
1
40
1
40
1
40
1
41
1
10
75.5864053548528
20
9.61587460265685
30
0
41
1
10
75.7199846619768
20
9.63463431880484
30
0
41
1
10
75.8506326064032
20
9.65813361762645
30
0
41
1
10
76.1023137237838
20
9.7130589436058
30
0
41
1
10
76.2239907386293
20
9.74457603733993
30
0
41
1
10
76.45894428919
20
9.81504534678709
30
0
41
1
10
76.5728660495881
20
9.85430675615788
30
0
41
1
10
76.7856158443467
20
9.93720680861261
30
0
41
1
10
76.8851697182951
20
9.98100339458591
30
0
41
1
10
76.9780808978927
20
10.0266151354834
30
0
0
SPLINE
5
127
100
AcDbEntity
8
1
62
256
6
ByLayer
370
18
48
1
60
0
100
AcDbSpline
70
4
71
3
72
8
73
4
40
0
40
0
40
0
40
0
40
1
40
1
40
1
40
1
41
1
10
76.9727157073655
20
9.91993160747884
30
0
41
1
10
77.2109796604895
20
9.89564916799907
30
0
41
1
10
77.433729489385
20
9.84334218441012
30
0
41
1
10
77.6392480706031
20
9.75788036797758
30
0
0
SPLINE
5
128
100
AcDbEntity
8
1
62
256
6
ByLayer
370
18
48
1
60
0
100
AcDbSpline
70
4
71
3
72
8
73
4
40
0
40
0
40
0
40
0
40
1
40
1
40
1
40
1
41
1
10
73.2645525680384
20
6.95323239385823
30
0
41
1
10
73.1722544511193
20
6.95251726876242
30
0
41
1
10
73.0796718393996
20
6.95305373525451
30
0
41
1
10
72.9873569603431
20
6.95484025783136
30
0
0
SPLINE
5
129
100
AcDbEntity
8
1
62
256
6
ByLayer
370
18
48
1
60
0
100
AcDbSpline
70
4
71
3
72
8
73
4
40
0
40
0
40
0
40
0
40
1
40
1
40
1
40
1
41
1
10
98.4791137627292
20
8.07968357169889
30
0
41
1
10
98.1744646197649
20
9.01687206958505
30
0
41
1
10
97.8645598550391
20
9.95982618568021
30
0
41
1
10
97.5492066688882
20
10.908757428594
30
0
0
SPLINE
5
12A
100
AcDbEntity
8
1
62
256
6
ByLayer
370
18
48
1
60
0
100
AcDbSpline
70
4
71
3
72
8
73
4
40
0
40
0
40
0
40
0
40
1
40
1
40
1
40
1
41
1
10
87.5596194077713
20
-10.5257402993593
30
0
41
1
10
87.5729902042625
20
-10.5206659538366
30
0
41
1
10
87.5869508210339
20
-10.5157806231874
30
0
41
1
10
87.6015116318449
20
-10.5110943322996
30
0
0
SPLINE
5
12B
100
AcDbEntity
8
1
62
256
6
ByLayer
370
18
48
1
60
0
100
AcDbSpline
70
4
71
3
72
8
73
4
40
0
40
0
40
0
40
0
40
1
40
1
40
1
40
1
41
1
10
93.0353427844976
20
-3.67964869933283
30
0
41
1
10
92.999498888008
20
-3.68268235871642
30
0
41
1
10
92.9636593420987
20
-3.6856208321413
30
0
41
1
10
92.9278241510689
20
-3.68846402638152
30
0
0
SPLINE
5
12C
100
AcDbEntity
8
1
62
256
6
ByLayer
370
18
48
1
60
0
100
AcDbSpline
70
4
71
3
72
8
73
4
40
0
40
0
40
0
40
0
40
1
40
1
40
1
40
1
41
1
10
73.0840830724204
20
-6.75048300525498
30
0
41
1
10
73.3141489037534
20
-6.79621099600578
30
0
41
1
10
73.5442001264594
20
-6.84172623055989
30
0
41
1
10
73.774234313201
20
-6.88702593611424
30
0
0
SPLINE
5
12D
100
AcDbEntity
8
1
62
256
6
ByLayer
370
18
48
1
60
0
100
AcDbSpline
70
4
71
3
72
8
73
4
40
0
40
0
40
0
40
0
40
1
40
1
40
1
40
1
41
1
10
22
20
-9.02421852575628
30
0
41
1
10
21.4702386789257
20
-8.9211095564531
30
0
41
1
10
20.9402875075999
20
-8.87366171757481
30
0
41
1
10
20.412391157224
20
-8.88353194945682
30
0
0
SPLINE
5
12E
100
AcDbEntity
8
1
62
256
6
ByLayer
370
18
48
1
60
0
100
AcDbSpline
70
4
71
3
72
22
73
18
40
0
40
0
40
0
40
0
40
0.0237250790812261
40
0.0473828057055552
40
0.0710114120893964
40
0.0946492717481177
40
0.118334713222616
40
0.14210583489228
40
0.212939170018934
40
0.283305238411746
40
0.354295116343838
40
0.424579098194663
40
0.565361113229119
40
0.705673048007193
40
0.845527796198497
40
0.98518593877781
40
1
40
1
40
1
40
1
41
1
10
86.4050044201932
20
-10.8198812973049
30
0
41
1
10
86.4051939756048
20
-10.8154129793769
30
0
41
1
10
86.4055725483044
20
-10.8064890285025
30
0
41
1
10
86.4086080588636
20
-10.7928805723207
30
0
41
1
10
86.4134523722801
20
-10.7791476826293
30
0
41
1
10
86.420281412178
20
-10.7652752312011
30
0
41
1
10
86.4290468300951
20
-10.7512702806067
30
0
41
1
10
86.4468173529789
20
-10.7278407681762
30
0
41
1
10
86.4801686499519
20
-10.6948752976752
30
0
41
1
10
86.5395359524084
20
-10.6528452159534
30
0
41
1
10
86.6141057123958
20
-10.612070772504
30
0
41
1
10
86.7330321063722
20
-10.5606159720009
30
0
41
1
10
86.9155902133633
20
-10.5039966623988
30
0
41
1
10
87.1773272040544
20
-10.4568410034689
30
0
41
1
10
87.4638323619885
20
-10.4375864604925
30
0
41
1
10
87.6674699178221
20
-10.4456753501363
30
0
41
1
10
87.7694214160767
20
-10.4560365649883
30
0
41
1
10
87.7791986814983
20
-10.4570302173566
30
0
0
SPLINE
5
12F
100
AcDbEntity
8
1
62
256
6
ByLayer
370
18
48
1
60
0
100
AcDbSpline
70
4
71
3
72
16
73
12
40
0
40
0
40
0
40
0
40
0.25
40
0.25
40
0.375
40
0.375
40
0.5
40
0.5
40
0.75
40
0.75
40
1
40
1
40
1
40
1
41
1
10
70.8871049921329
20
6.97521081236505
30
0
41
1
10
71.0522254998399
20
6.91911827176946
30
0
41
1
10
71.2219067090518
20
6.87599323381565
30
0
41
1
10
71.4831473762567
20
6.83118615342477
30
0
41
1
10
71.5713544256586
20
6.81957928693717
30
0
41
1
10
71.7500933813547
20
6.80330631815761
30
0
41
1
10
71.8406243834238
20
6.79868200854804
30
0
41
1
10
72.1110670171752
20
6.7957058193052
30
0
41
1
10
72.2920776592761
20
6.80822666719791
30
0
41
1
10
72.6463249765753
20
6.8612194131525
30
0
41
1
10
72.8203183235972
20
6.90177536795358
30
0
41
1
10
72.9873569603432
20
6.95484025783136
30
0
0
SPLINE
5
130
100
AcDbEntity
8
1
62
256
6
ByLayer
370
18
48
1
60
0
100
AcDbSpline
70
4
71
1
72
4
73
2
40
0
40
0
40
1
40
1
41
1
10
94.5427529259067
20
-9.13653159350213
30
0
41
1
10
94.4203522576124
20
-9.19158287608295
30
0
0
SPLINE
5
131
100
AcDbEntity
8
1
62
256
6
ByLayer
370
18
48
1
60
0
100
AcDbSpline
70
4
71
3
72
8
73
4
40
0
40
0
40
0
40
0
40
1
40
1
40
1
40
1
41
1
10
75.6376080177639
20
9.12677951452247
30
0
41
1
10
75.6202610440602
20
9.29078205340929
30
0
41
1
10
75.6031679129518
20
9.453808832813
30
0
41
1
10
75.5864053548527
20
9.61587460265685
30
0
0
SPLINE
5
132
100
AcDbEntity
8
1
62
256
6
ByLayer
370
18
48
1
60
0
100
AcDbSpline
70
4
71
3
72
8
73
4
40
0
40
0
40
0
40
0
40
1
40
1
40
1
40
1
41
1
10
18.8674012550217
20
-8.92165135953232
30
0
41
1
10
18.8977155211626
20
-8.92689976866117
30
0
41
1
10
18.9285487540134
20
-8.93135858768431
30
0
41
1
10
18.9598993869815
20
-8.93504632454398
30
0
0
SPLINE
5
133
100
AcDbEntity
8
1
62
256
6
ByLayer
370
18
48
1
60
0
100
AcDbSpline
70
4
71
3
72
8
73
4
40
0
40
0
40
0
40
0
40
1
40
1
40
1
40
1
41
1
10
22.0000000000001
20
5.75301005728139
30
0
41
1
10
22.3786049821778
20
5.76703502260216
30
0
41
1
10
22.7527237296659
20
5.75717967667453
30
0
41
1
10
23.1225909455987
20
5.72404729583411
30
0
0
SPLINE
5
134
100
AcDbEntity
8
1
62
256
6
ByLayer
370
18
48
1
60
0
100
AcDbSpline
70
4
71
3
72
8
73
4
40
0
40
0
40
0
40
0
40
1
40
1
40
1
40
1
41
1
10
91.6231927967171
20
0.798864380358566
30
0
41
1
10
91.6599593258926
20
0.798971565127232
30
0
41
1
10
91.6967258460355
20
0.799172312792109
30
0
41
1
10
91.7334923579378
20
0.79946643326187
30
0
0
SPLINE
5
135
100
AcDbEntity
8
1
62
256
6
ByLayer
370
18
48
1
60
0
100
AcDbSpline
70
4
71
3
72
16
73
12
40
0
40
0
40
0
40
0
40
0.249999999999986
40
0.249999999999986
40
0.374999999999989
40
0.374999999999989
40
0.499999999999991
40
0.499999999999991
40
0.749999999999995
40
0.749999999999995
40
1
40
1
40
1
40
1
41
1
10
97.6484308052176
20
3.92038723789258
30
0
41
1
10
97.4370713267581
20
3.7367479936307
30
0
41
1
10
97.2275675418415
20
3.55529617330166
30
0
41
1
10
96.9221421247811
20
3.28097700031472
30
0
41
1
10
96.8214529196594
20
3.18911472339613
30
0
41
1
10
96.6251144854188
20
3.00709182324377
30
0
41
1
10
96.5292101089517
20
2.91674513321249
30
0
41
1
10
96.2484238384404
20
2.64778940383494
30
0
41
1
10
96.0706430686473
20
2.47103677998175
30
0
41
1
10
95.7338999414011
20
2.1252542920007
30
0
41
1
10
95.5742229209498
20
1.95541044270411
30
0
41
1
10
95.4283791491873
20
1.79397293369192
30
0
0
SPLINE
5
136
100
AcDbEntity
8
1
62
256
6
ByLayer
370
18
48
1
60
0
100
AcDbSpline
70
4
71
3
72
18
73
14
40
0
40
0
40
0
40
0
40
0.249999999999995
40
0.249999999999995
40
0.374999999999994
40
0.374999999999994
40
0.499999999999995
40
0.499999999999995
40
0.624999999999994
40
0.624999999999994
40
0.749999999999994
40
0.749999999999994
40
1
40
1
40
1
40
1
41
1
10
100.747305779235
20
1.07641947002668
30
0
41
1
10
100.70703842099
20
1.25066749751258
30
0
41
1
10
100.657743334118
20
1.44557060993003
30
0
41
1
10
100.570785155731
20
1.76770433618327
30
0
41
1
10
100.539710418554
20
1.87968420128613
30
0
41
1
10
100.474472535564
20
2.10918960964918
30
0
41
1
10
100.440180804049
20
2.22718718743445
30
0
41
1
10
100.368347249061
20
2.46948686268843
30
0
41
1
10
100.330801831706
20
2.59379593155663
30
0
41
1
10
100.252466110079
20
2.84870849225325
30
0
41
1
10
100.211491432545
20
2.97988027709104
30
0
41
1
10
100.085661985542
20
3.37651991907771
30
0
41
1
10
99.9975751363441
20
3.64630687367642
30
0
41
1
10
99.9053561583264
20
3.92136703777854
30
0
0
SPLINE
5
137
100
AcDbEntity
8
1
62
256
6
ByLayer
370
18
48
1
60
0
100
AcDbSpline
70
4
71
3
72
12
73
8
40
0
40
0
40
0
40
0
40
0.0873083943011806
40
0.0873083943011806
40
0.54365419715059
40
0.54365419715059
40
1
40
1
40
1
40
1
41
1
10
91.8081670424255
20
11.4881651302311
30
0
41
1
10
91.9692123103239
20
11.4887306628779
30
0
41
1
10
92.130271363761
20
11.4885544911989
30
0
41
1
10
93.1333567978351
20
11.4828334973782
30
0
41
1
10
93.9756973448772
20
11.4579209953815
30
0
41
1
10
95.6607930883134
20
11.3675606516216
30
0
41
1
10
96.5032604275383
20
11.3018335009775
30
0
41
1
10
97.3482078672592
20
11.2163650514667
30
0
0
SPLINE
5
138
100
AcDbEntity
8
1
62
256
6
ByLayer
370
18
48
1
60
0
100
AcDbSpline
70
4
71
3
72
8
73
4
40
0
40
0
40
0
40
0
40
1
40
1
40
1
40
1
41
1
10
75.7870024837327
20
9.15180897254461
30
0
41
1
10
75.737036052209
20
9.14013025597191
30
0
41
1
10
75.6872353834268
20
9.13183400072538
30
0
41
1
10
75.6376080177639
20
9.12677951452255
30
0
0
SPLINE
5
139
100
AcDbEntity
8
1
62
256
6
ByLayer
370
18
48
1
60
0
100
AcDbSpline
70
4
71
3
72
8
73
4
40
0
40
0
40
0
40
0
40
1
40
1
40
1
40
1
41
1
10
24.3
20
-9.6769864725706
30
0
41
1
10
25.300593929842
20
-9.85295544729246
30
0
41
1
10
26.300385742162
20
-10.0154913746888
30
0
41
1
10
27.3000000001499
20
-10.163667014659
30
0
0
SPLINE
5
13A
100
AcDbEntity
8
1
62
256
6
ByLayer
370
18
48
1
60
0
100
AcDbSpline
70
4
71
3
72
8
73
4
40
0
40
0
40
0
40
0
40
1
40
1
40
1
40
1
41
1
10
24.3
20
-9.6769864725706
30
0
41
1
10
23.5341571771365
20
-9.46688588229719
30
0
41
1
10
22.7676402868813
20
-9.24896178409364
30
0
41
1
10
22
20
-9.02421852575628
30
0
0
SPLINE
5
13B
100
AcDbEntity
8
1
62
256
6
ByLayer
370
18
48
1
60
0
100
AcDbSpline
70
4
71
3
72
10
73
6
40
0
40
0
40
0
40
0
40
0.15236279473126
40
0.15236279473126
40
1
40
1
40
1
40
1
41
1
10
68.1233597611646
20
7.63379277774357
30
0
41
1
10
68.504738503518
20
7.72030302821278
30
0
41
1
10
68.8861018080385
20
7.80534485631159
30
0
41
1
10
71.3891420368585
20
8.35333552600156
30
0
41
1
10
73.5111893650928
20
8.76914354486939
30
0
41
1
10
75.6376080177644
20
9.12677951452264
30
0
0
SPLINE
5
13C
100
AcDbEntity
8
1
62
256
6
ByLayer
370
18
48
1
60
0
100
AcDbSpline
70
4
71
1
72
4
73
2
40
0
40
0
40
1
40
1
41
1
10
94.0633606949562
20
1.6809953342632
30
0
41
1
10
94.0583799805826
20
1.68632541368578
30
0
0
SPLINE
5
13D
100
AcDbEntity
8
1
62
256
6
ByLayer
370
18
48
1
60
0
100
AcDbSpline
70
4
71
3
72
14
73
10
40
0
40
0
40
0
40
0
40
0.264114811973381
40
0.264114811973381
40
0.528229623946762
40
0.528229623946762
40
0.792344435920143
40
0.792344435920143
40
1
40
1
40
1
40
1
41
1
10
87.233141141929
20
-11.2740857600965
30
0
41
1
10
88.078433533987
20
-11.3499840309877
30
0
41
1
10
88.922567072764
20
-11.4056614404441
30
0
41
1
10
90.6082451691072
20
-11.4769527293519
30
0
41
1
10
91.449367857298
20
-11.4924379537841
30
0
41
1
10
93.1333567978351
20
-11.4828334973782
30
0
41
1
10
93.9756973448772
20
-11.4579209953815
30
0
41
1
10
95.4806834655471
20
-11.3772187185243
30
0
41
1
10
96.1430719324494
20
-11.3289952718053
30
0
41
1
10
96.8066551312837
20
-11.2684620583579
30
0
0
SPLINE
5
13E
100
AcDbEntity
8
1
62
256
6
ByLayer
370
18
48
1
60
0
100
AcDbSpline
70
4
71
3
72
8
73
4
40
0
40
0
40
0
40
0
40
1
40
1
40
1
40
1
41
1
10
97.1600280028883
20
-11.2350770752551
30
0
41
1
10
97.2227416491384
20
-11.2289487979179
30
0
41
1
10
97.2854679211579
20
-11.2227113467078
30
0
41
1
10
97.3482078672592
20
-11.2163650514667
30
0
0
SPLINE
5
13F
100
AcDbEntity
8
1
62
256
6
ByLayer
370
18
48
1
60
0
100
AcDbSpline
70
4
71
3
72
8
73
4
40
0
40
0
40
0
40
0
40
1
40
1
40
1
40
1
41
1
10
87.233141141929
20
-11.4202138128361
30
0
41
1
10
88.0164118813533
20
-11.4577363593056
30
0
41
1
10
88.7989559364919
20
-11.4776964717991
30
0
41
1
10
89.5805729951482
20
-11.4803800250422
30
0
0
SPLINE
5
140
100
AcDbEntity
8
1
62
256
6
ByLayer
370
18
48
1
60
0
100
AcDbSpline
70
4
71
3
72
11
73
7
40
0
40
0
40
0
40
0
40
0.0706088486323492
40
0.352644809610028
40
0.634680770587706
40
1
40
1
40
1
40
1
41
1
10
50.8364062335917
20
-0.0031138328205884
30
0
41
1
10
51.3601724479863
20
-0.174573808486684
30
0
41
1
10
53.9760480593011
20
-1.03140496432923
30
0
41
1
10
58.6829261131356
20
-2.56842159420285
30
0
41
1
10
65.5792476050956
20
-4.71201100531903
30
0
41
1
10
70.3777008977024
20
-6.05629398073319
30
0
41
1
10
73.0840830697831
20
-6.75048300473077
30
0
0
SPLINE
5
141
100
AcDbEntity
8
1
62
256
6
ByLayer
370
13
48
1
60
0
100
AcDbSpline
70
4
71
3
72
10
73
6
40
0
40
0
40
0
40
0
40
0.0018164588752262
40
0.0018164588752262
40
1
40
1
40
1
40
1
41
1
10
99.7850322774274
20
1.14426650929414
30
0
41
1
10
99.7850184305153
20
1.14427599960425
30
0
41
1
10
99.7850045835336
20
1.14428548982357
30
0
41
1
10
99.7773815969397
20
1.14951016072243
30
0
41
1
10
99.769793603659
20
1.15475256693625
30
0
41
1
10
99.7622273787356
20
1.16002253067629
30
0
0
SPLINE
5
142
100
AcDbEntity
8
1
62
256
6
ByLayer
370
18
48
1
60
0
100
AcDbSpline
70
4
71
3
72
12
73
8
40
0
40
0
40
0
40
0
40
0.5
40
0.5
40
0.75
40
0.75
40
1
40
1
40
1
40
1
41
1
10
97.7679504392307
20
4.01301316231746
30
0
41
1
10
98.1048360070439
20
4.04546704014075
30
0
41
1
10
98.4406106968781
20
4.08423651399488
30
0
41
1
10
98.9411903693917
20
4.15991466087524
30
0
41
1
10
99.1075248402502
20
4.18812784289474
30
0
41
1
10
99.4386621930346
20
4.25326164120554
30
0
41
1
10
99.6034757930989
20
4.29012132242164
30
0
41
1
10
99.76710050648
20
4.33374009703968
30
0
0
SPLINE
5
143
100
AcDbEntity
8
1
62
256
6
ByLayer
370
18
48
1
60
0
100
AcDbSpline
70
4
71
2
72
9
73
6
40
0
40
0
40
0
40
0.243191631894316
40
0.495461087929544
40
0.747730543964772
40
1
40
1
40
1
41
1
10
93.0353431895517
20
-3.67964902894403
30
0
41
1
10
93.1373323915886
20
-4.48031310868413
30
0
41
1
10
93.4326765881773
20
-6.00651055954057
30
0
41
1
10
93.818467563111
20
-7.41139934721281
30
0
41
1
10
94.2798480024795
20
-8.63271277841557
30
0
41
1
10
94.5427525351167
20
-9.13653739827541
30
0
0
SPLINE
5
144
100
AcDbEntity
8
1
62
256
6
ByLayer
370
18
48
1
60
0
100
AcDbSpline
70
4
71
3
72
10
73
6
40
0
40
0
40
0
40
0
40
0.76327325158688
40
0.76327325158688
40
1
40
1
40
1
40
1
41
1
10
75.5864053548527
20
9.61587460265685
30
0
41
1
10
73.4675950556887
20
9.24036217292428
30
0
41
1
10
71.3521275312827
20
8.80383388651987
30
0
41
1
10
68.5792884099034
20
8.16014649118083
30
0
41
1
10
67.9228241144282
20
8.00253444111809
30
0
41
1
10
67.2667048678498
20
7.84017746263496
30
0
0
SPLINE
5
145
100
AcDbEntity
8
1
62
256
6
ByLayer
370
13
48
1
60
0
100
AcDbSpline
70
4
71
3
72
8
73
4
40
0
40
0
40
0
40
0
40
1
40
1
40
1
40
1
41
1
10
99.4560057736409
20
-3.18663466578721
30
0
41
1
10
99.0023585840162
20
-2.86956243483945
30
0
41
1
10
98.5487113943914
20
-2.55249020389167
30
0
41
1
10
98.0950642047666
20
-2.23541797294388
30
0
0
SPLINE
5
146
100
AcDbEntity
8
1
62
256
6
ByLayer
370
18
48
1
60
0
100
AcDbSpline
70
4
71
3
72
20
73
16
40
0
40
0
40
0
40
0
40
0.250000000000024
40
0.250000000000024
40
0.312500000000027
40
0.312500000000027
40
0.37500000000003
40
0.37500000000003
40
0.500000000000026
40
0.500000000000026
40
0.625000000000022
40
0.625000000000022
40
0.750000000000017
40
0.750000000000017
40
1
40
1
40
1
40
1
41
1
10
19.9457874903449
20
-7.79178696455202
30
0
41
1
10
19.6965313798359
20
-7.76518831873994
30
0
41
1
10
19.4634969785053
20
-7.75615336804657
30
0
41
1
10
19.1914392967207
20
-7.76498196750015
30
0
41
1
10
19.1378115314757
20
-7.76777762716819
30
0
41
1
10
19.0340445455783
20
-7.77523795576684
30
0
41
1
10
18.9837735859874
20
-7.7798984579133
30
0
41
1
10
18.8375634388666
20
-7.79645116193976
30
0
41
1
10
18.7462082887244
20
-7.81090504896463
30
0
41
1
10
18.5749986492057
20
-7.84573973773266
30
0
41
1
10
18.4947921802789
20
-7.86626468267269
30
0
41
1
10
18.3487925263007
20
-7.91154158946159
30
0
41
1
10
18.2826039258717
20
-7.93633204591245
30
0
41
1
10
18.1029916974827
20
-8.01601033128492
30
0
41
1
10
18.0081326174273
20
-8.0766586754992
30
0
41
1
10
17.9399437695316
20
-8.14017580273156
30
0
0
SPLINE
5
147
100
AcDbEntity
8
1
62
256
6
ByLayer
370
13
48
1
60
0
100
AcDbSpline
70
4
71
3
72
14
73
10
40
0
40
0
40
0
40
0
40
0.25
40
0.25
40
0.5
40
0.5
40
0.75
40
0.75
40
1
40
1
40
1
40
1
41
1
10
99.716988129788
20
1.12191385587551
30
0
41
1
10
99.5197635995704
20
0.871578565429132
30
0
41
1
10
99.3307354512513
20
0.604308314325834
30
0
41
1
10
98.9816223694481
20
0.0486707077675703
30
0
41
1
10
98.8216185696406
20
-0.239613723169725
30
0
41
1
10
98.5408518068353
20
-0.820910138457123
30
0
41
1
10
98.4201402526142
20
-1.11381453014599
30
0
41
1
10
98.223735923484
20
-1.68743210166068
30
0
41
1
10
98.1480453910235
20
-1.96805391799427
30
0
41
1
10
98.0950642047666
20
-2.23541797294388
30
0
0
SPLINE
5
148
100
AcDbEntity
8
1
62
256
6
ByLayer
370
13
48
1
60
0
100
AcDbSpline
70
4
71
3
72
8
73
4
40
0
40
0
40
0
40
0
40
1
40
1
40
1
40
1
41
1
10
97.5022916155174
20
-5.22678329188059
30
0
41
1
10
97.6998824786004
20
-4.22966151890168
30
0
41
1
10
97.8974733416835
20
-3.23253974592279
30
0
41
1
10
98.0950642047666
20
-2.23541797294388
30
0
0
SPLINE
5
149
100
AcDbEntity
8
1
62
256
6
ByLayer
370
18
48
1
60
0
100
AcDbSpline
70
4
71
3
72
8
73
4
40
0
40
0
40
0
40
0
40
1
40
1
40
1
40
1
41
1
10
77.5
20
5.74859141952999
30
0
41
1
10
76.0878661336162
20
6.17041521335597
30
0
41
1
10
74.6766372376082
20
6.57313967416096
30
0
41
1
10
73.2645525680384
20
6.95323239385826
30
0
0
SPLINE
5
14A
100
AcDbEntity
8
1
62
256
6
ByLayer
370
18
48
1
60
0
100
AcDbSpline
70
4
71
3
72
8
73
4
40
0
40
0
40
0
40
0
40
1
40
1
40
1
40
1
41
1
10
100.937051100537
20
0.269030760900336
30
0
41
1
10
100.948841229757
20
0.228729013705305
30
0
41
1
10
100.960680486443
20
0.188330204427871
30
0
41
1
10
100.972568552524
20
0.147835918022224
30
0
0
SPLINE
5
14B
100
AcDbEntity
8
1
62
256
6
ByLayer
370
18
48
1
60
0
100
AcDbSpline
70
4
71
3
72
8
73
4
40
0
40
0
40
0
40
0
40
1
40
1
40
1
40
1
41
1
10
87.5596194077712
20
2.6679328548899
30
0
41
1
10
87.5729484383704
20
2.66157737615831
30
0
41
1
10
87.5870068156402
20
2.65530115396129
30
0
41
1
10
87.6015116318471
20
2.64922490331216
30
0
0
SPLINE
5
14C
100
AcDbEntity
8
1
62
256
6
ByLayer
370
18
48
1
60
0
100
AcDbSpline
70
4
71
3
72
26
73
22
40
0
40
0
40
0
40
0
40
0.249999999999991
40
0.249999999999991
40
0.312499999999992
40
0.312499999999992
40
0.374999999999994
40
0.374999999999994
40
0.499999999999996
40
0.499999999999996
40
0.562499999999998
40
0.562499999999998
40
0.625
40
0.625
40
0.75
40
0.75
40
0.875
40
0.875
40
0.9375
40
0.9375
40
1
40
1
40
1
40
1
41
1
10
29.3481812825331
20
6.94864789019746
30
0
41
1
10
29.0418629247336
20
7.06331345864686
30
0
41
1
10
28.7633265946195
20
7.20739206466268
30
0
41
1
10
28.4483300374089
20
7.41797162893593
30
0
41
1
10
28.3868139835063
20
7.46180255647022
30
0
41
1
10
28.2683003270313
20
7.5517292863957
30
0
41
1
10
28.2114826017284
20
7.59766476450153
30
0
41
1
10
28.0481597660915
20
7.73810920364906
30
0
41
1
10
27.9487487147035
20
7.83524103555365
30
0
41
1
10
27.8137796444232
20
7.98539760835999
30
0
41
1
10
27.77115697248
20
8.03619693377513
30
0
41
1
10
27.6907495543572
20
8.13920206783123
30
0
41
1
10
27.6528399110088
20
8.19161544344792
30
0
41
1
10
27.5481503259045
20
8.34850169280156
30
0
41
1
10
27.4899317649935
20
8.45304320037025
30
0
41
1
10
27.3960057191067
20
8.66126430123111
30
0
41
1
10
27.3602977132656
20
8.76494644456233
30
0
41
1
10
27.324178901302
20
8.91941113886992
30
0
41
1
10
27.3150875563646
20
8.97069093283571
30
0
41
1
10
27.3030185118871
20
9.07163058231856
30
0
41
1
10
27.3000000000655
20
9.12144500224525
30
0
41
1
10
27.3000000000655
20
9.17059372992799
30
0
0
SPLINE
5
14D
100
AcDbEntity
8
1
62
256
6
ByLayer
370
18
48
1
60
0
100
AcDbSpline
70
4
71
3
72
8
73
4
40
0
40
0
40
0
40
0
40
1
40
1
40
1
40
1
41
1
10
98.4791137627292
20
-8.07968357169889
30
0
41
1
10
98.1744646197649
20
-9.01687206958505
30
0
41
1
10
97.8645598550391
20
-9.95982618568021
30
0
41
1
10
97.5492066688882
20
-10.908757428594
30
0
0
SPLINE
5
14E
100
AcDbEntity
8
1
62
256
6
ByLayer
370
13
48
1
60
0
100
AcDbSpline
70
4
71
3
72
32
73
28
40
0
40
0
40
0
40
0
40
0.250000000000057
40
0.250000000000057
40
0.375000000000092
40
0.375000000000092
40
0.406250000000094
40
0.406250000000094
40
0.437500000000095
40
0.500000000000084
40
0.562500000000073
40
0.593750000000067
40
0.593750000000067
40
0.625000000000062
40
0.625000000000062
40
0.687500000000063
40
0.70312500000006
40
0.70312500000006
40
0.718750000000058
40
0.718750000000058
40
0.750000000000052
40
0.781250000000047
40
0.781250000000047
40
0.812500000000042
40
0.812500000000042
40
0.875000000000031
40
1
40
1
40
1
40
1
41
1
10
98.0950642047666
20
-2.23541797294388
30
0
41
1
10
97.9075127004343
20
-2.10433069795059
30
0
41
1
10
97.6876387423446
20
-1.93462701874006
30
0
41
1
10
97.3730091585149
20
-1.67068988385239
30
0
41
1
10
97.2706624535604
20
-1.58114694409494
30
0
41
1
10
97.1525232820199
20
-1.47232044428941
30
0
41
1
10
97.1294329081978
20
-1.45075629008645
30
0
41
1
10
97.0842043745657
20
-1.40787854687841
30
0
41
1
10
97.0130071052714
20
-1.33932784410905
30
0
41
1
10
96.8829171614203
20
-1.20927268532213
30
0
41
1
10
96.7518351535884
20
-1.07244958226039
30
0
41
1
10
96.6791495404376
20
-0.993746890252709
30
0
41
1
10
96.6327301156437
20
-0.942747432429513
30
0
41
1
10
96.6111946047894
20
-0.91870477804099
30
0
41
1
10
96.5386160893672
20
-0.836403817841159
30
0
41
1
10
96.4702745682314
20
-0.757005485750597
30
0
41
1
10
96.4104144304449
20
-0.685265755185412
30
0
41
1
10
96.3875150991553
20
-0.657606214706163
30
0
41
1
10
96.3768169810918
20
-0.644571726774046
30
0
41
1
10
96.3421878955896
20
-0.602005296808557
30
0
41
1
10
96.2920780459724
20
-0.539478978322052
30
0
41
1
10
96.2401472623758
20
-0.473075271795636
30
0
41
1
10
96.1903328221802
20
-0.408564755350966
30
0
41
1
10
96.1666880426043
20
-0.377530232771335
30
0
41
1
10
96.1022160178377
20
-0.291333525766817
30
0
41
1
10
95.9597480414593
20
-0.0937529794636021
30
0
41
1
10
95.8044920969138
20
0.139431939769992
30
0
41
1
10
95.7199959521022
20
0.275199188174355
30
0
0
SPLINE
5
14F
100
AcDbEntity
8
1
62
256
6
ByLayer
370
18
48
1
60
0
100
AcDbSpline
70
4
71
3
72
8
73
4
40
0
40
0
40
0
40
0
40
1
40
1
40
1
40
1
41
1
10
24.3
20
5.79517385338076
30
0
41
1
10
24.488613887343
20
5.76165306934621
30
0
41
1
10
24.6702792015534
20
5.7128324930257
30
0
41
1
10
24.8452717264583
20
5.64892360711627
30
0
0
SPLINE
5
150
100
AcDbEntity
8
1
62
256
6
ByLayer
370
18
48
1
60
0
100
AcDbSpline
70
4
71
3
72
18
73
14
40
0
40
0
40
0
40
0
40
0.250000000000002
40
0.250000000000002
40
0.375
40
0.375
40
0.499999999999999
40
0.499999999999999
40
0.624999999999997
40
0.624999999999997
40
0.749999999999996
40
0.749999999999996
40
1
40
1
40
1
40
1
41
1
10
100.747305779235
20
-1.07641947002668
30
0
41
1
10
100.70703842099
20
-1.25066749751258
30
0
41
1
10
100.657743334118
20
-1.44557060993003
30
0
41
1
10
100.570785155731
20
-1.76770433618327
30
0
41
1
10
100.539710418553
20
-1.87968420128613
30
0
41
1
10
100.474472535564
20
-2.10918960964918
30
0
41
1
10
100.44018080405
20
-2.22718718743448
30
0
41
1
10
100.368347249061
20
-2.46948686268843
30
0
41
1
10
100.330801831706
20
-2.59379593155663
30
0
41
1
10
100.252466110079
20
-2.84870849225325
30
0
41
1
10
100.211491432545
20
-2.97988027709104
30
0
41
1
10
100.085661985542
20
-3.37651991907771
30
0
41
1
10
99.9975751363442
20
-3.64630687367642
30
0
41
1
10
99.9053561583264
20
-3.92136703777854
30
0
0
SPLINE
5
151
100
AcDbEntity
8
1
62
256
6
ByLayer
370
18
48
1
60
0
100
AcDbSpline
70
4
71
3
72
14
73
10
40
0
40
0
40
0
40
0
40
0.5
40
0.5
40
0.625
40
0.625
40
0.75
40
0.75
40
1
40
1
40
1
40
1
41
1
10
77.5000000000023
20
5.74003353585579
30
0
41
1
10
79.8525067124087
20
4.99150706879152
30
0
41
1
10
82.2040625955902
20
4.19173683984098
30
0
41
1
10
85.1517933912565
20
3.15124474817648
30
0
41
1
10
85.7415936695593
20
2.941184729029
30
0
41
1
10
86.9196746798267
20
2.51849530917315
30
0
41
1
10
87.5082640663527
20
2.30575895417547
30
0
41
1
10
89.2729917103858
20
1.66422745753658
30
0
41
1
10
90.4481701822901
20
1.2323291785516
30
0
41
1
10
91.6230322379658
20
0.798923610335379
30
0
0
SPLINE
5
152
100
AcDbEntity
8
1
62
256
6
ByLayer
370
18
48
1
60
0
100
AcDbSpline
70
4
71
3
72
16
73
12
40
0
40
0
40
0
40
0
40
0.265605260096319
40
0.265605260096319
40
0.531210520192639
40
0.531210520192639
40
0.664013150240798
40
0.664013150240798
40
0.796815780288958
40
0.796815780288958
40
1
40
1
40
1
40
1
41
1
10
77.7974429699015
20
9.54602137519251
30
0
41
1
10
77.665548953887
20
9.20696890942025
30
0
41
1
10
77.52811746589
20
8.87656295405424
30
0
41
1
10
77.2438801540987
20
8.23206130165042
30
0
41
1
10
77.0970384284704
20
7.91797345234525
30
0
41
1
10
76.8716502710327
20
7.45888656870699
30
0
41
1
10
76.7954770670103
20
7.30750441083538
30
0
41
1
10
76.6444791017628
20
7.01359809287413
30
0
41
1
10
76.5693213907784
20
6.87050412851505
30
0
41
1
10
76.3815097447127
20
6.51796849586617
30
0
41
1
10
76.2702006452292
20
6.31349595193825
30
0
41
1
10
76.1629081829308
20
6.11779249544827
30
0
0
SPLINE
5
153
100
AcDbEntity
8
1
62
256
6
ByLayer
370
13
48
1
60
0
100
AcDbSpline
70
4
71
3
72
8
73
4
40
0
40
0
40
0
40
0
40
1
40
1
40
1
40
1
41
1
10
97.74265820634
20
4.00169278474797
30
0
41
1
10
97.7467173908999
20
3.98329042603726
30
0
41
1
10
97.7507765754597
20
3.96488806732654
30
0
41
1
10
97.7548357600196
20
3.9464857086158
30
0
0
SPLINE
5
154
100
AcDbEntity
8
1
62
256
6
ByLayer
370
18
48
1
60
0
100
AcDbSpline
70
4
71
3
72
8
73
4
40
0
40
0
40
0
40
0
40
1
40
1
40
1
40
1
41
1
10
97.74265820634
20
4.00169278474797
30
0
41
1
10
97.7111246331488
20
3.97467937076107
30
0
41
1
10
97.679716626324
20
3.94756985863881
30
0
41
1
10
97.6484308052176
20
3.92038723789258
30
0
0
SPLINE
5
155
100
AcDbEntity
8
1
62
256
6
ByLayer
370
18
48
1
60
0
100
AcDbSpline
70
4
71
3
72
10
73
6
40
0
40
0
40
0
40
0
40
0.5
40
0.5
40
1
40
1
40
1
40
1
41
1
10
95.7199959521022
20
0.275199188174326
30
0
41
1
10
95.6562391077751
20
0.524657983634285
30
0
41
1
10
95.6009954871984
20
0.776462197990242
30
0
41
1
10
95.5044644747057
20
1.28391560991631
30
0
41
1
10
95.4636246584433
20
1.53859231841562
30
0
41
1
10
95.4283791491873
20
1.79397293369192
30
0
0
SPLINE
5
156
100
AcDbEntity
8
1
62
256
6
ByLayer
370
18
48
1
60
0
100
AcDbSpline
70
4
71
3
72
8
73
4
40
0
40
0
40
0
40
0
40
1
40
1
40
1
40
1
41
1
10
87.233141141929
20
-11.2740857600965
30
0
41
1
10
87.0374859342261
20
-11.1862105263007
30
0
41
1
10
86.8415846310954
20
-11.0973245162236
30
0
41
1
10
86.6454215376824
20
-11.0074664869777
30
0
0
SPLINE
5
157
100
AcDbEntity
8
1
62
256
6
ByLayer
370
18
48
1
60
0
100
AcDbSpline
70
4
71
3
72
12
73
8
40
0
40
0
40
0
40
0
40
0.413782905225982
40
0.413782905225982
40
0.70689137939575
40
0.70689137939575
40
1
40
1
40
1
40
1
41
1
10
86.4999999988698
20
10.9941072877504
30
0
41
1
10
86.486707207353
20
11.0081958486846
30
0
41
1
10
86.4734100627107
20
11.0222825610045
30
0
41
1
10
86.4506863611257
20
11.0463446839125
30
0
41
1
10
86.4412619468481
20
11.0563209985891
30
0
41
1
10
86.4224088269165
20
11.0762718437092
30
0
41
1
10
86.4129801200828
20
11.0862463753979
30
0
41
1
10
86.4035492861033
20
11.0962200265127
30
0
0
SPLINE
5
158
100
AcDbEntity
8
1
62
256
6
ByLayer
370
18
48
1
60
0
100
AcDbSpline
70
4
71
3
72
14
73
10
40
0
40
0
40
0
40
0
40
0.25
40
0.25
40
0.5
40
0.5
40
0.75
40
0.75
40
1
40
1
40
1
40
1
41
1
10
75.5864053548528
20
-9.61587460265685
30
0
41
1
10
75.7199846619771
20
-9.6346343188049
30
0
41
1
10
75.8506326064037
20
-9.65813361762656
30
0
41
1
10
76.1023137237847
20
-9.71305894360603
30
0
41
1
10
76.2239907386305
20
-9.74457603734027
30
0
41
1
10
76.4589442891916
20
-9.8150453467876
30
0
41
1
10
76.5728660495898
20
-9.85430675615851
30
0
41
1
10
76.7856158443487
20
-9.93720680861344
30
0
41
1
10
76.8851697182972
20
-9.98100339458682
30
0
41
1
10
76.9780808978949
20
-10.0266151354844
30
0
0
SPLINE
5
159
100
AcDbEntity
8
1
62
256
6
ByLayer
370
18
48
1
60
0
100
AcDbSpline
70
4
71
3
72
18
73
14
40
0
40
0
40
0
40
0
40
0.24999999999999
40
0.24999999999999
40
0.374999999999991
40
0.374999999999991
40
0.499999999999992
40
0.499999999999992
40
0.749999999999995
40
0.749999999999995
40
0.874999999999997
40
0.874999999999997
40
1
40
1
40
1
40
1
41
1
10
18.8674012550217
20
-8.92165135953232
30
0
41
1
10
18.7466363298452
20
-8.90074292873626
30
0
41
1
10
18.6364579421032
20
-8.86902140582845
30
0
41
1
10
18.4863219337773
20
-8.80388136628756
30
0
41
1
10
18.4388100118641
20
-8.77923033367793
30
0
41
1
10
18.3488538683529
20
-8.72368691868542
30
0
41
1
10
18.3064470972557
20
-8.6927405915456
30
0
41
1
10
18.1895440971351
20
-8.59257921772405
30
0
41
1
10
18.1241620216329
20
-8.51543058517558
30
0
41
1
10
18.0425703182942
20
-8.38455484955375
30
0
41
1
10
18.0180321256587
20
-8.33814612073519
30
0
41
1
10
17.9748187335516
20
-8.24174145866934
30
0
41
1
10
17.9561045422297
20
-8.1917792252743
30
0
41
1
10
17.9399437695316
20
-8.14017580273156
30
0
0
SPLINE
5
15A
100
AcDbEntity
8
1
62
256
6
ByLayer
370
13
48
1
60
0
100
AcDbSpline
70
4
71
3
72
8
73
4
40
0
40
0
40
0
40
0
40
1
40
1
40
1
40
1
41
1
10
97.7819870281537
20
3.94936532851509
30
0
41
1
10
97.7817643777983
20
3.95038324942445
30
0
41
1
10
97.7815408267642
20
3.95140098805666
30
0
41
1
10
97.7813163751517
20
3.95241854195791
30
0
0
SPLINE
5
15B
100
AcDbEntity
8
1
62
256
6
ByLayer
370
18
48
1
60
0
100
AcDbSpline
70
4
71
3
72
8
73
4
40
0
40
0
40
0
40
0
40
1
40
1
40
1
40
1
41
1
10
87.5596194077713
20
2.6679328548899
30
0
41
1
10
87.204727941565
20
2.83715034964362
30
0
41
1
10
86.8508382916107
20
3.01419264142712
30
0
41
1
10
86.4999999999998
20
3.19834186506756
30
0
0
SPLINE
5
15C
100
AcDbEntity
8
1
62
256
6
ByLayer
370
18
48
1
60
0
100
AcDbSpline
70
4
71
3
72
8
73
4
40
0
40
0
40
0
40
0
40
1
40
1
40
1
40
1
41
1
10
87.233141141929
20
-11.4202138128361
30
0
41
1
10
86.9891398697902
20
-11.3210895654391
30
0
41
1
10
86.7447681151301
20
-11.2203950243917
30
0
41
1
10
86.5000000000001
20
-11.118204230022
30
0
0
SPLINE
5
15D
100
AcDbEntity
8
1
62
256
6
ByLayer
370
18
48
1
60
0
100
AcDbSpline
70
4
71
3
72
22
73
18
40
0
40
0
40
0
40
0
40
0.25
40
0.25
40
0.3125
40
0.3125
40
0.375
40
0.375
40
0.5
40
0.5
40
0.625
40
0.625
40
0.6875
40
0.6875
40
0.75
40
0.75
40
1
40
1
40
1
40
1
41
1
10
86.5
20
8.59151702607079
30
0
41
1
10
86.5
20
8.01004057687706
30
0
41
1
10
86.5
20
7.4508091493627
30
0
41
1
10
86.5
20
6.77865914529562
30
0
41
1
10
86.5
20
6.6455932132867
30
0
41
1
10
86.5
20
6.38224602403298
30
0
41
1
10
86.5000000000001
20
6.25171792760403
30
0
41
1
10
86.5000000000001
20
5.86966402348895
30
0
41
1
10
86.4999999999999
20
5.62594583079562
30
0
41
1
10
86.4999999999999
20
5.15989418425244
30
0
41
1
10
86.5
20
4.93756138595862
30
0
41
1
10
86.5
20
4.62040932749477
30
0
41
1
10
86.5
20
4.51724498767572
30
0
41
1
10
86.5000000000001
20
4.31731308386881
30
0
41
1
10
86.5000000000001
20
4.22117126739869
30
0
41
1
10
86.5
20
3.75915510129227
30
0
41
1
10
86.5
20
3.44850233984238
30
0
41
1
10
86.5
20
3.19834186506776
30
0
0
SPLINE
5
15E
100
AcDbEntity
8
1
62
256
6
ByLayer
370
18
48
1
60
0
100
AcDbSpline
70
4
71
3
72
32
73
28
40
0
40
0
40
0
40
0
40
0.124999999999993
40
0.124999999999993
40
0.187499999999989
40
0.187499999999989
40
0.249999999999986
40
0.249999999999986
40
0.312499999999983
40
0.312499999999983
40
0.374999999999979
40
0.374999999999979
40
0.499999999999982
40
0.499999999999982
40
0.56249999999999
40
0.56249999999999
40
0.624999999999998
40
0.624999999999998
40
0.687500000000006
40
0.687500000000006
40
0.750000000000014
40
0.750000000000014
40
0.875000000000015
40
0.875000000000015
40
0.937500000000007
40
0.937500000000007
40
1
40
1
40
1
40
1
41
1
10
77.5000000000001
20
-4.67728369453317
30
0
41
1
10
77.5000000000001
20
-4.88578246612707
30
0
41
1
10
77.4742455867365
20
-5.08722261301264
30
0
41
1
10
77.3980139925052
20
-5.37947406122532
30
0
41
1
10
77.3661366082291
20
-5.47556808523049
30
0
41
1
10
77.2897755801165
20
-5.66294818451223
30
0
41
1
10
77.2457995062668
20
-5.75312636729689
30
0
41
1
10
77.146649958339
20
-5.92691221260313
30
0
41
1
10
77.0914754024823
20
-6.01051871888319
30
0
41
1
10
76.9698721929485
20
-6.17138285440251
30
0
41
1
10
76.9030308299419
20
-6.24904896903573
30
0
41
1
10
76.6879351685758
20
-6.46948494832708
30
0
41
1
10
76.5270384784811
20
-6.59854943737653
30
0
41
1
10
76.2598273240042
20
-6.76770540323079
30
0
41
1
10
76.1657760927857
20
-6.82026219135057
30
0
41
1
10
75.9719828413669
20
-6.91540344727528
30
0
41
1
10
75.872445996427
20
-6.95798838555163
30
0
41
1
10
75.6681959879088
20
-7.0336865631138
30
0
41
1
10
75.5634826495012
20
-7.06679887303539
30
0
41
1
10
75.3487822170782
20
-7.12362752494374
30
0
41
1
10
75.2380477124239
20
-7.14745051638997
30
0
41
1
10
74.9038983376822
20
-7.20334110608246
30
0
41
1
10
74.6790754788641
20
-7.22032668938024
30
0
41
1
10
74.3387830335589
20
-7.21609798939028
30
0
41
1
10
74.2242822753038
20
-7.20960866419489
30
0
41
1
10
73.9975733622794
20
-7.18644446942028
30
0
41
1
10
73.8853414655517
20
-7.16983352249636
30
0
41
1
10
73.7742343132011
20
-7.14811196139601
30
0
0
SPLINE
5
15F
100
AcDbEntity
8
1
62
256
6
ByLayer
370
18
48
1
60
0
100
AcDbSpline
70
4
71
1
72
4
73
2
40
0
40
0
40
1
40
1
41
1
10
24.8452717264583
20
5.64892360711627
30
0
41
1
10
24.6899761314309
20
5.22591309127122
30
0
0
SPLINE
5
160
100
AcDbEntity
8
1
62
256
6
ByLayer
370
18
48
1
60
0
100
AcDbSpline
70
4
71
3
72
20
73
16
40
0
40
0
40
0
40
0
40
0.202015105037422
40
0.202015105037422
40
0.303022657556134
40
0.303022657556134
40
0.404030210074846
40
0.404030210074846
40
0.606045315112269
40
0.606045315112269
40
0.808060420149692
40
0.808060420149692
40
0.909067972668404
40
0.909067972668404
40
1
40
1
40
1
40
1
41
1
10
70.8871049981964
20
6.97521081030524
30
0
41
1
10
69.0678446466523
20
7.42993379677384
30
0
41
1
10
67.2489852446836
20
7.84942963360663
30
0
41
1
10
64.5192856384337
20
8.42269322210964
30
0
41
1
10
63.608801398706
20
8.60445290486032
30
0
41
1
10
61.788577223336
20
8.94802120085268
30
0
41
1
10
60.8792840906695
20
9.10975875152363
30
0
41
1
10
58.1532922236493
20
9.56354973376739
30
0
41
1
10
56.3386673704197
20
9.82436842239505
30
0
41
1
10
52.7096638012558
20
10.2528172122814
30
0
41
1
10
50.8952574728593
20
10.4198040972209
30
0
41
1
10
48.1687719468979
20
10.5946534923995
30
0
41
1
10
47.2587143488282
20
10.6404289817845
30
0
41
1
10
45.5319963938255
20
10.7033868600962
30
0
41
1
10
44.7145931687945
20
10.7230007099654
30
0
41
1
10
43.8975870389646
20
10.732694341527
30
0
0
SPLINE
5
161
100
AcDbEntity
8
1
62
256
6
ByLayer
370
18
48
1
60
0
100
AcDbSpline
70
4
71
3
72
28
73
24
40
0
40
0
40
0
40
0
40
0.0475866643225177
40
0.0475866643225177
40
0.115616188299481
40
0.115616188299481
40
0.183645712276444
40
0.183645712276444
40
0.31970476023037
40
0.31970476023037
40
0.387734284207333
40
0.387734284207333
40
0.455763808184296
40
0.455763808184296
40
0.591822856138221
40
0.591822856138221
40
0.659852380115184
40
0.659852380115184
40
0.727881904092147
40
0.727881904092147
40
0.863940952046073
40
0.863940952046073
40
1
40
1
40
1
40
1
41
1
10
66.9171364296761
20
-7.74680285513327
30
0
41
1
10
66.1763824434168
20
-7.89834188015263
30
0
41
1
10
65.4355382707741
20
-8.04354702375352
30
0
41
1
10
63.6350635712159
20
-8.3805760345239
30
0
41
1
10
62.5749562162045
20
-8.56559771626246
30
0
41
1
10
60.4572246374242
20
-8.90780059589434
30
0
41
1
10
59.3991013617894
20
-9.06508218044706
30
0
41
1
10
56.2257725415504
20
-9.49539191409258
30
0
41
1
10
54.1116049954538
20
-9.72700055246835
30
0
41
1
10
50.9367224229381
20
-9.98469068566757
30
0
41
1
10
49.8778278314891
20
-10.0556236200317
30
0
41
1
10
47.757901551384
20
-10.1660909905607
30
0
41
1
10
46.697064617506
20
-10.2055864150094
30
0
41
1
10
43.517995755971
20
-10.274526397955
30
0
41
1
10
41.4006365072792
20
-10.2539705972764
30
0
41
1
10
38.2233597852839
20
-10.1287950399279
30
0
41
1
10
37.1640585266441
20
-10.0714071538092
30
0
41
1
10
35.044374214533
20
-9.92677515883261
30
0
41
1
10
33.9834106338464
20
-9.83946785980342
30
0
41
1
10
30.8032630723614
20
-9.53443898471087
30
0
41
1
10
28.6866443917656
20
-9.2736356220268
30
0
41
1
10
24.4526647174961
20
-8.64156354710397
30
0
41
1
10
22.3353177640108
20
-8.27022792824786
30
0
41
1
10
20.2133357474272
20
-7.8456024655645
30
0
0
SPLINE
5
162
100
AcDbEntity
8
1
62
256
6
ByLayer
370
18
48
1
60
0
100
AcDbSpline
70
2053
71
3
72
39
73
35
40
0
40
0
40
0
40
0
40
0.0312148318808454
40
0.0623006307800396
40
0.0935160404380733
40
0.12478586221421
40
0.155976350948383
40
0.187370109610306
40
0.218605664869643
40
0.250026458142441
40
0.281370233166373
40
0.312686325042565
40
0.344074641488925
40
0.375254906829033
40
0.406556937129428
40
0.437679505122176
40
0.468947335570661
40
0.500174085601185
40
0.531255658031565
40
0.562413230122312
40
0.593654937236035
40
0.624795676559458
40
0.656149259279669
40
0.687371401558729
40
0.718751662729125
40
0.750117273694634
40
0.781419254305987
40
0.812842946966016
40
0.844067732585873
40
0.875405422855938
40
0.906608923181399
40
0.937764174285583
40
0.968971317478389
40
1
40
1
40
1
40
1
41
1
10
81.98
20
-6.37896183930757
30
0
41
1
10
82.1183464685766
20
-6.3789624750729
30
0
41
1
10
82.3944744346653
20
-6.40211203012134
30
0
41
1
10
82.792096659346
20
-6.50390282909132
30
0
41
1
10
83.1576138457215
20
-6.66642310219538
30
0
41
1
10
83.4774384249859
20
-6.88053889170988
30
0
41
1
10
83.7401527285958
20
-7.13507799123985
30
0
41
1
10
83.9354499718916
20
-7.41705580347758
30
0
41
1
10
84.0562019632134
20
-7.71406970477548
30
0
41
1
10
84.0970396785509
20
-8.01216424462257
30
0
41
1
10
84.0561311238917
20
-8.29934377673339
30
0
41
1
10
83.9353367604447
20
-8.56463999134075
30
0
41
1
10
83.7397814984992
20
-8.7993291452143
30
0
41
1
10
83.476930826622
20
-8.99777252979376
30
0
41
1
10
83.157245123298
20
-9.15540880766144
30
0
41
1
10
82.7912404796631
20
-9.27003088903626
30
0
41
1
10
82.3930935158014
20
-9.33949986068006
30
0
41
1
10
81.9783031807547
20
-9.36259900904153
30
0
41
1
10
81.5641075716711
20
-9.33911459418471
30
0
41
1
10
81.1666794734841
20
-9.26953317502577
30
0
41
1
10
80.8014391935513
20
-9.15487444859309
30
0
41
1
10
80.4815544765663
20
-8.99685195452048
30
0
41
1
10
80.2193861051322
20
-8.79854949436964
30
0
41
1
10
80.0240246862863
20
-8.56354811586695
30
0
41
1
10
79.903550215464
20
-8.29839400665432
30
0
41
1
10
79.8630040373583
20
-8.01123871919677
30
0
41
1
10
79.9040959759051
20
-7.71286260959715
30
0
41
1
10
80.0250305738454
20
-7.41615899805637
30
0
41
1
10
80.2209504858128
20
-7.13379884371128
30
0
41
1
10
80.4836751369899
20
-6.87960179824651
30
0
41
1
10
80.8038260616919
20
-6.66568306386995
30
0
41
1
10
81.1694306767974
20
-6.503348661149
30
0
41
1
10
81.5666515912494
20
-6.40194624607332
30
0
41
1
10
81.8424785593004
20
-6.37896120733362
30
0
41
1
10
81.98
20
-6.37896183930757
30
0
0
SPLINE
5
163
100
AcDbEntity
8
1
62
256
6
ByLayer
370
18
48
1
60
0
100
AcDbSpline
70
4
71
3
72
8
73
4
40
0
40
0
40
0
40
0
40
1
40
1
40
1
40
1
41
1
10
100.718758184782
20
-0.831789869816106
30
0
41
1
10
100.823946453505
20
-0.499807637609479
30
0
41
1
10
100.906611203051
20
-0.173778083644152
30
0
41
1
10
100.972568552524
20
0.147835918022224
30
0
0
SPLINE
5
164
100
AcDbEntity
8
1
62
256
6
ByLayer
370
18
48
1
60
0
100
AcDbSpline
70
4
71
3
72
14
73
10
40
0
40
0
40
0
40
0
40
0.499999999999993
40
0.499999999999993
40
0.74999999999999
40
0.74999999999999
40
0.874999999999995
40
0.874999999999995
40
1
40
1
40
1
40
1
41
1
10
18.9598993869815
20
5.77410785816261
30
0
41
1
10
19.4295353486135
20
5.75445290834105
30
0
41
1
10
19.9113875760075
20
5.74963294898714
30
0
41
1
10
20.6546525114311
20
5.7495915980318
30
0
41
1
10
20.9058547807573
20
5.75077952688483
30
0
41
1
10
21.2884494705482
20
5.75220002351074
30
0
41
1
10
21.4171178653519
20
5.75260875655653
30
0
41
1
10
21.6743571166457
20
5.75287432593413
30
0
41
1
10
21.8031596917066
20
5.752732633492
30
0
41
1
10
21.9321524598307
20
5.75209481798956
30
0
0
SPLINE
5
165
100
AcDbEntity
8
1
62
256
6
ByLayer
370
18
48
1
60
0
100
AcDbSpline
70
4
71
3
72
8
73
4
40
0
40
0
40
0
40
0
40
1
40
1
40
1
40
1
41
1
10
17.2342304362206
20
-7.88438552032969
30
0
41
1
10
17.4591582172568
20
-7.98714795419332
30
0
41
1
10
17.6939617999044
20
-8.07175981471727
30
0
41
1
10
17.9399437695316
20
-8.14017580273156
30
0
0
SPLINE
5
166
100
AcDbEntity
8
1
62
256
6
ByLayer
370
18
48
1
60
0
100
AcDbSpline
70
4
71
3
72
12
73
8
40
0
40
0
40
0
40
0
40
0.5
40
0.5
40
0.75
40
0.75
40
1
40
1
40
1
40
1
41
1
10
99.7671005064798
20
4.3337400970411
30
0
41
1
10
99.5433775511515
20
4.95316947763874
30
0
41
1
10
99.3236707545635
20
5.575707300239
30
0
41
1
10
99.000522392245
20
6.51447668899027
30
0
41
1
10
98.8938753012366
20
6.82826196575397
30
0
41
1
10
98.6829902599914
20
7.45755776683393
30
0
41
1
10
98.5798205465538
20
7.76988050269588
30
0
41
1
10
98.4791137627292
20
8.07968357169889
30
0
0
SPLINE
5
167
100
AcDbEntity
8
1
62
256
6
ByLayer
370
18
48
1
60
0
100
AcDbSpline
70
4
71
3
72
12
73
8
40
0
40
0
40
0
40
0
40
0.5
40
0.5
40
0.75
40
0.75
40
1
40
1
40
1
40
1
41
1
10
24.3
20
5.79517385338076
30
0
41
1
10
24.1039805634804
20
5.81773149164528
30
0
41
1
10
23.9076904978835
20
5.82253656706172
30
0
41
1
10
23.6128381475455
20
5.80472254926289
30
0
41
1
10
23.5144848012721
20
5.79457446882026
30
0
41
1
10
23.3176415883759
20
5.76566412650558
30
0
41
1
10
23.2190512108631
20
5.74681885898875
30
0
41
1
10
23.1225909455987
20
5.72404729583414
30
0
0
SPLINE
5
168
100
AcDbEntity
8
1
62
256
6
ByLayer
370
13
48
1
60
0
100
AcDbSpline
70
4
71
3
72
8
73
4
40
0
40
0
40
0
40
0
40
1
40
1
40
1
40
1
41
1
10
97.7548357600156
20
3.94648570861483
30
0
41
1
10
97.7193619646467
20
3.93783979770768
30
0
41
1
10
97.6838891548184
20
3.92913943818306
30
0
41
1
10
97.6484308052176
20
3.92038723789258
30
0
0
SPLINE
5
169
100
AcDbEntity
8
1
62
256
6
ByLayer
370
18
48
1
60
0
100
AcDbSpline
70
4
71
3
72
12
73
8
40
0
40
0
40
0
40
0
40
0.420104963439769
40
0.420104963439769
40
0.710052412953526
40
0.710052412953526
40
1
40
1
40
1
40
1
41
1
10
86.4999999990521
20
-11.003491540585
30
0
41
1
10
86.4867068945378
20
-11.0175811479836
30
0
41
1
10
86.4734094400666
20
-11.0316689073666
30
0
41
1
10
86.450927098278
20
-11.0554766760831
30
0
41
1
10
86.4417444615246
20
-11.0651976352218
30
0
41
1
10
86.4233751163671
20
-11.0846378593406
30
0
41
1
10
86.4141884068718
20
-11.0943571254727
30
0
41
1
10
86.4049996786899
20
-11.1040755551778
30
0
0
SPLINE
5
16A
100
AcDbEntity
8
1
62
256
6
ByLayer
370
18
48
1
60
0
100
AcDbSpline
70
4
71
3
72
8
73
4
40
0
40
0
40
0
40
0
40
1
40
1
40
1
40
1
41
1
10
77.8437944345414
20
9.65981235330298
30
0
41
1
10
77.7782945121123
20
9.69586754386208
30
0
41
1
10
77.7100248864401
20
9.72844889172274
30
0
41
1
10
77.639248070605
20
9.75788036797536
30
0
0
SPLINE
5
16B
100
AcDbEntity
8
1
62
256
6
ByLayer
370
18
48
1
60
0
100
AcDbSpline
70
4
71
1
72
4
73
2
40
0
40
0
40
1
40
1
41
1
10
93.032913519628
20
-3.61985698651645
30
0
41
1
10
93.0353431645837
20
-3.67964883293294
30
0
0
SPLINE
5
16C
100
AcDbEntity
8
1
62
256
6
ByLayer
370
18
48
1
60
0
100
AcDbSpline
70
4
71
3
72
8
73
4
40
0
40
0
40
0
40
0
40
1
40
1
40
1
40
1
41
1
10
86.4035322757439
20
-11.1042494646916
30
0
41
1
10
86.4040226821129
20
-11.104191346447
30
0
41
1
10
86.4045130884818
20
-11.1041332109347
30
0
41
1
10
86.4050034948507
20
-11.104075058155
30
0
0
SPLINE
5
16D
100
AcDbEntity
8
1
62
256
6
ByLayer
370
18
48
1
60
0
100
AcDbSpline
70
4
71
3
72
14
73
10
40
0
40
0
40
0
40
0
40
0.25
40
0.25
40
0.5
40
0.5
40
0.75
40
0.75
40
1
40
1
40
1
40
1
41
1
10
87.6015116318482
20
2.64922490331253
30
0
41
1
10
88.2520421068737
20
2.56773541878798
30
0
41
1
10
88.9029065670326
20
2.48804625117009
30
0
41
1
10
90.2053966312507
20
2.33277079386537
30
0
41
1
10
90.8572472862707
20
2.25839762119713
30
0
41
1
10
92.1627999316468
20
2.11963073294837
30
0
41
1
10
92.8157799582708
20
2.05278618025787
30
0
41
1
10
94.1218787453247
20
1.9208580630403
30
0
41
1
10
94.7750253838435
20
1.8561150820945
30
0
41
1
10
95.4283791491873
20
1.79397293369192
30
0
0
SPLINE
5
16E
100
AcDbEntity
8
1
62
256
6
ByLayer
370
18
48
1
60
0
100
AcDbSpline
70
4
71
2
72
9
73
6
40
0
40
0
40
0
40
0.5
40
0.5
40
0.75
40
1
40
1
40
1
41
1
10
91.7334856152785
20
0.799528011999939
30
0
41
1
10
91.9799351904642
20
-0.319693058547358
30
0
41
1
10
92.3092562373984
20
-1.43977973584032
30
0
41
1
10
92.472906255345
20
-1.99638614331786
30
0
41
1
10
92.8359590827412
20
-3.09036225499238
30
0
41
1
10
93.0329112644679
20
-3.61980000948961
30
0
0
SPLINE
5
16F
100
AcDbEntity
8
1
62
256
6
ByLayer
370
18
48
1
60
0
100
AcDbSpline
70
4
71
3
72
10
73
6
40
0
40
0
40
0
40
0
40
0.660050129857633
40
0.660050129857633
40
1
40
1
40
1
40
1
41
1
10
75.7870024837327
20
9.15180897254461
30
0
41
1
10
75.7074062102948
20
8.47653084779787
30
0
41
1
10
75.5966689065044
20
7.83282801518922
30
0
41
1
10
75.3876780251983
20
6.94007705631122
30
0
41
1
10
75.3094208323397
20
6.65105480423165
30
0
41
1
10
75.2247542915528
20
6.37909603510738
30
0
0
SPLINE
5
170
100
AcDbEntity
8
1
62
256
6
ByLayer
370
18
48
1
60
0
100
AcDbSpline
70
4
71
3
72
70
73
66
40
0
40
0
40
0
40
0
40
0.0624999999999976
40
0.0624999999999976
40
0.124999999999995
40
0.124999999999995
40
0.187499999999993
40
0.187499999999993
40
0.218749999999992
40
0.218749999999992
40
0.249999999999991
40
0.249999999999991
40
0.281249999999989
40
0.281249999999989
40
0.312499999999988
40
0.312499999999988
40
0.328124999999988
40
0.328124999999988
40
0.343749999999988
40
0.343749999999988
40
0.374999999999989
40
0.374999999999989
40
0.390624999999989
40
0.390624999999989
40
0.40624999999999
40
0.40624999999999
40
0.421874999999991
40
0.421874999999991
40
0.437499999999991
40
0.437499999999991
40
0.468749999999992
40
0.468749999999992
40
0.484374999999993
40
0.484374999999993
40
0.499999999999993
40
0.499999999999993
40
0.515624999999994
40
0.515624999999994
40
0.531249999999994
40
0.531249999999994
40
0.562499999999996
40
0.562499999999996
40
0.578124999999997
40
0.578124999999997
40
0.593749999999997
40
0.593749999999997
40
0.624999999999999
40
0.624999999999999
40
0.640625
40
0.640625
40
0.65625
40
0.65625
40
0.6875
40
0.6875
40
0.71875
40
0.71875
40
0.75
40
0.75
40
0.8125
40
0.8125
40
0.875
40
0.875
40
0.9375
40
0.9375
40
1
40
1
40
1
40
1
41
1
10
18.8674012550217
20
5.77787034777449
30
0
41
1
10
18.2700233139133
20
5.80146656409647
30
0
41
1
10
17.6843657170755
20
5.82290546704354
30
0
41
1
10
16.5245120193064
20
5.85514514777788
30
0
41
1
10
15.9503746289744
20
5.86596870444419
30
0
41
1
10
14.8039810524616
20
5.8625156224368
30
0
41
1
10
14.2325673159524
20
5.84837520657356
30
0
41
1
10
13.3733092383785
20
5.78989128951687
30
0
41
1
10
13.0865293746776
20
5.76409371551335
30
0
41
1
10
12.5116226588496
20
5.69522005815421
30
0
41
1
10
12.2229443730579
20
5.6520613515564
30
0
41
1
10
11.646356644357
20
5.54261894523003
30
0
41
1
10
11.3595700115132
20
5.47658512083291
30
0
41
1
10
10.7905146315397
20
5.31489826595532
30
0
41
1
10
10.5082288499149
20
5.2192925554495
30
0
41
1
10
10.0900971236694
20
5.04656503926569
30
0
41
1
10
9.95161234615631
20
4.98407930744966
30
0
41
1
10
9.67690753409485
20
4.84768752359361
30
0
41
1
10
9.5412774818318
20
4.77402235074067
30
0
41
1
10
9.14475480108604
20
4.53717069808044
30
0
41
1
10
8.89249442427536
20
4.35747492200491
30
0
41
1
10
8.53796219142157
20
4.0476543590344
30
0
41
1
10
8.42317376359028
20
3.93693249088278
30
0
41
1
10
8.20680155518326
20
3.70453202826886
30
0
41
1
10
8.10508454218416
20
3.58288987469089
30
0
41
1
10
7.91535678875249
20
3.32828642823134
30
0
41
1
10
7.82734209538606
20
3.19532844175296
30
0
41
1
10
7.66606397112577
20
2.91742140180986
30
0
41
1
10
7.59241919918372
20
2.77141750422038
30
0
41
1
10
7.40027101932134
20
2.32532560090783
30
0
41
1
10
7.30882243321713
20
2.0157606647457
30
0
41
1
10
7.22654842394778
20
1.53341298417746
30
0
41
1
10
7.20836188275212
20
1.36864324979675
30
0
41
1
10
7.19117283142825
20
1.04116927474658
30
0
41
1
10
7.19193644583265
20
0.877746891864831
30
0
41
1
10
7.21108797670894
20
0.551484534094072
30
0
41
1
10
7.22948009336028
20
0.388644687222723
30
0
41
1
10
7.28327395525457
20
0.0635091149591176
30
0
41
1
10
7.31873597921614
20
-0.0985065990202543
30
0
41
1
10
7.44678462323611
20
-0.573853190572549
30
0
41
1
10
7.56138716129172
20
-0.880057890004821
30
0
41
1
10
7.77062414915324
20
-1.32549589289334
30
0
41
1
10
7.84646847273555
20
-1.47116748790327
30
0
41
1
10
8.00686276325925
20
-1.753398521267
30
0
41
1
10
8.09170398144283
20
-1.89058995013994
30
0
41
1
10
8.35846692857285
20
-2.29156494203363
30
0
41
1
10
8.55256546640476
20
-2.54479418748826
30
0
41
1
10
8.86301258169749
20
-2.90694152555116
30
0
41
1
10
8.97008748449764
20
-3.02505844035841
30
0
41
1
10
9.18797674327857
20
-3.25370536813668
30
0
41
1
10
9.29873408841701
20
-3.36423009044427
30
0
41
1
10
9.63546959456534
20
-3.68573454077918
30
0
41
1
10
9.86586958945259
20
-3.8866931674508
30
0
41
1
10
10.3345950148162
20
-4.26734747138423
30
0
41
1
10
10.5729370619335
20
-4.447021775856
30
0
41
1
10
11.0548561782637
20
-4.78920385780236
30
0
41
1
10
11.2990964561449
20
-4.95210441231157
30
0
41
1
10
12.0313397849544
20
-5.41650136518297
30
0
41
1
10
12.5181608820454
20
-5.69404128105145
30
0
41
1
10
13.4847867935374
20
-6.20931568977477
30
0
41
1
10
13.9650572417912
20
-6.44700833292339
30
0
41
1
10
14.9166337724487
20
-6.89570057648507
30
0
41
1
10
15.3867066797778
20
-7.10603878356545
30
0
41
1
10
16.3172826259288
20
-7.50804170177264
30
0
41
1
10
16.777805839057
20
-7.69964549351636
30
0
41
1
10
17.234230436227
20
-7.88438552033281
30
0
0
SPLINE
5
171
100
AcDbEntity
8
1
62
256
6
ByLayer
370
18
48
1
60
0
100
AcDbSpline
70
4
71
3
72
14
73
10
40
0
40
0
40
0
40
0
40
0.25
40
0.25
40
0.5
40
0.5
40
0.75
40
0.75
40
1
40
1
40
1
40
1
41
1
10
97.5022916155174
20
-5.22678329188059
30
0
41
1
10
97.3332241976719
20
-4.77517724331943
30
0
41
1
10
97.1691307341691
20
-4.32181129422909
30
0
41
1
10
96.8467337307214
20
-3.41303078666621
30
0
41
1
10
96.6890549630506
20
-2.95739427214744
30
0
41
1
10
96.3883297505963
20
-2.0409475806716
30
0
41
1
10
96.2425906956775
20
-1.58131977414001
30
0
41
1
10
95.9687618136675
20
-0.656702990221532
30
0
41
1
10
95.8393771732743
20
-0.191898830060751
30
0
41
1
10
95.7199959521022
20
0.275199188174326
30
0
0
SPLINE
5
172
100
AcDbEntity
8
1
62
256
6
ByLayer
370
18
48
1
60
0
100
AcDbSpline
70
4
71
3
72
8
73
4
40
0
40
0
40
0
40
0
40
1
40
1
40
1
40
1
41
1
10
91.8695532410476
20
1.0326797075812
30
0
41
1
10
91.8245507550671
20
0.954000701896376
30
0
41
1
10
91.7792019231113
20
0.876256143433721
30
0
41
1
10
91.7334991618604
20
0.799466492116295
30
0
0
SPLINE
5
173
100
AcDbEntity
8
1
62
256
6
ByLayer
370
18
48
1
60
0
100
AcDbSpline
70
4
71
3
72
9
73
5
40
0
40
0
40
0
40
0
40
0.49674718359451
40
1
40
1
40
1
40
1
41
1
10
86.5000000025591
20
10.2338092104145
30
0
41
1
10
86.4845383894971
20
10.2663304718915
30
0
41
1
10
86.4534126708767
20
10.3317989084545
30
0
41
1
10
86.4211904538905
20
10.3967983208972
30
0
41
1
10
86.4049745324413
20
10.4295094582737
30
0
0
SPLINE
5
174
100
AcDbEntity
8
1
62
256
6
ByLayer
370
18
48
1
60
0
100
AcDbSpline
70
4
71
3
72
8
73
4
40
0
40
0
40
0
40
0
40
1
40
1
40
1
40
1
41
1
10
86.3
20
2.89696510733776
30
0
41
1
10
86.3
20
3.07645708957966
30
0
41
1
10
86.3
20
3.27984135179443
30
0
41
1
10
86.3
20
3.50692733042706
30
0
0
SPLINE
5
175
100
AcDbEntity
8
1
62
256
6
ByLayer
370
18
48
1
60
0
100
AcDbSpline
70
4
71
3
72
8
73
4
40
0
40
0
40
0
40
0
40
1
40
1
40
1
40
1
41
1
10
27.3000000001283
20
-9.59542570346113
30
0
41
1
10
27.3000000001354
20
-9.78487732387902
30
0
41
1
10
27.3000000001426
20
-9.97429108506574
30
0
41
1
10
27.3000000001499
20
-10.163667014659
30
0
0
SPLINE
5
176
100
AcDbEntity
8
1
62
256
6
ByLayer
370
18
48
1
60
0
100
AcDbSpline
70
4
71
3
72
8
73
4
40
0
40
0
40
0
40
0
40
1
40
1
40
1
40
1
41
1
10
20.2133357474273
20
-7.8456024655645
30
0
41
1
10
20.2810448243228
20
-8.19066869279891
30
0
41
1
10
20.3475328119959
20
-8.53667520823791
30
0
41
1
10
20.412391157224
20
-8.8835319494568
30
0
0
SPLINE
5
177
100
AcDbEntity
8
1
62
256
6
ByLayer
370
18
48
1
60
0
100
AcDbSpline
70
4
71
3
72
12
73
8
40
0
40
0
40
0
40
0
40
0.499999999999989
40
0.499999999999989
40
0.749999999999994
40
0.749999999999994
40
1
40
1
40
1
40
1
41
1
10
18.9598993869815
20
-8.93504632454398
30
0
41
1
10
19.1724490290559
20
-8.96004828065705
30
0
41
1
10
19.4015047045689
20
-8.96245070588975
30
0
41
1
10
19.7691040069432
20
-8.94630188287394
30
0
41
1
10
19.8964100026651
20
-8.93737631889334
30
0
41
1
10
20.1523463130244
20
-8.91425222626461
30
0
41
1
10
20.2816788436586
20
-8.90004745579805
30
0
41
1
10
20.412391157224
20
-8.8835319494568
30
0
0
SPLINE
5
178
100
AcDbEntity
8
1
62
256
6
ByLayer
370
18
48
1
60
0
100
AcDbSpline
70
4
71
3
72
32
73
28
40
0
40
0
40
0
40
0
40
0.0624999999999952
40
0.0624999999999952
40
0.12499999999999
40
0.12499999999999
40
0.249999999999996
40
0.249999999999996
40
0.312499999999998
40
0.312499999999998
40
0.375000000000001
40
0.375000000000001
40
0.437500000000004
40
0.437500000000004
40
0.500000000000007
40
0.500000000000007
40
0.625000000000012
40
0.625000000000012
40
0.687500000000009
40
0.687500000000009
40
0.750000000000007
40
0.750000000000007
40
0.812500000000004
40
0.812500000000004
40
0.875000000000002
40
0.875000000000002
40
1
40
1
40
1
40
1
41
1
10
73.774234313201
20
-6.88702593611424
30
0
41
1
10
73.8853865715415
20
-6.90891470250091
30
0
41
1
10
73.9976506976237
20
-6.92571565581835
30
0
41
1
10
74.2243963747334
20
-6.94932129712581
30
0
41
1
10
74.3389988007788
20
-6.95606906590732
30
0
41
1
10
74.6794915559581
20
-6.96113629224828
30
0
41
1
10
74.9043119509133
20
-6.94481294445276
30
0
41
1
10
75.2382677118533
20
-6.89016515955035
30
0
41
1
10
75.3490536968642
20
-6.86676895705511
30
0
41
1
10
75.5637768405576
20
-6.81083247960876
30
0
41
1
10
75.668467589914
20
-6.7781916324781
30
0
41
1
10
75.8726194852615
20
-6.70349047223334
30
0
41
1
10
75.9720807490707
20
-6.66143101687999
30
0
41
1
10
76.1656828050114
20
-6.56739655862515
30
0
41
1
10
76.2597531490194
20
-6.5153491281925
30
0
41
1
10
76.5269513219266
20
-6.34770598433772
30
0
41
1
10
76.6877830257545
20
-6.2196466163964
30
0
41
1
10
76.9027715797424
20
-6.00063797645754
30
0
41
1
10
76.969665361435
20
-5.9233300737894
30
0
41
1
10
77.091315529646
20
-5.76313821150899
30
0
41
1
10
77.1465083552075
20
-5.6798283061388
30
0
41
1
10
77.2456887936415
20
-5.50654301935344
30
0
41
1
10
77.2896774627423
20
-5.41656882812077
30
0
41
1
10
77.3660611097335
20
-5.2294884438823
30
0
41
1
10
77.3979741009144
20
-5.13340984979556
30
0
41
1
10
77.4742471914693
20
-4.84114473477149
30
0
41
1
10
77.5
20
-4.63948541721754
30
0
41
1
10
77.5
20
-4.43054492543627
30
0
0
SPLINE
5
179
100
AcDbEntity
8
1
62
256
6
ByLayer
370
18
48
1
60
0
100
AcDbSpline
70
4
71
3
72
8
73
4
40
0
40
0
40
0
40
0
40
1
40
1
40
1
40
1
41
1
10
100.575946806077
20
-1.24648106020794
30
0
41
1
10
100.624189899316
20
-1.10833588148591
30
0
41
1
10
100.671783398171
20
-0.970104112502867
30
0
41
1
10
100.718758184782
20
-0.831789869816106
30
0
0
SPLINE
5
17A
100
AcDbEntity
8
1
62
256
6
ByLayer
370
18
48
1
60
0
100
AcDbSpline
70
4
71
3
72
28
73
24
40
0
40
0
40
0
40
0
40
0.125000000000001
40
0.125000000000001
40
0.187500000000001
40
0.187500000000001
40
0.250000000000001
40
0.250000000000001
40
0.375000000000002
40
0.375000000000002
40
0.437500000000002
40
0.437500000000002
40
0.500000000000001
40
0.500000000000001
40
0.625000000000001
40
0.625000000000001
40
0.6875
40
0.6875
40
0.75
40
0.75
40
0.875
40
0.875
40
1
40
1
40
1
40
1
41
1
10
75.5864053548528
20
-9.61587460265687
30
0
41
1
10
73.4675950556888
20
-9.24036217292431
30
0
41
1
10
71.3521275312829
20
-8.80383388651987
30
0
41
1
10
68.177476632829
20
-8.06686982965098
30
0
41
1
10
67.1191060494493
20
-7.80761193716822
30
0
41
1
10
65.0054444237572
20
-7.26598832046028
30
0
41
1
10
63.9495240144044
20
-6.98349229664018
30
0
41
1
10
60.782478389697
20
-6.10575450557911
30
0
41
1
10
58.672053587491
20
-5.48030513831344
30
0
41
1
10
55.5019848119317
20
-4.49689061483713
30
0
41
1
10
54.4445650791454
20
-4.16153224512536
30
0
41
1
10
52.3273395009009
20
-3.47819158720483
30
0
41
1
10
51.2686314128487
20
-3.13057685228975
30
0
41
1
10
48.0963114858188
20
-2.0758160233373
30
0
41
1
10
45.9843269091885
20
-1.35583697188881
30
0
41
1
10
42.8137808471223
20
-0.270803216710675
30
0
41
1
10
41.7565029718231
20
0.0917089668177766
30
0
41
1
10
39.6403164201498
20
0.816127089895787
30
0
41
1
10
38.5807637202186
20
1.17825076890506
30
0
41
1
10
35.4067193587298
20
2.25711863272872
30
0
41
1
10
33.2948443591191
20
2.96684386771761
30
0
41
1
10
29.0714798483086
20
4.34428212109603
30
0
41
1
10
26.9599781300347
20
5.01200304791996
30
0
41
1
10
24.8452717264583
20
5.64892360711627
30
0
0
SPLINE
5
17B
100
AcDbEntity
8
1
62
256
6
ByLayer
370
18
48
1
60
0
100
AcDbSpline
70
4
71
3
72
26
73
22
40
0
40
0
40
0
40
0
40
0.0457528236961422
40
0.0457528236961422
40
0.113913336289275
40
0.113913336289275
40
0.182073848882407
40
0.182073848882407
40
0.318394874068672
40
0.318394874068672
40
0.454715899254937
40
0.454715899254937
40
0.52287641184807
40
0.52287641184807
40
0.591036924441202
40
0.591036924441202
40
0.727357949627468
40
0.727357949627468
40
0.863678974813734
40
0.863678974813734
40
1
40
1
40
1
40
1
41
1
10
67.2612324946038
20
-7.83426891373603
30
0
41
1
10
66.6506222830243
20
-7.97086555052118
30
0
41
1
10
66.0399568569322
20
-8.10333740813883
30
0
41
1
10
64.5192856384337
20
-8.42269322210964
30
0
41
1
10
63.6088013987059
20
-8.60445290486032
30
0
41
1
10
61.788577223336
20
-8.94802120085268
30
0
41
1
10
60.8792840906695
20
-9.10975875152363
30
0
41
1
10
58.1532922236493
20
-9.56354973376739
30
0
41
1
10
56.3386673704197
20
-9.82436842239508
30
0
41
1
10
52.7096638012558
20
-10.2528172122814
30
0
41
1
10
50.8952574728593
20
-10.4198040972209
30
0
41
1
10
48.1687719468978
20
-10.5946534923995
30
0
41
1
10
47.2587143488283
20
-10.6404289817845
30
0
41
1
10
45.4413554209723
20
-10.7066917213923
30
0
41
1
10
44.5334598009577
20
-10.7272218662559
30
0
41
1
10
41.8111451613443
20
-10.7522110827184
30
0
41
1
10
39.9981447444056
20
-10.7202846250221
30
0
41
1
10
36.3728972303737
20
-10.5619863339923
30
0
41
1
10
34.5607638067223
20
-10.4355587094164
30
0
41
1
10
30.9339450443516
20
-10.0872090565546
30
0
41
1
10
29.1192333969387
20
-9.86508231548484
30
0
41
1
10
27.3000000001283
20
-9.59541870131631
30
0
0
SPLINE
5
17C
100
AcDbEntity
8
1
62
256
6
ByLayer
370
13
48
1
60
0
100
AcDbSpline
70
4
71
3
72
8
73
4
40
0
40
0
40
0
40
0
40
1
40
1
40
1
40
1
41
1
10
97.7819870281671
20
3.94936532844474
30
0
41
1
10
98.4897767382201
20
3.94003256488935
30
0
41
1
10
99.1975664482732
20
3.93069980133396
30
0
41
1
10
99.9053561583264
20
3.92136703777854
30
0
0
SPLINE
5
17D
100
AcDbEntity
8
1
62
256
6
ByLayer
370
18
48
1
60
0
100
AcDbSpline
70
4
71
3
72
8
73
4
40
0
40
0
40
0
40
0
40
1
40
1
40
1
40
1
41
1
10
86.4035492873404
20
11.0962200246945
30
0
41
1
10
86.4006994630469
20
11.0987297281868
30
0
41
1
10
86.3978497005047
20
11.101238753572
30
0
41
1
10
86.395
20
11.1037471003659
30
0
0
SPLINE
5
17E
100
AcDbEntity
8
1
62
256
6
ByLayer
370
18
48
1
60
0
100
AcDbSpline
70
4
71
3
72
12
73
8
40
0
40
0
40
0
40
0
40
0.193895734799292
40
0.384743492850957
40
0.572545066301331
40
0.85317972281161
40
1
40
1
40
1
40
1
41
1
10
94.0583804091354
20
1.6863243785514
30
0
41
1
10
93.6923640544086
20
1.72080814554414
30
0
41
1
10
92.9660850008547
20
1.78923360613081
30
0
41
1
10
91.8854757437761
20
1.89297881949935
30
0
41
1
10
90.6413495707735
20
2.01441531802144
30
0
41
1
10
89.4805209837654
20
2.12994346936847
30
0
41
1
10
88.6742819960143
20
2.21272212688311
30
0
41
1
10
88.3973737621832
20
2.24130198545143
30
0
0
SPLINE
5
17F
100
AcDbEntity
8
1
62
256
6
ByLayer
370
18
48
1
60
0
100
AcDbSpline
70
4
71
3
72
32
73
28
40
0
40
0
40
0
40
0
40
0.0252335799393686
40
0.0502973198615357
40
0.0751914513757024
40
0.0999162108586124
40
0.124471839579349
40
0.148858583827985
40
0.173076695048215
40
0.197126429974116
40
0.221008050771169
40
0.244721825181702
40
0.26826802667488
40
0.336105546089768
40
0.402979171768624
40
0.468896278821655
40
0.533864568292097
40
0.581827303343686
40
0.629480353699375
40
0.676827294352066
40
0.723871770084558
40
0.770617496434036
40
0.817068260631885
40
0.863227922515664
40
0.90910041540985
40
0.954689746971905
40
1
40
1
40
1
40
1
41
1
10
94.4203522197869
20
-9.19158328125351
30
0
41
1
10
94.4033782219646
20
-9.15802805672851
30
0
41
1
10
94.3695444734496
20
-9.09114345830784
30
0
41
1
10
94.3196227733381
20
-8.98831804150814
30
0
41
1
10
94.2705271790147
20
-8.88416418756029
30
0
41
1
10
94.2223039322344
20
-8.77853897670298
30
0
41
1
10
94.1749407684539
20
-8.67155704965529
30
0
41
1
10
94.1284409380004
20
-8.56326394256527
30
0
41
1
10
94.0828035854515
20
-8.45372271924387
30
0
41
1
10
94.0380289111631
20
-8.34299090405298
30
0
41
1
10
93.9941169575455
20
-8.23112682892568
30
0
41
1
10
93.9510673582503
20
-8.11818699886086
30
0
41
1
10
93.8823306493992
20
-7.93250822537493
30
0
41
1
10
93.7902743100223
20
-7.66938398547896
30
0
41
1
10
93.6783921526601
20
-7.32174515862181
30
0
41
1
10
93.5730099014703
20
-6.96588264829998
30
0
41
1
10
93.482270936305
20
-6.63274420216419
30
0
41
1
10
93.4045247016722
20
-6.32525703965581
30
0
41
1
10
93.3381927186643
20
-6.04540968915111
30
0
41
1
10
93.275189697292
20
-5.76157057173171
30
0
41
1
10
93.2155170284681
20
-5.47406137172359
30
0
41
1
10
93.15917292855
20
-5.18320438631258
30
0
41
1
10
93.1061631622688
20
-4.88931021890537
30
0
41
1
10
93.0564667025796
20
-4.59271477179857
30
0
41
1
10
93.0101612831523
20
-4.29364284077479
30
0
41
1
10
92.9669595577074
20
-3.99271055867365
30
0
41
1
10
92.9408565869199
20
-3.78966387711827
30
0
41
1
10
92.9278451719998
20
-3.68845223177058
30
0
0
SPLINE
5
180
100
AcDbEntity
8
1
62
256
6
ByLayer
370
18
48
1
60
0
100
AcDbSpline
70
4
71
3
72
82
73
78
40
0
40
0
40
0
40
0
40
0.0133333333333333
40
0.0266666666666668
40
0.0400000000000001
40
0.0533333333333338
40
0.0666666666666671
40
0.0800000000000002
40
0.0933333333333332
40
0.106666666666667
40
0.12
40
0.133333333333333
40
0.146666666666667
40
0.160000000000001
40
0.173333333333333
40
0.186666666666667
40
0.2
40
0.213333333333334
40
0.226666666666667
40
0.24
40
0.253333333333334
40
0.266666666666667
40
0.28
40
0.293333333333333
40
0.306666666666667
40
0.32
40
0.333333333333333
40
0.346666666666667
40
0.36
40
0.373333333333334
40
0.386666666666667
40
0.4
40
0.413333333333333
40
0.426666666666667
40
0.44
40
0.453333333333333
40
0.466666666666667
40
0.48
40
0.493333333333334
40
0.506666666666667
40
0.52
40
0.533333333333334
40
0.546666666666667
40
0.56
40
0.573333333333333
40
0.586666666666667
40
0.6
40
0.613333333333333
40
0.626666666666667
40
0.64
40
0.653333333333333
40
0.666666666666667
40
0.68
40
0.693333333333333
40
0.706666666666667
40
0.72
40
0.733333333333333
40
0.746666666666667
40
0.76
40
0.773333333333333
40
0.786666666666667
40
0.8
40
0.813333333333333
40
0.826666666666667
40
0.84
40
0.853333333333333
40
0.866666666666667
40
0.88
40
0.893333333333333
40
0.906666666666667
40
0.92
40
0.933333333333333
40
0.946666666666667
40
0.96
40
0.973333333333333
40
0.986666666666667
40
1
40
1
40
1
40
1
41
1
10
22.1000000000008
20
-1.85168713030433
30
0
41
1
10
22.1150961264039
20
-1.81021337927726
30
0
41
1
10
22.14528837921
20
-1.72726587722315
30
0
41
1
10
22.1905643669047
20
-1.60289823936307
30
0
41
1
10
22.2358155749608
20
-1.47861300112658
30
0
41
1
10
22.2810296220343
20
-1.35444557383758
30
0
41
1
10
22.3261941369489
20
-1.23042955486596
30
0
41
1
10
22.371296762081
20
-1.10659897756452
30
0
41
1
10
22.4163251567409
20
-0.982987696624974
30
0
41
1
10
22.4612670005495
20
-0.859629541013106
30
0
41
1
10
22.5061099968088
20
-0.736558261251787
30
0
41
1
10
22.5508418758673
20
-0.61380753183181
30
0
41
1
10
22.5954503984763
20
-0.491410938877522
30
0
41
1
10
22.6399233591393
20
-0.369401971793479
30
0
41
1
10
22.6842485894512
20
-0.247814013877189
30
0
41
1
10
22.7284139614283
20
-0.126680333245048
30
0
41
1
10
22.7724073908258
20
-0.0060340737135505
30
0
41
1
10
22.8162168404451
20
0.114091754264763
30
0
41
1
10
22.8598303234269
20
0.233664282634891
30
0
41
1
10
22.9032359065309
20
0.352650794731943
30
0
41
1
10
22.9464217134012
20
0.47101873423307
30
0
41
1
10
22.9893759278153
20
0.58873571406528
30
0
41
1
10
23.0320867969181
20
0.705769525266959
30
0
41
1
10
23.0745426344366
20
0.822088145800677
30
0
41
1
10
23.116731823878
20
0.937659749314889
30
0
41
1
10
23.1586428217082
20
1.05245271385203
30
0
41
1
10
23.2002641605101
20
1.1664356305007
30
0
41
1
10
23.2415844521209
20
1.27957731198961
30
0
41
1
10
23.2825923907488
20
1.39184680122082
30
0
41
1
10
23.3232767560657
20
1.50321337973997
30
0
41
1
10
23.3636264162778
20
1.61364657614135
30
0
41
1
10
23.4036303311709
20
1.72311617440525
30
0
41
1
10
23.4432775551316
20
1.83159222216543
30
0
41
1
10
23.4825572401419
20
1.93904503890462
30
0
41
1
10
23.5214586387476
20
2.04544522407536
30
0
41
1
10
23.5599711069984
20
2.1507636651445
30
0
41
1
10
23.598084107361
20
2.2549715455587
30
0
41
1
10
23.6357872116017
20
2.3580403526291
30
0
41
1
10
23.6730701036402
20
2.45994188533274
30
0
41
1
10
23.7099225823716
20
2.56064826202879
30
0
41
1
10
23.7463345644581
20
2.66013192808723
30
0
41
1
10
23.7822960870879
20
2.75836566342832
30
0
41
1
10
23.8177973107008
20
2.85532258997026
30
0
41
1
10
23.8528285216806
20
2.9509761789835
30
0
41
1
10
23.8873801350132
20
3.04530025834924
30
0
41
1
10
23.9214426969087
20
3.13826901972058
30
0
41
1
10
23.9550068873884
20
3.22985702558401
30
0
41
1
10
23.9880635228347
20
3.32003921621947
30
0
41
1
10
24.0206035585039
20
3.40879091655691
30
0
41
1
10
24.0526180910013
20
3.49608784292789
30
0
41
1
10
24.0840983607166
20
3.58190610970988
30
0
41
1
10
24.1150357542213
20
3.6662222358616
30
0
41
1
10
24.145421806625
20
3.74901315134778
30
0
41
1
10
24.175248203892
20
3.8302562034516
30
0
41
1
10
24.2045067851154
20
3.9099291629725
30
0
41
1
10
24.2331895447509
20
3.98801023030865
30
0
41
1
10
24.2612886348066
20
4.06447804142138
30
0
41
1
10
24.2887963669904
20
4.13931167368097
30
0
41
1
10
24.3157052148138
20
4.21249065159097
30
0
41
1
10
24.3420078156515
20
4.28399495239108
30
0
41
1
10
24.3676969727549
20
4.35380501153472
30
0
41
1
10
24.3927656572231
20
4.42190172804501
30
0
41
1
10
24.4172070099217
20
4.48826646973058
30
0
41
1
10
24.4410143433742
20
4.55288107832269
30
0
41
1
10
24.4641811435384
20
4.61572787429765
30
0
41
1
10
24.4867010717867
20
4.67678966225898
30
0
41
1
10
24.5085679659021
20
4.73604973360853
30
0
41
1
10
24.5297758445202
20
4.79349187870901
30
0
41
1
10
24.5503188984803
20
4.84910036298922
30
0
41
1
10
24.5701915308001
20
4.90286003697864
30
0
41
1
10
24.5893882149529
20
4.95475594586432
30
0
41
1
10
24.6079040310102
20
5.00477480620663
30
0
41
1
10
24.6257326717202
20
5.05289951366603
30
0
41
1
10
24.6428738906744
20
5.09912965869052
30
0
41
1
10
24.6593057118797
20
5.14340497850517
30
0
41
1
10
24.6750881513108
20
5.18589105508372
30
0
41
1
10
24.6850134696539
20
5.21257241305076
30
0
41
1
10
24.6899761288254
20
5.22591309203426
30
0
0
SPLINE
5
181
100
AcDbEntity
8
1
62
256
6
ByLayer
370
18
48
1
60
0
100
AcDbSpline
70
4
71
3
72
12
73
8
40
0
40
0
40
0
40
0
40
0.5
40
0.5
40
0.75
40
0.75
40
1
40
1
40
1
40
1
41
1
10
99.7671005064798
20
-4.3337400970411
30
0
41
1
10
99.5433775511515
20
-4.95316947763874
30
0
41
1
10
99.3236707545635
20
-5.575707300239
30
0
41
1
10
99.000522392245
20
-6.51447668899027
30
0
41
1
10
98.8938753012366
20
-6.82826196575397
30
0
41
1
10
98.6829902599914
20
-7.45755776683393
30
0
41
1
10
98.5798205465538
20
-7.76988050269588
30
0
41
1
10
98.4791137627292
20
-8.07968357169889
30
0
0
SPLINE
5
182
100
AcDbEntity
8
1
62
256
6
ByLayer
370
18
48
1
60
0
100
AcDbSpline
70
4
71
3
72
8
73
4
40
0
40
0
40
0
40
0
40
1
40
1
40
1
40
1
41
1
10
19.9457874903405
20
-7.79178696455153
30
0
41
1
10
20.03533964372
20
-7.80518100734471
30
0
41
1
10
20.1245291583952
20
-7.82319277894706
30
0
41
1
10
20.2133357474273
20
-7.84560246556453
30
0
0
SPLINE
5
183
100
AcDbEntity
8
1
62
256
6
ByLayer
370
18
48
1
60
0
100
AcDbSpline
70
4
71
3
72
8
73
4
40
0
40
0
40
0
40
0
40
1
40
1
40
1
40
1
41
1
10
86.3
20
4.34999999999999
30
0
41
1
10
86.3
20
4.03359906593329
30
0
41
1
10
86.3000000000002
20
3.75281858025943
30
0
41
1
10
86.3000000000002
20
3.50692733042706
30
0
0
SPLINE
5
184
100
AcDbEntity
8
1
62
256
6
ByLayer
370
18
48
1
60
0
100
AcDbSpline
70
4
71
3
72
10
73
6
40
0
40
0
40
0
40
0
40
0.5
40
0.5
40
1
40
1
40
1
40
1
41
1
10
76.9780808978938
20
10.0266151354843
30
0
41
1
10
78.546020885187
20
10.2911588299012
30
0
41
1
10
80.1136209128796
20
10.5146669900778
30
0
41
1
10
83.2540325985091
20
10.8747950910005
30
0
41
1
10
84.8244258100123
20
11.0111953657855
30
0
41
1
10
86.395
20
11.1037471003659
30
0
0
SPLINE
5
185
100
AcDbEntity
8
1
62
256
6
ByLayer
370
18
48
1
60
0
100
AcDbSpline
70
4
71
3
72
8
73
4
40
0
40
0
40
0
40
0
40
1
40
1
40
1
40
1
41
1
10
87.233141141929
20
11.4202138128361
30
0
41
1
10
86.9891398697902
20
11.3210895654391
30
0
41
1
10
86.7447681151301
20
11.2203950243917
30
0
41
1
10
86.5
20
11.118204230022
30
0
0
SPLINE
5
186
100
AcDbEntity
8
1
62
256
6
ByLayer
370
13
48
1
60
0
100
AcDbSpline
70
4
71
3
72
20
73
16
40
0
40
0
40
0
40
0
40
0.25
40
0.25
40
0.5
40
0.5
40
0.75
40
0.75
40
0.8125
40
0.8125
40
0.875
40
0.875
40
0.9375
40
0.9375
40
1
40
1
40
1
40
1
41
1
10
99.7622273787356
20
1.16002253067629
30
0
41
1
10
99.5414870502464
20
1.31377073917841
30
0
41
1
10
99.3276431534996
20
1.48547449965707
30
0
41
1
10
98.9237850207974
20
1.86589552587759
30
0
41
1
10
98.7330808571315
20
2.07483182366892
30
0
41
1
10
98.3808203039994
20
2.54119417486535
30
0
41
1
10
98.2240464749265
20
2.79233214711485
30
0
41
1
10
98.0585765555237
20
3.13451472478192
30
0
41
1
10
98.0270111258508
20
3.20437558951764
30
0
41
1
10
97.9672685405675
20
3.34722775478119
30
0
41
1
10
97.9390780988371
20
3.42030108099218
30
0
41
1
10
97.8869475582167
20
3.56799072914251
30
0
41
1
10
97.8628998161103
20
3.6428054201312
30
0
41
1
10
97.8191441074301
20
3.79450719789921
30
0
41
1
10
97.799340230213
20
3.87182618474435
30
0
41
1
10
97.7819870285794
20
3.94936532843928
30
0
0
SPLINE
5
187
100
AcDbEntity
8
1
62
256
6
ByLayer
370
18
48
1
60
0
100
AcDbSpline
70
4
71
3
72
28
73
24
40
0
40
0
40
0
40
0
40
0.0625000000000004
40
0.0625000000000004
40
0.125
40
0.125
40
0.25
40
0.25
40
0.375
40
0.375
40
0.5
40
0.5
40
0.5625
40
0.5625
40
0.625
40
0.625
40
0.75
40
0.75
40
0.8125
40
0.8125
40
0.875
40
0.875
40
1
40
1
40
1
40
1
41
1
10
72.1052891079809
20
-6.817895023993
30
0
41
1
10
71.2293717848397
20
-6.57921628008376
30
0
41
1
10
70.3536713384636
20
-6.33309033777826
30
0
41
1
10
68.6021405714932
20
-5.82721291174738
30
0
41
1
10
67.7262933676064
20
-5.56745201028579
30
0
41
1
10
65.1009360383476
20
-4.77075435004161
30
0
41
1
10
63.3526721397184
20
-4.21568462911159
30
0
41
1
10
59.854123942675
20
-3.07332075064574
30
0
41
1
10
58.1026972528036
20
-2.48596435859088
30
0
41
1
10
54.6035578880092
20
-1.29757497097518
30
0
41
1
10
52.8547299395886
20
-0.696150874647401
30
0
41
1
10
50.228727481758
20
0.205512953454559
30
0
41
1
10
49.3525797982796
20
0.506131989907402
30
0
41
1
10
47.6012289706915
20
1.10478016999551
30
0
41
1
10
46.7259249790279
20
1.40283850041897
30
0
41
1
10
44.1003669333114
20
2.2910370700547
30
0
41
1
10
42.3506032745996
20
2.87561291524594
30
0
41
1
10
39.7247119165371
20
3.73479243889298
30
0
41
1
10
38.8489219463387
20
4.01831909025279
30
0
41
1
10
37.0991053337186
20
4.57641245996624
30
0
41
1
10
36.2247751006587
20
4.85105339619892
30
0
41
1
10
33.6023056750872
20
5.65848984563621
30
0
41
1
10
31.8546693849682
20
6.17468548279135
30
0
41
1
10
30.1045191281445
20
6.66100834033952
30
0
0
LINE
5
70
100
AcDbEntity
8
81
62
256
6
ByLayer
370
18
48
1
60
0
100
AcDbLine
10
86.5
20
0
30
0
11
91.5
21
0
31
0
39
0
210
0
220
0
230
1
0
LINE
5
71
100
AcDbEntity
8
1
62
256
6
ByLayer
370
18
48
1
60
0
100
AcDbLine
10
0.2
20
16
30
0
11
0
21
15.8
31
0
39
0
210
0
220
0
230
1
0
LINE
5
73
100
AcDbEntity
8
1
62
256
6
ByLayer
370
18
48
1
60
0
100
AcDbLine
10
0
20
-15.8
30
0
11
0.2
21
-16
31
0
39
0
210
0
220
0
230
1
0
LINE
5
74
100
AcDbEntity
8
1
62
256
6
ByLayer
370
18
48
1
60
0
100
AcDbLine
10
6.9513
20
16
30
0
11
0.2
21
16
31
0
39
0
210
0
220
0
230
1
0
LINE
5
75
100
AcDbEntity
8
1
62
256
6
ByLayer
370
18
48
1
60
0
100
AcDbLine
10
0.2
20
-16
30
0
11
6.9513
21
-16
31
0
39
0
210
0
220
0
230
1
0
LINE
5
76
100
AcDbEntity
8
SK1
62
256
6
ByLayer
370
18
48
1
60
0
100
AcDbLine
10
-1.6
20
12.49675
30
0
11
-53.3
21
12.49675
31
0
39
0
210
0
220
0
230
1
0
LINE
5
78
100
AcDbEntity
8
SK1
62
256
6
ByLayer
370
18
48
1
60
0
100
AcDbLine
10
-53.3
20
-12.49675
30
0
11
-1.6
21
-12.49675
31
0
39
0
210
0
220
0
230
1
0
LINE
5
79
100
AcDbEntity
8
SK1
62
256
6
ByLayer
370
18
48
1
60
0
100
AcDbLine
10
-55
20
12.49675
30
0
11
-56
21
11.49675
31
0
39
0
210
0
220
0
230
1
0
LINE
5
7A
100
AcDbEntity
8
SK1
62
256
6
ByLayer
370
18
48
1
60
0
100
AcDbLine
10
-56
20
-11.49675
30
0
11
-55
21
-12.49675
31
0
39
0
210
0
220
0
230
1
0
LINE
5
7B
100
AcDbEntity
8
SK1
62
256
6
ByLayer
370
18
48
1
60
0
100
AcDbLine
10
-53.3
20
12.49675
30
0
11
-53.426311
21
12.388738
31
0
39
0
210
0
220
0
230
1
0
LINE
5
7C
100
AcDbEntity
8
SK1
62
256
6
ByLayer
370
18
48
1
60
0
100
AcDbLine
10
-53.426311
20
-12.388738
30
0
11
-53.3
21
-12.49675
31
0
39
0
210
0
220
0
230
1
0
LINE
5
7D
100
AcDbEntity
8
SK1
62
256
6
ByLayer
370
18
48
1
60
0
100
AcDbLine
10
-1.6
20
-12.49675
30
0
11
-1.144243
21
-12.284227
31
0
39
0
210
0
220
0
230
1
0
LINE
5
7E
100
AcDbEntity
8
SK1
62
256
6
ByLayer
370
18
48
1
60
0
100
AcDbLine
10
-1.144243
20
12.284227
30
0
11
-1.6
21
12.49675
31
0
39
0
210
0
220
0
230
1
0
LINE
5
7F
100
AcDbEntity
8
SK1
62
256
6
ByLayer
370
18
48
1
60
0
100
AcDbLine
10
-54.6
20
12.49675
30
0
11
-55
21
12.49675
31
0
39
0
210
0
220
0
230
1
0
LINE
5
80
100
AcDbEntity
8
SK1
62
256
6
ByLayer
370
18
48
1
60
0
100
AcDbLine
10
-55
20
-12.49675
30
0
11
-54.6
21
-12.49675
31
0
39
0
210
0
220
0
230
1
0
LINE
5
81
100
AcDbEntity
8
SK1
62
256
6
ByLayer
370
18
48
1
60
0
100
AcDbLine
10
-54.6
20
-12.49675
30
0
11
-54.449692
21
-12.375033
31
0
39
0
210
0
220
0
230
1
0
LINE
5
82
100
AcDbEntity
8
SK1
62
256
6
ByLayer
370
18
48
1
60
0
100
AcDbLine
10
-54.449692
20
12.375033
30
0
11
-54.6
21
12.49675
31
0
39
0
210
0
220
0
230
1
0
LINE
5
83
100
AcDbEntity
8
SK1
62
256
6
ByLayer
370
18
48
1
60
0
100
AcDbLine
10
-0.975195
20
-12.24675
30
0
11
-0.15
21
-12.24675
31
0
39
0
210
0
220
0
230
1
0
LINE
5
84
100
AcDbEntity
8
SK1
62
256
6
ByLayer
370
18
48
1
60
0
100
AcDbLine
10
-0.15
20
12.24675
30
0
11
-0.975195
21
12.24675
31
0
39
0
210
0
220
0
230
1
0
LINE
5
85
100
AcDbEntity
8
1
62
256
6
ByLayer
370
18
48
1
60
0
100
AcDbLine
10
24.3
20
11.25
30
0
11
22
21
11.05
31
0
39
0
210
0
220
0
230
1
0
LINE
5
86
100
AcDbEntity
8
1
62
256
6
ByLayer
370
18
48
1
60
0
100
AcDbLine
10
22
20
-11.05
30
0
11
24.3
21
-11.25
31
0
39
0
210
0
220
0
230
1
0
LINE
5
87
100
AcDbEntity
8
1
62
256
6
ByLayer
370
18
48
1
60
0
100
AcDbLine
10
91.845587
20
-11.25825
30
0
11
97.049959
21
-11.25825
31
0
39
0
210
0
220
0
230
1
0
LINE
5
88
100
AcDbEntity
8
1
62
256
6
ByLayer
370
18
48
1
60
0
100
AcDbLine
10
27.3
20
11.25
30
0
11
24.3
21
11.25
31
0
39
0
210
0
220
0
230
1
0
LINE
5
89
100
AcDbEntity
8
1
62
256
6
ByLayer
370
18
48
1
60
0
100
AcDbLine
10
24.3
20
-11.25
30
0
11
27.3
21
-11.25
31
0
39
0
210
0
220
0
230
1
0
LINE
5
8A
100
AcDbEntity
8
1
62
256
6
ByLayer
370
18
48
1
60
0
100
AcDbLine
10
91.807553
20
11.488173
30
0
11
89.577897
21
11.480369
31
0
39
0
210
0
220
0
230
1
0
LINE
5
8B
100
AcDbEntity
8
1
62
256
6
ByLayer
370
18
48
1
60
0
100
AcDbLine
10
89.577897
20
-11.480369
30
0
11
91.807553
21
-11.488173
31
0
39
0
210
0
220
0
230
1
0
LINE
5
8C
100
AcDbEntity
8
1
62
256
6
ByLayer
370
18
48
1
60
0
100
AcDbLine
10
18.959899
20
11.650149
30
0
11
18.867401
21
11.688151
31
0
39
0
210
0
220
0
230
1
0
LINE
5
8D
100
AcDbEntity
8
1
62
256
6
ByLayer
370
18
48
1
60
0
100
AcDbLine
10
18.867401
20
-11.688151
30
0
11
18.959899
21
-11.650149
31
0
39
0
210
0
220
0
230
1
0
LINE
5
8E
100
AcDbEntity
8
80
62
256
6
ByLayer
370
18
48
1
60
0
100
AcDbLine
10
0
20
0
30
0
11
-5
21
0
31
0
39
0
210
0
220
0
230
1
0
LINE
5
8F
100
AcDbEntity
8
4
62
256
6
ByLayer
370
18
48
0.05
60
0
100
AcDbLine
10
86.5
20
0
30
0
11
0
21
0
31
0
39
0
210
0
220
0
230
1
0
LINE
5
91
100
AcDbEntity
8
SK4
62
256
6
ByLayer
370
18
48
0.05
60
0
100
AcDbLine
10
106
20
0
30
0
11
-61
21
0
31
0
39
0
210
0
220
0
230
1
0
LINE
5
93
100
AcDbEntity
8
SK1
62
256
6
ByLayer
370
18
48
1
60
0
100
AcDbLine
10
-54.6
20
-12.49675
30
0
11
-54.6
21
12.49675
31
0
39
0
210
0
220
0
230
1
0
LINE
5
94
100
AcDbEntity
8
SK1
62
256
6
ByLayer
370
18
48
1
60
0
100
AcDbLine
10
-55
20
0
30
0
11
-55
21
-12.49675
31
0
39
0
210
0
220
0
230
1
0
LINE
5
95
100
AcDbEntity
8
SK1
62
256
6
ByLayer
370
18
48
1
60
0
100
AcDbLine
10
-55
20
12.49675
30
0
11
-55
21
0
31
0
39
0
210
0
220
0
230
1
0
LINE
5
96
100
AcDbEntity
8
SK1
62
256
6
ByLayer
370
13
48
1
60
0
100
AcDbLine
10
-0.15
20
0
30
0
11
-0.15
21
-12.24675
31
0
39
0
210
0
220
0
230
1
0
LINE
5
97
100
AcDbEntity
8
SK1
62
256
6
ByLayer
370
13
48
1
60
0
100
AcDbLine
10
-0.15
20
12.24675
30
0
11
-0.15
21
0
31
0
39
0
210
0
220
0
230
1
0
LINE
5
98
100
AcDbEntity
8
SK1
62
256
6
ByLayer
370
13
48
1
60
0
100
AcDbLine
10
-0.975195
20
12.24675
30
0
11
-0.975195
21
-12.24675
31
0
39
0
210
0
220
0
230
1
0
LINE
5
99
100
AcDbEntity
8
SK1
62
256
6
ByLayer
370
18
48
1
60
0
100
AcDbLine
10
-53.3
20
0
30
0
11
-53.3
21
-12.49675
31
0
39
0
210
0
220
0
230
1
0
LINE
5
9A
100
AcDbEntity
8
SK1
62
256
6
ByLayer
370
18
48
1
60
0
100
AcDbLine
10
-53.3
20
12.49675
30
0
11
-53.3
21
0
31
0
39
0
210
0
220
0
230
1
0
LINE
5
9B
100
AcDbEntity
8
SK1
62
256
6
ByLayer
370
18
48
1
60
0
100
AcDbLine
10
-49.5
20
-6.998498
30
0
11
-6.5
21
-6.998498
31
0
39
0
210
0
220
0
230
1
0
LINE
5
9C
100
AcDbEntity
8
SK1
62
256
6
ByLayer
370
18
48
1
60
0
100
AcDbLine
10
-56
20
0
30
0
11
-56
21
-11.49675
31
0
39
0
210
0
220
0
230
1
0
LINE
5
9D
100
AcDbEntity
8
SK1
62
256
6
ByLayer
370
18
48
1
60
0
100
AcDbLine
10
-56
20
11.49675
30
0
11
-56
21
0
31
0
39
0
210
0
220
0
230
1
0
LINE
5
9E
100
AcDbEntity
8
SK1
62
256
6
ByLayer
370
13
48
1
60
0
100
AcDbLine
10
-6.5
20
-6.998498
30
0
11
-6.5
21
6.998498
31
0
39
0
210
0
220
0
230
1
0
LINE
5
9F
100
AcDbEntity
8
SK1
62
256
6
ByLayer
370
13
48
1
60
0
100
AcDbLine
10
-53.426311
20
-12.388738
30
0
11
-53.426311
21
0
31
0
39
0
210
0
220
0
230
1
0
LINE
5
A0
100
AcDbEntity
8
SK1
62
256
6
ByLayer
370
13
48
1
60
0
100
AcDbLine
10
-53.426311
20
0
30
0
11
-53.426311
21
12.388738
31
0
39
0
210
0
220
0
230
1
0
LINE
5
A1
100
AcDbEntity
8
SK1
62
256
6
ByLayer
370
18
48
1
60
0
100
AcDbLine
10
-6.5
20
6.998498
30
0
11
-49.5
21
6.998498
31
0
39
0
210
0
220
0
230
1
0
LINE
5
A2
100
AcDbEntity
8
SK1
62
256
6
ByLayer
370
18
48
1
60
0
100
AcDbLine
10
-1.6
20
-12.49675
30
0
11
-1.6
21
0
31
0
39
0
210
0
220
0
230
1
0
LINE
5
A3
100
AcDbEntity
8
SK1
62
256
6
ByLayer
370
18
48
1
60
0
100
AcDbLine
10
-1.6
20
0
30
0
11
-1.6
21
12.49675
31
0
39
0
210
0
220
0
230
1
0
LINE
5
A4
100
AcDbEntity
8
SK1
62
256
6
ByLayer
370
13
48
1
60
0
100
AcDbLine
10
-49.5
20
6.998498
30
0
11
-49.5
21
-6.998498
31
0
39
0
210
0
220
0
230
1
0
LINE
5
A5
100
AcDbEntity
8
SK1
62
256
6
ByLayer
370
13
48
1
60
0
100
AcDbLine
10
-54.449692
20
-12.375033
30
0
11
-54.449692
21
0
31
0
39
0
210
0
220
0
230
1
0
LINE
5
A6
100
AcDbEntity
8
SK1
62
256
6
ByLayer
370
13
48
1
60
0
100
AcDbLine
10
-54.449692
20
0
30
0
11
-54.449692
21
12.375033
31
0
39
0
210
0
220
0
230
1
0
LINE
5
A7
100
AcDbEntity
8
SK1
62
256
6
ByLayer
370
13
48
1
60
0
100
AcDbLine
10
-1.144243
20
0
30
0
11
-1.144243
21
-12.284227
31
0
39
0
210
0
220
0
230
1
0
LINE
5
A8
100
AcDbEntity
8
SK1
62
256
6
ByLayer
370
13
48
1
60
0
100
AcDbLine
10
-1.144243
20
12.284227
30
0
11
-1.144243
21
0
31
0
39
0
210
0
220
0
230
1
0
LINE
5
A9
100
AcDbEntity
8
1
62
256
6
ByLayer
370
18
48
1
60
0
100
AcDbLine
10
100.913973
20
-0.355205
30
0
11
100.747306
21
-1.076419
31
0
39
0
210
0
220
0
230
1
0
LINE
5
AA
100
AcDbEntity
8
1
62
256
6
ByLayer
370
18
48
1
60
0
100
AcDbLine
10
22
20
5.75301
30
0
11
22
21
11.05
31
0
39
0
210
0
220
0
230
1
0
LINE
5
AB
100
AcDbEntity
8
1
62
256
6
ByLayer
370
18
48
1
60
0
100
AcDbLine
10
95.365684
20
-3.6198
30
0
11
94.063358
21
1.680998
31
0
39
0
210
0
220
0
230
1
0
LINE
5
AC
100
AcDbEntity
8
1
62
256
6
ByLayer
370
18
48
1
60
0
100
AcDbLine
10
86.5
20
-10.728513
30
0
11
86.5
21
-10.761961
31
0
39
0
210
0
220
0
230
1
0
LINE
5
AD
100
AcDbEntity
8
1
62
256
6
ByLayer
370
18
48
1
60
0
100
AcDbLine
10
95.365798
20
-9.959581
30
0
11
95.365798
21
-3.621198
31
0
39
0
210
0
220
0
230
1
0
LINE
5
AE
100
AcDbEntity
8
1
62
256
6
ByLayer
370
18
48
1
60
0
100
AcDbLine
10
24.3
20
-9.676986
30
0
11
24.3
21
-11.25
31
0
39
0
210
0
220
0
230
1
0
LINE
5
AF
100
AcDbEntity
8
1
62
256
6
ByLayer
370
18
48
1
60
0
100
AcDbLine
10
87.601512
20
-10.511094
30
0
11
95.699638
21
-10.511094
31
0
39
0
210
0
220
0
230
1
0
LINE
5
B0
100
AcDbEntity
8
1
62
256
6
ByLayer
370
18
48
1
60
0
100
AcDbLine
10
77.5
20
-4.677284
30
0
11
77.5
21
5.740034
31
0
39
0
210
0
220
0
230
1
0
LINE
5
B1
100
AcDbEntity
8
1
62
256
6
ByLayer
370
18
48
1
60
0
100
AcDbLine
10
94.798124
20
-10.457033
30
0
11
94.805736
21
-10.453708
31
0
39
0
210
0
220
0
230
1
0
LINE
5
B2
100
AcDbEntity
8
1
62
256
6
ByLayer
370
13
48
1
60
0
100
AcDbLine
10
6.9513
20
0
30
0
11
6.9513
21
-16
31
0
39
0
210
0
220
0
230
1
0
LINE
5
B3
100
AcDbEntity
8
1
62
256
6
ByLayer
370
13
48
1
60
0
100
AcDbLine
10
6.9513
20
16
30
0
11
6.9513
21
0
31
0
39
0
210
0
220
0
230
1
0
LINE
5
B4
100
AcDbEntity
8
1
62
256
6
ByLayer
370
18
48
1
60
0
100
AcDbLine
10
86.5
20
-10.823509
30
0
11
86.5
21
-10.81418
31
0
39
0
210
0
220
0
230
1
0
LINE
5
B5
100
AcDbEntity
8
1
62
256
6
ByLayer
370
18
48
1
60
0
100
AcDbLine
10
97.530171
20
-5.301253
30
0
11
97.502292
21
-5.226783
31
0
39
0
210
0
220
0
230
1
0
LINE
5
B6
100
AcDbEntity
8
1
62
256
6
ByLayer
370
18
48
1
60
0
100
AcDbLine
10
22
20
-11.05
30
0
11
22
21
-9.024219
31
0
39
0
210
0
220
0
230
1
0
LINE
5
B7
100
AcDbEntity
8
1
62
256
6
ByLayer
370
18
48
1
60
0
100
AcDbLine
10
87.601512
20
-10.511094
30
0
11
87.601512
21
-10.448172
31
0
39
0
210
0
220
0
230
1
0
LINE
5
B8
100
AcDbEntity
8
1
62
256
6
ByLayer
370
18
48
1
60
0
100
AcDbLine
10
87.601512
20
2.50878
30
0
11
87.601512
21
2.649225
31
0
39
0
210
0
220
0
230
1
0
LINE
5
B9
100
AcDbEntity
8
1
62
256
6
ByLayer
370
18
48
1
60
0
100
AcDbLine
10
99.905356
20
-3.921367
30
0
11
99.767101
21
-4.33374
31
0
39
0
210
0
220
0
230
1
0
LINE
5
BA
100
AcDbEntity
8
1
62
256
6
ByLayer
370
13
48
1
60
0
100
AcDbLine
10
100.913973
20
0.355205
30
0
11
99.785032
21
1.144267
31
0
39
0
210
0
220
0
230
1
0
LINE
5
BB
100
AcDbEntity
8
1
62
256
6
ByLayer
370
18
48
1
60
0
100
AcDbLine
10
99.905356
20
3.921367
30
0
11
99.767101
21
4.33374
31
0
39
0
210
0
220
0
230
1
0
LINE
5
BC
100
AcDbEntity
8
1
62
256
6
ByLayer
370
18
48
1
60
0
100
AcDbLine
10
100.718758
20
-0.83179
30
0
11
101.005308
21
0.000285
31
0
39
0
210
0
220
0
230
1
0
LINE
5
BD
100
AcDbEntity
8
1
62
256
6
ByLayer
370
18
48
1
60
0
100
AcDbLine
10
101.005308
20
0.000285
30
0
11
101.005308
21
-0.000285
31
0
39
0
210
0
220
0
230
1
0
LINE
5
BE
100
AcDbEntity
8
1
62
256
6
ByLayer
370
18
48
1
60
0
100
AcDbLine
10
0
20
15.8
30
0
11
0
21
-15.8
31
0
39
0
210
0
220
0
230
1
0
LINE
5
BF
100
AcDbEntity
8
1
62
256
6
ByLayer
370
18
48
1
60
0
100
AcDbLine
10
94.542751
20
-9.136533
30
0
11
95.365798
21
-9.959581
31
0
39
0
210
0
220
0
230
1
0
LINE
5
C0
100
AcDbEntity
8
1
62
256
6
ByLayer
370
18
48
1
60
0
100
AcDbLine
10
95.362286
20
-9.966083
30
0
11
95.365798
21
-9.959581
31
0
39
0
210
0
220
0
230
1
0
LINE
5
C1
100
AcDbEntity
8
1
62
256
6
ByLayer
370
18
48
1
60
0
100
AcDbLine
10
27.3
20
11.25
30
0
11
27.3
21
9.170594
31
0
39
0
210
0
220
0
230
1
0
LINE
5
C2
100
AcDbEntity
8
1
62
256
6
ByLayer
370
18
48
1
60
0
100
AcDbLine
10
95.699638
20
-10.511094
30
0
11
97.530171
21
-5.301253
31
0
39
0
210
0
220
0
230
1
0
LINE
5
C3
100
AcDbEntity
8
1
62
256
6
ByLayer
370
18
48
1
60
0
100
AcDbLine
10
93.032914
20
-3.6198
30
0
11
95.365684
21
-3.6198
31
0
39
0
210
0
220
0
230
1
0
LINE
5
C4
100
AcDbEntity
8
1
62
256
6
ByLayer
370
18
48
1
60
0
100
AcDbLine
10
24.3
20
11.25
30
0
11
24.3
21
5.795174
31
0
39
0
210
0
220
0
230
1
0
LINE
5
C5
100
AcDbEntity
8
1
62
256
6
ByLayer
370
13
48
1
60
0
100
AcDbLine
10
18.867401
20
-11.688151
30
0
11
18.867401
21
-8.921651
31
0
39
0
210
0
220
0
230
1
0
LINE
5
C6
100
AcDbEntity
8
1
62
256
6
ByLayer
370
18
48
1
60
0
100
AcDbLine
10
97.128677
20
-11.256555
30
0
11
100.575947
21
-1.246481
31
0
39
0
210
0
220
0
230
1
0
LINE
5
C7
100
AcDbEntity
8
1
62
256
6
ByLayer
370
13
48
1
60
0
100
AcDbLine
10
86.3
20
3.35
30
0
11
86.505013
21
3.35
31
0
39
0
210
0
220
0
230
1
0
LINE
5
C8
100
AcDbEntity
8
1
62
256
6
ByLayer
370
13
48
1
60
0
100
AcDbLine
10
87.559619
20
2.667933
30
0
11
87.559619
21
2.523009
31
0
39
0
210
0
220
0
230
1
0
LINE
5
C9
100
AcDbEntity
8
1
62
256
6
ByLayer
370
13
48
1
60
0
100
AcDbLine
10
87.559619
20
-10.446372
30
0
11
87.559619
21
-10.52574
31
0
39
0
210
0
220
0
230
1
0
LINE
5
CA
100
AcDbEntity
8
1
62
256
6
ByLayer
370
13
48
1
60
0
100
AcDbLine
10
18.959899
20
-11.650149
30
0
11
18.959899
21
-8.935046
31
0
39
0
210
0
220
0
230
1
0
LINE
5
CB
100
AcDbEntity
8
1
62
256
6
ByLayer
370
13
48
1
60
0
100
AcDbLine
10
97.781316
20
3.952419
30
0
11
97.76795
21
4.013013
31
0
39
0
210
0
220
0
230
1
0
LINE
5
CC
100
AcDbEntity
8
1
62
256
6
ByLayer
370
18
48
1
60
0
100
AcDbLine
10
86.5
20
2.95
30
0
11
86.5
21
3.198342
31
0
39
0
210
0
220
0
230
1
0
LINE
5
CD
100
AcDbEntity
8
1
62
256
6
ByLayer
370
13
48
1
60
0
100
AcDbLine
10
73.774234
20
-6.887026
30
0
11
73.774234
21
-7.148112
31
0
39
0
210
0
220
0
230
1
0
LINE
5
CE
100
AcDbEntity
8
1
62
256
6
ByLayer
370
18
48
1
60
0
100
AcDbLine
10
86.5
20
-11.118204
30
0
11
86.5
21
-10.823509
31
0
39
0
210
0
220
0
230
1
0
LINE
5
CF
100
AcDbEntity
8
1
62
256
6
ByLayer
370
18
48
1
60
0
100
AcDbLine
10
86.405
20
-11.104075
30
0
11
86.405
21
-10.819881
31
0
39
0
210
0
220
0
230
1
0
LINE
5
D0
100
AcDbEntity
8
1
62
256
6
ByLayer
370
18
48
1
60
0
100
AcDbLine
10
27.3
20
-10.163667
30
0
11
27.3
21
-11.25
31
0
39
0
210
0
220
0
230
1
0
LINE
5
D1
100
AcDbEntity
8
1
62
256
6
ByLayer
370
13
48
1
60
0
100
AcDbLine
10
99.739792
20
1.105843
30
0
11
100.937051
21
0.269031
31
0
39
0
210
0
220
0
230
1
0
LINE
5
D2
100
AcDbEntity
8
1
62
256
6
ByLayer
370
13
48
1
60
0
100
AcDbLine
10
18.867401
20
11.688151
30
0
11
18.867401
21
5.77787
31
0
39
0
210
0
220
0
230
1
0
LINE
5
D3
100
AcDbEntity
8
1
62
256
6
ByLayer
370
18
48
1
60
0
100
AcDbLine
10
0.2
20
0
30
0
11
0.2
21
-16
31
0
39
0
210
0
220
0
230
1
0
LINE
5
D4
100
AcDbEntity
8
1
62
256
6
ByLayer
370
18
48
1
60
0
100
AcDbLine
10
0.2
20
16
30
0
11
0.2
21
0
31
0
39
0
210
0
220
0
230
1
0
LINE
5
D5
100
AcDbEntity
8
1
62
256
6
ByLayer
370
13
48
1
60
0
100
AcDbLine
10
18.959899
20
11.650149
30
0
11
18.959899
21
5.774108
31
0
39
0
210
0
220
0
230
1
0
LINE
5
D6
100
AcDbEntity
8
1
62
256
6
ByLayer
370
18
48
1
60
0
100
AcDbLine
10
95.365798
20
-3.621198
30
0
11
95.365684
21
-3.6198
31
0
39
0
210
0
220
0
230
1
0
LINE
5
D7
100
AcDbEntity
8
1
62
256
6
ByLayer
370
18
48
1
60
0
100
AcDbLine
10
87.233141
20
-11.420214
30
0
11
87.233141
21
-11.274086
31
0
39
0
210
0
220
0
230
1
0
LINE
5
D8
100
AcDbEntity
8
1
62
256
6
ByLayer
370
18
48
1
60
0
100
AcDbLine
10
97.530171
20
-5.301253
30
0
11
99.456006
21
-3.186635
31
0
39
0
210
0
220
0
230
1
0
LINE
5
D9
100
AcDbEntity
8
1
62
256
6
ByLayer
370
18
48
1
60
0
100
AcDbLine
10
101.005308
20
-0.000285
30
0
11
100.972569
21
-0.147836
31
0
39
0
210
0
220
0
230
1
0
LINE
5
DA
100
AcDbEntity
8
1
62
256
6
ByLayer
370
18
48
1
60
0
100
AcDbLine
10
86.5
20
-10.81418
30
0
11
86.5
21
-10.761961
31
0
39
0
210
0
220
0
230
1
0
LINE
5
DB
100
AcDbEntity
8
1
62
256
6
ByLayer
370
13
48
1
60
0
100
AcDbLine
10
86.5
20
-10.823509
30
0
11
86.645422
21
-10.874634
31
0
39
0
210
0
220
0
230
1
0
LINE
5
DC
100
AcDbEntity
8
1
62
256
6
ByLayer
370
18
48
1
60
0
100
AcDbLine
10
100.913973
20
0.355205
30
0
11
100.747306
21
1.076419
31
0
39
0
210
0
220
0
230
1
0
LINE
5
DD
100
AcDbEntity
8
1
62
256
6
ByLayer
370
18
48
1
60
0
100
AcDbLine
10
94.805736
20
-10.453708
30
0
11
95.362286
21
-9.966083
31
0
39
0
210
0
220
0
230
1
0
LINE
5
DE
100
AcDbEntity
8
1
62
256
6
ByLayer
370
18
48
1
60
0
100
AcDbLine
10
87.779227
20
-10.457033
30
0
11
94.798124
21
-10.457033
31
0
39
0
210
0
220
0
230
1
0
LINE
5
DF
100
AcDbEntity
8
1
62
256
6
ByLayer
370
18
48
1
60
0
100
AcDbLine
10
100.972569
20
0.147836
30
0
11
101.005308
21
0.000285
31
0
39
0
210
0
220
0
230
1
0
LINE
5
E0
100
AcDbEntity
8
1
62
256
6
ByLayer
370
18
48
1
60
0
100
AcDbLine
10
86.645422
20
-11.007466
30
0
11
86.645422
21
-10.874634
31
0
39
0
210
0
220
0
230
1
0
MTEXT
5
188
100
AcDbEntity
8
SK6
62
256
6
ByLayer
370
13
48
1
60
0
100
AcDbMText
10
2.97627
20
33.875134
30
0
210
0
220
0
230
1
1
\W0.7373;870-2300-23L25-3
40
3.5
41
0
44
1.084337
50
0
71
7
72
5
7
iso_b_vert
0
DIMENSION
5
196
100
AcDbEntity
8
2
62
256
6
ByLayer
370
13
48
1
60
0
100
AcDbDimension
2
DimnDraft3D1
10
22
20
-24.5
30
0
11
61.5
21
-24.5
31
0
70
32
71
5
72
1
41
1
210
0
220
0
230
1
3
Standard
100
AcDbAlignedDimension
13
101
23
-1.5875
33
0
14
22
24
-13.0875
34
0
50
0
100
AcDbRotatedDimension
1001
ACAD
1000
DSTYLE
1002
{
1070
   279
1070
     0
1070
   172
1070
     1
1070
   173
1070
     1
1070
   340
1005
189
1070
   271
1070
     1
1070
   272
1070
     2
1070
    77
1070
     1
1070
    73
1070
     0
1070
   171
1070
     3
1070
   274
1070
     4
1070
   177
1070
     7
1070
   176
1070
     7
1070
   178
1070
     7
1070
    48
1040
-0.005
1070
    41
1041
3.5
1070
   147
1041
1.5
1070
    42
1041
1.5875
1070
    44
1041
2.0
1070
   140
1041
3.0
1070
   343
1005
0
1070
   344
1005
0
1002
}
0
DIMENSION
5
1A0
100
AcDbEntity
8
2
62
256
6
ByLayer
370
13
48
1
60
0
100
AcDbDimension
2
DimnDraft3D2
10
24.8
20
18.5
30
0
11
62.9
21
18.5
31
0
70
32
71
5
72
1
41
1
210
0
220
0
230
1
3
Standard
100
AcDbAlignedDimension
13
101
23
1.5875
33
0
14
24.8
24
13.0875
34
0
50
0
100
AcDbRotatedDimension
1001
ACAD
1000
DSTYLE
1002
{
1070
   279
1070
     0
1070
   172
1070
     1
1070
   173
1070
     1
1070
   340
1005
189
1070
   271
1070
     1
1070
   272
1070
     2
1070
    77
1070
     1
1070
    73
1070
     0
1070
   171
1070
     3
1070
   274
1070
     4
1070
   177
1070
     7
1070
   176
1070
     7
1070
   178
1070
     7
1070
    48
1040
-0.005
1070
    41
1041
3.5
1070
   147
1041
1.5
1070
    42
1041
1.5875
1070
    44
1041
2.0
1070
   140
1041
3.0
1070
   343
1005
0
1070
   344
1005
0
1002
}
0
DIMENSION
5
1AB
100
AcDbEntity
8
SK2
62
256
6
ByLayer
370
13
48
1
60
0
100
AcDbDimension
2
DimnDraft3D3
10
0
20
-35.5
30
0
11
-28
21
-35.5
31
0
70
32
71
5
72
1
41
1
210
0
220
0
230
1
3
Standard
100
AcDbAlignedDimension
13
-56
23
-14.0875
33
0
14
0
24
-17.5875
34
0
50
0
100
AcDbRotatedDimension
1001
ACAD
1000
DSTYLE
1002
{
1070
   279
1070
     0
1070
   172
1070
     1
1070
   173
1070
     1
1070
   340
1005
189
1070
   271
1070
     1
1070
   272
1070
     2
1070
    77
1070
     1
1070
    73
1070
     0
1070
   171
1070
     3
1070
   274
1070
     4
1070
   177
1070
     7
1070
   176
1070
     7
1070
   178
1070
     7
1070
    48
1040
-0.005
1070
    41
1041
3.5
1070
   147
1041
1.5
1070
    42
1041
1.5875
1070
    44
1041
2.0
1070
   140
1041
3.0
1070
   343
1005
0
1070
   344
1005
0
1002
}
0
DIMENSION
5
1B5
100
AcDbEntity
8
2
62
256
6
ByLayer
370
13
48
1
60
0
100
AcDbDimension
2
DimnDraft3D4
10
101
20
-35.5
30
0
11
50.5
21
-35.5
31
0
70
32
71
5
72
1
41
1
210
0
220
0
230
1
3
Standard
100
AcDbAlignedDimension
13
0
23
-17.5875
33
0
14
101
24
-1.5875
34
0
50
0
100
AcDbRotatedDimension
1001
ACAD
1000
DSTYLE
1002
{
1070
   279
1070
     0
1070
   172
1070
     1
1070
   173
1070
     1
1070
   340
1005
189
1070
   271
1070
     1
1070
   272
1070
     2
1070
    77
1070
     1
1070
    73
1070
     0
1070
   171
1070
     3
1070
   274
1070
     4
1070
   177
1070
     7
1070
   176
1070
     7
1070
   178
1070
     7
1070
    48
1040
-0.005
1070
    41
1041
3.5
1070
   147
1041
1.5
1070
    42
1041
1.5875
1070
    44
1041
2.0
1070
   140
1041
3.0
1070
   343
1005
0
1070
   344
1005
0
1002
}
0
DIMENSION
5
1C0
100
AcDbEntity
8
SK2
62
256
6
ByLayer
370
13
48
1
60
0
100
AcDbDimension
2
DimnDraft3D5
10
-64.25
20
-12.5
30
0
11
-64.5
21
-0.520456
31
0
70
33
71
5
72
1
41
1
210
0
220
0
230
1
3
Standard
100
AcDbAlignedDimension
13
-57.5875
23
12.5
33
0
14
-57.5875
24
-12.5
34
0
1001
ACAD
1000
DSTYLE
1002
{
1070
   279
1070
     0
1070
    74
1070
     0
1070
   173
1070
     1
1070
   340
1005
189
1070
   271
1070
     1
1070
   272
1070
     2
1070
    77
1070
     1
1070
    73
1070
     0
1070
   171
1070
     3
1070
   274
1070
     4
1070
   177
1070
     7
1070
   176
1070
     7
1070
   178
1070
     7
1070
    48
1040
-0.005
1070
    41
1041
3.5
1070
   147
1041
1.5
1070
    42
1041
1.5875
1070
    44
1041
2.0
1070
   140
1041
3.0
1070
   343
1005
0
1070
   344
1005
0
1002
}
0
ENDSEC
0
SECTION
2
OBJECTS
0
DICTIONARY
5
22b
330
0
100
AcDbDictionary
280
0
281
1
3
ACAD_GROUP
350
22c
3
ACAD_MLINESTYLE
350
22d
0
DICTIONARY
5
22c
330
0
100
AcDbDictionary
280
0
281
1
0
DICTIONARY
5
22d
330
0
100
AcDbDictionary
280
0
281
1
3
Standard
350
18
0
MLINESTYLE
5
18
330
22d
100
AcDbMlineStyle
2
Standard
70
0
3

62
256
51
90
52
90
71
2
49
-0.5
62
256
6
ByLayer
49
0.5
62
256
6
ByLayer
0
RASTERVARIABLES
5
219
330

100
AcDbRasterVariables
90
0
70
1
71
1
72
1
0
ENDSEC
0
EOF
