0
SECTION
2
HEADER
9
$ACADVER
1
AC1015
9
$DWGCODEPAGE
3
ANSI_1252
9
$HANDSEED
5
23f
9
$ANGBASE
50
0
9
$ANGDIR
70
0
9
$ATTMODE
70
1
9
$AUNITS
70
0
9
$AUPREC
70
0
9
$CECOLOR
62
256
9
$CELTSCALE
40
1
9
$CELTYPE
6
ByLayer
9
$CELWEIGHT
370
18
9
$CLAYER
8
0
9
$CMLJUST
70
0
9
$CMLSCALE
40
1
9
$CMLSTYLE
2
Standard
9
$DIMSTYLE
2
Standard
9
$TEXTSIZE
40
0.2
9
$TEXTSTYLE
7
Standard
9
$LUNITS
70
2
9
$LUPREC
70
4
9
$EXTNAMES
290
1
9
$INSUNITS
70
4
9
$LTSCALE
40
1
9
$LWDISPLAY
290
1
9
$PDMODE
70
0
9
$PDSIZE
40
0
9
$PLINEGEN
70
0
0
ENDSEC
0
SECTION
2
CLASSES
0
CLASS
1
RASTERVARIABLES
2
AcDbRasterVariables
3
ISM
90
0
280
0
281
0
0
ENDSEC
0
SECTION
2
TABLES
0
TABLE
2
VPORT
5
235
100
AcDbSymbolTable
0
VPORT
5
1
100
AcDbSymbolTableRecord
100
AcDbViewportTableRecord
2
*Active
70
0
10
0
20
0
11
1
21
1
12
-1
22
1
13
0
23
0
14
0.5
24
0.5
15
10
25
10
16
0
26
0
36
1
17
0
27
0
37
0
0
ENDTAB
0
TABLE
2
LTYPE
5
236
100
AcDbSymbolTable
0
LTYPE
5
14
100
AcDbSymbolTableRecord
100
AcDbLinetypeTableRecord
70
0
2
ByBlock
3

72
65
73
0
40
0
0
LTYPE
5
15
100
AcDbSymbolTableRecord
100
AcDbLinetypeTableRecord
70
0
2
ByLayer
3

72
65
73
0
40
0
0
LTYPE
5
16
100
AcDbSymbolTableRecord
100
AcDbLinetypeTableRecord
70
0
2
CONTINUOUS
3
Solid line
72
65
73
0
40
0
0
LTYPE
5
6A
100
AcDbSymbolTableRecord
100
AcDbLinetypeTableRecord
70
0
2
CENTER
3
____ _ ____ _ ____ _ ____
72
65
73
4
40
47.5
49
22
74
0
49
-8.5
74
0
49
8.5
74
0
49
-8.5
74
0
0
LTYPE
5
6B
100
AcDbSymbolTableRecord
100
AcDbLinetypeTableRecord
70
0
2
DASHED
3
__ __ __ __ __ __ __ __ __
72
65
73
2
40
25.72
49
12.86
74
0
49
-12.86
74
0
0
ENDTAB
0
TABLE
2
LAYER
5
237
100
AcDbSymbolTable
0
LAYER
5
10
100
AcDbSymbolTableRecord
100
AcDbLayerTableRecord
2
0
70
0
62
7
6
CONTINUOUS
290
1
370
-3
390
0
0
LAYER
5
6D
100
AcDbSymbolTableRecord
100
AcDbLayerTableRecord
2
80
70
0
62
-6
6
CONTINUOUS
290
1
370
-3
390
0
0
LAYER
5
6F
100
AcDbSymbolTableRecord
100
AcDbLayerTableRecord
2
81
70
0
62
-3
6
CONTINUOUS
290
1
370
-3
390
0
0
LAYER
5
72
100
AcDbSymbolTableRecord
100
AcDbLayerTableRecord
2
1
70
0
62
4
6
CONTINUOUS
290
1
370
-3
390
0
0
LAYER
5
8F
100
AcDbSymbolTableRecord
100
AcDbLayerTableRecord
2
4
70
0
62
-2
6
CENTER
290
1
370
-3
390
0
0
LAYER
5
195
100
AcDbSymbolTableRecord
100
AcDbLayerTableRecord
2
2
70
0
62
7
6
CONTINUOUS
290
1
370
-3
390
0
0
LAYER
5
221
100
AcDbSymbolTableRecord
100
AcDbLayerTableRecord
2
SK1
70
0
62
4
6
CONTINUOUS
290
1
370
-3
390
0
0
LAYER
5
222
100
AcDbSymbolTableRecord
100
AcDbLayerTableRecord
2
SK4
70
0
62
2
6
CENTER
290
1
370
-3
390
0
0
LAYER
5
223
100
AcDbSymbolTableRecord
100
AcDbLayerTableRecord
2
SK6
70
0
62
5
6
CONTINUOUS
290
1
370
-3
390
0
0
LAYER
5
224
100
AcDbSymbolTableRecord
100
AcDbLayerTableRecord
2
SK2
70
0
62
7
6
CONTINUOUS
290
1
370
-3
390
0
0
ENDTAB
0
TABLE
2
STYLE
5
238
100
AcDbSymbolTable
0
STYLE
5
11
100
AcDbSymbolTableRecord
100
AcDbTextStyleTableRecord
2
Standard
3
txt
70
0
71
0
40
0
41
1
42
0
50
0
0
STYLE
5
190
100
AcDbSymbolTableRecord
100
AcDbTextStyleTableRecord
2
iso_b_vert
3
simplex.shx
70
0
71
0
40
0
41
1
42
0
50
0
0
STYLE
5
191
100
AcDbSymbolTableRecord
100
AcDbTextStyleTableRecord
2
DWGDirectTextStyle
3
simplex
70
0
71
0
40
0
41
1
42
0
50
0
0
ENDTAB
0
TABLE
2
DIMSTYLE
5
239
100
AcDbSymbolTable
100
AcDbDimStyleTable
0
DIMSTYLE
105
27
100
AcDbSymbolTableRecord
100
AcDbDimStyleTableRecord
2
Standard
70
0
3
<>
41
0.18
42
0.0625
44
0.18
140
0.18
147
0.09
73
0
74
0
77
1
271
2
275
0
278
52
280
0
340
11
0
ENDTAB
0
TABLE
2
VIEW
5
23a
100
AcDbSymbolTable
0
ENDTAB
0
TABLE
2
UCS
5
23b
100
AcDbSymbolTable
0
ENDTAB
0
TABLE
2
APPID
5
23c
100
AcDbSymbolTable
0
APPID
5
12
100
AcDbSymbolTableRecord
100
AcDbRegAppTableRecord
2
ACAD
70
0
0
ENDTAB
0
TABLE
2
BLOCK_RECORD
5
23d
100
AcDbSymbolTable
0
BLOCK_RECORD
5
1F
100
AcDbSymbolTableRecord
100
AcDbBlockTableRecord
2
*Model_Space
340
0
70
0
0
BLOCK_RECORD
5
1B
100
AcDbSymbolTableRecord
100
AcDbBlockTableRecord
2
*Paper_Space
340
0
70
0
0
BLOCK_RECORD
5
23
100
AcDbSymbolTableRecord
100
AcDbBlockTableRecord
2
*Paper_Space0
340
0
70
0
0
BLOCK_RECORD
5
193
100
AcDbSymbolTableRecord
100
AcDbBlockTableRecord
2
DimnDraft3D1
340
0
70
0
0
BLOCK_RECORD
5
19E
100
AcDbSymbolTableRecord
100
AcDbBlockTableRecord
2
DimnDraft3D2
340
0
70
0
0
BLOCK_RECORD
5
1A8
100
AcDbSymbolTableRecord
100
AcDbBlockTableRecord
2
DimnDraft3D3
340
0
70
0
0
BLOCK_RECORD
5
1B3
100
AcDbSymbolTableRecord
100
AcDbBlockTableRecord
2
DimnDraft3D4
340
0
70
0
0
BLOCK_RECORD
5
1BD
100
AcDbSymbolTableRecord
100
AcDbBlockTableRecord
2
DimnDraft3D5
340
0
70
0
0
ENDTAB
0
ENDSEC
0
SECTION
2
BLOCKS
0
BLOCK
5
20
100
AcDbEntity
8
0
100
AcDbBlockBegin
2
*Model_Space
70
0
10
0
20
0
30
0
3
*Model_Space
0
ENDBLK
5
21
100
AcDbEntity
8
0
100
AcDbBlockEnd
0
BLOCK
5
1C
100
AcDbEntity
8
0
100
AcDbBlockBegin
2
*Paper_Space
70
0
10
0
20
0
30
0
3
*Paper_Space
0
ENDBLK
5
1D
100
AcDbEntity
8
0
100
AcDbBlockEnd
0
BLOCK
5
24
100
AcDbEntity
8
0
100
AcDbBlockBegin
2
*Paper_Space0
70
0
10
0
20
0
30
0
3
*Paper_Space0
0
ENDBLK
5
25
100
AcDbEntity
8
0
100
AcDbBlockEnd
0
BLOCK
5
19B
100
AcDbEntity
8
0
100
AcDbBlockBegin
2
DimnDraft3D1
70
0
10
0
20
0
30
0
3
DimnDraft3D1
0
MTEXT
5
194
100
AcDbEntity
8
2
62
256
6
ByLayer
370
13
48
1
60
0
100
AcDbMText
10
55.729544
20
-19.749886
30
0
210
0
220
0
230
1
1
\W0.7346;85.0
40
3
41
0
44
1.084337
50
0
71
7
72
5
7
iso_b_vert
0
LINE
5
196
100
AcDbEntity
8
2
62
256
6
ByLayer
370
13
48
1
60
0
100
AcDbLine
10
101
20
-1.5875
30
0
11
101
21
-22.5
31
0
39
0
210
0
220
0
230
1
0
LINE
5
197
100
AcDbEntity
8
2
62
256
6
ByLayer
370
13
48
1
60
0
100
AcDbLine
10
16
20
-9.0875
30
0
11
16
21
-22.5
31
0
39
0
210
0
220
0
230
1
0
LINE
5
198
100
AcDbEntity
8
2
62
256
6
ByLayer
370
13
48
1
60
0
100
AcDbLine
10
101
20
-20.5
30
0
11
16
21
-20.5
31
0
39
0
210
0
220
0
230
1
0
SOLID
5
199
100
AcDbEntity
8
2
62
256
6
ByLayer
370
13
48
1
60
0
100
AcDbTrace
10
101
20
-20.5
30
0
11
97.500002
21
-20.960784
31
0
12
97.499998
22
-20.039216
32
0
13
101
23
-20.5
33
0
39
0
210
0
220
0
230
1
0
SOLID
5
19A
100
AcDbEntity
8
2
62
256
6
ByLayer
370
13
48
1
60
0
100
AcDbTrace
10
16
20
-20.5
30
0
11
19.499998
21
-20.039216
31
0
12
19.500002
22
-20.960784
32
0
13
16
23
-20.5
33
0
39
0
210
0
220
0
230
1
0
ENDBLK
5
19C
100
AcDbEntity
8
0
100
AcDbBlockEnd
0
BLOCK
5
1A5
100
AcDbEntity
8
0
100
AcDbBlockBegin
2
DimnDraft3D2
70
0
10
0
20
0
30
0
3
DimnDraft3D2
0
MTEXT
5
19F
100
AcDbEntity
8
2
62
256
6
ByLayer
370
13
48
1
60
0
100
AcDbMText
10
56.860601
20
15.250114
30
0
210
0
220
0
230
1
1
\W0.7528;82.4
40
3
41
0
44
1.084337
50
0
71
7
72
5
7
iso_b_vert
0
LINE
5
1A0
100
AcDbEntity
8
2
62
256
6
ByLayer
370
13
48
1
60
0
100
AcDbLine
10
101
20
1.5875
30
0
11
101
21
16.5
31
0
39
0
210
0
220
0
230
1
0
LINE
5
1A1
100
AcDbEntity
8
2
62
256
6
ByLayer
370
13
48
1
60
0
100
AcDbLine
10
18.578
20
9.0875
30
0
11
18.578
21
16.5
31
0
39
0
210
0
220
0
230
1
0
LINE
5
1A2
100
AcDbEntity
8
2
62
256
6
ByLayer
370
13
48
1
60
0
100
AcDbLine
10
101
20
14.5
30
0
11
18.578
21
14.5
31
0
39
0
210
0
220
0
230
1
0
SOLID
5
1A3
100
AcDbEntity
8
2
62
256
6
ByLayer
370
13
48
1
60
0
100
AcDbTrace
10
101
20
14.5
30
0
11
97.500002
21
14.039216
31
0
12
97.499998
22
14.960784
32
0
13
101
23
14.5
33
0
39
0
210
0
220
0
230
1
0
SOLID
5
1A4
100
AcDbEntity
8
2
62
256
6
ByLayer
370
13
48
1
60
0
100
AcDbTrace
10
18.578
20
14.5
30
0
11
22.077998
21
14.960784
31
0
12
22.078002
22
14.039216
32
0
13
18.578
23
14.5
33
0
39
0
210
0
220
0
230
1
0
ENDBLK
5
1A6
100
AcDbEntity
8
0
100
AcDbBlockEnd
0
BLOCK
5
1B0
100
AcDbEntity
8
0
100
AcDbBlockBegin
2
DimnDraft3D3
70
0
10
0
20
0
30
0
3
DimnDraft3D3
0
MTEXT
5
1A9
100
AcDbEntity
8
SK2
62
256
6
ByLayer
370
13
48
1
60
0
100
AcDbMText
10
-27.770456
20
-32.249886
30
0
210
0
220
0
230
1
1
\W0.7346;50.0
40
3
41
0
44
1.084337
50
0
71
7
72
5
7
iso_b_vert
0
LINE
5
1AB
100
AcDbEntity
8
SK2
62
256
6
ByLayer
370
13
48
1
60
0
100
AcDbLine
10
-50
20
-11.5875
30
0
11
-50
21
-35
31
0
39
0
210
0
220
0
230
1
0
LINE
5
1AC
100
AcDbEntity
8
SK2
62
256
6
ByLayer
370
13
48
1
60
0
100
AcDbLine
10
0
20
-14.0875
30
0
11
0
21
-35
31
0
39
0
210
0
220
0
230
1
0
LINE
5
1AD
100
AcDbEntity
8
SK2
62
256
6
ByLayer
370
13
48
1
60
0
100
AcDbLine
10
-50
20
-33
30
0
11
0
21
-33
31
0
39
0
210
0
220
0
230
1
0
SOLID
5
1AE
100
AcDbEntity
8
SK2
62
256
6
ByLayer
370
13
48
1
60
0
100
AcDbTrace
10
-50
20
-33
30
0
11
-46.500002
21
-32.539216
31
0
12
-46.499998
22
-33.460784
32
0
13
-50
23
-33
33
0
39
0
210
0
220
0
230
1
0
SOLID
5
1AF
100
AcDbEntity
8
SK2
62
256
6
ByLayer
370
13
48
1
60
0
100
AcDbTrace
10
0
20
-33
30
0
11
-3.499998
21
-33.460784
31
0
12
-3.500002
22
-32.539216
32
0
13
0
23
-33
33
0
39
0
210
0
220
0
230
1
0
ENDBLK
5
1B1
100
AcDbEntity
8
0
100
AcDbBlockEnd
0
BLOCK
5
1BA
100
AcDbEntity
8
0
100
AcDbBlockBegin
2
DimnDraft3D4
70
0
10
0
20
0
30
0
3
DimnDraft3D4
0
MTEXT
5
1B4
100
AcDbEntity
8
2
62
256
6
ByLayer
370
13
48
1
60
0
100
AcDbMText
10
47.358515
20
-32.249886
30
0
210
0
220
0
230
1
1
\W0.6261;101.0
40
3
41
0
44
1.084337
50
0
71
7
72
5
7
iso_b_vert
0
LINE
5
1B5
100
AcDbEntity
8
2
62
256
6
ByLayer
370
13
48
1
60
0
100
AcDbLine
10
0
20
-14.0875
30
0
11
0
21
-35
31
0
39
0
210
0
220
0
230
1
0
LINE
5
1B6
100
AcDbEntity
8
2
62
256
6
ByLayer
370
13
48
1
60
0
100
AcDbLine
10
101
20
-1.5875
30
0
11
101
21
-35
31
0
39
0
210
0
220
0
230
1
0
LINE
5
1B7
100
AcDbEntity
8
2
62
256
6
ByLayer
370
13
48
1
60
0
100
AcDbLine
10
0
20
-33
30
0
11
101
21
-33
31
0
39
0
210
0
220
0
230
1
0
SOLID
5
1B8
100
AcDbEntity
8
2
62
256
6
ByLayer
370
13
48
1
60
0
100
AcDbTrace
10
0
20
-33
30
0
11
3.499998
21
-32.539216
31
0
12
3.500002
22
-33.460784
32
0
13
0
23
-33
33
0
39
0
210
0
220
0
230
1
0
SOLID
5
1B9
100
AcDbEntity
8
2
62
256
6
ByLayer
370
13
48
1
60
0
100
AcDbTrace
10
101
20
-33
30
0
11
97.500002
21
-33.460784
31
0
12
97.499998
22
-32.539216
32
0
13
101
23
-33
33
0
39
0
210
0
220
0
230
1
0
ENDBLK
5
1BB
100
AcDbEntity
8
0
100
AcDbBlockEnd
0
BLOCK
5
1C5
100
AcDbEntity
8
0
100
AcDbBlockBegin
2
DimnDraft3D5
70
0
10
0
20
0
30
0
3
DimnDraft3D5
0
MTEXT
5
1BE
100
AcDbEntity
8
SK2
62
256
6
ByLayer
370
13
48
1
60
0
100
AcDbMText
10
-57.750114
20
0.229544
30
0
210
0
220
0
230
1
1
\W0.7346;20.0
40
3
41
0
44
1.084337
50
90
71
7
72
5
7
iso_b_vert
0
MTEXT
5
1BF
100
AcDbEntity
8
SK2
62
256
6
ByLayer
370
13
48
1
60
0
100
AcDbMText
10
-57.750114
20
-4.247019
30
0
210
0
220
0
230
1
1
%%c
40
3
41
0
44
1.084337
50
90
71
7
72
5
7
iso_b_vert
0
LINE
5
1C0
100
AcDbEntity
8
SK2
62
256
6
ByLayer
370
13
48
1
60
0
100
AcDbLine
10
-51.5875
20
10
30
0
11
-58.25
21
10
31
0
39
0
210
0
220
0
230
1
0
LINE
5
1C1
100
AcDbEntity
8
SK2
62
256
6
ByLayer
370
13
48
1
60
0
100
AcDbLine
10
-51.5875
20
-10
30
0
11
-58.25
21
-10
31
0
39
0
210
0
220
0
230
1
0
LINE
5
1C2
100
AcDbEntity
8
SK2
62
256
6
ByLayer
370
13
48
1
60
0
100
AcDbLine
10
-56.25
20
10
30
0
11
-56.25
21
-10
31
0
39
0
210
0
220
0
230
1
0
SOLID
5
1C3
100
AcDbEntity
8
SK2
62
256
6
ByLayer
370
13
48
1
60
0
100
AcDbTrace
10
-56.25
20
10
30
0
11
-55.789216
21
6.500002
31
0
12
-56.710784
22
6.499998
32
0
13
-56.25
23
10
33
0
39
0
210
0
220
0
230
1
0
SOLID
5
1C4
100
AcDbEntity
8
SK2
62
256
6
ByLayer
370
13
48
1
60
0
100
AcDbTrace
10
-56.25
20
-10
30
0
11
-56.710784
21
-6.500002
31
0
12
-55.789216
22
-6.499998
32
0
13
-56.25
23
-10
33
0
39
0
210
0
220
0
230
1
0
ENDBLK
5
1C6
100
AcDbEntity
8
0
100
AcDbBlockEnd
0
ENDSEC
0
SECTION
2
ENTITIES
0
ARC
5
DF
100
AcDbEntity
8
SK1
62
256
6
ByLayer
370
18
48
1
60
0
100
AcDbCircle
39
0
10
47.946236
20
-10.49675
30
0
40
0.799999999999998
210
0
220
0
230
-1
100
AcDbArc
50
51
51
130.534532
0
ARC
5
E0
100
AcDbEntity
8
SK1
62
256
6
ByLayer
370
18
48
1
60
0
100
AcDbCircle
39
0
10
47.946236
20
10.49675
30
0
40
0.799999999999998
210
0
220
0
230
-1
100
AcDbArc
50
229.465468
51
309
0
ARC
5
E1
100
AcDbEntity
8
SK1
62
256
6
ByLayer
370
18
48
1
60
0
100
AcDbCircle
39
0
10
0.975195
20
10.14675
30
0
40
0.4
210
0
220
0
230
-1
100
AcDbArc
50
270
51
295
0
ARC
5
E2
100
AcDbEntity
8
SK1
62
256
6
ByLayer
370
18
48
1
60
0
100
AcDbCircle
39
0
10
0.975195
20
-10.14675
30
0
40
0.4
210
0
220
0
230
-1
100
AcDbArc
50
65
51
90
0
ARC
5
E3
100
AcDbEntity
8
1
62
256
6
ByLayer
370
18
48
1
60
0
100
AcDbCircle
39
0
10
-16
20
-13.25
30
0
40
5.99999999999999
210
0
220
0
230
-1
100
AcDbArc
50
56.722155
51
90
0
ARC
5
E4
100
AcDbEntity
8
1
62
256
6
ByLayer
370
18
48
1
60
0
100
AcDbCircle
39
0
10
-16
20
13.25
30
0
40
5.99999999999999
210
0
220
0
230
-1
100
AcDbArc
50
270
51
303.277845
0
ARC
5
E5
100
AcDbEntity
8
SK1
62
256
6
ByLayer
370
18
48
1
60
0
100
AcDbCircle
39
0
10
0.15
20
10.14675
30
0
40
0.4
210
0
220
0
230
-1
100
AcDbArc
50
247.975687
51
270
0
ARC
5
E6
100
AcDbEntity
8
SK1
62
256
6
ByLayer
370
18
48
1
60
0
100
AcDbCircle
39
0
10
0.15
20
-10.14675
30
0
40
0.4
210
0
220
0
230
-1
100
AcDbArc
50
90
51
112.024313
0
ELLIPSE
5
E7
100
AcDbEntity
8
1
62
256
6
ByLayer
370
18
48
1
60
0
100
AcDbEllipse
10
88.88
20
-3.054592
30
0
11
-1.51000000000001
21
1.8491555942718E-16
31
0
210
0
220
0
230
1
40
0.702153
41
1.26900739312003
42
1.8821089875022
0
ELLIPSE
5
E8
100
AcDbEntity
8
1
62
256
6
ByLayer
370
13
48
1
60
0
100
AcDbEllipse
10
17.058
20
1.510087
30
0
11
0.985277426730504
21
4.90196168817906
31
0
210
0
220
0
230
1
40
0.692676
41
0.783179950632122
42
2.83915788523347
0
ELLIPSE
5
E9
100
AcDbEntity
8
1
62
256
6
ByLayer
370
13
48
1
60
0
100
AcDbEllipse
10
82.5
20
7.488841
30
0
11
-0.145764649999677
21
-4.99787481503994
31
0
210
0
220
0
230
1
40
0.34092
41
0.878215242808432
42
1.177292991141
0
ELLIPSE
5
EA
100
AcDbEntity
8
1
62
256
6
ByLayer
370
18
48
1
60
0
100
AcDbEllipse
10
82.338461
20
-80.269828
30
0
11
79.1822228135833
21
0.0448864789726474
31
0
210
0
220
0
230
1
40
0.931718
41
1.4502073457974
42
1.45176320778163
0
ELLIPSE
5
EB
100
AcDbEntity
8
1
62
256
6
ByLayer
370
18
48
1
60
0
100
AcDbEllipse
10
91.45
20
2.1
30
0
11
0.0861670662565112
21
0.234681133280844
31
0
210
0
220
0
230
1
40
1
41
-1.65924589013201
42
-1.46464387356551
0
ELLIPSE
5
EC
100
AcDbEntity
8
1
62
256
6
ByLayer
370
18
48
1
60
0
100
AcDbEllipse
10
100.969623
20
-0.138519
30
0
11
0.0472765641604258
21
0.150392792360556
31
0
210
0
220
0
230
1
40
0.048492
41
1.78128165017423
42
2.46903554452951
0
ELLIPSE
5
ED
100
AcDbEntity
8
1
62
256
6
ByLayer
370
18
48
1
60
0
100
AcDbEllipse
10
101
20
-1E-06
30
0
11
2.63491764526469
21
-7.49828894764256
31
0
210
0
220
0
230
1
40
0.060808
41
2.76514211436213
42
2.85501836930355
0
ELLIPSE
5
EE
100
AcDbEntity
8
1
62
256
6
ByLayer
370
18
48
1
60
0
100
AcDbEllipse
10
82.5
20
7.488841
30
0
11
-0.145764649999677
21
-4.99787481503994
31
0
210
0
220
0
230
1
40
0.34092
41
1.177292991141
42
1.17911201341045
0
ELLIPSE
5
EF
100
AcDbEntity
8
1
62
256
6
ByLayer
370
18
48
1
60
0
100
AcDbEllipse
10
17.058
20
1.510087
30
0
11
-0.977281083341584
21
-4.90356214237596
31
0
210
0
220
0
230
1
40
0.040072
41
2.46432907046802
42
2.46490023804771
0
ELLIPSE
5
F0
100
AcDbEntity
8
1
62
256
6
ByLayer
370
18
48
1
60
0
100
AcDbEllipse
10
16.706958
20
-0.200746
30
0
11
2.99694987053642
21
13.4524383531587
31
0
210
0
220
0
230
1
40
0.010058
41
-1.83047348354276
42
-1.79364685041784
0
ELLIPSE
5
F1
100
AcDbEntity
8
1
62
256
6
ByLayer
370
13
48
1
60
0
100
AcDbEllipse
10
17.058
20
1.510087
30
0
11
-0.977281083341584
21
-4.90356214237596
31
0
210
0
220
0
230
1
40
0.040072
41
0.287981442209739
42
2.46432907046802
0
ELLIPSE
5
F2
100
AcDbEntity
8
1
62
256
6
ByLayer
370
18
48
1
60
0
100
AcDbEllipse
10
95.221846
20
-1.33619
30
0
11
0.292361823123182
21
-1.01416146708745
31
0
210
0
220
0
230
1
40
0.313101
41
0.0905184489216562
42
-3.05107420466843
0
ELLIPSE
5
F3
100
AcDbEntity
8
1
62
256
6
ByLayer
370
18
48
1
60
0
100
AcDbEllipse
10
101
20
0
30
0
11
2.63491734523781
21
7.49828803659967
31
0
210
0
220
0
230
1
40
0.060808
41
-2.8550183523886
42
-2.76514209173249
0
ELLIPSE
5
F4
100
AcDbEntity
8
1
62
256
6
ByLayer
370
18
48
1
60
0
100
AcDbEllipse
10
83.045149
20
6.711203
30
0
11
2.73983171727923
21
9.14400939848393
31
0
210
0
220
0
230
1
40
0.133641
41
-1.65965989874542
42
-1.60136914660266
0
ELLIPSE
5
F5
100
AcDbEntity
8
1
62
256
6
ByLayer
370
18
48
1
60
0
100
AcDbEllipse
10
17.366918
20
2.807034
30
0
11
2.99671324045973
21
17.3459620387366
31
0
210
0
220
0
230
1
40
0.008142
41
-1.42466820924037
42
-1.39751580908615
0
ELLIPSE
5
F6
100
AcDbEntity
8
1
62
256
6
ByLayer
370
18
48
1
60
0
100
AcDbEllipse
10
17.058
20
1.510087
30
0
11
-0.977281083341584
21
-4.90356214237596
31
0
210
0
220
0
230
1
40
0.040072
41
0.287530502482178
42
0.287981442209739
0
ELLIPSE
5
F7
100
AcDbEntity
8
1
62
256
6
ByLayer
370
18
48
1
60
0
100
AcDbEllipse
10
106.383161
20
0
30
0
11
9.96694464869225
21
6.75607718497982
31
0
210
0
220
0
230
1
40
0.290406
41
2.86909443478216
42
3.13439493289532
0
ELLIPSE
5
F8
100
AcDbEntity
8
1
62
256
6
ByLayer
370
18
48
1
60
0
100
AcDbEllipse
10
100.969623
20
0.138519
30
0
11
0.0472765641499321
21
-0.150392792330944
31
0
210
0
220
0
230
1
40
0.048492
41
-2.46903554450982
42
-1.78128165004469
0
ELLIPSE
5
F9
100
AcDbEntity
8
1
62
256
6
ByLayer
370
18
48
1
60
0
100
AcDbEllipse
10
93.547066
20
-1.230741
30
0
11
1.2287450941839
21
0.30715779888461
31
0
210
0
220
0
230
1
40
0.765054
41
1.96469925544512
42
-1.76260373574477
0
POINT
5
6C
100
AcDbEntity
8
80
62
256
6
ByLayer
370
18
48
1
60
0
100
AcDbPoint
10
0
20
0
30
0
39
0
210
0
220
0
230
1
50
360
0
POINT
5
6E
100
AcDbEntity
8
81
62
256
6
ByLayer
370
18
48
1
60
0
100
AcDbPoint
10
91.7
20
0
30
0
39
0
210
0
220
0
230
1
50
360
0
SPLINE
5
FA
100
AcDbEntity
8
1
62
256
6
ByLayer
370
18
48
1
60
0
100
AcDbSpline
70
4
71
3
72
14
73
10
40
0
40
0
40
0
40
0
40
0.107608665081486
40
0.213166167753001
40
0.319793756758812
40
0.429089692856267
40
0.541446706641834
40
0.769060990425765
40
1
40
1
40
1
40
1
41
1
10
5.0009
20
-12.5
30
0
41
1
10
5.32248249158056
20
-12.4979635277742
30
0
41
1
10
5.94822884142019
20
-12.4402435059413
30
0
41
1
10
6.86280813241956
20
-12.1796116599244
30
0
41
1
10
7.72969296766809
20
-11.7872465569674
30
0
41
1
10
8.5646083512305
20
-11.2913877295254
30
0
41
1
10
9.6535135957314
20
-10.5317762990558
30
0
41
1
10
10.9652177010477
20
-9.47049744392251
30
0
41
1
10
12.0674222235454
20
-8.68306106859126
30
0
41
1
10
12.6242005146708
20
-8.28875239129809
30
0
0
SPLINE
5
FB
100
AcDbEntity
8
1
62
256
6
ByLayer
370
18
48
1
60
0
100
AcDbSpline
70
4
71
3
72
14
73
10
40
0
40
0
40
0
40
0
40
0.195999424568146
40
0.390389007340284
40
0.57880585197673
40
0.685965495624316
40
0.790598644169343
40
0.894277690777423
40
1
40
1
40
1
40
1
41
1
10
12.6242005146708
20
8.28875239129809
30
0
41
1
10
12.1482711488153
20
8.61879534741746
30
0
41
1
10
11.2083360770474
20
9.28714737133561
30
0
41
1
10
9.87560828364792
20
10.3580568532545
30
0
41
1
10
8.70509078727432
20
11.2122038883775
30
0
41
1
10
7.68363124514659
20
11.8107323769957
30
0
41
1
10
6.83065301808998
20
12.1906214193612
30
0
41
1
10
5.93153997024012
20
12.4423390333049
30
0
41
1
10
5.31673513003864
20
12.4981067708177
30
0
41
1
10
5.0009
20
12.5
30
0
0
SPLINE
5
FC
100
AcDbEntity
8
1
62
256
6
ByLayer
370
18
48
1
60
0
100
AcDbSpline
70
4
71
3
72
40
73
36
40
0
40
0
40
0
40
0
40
0.0131771634492556
40
0.0340555958355354
40
0.0614459285692862
40
0.0946184393145265
40
0.13268383140114
40
0.170411001710193
40
0.228089684732799
40
0.283844013643154
40
0.311536124414779
40
0.337080751430603
40
0.359452523511401
40
0.378651182960241
40
0.394685729498771
40
0.411864996323923
40
0.433824197651404
40
0.482736965541107
40
0.530374078601915
40
0.575495783575223
40
0.618861905994483
40
0.661736474281104
40
0.679492984364908
40
0.694870091136503
40
0.707202162261932
40
0.714499220418473
40
0.723436110925665
40
0.736048188243495
40
0.752334370830378
40
0.779761574748097
40
0.813711271305312
40
0.854173688385626
40
0.901134124371723
40
0.95457136437747
40
1
40
1
40
1
40
1
41
1
10
55.517680265798
20
7.04208234544518
30
0
41
1
10
55.4053246800783
20
7.03986511063357
30
0
41
1
10
55.0941640461628
20
7.03296888004823
30
0
41
1
10
54.3868809931588
20
7.00503580991312
30
0
41
1
10
53.4173408111572
20
6.9886059021014
30
0
41
1
10
52.2266121198281
20
6.99215123903568
30
0
41
1
10
50.9267292588917
20
7.01186361364418
30
0
41
1
10
49.3298357838976
20
7.02688816687601
30
0
41
1
10
47.5212750642456
20
7.03930041039678
30
0
41
1
10
45.8310249047291
20
7.0448628891177
30
0
41
1
10
44.5249597365621
20
7.04678685160488
30
0
41
1
10
43.6185389061192
20
7.04720393279894
30
0
41
1
10
42.8135256674534
20
7.04698041305178
30
0
41
1
10
42.122159408
20
7.04647046121661
30
0
41
1
10
41.4927159549067
20
7.04586190666711
30
0
41
1
10
40.8294815596258
20
7.04525903565826
30
0
41
1
10
39.7711214565364
20
7.0444683118493
30
0
41
1
10
38.3471468171049
20
7.04349307529901
30
0
41
1
10
36.6441031501969
20
7.04258719499239
30
0
41
1
10
35.0079972788071
20
7.04219105366136
30
0
41
1
10
33.4289940139705
20
7.04213706562464
30
0
41
1
10
32.1789515838521
20
7.0423969736826
30
0
41
1
10
31.2653327767358
20
7.04272554945911
30
0
41
1
10
30.7188353122899
20
7.04296520509459
30
0
41
1
10
30.298060075761
20
7.04317581300688
30
0
41
1
10
29.9546959841887
20
7.04336193594116
30
0
41
1
10
29.6079674133975
20
7.0435612985477
30
0
41
1
10
29.1531913460631
20
7.04384132662869
30
0
41
1
10
28.4761635334731
20
7.04429178068247
30
0
41
1
10
27.5426588346192
20
7.04497351126335
30
0
41
1
10
26.3185549467149
20
7.0459459800104
30
0
41
1
10
24.8596583832264
20
7.04715249427659
30
0
41
1
10
23.166518331217
20
7.0484785071246
30
0
41
1
10
21.4136836935373
20
7.04959343095678
30
0
41
1
10
20.2253241763873
20
7.04990241110525
30
0
41
1
10
19.679277358585
20
7.04996413062054
30
0
0
SPLINE
5
FD
100
AcDbEntity
8
1
62
256
6
ByLayer
370
18
48
1
60
0
100
AcDbSpline
70
4
71
2
72
6
73
3
40
0
40
0
40
0
40
1
40
1
40
1
41
1
10
54.8597577710272
20
-0.689058092096872
30
0
41
1
10
54.9370903552724
20
-0.703029332967901
30
0
41
1
10
55.0144209480837
20
-0.718451277622052
30
0
0
SPLINE
5
FE
100
AcDbEntity
8
1
62
256
6
ByLayer
370
18
48
1
60
0
100
AcDbSpline
70
4
71
1
72
4
73
2
40
0
40
0
40
1
40
1
41
1
10
62.4995987511589
20
0.0002115218275378
30
0
41
1
10
62.4995606950918
20
0.0002189559874353
30
0
0
SPLINE
5
FF
100
AcDbEntity
8
1
62
256
6
ByLayer
370
18
48
1
60
0
100
AcDbSpline
70
4
71
3
72
48
73
44
40
0
40
0
40
0
40
0
40
0.0557859967070435
40
0.105174945189481
40
0.148140548766234
40
0.184663839408256
40
0.214731628929175
40
0.238335095142461
40
0.255468591139771
40
0.266128716958363
40
0.27531939431381
40
0.291020499554893
40
0.313382589425385
40
0.337339576150462
40
0.358555158904609
40
0.377028260303032
40
0.397633877274877
40
0.414729614882442
40
0.428725602666223
40
0.444714066528588
40
0.465201975850339
40
0.490188417255637
40
0.517930866607275
40
0.545993302948915
40
0.56437780799435
40
0.582889726884562
40
0.601528841718767
40
0.618229727957357
40
0.630801441354903
40
0.639246196340095
40
0.645301971006075
40
0.660281598696069
40
0.681243365696746
40
0.708185077274407
40
0.741102549007476
40
0.771735298359642
40
0.805709062456354
40
0.838527349187035
40
0.869119052113699
40
0.897523840613917
40
0.940125239028225
40
0.977065762039102
40
1
40
1
40
1
40
1
41
1
10
19.1580000000561
20
-7.04999912480375
30
0
41
1
10
19.8326160357643
20
-7.04999029217316
30
0
41
1
10
21.1044930424436
20
-7.04974645595746
30
0
41
1
10
22.8959674130308
20
-7.04866637420642
30
0
41
1
10
24.4544960502567
20
-7.04748279196099
30
0
41
1
10
25.7793699150041
20
-7.04639456677813
30
0
41
1
10
26.8700934360927
20
-7.04550728289504
30
0
41
1
10
27.726333872318
20
-7.04484301286112
30
0
41
1
10
28.3478772579633
20
-7.04438933382525
30
0
41
1
10
28.7951274657746
20
-7.04408029717109
30
0
41
1
10
29.2250597419417
20
-7.0437967404068
30
0
41
1
10
29.7965034522138
20
-7.04344468775921
30
0
41
1
10
30.5465171598619
20
-7.04303831829063
30
0
41
1
10
31.3632181436713
20
-7.04267961241004
30
0
41
1
10
32.1328896807762
20
-7.04242645716619
30
0
41
1
10
32.8620328863554
20
-7.04226154676573
30
0
41
1
10
33.5413542286338
20
-7.04217906594616
30
0
41
1
10
34.1665334413784
20
-7.04216757998688
30
0
41
1
10
34.7358771351892
20
-7.04220575851647
30
0
41
1
10
35.3462429198841
20
-7.04229678197459
30
0
41
1
10
36.0895170128325
20
-7.04248103816141
30
0
41
1
10
36.9749328357733
20
-7.04280629092275
30
0
41
1
10
37.9519479407475
20
-7.0432924514943
30
0
41
1
10
38.849124555172
20
-7.04385002953592
30
0
41
1
10
39.6346738262535
20
-7.04440644739663
30
0
41
1
10
40.3062674227367
20
-7.0449222284465
30
0
41
1
10
40.957492656667
20
-7.04545156087883
30
0
41
1
10
41.5369048003194
20
-7.04593982950868
30
0
41
1
10
41.9929930672049
20
-7.04633232404538
30
0
41
1
10
42.3204068162548
20
-7.04661902756973
30
0
41
1
10
42.6763493115424
20
-7.0469070179054
30
0
41
1
10
43.1828512985304
20
-7.04717772970599
30
0
41
1
10
43.9407575575768
20
-7.04708295629999
30
0
41
1
10
44.9144303320222
20
-7.0459558089988
30
0
41
1
10
46.004254223817
20
-7.04308228922105
30
0
41
1
10
47.17863868129
20
-7.03811279325225
30
0
41
1
10
48.3512070062347
20
-7.03057127627704
30
0
41
1
10
49.5262991543143
20
-7.02372545690628
30
0
41
1
10
50.6360875430057
20
-7.01967884151784
30
0
41
1
10
51.8652456989399
20
-7.01929609461342
30
0
41
1
10
53.1683669870363
20
-7.02490825263286
30
0
41
1
10
54.4001890049384
20
-7.03884242115771
30
0
41
1
10
55.0937461323758
20
-7.0425461026046
30
0
41
1
10
55.3568998314514
20
-7.04377398229818
30
0
0
SPLINE
5
100
100
AcDbEntity
8
1
62
256
6
ByLayer
370
18
48
1
60
0
100
AcDbSpline
70
4
71
3
72
11
73
7
40
0
40
0
40
0
40
0
40
0.205242733825568
40
0.457443238164974
40
0.757354701932119
40
1
40
1
40
1
40
1
41
1
10
94.1970147683486
20
-7.35000094340774
30
0
41
1
10
94.4743694978495
20
-7.34987167047123
30
0
41
1
10
95.0932417831677
20
-7.34964458370038
30
0
41
1
10
96.1222667415769
20
-7.34931862033724
30
0
41
1
10
97.2012835519001
20
-7.34966434307248
30
0
41
1
10
97.9370884311265
20
-7.34986854179249
30
0
41
1
10
98.2660157383685
20
-7.34998861945564
30
0
0
SPLINE
5
101
100
AcDbEntity
8
1
62
256
6
ByLayer
370
18
48
1
60
0
100
AcDbSpline
70
4
71
2
72
6
73
3
40
0
40
0
40
0
40
1
40
1
40
1
41
1
10
98.2620834791462
20
7.35003564343128
30
0
41
1
10
97.8947698876952
20
7.35001950156948
30
0
41
1
10
97.5274554796677
20
7.3500080980464
30
0
0
SPLINE
5
102
100
AcDbEntity
8
SK1
62
256
6
ByLayer
370
18
48
1
60
0
100
AcDbSpline
70
4
71
3
72
68
73
64
40
0
40
0
40
0
40
0
40
0.0312499999999982
40
0.0312499999999982
40
0.046874999999998
40
0.046874999999998
40
0.0624999999999977
40
0.0624999999999977
40
0.0937499999999984
40
0.0937499999999984
40
0.109374999999998
40
0.109374999999998
40
0.124999999999998
40
0.124999999999998
40
0.156249999999998
40
0.156249999999998
40
0.187499999999998
40
0.187499999999998
40
0.249999999999999
40
0.249999999999999
40
0.281249999999999
40
0.281249999999999
40
0.312499999999999
40
0.312499999999999
40
0.374999999999999
40
0.374999999999999
40
0.4375
40
0.4375
40
0.46875
40
0.46875
40
0.5
40
0.5
40
0.562500000000001
40
0.562500000000001
40
0.593750000000001
40
0.593750000000001
40
0.625000000000002
40
0.625000000000002
40
0.687500000000002
40
0.687500000000002
40
0.718750000000002
40
0.718750000000002
40
0.750000000000002
40
0.750000000000002
40
0.812500000000003
40
0.812500000000003
40
0.828125000000002
40
0.828125000000002
40
0.843750000000002
40
0.843750000000002
40
0.875000000000001
40
0.875000000000001
40
0.890625000000001
40
0.890625000000001
40
0.90625
40
0.90625
40
0.9375
40
0.9375
40
0.953125
40
0.953125
40
0.96875
40
0.96875
40
1
40
1
40
1
40
1
41
1
10
-6.5
20
-5.92285193129121
30
0
41
1
10
-6.33154885731429
20
-5.92285193129121
30
0
41
1
10
-6.16649999660117
20
-5.90852604500998
30
0
41
1
10
-5.92366326713301
20
-5.86686260898483
30
0
41
1
10
-5.84351218542497
20
-5.84958640234103
30
0
41
1
10
-5.68479121831058
20
-5.80819694942255
30
0
41
1
10
-5.60578401963124
20
-5.78390949286566
30
0
41
1
10
-5.37551305865023
20
-5.70210438657261
30
0
41
1
10
-5.23040150353978
20
-5.63576008503463
30
0
41
1
10
-5.02388324980436
20
-5.51973068369702
30
0
41
1
10
-4.95691280564995
20
-5.47828589310487
30
0
41
1
10
-4.82656726111884
20
-5.38990512469778
30
0
41
1
10
-4.76344028356684
20
-5.34310223508027
30
0
41
1
10
-4.5822496799216
20
-5.19718203491362
30
0
41
1
10
-4.47124638032832
20
-5.09185813583983
30
0
41
1
10
-4.26572109507717
20
-4.86653318538578
30
0
41
1
10
-4.17106100725226
20
-4.74628556066756
30
0
41
1
10
-3.90966183539746
20
-4.36608870861338
30
0
41
1
10
-3.77014210155204
20
-4.09476951345764
30
0
41
1
10
-3.59557537485901
20
-3.66576223197777
30
0
41
1
10
-3.54329950365172
20
-3.51904778819107
30
0
41
1
10
-3.44875657999089
20
-3.21863479224763
30
0
41
1
10
-3.40657854218807
20
-3.06504134305448
30
0
41
1
10
-3.29445638220415
20
-2.60174839854997
30
0
41
1
10
-3.23788522203449
20
-2.28706820500588
30
0
41
1
10
-3.15042654850248
20
-1.64741181110122
30
0
41
1
10
-3.11961625583052
20
-1.3224279248613
30
0
41
1
10
-3.08903905021941
20
-0.827525561443139
30
0
41
1
10
-3.08151487535059
20
-0.661401493425245
30
0
41
1
10
-3.0715850998196
20
-0.330650499762129
30
0
41
1
10
-3.06914530935046
20
-0.16552511220226
30
0
41
1
10
-3.06912617883177
20
0.329115176337979
30
0
41
1
10
-3.07870960481154
20
0.657899259477574
30
0
41
1
10
-3.10886367144548
20
1.14957645984728
30
0
41
1
10
-3.12157829085984
20
1.31321779556742
30
0
41
1
10
-3.15301382663836
20
1.63997635400699
30
0
41
1
10
-3.17179577364169
20
1.80342210057933
30
0
41
1
10
-3.23780365003569
20
2.28702529223114
30
0
41
1
10
-3.29461555444996
20
2.60220286550486
30
0
41
1
10
-3.40608209976554
20
3.06309107495616
30
0
41
1
10
-3.44765477000675
20
3.21473113100859
30
0
41
1
10
-3.54149844295813
20
3.51371523568545
30
0
41
1
10
-3.59395060131035
20
3.66152013709689
30
0
41
1
10
-3.76989582752734
20
4.0946551835724
30
0
41
1
10
-3.90997479382301
20
4.36619025332939
30
0
41
1
10
-4.12575070768349
20
4.68046987077338
30
0
41
1
10
-4.17097066502385
20
4.74205687033935
30
0
41
1
10
-4.26600396832356
20
4.86254130681425
30
0
41
1
10
-4.31584034796885
20
4.92142662494757
30
0
41
1
10
-4.47077510964749
20
5.09144820130692
30
0
41
1
10
-4.58188757681341
20
5.19679902870035
30
0
41
1
10
-4.76206916652862
20
5.34204312553621
30
0
41
1
10
-4.82438853365238
20
5.38832209237188
30
0
41
1
10
-4.95395839245685
20
5.4763842939077
30
0
41
1
10
-5.02155288993663
20
5.5183478507837
30
0
41
1
10
-5.22922143177559
20
5.63524112422331
30
0
41
1
10
-5.37427976784161
20
5.70150323577644
30
0
41
1
10
-5.60262391278795
20
5.78286634969527
30
0
41
1
10
-5.68053816211992
20
5.80696924836369
30
0
41
1
10
-5.84021859914242
20
5.84884069926673
30
0
41
1
10
-5.9214422845923
20
5.86643352567475
30
0
41
1
10
-6.1660744508427
20
5.90854767474224
30
0
41
1
10
-6.33170271013569
20
5.92285193129121
30
0
41
1
10
-6.5
20
5.92285193129121
30
0
0
SPLINE
5
103
100
AcDbEntity
8
SK1
62
256
6
ByLayer
370
18
48
1
60
0
100
AcDbSpline
70
4
71
3
72
68
73
64
40
0
40
0
40
0
40
0
40
0.0312500000000002
40
0.0312500000000002
40
0.0468750000000003
40
0.0468750000000003
40
0.0625000000000005
40
0.0625000000000005
40
0.0937500000000007
40
0.0937500000000007
40
0.109375000000001
40
0.109375000000001
40
0.125000000000001
40
0.125000000000001
40
0.156250000000001
40
0.156250000000001
40
0.187500000000001
40
0.187500000000001
40
0.25
40
0.25
40
0.28125
40
0.28125
40
0.3125
40
0.3125
40
0.375
40
0.375
40
0.4375
40
0.4375
40
0.46875
40
0.46875
40
0.5
40
0.5
40
0.5625
40
0.5625
40
0.59375
40
0.59375
40
0.625
40
0.625
40
0.6875
40
0.6875
40
0.71875
40
0.71875
40
0.75
40
0.75
40
0.8125
40
0.8125
40
0.828125
40
0.828125
40
0.84375
40
0.84375
40
0.875
40
0.875
40
0.890625
40
0.890625
40
0.90625
40
0.90625
40
0.9375
40
0.9375
40
0.953125
40
0.953125
40
0.96875
40
0.96875
40
1
40
1
40
1
40
1
41
1
10
-43.5
20
5.92285193129121
30
0
41
1
10
-43.6684511426857
20
5.92285193129121
30
0
41
1
10
-43.8335000033988
20
5.90852604500998
30
0
41
1
10
-44.076336732867
20
5.86686260898486
30
0
41
1
10
-44.156487814575
20
5.84958640234103
30
0
41
1
10
-44.3152087816894
20
5.80819694942255
30
0
41
1
10
-44.3942159803687
20
5.78390949286566
30
0
41
1
10
-44.6244869413498
20
5.70210438657261
30
0
41
1
10
-44.7695984964602
20
5.63576008503463
30
0
41
1
10
-44.9761167501956
20
5.51973068369705
30
0
41
1
10
-45.0430871943501
20
5.47828589310487
30
0
41
1
10
-45.1734327388812
20
5.38990512469778
30
0
41
1
10
-45.2365597164332
20
5.34310223508027
30
0
41
1
10
-45.4177503200784
20
5.19718203491362
30
0
41
1
10
-45.5287536196717
20
5.09185813583983
30
0
41
1
10
-45.7342789049228
20
4.86653318538578
30
0
41
1
10
-45.8289389927477
20
4.74628556066759
30
0
41
1
10
-46.0903381646025
20
4.36608870861338
30
0
41
1
10
-46.229857898448
20
4.09476951345764
30
0
41
1
10
-46.404424625141
20
3.66576223197777
30
0
41
1
10
-46.4567004963483
20
3.51904778819107
30
0
41
1
10
-46.5512434200091
20
3.21863479224763
30
0
41
1
10
-46.5934214578119
20
3.06504134305448
30
0
41
1
10
-46.7055436177958
20
2.60174839855
30
0
41
1
10
-46.7621147779655
20
2.28706820500588
30
0
41
1
10
-46.8495734514975
20
1.64741181110122
30
0
41
1
10
-46.8803837441695
20
1.3224279248613
30
0
41
1
10
-46.9109609497806
20
0.827525561443139
30
0
41
1
10
-46.9184851246494
20
0.661401493425245
30
0
41
1
10
-46.9284149001804
20
0.330650499762129
30
0
41
1
10
-46.9308546906495
20
0.16552511220226
30
0
41
1
10
-46.9308738211682
20
-0.329115176337979
30
0
41
1
10
-46.9212903951884
20
-0.657899259477574
30
0
41
1
10
-46.8911363285545
20
-1.14957645984728
30
0
41
1
10
-46.8784217091401
20
-1.31321779556742
30
0
41
1
10
-46.8469861733616
20
-1.63997635400699
30
0
41
1
10
-46.8282042263583
20
-1.80342210057933
30
0
41
1
10
-46.7621963499643
20
-2.28702529223114
30
0
41
1
10
-46.70538444555
20
-2.60220286550486
30
0
41
1
10
-46.5939179002345
20
-3.06309107495616
30
0
41
1
10
-46.5523452299933
20
-3.21473113100859
30
0
41
1
10
-46.4585015570419
20
-3.51371523568545
30
0
41
1
10
-46.4060493986897
20
-3.66152013709689
30
0
41
1
10
-46.2301041724726
20
-4.0946551835724
30
0
41
1
10
-46.090025206177
20
-4.36619025332939
30
0
41
1
10
-45.8742492923165
20
-4.68046987077341
30
0
41
1
10
-45.8290293349762
20
-4.74205687033935
30
0
41
1
10
-45.7339960316764
20
-4.86254130681425
30
0
41
1
10
-45.6841596520312
20
-4.92142662494757
30
0
41
1
10
-45.5292248903525
20
-5.09144820130692
30
0
41
1
10
-45.4181124231866
20
-5.19679902870035
30
0
41
1
10
-45.2379308334714
20
-5.34204312553621
30
0
41
1
10
-45.1756114663476
20
-5.38832209237188
30
0
41
1
10
-45.0460416075432
20
-5.4763842939077
30
0
41
1
10
-44.9784471100634
20
-5.5183478507837
30
0
41
1
10
-44.7707785682244
20
-5.63524112422331
30
0
41
1
10
-44.6257202321584
20
-5.70150323577644
30
0
41
1
10
-44.3973760872121
20
-5.78286634969527
30
0
41
1
10
-44.3194618378801
20
-5.80696924836371
30
0
41
1
10
-44.1597814008576
20
-5.84884069926673
30
0
41
1
10
-44.0785577154077
20
-5.86643352567475
30
0
41
1
10
-43.8339255491573
20
-5.90854767474224
30
0
41
1
10
-43.6682972898643
20
-5.92285193129121
30
0
41
1
10
-43.5
20
-5.92285193129121
30
0
0
SPLINE
5
104
100
AcDbEntity
8
1
62
256
6
ByLayer
370
18
48
1
60
0
100
AcDbSpline
70
4
71
3
72
14
73
10
40
0
40
0
40
0
40
0
40
0.499999999999996
40
0.499999999999996
40
0.624999999999995
40
0.624999999999995
40
0.749999999999994
40
0.749999999999994
40
1
40
1
40
1
40
1
41
1
10
97.3974842974935
20
-6.77915201114212
30
0
41
1
10
97.5203833209388
20
-7.00776356242972
30
0
41
1
10
97.6735891232463
20
-7.1637666581864
30
0
41
1
10
97.8988779900524
20
-7.2778371227414
30
0
41
1
10
97.9456503568703
20
-7.29654342236543
30
0
41
1
10
98.0426162714937
20
-7.32575961549853
30
0
41
1
10
98.0929355069725
20
-7.33627218352208
30
0
41
1
10
98.2476150122368
20
-7.3553158959669
30
0
41
1
10
98.3559263781178
20
-7.35155701558912
30
0
41
1
10
98.4691923738862
20
-7.33209480879657
30
0
0
SPLINE
5
105
100
AcDbEntity
8
1
62
256
6
ByLayer
370
13
48
1
60
0
100
AcDbSpline
70
4
71
3
72
8
73
4
40
0
40
0
40
0
40
0
40
1
40
1
40
1
40
1
41
1
10
100.192013262059
20
0.737548292741906
30
0
41
1
10
100.175420288861
20
0.730112699750435
30
0
41
1
10
100.1581749038
20
0.715893821427841
30
0
41
1
10
100.144085575229
20
0.698031752810635
30
0
0
SPLINE
5
106
100
AcDbEntity
8
1
62
256
6
ByLayer
370
18
48
1
60
0
100
AcDbSpline
70
4
71
3
72
18
73
14
40
0
40
0
40
0
40
0
40
0.249999999999998
40
0.249999999999998
40
0.499999999999995
40
0.499999999999995
40
0.624999999999997
40
0.624999999999997
40
0.749999999999998
40
0.749999999999998
40
0.874999999999999
40
0.874999999999999
40
1
40
1
40
1
40
1
41
1
10
98.5227394753779
20
-3.75271664507377
30
0
41
1
10
98.4025167505401
20
-3.3753352461205
30
0
41
1
10
98.2850823376362
20
-2.99711121018527
30
0
41
1
10
98.0575774385323
20
-2.23843773559059
30
0
41
1
10
97.9490886457028
20
-1.8573864261094
30
0
41
1
10
97.7949065414958
20
-1.28364656667935
30
0
41
1
10
97.7455631988403
20
-1.09193322973698
30
0
41
1
10
97.649305973475
20
-0.70795363491888
30
0
41
1
10
97.6035370053523
20
-0.515426805864195
30
0
41
1
10
97.515801081202
20
-0.129507847596301
30
0
41
1
10
97.4740101739443
20
0.0639243485669283
30
0
41
1
10
97.3958845108772
20
0.452030506725777
30
0
41
1
10
97.3592312495092
20
0.646632018768344
30
0
41
1
10
97.3267386749429
20
0.84218042302129
30
0
0
SPLINE
5
107
100
AcDbEntity
8
1
62
256
6
ByLayer
370
18
48
1
60
0
100
AcDbSpline
70
4
71
3
72
32
73
28
40
0
40
0
40
0
40
0
40
0.0624999999999933
40
0.0624999999999933
40
0.124999999999987
40
0.124999999999987
40
0.249999999999989
40
0.249999999999989
40
0.31249999999999
40
0.31249999999999
40
0.374999999999991
40
0.374999999999991
40
0.437499999999992
40
0.437499999999992
40
0.499999999999993
40
0.499999999999993
40
0.624999999999994
40
0.624999999999994
40
0.687499999999996
40
0.687499999999996
40
0.749999999999996
40
0.749999999999996
40
0.812499999999997
40
0.812499999999997
40
0.874999999999998
40
0.874999999999998
40
1
40
1
40
1
40
1
41
1
10
81.3751187956346
20
-3.55642055918554
30
0
41
1
10
81.486938560848
20
-3.57756707046042
30
0
41
1
10
81.5996254773592
20
-3.59304567954411
30
0
41
1
10
81.8267185123169
20
-3.61291575930108
30
0
41
1
10
81.9414448789782
20
-3.6172556658637
30
0
41
1
10
82.2818955633506
20
-3.61355877848507
30
0
41
1
10
82.5058583730132
20
-3.58936063920711
30
0
41
1
10
82.8372715923913
20
-3.51958651852652
30
0
41
1
10
82.9472313072951
20
-3.49052211194018
30
0
41
1
10
83.1601774670778
20
-3.42216489619216
30
0
41
1
10
83.2638503174097
20
-3.38276312699534
30
0
41
1
10
83.4656619016456
20
-3.29332059872871
30
0
41
1
10
83.5638008361573
20
-3.24328108767787
30
0
41
1
10
83.7543962091462
20
-3.13189379748954
30
0
41
1
10
83.8465915904931
20
-3.07058163689632
30
0
41
1
10
84.1076842219961
20
-2.8736662941775
30
0
41
1
10
84.2636930297678
20
-2.72391795080154
30
0
41
1
10
84.4701203187174
20
-2.4687557188586
30
0
41
1
10
84.5333799178865
20
-2.37960459081049
30
0
41
1
10
84.6478355881461
20
-2.19523101989421
30
0
41
1
10
84.6992876464751
20
-2.09969300915424
30
0
41
1
10
84.7909317567112
20
-1.90183581899942
30
0
41
1
10
84.8311231741698
20
-1.79951684825906
30
0
41
1
10
84.9001925560078
20
-1.58783558474912
30
0
41
1
10
84.9284943307559
20
-1.4801582423105
30
0
41
1
10
84.9955692186541
20
-1.15395170033298
30
0
41
1
10
85.0169696759251
20
-0.931341101052084
30
0
41
1
10
85.0169696953807
20
-0.703698378789625
30
0
0
SPLINE
5
108
100
AcDbEntity
8
1
62
256
6
ByLayer
370
18
48
1
60
0
100
AcDbSpline
70
4
71
3
72
8
73
4
40
0
40
0
40
0
40
0
40
1
40
1
40
1
40
1
41
1
10
94.662381537762
20
0.932510080547246
30
0
41
1
10
94.6173554160313
20
0.865488123182416
30
0
41
1
10
94.5717869278682
20
0.799870383704359
30
0
41
1
10
94.5256568374022
20
0.73570666488834
30
0
0
SPLINE
5
109
100
AcDbEntity
8
1
62
256
6
ByLayer
370
18
48
1
60
0
100
AcDbSpline
70
4
71
3
72
8
73
4
40
0
40
0
40
0
40
0
40
1
40
1
40
1
40
1
41
1
10
98.5227394753736
20
-3.75271664507517
30
0
41
1
10
98.5968906499265
20
-3.66608933978816
30
0
41
1
10
98.6710570225455
20
-3.57921021105693
30
0
41
1
10
98.7452498595823
20
-3.49189258174184
30
0
0
SPLINE
5
10A
100
AcDbEntity
8
1
62
256
6
ByLayer
370
18
48
1
60
0
100
AcDbSpline
70
4
71
3
72
12
73
8
40
0
40
0
40
0
40
0
40
0.500000000000024
40
0.500000000000024
40
0.750000000000012
40
0.750000000000012
40
1
40
1
40
1
40
1
41
1
10
85.3838526829836
20
6.53243050107517
30
0
41
1
10
85.5310724331166
20
6.50700085642211
30
0
41
1
10
85.6661880095699
20
6.46543580605689
30
0
41
1
10
85.8499554851418
20
6.37670416005872
30
0
41
1
10
85.9080924353262
20
6.34254297354195
30
0
41
1
10
86.0145511660926
20
6.26714796228291
30
0
41
1
10
86.0633433726744
20
6.22572562709667
30
0
41
1
10
86.1077789980308
20
6.18066467951019
30
0
0
SPLINE
5
10B
100
AcDbEntity
8
1
62
256
6
ByLayer
370
13
48
1
60
0
100
AcDbSpline
70
4
71
3
72
10
73
6
40
0
40
0
40
0
40
0
40
0.612475108425248
40
0.612475108425248
40
1
40
1
40
1
40
1
41
1
10
81.3491273288699
20
-3.70266015927516
30
0
41
1
10
81.3544179115448
20
-3.67284350329408
30
0
41
1
10
81.3597182678362
20
-3.64300282516732
30
0
41
1
10
81.3683879168092
20
-3.594241858076
30
0
41
1
10
81.3717514614253
20
-3.57533607265404
30
0
41
1
10
81.3751187956346
20
-3.55642055918557
30
0
0
SPLINE
5
10C
100
AcDbEntity
8
1
62
256
6
ByLayer
370
18
48
1
60
0
100
AcDbSpline
70
4
71
3
72
8
73
4
40
0
40
0
40
0
40
0
40
1
40
1
40
1
40
1
41
1
10
91.6761522368915
20
1.99343937993342
30
0
41
1
10
91.6742060898049
20
1.98930909693877
30
0
41
1
10
91.6721540583605
20
1.98524747677959
30
0
41
1
10
91.67
20
1.98125657912962
30
0
0
SPLINE
5
10D
100
AcDbEntity
8
1
62
256
6
ByLayer
370
18
48
1
60
0
100
AcDbSpline
70
4
71
3
72
18
73
14
40
0
40
0
40
0
40
0
40
0.25
40
0.25
40
0.375
40
0.375
40
0.5
40
0.5
40
0.75
40
0.75
40
0.875
40
0.875
40
1
40
1
40
1
40
1
41
1
10
100.096187263048
20
-1.90197290571999
30
0
41
1
10
100.148524565776
20
-1.84037707812448
30
0
41
1
10
100.200665128717
20
-1.77350859827553
30
0
41
1
10
100.278539431479
20
-1.664186517785
30
0
41
1
10
100.304441262614
20
-1.6262377865925
30
0
41
1
10
100.356122669978
20
-1.54706387657274
30
0
41
1
10
100.3820253548
20
-1.5056299924064
30
0
41
1
10
100.458583423111
20
-1.37752478591238
30
0
41
1
10
100.507760654289
20
-1.28769555077651
30
0
41
1
10
100.578629866332
20
-1.14606480431314
30
0
41
1
10
100.601769074429
20
-1.09770414802685
30
0
41
1
10
100.647047757577
20
-0.998605920191238
30
0
41
1
10
100.669295607164
20
-0.947590884964029
30
0
41
1
10
100.690579420865
20
-0.8964336121835
30
0
0
SPLINE
5
10E
100
AcDbEntity
8
1
62
256
6
ByLayer
370
18
48
1
60
0
100
AcDbSpline
70
4
71
3
72
8
73
4
40
0
40
0
40
0
40
0
40
1
40
1
40
1
40
1
41
1
10
100.986583677732
20
0.0558453724985952
30
0
41
1
10
100.975192137537
20
0.0932688550255421
30
0
41
1
10
100.963868916416
20
0.130552988505315
30
0
41
1
10
100.952613445409
20
0.167698933429932
30
0
0
SPLINE
5
10F
100
AcDbEntity
8
1
62
256
6
ByLayer
370
18
48
1
60
0
100
AcDbSpline
70
4
71
3
72
12
73
8
40
0
40
0
40
0
40
0
40
0.300719293152348
40
0.300719293152348
40
0.601438586304696
40
0.601438586304696
40
1
40
1
40
1
40
1
41
1
10
92.2494954838727
20
-7.44400857549113
30
0
41
1
10
92.7785471463162
20
-7.47362197885596
30
0
41
1
10
93.3081504143298
20
-7.49142133971685
30
0
41
1
10
94.3670847507572
20
-7.50372578207242
30
0
41
1
10
94.8962920076336
20
-7.49816865052719
30
0
41
1
10
96.1268472836371
20
-7.45790577576292
30
0
41
1
10
96.8286707500858
20
-7.41450121125871
30
0
41
1
10
97.5302776101565
20
-7.35080409288875
30
0
0
SPLINE
5
110
100
AcDbEntity
8
1
62
256
6
ByLayer
370
18
48
1
60
0
100
AcDbSpline
70
4
71
3
72
8
73
4
40
0
40
0
40
0
40
0
40
1
40
1
40
1
40
1
41
1
10
98.5501378518282
20
-7.24391241997583
30
0
41
1
10
98.5672334763025
20
-7.24188095176089
30
0
41
1
10
98.584328777931
20
-7.23983746996441
30
0
41
1
10
98.6014237469496
20
-7.23778197696009
30
0
0
SPLINE
5
111
100
AcDbEntity
8
1
62
256
6
ByLayer
370
18
48
1
60
0
100
AcDbSpline
70
4
71
2
72
6
73
3
40
0
40
0
40
0
40
1
40
1
40
1
41
0.499999750187251
10
95.4136070624611
20
-2.36113618918885
30
0
41
0.500000249812749
10
94.3636422038104
20
-2.35756731398948
30
0
41
0.499999750187251
10
93.3135330215975
20
-2.35399719917941
30
0
0
SPLINE
5
112
100
AcDbEntity
8
1
62
256
6
ByLayer
370
18
48
1
60
0
100
AcDbSpline
70
4
71
3
72
8
73
4
40
0
40
0
40
0
40
0
40
1
40
1
40
1
40
1
41
1
10
91.7
20
2.09999999999999
30
0
41
1
10
91.7
20
2.0791541220708
30
0
41
1
10
91.6974320363989
20
2.05888885138015
30
0
41
1
10
91.6924898219702
20
2.0391831746891
30
0
0
SPLINE
5
113
100
AcDbEntity
8
1
62
256
6
ByLayer
370
18
48
1
60
0
100
AcDbSpline
70
4
71
3
72
16
73
12
40
0
40
0
40
0
40
0
40
0.25
40
0.25
40
0.500000000000001
40
0.500000000000001
40
0.625000000000001
40
0.625000000000001
40
0.750000000000001
40
0.750000000000001
40
1
40
1
40
1
40
1
41
1
10
97.3036240561646
20
0.99023821161876
30
0
41
1
10
97.3897432953737
20
1.10921606477092
30
0
41
1
10
97.488399645381
20
1.23332390661616
30
0
41
1
10
97.708966452762
20
1.48935413559187
30
0
41
1
10
97.828456185762
20
1.61849472152485
30
0
41
1
10
98.0211295376766
20
1.81272996985939
30
0
41
1
10
98.0876086125303
20
1.87756330767445
30
0
41
1
10
98.2252796006932
20
2.00705533961712
30
0
41
1
10
98.2967077849232
20
2.07190579601792
30
0
41
1
10
98.5153277344266
20
2.26275723833331
30
0
41
1
10
98.6675308328205
20
2.38587247361789
30
0
41
1
10
98.8271400694053
20
2.50320448022444
30
0
0
SPLINE
5
114
100
AcDbEntity
8
1
62
256
6
ByLayer
370
18
48
1
60
0
100
AcDbSpline
70
4
71
3
72
16
73
12
40
0
40
0
40
0
40
0
40
0.124999999999985
40
0.124999999999985
40
0.24999999999997
40
0.24999999999997
40
0.49999999999998
40
0.49999999999998
40
0.74999999999999
40
0.74999999999999
40
1
40
1
40
1
40
1
41
1
10
84.0191930011057
20
5.53499276577139
30
0
41
1
10
84.0876865415947
20
5.55198313643126
30
0
41
1
10
84.1552919270633
20
5.57287584999725
30
0
41
1
10
84.288720446359
20
5.62238890791988
30
0
41
1
10
84.3549032137467
20
5.65119803566665
30
0
41
1
10
84.5478758368284
20
5.74758966143784
30
0
41
1
10
84.6685124213626
20
5.82448732012497
30
0
41
1
10
84.8961593243193
20
5.998839706496
30
0
41
1
10
85.0032748698107
20
6.09668831650959
30
0
41
1
10
85.1993900512248
20
6.30362684310694
30
0
41
1
10
85.2893569848547
20
6.41341071121832
30
0
41
1
10
85.3721447643829
20
6.52853711637709
30
0
0
SPLINE
5
115
100
AcDbEntity
8
1
62
256
6
ByLayer
370
18
48
1
60
0
100
AcDbSpline
70
4
71
1
72
4
73
2
40
0
40
0
40
1
40
1
41
1
10
95.5292250545211
20
-2.34580442957699
30
0
41
1
10
95.5364176341251
20
-2.35980772346642
30
0
0
SPLINE
5
116
100
AcDbEntity
8
1
62
256
6
ByLayer
370
18
48
1
60
0
100
AcDbSpline
70
4
71
3
72
8
73
4
40
0
40
0
40
0
40
0
40
1
40
1
40
1
40
1
41
1
10
100.986583677731
20
-0.0558453725018069
30
0
41
1
10
100.975192137537
20
-0.0932688550276737
30
0
41
1
10
100.963868916415
20
-0.130552988506366
30
0
41
1
10
100.952613445409
20
-0.167698933429932
30
0
0
SPLINE
5
117
100
AcDbEntity
8
1
62
256
6
ByLayer
370
18
48
1
60
0
100
AcDbSpline
70
4
71
3
72
8
73
4
40
0
40
0
40
0
40
0
40
1
40
1
40
1
40
1
41
1
10
98.5501156587407
20
7.24380190967122
30
0
41
1
10
98.5190274414726
20
7.28541389653884
30
0
41
1
10
98.4920459294597
20
7.31486583799835
30
0
41
1
10
98.4691923738948
20
7.33209480879509
30
0
0
SPLINE
5
118
100
AcDbEntity
8
1
62
256
6
ByLayer
370
18
48
1
60
0
100
AcDbSpline
70
4
71
4
72
10
73
5
40
0
40
0
40
0
40
0
40
0
40
1
40
1
40
1
40
1
40
1
41
0.999529073972829
10
91.7
20
2.10003039300043
30
0
41
0.999595162579656
10
91.7
20
2.08335320378245
30
0
41
0.999656549494682
10
91.7
20
2.06698016766452
30
0
41
0.99971261100849
10
91.7
20
2.05091220081031
30
0
41
0.999762681468221
10
91.7
20
2.03514990211863
30
0
0
SPLINE
5
119
100
AcDbEntity
8
1
62
256
6
ByLayer
370
18
48
1
60
0
100
AcDbSpline
70
4
71
3
72
19
73
15
40
0
40
0
40
0
40
0
40
0.460829129029594
40
0.460829129029594
40
0.475230039311758
40
0.475230039311758
40
0.489630949593923
40
0.518432770158235
40
0.576036411286859
40
0.691243693544125
40
0.691243693544125
40
0.921658258058638
40
0.921658258058638
40
1
40
1
40
1
40
1
41
1
10
84.1870535746734
20
6.05728173851108
30
0
41
1
10
83.5223729780136
20
5.9231928195114
30
0
41
1
10
82.8580579138836
20
5.77987181141026
30
0
41
1
10
82.173186643053
20
5.6229539843641
30
0
41
1
10
82.1521959208846
20
5.61874705559788
30
0
41
1
10
82.1103840365486
20
5.60992218617855
30
0
41
1
10
82.0476435586691
20
5.59671713458442
30
0
41
1
10
81.9011041303136
20
5.56610253388976
30
0
41
1
10
81.6074589080005
20
5.50565560697916
30
0
41
1
10
81.3548437371738
20
5.45514657902106
30
0
41
1
10
80.8485222964357
20
5.35573101363053
30
0
41
1
10
80.5095286303866
20
5.29157852603927
30
0
41
1
10
80.0537346131514
20
5.20799475124244
30
0
41
1
10
79.9379530545582
20
5.18699031994586
30
0
41
1
10
79.8220475544945
20
5.16617923165563
30
0
0
SPLINE
5
11A
100
AcDbEntity
8
1
62
256
6
ByLayer
370
18
48
1
60
0
100
AcDbSpline
70
4
71
3
72
8
73
4
40
0
40
0
40
0
40
0
40
1
40
1
40
1
40
1
41
1
10
94.3929143282803
20
0.741292352822796
30
0
41
1
10
94.4371617801133
20
0.739228109218175
30
0
41
1
10
94.4814092348544
20
0.73736650499859
30
0
41
1
10
94.5256566828034
20
0.735706670546733
30
0
0
SPLINE
5
11B
100
AcDbEntity
8
1
62
256
6
ByLayer
370
18
48
1
60
0
100
AcDbSpline
70
4
71
3
72
14
73
10
40
0
40
0
40
0
40
0
40
0.25
40
0.25
40
0.5
40
0.5
40
0.75
40
0.75
40
1
40
1
40
1
40
1
41
1
10
100.819429174738
20
-0.691670832253322
30
0
41
1
10
100.793392130165
20
-0.796360793055811
30
0
41
1
10
100.761167323789
20
-0.916674745018611
30
0
41
1
10
100.685631547643
20
-1.1837369966463
30
0
41
1
10
100.642322788295
20
-1.33047739653233
30
0
41
1
10
100.546357779622
20
-1.644500683335
30
0
41
1
10
100.493704115365
20
-1.81177511122397
30
0
41
1
10
100.381162925941
20
-2.16015121275379
30
0
41
1
10
100.32127950459
20
-2.34124032526316
30
0
41
1
10
100.258979045039
20
-2.52561420651989
30
0
0
SPLINE
5
11C
100
AcDbEntity
8
1
62
256
6
ByLayer
370
18
48
1
60
0
100
AcDbSpline
70
4
71
3
72
8
73
4
40
0
40
0
40
0
40
0
40
1
40
1
40
1
40
1
41
1
10
92.2494954838745
20
-7.4440085754853
30
0
41
1
10
92.1122817897197
20
-7.3867591991214
30
0
41
1
10
91.9748963405835
20
-7.3287928129534
30
0
41
1
10
91.8373265610846
20
-7.2701387531221
30
0
0
SPLINE
5
11D
100
AcDbEntity
8
1
62
256
6
ByLayer
370
18
48
1
60
0
100
AcDbSpline
70
4
71
3
72
10
73
6
40
0
40
0
40
0
40
0
40
0.283033767366644
40
0.283033767366644
40
1
40
1
40
1
40
1
41
1
10
91.5000000000001
20
1.98938009804584
30
0
41
1
10
91.5000000000001
20
2.03581011970687
30
0
41
1
10
91.5000000000001
20
2.08441297568225
30
0
41
1
10
91.5000000000001
20
2.26365389941466
30
0
41
1
10
91.5
20
2.40582491474461
30
0
41
1
10
91.5
20
2.56204709805266
30
0
0
SPLINE
5
11E
100
AcDbEntity
8
1
62
256
6
ByLayer
370
13
48
1
60
0
100
AcDbSpline
70
4
71
3
72
10
73
6
40
0
40
0
40
0
40
0
40
0.0018215502098325
40
0.0018215502098325
40
1
40
1
40
1
40
1
41
1
10
100.192013262057
20
0.737548292742559
30
0
41
1
10
100.191999322962
20
0.737557158313308
30
0
41
1
10
100.191985383782
20
0.737566023929645
30
0
41
1
10
100.184333121398
20
0.742433194614733
30
0
41
1
10
100.176726255701
20
0.747332039109239
30
0
41
1
10
100.169152118243
20
0.75227203273036
30
0
0
SPLINE
5
11F
100
AcDbEntity
8
1
62
256
6
ByLayer
370
18
48
1
60
0
100
AcDbSpline
70
4
71
3
72
12
73
8
40
0
40
0
40
0
40
0
40
0.500000000000022
40
0.500000000000022
40
0.750000000000011
40
0.750000000000011
40
1
40
1
40
1
40
1
41
1
10
84.1828433215217
20
-6.06570482856461
30
0
41
1
10
84.4163757840204
20
-6.12035395568415
30
0
41
1
10
84.6337763141706
20
-6.18929623700635
30
0
41
1
10
84.9356453846679
20
-6.30880491773269
30
0
41
1
10
85.0321809674568
20
-6.35142346297155
30
0
41
1
10
85.2113399748439
20
-6.43847110775192
30
0
41
1
10
85.2947566576292
20
-6.48319483497437
30
0
41
1
10
85.3721447643829
20
-6.52853711637712
30
0
0
SPLINE
5
120
100
AcDbEntity
8
1
62
256
6
ByLayer
370
18
48
1
60
0
100
AcDbSpline
70
4
71
3
72
8
73
4
40
0
40
0
40
0
40
0
40
1
40
1
40
1
40
1
41
1
10
100.902510127261
20
-0.282441455618539
30
0
41
1
10
100.93463484129
20
-0.167907897137923
30
0
41
1
10
100.962427441778
20
-0.0552458087979915
30
0
41
1
10
100.986583677722
20
0.0558453725004995
30
0
0
SPLINE
5
121
100
AcDbEntity
8
1
62
256
6
ByLayer
370
18
48
1
60
0
100
AcDbSpline
70
4
71
2
72
6
73
3
40
0
40
0
40
0
40
1
40
1
40
1
41
1
10
94.5256565823355
20
0.735707686581634
30
0
41
1
10
94.664321189974
20
0.180273697360605
30
0
41
1
10
94.8348070717774
20
-0.376832942154351
30
0
0
SPLINE
5
122
100
AcDbEntity
8
1
62
256
6
ByLayer
370
13
48
1
60
0
100
AcDbSpline
70
4
71
3
72
8
73
4
40
0
40
0
40
0
40
0
40
1
40
1
40
1
40
1
41
1
10
100.121227844509
20
0.713221609988295
30
0
41
1
10
100.128812422118
20
0.708114930051437
30
0
41
1
10
100.13643211415
20
0.703051841470227
30
0
41
1
10
100.144085575228
20
0.698031752811119
30
0
0
SPLINE
5
123
100
AcDbEntity
8
1
62
256
6
ByLayer
370
18
48
1
60
0
100
AcDbSpline
70
4
71
3
72
10
73
6
40
0
40
0
40
0
40
0
40
0.5
40
0.5
40
1
40
1
40
1
40
1
41
1
10
85.3838526829834
20
-6.53243050107491
30
0
41
1
10
86.4197211851825
20
-6.72187105370071
30
0
41
1
10
87.4539915954069
20
-6.87961490977142
30
0
41
1
10
89.5244152704781
20
-7.12830385313714
30
0
41
1
10
90.5608314229146
20
-7.21916897969257
30
0
41
1
10
91.6
20
-7.27651349118565
30
0
0
SPLINE
5
124
100
AcDbEntity
8
1
62
256
6
ByLayer
370
18
48
1
60
0
100
AcDbSpline
70
4
71
3
72
18
73
14
40
0
40
0
40
0
40
0
40
0.282736736800321
40
0.282736736800321
40
0.424105105200484
40
0.424105105200484
40
0.565473473600646
40
0.565473473600646
40
0.848210210400971
40
0.848210210400971
40
0.989578578801128
40
0.989578578801128
40
1
40
1
40
1
40
1
41
1
10
19.1580000000577
20
-7.34184959829278
30
0
41
1
10
19.1580000000578
20
-7.33354119947816
30
0
41
1
10
19.1709840716485
20
-7.31900284776299
30
0
41
1
10
19.2108968311706
20
-7.28855677505709
30
0
41
1
10
19.2276210363731
20
-7.27696709618695
30
0
41
1
10
19.2682585647957
20
-7.25101517861532
30
0
41
1
10
19.2922900259406
20
-7.23658611464308
30
0
41
1
10
19.3750827726226
20
-7.1897779925805
30
0
41
1
10
19.443692264356
20
-7.15430601855567
30
0
41
1
10
19.5668419399378
20
-7.09669463301279
30
0
41
1
10
19.6112793038117
20
-7.07675551754073
30
0
41
1
10
19.6627432413404
20
-7.05473648002032
30
0
41
1
10
19.6662972234662
20
-7.05322100936891
30
0
41
1
10
19.6698714128575
20
-7.05170208548103
30
0
0
SPLINE
5
125
100
AcDbEntity
8
1
62
256
6
ByLayer
370
18
48
1
60
0
100
AcDbSpline
70
4
71
3
72
20
73
16
40
0
40
0
40
0
40
0
40
0.103465659068959
40
0.103465659068959
40
0.159499055377149
40
0.159499055377149
40
0.215532451685339
40
0.215532451685339
40
0.32759924430172
40
0.32759924430172
40
0.55173282953448
40
0.55173282953448
40
0.77586641476724
40
0.77586641476724
40
1
40
1
40
1
40
1
41
1
10
54.8687122453746
20
-0.690568214982136
30
0
41
1
10
53.5956056411314
20
-0.458697986469758
30
0
41
1
10
52.3227145283036
20
-0.225168499779727
30
0
41
1
10
50.3604561415671
20
0.135562908900084
30
0
41
1
10
49.6710871189375
20
0.262384950274651
30
0
41
1
10
48.2922274245992
20
0.515679185310972
30
0
41
1
10
47.6027400009572
20
0.64218031749607
30
0
41
1
10
45.5339105832596
20
1.02009281649498
30
0
41
1
10
44.1539485242674
20
1.26956318256802
30
0
41
1
10
40.0149328978447
20
2.00836915242178
30
0
41
1
10
37.2561967162043
20
2.48858884228545
30
0
41
1
10
31.7373319917605
20
3.40592392352724
30
0
41
1
10
28.9767775230402
20
3.84309547804529
30
0
41
1
10
23.459818737101
20
4.64179153387232
30
0
41
1
10
20.702319719759
20
5.00366114386492
30
0
41
1
10
17.9427231040245
20
5.30684497388771
30
0
0
SPLINE
5
126
100
AcDbEntity
8
1
62
256
6
ByLayer
370
18
48
1
60
0
100
AcDbSpline
70
4
71
3
72
12
73
8
40
0
40
0
40
0
40
0
40
0.419211563003608
40
0.419211563003608
40
0.709605580367987
40
0.709605580367987
40
1
40
1
40
1
40
1
41
1
10
91.6999999960213
20
7.1728633126466
30
0
41
1
10
91.686394556748
20
7.18703928271336
30
0
41
1
10
91.6727837380857
20
7.20121331334079
30
0
41
1
10
91.6497355769561
20
7.22520272520524
30
0
41
1
10
91.6403009734262
20
7.23501908774298
30
0
41
1
10
91.6214267539888
20
7.25465007068644
30
0
41
1
10
91.6119871348048
20
7.26446469448962
30
0
41
1
10
91.6025450471747
20
7.27427846288606
30
0
0
SPLINE
5
127
100
AcDbEntity
8
1
62
256
6
ByLayer
370
18
48
1
60
0
100
AcDbSpline
70
4
71
3
72
16
73
12
40
0
40
0
40
0
40
0
40
0.249999999999989
40
0.249999999999989
40
0.374999999999983
40
0.374999999999983
40
0.499999999999978
40
0.499999999999978
40
0.749999999999989
40
0.749999999999989
40
1
40
1
40
1
40
1
41
1
10
17.942985295643
20
5.30861691536862
30
0
41
1
10
17.7939886933743
20
5.32174439875158
30
0
41
1
10
17.6455945088371
20
5.33993062034168
30
0
41
1
10
17.423722470219
20
5.37335151956825
30
0
41
1
10
17.349882494206
20
5.38549717495226
30
0
41
1
10
17.2023850368803
20
5.41140313335038
30
0
41
1
10
17.1287447590633
20
5.425167103517
30
0
41
1
10
16.9126213607865
20
5.46726770594069
30
0
41
1
10
16.7732031551362
20
5.49666294325866
30
0
41
1
10
16.5016182962191
20
5.55491579868453
30
0
41
1
10
16.3691679577981
20
5.58383967298073
30
0
41
1
10
16.243241306116
20
5.61067472588266
30
0
0
SPLINE
5
128
100
AcDbEntity
8
1
62
256
6
ByLayer
370
13
48
1
60
0
100
AcDbSpline
70
4
71
3
72
15
73
11
40
0
40
0
40
0
40
0
40
0.254533388265851
40
0.381800082398777
40
0.445433429465239
40
0.509066776531702
40
0.763600164797553
40
0.827233511864016
40
0.890866858930479
40
1
40
1
40
1
40
1
41
1
10
91.7
20
5.754513009086
30
0
41
1
10
92.343929197596
20
5.77210945825271
30
0
41
1
10
93.3097108783737
20
5.77478535216591
30
0
41
1
10
94.4358823294016
20
5.74211399342212
30
0
41
1
10
95.0795457409574
20
5.71512589177527
30
0
41
1
10
96.0453963921369
20
5.6649088188928
30
0
41
1
10
97.010978285477
20
5.58739029192606
30
0
41
1
10
97.9762835847426
20
5.48677838571456
30
0
41
1
10
98.5742002860549
20
5.41965234647174
30
0
41
1
10
99.0111770607882
20
5.36419306906981
30
0
41
1
10
99.2871950104113
20
5.32680852207241
30
0
0
SPLINE
5
129
100
AcDbEntity
8
1
62
256
6
ByLayer
370
18
48
1
60
0
100
AcDbSpline
70
4
71
3
72
16
73
12
40
0
40
0
40
0
40
0
40
0.125
40
0.125
40
0.25
40
0.25
40
0.5
40
0.5
40
0.75
40
0.75
40
1
40
1
40
1
40
1
41
1
10
98.7172104257763
20
7.03212494672059
30
0
41
1
10
98.4471596814829
20
7.07511825045836
30
0
41
1
10
98.1775172425758
20
7.1153377438836
30
0
41
1
10
97.6382662760955
20
7.18967808697764
30
0
41
1
10
97.3686755757878
20
7.2238278047582
30
0
41
1
10
96.5602097178427
20
7.3174392369169
30
0
41
1
10
96.0215610192805
20
7.36803689605421
30
0
41
1
10
94.9451098422275
20
7.44556381150369
30
0
41
1
10
94.4070661519047
20
7.47232115785332
30
0
41
1
10
93.329063634017
20
7.50143046513219
30
0
41
1
10
92.7895217568087
20
7.50392424650522
30
0
41
1
10
92.2494954838909
20
7.49416066225882
30
0
0
SPLINE
5
12A
100
AcDbEntity
8
1
62
256
6
ByLayer
370
18
48
1
60
0
100
AcDbSpline
70
4
71
3
72
14
73
10
40
0
40
0
40
0
40
0
40
0.311040508197763
40
0.311040508197763
40
0.483280381148322
40
0.483280381148322
40
0.655520254098881
40
0.655520254098881
40
1
40
1
40
1
40
1
41
1
10
85.9628759463727
20
3.6425110744178
30
0
41
1
10
86.867013201305
20
3.4035774985403
30
0
41
1
10
87.7705245273374
20
3.14964017856388
30
0
41
1
10
89.1744619012787
20
2.73424613148671
30
0
41
1
10
89.6749581597442
20
2.58199296932256
30
0
41
1
10
90.674521732714
20
2.27030698998863
30
0
41
1
10
91.1737867512351
20
2.11082318928035
30
0
41
1
10
92.6703746170102
20
1.6221428103357
30
0
41
1
10
93.6664788726938
20
1.28261847483535
30
0
41
1
10
94.662381537762
20
0.932510080547274
30
0
0
SPLINE
5
12B
100
AcDbEntity
8
1
62
256
6
ByLayer
370
13
48
1
60
0
100
AcDbSpline
70
4
71
3
72
20
73
16
40
0
40
0
40
0
40
0
40
0.322864341593216
40
0.322864341593216
40
0.484296512389824
40
0.484296512389824
40
0.645728683186431
40
0.645728683186431
40
0.807160853983039
40
0.807160853983039
40
0.887876939381343
40
0.887876939381343
40
0.968593024779647
40
0.968593024779647
40
1
40
1
40
1
40
1
41
1
10
99.1677820656231
20
-1.29300967261787
30
0
41
1
10
98.9710528373475
20
-1.16397025401216
30
0
41
1
10
98.7246137524197
20
-0.975564401091304
30
0
41
1
10
98.4417896480961
20
-0.719665671493317
30
0
41
1
10
98.3196556184395
20
-0.599792668361857
30
0
41
1
10
98.1354002023168
20
-0.402079833632769
30
0
41
1
10
98.0141168680175
20
-0.260081937194627
30
0
41
1
10
97.8360091400971
20
-0.0298311105968594
30
0
41
1
10
97.7189036795653
20
0.137318843660694
30
0
41
1
10
97.5951645591085
20
0.334931791938999
30
0
41
1
10
97.5394474102451
20
0.429140168691049
30
0
41
1
10
97.4607475183969
20
0.570726958141819
30
0
41
1
10
97.4072753017571
20
0.673210158362224
30
0
41
1
10
97.356087102962
20
0.778360998717801
30
0
41
1
10
97.3414886175523
20
0.809540562702011
30
0
41
1
10
97.3267386836862
20
0.842180386265198
30
0
0
SPLINE
5
12C
100
AcDbEntity
8
1
62
256
6
ByLayer
370
18
48
1
60
0
100
AcDbSpline
70
4
71
3
72
8
73
4
40
0
40
0
40
0
40
0
40
1
40
1
40
1
40
1
41
1
10
99.2871950104992
20
5.32680852203049
30
0
41
1
10
99.0998016030611
20
5.89197196826274
30
0
41
1
10
98.9098319093068
20
6.46037908888769
30
0
41
1
10
98.7172104257832
20
7.03212494670026
30
0
0
SPLINE
5
12D
100
AcDbEntity
8
1
62
256
6
ByLayer
370
18
48
1
60
0
100
AcDbSpline
70
4
71
3
72
8
73
4
40
0
40
0
40
0
40
0
40
1
40
1
40
1
40
1
41
1
10
91.8373265610847
20
-7.09953819057407
30
0
41
1
10
91.8373265610847
20
-7.17208189190623
30
0
41
1
10
91.8373265610848
20
-7.22894555643137
30
0
41
1
10
91.8373265610848
20
-7.2701387531221
30
0
0
SPLINE
5
12E
100
AcDbEntity
8
1
62
256
6
ByLayer
370
18
48
1
60
0
100
AcDbSpline
70
4
71
1
72
4
73
2
40
0
40
0
40
1
40
1
41
1
10
18.0233105203422
20
5.77610688391138
30
0
41
1
10
17.9427231040244
20
5.30684497388773
30
0
0
SPLINE
5
12F
100
AcDbEntity
8
1
62
256
6
ByLayer
370
18
48
1
60
0
100
AcDbSpline
70
4
71
2
72
6
73
3
40
0
40
0
40
0
40
1
40
1
40
1
41
0.499986602084903
10
93.3229710902606
20
-0.38982155291687
30
0
41
0.500013397915096
10
94.0120269859012
20
-0.392293497961914
30
0
41
0.499986602084903
10
94.7011482413748
20
-0.394765354011802
30
0
0
SPLINE
5
130
100
AcDbEntity
8
1
62
256
6
ByLayer
370
18
48
1
60
0
100
AcDbSpline
70
4
71
3
72
8
73
4
40
0
40
0
40
0
40
0
40
1
40
1
40
1
40
1
41
1
10
91.6048791699132
20
6.61962257788053
30
0
41
1
10
91.6041063496278
20
6.83875908179567
30
0
41
1
10
91.6033282600727
20
7.05698453057127
30
0
41
1
10
91.6025452625005
20
7.27427827085205
30
0
0
SPLINE
5
131
100
AcDbEntity
8
1
62
256
6
ByLayer
370
18
48
1
60
0
100
AcDbSpline
70
4
71
3
72
8
73
4
40
0
40
0
40
0
40
0
40
1
40
1
40
1
40
1
41
1
10
91.5
20
3.44999999999999
30
0
41
1
10
91.566658606587
20
3.44999999999999
30
0
41
1
10
91.6333254465626
20
3.44999999999999
30
0
41
1
10
91.7
20
3.44999999999999
30
0
0
SPLINE
5
132
100
AcDbEntity
8
1
62
256
6
ByLayer
370
18
48
1
60
0
100
AcDbSpline
70
4
71
3
72
8
73
4
40
0
40
0
40
0
40
0
40
1
40
1
40
1
40
1
41
1
10
80.8332414912481
20
4.97594373008889
30
0
41
1
10
80.8313450869734
20
4.97108913773423
30
0
41
1
10
80.8294508761257
20
4.96622706052324
30
0
41
1
10
80.8275588599056
20
4.9613574943586
30
0
0
SPLINE
5
133
100
AcDbEntity
8
1
62
256
6
ByLayer
370
18
48
1
60
0
100
AcDbSpline
70
4
71
1
72
4
73
2
40
0
40
0
40
1
40
1
41
1
10
95.4136070758776
20
-2.36114157395363
30
0
41
1
10
95.5292250545211
20
-2.34580442957702
30
0
0
SPLINE
5
134
100
AcDbEntity
8
1
62
256
6
ByLayer
370
18
48
1
60
0
100
AcDbSpline
70
4
71
3
72
8
73
4
40
0
40
0
40
0
40
0
40
1
40
1
40
1
40
1
41
1
10
17.5
20
-4.03448058342974
30
0
41
1
10
18.0526303592877
20
-4.12893342386815
30
0
41
1
10
18.6052898725619
20
-4.22159853570176
30
0
41
1
10
19.1580000000379
20
-4.31242437219768
30
0
0
SPLINE
5
135
100
AcDbEntity
8
1
62
256
6
ByLayer
370
18
48
1
60
0
100
AcDbSpline
70
4
71
3
72
14
73
10
40
0
40
0
40
0
40
0
40
0.182616982487361
40
0.182616982487361
40
0.455077988324907
40
0.455077988324907
40
0.727538994162454
40
0.727538994162454
40
1
40
1
40
1
40
1
41
1
10
92.8955544677279
20
1.53129368452738
30
0
41
1
10
93.1635770995892
20
1.49583640820757
30
0
41
1
10
93.4316429158513
20
1.46073409065275
30
0
41
1
10
94.0997647833848
20
1.37413960546596
30
0
41
1
10
94.4998874151745
20
1.32319470346877
30
0
41
1
10
95.3006546905389
20
1.2255956307454
30
0
41
1
10
95.7012722519177
20
1.17871885503379
30
0
41
1
10
96.5024080617574
20
1.08414899054514
30
0
41
1
10
96.9029931667078
20
1.03700543577756
30
0
41
1
10
97.3036240561662
20
0.990238211632231
30
0
0
SPLINE
5
136
100
AcDbEntity
8
1
62
256
6
ByLayer
370
18
48
1
60
0
100
AcDbSpline
70
4
71
1
72
4
73
2
40
0
40
0
40
1
40
1
41
1
10
16.1767727197993
20
-3.20266471811451
30
0
41
1
10
16.0670257748723
20
-3.69080867750313
30
0
0
SPLINE
5
137
100
AcDbEntity
8
1
62
256
6
ByLayer
370
18
48
1
60
0
100
AcDbSpline
70
4
71
3
72
10
73
6
40
0
40
0
40
0
40
0
40
0.190474410601793
40
0.608608535419444
40
1
40
1
40
1
40
1
41
1
10
91.7089113896891
20
-6.8830876580067
30
0
41
1
10
91.7077863927021
20
-6.88573679004497
30
0
41
1
10
91.7045162956399
20
-6.89417301560329
30
0
41
1
10
91.7008166759335
20
-6.90783833604445
30
0
41
1
10
91.7002661632532
20
-6.9186451416663
30
0
41
1
10
91.7000000000003
20
-6.92387004318289
30
0
0
SPLINE
5
138
100
AcDbEntity
8
1
62
256
6
ByLayer
370
18
48
1
60
0
100
AcDbSpline
70
4
71
3
72
12
73
8
40
0
40
0
40
0
40
0
40
0.419211563003633
40
0.419211563003633
40
0.709605580368107
40
0.709605580368107
40
1
40
1
40
1
40
1
41
1
10
91.6999999960213
20
-7.1728633126466
30
0
41
1
10
91.686394556748
20
-7.18703928271336
30
0
41
1
10
91.6727837380857
20
-7.20121331334079
30
0
41
1
10
91.6497355769561
20
-7.22520272520526
30
0
41
1
10
91.6403009734261
20
-7.23501908774301
30
0
41
1
10
91.6214267539888
20
-7.25465007068644
30
0
41
1
10
91.6119871348048
20
-7.26446469448965
30
0
41
1
10
91.6025450471747
20
-7.27427846288606
30
0
0
SPLINE
5
139
100
AcDbEntity
8
1
62
256
6
ByLayer
370
18
48
1
60
0
100
AcDbSpline
70
4
71
3
72
10
73
6
40
0
40
0
40
0
40
0
40
0.5
40
0.5
40
1
40
1
40
1
40
1
41
1
10
91.5
20
3.44999999999999
30
0
41
1
10
91.5
20
3.27724811369919
30
0
41
1
10
91.5
20
3.11722868468149
30
0
41
1
10
91.5
20
2.82136096946024
30
0
41
1
10
91.5
20
2.68551706347887
30
0
41
1
10
91.5
20
2.56204709805266
30
0
0
SPLINE
5
13A
100
AcDbEntity
8
1
62
256
6
ByLayer
370
18
48
1
60
0
100
AcDbSpline
70
4
71
3
72
36
73
32
40
0
40
0
40
0
40
0
40
0.125
40
0.125
40
0.25
40
0.25
40
0.375
40
0.375
40
0.5
40
0.5
40
0.625
40
0.625
40
0.75
40
0.75
40
0.8125
40
0.8125
40
0.84375
40
0.84375
40
0.875
40
0.875
40
0.90625
40
0.90625
40
0.921875
40
0.921875
40
0.9375
40
0.9375
40
0.953125
40
0.953125
40
0.96875
40
0.96875
40
1
40
1
40
1
40
1
41
1
10
21.5692691974075
20
6.58947145011561
30
0
41
1
10
24.0611553548713
20
6.36854625666359
30
0
41
1
10
26.5531182288789
20
6.10252478886773
30
0
41
1
10
31.5369470093374
20
5.49056127194979
30
0
41
1
10
34.0290589510892
20
5.14460004939193
30
0
41
1
10
39.0129181680767
20
4.38722442383877
30
0
41
1
10
41.5050504087149
20
3.97590123288691
30
0
41
1
10
46.4891989149509
20
3.10418951055888
30
0
41
1
10
48.9809519848575
20
2.64300013480374
30
0
41
1
10
53.9653176251036
20
1.692403668601
30
0
41
1
10
56.4576305885789
20
1.20261124974604
30
0
41
1
10
61.4408619994381
20
0.212857407255967
30
0
41
1
10
63.9312964415826
20
-0.28689183611101
30
0
41
1
10
67.6680996966865
20
-1.02910835075795
30
0
41
1
10
68.9140561478928
20
-1.27533741689092
30
0
41
1
10
70.7830378885124
20
-1.64084997005992
30
0
41
1
10
71.4059959203558
20
-1.76201106663865
30
0
41
1
10
72.6519444917732
20
-2.00247834550251
30
0
41
1
10
73.2749924298765
20
-2.12151408496393
30
0
41
1
10
74.5207044986761
20
-2.35971353244713
30
0
41
1
10
75.1431295037694
20
-2.47998418301717
30
0
41
1
10
76.0784493996368
20
-2.65117408326682
30
0
41
1
10
76.3905381968456
20
-2.70657286340992
30
0
41
1
10
77.013612723696
20
-2.82138111135762
30
0
41
1
10
77.3244762901061
20
-2.8813018967582
30
0
41
1
10
77.9439301208472
20
-3.00978051437744
30
0
41
1
10
78.2530344435792
20
-3.0761624677196
30
0
41
1
10
78.8721891534012
20
-3.20410614867291
30
0
41
1
10
79.1818834346379
20
-3.26715845910192
30
0
41
1
10
80.1106785586506
20
-3.45617102046313
30
0
41
1
10
80.7298516260885
20
-3.58050609833327
30
0
41
1
10
81.3491273288699
20
-3.70266015927516
30
0
0
SPLINE
5
13B
100
AcDbEntity
8
1
62
256
6
ByLayer
370
18
48
1
60
0
100
AcDbSpline
70
4
71
3
72
8
73
4
40
0
40
0
40
0
40
0
40
1
40
1
40
1
40
1
41
1
10
98.854583815302
20
2.5135005561508
30
0
41
1
10
98.9920440644628
20
2.52196424366221
30
0
41
1
10
99.1293970007095
20
2.53165097034898
30
0
41
1
10
99.2665922265747
20
2.54317371335742
30
0
0
SPLINE
5
13C
100
AcDbEntity
8
1
62
256
6
ByLayer
370
18
48
1
60
0
100
AcDbSpline
70
4
71
3
72
10
73
6
40
0
40
0
40
0
40
0
40
0.5
40
0.5
40
1
40
1
40
1
40
1
41
1
10
85.3838526829836
20
6.53243050107494
30
0
41
1
10
86.4197211851831
20
6.72187105370082
30
0
41
1
10
87.4539915954079
20
6.87961490977156
30
0
41
1
10
89.5244152704799
20
7.12830385313734
30
0
41
1
10
90.560831422917
20
7.21916897969277
30
0
41
1
10
91.6000000000029
20
7.27651349118582
30
0
0
SPLINE
5
13D
100
AcDbEntity
8
1
62
256
6
ByLayer
370
18
48
1
60
0
100
AcDbSpline
70
4
71
2
72
6
73
3
40
0
40
0
40
0
40
1
40
1
40
1
41
0.500000128713985
10
84.1870535746735
20
-6.05728173851108
30
0
41
0.499999871286015
10
84.1849501775414
20
-6.06149950510741
30
0
41
0.500000128713985
10
84.1828433215155
20
-6.06570482856314
30
0
0
SPLINE
5
13E
100
AcDbEntity
8
1
62
256
6
ByLayer
370
18
48
1
60
0
100
AcDbSpline
70
4
71
3
72
8
73
4
40
0
40
0
40
0
40
0
40
1
40
1
40
1
40
1
41
1
10
98.4691923738948
20
7.33209480879509
30
0
41
1
10
98.3963402370524
20
7.34461280541836
30
0
41
1
10
98.3256899468982
20
7.350672485079
30
0
41
1
10
98.2573062361955
20
7.35008397774442
30
0
0
SPLINE
5
13F
100
AcDbEntity
8
1
62
256
6
ByLayer
370
18
48
1
60
0
100
AcDbSpline
70
4
71
3
72
10
73
6
40
0
40
0
40
0
40
0
40
0.509867381087257
40
0.509867381087257
40
1
40
1
40
1
40
1
41
1
10
98.6014237469496
20
-7.23778197696006
30
0
41
1
10
98.6102065692115
20
-7.21213972087938
30
0
41
1
10
98.6189852493191
20
-7.18650076700084
30
0
41
1
10
98.6361945701522
20
-7.13622209949861
30
0
41
1
10
98.6446255511465
20
-7.11158205940339
30
0
41
1
10
98.6530526047145
20
-7.08694537077378
30
0
0
SPLINE
5
140
100
AcDbEntity
8
1
62
256
6
ByLayer
370
18
48
1
60
0
100
AcDbSpline
70
4
71
3
72
8
73
4
40
0
40
0
40
0
40
0
40
1
40
1
40
1
40
1
41
1
10
18.0227055391891
20
5.77369889628781
30
0
41
1
10
17.8512997630204
20
5.79757457593871
30
0
41
1
10
17.6770878443253
20
5.81186924951172
30
0
41
1
10
17.5
20
5.81669482379155
30
0
0
SPLINE
5
141
100
AcDbEntity
8
1
62
256
6
ByLayer
370
18
48
1
60
0
100
AcDbSpline
70
4
71
3
72
8
73
4
40
0
40
0
40
0
40
0
40
1
40
1
40
1
40
1
41
1
10
91.6999999974626
20
2.03509122723315
30
0
41
1
10
91.6974959071338
20
2.03645263985197
30
0
41
1
10
91.6949925115543
20
2.03781662035186
30
0
41
1
10
91.69248982197
20
2.03918317468904
30
0
0
SPLINE
5
142
100
AcDbEntity
8
1
62
256
6
ByLayer
370
18
48
1
60
0
100
AcDbSpline
70
2053
71
3
72
39
73
35
40
0
40
0
40
0
40
0
40
0.0311532092467181
40
0.0622167504126728
40
0.0933772886258327
40
0.124658787763911
40
0.155847159776626
40
0.187271607102865
40
0.218564477164064
40
0.250019953781948
40
0.281451729060676
40
0.312786902840587
40
0.344217520840273
40
0.375418788438862
40
0.406692862027908
40
0.437825755091619
40
0.46900413402331
40
0.50016505356667
40
0.531203540490385
40
0.562301246646279
40
0.593522270709481
40
0.624651929643662
40
0.656013948981516
40
0.687278749809465
40
0.718689172014519
40
0.75012530003842
40
0.781468592072591
40
0.81294399524792
40
0.844211536729542
40
0.875548371857612
40
0.906771661486389
40
0.937865867932098
40
0.969036254523166
40
1
40
1
40
1
40
1
41
1
10
88.88
20
-3.97672416513317
30
0
41
1
10
88.9847318091269
20
-3.97672468525564
30
0
41
1
10
89.1938992902203
20
-3.99483421896048
30
0
41
1
10
89.4947867204181
20
-4.07431248518805
30
0
41
1
10
89.7712225324769
20
-4.20083754099591
30
0
41
1
10
90.0128888085195
20
-4.36684169391964
30
0
41
1
10
90.2114681075893
20
-4.56347010592447
30
0
41
1
10
90.3591861709697
20
-4.78040271157488
30
0
41
1
10
90.4505865770868
20
-5.00789715147602
30
0
41
1
10
90.4815265475242
20
-5.2351231674613
30
0
41
1
10
90.4505178678107
20
-5.45258744519495
30
0
41
1
10
90.3590211027343
20
-5.65210742115346
30
0
41
1
10
90.2110996340145
20
-5.8272418424182
30
0
41
1
10
90.0123861891603
20
-5.97426095590339
30
0
41
1
10
89.7706830408072
20
-6.09035230342624
30
0
41
1
10
89.4939619841498
20
-6.17429987907951
30
0
41
1
10
89.1926888606348
20
-6.22501118779374
30
0
41
1
10
88.8787282462234
20
-6.24185528878687
30
0
41
1
10
88.5651163240011
20
-6.22473160123329
30
0
41
1
10
88.2643286671949
20
-6.17390411018172
30
0
41
1
10
87.9881652220015
20
-6.08989584286925
30
0
41
1
10
87.7463935419729
20
-5.97353757092029
30
0
41
1
10
87.5482088468086
20
-5.82659967355485
30
0
41
1
10
87.4004484672703
20
-5.65122205708531
30
0
41
1
10
87.3092243298088
20
-5.45180740986913
30
0
41
1
10
87.2785100981101
20
-5.23435213731003
30
0
41
1
10
87.3096465422476
20
-5.00694637891286
30
0
41
1
10
87.4012073404533
20
-4.7796547209557
30
0
41
1
10
87.5494237294947
20
-4.56240913113638
30
0
41
1
10
87.7480793501147
20
-4.36600879612072
30
0
41
1
10
87.9900281153558
20
-4.20016960754586
30
0
41
1
10
88.2665137585406
20
-4.07383479954939
30
0
41
1
10
88.5670259878747
20
-3.99469707549946
30
0
41
1
10
88.775905135954
20
-3.97672364817391
30
0
41
1
10
88.88
20
-3.97672416513317
30
0
0
SPLINE
5
143
100
AcDbEntity
8
1
62
256
6
ByLayer
370
18
48
1
60
0
100
AcDbSpline
70
4
71
3
72
10
73
6
40
0
40
0
40
0
40
0
40
0.537385685217393
40
0.537385685217393
40
1
40
1
40
1
40
1
41
1
10
92.5
20
-6.77912844185286
30
0
41
1
10
93.3772793172193
20
-6.77917311672155
30
0
41
1
10
94.2545586367216
20
-6.77913474338175
30
0
41
1
10
95.887053402462
20
-6.7791538443748
30
0
41
1
10
96.6422688500033
20
-6.77915480242788
30
0
41
1
10
97.3974842974935
20
-6.77915201114214
30
0
0
SPLINE
5
144
100
AcDbEntity
8
1
62
256
6
ByLayer
370
18
48
1
60
0
100
AcDbSpline
70
4
71
3
72
50
73
46
40
0
40
0
40
0
40
0
40
0.127869101749608
40
0.127869101749608
40
0.255738203499216
40
0.255738203499216
40
0.31967275437402
40
0.31967275437402
40
0.383607305248825
40
0.383607305248825
40
0.447541856123629
40
0.447541856123629
40
0.479509131561031
40
0.479509131561031
40
0.511476406998433
40
0.511476406998433
40
0.63934550874804
40
0.63934550874804
40
0.767214610497648
40
0.767214610497648
40
0.831149161372451
40
0.831149161372451
40
0.895083712247255
40
0.895083712247255
40
0.911067349965956
40
0.911067349965956
40
0.927050987684657
40
0.927050987684657
40
0.959018263122059
40
0.959018263122059
40
0.97500190084076
40
0.97500190084076
40
0.98299371970011
40
0.98299371970011
40
0.986989629129785
40
0.986989629129785
40
0.988987583844623
40
0.988987583844623
40
0.989986561202042
40
0.989986561202042
40
0.990486049880751
40
0.990486049880751
40
0.990985538559459
40
0.990985538559459
40
1
40
1
40
1
40
1
41
1
10
16.1767727197993
20
-3.20266471811451
30
0
41
1
10
18.8823117374114
20
-3.63226553687971
30
0
41
1
10
21.5879907427358
20
-4.03668128552326
30
0
41
1
10
27.0006873366646
20
-4.78496459564835
30
0
41
1
10
29.7056000522285
20
-5.12858867152642
30
0
41
1
10
33.7628911586687
20
-5.58029577481221
30
0
41
1
10
35.1153254228144
20
-5.72008046953152
30
0
41
1
10
37.820767940974
20
-5.97414053818119
30
0
41
1
10
39.1740997924636
20
-6.08837060660454
30
0
41
1
10
41.8805332014037
20
-6.28695380760183
30
0
41
1
10
43.2330774897535
20
-6.37122230468941
30
0
41
1
10
45.2613497421471
20
-6.47220446669346
30
0
41
1
10
45.9373452252624
20
-6.50138843785683
30
0
41
1
10
47.2894626898898
20
-6.55548404465125
30
0
41
1
10
47.9655500503328
20
-6.5798670581211
30
0
41
1
10
51.3461845899847
20
-6.68839048340902
30
0
41
1
10
54.0517812197839
20
-6.73296860116611
30
0
41
1
10
59.4641708265366
20
-6.72539691126653
30
0
41
1
10
62.170296691112
20
-6.67288138850881
30
0
41
1
10
66.2291962625756
20
-6.50723996483549
30
0
41
1
10
67.5818666280529
20
-6.43756661136052
30
0
41
1
10
70.2872002391609
20
-6.26729138668748
30
0
41
1
10
71.6401862390517
20
-6.16669742382902
30
0
41
1
10
73.3309380421172
20
-6.02097130230001
30
0
41
1
10
73.6690300913935
20
-5.99086424787171
30
0
41
1
10
74.3451431258082
20
-5.92853450080673
30
0
41
1
10
74.6832739519776
20
-5.89688381703428
30
0
41
1
10
75.6957129859838
20
-5.79304294855291
30
0
41
1
10
76.3684525356311
20
-5.71491150166008
30
0
41
1
10
77.3709347252432
20
-5.57115395779795
30
0
41
1
10
77.7040035857414
20
-5.51868592966892
30
0
41
1
10
78.2010407215578
20
-5.42682031481846
30
0
41
1
10
78.3662783566815
20
-5.39399453789113
30
0
41
1
10
78.6132291873229
20
-5.33940156706038
30
0
41
1
10
78.695397357086
20
-5.32029587211008
30
0
41
1
10
78.8183470212747
20
-5.28978798891788
30
0
41
1
10
78.8592768250318
20
-5.27931267896287
30
0
41
1
10
78.9205909144371
20
-5.26299256176952
30
0
41
1
10
78.9410157070021
20
-5.25744203593035
30
0
41
1
10
78.9716388544599
20
-5.24897193810997
30
0
41
1
10
78.9818212649886
20
-5.24557012366043
30
0
41
1
10
79.0023004273834
20
-5.24155887206661
30
0
41
1
10
79.0125367233178
20
-5.23950250917142
30
0
41
1
10
79.207521921707
20
-5.20092082540899
30
0
41
1
10
79.3922451828959
20
-5.1638234118858
30
0
41
1
10
79.5769698690655
20
-5.12612917016583
30
0
0
SPLINE
5
145
100
AcDbEntity
8
1
62
256
6
ByLayer
370
18
48
1
60
0
100
AcDbSpline
70
4
71
3
72
10
73
6
40
0
40
0
40
0
40
0
40
0.5
40
0.5
40
1
40
1
40
1
40
1
41
1
10
91.6048791843236
20
6.61962257761022
30
0
41
1
10
90.6872940695725
20
6.59670697390698
30
0
41
1
10
89.7696484489118
20
6.5501065996437
30
0
41
1
10
87.9377769552925
20
6.40379377663879
30
0
41
1
10
87.0230215385075
20
6.30451812257004
30
0
41
1
10
86.1077789980308
20
6.18066467951022
30
0
0
SPLINE
5
146
100
AcDbEntity
8
1
62
256
6
ByLayer
370
18
48
1
60
0
100
AcDbSpline
70
4
71
3
72
8
73
4
40
0
40
0
40
0
40
0
40
1
40
1
40
1
40
1
41
1
10
100.690579420865
20
-0.8964336121835
30
0
41
1
10
100.762600211507
20
-0.693483087769323
30
0
41
1
10
100.834448402332
20
-0.485158362507633
30
0
41
1
10
100.902510127263
20
-0.282441455618198
30
0
0
SPLINE
5
147
100
AcDbEntity
8
1
62
256
6
ByLayer
370
18
48
1
60
0
100
AcDbSpline
70
4
71
3
72
9
73
5
40
0
40
0
40
0
40
0
40
0.500000000000257
40
1
40
1
40
1
40
1
41
1
10
5.0009
20
2.58396036296517
30
0
41
1
10
5.00041610409954
20
2.56013304626146
30
0
41
1
10
4.99944831229857
20
2.51247841285405
30
0
41
1
10
5.00041610409951
20
2.46473801147698
30
0
41
1
10
5.0009
20
2.44086781078849
30
0
0
SPLINE
5
148
100
AcDbEntity
8
1
62
256
6
ByLayer
370
18
48
1
60
0
100
AcDbSpline
70
4
71
3
72
8
73
4
40
0
40
0
40
0
40
0
40
1
40
1
40
1
40
1
41
1
10
98.8545838189588
20
2.51350055580443
30
0
41
1
10
98.8446486266164
20
2.51288882793625
30
0
41
1
10
98.8351721761517
20
2.50910904547919
30
0
41
1
10
98.8271400693107
20
2.50320448015489
30
0
0
SPLINE
5
149
100
AcDbEntity
8
1
62
256
6
ByLayer
370
18
48
1
60
0
100
AcDbSpline
70
4
71
2
72
6
73
3
40
0
40
0
40
0
40
1
40
1
40
1
41
0.500000007706633
10
18.0233105203422
20
5.77610688391139
30
0
41
0.499999992293367
10
18.0230080974319
20
5.77490329503619
30
0
41
0.500000007706633
10
18.0227055391891
20
5.77369889628781
30
0
0
SPLINE
5
14A
100
AcDbEntity
8
1
62
256
6
ByLayer
370
18
48
1
60
0
100
AcDbSpline
70
4
71
3
72
8
73
4
40
0
40
0
40
0
40
0
40
1
40
1
40
1
40
1
41
1
10
91.5000000000002
20
2.56204709805363
30
0
41
1
10
90.7703155505415
20
2.61191074275604
30
0
41
1
10
90.0406996569029
20
2.65553162480296
30
0
41
1
10
89.3112025539948
20
2.69217603146439
30
0
0
SPLINE
5
14B
100
AcDbEntity
8
1
62
256
6
ByLayer
370
18
48
1
60
0
100
AcDbSpline
70
4
71
3
72
46
73
42
40
0
40
0
40
0
40
0
40
0.12712537713823
40
0.12712537713823
40
0.25425075427646
40
0.25425075427646
40
0.381376131414689
40
0.381376131414689
40
0.413157475699246
40
0.413157475699246
40
0.444938819983804
40
0.444938819983804
40
0.508501508552918
40
0.508501508552918
40
0.635626885691146
40
0.635626885691146
40
0.762752262829375
40
0.762752262829375
40
0.889877639967603
40
0.889877639967603
40
0.905768312109882
40
0.905768312109882
40
0.92165898425216
40
0.92165898425216
40
0.937549656394439
40
0.937549656394439
40
0.953440328536718
40
0.953440328536718
40
0.969331000678997
40
0.969331000678997
40
0.977276336750137
40
0.977276336750137
40
0.981249004785706
40
0.981249004785706
40
0.982242171794598
40
0.982242171794598
40
0.98323533880349
40
0.98323533880349
40
0.985221672821275
40
0.985221672821275
40
1
40
1
40
1
40
1
41
1
10
19.1580000000369
20
-3.99989717016533
30
0
41
1
10
21.7327519838419
20
-4.41251634966267
30
0
41
1
10
24.3083153806273
20
-4.78490750249802
30
0
41
1
10
29.4633941666322
20
-5.45015509792873
30
0
41
1
10
32.0402045853381
20
-5.74314555332364
30
0
41
1
10
37.1925420464738
20
-6.25039175546945
30
0
41
1
10
39.7681081830888
20
-6.46496208990393
30
0
41
1
10
42.9872250654103
20
-6.67701823178643
30
0
41
1
10
43.6309964690807
20
-6.71656613608221
30
0
41
1
10
44.9180089761908
20
-6.78955086669268
30
0
41
1
10
45.5612172565767
20
-6.8230905053706
30
0
41
1
10
47.4913122602995
20
-6.91274553016626
30
0
41
1
10
48.7784473367698
20
-6.95828296136892
30
0
41
1
10
52.6418664905986
20
-7.05344596395452
30
0
41
1
10
55.2180127058
20
-7.0619585362416
30
0
41
1
10
60.3705035391682
20
-6.98312837575992
30
0
41
1
10
62.9472137908413
20
-6.89584678515703
30
0
41
1
10
68.102244970555
20
-6.625510184912
30
0
41
1
10
70.6764326696545
20
-6.4425653149228
30
0
41
1
10
73.5679741370889
20
-6.17615607140399
30
0
41
1
10
73.8892060970641
20
-6.14570006014071
30
0
41
1
10
74.5315589242882
20
-6.08300191541997
30
0
41
1
10
74.8525866936033
20
-6.050597111434
30
0
41
1
10
75.4930216075639
20
-5.98059010771595
30
0
41
1
10
75.8125835208099
20
-5.94333896444502
30
0
41
1
10
76.4499391805407
20
-5.86257835761342
30
0
41
1
10
76.7677578125176
20
-5.81908231298337
30
0
41
1
10
77.4007128433408
20
-5.72270207641014
30
0
41
1
10
77.7159165139872
20
-5.67010239384967
30
0
41
1
10
78.1848204104497
20
-5.57837292466769
30
0
41
1
10
78.3404709976047
20
-5.54563415806498
30
0
41
1
10
78.5722324857803
20
-5.49091751184426
30
0
41
1
10
78.6491993222718
20
-5.47174045277683
30
0
41
1
10
78.7448398286821
20
-5.44595225522318
30
0
41
1
10
78.7639380217561
20
-5.44069940033597
30
0
41
1
10
78.8020707419992
20
-5.42999008580244
30
0
41
1
10
78.8209507922718
20
-5.4241000060384
30
0
41
1
10
78.8793420261669
20
-5.41129610450253
30
0
41
1
10
78.9182892103468
20
-5.40278225891373
30
0
41
1
10
79.246942237236
20
-5.33047719900063
30
0
41
1
10
79.5367373749054
20
-5.26516988778158
30
0
41
1
10
79.8266220897679
20
-5.19830619656221
30
0
0
SPLINE
5
14C
100
AcDbEntity
8
1
62
256
6
ByLayer
370
18
48
1
60
0
100
AcDbSpline
70
4
71
3
72
12
73
8
40
0
40
0
40
0
40
0
40
0.5
40
0.5
40
0.75
40
0.75
40
1
40
1
40
1
40
1
41
1
10
85.0169696964663
20
3.93745796210152
30
0
41
1
10
86.5783607900952
20
3.45758771015326
30
0
41
1
10
88.1372415563104
20
2.94329739478062
30
0
41
1
10
90.4787254314529
20
2.13766337150145
30
0
41
1
10
91.259836790854
20
1.86366690411972
30
0
41
1
10
92.8244204172599
20
1.30778151180647
30
0
41
1
10
93.6082585304225
20
1.02547464205577
30
0
41
1
10
94.3929147311806
20
0.741293232386511
30
0
0
SPLINE
5
14D
100
AcDbEntity
8
1
62
256
6
ByLayer
370
18
48
1
60
0
100
AcDbSpline
70
4
71
3
72
10
73
6
40
0
40
0
40
0
40
0
40
0.335756550977373
40
0.691089404709107
40
1
40
1
40
1
40
1
41
1
10
88.88
20
-3.98980365749753
30
0
41
1
10
88.7837549803691
20
-3.9898049351103
30
0
41
1
10
88.5856530947785
20
-4.00652020671129
30
0
41
1
10
88.31021532703
20
-4.07812090285205
30
0
41
1
10
88.1415575246879
20
-4.15316898580545
30
0
41
1
10
88.0673394953763
20
-4.19312336988708
30
0
0
SPLINE
5
14E
100
AcDbEntity
8
1
62
256
6
ByLayer
370
18
48
1
60
0
100
AcDbSpline
70
4
71
3
72
33
73
29
40
0
40
0
40
0
40
0
40
0.0348053546065834
40
0.0739408172027843
40
0.11290629099107
40
0.153007380190223
40
0.191013308434592
40
0.229016895605675
40
0.269154366461088
40
0.308115861558818
40
0.347282187331698
40
0.386241666160202
40
0.425387375345215
40
0.465543596114002
40
0.50342495686895
40
0.541404872068906
40
0.581718048863589
40
0.6207536038075
40
0.659894184610763
40
0.698860173614436
40
0.738028679942183
40
0.778124738492697
40
0.816070945538021
40
0.853988907622857
40
0.894089972563445
40
0.933250633499329
40
0.972200322478851
40
1
40
1
40
1
40
1
41
1
10
88.0146058420625
20
-4.22277498586689
30
0
41
1
10
87.9426329629266
20
-4.26501147413981
30
0
41
1
10
87.7991863767377
20
-4.36494279932819
30
0
41
1
10
87.6174918002371
20
-4.54371782323057
30
0
41
1
10
87.4756256412032
20
-4.75036735076594
30
0
41
1
10
87.389302426782
20
-4.9644648913588
30
0
41
1
10
87.3607220300663
20
-5.17633697643313
30
0
41
1
10
87.3888446961131
20
-5.37853862579084
30
0
41
1
10
87.4747669725112
20
-5.56556454333003
30
0
41
1
10
87.6163385509691
20
-5.7305328618138
30
0
41
1
10
87.8044604111434
20
-5.86716409350271
30
0
41
1
10
88.0339037488649
20
-5.97507135514061
30
0
41
1
10
88.2984021393041
20
-6.05347766927056
30
0
41
1
10
88.5841640480367
20
-6.10018947630172
30
0
41
1
10
88.8786540053745
20
-6.1151533197787
30
0
41
1
10
89.1736095826458
20
-6.1004418261719
30
0
41
1
10
89.4598509832551
20
-6.05388386199729
30
0
41
1
10
89.7250027746094
20
-5.97549272991324
30
0
41
1
10
89.9543817516478
20
-5.86783650414648
30
0
41
1
10
90.1430046725081
20
-5.73112950130746
30
0
41
1
10
90.2847936924209
20
-5.56632488038485
30
0
41
1
10
90.3709394505982
20
-5.37916676379353
30
0
41
1
10
90.3992428042031
20
-5.17736631570352
30
0
41
1
10
90.3710334000874
20
-4.9657796191278
30
0
41
1
10
90.2850188195786
20
-4.75147217590822
30
0
41
1
10
90.1433545850167
20
-4.54471917002707
30
0
41
1
10
89.9731040626414
20
-4.37694624115804
30
0
41
1
10
89.8458444305728
20
-4.28514585962185
30
0
41
1
10
89.7898754581705
20
-4.24984360198522
30
0
0
SPLINE
5
14F
100
AcDbEntity
8
1
62
256
6
ByLayer
370
18
48
1
60
0
100
AcDbSpline
70
4
71
3
72
10
73
6
40
0
40
0
40
0
40
0
40
0.290821298302566
40
0.655946077521801
40
1
40
1
40
1
40
1
41
1
10
89.6751352158655
20
-4.18382397355973
30
0
41
1
10
89.6063536783831
20
-4.14785252129889
30
0
41
1
10
89.4433581666157
20
-4.07647044677191
30
0
41
1
10
89.1746001210111
20
-4.00653294994908
30
0
41
1
10
88.9762355511955
20
-3.98980238001045
30
0
41
1
10
88.88
20
-3.98980365749753
30
0
0
SPLINE
5
150
100
AcDbEntity
8
1
62
256
6
ByLayer
370
18
48
1
60
0
100
AcDbSpline
70
4
71
3
72
14
73
10
40
0
40
0
40
0
40
0
40
0.25
40
0.25
40
0.5
40
0.5
40
0.75
40
0.75
40
1
40
1
40
1
40
1
41
1
10
15.3606107019059
20
5.46549100331671
30
0
41
1
10
15.1225446467665
20
5.42079175790576
30
0
41
1
10
14.8896674710336
20
5.38045110346485
30
0
41
1
10
14.4317122968965
20
5.31003094775826
30
0
41
1
10
14.206656242292
20
5.27993898607355
30
0
41
1
10
13.7630039479141
20
5.2324968058918
30
0
41
1
10
13.5440914841239
20
5.21518065655127
30
0
41
1
10
13.1181310832263
20
5.19710275472053
30
0
41
1
10
12.9103349613401
20
5.1962433981279
30
0
41
1
10
12.7078024741284
20
5.20547272182384
30
0
0
SPLINE
5
151
100
AcDbEntity
8
1
62
256
6
ByLayer
370
18
48
1
60
0
100
AcDbSpline
70
4
71
4
72
10
73
5
40
0
40
0
40
0
40
0
40
0
40
1
40
1
40
1
40
1
40
1
41
1
10
91.7
20
7.28071154061359
30
0
41
1
10
91.7
20
6.89916190773169
30
0
41
1
10
91.7
20
6.5176122748498
30
0
41
1
10
91.7
20
6.1360626419679
30
0
41
1
10
91.7
20
5.754513009086
30
0
0
SPLINE
5
152
100
AcDbEntity
8
1
62
256
6
ByLayer
370
18
48
1
60
0
100
AcDbSpline
70
4
71
3
72
8
73
4
40
0
40
0
40
0
40
0
40
1
40
1
40
1
40
1
41
1
10
91.8373265610848
20
-7.09953819057449
30
0
41
1
10
91.8373265610854
20
-7.07595889476772
30
0
41
1
10
91.8322262373051
20
-7.0509914747899
30
0
41
1
10
91.8223212080449
20
-7.0247160628243
30
0
0
SPLINE
5
153
100
AcDbEntity
8
1
62
256
6
ByLayer
370
18
48
1
60
0
100
AcDbSpline
70
4
71
3
72
14
73
10
40
0
40
0
40
0
40
0
40
0.5
40
0.5
40
0.749999999999999
40
0.749999999999999
40
0.875
40
0.875
40
1
40
1
40
1
40
1
41
1
10
100.214311206039
20
2.65780556877726
30
0
41
1
10
100.054533996559
20
3.09938047022496
30
0
41
1
10
99.8970967459756
20
3.54292593103082
30
0
41
1
10
99.6646626321563
20
4.21137834526135
30
0
41
1
10
99.5878111435298
20
4.43472345526123
30
0
41
1
10
99.4735745137707
20
4.7706174477631
30
0
41
1
10
99.4356281712954
20
4.88285523549794
30
0
41
1
10
99.3607513524183
20
5.10572411890646
30
0
41
1
10
99.3237462076781
20
5.21657305074723
30
0
41
1
10
99.2871950104441
20
5.32680852207517
30
0
0
SPLINE
5
154
100
AcDbEntity
8
1
62
256
6
ByLayer
370
18
48
1
60
0
100
AcDbSpline
70
4
71
2
72
9
73
6
40
0
40
0
40
0
40
0.25
40
0.5
40
0.75
40
1
40
1
40
1
41
1
10
95.5364149213094
20
-2.35981000062844
30
0
41
1
10
95.5974235755347
20
-2.84478315124414
30
0
41
1
10
95.7687910752194
20
-3.76075998839275
30
0
41
1
10
95.985002574328
20
-4.59827793125015
30
0
41
1
10
96.2431099201553
20
-5.34588018504019
30
0
41
1
10
96.3896800724609
20
-5.6646339465496
30
0
0
SPLINE
5
155
100
AcDbEntity
8
1
62
256
6
ByLayer
370
18
48
1
60
0
100
AcDbSpline
70
4
71
3
72
10
73
6
40
0
40
0
40
0
40
0
40
0.269319501746067
40
0.269319501746067
40
1
40
1
40
1
40
1
41
1
10
94.255040588743
20
7.49999701824248
30
0
41
1
10
94.645261858604
20
7.49999249047681
30
0
41
1
10
95.0353764116404
20
7.49361790985901
30
0
41
1
10
96.483859242761
20
7.44622460379645
30
0
41
1
10
97.5432786702771
20
7.36501296524887
30
0
41
1
10
98.6014237469381
20
7.23778197697922
30
0
0
SPLINE
5
156
100
AcDbEntity
8
1
62
256
6
ByLayer
370
18
48
1
60
0
100
AcDbSpline
70
4
71
3
72
18
73
14
40
0
40
0
40
0
40
0
40
0.116581125872371
40
0.116581125872371
40
0.233162251744743
40
0.233162251744743
40
0.466324503489485
40
0.466324503489485
40
0.699486755234228
40
0.699486755234228
40
0.932649006978971
40
0.932649006978971
40
1
40
1
40
1
40
1
41
1
10
86.1077789980308
20
6.1806646795101
30
0
41
1
10
86.0729014726442
20
6.08365015047647
30
0
41
1
10
86.0367824631714
20
5.98681207477438
30
0
41
1
10
85.9620218701828
20
5.79348906794618
30
0
41
1
10
85.9233650167957
20
5.6970029914747
30
0
41
1
10
85.8055648514954
20
5.41281796962076
30
0
41
1
10
85.7239789390327
20
5.22874598256686
30
0
41
1
10
85.5553570050632
20
4.87107200485662
30
0
41
1
10
85.4683147795722
20
4.69746818427012
30
0
41
1
10
85.2894638199538
20
4.36107534726932
30
0
41
1
10
85.2000510276405
20
4.20277868600738
30
0
41
1
10
85.0858142691289
20
4.01109007184152
30
0
41
1
10
85.0602756027347
20
3.96892546737291
30
0
41
1
10
85.0348234423429
20
3.92756582941757
30
0
0
SPLINE
5
157
100
AcDbEntity
8
1
62
256
6
ByLayer
370
18
48
1
60
0
100
AcDbSpline
70
4
71
3
72
26
73
22
40
0
40
0
40
0
40
0
40
0.124999999999997
40
0.124999999999997
40
0.187499999999996
40
0.187499999999996
40
0.249999999999994
40
0.249999999999994
40
0.374999999999991
40
0.374999999999991
40
0.43749999999999
40
0.43749999999999
40
0.499999999999989
40
0.499999999999989
40
0.624999999999993
40
0.624999999999993
40
0.687499999999992
40
0.687499999999992
40
0.74999999999999
40
0.74999999999999
40
1
40
1
40
1
40
1
41
1
10
96.0240722978051
20
0.930268605858458
30
0
41
1
10
95.9995135979954
20
0.833259255838158
30
0
41
1
10
95.9699130315144
20
0.746624372524224
30
0
41
1
10
95.9174783797455
20
0.633202911476985
30
0
41
1
10
95.8985856884846
20
0.598050505739138
30
0
41
1
10
95.8582988795516
20
0.534068543890442
30
0
41
1
10
95.8370502738065
20
0.50543223997613
30
0
41
1
10
95.7700641666952
20
0.429358754741884
30
0
41
1
10
95.7211002861967
20
0.391714775900766
30
0
41
1
10
95.6412327713414
20
0.354740921885735
30
0
41
1
10
95.6135364910507
20
0.345675592042369
30
0
41
1
10
95.5559594439658
20
0.334175621980734
30
0
41
1
10
95.5260404665673
20
0.331777324995841
30
0
41
1
10
95.4346097381806
20
0.334573923246865
30
0
41
1
10
95.3709312412847
20
0.349562726949955
30
0
41
1
10
95.2715518166493
20
0.390647118784614
30
0
41
1
10
95.237779298302
20
0.40745381997877
30
0
41
1
10
95.1689527284908
20
0.447240193870613
30
0
41
1
10
95.1337658072132
20
0.470324338223236
30
0
41
1
10
94.9566955962854
20
0.59965719580066
30
0
41
1
10
94.8112381850027
20
0.746630642911981
30
0
41
1
10
94.6623815377621
20
0.932510080547246
30
0
0
SPLINE
5
158
100
AcDbEntity
8
1
62
256
6
ByLayer
370
18
48
1
60
0
100
AcDbSpline
70
4
71
3
72
8
73
4
40
0
40
0
40
0
40
0
40
1
40
1
40
1
40
1
41
1
10
92.8980992704455
20
-7.50000597803975
30
0
41
1
10
92.6819781130193
20
-7.50001520227121
30
0
41
1
10
92.4657756469225
20
-7.49807097125395
30
0
41
1
10
92.249495483891
20
-7.49416066225882
30
0
0
SPLINE
5
159
100
AcDbEntity
8
1
62
256
6
ByLayer
370
18
48
1
60
0
100
AcDbSpline
70
4
71
3
72
8
73
4
40
0
40
0
40
0
40
0
40
1
40
1
40
1
40
1
41
1
10
16
20
5.57039618516961
30
0
41
1
10
16.080981121242
20
5.58522497499243
30
0
41
1
10
16.1620628965299
20
5.59863438477001
30
0
41
1
10
16.2432413061159
20
5.61067472588266
30
0
0
SPLINE
5
15A
100
AcDbEntity
8
1
62
256
6
ByLayer
370
18
48
1
60
0
100
AcDbSpline
70
4
71
3
72
34
73
30
40
0
40
0
40
0
40
0
40
0.0945761362320407
40
0.0945761362320407
40
0.396384090821374
40
0.396384090821374
40
0.698192045410707
40
0.698192045410707
40
0.735918039734373
40
0.735918039734373
40
0.773644034058039
40
0.773644034058039
40
0.811370028381707
40
0.811370028381707
40
0.849096022705375
40
0.849096022705375
40
0.886822017029042
40
0.886822017029042
40
0.905685014190874
40
0.905685014190874
40
0.915116512771789
40
0.915116512771789
40
0.917474387417017
40
0.917474387417017
40
0.919832262062245
40
0.919832262062245
40
0.9245480113527
40
0.9245480113527
40
1
40
1
40
1
40
1
41
1
10
55.3723830578843
20
7.04526278207422
30
0
41
1
10
56.1796560963983
20
7.04253970166616
30
0
41
1
10
56.9869522387574
20
7.03489477392256
30
0
41
1
10
60.3705035391682
20
6.98312837575992
30
0
41
1
10
62.9472137908413
20
6.89584678515703
30
0
41
1
10
68.1022449705549
20
6.625510184912
30
0
41
1
10
70.6764326696544
20
6.44256531492277
30
0
41
1
10
73.5679741370889
20
6.17615607140399
30
0
41
1
10
73.8892060970641
20
6.14570006014071
30
0
41
1
10
74.531558924288
20
6.08300191541997
30
0
41
1
10
74.8525866936033
20
6.050597111434
30
0
41
1
10
75.493021607564
20
5.98059010771595
30
0
41
1
10
75.8125835208099
20
5.94333896444505
30
0
41
1
10
76.4499391805406
20
5.86257835761342
30
0
41
1
10
76.7677578125176
20
5.81908231298337
30
0
41
1
10
77.4007128433408
20
5.72270207641014
30
0
41
1
10
77.7159165139871
20
5.6701023938497
30
0
41
1
10
78.1848204104496
20
5.57837292466772
30
0
41
1
10
78.3404709976047
20
5.54563415806496
30
0
41
1
10
78.5722324857803
20
5.49091751184426
30
0
41
1
10
78.6491993222718
20
5.47174045277683
30
0
41
1
10
78.7448398286821
20
5.44595225522318
30
0
41
1
10
78.7639380217561
20
5.44069940033597
30
0
41
1
10
78.8020707419992
20
5.42999008580247
30
0
41
1
10
78.8209507922718
20
5.42410000603837
30
0
41
1
10
78.8793420261668
20
5.41129610450255
30
0
41
1
10
78.9182892103468
20
5.4027822589137
30
0
41
1
10
79.5802679735914
20
5.2571441231855
30
0
41
1
10
80.2036862199543
20
5.11281568133569
30
0
41
1
10
80.8275588599055
20
4.9613574943586
30
0
0
SPLINE
5
15B
100
AcDbEntity
8
1
62
256
6
ByLayer
370
18
48
1
60
0
100
AcDbSpline
70
4
71
3
72
8
73
4
40
0
40
0
40
0
40
0
40
1
40
1
40
1
40
1
41
1
10
12.6242005146707
20
-2.2494203234495
30
0
41
1
10
12.652077305741
20
-2.25718167628284
30
0
41
1
10
12.6799447289406
20
-2.26492120724714
30
0
41
1
10
12.7078024741285
20
-2.27263899309798
30
0
0
SPLINE
5
15C
100
AcDbEntity
8
1
62
256
6
ByLayer
370
18
48
1
60
0
100
AcDbSpline
70
4
71
3
72
10
73
6
40
0
40
0
40
0
40
0
40
0.5
40
0.5
40
1
40
1
40
1
40
1
41
1
10
12.7078024741285
20
-2.27263899309798
30
0
41
1
10
12.9731119573207
20
-2.34614105730557
30
0
41
1
10
13.2459921596532
20
-2.42996903794403
30
0
41
1
10
13.8067705322633
20
-2.61048987868176
30
0
41
1
10
14.0946474253761
20
-2.70719728272772
30
0
41
1
10
14.3914276712953
20
-2.80695489057285
30
0
0
SPLINE
5
15D
100
AcDbEntity
8
1
62
256
6
ByLayer
370
18
48
1
60
0
100
AcDbSpline
70
4
71
3
72
21
73
17
40
0
40
0
40
0
40
0
40
0.0286678227098604
40
0.0572520163373234
40
0.085823914387279
40
0.11445494226733
40
0.143216084859632
40
0.214623046459442
40
0.285488835105166
40
0.357077323318039
40
0.427590985907916
40
0.568928976016338
40
0.709734587980074
40
0.850177987759314
40
0.990395041159936
40
1
40
1
40
1
40
1
41
1
10
91.6000016320994
20
-7.01937342866495
30
0
41
1
10
91.6002196163517
20
-7.01486707429407
30
0
41
1
10
91.6006549489578
20
-7.00586751138079
30
0
41
1
10
91.6041609037993
20
-6.9920740411346
30
0
41
1
10
91.6097589647673
20
-6.97811334809774
30
0
41
1
10
91.617650563781
20
-6.96396518292977
30
0
41
1
10
91.6327680022926
20
-6.94260625948144
30
0
41
1
10
91.6602451717885
20
-6.91395506806273
30
0
41
1
10
91.707793280048
20
-6.87847531717185
30
0
41
1
10
91.7673356800095
20
-6.84419571738863
30
0
41
1
10
91.8621909594949
20
-6.80128965118575
30
0
41
1
10
92.0074714778913
20
-6.75489408774339
30
0
41
1
10
92.215149954175
20
-6.71906058226438
30
0
41
1
10
92.4395279223253
20
-6.70974451494703
30
0
41
1
10
92.5919646192802
20
-6.72286356139199
30
0
41
1
10
92.6655367707183
20
-6.73433333786011
30
0
41
1
10
92.6702534173295
20
-6.73506865524928
30
0
0
SPLINE
5
15E
100
AcDbEntity
8
1
62
256
6
ByLayer
370
18
48
1
60
0
100
AcDbSpline
70
4
71
3
72
9
73
5
40
0
40
0
40
0
40
0
40
0.532993720568442
40
1
40
1
40
1
40
1
41
1
10
96.0240724966765
20
0.930268572623163
30
0
41
1
10
95.6412476445626
20
0.979398032672322
30
0
41
1
10
94.9229936814472
20
1.07157446581448
30
0
41
1
10
94.2048146128328
20
1.16432810081278
30
0
41
1
10
93.8694703816652
20
1.2080257860483
30
0
0
SPLINE
5
15F
100
AcDbEntity
8
1
62
256
6
ByLayer
370
18
48
1
60
0
100
AcDbSpline
70
4
71
3
72
8
73
4
40
0
40
0
40
0
40
0
40
1
40
1
40
1
40
1
41
1
10
91.7
20
-7.28071154061365
30
0
41
1
10
91.8834953036026
20
-7.35322079622244
30
0
41
1
10
92.0666517637642
20
-7.42439454134836
30
0
41
1
10
92.249495483891
20
-7.49416066225882
30
0
0
SPLINE
5
160
100
AcDbEntity
8
1
62
256
6
ByLayer
370
18
48
1
60
0
100
AcDbSpline
70
4
71
1
72
4
73
2
40
0
40
0
40
1
40
1
41
1
10
96.0290990114872
20
0.924660702039745
30
0
41
1
10
96.024073743974
20
0.930265467903126
30
0
0
SPLINE
5
161
100
AcDbEntity
8
1
62
256
6
ByLayer
370
18
48
1
60
0
100
AcDbSpline
70
4
71
3
72
31
73
27
40
0
40
0
40
0
40
0
40
0.0330667693812638
40
0.0659218823160741
40
0.0985658619801195
40
0.130999241767911
40
0.16322256553377
40
0.195236387838975
40
0.227041274205226
40
0.258637801374569
40
0.290026557575923
40
0.321208142798376
40
0.352183169071382
40
0.38295226075202
40
0.413516054819473
40
0.443875201176862
40
0.4740303629606
40
0.503982216857424
40
0.56770135888493
40
0.630915456617007
40
0.69363154406722
40
0.755856824153
40
0.817598671584278
40
0.878864635663405
40
0.93966244298205
40
1
40
1
40
1
40
1
41
1
10
96.2559240106985
20
-5.72777818929049
30
0
41
1
10
96.2433878744291
20
-5.69928877242322
30
0
41
1
10
96.2183958442031
20
-5.64249229604766
30
0
41
1
10
96.1817028440843
20
-5.55503234889568
30
0
41
1
10
96.1457464982545
20
-5.46633065542883
30
0
41
1
10
96.110574295293
20
-5.37626322895056
30
0
41
1
10
96.0761736332234
20
-5.28493724043307
30
0
41
1
10
96.042547855929
20
-5.19239783872752
30
0
41
1
10
96.0096960760057
20
-5.09870591435379
30
0
41
1
10
95.9776185288513
20
-5.00391743166142
30
0
41
1
10
95.9463151518031
20
-4.90808888101697
30
0
41
1
10
95.9157859618863
20
-4.81127580313157
30
0
41
1
10
95.8860309528274
20
-4.71353314856708
30
0
41
1
10
95.8570501325872
20
-4.61491516864851
30
0
41
1
10
95.8288434756873
20
-4.51547537020207
30
0
41
1
10
95.801411075216
20
-4.415266683944
30
0
41
1
10
95.7747525876322
20
-4.31434073120766
30
0
41
1
10
95.7390841708569
20
-4.17434453934109
30
0
41
1
10
95.6955352113384
20
-3.99336737227813
30
0
41
1
10
95.6456534425533
20
-3.76898245378669
30
0
41
1
10
95.598952593412
20
-3.54110595405586
30
0
41
1
10
95.5554382298169
20
-3.31010860982784
30
0
41
1
10
95.5150900787547
20
-3.07638060435596
30
0
41
1
10
95.4779829679153
20
-2.84020618794557
30
0
41
1
10
95.4438409429302
20
-2.60223514524651
30
0
41
1
10
95.4236593837163
20
-2.44129939115666
30
0
41
1
10
95.4136069437335
20
-2.36113724947489
30
0
0
SPLINE
5
162
100
AcDbEntity
8
1
62
256
6
ByLayer
370
18
48
1
60
0
100
AcDbSpline
70
4
71
3
72
8
73
4
40
0
40
0
40
0
40
0
40
1
40
1
40
1
40
1
41
1
10
91.6025450534272
20
-7.27427845447738
30
0
41
1
10
91.6016966968489
20
-7.27502358205078
30
0
41
1
10
91.600848345698
20
-7.27576859429718
30
0
41
1
10
91.6
20
-7.27651349118565
30
0
0
SPLINE
5
163
100
AcDbEntity
8
1
62
256
6
ByLayer
370
18
48
1
60
0
100
AcDbSpline
70
4
71
3
72
16
73
12
40
0
40
0
40
0
40
0
40
0.364630699082276
40
0.530697963832208
40
0.616421362939532
40
0.702148724773895
40
0.787879966072676
40
0.833032180797276
40
0.878189009500602
40
0.92335208550237
40
1
40
1
40
1
40
1
41
1.10374900959774
10
62.5258677010948
20
-0.0048133485484094
30
0
41
1.10374900959774
10
64.8265226107135
20
-0.444895997229022
30
0
41
1.10374900959774
10
68.173816791082
20
-1.08541105509138
30
0
41
1.10374900959774
10
72.0529579963003
20
-1.81066137512096
30
0
41
1.10374900959774
10
74.1739488291436
20
-2.19911394750017
30
0
41
1.10374900959774
10
75.7876872095918
20
-2.49644384777563
30
0
41
1.10374900959774
10
77.1473290624763
20
-2.72334148529573
30
0
41
1.10374900959774
10
78.2459186123664
20
-2.95016722495212
30
0
41
1.10374900959774
10
79.0923891958729
20
-3.11630957540675
30
0
41
1.10374900959774
10
80.1354266767585
20
-3.32008103303006
30
0
41
1.10374900959774
10
80.8963625217626
20
-3.46588178078598
30
0
41
1.10374900959774
10
81.3751187956347
20
-3.55642055918556
30
0
0
SPLINE
5
164
100
AcDbEntity
8
1
62
256
6
ByLayer
370
18
48
1
60
0
100
AcDbSpline
70
4
71
3
72
38
73
34
40
0
40
0
40
0
40
0
40
0.125
40
0.125
40
0.25
40
0.25
40
0.375000000000001
40
0.375000000000001
40
0.4375
40
0.4375
40
0.499999999999999
40
0.499999999999999
40
0.624999999999999
40
0.624999999999999
40
0.687499999999999
40
0.687499999999999
40
0.718749999999999
40
0.718749999999999
40
0.749999999999999
40
0.749999999999999
40
0.78125
40
0.78125
40
0.8125
40
0.8125
40
0.875
40
0.875
40
0.90625
40
0.90625
40
0.9375
40
0.9375
40
0.96875
40
0.96875
40
1
40
1
40
1
40
1
41
1
10
12.6242005146707
20
-2.2494203234495
30
0
41
1
10
12.2695636379352
20
-2.15068363883171
30
0
41
1
10
11.9217073139101
20
-2.05787695273977
30
0
41
1
10
11.2320064777096
20
-1.87803976020865
30
0
41
1
10
10.8901803748298
20
-1.79101052775178
30
0
41
1
10
10.2044510625069
20
-1.61289322054037
30
0
41
1
10
9.86057836446852
20
-1.52190032839695
30
0
41
1
10
9.33646613638388
20
-1.3714408438417
30
0
41
1
10
9.16036821635049
20
-1.3189161197889
30
0
41
1
10
8.80414765234931
20
-1.20641849754415
30
0
41
1
10
8.62399022526765
20
-1.14642246426678
30
0
41
1
10
8.08103548822515
20
-0.951802312472523
30
0
41
1
10
7.7139918970654
20
-0.8030461669413
30
0
41
1
10
7.15832683782858
20
-0.52114244033416
30
0
41
1
10
6.97232078080251
20
-0.41721445108422
30
0
41
1
10
6.69366840823892
20
-0.239547503909364
30
0
41
1
10
6.60164516113957
20
-0.177132156073441
30
0
41
1
10
6.42158010772857
20
-0.0462219162863846
30
0
41
1
10
6.33327814038051
20
0.0224350706503742
30
0
41
1
10
6.1608481023739
20
0.167023346598739
30
0
41
1
10
6.07671808615237
20
0.242951821346764
30
0
41
1
10
5.91350088872093
20
0.403139272892332
30
0
41
1
10
5.83432603245745
20
0.487607564733935
30
0
41
1
10
5.61126169186826
20
0.748716672330175
30
0
41
1
10
5.47973346778031
20
0.934773647200672
30
0
41
1
10
5.31282853990314
20
1.23499174388516
30
0
41
1
10
5.26197748362702
20
1.33941119080163
30
0
41
1
10
5.17353916784998
20
1.55154978894862
30
0
41
1
10
5.13587896495994
20
1.65912567777485
30
0
41
1
10
5.07381849084982
20
1.87741184007226
30
0
41
1
10
5.04941508712326
20
1.98812126027175
30
0
41
1
10
5.01445746558935
20
2.21287297663051
30
0
41
1
10
5.00397614940917
20
2.32703302202643
30
0
41
1
10
5.0009
20
2.44086781078849
30
0
0
SPLINE
5
165
100
AcDbEntity
8
1
62
256
6
ByLayer
370
18
48
1
60
0
100
AcDbSpline
70
4
71
1
72
4
73
2
40
0
40
0
40
1
40
1
41
1
10
94.8348070857222
20
-0.376833027900887
30
0
41
1
10
94.7011482399844
20
-0.394765888751351
30
0
0
SPLINE
5
166
100
AcDbEntity
8
1
62
256
6
ByLayer
370
18
48
1
60
0
100
AcDbSpline
70
4
71
2
72
6
73
3
40
0
40
0
40
0
40
1
40
1
40
1
41
0.500000036102796
10
16.0670257748723
20
-3.69080867750312
30
0
41
0.499999963897204
10
16.0676162209428
20
-3.68742660290091
30
0
41
0.500000036102796
10
16.0682072558864
20
-3.68404232293592
30
0
0
SPLINE
5
167
100
AcDbEntity
8
1
62
256
6
ByLayer
370
18
48
1
60
0
100
AcDbSpline
70
4
71
3
72
8
73
4
40
0
40
0
40
0
40
0
40
1
40
1
40
1
40
1
41
1
10
91.7
20
-6.92387174924551
30
0
41
1
10
91.6666666666666
20
-6.95570564234549
30
0
41
1
10
91.6333333333333
20
-6.98753953544545
30
0
41
1
10
91.6
20
-7.01937342854543
30
0
0
SPLINE
5
168
100
AcDbEntity
8
1
62
256
6
ByLayer
370
18
48
1
60
0
100
AcDbSpline
70
4
71
3
72
30
73
26
40
0
40
0
40
0
40
0
40
0.322164887013638
40
0.322164887013638
40
0.483247330520457
40
0.483247330520457
40
0.563788552273855
40
0.604059163150542
40
0.604059163150542
40
0.624194468588873
40
0.624194468588873
40
0.644329774027204
40
0.644329774027204
40
0.65439742674637
40
0.65439742674637
40
0.664465079465535
40
0.684600384903867
40
0.684600384903867
40
0.724870995780529
40
0.724870995780529
40
0.805412217533855
40
0.805412217533855
40
0.966494661040531
40
0.966494661040531
40
1
40
1
40
1
40
1
41
1
10
84.0177622408198
20
5.52662776882437
30
0
41
1
10
83.6843926023802
20
5.46618440829624
30
0
41
1
10
83.3510725174335
20
5.40362747987294
30
0
41
1
10
82.8511343675842
20
5.30673507283115
30
0
41
1
10
82.6844953347317
20
5.27392424111079
30
0
41
1
10
82.4345430265123
20
5.22394192147348
30
0
41
1
10
82.3095683896156
20
5.19875836862118
30
0
41
1
10
82.1845947113283
20
5.17327843936542
30
0
41
1
10
82.1221078859313
20
5.16048801211406
30
0
41
1
10
82.1012791756563
20
5.156220165154
30
0
41
1
10
82.059620396493
20
5.14764386122363
30
0
41
1
10
82.0388019293282
20
5.14306448132027
30
0
41
1
10
82.0075345854413
20
5.13692507739074
30
0
41
1
10
81.9970815387508
20
5.1355357496918
30
0
41
1
10
81.9762013278515
20
5.13213422510185
30
0
41
1
10
81.9448767848142
20
5.12705185291046
30
0
41
1
10
81.9135388705793
20
5.12201113821644
30
0
41
1
10
81.8508433636292
20
5.11194233068176
30
0
41
1
10
81.8090205534995
20
5.10525464063878
30
0
41
1
10
81.6834688698813
20
5.08512406655322
30
0
41
1
10
81.5996536054811
20
5.07156426726121
30
0
41
1
10
81.3479079002315
20
5.03087006372746
30
0
41
1
10
81.1796860258785
20
5.00383985859102
30
0
41
1
10
80.9760565042525
20
4.97132138498441
30
0
41
1
10
80.9409794817224
20
4.96572728842671
30
0
41
1
10
80.9058879660066
20
4.96013843813469
30
0
0
SPLINE
5
169
100
AcDbEntity
8
1
62
256
6
ByLayer
370
18
48
1
60
0
100
AcDbSpline
70
4
71
3
72
12
73
8
40
0
40
0
40
0
40
0
40
0.25
40
0.25
40
0.5
40
0.5
40
1
40
1
40
1
40
1
41
1
10
16.1765626851295
20
-3.20327532886233
30
0
41
1
10
16.0818575501739
20
-3.18897236071717
30
0
41
1
10
15.9868834949376
20
-3.17300157052628
30
0
41
1
10
15.8011265189956
20
-3.13851833304486
30
0
41
1
10
15.7100472864782
20
-3.11997842508882
30
0
41
1
10
15.4420951169748
20
-3.06056968353383
30
0
41
1
10
15.2704574579369
20
-3.01595250286403
30
0
41
1
10
15.1061147653532
20
-2.9661218364742
30
0
0
SPLINE
5
16A
100
AcDbEntity
8
1
62
256
6
ByLayer
370
18
48
1
60
0
100
AcDbSpline
70
4
71
3
72
9
73
5
40
0
40
0
40
0
40
0
40
0.492755069919023
40
1
40
1
40
1
40
1
41
1
10
91.7000000084325
20
6.45837007459534
30
0
41
1
10
91.6846588864908
20
6.48500837385527
30
0
41
1
10
91.6535255245461
20
6.53906829304458
30
0
41
1
10
91.6212505113852
20
6.59251302452157
30
0
41
1
10
91.6048791745909
20
6.61962259360283
30
0
0
SPLINE
5
16B
100
AcDbEntity
8
1
62
256
6
ByLayer
370
13
48
1
60
0
100
AcDbSpline
70
4
71
3
72
8
73
4
40
0
40
0
40
0
40
0
40
1
40
1
40
1
40
1
41
1
10
100.169152118242
20
0.752272032731156
30
0
41
1
10
100.152571465951
20
0.744867750307037
30
0
41
1
10
100.135348697111
20
0.730834018513463
30
0
41
1
10
100.121227844509
20
0.713221609988409
30
0
0
SPLINE
5
16C
100
AcDbEntity
8
1
62
256
6
ByLayer
370
18
48
1
60
0
100
AcDbSpline
70
4
71
3
72
40
73
36
40
0
40
0
40
0
40
0
40
0.0625000000000029
40
0.0625000000000029
40
0.125000000000006
40
0.125000000000006
40
0.187500000000009
40
0.187500000000009
40
0.250000000000012
40
0.250000000000012
40
0.312500000000015
40
0.312500000000015
40
0.375000000000018
40
0.375000000000018
40
0.437500000000021
40
0.437500000000021
40
0.468750000000019
40
0.468750000000019
40
0.500000000000018
40
0.500000000000018
40
0.562500000000016
40
0.562500000000016
40
0.625000000000014
40
0.625000000000014
40
0.687500000000011
40
0.687500000000011
40
0.750000000000009
40
0.750000000000009
40
0.812500000000007
40
0.812500000000007
40
0.875000000000005
40
0.875000000000005
40
0.937500000000002
40
0.937500000000002
40
1
40
1
40
1
40
1
41
1
10
93.3229710902601
20
-0.389821552916857
30
0
41
1
10
93.2547192193967
20
-0.389576703587409
30
0
41
1
10
93.1875385798252
20
-0.395705694465136
30
0
41
1
10
93.0551884944784
20
-0.419925207058384
30
0
41
1
10
92.9895384459323
20
-0.43820862389353
30
0
41
1
10
92.8625825991428
20
-0.486463717577806
30
0
41
1
10
92.8020966741964
20
-0.516013883670013
30
0
41
1
10
92.6870180585312
20
-0.58576600954504
30
0
41
1
10
92.631879639926
20
-0.62650205751379
30
0
41
1
10
92.5313574163474
20
-0.716665995933965
30
0
41
1
10
92.4859038339804
20
-0.765915975112875
30
0
41
1
10
92.4049327658947
20
-0.872978366801135
30
0
41
1
10
92.3691944564055
20
-0.931495470750008
30
0
41
1
10
92.3117253464052
20
-1.05235495456318
30
0
41
1
10
92.2895194481268
20
-1.11509632081922
30
0
41
1
10
92.2665529738084
20
-1.21283657451755
30
0
41
1
10
92.2606309648164
20
-1.24620522265505
30
0
41
1
10
92.2526587057238
20
-1.31252611907351
30
0
41
1
10
92.2505512026615
20
-1.34563930085656
30
0
41
1
10
92.2497682938057
20
-1.44483735790089
30
0
41
1
10
92.256727144165
20
-1.51139823937794
30
0
41
1
10
92.2854314553518
20
-1.64126507689906
30
0
41
1
10
92.3067944272361
20
-1.70356989037288
30
0
41
1
10
92.3628547241256
20
-1.82324608596494
30
0
41
1
10
92.3977700367012
20
-1.88058322765593
30
0
41
1
10
92.4775796939701
20
-1.98565509947719
30
0
41
1
10
92.5229860175481
20
-2.03429788441659
30
0
41
1
10
92.6233363747377
20
-2.12270667738636
30
0
41
1
10
92.6772074318785
20
-2.16161272702044
30
0
41
1
10
92.7919202371131
20
-2.22956982329666
30
0
41
1
10
92.8533996900798
20
-2.25879478641707
30
0
41
1
10
92.9794189029209
20
-2.30549182101126
30
0
41
1
10
93.0441219194466
20
-2.32320251060557
30
0
41
1
10
93.1769312166975
20
-2.34737835790221
30
0
41
1
10
93.2452573181109
20
-2.35376507845905
30
0
41
1
10
93.3135330215974
20
-2.35399719917976
30
0
0
SPLINE
5
16D
100
AcDbEntity
8
1
62
256
6
ByLayer
370
18
48
1
60
0
100
AcDbSpline
70
4
71
3
72
8
73
4
40
0
40
0
40
0
40
0
40
1
40
1
40
1
40
1
41
1
10
19.1580000000369
20
-3.99989506967427
30
0
41
1
10
19.1580000000372
20
-4.10398461095016
30
0
41
1
10
19.1580000000375
20
-4.20816107154704
30
0
41
1
10
19.1580000000379
20
-4.31242437219765
30
0
0
SPLINE
5
16E
100
AcDbEntity
8
1
62
256
6
ByLayer
370
18
48
1
60
0
100
AcDbSpline
70
4
71
3
72
36
73
32
40
0
40
0
40
0
40
0
40
0.0624999999999978
40
0.0624999999999978
40
0.0937499999999967
40
0.0937499999999967
40
0.124999999999996
40
0.124999999999996
40
0.156249999999994
40
0.156249999999994
40
0.187499999999993
40
0.187499999999993
40
0.249999999999991
40
0.249999999999991
40
0.281249999999991
40
0.281249999999991
40
0.312499999999991
40
0.312499999999991
40
0.374999999999992
40
0.374999999999992
40
0.437499999999993
40
0.437499999999993
40
0.499999999999993
40
0.499999999999993
40
0.624999999999995
40
0.624999999999995
40
0.749999999999997
40
0.749999999999997
40
0.874999999999998
40
0.874999999999998
40
1
40
1
40
1
40
1
41
1
10
5.0009
20
2.58396036296517
30
0
41
1
10
5.00702788849441
20
2.81018353290617
30
0
41
1
10
5.04173778220971
20
3.02896178042187
30
0
41
1
10
5.13357006005754
20
3.34633802366489
30
0
41
1
10
5.17096692023026
20
3.45052143932486
30
0
41
1
10
5.25893670256784
20
3.6541432043619
30
0
41
1
10
5.30869186639265
20
3.75177195389983
30
0
41
1
10
5.41872385175125
20
3.93910722894933
30
0
41
1
10
5.47900574660565
20
4.02881023661377
30
0
41
1
10
5.60941316905578
20
4.200460691259
30
0
41
1
10
5.67978850895017
20
4.28265934724678
30
0
41
1
10
5.90334086294578
20
4.51592115377608
30
0
41
1
10
6.06570213010684
20
4.6507443954003
30
0
41
1
10
6.32394124679007
20
4.82646601055564
30
0
41
1
10
6.41287128501673
20
4.88079551904173
30
0
41
1
10
6.59309420092359
20
4.98010359304393
30
0
41
1
10
6.68409146634073
20
5.02498016174113
30
0
41
1
10
6.95891262548554
20
5.14712476112942
30
0
41
1
10
7.14451937037285
20
5.2119698051265
30
0
41
1
10
7.51758935218385
20
5.31612487061187
30
0
41
1
10
7.70595275379668
20
5.35550414320304
30
0
41
1
10
8.07735534115182
20
5.4138497365141
30
0
41
1
10
8.26065712762869
20
5.43301375572486
30
0
41
1
10
8.80434830442715
20
5.46934811350059
30
0
41
1
10
9.15850775137878
20
5.46575207112704
30
0
41
1
10
9.85753848002298
20
5.43368290048596
30
0
41
1
10
10.2021446413523
20
5.40495653110511
30
0
41
1
10
10.8885389146266
20
5.34241403059224
30
0
41
1
10
11.23066300212
20
5.30848072964255
30
0
41
1
10
11.9210031994928
20
5.24960641522182
30
0
41
1
10
12.2691918980042
20
5.22464829552266
30
0
41
1
10
12.6242005146707
20
5.20919687614813
30
0
0
SPLINE
5
16F
100
AcDbEntity
8
1
62
256
6
ByLayer
370
18
48
1
60
0
100
AcDbSpline
70
4
71
3
72
14
73
10
40
0
40
0
40
0
40
0
40
0.25
40
0.25
40
0.5
40
0.5
40
0.75
40
0.75
40
1
40
1
40
1
40
1
41
1
10
14.3914276712952
20
-2.80695489057297
30
0
41
1
10
14.4894336732187
20
-2.91635802926899
30
0
41
1
10
14.5978556092404
20
-3.01487942082153
30
0
41
1
10
14.8360145520182
20
-3.19339238701764
30
0
41
1
10
14.966528229889
20
-3.27355058960651
30
0
41
1
10
15.2394964065053
20
-3.41338570651095
30
0
41
1
10
15.3829131309275
20
-3.47394705982515
30
0
41
1
10
15.6832141829363
20
-3.58016387805091
30
0
41
1
10
15.840050370043
20
-3.62567383616397
30
0
41
1
10
16
20
-3.66404256133876
30
0
0
SPLINE
5
170
100
AcDbEntity
8
1
62
256
6
ByLayer
370
18
48
1
60
0
100
AcDbSpline
70
4
71
3
72
14
73
10
40
0
40
0
40
0
40
0
40
0.499999999999999
40
0.499999999999999
40
0.749999999999999
40
0.749999999999999
40
0.875
40
0.875
40
1
40
1
40
1
40
1
41
1
10
100.214311206039
20
-2.65780556877726
30
0
41
1
10
100.054533996559
20
-3.09938047022496
30
0
41
1
10
99.8970967459754
20
-3.54292593103082
30
0
41
1
10
99.6646626321561
20
-4.21137834526135
30
0
41
1
10
99.5878111435297
20
-4.43472345526121
30
0
41
1
10
99.4735745137706
20
-4.7706174477631
30
0
41
1
10
99.4356281712954
20
-4.88285523549794
30
0
41
1
10
99.3607513524182
20
-5.10572411890646
30
0
41
1
10
99.323746207678
20
-5.21657305074723
30
0
41
1
10
99.2871950104441
20
-5.32680852207517
30
0
0
SPLINE
5
171
100
AcDbEntity
8
1
62
256
6
ByLayer
370
18
48
1
60
0
100
AcDbSpline
70
4
71
3
72
10
73
6
40
0
40
0
40
0
40
0
40
0.707341195192417
40
0.707341195192417
40
1
40
1
40
1
40
1
41
1
10
91.8373265610846
20
-7.2701387531221
30
0
41
1
10
92.404817057538
20
-7.30773462100026
30
0
41
1
10
92.9729808121532
20
-7.33200996385102
30
0
41
1
10
93.7761220750081
20
-7.34763764517766
30
0
41
1
10
94.011185806516
20
-7.34995201850262
30
0
41
1
10
94.2462286234941
20
-7.35000273597612
30
0
0
SPLINE
5
172
100
AcDbEntity
8
1
62
256
6
ByLayer
370
18
48
1
60
0
100
AcDbSpline
70
4
71
3
72
12
73
8
40
0
40
0
40
0
40
0
40
0.25
40
0.25
40
0.5
40
0.5
40
1
40
1
40
1
40
1
41
1
10
14.3914276712952
20
-2.80695489057274
30
0
41
1
10
14.4397736285895
20
-2.81231150024868
30
0
41
1
10
14.4909060662307
20
-2.81943741429532
30
0
41
1
10
14.5992718021103
20
-2.83774870346946
30
0
41
1
10
14.6567961136109
20
-2.84900178598409
30
0
41
1
10
14.8374888829223
20
-2.88910756919924
30
0
41
1
10
14.9670278276629
20
-2.92394901648285
30
0
41
1
10
15.1061147653531
20
-2.96612183647417
30
0
0
SPLINE
5
173
100
AcDbEntity
8
1
62
256
6
ByLayer
370
18
48
1
60
0
100
AcDbSpline
70
4
71
3
72
8
73
4
40
0
40
0
40
0
40
0
40
1
40
1
40
1
40
1
41
1
10
91.7
20
7.28071154061365
30
0
41
1
10
91.8834953036026
20
7.35322079622244
30
0
41
1
10
92.0666517637642
20
7.42439454134836
30
0
41
1
10
92.249495483891
20
7.49416066225882
30
0
0
SPLINE
5
174
100
AcDbEntity
8
1
62
256
6
ByLayer
370
18
48
1
60
0
100
AcDbSpline
70
4
71
3
72
8
73
4
40
0
40
0
40
0
40
0
40
1
40
1
40
1
40
1
41
1
10
85.3838526829836
20
6.53243050107486
30
0
41
1
10
85.3799535927221
20
6.53113149706593
30
0
41
1
10
85.3760509531248
20
6.52983369632872
30
0
41
1
10
85.3721447643829
20
6.52853711637712
30
0
0
SPLINE
5
175
100
AcDbEntity
8
1
62
256
6
ByLayer
370
18
48
1
60
0
100
AcDbSpline
70
4
71
3
72
8
73
4
40
0
40
0
40
0
40
0
40
1
40
1
40
1
40
1
41
1
10
91.8223212080451
20
-7.0247160628243
30
0
41
1
10
92.0502718997937
20
-6.95452476216386
30
0
41
1
10
92.276202057733
20
-6.87287336811809
30
0
41
1
10
92.5
20
-6.77912844185286
30
0
0
SPLINE
5
176
100
AcDbEntity
8
1
62
256
6
ByLayer
370
18
48
1
60
0
100
AcDbSpline
70
4
71
3
72
32
73
28
40
0
40
0
40
0
40
0
40
0.124999999999987
40
0.124999999999987
40
0.187499999999988
40
0.187499999999988
40
0.249999999999989
40
0.249999999999989
40
0.31249999999999
40
0.31249999999999
40
0.37499999999999
40
0.37499999999999
40
0.499999999999992
40
0.499999999999992
40
0.562499999999993
40
0.562499999999993
40
0.624999999999994
40
0.624999999999994
40
0.687499999999995
40
0.687499999999995
40
0.749999999999996
40
0.749999999999996
40
0.874999999999998
40
0.874999999999998
40
0.937499999999999
40
0.937499999999999
40
1
40
1
40
1
40
1
41
1
10
81.3491273288699
20
-3.70266015927518
30
0
41
1
10
81.5731213724408
20
-3.74684368193897
30
0
41
1
10
81.798589437895
20
-3.76803815476941
30
0
41
1
10
82.1389209569609
20
-3.76720942423725
30
0
41
1
10
82.252871787916
20
-3.76141517564523
30
0
41
1
10
82.4809080979006
20
-3.73838124824729
30
0
41
1
10
82.5930766485436
20
-3.72134935517966
30
0
41
1
10
82.8138479837071
20
-3.67650379102594
30
0
41
1
10
82.9224503587204
20
-3.64868914862913
30
0
41
1
10
83.1360799359134
20
-3.58201063438358
30
0
41
1
10
83.2413632444769
20
-3.54303692016947
30
0
41
1
10
83.5499997145089
20
-3.40906142995027
30
0
41
1
10
83.740389719236
20
-3.29989828157369
30
0
41
1
10
84.0035862983806
20
-3.10509952686141
30
0
41
1
10
84.0878453717698
20
-3.03465886250373
30
0
41
1
10
84.247217371203
20
-2.883691793
30
0
41
1
10
84.32136533492
20
-2.80414755163952
30
0
41
1
10
84.4590129958694
20
-2.63693257773642
30
0
41
1
10
84.5225110903864
20
-2.54926143296169
30
0
41
1
10
84.6389105288224
20
-2.36552328133095
30
0
41
1
10
84.6920680924973
20
-2.26889283666279
30
0
41
1
10
84.8333516350972
20
-1.96963436459521
30
0
41
1
10
84.902380844836
20
-1.76083780526272
30
0
41
1
10
84.9714608325468
20
-1.43397059800671
30
0
41
1
10
84.9887267370849
20
-1.32220292542658
30
0
41
1
10
85.0114408367878
20
-1.09719845670136
30
0
41
1
10
85.016969695252
20
-0.983913298547577
30
0
41
1
10
85.0169696952695
20
-0.869856647423859
30
0
0
SPLINE
5
177
100
AcDbEntity
8
1
62
256
6
ByLayer
370
18
48
1
60
0
100
AcDbSpline
70
4
71
3
72
8
73
4
40
0
40
0
40
0
40
0
40
1
40
1
40
1
40
1
41
1
10
16
20
-3.66404256133873
30
0
41
1
10
16.0226915555592
20
-3.67098224370184
30
0
41
1
10
16.0454274935279
20
-3.67764759533074
30
0
41
1
10
16.0682072558864
20
-3.68404232293594
30
0
0
SPLINE
5
178
100
AcDbEntity
8
1
62
256
6
ByLayer
370
18
48
1
60
0
100
AcDbSpline
70
4
71
3
72
8
73
4
40
0
40
0
40
0
40
0
40
1
40
1
40
1
40
1
41
1
10
81.6937673570036
20
4.82794606711582
30
0
41
1
10
82.80170141285
20
4.54599566594942
30
0
41
1
10
83.90894005761
20
4.24261431069905
30
0
41
1
10
85.016969696562
20
3.92113404586215
30
0
0
SPLINE
5
179
100
AcDbEntity
8
1
62
256
6
ByLayer
370
18
48
1
60
0
100
AcDbSpline
70
4
71
3
72
8
73
4
40
0
40
0
40
0
40
0
40
1
40
1
40
1
40
1
41
1
10
15.3606107019059
20
5.46549100331669
30
0
41
1
10
15.565689040575
20
5.50399648022423
30
0
41
1
10
15.7784349225003
20
5.53839221619208
30
0
41
1
10
16
20
5.57039618516961
30
0
0
SPLINE
5
17A
100
AcDbEntity
8
1
62
256
6
ByLayer
370
18
48
1
60
0
100
AcDbSpline
70
4
71
3
72
8
73
4
40
0
40
0
40
0
40
0
40
1
40
1
40
1
40
1
41
1
10
85.3838526829836
20
-6.53243050107483
30
0
41
1
10
85.3799535927221
20
-6.5311314970659
30
0
41
1
10
85.3760509531248
20
-6.52983369632872
30
0
41
1
10
85.3721447643829
20
-6.52853711637712
30
0
0
SPLINE
5
17B
100
AcDbEntity
8
1
62
256
6
ByLayer
370
13
48
1
60
0
100
AcDbSpline
70
4
71
3
72
18
73
14
40
0
40
0
40
0
40
0
40
0.250000000000009
40
0.250000000000009
40
0.500000000000019
40
0.500000000000019
40
0.625000000000014
40
0.625000000000014
40
0.750000000000009
40
0.750000000000009
40
0.875000000000005
40
0.875000000000005
40
1
40
1
40
1
40
1
41
1
10
100.169152118242
20
0.752272032731071
30
0
41
1
10
100.024204927641
20
0.846809292035204
30
0
41
1
10
99.8838834841949
20
0.952823935651111
30
0
41
1
10
99.6168521362584
20
1.19074163924733
30
0
41
1
10
99.4898988347227
20
1.32309664490524
30
0
41
1
10
99.3165261868784
20
1.54157283258527
30
0
41
1
10
99.2615144172246
20
1.61777288616901
30
0
41
1
10
99.157852108287
20
1.77785690472086
30
0
41
1
10
99.1089431765226
20
1.86218971157453
30
0
41
1
10
99.0199987627157
20
2.03708328424375
30
0
41
1
10
98.9799720593959
20
2.12761425182481
30
0
41
1
10
98.9096075015868
20
2.31547400485655
30
0
41
1
10
98.8790821151989
20
2.4132157266063
30
0
41
1
10
98.8545838152988
20
2.51350055615006
30
0
0
SPLINE
5
17C
100
AcDbEntity
8
1
62
256
6
ByLayer
370
18
48
1
60
0
100
AcDbSpline
70
4
71
3
72
12
73
8
40
0
40
0
40
0
40
0
40
0.499999999999985
40
0.499999999999985
40
0.749999999999992
40
0.749999999999992
40
1
40
1
40
1
40
1
41
1
10
16.243241306116
20
5.61067472588266
30
0
41
1
10
16.4406106259243
20
5.67286997418918
30
0
41
1
10
16.6450401763842
20
5.7207290633927
30
0
41
1
10
16.9623061405369
20
5.77253250568594
30
0
41
1
10
17.0698172854301
20
5.78637867061067
30
0
41
1
10
17.2844543460128
20
5.80684177753582
30
0
41
1
10
17.3920746212751
20
5.81354967069197
30
0
41
1
10
17.5
20
5.81669482379155
30
0
0
SPLINE
5
17D
100
AcDbEntity
8
1
62
256
6
ByLayer
370
18
48
1
60
0
100
AcDbSpline
70
4
71
4
72
10
73
5
40
0
40
0
40
0
40
0
40
0
40
1
40
1
40
1
40
1
40
1
41
1
10
91.7
20
5.754513009086
30
0
41
1
10
91.7
20
4.71697771482704
30
0
41
0.990598541621367
10
91.7000000000001
20
3.60390323826218
30
0
41
0.99679546715723
10
91.7
20
2.72347315225688
30
0
41
0.999271812923285
10
91.7
20
2.16116400908601
30
0
0
SPLINE
5
17E
100
AcDbEntity
8
1
62
256
6
ByLayer
370
18
48
1
60
0
100
AcDbSpline
70
4
71
3
72
8
73
4
40
0
40
0
40
0
40
0
40
1
40
1
40
1
40
1
41
1
10
17.5
20
-4.03448058342974
30
0
41
1
10
17.0223824419781
20
-3.92058456125937
30
0
41
1
10
16.5447365106784
20
-3.80598204580198
30
0
41
1
10
16.0670257748723
20
-3.69080867750313
30
0
0
SPLINE
5
17F
100
AcDbEntity
8
1
62
256
6
ByLayer
370
18
48
1
60
0
100
AcDbSpline
70
4
71
3
72
28
73
24
40
0
40
0
40
0
40
0
40
0.125000000000001
40
0.125000000000001
40
0.187500000000001
40
0.187500000000001
40
0.250000000000001
40
0.250000000000001
40
0.375000000000001
40
0.375000000000001
40
0.437499999999999
40
0.437499999999999
40
0.499999999999996
40
0.499999999999996
40
0.624999999999992
40
0.624999999999992
40
0.687499999999993
40
0.687499999999993
40
0.749999999999995
40
0.749999999999995
40
0.874999999999997
40
0.874999999999997
40
1
40
1
40
1
40
1
41
1
10
19.1580000000576
20
7.34184959829278
30
0
41
1
10
19.1580000000578
20
7.33354119947816
30
0
41
1
10
19.1709840716485
20
7.31900284776299
30
0
41
1
10
19.2108968311706
20
7.28855677505709
30
0
41
1
10
19.2276210363731
20
7.27696709618695
30
0
41
1
10
19.2682585647957
20
7.25101517861532
30
0
41
1
10
19.2922900259406
20
7.23658611464308
30
0
41
1
10
19.3750827726227
20
7.1897779925805
30
0
41
1
10
19.443692264356
20
7.15430601855567
30
0
41
1
10
19.5668419399378
20
7.09669463301279
30
0
41
1
10
19.6112793038117
20
7.07675551754073
30
0
41
1
10
19.7071404667937
20
7.03574096160486
30
0
41
1
10
19.7588665348791
20
7.01455078990318
30
0
41
1
10
19.9222948292378
20
6.95086260717619
30
0
41
1
10
20.0421136157815
20
6.90822902354319
30
0
41
1
10
20.2378401477618
20
6.84634965084089
30
0
41
1
10
20.3057627715793
20
6.82606734841724
30
0
41
1
10
20.4470937023215
20
6.78659079510757
30
0
41
1
10
20.5205245881101
20
6.7674092739517
30
0
41
1
10
20.7447523619472
20
6.71315786927639
30
0
41
1
10
20.9008332840909
20
6.68097116586014
30
0
41
1
10
21.2260425560525
20
6.62682530036415
30
0
41
1
10
21.3961167174545
20
6.60482277144936
30
0
41
1
10
21.5692691974075
20
6.58947145011561
30
0
0
SPLINE
5
180
100
AcDbEntity
8
1
62
256
6
ByLayer
370
18
48
1
60
0
100
AcDbSpline
70
4
71
3
72
8
73
4
40
0
40
0
40
0
40
0
40
1
40
1
40
1
40
1
41
1
10
91.7
20
2.03515746095366
30
0
41
1
10
91.8368811301556
20
1.95348587699488
30
0
41
1
10
91.9743362118066
20
1.87384925315223
30
0
41
1
10
92.1123455308856
20
1.79617769268071
30
0
0
SPLINE
5
181
100
AcDbEntity
8
1
62
256
6
ByLayer
370
18
48
1
60
0
100
AcDbSpline
70
4
71
3
72
14
73
10
40
0
40
0
40
0
40
0
40
0.25
40
0.25
40
0.5
40
0.5
40
0.75
40
0.75
40
1
40
1
40
1
40
1
41
1
10
100.819429174738
20
0.691670832253322
30
0
41
1
10
100.793392130165
20
0.796360793055811
30
0
41
1
10
100.761167323789
20
0.916674745018611
30
0
41
1
10
100.685631547643
20
1.1837369966463
30
0
41
1
10
100.642322788295
20
1.33047739653233
30
0
41
1
10
100.546357779622
20
1.644500683335
30
0
41
1
10
100.493704115365
20
1.81177511122397
30
0
41
1
10
100.381162925941
20
2.16015121275379
30
0
41
1
10
100.32127950459
20
2.34124032526316
30
0
41
1
10
100.258979045039
20
2.52561420651989
30
0
0
SPLINE
5
182
100
AcDbEntity
8
1
62
256
6
ByLayer
370
18
48
1
60
0
100
AcDbSpline
70
4
71
3
72
16
73
12
40
0
40
0
40
0
40
0
40
0.113736040757907
40
0.226807297984993
40
0.339217339708418
40
0.450969797291546
40
0.562068366581525
40
0.672516809069555
40
0.782318953063468
40
0.891478694871989
40
1
40
1
40
1
40
1
41
1
10
94.701148219271
20
-0.394765613680306
30
0
41
1
10
94.688433001952
20
-0.351977344482009
30
0
41
1
10
94.663076887354
20
-0.266650902154197
30
0
41
1
10
94.6260564074042
20
-0.138657007581344
30
0
41
1
10
94.5899221625438
20
-0.0111871856310017
30
0
41
1
10
94.5547373704454
20
0.11574975640292
30
0
41
1
10
94.52048653293
20
0.242108194393438
30
0
41
1
10
94.4871689884523
20
0.367853735696173
30
0
41
1
10
94.4548025914855
20
0.492949426502804
30
0
41
1
10
94.4233172036638
20
0.617363229490365
30
0
41
1
10
94.4030287366567
20
0.700063889437786
30
0
41
1
10
94.3929142551727
20
0.741292943040492
30
0
0
SPLINE
5
183
100
AcDbEntity
8
1
62
256
6
ByLayer
370
18
48
1
60
0
100
AcDbSpline
70
4
71
3
72
43
73
39
40
0
40
0
40
0
40
0
40
0.0312499999999759
40
0.0312499999999759
40
0.0322265624999755
40
0.0322265624999755
40
0.0332031249999751
40
0.0351562499999754
40
0.0390624999999761
40
0.0468749999999762
40
0.0468749999999762
40
0.0624999999999778
40
0.0624999999999778
40
0.093749999999982
40
0.093749999999982
40
0.109374999999984
40
0.109374999999984
40
0.117187499999985
40
0.117187499999985
40
0.124999999999985
40
0.124999999999985
40
0.249999999999988
40
0.249999999999988
40
0.312499999999989
40
0.312499999999989
40
0.37499999999999
40
0.37499999999999
40
0.499999999999993
40
0.499999999999993
40
0.562499999999993
40
0.562499999999993
40
0.624999999999994
40
0.624999999999994
40
0.749999999999996
40
0.749999999999996
40
0.874999999999998
40
0.874999999999998
40
1
40
1
40
1
40
1
41
1
10
84.1870535746734
20
-6.05728173851108
30
0
41
1
10
83.5223729780136
20
-5.9231928195114
30
0
41
1
10
82.8580579138837
20
-5.77987181141
30
0
41
1
10
82.1731866430529
20
-5.62295398436413
30
0
41
1
10
82.1521959208846
20
-5.61874705559788
30
0
41
1
10
82.1103840365487
20
-5.60992218617855
30
0
41
1
10
82.0476435586691
20
-5.59671713458442
30
0
41
1
10
81.9011041303136
20
-5.56610253388976
30
0
41
1
10
81.6074589080005
20
-5.50565560697916
30
0
41
1
10
81.3548437371737
20
-5.45514657902106
30
0
41
1
10
80.8485222964357
20
-5.35573101363053
30
0
41
1
10
80.5095286303866
20
-5.29157852603925
30
0
41
1
10
79.4890968744001
20
-5.10445115081555
30
0
41
1
10
78.8042603391874
20
-4.98674273874323
30
0
41
1
10
77.7724779268704
20
-4.81762811289104
30
0
41
1
10
77.4277805844422
20
-4.76251514088105
30
0
41
1
10
76.9097719822689
20
-4.68144261924161
30
0
41
1
10
76.7369430552791
20
-4.65468071966896
30
0
41
1
10
76.3909773510787
20
-4.60168448568339
30
0
41
1
10
76.2182499583128
20
-4.5742687226369
30
0
41
1
10
73.2813139851681
20
-4.10820568845574
30
0
41
1
10
70.518721753115
20
-3.63402019390378
30
0
41
1
10
66.3733684326841
20
-2.88788335088432
30
0
41
1
10
64.9913476915484
20
-2.63334271994975
30
0
41
1
10
62.2263056734234
20
-2.11528122582044
30
0
41
1
10
60.8428761660638
20
-1.85170618761938
30
0
41
1
10
56.6937808851604
20
-1.0516909616392
30
0
41
1
10
53.9296467488133
20
-0.506356694951677
30
0
41
1
10
49.7841749191616
20
0.318773889785859
30
0
41
1
10
48.4025226340246
20
0.595261693742003
30
0
41
1
10
45.6389942701725
20
1.14828782772131
30
0
41
1
10
44.2561281082897
20
1.4220299436565
30
0
41
1
10
40.1109748062622
20
2.22918970593378
30
0
41
1
10
37.3503660416391
20
2.74843763277545
30
0
41
1
10
31.8302898007697
20
3.72928013534292
30
0
41
1
10
29.070805838505
20
4.19088854118218
30
0
41
1
10
23.5494850919103
20
5.04141412195412
30
0
41
1
10
20.7876601447162
20
5.4304959860788
30
0
41
1
10
18.0233105203422
20
5.77610688391138
30
0
0
SPLINE
5
184
100
AcDbEntity
8
1
62
256
6
ByLayer
370
13
48
1
60
0
100
AcDbSpline
70
4
71
3
72
20
73
16
40
0
40
0
40
0
40
0
40
0.124999999999993
40
0.124999999999993
40
0.249999999999986
40
0.249999999999986
40
0.374999999999979
40
0.374999999999979
40
0.499999999999972
40
0.499999999999972
40
0.749999999999976
40
0.749999999999976
40
0.874999999999988
40
0.874999999999988
40
1
40
1
40
1
40
1
41
1
10
98.8271400678212
20
2.50320448023035
30
0
41
1
10
98.8511589402386
20
2.40197340172642
30
0
41
1
10
98.8810895382966
20
2.30325070354672
30
0
41
1
10
98.9498959604949
20
2.11317901771821
30
0
41
1
10
98.9889821732837
20
2.0214356225276
30
0
41
1
10
99.076143673904
20
1.84410532710498
30
0
41
1
10
99.1240762876623
20
1.75850778500231
30
0
41
1
10
99.2258363071045
20
1.59587818681462
30
0
41
1
10
99.2798623010423
20
1.51836262686092
30
0
41
1
10
99.4503821341027
20
1.29597842165785
30
0
41
1
10
99.5754643558021
20
1.16099297649717
30
0
41
1
10
99.7731400520233
20
0.978868250299399
30
0
41
1
10
99.8409376284939
20
0.921371525111653
30
0
41
1
10
99.9790658489666
20
0.812744709903399
30
0
41
1
10
100.049328220142
20
0.761644380478316
30
0
41
1
10
100.121227844509
20
0.713221609988324
30
0
0
SPLINE
5
185
100
AcDbEntity
8
1
62
256
6
ByLayer
370
18
48
1
60
0
100
AcDbSpline
70
4
71
3
72
10
73
6
40
0
40
0
40
0
40
0
40
0.5
40
0.5
40
1
40
1
40
1
40
1
41
1
10
81.6937673570036
20
4.82794606711582
30
0
41
1
10
81.5437656999208
20
4.83473468577637
30
0
41
1
10
81.397165387223
20
4.8509539199429
30
0
41
1
10
81.1103656862937
20
4.90065405757278
30
0
41
1
10
80.9701698372995
20
4.93414689728979
30
0
41
1
10
80.8332414912515
20
4.97594373009778
30
0
0
SPLINE
5
186
100
AcDbEntity
8
1
62
256
6
ByLayer
370
18
48
1
60
0
100
AcDbSpline
70
4
71
3
72
8
73
4
40
0
40
0
40
0
40
0
40
1
40
1
40
1
40
1
41
1
10
99.2871950104992
20
-5.32680852203049
30
0
41
1
10
99.099801603059
20
-5.89197196826942
30
0
41
1
10
98.9098319093023
20
-6.46037908890111
30
0
41
1
10
98.7172104257763
20
-7.03212494672047
30
0
0
SPLINE
5
187
100
AcDbEntity
8
1
62
256
6
ByLayer
370
18
48
1
60
0
100
AcDbSpline
70
4
71
3
72
8
73
4
40
0
40
0
40
0
40
0
40
1
40
1
40
1
40
1
41
1
10
12.7078024741285
20
5.20547272182395
30
0
41
1
10
12.6799447182716
20
5.2067421885144
30
0
41
1
10
12.6520773163728
20
5.20798356431933
30
0
41
1
10
12.6242005146707
20
5.20919687614813
30
0
0
SPLINE
5
188
100
AcDbEntity
8
1
62
256
6
ByLayer
370
18
48
1
60
0
100
AcDbSpline
70
4
71
3
72
8
73
4
40
0
40
0
40
0
40
0
40
1
40
1
40
1
40
1
41
1
10
98.4691923738926
20
-7.33209480879674
30
0
41
1
10
98.5143889138626
20
-7.29802177954653
30
0
41
1
10
98.575730449362
20
-7.21614306019697
30
0
41
1
10
98.6530526047145
20
-7.08694537077378
30
0
0
SPLINE
5
189
100
AcDbEntity
8
1
62
256
6
ByLayer
370
18
48
1
60
0
100
AcDbSpline
70
4
71
3
72
8
73
4
40
0
40
0
40
0
40
0
40
1
40
1
40
1
40
1
41
1
10
97.3267386679414
20
0.842180421106548
30
0
41
1
10
97.3185466768139
20
0.891481863731229
30
0
41
1
10
97.3108690588956
20
0.940837322466649
30
0
41
1
10
97.3036240561754
20
0.990238211620323
30
0
0
SPLINE
5
18A
100
AcDbEntity
8
1
62
256
6
ByLayer
370
18
48
1
60
0
100
AcDbSpline
70
4
71
1
72
4
73
2
40
0
40
0
40
1
40
1
41
1
10
96.389704829247
20
-5.66462225610277
30
0
41
1
10
96.2559243647339
20
-5.72773622376781
30
0
0
SPLINE
5
18B
100
AcDbEntity
8
1
62
256
6
ByLayer
370
18
48
1
60
0
100
AcDbSpline
70
4
71
3
72
8
73
4
40
0
40
0
40
0
40
0
40
1
40
1
40
1
40
1
41
1
10
91.6025450534272
20
7.27427845447738
30
0
41
1
10
91.6016966968498
20
7.27502358205004
30
0
41
1
10
91.6008483456997
20
7.2757685942957
30
0
41
1
10
91.6000000000025
20
7.27651349118347
30
0
0
SPLINE
5
18C
100
AcDbEntity
8
1
62
256
6
ByLayer
370
18
48
1
60
0
100
AcDbSpline
70
4
71
3
72
12
73
8
40
0
40
0
40
0
40
0
40
0.500000000000022
40
0.500000000000022
40
0.750000000000011
40
0.750000000000011
40
1
40
1
40
1
40
1
41
1
10
84.1828433215217
20
6.06570482856461
30
0
41
1
10
84.4163757840204
20
6.12035395568415
30
0
41
1
10
84.6337763141706
20
6.18929623700635
30
0
41
1
10
84.9356453846679
20
6.30880491773269
30
0
41
1
10
85.0321809674568
20
6.35142346297155
30
0
41
1
10
85.2113399748439
20
6.43847110775192
30
0
41
1
10
85.2947566576292
20
6.48319483497437
30
0
41
1
10
85.3721447643829
20
6.52853711637712
30
0
0
SPLINE
5
18D
100
AcDbEntity
8
1
62
256
6
ByLayer
370
18
48
1
60
0
100
AcDbSpline
70
4
71
3
72
8
73
4
40
0
40
0
40
0
40
0
40
1
40
1
40
1
40
1
41
1
10
99.2665922265746
20
2.54317371335742
30
0
41
1
10
99.5841884606299
20
2.56984796358276
30
0
41
1
10
99.9006794892244
20
2.6040670390008
30
0
41
1
10
100.214311206039
20
2.65780556877729
30
0
0
SPLINE
5
18E
100
AcDbEntity
8
1
62
256
6
ByLayer
370
13
48
1
60
0
100
AcDbSpline
70
4
71
2
72
6
73
3
40
0
40
0
40
0
40
1
40
1
40
1
41
0.997659047809446
10
100.121227844509
20
0.713221609988294
30
0
41
0.925068582315903
10
99.3703948247175
20
-0.238600738165411
30
0
41
1
10
99.1677820656231
20
-1.29300967261787
30
0
0
LINE
5
70
100
AcDbEntity
8
81
62
256
6
ByLayer
370
18
48
1
60
0
100
AcDbLine
10
91.7
20
0
30
0
11
96.7
21
0
31
0
39
0
210
0
220
0
230
1
0
LINE
5
71
100
AcDbEntity
8
1
62
256
6
ByLayer
370
18
48
1
60
0
100
AcDbLine
10
5.0009
20
12.5
30
0
11
0.2
21
12.5
31
0
39
0
210
0
220
0
230
1
0
LINE
5
73
100
AcDbEntity
8
1
62
256
6
ByLayer
370
18
48
1
60
0
100
AcDbLine
10
0.2
20
-12.5
30
0
11
5.0009
21
-12.5
31
0
39
0
210
0
220
0
230
1
0
LINE
5
74
100
AcDbEntity
8
1
62
256
6
ByLayer
370
18
48
1
60
0
100
AcDbLine
10
0.2
20
12.5
30
0
11
0
21
12.3
31
0
39
0
210
0
220
0
230
1
0
LINE
5
75
100
AcDbEntity
8
1
62
256
6
ByLayer
370
18
48
1
60
0
100
AcDbLine
10
0
20
-12.3
30
0
11
0.2
21
-12.5
31
0
39
0
210
0
220
0
230
1
0
LINE
5
76
100
AcDbEntity
8
SK1
62
256
6
ByLayer
370
18
48
1
60
0
100
AcDbLine
10
-1.6
20
-9.99675
30
0
11
-1.144243
21
-9.784227
31
0
39
0
210
0
220
0
230
1
0
LINE
5
78
100
AcDbEntity
8
SK1
62
256
6
ByLayer
370
18
48
1
60
0
100
AcDbLine
10
-1.144243
20
9.784227
30
0
11
-1.6
21
9.99675
31
0
39
0
210
0
220
0
230
1
0
LINE
5
79
100
AcDbEntity
8
SK1
62
256
6
ByLayer
370
18
48
1
60
0
100
AcDbLine
10
-1.6
20
9.99675
30
0
11
-47.3
21
9.99675
31
0
39
0
210
0
220
0
230
1
0
LINE
5
7A
100
AcDbEntity
8
SK1
62
256
6
ByLayer
370
18
48
1
60
0
100
AcDbLine
10
-47.3
20
-9.99675
30
0
11
-1.6
21
-9.99675
31
0
39
0
210
0
220
0
230
1
0
LINE
5
7B
100
AcDbEntity
8
SK1
62
256
6
ByLayer
370
18
48
1
60
0
100
AcDbLine
10
-48.6
20
9.99675
30
0
11
-49
21
9.99675
31
0
39
0
210
0
220
0
230
1
0
LINE
5
7C
100
AcDbEntity
8
SK1
62
256
6
ByLayer
370
18
48
1
60
0
100
AcDbLine
10
-49
20
-9.99675
30
0
11
-48.6
21
-9.99675
31
0
39
0
210
0
220
0
230
1
0
LINE
5
7D
100
AcDbEntity
8
SK1
62
256
6
ByLayer
370
18
48
1
60
0
100
AcDbLine
10
-47.3
20
9.99675
30
0
11
-47.426311
21
9.888738
31
0
39
0
210
0
220
0
230
1
0
LINE
5
7E
100
AcDbEntity
8
SK1
62
256
6
ByLayer
370
18
48
1
60
0
100
AcDbLine
10
-47.426311
20
-9.888738
30
0
11
-47.3
21
-9.99675
31
0
39
0
210
0
220
0
230
1
0
LINE
5
7F
100
AcDbEntity
8
SK1
62
256
6
ByLayer
370
18
48
1
60
0
100
AcDbLine
10
-48.6
20
-9.99675
30
0
11
-48.449692
21
-9.875033
31
0
39
0
210
0
220
0
230
1
0
LINE
5
80
100
AcDbEntity
8
SK1
62
256
6
ByLayer
370
18
48
1
60
0
100
AcDbLine
10
-48.449692
20
9.875033
30
0
11
-48.6
21
9.99675
31
0
39
0
210
0
220
0
230
1
0
LINE
5
81
100
AcDbEntity
8
SK1
62
256
6
ByLayer
370
18
48
1
60
0
100
AcDbLine
10
-49
20
9.99675
30
0
11
-50
21
8.99675
31
0
39
0
210
0
220
0
230
1
0
LINE
5
82
100
AcDbEntity
8
SK1
62
256
6
ByLayer
370
18
48
1
60
0
100
AcDbLine
10
-50
20
-8.99675
30
0
11
-49
21
-9.99675
31
0
39
0
210
0
220
0
230
1
0
LINE
5
83
100
AcDbEntity
8
SK1
62
256
6
ByLayer
370
18
48
1
60
0
100
AcDbLine
10
-0.975195
20
-9.74675
30
0
11
-0.15
21
-9.74675
31
0
39
0
210
0
220
0
230
1
0
LINE
5
84
100
AcDbEntity
8
SK1
62
256
6
ByLayer
370
18
48
1
60
0
100
AcDbLine
10
-0.15
20
9.74675
30
0
11
-0.975195
21
9.74675
31
0
39
0
210
0
220
0
230
1
0
LINE
5
85
100
AcDbEntity
8
1
62
256
6
ByLayer
370
18
48
1
60
0
100
AcDbLine
10
12.624201
20
-8.288752
30
0
11
12.707802
21
-8.233882
31
0
39
0
210
0
220
0
230
1
0
LINE
5
86
100
AcDbEntity
8
1
62
256
6
ByLayer
370
18
48
1
60
0
100
AcDbLine
10
19.158
20
7.35
30
0
11
17.5
21
7.35
31
0
39
0
210
0
220
0
230
1
0
LINE
5
87
100
AcDbEntity
8
1
62
256
6
ByLayer
370
18
48
1
60
0
100
AcDbLine
10
12.707802
20
8.233882
30
0
11
12.624201
21
8.288752
31
0
39
0
210
0
220
0
230
1
0
LINE
5
88
100
AcDbEntity
8
1
62
256
6
ByLayer
370
18
48
1
60
0
100
AcDbLine
10
16
20
-7.25
30
0
11
17.5
21
-7.35
31
0
39
0
210
0
220
0
230
1
0
LINE
5
89
100
AcDbEntity
8
1
62
256
6
ByLayer
370
18
48
1
60
0
100
AcDbLine
10
17.5
20
-7.35
30
0
11
19.158
21
-7.35
31
0
39
0
210
0
220
0
230
1
0
LINE
5
8A
100
AcDbEntity
8
1
62
256
6
ByLayer
370
18
48
1
60
0
100
AcDbLine
10
17.5
20
7.35
30
0
11
16
21
7.25
31
0
39
0
210
0
220
0
230
1
0
LINE
5
8B
100
AcDbEntity
8
1
62
256
6
ByLayer
370
18
48
1
60
0
100
AcDbLine
10
94.254989
20
7.5
30
0
11
92.897041
21
7.5
31
0
39
0
210
0
220
0
230
1
0
LINE
5
8C
100
AcDbEntity
8
1
62
256
6
ByLayer
370
18
48
1
60
0
100
AcDbLine
10
92.897041
20
-7.5
30
0
11
94.254989
21
-7.5
31
0
39
0
210
0
220
0
230
1
0
LINE
5
8D
100
AcDbEntity
8
80
62
256
6
ByLayer
370
18
48
1
60
0
100
AcDbLine
10
0
20
0
30
0
11
-5
21
0
31
0
39
0
210
0
220
0
230
1
0
LINE
5
8E
100
AcDbEntity
8
4
62
256
6
ByLayer
370
18
48
0.05
60
0
100
AcDbLine
10
91.7
20
0
30
0
11
0
21
0
31
0
39
0
210
0
220
0
230
1
0
LINE
5
90
100
AcDbEntity
8
SK4
62
256
6
ByLayer
370
18
48
0.05
60
0
100
AcDbLine
10
106
20
0
30
0
11
-55
21
0
31
0
39
0
210
0
220
0
230
1
0
LINE
5
92
100
AcDbEntity
8
SK1
62
256
6
ByLayer
370
18
48
1
60
0
100
AcDbLine
10
-47.3
20
0
30
0
11
-47.3
21
-9.99675
31
0
39
0
210
0
220
0
230
1
0
LINE
5
93
100
AcDbEntity
8
SK1
62
256
6
ByLayer
370
18
48
1
60
0
100
AcDbLine
10
-47.3
20
9.99675
30
0
11
-47.3
21
0
31
0
39
0
210
0
220
0
230
1
0
LINE
5
94
100
AcDbEntity
8
SK1
62
256
6
ByLayer
370
18
48
1
60
0
100
AcDbLine
10
-49
20
0
30
0
11
-49
21
-9.99675
31
0
39
0
210
0
220
0
230
1
0
LINE
5
95
100
AcDbEntity
8
SK1
62
256
6
ByLayer
370
18
48
1
60
0
100
AcDbLine
10
-49
20
9.99675
30
0
11
-49
21
0
31
0
39
0
210
0
220
0
230
1
0
LINE
5
96
100
AcDbEntity
8
SK1
62
256
6
ByLayer
370
18
48
1
60
0
100
AcDbLine
10
-43.5
20
-5.922852
30
0
11
-6.5
21
-5.922852
31
0
39
0
210
0
220
0
230
1
0
LINE
5
97
100
AcDbEntity
8
SK1
62
256
6
ByLayer
370
13
48
1
60
0
100
AcDbLine
10
-1.144243
20
0
30
0
11
-1.144243
21
-9.784227
31
0
39
0
210
0
220
0
230
1
0
LINE
5
98
100
AcDbEntity
8
SK1
62
256
6
ByLayer
370
13
48
1
60
0
100
AcDbLine
10
-1.144243
20
9.784227
30
0
11
-1.144243
21
0
31
0
39
0
210
0
220
0
230
1
0
LINE
5
99
100
AcDbEntity
8
SK1
62
256
6
ByLayer
370
13
48
1
60
0
100
AcDbLine
10
-48.449692
20
-9.875033
30
0
11
-48.449692
21
0
31
0
39
0
210
0
220
0
230
1
0
LINE
5
9A
100
AcDbEntity
8
SK1
62
256
6
ByLayer
370
13
48
1
60
0
100
AcDbLine
10
-48.449692
20
0
30
0
11
-48.449692
21
9.875033
31
0
39
0
210
0
220
0
230
1
0
LINE
5
9B
100
AcDbEntity
8
SK1
62
256
6
ByLayer
370
13
48
1
60
0
100
AcDbLine
10
-43.5
20
5.922852
30
0
11
-43.5
21
-5.922852
31
0
39
0
210
0
220
0
230
1
0
LINE
5
9C
100
AcDbEntity
8
SK1
62
256
6
ByLayer
370
18
48
1
60
0
100
AcDbLine
10
-50
20
0
30
0
11
-50
21
-8.99675
31
0
39
0
210
0
220
0
230
1
0
LINE
5
9D
100
AcDbEntity
8
SK1
62
256
6
ByLayer
370
18
48
1
60
0
100
AcDbLine
10
-50
20
8.99675
30
0
11
-50
21
0
31
0
39
0
210
0
220
0
230
1
0
LINE
5
9E
100
AcDbEntity
8
SK1
62
256
6
ByLayer
370
18
48
1
60
0
100
AcDbLine
10
-1.6
20
-9.99675
30
0
11
-1.6
21
0
31
0
39
0
210
0
220
0
230
1
0
LINE
5
9F
100
AcDbEntity
8
SK1
62
256
6
ByLayer
370
18
48
1
60
0
100
AcDbLine
10
-1.6
20
0
30
0
11
-1.6
21
9.99675
31
0
39
0
210
0
220
0
230
1
0
LINE
5
A0
100
AcDbEntity
8
SK1
62
256
6
ByLayer
370
13
48
1
60
0
100
AcDbLine
10
-47.426311
20
-9.888738
30
0
11
-47.426311
21
0
31
0
39
0
210
0
220
0
230
1
0
LINE
5
A1
100
AcDbEntity
8
SK1
62
256
6
ByLayer
370
13
48
1
60
0
100
AcDbLine
10
-47.426311
20
0
30
0
11
-47.426311
21
9.888738
31
0
39
0
210
0
220
0
230
1
0
LINE
5
A2
100
AcDbEntity
8
SK1
62
256
6
ByLayer
370
13
48
1
60
0
100
AcDbLine
10
-0.15
20
0
30
0
11
-0.15
21
-9.74675
31
0
39
0
210
0
220
0
230
1
0
LINE
5
A3
100
AcDbEntity
8
SK1
62
256
6
ByLayer
370
13
48
1
60
0
100
AcDbLine
10
-0.15
20
9.74675
30
0
11
-0.15
21
0
31
0
39
0
210
0
220
0
230
1
0
LINE
5
A4
100
AcDbEntity
8
SK1
62
256
6
ByLayer
370
18
48
1
60
0
100
AcDbLine
10
-6.5
20
5.922852
30
0
11
-43.5
21
5.922852
31
0
39
0
210
0
220
0
230
1
0
LINE
5
A5
100
AcDbEntity
8
SK1
62
256
6
ByLayer
370
13
48
1
60
0
100
AcDbLine
10
-0.975195
20
9.74675
30
0
11
-0.975195
21
-9.74675
31
0
39
0
210
0
220
0
230
1
0
LINE
5
A6
100
AcDbEntity
8
SK1
62
256
6
ByLayer
370
18
48
1
60
0
100
AcDbLine
10
-48.6
20
-9.99675
30
0
11
-48.6
21
9.99675
31
0
39
0
210
0
220
0
230
1
0
LINE
5
A7
100
AcDbEntity
8
SK1
62
256
6
ByLayer
370
13
48
1
60
0
100
AcDbLine
10
-6.5
20
-5.922852
30
0
11
-6.5
21
5.922852
31
0
39
0
210
0
220
0
230
1
0
LINE
5
A8
100
AcDbEntity
8
1
62
256
6
ByLayer
370
13
48
1
60
0
100
AcDbLine
10
95.541714
20
-2.337925
30
0
11
93.543509
21
-2.212112
31
0
39
0
210
0
220
0
230
1
0
LINE
5
A9
100
AcDbEntity
8
1
62
256
6
ByLayer
370
13
48
1
60
0
100
AcDbLine
10
5.0009
20
12.5
30
0
11
5.0009
21
2.58396
31
0
39
0
210
0
220
0
230
1
0
LINE
5
AA
100
AcDbEntity
8
1
62
256
6
ByLayer
370
18
48
1
60
0
100
AcDbLine
10
100.90251
20
-0.282441
30
0
11
101
21
0
31
0
39
0
210
0
220
0
230
1
0
LINE
5
AB
100
AcDbEntity
8
1
62
256
6
ByLayer
370
18
48
1
60
0
100
AcDbLine
10
100.928098
20
0.254732
30
0
11
100.819429
21
0.691671
31
0
39
0
210
0
220
0
230
1
0
LINE
5
AC
100
AcDbEntity
8
1
62
256
6
ByLayer
370
18
48
1
60
0
100
AcDbLine
10
0.2
20
0
30
0
11
0.2
21
-12.5
31
0
39
0
210
0
220
0
230
1
0
LINE
5
AD
100
AcDbEntity
8
1
62
256
6
ByLayer
370
18
48
1
60
0
100
AcDbLine
10
0.2
20
12.5
30
0
11
0.2
21
0
31
0
39
0
210
0
220
0
230
1
0
LINE
5
AE
100
AcDbEntity
8
1
62
256
6
ByLayer
370
18
48
1
60
0
100
AcDbLine
10
96.965647
20
-2.3598
30
0
11
96.029096
21
0.924664
31
0
39
0
210
0
220
0
230
1
0
LINE
5
AF
100
AcDbEntity
8
1
62
256
6
ByLayer
370
13
48
1
60
0
100
AcDbLine
10
12.707802
20
-2.272639
30
0
11
12.707802
21
-8.233882
31
0
39
0
210
0
220
0
230
1
0
LINE
5
B0
100
AcDbEntity
8
1
62
256
6
ByLayer
370
18
48
1
60
0
100
AcDbLine
10
100.258979
20
2.525614
30
0
11
100.214311
21
2.657806
31
0
39
0
210
0
220
0
230
1
0
LINE
5
B1
100
AcDbEntity
8
1
62
256
6
ByLayer
370
18
48
1
60
0
100
AcDbLine
10
101
20
0
30
0
11
100.986584
21
-0.055845
31
0
39
0
210
0
220
0
230
1
0
LINE
5
B2
100
AcDbEntity
8
1
62
256
6
ByLayer
370
18
48
1
60
0
100
AcDbLine
10
19.158
20
-7.35
30
0
11
19.158
21
-4.312424
31
0
39
0
210
0
220
0
230
1
0
LINE
5
B3
100
AcDbEntity
8
1
62
256
6
ByLayer
370
13
48
1
60
0
100
AcDbLine
10
91.5
20
2.45
30
0
11
91.70718
21
2.45
31
0
39
0
210
0
220
0
230
1
0
LINE
5
B4
100
AcDbEntity
8
1
62
256
6
ByLayer
370
18
48
1
60
0
100
AcDbLine
10
98.469192
20
-7.332095
30
0
11
100.690579
21
-0.896434
31
0
39
0
210
0
220
0
230
1
0
LINE
5
B5
100
AcDbEntity
8
1
62
256
6
ByLayer
370
18
48
1
60
0
100
AcDbLine
10
92.249495
20
-7.444009
30
0
11
92.249495
21
-7.494161
31
0
39
0
210
0
220
0
230
1
0
LINE
5
B6
100
AcDbEntity
8
1
62
256
6
ByLayer
370
13
48
1
60
0
100
AcDbLine
10
100.144086
20
0.698032
30
0
11
100.952613
21
0.167699
31
0
39
0
210
0
220
0
230
1
0
LINE
5
B7
100
AcDbEntity
8
1
62
256
6
ByLayer
370
18
48
1
60
0
100
AcDbLine
10
91.6
20
-7.276513
30
0
11
91.6
21
-7.019373
31
0
39
0
210
0
220
0
230
1
0
LINE
5
B8
100
AcDbEntity
8
1
62
256
6
ByLayer
370
13
48
1
60
0
100
AcDbLine
10
12.707802
20
8.233882
30
0
11
12.707802
21
5.205473
31
0
39
0
210
0
220
0
230
1
0
LINE
5
B9
100
AcDbEntity
8
1
62
256
6
ByLayer
370
13
48
1
60
0
100
AcDbLine
10
98.74525
20
-3.491893
30
0
11
99.167782
21
-1.29301
31
0
39
0
210
0
220
0
230
1
0
LINE
5
BA
100
AcDbEntity
8
1
62
256
6
ByLayer
370
13
48
1
60
0
100
AcDbLine
10
91.676152
20
1.943046
30
0
11
91.676152
21
1.993439
31
0
39
0
210
0
220
0
230
1
0
LINE
5
BB
100
AcDbEntity
8
1
62
256
6
ByLayer
370
18
48
1
60
0
100
AcDbLine
10
96.402352
20
-6.735069
30
0
11
96.408555
21
-6.73241
31
0
39
0
210
0
220
0
230
1
0
LINE
5
BC
100
AcDbEntity
8
1
62
256
6
ByLayer
370
18
48
1
60
0
100
AcDbLine
10
0
20
12.3
30
0
11
0
21
-12.3
31
0
39
0
210
0
220
0
230
1
0
LINE
5
BD
100
AcDbEntity
8
1
62
256
6
ByLayer
370
18
48
1
60
0
100
AcDbLine
10
95.529225
20
-2.345804
30
0
11
95.541714
21
-2.337925
31
0
39
0
210
0
220
0
230
1
0
LINE
5
BE
100
AcDbEntity
8
1
62
256
6
ByLayer
370
18
48
1
60
0
100
AcDbLine
10
19.158
20
7.35
30
0
11
19.158
21
7.34185
31
0
39
0
210
0
220
0
230
1
0
LINE
5
BF
100
AcDbEntity
8
1
62
256
6
ByLayer
370
18
48
1
60
0
100
AcDbLine
10
96.408555
20
-6.73241
30
0
11
96.962286
21
-6.247255
31
0
39
0
210
0
220
0
230
1
0
LINE
5
C0
100
AcDbEntity
8
1
62
256
6
ByLayer
370
18
48
1
60
0
100
AcDbLine
10
96.965798
20
-2.361407
30
0
11
96.965647
21
-2.3598
31
0
39
0
210
0
220
0
230
1
0
LINE
5
C1
100
AcDbEntity
8
1
62
256
6
ByLayer
370
18
48
1
60
0
100
AcDbLine
10
96.965798
20
-6.240752
30
0
11
96.965798
21
-2.361407
31
0
39
0
210
0
220
0
230
1
0
LINE
5
C2
100
AcDbEntity
8
1
62
256
6
ByLayer
370
18
48
1
60
0
100
AcDbLine
10
91.7
20
-7.051259
30
0
11
91.7
21
-7.011066
31
0
39
0
210
0
220
0
230
1
0
LINE
5
C3
100
AcDbEntity
8
1
62
256
6
ByLayer
370
18
48
1
60
0
100
AcDbLine
10
92.670254
20
-6.735069
30
0
11
96.402352
21
-6.735069
31
0
39
0
210
0
220
0
230
1
0
LINE
5
C4
100
AcDbEntity
8
1
62
256
6
ByLayer
370
18
48
1
60
0
100
AcDbLine
10
16
20
7.25
30
0
11
16
21
5.570396
31
0
39
0
210
0
220
0
230
1
0
LINE
5
C5
100
AcDbEntity
8
1
62
256
6
ByLayer
370
18
48
1
60
0
100
AcDbLine
10
96.38968
20
-5.664634
30
0
11
96.965798
21
-6.240752
31
0
39
0
210
0
220
0
230
1
0
LINE
5
C6
100
AcDbEntity
8
1
62
256
6
ByLayer
370
13
48
1
60
0
100
AcDbLine
10
100.096187
20
-1.901973
30
0
11
99.167782
21
-1.29301
31
0
39
0
210
0
220
0
230
1
0
LINE
5
C7
100
AcDbEntity
8
1
62
256
6
ByLayer
370
13
48
1
60
0
100
AcDbLine
10
100.928098
20
0.254732
30
0
11
100.192013
21
0.737548
31
0
39
0
210
0
220
0
230
1
0
LINE
5
C8
100
AcDbEntity
8
1
62
256
6
ByLayer
370
18
48
1
60
0
100
AcDbLine
10
100.258979
20
-2.525614
30
0
11
100.214311
21
-2.657806
31
0
39
0
210
0
220
0
230
1
0
LINE
5
C9
100
AcDbEntity
8
1
62
256
6
ByLayer
370
13
48
1
60
0
100
AcDbLine
10
12.624201
20
-2.24942
30
0
11
12.624201
21
-8.288752
31
0
39
0
210
0
220
0
230
1
0
LINE
5
CA
100
AcDbEntity
8
1
62
256
6
ByLayer
370
18
48
1
60
0
100
AcDbLine
10
100.986584
20
0.055845
30
0
11
101
21
0
31
0
39
0
210
0
220
0
230
1
0
LINE
5
CB
100
AcDbEntity
8
1
62
256
6
ByLayer
370
18
48
1
60
0
100
AcDbLine
10
92.5
20
-6.779128
30
0
11
92.5
21
-6.719542
31
0
39
0
210
0
220
0
230
1
0
LINE
5
CC
100
AcDbEntity
8
1
62
256
6
ByLayer
370
18
48
1
60
0
100
AcDbLine
10
97.397484
20
-6.779152
30
0
11
98.522739
21
-3.752717
31
0
39
0
210
0
220
0
230
1
0
LINE
5
CD
100
AcDbEntity
8
1
62
256
6
ByLayer
370
18
48
1
60
0
100
AcDbLine
10
95.536415
20
-2.3598
30
0
11
96.965647
21
-2.3598
31
0
39
0
210
0
220
0
230
1
0
LINE
5
CE
100
AcDbEntity
8
1
62
256
6
ByLayer
370
18
48
1
60
0
100
AcDbLine
10
91.7
20
-7.280712
30
0
11
91.7
21
-7.051259
31
0
39
0
210
0
220
0
230
1
0
LINE
5
CF
100
AcDbEntity
8
1
62
256
6
ByLayer
370
18
48
1
60
0
100
AcDbLine
10
96.962286
20
-6.247255
30
0
11
96.965798
21
-6.240752
31
0
39
0
210
0
220
0
230
1
0
LINE
5
D0
100
AcDbEntity
8
1
62
256
6
ByLayer
370
13
48
1
60
0
100
AcDbLine
10
91.7
20
-7.051259
30
0
11
91.837327
21
-7.099538
31
0
39
0
210
0
220
0
230
1
0
LINE
5
D1
100
AcDbEntity
8
1
62
256
6
ByLayer
370
18
48
1
60
0
100
AcDbLine
10
16
20
-7.25
30
0
11
16
21
-3.664043
31
0
39
0
210
0
220
0
230
1
0
LINE
5
D2
100
AcDbEntity
8
1
62
256
6
ByLayer
370
18
48
1
60
0
100
AcDbLine
10
91.7
20
-6.957076
30
0
11
91.7
21
-7.011066
31
0
39
0
210
0
220
0
230
1
0
LINE
5
D3
100
AcDbEntity
8
1
62
256
6
ByLayer
370
13
48
1
60
0
100
AcDbLine
10
5.0009
20
2.440868
30
0
11
5.0009
21
-12.5
31
0
39
0
210
0
220
0
230
1
0
LINE
5
D4
100
AcDbEntity
8
1
62
256
6
ByLayer
370
18
48
1
60
0
100
AcDbLine
10
85.01697
20
-0.869857
30
0
11
85.01697
21
3.937458
31
0
39
0
210
0
220
0
230
1
0
LINE
5
D5
100
AcDbEntity
8
1
62
256
6
ByLayer
370
18
48
1
60
0
100
AcDbLine
10
100.928098
20
-0.254732
30
0
11
100.819429
21
-0.691671
31
0
39
0
210
0
220
0
230
1
0
LINE
5
D6
100
AcDbEntity
8
1
62
256
6
ByLayer
370
18
48
1
60
0
100
AcDbLine
10
17.5
20
-7.35
30
0
11
17.5
21
-4.034481
31
0
39
0
210
0
220
0
230
1
0
LINE
5
D7
100
AcDbEntity
8
1
62
256
6
ByLayer
370
13
48
1
60
0
100
AcDbLine
10
100.192013
20
0.737548
30
0
11
100.819429
21
0.691671
31
0
39
0
210
0
220
0
230
1
0
LINE
5
D8
100
AcDbEntity
8
1
62
256
6
ByLayer
370
18
48
1
60
0
100
AcDbLine
10
17.5
20
7.35
30
0
11
17.5
21
5.816695
31
0
39
0
210
0
220
0
230
1
0
LINE
5
D9
100
AcDbEntity
8
1
62
256
6
ByLayer
370
13
48
1
60
0
100
AcDbLine
10
99.266592
20
2.543174
30
0
11
100.258979
21
2.525614
31
0
39
0
210
0
220
0
230
1
0
LINE
5
DA
100
AcDbEntity
8
1
62
256
6
ByLayer
370
13
48
1
60
0
100
AcDbLine
10
12.624201
20
8.288752
30
0
11
12.624201
21
5.209197
31
0
39
0
210
0
220
0
230
1
0
LINE
5
DB
100
AcDbEntity
8
1
62
256
6
ByLayer
370
18
48
1
60
0
100
AcDbLine
10
98.74525
20
-3.491893
30
0
11
100.096187
21
-1.901973
31
0
39
0
210
0
220
0
230
1
0
LINE
5
DC
100
AcDbEntity
8
1
62
256
6
ByLayer
370
13
48
1
60
0
100
AcDbLine
10
93.313533
20
-2.353997
30
0
11
93.543509
21
-2.212112
31
0
39
0
210
0
220
0
230
1
0
LINE
5
DD
100
AcDbEntity
8
1
62
256
6
ByLayer
370
18
48
1
60
0
100
AcDbLine
10
91.7
20
-6.923872
30
0
11
91.7
21
-6.957076
31
0
39
0
210
0
220
0
230
1
0
LINE
5
DE
100
AcDbEntity
8
1
62
256
6
ByLayer
370
18
48
1
60
0
100
AcDbLine
10
94.901977
20
-0.334455
30
0
11
94.834807
21
-0.376833
31
0
39
0
210
0
220
0
230
1
0
MTEXT
5
18F
100
AcDbEntity
8
SK6
62
256
6
ByLayer
370
13
48
1
60
0
100
AcDbMText
10
6.851137
20
29.875134
30
0
210
0
220
0
230
1
1
\W0.7057;870-1500-15L20-5
40
3.5
41
0
44
1.084337
50
0
71
7
72
5
7
iso_b_vert
0
DIMENSION
5
19D
100
AcDbEntity
8
2
62
256
6
ByLayer
370
13
48
1
60
0
100
AcDbDimension
2
DimnDraft3D1
10
16
20
-20.5
30
0
11
58.5
21
-20.5
31
0
70
32
71
5
72
1
41
1
210
0
220
0
230
1
3
Standard
100
AcDbAlignedDimension
13
101
23
-1.5875
33
0
14
16
24
-9.0875
34
0
50
0
100
AcDbRotatedDimension
1001
ACAD
1000
DSTYLE
1002
{
1070
   279
1070
     0
1070
   172
1070
     1
1070
   173
1070
     1
1070
   340
1005
190
1070
   271
1070
     1
1070
   272
1070
     2
1070
    77
1070
     1
1070
    73
1070
     0
1070
   171
1070
     3
1070
   274
1070
     4
1070
   177
1070
     7
1070
   176
1070
     7
1070
   178
1070
     7
1070
    48
1040
-0.005
1070
    41
1041
3.5
1070
   147
1041
1.5
1070
    42
1041
1.5875
1070
    44
1041
2.0
1070
   140
1041
3.0
1070
   343
1005
0
1070
   344
1005
0
1002
}
0
DIMENSION
5
1A7
100
AcDbEntity
8
2
62
256
6
ByLayer
370
13
48
1
60
0
100
AcDbDimension
2
DimnDraft3D2
10
18.578
20
14.5
30
0
11
59.789
21
14.5
31
0
70
32
71
5
72
1
41
1
210
0
220
0
230
1
3
Standard
100
AcDbAlignedDimension
13
101
23
1.5875
33
0
14
18.578
24
9.0875
34
0
50
0
100
AcDbRotatedDimension
1001
ACAD
1000
DSTYLE
1002
{
1070
   279
1070
     0
1070
   172
1070
     1
1070
   173
1070
     1
1070
   340
1005
190
1070
   271
1070
     1
1070
   272
1070
     2
1070
    77
1070
     1
1070
    73
1070
     0
1070
   171
1070
     3
1070
   274
1070
     4
1070
   177
1070
     7
1070
   176
1070
     7
1070
   178
1070
     7
1070
    48
1040
-0.005
1070
    41
1041
3.5
1070
   147
1041
1.5
1070
    42
1041
1.5875
1070
    44
1041
2.0
1070
   140
1041
3.0
1070
   343
1005
0
1070
   344
1005
0
1002
}
0
DIMENSION
5
1B2
100
AcDbEntity
8
SK2
62
256
6
ByLayer
370
13
48
1
60
0
100
AcDbDimension
2
DimnDraft3D3
10
0
20
-33
30
0
11
-25
21
-33
31
0
70
32
71
5
72
1
41
1
210
0
220
0
230
1
3
Standard
100
AcDbAlignedDimension
13
-50
23
-11.5875
33
0
14
0
24
-14.0875
34
0
50
0
100
AcDbRotatedDimension
1001
ACAD
1000
DSTYLE
1002
{
1070
   279
1070
     0
1070
   172
1070
     1
1070
   173
1070
     1
1070
   340
1005
190
1070
   271
1070
     1
1070
   272
1070
     2
1070
    77
1070
     1
1070
    73
1070
     0
1070
   171
1070
     3
1070
   274
1070
     4
1070
   177
1070
     7
1070
   176
1070
     7
1070
   178
1070
     7
1070
    48
1040
-0.005
1070
    41
1041
3.5
1070
   147
1041
1.5
1070
    42
1041
1.5875
1070
    44
1041
2.0
1070
   140
1041
3.0
1070
   343
1005
0
1070
   344
1005
0
1002
}
0
DIMENSION
5
1BC
100
AcDbEntity
8
2
62
256
6
ByLayer
370
13
48
1
60
0
100
AcDbDimension
2
DimnDraft3D4
10
101
20
-33
30
0
11
50.5
21
-33
31
0
70
32
71
5
72
1
41
1
210
0
220
0
230
1
3
Standard
100
AcDbAlignedDimension
13
0
23
-14.0875
33
0
14
101
24
-1.5875
34
0
50
0
100
AcDbRotatedDimension
1001
ACAD
1000
DSTYLE
1002
{
1070
   279
1070
     0
1070
   172
1070
     1
1070
   173
1070
     1
1070
   340
1005
190
1070
   271
1070
     1
1070
   272
1070
     2
1070
    77
1070
     1
1070
    73
1070
     0
1070
   171
1070
     3
1070
   274
1070
     4
1070
   177
1070
     7
1070
   176
1070
     7
1070
   178
1070
     7
1070
    48
1040
-0.005
1070
    41
1041
3.5
1070
   147
1041
1.5
1070
    42
1041
1.5875
1070
    44
1041
2.0
1070
   140
1041
3.0
1070
   343
1005
0
1070
   344
1005
0
1002
}
0
DIMENSION
5
1C7
100
AcDbEntity
8
SK2
62
256
6
ByLayer
370
13
48
1
60
0
100
AcDbDimension
2
DimnDraft3D5
10
-58.25
20
-10
30
0
11
-58.5
21
-0.520456
31
0
70
33
71
5
72
1
41
1
210
0
220
0
230
1
3
Standard
100
AcDbAlignedDimension
13
-51.5875
23
10
33
0
14
-51.5875
24
-10
34
0
1001
ACAD
1000
DSTYLE
1002
{
1070
   279
1070
     0
1070
    74
1070
     0
1070
   173
1070
     1
1070
   340
1005
190
1070
   271
1070
     1
1070
   272
1070
     2
1070
    77
1070
     1
1070
    73
1070
     0
1070
   171
1070
     3
1070
   274
1070
     4
1070
   177
1070
     7
1070
   176
1070
     7
1070
   178
1070
     7
1070
    48
1040
-0.005
1070
    41
1041
3.5
1070
   147
1041
1.5
1070
    42
1041
1.5875
1070
    44
1041
2.0
1070
   140
1041
3.0
1070
   343
1005
0
1070
   344
1005
0
1002
}
0
ENDSEC
0
SECTION
2
OBJECTS
0
DICTIONARY
5
232
330
0
100
AcDbDictionary
280
0
281
1
3
ACAD_GROUP
350
233
3
ACAD_MLINESTYLE
350
234
0
DICTIONARY
5
233
330
0
100
AcDbDictionary
280
0
281
1
0
DICTIONARY
5
234
330
0
100
AcDbDictionary
280
0
281
1
3
Standard
350
18
0
MLINESTYLE
5
18
330
234
100
AcDbMlineStyle
2
Standard
70
0
3

62
256
51
90
52
90
71
2
49
-0.5
62
256
6
ByLayer
49
0.5
62
256
6
ByLayer
0
RASTERVARIABLES
5
220
330

100
AcDbRasterVariables
90
0
70
1
71
1
72
1
0
ENDSEC
0
EOF
