0
SECTION
2
HEADER
9
$ACADVER
1
AC1015
9
$DWGCODEPAGE
3
ANSI_1252
9
$HANDSEED
5
252
9
$ANGBASE
50
0
9
$ANGDIR
70
0
9
$ATTMODE
70
1
9
$AUNITS
70
0
9
$AUPREC
70
0
9
$CECOLOR
62
256
9
$CELTSCALE
40
1
9
$CELTYPE
6
ByLayer
9
$CELWEIGHT
370
18
9
$CLAYER
8
0
9
$CMLJUST
70
0
9
$CMLSCALE
40
1
9
$CMLSTYLE
2
Standard
9
$DIMSTYLE
2
Standard
9
$TEXTSIZE
40
0.2
9
$TEXTSTYLE
7
Standard
9
$LUNITS
70
2
9
$LUPREC
70
4
9
$EXTNAMES
290
1
9
$INSUNITS
70
4
9
$LTSCALE
40
1
9
$LWDISPLAY
290
1
9
$PDMODE
70
0
9
$PDSIZE
40
0
9
$PLINEGEN
70
0
0
ENDSEC
0
SECTION
2
CLASSES
0
CLASS
1
RASTERVARIABLES
2
AcDbRasterVariables
3
ISM
90
0
280
0
281
0
0
ENDSEC
0
SECTION
2
TABLES
0
TABLE
2
VPORT
5
248
100
AcDbSymbolTable
0
VPORT
5
1
100
AcDbSymbolTableRecord
100
AcDbViewportTableRecord
2
*Active
70
0
10
0
20
0
11
1
21
1
12
-1
22
1
13
0
23
0
14
0.5
24
0.5
15
10
25
10
16
0
26
0
36
1
17
0
27
0
37
0
0
ENDTAB
0
TABLE
2
LTYPE
5
249
100
AcDbSymbolTable
0
LTYPE
5
14
100
AcDbSymbolTableRecord
100
AcDbLinetypeTableRecord
70
0
2
ByBlock
3

72
65
73
0
40
0
0
LTYPE
5
15
100
AcDbSymbolTableRecord
100
AcDbLinetypeTableRecord
70
0
2
ByLayer
3

72
65
73
0
40
0
0
LTYPE
5
16
100
AcDbSymbolTableRecord
100
AcDbLinetypeTableRecord
70
0
2
CONTINUOUS
3
Solid line
72
65
73
0
40
0
0
LTYPE
5
6A
100
AcDbSymbolTableRecord
100
AcDbLinetypeTableRecord
70
0
2
CENTER
3
____ _ ____ _ ____ _ ____
72
65
73
4
40
47.5
49
22
74
0
49
-8.5
74
0
49
8.5
74
0
49
-8.5
74
0
0
LTYPE
5
6B
100
AcDbSymbolTableRecord
100
AcDbLinetypeTableRecord
70
0
2
DASHED
3
__ __ __ __ __ __ __ __ __
72
65
73
2
40
25.72
49
12.86
74
0
49
-12.86
74
0
0
ENDTAB
0
TABLE
2
LAYER
5
24a
100
AcDbSymbolTable
0
LAYER
5
10
100
AcDbSymbolTableRecord
100
AcDbLayerTableRecord
2
0
70
0
62
7
6
CONTINUOUS
290
1
370
-3
390
0
0
LAYER
5
6D
100
AcDbSymbolTableRecord
100
AcDbLayerTableRecord
2
80
70
0
62
-6
6
CONTINUOUS
290
1
370
-3
390
0
0
LAYER
5
6F
100
AcDbSymbolTableRecord
100
AcDbLayerTableRecord
2
81
70
0
62
-3
6
CONTINUOUS
290
1
370
-3
390
0
0
LAYER
5
72
100
AcDbSymbolTableRecord
100
AcDbLayerTableRecord
2
1
70
0
62
4
6
CONTINUOUS
290
1
370
-3
390
0
0
LAYER
5
8F
100
AcDbSymbolTableRecord
100
AcDbLayerTableRecord
2
4
70
0
62
-2
6
CENTER
290
1
370
-3
390
0
0
LAYER
5
1A8
100
AcDbSymbolTableRecord
100
AcDbLayerTableRecord
2
2
70
0
62
7
6
CONTINUOUS
290
1
370
-3
390
0
0
LAYER
5
234
100
AcDbSymbolTableRecord
100
AcDbLayerTableRecord
2
SK1
70
0
62
4
6
CONTINUOUS
290
1
370
-3
390
0
0
LAYER
5
235
100
AcDbSymbolTableRecord
100
AcDbLayerTableRecord
2
SK4
70
0
62
2
6
CENTER
290
1
370
-3
390
0
0
LAYER
5
236
100
AcDbSymbolTableRecord
100
AcDbLayerTableRecord
2
SK6
70
0
62
5
6
CONTINUOUS
290
1
370
-3
390
0
0
LAYER
5
237
100
AcDbSymbolTableRecord
100
AcDbLayerTableRecord
2
SK2
70
0
62
7
6
CONTINUOUS
290
1
370
-3
390
0
0
ENDTAB
0
TABLE
2
STYLE
5
24b
100
AcDbSymbolTable
0
STYLE
5
11
100
AcDbSymbolTableRecord
100
AcDbTextStyleTableRecord
2
Standard
3
txt
70
0
71
0
40
0
41
1
42
0
50
0
0
STYLE
5
1A3
100
AcDbSymbolTableRecord
100
AcDbTextStyleTableRecord
2
iso_b_vert
3
simplex.shx
70
0
71
0
40
0
41
1
42
0
50
0
0
STYLE
5
1A4
100
AcDbSymbolTableRecord
100
AcDbTextStyleTableRecord
2
DWGDirectTextStyle
3
simplex
70
0
71
0
40
0
41
1
42
0
50
0
0
ENDTAB
0
TABLE
2
DIMSTYLE
5
24c
100
AcDbSymbolTable
100
AcDbDimStyleTable
0
DIMSTYLE
105
27
100
AcDbSymbolTableRecord
100
AcDbDimStyleTableRecord
2
Standard
70
0
3
<>
41
0.18
42
0.0625
44
0.18
140
0.18
147
0.09
73
0
74
0
77
1
271
2
275
0
278
52
280
0
340
11
0
ENDTAB
0
TABLE
2
VIEW
5
24d
100
AcDbSymbolTable
0
ENDTAB
0
TABLE
2
UCS
5
24e
100
AcDbSymbolTable
0
ENDTAB
0
TABLE
2
APPID
5
24f
100
AcDbSymbolTable
0
APPID
5
12
100
AcDbSymbolTableRecord
100
AcDbRegAppTableRecord
2
ACAD
70
0
0
ENDTAB
0
TABLE
2
BLOCK_RECORD
5
250
100
AcDbSymbolTable
0
BLOCK_RECORD
5
1F
100
AcDbSymbolTableRecord
100
AcDbBlockTableRecord
2
*Model_Space
340
0
70
0
0
BLOCK_RECORD
5
1B
100
AcDbSymbolTableRecord
100
AcDbBlockTableRecord
2
*Paper_Space
340
0
70
0
0
BLOCK_RECORD
5
23
100
AcDbSymbolTableRecord
100
AcDbBlockTableRecord
2
*Paper_Space0
340
0
70
0
0
BLOCK_RECORD
5
1A6
100
AcDbSymbolTableRecord
100
AcDbBlockTableRecord
2
DimnDraft3D1
340
0
70
0
0
BLOCK_RECORD
5
1B1
100
AcDbSymbolTableRecord
100
AcDbBlockTableRecord
2
DimnDraft3D2
340
0
70
0
0
BLOCK_RECORD
5
1BB
100
AcDbSymbolTableRecord
100
AcDbBlockTableRecord
2
DimnDraft3D3
340
0
70
0
0
BLOCK_RECORD
5
1C6
100
AcDbSymbolTableRecord
100
AcDbBlockTableRecord
2
DimnDraft3D4
340
0
70
0
0
BLOCK_RECORD
5
1D0
100
AcDbSymbolTableRecord
100
AcDbBlockTableRecord
2
DimnDraft3D5
340
0
70
0
0
ENDTAB
0
ENDSEC
0
SECTION
2
BLOCKS
0
BLOCK
5
20
100
AcDbEntity
8
0
100
AcDbBlockBegin
2
*Model_Space
70
0
10
0
20
0
30
0
3
*Model_Space
0
ENDBLK
5
21
100
AcDbEntity
8
0
100
AcDbBlockEnd
0
BLOCK
5
1C
100
AcDbEntity
8
0
100
AcDbBlockBegin
2
*Paper_Space
70
0
10
0
20
0
30
0
3
*Paper_Space
0
ENDBLK
5
1D
100
AcDbEntity
8
0
100
AcDbBlockEnd
0
BLOCK
5
24
100
AcDbEntity
8
0
100
AcDbBlockBegin
2
*Paper_Space0
70
0
10
0
20
0
30
0
3
*Paper_Space0
0
ENDBLK
5
25
100
AcDbEntity
8
0
100
AcDbBlockEnd
0
BLOCK
5
1AE
100
AcDbEntity
8
0
100
AcDbBlockBegin
2
DimnDraft3D1
70
0
10
0
20
0
30
0
3
DimnDraft3D1
0
MTEXT
5
1A7
100
AcDbEntity
8
2
62
256
6
ByLayer
370
13
48
1
60
0
100
AcDbMText
10
89.983572
20
-19.249886
30
0
210
0
220
0
230
1
1
\W0.6864;155.0
40
3
41
0
44
1.084337
50
0
71
7
72
5
7
iso_b_vert
0
LINE
5
1A9
100
AcDbEntity
8
2
62
256
6
ByLayer
370
13
48
1
60
0
100
AcDbLine
10
171
20
-1.5875
30
0
11
171
21
-22
31
0
39
0
210
0
220
0
230
1
0
LINE
5
1AA
100
AcDbEntity
8
2
62
256
6
ByLayer
370
13
48
1
60
0
100
AcDbLine
10
16
20
-8.5875
30
0
11
16
21
-22
31
0
39
0
210
0
220
0
230
1
0
LINE
5
1AB
100
AcDbEntity
8
2
62
256
6
ByLayer
370
13
48
1
60
0
100
AcDbLine
10
171
20
-20
30
0
11
16
21
-20
31
0
39
0
210
0
220
0
230
1
0
SOLID
5
1AC
100
AcDbEntity
8
2
62
256
6
ByLayer
370
13
48
1
60
0
100
AcDbTrace
10
171
20
-20
30
0
11
167.500002
21
-20.460784
31
0
12
167.499998
22
-19.539216
32
0
13
171
23
-20
33
0
39
0
210
0
220
0
230
1
0
SOLID
5
1AD
100
AcDbEntity
8
2
62
256
6
ByLayer
370
13
48
1
60
0
100
AcDbTrace
10
16
20
-20
30
0
11
19.499998
21
-19.539216
31
0
12
19.500002
22
-20.460784
32
0
13
16
23
-20
33
0
39
0
210
0
220
0
230
1
0
ENDBLK
5
1AF
100
AcDbEntity
8
0
100
AcDbBlockEnd
0
BLOCK
5
1B8
100
AcDbEntity
8
0
100
AcDbBlockBegin
2
DimnDraft3D2
70
0
10
0
20
0
30
0
3
DimnDraft3D2
0
MTEXT
5
1B2
100
AcDbEntity
8
2
62
256
6
ByLayer
370
13
48
1
60
0
100
AcDbMText
10
91.348572
20
14.750114
30
0
210
0
220
0
230
1
1
\W0.6864;152.3
40
3
41
0
44
1.084337
50
0
71
7
72
5
7
iso_b_vert
0
LINE
5
1B3
100
AcDbEntity
8
2
62
256
6
ByLayer
370
13
48
1
60
0
100
AcDbLine
10
171
20
1.5875
30
0
11
171
21
16
31
0
39
0
210
0
220
0
230
1
0
LINE
5
1B4
100
AcDbEntity
8
2
62
256
6
ByLayer
370
13
48
1
60
0
100
AcDbLine
10
18.73
20
8.5875
30
0
11
18.73
21
16
31
0
39
0
210
0
220
0
230
1
0
LINE
5
1B5
100
AcDbEntity
8
2
62
256
6
ByLayer
370
13
48
1
60
0
100
AcDbLine
10
171
20
14
30
0
11
18.73
21
14
31
0
39
0
210
0
220
0
230
1
0
SOLID
5
1B6
100
AcDbEntity
8
2
62
256
6
ByLayer
370
13
48
1
60
0
100
AcDbTrace
10
171
20
14
30
0
11
167.500002
21
13.539216
31
0
12
167.499998
22
14.460784
32
0
13
171
23
14
33
0
39
0
210
0
220
0
230
1
0
SOLID
5
1B7
100
AcDbEntity
8
2
62
256
6
ByLayer
370
13
48
1
60
0
100
AcDbTrace
10
18.73
20
14
30
0
11
22.229998
21
14.460784
31
0
12
22.230002
22
13.539216
32
0
13
18.73
23
14
33
0
39
0
210
0
220
0
230
1
0
ENDBLK
5
1B9
100
AcDbEntity
8
0
100
AcDbBlockEnd
0
BLOCK
5
1C3
100
AcDbEntity
8
0
100
AcDbBlockBegin
2
DimnDraft3D3
70
0
10
0
20
0
30
0
3
DimnDraft3D3
0
MTEXT
5
1BC
100
AcDbEntity
8
SK2
62
256
6
ByLayer
370
13
48
1
60
0
100
AcDbMText
10
-27.770456
20
-32.249886
30
0
210
0
220
0
230
1
1
\W0.7346;50.0
40
3
41
0
44
1.084337
50
0
71
7
72
5
7
iso_b_vert
0
LINE
5
1BE
100
AcDbEntity
8
SK2
62
256
6
ByLayer
370
13
48
1
60
0
100
AcDbLine
10
-50
20
-11.5875
30
0
11
-50
21
-35
31
0
39
0
210
0
220
0
230
1
0
LINE
5
1BF
100
AcDbEntity
8
SK2
62
256
6
ByLayer
370
13
48
1
60
0
100
AcDbLine
10
0
20
-14.0875
30
0
11
0
21
-35
31
0
39
0
210
0
220
0
230
1
0
LINE
5
1C0
100
AcDbEntity
8
SK2
62
256
6
ByLayer
370
13
48
1
60
0
100
AcDbLine
10
-50
20
-33
30
0
11
0
21
-33
31
0
39
0
210
0
220
0
230
1
0
SOLID
5
1C1
100
AcDbEntity
8
SK2
62
256
6
ByLayer
370
13
48
1
60
0
100
AcDbTrace
10
-50
20
-33
30
0
11
-46.500002
21
-32.539216
31
0
12
-46.499998
22
-33.460784
32
0
13
-50
23
-33
33
0
39
0
210
0
220
0
230
1
0
SOLID
5
1C2
100
AcDbEntity
8
SK2
62
256
6
ByLayer
370
13
48
1
60
0
100
AcDbTrace
10
0
20
-33
30
0
11
-3.499998
21
-33.460784
31
0
12
-3.500002
22
-32.539216
32
0
13
0
23
-33
33
0
39
0
210
0
220
0
230
1
0
ENDBLK
5
1C4
100
AcDbEntity
8
0
100
AcDbBlockEnd
0
BLOCK
5
1CD
100
AcDbEntity
8
0
100
AcDbBlockBegin
2
DimnDraft3D4
70
0
10
0
20
0
30
0
3
DimnDraft3D4
0
MTEXT
5
1C7
100
AcDbEntity
8
2
62
256
6
ByLayer
370
13
48
1
60
0
100
AcDbMText
10
82.358515
20
-32.249886
30
0
210
0
220
0
230
1
1
\W0.6261;171.0
40
3
41
0
44
1.084337
50
0
71
7
72
5
7
iso_b_vert
0
LINE
5
1C8
100
AcDbEntity
8
2
62
256
6
ByLayer
370
13
48
1
60
0
100
AcDbLine
10
0
20
-14.0875
30
0
11
0
21
-35
31
0
39
0
210
0
220
0
230
1
0
LINE
5
1C9
100
AcDbEntity
8
2
62
256
6
ByLayer
370
13
48
1
60
0
100
AcDbLine
10
171
20
-1.5875
30
0
11
171
21
-35
31
0
39
0
210
0
220
0
230
1
0
LINE
5
1CA
100
AcDbEntity
8
2
62
256
6
ByLayer
370
13
48
1
60
0
100
AcDbLine
10
0
20
-33
30
0
11
171
21
-33
31
0
39
0
210
0
220
0
230
1
0
SOLID
5
1CB
100
AcDbEntity
8
2
62
256
6
ByLayer
370
13
48
1
60
0
100
AcDbTrace
10
0
20
-33
30
0
11
3.499998
21
-32.539216
31
0
12
3.500002
22
-33.460784
32
0
13
0
23
-33
33
0
39
0
210
0
220
0
230
1
0
SOLID
5
1CC
100
AcDbEntity
8
2
62
256
6
ByLayer
370
13
48
1
60
0
100
AcDbTrace
10
171
20
-33
30
0
11
167.500002
21
-33.460784
31
0
12
167.499998
22
-32.539216
32
0
13
171
23
-33
33
0
39
0
210
0
220
0
230
1
0
ENDBLK
5
1CE
100
AcDbEntity
8
0
100
AcDbBlockEnd
0
BLOCK
5
1D8
100
AcDbEntity
8
0
100
AcDbBlockBegin
2
DimnDraft3D5
70
0
10
0
20
0
30
0
3
DimnDraft3D5
0
MTEXT
5
1D1
100
AcDbEntity
8
SK2
62
256
6
ByLayer
370
13
48
1
60
0
100
AcDbMText
10
-57.750114
20
0.229544
30
0
210
0
220
0
230
1
1
\W0.7346;20.0
40
3
41
0
44
1.084337
50
90
71
7
72
5
7
iso_b_vert
0
MTEXT
5
1D2
100
AcDbEntity
8
SK2
62
256
6
ByLayer
370
13
48
1
60
0
100
AcDbMText
10
-57.750114
20
-4.247019
30
0
210
0
220
0
230
1
1
%%c
40
3
41
0
44
1.084337
50
90
71
7
72
5
7
iso_b_vert
0
LINE
5
1D3
100
AcDbEntity
8
SK2
62
256
6
ByLayer
370
13
48
1
60
0
100
AcDbLine
10
-51.5875
20
10
30
0
11
-58.25
21
10
31
0
39
0
210
0
220
0
230
1
0
LINE
5
1D4
100
AcDbEntity
8
SK2
62
256
6
ByLayer
370
13
48
1
60
0
100
AcDbLine
10
-51.5875
20
-10
30
0
11
-58.25
21
-10
31
0
39
0
210
0
220
0
230
1
0
LINE
5
1D5
100
AcDbEntity
8
SK2
62
256
6
ByLayer
370
13
48
1
60
0
100
AcDbLine
10
-56.25
20
10
30
0
11
-56.25
21
-10
31
0
39
0
210
0
220
0
230
1
0
SOLID
5
1D6
100
AcDbEntity
8
SK2
62
256
6
ByLayer
370
13
48
1
60
0
100
AcDbTrace
10
-56.25
20
10
30
0
11
-55.789216
21
6.500002
31
0
12
-56.710784
22
6.499998
32
0
13
-56.25
23
10
33
0
39
0
210
0
220
0
230
1
0
SOLID
5
1D7
100
AcDbEntity
8
SK2
62
256
6
ByLayer
370
13
48
1
60
0
100
AcDbTrace
10
-56.25
20
-10
30
0
11
-56.710784
21
-6.500002
31
0
12
-55.789216
22
-6.499998
32
0
13
-56.25
23
-10
33
0
39
0
210
0
220
0
230
1
0
ENDBLK
5
1D9
100
AcDbEntity
8
0
100
AcDbBlockEnd
0
ENDSEC
0
SECTION
2
ENTITIES
0
ARC
5
E1
100
AcDbEntity
8
SK1
62
256
6
ByLayer
370
18
48
1
60
0
100
AcDbCircle
39
0
10
47.946236
20
-10.49675
30
0
40
0.799999999999998
210
0
220
0
230
-1
100
AcDbArc
50
51
51
130.534532
0
ARC
5
E2
100
AcDbEntity
8
SK1
62
256
6
ByLayer
370
18
48
1
60
0
100
AcDbCircle
39
0
10
0.975195
20
-10.14675
30
0
40
0.4
210
0
220
0
230
-1
100
AcDbArc
50
65
51
90
0
ARC
5
E3
100
AcDbEntity
8
SK1
62
256
6
ByLayer
370
18
48
1
60
0
100
AcDbCircle
39
0
10
0.15
20
-10.14675
30
0
40
0.4
210
0
220
0
230
-1
100
AcDbArc
50
90
51
112.024313
0
ARC
5
E4
100
AcDbEntity
8
SK1
62
256
6
ByLayer
370
18
48
1
60
0
100
AcDbCircle
39
0
10
0.975195
20
10.14675
30
0
40
0.4
210
0
220
0
230
-1
100
AcDbArc
50
270
51
295
0
ARC
5
E5
100
AcDbEntity
8
SK1
62
256
6
ByLayer
370
18
48
1
60
0
100
AcDbCircle
39
0
10
0.15
20
10.14675
30
0
40
0.4
210
0
220
0
230
-1
100
AcDbArc
50
247.975687
51
270
0
ARC
5
E6
100
AcDbEntity
8
SK1
62
256
6
ByLayer
370
18
48
1
60
0
100
AcDbCircle
39
0
10
47.946236
20
10.49675
30
0
40
0.799999999999998
210
0
220
0
230
-1
100
AcDbArc
50
229.465468
51
309
0
ELLIPSE
5
E7
100
AcDbEntity
8
1
62
256
6
ByLayer
370
18
48
1
60
0
100
AcDbEllipse
10
170.97138
20
-0.131454
30
0
11
0.0472765639733359
21
0.150392791832635
31
0
210
0
220
0
230
1
40
0.048492
41
1.7812816477961
42
2.46903554406722
0
ELLIPSE
5
E8
100
AcDbEntity
8
1
62
256
6
ByLayer
370
18
48
1
60
0
100
AcDbEllipse
10
16.901384
20
-6.982561
30
0
11
-2.61592720382524
21
4.26109432708163
31
0
210
0
220
0
230
1
40
0.626171
41
0.406538741963022
42
1.25179681927629
0
ELLIPSE
5
E9
100
AcDbEntity
8
1
62
256
6
ByLayer
370
18
48
1
60
0
100
AcDbEllipse
10
170.97138
20
0.131454
30
0
11
0.0472765639192529
21
-0.150392791680103
31
0
210
0
220
0
230
1
40
0.048492
41
-2.46903554410116
42
-1.78128164721556
0
ELLIPSE
5
EA
100
AcDbEntity
8
1
62
256
6
ByLayer
370
18
48
1
60
0
100
AcDbEllipse
10
152.964767
20
-80.001304
30
0
11
79.2907042922509
21
0.242142824802512
31
0
210
0
220
0
230
1
40
0.933041
41
1.44798812845449
42
1.44955846051965
0
ELLIPSE
5
EB
100
AcDbEntity
8
1
62
256
6
ByLayer
370
18
48
1
60
0
100
AcDbEllipse
10
171
20
0
30
0
11
2.45925614655611
21
-6.99840203915121
31
0
210
0
220
0
230
1
40
0.060808
41
2.76632496563214
42
2.85647397351105
0
ELLIPSE
5
EC
100
AcDbEntity
8
1
62
256
6
ByLayer
370
18
48
1
60
0
100
AcDbEllipse
10
171
20
0
30
0
11
2.45925628170339
21
6.99840244903271
31
0
210
0
220
0
230
1
40
0.060808
41
-2.85647398163918
42
-2.76632497652371
0
ELLIPSE
5
ED
100
AcDbEntity
8
1
62
256
6
ByLayer
370
18
48
1
60
0
100
AcDbEllipse
10
159.11
20
-2.926427
30
0
11
1.04999999999999
21
0
31
0
210
0
220
0
230
1
40
0.702153
41
-1.57079631813548
42
-1.34764508504653
0
ELLIPSE
5
EE
100
AcDbEntity
8
1
62
256
6
ByLayer
370
18
48
1
60
0
100
AcDbEllipse
10
146.537759
20
0
30
0
11
27.4690785804564
21
-6.49928162267172
31
0
210
0
220
0
230
1
40
0.078771
41
-1.43879301780255
42
-1.3936581324506
0
ELLIPSE
5
EF
100
AcDbEntity
8
1
62
256
6
ByLayer
370
13
48
1
60
0
100
AcDbEllipse
10
151.05
20
7.343288
30
0
11
3.73612589984126
21
-3.32285468543689
31
0
210
0
220
0
230
1
40
0.01802
41
0.696586668236282
42
0.827653215479962
0
ELLIPSE
5
F0
100
AcDbEntity
8
1
62
256
6
ByLayer
370
18
48
1
60
0
100
AcDbEllipse
10
164.480155
20
-0.920578
30
0
11
1.21278927251916
21
0.281640720437702
31
0
210
0
220
0
230
1
40
0.785931
41
1.91064549601171
42
-1.7513226165984
0
ELLIPSE
5
F1
100
AcDbEntity
8
1
62
256
6
ByLayer
370
18
48
1
60
0
100
AcDbEllipse
10
176.018955
20
0
30
0
11
9.28892119952782
21
6.29648009531876
31
0
210
0
220
0
230
1
40
0.290406
41
2.85636244234293
42
3.12641752544201
0
ELLIPSE
5
F2
100
AcDbEntity
8
1
62
256
6
ByLayer
370
18
48
1
60
0
100
AcDbEllipse
10
159.27
20
-2.926427
30
0
11
-1.50999999999998
21
1.84915559427177E-16
31
0
210
0
220
0
230
1
40
0.702153
41
1.0200360823785
42
2.12077157281223
0
ELLIPSE
5
F3
100
AcDbEntity
8
1
62
256
6
ByLayer
370
18
48
1
60
0
100
AcDbEllipse
10
165.61165
20
-0.969071
30
0
11
0.293527028154766
21
-1.00785788868273
31
0
210
0
220
0
230
1
40
0.31511
41
0.0530808625917413
42
-3.08851179099798
0
ELLIPSE
5
F4
100
AcDbEntity
8
1
62
256
6
ByLayer
370
18
48
1
60
0
100
AcDbEllipse
10
162.08
20
1.95
30
0
11
0.0823466899382246
21
0.236048771507485
31
0
210
0
220
0
230
1
40
1
41
-1.73007643611637
42
-1.37317906499232
0
POINT
5
6C
100
AcDbEntity
8
80
62
256
6
ByLayer
370
18
48
1
60
0
100
AcDbPoint
10
0
20
0
30
0
39
0
210
0
220
0
230
1
50
360
0
POINT
5
6E
100
AcDbEntity
8
81
62
256
6
ByLayer
370
18
48
1
60
0
100
AcDbPoint
10
162.3
20
0
30
0
39
0
210
0
220
0
230
1
50
360
0
SPLINE
5
F5
100
AcDbEntity
8
1
62
256
6
ByLayer
370
18
48
1
60
0
100
AcDbSpline
70
4
71
3
72
14
73
10
40
0
40
0
40
0
40
0
40
0.197862047688588
40
0.393737867359643
40
0.582534814577637
40
0.689157712721052
40
0.792726729336009
40
0.895128614193209
40
1
40
1
40
1
40
1
41
1
10
12.4167255104682
20
7.936462430533
30
0
41
1
10
11.9503339602386
20
8.29182654281504
30
0
41
1
10
11.0335693118852
20
9.01286854678273
30
0
41
1
10
9.75416922871295
20
10.1704169159146
30
0
41
1
10
8.63048202888243
20
11.0976914342466
30
0
41
1
10
7.64234517746371
20
11.7493737009037
30
0
41
1
10
6.81164021846615
20
12.1632136377564
30
0
41
1
10
5.92520863179192
20
12.4377013648578
30
0
41
1
10
5.31580263314513
20
12.4981816589262
30
0
41
1
10
5.00090000000003
20
12.5
30
0
0
SPLINE
5
F6
100
AcDbEntity
8
1
62
256
6
ByLayer
370
18
48
1
60
0
100
AcDbSpline
70
4
71
3
72
15
73
11
40
0
40
0
40
0
40
0
40
0.10673037168397
40
0.210982088141329
40
0.316541609160882
40
0.425324708771518
40
0.537772464307381
40
0.689630169147014
40
0.844516340203986
40
1
40
1
40
1
40
1
41
1
10
5.00090000000003
20
-12.5
30
0
41
1
10
5.32153454317776
20
-12.4980297366497
30
0
41
1
10
5.94173411981819
20
-12.4354320379057
30
0
41
1
10
6.8432335073862
20
-12.1512082046434
30
0
41
1
10
7.68704161088783
20
-11.723708823345
30
0
41
1
10
8.49318287493617
20
-11.1851368475541
30
0
41
1
10
9.36064074990639
20
-10.4998555675057
30
0
41
1
10
10.2959943512204
20
-9.68353816232684
30
0
41
1
10
11.3214422930839
20
-8.77599634218015
30
0
41
1
10
12.0472336534112
20
-8.21189574400327
30
0
41
1
10
12.4167255104682
20
-7.936462430533
30
0
0
SPLINE
5
F7
100
AcDbEntity
8
1
62
256
6
ByLayer
370
18
48
1
60
0
100
AcDbSpline
70
4
71
3
72
10
73
6
40
0
40
0
40
0
40
0
40
0.489788878835883
40
0.754203663748874
40
1
40
1
40
1
40
1
41
1
10
162.3
20
1.78974306792881
30
0
41
1
10
162.299721067618
20
1.76503437197238
30
0
41
1
10
162.292628070343
20
1.72943763572616
30
0
41
1
10
162.268915957692
20
1.68604504255853
30
0
41
1
10
162.252813835811
20
1.66681346633999
30
0
41
1
10
162.244191775689
20
1.65832451500427
30
0
0
SPLINE
5
F8
100
AcDbEntity
8
1
62
256
6
ByLayer
370
18
48
1
60
0
100
AcDbSpline
70
4
71
3
72
31
73
27
40
0
40
0
40
0
40
0
40
0.0013084620844469
40
0.0457272713713269
40
0.0948992315509137
40
0.14947480852458
40
0.209135133295726
40
0.262423397960631
40
0.305555570300424
40
0.338557641672623
40
0.359638083813517
40
0.381022903404855
40
0.408443707140387
40
0.44184396520275
40
0.480902558934853
40
0.524726811598793
40
0.57353098130751
40
0.617470139713254
40
0.652478309402461
40
0.698681459958308
40
0.751605125472343
40
0.809471323668001
40
0.862606502376404
40
0.905941741095479
40
0.963584629260362
40
1
40
1
40
1
40
1
41
1
10
135.447778040102
20
6.54098171898144
30
0
41
1
10
135.439278586172
20
6.54090665541571
30
0
41
1
10
135.141987026811
20
6.53827047950097
30
0
41
1
10
134.486090765086
20
6.52754706030839
30
0
41
1
10
133.468601180685
20
6.52201412830755
30
0
41
1
10
132.339327087143
20
6.52496839210156
30
0
41
1
10
131.195510075757
20
6.53498037214854
30
0
41
1
10
130.128798108582
20
6.53961916276484
30
0
41
1
10
129.242138472207
20
6.54083320783829
30
0
41
1
10
128.57438020906
20
6.54036040944305
30
0
41
1
10
128.053978124576
20
6.53979254716998
30
0
41
1
10
127.572054583302
20
6.53937845538363
30
0
41
1
10
127.005178310946
20
6.53904191608004
30
0
41
1
10
126.316426660318
20
6.53891386188991
30
0
41
1
10
125.51455921395
20
6.53920873247972
30
0
41
1
10
124.606469347625
20
6.54023018467564
30
0
41
1
10
123.664725145405
20
6.54202516815872
30
0
41
1
10
122.783775405488
20
6.54394886059816
30
0
41
1
10
121.920761780913
20
6.54562757781963
30
0
41
1
10
120.995795856341
20
6.54678837084964
30
0
41
1
10
119.913199519295
20
6.54578337895401
30
0
41
1
10
118.782808869353
20
6.54376021528145
30
0
41
1
10
117.718519571751
20
6.54218261315725
30
0
41
1
10
116.655829084058
20
6.54120421944546
30
0
41
1
10
115.708256004468
20
6.54132945967308
30
0
41
1
10
115.059906905776
20
6.54187412016475
30
0
41
1
10
114.809589746192
20
6.54195815132653
30
0
0
SPLINE
5
F9
100
AcDbEntity
8
1
62
256
6
ByLayer
370
18
48
1
60
0
100
AcDbSpline
70
4
71
3
72
40
73
36
40
0
40
0
40
0
40
0
40
0.0271459659933499
40
0.058002546044114
40
0.0845734252720888
40
0.115286216314473
40
0.146078647814362
40
0.174293956259254
40
0.199933234743196
40
0.222998542216108
40
0.248427531028633
40
0.277257324476947
40
0.308751883967041
40
0.334673566040679
40
0.367590628040309
40
0.410279793518096
40
0.453322112263772
40
0.492790998087049
40
0.527495237419218
40
0.556700626053764
40
0.593474445540262
40
0.633994132358314
40
0.670182766163736
40
0.701783745484063
40
0.728307558379089
40
0.750106119798684
40
0.767145202987242
40
0.784110267713413
40
0.805031425429403
40
0.83124826697468
40
0.862774533580752
40
0.899617215538657
40
0.938678875784514
40
0.983291756518021
40
1
40
1
40
1
40
1
41
1
10
108.830685465637
20
-6.53940516879595
30
0
41
1
10
109.005214630344
20
-6.53584014597158
30
0
41
1
10
109.405493814178
20
-6.52884336252609
30
0
41
1
10
110.119565813429
20
-6.51214574558531
30
0
41
1
10
110.864105767348
20
-6.51308776603506
30
0
41
1
10
111.60088330909
20
-6.52401250497459
30
0
41
1
10
112.346256460149
20
-6.53348093042254
30
0
41
1
10
113.052288753083
20
-6.53860830172545
30
0
41
1
10
113.694731820712
20
-6.54114001050772
30
0
41
1
10
114.315116622675
20
-6.54207943555934
30
0
41
1
10
114.964304939326
20
-6.54195009972008
30
0
41
1
10
115.687604877783
20
-6.54138253695589
30
0
41
1
10
116.415177719834
20
-6.54123391082052
30
0
41
1
10
117.177194721421
20
-6.54163623833841
30
0
41
1
10
118.033654524162
20
-6.5426176320068
30
0
41
1
10
119.034544755447
20
-6.54418827059408
30
0
41
1
10
120.09070109982
20
-6.5460620613413
30
0
41
1
10
121.07950196962
20
-6.54668984850909
30
0
41
1
10
121.951573295256
20
-6.54557165191196
30
0
41
1
10
122.800912778396
20
-6.54391313317461
30
0
41
1
10
123.699309778345
20
-6.54194996722643
30
0
41
1
10
124.656616141014
20
-6.54014770413642
30
0
41
1
10
125.570286897175
20
-6.53916975864291
30
0
41
1
10
126.365891895367
20
-6.53891294446407
30
0
41
1
10
127.040105460245
20
-6.53905848787653
30
0
41
1
10
127.591477599935
20
-6.53939374128461
30
0
41
1
10
128.062218779383
20
-6.53980171856117
30
0
41
1
10
128.525543588753
20
-6.54030536237573
30
0
41
1
10
129.064429013162
20
-6.54072229830035
30
0
41
1
10
129.724218887135
20
-6.5403225230595
30
0
41
1
10
130.516089813816
20
-6.5381660920726
30
0
41
1
10
131.413473963777
20
-6.53306264968418
30
0
41
1
10
132.421406195703
20
-6.52471001732312
30
0
41
1
10
133.270037157866
20
-6.5225342991468
30
0
41
1
10
133.786085486513
20
-6.52418662232444
30
0
41
1
10
133.926673690382
20
-6.5249067717892
30
0
0
SPLINE
5
FA
100
AcDbEntity
8
1
62
256
6
ByLayer
370
18
48
1
60
0
100
AcDbSpline
70
4
71
3
72
9
73
5
40
0
40
0
40
0
40
0
40
0.952131279478855
40
1
40
1
40
1
40
1
41
1
10
134.899241226735
20
-6.53446993728139
30
0
41
1
10
135.077153957925
20
-6.5368501810469
30
0
41
1
10
135.261566640798
20
-6.53933084022071
30
0
41
1
10
135.439278586173
20
-6.54090665541571
30
0
41
1
10
135.447778040102
20
-6.54098171898144
30
0
0
SPLINE
5
FB
100
AcDbEntity
8
1
62
256
6
ByLayer
370
18
48
1
60
0
100
AcDbSpline
70
4
71
2
72
6
73
3
40
0
40
0
40
0
40
1
40
1
40
1
41
1
10
76.8523118935879
20
-1.6140859103227
30
0
41
1
10
77.0303038155542
20
-1.66458309236455
30
0
41
1
10
77.2195349256971
20
-1.72670088339402
30
0
0
SPLINE
5
FC
100
AcDbEntity
8
1
62
256
6
ByLayer
370
18
48
1
60
0
100
AcDbSpline
70
4
71
3
72
35
73
31
40
0
40
0
40
0
40
0
40
0.0383053755743255
40
0.0746910122543065
40
0.105903743137004
40
0.136679407032069
40
0.16716029977113
40
0.198631785888261
40
0.222534108816376
40
0.247407652573276
40
0.278399209681675
40
0.327610019319952
40
0.38075782684685
40
0.434768850061861
40
0.489499636616282
40
0.53776959023611
40
0.575638994876812
40
0.604854756836764
40
0.631519803347536
40
0.660561020580723
40
0.692615495111487
40
0.728007656165181
40
0.765938281801019
40
0.80600774216227
40
0.844275470648516
40
0.874117461609967
40
0.901753722246189
40
0.941691052699366
40
0.983047959707743
40
1
40
1
40
1
40
1
41
1
10
71.6095398338919
20
6.54577736089374
30
0
41
1
10
71.3517289399202
20
6.54543598613228
30
0
41
1
10
70.8497147758367
20
6.54515324954411
30
0
41
1
10
70.1352701915728
20
6.54646673760197
30
0
41
1
10
69.4810580332481
20
6.54744515448567
30
0
41
1
10
68.8587991908576
20
6.54656652885078
30
0
41
1
10
68.234075594408
20
6.54567949779803
30
0
41
1
10
67.6557930580092
20
6.54478615583525
30
0
41
1
10
67.1152108417499
20
6.54394969352927
30
0
41
1
10
66.5778876779432
20
6.54316342553204
30
0
41
1
10
65.8701779696039
20
6.54223628757199
30
0
41
1
10
64.9722987796387
20
6.54133177857267
30
0
41
1
10
63.9190615810733
20
6.54079144724034
30
0
41
1
10
62.8284364989361
20
6.54070157711618
30
0
41
1
10
61.7709504697719
20
6.54058888892061
30
0
41
1
10
60.8222625735483
20
6.53939681297973
30
0
41
1
10
60.0452788483741
20
6.53832390249897
30
0
41
1
10
59.4137392856646
20
6.5377362670188
30
0
41
1
10
58.8416778687265
20
6.53742350460874
30
0
41
1
10
58.2504914929773
20
6.53737965141144
30
0
41
1
10
57.600517179884
20
6.53770757412215
30
0
41
1
10
56.890660955639
20
6.53860012603775
30
0
41
1
10
56.1268140233628
20
6.54012383045642
30
0
41
1
10
55.343598767609
20
6.54200710255571
30
0
41
1
10
54.614867853448
20
6.54378445115077
30
0
41
1
10
53.9699007222744
20
6.54506459395205
30
0
41
1
10
53.3136597657297
20
6.5459184619246
30
0
41
1
10
52.5799883672273
20
6.54582455363698
30
0
41
1
10
51.9177663356262
20
6.54497727013339
30
0
41
1
10
51.5260845776157
20
6.54429839014273
30
0
41
1
10
51.4122500880319
20
6.5440828675728
30
0
0
SPLINE
5
FD
100
AcDbEntity
8
1
62
256
6
ByLayer
370
18
48
1
60
0
100
AcDbSpline
70
4
71
2
72
6
73
3
40
0
40
0
40
0
40
1
40
1
40
1
41
1
10
94.7984791584466
20
2.5682445237162
30
0
41
1
10
94.6066536471279
20
2.61868755313898
30
0
41
1
10
94.4187050220599
20
2.67584982454065
30
0
0
SPLINE
5
FE
100
AcDbEntity
8
1
62
256
6
ByLayer
370
18
48
1
60
0
100
AcDbSpline
70
4
71
2
72
6
73
3
40
0
40
0
40
0
40
1
40
1
40
1
41
1
10
31.4119317352604
20
2.57628454551559
30
0
41
1
10
31.2260288056645
20
2.62505613497763
30
0
41
1
10
31.0402986014682
20
2.68143302741427
30
0
0
SPLINE
5
FF
100
AcDbEntity
8
1
62
256
6
ByLayer
370
18
48
1
60
0
100
AcDbSpline
70
4
71
2
72
6
73
3
40
0
40
0
40
0
40
1
40
1
40
1
41
1
10
140.222920764381
20
-1.61599297522599
30
0
41
1
10
140.405317661332
20
-1.66777059897314
30
0
41
1
10
140.587711864798
20
-1.72758766046505
30
0
0
SPLINE
5
100
100
AcDbEntity
8
1
62
256
6
ByLayer
370
18
48
1
60
0
100
AcDbSpline
70
4
71
2
72
6
73
3
40
0
40
0
40
0
40
1
40
1
40
1
41
1
10
168.447043418598
20
6.85001939770098
30
0
41
1
10
168.170492832413
20
6.8500091208806
30
0
41
1
10
167.893942418894
20
6.85000135746512
30
0
0
SPLINE
5
101
100
AcDbEntity
8
1
62
256
6
ByLayer
370
18
48
1
60
0
100
AcDbSpline
70
4
71
3
72
11
73
7
40
0
40
0
40
0
40
0
40
0.205878645432486
40
0.45813821235275
40
0.757584826259625
40
1
40
1
40
1
40
1
41
1
10
164.652561782493
20
-6.84999575242978
30
0
41
1
10
164.912346126431
20
-6.84987582118058
30
0
41
1
10
165.49112859987
20
-6.84966462784857
30
0
41
1
10
166.452494180003
20
-6.8493293656212
30
0
41
1
10
167.45941948562
20
-6.84967435616352
30
0
41
1
10
168.145696881819
20
-6.84987054471631
30
0
41
1
10
168.45257976024
20
-6.84998650737242
30
0
0
SPLINE
5
102
100
AcDbEntity
8
1
62
256
6
ByLayer
370
18
48
1
60
0
100
AcDbSpline
70
4
71
3
72
34
73
30
40
0
40
0
40
0
40
0
40
0.0530424910444946
40
0.102586236305591
40
0.149186314442142
40
0.192323875847441
40
0.228218238895087
40
0.256642587574274
40
0.28256330888373
40
0.3106677460089
40
0.357514650077832
40
0.413907293929132
40
0.471481618173943
40
0.5277740357832
40
0.582213970973063
40
0.637408074436796
40
0.690125964491121
40
0.73959466858892
40
0.784207995779171
40
0.815750369546856
40
0.843132971985475
40
0.874410798913952
40
0.886758267086151
40
0.898986252311882
40
0.911245104696958
40
0.927989347737694
40
0.951432495804823
40
0.981583997436954
40
1
40
1
40
1
40
1
41
1
10
45.4433313792089
20
-6.54540035235269
30
0
41
1
10
45.8887041420424
20
-6.5433310404535
30
0
41
1
10
46.7560265853709
20
-6.53974644755681
30
0
41
1
10
48.0378908865389
20
-6.52942251505951
30
0
41
1
10
49.2423959188484
20
-6.53219905538233
30
0
41
1
10
50.3100772143195
20
-6.54106955933656
30
0
41
1
10
51.2291912953873
20
-6.5438706732769
30
0
41
1
10
52.0032981347121
20
-6.54510274407264
30
0
41
1
10
52.7142716899821
20
-6.54580349894999
30
0
41
1
10
53.5830692061163
20
-6.54587112061014
30
0
41
1
10
54.7151443353757
20
-6.54364998551597
30
0
41
1
10
56.100926664675
20
-6.54002568387324
30
0
41
1
10
57.5683648171826
20
-6.53743462209721
30
0
41
1
10
59.0183007230858
20
-6.53716465097762
30
0
41
1
10
60.4500981972571
20
-6.53910426163517
30
0
41
1
10
61.8409854082075
20
-6.53933830714504
30
0
41
1
10
63.19719437172
20
-6.53675667408413
30
0
41
1
10
64.4623142797326
20
-6.53944772971894
30
0
41
1
10
65.5389861323306
20
-6.54187260264285
30
0
41
1
10
66.4304542840435
20
-6.54293029809648
30
0
41
1
10
67.208309720496
20
-6.54411513055493
30
0
41
1
10
67.8190575251625
20
-6.54493501748473
30
0
41
1
10
68.300344442524
20
-6.54556261856874
30
0
41
1
10
68.617896694359
20
-6.54608236425761
30
0
41
1
10
68.9721909299858
20
-6.54671345958613
30
0
41
1
10
69.4239245297146
20
-6.54726842441158
30
0
41
1
10
70.030058536851
20
-6.54773502716932
30
0
41
1
10
70.6506473810008
20
-6.54772671622609
30
0
41
1
10
71.0691948306083
20
-6.54747153189112
30
0
41
1
10
71.2279021018394
20
-6.54733627196228
30
0
0
SPLINE
5
103
100
AcDbEntity
8
1
62
256
6
ByLayer
370
18
48
1
60
0
100
AcDbSpline
70
4
71
3
72
8
73
4
40
0
40
0
40
0
40
0
40
1
40
1
40
1
40
1
41
1
10
162.203098248329
20
-6.78773172065428
30
0
41
1
10
162.202065491646
20
-6.78865213652128
30
0
41
1
10
162.201032742187
20
-6.78957238436817
30
0
41
1
10
162.2
20
-6.79049246413732
30
0
0
SPLINE
5
104
100
AcDbEntity
8
1
62
256
6
ByLayer
370
18
48
1
60
0
100
AcDbSpline
70
4
71
3
72
8
73
4
40
0
40
0
40
0
40
0
40
1
40
1
40
1
40
1
41
1
10
17.3999999999999
20
-6.03566680715167
30
0
41
1
10
17.9838936055631
20
-5.94167519846084
30
0
41
1
10
18.5671275248097
20
-5.83990184918099
30
0
41
1
10
19.1500000000599
20
-5.7307500330237
30
0
0
SPLINE
5
105
100
AcDbEntity
8
1
62
256
6
ByLayer
370
18
48
1
60
0
100
AcDbSpline
70
4
71
3
72
38
73
34
40
0
40
0
40
0
40
0
40
0.0495712423702448
40
0.0495712423702448
40
0.0991424847404896
40
0.0991424847404896
40
0.198284969480981
40
0.198284969480981
40
0.297427454221472
40
0.297427454221472
40
0.346998696591718
40
0.346998696591718
40
0.396569938961964
40
0.396569938961964
40
0.495712423702455
40
0.495712423702455
40
0.5452836660727
40
0.5452836660727
40
0.594854908442945
40
0.594854908442945
40
0.693997393183433
40
0.693997393183433
40
0.743568635553678
40
0.743568635553678
40
0.793139877923922
40
0.793139877923922
40
0.89228236266441
40
0.89228236266441
40
0.941853605034655
40
0.941853605034655
40
0.9914248474049
40
0.9914248474049
40
1
40
1
40
1
40
1
41
1
10
149.645748859085
20
-3.00036834850855
30
0
41
1
10
148.969758550838
20
-2.79429620466109
30
0
41
1
10
148.293931270623
20
-2.58331022353787
30
0
41
1
10
146.941837446174
20
-2.153623963418
30
0
41
1
10
146.265140526821
20
-1.9348862494283
30
0
41
1
10
144.237164315524
20
-1.26965121129231
30
0
41
1
10
142.889256466414
20
-0.812057837988476
30
0
41
1
10
140.193542185093
20
0.10764684312295
30
0
41
1
10
138.845387361658
20
0.568720330065844
30
0
41
1
10
136.817539440771
20
1.2467022384906
30
0
41
1
10
136.140589066216
20
1.47101085038062
30
0
41
1
10
134.789148665943
20
1.91391851702264
30
0
41
1
10
134.114107112997
20
2.13254832640473
30
0
41
1
10
132.08989649767
20
2.77674113212015
30
0
41
1
10
130.741461903076
20
3.19008556515496
30
0
41
1
10
128.716318337668
20
3.77501154112193
30
0
41
1
10
128.040939696523
20
3.96436849682098
30
0
41
1
10
126.689191324614
20
4.33082881656352
30
0
41
1
10
126.013685942085
20
4.50749301230258
30
0
41
1
10
123.989822932523
20
5.01320974124241
30
0
41
1
10
122.64266052486
20
5.3177812124388
30
0
41
1
10
120.618992182367
20
5.71535101063796
30
0
41
1
10
119.943953269524
20
5.83809119046037
30
0
41
1
10
118.592980179714
20
6.06421118982206
30
0
41
1
10
117.916587561574
20
6.16756684045296
30
0
41
1
10
115.887921930179
20
6.44623908048118
30
0
41
1
10
114.538572270402
20
6.58965209438776
30
0
41
1
10
112.514719902229
20
6.73757792712283
30
0
41
1
10
111.840136550331
20
6.77574602714711
30
0
41
1
10
110.490909661692
20
6.82951717672069
30
0
41
1
10
109.816278372179
20
6.84508267735077
30
0
41
1
10
109.024337665063
20
6.84968588974408
30
0
41
1
10
108.907516986817
20
6.85001540009125
30
0
41
1
10
108.790677133676
20
6.84999591244994
30
0
0
SPLINE
5
106
100
AcDbEntity
8
1
62
256
6
ByLayer
370
18
48
1
60
0
100
AcDbSpline
70
4
71
3
72
30
73
26
40
0
40
0
40
0
40
0
40
0.031325191331942
40
0.031325191331942
40
0.0959035119098127
40
0.0959035119098127
40
0.225060153065554
40
0.225060153065554
40
0.289638473643425
40
0.289638473643425
40
0.354216794221295
40
0.354216794221295
40
0.483373435377037
40
0.483373435377037
40
0.547951755954908
40
0.547951755954908
40
0.612530076532779
40
0.612530076532779
40
0.677108397110649
40
0.677108397110649
40
0.74168671768852
40
0.74168671768852
40
0.87084335884426
40
0.87084335884426
40
1
40
1
40
1
40
1
41
1
10
51.3988459830208
20
-6.55254303298176
30
0
41
1
10
51.0708055456484
20
-6.58486345771863
30
0
41
1
10
50.7427043395054
20
-6.61462356062873
30
0
41
1
10
49.7385837208281
20
-6.69773498801484
30
0
41
1
10
49.0632185787067
20
-6.74256466806582
30
0
41
1
10
47.0383010702841
20
-6.84304033153697
30
0
41
1
10
45.6897150391583
20
-6.86459471349403
30
0
41
1
10
43.6652300144682
20
-6.82828209287297
30
0
41
1
10
42.9902797011079
20
-6.80472022569685
30
0
41
1
10
41.6395319406801
20
-6.73437565124888
30
0
41
1
10
40.9633817335783
20
-6.68754608201095
30
0
41
1
10
38.9383297794981
20
-6.51331007912086
30
0
41
1
10
37.59066477304
20
-6.35209735756064
30
0
41
1
10
35.567045624486
20
-6.05043418827646
30
0
41
1
10
34.892233394276
20
-5.93988782367788
30
0
41
1
10
33.542020889254
20
-5.6988891806009
30
0
41
1
10
32.8665585116098
20
-5.56850347660338
30
0
41
1
10
31.5141788247298
20
-5.28904110286496
30
0
41
1
10
30.8381526904823
20
-5.14014875591911
30
0
41
1
10
29.4884602821185
20
-4.82638564759054
30
0
41
1
10
28.8143508093083
20
-4.66145353047267
30
0
41
1
10
26.7933671639942
20
-4.14453690069243
30
0
41
1
10
25.4481521046441
20
-3.76971929943474
30
0
41
1
10
22.757416457968
20
-2.96964905244374
30
0
41
1
10
21.4115113906668
20
-2.54515372266408
30
0
41
1
10
20.0606426691707
20
-2.10861227845413
30
0
0
SPLINE
5
107
100
AcDbEntity
8
1
62
256
6
ByLayer
370
18
48
1
60
0
100
AcDbSpline
70
4
71
3
72
10
73
6
40
0
40
0
40
0
40
0
40
0.5
40
0.5
40
1
40
1
40
1
40
1
41
1
10
152.704644057044
20
4.77171114988244
30
0
41
1
10
152.868704611354
20
4.79536638015435
30
0
41
1
10
153.027553694317
20
4.83786146330476
30
0
41
1
10
153.33484771453
20
4.96236426040008
30
0
41
1
10
153.483814003834
20
5.04520489767745
30
0
41
1
10
153.621975565906
20
5.14460064159252
30
0
0
SPLINE
5
108
100
AcDbEntity
8
1
62
256
6
ByLayer
370
18
48
1
60
0
100
AcDbSpline
70
4
71
3
72
8
73
4
40
0
40
0
40
0
40
0
40
1
40
1
40
1
40
1
41
1
10
16
20
6.16632678461983
30
0
41
1
10
16.0839638655614
20
6.15955210483736
30
0
41
1
10
16.1686845130249
20
6.15434491219628
30
0
41
1
10
16.2541316216729
20
6.15078690180138
30
0
0
SPLINE
5
109
100
AcDbEntity
8
1
62
256
6
ByLayer
370
18
48
1
60
0
100
AcDbSpline
70
4
71
3
72
8
73
4
40
0
40
0
40
0
40
0
40
1
40
1
40
1
40
1
41
1
10
162.879495483872
20
-6.95059335939709
30
0
41
1
10
162.742306723631
20
-6.8935836419551
30
0
41
1
10
162.604929974737
20
-6.83581016046281
30
0
41
1
10
162.467349444533
20
-6.77730749377824
30
0
0
SPLINE
5
10A
100
AcDbEntity
8
1
62
256
6
ByLayer
370
18
48
1
60
0
100
AcDbSpline
70
4
71
2
72
9
73
6
40
0
40
0
40
0
40
0.25
40
0.5
40
0.75
40
1
40
1
40
1
41
1
10
165.972656085662
20
-2.33980117570798
30
0
41
1
10
166.029474560574
20
-2.7601069535923
30
0
41
1
10
166.182972347585
20
-3.55354239392687
30
0
41
1
10
166.373153164003
20
-4.28216939771556
30
0
41
1
10
166.597542998024
20
-4.93701847530099
30
0
41
1
10
166.724220033313
20
-5.21965488693223
30
0
0
SPLINE
5
10B
100
AcDbEntity
8
1
62
256
6
ByLayer
370
18
48
1
60
0
100
AcDbSpline
70
4
71
3
72
24
73
20
40
0
40
0
40
0
40
0
40
0.0071827013577948
40
0.0405585490248524
40
0.107310244358967
40
0.174061939693082
40
0.274189482694254
40
0.307565330361312
40
0.374317025695427
40
0.441068721029542
40
0.541196264030713
40
0.574572111697771
40
0.641323807031886
40
0.708075502366001
40
0.808203045367174
40
0.84157889303423
40
0.908330588368345
40
0.97508228370246
40
1
40
1
40
1
40
1
41
1
10
77.125337608109
20
-0.0088007273641608
30
0
41
1
10
77.201205104701
20
-0.0334183566974956
30
0
41
1
10
77.6296103796361
20
-0.172379875164096
30
0
41
1
10
78.7631787620795
20
-0.539181230099499
30
0
41
1
10
80.5274338001033
20
-1.10615437011634
30
0
41
1
10
82.9976018557818
20
-1.88599276391749
30
0
41
1
10
85.1137351302745
20
-2.53057687388041
30
0
41
1
10
87.2303688778814
20
-3.14455644981438
30
0
41
1
10
88.9949943622877
20
-3.63562369738453
30
0
41
1
10
91.46442306156
20
-4.27961674434463
30
0
41
1
10
93.5792118519806
20
-4.77764213555157
30
0
41
1
10
95.6945275997048
20
-5.21861024435709
30
0
41
1
10
97.4587126709024
20
-5.54686332395821
30
0
41
1
10
99.9287780982358
20
-5.93559842155537
30
0
41
1
10
102.044830525192
20
-6.19244554372486
30
0
41
1
10
104.161404432514
20
-6.37937749265058
30
0
41
1
10
105.926006060545
20
-6.48705199465735
30
0
41
1
10
107.600493086177
20
-6.53347066071268
30
0
41
1
10
108.568965956195
20
-6.53937413414272
30
0
41
1
10
108.832195393179
20
-6.53940536519974
30
0
0
SPLINE
5
10C
100
AcDbEntity
8
1
62
256
6
ByLayer
370
18
48
1
60
0
100
AcDbSpline
70
4
71
3
72
12
73
8
40
0
40
0
40
0
40
0
40
0.5
40
0.5
40
0.75
40
0.75
40
1
40
1
40
1
40
1
41
1
10
17.3999999999999
20
-3.16944576906295
30
0
41
1
10
17.6447754553905
20
-3.13855656272091
30
0
41
1
10
17.8887096286513
20
-3.13536610088266
30
0
41
1
10
18.2533900908079
20
-3.17088269450537
30
0
41
1
10
18.3756063733618
20
-3.18971746480989
30
0
41
1
10
18.6145654846379
20
-3.24037746660997
30
0
41
1
10
18.7312625765831
20
-3.27206289255841
30
0
41
1
10
18.8452331648297
20
-3.30980848604651
30
0
0
SPLINE
5
10D
100
AcDbEntity
8
1
62
256
6
ByLayer
370
18
48
1
60
0
100
AcDbSpline
70
4
71
3
72
14
73
10
40
0
40
0
40
0
40
0
40
0.25
40
0.25
40
0.5
40
0.5
40
0.75
40
0.75
40
1
40
1
40
1
40
1
41
1
10
149.794414766842
20
4.78341457932754
30
0
41
1
10
149.935931035585
20
4.74292424958404
30
0
41
1
10
150.080371154375
20
4.71048097903358
30
0
41
1
10
150.374850049265
20
4.66210754908707
30
0
41
1
10
150.524887649671
20
4.64617016511627
30
0
41
1
10
150.830769667305
20
4.63198141001897
30
0
41
1
10
150.983916596552
20
4.63388896022101
30
0
41
1
10
151.288999575061
20
4.65563401369917
30
0
41
1
10
151.440438452675
20
4.6754992218639
30
0
41
1
10
151.58839262624
20
4.70373034701785
30
0
0
SPLINE
5
10E
100
AcDbEntity
8
1
62
256
6
ByLayer
370
18
48
1
60
0
100
AcDbSpline
70
4
71
3
72
10
73
6
40
0
40
0
40
0
40
0
40
0.5
40
0.5
40
1
40
1
40
1
40
1
41
1
10
170.671780217002
20
-0.950897469346785
30
0
41
1
10
170.713815263559
20
-0.832988399000186
30
0
41
1
10
170.755709979435
20
-0.713521179859725
30
0
41
1
10
170.838673486509
20
-0.473089804693814
30
0
41
1
10
170.879022021817
20
-0.354223482246141
30
0
41
1
10
170.918337581519
20
-0.236587162311054
30
0
0
SPLINE
5
10F
100
AcDbEntity
8
1
62
256
6
ByLayer
370
18
48
1
60
0
100
AcDbSpline
70
4
71
3
72
8
73
4
40
0
40
0
40
0
40
0
40
1
40
1
40
1
40
1
41
1
10
170.988057002737
20
0.0497126647350967
30
0
41
1
10
170.976760629774
20
0.0868249058094364
30
0
41
1
10
170.965532013157
20
0.123798240974139
30
0
41
1
10
170.954370573722
20
0.160633857563454
30
0
0
SPLINE
5
110
100
AcDbEntity
8
1
62
256
6
ByLayer
370
18
48
1
60
0
100
AcDbSpline
70
4
71
3
72
14
73
10
40
0
40
0
40
0
40
0
40
0.249999999999999
40
0.249999999999999
40
0.5
40
0.5
40
0.75
40
0.75
40
1
40
1
40
1
40
1
41
1
10
170.829323565315
20
0.651887385739428
30
0
41
1
10
170.804914853787
20
0.750030131780107
30
0
41
1
10
170.774705357227
20
0.862819759597812
30
0
41
1
10
170.703893519752
20
1.11318018114946
30
0
41
1
10
170.663293250446
20
1.25074357116929
30
0
41
1
10
170.57332980604
20
1.54512812753006
30
0
41
1
10
170.523969053603
20
1.70194136627708
30
0
41
1
10
170.418466087691
20
2.02853034363022
30
0
41
1
10
170.362327720578
20
2.19829430917525
30
0
41
1
10
170.303923474997
20
2.37113761589921
30
0
0
SPLINE
5
111
100
AcDbEntity
8
1
62
256
6
ByLayer
370
18
48
1
60
0
100
AcDbSpline
70
4
71
3
72
8
73
4
40
0
40
0
40
0
40
0
40
1
40
1
40
1
40
1
41
1
10
12.4167255104682
20
-4.20785807344421
30
0
41
1
10
12.4437909333945
20
-4.19438625092468
30
0
41
1
10
12.4708570864164
20
-4.18093113994618
30
0
41
1
10
12.4979239355328
20
-4.16749263077486
30
0
0
SPLINE
5
112
100
AcDbEntity
8
1
62
256
6
ByLayer
370
18
48
1
60
0
100
AcDbSpline
70
4
71
3
72
10
73
6
40
0
40
0
40
0
40
0
40
0.5
40
0.5
40
1
40
1
40
1
40
1
41
1
10
162.307179676973
20
2.25
30
0
41
1
10
162.307179676973
20
2.32584785827183
30
0
41
1
10
162.305801674528
20
2.40013209209297
30
0
41
1
10
162.30222114544
20
2.54574620452556
30
0
41
1
10
162.3
20
2.6176361273082
30
0
41
1
10
162.3
20
2.68588989435406
30
0
0
SPLINE
5
113
100
AcDbEntity
8
1
62
256
6
ByLayer
370
18
48
1
60
0
100
AcDbSpline
70
4
71
3
72
12
73
8
40
0
40
0
40
0
40
0
40
0.5
40
0.5
40
0.75
40
0.75
40
1
40
1
40
1
40
1
41
1
10
170.097518614827
20
-1.90875870454727
30
0
41
1
10
170.1981209145
20
-1.79035975038903
30
0
41
1
10
170.298264004446
20
-1.65240352942718
30
0
41
1
10
170.446260552412
20
-1.40815157613352
30
0
41
1
10
170.493875089884
20
-1.32265047113694
30
0
41
1
10
170.585557690806
20
-1.14321634199061
30
0
41
1
10
170.629804190032
20
-1.04886884960149
30
0
41
1
10
170.671780217004
20
-0.950897469346899
30
0
0
SPLINE
5
114
100
AcDbEntity
8
1
62
256
6
ByLayer
370
18
48
1
60
0
100
AcDbSpline
70
4
71
3
72
8
73
4
40
0
40
0
40
0
40
0
40
1
40
1
40
1
40
1
41
1
10
168.994994243482
20
2.35079234044286
30
0
41
1
10
169.155840982287
20
2.36038063668318
30
0
41
1
10
169.316537136704
20
2.37166299877418
30
0
41
1
10
169.476988962843
20
2.38576957387184
30
0
0
SPLINE
5
115
100
AcDbEntity
8
1
62
256
6
ByLayer
370
13
48
1
60
0
100
AcDbSpline
70
4
71
3
72
8
73
4
40
0
40
0
40
0
40
0
40
1
40
1
40
1
40
1
41
1
10
170.178110342801
20
0.6700111909079
30
0
41
1
10
170.185690443341
20
0.664898909522407
30
0
41
1
10
170.193307993062
20
0.659833055281467
30
0
41
1
10
170.200961466712
20
0.654812958375999
30
0
0
SPLINE
5
116
100
AcDbEntity
8
1
62
256
6
ByLayer
370
18
48
1
60
0
100
AcDbSpline
70
4
71
3
72
46
73
42
40
0
40
0
40
0
40
0
40
0.0757604443387486
40
0.0757604443387486
40
0.113640666508122
40
0.113640666508122
40
0.151520888677496
40
0.151520888677496
40
0.189401110846869
40
0.189401110846869
40
0.227281333016243
40
0.227281333016243
40
0.265161555185617
40
0.265161555185617
40
0.30304177735499
40
0.30304177735499
40
0.378802221693739
40
0.378802221693739
40
0.454562666032488
40
0.454562666032488
40
0.530323110371236
40
0.530323110371236
40
0.56820333254061
40
0.56820333254061
40
0.606083554709985
40
0.606083554709985
40
0.681843999048735
40
0.681843999048735
40
0.71972422121811
40
0.71972422121811
40
0.757604443387485
40
0.757604443387485
40
0.833364887726235
40
0.833364887726235
40
0.909125332064985
40
0.909125332064985
40
0.94700555423436
40
0.94700555423436
40
0.984885776403736
40
0.984885776403736
40
1
40
1
40
1
40
1
41
1
10
149.965160259894
20
-4.55331327547876
30
0
41
1
10
148.572140452884
20
-4.83012894355684
30
0
41
1
10
147.180745829617
20
-5.06970155465257
30
0
41
1
10
145.093055793164
20
-5.36972754953533
30
0
41
1
10
144.397044809735
20
-5.45972516922896
30
0
41
1
10
143.004247705601
20
-5.61977363330215
30
0
41
1
10
142.307129872409
20
-5.68954814021828
30
0
41
1
10
140.913624402533
20
-5.81152999030158
30
0
41
1
10
140.217286937773
20
-5.86387073417771
30
0
41
1
10
138.824830727648
20
-5.94781986905193
30
0
41
1
10
138.128704795653
20
-5.97983824425756
30
0
41
1
10
136.735977017243
20
-6.02292968311409
30
0
41
1
10
136.039370199284
20
-6.03395701428866
30
0
41
1
10
134.645021551679
20
-6.03456749803564
30
0
41
1
10
133.947208472713
20
-6.02414810783577
30
0
41
1
10
131.855689582545
20
-5.9597327310149
30
0
41
1
10
130.462461864028
20
-5.87226452897934
30
0
41
1
10
127.67440044132
20
-5.61342578204736
30
0
41
1
10
126.278358230494
20
-5.44175317430407
30
0
41
1
10
123.491399214184
20
-5.02597877811431
30
0
41
1
10
122.099531618089
20
-4.78165765773312
30
0
41
1
10
120.009508231015
20
-4.36684284827896
30
0
41
1
10
119.312087727864
20
-4.22042915478045
30
0
41
1
10
117.917691831755
20
-3.91341877294323
30
0
41
1
10
117.22087508838
20
-3.75286559432712
30
0
41
1
10
115.130560925586
20
-3.2524293752742
30
0
41
1
10
113.737227754019
20
-2.89353965408037
30
0
41
1
10
111.644736039102
20
-2.32642055120095
30
0
41
1
10
110.946662332946
20
-2.13255283393721
30
0
41
1
10
109.552153808512
20
-1.73790847567278
30
0
41
1
10
108.855357589144
20
-1.53703784455124
30
0
41
1
10
106.765619480367
20
-0.926355973186645
30
0
41
1
10
105.373375358783
20
-0.508293425739851
30
0
41
1
10
102.584533514063
20
0.329925719346562
30
0
41
1
10
101.191510016185
20
0.748775361779451
30
0
41
1
10
99.1016289924227
20
1.36154918689729
30
0
41
1
10
98.4048569100288
20
1.56328678072785
30
0
41
1
10
97.0105592183996
20
1.96020610232753
30
0
41
1
10
96.3126945675999
20
2.15550729771039
30
0
41
1
10
95.3367185343029
20
2.42279413969868
30
0
41
1
10
95.0584500462525
20
2.49832832150489
30
0
41
1
10
94.780249327157
20
2.57313118545525
30
0
0
SPLINE
5
117
100
AcDbEntity
8
1
62
256
6
ByLayer
370
18
48
1
60
0
100
AcDbSpline
70
4
71
3
72
10
73
6
40
0
40
0
40
0
40
0
40
0.406704386049051
40
0.406704386049051
40
1
40
1
40
1
40
1
41
1
10
23.220319160366
20
-4.52253139237274
30
0
41
1
10
22.2661583100477
20
-4.71525594449719
30
0
41
1
10
21.3125335276194
20
-4.89476803954693
30
0
41
1
10
18.9672028789609
20
-5.29794579022027
30
0
41
1
10
17.5752052593743
20
-5.50327239256694
30
0
41
1
10
16.1798468060949
20
-5.66587369608385
30
0
0
SPLINE
5
118
100
AcDbEntity
8
1
62
256
6
ByLayer
370
13
48
1
60
0
100
AcDbSpline
70
4
71
3
72
20
73
16
40
0
40
0
40
0
40
0
40
0.332892821059505
40
0.332892821059505
40
0.499339231589258
40
0.499339231589258
40
0.665785642119011
40
0.665785642119011
40
0.832232052648764
40
0.832232052648764
40
0.91545525791364
40
0.91545525791364
40
0.998678463178516
40
0.998678463178516
40
1
40
1
40
1
40
1
41
1
10
169.224657957104
20
-1.33622846705074
30
0
41
1
10
169.037082323596
20
-1.2131931107649
30
0
41
1
10
168.799421756616
20
-1.03149860408533
30
0
41
1
10
168.529104008865
20
-0.786915448200347
30
0
41
1
10
168.411027182573
20
-0.671024440858702
30
0
41
1
10
168.234635114764
20
-0.481748981637764
30
0
41
1
10
168.117170200279
20
-0.344221226056078
30
0
41
1
10
167.946352856808
20
-0.123394566265375
30
0
41
1
10
167.832698468961
20
0.0388297895874814
30
0
41
1
10
167.713810020941
20
0.228696514986467
30
0
41
1
10
167.659655409059
20
0.320263068187558
30
0
41
1
10
167.583963758088
20
0.456438096649805
30
0
41
1
10
167.531941157784
20
0.556143276176385
30
0
41
1
10
167.495903884442
20
0.630171237358297
30
0
41
1
10
167.495340126586
20
0.631331246750932
30
0
41
1
10
167.494775924513
20
0.632494100705799
30
0
0
SPLINE
5
119
100
AcDbEntity
8
1
62
256
6
ByLayer
370
18
48
1
60
0
100
AcDbSpline
70
4
71
3
72
8
73
4
40
0
40
0
40
0
40
0
40
1
40
1
40
1
40
1
41
1
10
12.4979239355327
20
-7.87802161878884
30
0
41
1
10
12.4708974060988
20
-7.89755969122638
30
0
41
1
10
12.4438309707976
20
-7.9170003639891
30
0
41
1
10
12.4167255104682
20
-7.9363448487056
30
0
0
SPLINE
5
11A
100
AcDbEntity
8
1
62
256
6
ByLayer
370
18
48
1
60
0
100
AcDbSpline
70
4
71
3
72
12
73
8
40
0
40
0
40
0
40
0
40
0.45325895365287
40
0.45325895365287
40
0.979037198436382
40
0.979037198436382
40
1
40
1
40
1
40
1
41
1
10
154.067087949052
20
5.62032394068129
30
0
41
1
10
154.067708337286
20
5.63639582621946
30
0
41
1
10
154.068332649678
20
5.65245139401563
30
0
41
1
10
154.069689813017
20
5.68709618069357
30
0
41
1
10
154.070424048826
20
5.70567978650533
30
0
41
1
10
154.071193288881
20
5.72498161889035
30
0
41
1
10
154.071222791369
20
5.72572164316725
30
0
41
1
10
154.071252302623
20
5.72646163275425
30
0
0
SPLINE
5
11B
100
AcDbEntity
8
1
62
256
6
ByLayer
370
18
48
1
60
0
100
AcDbSpline
70
4
71
3
72
10
73
6
40
0
40
0
40
0
40
0
40
0.572204095991295
40
0.572204095991295
40
1
40
1
40
1
40
1
41
1
10
149.794414766842
20
-4.78341457932754
30
0
41
1
10
149.935931035585
20
-4.74292424958404
30
0
41
1
10
150.080371154375
20
-4.71048097903358
30
0
41
1
10
150.3376909612
20
-4.66821159448583
30
0
41
1
10
150.449335342268
20
-4.65473987105293
30
0
41
1
10
150.562587729718
20
-4.6461271819268
30
0
0
SPLINE
5
11C
100
AcDbEntity
8
1
62
256
6
ByLayer
370
18
48
1
60
0
100
AcDbSpline
70
4
71
3
72
8
73
4
40
0
40
0
40
0
40
0
40
1
40
1
40
1
40
1
41
1
10
169.392130205368
20
-4.9978926016116
30
0
41
1
10
169.219708644489
20
-5.51773956117052
30
0
41
1
10
169.044973940986
20
-6.04047822837873
30
0
41
1
10
168.8678603441
20
-6.56619078799565
30
0
0
SPLINE
5
11D
100
AcDbEntity
8
1
62
256
6
ByLayer
370
18
48
1
60
0
100
AcDbSpline
70
4
71
3
72
10
73
6
40
0
40
0
40
0
40
0
40
0.5
40
0.5
40
1
40
1
40
1
40
1
41
1
10
14.4214746275288
20
6.74555274089298
30
0
41
1
10
14.2595663100664
20
6.8159934793733
30
0
41
1
10
14.1063463187666
20
6.89093710774094
30
0
41
1
10
13.8154610868537
20
7.04462278784032
30
0
41
1
10
13.6775658299945
20
7.12353052668036
30
0
41
1
10
13.547423187136
20
7.20158944194819
30
0
0
SPLINE
5
11E
100
AcDbEntity
8
1
62
256
6
ByLayer
370
18
48
1
60
0
100
AcDbSpline
70
4
71
3
72
9
73
5
40
0
40
0
40
0
40
0
40
0.493248890187802
40
1
40
1
40
1
40
1
41
1
10
162.299999956214
20
6.11174481182391
30
0
41
1
10
162.284684402672
20
6.13986830954076
30
0
41
1
10
162.253634046865
20
6.1968851589981
30
0
41
1
10
162.221293160792
20
6.25325020495347
30
0
41
1
10
162.204904380883
20
6.28181325454597
30
0
0
SPLINE
5
11F
100
AcDbEntity
8
1
62
256
6
ByLayer
370
18
48
1
60
0
100
AcDbSpline
70
4
71
3
72
8
73
4
40
0
40
0
40
0
40
0
40
1
40
1
40
1
40
1
41
1
10
152.704644058368
20
4.77171115007326
30
0
41
1
10
152.692351997731
20
4.65057284470092
30
0
41
1
10
152.678040043536
20
4.53257689146807
30
0
41
1
10
152.661773950205
20
4.41812732221743
30
0
0
SPLINE
5
120
100
AcDbEntity
8
1
62
256
6
ByLayer
370
18
48
1
60
0
100
AcDbSpline
70
4
71
3
72
18
73
14
40
0
40
0
40
0
40
0
40
0.249999999999999
40
0.249999999999999
40
0.374999999999999
40
0.374999999999999
40
0.499999999999999
40
0.499999999999999
40
0.749999999999998
40
0.749999999999998
40
0.874999999999999
40
0.874999999999999
40
1
40
1
40
1
40
1
41
1
10
20.0606426691707
20
-2.10861227845419
30
0
41
1
10
19.9158661217409
20
-1.95369664319449
30
0
41
1
10
19.7870318737402
20
-1.78666706653121
30
0
41
1
10
19.6174230583744
20
-1.51716597477463
30
0
41
1
10
19.5648533316666
20
-1.42415403167348
30
0
41
1
10
19.4679347184184
20
-1.2313889226923
30
0
41
1
10
19.4240021975312
20
-1.1323457389932
30
0
41
1
10
19.3073856603604
20
-0.831669230663977
30
0
41
1
10
19.2488792985276
20
-0.624795846773395
30
0
41
1
10
19.1897092791915
20
-0.304687576055244
30
0
41
1
10
19.174747091493
20
-0.195883587034729
30
0
41
1
10
19.1549089194847
20
0.02267813231839
30
0
41
1
10
19.1500000002087
20
0.132234542059678
30
0
41
1
10
19.150000000208
20
0.242060466374994
30
0
0
SPLINE
5
121
100
AcDbEntity
8
1
62
256
6
ByLayer
370
18
48
1
60
0
100
AcDbSpline
70
4
71
3
72
10
73
6
40
0
40
0
40
0
40
0
40
0.5
40
0.5
40
1
40
1
40
1
40
1
41
1
10
154.067087949052
20
5.62032394068126
30
0
41
1
10
154.006352978792
20
5.53017769919535
30
0
41
1
10
153.939792209663
20
5.4433631986999
30
0
41
1
10
153.790356464685
20
5.28082045252015
30
0
41
1
10
153.709761858544
20
5.20775557217732
30
0
41
1
10
153.621975565902
20
5.14460064158976
30
0
0
SPLINE
5
122
100
AcDbEntity
8
1
62
256
6
ByLayer
370
18
48
1
60
0
100
AcDbSpline
70
4
71
3
72
8
73
4
40
0
40
0
40
0
40
0
40
1
40
1
40
1
40
1
41
1
10
17.4
20
-3.16944576906295
30
0
41
1
10
17.2765531415533
20
-3.18285707169403
30
0
41
1
10
17.1552982290451
20
-3.20311349681418
30
0
41
1
10
17.0362033352917
20
-3.22992348486079
30
0
0
SPLINE
5
123
100
AcDbEntity
8
1
62
256
6
ByLayer
370
18
48
1
60
0
100
AcDbSpline
70
4
71
3
72
10
73
6
40
0
40
0
40
0
40
0
40
0.378911486703196
40
0.766681626112357
40
1
40
1
40
1
40
1
41
1
10
166.3566856019
20
0.839048052316627
30
0
41
1
10
166.000852220201
20
0.883811853841394
30
0
41
1
10
165.280866352053
20
0.974385999382861
30
0
41
1
10
164.341809279906
20
1.0928102604604
30
0
41
1
10
163.758717984199
20
1.1675030500665
30
0
41
1
10
163.539682162914
20
1.1956284871618
30
0
0
SPLINE
5
124
100
AcDbEntity
8
1
62
256
6
ByLayer
370
13
48
1
60
0
100
AcDbSpline
70
4
71
3
72
15
73
11
40
0
40
0
40
0
40
0
40
0.252108876544781
40
0.380286667674042
40
0.444375563238673
40
0.508464458803304
40
0.764820041061827
40
0.828908936626458
40
0.892997832191088
40
1
40
1
40
1
40
1
41
1
10
162.33
20
5.39510350753295
30
0
41
1
10
162.92365634832
20
5.41099665477086
30
0
41
1
10
163.819035204589
20
5.41339298650246
30
0
41
1
10
164.864782851573
20
5.38332055610499
30
0
41
1
10
165.468192083685
20
5.35817417075995
30
0
41
1
10
166.373639576509
20
5.31132865608419
30
0
41
1
10
167.278834861858
20
5.23888441162578
30
0
41
1
10
168.183770586047
20
5.14478646939915
30
0
41
1
10
168.737438066737
20
5.08276376918414
30
0
41
1
10
169.140230475308
20
5.03183875258642
30
0
41
1
10
169.392130210465
20
4.99789259918774
30
0
0
SPLINE
5
125
100
AcDbEntity
8
1
62
256
6
ByLayer
370
18
48
1
60
0
100
AcDbSpline
70
4
71
3
72
8
73
4
40
0
40
0
40
0
40
0
40
1
40
1
40
1
40
1
41
1
10
152.704644058368
20
4.77171115007329
30
0
41
1
10
152.680895865256
20
4.76626689369593
30
0
41
1
10
152.657239879244
20
4.76155170310474
30
0
41
1
10
152.633676940213
20
4.75754800340812
30
0
0
SPLINE
5
126
100
AcDbEntity
8
1
62
256
6
ByLayer
370
18
48
1
60
0
100
AcDbSpline
70
4
71
3
72
8
73
4
40
0
40
0
40
0
40
0
40
1
40
1
40
1
40
1
41
1
10
168.682956516514
20
6.79313654146651
30
0
41
1
10
168.667759158355
20
6.81046793866474
30
0
41
1
10
168.653890786584
20
6.82386472153166
30
0
41
1
10
168.641355497342
20
6.83331476298272
30
0
0
SPLINE
5
127
100
AcDbEntity
8
1
62
256
6
ByLayer
370
18
48
1
60
0
100
AcDbSpline
70
4
71
3
72
8
73
4
40
0
40
0
40
0
40
0
40
1
40
1
40
1
40
1
41
1
10
162.204904402357
20
6.28181330025268
30
0
41
1
10
162.20431477415
20
6.45099251230377
30
0
41
1
10
162.203708890869
20
6.61963331998021
30
0
41
1
10
162.203098261008
20
6.78773174145527
30
0
0
SPLINE
5
128
100
AcDbEntity
8
1
62
256
6
ByLayer
370
18
48
1
60
0
100
AcDbSpline
70
4
71
3
72
8
73
4
40
0
40
0
40
0
40
0
40
1
40
1
40
1
40
1
41
1
10
15.9616747502341
20
-5.69094557655353
30
0
41
1
10
16.0347786077486
20
-5.67709190511681
30
0
41
1
10
16.1075135335607
20
-5.66883020027311
30
0
41
1
10
16.1798468061003
20
-5.66587369608322
30
0
0
SPLINE
5
129
100
AcDbEntity
8
1
62
256
6
ByLayer
370
18
48
1
60
0
100
AcDbSpline
70
4
71
3
72
12
73
8
40
0
40
0
40
0
40
0
40
0.5
40
0.5
40
0.75
40
0.75
40
1
40
1
40
1
40
1
41
1
10
153.954164060783
20
4.83773295943135
30
0
41
1
10
154.015445129158
20
4.95918434264141
30
0
41
1
10
154.086929191109
20
5.07596591331679
30
0
41
1
10
154.207613628375
20
5.24465571914294
30
0
41
1
10
154.250065889378
20
5.299818676792
30
0
41
1
10
154.338966272289
20
5.40820908149755
30
0
41
1
10
154.385502608648
20
5.46150694484555
30
0
41
1
10
154.432876472408
20
5.51300853068562
30
0
0
SPLINE
5
12A
100
AcDbEntity
8
1
62
256
6
ByLayer
370
18
48
1
60
0
100
AcDbSpline
70
4
71
3
72
38
73
34
40
0
40
0
40
0
40
0
40
0.0625
40
0.0625
40
0.125
40
0.125
40
0.1875
40
0.1875
40
0.25
40
0.25
40
0.3125
40
0.3125
40
0.375
40
0.375
40
0.4375
40
0.4375
40
0.5
40
0.5
40
0.5625
40
0.5625
40
0.625
40
0.625
40
0.6875
40
0.6875
40
0.75
40
0.75
40
0.8125
40
0.8125
40
0.875
40
0.875
40
0.9375
40
0.9375
40
1
40
1
40
1
40
1
41
1
10
164.268625713591
20
-0.0476686581162653
30
0
41
1
10
164.200646918332
20
-0.0476686581162937
30
0
41
1
10
164.13377261012
20
-0.0541007743076136
30
0
41
1
10
164.002097555382
20
-0.079039487858978
30
0
41
1
10
163.936774526039
20
-0.0977631904315786
30
0
41
1
10
163.810793625721
20
-0.146903739898477
30
0
41
1
10
163.750827774187
20
-0.17692680893785
30
0
41
1
10
163.636851130378
20
-0.247696396887392
30
0
41
1
10
163.582314285512
20
-0.288988600833903
30
0
41
1
10
163.483261793166
20
-0.380045264053223
30
0
41
1
10
163.438530143455
20
-0.429749257597479
30
0
41
1
10
163.358985289209
20
-0.537762327956898
30
0
41
1
10
163.324052121204
20
-0.596647736908011
30
0
41
1
10
163.26810338247
20
-0.718033116870799
30
0
41
1
10
163.246568089797
20
-0.781057273747848
30
0
41
1
10
163.217142790313
20
-0.912011954847998
30
0
41
1
10
163.209624515269
20
-0.979127072450069
30
0
41
1
10
163.209368322266
20
-1.11164202187629
30
0
41
1
10
163.216624135867
20
-1.17847382326482
30
0
41
1
10
163.245575019618
20
-1.30843514340512
30
0
41
1
10
163.266931411441
20
-1.370877442644
30
0
41
1
10
163.322827158441
20
-1.49095960429386
30
0
41
1
10
163.357529360396
20
-1.54847462545379
30
0
41
1
10
163.436824450101
20
-1.65400725606125
30
0
41
1
10
163.481953482049
20
-1.7029481074444
30
0
41
1
10
163.581644563621
20
-1.79189162288569
30
0
41
1
10
163.635178775142
20
-1.83107060160427
30
0
41
1
10
163.749246349283
20
-1.89952079331258
30
0
41
1
10
163.810424492827
20
-1.92897062970329
30
0
41
1
10
163.935858420516
20
-1.97596275092184
30
0
41
1
10
164.000279054415
20
-1.9937500322842
30
0
41
1
10
164.132557313745
20
-2.017891854559
30
0
41
1
10
164.200628589059
20
-2.0241624345249
30
0
41
1
10
164.268625713591
20
-2.0241624345249
30
0
0
SPLINE
5
12B
100
AcDbEntity
8
1
62
256
6
ByLayer
370
18
48
1
60
0
100
AcDbSpline
70
4
71
3
72
8
73
4
40
0
40
0
40
0
40
0
40
1
40
1
40
1
40
1
41
1
10
162.1
20
1.67197218472228
30
0
41
1
10
162.1
20
1.83562207557452
30
0
41
1
10
162.1
20
2.03327622888975
30
0
41
1
10
162.1
20
2.26420618165051
30
0
0
SPLINE
5
12C
100
AcDbEntity
8
1
62
256
6
ByLayer
370
18
48
1
60
0
100
AcDbSpline
70
4
71
3
72
8
73
4
40
0
40
0
40
0
40
0
40
1
40
1
40
1
40
1
41
1
10
150.060430165365
20
-4.52499867026938
30
0
41
1
10
150.028512679016
20
-4.53385554892461
30
0
41
1
10
149.996740930108
20
-4.54329628785013
30
0
41
1
10
149.965160255243
20
-4.55331327695384
30
0
0
SPLINE
5
12D
100
AcDbEntity
8
1
62
256
6
ByLayer
370
18
48
1
60
0
100
AcDbSpline
70
4
71
3
72
52
73
48
40
0
40
0
40
0
40
0
40
0.0087540507451876
40
0.0087540507451876
40
0.0487268669128808
40
0.0487268669128808
40
0.128672499248267
40
0.128672499248267
40
0.16864531541596
40
0.16864531541596
40
0.208618131583653
40
0.208618131583653
40
0.248590947751346
40
0.248590947751346
40
0.288563763919039
40
0.288563763919039
40
0.328536580086733
40
0.328536580086733
40
0.368509396254426
40
0.368509396254426
40
0.448455028589812
40
0.448455028589812
40
0.488427844757505
40
0.488427844757505
40
0.528400660925198
40
0.528400660925198
40
0.568373477092891
40
0.568373477092891
40
0.608346293260583
40
0.608346293260583
40
0.648319109428276
40
0.648319109428276
40
0.688291925595969
40
0.688291925595969
40
0.768237557931355
40
0.768237557931355
40
0.808210374099048
40
0.808210374099048
40
0.848183190266741
40
0.848183190266741
40
0.888156006434434
40
0.888156006434434
40
0.928128822602127
40
0.928128822602127
40
0.96810163876982
40
0.96810163876982
40
1
40
1
40
1
40
1
41
1
10
24.5048167059556
20
4.43128732840029
30
0
41
1
10
24.6571696750609
20
4.46041382429561
30
0
41
1
10
24.8095523835404
20
4.48911644532751
30
0
41
1
10
25.657927183593
20
4.64665160910619
30
0
41
1
10
26.3547526512742
20
4.7679448142859
30
0
41
1
10
28.445085348554
20
5.11488677478366
30
0
41
1
10
29.8380945072637
20
5.32292623645642
30
0
41
1
10
31.9289114997977
20
5.57434874711083
30
0
41
1
10
32.6261413070488
20
5.64800244180879
30
0
41
1
10
34.0217904206998
20
5.7743203086284
30
0
41
1
10
34.7203055207438
20
5.82657260823805
30
0
41
1
10
36.1161649120845
20
5.91191607159166
30
0
41
1
10
36.813833334401
20
5.94556811293248
30
0
41
1
10
38.2089490914933
20
5.99108325938946
30
0
41
1
10
38.9064043189499
20
6.0029334525274
30
0
41
1
10
40.3017746070581
20
6.00260856153164
30
0
41
1
10
40.9997116498907
20
5.99037688641101
30
0
41
1
10
42.3966406176883
20
5.94372890675135
30
0
41
1
10
43.0947967752646
20
5.90894471519778
30
0
41
1
10
45.1878237950192
20
5.77861795536225
30
0
41
1
10
46.5814698671494
20
5.65805715279873
30
0
41
1
10
48.6740859186344
20
5.41081661317085
30
0
41
1
10
49.3724142540344
20
5.3174880638984
30
0
41
1
10
50.7688199918008
20
5.11151925420779
30
0
41
1
10
51.4666633823138
20
4.99863660848118
30
0
41
1
10
52.8622877100229
20
4.7576718880554
30
0
41
1
10
53.5600216364648
20
4.62989366551085
30
0
41
1
10
54.955691872025
20
4.35770408377027
30
0
41
1
10
55.6536362462879
20
4.21330152784441
30
0
41
1
10
57.0504384116934
20
3.90788474034437
30
0
41
1
10
57.7495324877353
20
3.74682411834962
30
0
41
1
10
59.1461291479202
20
3.4116814901044
30
0
41
1
10
59.8440133002088
20
3.23735708572144
30
0
41
1
10
61.9370945224462
20
2.6999829869641
30
0
41
1
10
63.3313424689369
20
2.32205421022877
30
0
41
1
10
65.4260236107819
20
1.73056087887261
30
0
41
1
10
66.1242240765797
20
1.52973948048242
30
0
41
1
10
67.5197607100621
20
1.1242918317941
30
0
41
1
10
68.2173709726908
20
0.919592384194175
30
0
41
1
10
69.6128546017085
20
0.508711194680416
30
0
41
1
10
70.3106717630758
20
0.302403040042805
30
0
41
1
10
71.7068855540265
20
-0.110945853105676
30
0
41
1
10
72.4056184566721
20
-0.318056903278602
30
0
41
1
10
73.8028656019306
20
-0.730243461587264
30
0
41
1
10
74.500915015156
20
-0.935099283013159
30
0
41
1
10
75.7555929464392
20
-1.29960053401507
30
0
41
1
10
76.3123170922874
20
-1.45991311062269
30
0
41
1
10
76.8689966098748
20
-1.61882325663223
30
0
0
SPLINE
5
12E
100
AcDbEntity
8
1
62
256
6
ByLayer
370
18
48
1
60
0
100
AcDbSpline
70
4
71
3
72
8
73
4
40
0
40
0
40
0
40
0
40
1
40
1
40
1
40
1
41
1
10
151.946224145622
20
4.6171943819931
30
0
41
1
10
152.175289081837
20
4.66490620411011
30
0
41
1
10
152.404435608277
20
4.71169961479771
30
0
41
1
10
152.633676940214
20
4.75754800340823
30
0
0
SPLINE
5
12F
100
AcDbEntity
8
1
62
256
6
ByLayer
370
18
48
1
60
0
100
AcDbSpline
70
4
71
3
72
8
73
4
40
0
40
0
40
0
40
0
40
1
40
1
40
1
40
1
41
1
10
162.33
20
5.39510350753295
30
0
41
1
10
162.33
20
5.85765403303606
30
0
41
1
10
162.33
20
6.32020456377214
30
0
41
1
10
162.33
20
6.78275509974227
30
0
0
SPLINE
5
130
100
AcDbEntity
8
1
62
256
6
ByLayer
370
18
48
1
60
0
100
AcDbSpline
70
4
71
3
72
22
73
18
40
0
40
0
40
0
40
0
40
0.124999999999997
40
0.124999999999997
40
0.249999999999994
40
0.249999999999994
40
0.499999999999988
40
0.499999999999988
40
0.56249999999999
40
0.56249999999999
40
0.624999999999991
40
0.624999999999991
40
0.749999999999994
40
0.749999999999994
40
0.874999999999997
40
0.874999999999997
40
1
40
1
40
1
40
1
41
1
10
166.356685401072
20
0.839048085033795
30
0
41
1
10
166.334512835351
20
0.748084762150739
30
0
41
1
10
166.308104507562
20
0.666291886178101
30
0
41
1
10
166.246556125101
20
0.521610368358068
30
0
41
1
10
166.211288367962
20
0.458544155085235
30
0
41
1
10
166.092193202667
20
0.301000853554143
30
0
41
1
10
165.998508846665
20
0.241582566710662
30
0
41
1
10
165.864045256713
20
0.222722529733062
30
0
41
1
10
165.836156577189
20
0.22177450543623
30
0
41
1
10
165.779220199154
20
0.225556601012244
30
0
41
1
10
165.750209499182
20
0.230255843958133
30
0
41
1
10
165.661612033894
20
0.252456361183306
30
0
41
1
10
165.6004657438
20
0.278030191217681
30
0
41
1
10
165.474183146068
20
0.349831347519086
30
0
41
1
10
165.40866431698
20
0.396414231731995
30
0
41
1
10
165.275871608048
20
0.508276434850842
30
0
41
1
10
165.208629453795
20
0.573399818522063
30
0
41
1
10
165.14058540434
20
0.647238322535884
30
0
0
SPLINE
5
131
100
AcDbEntity
8
1
62
256
6
ByLayer
370
18
48
1
60
0
100
AcDbSpline
70
4
71
3
72
8
73
4
40
0
40
0
40
0
40
0
40
1
40
1
40
1
40
1
41
1
10
16
20
-6.16632678461983
30
0
41
1
10
16.0839638655614
20
-6.15955210483736
30
0
41
1
10
16.1686845130249
20
-6.15434491219628
30
0
41
1
10
16.2541316216729
20
-6.15078690180138
30
0
0
SPLINE
5
132
100
AcDbEntity
8
1
62
256
6
ByLayer
370
18
48
1
60
0
100
AcDbSpline
70
4
71
3
72
14
73
10
40
0
40
0
40
0
40
0
40
0.249999999999999
40
0.249999999999999
40
0.5
40
0.5
40
0.75
40
0.75
40
1
40
1
40
1
40
1
41
1
10
170.829323565315
20
-0.651887385739428
30
0
41
1
10
170.804914853787
20
-0.750030131780107
30
0
41
1
10
170.774705357227
20
-0.862819759597812
30
0
41
1
10
170.703893519752
20
-1.11318018114946
30
0
41
1
10
170.663293250446
20
-1.25074357116929
30
0
41
1
10
170.57332980604
20
-1.54512812753006
30
0
41
1
10
170.523969053603
20
-1.70194136627708
30
0
41
1
10
170.418466087691
20
-2.02853034363022
30
0
41
1
10
170.362327720578
20
-2.19829430917525
30
0
41
1
10
170.303923474997
20
-2.37113761589921
30
0
0
SPLINE
5
133
100
AcDbEntity
8
1
62
256
6
ByLayer
370
18
48
1
60
0
100
AcDbSpline
70
4
71
3
72
8
73
4
40
0
40
0
40
0
40
0
40
1
40
1
40
1
40
1
41
1
10
162.327622011242
20
1.91560029726446
30
0
41
1
10
162.329185248373
20
1.9268530666626
30
0
41
1
10
162.33
20
1.93832278819721
30
0
41
1
10
162.33
20
1.94999999999999
30
0
0
SPLINE
5
134
100
AcDbEntity
8
1
62
256
6
ByLayer
370
18
48
1
60
0
100
AcDbSpline
70
4
71
3
72
8
73
4
40
0
40
0
40
0
40
0
40
1
40
1
40
1
40
1
41
1
10
149.645748859085
20
-3.00036834850857
30
0
41
1
10
149.798729473445
20
-2.99484212857729
30
0
41
1
10
149.963421726671
20
-2.99700477554066
30
0
41
1
10
150.137630746141
20
-3.00541531842936
30
0
0
SPLINE
5
135
100
AcDbEntity
8
1
62
256
6
ByLayer
370
18
48
1
60
0
100
AcDbSpline
70
4
71
1
72
4
73
2
40
0
40
0
40
1
40
1
41
1
10
166.724243587247
20
-5.21964368908149
30
0
41
1
10
166.590817345753
20
-5.28300698755081
30
0
0
SPLINE
5
136
100
AcDbEntity
8
1
62
256
6
ByLayer
370
18
48
1
60
0
100
AcDbSpline
70
4
71
3
72
12
73
8
40
0
40
0
40
0
40
0
40
0.499999999999996
40
0.499999999999996
40
0.749999999999998
40
0.749999999999998
40
1
40
1
40
1
40
1
41
1
10
154.071252302623
20
-5.72646163275428
30
0
41
1
10
155.423849624358
20
-6.01111112141132
30
0
41
1
10
156.774624602187
20
-6.24491470751522
30
0
41
1
10
158.806689453112
20
-6.51197602872139
30
0
41
1
10
159.485218122679
20
-6.5872362759265
30
0
41
1
10
160.843762714171
20
-6.70990261630436
30
0
41
1
10
161.522158860448
20
-6.75717924439002
30
0
41
1
10
162.2
20
-6.79049246413732
30
0
0
SPLINE
5
137
100
AcDbEntity
8
1
62
256
6
ByLayer
370
18
48
1
60
0
100
AcDbSpline
70
4
71
3
72
10
73
6
40
0
40
0
40
0
40
0
40
0.5
40
0.5
40
1
40
1
40
1
40
1
41
1
10
154.432876472407
20
5.51300853068503
30
0
41
1
10
154.381022066522
20
5.54018044331596
30
0
41
1
10
154.324208083094
20
5.5623503605718
30
0
41
1
10
154.201784506158
20
5.59779243313204
30
0
41
1
10
154.135839305898
20
5.61109028689168
30
0
41
1
10
154.067087949052
20
5.62032394068126
30
0
0
SPLINE
5
138
100
AcDbEntity
8
1
62
256
6
ByLayer
370
18
48
1
60
0
100
AcDbSpline
70
4
71
3
72
18
73
14
40
0
40
0
40
0
40
0
40
0.125
40
0.125
40
0.25
40
0.25
40
0.5
40
0.5
40
0.625
40
0.625
40
0.75
40
0.75
40
1
40
1
40
1
40
1
41
1
10
167.452086660692
20
0.908760780877259
30
0
41
1
10
167.496644111097
20
0.96394676808373
30
0
41
1
10
167.544041426945
20
1.02048579538911
30
0
41
1
10
167.644449456162
20
1.13615836719777
30
0
41
1
10
167.697681302644
20
1.19552828127263
30
0
41
1
10
167.864323840667
20
1.3755715664106
30
0
41
1
10
167.983777458178
20
1.49734572902091
30
0
41
1
10
168.175359046659
20
1.6812981645395
30
0
41
1
10
168.241296420034
20
1.74283692211
30
0
41
1
10
168.377514685475
20
1.86602516581002
30
0
41
1
10
168.447933490169
20
1.92776761975446
30
0
41
1
10
168.662819960644
20
2.10971669522323
30
0
41
1
10
168.811899265216
20
2.22755858170706
30
0
41
1
10
168.967457933284
20
2.34059923822585
30
0
0
SPLINE
5
139
100
AcDbEntity
8
1
62
256
6
ByLayer
370
18
48
1
60
0
100
AcDbSpline
70
4
71
3
72
14
73
10
40
0
40
0
40
0
40
0
40
0.499999999999995
40
0.499999999999995
40
0.749999999999993
40
0.749999999999993
40
0.874999999999996
40
0.874999999999996
40
1
40
1
40
1
40
1
41
1
10
170.26652637748
20
-2.48181172440678
30
0
41
1
10
170.115900815419
20
-2.89783843446116
30
0
41
1
10
169.967443586428
20
-3.31586160732425
30
0
41
1
10
169.748206034076
20
-3.94607133318425
30
0
41
1
10
169.675707410589
20
-4.15667578500944
30
0
41
1
10
169.567924314605
20
-4.47347082519252
30
0
41
1
10
169.532131360737
20
-4.57930023518338
30
0
41
1
10
169.461509991469
20
-4.7894288774873
30
0
41
1
10
169.426606634307
20
-4.89394699040756
30
0
41
1
10
169.39213020942
20
-4.99789260233612
30
0
0
SPLINE
5
13A
100
AcDbEntity
8
1
62
256
6
ByLayer
370
18
48
1
60
0
100
AcDbSpline
70
4
71
3
72
8
73
4
40
0
40
0
40
0
40
0
40
1
40
1
40
1
40
1
41
1
10
13.5474231871356
20
7.20158944194827
30
0
41
1
10
13.1913570204276
20
7.41034652932285
30
0
41
1
10
12.8396340211837
20
7.63099188371265
30
0
41
1
10
12.4979239355328
20
7.87802161878878
30
0
0
SPLINE
5
13B
100
AcDbEntity
8
1
62
256
6
ByLayer
370
18
48
1
60
0
100
AcDbSpline
70
4
71
3
72
10
73
6
40
0
40
0
40
0
40
0
40
0.509844355825658
40
0.509844355825658
40
1
40
1
40
1
40
1
41
1
10
168.759725133452
20
-6.7579267707209
30
0
41
1
10
168.768505429812
20
-6.7322918126479
30
0
41
1
10
168.777281367533
20
-6.70666032845153
30
0
41
1
10
168.794485646245
20
-6.65639442151445
30
0
41
1
10
168.802914346048
20
-6.63175965163575
30
0
41
1
10
168.811338905226
20
-6.60712842628908
30
0
0
SPLINE
5
13C
100
AcDbEntity
8
1
62
256
6
ByLayer
370
13
48
1
60
0
100
AcDbSpline
70
4
71
3
72
8
73
4
40
0
40
0
40
0
40
0
40
1
40
1
40
1
40
1
41
1
10
170.226034396208
20
0.709031447943261
30
0
41
1
10
170.2094545288
20
0.701629326181035
30
0
41
1
10
170.192233201456
20
0.687607544388982
30
0
41
1
10
170.1781103428
20
0.670011190908014
30
0
0
SPLINE
5
13D
100
AcDbEntity
8
1
62
256
6
ByLayer
370
18
48
1
60
0
100
AcDbSpline
70
4
71
3
72
8
73
4
40
0
40
0
40
0
40
0
40
1
40
1
40
1
40
1
41
1
10
162.453630083106
20
-6.5473413454483
30
0
41
1
10
162.681295450921
20
-6.47731431089207
30
0
41
1
10
162.906794903987
20
-6.39501326946407
30
0
41
1
10
163.13
20
-6.29971035238418
30
0
0
SPLINE
5
13E
100
AcDbEntity
8
1
62
256
6
ByLayer
370
18
48
1
60
0
100
AcDbSpline
70
4
71
3
72
8
73
4
40
0
40
0
40
0
40
0
40
1
40
1
40
1
40
1
41
1
10
163.42917812403
20
-7.00000509952292
30
0
41
1
10
163.246013217649
20
-7.00000353949588
30
0
41
1
10
163.062784689735
20
-6.99851213021654
30
0
41
1
10
162.879495483891
20
-6.99552280567715
30
0
0
SPLINE
5
13F
100
AcDbEntity
8
1
62
256
6
ByLayer
370
18
48
1
60
0
100
AcDbSpline
70
4
71
3
72
8
73
4
40
0
40
0
40
0
40
0
40
1
40
1
40
1
40
1
41
1
10
168.641355497342
20
6.83331476298272
30
0
41
1
10
168.572987141228
20
6.84506138685492
30
0
41
1
10
168.50670000954
20
6.85070796092057
30
0
41
1
10
168.442556430582
20
6.85007180148671
30
0
0
SPLINE
5
140
100
AcDbEntity
8
1
62
256
6
ByLayer
370
18
48
1
60
0
100
AcDbSpline
70
4
71
3
72
8
73
4
40
0
40
0
40
0
40
0
40
1
40
1
40
1
40
1
41
1
10
170.988057002737
20
-0.0497126647360062
30
0
41
1
10
170.976760629773
20
-0.0868249058100048
30
0
41
1
10
170.965532013157
20
-0.123798240974452
30
0
41
1
10
170.954370573722
20
-0.160633857563454
30
0
0
SPLINE
5
141
100
AcDbEntity
8
1
62
256
6
ByLayer
370
18
48
1
60
0
100
AcDbSpline
70
4
71
3
72
16
73
12
40
0
40
0
40
0
40
0
40
0.249999999999995
40
0.249999999999995
40
0.499999999999991
40
0.499999999999991
40
0.624999999999988
40
0.624999999999988
40
0.749999999999986
40
0.749999999999986
40
1
40
1
40
1
40
1
41
1
10
14.4214746275296
20
6.74555274089263
30
0
41
1
10
14.5134939755816
20
6.68751837782142
30
0
41
1
10
14.6194247508674
20
6.62590484708264
30
0
41
1
10
14.8496685050881
20
6.50741214621416
30
0
41
1
10
14.9746038200483
20
6.45002703780415
30
0
41
1
10
15.17653171091
20
6.3709852483768
30
0
41
1
10
15.2465324760041
20
6.34573518859406
30
0
41
1
10
15.3892542213056
20
6.2989739082274
30
0
41
1
10
15.4621427393524
20
6.27738073373357
30
0
41
1
10
15.6852070370898
20
6.2186464870461
30
0
41
1
10
15.8397525230863
20
6.18753768917017
30
0
41
1
10
16
20
6.16632678461983
30
0
0
SPLINE
5
142
100
AcDbEntity
8
1
62
256
6
ByLayer
370
18
48
1
60
0
100
AcDbSpline
70
4
71
3
72
12
73
8
40
0
40
0
40
0
40
0
40
0.419672288135207
40
0.419672288135207
40
0.709835940074396
40
0.709835940074396
40
1
40
1
40
1
40
1
41
1
10
162.299999999051
20
-6.6868243850501
30
0
41
1
10
162.286458395387
20
-6.70094524969917
30
0
41
1
10
162.272910814494
20
-6.71506400267728
30
0
41
1
10
162.249986430789
20
-6.73894110807348
30
0
41
1
10
162.240612688795
20
-6.74870052316095
30
0
41
1
10
162.221859638677
20
-6.76821748996508
30
0
41
1
10
162.212480327245
20
-6.77797504511204
30
0
41
1
10
162.203098270232
20
-6.78773169141186
30
0
0
SPLINE
5
143
100
AcDbEntity
8
1
62
256
6
ByLayer
370
18
48
1
60
0
100
AcDbSpline
70
4
71
3
72
8
73
4
40
0
40
0
40
0
40
0
40
1
40
1
40
1
40
1
41
1
10
162.33
20
6.78275509974227
30
0
41
1
10
162.513518387744
20
6.85512463626031
30
0
41
1
10
162.696673537293
20
6.92607475748292
30
0
41
1
10
162.879495483891
20
6.99552280567715
30
0
0
SPLINE
5
144
100
AcDbEntity
8
1
62
256
6
ByLayer
370
18
48
1
60
0
100
AcDbSpline
70
2053
71
3
72
39
73
35
40
0
40
0
40
0
40
0
40
0.0311388249955514
40
0.0622121453219636
40
0.0933515802519412
40
0.124641048360467
40
0.155828045805473
40
0.187253809581409
40
0.218565303364434
40
0.250014565346906
40
0.281471745816952
40
0.312803277026151
40
0.344241747086256
40
0.375456611413169
40
0.406714308556713
40
0.437867852255937
40
0.469010326675521
40
0.50015644795413
40
0.531194058916621
40
0.562275968960072
40
0.593497190469124
40
0.624626373698427
40
0.655987447364028
40
0.687266035227007
40
0.718673145413742
40
0.75012692978331
40
0.781472756415668
40
0.812957808327358
40
0.844239616573545
40
0.875569790535104
40
0.906807272936853
40
0.937881622912146
40
0.969048598626965
40
1
40
1
40
1
40
1
41
1
10
159.27
20
-3.6114236738437
30
0
41
1
10
159.374684562494
20
-3.61142419817388
30
0
41
1
10
159.583838680261
20
-3.62981349424865
30
0
41
1
10
159.884525491092
20
-3.71043921496766
30
0
41
1
10
160.160685992209
20
-3.83858772106481
30
0
41
1
10
160.402003057657
20
-4.00635090070938
30
0
41
1
10
160.600339566619
20
-4.20469612207819
30
0
41
1
10
160.747950602052
20
-4.42308877920891
30
0
41
1
10
160.839318254915
20
-4.65158979799548
30
0
41
1
10
160.870263770488
20
-4.87926714659906
30
0
41
1
10
160.839246476136
20
-5.09640761500782
30
0
41
1
10
160.747749727042
20
-5.2949039684147
30
0
41
1
10
160.599933428552
20
-5.46841988195095
30
0
41
1
10
160.401448007068
20
-5.61348646755764
30
0
41
1
10
160.160004045906
20
-5.7276608752212
30
0
41
1
10
159.88361911735
20
-5.8099555360989
30
0
41
1
10
159.582558478742
20
-5.85957837762348
30
0
41
1
10
159.268769054982
20
-5.87605381758235
30
0
41
1
10
158.955257250337
20
-5.85931224118724
30
0
41
1
10
158.65464015115
20
-5.80956040249072
30
0
41
1
10
158.378776728696
20
-5.72718544300312
30
0
41
1
10
158.137316909992
20
-5.61276488732682
30
0
41
1
10
157.939353310209
20
-5.46776091607359
30
0
41
1
10
157.791711178327
20
-5.29401473454666
30
0
41
1
10
157.700495576477
20
-5.09562097355501
30
0
41
1
10
157.66977249086
20
-4.87848374902003
30
0
41
1
10
157.700913242892
20
-4.65064250442012
30
0
41
1
10
157.792453914908
20
-4.42231328851102
30
0
41
1
10
157.940565760207
20
-4.20360616522652
30
0
41
1
10
158.13901663324
20
-4.00546573180873
30
0
41
1
10
158.380631055664
20
-3.83787027500949
30
0
41
1
10
158.656835593104
20
-3.70993624654741
30
0
41
1
10
158.95711703138
20
-3.62967212834306
30
0
41
1
10
159.165945530643
20
-3.61142315266946
30
0
41
1
10
159.27
20
-3.61142367384371
30
0
0
SPLINE
5
145
100
AcDbEntity
8
1
62
256
6
ByLayer
370
18
48
1
60
0
100
AcDbSpline
70
4
71
3
72
59
73
55
40
0
40
0
40
0
40
0
40
0.063738927049183
40
0.063738927049183
40
0.0956083905737745
40
0.0956083905737745
40
0.111543122336071
40
0.111543122336071
40
0.127477854098367
40
0.127477854098367
40
0.143412585860663
40
0.143412585860663
40
0.15934731762296
40
0.191216781147552
40
0.191216781147552
40
0.223086244672145
40
0.223086244672145
40
0.254955708196738
40
0.254955708196738
40
0.318694635245923
40
0.318694635245923
40
0.350564098770515
40
0.350564098770515
40
0.382433562295108
40
0.382433562295108
40
0.446172489344294
40
0.446172489344294
40
0.478041952868888
40
0.478041952868888
40
0.509911416393482
40
0.509911416393482
40
0.57365034344267
40
0.57365034344267
40
0.605519806967263
40
0.605519806967263
40
0.637389270491857
40
0.637389270491857
40
0.669258734016451
40
0.669258734016451
40
0.701128197541045
40
0.701128197541045
40
0.764867124590232
40
0.764867124590232
40
0.796736588114826
40
0.796736588114826
40
0.82860605163942
40
0.82860605163942
40
0.892344978688609
40
0.892344978688609
40
0.924214442213203
40
0.924214442213203
40
0.956083905737798
40
0.956083905737798
40
1
40
1
40
1
40
1
41
1
10
152.67215624715
20
-5.16537405822368
30
0
41
1
10
151.274691743017
20
-4.85753305199356
30
0
41
1
10
149.881010389359
20
-4.51175222125229
30
0
41
1
10
147.792538947285
20
-3.94178715970708
30
0
41
1
10
147.096656548795
20
-3.74337579115493
30
0
41
1
10
146.052088010479
20
-3.43577230012366
30
0
41
1
10
145.703775548988
20
-3.33157587589582
30
0
41
1
10
145.006732377359
20
-3.1203075354714
30
0
41
1
10
144.658317660234
20
-3.01293420683476
30
0
41
1
10
143.960570132255
20
-2.79933439666567
30
0
41
1
10
143.61156727875
20
-2.69199708318735
30
0
41
1
10
142.913970907492
20
-2.47443894998136
30
0
41
1
10
141.867873157652
20
-2.14463662895747
30
0
41
1
10
140.82233001718
20
-1.80536077713401
30
0
41
1
10
139.428169977118
20
-1.3461953972712
30
0
41
1
10
138.731008836326
20
-1.11329324616924
30
0
41
1
10
137.335439347672
20
-0.643980548307127
30
0
41
1
10
136.637418523524
20
-0.407703719034288
30
0
41
1
10
134.545585649939
20
0.300634401489333
30
0
41
1
10
133.153045466655
20
0.774761837047834
30
0
41
1
10
131.063328180115
20
1.47707941753958
30
0
41
1
10
130.366228803196
20
1.70959891114521
30
0
41
1
10
128.971642936582
20
2.16695336994576
30
0
41
1
10
128.274872068928
20
2.39149334134598
30
0
41
1
10
126.183954203948
20
3.04701240764874
30
0
41
1
10
124.789898428703
20
3.46199496108392
30
0
41
1
10
122.696746135859
20
4.04670915031517
30
0
41
1
10
121.998263907565
20
4.23524444248636
30
0
41
1
10
120.603092201296
20
4.59635229978809
30
0
41
1
10
119.906064040754
20
4.76899020354972
30
0
41
1
10
117.81521386863
20
5.26011515336054
30
0
41
1
10
116.422312984205
20
5.55327242774803
30
0
41
1
10
114.330530042417
20
5.93272979209027
30
0
41
1
10
113.633400958954
20
6.04890521962972
30
0
41
1
10
112.240412045666
20
6.25833106125404
30
0
41
1
10
111.544185380287
20
6.35161946813167
30
0
41
1
10
110.150802915735
20
6.51417944726958
30
0
41
1
10
109.453765879299
20
6.58363648096559
30
0
41
1
10
108.058906840771
20
6.6990783745
30
0
41
1
10
107.360666846511
20
6.74503251230442
30
0
41
1
10
105.266675943383
20
6.84677853623018
30
0
41
1
10
103.87362858587
20
6.86611977799998
30
0
41
1
10
101.782850521914
20
6.82175475754633
30
0
41
1
10
101.085812721655
20
6.79479674810801
30
0
41
1
10
99.6911538605754
20
6.71635637451629
30
0
41
1
10
98.9931947636059
20
6.66483146028557
30
0
41
1
10
96.9025560727093
20
6.4740913540588
30
0
41
1
10
95.511511768713
20
6.2981280454357
30
0
41
1
10
93.4205815683247
20
5.97160387328412
30
0
41
1
10
92.7229773588149
20
5.85236534427622
30
0
41
1
10
91.3264520647636
20
5.59339884589252
30
0
41
1
10
90.6283070703045
20
5.45387237277299
30
0
41
1
10
88.9698624694409
20
5.09946413181336
30
0
41
1
10
88.0097339727772
20
4.87585104265918
30
0
41
1
10
87.0493041069477
20
4.63646727916409
30
0
0
SPLINE
5
146
100
AcDbEntity
8
1
62
256
6
ByLayer
370
18
48
1
60
0
100
AcDbSpline
70
4
71
3
72
22
73
18
40
0
40
0
40
0
40
0
40
0.0286543564407012
40
0.0286543564407012
40
0.125788920796631
40
0.125788920796631
40
0.22292348515256
40
0.22292348515256
40
0.41719261386442
40
0.41719261386442
40
0.51432717822035
40
0.51432717822035
40
0.61146174257628
40
0.61146174257628
40
0.80573087128814
40
0.80573087128814
40
1
40
1
40
1
40
1
41
1
10
40.3569191645995
20
-6.85001075649737
30
0
41
1
10
40.1511957494139
20
-6.84995569318076
30
0
41
1
10
39.9454498377094
20
-6.84884505133235
30
0
41
1
10
39.0421354572288
20
-6.83933957150788
30
0
41
1
10
38.3437769536441
20
-6.8197799193957
30
0
41
1
10
36.948331615273
20
-6.75638736950836
30
0
41
1
10
36.2512100015799
20
-6.71257086837363
30
0
41
1
10
34.1601540449517
20
-6.54576132440889
30
0
41
1
10
32.7671513839062
20
-6.38707492961387
30
0
41
1
10
30.6755672884812
20
-6.07953832152367
30
0
41
1
10
29.9780679932995
20
-5.96547570380469
30
0
41
1
10
28.5857374957776
20
-5.71686794177552
30
0
41
1
10
27.890307602735
20
-5.58224624257346
30
0
41
1
10
25.8040348842555
20
-5.15185756673668
30
0
41
1
10
24.412873988783
20
-4.83072322301743
30
0
41
1
10
21.6306449917634
20
-4.11958634552437
30
0
41
1
10
20.2395490103745
20
-3.72914575082135
30
0
41
1
10
18.8452331648297
20
-3.30980848604651
30
0
0
SPLINE
5
147
100
AcDbEntity
8
1
62
256
6
ByLayer
370
18
48
1
60
0
100
AcDbSpline
70
4
71
2
72
6
73
3
40
0
40
0
40
0
40
1
40
1
40
1
41
1
10
165.028959865516
20
0.465224060245703
30
0
41
1
10
165.094131561551
20
0.216320342859888
30
0
41
1
10
165.166183876694
20
-0.033068366726269
30
0
0
SPLINE
5
148
100
AcDbEntity
8
1
62
256
6
ByLayer
370
18
48
1
60
0
100
AcDbSpline
70
4
71
3
72
32
73
28
40
0
40
0
40
0
40
0
40
0.062500000000008
40
0.062500000000008
40
0.125000000000016
40
0.125000000000016
40
0.250000000000017
40
0.250000000000017
40
0.312500000000017
40
0.312500000000017
40
0.375000000000018
40
0.375000000000018
40
0.437500000000018
40
0.437500000000018
40
0.500000000000019
40
0.500000000000019
40
0.625000000000008
40
0.625000000000008
40
0.687500000000007
40
0.687500000000007
40
0.750000000000006
40
0.750000000000006
40
0.812500000000006
40
0.812500000000006
40
0.875000000000005
40
0.875000000000005
40
1
40
1
40
1
40
1
41
1
10
150.874234313201
20
-3.16921643834297
30
0
41
1
10
150.985719743473
20
-3.19390129672524
30
0
41
1
10
151.098140740187
20
-3.21273145885084
30
0
41
1
10
151.324834040554
20
-3.23899432293089
30
0
41
1
10
151.439554019868
20
-3.24642890851143
30
0
41
1
10
151.783473633745
20
-3.25128227718883
30
0
41
1
10
152.009060207893
20
-3.23166442340451
30
0
41
1
10
152.342090086673
20
-3.16852437336334
30
0
41
1
10
152.452759705557
20
-3.14162021096004
30
0
41
1
10
152.669573933454
20
-3.07656838142992
30
0
41
1
10
152.774957903037
20
-3.03871970825068
30
0
41
1
10
152.97990528366
20
-2.95245222119078
30
0
41
1
10
153.079468240272
20
-2.90403327858527
30
0
41
1
10
153.272766177785
20
-2.79622308179134
30
0
41
1
10
153.36704228821
20
-2.73642207925224
30
0
41
1
10
153.636308684155
20
-2.54253291880849
30
0
41
1
10
153.797407562486
20
-2.39498585392292
30
0
41
1
10
154.011663453359
20
-2.14418326905624
30
0
41
1
10
154.078689687929
20
-2.05515639958773
30
0
41
1
10
154.200071571566
20
-1.87118160190747
30
0
41
1
10
154.254865781981
20
-1.77581108713238
30
0
41
1
10
154.352892436688
20
-1.57820673379996
30
0
41
1
10
154.396124791535
20
-1.47597345066646
30
0
41
1
10
154.470834098339
20
-1.26432169391279
30
0
41
1
10
154.502041590725
20
-1.15535697033539
30
0
41
1
10
154.575890342816
20
-0.826589869816729
30
0
41
1
10
154.6
20
-0.602183685088391
30
0
41
1
10
154.6
20
-0.372547490650987
30
0
0
SPLINE
5
149
100
AcDbEntity
8
1
62
256
6
ByLayer
370
18
48
1
60
0
100
AcDbSpline
70
4
71
3
72
8
73
4
40
0
40
0
40
0
40
0
40
1
40
1
40
1
40
1
41
1
10
152.67215624715
20
5.16537405822359
30
0
41
1
10
151.968529196921
20
5.01037530261115
30
0
41
1
10
151.265861231693
20
4.84575823632207
30
0
41
1
10
150.563843948454
20
4.67200075710139
30
0
0
SPLINE
5
14A
100
AcDbEntity
8
1
62
256
6
ByLayer
370
18
48
1
60
0
100
AcDbSpline
70
4
71
3
72
62
73
58
40
0
40
0
40
0
40
0
40
0.0157191734307009
40
0.0157191734307009
40
0.0418308805253272
40
0.0418308805253272
40
0.0679425876199536
40
0.0679425876199536
40
0.120166001809206
40
0.120166001809206
40
0.146277708903833
40
0.146277708903833
40
0.17238941599846
40
0.17238941599846
40
0.224612830187713
40
0.224612830187713
40
0.25072453728234
40
0.25072453728234
40
0.276836244376967
40
0.276836244376967
40
0.32905965856622
40
0.32905965856622
40
0.355171365660847
40
0.355171365660847
40
0.381283072755473
40
0.381283072755473
40
0.433506486944726
40
0.433506486944726
40
0.485729901133978
40
0.485729901133978
40
0.511841608228604
40
0.511841608228604
40
0.537953315323231
40
0.537953315323231
40
0.590176729512483
40
0.590176729512483
40
0.616288436607109
40
0.616288436607109
40
0.642400143701735
40
0.642400143701735
40
0.694623557890987
40
0.694623557890987
40
0.746846972080239
40
0.746846972080239
40
0.799070386269491
40
0.799070386269491
40
0.825182093364117
40
0.825182093364117
40
0.851293800458743
40
0.851293800458743
40
0.903517214647995
40
0.903517214647995
40
0.929628921742621
40
0.929628921742621
40
0.955740628837247
40
0.955740628837247
40
1
40
1
40
1
40
1
41
1
10
103.738302578386
20
-6.84996648639461
30
0
41
1
10
103.318798605341
20
-6.84991620435386
30
0
41
1
10
102.899324026581
20
-6.84544563642268
30
0
41
1
10
101.782850521914
20
-6.82175475754633
30
0
41
1
10
101.085812721655
20
-6.79479674810798
30
0
41
1
10
99.6911538605751
20
-6.71635637451629
30
0
41
1
10
98.9931947636057
20
-6.66483146028557
30
0
41
1
10
96.9025560727091
20
-6.47409135405877
30
0
41
1
10
95.5115117687129
20
-6.29812804543565
30
0
41
1
10
93.4205815683246
20
-5.9716038732841
30
0
41
1
10
92.7229773588148
20
-5.85236534427617
30
0
41
1
10
91.3264520647634
20
-5.59339884589249
30
0
41
1
10
90.6283070703043
20
-5.45387237277293
30
0
41
1
10
88.5360717714572
20
-5.00676341806206
30
0
41
1
10
87.1431532294194
20
-4.67026570996768
30
0
41
1
10
85.0511035252873
20
-4.11921122568884
30
0
41
1
10
84.3529599032624
20
-3.92754106404911
30
0
41
1
10
82.9578072525502
20
-3.52970279012274
30
0
41
1
10
82.2610556307477
20
-3.32372935710455
30
0
41
1
10
80.1720861396678
20
-2.68752982811762
30
0
41
1
10
78.7811481189593
20
-2.23880124036228
30
0
41
1
10
76.6887968289092
20
-1.55270303264675
30
0
41
1
10
75.9902622897212
20
-1.32157563246966
30
0
41
1
10
74.5950050002748
20
-0.856094393616729
30
0
41
1
10
73.8977934240907
20
-0.621726412977864
30
0
41
1
10
71.806768800945
20
0.084359570663878
30
0
41
1
10
70.4135667770277
20
0.559071642631096
30
0
41
1
10
67.621282060919
20
1.49413270432771
30
0
41
1
10
66.227738605173
20
1.95456589794634
30
0
41
1
10
64.1390002988251
20
2.62290364982871
30
0
41
1
10
63.4428734905464
20
2.84179641206094
30
0
41
1
10
62.0495329576787
20
3.26817755975088
30
0
41
1
10
61.3518476956013
20
3.47576420647749
30
0
41
1
10
59.2588226432208
20
4.07482840822755
30
0
41
1
10
57.8645876658361
20
4.44430855269044
30
0
41
1
10
55.7730892661157
20
4.95015102985693
30
0
41
1
10
55.0758518150959
20
5.11054978404289
30
0
41
1
10
53.6803802401174
20
5.41303028051303
30
0
41
1
10
52.9820777087458
20
5.55509038306809
30
0
41
1
10
50.8897594191613
20
5.94997732237874
30
0
41
1
10
49.4971154307672
20
6.17305374082005
30
0
41
1
10
46.7112584826377
20
6.52970320860237
30
0
41
1
10
45.3164261012083
20
6.66244942039907
30
0
41
1
10
42.5286261624803
20
6.8275621435906
30
0
41
1
10
41.1347613006356
20
6.8613600476173
30
0
41
1
10
39.0421354572288
20
6.83933957150788
30
0
41
1
10
38.3437769536441
20
6.8197799193957
30
0
41
1
10
36.9483316152731
20
6.75638736950836
30
0
41
1
10
36.2512100015799
20
6.71257086837363
30
0
41
1
10
34.1601540449518
20
6.54576132440891
30
0
41
1
10
32.7671513839062
20
6.38707492961387
30
0
41
1
10
30.6755672884812
20
6.07953832152367
30
0
41
1
10
29.9780679932997
20
5.96547570380469
30
0
41
1
10
28.5857374957777
20
5.71686794177552
30
0
41
1
10
27.890307602735
20
5.58224624257349
30
0
41
1
10
26.0161385412445
20
5.195613596935
30
0
41
1
10
24.8371693238731
20
4.92787330065636
30
0
41
1
10
23.6581941292387
20
4.63542517325854
30
0
0
SPLINE
5
14B
100
AcDbEntity
8
1
62
256
6
ByLayer
370
18
48
1
60
0
100
AcDbSpline
70
4
71
3
72
8
73
4
40
0
40
0
40
0
40
0
40
1
40
1
40
1
40
1
41
1
10
162.1
20
2.26420618165167
30
0
41
1
10
161.338424894934
20
2.31919826551274
30
0
41
1
10
160.577460036137
20
2.36925955819339
30
0
41
1
10
159.816615299719
20
2.41216319876332
30
0
0
SPLINE
5
14C
100
AcDbEntity
8
1
62
256
6
ByLayer
370
13
48
1
60
0
100
AcDbSpline
70
4
71
2
72
6
73
3
40
0
40
0
40
0
40
1
40
1
40
1
41
0.997659736680304
10
170.178110342801
20
0.670011190907917
30
0
41
0.92506822677458
10
169.427271755448
20
-0.281814124291262
30
0
41
1
10
169.224657957104
20
-1.33622846705074
30
0
0
SPLINE
5
14D
100
AcDbEntity
8
1
62
256
6
ByLayer
370
13
48
1
60
0
100
AcDbSpline
70
4
71
3
72
18
73
14
40
0
40
0
40
0
40
0
40
0.25000000000001
40
0.25000000000001
40
0.50000000000002
40
0.50000000000002
40
0.625000000000015
40
0.625000000000015
40
0.75000000000001
40
0.75000000000001
40
0.875000000000005
40
0.875000000000005
40
1
40
1
40
1
40
1
41
1
10
170.226034396208
20
0.709031447943175
30
0
41
1
10
170.090626910796
20
0.797312217387002
30
0
41
1
10
169.959522340387
20
0.896249790815091
30
0
41
1
10
169.709932442348
20
1.11817062947091
30
0
41
1
10
169.591226073053
20
1.24156939541084
30
0
41
1
10
169.428977047247
20
1.44520600540528
30
0
41
1
10
169.377470725126
20
1.51621433596154
30
0
41
1
10
169.280363896684
20
1.66535747398257
30
0
41
1
10
169.234517331557
20
1.743901188243
30
0
41
1
10
169.150995935697
20
1.9068879042361
30
0
41
1
10
169.113352514598
20
1.99124340957431
30
0
41
1
10
169.047071679502
20
2.16627241495047
30
0
41
1
10
169.018253305831
20
2.25732811835781
30
0
41
1
10
168.99499424348
20
2.35079234044233
30
0
0
SPLINE
5
14E
100
AcDbEntity
8
1
62
256
6
ByLayer
370
18
48
1
60
0
100
AcDbSpline
70
4
71
3
72
10
73
6
40
0
40
0
40
0
40
0
40
0.568823502233379
40
0.568823502233379
40
1
40
1
40
1
40
1
41
1
10
15.9616747502341
20
-5.69094557655362
30
0
41
1
10
16.113406964623
20
-5.14627514767977
30
0
41
1
10
16.2868419759102
20
-4.62570824488077
30
0
41
1
10
16.6121200642911
20
-3.8062763005596
30
0
41
1
10
16.758982613449
20
-3.48437048974839
30
0
41
1
10
16.9074647413846
20
-3.20432679572522
30
0
0
SPLINE
5
14F
100
AcDbEntity
8
1
62
256
6
ByLayer
370
18
48
1
60
0
100
AcDbSpline
70
4
71
3
72
14
73
10
40
0
40
0
40
0
40
0
40
0.25
40
0.25
40
0.5
40
0.5
40
0.75
40
0.75
40
1
40
1
40
1
40
1
41
1
10
154.6
20
3.95432132627425
30
0
41
1
10
155.455672760875
20
3.70007942732681
30
0
41
1
10
156.310779739124
20
3.43342905783456
30
0
41
1
10
158.022147412708
20
2.88078025811538
30
0
41
1
10
158.878329983803
20
2.59461308656196
30
0
41
1
10
160.593201341505
20
2.00630849347343
30
0
41
1
10
161.452158677172
20
1.70489828845135
30
0
41
1
10
163.174532715496
20
1.09128341730116
30
0
41
1
10
164.034333141872
20
0.780279712631312
30
0
41
1
10
164.893456416782
20
0.468418210372562
30
0
0
SPLINE
5
150
100
AcDbEntity
8
1
62
256
6
ByLayer
370
18
48
1
60
0
100
AcDbSpline
70
4
71
3
72
32
73
28
40
0
40
0
40
0
40
0
40
0.124999999999998
40
0.124999999999998
40
0.187499999999998
40
0.187499999999998
40
0.249999999999998
40
0.249999999999998
40
0.312499999999999
40
0.312499999999999
40
0.374999999999999
40
0.374999999999999
40
0.499999999999999
40
0.499999999999999
40
0.562499999999999
40
0.562499999999999
40
0.624999999999999
40
0.624999999999999
40
0.6875
40
0.6875
40
0.75
40
0.75
40
0.875
40
0.875
40
0.9375
40
0.9375
40
1
40
1
40
1
40
1
41
1
10
154.6
20
-0.476553592218949
30
0
41
1
10
154.6
20
-0.705902208316218
30
0
41
1
10
154.575739431099
20
-0.929936617181511
30
0
41
1
10
154.501718964125
20
-1.25807311413081
30
0
41
1
10
154.470479657451
20
-1.36677499328002
30
0
41
1
10
154.395649984076
20
-1.57819586271842
30
0
41
1
10
154.352368119574
20
-1.6803271279008
30
0
41
1
10
154.254286999463
20
-1.87775819869361
30
0
41
1
10
154.199487695942
20
-1.9730574127816
30
0
41
1
10
154.078162996912
20
-2.15692272976477
30
0
41
1
10
154.011162884252
20
-2.24597220049563
30
0
41
1
10
153.796797945649
20
-2.49716460159857
30
0
41
1
10
153.635708926266
20
-2.64498960385026
30
0
41
1
10
153.366708787781
20
-2.83930066106186
30
0
41
1
10
153.272309415618
20
-2.89941080826264
30
0
41
1
10
153.078868824255
20
-3.00773333376205
30
0
41
1
10
152.979277718777
20
-3.05637640285858
30
0
41
1
10
152.774383198396
20
-3.14304088994197
30
0
41
1
10
152.669080109359
20
-3.18106225789768
30
0
41
1
10
152.452565302923
20
-3.2464237489354
30
0
41
1
10
152.341657946718
20
-3.27357949510662
30
0
41
1
10
152.008439211338
20
-3.33722023972035
30
0
41
1
10
151.782976817242
20
-3.35700394444373
30
0
41
1
10
151.439673185678
20
-3.35235600366883
30
0
41
1
10
151.324800293423
20
-3.34496030161148
30
0
41
1
10
151.098081569695
20
-3.31871622679969
30
0
41
1
10
150.985676372202
20
-3.29987022648081
30
0
41
1
10
150.874234313201
20
-3.27515654587063
30
0
0
SPLINE
5
151
100
AcDbEntity
8
1
62
256
6
ByLayer
370
18
48
1
60
0
100
AcDbSpline
70
4
71
3
72
8
73
4
40
0
40
0
40
0
40
0
40
1
40
1
40
1
40
1
41
1
10
165.14058540434
20
0.647238322535884
30
0
41
1
10
165.103797803865
20
0.585508828676126
30
0
41
1
10
165.06659384489
20
0.524825952575696
30
0
41
1
10
165.028959883535
20
0.465223991427081
30
0
0
SPLINE
5
152
100
AcDbEntity
8
1
62
256
6
ByLayer
370
18
48
1
60
0
100
AcDbSpline
70
4
71
3
72
9
73
5
40
0
40
0
40
0
40
0
40
0.547500787180734
40
1
40
1
40
1
40
1
41
1
10
162.308122058009
20
-6.40772517858417
30
0
41
1
10
162.305128840211
20
-6.41501361764344
30
0
41
1
10
162.30105619573
20
-6.42825972912559
30
0
41
1
10
162.300329038207
20
-6.44109055148991
30
0
41
1
10
162.3
20
-6.44689648850959
30
0
0
SPLINE
5
153
100
AcDbEntity
8
1
62
256
6
ByLayer
370
18
48
1
60
0
100
AcDbSpline
70
4
71
3
72
8
73
4
40
0
40
0
40
0
40
0
40
1
40
1
40
1
40
1
41
1
10
19.1500000000505
20
-5.55020132023964
30
0
41
1
10
19.1500000000536
20
-5.61088031067325
30
0
41
1
10
19.1500000000568
20
-5.67106310701215
30
0
41
1
10
19.1500000000599
20
-5.7307500330237
30
0
0
SPLINE
5
154
100
AcDbEntity
8
1
62
256
6
ByLayer
370
18
48
1
60
0
100
AcDbSpline
70
4
71
3
72
14
73
10
40
0
40
0
40
0
40
0
40
0.500000000000004
40
0.500000000000004
40
0.625000000000003
40
0.625000000000003
40
0.750000000000002
40
0.750000000000002
40
1
40
1
40
1
40
1
41
1
10
167.632889937916
20
-6.29971342957097
30
0
41
1
10
167.7472565971
20
-6.51948041327083
30
0
41
1
10
167.890881003861
20
-6.66966035686482
30
0
41
1
10
168.103033367527
20
-6.77979700511969
30
0
41
1
10
168.147120195978
20
-6.79788483493448
30
0
41
1
10
168.238602207784
20
-6.82619185653078
30
0
41
1
10
168.286089448134
20
-6.83640413388872
30
0
41
1
10
168.432016343857
20
-6.85504604085824
30
0
41
1
10
168.534299216146
20
-6.85170850447099
30
0
41
1
10
168.641355497334
20
-6.83331476298432
30
0
0
SPLINE
5
155
100
AcDbEntity
8
1
62
256
6
ByLayer
370
18
48
1
60
0
100
AcDbSpline
70
4
71
3
72
8
73
4
40
0
40
0
40
0
40
0
40
1
40
1
40
1
40
1
41
1
10
17.4
20
-6.03566680715167
30
0
41
1
10
17.0183345169951
20
-6.07875335824798
30
0
41
1
10
16.6364157743245
20
-6.11712089162617
30
0
41
1
10
16.2541316216729
20
-6.15078690180138
30
0
0
SPLINE
5
156
100
AcDbEntity
8
1
62
256
6
ByLayer
370
13
48
1
60
0
100
AcDbSpline
70
4
71
3
72
20
73
16
40
0
40
0
40
0
40
0
40
0.124999999999997
40
0.124999999999997
40
0.249999999999995
40
0.249999999999995
40
0.374999999999992
40
0.374999999999992
40
0.499999999999989
40
0.499999999999989
40
0.749999999999984
40
0.749999999999984
40
0.874999999999992
40
0.874999999999992
40
1
40
1
40
1
40
1
41
1
10
168.967457932718
20
2.34059923822681
30
0
41
1
10
168.990229081989
20
2.24617968896644
30
0
41
1
10
169.018437338266
20
2.1541308205085
30
0
41
1
10
169.083144245576
20
1.97686868969754
30
0
41
1
10
169.119851585365
20
1.89129624615228
30
0
41
1
10
169.201590945136
20
1.72586120624933
30
0
41
1
10
169.246463571744
20
1.64604782997375
30
0
41
1
10
169.341680735953
20
1.49435311957979
30
0
41
1
10
169.392205087003
20
1.42202500765498
30
0
41
1
10
169.551625503817
20
1.21447781735759
30
0
41
1
10
169.668474581384
20
1.08844656689709
30
0
41
1
10
169.85309643327
20
0.918322080452413
30
0
41
1
10
169.91640602392
20
0.86460012250339
30
0
41
1
10
170.045380964694
20
0.76307415030675
30
0
41
1
10
170.110985757745
20
0.715295985343147
30
0
41
1
10
170.178110342801
20
0.670011190907928
30
0
0
SPLINE
5
157
100
AcDbEntity
8
1
62
256
6
ByLayer
370
18
48
1
60
0
100
AcDbSpline
70
4
71
1
72
4
73
2
40
0
40
0
40
1
40
1
41
1
10
149.794414771039
20
-4.78341457812681
30
0
41
1
10
149.965160259894
20
-4.55331327547867
30
0
0
SPLINE
5
158
100
AcDbEntity
8
1
62
256
6
ByLayer
370
18
48
1
60
0
100
AcDbSpline
70
4
71
3
72
14
73
10
40
0
40
0
40
0
40
0
40
0.25
40
0.25
40
0.5
40
0.5
40
0.75
40
0.75
40
1
40
1
40
1
40
1
41
1
10
163.13
20
1.45877434200122
30
0
41
1
10
163.48976987419
20
1.40973077700221
30
0
41
1
10
163.849620432479
20
1.36132808914829
30
0
41
1
10
164.569481815068
20
1.26579571302688
30
0
41
1
10
164.929508002532
20
1.21878805500518
30
0
41
1
10
165.650004495163
20
1.12830038431358
30
0
41
1
10
166.010459946363
20
1.0847023859709
30
0
41
1
10
166.731260527139
20
0.99663010003664
30
0
41
1
10
167.091663282147
20
0.952613533653505
30
0
41
1
10
167.452086660693
20
0.908760780887263
30
0
0
SPLINE
5
159
100
AcDbEntity
8
1
62
256
6
ByLayer
370
18
48
1
60
0
100
AcDbSpline
70
4
71
3
72
21
73
17
40
0
40
0
40
0
40
0
40
0.0286434249579441
40
0.0572055317328314
40
0.0857575183262879
40
0.114370658286294
40
0.143115770275024
40
0.214475159351685
40
0.285297575241231
40
0.356834374631381
40
0.427291543736248
40
0.568475115392018
40
0.70908543368276
40
0.849308499761537
40
0.989302938616385
40
1
40
1
40
1
40
1
41
1
10
162.200002928625
20
-6.5424080864245
30
0
41
1
10
162.200221552608
20
-6.53789457429124
30
0
41
1
10
162.200658179905
20
-6.52888036380682
30
0
41
1
10
162.204170795188
20
-6.51503844911579
30
0
41
1
10
162.209778947805
20
-6.50100972340923
30
0
41
1
10
162.217684300744
20
-6.48677238336549
30
0
41
1
10
162.232827262277
20
-6.46525190317536
30
0
41
1
10
162.260341093152
20
-6.43632235099159
30
0
41
1
10
162.307930545625
20
-6.40039977010025
30
0
41
1
10
162.367512548321
20
-6.36560598742938
30
0
41
1
10
162.46240278423
20
-6.32196218856575
30
0
41
1
10
162.60773596956
20
-6.27461781424583
30
0
41
1
10
162.815640370223
20
-6.23793961233977
30
0
41
1
10
163.040373428366
20
-6.22846637632128
30
0
41
1
10
163.193549806816
20
-6.24205453127979
30
0
41
1
10
163.267627692217
20
-6.25397454622154
30
0
41
1
10
163.272886221636
20
-6.25482070629908
30
0
0
SPLINE
5
15A
100
AcDbEntity
8
1
62
256
6
ByLayer
370
18
48
1
60
0
100
AcDbSpline
70
4
71
3
72
14
73
10
40
0
40
0
40
0
40
0
40
0.125
40
0.125
40
0.25
40
0.25
40
0.5
40
0.5
40
1
40
1
40
1
40
1
41
1
10
162.204904362514
20
6.28181328628889
30
0
41
1
10
161.880256307788
20
6.27298576034761
30
0
41
1
10
161.5556634989
20
6.26244009182119
30
0
41
1
10
160.906714952154
20
6.23505081406688
30
0
41
1
10
160.582329187662
20
6.21860539917634
30
0
41
1
10
159.609305980867
20
6.16048751110028
30
0
41
1
10
158.960478707917
20
6.10996818192819
30
0
41
1
10
157.017432264694
20
5.92005317778953
30
0
41
1
10
155.725768380703
20
5.74066145197196
30
0
41
1
10
154.432876472408
20
5.51300853068523
30
0
0
SPLINE
5
15B
100
AcDbEntity
8
1
62
256
6
ByLayer
370
18
48
1
60
0
100
AcDbSpline
70
4
71
3
72
12
73
8
40
0
40
0
40
0
40
0
40
0.5
40
0.5
40
0.75
40
0.75
40
1
40
1
40
1
40
1
41
1
10
154.071252302623
20
5.72646163275428
30
0
41
1
10
155.423586881199
20
6.01105582801057
30
0
41
1
10
156.774099716033
20
6.24482411433701
30
0
41
1
10
158.80576770593
20
6.51186568529408
30
0
41
1
10
159.484107010351
20
6.58711971754215
30
0
41
1
10
160.842510460582
20
6.70980575233529
30
0
41
1
10
161.521301583266
20
6.75713711259621
30
0
41
1
10
162.2
20
6.79049246413732
30
0
0
SPLINE
5
15C
100
AcDbEntity
8
1
62
256
6
ByLayer
370
18
48
1
60
0
100
AcDbSpline
70
4
71
3
72
60
73
56
40
0
40
0
40
0
40
0
40
0.0522206729966805
40
0.0522206729966805
40
0.0783310094950208
40
0.0783310094950208
40
0.104441345993361
40
0.104441345993361
40
0.156662018990043
40
0.156662018990043
40
0.182772355488383
40
0.182772355488383
40
0.208882691986723
40
0.208882691986723
40
0.261103364983403
40
0.261103364983403
40
0.287213701481744
40
0.287213701481744
40
0.313324037980085
40
0.313324037980085
40
0.365544710976767
40
0.365544710976767
40
0.417765383973448
40
0.417765383973448
40
0.443875720471788
40
0.443875720471788
40
0.469986056970128
40
0.469986056970128
40
0.522206729966808
40
0.522206729966808
40
0.574427402963488
40
0.574427402963488
40
0.626648075960167
40
0.626648075960167
40
0.678868748956847
40
0.678868748956847
40
0.704979085455187
40
0.704979085455187
40
0.731089421953526
40
0.731089421953526
40
0.783310094950206
40
0.783310094950206
40
0.809420431448545
40
0.809420431448545
40
0.835530767946884
40
0.835530767946884
40
0.861641104445224
40
0.861641104445224
40
0.887751440943563
40
0.887751440943563
40
0.939972113940243
40
0.939972113940243
40
0.992192786936923
40
0.992192786936923
40
1
40
1
40
1
40
1
41
1
10
149.794414771039
20
-4.78341457812681
30
0
41
1
10
148.431041328152
20
-5.08527821499439
30
0
41
1
10
147.069037203491
20
-5.35239137789529
30
0
41
1
10
145.025846260808
20
-5.69557408164499
30
0
41
1
10
144.344653133445
20
-5.80057290903767
30
0
41
1
10
142.981569508554
20
-5.99158665431614
30
0
41
1
10
142.299288610456
20
-6.07757608429588
30
0
41
1
10
140.254198545563
20
-6.30535417136738
30
0
41
1
10
138.894443711949
20
-6.41686126575772
30
0
41
1
10
136.854023035624
20
-6.51201737614059
30
0
41
1
10
136.173745824596
20
-6.53196568200994
30
0
41
1
10
134.811919945561
20
-6.54927867331335
30
0
41
1
10
134.130106458559
20
-6.54658026708802
30
0
41
1
10
132.086300394179
20
-6.50559987248127
30
0
41
1
10
130.724547668284
20
-6.43469863282695
30
0
41
1
10
128.680693010524
20
-6.26453780890972
30
0
41
1
10
127.999189911268
20
-6.19717152859377
30
0
41
1
10
126.635269241882
20
-6.04233990225129
30
0
41
1
10
125.95321932077
20
-5.95480879840849
30
0
41
1
10
123.910819025168
20
-5.66254873186986
30
0
41
1
10
122.552798382868
20
-5.42740322818909
30
0
41
1
10
119.837506855933
20
-4.87978536971386
30
0
41
1
10
118.479975774552
20
-4.5675080034614
30
0
41
1
10
116.437944977951
20
-4.05903987134741
30
0
41
1
10
115.755771053979
20
-3.88266414508962
30
0
41
1
10
114.392764312527
20
-3.51897099112969
30
0
41
1
10
113.711821348406
20
-3.33158968914583
30
0
41
1
10
111.67014630927
20
-2.75433627026891
30
0
41
1
10
110.3104774297
20
-2.34962166443523
30
0
41
1
10
107.590602058004
20
-1.51133353193779
30
0
41
1
10
106.230816494815
20
-1.07630775299089
30
0
41
1
10
103.505151125815
20
-0.190758559985454
30
0
41
1
10
102.146158457648
20
0.25700755769364
30
0
41
1
10
99.4286050217277
20
1.13644569473041
30
0
41
1
10
98.0697461566988
20
1.56803960458208
30
0
41
1
10
96.0285091957525
20
2.19487466622209
30
0
41
1
10
95.3476393982729
20
2.40047493362386
30
0
41
1
10
93.9845050492066
20
2.80357706087312
30
0
41
1
10
93.3020746337916
20
3.0011364344241
30
0
41
1
10
91.2587561348012
20
3.57819892090205
30
0
41
1
10
89.8999771197908
20
3.94364076511681
30
0
41
1
10
87.8629563360416
20
4.44874951868923
30
0
41
1
10
87.184104836044
20
4.60980346406592
30
0
41
1
10
85.8257119222496
20
4.91448873679386
30
0
41
1
10
85.1461347240128
20
5.05822043054096
30
0
41
1
10
83.7852686772765
20
5.32724749495387
30
0
41
1
10
83.1034081862083
20
5.4526056583542
30
0
41
1
10
81.740485642751
20
5.68351005422358
30
0
41
1
10
81.0595421345098
20
5.78907759445167
30
0
41
1
10
79.0176909375642
20
6.0757014402038
30
0
41
1
10
77.6578333068441
20
6.22624027093423
30
0
41
1
10
74.9372226203582
20
6.44548467940265
30
0
41
1
10
73.5768123589884
20
6.51465880842647
30
0
41
1
10
72.0099253527083
20
6.54187603731805
30
0
41
1
10
71.8062241356409
20
6.54438828655907
30
0
41
1
10
71.6026024054653
20
6.54586013645294
30
0
0
SPLINE
5
15D
100
AcDbEntity
8
1
62
256
6
ByLayer
370
18
48
1
60
0
100
AcDbSpline
70
4
71
3
72
10
73
6
40
0
40
0
40
0
40
0
40
0.0958407440098501
40
0.0958407440098501
40
1
40
1
40
1
40
1
41
1
10
23.6634790042171
20
-4.63099135203984
30
0
41
1
10
23.519390100017
20
-4.66415894842822
30
0
41
1
10
23.3753051696951
20
-4.69700401427187
30
0
41
1
10
21.8719438613628
20
-5.03628867852515
30
0
41
1
10
20.5127649006887
20
-5.31330697570061
30
0
41
1
10
19.1500000000505
20
-5.55019596815617
30
0
0
SPLINE
5
15E
100
AcDbEntity
8
1
62
256
6
ByLayer
370
18
48
1
60
0
100
AcDbSpline
70
4
71
3
72
12
73
8
40
0
40
0
40
0
40
0
40
0.419672288135312
40
0.419672288135312
40
0.70983594007482
40
0.70983594007482
40
1
40
1
40
1
40
1
41
1
10
162.299999999051
20
6.68682438505013
30
0
41
1
10
162.286458395387
20
6.7009452496992
30
0
41
1
10
162.272910814494
20
6.71506400267731
30
0
41
1
10
162.249986430789
20
6.7389411080735
30
0
41
1
10
162.240612688795
20
6.74870052316098
30
0
41
1
10
162.221859638677
20
6.76821748996514
30
0
41
1
10
162.212480327245
20
6.7779750451121
30
0
41
1
10
162.203098270232
20
6.78773169141192
30
0
0
SPLINE
5
15F
100
AcDbEntity
8
1
62
256
6
ByLayer
370
18
48
1
60
0
100
AcDbSpline
70
4
71
3
72
16
73
12
40
0
40
0
40
0
40
0
40
0.125
40
0.125
40
0.25
40
0.25
40
0.5
40
0.5
40
0.75
40
0.75
40
1
40
1
40
1
40
1
41
1
10
168.8678603441
20
6.56619078799577
30
0
41
1
10
168.617857830735
20
6.60569313200068
30
0
41
1
10
168.368222040861
20
6.64267028657139
30
0
41
1
10
167.868967773671
20
6.71106925292605
30
0
41
1
10
167.619368160114
20
6.74251909054388
30
0
41
1
10
166.870838000257
20
6.82882354319031
30
0
41
1
10
166.372101368266
20
6.87560740233263
30
0
41
1
10
165.375373822219
20
6.94763352154962
30
0
41
1
10
164.877210087943
20
6.97273094955668
30
0
41
1
10
163.879089923289
20
7.00068497857438
30
0
41
1
10
163.379518494763
20
7.003677847049
30
0
41
1
10
162.879495483891
20
6.99552280567715
30
0
0
SPLINE
5
160
100
AcDbEntity
8
1
62
256
6
ByLayer
370
18
48
1
60
0
100
AcDbSpline
70
4
71
3
72
14
73
10
40
0
40
0
40
0
40
0
40
0.499999999999996
40
0.499999999999996
40
0.749999999999994
40
0.749999999999994
40
0.874999999999997
40
0.874999999999997
40
1
40
1
40
1
40
1
41
1
10
170.26652637748
20
2.48181172440678
30
0
41
1
10
170.115900815419
20
2.89783843446116
30
0
41
1
10
169.967443586428
20
3.31586160732425
30
0
41
1
10
169.748206034076
20
3.94607133318425
30
0
41
1
10
169.675707410589
20
4.15667578500944
30
0
41
1
10
169.567924314605
20
4.47347082519249
30
0
41
1
10
169.532131360738
20
4.57930023518338
30
0
41
1
10
169.46150999147
20
4.7894288774873
30
0
41
1
10
169.426606634307
20
4.89394699040756
30
0
41
1
10
169.39213020942
20
4.99789260233612
30
0
0
SPLINE
5
161
100
AcDbEntity
8
1
62
256
6
ByLayer
370
18
48
1
60
0
100
AcDbSpline
70
4
71
3
72
8
73
4
40
0
40
0
40
0
40
0
40
1
40
1
40
1
40
1
41
1
10
154.6
20
3.9185061669335
30
0
41
1
10
153.595802262084
20
4.19840692759169
30
0
41
1
10
152.592476632767
20
4.46112673045548
30
0
41
1
10
151.58839262624
20
4.70373034701785
30
0
0
SPLINE
5
162
100
AcDbEntity
8
1
62
256
6
ByLayer
370
13
48
1
60
0
100
AcDbSpline
70
4
71
3
72
10
73
6
40
0
40
0
40
0
40
0
40
0.0018236890469655
40
0.0018236890469655
40
1
40
1
40
1
40
1
41
1
10
170.248889153541
20
0.694329498307098
30
0
41
1
10
170.248875198328
20
0.694338356347885
30
0
41
1
10
170.248861243023
20
0.694347214437101
30
0
41
1
10
170.241209120831
20
0.699204555880527
30
0
41
1
10
170.233604343589
20
0.704096116801963
30
0
41
1
10
170.226034396209
20
0.709031447942351
30
0
0
SPLINE
5
163
100
AcDbEntity
8
1
62
256
6
ByLayer
370
18
48
1
60
0
100
AcDbSpline
70
4
71
2
72
6
73
3
40
0
40
0
40
0
40
1
40
1
40
1
41
1
10
165.810926744424
20
-2.02412956042826
30
0
41
1
10
165.891052393542
20
-2.18417704572755
30
0
41
1
10
165.972652836981
20
-2.33979410767063
30
0
0
SPLINE
5
164
100
AcDbEntity
8
1
62
256
6
ByLayer
370
18
48
1
60
0
100
AcDbSpline
70
4
71
3
72
8
73
4
40
0
40
0
40
0
40
0
40
1
40
1
40
1
40
1
41
1
10
13.5474231871356
20
-7.20158944194827
30
0
41
1
10
13.1913570204276
20
-7.41034652932285
30
0
41
1
10
12.8396340211837
20
-7.63099188371265
30
0
41
1
10
12.4979239355328
20
-7.87802161878878
30
0
0
SPLINE
5
165
100
AcDbEntity
8
1
62
256
6
ByLayer
370
18
48
1
60
0
100
AcDbSpline
70
4
71
3
72
18
73
14
40
0
40
0
40
0
40
0
40
0.125
40
0.125
40
0.25
40
0.25
40
0.500000000000001
40
0.500000000000001
40
0.625
40
0.625
40
0.75
40
0.75
40
1
40
1
40
1
40
1
41
1
10
162.3
20
3.25000000000003
30
0
41
1
10
162.3
20
3.35098717599118
30
0
41
1
10
162.3
20
3.45540483048353
30
0
41
1
10
162.3
20
3.67128951795931
30
0
41
1
10
162.3
20
3.7833678393155
30
0
41
1
10
162.3
20
4.12526821903666
30
0
41
1
10
162.3
20
4.36056455756545
30
0
41
1
10
162.3
20
4.72451611066637
30
0
41
1
10
162.3
20
4.8476791476823
30
0
41
1
10
162.3
20
5.09783683996974
30
0
41
1
10
162.3
20
5.22524421012676
30
0
41
1
10
162.3
20
5.60551731442831
30
0
41
1
10
162.3
20
5.85876646980046
30
0
41
1
10
162.3
20
6.11174481037321
30
0
0
SPLINE
5
166
100
AcDbEntity
8
1
62
256
6
ByLayer
370
18
48
1
60
0
100
AcDbSpline
70
4
71
3
72
8
73
4
40
0
40
0
40
0
40
0
40
1
40
1
40
1
40
1
41
1
10
20.0031069221354
20
-1.99713100198082
30
0
41
1
10
20.0213450507911
20
-2.03380256578546
30
0
41
1
10
20.040460714302
20
-2.07093481272616
30
0
41
1
10
20.0606426691699
20
-2.10861227845427
30
0
0
SPLINE
5
167
100
AcDbEntity
8
1
62
256
6
ByLayer
370
18
48
1
60
0
100
AcDbSpline
70
4
71
3
72
8
73
4
40
0
40
0
40
0
40
0
40
1
40
1
40
1
40
1
41
1
10
169.392130205368
20
4.9978926016116
30
0
41
1
10
169.219708644491
20
5.51773956116372
30
0
41
1
10
169.044973940991
20
6.04047822836509
30
0
41
1
10
168.867860344107
20
6.56619078797507
30
0
0
SPLINE
5
168
100
AcDbEntity
8
1
62
256
6
ByLayer
370
18
48
1
60
0
100
AcDbSpline
70
4
71
3
72
10
73
6
40
0
40
0
40
0
40
0
40
0.521519481300488
40
0.521519481300488
40
1
40
1
40
1
40
1
41
1
10
163.13
20
-6.29971035238421
30
0
41
1
10
163.912781607939
20
-6.29973314058466
30
0
41
1
10
164.695563216763
20
-6.29973146990849
30
0
41
1
10
166.196526528975
20
-6.29969568200778
30
0
41
1
10
166.914708233572
20
-6.29971938814464
30
0
41
1
10
167.632889937916
20
-6.29971342957103
30
0
0
SPLINE
5
169
100
AcDbEntity
8
1
62
256
6
ByLayer
370
18
48
1
60
0
100
AcDbSpline
70
4
71
3
72
8
73
4
40
0
40
0
40
0
40
0
40
1
40
1
40
1
40
1
41
1
10
16.1798468061002
20
-5.66587369608325
30
0
41
1
10
16.2054142869617
20
-5.83022847110871
30
0
41
1
10
16.2302988748994
20
-5.99184339661815
30
0
41
1
10
16.2541316216729
20
-6.15078690180138
30
0
0
SPLINE
5
16A
100
AcDbEntity
8
1
62
256
6
ByLayer
370
18
48
1
60
0
100
AcDbSpline
70
4
71
3
72
8
73
4
40
0
40
0
40
0
40
0
40
1
40
1
40
1
40
1
41
1
10
168.99499424348
20
2.3507923404427
30
0
41
1
10
168.985043352625
20
2.35019915409603
30
0
41
1
10
168.975534743383
20
2.34646845728253
30
0
41
1
10
168.967457933251
20
2.3405992382022
30
0
0
SPLINE
5
16B
100
AcDbEntity
8
1
62
256
6
ByLayer
370
18
48
1
60
0
100
AcDbSpline
70
4
71
3
72
31
73
27
40
0
40
0
40
0
40
0
40
0.0330651905441191
40
0.065918973201642
40
0.098561915609803
40
0.130994596477858
40
0.16321760584529
40
0.195231545346394
40
0.22703702848145
40
0.258634680894554
40
0.290025140658286
40
0.321209058565353
40
0.352187098427331
40
0.382959937380646
40
0.413528266199948
40
0.443892789618995
40
0.474054226659178
40
0.504013310965845
40
0.56768273983101
40
0.630859080473295
40
0.693549924736465
40
0.755763042215343
40
0.817506382868076
40
0.878788079498881
40
0.939616450094882
40
1
40
1
40
1
40
1
41
1
10
166.590817638933
20
-5.28304836624338
30
0
41
1
10
166.578984538816
20
-5.25540511049351
30
0
41
1
10
166.555393995507
20
-5.20029534082354
30
0
41
1
10
166.520793019626
20
-5.11543350766453
30
0
41
1
10
166.486912502589
20
-5.02936853432155
30
0
41
1
10
166.453799698967
20
-4.9419812553831
30
0
41
1
10
166.421442068766
20
-4.85337680790505
30
0
41
1
10
166.389842939535
20
-4.7636001310224
30
0
41
1
10
166.359001428249
20
-4.67271142658385
30
0
41
1
10
166.328917769215
20
-4.58076610107142
30
0
41
1
10
166.299591900127
20
-4.48782005509438
30
0
41
1
10
166.271023837985
20
-4.39392824992817
30
0
41
1
10
166.243213576602
20
-4.29914505484183
30
0
41
1
10
166.216161123975
20
-4.2035241407097
30
0
41
1
10
166.189866454773
20
-4.10711843202839
30
0
41
1
10
166.164329661852
20
-4.00998027970815
30
0
41
1
10
166.139550402835
20
-3.91216070948366
30
0
41
1
10
166.106466762115
20
-3.7765663972217
30
0
41
1
10
166.066191350335
20
-3.60137269515118
30
0
41
1
10
166.020250664097
20
-3.38428313267468
30
0
41
1
10
165.977430189282
20
-3.16389012991965
30
0
41
1
10
165.937735418125
20
-2.94056222184312
30
0
41
1
10
165.901146298419
20
-2.71468484762241
30
0
41
1
10
165.867736890031
20
-2.48654743494168
30
0
41
1
10
165.837233976278
20
-2.25676917764864
30
0
41
1
10
165.819444305941
20
-2.1015087527133
30
0
41
1
10
165.810582112833
20
-2.0241634257965
30
0
0
SPLINE
5
16C
100
AcDbEntity
8
1
62
256
6
ByLayer
370
18
48
1
60
0
100
AcDbSpline
70
4
71
3
72
8
73
4
40
0
40
0
40
0
40
0
40
1
40
1
40
1
40
1
41
1
10
162.327622011242
20
1.91560029726446
30
0
41
1
10
162.592779874075
20
1.75525757907965
30
0
41
1
10
162.860296776554
20
1.60318407263173
30
0
41
1
10
163.13
20
1.45877434200122
30
0
0
SPLINE
5
16D
100
AcDbEntity
8
1
62
256
6
ByLayer
370
18
48
1
60
0
100
AcDbSpline
70
4
71
3
72
8
73
4
40
0
40
0
40
0
40
0
40
1
40
1
40
1
40
1
41
1
10
153.954164060786
20
4.83773295943763
30
0
41
1
10
153.836312702452
20
4.60416636436133
30
0
41
1
10
153.715952482135
20
4.38348669161559
30
0
41
1
10
153.595888634983
20
4.17531225701998
30
0
0
SPLINE
5
16E
100
AcDbEntity
8
1
62
256
6
ByLayer
370
18
48
1
60
0
100
AcDbSpline
70
4
71
3
72
19
73
15
40
0
40
0
40
0
40
0
40
0.132908976819054
40
0.257682316056932
40
0.299273429136224
40
0.38245565529481
40
0.465637881453395
40
0.590411220691272
40
0.632002333770565
40
0.71518455992915
40
0.798366786087736
40
0.923140125325612
40
0.964731238404905
40
1
40
1
40
1
40
1
41
1
10
20.0031069221353
20
-1.99713100198087
30
0
41
1
10
21.1325269473549
20
-2.34441730695854
30
0
41
1
10
23.3199191869201
20
-3.00259076261706
30
0
41
1
10
25.854266453113
20
-3.7108789612512
30
0
41
1
10
27.9697283923257
20
-4.25370347443477
30
0
41
1
10
29.7339820037682
20
-4.67421920759572
30
0
41
1
10
32.2040916608493
20
-5.20324544744447
30
0
41
1
10
34.3201256418942
20
-5.58981642384987
30
0
41
1
10
36.4366352778914
20
-5.91266248622808
30
0
41
1
10
38.2011790888261
20
-6.13800654537815
30
0
41
1
10
40.6705584494662
20
-6.37637312221253
30
0
41
1
10
42.7853580146642
20
-6.49975284876337
30
0
41
1
10
44.4945633185738
20
-6.54116770048336
30
0
41
1
10
45.146416951396
20
-6.5456338763122
30
0
41
1
10
45.4455757602924
20
-6.5453986303296
30
0
0
SPLINE
5
16F
100
AcDbEntity
8
1
62
256
6
ByLayer
370
18
48
1
60
0
100
AcDbSpline
70
4
71
3
72
12
73
8
40
0
40
0
40
0
40
0
40
0.144198927906601
40
0.474211366521165
40
0.584215512726018
40
0.694219658930873
40
1
40
1
40
1
40
1
41
1
10
140.517939078641
20
-0.0029255400114891
30
0
41
1
10
140.980405586608
20
-0.153569638129169
30
0
41
1
10
142.501014184847
20
-0.649365720921108
30
0
41
1
10
144.372946172266
20
-1.25500645537263
30
0
41
1
10
146.134970608082
20
-1.80842878630786
30
0
41
1
10
147.822191351335
20
-2.32783223025387
30
0
41
1
10
149.156869221826
20
-2.72388203857451
30
0
41
1
10
150.137630684321
20
-3.00541530276333
30
0
0
SPLINE
5
170
100
AcDbEntity
8
1
62
256
6
ByLayer
370
18
48
1
60
0
100
AcDbSpline
70
4
71
3
72
11
73
7
40
0
40
0
40
0
40
0
40
0.25238694288526
40
0.503175764120476
40
0.752376654281616
40
1
40
1
40
1
40
1
41
1
10
165.03193721899
20
-0.0476686750470776
30
0
41
1
10
165.019814176564
20
-0.0043473851971498
30
0
41
1
10
164.995644855178
20
0.0820208828032776
30
0
41
1
10
164.960555452999
20
0.211425610322323
30
0
41
1
10
164.926395826382
20
0.340136483967626
30
0
41
1
10
164.904412934469
20
0.425748236745051
30
0
41
1
10
164.893456389174
20
0.468418193491488
30
0
0
SPLINE
5
171
100
AcDbEntity
8
1
62
256
6
ByLayer
370
18
48
1
60
0
100
AcDbSpline
70
4
71
2
72
6
73
3
40
0
40
0
40
0
40
1
40
1
40
1
41
1
10
162.3
20
6.68682438645527
30
0
41
1
10
162.3
20
6.40163928548057
30
0
41
1
10
162.3
20
6.11174483164211
30
0
0
SPLINE
5
172
100
AcDbEntity
8
1
62
256
6
ByLayer
370
18
48
1
60
0
100
AcDbSpline
70
4
71
3
72
8
73
4
40
0
40
0
40
0
40
0
40
1
40
1
40
1
40
1
41
1
10
169.476988962843
20
2.38576957387184
30
0
41
1
10
169.741455374979
20
2.409020884825
30
0
41
1
10
170.005028323988
20
2.43835418364543
30
0
41
1
10
170.26652637748
20
2.48181172440678
30
0
0
SPLINE
5
173
100
AcDbEntity
8
1
62
256
6
ByLayer
370
18
48
1
60
0
100
AcDbSpline
70
4
71
3
72
8
73
4
40
0
40
0
40
0
40
0
40
1
40
1
40
1
40
1
41
1
10
17.4
20
6.03566680715167
30
0
41
1
10
17.9838936055631
20
5.94167519846084
30
0
41
1
10
18.5671275248097
20
5.83990184918099
30
0
41
1
10
19.1500000000599
20
5.7307500330237
30
0
0
SPLINE
5
174
100
AcDbEntity
8
1
62
256
6
ByLayer
370
13
48
1
60
0
100
AcDbSpline
70
4
71
3
72
8
73
4
40
0
40
0
40
0
40
0
40
1
40
1
40
1
40
1
41
1
10
170.248889153543
20
0.694329498306359
30
0
41
1
10
170.232296180346
20
0.686893905314861
30
0
41
1
10
170.215050795284
20
0.672675026992522
30
0
41
1
10
170.200961466714
20
0.65481295837543
30
0
0
SPLINE
5
175
100
AcDbEntity
8
1
62
256
6
ByLayer
370
18
48
1
60
0
100
AcDbSpline
70
4
71
1
72
4
73
2
40
0
40
0
40
1
40
1
41
1
10
165.166183877759
20
-0.0330683733007788
30
0
41
1
10
165.031937220639
20
-0.0476686865135321
30
0
0
SPLINE
5
176
100
AcDbEntity
8
1
62
256
6
ByLayer
370
18
48
1
60
0
100
AcDbSpline
70
4
71
3
72
8
73
4
40
0
40
0
40
0
40
0
40
1
40
1
40
1
40
1
41
1
10
17.4
20
6.03566680715167
30
0
41
1
10
17.0183345169951
20
6.07875335824798
30
0
41
1
10
16.6364157743245
20
6.11712089162617
30
0
41
1
10
16.2541316216729
20
6.15078690180138
30
0
0
SPLINE
5
177
100
AcDbEntity
8
1
62
256
6
ByLayer
370
18
48
1
60
0
100
AcDbSpline
70
4
71
3
72
72
73
68
40
0
40
0
40
0
40
0
40
0.0625000000000006
40
0.0625000000000006
40
0.125000000000001
40
0.125000000000001
40
0.187500000000002
40
0.187500000000002
40
0.218750000000002
40
0.218750000000002
40
0.250000000000002
40
0.250000000000002
40
0.281250000000002
40
0.281250000000002
40
0.296875000000001
40
0.296875000000001
40
0.312500000000001
40
0.312500000000001
40
0.328125000000001
40
0.328125000000001
40
0.343750000000001
40
0.343750000000001
40
0.375
40
0.375
40
0.390625
40
0.390625
40
0.40625
40
0.40625
40
0.421875
40
0.421875
40
0.4375
40
0.4375
40
0.453125
40
0.453125
40
0.468749999999999
40
0.468749999999999
40
0.484374999999999
40
0.484374999999999
40
0.499999999999999
40
0.499999999999999
40
0.531249999999999
40
0.531249999999999
40
0.546874999999999
40
0.546874999999999
40
0.562499999999999
40
0.562499999999999
40
0.578124999999999
40
0.578124999999999
40
0.593749999999999
40
0.593749999999999
40
0.624999999999999
40
0.624999999999999
40
0.656249999999999
40
0.656249999999999
40
0.687499999999999
40
0.687499999999999
40
0.749999999999999
40
0.749999999999999
40
0.781249999999999
40
0.781249999999999
40
0.812499999999999
40
0.812499999999999
40
0.875
40
0.875
40
0.9375
40
0.9375
40
1
40
1
40
1
40
1
41
1
10
12.4167255104682
20
-4.20785807344421
30
0
41
1
10
12.0341007203424
20
-4.39830967947245
30
0
41
1
10
11.6660185301281
20
-4.59313386975327
30
0
41
1
10
10.9433577887239
20
-4.98549300499343
30
0
41
1
10
10.5888521228781
20
-5.18311568231294
30
0
41
1
10
9.87823835776248
20
-5.5807227221392
30
0
41
1
10
9.52221930627402
20
-5.78060929440031
30
0
41
1
10
8.97410199872789
20
-6.08577479626189
30
0
41
1
10
8.78902515839653
20
-6.18842850258523
30
0
41
1
10
8.41150852141391
20
-6.39731468036334
30
0
41
1
10
8.2200703335194
20
-6.50296299707119
30
0
41
1
10
7.83121888845955
20
-6.71863883904248
30
0
41
1
10
7.63366539735446
20
-6.82868067649417
30
0
41
1
10
7.33185594793213
20
-7.00071043327404
30
0
41
1
10
7.22990682586709
20
-7.05949880077995
30
0
41
1
10
7.02699093721242
20
-7.17878643479924
30
0
41
1
10
6.92594803455074
20
-7.23932003052297
30
0
41
1
10
6.7252109725886
20
-7.36304860697703
30
0
41
1
10
6.62551494233708
20
-7.42624043379806
30
0
41
1
10
6.42816799464112
20
-7.55645894367078
30
0
41
1
10
6.32989463816673
20
-7.62395518277367
30
0
41
1
10
6.04629204112968
20
-7.82955666950304
30
0
41
1
10
5.87092173165686
20
-7.97127831999043
30
0
41
1
10
5.63466814445752
20
-8.19790189604439
30
0
41
1
10
5.561880745639
20
-8.27446330393371
30
0
41
1
10
5.42981642827476
20
-8.42889134402193
30
0
41
1
10
5.3702723060519
20
-8.50700795361934
30
0
41
1
10
5.26448029701766
20
-8.6657804068212
30
0
41
1
10
5.21801130834703
20
-8.74703087280625
30
0
41
1
10
5.14108239827777
20
-8.908193914984
30
0
41
1
10
5.11028978483097
20
-8.98843084442285
30
0
41
1
10
5.06339462121701
20
-9.14856716186139
30
0
41
1
10
5.0472752643133
20
-9.22864932248808
30
0
41
1
10
5.02976871290213
20
-9.38780508299735
30
0
41
1
10
5.02847268746146
20
-9.46568475035343
30
0
41
1
10
5.039632615567
20
-9.61820682722785
30
0
41
1
10
5.05209513499329
20
-9.6928471035117
30
0
41
1
10
5.0902074901137
20
-9.83872399505231
30
0
41
1
10
5.11602362021256
20
-9.91014911662339
30
0
41
1
10
5.21059703227354
20
-10.1143071950193
30
0
41
1
10
5.29656767028865
20
-10.2386115480388
30
0
41
1
10
5.45541062351379
20
-10.4056065370396
30
0
41
1
10
5.51326906908378
20
-10.4577924258385
30
0
41
1
10
5.63600603698686
20
-10.5534201850629
30
0
41
1
10
5.7011242223133
20
-10.5971226590145
30
0
41
1
10
5.83799139597704
20
-10.6762328618511
30
0
41
1
10
5.90974257435695
20
-10.7116385161549
30
0
41
1
10
6.05915351681853
20
-10.7739834302586
30
0
41
1
10
6.1370104423591
20
-10.8009340134651
30
0
41
1
10
6.3742939603423
20
-10.8678390032301
30
0
41
1
10
6.53856388217508
20
-10.8944659017232
30
0
41
1
10
6.87415410658758
20
-10.9154254439653
30
0
41
1
10
7.04567275827805
20
-10.9097177549231
30
0
41
1
10
7.39171341472837
20
-10.8695961887292
30
0
41
1
10
7.56323312840976
20
-10.8356308417049
30
0
41
1
10
8.07212794154862
20
-10.7009589731992
30
0
41
1
10
8.40368985397265
20
-10.5678503715889
30
0
41
1
10
8.89111969242202
20
-10.3290072005337
30
0
41
1
10
9.05221094672532
20
-10.2426194379354
30
0
41
1
10
9.36999019851328
20
-10.0609369224687
30
0
41
1
10
9.52689773063437
20
-9.96555104954717
30
0
41
1
10
9.99339492053332
20
-9.66974658600876
30
0
41
1
10
10.2988457258345
20
-9.45985805510642
30
0
41
1
10
10.9058664614764
20
-9.03040596877821
30
0
41
1
10
11.2074363318826
20
-8.81080994236277
30
0
41
1
10
11.8111754812263
20
-8.37203685606966
30
0
41
1
10
12.1133360883673
20
-8.15286624209438
30
0
41
1
10
12.4167255104682
20
-7.93634484870557
30
0
0
SPLINE
5
178
100
AcDbEntity
8
1
62
256
6
ByLayer
370
18
48
1
60
0
100
AcDbSpline
70
4
71
3
72
14
73
10
40
0
40
0
40
0
40
0
40
0.293061820317419
40
0.293061820317419
40
0.586123640634838
40
0.586123640634838
40
0.879185460952258
40
0.879185460952258
40
1
40
1
40
1
40
1
41
1
10
162.87949548387
20
-6.95059335940368
30
0
41
1
10
163.369316498877
20
-6.97711952989701
30
0
41
1
10
163.859526393034
20
-6.99292110698718
30
0
41
1
10
164.839833360126
20
-7.00329087897231
30
0
41
1
10
165.329729040846
20
-6.99781938502196
30
0
41
1
10
166.309475985668
20
-6.96546526503829
30
0
41
1
10
166.799599960842
20
-6.93865979408994
30
0
41
1
10
167.491810862013
20
-6.88599324168305
30
0
41
1
10
167.693871940606
20
-6.86883560045572
30
0
41
1
10
167.89592143646
20
-6.8499005971527
30
0
0
SPLINE
5
179
100
AcDbEntity
8
1
62
256
6
ByLayer
370
18
48
1
60
0
100
AcDbSpline
70
4
71
3
72
8
73
4
40
0
40
0
40
0
40
0
40
1
40
1
40
1
40
1
41
1
10
168.692185635331
20
-6.76587001397436
30
0
41
1
10
168.714695109829
20
-6.76324207295158
30
0
41
1
10
168.737208036369
20
-6.76059418985307
30
0
41
1
10
168.759725133452
20
-6.7579267707209
30
0
0
SPLINE
5
17A
100
AcDbEntity
8
1
62
256
6
ByLayer
370
18
48
1
60
0
100
AcDbSpline
70
4
71
3
72
8
73
4
40
0
40
0
40
0
40
0
40
1
40
1
40
1
40
1
41
1
10
150.137630746674
20
-3.00541531668819
30
0
41
1
10
150.38318930917
20
-3.06025402131218
30
0
41
1
10
150.628725887867
20
-3.11485650362999
30
0
41
1
10
150.874234313201
20
-3.16921643834297
30
0
0
SPLINE
5
17B
100
AcDbEntity
8
1
62
256
6
ByLayer
370
18
48
1
60
0
100
AcDbSpline
70
4
71
3
72
42
73
38
40
0
40
0
40
0
40
0
40
0.0637193505781765
40
0.0637193505781765
40
0.139485522533952
40
0.139485522533952
40
0.215251694489727
40
0.215251694489727
40
0.291017866445502
40
0.291017866445502
40
0.366784038401277
40
0.366784038401277
40
0.404667124379164
40
0.404667124379164
40
0.442550210357051
40
0.442550210357051
40
0.518316382312826
40
0.518316382312826
40
0.556199468290714
40
0.556199468290714
40
0.594082554268601
40
0.594082554268601
40
0.669848726224376
40
0.669848726224376
40
0.74561489818015
40
0.74561489818015
40
0.783497984158038
40
0.783497984158038
40
0.821381070135926
40
0.821381070135926
40
0.897147242091701
40
0.897147242091701
40
0.935030328069588
40
0.935030328069588
40
0.972913414047476
40
0.972913414047476
40
1
40
1
40
1
40
1
41
1
10
86.5882314191767
20
-4.52552521067264
30
0
41
1
10
85.4166225897868
20
-4.76034161892275
30
0
41
1
10
84.2456640880777
20
-4.97163798391242
30
0
41
1
10
81.6800471967238
20
-5.37358751015307
30
0
41
1
10
80.283556292015
20
-5.55274667356733
30
0
41
1
10
77.4949035907931
20
-5.82761640003437
30
0
41
1
10
76.1019006009611
20
-5.92333344211499
30
0
41
1
10
73.3146772958419
20
-6.0338902634131
30
0
41
1
10
71.9199302403038
20
-6.04867817252855
30
0
41
1
10
69.1344629205497
20
-5.99233294332942
30
0
41
1
10
67.7423771431107
20
-5.92114641645003
30
0
41
1
10
65.6508793794839
20
-5.75025885166784
30
0
41
1
10
64.9528573292
20
-5.68257599734676
30
0
41
1
10
63.5581875860493
20
-5.52663972626448
30
0
41
1
10
62.8612491915859
20
-5.43845254998499
30
0
41
1
10
60.7708663376834
20
-5.1447713714619
30
0
41
1
10
59.377815177632
20
-4.90999994782075
30
0
41
1
10
57.2861904933994
20
-4.50821274571763
30
0
41
1
10
56.5890286915224
20
-4.36608771651083
30
0
41
1
10
55.1959744968818
20
-4.06708204735131
30
0
41
1
10
54.4997990279086
20
-3.91020265218171
30
0
41
1
10
52.4111756680674
20
-3.4197814978611
30
0
41
1
10
51.0180375048993
20
-3.06625995279649
30
0
41
1
10
48.2278703061725
20
-2.32159918040159
30
0
41
1
10
46.8344750190502
20
-1.93125920241994
30
0
41
1
10
44.7440624388687
20
-1.32836897593845
30
0
41
1
10
44.0471965472562
20
-1.12452969921608
30
0
41
1
10
42.6528611489879
20
-0.712880477773552
30
0
41
1
10
41.9550799213805
20
-0.504979948257954
30
0
41
1
10
39.8639638905696
20
0.121070395337711
30
0
41
1
10
38.4721035398342
20
0.542041292021452
30
0
41
1
10
36.3830937312603
20
1.16342352483363
30
0
41
1
10
35.686544953817
20
1.36883914302967
30
0
41
1
10
34.2922634873659
20
1.77371008966316
30
0
41
1
10
33.5947854234849
20
1.9730863546211
30
0
41
1
10
32.3995744136275
20
2.30717534533079
30
0
41
1
10
31.9013896471636
20
2.4441563776536
30
0
41
1
10
31.4032272818117
20
2.57859921737668
30
0
0
SPLINE
5
17C
100
AcDbEntity
8
1
62
256
6
ByLayer
370
18
48
1
60
0
100
AcDbSpline
70
4
71
3
72
16
73
12
40
0
40
0
40
0
40
0
40
0.249999999999995
40
0.249999999999995
40
0.49999999999999
40
0.49999999999999
40
0.624999999999992
40
0.624999999999992
40
0.749999999999995
40
0.749999999999995
40
1
40
1
40
1
40
1
41
1
10
12.4979239355328
20
-4.16749263077486
30
0
41
1
10
12.7540571057543
20
-4.04032422848661
30
0
41
1
10
13.0201196348154
20
-3.91844746079201
30
0
41
1
10
13.5717629851322
20
-3.69149043513664
30
0
41
1
10
13.857331600939
20
-3.58637913306214
30
0
41
1
10
14.3017860246726
20
-3.44821695243857
30
0
41
1
10
14.4529526930923
20
-3.40539882177134
30
0
41
1
10
14.7562701338128
20
-3.32901557884819
30
0
41
1
10
14.9089611824889
20
-3.29526219851786
30
0
41
1
10
15.3703859079581
20
-3.20928020551762
30
0
41
1
10
15.6824299897128
20
-3.17209596688474
30
0
41
1
10
15.9999999999996
20
-3.16245358396643
30
0
0
SPLINE
5
17D
100
AcDbEntity
8
1
62
256
6
ByLayer
370
18
48
1
60
0
100
AcDbSpline
70
4
71
3
72
8
73
4
40
0
40
0
40
0
40
0
40
1
40
1
40
1
40
1
41
1
10
12.4979239355327
20
7.87802161878884
30
0
41
1
10
12.486043249782
20
7.88661042777267
30
0
41
1
10
12.4741548525251
20
7.8951804150081
30
0
41
1
10
12.4622588185877
20
7.90373168342069
30
0
0
SPLINE
5
17E
100
AcDbEntity
8
1
62
256
6
ByLayer
370
18
48
1
60
0
100
AcDbSpline
70
4
71
3
72
18
73
14
40
0
40
0
40
0
40
0
40
0.284575999359267
40
0.284575999359267
40
0.426863999038901
40
0.426863999038901
40
0.569151998718535
40
0.569151998718535
40
0.853727998077802
40
0.853727998077802
40
0.996015997757433
40
0.996015997757433
40
1
40
1
40
1
40
1
41
1
10
149.794414771039
20
4.78341457812681
30
0
41
1
10
148.431041328152
20
5.08527821499439
30
0
41
1
10
147.069037203491
20
5.35239137789529
30
0
41
1
10
145.025846260808
20
5.69557408164499
30
0
41
1
10
144.344653133445
20
5.80057290903764
30
0
41
1
10
142.981569508554
20
5.99158665431614
30
0
41
1
10
142.299288610456
20
6.07757608429588
30
0
41
1
10
140.254198545563
20
6.30535417136738
30
0
41
1
10
138.894443711949
20
6.41686126575772
30
0
41
1
10
136.854023035624
20
6.51201737614059
30
0
41
1
10
136.173745824596
20
6.53196568200994
30
0
41
1
10
135.473767618266
20
6.54086455578326
30
0
41
1
10
135.454701645447
20
6.54109803193774
30
0
41
1
10
135.435634998347
20
6.54132261475573
30
0
0
SPLINE
5
17F
100
AcDbEntity
8
1
62
256
6
ByLayer
370
18
48
1
60
0
100
AcDbSpline
70
4
71
3
72
54
73
50
40
0
40
0
40
0
40
0
40
0.0080855580717351
40
0.0080855580717351
40
0.0381435714635002
40
0.0381435714635002
40
0.0682015848552653
40
0.0682015848552653
40
0.0982595982470305
40
0.0982595982470305
40
0.158375625030562
40
0.158375625030562
40
0.218491651814093
40
0.218491651814093
40
0.248549665205859
40
0.248549665205859
40
0.278607678597625
40
0.278607678597625
40
0.338723705381156
40
0.338723705381156
40
0.368781718772922
40
0.368781718772922
40
0.398839732164687
40
0.398839732164687
40
0.458955758948219
40
0.458955758948219
40
0.489013772339985
40
0.489013772339985
40
0.51907178573175
40
0.51907178573175
40
0.549129799123516
40
0.549129799123516
40
0.579187812515281
40
0.579187812515281
40
0.639303839298812
40
0.639303839298812
40
0.699419866082344
40
0.699419866082344
40
0.759535892865875
40
0.759535892865875
40
0.819651919649406
40
0.819651919649406
40
0.849709933041172
40
0.849709933041172
40
0.879767946432937
40
0.879767946432937
40
0.939883973216469
40
0.939883973216469
40
1
40
1
40
1
40
1
41
1
10
87.0529515543038
20
-4.63734242710669
30
0
41
1
10
86.870288963802
20
-4.67955589224354
30
0
41
1
10
86.6876111520408
20
-4.72116617214695
30
0
41
1
10
85.8257119222497
20
-4.91448873679386
30
0
41
1
10
85.1461347240129
20
-5.05822043054096
30
0
41
1
10
83.7852686772766
20
-5.32724749495387
30
0
41
1
10
83.1034081862084
20
-5.45260565835417
30
0
41
1
10
81.740485642751
20
-5.68351005422358
30
0
41
1
10
81.0595421345099
20
-5.78907759445164
30
0
41
1
10
79.0176909375643
20
-6.0757014402038
30
0
41
1
10
77.6578333068441
20
-6.22624027093423
30
0
41
1
10
74.9372226203582
20
-6.44548467940268
30
0
41
1
10
73.5768123589884
20
-6.51465880842647
30
0
41
1
10
71.5321652953826
20
-6.5501748519635
30
0
41
1
10
70.8515977151995
20
-6.55051971614046
30
0
41
1
10
69.4918074845245
20
-6.52726554171497
30
0
41
1
10
68.8125402702725
20
-6.50359959457666
30
0
41
1
10
66.7749088404958
20
-6.39940917905574
30
0
41
1
10
65.4165526307237
20
-6.28580952185021
30
0
41
1
10
63.3754589040215
20
-6.05517852039946
30
0
41
1
10
62.6945655215395
20
-5.96814384006893
30
0
41
1
10
61.3313019116883
20
-5.77403038239814
30
0
41
1
10
60.6489600092372
20
-5.66685611437993
30
0
41
1
10
58.6057035778677
20
-5.31837456652636
30
0
41
1
10
57.2465412650868
20
-5.04942526007477
30
0
41
1
10
55.2090992206493
20
-4.59421788599525
30
0
41
1
10
54.5301109452827
20
-4.43390529544959
30
0
41
1
10
53.1715478083623
20
-4.09732365561609
30
0
41
1
10
52.4919703011225
20
-3.92090632888832
30
0
41
1
10
51.1311716026807
20
-3.55503827342236
30
0
41
1
10
50.4493721944121
20
-3.36551636545212
30
0
41
1
10
49.0869777475878
20
-2.97748754243858
30
0
41
1
10
48.4062728728593
20
-2.7789945779206
30
0
41
1
10
46.3648548311718
20
-2.17257153169064
30
0
41
1
10
45.0049775821373
20
-1.75323307424591
30
0
41
1
10
42.2840216579626
20
-0.894609856317715
30
0
41
1
10
40.9227048793078
20
-0.455315932538355
30
0
41
1
10
38.19634637531
20
0.431479928922499
30
0
41
1
10
36.8371711975554
20
0.876379998299257
30
0
41
1
10
34.1199178872401
20
1.74604801661212
30
0
41
1
10
32.7614047684799
20
2.16994748579492
30
0
41
1
10
30.7191785936145
20
2.77677282789898
30
0
41
1
10
30.0375197503065
20
2.97445071000772
30
0
41
1
10
28.6734778695987
20
3.35910621551616
30
0
41
1
10
27.992196559631
20
3.54574935346014
30
0
41
1
10
25.9499260846679
20
4.08681496698401
30
0
41
1
10
24.5904999454151
20
4.42275393932493
30
0
41
1
10
21.8719438613628
20
5.03628867852512
30
0
41
1
10
20.5127649006886
20
5.31330697570061
30
0
41
1
10
19.1500000000505
20
5.55019596815617
30
0
0
SPLINE
5
180
100
AcDbEntity
8
1
62
256
6
ByLayer
370
18
48
1
60
0
100
AcDbSpline
70
4
71
3
72
8
73
4
40
0
40
0
40
0
40
0
40
1
40
1
40
1
40
1
41
1
10
170.918337581518
20
-0.236587162311309
30
0
41
1
10
170.944471798631
20
-0.139903487842048
30
0
41
1
10
170.967575660883
20
-0.0445289409622092
30
0
41
1
10
170.988057002729
20
0.0497126647366599
30
0
0
SPLINE
5
181
100
AcDbEntity
8
1
62
256
6
ByLayer
370
18
48
1
60
0
100
AcDbSpline
70
4
71
3
72
16
73
12
40
0
40
0
40
0
40
0
40
0.249999999999995
40
0.249999999999995
40
0.499999999999991
40
0.499999999999991
40
0.624999999999988
40
0.624999999999988
40
0.749999999999986
40
0.749999999999986
40
1
40
1
40
1
40
1
41
1
10
14.4214746275296
20
-6.74555274089263
30
0
41
1
10
14.5134939755816
20
-6.68751837782142
30
0
41
1
10
14.6194247508674
20
-6.62590484708264
30
0
41
1
10
14.8496685050881
20
-6.50741214621416
30
0
41
1
10
14.9746038200483
20
-6.45002703780412
30
0
41
1
10
15.17653171091
20
-6.3709852483768
30
0
41
1
10
15.2465324760041
20
-6.34573518859406
30
0
41
1
10
15.3892542213056
20
-6.2989739082274
30
0
41
1
10
15.4621427393524
20
-6.27738073373357
30
0
41
1
10
15.6852070370898
20
-6.2186464870461
30
0
41
1
10
15.8397525230863
20
-6.18753768917017
30
0
41
1
10
16
20
-6.16632678461983
30
0
0
SPLINE
5
182
100
AcDbEntity
8
1
62
256
6
ByLayer
370
18
48
1
60
0
100
AcDbSpline
70
4
71
3
72
14
73
10
40
0
40
0
40
0
40
0
40
0.274453468999253
40
0.274453468999253
40
0.637226734499635
40
0.637226734499635
40
0.818613367249818
40
0.818613367249818
40
1
40
1
40
1
40
1
41
1
10
164.707631753154
20
6.99999732076068
30
0
41
1
10
165.078369394502
20
6.99999219433113
30
0
41
1
10
165.448992309423
20
6.99388096181823
30
0
41
1
10
166.309475985677
20
6.96546526503957
30
0
41
1
10
166.799599960849
20
6.93865979409162
30
0
41
1
10
167.53482165985
20
6.88272078464084
30
0
41
1
10
167.779892583279
20
6.86145048974359
30
0
41
1
10
168.269994366597
20
6.81368481914598
30
0
41
1
10
168.514612652355
20
6.78696327215832
30
0
41
1
10
168.759725133452
20
6.75792677072133
30
0
0
SPLINE
5
183
100
AcDbEntity
8
1
62
256
6
ByLayer
370
18
48
1
60
0
100
AcDbSpline
70
4
71
3
72
16
73
12
40
0
40
0
40
0
40
0
40
0.249999999999991
40
0.249999999999991
40
0.499999999999982
40
0.499999999999982
40
0.749999999999972
40
0.749999999999972
40
0.874999999999986
40
0.874999999999986
40
1
40
1
40
1
40
1
41
1
10
152.67215624715
20
-5.16537405822368
30
0
41
1
10
152.807465325559
20
-5.1920997869361
30
0
41
1
10
152.939987749351
20
-5.22503934840915
30
0
41
1
10
153.199209307072
20
-5.30290372666926
30
0
41
1
10
153.323047984657
20
-5.34698524809102
30
0
41
1
10
153.558392507425
20
-5.44333731545717
30
0
41
1
10
153.67010881593
20
-5.49567953782505
30
0
41
1
10
153.828646557701
20
-5.5793724772721
30
0
41
1
10
153.880189389479
20
-5.60826316483983
30
0
41
1
10
153.978913709944
20
-5.6668368587741
30
0
41
1
10
154.026120661324
20
-5.69651462743599
30
0
41
1
10
154.071252302623
20
-5.72646163275428
30
0
0
SPLINE
5
184
100
AcDbEntity
8
1
62
256
6
ByLayer
370
18
48
1
60
0
100
AcDbSpline
70
4
71
3
72
8
73
4
40
0
40
0
40
0
40
0
40
1
40
1
40
1
40
1
41
1
10
162.467349444533
20
-6.61658332252352
30
0
41
1
10
162.467349444534
20
-6.59474872659555
30
0
41
1
10
162.462684307692
20
-6.57164308911354
30
0
41
1
10
162.453630083106
20
-6.54734134544833
30
0
0
SPLINE
5
185
100
AcDbEntity
8
1
62
256
6
ByLayer
370
18
48
1
60
0
100
AcDbSpline
70
4
71
3
72
20
73
16
40
0
40
0
40
0
40
0
40
0.249999999999999
40
0.249999999999999
40
0.312499999999999
40
0.312499999999999
40
0.374999999999999
40
0.374999999999999
40
0.499999999999999
40
0.499999999999999
40
0.625
40
0.625
40
0.75
40
0.75
40
1
40
1
40
1
40
1
41
1
10
162.33
20
1.94999999999999
30
0
41
1
10
162.33
20
2.1282082961267
30
0
41
1
10
162.33
20
2.33977682893092
30
0
41
1
10
162.33
20
2.64449504018606
30
0
41
1
10
162.33
20
2.70747928582543
30
0
41
1
10
162.33
20
2.83760478407993
30
0
41
1
10
162.33
20
2.90498276466843
30
0
41
1
10
162.33
20
3.11115037981546
30
0
41
1
10
162.33
20
3.25417836261914
30
0
41
1
10
162.33
20
3.55106165828235
30
0
41
1
10
162.33
20
3.70491768791311
30
0
41
1
10
162.33
20
4.02359553680284
30
0
41
1
10
162.33
20
4.18949252193107
30
0
41
1
10
162.33
20
4.69371871730647
30
0
41
1
10
162.33
20
5.0395085775624
30
0
41
1
10
162.33
20
5.39510350753295
30
0
0
SPLINE
5
186
100
AcDbEntity
8
1
62
256
6
ByLayer
370
18
48
1
60
0
100
AcDbSpline
70
4
71
3
72
54
73
50
40
0
40
0
40
0
40
0
40
0.0231970502909737
40
0.0231970502909737
40
0.0523753909165736
40
0.0523753909165736
40
0.0815537315421734
40
0.0815537315421734
40
0.110732072167773
40
0.110732072167773
40
0.139910412793373
40
0.139910412793373
40
0.198267094044573
40
0.198267094044573
40
0.227445434670173
40
0.227445434670173
40
0.256623775295774
40
0.256623775295774
40
0.314980456546973
40
0.314980456546973
40
0.373337137798173
40
0.373337137798173
40
0.431693819049372
40
0.431693819049372
40
0.490050500300572
40
0.490050500300572
40
0.519228840926172
40
0.519228840926172
40
0.548407181551771
40
0.548407181551771
40
0.606763862802969
40
0.606763862802969
40
0.635942203428567
40
0.635942203428567
40
0.665120544054166
40
0.665120544054166
40
0.723477225305364
40
0.723477225305364
40
0.781833906556561
40
0.781833906556561
40
0.840190587807759
40
0.840190587807759
40
0.898547269058956
40
0.898547269058956
40
0.927725609684555
40
0.927725609684555
40
0.956903950310155
40
0.956903950310155
40
1
40
1
40
1
40
1
41
1
10
114.798560209064
20
-6.54958483289172
30
0
41
1
10
114.262009706335
20
-6.60278953444001
30
0
41
1
10
113.725664466677
20
-6.64906851511785
30
0
41
1
10
112.51471990223
20
-6.73757792712283
30
0
41
1
10
111.840136550331
20
-6.77574602714714
30
0
41
1
10
110.490909661692
20
-6.82951717672069
30
0
41
1
10
109.816278372179
20
-6.84508267735077
30
0
41
1
10
108.465980223559
20
-6.85293138258402
30
0
41
1
10
107.789860518956
20
-6.84518129859649
30
0
41
1
10
106.439493446887
20
-6.80646804067933
30
0
41
1
10
105.764863674302
20
-6.77553468605015
30
0
41
1
10
103.741162315987
20
-6.64919418563531
30
0
41
1
10
102.392135401603
20
-6.52063162720361
30
0
41
1
10
100.367101115925
20
-6.26330696988961
30
0
41
1
10
99.691767362079
20
-6.16679945107248
30
0
41
1
10
98.3396555125253
20
-5.95315239291017
30
0
41
1
10
97.6632624728497
20
-5.83608262590525
30
0
41
1
10
95.6371103571588
20
-5.45687575923523
30
0
41
1
10
94.2884351604337
20
-5.16655231673082
30
0
41
1
10
91.5921445044116
20
-4.5156854983382
30
0
41
1
10
90.24369137819
20
-4.15545123049336
30
0
41
1
10
87.5399453368875
20
-3.38637293456935
30
0
41
1
10
86.1899649327985
20
-2.98051920218322
30
0
41
1
10
83.4912060121344
20
-2.13397388168994
30
0
41
1
10
82.1424762500768
20
-1.69301703456327
30
0
41
1
10
80.1156620117408
20
-1.01835230980384
30
0
41
1
10
79.4388872321878
20
-0.791134204407086
30
0
41
1
10
78.0869800181155
20
-0.335165570002374
30
0
41
1
10
77.4117674186423
20
-0.106313046886413
30
0
41
1
10
75.3880576730341
20
0.581927599037016
30
0
41
1
10
74.041298351818
20
1.04237586104463
30
0
41
1
10
72.0181835734264
20
1.71612440944332
30
0
41
1
10
71.3432935376208
20
1.93783123425408
30
0
41
1
10
69.9916219054034
20
2.37305051868168
30
0
41
1
10
69.3147848765071
20
2.58642918746483
30
0
41
1
10
67.2878348075675
20
3.2120821759643
30
0
41
1
10
65.9391654977404
20
3.61059197659046
30
0
41
1
10
63.2410223395114
20
4.35458754253335
30
0
41
1
10
61.8912161615917
20
4.69939933324341
30
0
41
1
10
59.1864090754365
20
5.32552675106683
30
0
41
1
10
57.8379963428676
20
5.60617916312313
30
0
41
1
10
55.1422488422307
20
6.08639408545338
30
0
41
1
10
53.7942662861212
20
6.28559534512607
30
0
41
1
10
51.7675330471413
20
6.51873524048017
30
0
41
1
10
51.0908683644347
20
6.5858058981506
30
0
41
1
10
49.7385837208281
20
6.69773498801484
30
0
41
1
10
49.0632185787067
20
6.74256466806582
30
0
41
1
10
47.3913200034565
20
6.82552366165743
30
0
41
1
10
46.3951350792163
20
6.85021479573533
30
0
41
1
10
45.3987127596544
20
6.84999567889017
30
0
0
SPLINE
5
187
100
AcDbEntity
8
1
62
256
6
ByLayer
370
18
48
1
60
0
100
AcDbSpline
70
4
71
1
72
4
73
2
40
0
40
0
40
1
40
1
41
1
10
166.360382226913
20
0.834954127095983
30
0
41
1
10
166.356686957395
20
0.83904473751042
30
0
0
SPLINE
5
188
100
AcDbEntity
8
1
62
256
6
ByLayer
370
18
48
1
60
0
100
AcDbSpline
70
4
71
3
72
8
73
4
40
0
40
0
40
0
40
0
40
1
40
1
40
1
40
1
41
1
10
164.893456393476
20
0.468418155297286
30
0
41
1
10
164.938624253355
20
0.46712909493607
30
0
41
1
10
164.983792078043
20
0.466064664312341
30
0
41
1
10
165.028959872426
20
0.465223991622281
30
0
0
SPLINE
5
189
100
AcDbEntity
8
1
62
256
6
ByLayer
370
18
48
1
60
0
100
AcDbSpline
70
4
71
3
72
8
73
4
40
0
40
0
40
0
40
0
40
1
40
1
40
1
40
1
41
1
10
162.467349444533
20
-6.6165833225231
30
0
41
1
10
162.467349444533
20
-6.68521645643403
30
0
41
1
10
162.467349444533
20
-6.73878803887621
30
0
41
1
10
162.467349444533
20
-6.77730749377832
30
0
0
SPLINE
5
18A
100
AcDbEntity
8
1
62
256
6
ByLayer
370
18
48
1
60
0
100
AcDbSpline
70
4
71
3
72
8
73
4
40
0
40
0
40
0
40
0
40
1
40
1
40
1
40
1
41
1
10
16
20
-3.16245358396873
30
0
41
1
10
16.3467526369124
20
-3.16482792826449
30
0
41
1
10
16.6921546332293
20
-3.1872316289296
30
0
41
1
10
17.0362033352901
20
-3.22992348485579
30
0
0
SPLINE
5
18B
100
AcDbEntity
8
1
62
256
6
ByLayer
370
18
48
1
60
0
100
AcDbSpline
70
4
71
3
72
16
73
12
40
0
40
0
40
0
40
0
40
0.0345392238032527
40
0.0345392238032527
40
0.227631379042607
40
0.227631379042607
40
0.613815689521308
40
0.613815689521308
40
0.806907844760654
40
0.806907844760654
40
1
40
1
40
1
40
1
41
1
10
156.541088046356
20
3.35707499853822
30
0
41
1
10
156.64031189484
20
3.32997995122892
30
0
41
1
10
156.739536500199
20
3.30271775790396
30
0
41
1
10
157.393489456231
20
3.12196255156985
30
0
41
1
10
157.948520489433
20
2.96335423143157
30
0
41
1
10
159.612330454234
20
2.47342554636626
30
0
41
1
10
160.719052869953
20
2.12821548171479
30
0
41
1
10
162.377780887861
20
1.58785376493756
30
0
41
1
10
162.930474559534
20
1.40396097560208
30
0
41
1
10
164.035951727063
20
1.02975451747105
30
0
41
1
10
164.588675931553
20
0.83955881320739
30
0
41
1
10
165.14058540434
20
0.647238322535941
30
0
0
SPLINE
5
18C
100
AcDbEntity
8
1
62
256
6
ByLayer
370
18
48
1
60
0
100
AcDbSpline
70
4
71
3
72
10
73
6
40
0
40
0
40
0
40
0
40
0.5
40
0.5
40
1
40
1
40
1
40
1
41
1
10
14.4214746275288
20
-6.74555274089298
30
0
41
1
10
14.2595663100665
20
-6.8159934793733
30
0
41
1
10
14.1063463187666
20
-6.89093710774094
30
0
41
1
10
13.8154610868537
20
-7.04462278784032
30
0
41
1
10
13.6775658299945
20
-7.12353052668036
30
0
41
1
10
13.547423187136
20
-7.20158944194819
30
0
0
SPLINE
5
18D
100
AcDbEntity
8
1
62
256
6
ByLayer
370
18
48
1
60
0
100
AcDbSpline
70
4
71
3
72
10
73
6
40
0
40
0
40
0
40
0
40
0.710641747316786
40
0.710641747316786
40
1
40
1
40
1
40
1
41
1
10
162.467349444533
20
-6.77730749377835
30
0
41
1
10
162.99565717143
20
-6.81169191288694
30
0
41
1
10
163.524441625402
20
-6.8338175059499
30
0
41
1
10
164.268447864606
20
-6.84788228555396
30
0
41
1
10
164.483758634445
20
-6.84994781617345
30
0
41
1
10
164.699056034128
20
-6.84999959031489
30
0
0
SPLINE
5
18E
100
AcDbEntity
8
1
62
256
6
ByLayer
370
18
48
1
60
0
100
AcDbSpline
70
4
71
3
72
16
73
12
40
0
40
0
40
0
40
0
40
0.249999999999998
40
0.249999999999998
40
0.499999999999995
40
0.499999999999995
40
0.624999999999996
40
0.624999999999996
40
0.749999999999998
40
0.749999999999998
40
1
40
1
40
1
40
1
41
1
10
168.618776988037
20
-3.64811626825517
30
0
41
1
10
168.506705264448
20
-3.296390700431
30
0
41
1
10
168.39720963302
20
-2.94388514310285
30
0
41
1
10
168.184735168056
20
-2.23690087157314
30
0
41
1
10
168.083440607329
20
-1.88181865127194
30
0
41
1
10
167.938637947723
20
-1.34735284543308
30
0
41
1
10
167.892376984514
20
-1.1687335189954
30
0
41
1
10
167.80195772454
20
-0.81100858899319
30
0
41
1
10
167.758542143215
20
-0.631731219939752
30
0
41
1
10
167.634474427843
20
-0.0924701080581087
30
0
41
1
10
167.558690552446
20
0.268639501801545
30
0
41
1
10
167.494775935839
20
0.632494078214194
30
0
0
SPLINE
5
18F
100
AcDbEntity
8
1
62
256
6
ByLayer
370
18
48
1
60
0
100
AcDbSpline
70
4
71
3
72
54
73
50
40
0
40
0
40
0
40
0
40
0.0353032208099665
40
0.0353032208099665
40
0.0753753645171475
40
0.0753753645171475
40
0.115447508224329
40
0.115447508224329
40
0.155519651931509
40
0.155519651931509
40
0.19559179563869
40
0.19559179563869
40
0.235663939345871
40
0.235663939345871
40
0.275736083053052
40
0.275736083053052
40
0.315808226760233
40
0.315808226760233
40
0.355880370467414
40
0.355880370467414
40
0.395952514174595
40
0.395952514174595
40
0.436024657881777
40
0.436024657881777
40
0.476096801588957
40
0.476096801588957
40
0.516168945296138
40
0.516168945296138
40
0.556241089003319
40
0.556241089003319
40
0.5963132327105
40
0.5963132327105
40
0.636385376417682
40
0.636385376417682
40
0.676457520124863
40
0.676457520124863
40
0.716529663832044
40
0.716529663832044
40
0.756601807539225
40
0.756601807539225
40
0.836746094953587
40
0.836746094953587
40
0.876818238660768
40
0.876818238660768
40
0.916890382367949
40
0.916890382367949
40
0.997034669782311
40
0.997034669782311
40
1
40
1
40
1
40
1
41
1
10
88.006599655809
20
4.41284326422772
30
0
41
1
10
88.621957705253
20
4.53669425690524
30
0
41
1
10
89.2373425327866
20
4.65420434833237
30
0
41
1
10
90.5500608077547
20
4.88907679639604
30
0
41
1
10
91.2475812923345
20
5.00425630642292
30
0
41
1
10
92.6425360947144
20
5.21570674355399
30
0
41
1
10
93.3399954498609
20
5.31158489650912
30
0
41
1
10
94.7351390776242
20
5.48785274331382
30
0
41
1
10
95.4329465646885
20
5.56883175967028
30
0
41
1
10
96.8285937780968
20
5.71154939526255
30
0
41
1
10
97.5258140846705
20
5.773198611937
30
0
41
1
10
98.9198335005734
20
5.87349076575785
30
0
41
1
10
99.6166524374016
20
5.91205891626245
30
0
41
1
10
101.010750576261
20
5.96657454022122
30
0
41
1
10
101.708057845551
20
5.98212714103875
30
0
41
1
10
103.103619490304
20
5.99390066211609
30
0
41
1
10
103.802152762779
20
5.99065343947223
30
0
41
1
10
105.197992058238
20
5.96229458657231
30
0
41
1
10
105.895441636454
20
5.93717934576921
30
0
41
1
10
107.289987662323
20
5.86334891296696
30
0
41
1
10
107.98710425181
20
5.81458246178551
30
0
41
1
10
109.381640681371
20
5.69570078996426
30
0
41
1
10
110.079092257149
20
5.62522211302982
30
0
41
1
10
111.474538312053
20
5.46758433625303
30
0
41
1
10
112.172363284424
20
5.38089127201695
30
0
41
1
10
113.566619034399
20
5.18909104217343
30
0
41
1
10
114.263332773838
20
5.08394424231329
30
0
41
1
10
115.656772388641
20
4.8542313084107
30
0
41
1
10
116.353519400759
20
4.72964475252567
30
0
41
1
10
117.74789567753
20
4.46352555535532
30
0
41
1
10
118.445628597576
20
4.32173547280254
30
0
41
1
10
119.84212514294
20
4.02507922254526
30
0
41
1
10
120.539982813571
20
3.87065891569296
30
0
41
1
10
121.935140231559
20
3.54824652095536
30
0
41
1
10
122.632447697914
20
3.38026204574061
30
0
41
1
10
124.02713488923
20
3.03132872087116
30
0
41
1
10
124.724536196383
20
2.85039905598836
30
0
41
1
10
126.120028614391
20
2.47837291086489
30
0
41
1
10
126.818459306779
20
2.28708795508715
30
0
41
1
10
128.912175233798
20
1.70324497986874
30
0
41
1
10
130.305748641691
20
1.299948652079
30
0
41
1
10
132.397010565495
20
0.683479614002266
30
0
41
1
10
133.094316155171
20
0.47631811043621
30
0
41
1
10
134.490171782433
20
0.0615864154426333
30
0
41
1
10
135.188735133785
20
-0.145913374721999
30
0
41
1
10
137.282717114527
20
-0.764831057672751
30
0
41
1
10
138.677671684125
20
-1.17459830540363
30
0
41
1
10
140.125184348629
20
-1.58811440948656
30
0
41
1
10
140.176832893316
20
-1.60285193909434
30
0
41
1
10
140.228483214805
20
-1.61757252456491
30
0
0
SPLINE
5
190
100
AcDbEntity
8
1
62
256
6
ByLayer
370
18
48
1
60
0
100
AcDbSpline
70
4
71
3
72
8
73
4
40
0
40
0
40
0
40
0
40
1
40
1
40
1
40
1
41
1
10
162.1
20
1.67197218472228
30
0
41
1
10
162.146890626492
20
1.66878280094284
30
0
41
1
10
162.193782908893
20
1.66561766904053
30
0
41
1
10
162.240676816766
20
1.66247690065555
30
0
0
SPLINE
5
191
100
AcDbEntity
8
1
62
256
6
ByLayer
370
18
48
1
60
0
100
AcDbSpline
70
4
71
3
72
10
73
6
40
0
40
0
40
0
40
0
40
0.333223309420902
40
0.686110019829076
40
1
40
1
40
1
40
1
41
1
10
159.27
20
-3.62540509904542
30
0
41
1
10
159.173737122059
20
-3.62540600552293
30
0
41
1
10
158.9755307616
20
-3.64239126938759
30
0
41
1
10
158.698041233165
20
-3.71558004518741
30
0
41
1
10
158.527721396142
20
-3.79277769531237
30
0
41
1
10
158.451995033612
20
-3.83441739891731
30
0
0
SPLINE
5
192
100
AcDbEntity
8
1
62
256
6
ByLayer
370
18
48
1
60
0
100
AcDbSpline
70
4
71
3
72
33
73
29
40
0
40
0
40
0
40
0
40
0.0356133071022997
40
0.0746784695965141
40
0.113594937507302
40
0.153626927841982
40
0.191571442000434
40
0.229510220792834
40
0.269584559880073
40
0.308496419731673
40
0.347599492920128
40
0.386501197213149
40
0.425593294382826
40
0.465700151811624
40
0.503508465254441
40
0.541396725947974
40
0.58163617055281
40
0.620643905128487
40
0.659706605109581
40
0.698627830080664
40
0.737738988433931
40
0.777781957034537
40
0.8156627287471
40
0.853525344075736
40
0.893551647706189
40
0.932646828758198
40
0.971533064571593
40
1
40
1
40
1
40
1
41
1
10
158.409848026116
20
-3.85840855178873
30
0
41
1
10
158.335899226396
20
-3.90196150373637
30
0
41
1
10
158.190591726854
20
-4.0039648964904
30
0
41
1
10
158.007582298968
20
-4.18575664081615
30
0
41
1
10
157.865708913271
20
-4.39387353637952
30
0
41
1
10
157.779324349801
20
-4.60901081720476
30
0
41
1
10
157.750713264988
20
-4.82132393337565
30
0
41
1
10
157.778859162436
20
-5.02326768065564
30
0
41
1
10
157.864838380087
20
-5.20935378356924
30
0
41
1
10
158.00643045841
20
-5.37275892453249
30
0
41
1
10
158.194493511315
20
-5.50752413411416
30
0
41
1
10
158.423822602131
20
-5.61355635010531
30
0
41
1
10
158.688292472724
20
-5.69037319164428
30
0
41
1
10
158.974128504791
20
-5.7360545102855
30
0
41
1
10
159.268689074124
20
-5.75062885305258
30
0
41
1
10
159.563651137927
20
-5.73629226942575
30
0
41
1
10
159.849927102581
20
-5.69077867852016
30
0
41
1
10
160.115018936344
20
-5.61399484739803
30
0
41
1
10
160.344333661795
20
-5.50819441785958
30
0
41
1
10
160.532891518622
20
-5.37337114659064
30
0
41
1
10
160.674726097926
20
-5.21010356117233
30
0
41
1
10
160.760930008902
20
-5.02388667499756
30
0
41
1
10
160.789252816954
20
-4.82231663743369
30
0
41
1
10
160.76100174961
20
-4.610288673751
30
0
41
1
10
160.674926098129
20
-4.39497870622787
30
0
41
1
10
160.533277642117
20
-4.1867856011535
30
0
41
1
10
160.36197569841
20
-4.0163506393308
30
0
41
1
10
160.233226290908
20
-3.92271619569681
30
0
41
1
10
160.175699643219
20
-3.88624710575954
30
0
0
SPLINE
5
193
100
AcDbEntity
8
1
62
256
6
ByLayer
370
18
48
1
60
0
100
AcDbSpline
70
4
71
3
72
11
73
7
40
0
40
0
40
0
40
0
40
0.0107847523499519
40
0.340377214654927
40
0.680070338595382
40
1
40
1
40
1
40
1
41
1
10
160.117968320889
20
-3.85130321401087
30
0
41
1
10
160.115301024265
20
-3.84976304985764
30
0
41
1
10
160.030932359891
20
-3.80136269835293
30
0
41
1
10
159.850717269059
20
-3.71792255056988
30
0
41
1
10
159.56478378986
20
-3.64241414969496
30
0
41
1
10
159.366278796096
20
-3.62540419241802
30
0
41
1
10
159.27
20
-3.62540509904542
30
0
0
SPLINE
5
194
100
AcDbEntity
8
1
62
256
6
ByLayer
370
18
48
1
60
0
100
AcDbSpline
70
4
71
3
72
16
73
12
40
0
40
0
40
0
40
0
40
0.250000000000009
40
0.250000000000009
40
0.500000000000018
40
0.500000000000018
40
0.750000000000028
40
0.750000000000028
40
0.875000000000014
40
0.875000000000014
40
1
40
1
40
1
40
1
41
1
10
152.67215624715
20
5.16537405822359
30
0
41
1
10
152.807465325558
20
5.19209978693601
30
0
41
1
10
152.93998774935
20
5.22503934840907
30
0
41
1
10
153.199209307072
20
5.30290372666914
30
0
41
1
10
153.323047984657
20
5.34698524809093
30
0
41
1
10
153.558392507425
20
5.44333731545711
30
0
41
1
10
153.67010881593
20
5.495679537825
30
0
41
1
10
153.828646557701
20
5.57937247727207
30
0
41
1
10
153.880189389479
20
5.6082631648398
30
0
41
1
10
153.978913709944
20
5.66683685877408
30
0
41
1
10
154.026120661324
20
5.69651462743596
30
0
41
1
10
154.071252302623
20
5.72646163275428
30
0
0
SPLINE
5
195
100
AcDbEntity
8
1
62
256
6
ByLayer
370
18
48
1
60
0
100
AcDbSpline
70
4
71
3
72
18
73
14
40
0
40
0
40
0
40
0
40
0.250000000000002
40
0.250000000000002
40
0.374999999999993
40
0.374999999999993
40
0.499999999999985
40
0.499999999999985
40
0.749999999999985
40
0.749999999999985
40
0.874999999999992
40
0.874999999999992
40
1
40
1
40
1
40
1
41
1
10
15.9616747502342
20
-5.69094557655353
30
0
41
1
10
15.8050841197207
20
-5.73462467827906
30
0
41
1
10
15.6550049027786
20
-5.79106754731089
30
0
41
1
10
15.4389930347511
20
-5.89333698339286
30
0
41
1
10
15.3685148809771
20
-5.93037545989677
30
0
41
1
10
15.230590159007
20
-6.01025721622619
30
0
41
1
10
15.1628740104802
20
-6.0532931773102
30
0
41
1
10
14.9663832118439
20
-6.18967168711168
30
0
41
1
10
14.8449661417467
20
-6.28955157605787
30
0
41
1
10
14.6761365435991
20
-6.45151979567601
30
0
41
1
10
14.6220889906527
20
-6.50754666863187
30
0
41
1
10
14.5184155401284
20
-6.62359813786838
30
0
41
1
10
14.4686311576024
20
-6.68383528094265
30
0
41
1
10
14.4214746275295
20
-6.74555274089263
30
0
0
SPLINE
5
196
100
AcDbEntity
8
1
62
256
6
ByLayer
370
18
48
1
60
0
100
AcDbSpline
70
4
71
3
72
16
73
12
40
0
40
0
40
0
40
0
40
0.250000000000001
40
0.250000000000001
40
0.500000000000001
40
0.500000000000001
40
0.624999999999999
40
0.624999999999999
40
0.749999999999996
40
0.749999999999996
40
1
40
1
40
1
40
1
41
1
10
19.1500000001703
20
0.290061553127941
30
0
41
1
10
19.1500000001717
20
0.0779934334070447
30
0
41
1
10
19.1685658881042
20
-0.134584183863666
30
0
41
1
10
19.2417993213068
20
-0.546586493775123
30
0
41
1
10
19.2962801500687
20
-0.747379218819361
30
0
41
1
10
19.4056397640533
20
-1.04070422829494
30
0
41
1
10
19.4469444190266
20
-1.13751690241372
30
0
41
1
10
19.5371760748845
20
-1.32443944124441
30
0
41
1
10
19.586236685997
20
-1.41501628447165
30
0
41
1
10
19.7449865310396
20
-1.67848014512492
30
0
41
1
10
19.8661457396931
20
-1.84316138750154
30
0
41
1
10
20.0031069221354
20
-1.99713100198082
30
0
0
SPLINE
5
197
100
AcDbEntity
8
1
62
256
6
ByLayer
370
18
48
1
60
0
100
AcDbSpline
70
4
71
3
72
8
73
4
40
0
40
0
40
0
40
0
40
1
40
1
40
1
40
1
41
1
10
167.494775946415
20
0.632494055564479
30
0
41
1
10
167.478635164248
20
0.724380664274747
30
0
41
1
10
167.464644033697
20
0.816494863781685
30
0
41
1
10
167.452086660701
20
0.90876078087814
30
0
0
SPLINE
5
198
100
AcDbEntity
8
1
62
256
6
ByLayer
370
18
48
1
60
0
100
AcDbSpline
70
4
71
3
72
8
73
4
40
0
40
0
40
0
40
0
40
1
40
1
40
1
40
1
41
1
10
168.618776988032
20
-3.64811626825625
30
0
41
1
10
168.688302672701
20
-3.56688746761873
30
0
41
1
10
168.757841952392
20
-3.4854256023965
30
0
41
1
10
168.827404968535
20
-3.40355681424685
30
0
0
SPLINE
5
199
100
AcDbEntity
8
1
62
256
6
ByLayer
370
18
48
1
60
0
100
AcDbSpline
70
4
71
3
72
8
73
4
40
0
40
0
40
0
40
0
40
1
40
1
40
1
40
1
41
1
10
168.64135549734
20
-6.83331476298446
30
0
41
1
10
168.683207430163
20
-6.8017636362151
30
0
41
1
10
168.739919381717
20
-6.72621774534835
30
0
41
1
10
168.811338905226
20
-6.60712842628908
30
0
0
SPLINE
5
19A
100
AcDbEntity
8
1
62
256
6
ByLayer
370
18
48
1
60
0
100
AcDbSpline
70
4
71
3
72
10
73
6
40
0
40
0
40
0
40
0
40
0.5
40
0.5
40
1
40
1
40
1
40
1
41
1
10
162.1
20
3.25
30
0
41
1
10
162.1
20
3.0553605647228
30
0
41
1
10
162.1
20
2.87637270307465
30
0
41
1
10
162.1
20
2.54790193910861
30
0
41
1
10
162.1
20
2.3984247337464
30
0
41
1
10
162.1
20
2.26420618165051
30
0
0
SPLINE
5
19B
100
AcDbEntity
8
1
62
256
6
ByLayer
370
18
48
1
60
0
100
AcDbSpline
70
4
71
3
72
8
73
4
40
0
40
0
40
0
40
0
40
1
40
1
40
1
40
1
41
1
10
162.33
20
-6.78275509974227
30
0
41
1
10
162.513518387744
20
-6.85512463626029
30
0
41
1
10
162.696673537293
20
-6.92607475748292
30
0
41
1
10
162.879495483891
20
-6.99552280567715
30
0
0
SPLINE
5
19C
100
AcDbEntity
8
1
62
256
6
ByLayer
370
18
48
1
60
0
100
AcDbSpline
70
4
71
3
72
8
73
4
40
0
40
0
40
0
40
0
40
1
40
1
40
1
40
1
41
1
10
162.1
20
3.25
30
0
41
1
10
162.166658904364
20
3.25
30
0
41
1
10
162.23332575847
20
3.25
30
0
41
1
10
162.3
20
3.25
30
0
0
SPLINE
5
19D
100
AcDbEntity
8
1
62
256
6
ByLayer
370
18
48
1
60
0
100
AcDbSpline
70
4
71
3
72
8
73
4
40
0
40
0
40
0
40
0
40
1
40
1
40
1
40
1
41
1
10
162.3
20
-6.44689847911383
30
0
41
1
10
162.266666666667
20
-6.47873501481314
30
0
41
1
10
162.233333333333
20
-6.51057155051248
30
0
41
1
10
162.2
20
-6.54240808621179
30
0
0
SPLINE
5
19E
100
AcDbEntity
8
1
62
256
6
ByLayer
370
18
48
1
60
0
100
AcDbSpline
70
4
71
3
72
8
73
4
40
0
40
0
40
0
40
0
40
1
40
1
40
1
40
1
41
1
10
162.203098248329
20
6.78773172065431
30
0
41
1
10
162.202065491646
20
6.78865213652131
30
0
41
1
10
162.201032742187
20
6.7895723843682
30
0
41
1
10
162.2
20
6.79049246413732
30
0
0
SPLINE
5
19F
100
AcDbEntity
8
1
62
256
6
ByLayer
370
18
48
1
60
0
100
AcDbSpline
70
4
71
3
72
8
73
4
40
0
40
0
40
0
40
0
40
1
40
1
40
1
40
1
41
1
10
152.633676940214
20
4.75754800340837
30
0
41
1
10
152.646618592553
20
4.89445954935394
30
0
41
1
10
152.659405891336
20
5.03039914304489
30
0
41
1
10
152.67215624715
20
5.16537405822356
30
0
0
SPLINE
5
1A0
100
AcDbEntity
8
SK1
62
256
6
ByLayer
370
18
48
1
60
0
100
AcDbSpline
70
4
71
3
72
68
73
64
40
0
40
0
40
0
40
0
40
0.0312500000000002
40
0.0312500000000002
40
0.0468750000000003
40
0.0468750000000003
40
0.0625000000000005
40
0.0625000000000005
40
0.0937500000000007
40
0.0937500000000007
40
0.109375000000001
40
0.109375000000001
40
0.125000000000001
40
0.125000000000001
40
0.156250000000001
40
0.156250000000001
40
0.187500000000001
40
0.187500000000001
40
0.25
40
0.25
40
0.28125
40
0.28125
40
0.3125
40
0.3125
40
0.375
40
0.375
40
0.4375
40
0.4375
40
0.46875
40
0.46875
40
0.5
40
0.5
40
0.5625
40
0.5625
40
0.59375
40
0.59375
40
0.625
40
0.625
40
0.6875
40
0.6875
40
0.71875
40
0.71875
40
0.75
40
0.75
40
0.8125
40
0.8125
40
0.828125
40
0.828125
40
0.84375
40
0.84375
40
0.875
40
0.875
40
0.890625
40
0.890625
40
0.90625
40
0.90625
40
0.9375
40
0.9375
40
0.953125
40
0.953125
40
0.96875
40
0.96875
40
1
40
1
40
1
40
1
41
1
10
-43.5
20
5.92285193129121
30
0
41
1
10
-43.6684511426857
20
5.92285193129121
30
0
41
1
10
-43.8335000033988
20
5.90852604500998
30
0
41
1
10
-44.076336732867
20
5.86686260898486
30
0
41
1
10
-44.156487814575
20
5.84958640234103
30
0
41
1
10
-44.3152087816894
20
5.80819694942255
30
0
41
1
10
-44.3942159803687
20
5.78390949286566
30
0
41
1
10
-44.6244869413498
20
5.70210438657261
30
0
41
1
10
-44.7695984964602
20
5.63576008503463
30
0
41
1
10
-44.9761167501956
20
5.51973068369705
30
0
41
1
10
-45.04308719435
20
5.47828589310487
30
0
41
1
10
-45.1734327388812
20
5.38990512469778
30
0
41
1
10
-45.2365597164332
20
5.34310223508027
30
0
41
1
10
-45.4177503200784
20
5.19718203491362
30
0
41
1
10
-45.5287536196717
20
5.09185813583983
30
0
41
1
10
-45.7342789049228
20
4.86653318538578
30
0
41
1
10
-45.8289389927477
20
4.74628556066759
30
0
41
1
10
-46.0903381646025
20
4.36608870861338
30
0
41
1
10
-46.2298578984479
20
4.09476951345764
30
0
41
1
10
-46.404424625141
20
3.66576223197777
30
0
41
1
10
-46.4567004963483
20
3.51904778819107
30
0
41
1
10
-46.5512434200091
20
3.21863479224763
30
0
41
1
10
-46.5934214578119
20
3.06504134305448
30
0
41
1
10
-46.7055436177958
20
2.60174839855
30
0
41
1
10
-46.7621147779655
20
2.28706820500588
30
0
41
1
10
-46.8495734514975
20
1.64741181110122
30
0
41
1
10
-46.8803837441695
20
1.3224279248613
30
0
41
1
10
-46.9109609497806
20
0.827525561443139
30
0
41
1
10
-46.9184851246494
20
0.661401493425245
30
0
41
1
10
-46.9284149001804
20
0.330650499762129
30
0
41
1
10
-46.9308546906495
20
0.16552511220226
30
0
41
1
10
-46.9308738211682
20
-0.329115176337979
30
0
41
1
10
-46.9212903951884
20
-0.657899259477574
30
0
41
1
10
-46.8911363285545
20
-1.14957645984728
30
0
41
1
10
-46.8784217091401
20
-1.31321779556742
30
0
41
1
10
-46.8469861733616
20
-1.63997635400699
30
0
41
1
10
-46.8282042263583
20
-1.80342210057933
30
0
41
1
10
-46.7621963499643
20
-2.28702529223114
30
0
41
1
10
-46.70538444555
20
-2.60220286550486
30
0
41
1
10
-46.5939179002344
20
-3.06309107495616
30
0
41
1
10
-46.5523452299933
20
-3.21473113100859
30
0
41
1
10
-46.4585015570418
20
-3.51371523568545
30
0
41
1
10
-46.4060493986897
20
-3.66152013709689
30
0
41
1
10
-46.2301041724726
20
-4.0946551835724
30
0
41
1
10
-46.090025206177
20
-4.36619025332939
30
0
41
1
10
-45.8742492923165
20
-4.68046987077341
30
0
41
1
10
-45.8290293349762
20
-4.74205687033935
30
0
41
1
10
-45.7339960316764
20
-4.86254130681425
30
0
41
1
10
-45.6841596520312
20
-4.92142662494757
30
0
41
1
10
-45.5292248903525
20
-5.09144820130692
30
0
41
1
10
-45.4181124231866
20
-5.19679902870035
30
0
41
1
10
-45.2379308334714
20
-5.34204312553621
30
0
41
1
10
-45.1756114663476
20
-5.38832209237188
30
0
41
1
10
-45.0460416075432
20
-5.4763842939077
30
0
41
1
10
-44.9784471100634
20
-5.5183478507837
30
0
41
1
10
-44.7707785682244
20
-5.63524112422331
30
0
41
1
10
-44.6257202321584
20
-5.70150323577644
30
0
41
1
10
-44.397376087212
20
-5.78286634969527
30
0
41
1
10
-44.3194618378801
20
-5.80696924836371
30
0
41
1
10
-44.1597814008576
20
-5.84884069926673
30
0
41
1
10
-44.0785577154077
20
-5.86643352567475
30
0
41
1
10
-43.8339255491573
20
-5.90854767474224
30
0
41
1
10
-43.6682972898643
20
-5.92285193129121
30
0
41
1
10
-43.5
20
-5.92285193129121
30
0
0
SPLINE
5
1A1
100
AcDbEntity
8
SK1
62
256
6
ByLayer
370
18
48
1
60
0
100
AcDbSpline
70
4
71
3
72
68
73
64
40
0
40
0
40
0
40
0
40
0.0312499999999982
40
0.0312499999999982
40
0.046874999999998
40
0.046874999999998
40
0.0624999999999977
40
0.0624999999999977
40
0.0937499999999984
40
0.0937499999999984
40
0.109374999999998
40
0.109374999999998
40
0.124999999999998
40
0.124999999999998
40
0.156249999999998
40
0.156249999999998
40
0.187499999999998
40
0.187499999999998
40
0.249999999999999
40
0.249999999999999
40
0.281249999999999
40
0.281249999999999
40
0.312499999999999
40
0.312499999999999
40
0.374999999999999
40
0.374999999999999
40
0.4375
40
0.4375
40
0.46875
40
0.46875
40
0.5
40
0.5
40
0.562500000000001
40
0.562500000000001
40
0.593750000000001
40
0.593750000000001
40
0.625000000000002
40
0.625000000000002
40
0.687500000000002
40
0.687500000000002
40
0.718750000000002
40
0.718750000000002
40
0.750000000000002
40
0.750000000000002
40
0.812500000000003
40
0.812500000000003
40
0.828125000000002
40
0.828125000000002
40
0.843750000000002
40
0.843750000000002
40
0.875000000000001
40
0.875000000000001
40
0.890625000000001
40
0.890625000000001
40
0.90625
40
0.90625
40
0.9375
40
0.9375
40
0.953125
40
0.953125
40
0.96875
40
0.96875
40
1
40
1
40
1
40
1
41
1
10
-6.49999999999997
20
-5.92285193129121
30
0
41
1
10
-6.33154885731426
20
-5.92285193129121
30
0
41
1
10
-6.16649999660115
20
-5.90852604500998
30
0
41
1
10
-5.92366326713301
20
-5.86686260898483
30
0
41
1
10
-5.84351218542494
20
-5.84958640234103
30
0
41
1
10
-5.68479121831058
20
-5.80819694942255
30
0
41
1
10
-5.60578401963124
20
-5.78390949286566
30
0
41
1
10
-5.3755130586502
20
-5.70210438657261
30
0
41
1
10
-5.23040150353978
20
-5.63576008503463
30
0
41
1
10
-5.02388324980436
20
-5.51973068369702
30
0
41
1
10
-4.95691280564995
20
-5.47828589310487
30
0
41
1
10
-4.82656726111881
20
-5.38990512469778
30
0
41
1
10
-4.76344028356681
20
-5.34310223508027
30
0
41
1
10
-4.58224967992157
20
-5.19718203491362
30
0
41
1
10
-4.4712463803283
20
-5.09185813583983
30
0
41
1
10
-4.26572109507714
20
-4.86653318538578
30
0
41
1
10
-4.17106100725223
20
-4.74628556066756
30
0
41
1
10
-3.90966183539743
20
-4.36608870861338
30
0
41
1
10
-3.77014210155204
20
-4.09476951345764
30
0
41
1
10
-3.59557537485898
20
-3.66576223197777
30
0
41
1
10
-3.5432995036517
20
-3.51904778819107
30
0
41
1
10
-3.44875657999086
20
-3.21863479224763
30
0
41
1
10
-3.40657854218807
20
-3.06504134305448
30
0
41
1
10
-3.29445638220415
20
-2.60174839854997
30
0
41
1
10
-3.23788522203446
20
-2.28706820500588
30
0
41
1
10
-3.15042654850248
20
-1.64741181110122
30
0
41
1
10
-3.11961625583052
20
-1.3224279248613
30
0
41
1
10
-3.08903905021938
20
-0.827525561443139
30
0
41
1
10
-3.08151487535059
20
-0.661401493425245
30
0
41
1
10
-3.07158509981957
20
-0.330650499762129
30
0
41
1
10
-3.06914530935046
20
-0.16552511220226
30
0
41
1
10
-3.06912617883177
20
0.329115176337979
30
0
41
1
10
-3.07870960481154
20
0.657899259477574
30
0
41
1
10
-3.10886367144548
20
1.14957645984728
30
0
41
1
10
-3.12157829085984
20
1.31321779556742
30
0
41
1
10
-3.15301382663836
20
1.63997635400699
30
0
41
1
10
-3.17179577364169
20
1.80342210057933
30
0
41
1
10
-3.23780365003569
20
2.28702529223114
30
0
41
1
10
-3.29461555444993
20
2.60220286550486
30
0
41
1
10
-3.40608209976551
20
3.06309107495616
30
0
41
1
10
-3.44765477000672
20
3.21473113100859
30
0
41
1
10
-3.54149844295813
20
3.51371523568545
30
0
41
1
10
-3.59395060131033
20
3.66152013709689
30
0
41
1
10
-3.76989582752731
20
4.0946551835724
30
0
41
1
10
-3.90997479382301
20
4.36619025332939
30
0
41
1
10
-4.12575070768349
20
4.68046987077338
30
0
41
1
10
-4.17097066502382
20
4.74205687033935
30
0
41
1
10
-4.26600396832356
20
4.86254130681425
30
0
41
1
10
-4.31584034796885
20
4.92142662494757
30
0
41
1
10
-4.47077510964746
20
5.09144820130692
30
0
41
1
10
-4.58188757681339
20
5.19679902870035
30
0
41
1
10
-4.76206916652859
20
5.34204312553621
30
0
41
1
10
-4.82438853365235
20
5.38832209237188
30
0
41
1
10
-4.95395839245683
20
5.4763842939077
30
0
41
1
10
-5.02155288993663
20
5.5183478507837
30
0
41
1
10
-5.22922143177559
20
5.63524112422331
30
0
41
1
10
-5.37427976784161
20
5.70150323577644
30
0
41
1
10
-5.60262391278792
20
5.78286634969527
30
0
41
1
10
-5.68053816211989
20
5.80696924836369
30
0
41
1
10
-5.84021859914242
20
5.84884069926673
30
0
41
1
10
-5.92144228459227
20
5.86643352567475
30
0
41
1
10
-6.1660744508427
20
5.90854767474224
30
0
41
1
10
-6.33170271013566
20
5.92285193129121
30
0
41
1
10
-6.49999999999997
20
5.92285193129121
30
0
0
LINE
5
70
100
AcDbEntity
8
81
62
256
6
ByLayer
370
18
48
1
60
0
100
AcDbLine
10
162.3
20
0
30
0
11
167.3
21
0
31
0
39
0
210
0
220
0
230
1
0
LINE
5
71
100
AcDbEntity
8
1
62
256
6
ByLayer
370
18
48
1
60
0
100
AcDbLine
10
0.2
20
12.5
30
0
11
0
21
12.3
31
0
39
0
210
0
220
0
230
1
0
LINE
5
73
100
AcDbEntity
8
1
62
256
6
ByLayer
370
18
48
1
60
0
100
AcDbLine
10
0
20
-12.3
30
0
11
0.2
21
-12.5
31
0
39
0
210
0
220
0
230
1
0
LINE
5
74
100
AcDbEntity
8
1
62
256
6
ByLayer
370
18
48
1
60
0
100
AcDbLine
10
5.0009
20
12.5
30
0
11
0.2
21
12.5
31
0
39
0
210
0
220
0
230
1
0
LINE
5
75
100
AcDbEntity
8
1
62
256
6
ByLayer
370
18
48
1
60
0
100
AcDbLine
10
0.2
20
-12.5
30
0
11
5.0009
21
-12.5
31
0
39
0
210
0
220
0
230
1
0
LINE
5
76
100
AcDbEntity
8
SK1
62
256
6
ByLayer
370
18
48
1
60
0
100
AcDbLine
10
-1.6
20
-9.99675
30
0
11
-1.144243
21
-9.784227
31
0
39
0
210
0
220
0
230
1
0
LINE
5
78
100
AcDbEntity
8
SK1
62
256
6
ByLayer
370
18
48
1
60
0
100
AcDbLine
10
-1.144243
20
9.784227
30
0
11
-1.6
21
9.99675
31
0
39
0
210
0
220
0
230
1
0
LINE
5
79
100
AcDbEntity
8
SK1
62
256
6
ByLayer
370
18
48
1
60
0
100
AcDbLine
10
-47.3
20
9.99675
30
0
11
-47.426311
21
9.888738
31
0
39
0
210
0
220
0
230
1
0
LINE
5
7A
100
AcDbEntity
8
SK1
62
256
6
ByLayer
370
18
48
1
60
0
100
AcDbLine
10
-47.426311
20
-9.888738
30
0
11
-47.3
21
-9.99675
31
0
39
0
210
0
220
0
230
1
0
LINE
5
7B
100
AcDbEntity
8
SK1
62
256
6
ByLayer
370
18
48
1
60
0
100
AcDbLine
10
-49
20
9.99675
30
0
11
-50
21
8.99675
31
0
39
0
210
0
220
0
230
1
0
LINE
5
7C
100
AcDbEntity
8
SK1
62
256
6
ByLayer
370
18
48
1
60
0
100
AcDbLine
10
-50
20
-8.99675
30
0
11
-49
21
-9.99675
31
0
39
0
210
0
220
0
230
1
0
LINE
5
7D
100
AcDbEntity
8
SK1
62
256
6
ByLayer
370
18
48
1
60
0
100
AcDbLine
10
-1.6
20
9.99675
30
0
11
-47.3
21
9.99675
31
0
39
0
210
0
220
0
230
1
0
LINE
5
7E
100
AcDbEntity
8
SK1
62
256
6
ByLayer
370
18
48
1
60
0
100
AcDbLine
10
-47.3
20
-9.99675
30
0
11
-1.6
21
-9.99675
31
0
39
0
210
0
220
0
230
1
0
LINE
5
7F
100
AcDbEntity
8
SK1
62
256
6
ByLayer
370
18
48
1
60
0
100
AcDbLine
10
-48.6
20
-9.99675
30
0
11
-48.449692
21
-9.875033
31
0
39
0
210
0
220
0
230
1
0
LINE
5
80
100
AcDbEntity
8
SK1
62
256
6
ByLayer
370
18
48
1
60
0
100
AcDbLine
10
-48.449692
20
9.875033
30
0
11
-48.6
21
9.99675
31
0
39
0
210
0
220
0
230
1
0
LINE
5
81
100
AcDbEntity
8
SK1
62
256
6
ByLayer
370
18
48
1
60
0
100
AcDbLine
10
-48.6
20
9.99675
30
0
11
-49
21
9.99675
31
0
39
0
210
0
220
0
230
1
0
LINE
5
82
100
AcDbEntity
8
SK1
62
256
6
ByLayer
370
18
48
1
60
0
100
AcDbLine
10
-49
20
-9.99675
30
0
11
-48.6
21
-9.99675
31
0
39
0
210
0
220
0
230
1
0
LINE
5
83
100
AcDbEntity
8
SK1
62
256
6
ByLayer
370
18
48
1
60
0
100
AcDbLine
10
-0.975195
20
-9.74675
30
0
11
-0.15
21
-9.74675
31
0
39
0
210
0
220
0
230
1
0
LINE
5
84
100
AcDbEntity
8
SK1
62
256
6
ByLayer
370
18
48
1
60
0
100
AcDbLine
10
-0.15
20
9.74675
30
0
11
-0.975195
21
9.74675
31
0
39
0
210
0
220
0
230
1
0
LINE
5
85
100
AcDbEntity
8
1
62
256
6
ByLayer
370
18
48
1
60
0
100
AcDbLine
10
12.462275
20
7.90372
30
0
11
12.416726
21
7.936462
31
0
39
0
210
0
220
0
230
1
0
LINE
5
86
100
AcDbEntity
8
1
62
256
6
ByLayer
370
18
48
1
60
0
100
AcDbLine
10
40.372185
20
-6.85
30
0
11
45.412852
21
-6.85
31
0
39
0
210
0
220
0
230
1
0
LINE
5
87
100
AcDbEntity
8
1
62
256
6
ByLayer
370
18
48
1
60
0
100
AcDbLine
10
108.800286
20
6.85
30
0
11
103.746582
21
6.85
31
0
39
0
210
0
220
0
230
1
0
LINE
5
88
100
AcDbEntity
8
1
62
256
6
ByLayer
370
18
48
1
60
0
100
AcDbLine
10
103.746582
20
-6.85
30
0
11
108.800286
21
-6.85
31
0
39
0
210
0
220
0
230
1
0
LINE
5
89
100
AcDbEntity
8
1
62
256
6
ByLayer
370
18
48
1
60
0
100
AcDbLine
10
45.412852
20
6.85
30
0
11
40.372185
21
6.85
31
0
39
0
210
0
220
0
230
1
0
LINE
5
8A
100
AcDbEntity
8
1
62
256
6
ByLayer
370
18
48
1
60
0
100
AcDbLine
10
164.707555
20
7
30
0
11
163.428248
21
7
31
0
39
0
210
0
220
0
230
1
0
LINE
5
8B
100
AcDbEntity
8
1
62
256
6
ByLayer
370
18
48
1
60
0
100
AcDbLine
10
163.428248
20
-7
30
0
11
164.707555
21
-7
31
0
39
0
210
0
220
0
230
1
0
LINE
5
8C
100
AcDbEntity
8
1
62
256
6
ByLayer
370
18
48
1
60
0
100
AcDbLine
10
12.416726
20
-7.936462
30
0
11
12.462275
21
-7.90372
31
0
39
0
210
0
220
0
230
1
0
LINE
5
8D
100
AcDbEntity
8
80
62
256
6
ByLayer
370
18
48
1
60
0
100
AcDbLine
10
0
20
0
30
0
11
-5
21
0
31
0
39
0
210
0
220
0
230
1
0
LINE
5
8E
100
AcDbEntity
8
4
62
256
6
ByLayer
370
18
48
0.05
60
0
100
AcDbLine
10
162.3
20
0
30
0
11
0
21
0
31
0
39
0
210
0
220
0
230
1
0
LINE
5
90
100
AcDbEntity
8
SK4
62
256
6
ByLayer
370
18
48
0.05
60
0
100
AcDbLine
10
176
20
0
30
0
11
-55
21
0
31
0
39
0
210
0
220
0
230
1
0
LINE
5
92
100
AcDbEntity
8
1
62
256
6
ByLayer
370
18
48
1
60
0
100
AcDbLine
10
0.2
20
0
30
0
11
0.2
21
-12.5
31
0
39
0
210
0
220
0
230
1
0
LINE
5
93
100
AcDbEntity
8
1
62
256
6
ByLayer
370
18
48
1
60
0
100
AcDbLine
10
0.2
20
12.5
30
0
11
0.2
21
0
31
0
39
0
210
0
220
0
230
1
0
LINE
5
94
100
AcDbEntity
8
1
62
256
6
ByLayer
370
13
48
1
60
0
100
AcDbLine
10
5.0009
20
0
30
0
11
5.0009
21
-12.5
31
0
39
0
210
0
220
0
230
1
0
LINE
5
95
100
AcDbEntity
8
1
62
256
6
ByLayer
370
13
48
1
60
0
100
AcDbLine
10
5.0009
20
12.5
30
0
11
5.0009
21
0
31
0
39
0
210
0
220
0
230
1
0
LINE
5
96
100
AcDbEntity
8
1
62
256
6
ByLayer
370
18
48
1
60
0
100
AcDbLine
10
162.33
20
-6.782755
30
0
11
162.33
21
-6.568296
31
0
39
0
210
0
220
0
230
1
0
LINE
5
97
100
AcDbEntity
8
1
62
256
6
ByLayer
370
18
48
1
60
0
100
AcDbLine
10
166.709198
20
-6.252327
30
0
11
167.262286
21
-5.767736
31
0
39
0
210
0
220
0
230
1
0
LINE
5
98
100
AcDbEntity
8
1
62
256
6
ByLayer
370
18
48
1
60
0
100
AcDbLine
10
171
20
0
30
0
11
170.988057
21
-0.049713
31
0
39
0
210
0
220
0
230
1
0
LINE
5
99
100
AcDbEntity
8
1
62
256
6
ByLayer
370
18
48
1
60
0
100
AcDbLine
10
162.3
20
1.603938
30
0
11
162.3
21
1.831257
31
0
39
0
210
0
220
0
230
1
0
LINE
5
9A
100
AcDbEntity
8
1
62
256
6
ByLayer
370
13
48
1
60
0
100
AcDbLine
10
169.476989
20
2.38577
30
0
11
170.303923
21
2.371138
31
0
39
0
210
0
220
0
230
1
0
LINE
5
9B
100
AcDbEntity
8
1
62
256
6
ByLayer
370
18
48
1
60
0
100
AcDbLine
10
162.2
20
-6.790492
30
0
11
162.2
21
-6.542408
31
0
39
0
210
0
220
0
230
1
0
LINE
5
9C
100
AcDbEntity
8
1
62
256
6
ByLayer
370
13
48
1
60
0
100
AcDbLine
10
12.497924
20
7.878022
30
0
11
12.497924
21
-4.167493
31
0
39
0
210
0
220
0
230
1
0
LINE
5
9D
100
AcDbEntity
8
1
62
256
6
ByLayer
370
18
48
1
60
0
100
AcDbLine
10
164.268626
20
-0.047669
30
0
11
165.031937
21
-0.047669
31
0
39
0
210
0
220
0
230
1
0
LINE
5
9E
100
AcDbEntity
8
1
62
256
6
ByLayer
370
13
48
1
60
0
100
AcDbLine
10
170.200961
20
0.654813
30
0
11
170.954371
21
0.160634
31
0
39
0
210
0
220
0
230
1
0
LINE
5
9F
100
AcDbEntity
8
1
62
256
6
ByLayer
370
18
48
1
60
0
100
AcDbLine
10
162.879495
20
-6.950593
30
0
11
162.879495
21
-6.995523
31
0
39
0
210
0
220
0
230
1
0
LINE
5
A0
100
AcDbEntity
8
1
62
256
6
ByLayer
370
18
48
1
60
0
100
AcDbLine
10
167.265798
20
-2.341407
30
0
11
167.265647
21
-2.3398
31
0
39
0
210
0
220
0
230
1
0
LINE
5
A1
100
AcDbEntity
8
1
62
256
6
ByLayer
370
18
48
1
60
0
100
AcDbLine
10
162.33
20
-6.568296
30
0
11
162.33
21
-6.533578
31
0
39
0
210
0
220
0
230
1
0
LINE
5
A2
100
AcDbEntity
8
1
62
256
6
ByLayer
370
18
48
1
60
0
100
AcDbLine
10
168.641355
20
-6.833315
30
0
11
170.67178
21
-0.950897
31
0
39
0
210
0
220
0
230
1
0
LINE
5
A3
100
AcDbEntity
8
1
62
256
6
ByLayer
370
13
48
1
60
0
100
AcDbLine
10
165.921614
20
-1.970602
30
0
11
164.480155
21
-1.908825
31
0
39
0
210
0
220
0
230
1
0
LINE
5
A4
100
AcDbEntity
8
1
62
256
6
ByLayer
370
18
48
1
60
0
100
AcDbLine
10
165.810761
20
-2.024162
30
0
11
164.268626
21
-2.024162
31
0
39
0
210
0
220
0
230
1
0
LINE
5
A5
100
AcDbEntity
8
1
62
256
6
ByLayer
370
18
48
1
60
0
100
AcDbLine
10
0
20
12.3
30
0
11
0
21
-12.3
31
0
39
0
210
0
220
0
230
1
0
LINE
5
A6
100
AcDbEntity
8
1
62
256
6
ByLayer
370
13
48
1
60
0
100
AcDbLine
10
150.874234
20
-3.169216
30
0
11
150.874234
21
-3.275157
31
0
39
0
210
0
220
0
230
1
0
LINE
5
A7
100
AcDbEntity
8
1
62
256
6
ByLayer
370
18
48
1
60
0
100
AcDbLine
10
167.265798
20
-5.761233
30
0
11
167.265798
21
-2.341407
31
0
39
0
210
0
220
0
230
1
0
LINE
5
A8
100
AcDbEntity
8
1
62
256
6
ByLayer
370
18
48
1
60
0
100
AcDbLine
10
168.827405
20
-3.403557
30
0
11
170.097519
21
-1.908759
31
0
39
0
210
0
220
0
230
1
0
LINE
5
A9
100
AcDbEntity
8
1
62
256
6
ByLayer
370
18
48
1
60
0
100
AcDbLine
10
167.262286
20
-5.767736
30
0
11
167.265798
21
-5.761233
31
0
39
0
210
0
220
0
230
1
0
LINE
5
AA
100
AcDbEntity
8
1
62
256
6
ByLayer
370
18
48
1
60
0
100
AcDbLine
10
167.265647
20
-2.3398
30
0
11
166.360378
21
0.834959
31
0
39
0
210
0
220
0
230
1
0
LINE
5
AB
100
AcDbEntity
8
1
62
256
6
ByLayer
370
18
48
1
60
0
100
AcDbLine
10
170.929856
20
0.247667
30
0
11
170.829324
21
0.651887
31
0
39
0
210
0
220
0
230
1
0
LINE
5
AC
100
AcDbEntity
8
1
62
256
6
ByLayer
370
18
48
1
60
0
100
AcDbLine
10
162.30718
20
1.845643
30
0
11
162.30718
21
2.25
31
0
39
0
210
0
220
0
230
1
0
LINE
5
AD
100
AcDbEntity
8
1
62
256
6
ByLayer
370
18
48
1
60
0
100
AcDbLine
10
19.15
20
0.24206
30
0
11
19.15
21
5.73075
31
0
39
0
210
0
220
0
230
1
0
LINE
5
AE
100
AcDbEntity
8
1
62
256
6
ByLayer
370
13
48
1
60
0
100
AcDbLine
10
164.268626
20
-2.024162
30
0
11
164.480155
21
-1.908825
31
0
39
0
210
0
220
0
230
1
0
LINE
5
AF
100
AcDbEntity
8
1
62
256
6
ByLayer
370
13
48
1
60
0
100
AcDbLine
10
170.248889
20
0.694329
30
0
11
170.829324
21
0.651887
31
0
39
0
210
0
220
0
230
1
0
LINE
5
B0
100
AcDbEntity
8
1
62
256
6
ByLayer
370
18
48
1
60
0
100
AcDbLine
10
163.13
20
-6.29971
30
0
11
163.13
21
-6.241158
31
0
39
0
210
0
220
0
230
1
0
LINE
5
B1
100
AcDbEntity
8
1
62
256
6
ByLayer
370
18
48
1
60
0
100
AcDbLine
10
163.13
20
1.329183
30
0
11
163.13
21
1.458774
31
0
39
0
210
0
220
0
230
1
0
LINE
5
B2
100
AcDbEntity
8
1
62
256
6
ByLayer
370
18
48
1
60
0
100
AcDbLine
10
154.6
20
-0.476554
30
0
11
154.6
21
3.954321
31
0
39
0
210
0
220
0
230
1
0
LINE
5
B3
100
AcDbEntity
8
1
62
256
6
ByLayer
370
18
48
1
60
0
100
AcDbLine
10
163.272887
20
-6.254821
30
0
11
166.703356
21
-6.254821
31
0
39
0
210
0
220
0
230
1
0
LINE
5
B4
100
AcDbEntity
8
1
62
256
6
ByLayer
370
18
48
1
60
0
100
AcDbLine
10
12.416726
20
-7.936462
30
0
11
12.416726
21
-7.936345
31
0
39
0
210
0
220
0
230
1
0
LINE
5
B5
100
AcDbEntity
8
1
62
256
6
ByLayer
370
13
48
1
60
0
100
AcDbLine
10
162.1
20
2.25
30
0
11
162.30718
21
2.25
31
0
39
0
210
0
220
0
230
1
0
LINE
5
B6
100
AcDbEntity
8
1
62
256
6
ByLayer
370
18
48
1
60
0
100
AcDbLine
10
166.703356
20
-6.254821
30
0
11
166.709198
21
-6.252327
31
0
39
0
210
0
220
0
230
1
0
LINE
5
B7
100
AcDbEntity
8
1
62
256
6
ByLayer
370
13
48
1
60
0
100
AcDbLine
10
168.827405
20
-3.403557
30
0
11
169.224658
21
-1.336228
31
0
39
0
210
0
220
0
230
1
0
LINE
5
B8
100
AcDbEntity
8
1
62
256
6
ByLayer
370
13
48
1
60
0
100
AcDbLine
10
170.929856
20
0.247667
30
0
11
170.248889
21
0.694329
31
0
39
0
210
0
220
0
230
1
0
LINE
5
B9
100
AcDbEntity
8
1
62
256
6
ByLayer
370
18
48
1
60
0
100
AcDbLine
10
170.918338
20
-0.236587
30
0
11
171
21
0
31
0
39
0
210
0
220
0
230
1
0
LINE
5
BA
100
AcDbEntity
8
1
62
256
6
ByLayer
370
18
48
1
60
0
100
AcDbLine
10
16
20
-3.162454
30
0
11
16
21
6.166327
31
0
39
0
210
0
220
0
230
1
0
LINE
5
BB
100
AcDbEntity
8
1
62
256
6
ByLayer
370
18
48
1
60
0
100
AcDbLine
10
170.929856
20
-0.247667
30
0
11
170.829324
21
-0.651887
31
0
39
0
210
0
220
0
230
1
0
LINE
5
BC
100
AcDbEntity
8
1
62
256
6
ByLayer
370
18
48
1
60
0
100
AcDbLine
10
162.3
20
-6.446898
30
0
11
162.3
21
-6.686824
31
0
39
0
210
0
220
0
230
1
0
LINE
5
BD
100
AcDbEntity
8
1
62
256
6
ByLayer
370
13
48
1
60
0
100
AcDbLine
10
12.416726
20
7.936462
30
0
11
12.416726
21
-4.207858
31
0
39
0
210
0
220
0
230
1
0
LINE
5
BE
100
AcDbEntity
8
1
62
256
6
ByLayer
370
18
48
1
60
0
100
AcDbLine
10
165.972656
20
-2.3398
30
0
11
167.265647
21
-2.3398
31
0
39
0
210
0
220
0
230
1
0
LINE
5
BF
100
AcDbEntity
8
1
62
256
6
ByLayer
370
13
48
1
60
0
100
AcDbLine
10
170.097519
20
-1.908759
30
0
11
169.224658
21
-1.336228
31
0
39
0
210
0
220
0
230
1
0
LINE
5
C0
100
AcDbEntity
8
1
62
256
6
ByLayer
370
18
48
1
60
0
100
AcDbLine
10
17.4
20
-3.169446
30
0
11
17.4
21
6.035667
31
0
39
0
210
0
220
0
230
1
0
LINE
5
C1
100
AcDbEntity
8
1
62
256
6
ByLayer
370
18
48
1
60
0
100
AcDbLine
10
166.72422
20
-5.219655
30
0
11
167.265798
21
-5.761233
31
0
39
0
210
0
220
0
230
1
0
LINE
5
C2
100
AcDbEntity
8
1
62
256
6
ByLayer
370
18
48
1
60
0
100
AcDbLine
10
162.3
20
3.25
30
0
11
162.3
21
2.68589
31
0
39
0
210
0
220
0
230
1
0
LINE
5
C3
100
AcDbEntity
8
1
62
256
6
ByLayer
370
18
48
1
60
0
100
AcDbLine
10
170.303923
20
-2.371138
30
0
11
170.266526
21
-2.481812
31
0
39
0
210
0
220
0
230
1
0
LINE
5
C4
100
AcDbEntity
8
1
62
256
6
ByLayer
370
18
48
1
60
0
100
AcDbLine
10
165.81085
20
-2.024167
30
0
11
165.921614
21
-1.970602
31
0
39
0
210
0
220
0
230
1
0
LINE
5
C5
100
AcDbEntity
8
1
62
256
6
ByLayer
370
18
48
1
60
0
100
AcDbLine
10
170.988057
20
0.049713
30
0
11
171
21
0
31
0
39
0
210
0
220
0
230
1
0
LINE
5
C6
100
AcDbEntity
8
1
62
256
6
ByLayer
370
13
48
1
60
0
100
AcDbLine
10
162.33
20
-6.568296
30
0
11
162.467349
21
-6.616583
31
0
39
0
210
0
220
0
230
1
0
LINE
5
C7
100
AcDbEntity
8
1
62
256
6
ByLayer
370
18
48
1
60
0
100
AcDbLine
10
165.301687
20
0.03246
30
0
11
165.166184
21
-0.033068
31
0
39
0
210
0
220
0
230
1
0
LINE
5
C8
100
AcDbEntity
8
1
62
256
6
ByLayer
370
18
48
1
60
0
100
AcDbLine
10
170.303923
20
2.371138
30
0
11
170.266526
21
2.481812
31
0
39
0
210
0
220
0
230
1
0
LINE
5
C9
100
AcDbEntity
8
1
62
256
6
ByLayer
370
18
48
1
60
0
100
AcDbLine
10
162.33
20
-6.533578
30
0
11
162.33
21
-6.39025
31
0
39
0
210
0
220
0
230
1
0
LINE
5
CA
100
AcDbEntity
8
1
62
256
6
ByLayer
370
18
48
1
60
0
100
AcDbLine
10
167.63289
20
-6.299713
30
0
11
168.618777
21
-3.648116
31
0
39
0
210
0
220
0
230
1
0
LINE
5
CB
100
AcDbEntity
8
SK1
62
256
6
ByLayer
370
18
48
1
60
0
100
AcDbLine
10
-6.5
20
5.922852
30
0
11
-43.5
21
5.922852
31
0
39
0
210
0
220
0
230
1
0
LINE
5
CC
100
AcDbEntity
8
SK1
62
256
6
ByLayer
370
13
48
1
60
0
100
AcDbLine
10
-48.449692
20
-9.875033
30
0
11
-48.449692
21
0
31
0
39
0
210
0
220
0
230
1
0
LINE
5
CD
100
AcDbEntity
8
SK1
62
256
6
ByLayer
370
13
48
1
60
0
100
AcDbLine
10
-48.449692
20
0
30
0
11
-48.449692
21
9.875033
31
0
39
0
210
0
220
0
230
1
0
LINE
5
CE
100
AcDbEntity
8
SK1
62
256
6
ByLayer
370
18
48
1
60
0
100
AcDbLine
10
-1.6
20
-9.99675
30
0
11
-1.6
21
0
31
0
39
0
210
0
220
0
230
1
0
LINE
5
CF
100
AcDbEntity
8
SK1
62
256
6
ByLayer
370
18
48
1
60
0
100
AcDbLine
10
-1.6
20
0
30
0
11
-1.6
21
9.99675
31
0
39
0
210
0
220
0
230
1
0
LINE
5
D0
100
AcDbEntity
8
SK1
62
256
6
ByLayer
370
13
48
1
60
0
100
AcDbLine
10
-0.975195
20
9.74675
30
0
11
-0.975195
21
-9.74675
31
0
39
0
210
0
220
0
230
1
0
LINE
5
D1
100
AcDbEntity
8
SK1
62
256
6
ByLayer
370
18
48
1
60
0
100
AcDbLine
10
-49
20
0
30
0
11
-49
21
-9.99675
31
0
39
0
210
0
220
0
230
1
0
LINE
5
D2
100
AcDbEntity
8
SK1
62
256
6
ByLayer
370
18
48
1
60
0
100
AcDbLine
10
-49
20
9.99675
30
0
11
-49
21
0
31
0
39
0
210
0
220
0
230
1
0
LINE
5
D3
100
AcDbEntity
8
SK1
62
256
6
ByLayer
370
13
48
1
60
0
100
AcDbLine
10
-6.5
20
-5.922852
30
0
11
-6.5
21
5.922852
31
0
39
0
210
0
220
0
230
1
0
LINE
5
D4
100
AcDbEntity
8
SK1
62
256
6
ByLayer
370
13
48
1
60
0
100
AcDbLine
10
-1.144243
20
0
30
0
11
-1.144243
21
-9.784227
31
0
39
0
210
0
220
0
230
1
0
LINE
5
D5
100
AcDbEntity
8
SK1
62
256
6
ByLayer
370
13
48
1
60
0
100
AcDbLine
10
-1.144243
20
9.784227
30
0
11
-1.144243
21
0
31
0
39
0
210
0
220
0
230
1
0
LINE
5
D6
100
AcDbEntity
8
SK1
62
256
6
ByLayer
370
18
48
1
60
0
100
AcDbLine
10
-47.3
20
0
30
0
11
-47.3
21
-9.99675
31
0
39
0
210
0
220
0
230
1
0
LINE
5
D7
100
AcDbEntity
8
SK1
62
256
6
ByLayer
370
18
48
1
60
0
100
AcDbLine
10
-47.3
20
9.99675
30
0
11
-47.3
21
0
31
0
39
0
210
0
220
0
230
1
0
LINE
5
D8
100
AcDbEntity
8
SK1
62
256
6
ByLayer
370
18
48
1
60
0
100
AcDbLine
10
-50
20
0
30
0
11
-50
21
-8.99675
31
0
39
0
210
0
220
0
230
1
0
LINE
5
D9
100
AcDbEntity
8
SK1
62
256
6
ByLayer
370
18
48
1
60
0
100
AcDbLine
10
-50
20
8.99675
30
0
11
-50
21
0
31
0
39
0
210
0
220
0
230
1
0
LINE
5
DA
100
AcDbEntity
8
SK1
62
256
6
ByLayer
370
18
48
1
60
0
100
AcDbLine
10
-48.6
20
-9.99675
30
0
11
-48.6
21
9.99675
31
0
39
0
210
0
220
0
230
1
0
LINE
5
DB
100
AcDbEntity
8
SK1
62
256
6
ByLayer
370
13
48
1
60
0
100
AcDbLine
10
-43.5
20
5.922852
30
0
11
-43.5
21
-5.922852
31
0
39
0
210
0
220
0
230
1
0
LINE
5
DC
100
AcDbEntity
8
SK1
62
256
6
ByLayer
370
13
48
1
60
0
100
AcDbLine
10
-47.426311
20
-9.888738
30
0
11
-47.426311
21
0
31
0
39
0
210
0
220
0
230
1
0
LINE
5
DD
100
AcDbEntity
8
SK1
62
256
6
ByLayer
370
13
48
1
60
0
100
AcDbLine
10
-47.426311
20
0
30
0
11
-47.426311
21
9.888738
31
0
39
0
210
0
220
0
230
1
0
LINE
5
DE
100
AcDbEntity
8
SK1
62
256
6
ByLayer
370
13
48
1
60
0
100
AcDbLine
10
-0.15
20
0
30
0
11
-0.15
21
-9.74675
31
0
39
0
210
0
220
0
230
1
0
LINE
5
DF
100
AcDbEntity
8
SK1
62
256
6
ByLayer
370
13
48
1
60
0
100
AcDbLine
10
-0.15
20
9.74675
30
0
11
-0.15
21
0
31
0
39
0
210
0
220
0
230
1
0
LINE
5
E0
100
AcDbEntity
8
SK1
62
256
6
ByLayer
370
18
48
1
60
0
100
AcDbLine
10
-43.5
20
-5.922852
30
0
11
-6.5
21
-5.922852
31
0
39
0
210
0
220
0
230
1
0
MTEXT
5
1A2
100
AcDbEntity
8
SK6
62
256
6
ByLayer
370
13
48
1
60
0
100
AcDbMText
10
40.612304
20
29.375134
30
0
210
0
220
0
230
1
1
\W0.7075;870-1400-14L20-10
40
3.5
41
0
44
1.084337
50
0
71
7
72
5
7
iso_b_vert
0
DIMENSION
5
1B0
100
AcDbEntity
8
2
62
256
6
ByLayer
370
13
48
1
60
0
100
AcDbDimension
2
DimnDraft3D1
10
16
20
-20
30
0
11
93.5
21
-20
31
0
70
32
71
5
72
1
41
1
210
0
220
0
230
1
3
Standard
100
AcDbAlignedDimension
13
171
23
-1.5875
33
0
14
16
24
-8.5875
34
0
50
0
100
AcDbRotatedDimension
1001
ACAD
1000
DSTYLE
1002
{
1070
   279
1070
     0
1070
   172
1070
     1
1070
   173
1070
     1
1070
   340
1005
1A3
1070
   271
1070
     1
1070
   272
1070
     2
1070
    77
1070
     1
1070
    73
1070
     0
1070
   171
1070
     3
1070
   274
1070
     4
1070
   177
1070
     7
1070
   176
1070
     7
1070
   178
1070
     7
1070
    48
1040
-0.005
1070
    41
1041
3.5
1070
   147
1041
1.5
1070
    42
1041
1.5875
1070
    44
1041
2.0
1070
   140
1041
3.0
1070
   343
1005
0
1070
   344
1005
0
1002
}
0
DIMENSION
5
1BA
100
AcDbEntity
8
2
62
256
6
ByLayer
370
13
48
1
60
0
100
AcDbDimension
2
DimnDraft3D2
10
18.73
20
14
30
0
11
94.865
21
14
31
0
70
32
71
5
72
1
41
1
210
0
220
0
230
1
3
Standard
100
AcDbAlignedDimension
13
171
23
1.5875
33
0
14
18.73
24
8.5875
34
0
50
0
100
AcDbRotatedDimension
1001
ACAD
1000
DSTYLE
1002
{
1070
   279
1070
     0
1070
   172
1070
     1
1070
   173
1070
     1
1070
   340
1005
1A3
1070
   271
1070
     1
1070
   272
1070
     2
1070
    77
1070
     1
1070
    73
1070
     0
1070
   171
1070
     3
1070
   274
1070
     4
1070
   177
1070
     7
1070
   176
1070
     7
1070
   178
1070
     7
1070
    48
1040
-0.005
1070
    41
1041
3.5
1070
   147
1041
1.5
1070
    42
1041
1.5875
1070
    44
1041
2.0
1070
   140
1041
3.0
1070
   343
1005
0
1070
   344
1005
0
1002
}
0
DIMENSION
5
1C5
100
AcDbEntity
8
SK2
62
256
6
ByLayer
370
13
48
1
60
0
100
AcDbDimension
2
DimnDraft3D3
10
0
20
-33
30
0
11
-25
21
-33
31
0
70
32
71
5
72
1
41
1
210
0
220
0
230
1
3
Standard
100
AcDbAlignedDimension
13
-50
23
-11.5875
33
0
14
0
24
-14.0875
34
0
50
0
100
AcDbRotatedDimension
1001
ACAD
1000
DSTYLE
1002
{
1070
   279
1070
     0
1070
   172
1070
     1
1070
   173
1070
     1
1070
   340
1005
1A3
1070
   271
1070
     1
1070
   272
1070
     2
1070
    77
1070
     1
1070
    73
1070
     0
1070
   171
1070
     3
1070
   274
1070
     4
1070
   177
1070
     7
1070
   176
1070
     7
1070
   178
1070
     7
1070
    48
1040
-0.005
1070
    41
1041
3.5
1070
   147
1041
1.5
1070
    42
1041
1.5875
1070
    44
1041
2.0
1070
   140
1041
3.0
1070
   343
1005
0
1070
   344
1005
0
1002
}
0
DIMENSION
5
1CF
100
AcDbEntity
8
2
62
256
6
ByLayer
370
13
48
1
60
0
100
AcDbDimension
2
DimnDraft3D4
10
171
20
-33
30
0
11
85.5
21
-33
31
0
70
32
71
5
72
1
41
1
210
0
220
0
230
1
3
Standard
100
AcDbAlignedDimension
13
0
23
-14.0875
33
0
14
171
24
-1.5875
34
0
50
0
100
AcDbRotatedDimension
1001
ACAD
1000
DSTYLE
1002
{
1070
   279
1070
     0
1070
   172
1070
     1
1070
   173
1070
     1
1070
   340
1005
1A3
1070
   271
1070
     1
1070
   272
1070
     2
1070
    77
1070
     1
1070
    73
1070
     0
1070
   171
1070
     3
1070
   274
1070
     4
1070
   177
1070
     7
1070
   176
1070
     7
1070
   178
1070
     7
1070
    48
1040
-0.005
1070
    41
1041
3.5
1070
   147
1041
1.5
1070
    42
1041
1.5875
1070
    44
1041
2.0
1070
   140
1041
3.0
1070
   343
1005
0
1070
   344
1005
0
1002
}
0
DIMENSION
5
1DA
100
AcDbEntity
8
SK2
62
256
6
ByLayer
370
13
48
1
60
0
100
AcDbDimension
2
DimnDraft3D5
10
-58.25
20
-10
30
0
11
-58.5
21
-0.520456
31
0
70
33
71
5
72
1
41
1
210
0
220
0
230
1
3
Standard
100
AcDbAlignedDimension
13
-51.5875
23
10
33
0
14
-51.5875
24
-10
34
0
1001
ACAD
1000
DSTYLE
1002
{
1070
   279
1070
     0
1070
    74
1070
     0
1070
   173
1070
     1
1070
   340
1005
1A3
1070
   271
1070
     1
1070
   272
1070
     2
1070
    77
1070
     1
1070
    73
1070
     0
1070
   171
1070
     3
1070
   274
1070
     4
1070
   177
1070
     7
1070
   176
1070
     7
1070
   178
1070
     7
1070
    48
1040
-0.005
1070
    41
1041
3.5
1070
   147
1041
1.5
1070
    42
1041
1.5875
1070
    44
1041
2.0
1070
   140
1041
3.0
1070
   343
1005
0
1070
   344
1005
0
1002
}
0
ENDSEC
0
SECTION
2
OBJECTS
0
DICTIONARY
5
245
330
0
100
AcDbDictionary
280
0
281
1
3
ACAD_GROUP
350
246
3
ACAD_MLINESTYLE
350
247
0
DICTIONARY
5
246
330
0
100
AcDbDictionary
280
0
281
1
0
DICTIONARY
5
247
330
0
100
AcDbDictionary
280
0
281
1
3
Standard
350
18
0
MLINESTYLE
5
18
330
247
100
AcDbMlineStyle
2
Standard
70
0
3

62
256
51
90
52
90
71
2
49
-0.5
62
256
6
ByLayer
49
0.5
62
256
6
ByLayer
0
RASTERVARIABLES
5
233
330

100
AcDbRasterVariables
90
0
70
1
71
1
72
1
0
ENDSEC
0
EOF
