0
SECTION
2
HEADER
9
$ACADVER
1
AC1015
9
$DWGCODEPAGE
3
ANSI_1252
9
$HANDSEED
5
234
9
$ANGBASE
50
0
9
$ANGDIR
70
0
9
$ATTMODE
70
1
9
$AUNITS
70
0
9
$AUPREC
70
0
9
$CECOLOR
62
256
9
$CELTSCALE
40
1
9
$CELTYPE
6
ByLayer
9
$CELWEIGHT
370
18
9
$CLAYER
8
0
9
$CMLJUST
70
0
9
$CMLSCALE
40
1
9
$CMLSTYLE
2
Standard
9
$DIMSTYLE
2
Standard
9
$TEXTSIZE
40
0.2
9
$TEXTSTYLE
7
Standard
9
$LUNITS
70
2
9
$LUPREC
70
4
9
$EXTNAMES
290
1
9
$INSUNITS
70
4
9
$LTSCALE
40
1
9
$LWDISPLAY
290
1
9
$PDMODE
70
0
9
$PDSIZE
40
0
9
$PLINEGEN
70
0
0
ENDSEC
0
SECTION
2
CLASSES
0
CLASS
1
RASTERVARIABLES
2
AcDbRasterVariables
3
ISM
90
0
280
0
281
0
0
ENDSEC
0
SECTION
2
TABLES
0
TABLE
2
VPORT
5
22a
100
AcDbSymbolTable
0
VPORT
5
1
100
AcDbSymbolTableRecord
100
AcDbViewportTableRecord
2
*Active
70
0
10
0
20
0
11
1
21
1
12
-1
22
1
13
0
23
0
14
0.5
24
0.5
15
10
25
10
16
0
26
0
36
1
17
0
27
0
37
0
0
ENDTAB
0
TABLE
2
LTYPE
5
22b
100
AcDbSymbolTable
0
LTYPE
5
14
100
AcDbSymbolTableRecord
100
AcDbLinetypeTableRecord
70
0
2
ByBlock
3

72
65
73
0
40
0
0
LTYPE
5
15
100
AcDbSymbolTableRecord
100
AcDbLinetypeTableRecord
70
0
2
ByLayer
3

72
65
73
0
40
0
0
LTYPE
5
16
100
AcDbSymbolTableRecord
100
AcDbLinetypeTableRecord
70
0
2
CONTINUOUS
3
Solid line
72
65
73
0
40
0
0
LTYPE
5
6A
100
AcDbSymbolTableRecord
100
AcDbLinetypeTableRecord
70
0
2
CENTER
3
____ _ ____ _ ____ _ ____
72
65
73
4
40
47.5
49
22
74
0
49
-8.5
74
0
49
8.5
74
0
49
-8.5
74
0
0
LTYPE
5
6B
100
AcDbSymbolTableRecord
100
AcDbLinetypeTableRecord
70
0
2
DASHED
3
__ __ __ __ __ __ __ __ __
72
65
73
2
40
25.72
49
12.86
74
0
49
-12.86
74
0
0
ENDTAB
0
TABLE
2
LAYER
5
22c
100
AcDbSymbolTable
0
LAYER
5
10
100
AcDbSymbolTableRecord
100
AcDbLayerTableRecord
2
0
70
0
62
7
6
CONTINUOUS
290
1
370
-3
390
0
0
LAYER
5
6D
100
AcDbSymbolTableRecord
100
AcDbLayerTableRecord
2
80
70
0
62
-6
6
CONTINUOUS
290
1
370
-3
390
0
0
LAYER
5
6F
100
AcDbSymbolTableRecord
100
AcDbLayerTableRecord
2
81
70
0
62
-3
6
CONTINUOUS
290
1
370
-3
390
0
0
LAYER
5
72
100
AcDbSymbolTableRecord
100
AcDbLayerTableRecord
2
1
70
0
62
4
6
CONTINUOUS
290
1
370
-3
390
0
0
LAYER
5
8F
100
AcDbSymbolTableRecord
100
AcDbLayerTableRecord
2
4
70
0
62
-2
6
CENTER
290
1
370
-3
390
0
0
LAYER
5
18A
100
AcDbSymbolTableRecord
100
AcDbLayerTableRecord
2
2
70
0
62
7
6
CONTINUOUS
290
1
370
-3
390
0
0
LAYER
5
216
100
AcDbSymbolTableRecord
100
AcDbLayerTableRecord
2
SK1
70
0
62
4
6
CONTINUOUS
290
1
370
-3
390
0
0
LAYER
5
217
100
AcDbSymbolTableRecord
100
AcDbLayerTableRecord
2
SK4
70
0
62
2
6
CENTER
290
1
370
-3
390
0
0
LAYER
5
218
100
AcDbSymbolTableRecord
100
AcDbLayerTableRecord
2
SK6
70
0
62
5
6
CONTINUOUS
290
1
370
-3
390
0
0
LAYER
5
219
100
AcDbSymbolTableRecord
100
AcDbLayerTableRecord
2
SK2
70
0
62
7
6
CONTINUOUS
290
1
370
-3
390
0
0
ENDTAB
0
TABLE
2
STYLE
5
22d
100
AcDbSymbolTable
0
STYLE
5
11
100
AcDbSymbolTableRecord
100
AcDbTextStyleTableRecord
2
Standard
3
txt
70
0
71
0
40
0
41
1
42
0
50
0
0
STYLE
5
185
100
AcDbSymbolTableRecord
100
AcDbTextStyleTableRecord
2
iso_b_vert
3
simplex.shx
70
0
71
0
40
0
41
1
42
0
50
0
0
STYLE
5
186
100
AcDbSymbolTableRecord
100
AcDbTextStyleTableRecord
2
DWGDirectTextStyle
3
simplex
70
0
71
0
40
0
41
1
42
0
50
0
0
ENDTAB
0
TABLE
2
DIMSTYLE
5
22e
100
AcDbSymbolTable
100
AcDbDimStyleTable
0
DIMSTYLE
105
27
100
AcDbSymbolTableRecord
100
AcDbDimStyleTableRecord
2
Standard
70
0
3
<>
41
0.18
42
0.0625
44
0.18
140
0.18
147
0.09
73
0
74
0
77
1
271
2
275
0
278
52
280
0
340
11
0
ENDTAB
0
TABLE
2
VIEW
5
22f
100
AcDbSymbolTable
0
ENDTAB
0
TABLE
2
UCS
5
230
100
AcDbSymbolTable
0
ENDTAB
0
TABLE
2
APPID
5
231
100
AcDbSymbolTable
0
APPID
5
12
100
AcDbSymbolTableRecord
100
AcDbRegAppTableRecord
2
ACAD
70
0
0
ENDTAB
0
TABLE
2
BLOCK_RECORD
5
232
100
AcDbSymbolTable
0
BLOCK_RECORD
5
1F
100
AcDbSymbolTableRecord
100
AcDbBlockTableRecord
2
*Model_Space
340
0
70
0
0
BLOCK_RECORD
5
1B
100
AcDbSymbolTableRecord
100
AcDbBlockTableRecord
2
*Paper_Space
340
0
70
0
0
BLOCK_RECORD
5
23
100
AcDbSymbolTableRecord
100
AcDbBlockTableRecord
2
*Paper_Space0
340
0
70
0
0
BLOCK_RECORD
5
188
100
AcDbSymbolTableRecord
100
AcDbBlockTableRecord
2
DimnDraft3D1
340
0
70
0
0
BLOCK_RECORD
5
193
100
AcDbSymbolTableRecord
100
AcDbBlockTableRecord
2
DimnDraft3D2
340
0
70
0
0
BLOCK_RECORD
5
19D
100
AcDbSymbolTableRecord
100
AcDbBlockTableRecord
2
DimnDraft3D3
340
0
70
0
0
BLOCK_RECORD
5
1A8
100
AcDbSymbolTableRecord
100
AcDbBlockTableRecord
2
DimnDraft3D4
340
0
70
0
0
BLOCK_RECORD
5
1B2
100
AcDbSymbolTableRecord
100
AcDbBlockTableRecord
2
DimnDraft3D5
340
0
70
0
0
ENDTAB
0
ENDSEC
0
SECTION
2
BLOCKS
0
BLOCK
5
20
100
AcDbEntity
8
0
100
AcDbBlockBegin
2
*Model_Space
70
0
10
0
20
0
30
0
3
*Model_Space
0
ENDBLK
5
21
100
AcDbEntity
8
0
100
AcDbBlockEnd
0
BLOCK
5
1C
100
AcDbEntity
8
0
100
AcDbBlockBegin
2
*Paper_Space
70
0
10
0
20
0
30
0
3
*Paper_Space
0
ENDBLK
5
1D
100
AcDbEntity
8
0
100
AcDbBlockEnd
0
BLOCK
5
24
100
AcDbEntity
8
0
100
AcDbBlockBegin
2
*Paper_Space0
70
0
10
0
20
0
30
0
3
*Paper_Space0
0
ENDBLK
5
25
100
AcDbEntity
8
0
100
AcDbBlockEnd
0
BLOCK
5
190
100
AcDbEntity
8
0
100
AcDbBlockBegin
2
DimnDraft3D1
70
0
10
0
20
0
30
0
3
DimnDraft3D1
0
MTEXT
5
189
100
AcDbEntity
8
2
62
256
6
ByLayer
370
13
48
1
60
0
100
AcDbMText
10
31.571601
20
-18.499886
30
0
210
0
220
0
230
1
1
\W0.7640;43.0
40
3
41
0
44
1.084337
50
0
71
7
72
5
7
iso_b_vert
0
LINE
5
18B
100
AcDbEntity
8
2
62
256
6
ByLayer
370
13
48
1
60
0
100
AcDbLine
10
56
20
-1.5875
30
0
11
56
21
-21.25
31
0
39
0
210
0
220
0
230
1
0
LINE
5
18C
100
AcDbEntity
8
2
62
256
6
ByLayer
370
13
48
1
60
0
100
AcDbLine
10
13
20
-7.8375
30
0
11
13
21
-21.25
31
0
39
0
210
0
220
0
230
1
0
LINE
5
18D
100
AcDbEntity
8
2
62
256
6
ByLayer
370
13
48
1
60
0
100
AcDbLine
10
56
20
-19.25
30
0
11
13
21
-19.25
31
0
39
0
210
0
220
0
230
1
0
SOLID
5
18E
100
AcDbEntity
8
2
62
256
6
ByLayer
370
13
48
1
60
0
100
AcDbTrace
10
56
20
-19.25
30
0
11
52.500002
21
-19.710784
31
0
12
52.499998
22
-18.789216
32
0
13
56
23
-19.25
33
0
39
0
210
0
220
0
230
1
0
SOLID
5
18F
100
AcDbEntity
8
2
62
256
6
ByLayer
370
13
48
1
60
0
100
AcDbTrace
10
13
20
-19.25
30
0
11
16.499998
21
-18.789216
31
0
12
16.500002
22
-19.710784
32
0
13
13
23
-19.25
33
0
39
0
210
0
220
0
230
1
0
ENDBLK
5
191
100
AcDbEntity
8
0
100
AcDbBlockEnd
0
BLOCK
5
19A
100
AcDbEntity
8
0
100
AcDbBlockBegin
2
DimnDraft3D2
70
0
10
0
20
0
30
0
3
DimnDraft3D2
0
MTEXT
5
194
100
AcDbEntity
8
2
62
256
6
ByLayer
370
13
48
1
60
0
100
AcDbMText
10
32.963044
20
14.000114
30
0
210
0
220
0
230
1
1
\W0.6856;41.0
40
3
41
0
44
1.084337
50
0
71
7
72
5
7
iso_b_vert
0
LINE
5
195
100
AcDbEntity
8
2
62
256
6
ByLayer
370
13
48
1
60
0
100
AcDbLine
10
56
20
1.5875
30
0
11
56
21
15.25
31
0
39
0
210
0
220
0
230
1
0
LINE
5
196
100
AcDbEntity
8
2
62
256
6
ByLayer
370
13
48
1
60
0
100
AcDbLine
10
15.033
20
7.8375
30
0
11
15.033
21
15.25
31
0
39
0
210
0
220
0
230
1
0
LINE
5
197
100
AcDbEntity
8
2
62
256
6
ByLayer
370
13
48
1
60
0
100
AcDbLine
10
56
20
13.25
30
0
11
15.033
21
13.25
31
0
39
0
210
0
220
0
230
1
0
SOLID
5
198
100
AcDbEntity
8
2
62
256
6
ByLayer
370
13
48
1
60
0
100
AcDbTrace
10
56
20
13.25
30
0
11
52.500002
21
12.789216
31
0
12
52.499998
22
13.710784
32
0
13
56
23
13.25
33
0
39
0
210
0
220
0
230
1
0
SOLID
5
199
100
AcDbEntity
8
2
62
256
6
ByLayer
370
13
48
1
60
0
100
AcDbTrace
10
15.033
20
13.25
30
0
11
18.532998
21
13.710784
31
0
12
18.533002
22
12.789216
32
0
13
15.033
23
13.25
33
0
39
0
210
0
220
0
230
1
0
ENDBLK
5
19B
100
AcDbEntity
8
0
100
AcDbBlockEnd
0
BLOCK
5
1A5
100
AcDbEntity
8
0
100
AcDbBlockBegin
2
DimnDraft3D3
70
0
10
0
20
0
30
0
3
DimnDraft3D3
0
MTEXT
5
19E
100
AcDbEntity
8
SK2
62
256
6
ByLayer
370
13
48
1
60
0
100
AcDbMText
10
-26.928399
20
-30.249886
30
0
210
0
220
0
230
1
1
\W0.7640;48.0
40
3
41
0
44
1.084337
50
0
71
7
72
5
7
iso_b_vert
0
LINE
5
1A0
100
AcDbEntity
8
SK2
62
256
6
ByLayer
370
13
48
1
60
0
100
AcDbLine
10
-48
20
-9.5875
30
0
11
-48
21
-33
31
0
39
0
210
0
220
0
230
1
0
LINE
5
1A1
100
AcDbEntity
8
SK2
62
256
6
ByLayer
370
13
48
1
60
0
100
AcDbLine
10
0
20
-11.5875
30
0
11
0
21
-33
31
0
39
0
210
0
220
0
230
1
0
LINE
5
1A2
100
AcDbEntity
8
SK2
62
256
6
ByLayer
370
13
48
1
60
0
100
AcDbLine
10
-48
20
-31
30
0
11
0
21
-31
31
0
39
0
210
0
220
0
230
1
0
SOLID
5
1A3
100
AcDbEntity
8
SK2
62
256
6
ByLayer
370
13
48
1
60
0
100
AcDbTrace
10
-48
20
-31
30
0
11
-44.500002
21
-30.539216
31
0
12
-44.499998
22
-31.460784
32
0
13
-48
23
-31
33
0
39
0
210
0
220
0
230
1
0
SOLID
5
1A4
100
AcDbEntity
8
SK2
62
256
6
ByLayer
370
13
48
1
60
0
100
AcDbTrace
10
0
20
-31
30
0
11
-3.499998
21
-31.460784
31
0
12
-3.500002
22
-30.539216
32
0
13
0
23
-31
33
0
39
0
210
0
220
0
230
1
0
ENDBLK
5
1A6
100
AcDbEntity
8
0
100
AcDbBlockEnd
0
BLOCK
5
1AF
100
AcDbEntity
8
0
100
AcDbBlockBegin
2
DimnDraft3D4
70
0
10
0
20
0
30
0
3
DimnDraft3D4
0
MTEXT
5
1A9
100
AcDbEntity
8
2
62
256
6
ByLayer
370
13
48
1
60
0
100
AcDbMText
10
25.229544
20
-30.249886
30
0
210
0
220
0
230
1
1
\W0.7346;56.0
40
3
41
0
44
1.084337
50
0
71
7
72
5
7
iso_b_vert
0
LINE
5
1AA
100
AcDbEntity
8
2
62
256
6
ByLayer
370
13
48
1
60
0
100
AcDbLine
10
0
20
-11.5875
30
0
11
0
21
-33
31
0
39
0
210
0
220
0
230
1
0
LINE
5
1AB
100
AcDbEntity
8
2
62
256
6
ByLayer
370
13
48
1
60
0
100
AcDbLine
10
56
20
-1.5875
30
0
11
56
21
-33
31
0
39
0
210
0
220
0
230
1
0
LINE
5
1AC
100
AcDbEntity
8
2
62
256
6
ByLayer
370
13
48
1
60
0
100
AcDbLine
10
0
20
-31
30
0
11
56
21
-31
31
0
39
0
210
0
220
0
230
1
0
SOLID
5
1AD
100
AcDbEntity
8
2
62
256
6
ByLayer
370
13
48
1
60
0
100
AcDbTrace
10
0
20
-31
30
0
11
3.499998
21
-30.539216
31
0
12
3.500002
22
-31.460784
32
0
13
0
23
-31
33
0
39
0
210
0
220
0
230
1
0
SOLID
5
1AE
100
AcDbEntity
8
2
62
256
6
ByLayer
370
13
48
1
60
0
100
AcDbTrace
10
56
20
-31
30
0
11
52.500002
21
-31.460784
31
0
12
52.499998
22
-30.539216
32
0
13
56
23
-31
33
0
39
0
210
0
220
0
230
1
0
ENDBLK
5
1B0
100
AcDbEntity
8
0
100
AcDbBlockEnd
0
BLOCK
5
1BA
100
AcDbEntity
8
0
100
AcDbBlockBegin
2
DimnDraft3D5
70
0
10
0
20
0
30
0
3
DimnDraft3D5
0
MTEXT
5
1B3
100
AcDbEntity
8
SK2
62
256
6
ByLayer
370
13
48
1
60
0
100
AcDbMText
10
-55.750114
20
0.604486
30
0
210
0
220
0
230
1
1
\W0.6563;16.0
40
3
41
0
44
1.084337
50
90
71
7
72
5
7
iso_b_vert
0
MTEXT
5
1B4
100
AcDbEntity
8
SK2
62
256
6
ByLayer
370
13
48
1
60
0
100
AcDbMText
10
-55.750114
20
-3.872076
30
0
210
0
220
0
230
1
1
%%c
40
3
41
0
44
1.084337
50
90
71
7
72
5
7
iso_b_vert
0
LINE
5
1B5
100
AcDbEntity
8
SK2
62
256
6
ByLayer
370
13
48
1
60
0
100
AcDbLine
10
-49.5875
20
8
30
0
11
-56.25
21
8
31
0
39
0
210
0
220
0
230
1
0
LINE
5
1B6
100
AcDbEntity
8
SK2
62
256
6
ByLayer
370
13
48
1
60
0
100
AcDbLine
10
-49.5875
20
-8
30
0
11
-56.25
21
-8
31
0
39
0
210
0
220
0
230
1
0
LINE
5
1B7
100
AcDbEntity
8
SK2
62
256
6
ByLayer
370
13
48
1
60
0
100
AcDbLine
10
-54.25
20
8
30
0
11
-54.25
21
-8
31
0
39
0
210
0
220
0
230
1
0
SOLID
5
1B8
100
AcDbEntity
8
SK2
62
256
6
ByLayer
370
13
48
1
60
0
100
AcDbTrace
10
-54.25
20
8
30
0
11
-53.789216
21
4.500002
31
0
12
-54.710784
22
4.499998
32
0
13
-54.25
23
8
33
0
39
0
210
0
220
0
230
1
0
SOLID
5
1B9
100
AcDbEntity
8
SK2
62
256
6
ByLayer
370
13
48
1
60
0
100
AcDbTrace
10
-54.25
20
-8
30
0
11
-54.710784
21
-4.500002
31
0
12
-53.789216
22
-4.499998
32
0
13
-54.25
23
-8
33
0
39
0
210
0
220
0
230
1
0
ENDBLK
5
1BB
100
AcDbEntity
8
0
100
AcDbBlockEnd
0
ENDSEC
0
SECTION
2
ENTITIES
0
ARC
5
DD
100
AcDbEntity
8
SK1
62
256
6
ByLayer
370
18
48
1
60
0
100
AcDbCircle
39
0
10
46.069726
20
-8.59725
30
0
40
0.800000000000008
210
0
220
0
230
-1
100
AcDbArc
50
51
51
110.978152
0
ARC
5
DE
100
AcDbEntity
8
SK1
62
256
6
ByLayer
370
18
48
1
60
0
100
AcDbCircle
39
0
10
46.069726
20
8.59725
30
0
40
0.800000000000008
210
0
220
0
230
-1
100
AcDbArc
50
249.021848
51
309
0
ARC
5
DF
100
AcDbEntity
8
SK1
62
256
6
ByLayer
370
18
48
1
60
0
100
AcDbCircle
39
0
10
0.975195
20
8.14725
30
0
40
0.4
210
0
220
0
230
-1
100
AcDbArc
50
270
51
295
0
ARC
5
E0
100
AcDbEntity
8
SK1
62
256
6
ByLayer
370
18
48
1
60
0
100
AcDbCircle
39
0
10
0.975195
20
-8.14725
30
0
40
0.4
210
0
220
0
230
-1
100
AcDbArc
50
65
51
90
0
ARC
5
E1
100
AcDbEntity
8
1
62
256
6
ByLayer
370
18
48
1
60
0
100
AcDbCircle
39
0
10
-13
20
10
30
0
40
3.99999999999999
210
0
220
0
230
-1
100
AcDbArc
50
270
51
303.690508
0
ARC
5
E2
100
AcDbEntity
8
1
62
256
6
ByLayer
370
18
48
1
60
0
100
AcDbCircle
39
0
10
-13
20
-10
30
0
40
3.99999999999999
210
0
220
0
230
-1
100
AcDbArc
50
56.309492
51
90
0
ARC
5
E3
100
AcDbEntity
8
SK1
62
256
6
ByLayer
370
18
48
1
60
0
100
AcDbCircle
39
0
10
0.15
20
8.14725
30
0
40
0.4
210
0
220
0
230
-1
100
AcDbArc
50
247.975687
51
270
0
ARC
5
E4
100
AcDbEntity
8
SK1
62
256
6
ByLayer
370
18
48
1
60
0
100
AcDbCircle
39
0
10
0.15
20
-8.14725
30
0
40
0.4
210
0
220
0
230
-1
100
AcDbArc
50
90
51
112.024313
0
ELLIPSE
5
E5
100
AcDbEntity
8
1
62
256
6
ByLayer
370
18
48
1
60
0
100
AcDbEllipse
10
56
20
0
30
0
11
2.19576453940328
21
6.24857362178017
31
0
210
0
220
0
230
1
40
0.060808
41
-2.86237524616627
42
-2.77430612337775
0
ELLIPSE
5
E6
100
AcDbEntity
8
1
62
256
6
ByLayer
370
18
48
1
60
0
100
AcDbEllipse
10
55.973107
20
0.12451
30
0
11
0.0472765641574
21
-0.150392792352288
31
0
210
0
220
0
230
1
40
0.048492
41
-2.46903554446939
42
-1.77666834980922
0
ELLIPSE
5
E7
100
AcDbEntity
8
1
62
256
6
ByLayer
370
18
48
1
60
0
100
AcDbEllipse
10
60.40057
20
0
30
0
11
8.27188603483356
21
5.60708446635869
31
0
210
0
220
0
230
1
40
0.290406
41
2.83239941727507
42
3.12535377440265
0
ELLIPSE
5
E8
100
AcDbEntity
8
1
62
256
6
ByLayer
370
18
48
1
60
0
100
AcDbEllipse
10
55.973107
20
-0.12451
30
0
11
0.0472765641506382
21
0.150392792333187
31
0
210
0
220
0
230
1
40
0.048492
41
1.77666834972853
42
2.4690355444618
0
ELLIPSE
5
E9
100
AcDbEntity
8
1
62
256
6
ByLayer
370
18
48
1
60
0
100
AcDbEllipse
10
49.863845
20
-0.867737
30
0
11
1.07112400706987
21
0.289725541861723
31
0
210
0
220
0
230
1
40
0.789133
41
1.95657952018337
42
-1.78383012096117
0
ELLIPSE
5
EA
100
AcDbEntity
8
1
62
256
6
ByLayer
370
18
48
1
60
0
100
AcDbEllipse
10
33.522697
20
1E-06
30
0
11
24.4616504380469
21
-5.79878015241997
31
0
210
0
220
0
230
1
40
0.077394
41
-1.42646251307552
42
-1.39850606837595
0
ELLIPSE
5
EB
100
AcDbEntity
8
1
62
256
6
ByLayer
370
18
48
1
60
0
100
AcDbEllipse
10
56
20
0
30
0
11
2.19576457373734
21
-6.24857372593232
31
0
210
0
220
0
230
1
40
0.060808
41
2.77430612640548
42
2.86237524842508
0
ELLIPSE
5
EC
100
AcDbEntity
8
1
62
256
6
ByLayer
370
18
48
1
60
0
100
AcDbEllipse
10
13.470066
20
-0.609032
30
0
11
1.76897252830792
21
3.58758082753433
31
0
210
0
220
0
230
1
40
0.671673
41
0.522437902187251
42
2.75833471871313
0
ELLIPSE
5
ED
100
AcDbEntity
8
1
62
256
6
ByLayer
370
18
48
1
60
0
100
AcDbEllipse
10
51.137947
20
0
30
0
11
7.32301958972635
21
-2.49872667153522E-08
31
0
210
0
220
0
230
1
40
0.816497
41
-1.91128728051112
42
-1.86426214022241
0
ELLIPSE
5
EE
100
AcDbEntity
8
1
62
256
6
ByLayer
370
18
48
1
60
0
100
AcDbEllipse
10
45.87
20
-2.670098
30
0
11
-1.51
21
1.84915559427179E-16
31
0
210
0
220
0
230
1
40
0.702153
41
0.815733824020805
42
2.32841064763017
0
ELLIPSE
5
EF
100
AcDbEntity
8
1
62
256
6
ByLayer
370
18
48
1
60
0
100
AcDbEllipse
10
39.923073
20
-0.047375
30
0
11
0.644458998783697
21
6.04750366834195
31
0
210
0
220
0
230
1
40
0.349288
41
-2.49617523005427
42
-2.4923439375329
0
ELLIPSE
5
F0
100
AcDbEntity
8
1
62
256
6
ByLayer
370
18
48
1
60
0
100
AcDbEllipse
10
45.71
20
-2.670098
30
0
11
1.04999999999999
21
0
31
0
210
0
220
0
230
1
40
0.702153
41
-2.18645031599825
42
-0.773617528715214
0
ELLIPSE
5
F1
100
AcDbEntity
8
1
62
256
6
ByLayer
370
18
48
1
60
0
100
AcDbEllipse
10
51.150811
20
-0.926937
30
0
11
0.267096300448233
21
-0.907969877944417
31
0
210
0
220
0
230
1
40
0.31499
41
0.0645332158430551
42
-3.07705943774679
0
ELLIPSE
5
F2
100
AcDbEntity
8
1
62
256
6
ByLayer
370
18
48
1
60
0
100
AcDbEllipse
10
39.916164
20
0.002252
30
0
11
0.638714037909564
21
-6.09363103825103
31
0
210
0
220
0
230
1
40
0.348852
41
2.49513347333608
42
2.49894745763194
0
ELLIPSE
5
F3
100
AcDbEntity
8
1
62
256
6
ByLayer
370
18
48
1
60
0
100
AcDbEllipse
10
15.146779
20
0
30
0
11
13.0030242268701
21
-4.34553101641533
31
0
210
0
220
0
230
1
40
0.329226
41
1.44013942593028
42
1.47604902465506
0
POINT
5
6C
100
AcDbEntity
8
80
62
256
6
ByLayer
370
18
48
1
60
0
100
AcDbPoint
10
0
20
0
30
0
39
0
210
0
220
0
230
1
50
360
0
POINT
5
6E
100
AcDbEntity
8
81
62
256
6
ByLayer
370
18
48
1
60
0
100
AcDbPoint
10
48.5
20
0
30
0
39
0
210
0
220
0
230
1
50
360
0
SPLINE
5
F4
100
AcDbEntity
8
1
62
256
6
ByLayer
370
18
48
1
60
0
100
AcDbSpline
70
4
71
3
72
13
73
9
40
0
40
0
40
0
40
0
40
0.194035660560896
40
0.386592817925514
40
0.574264614544875
40
0.717397891974745
40
0.858009635643934
40
1
40
1
40
1
40
1
41
1
10
10.6979690105879
20
6.72728655030934
30
0
41
1
10
10.2956429045756
20
7.00677687237536
30
0
41
1
10
9.49103759234831
20
7.55934439650232
30
0
41
1
10
8.30956464108613
20
8.39953045378812
30
0
41
1
10
7.18402433853095
20
9.09619983305984
30
0
41
1
10
6.10678541310875
20
9.60673007423597
30
0
41
1
10
5.07184288861302
20
9.92527198761317
30
0
41
1
10
4.36322549066523
20
9.99605229561519
30
0
41
1
10
4.0001
20
10
30
0
0
SPLINE
5
F5
100
AcDbEntity
8
1
62
256
6
ByLayer
370
18
48
1
60
0
100
AcDbSpline
70
4
71
3
72
13
73
9
40
0
40
0
40
0
40
0
40
0.13562002728142
40
0.269772489559071
40
0.406017540090043
40
0.545721940321162
40
0.771375222435791
40
1
40
1
40
1
40
1
41
1
10
4.0001
20
-10
30
0
41
1
10
4.34664311929836
20
-9.99666841864095
30
0
41
1
10
5.02345158313727
20
-9.93187732486257
30
0
41
1
10
6.01370989369073
20
-9.64040236925018
30
0
41
1
10
6.95734699838198
20
-9.21007969355685
30
0
41
1
10
8.05325951191941
20
-8.57195155986224
30
0
41
1
10
9.28050924949403
20
-7.70862170870922
30
0
41
1
10
10.2263590388107
20
-7.06021159753018
30
0
41
1
10
10.6979690105879
20
-6.72728655030934
30
0
0
SPLINE
5
F6
100
AcDbEntity
8
1
62
256
6
ByLayer
370
18
48
1
60
0
100
AcDbSpline
70
4
71
3
72
19
73
15
40
0
40
0
40
0
40
0
40
0.0791689297197971
40
0.198572651752273
40
0.300094339441561
40
0.383767180219356
40
0.449627738719794
40
0.497763883716493
40
0.540081131901563
40
0.598510194507806
40
0.673644166641976
40
0.765554524164939
40
0.874312735393549
40
1
40
1
40
1
40
1
41
1
10
24.8597492054833
20
5.84486845979205
30
0
41
1
10
24.6194738428098
20
5.84431049117728
30
0
41
1
10
24.0167686256204
20
5.84276261240115
30
0
41
1
10
23.1058245436198
20
5.83946392094313
30
0
41
1
10
22.1809082216939
20
5.8362262247677
30
0
41
1
10
21.4183560860461
20
5.83423717674646
30
0
41
1
10
20.8177481994484
20
5.83347113756975
30
0
41
1
10
20.3436914489487
20
5.83382477295902
30
0
41
1
10
19.8946892274073
20
5.83451089916073
30
0
41
1
10
19.3604951074004
20
5.83485189295709
30
0
41
1
10
18.6759563016364
20
5.83593704938053
30
0
41
1
10
17.8380801143621
20
5.83826569887859
30
0
41
1
10
16.8467652142976
20
5.84271089874699
30
0
41
1
10
16.1347098145995
20
5.84720546406064
30
0
41
1
10
15.7529999998099
20
5.84999965881411
30
0
0
SPLINE
5
F7
100
AcDbEntity
8
1
62
256
6
ByLayer
370
18
48
1
60
0
100
AcDbSpline
70
4
71
1
72
4
73
2
40
0
40
0
40
1
40
1
41
1
10
29.5378079874196
20
-1.76749070162586
30
0
41
1
10
29.9156572085778
20
-1.8906914224533
30
0
0
SPLINE
5
F8
100
AcDbEntity
8
1
62
256
6
ByLayer
370
18
48
1
60
0
100
AcDbSpline
70
4
71
3
72
19
73
15
40
0
40
0
40
0
40
0
40
0.125689315707794
40
0.234449301771062
40
0.3263611591871
40
0.401496357439061
40
0.459926373554231
40
0.502244312318136
40
0.550381242852748
40
0.616242876137337
40
0.699917082379459
40
0.801440426809951
40
0.920846097402095
40
1
40
1
40
1
40
1
41
1
10
15.7529999998099
20
-5.84999965881411
30
0
41
1
10
16.1347098145996
20
-5.84720546406064
30
0
41
1
10
16.8467652142977
20
-5.84271089874704
30
0
41
1
10
17.8380801143621
20
-5.83826569887844
30
0
41
1
10
18.6759563016364
20
-5.83593704938093
30
0
41
1
10
19.3604951074003
20
-5.83485189295604
30
0
41
1
10
19.8946892274076
20
-5.83451089916335
30
0
41
1
10
20.3436914489477
20
-5.83382477295172
30
0
41
1
10
20.8177481994534
20
-5.83347113760664
30
0
41
1
10
21.4183560860166
20
-5.83423717652923
30
0
41
1
10
22.1809082218492
20
-5.83622622590946
30
0
41
1
10
23.1058245428538
20
-5.83946391531265
30
0
41
1
10
24.0167190923273
20
-5.84276245437877
30
0
41
1
10
24.6193747773926
20
-5.84431020690863
30
0
41
1
10
24.8596006147893
20
-5.8448680695675
30
0
0
SPLINE
5
F9
100
AcDbEntity
8
1
62
256
6
ByLayer
370
18
48
1
60
0
100
AcDbSpline
70
4
71
3
72
14
73
10
40
0
40
0
40
0
40
0
40
0.127795711695263
40
0.242474878375684
40
0.347386145207481
40
0.449064519926516
40
0.618404918601828
40
0.836242665851119
40
1
40
1
40
1
40
1
41
1
10
50.4903883822497
20
-6.0999839218033
30
0
41
1
10
50.620027562641
20
-6.09947283578359
30
0
41
1
10
50.8711549630855
20
-6.09852850898918
30
0
41
1
10
51.2468854547861
20
-6.09584716040044
30
0
41
1
10
51.6026751022234
20
-6.09589990740892
30
0
41
1
10
52.0028558655557
20
-6.09913325670843
30
0
41
1
10
52.5350399174687
20
-6.09981880613034
30
0
41
1
10
53.138028345962
20
-6.0999694437283
30
0
41
1
10
53.5561396952339
20
-6.10006021324028
30
0
41
1
10
53.7357690988506
20
-6.10006916026109
30
0
0
SPLINE
5
FA
100
AcDbEntity
8
1
62
256
6
ByLayer
370
18
48
1
60
0
100
AcDbSpline
70
4
71
3
72
8
73
4
40
0
40
0
40
0
40
0
40
1
40
1
40
1
40
1
41
1
10
53.7254954453463
20
6.10000010597915
30
0
41
1
10
53.6388050202801
20
6.0999952741457
30
0
41
1
10
53.5521353219765
20
6.09998656263744
30
0
41
1
10
53.4654784465855
20
6.0999753353552
30
0
0
SPLINE
5
FB
100
AcDbEntity
8
1
62
256
6
ByLayer
370
18
48
1
60
0
100
AcDbSpline
70
4
71
3
72
11
73
7
40
0
40
0
40
0
40
0
40
0.453144066660174
40
0.698161989342774
40
0.950213129822245
40
1
40
1
40
1
40
1
41
1
10
48.5
20
1.48995664873777
30
0
41
1
10
48.4997069166272
20
1.46518879235515
30
0
41
1
10
48.4926116035057
20
1.4295189172488
30
0
41
1
10
48.4682909968129
20
1.38498412874992
30
0
41
1
10
48.4494408109046
20
1.36290500078079
30
0
41
1
10
48.4375344002626
20
1.35210011279466
30
0
41
1
10
48.4355325184818
20
1.35035673985766
30
0
0
SPLINE
5
FC
100
AcDbEntity
8
1
62
256
6
ByLayer
370
18
48
1
60
0
100
AcDbSpline
70
4
71
3
72
8
73
4
40
0
40
0
40
0
40
0
40
1
40
1
40
1
40
1
41
1
10
48.5
20
1.68871314508041
30
0
41
1
10
48.763996309311
20
1.52692224543884
30
0
41
1
10
49.0307408787679
20
1.37474597482546
30
0
41
1
10
49.3
20
1.23136671803454
30
0
0
SPLINE
5
FD
100
AcDbEntity
8
1
62
256
6
ByLayer
370
18
48
1
60
0
100
AcDbSpline
70
4
71
3
72
8
73
4
40
0
40
0
40
0
40
0
40
1
40
1
40
1
40
1
41
1
10
54.28031769829
20
2.04680248411776
30
0
41
1
10
54.2703057894502
20
2.04619874431495
30
0
41
1
10
54.2607498938608
20
2.04241002844964
30
0
41
1
10
54.2526418499771
20
2.03648218305972
30
0
0
SPLINE
5
FE
100
AcDbEntity
8
1
62
256
6
ByLayer
370
18
48
1
60
0
100
AcDbSpline
70
4
71
3
72
8
73
4
40
0
40
0
40
0
40
0
40
1
40
1
40
1
40
1
41
1
10
48.5
20
-5.75934241037984
30
0
41
1
10
48.4683333333333
20
-5.78971363041794
30
0
41
1
10
48.4366666666667
20
-5.82008485045603
30
0
41
1
10
48.405
20
-5.85045607049409
30
0
0
SPLINE
5
FF
100
AcDbEntity
8
1
62
256
6
ByLayer
370
13
48
1
60
0
100
AcDbSpline
70
4
71
3
72
14
73
10
40
0
40
0
40
0
40
0
40
0.25702144250449
40
0.385532163756735
40
0.449787524382858
40
0.514042885008981
40
0.771064327513471
40
0.899575048765716
40
1
40
1
40
1
40
1
41
1
10
48.5
20
4.67471006270395
30
0
41
1
10
49.02311707421
20
4.68907629872598
30
0
41
1
10
49.8077015228916
20
4.69135646769689
30
0
41
1
10
50.7225836290066
20
4.66493766708109
30
0
41
1
10
51.2454846481319
20
4.64308346757508
30
0
41
1
10
52.0301271521041
20
4.60239423779996
30
0
41
1
10
52.9453665508019
20
4.52912241961639
30
0
41
1
10
53.9339236940015
20
4.42231028768413
30
0
41
1
10
54.3997258685442
20
4.36351087078751
30
0
41
1
10
54.6040559309885
20
4.33614329716332
30
0
0
SPLINE
5
100
100
AcDbEntity
8
1
62
256
6
ByLayer
370
18
48
1
60
0
100
AcDbSpline
70
4
71
3
72
8
73
4
40
0
40
0
40
0
40
0
40
1
40
1
40
1
40
1
41
1
10
53.8996032084211
20
-6.08513592779306
30
0
41
1
10
53.9358538141032
20
-6.05780786316168
30
0
41
1
10
53.9846413222822
20
-5.99338485020184
30
0
41
1
10
54.0458288051638
20
-5.89227203918546
30
0
0
SPLINE
5
101
100
AcDbEntity
8
1
62
256
6
ByLayer
370
18
48
1
60
0
100
AcDbSpline
70
4
71
3
72
11
73
7
40
0
40
0
40
0
40
0
40
0.286573088176358
40
0.57081411276659
40
0.852763632671905
40
1
40
1
40
1
40
1
41
1
10
48.5071798310177
20
1.26412496887275
30
0
41
1
10
48.5093433752343
20
1.25622915637746
30
0
41
1
10
48.5136528572596
20
1.2405017856297
30
0
41
1
10
48.5230924902312
20
1.21761208059596
30
0
41
1
10
48.5328283906974
20
1.19884599164126
30
0
41
1
10
48.5396077488354
20
1.18775359932164
30
0
41
1
10
48.5420406026821
20
1.18397153022133
30
0
0
SPLINE
5
102
100
AcDbEntity
8
1
62
256
6
ByLayer
370
18
48
1
60
0
100
AcDbSpline
70
4
71
2
72
6
73
3
40
0
40
0
40
0
40
1
40
1
40
1
41
0.500002621154437
10
51.245198050348
20
-1.87771982907645
30
0
41
0.499997378845563
10
50.4622314531778
20
-1.87521016480591
30
0
41
0.500002621154437
10
49.6791659546363
20
-1.87269979926473
30
0
0
SPLINE
5
103
100
AcDbEntity
8
1
62
256
6
ByLayer
370
18
48
1
60
0
100
AcDbSpline
70
4
71
3
72
10
73
6
40
0
40
0
40
0
40
0
40
0.5
40
0.5
40
1
40
1
40
1
40
1
41
1
10
10.9283445540623
20
-3.49202872338458
30
0
41
1
10
10.8474587397732
20
-3.47060641271426
30
0
41
1
10
10.7789127975611
20
-3.46118490558501
30
0
41
1
10
10.6620200171967
20
-3.45680232348991
30
0
41
1
10
10.6137051633854
20
-3.46187395835807
30
0
41
1
10
10.574710638563
20
-3.47089398299903
30
0
0
SPLINE
5
104
100
AcDbEntity
8
1
62
256
6
ByLayer
370
18
48
1
60
0
100
AcDbSpline
70
4
71
3
72
12
73
8
40
0
40
0
40
0
40
0
40
0.499999999999982
40
0.499999999999982
40
0.749999999999991
40
0.749999999999991
40
1
40
1
40
1
40
1
41
1
10
39.1902082049857
20
3.78903633718011
30
0
41
1
10
39.3641858904906
20
3.73127828428289
30
0
41
1
10
39.5429287505056
20
3.68731278324947
30
0
41
1
10
39.8178859268928
20
3.64264047911536
30
0
41
1
10
39.9106874706468
20
3.63131063188857
30
0
41
1
10
40.0986477047529
20
3.61608230516904
30
0
41
1
10
40.1937214566136
20
3.61222517468983
30
0
41
1
10
40.2886287899156
20
3.61224425975922
30
0
0
SPLINE
5
105
100
AcDbEntity
8
1
62
256
6
ByLayer
370
18
48
1
60
0
100
AcDbSpline
70
4
71
3
72
18
73
14
40
0
40
0
40
0
40
0
40
0.249999999999997
40
0.249999999999997
40
0.374999999999998
40
0.374999999999998
40
0.499999999999998
40
0.499999999999998
40
0.624999999999999
40
0.624999999999999
40
0.749999999999999
40
0.749999999999999
40
1
40
1
40
1
40
1
41
1
10
10.7811736133218
20
-3.90964371218118
30
0
41
1
10
10.8751981328765
20
-4.02874410535904
30
0
41
1
10
10.9908090553746
20
-4.11836402240419
30
0
41
1
10
11.1964054896619
20
-4.225656406963
30
0
41
1
10
11.2708739846259
20
-4.25700523327689
30
0
41
1
10
11.4276070522076
20
-4.31173620903408
30
0
41
1
10
11.5098296694294
20
-4.3352178147594
30
0
41
1
10
11.6817839474467
20
-4.3769687600703
30
0
41
1
10
11.7715160497879
20
-4.39522789782137
30
0
41
1
10
11.9585785145257
20
-4.42847014028521
30
0
41
1
10
12.0557916648431
20
-4.44340651623006
30
0
41
1
10
12.3523401121583
20
-4.4848476996917
30
0
41
1
10
12.5585608971963
20
-4.50849084345072
30
0
41
1
10
12.7733327610966
20
-4.53303042293163
30
0
0
SPLINE
5
106
100
AcDbEntity
8
1
62
256
6
ByLayer
370
18
48
1
60
0
100
AcDbSpline
70
4
71
3
72
18
73
14
40
0
40
0
40
0
40
0
40
0.204436278633307
40
0.204436278633307
40
0.408872557266614
40
0.408872557266614
40
0.511090696583268
40
0.511090696583268
40
0.613308835899923
40
0.613308835899923
40
0.817745114533233
40
0.817745114533233
40
1
40
1
40
1
40
1
41
1
10
39.1902082051498
20
3.78903633712565
30
0
41
1
10
38.2122826104768
20
4.05200316769185
30
0
41
1
10
37.2357684248058
20
4.29290848403787
30
0
41
1
10
35.2829204740535
20
4.72793619717285
30
0
41
1
10
34.3064780230048
20
4.92196160884436
30
0
41
1
10
32.8410128887746
20
5.17583899991908
30
0
41
1
10
32.3523762413432
20
5.2542069864036
30
0
41
1
10
31.3743713560495
20
5.39747825328107
30
0
41
1
10
30.8853463968301
20
5.46229779963048
30
0
41
1
10
29.4205616863917
20
5.63470087234671
30
0
41
1
10
28.4459066655799
20
5.72025978114635
30
0
41
1
10
26.6016391198165
20
5.82243920327383
30
0
41
1
10
25.7319879493159
20
5.84581019429578
30
0
41
1
10
24.8608116417816
20
5.8450320835602
30
0
0
SPLINE
5
107
100
AcDbEntity
8
1
62
256
6
ByLayer
370
18
48
1
60
0
100
AcDbSpline
70
4
71
3
72
12
73
8
40
0
40
0
40
0
40
0
40
0.5
40
0.5
40
0.75
40
0.75
40
1
40
1
40
1
40
1
41
1
10
48.3
20
2.84999999999999
30
0
41
1
10
48.3
20
2.54046603691049
30
0
41
1
10
48.3000000000001
20
2.26390692601322
30
0
41
1
10
48.3
20
1.89607111480274
30
0
41
1
10
48.3
20
1.78085651585306
30
0
41
1
10
48.3
20
1.57047942875443
30
0
41
1
10
48.3
20
1.47519425352021
30
0
41
1
10
48.3
20
1.38992266346869
30
0
0
SPLINE
5
108
100
AcDbEntity
8
1
62
256
6
ByLayer
370
18
48
1
60
0
100
AcDbSpline
70
4
71
2
72
6
73
3
40
0
40
0
40
0
40
1
40
1
40
1
41
0.500005346067339
10
49.6867759061447
20
-0.096843981186234
30
0
41
0.499994653932661
10
50.1596796581864
20
-0.0984384084032658
30
0
41
0.500005346067339
10
50.6326211109225
20
-0.100032822166154
30
0
0
SPLINE
5
109
100
AcDbEntity
8
1
62
256
6
ByLayer
370
13
48
1
60
0
100
AcDbSpline
70
4
71
3
72
18
73
14
40
0
40
0
40
0
40
0
40
0.25
40
0.25
40
0.5
40
0.5
40
0.625
40
0.625
40
0.75
40
0.75
40
0.875
40
0.875
40
1
40
1
40
1
40
1
41
1
10
55.3501017842799
20
0.621797404598198
30
0
41
1
10
55.2324172207347
20
0.698446123737654
30
0
41
1
10
55.1184151913324
20
0.784361616464054
30
0
41
1
10
54.9014357188381
20
0.977005812124588
30
0
41
1
10
54.7985840489534
20
1.08375957268998
30
0
41
1
10
54.6577984979401
20
1.26007684931889
30
0
41
1
10
54.613002328717
20
1.32167222040749
30
0
41
1
10
54.5283752935719
20
1.45138510254605
30
0
41
1
10
54.4884839055921
20
1.51962499383666
30
0
41
1
10
54.416028719027
20
1.66079982457956
30
0
41
1
10
54.3832707961752
20
1.73403533504092
30
0
41
1
10
54.3255042457544
20
1.88646157664641
30
0
41
1
10
54.3004601476187
20
1.96568553328814
30
0
41
1
10
54.2803177002014
20
2.04680247641127
30
0
0
SPLINE
5
10A
100
AcDbEntity
8
1
62
256
6
ByLayer
370
18
48
1
60
0
100
AcDbSpline
70
4
71
3
72
8
73
4
40
0
40
0
40
0
40
0
40
1
40
1
40
1
40
1
41
1
10
48.4002627909777
20
-6.03072572489191
30
0
41
1
10
48.4018434326369
20
-6.03054840983839
30
0
41
1
10
48.403424074296
20
-6.03037075633586
30
0
41
1
10
48.4050047159552
20
-6.03019276441418
30
0
0
SPLINE
5
10B
100
AcDbEntity
8
1
62
256
6
ByLayer
370
18
48
1
60
0
100
AcDbSpline
70
4
71
3
72
10
73
6
40
0
40
0
40
0
40
0
40
0.5
40
0.5
40
1
40
1
40
1
40
1
41
1
10
40.6868200015188
20
5.00053719369117
30
0
41
1
10
41.972093784984
20
5.27124924554712
30
0
41
1
10
43.2536661667032
20
5.49535409041317
30
0
41
1
10
45.8198899026315
20
5.84036377029889
30
0
41
1
10
47.1055193563898
20
5.96116008902698
30
0
41
1
10
48.395
20
6.03044323854357
30
0
0
SPLINE
5
10C
100
AcDbEntity
8
1
62
256
6
ByLayer
370
18
48
1
60
0
100
AcDbSpline
70
4
71
3
72
26
73
22
40
0
40
0
40
0
40
0
40
0.0416537241717245
40
0.0416537241717245
40
0.178560335004336
40
0.178560335004336
40
0.247013640420642
40
0.247013640420642
40
0.315466945836948
40
0.315466945836948
40
0.452373556669559
40
0.452373556669559
40
0.589280167502169
40
0.589280167502169
40
0.726186778334779
40
0.726186778334779
40
0.794640083751085
40
0.794640083751085
40
0.86309338916739
40
0.86309338916739
40
1
40
1
40
1
40
1
41
1
10
37.0425297108777
20
-4.12983288511072
30
0
41
1
10
36.7058488462679
20
-4.19852675919725
30
0
41
1
10
36.3692137650369
20
-4.2643876081537
30
0
41
1
10
34.9260882133041
20
-4.53425499226586
30
0
41
1
10
33.8193930416159
20
-4.70972268611541
30
0
41
1
10
32.1567219488584
20
-4.92932983622865
30
0
41
1
10
31.6018371466496
20
-4.99514586914981
30
0
41
1
10
30.4932808181154
20
-5.11077283457996
30
0
41
1
10
29.9393302948453
20
-5.16062834171436
30
0
41
1
10
28.2777193191648
20
-5.28514881474249
30
0
41
1
10
27.1702863017099
20
-5.33449625439408
30
0
41
1
10
24.9520325598464
20
-5.3595326039592
30
0
41
1
10
23.8403763494171
20
-5.33516634050284
30
0
41
1
10
21.6209296115731
20
-5.21727777817671
30
0
41
1
10
20.5119717770294
20
-5.12430784323351
30
0
41
1
10
18.8471636815627
20
-4.93880196065007
30
0
41
1
10
18.2917823501999
20
-4.86917067439424
30
0
41
1
10
17.1820550870784
20
-4.71482388924898
30
0
41
1
10
16.6275144767938
20
-4.63009042688935
30
0
41
1
10
14.9640456787889
20
-4.35354409513306
30
0
41
1
10
13.8552987009412
20
-4.13935034966613
30
0
41
1
10
12.7443172551782
20
-3.89635699893941
30
0
0
SPLINE
5
10D
100
AcDbEntity
8
1
62
256
6
ByLayer
370
18
48
1
60
0
100
AcDbSpline
70
4
71
3
72
10
73
6
40
0
40
0
40
0
40
0
40
0.984009758556771
40
0.984009758556771
40
1
40
1
40
1
40
1
41
1
10
40.678875304132
20
5.01382200867025
30
0
41
1
10
39.6120452796758
20
4.79130393051437
30
0
41
1
10
38.5486105255336
20
4.53577957246711
30
0
41
1
10
37.4677433744311
20
4.24803395448782
30
0
41
1
10
37.4504597578454
20
4.24342606659118
30
0
41
1
10
37.4331758408388
20
4.23881143794134
30
0
0
SPLINE
5
10E
100
AcDbEntity
8
1
62
256
6
ByLayer
370
18
48
1
60
0
100
AcDbSpline
70
4
71
3
72
10
73
6
40
0
40
0
40
0
40
0
40
0.313377970920517
40
0.313377970920517
40
1
40
1
40
1
40
1
41
1
10
50.5610858611125
20
6.24999934841958
30
0
41
1
10
50.9197397677471
20
6.25000107189172
30
0
41
1
10
51.2781828558633
20
6.24319567889674
30
0
41
1
10
52.4222600956874
20
6.19978688737018
30
0
41
1
10
53.2085081818223
20
6.13758485783777
30
0
41
1
10
53.993993061253
20
6.04337368014939
30
0
0
SPLINE
5
10F
100
AcDbEntity
8
1
62
256
6
ByLayer
370
18
48
1
60
0
100
AcDbSpline
70
4
71
3
72
8
73
4
40
0
40
0
40
0
40
0
40
1
40
1
40
1
40
1
41
1
10
12.5537073968316
20
-3.85439006378888
30
0
41
1
10
12.6174583908505
20
-3.86625348172879
30
0
41
1
10
12.6810048893106
20
-3.88023539438638
30
0
41
1
10
12.7443172551782
20
-3.89635699893941
30
0
0
SPLINE
5
110
100
AcDbEntity
8
1
62
256
6
ByLayer
370
13
48
1
60
0
100
AcDbSpline
70
4
71
3
72
8
73
4
40
0
40
0
40
0
40
0
40
1
40
1
40
1
40
1
41
1
10
55.3730235437799
20
0.607095958063809
30
0
41
1
10
55.3563192686061
20
0.599610488766729
30
0
41
1
10
55.3389546877293
20
0.585247775056359
30
0
41
1
10
55.3248127509665
20
0.567219509562733
30
0
0
SPLINE
5
111
100
AcDbEntity
8
1
62
256
6
ByLayer
370
18
48
1
60
0
100
AcDbSpline
70
4
71
1
72
4
73
2
40
0
40
0
40
1
40
1
41
1
10
15.0929020115252
20
3.33941648566031
30
0
41
1
10
14.9373429353587
20
2.85100554636284
30
0
0
SPLINE
5
112
100
AcDbEntity
8
1
62
256
6
ByLayer
370
13
48
1
60
0
100
AcDbSpline
70
4
71
3
72
10
73
6
40
0
40
0
40
0
40
0
40
0.0018223711969869
40
0.0018223711969869
40
1
40
1
40
1
40
1
41
1
10
55.3730235437776
20
0.607095958064804
30
0
41
1
10
55.3730095492605
20
0.60710479766152
30
0
41
1
10
55.3729955546393
20
0.60711363731383
30
0
41
1
10
55.3653163406228
20
0.61196438960593
30
0
41
1
10
55.357689116842
20
0.616855725714458
30
0
41
1
10
55.3501017842816
20
0.621797404597089
30
0
0
SPLINE
5
113
100
AcDbEntity
8
1
62
256
6
ByLayer
370
18
48
1
60
0
100
AcDbSpline
70
4
71
3
72
14
73
10
40
0
40
0
40
0
40
0
40
0.25
40
0.25
40
0.375
40
0.375
40
0.5
40
0.5
40
1
40
1
40
1
40
1
41
1
10
54.2319823922408
20
-2.30626231964052
30
0
41
1
10
54.1278384865601
20
-2.09449587033524
30
0
41
1
10
54.0255807780874
20
-1.88182872119654
30
0
41
1
10
53.8783588666395
20
-1.55988424360044
30
0
41
1
10
53.8306289553827
20
-1.45192760047664
30
0
41
1
10
53.7364816433523
20
-1.23538756217539
30
0
41
1
10
53.6900168908631
20
-1.12684419179666
30
0
41
1
10
53.4659054067458
20
-0.581216418066532
30
0
41
1
10
53.3038629731036
20
-0.138377103074191
30
0
41
1
10
53.1705851346715
20
0.315031373780243
30
0
0
SPLINE
5
114
100
AcDbEntity
8
1
62
256
6
ByLayer
370
18
48
1
60
0
100
AcDbSpline
70
4
71
3
72
8
73
4
40
0
40
0
40
0
40
0
40
1
40
1
40
1
40
1
41
1
10
54.6671676625622
20
2.07500456464024
30
0
41
1
10
54.8995963636934
20
2.0953201581824
30
0
41
1
10
55.1312438183801
20
2.12097244676318
30
0
41
1
10
55.3610680988908
20
2.15907883948438
30
0
0
SPLINE
5
115
100
AcDbEntity
8
1
62
256
6
ByLayer
370
18
48
1
60
0
100
AcDbSpline
70
4
71
3
72
8
73
4
40
0
40
0
40
0
40
0
40
1
40
1
40
1
40
1
41
1
10
51.5550950570371
20
-2.34703007510564
30
0
41
1
10
51.5175875433175
20
-2.3504354592647
30
0
41
1
10
51.4800931358929
20
-2.35360638941253
30
0
41
1
10
51.4426118750923
20
-2.35654221455843
30
0
0
SPLINE
5
116
100
AcDbEntity
8
1
62
256
6
ByLayer
370
18
48
1
60
0
100
AcDbSpline
70
4
71
3
72
66
73
62
40
0
40
0
40
0
40
0
40
0.0624999999999992
40
0.0624999999999992
40
0.124999999999998
40
0.124999999999998
40
0.187499999999997
40
0.187499999999997
40
0.249999999999997
40
0.249999999999997
40
0.281249999999996
40
0.281249999999996
40
0.312499999999996
40
0.312499999999996
40
0.328124999999996
40
0.328124999999996
40
0.343749999999995
40
0.343749999999995
40
0.359374999999995
40
0.359374999999995
40
0.374999999999995
40
0.374999999999995
40
0.406249999999995
40
0.406249999999995
40
0.421874999999995
40
0.421874999999995
40
0.437499999999995
40
0.437499999999995
40
0.453124999999995
40
0.453124999999995
40
0.468749999999996
40
0.468749999999996
40
0.484374999999996
40
0.484374999999996
40
0.499999999999996
40
0.499999999999996
40
0.515624999999996
40
0.515624999999996
40
0.531249999999996
40
0.531249999999996
40
0.562499999999996
40
0.562499999999996
40
0.578124999999996
40
0.578124999999996
40
0.593749999999996
40
0.593749999999996
40
0.624999999999997
40
0.624999999999997
40
0.656249999999997
40
0.656249999999997
40
0.687499999999997
40
0.687499999999997
40
0.749999999999998
40
0.749999999999998
40
0.812499999999998
40
0.812499999999998
40
0.874999999999999
40
0.874999999999999
40
0.9375
40
0.9375
40
1
40
1
40
1
40
1
41
1
10
10.6979690105879
20
3.48537672093684
30
0
41
1
10
10.3768000255849
20
3.55609670520815
30
0
41
1
10
10.0604569765081
20
3.62850287642792
30
0
41
1
10
9.42969257679658
20
3.76937184906669
30
0
41
1
10
9.11518326068256
20
3.83791237964695
30
0
41
1
10
8.4813328611699
20
3.95975985324458
30
0
41
1
10
8.16208165741648
20
4.01321530303542
30
0
41
1
10
7.51196657212313
20
4.0868420294519
30
0
41
1
10
7.17962902298078
20
4.10711220405173
30
0
41
1
10
6.67978063618676
20
4.08887507657516
30
0
41
1
10
6.51266853154149
20
4.07464976967643
30
0
41
1
10
6.17810738155598
20
4.02409834554052
30
0
41
1
10
6.01064149297343
20
3.98783927662981
30
0
41
1
10
5.76027238376594
20
3.91042885280015
30
0
41
1
10
5.67654358163838
20
3.88058019074168
30
0
41
1
10
5.51181108321509
20
3.81244701265337
30
0
41
1
10
5.43114842092939
20
3.77434677634608
30
0
41
1
10
5.27386582360367
20
3.68920476569446
30
0
41
1
10
5.19724353415702
20
3.6421671299309
30
0
41
1
10
5.0488380603208
20
3.53805051785437
30
0
41
1
10
4.97665675251497
20
3.48054909336668
30
0
41
1
10
4.77392914776584
20
3.29569763273417
30
0
41
1
10
4.65575839685215
20
3.15557774147388
30
0
41
1
10
4.50863459977364
20
2.91742361093941
30
0
41
1
10
4.46471944370492
20
2.83312220282542
30
0
41
1
10
4.39060014089688
20
2.66087652336583
30
0
41
1
10
4.35991193875174
20
2.57224100325561
30
0
41
1
10
4.31121596112996
20
2.39006188216388
30
0
41
1
10
4.29316402867337
20
2.29613708321051
30
0
41
1
10
4.27031247817627
20
2.10492175551417
30
0
41
1
10
4.26563108574857
20
2.00913176943129
30
0
41
1
10
4.2687625153645
20
1.81720017633373
30
0
41
1
10
4.27658051779332
20
1.72105830356492
30
0
41
1
10
4.30422206300355
20
1.52838839826751
30
0
41
1
10
4.3240796945023
20
1.43218702120743
30
0
41
1
10
4.37399430624055
20
1.2439150940553
30
0
41
1
10
4.40412790509515
20
1.15125534097507
30
0
41
1
10
4.47384234100258
20
0.968582207954739
30
0
41
1
10
4.5136396241185
20
0.878156799958845
30
0
41
1
10
4.64470258441534
20
0.613586734474012
30
0
41
1
10
4.74657614596515
20
0.447480876127912
30
0
41
1
10
4.91577901370513
20
0.210180745048774
30
0
41
1
10
4.97494183865064
20
0.133077745125718
30
0
41
1
10
5.09815181442292
20
-0.0175520288915152
30
0
41
1
10
5.16239420737284
20
-0.091263307215371
30
0
41
1
10
5.35856293023008
20
-0.30437634306
30
0
41
1
10
5.4946784642328
20
-0.436894414541939
30
0
41
1
10
5.77366987972488
20
-0.68762387856583
30
0
41
1
10
5.9165678509153
20
-0.805807377068618
30
0
41
1
10
6.20654064601999
20
-1.03119064225072
30
0
41
1
10
6.35381751994049
20
-1.13846076850695
30
0
41
1
10
6.79143384570904
20
-1.44242248520024
30
0
41
1
10
7.08025616571354
20
-1.62393382241933
30
0
41
1
10
7.64929368630649
20
-1.96335854830647
30
0
41
1
10
7.92963012465466
20
-2.12104486647792
30
0
41
1
10
8.48253238319933
20
-2.42202385626754
30
0
41
1
10
8.75358143495768
20
-2.56437952592105
30
0
41
1
10
9.28640638602175
20
-2.8382690047346
30
0
41
1
10
9.54844761691231
20
-2.96988335277598
30
0
41
1
10
10.0660860878179
20
-3.22567903416663
30
0
41
1
10
10.3216871635816
20
-3.3498413217626
30
0
41
1
10
10.574710638563
20
-3.47089398299903
30
0
0
SPLINE
5
117
100
AcDbEntity
8
1
62
256
6
ByLayer
370
18
48
1
60
0
100
AcDbSpline
70
4
71
3
72
11
73
7
40
0
40
0
40
0
40
0
40
0.254889559270947
40
0.506516321014553
40
0.754884876443499
40
1
40
1
40
1
40
1
41
1
10
51.4426122660885
20
-2.35667369241563
30
0
41
1
10
51.4255238374046
20
-2.31664663219647
30
0
41
1
10
51.3915657260813
20
-2.23710489129024
30
0
41
1
10
51.341648479155
20
-2.11701455287118
30
0
41
1
10
51.2928480176897
20
-1.99751855022902
30
0
41
1
10
51.2610114102337
20
-1.91747684522707
30
0
41
1
10
51.2451980524621
20
-1.8777198416083
30
0
0
SPLINE
5
118
100
AcDbEntity
8
1
62
256
6
ByLayer
370
18
48
1
60
0
100
AcDbSpline
70
4
71
2
72
8
73
5
40
0
40
0
40
0
40
0.490765264024713
40
0.745382632012356
40
1
40
1
40
1
41
1
10
51.5550948271149
20
-2.34703723246628
30
0
41
1
10
51.6522367205932
20
-2.97317882644677
30
0
41
1
10
51.8731996339418
20
-3.80703124903369
30
0
41
1
10
52.0474822909461
20
-4.3245311042366
30
0
41
1
10
52.1448557654223
20
-4.55288572242569
30
0
0
SPLINE
5
119
100
AcDbEntity
8
1
62
256
6
ByLayer
370
18
48
1
60
0
100
AcDbSpline
70
4
71
3
72
10
73
6
40
0
40
0
40
0
40
0
40
0.332218351495432
40
0.332218351495432
40
1
40
1
40
1
40
1
41
1
10
38.1385527466245
20
4.05646793207046
30
0
41
1
10
38.4040670028099
20
4.11620880393474
30
0
41
1
10
38.6695530012119
20
4.17449164249618
30
0
41
1
10
39.4687187841304
20
4.34479457608018
30
0
41
1
10
40.0024285986306
20
4.45185033128752
30
0
41
1
10
40.536486767765
20
4.55135129493235
30
0
0
SPLINE
5
11A
100
AcDbEntity
8
1
62
256
6
ByLayer
370
13
48
1
60
0
100
AcDbSpline
70
4
71
3
72
18
73
14
40
0
40
0
40
0
40
0
40
0.125
40
0.125
40
0.25
40
0.25
40
0.375
40
0.375
40
0.5
40
0.5
40
0.75
40
0.75
40
1
40
1
40
1
40
1
41
1
10
54.2526418393633
20
2.03648218323389
30
0
41
1
10
54.272298237239
20
1.95440881783745
30
0
41
1
10
54.2967386624035
20
1.87417562443616
30
0
41
1
10
54.3529127210528
20
1.71953102920904
30
0
41
1
10
54.3847211931006
20
1.64507429033043
30
0
41
1
10
54.4553963453786
20
1.50145653648048
30
0
41
1
10
54.494310281898
20
1.43192152822951
30
0
41
1
10
54.5770242750186
20
1.29964975321826
30
0
41
1
10
54.6208298274309
20
1.23673095719252
30
0
41
1
10
54.7587615022327
20
1.0564997977163
30
0
41
1
10
54.8597490730733
20
0.947100318426465
30
0
41
1
10
55.0732730243697
20
0.749496860049334
30
0
41
1
10
55.1855137755828
20
0.661371164951049
30
0
41
1
10
55.301896769678
20
0.582494913884346
30
0
0
SPLINE
5
11B
100
AcDbEntity
8
1
62
256
6
ByLayer
370
13
48
1
60
0
100
AcDbSpline
70
4
71
3
72
8
73
4
40
0
40
0
40
0
40
0
40
1
40
1
40
1
40
1
41
1
10
55.301896769678
20
0.582494913884318
30
0
41
1
10
55.3094924310011
20
0.577349152964018
30
0
41
1
10
55.3171317735286
20
0.572257646862283
30
0
41
1
10
55.3248127509642
20
0.567219509563472
30
0
0
SPLINE
5
11C
100
AcDbEntity
8
1
62
256
6
ByLayer
370
18
48
1
60
0
100
AcDbSpline
70
4
71
3
72
12
73
8
40
0
40
0
40
0
40
0
40
0.43576249858963
40
0.43576249858963
40
0.717881044836788
40
0.717881044836788
40
1
40
1
40
1
40
1
41
1
10
48.4999999922705
20
-5.92977112067442
30
0
41
1
10
48.4862202703076
20
-5.94436619064336
30
0
41
1
10
48.4724318218899
20
-5.95895755264579
30
0
41
1
10
48.4497024744588
20
-5.98298969407369
30
0
41
1
10
48.440766531601
20
-5.99243254687138
30
0
41
1
10
48.4228875655602
20
-6.01131536554459
30
0
41
1
10
48.4139445391264
20
-6.02075533483702
30
0
41
1
10
48.4049980250132
20
-6.03019389496799
30
0
0
SPLINE
5
11D
100
AcDbEntity
8
1
62
256
6
ByLayer
370
18
48
1
60
0
100
AcDbSpline
70
4
71
3
72
8
73
4
40
0
40
0
40
0
40
0
40
1
40
1
40
1
40
1
41
1
10
13
20
3.29518823750954
30
0
41
1
10
13.0044978542509
20
3.2952562128545
30
0
41
1
10
13.0089950203422
20
3.2953200379765
30
0
41
1
10
13.0134914983727
20
3.29537971227592
30
0
0
SPLINE
5
11E
100
AcDbEntity
8
1
62
256
6
ByLayer
370
18
48
1
60
0
100
AcDbSpline
70
4
71
2
72
6
73
3
40
0
40
0
40
0
40
1
40
1
40
1
41
1
10
48.4086434305712
20
1.38292754055394
30
0
41
1
10
48.4598195671669
20
1.32218171405651
30
0
41
1
10
48.5071845166104
20
1.26412503570668
30
0
0
SPLINE
5
11F
100
AcDbEntity
8
1
62
256
6
ByLayer
370
18
48
1
60
0
100
AcDbSpline
70
4
71
3
72
12
73
8
40
0
40
0
40
0
40
0
40
0.500000000000003
40
0.500000000000003
40
0.750000000000001
40
0.750000000000001
40
1
40
1
40
1
40
1
41
1
10
55.3610680988908
20
-2.15907883948438
30
0
41
1
10
55.2307834143557
20
-2.51874441569242
30
0
41
1
10
55.1023117088562
20
-2.88030151292713
30
0
41
1
10
54.9124891561314
20
-3.42564714869374
30
0
41
1
10
54.8497006826995
20
-3.60793578008642
30
0
41
1
10
54.7252002348374
20
-3.97363617803057
30
0
41
1
10
54.6637974407094
20
-4.15615634653776
30
0
41
1
10
54.6040559306972
20
-4.33614329802205
30
0
0
SPLINE
5
120
100
AcDbEntity
8
1
62
256
6
ByLayer
370
18
48
1
60
0
100
AcDbSpline
70
4
71
3
72
14
73
10
40
0
40
0
40
0
40
0
40
0.249999999999999
40
0.249999999999999
40
0.5
40
0.5
40
0.75
40
0.75
40
1
40
1
40
1
40
1
41
1
10
55.8491216586902
20
0.572283050048867
30
0
41
1
10
55.827969613263
20
0.657331366522726
30
0
41
1
10
55.8017907363009
20
0.755072346177627
30
0
41
1
10
55.7404267762138
20
0.972029107408815
30
0
41
1
10
55.7052434869386
20
1.09123847787703
30
0
41
1
10
55.6272831711266
20
1.34634557316079
30
0
41
1
10
55.5845082422669
20
1.48223643382525
30
0
41
1
10
55.4930817234476
20
1.76525116261547
30
0
41
1
10
55.4444334647504
20
1.91236483442989
30
0
41
1
10
55.3938216471333
20
2.06214699199498
30
0
0
SPLINE
5
121
100
AcDbEntity
8
1
62
256
6
ByLayer
370
18
48
1
60
0
100
AcDbSpline
70
4
71
3
72
8
73
4
40
0
40
0
40
0
40
0
40
1
40
1
40
1
40
1
41
1
10
48.5
20
5.78468195467914
30
0
41
1
10
48.7610561090784
20
5.94315019693914
30
0
41
1
10
49.0207669511611
20
6.09817003070151
30
0
41
1
10
49.279422863406
20
6.24928838189058
30
0
0
SPLINE
5
122
100
AcDbEntity
8
1
62
256
6
ByLayer
370
18
48
1
60
0
100
AcDbSpline
70
4
71
3
72
8
73
4
40
0
40
0
40
0
40
0
40
1
40
1
40
1
40
1
41
1
10
50.5551432565855
20
0.179757179343795
30
0
41
1
10
50.5960636525881
20
0.179307359559687
30
0
41
1
10
50.6369841211883
20
0.179065603429279
30
0
41
1
10
50.6779045797296
20
0.179030503248725
30
0
0
SPLINE
5
123
100
AcDbEntity
8
1
62
256
6
ByLayer
370
18
48
1
60
0
100
AcDbSpline
70
4
71
3
72
8
73
4
40
0
40
0
40
0
40
0
40
1
40
1
40
1
40
1
41
1
10
49.019605750748
20
-5.72359124337652
30
0
41
1
10
49.1135228043874
20
-5.68897769248315
30
0
41
1
10
49.206992128718
20
-5.6519061697102
30
0
41
1
10
49.3
20
-5.61230133362821
30
0
0
SPLINE
5
124
100
AcDbEntity
8
1
62
256
6
ByLayer
370
18
48
1
60
0
100
AcDbSpline
70
4
71
3
72
12
73
8
40
0
40
0
40
0
40
0
40
0.499999999999998
40
0.499999999999998
40
0.749999999999999
40
0.749999999999999
40
1
40
1
40
1
40
1
41
1
10
41
20
3.44229792617705
30
0
41
1
10
42.5940581869082
20
2.96331810465475
30
0
41
1
10
44.1824176225412
20
2.43923680531671
30
0
41
1
10
46.567571360152
20
1.61399390716929
30
0
41
1
10
47.3629364322967
20
1.33207760168159
30
0
41
1
10
48.9566059247512
20
0.760821565809664
30
0
41
1
10
49.7550023789309
20
0.470969281966859
30
0
41
1
10
50.5551432597868
20
0.179757187595129
30
0
0
SPLINE
5
125
100
AcDbEntity
8
1
62
256
6
ByLayer
370
18
48
1
60
0
100
AcDbSpline
70
4
71
3
72
14
73
10
40
0
40
0
40
0
40
0
40
0.5
40
0.5
40
0.625000000000001
40
0.625000000000001
40
0.750000000000003
40
0.750000000000003
40
1
40
1
40
1
40
1
41
1
10
53.0027711752879
20
-5.61229314044922
30
0
41
1
10
53.104636762595
20
-5.80713776789412
30
0
41
1
10
53.2324272244083
20
-5.94027740693943
30
0
41
1
10
53.4210843973212
20
-6.03787028364076
30
0
41
1
10
53.460284154975
20
-6.05389403558061
30
0
41
1
10
53.541616001358
20
-6.07896216314933
30
0
41
1
10
53.5838340100291
20
-6.08800151270077
30
0
41
1
10
53.713562543981
20
-6.10448027456618
30
0
41
1
10
53.8044725546773
20
-6.10147947610469
30
0
41
1
10
53.899603208421
20
-6.08513592779306
30
0
0
SPLINE
5
126
100
AcDbEntity
8
1
62
256
6
ByLayer
370
18
48
1
60
0
100
AcDbSpline
70
4
71
3
72
8
73
4
40
0
40
0
40
0
40
0
40
1
40
1
40
1
40
1
41
1
10
55.98930444233
20
-0.0445202038402215
30
0
41
1
10
55.9782189172254
20
-0.080854451046946
30
0
41
1
10
55.9672190449489
20
-0.117016876434008
30
0
41
1
10
55.9563039114628
20
-0.153009313585329
30
0
0
SPLINE
5
127
100
AcDbEntity
8
1
62
256
6
ByLayer
370
18
48
1
60
0
100
AcDbSpline
70
4
71
3
72
8
73
4
40
0
40
0
40
0
40
0
40
1
40
1
40
1
40
1
41
1
10
40.6788753041071
20
5.01382200866681
30
0
41
1
10
40.6313428922273
20
4.85985477497067
30
0
41
1
10
40.5838791956484
20
4.70569987144674
30
0
41
1
10
40.5364867677664
20
4.55135129493249
30
0
0
SPLINE
5
128
100
AcDbEntity
8
1
62
256
6
ByLayer
370
18
48
1
60
0
100
AcDbSpline
70
4
71
3
72
12
73
8
40
0
40
0
40
0
40
0
40
0.249999999999991
40
0.249999999999991
40
0.499999999999983
40
0.499999999999983
40
1
40
1
40
1
40
1
41
1
10
13.8006500635066
20
3.09287517079983
30
0
41
1
10
13.8953162351947
20
3.08196942604155
30
0
41
1
10
13.9905844851866
20
3.06865750549619
30
0
41
1
10
14.1823920562559
20
3.03713825846972
30
0
41
1
10
14.2789029292836
20
3.0189060216147
30
0
41
1
10
14.5648412877158
20
2.95793743530777
30
0
41
1
10
14.7525591439673
20
2.90871009279331
30
0
41
1
10
14.9373429311418
20
2.85100554754237
30
0
0
SPLINE
5
129
100
AcDbEntity
8
1
62
256
6
ByLayer
370
18
48
1
60
0
100
AcDbSpline
70
4
71
3
72
8
73
4
40
0
40
0
40
0
40
0
40
1
40
1
40
1
40
1
41
1
10
14.25
20
-4.96507578292687
30
0
41
1
10
14.751694821083
20
-5.07218993971333
30
0
41
1
10
15.2525872078226
20
-5.17266520425798
30
0
41
1
10
15.7529999999338
20
-5.26595623316476
30
0
0
SPLINE
5
12A
100
AcDbEntity
8
1
62
256
6
ByLayer
370
18
48
1
60
0
100
AcDbSpline
70
4
71
3
72
10
73
6
40
0
40
0
40
0
40
0
40
0.320050741241491
40
0.716487266714104
40
1
40
1
40
1
40
1
41
1
10
28.9918171548933
20
-0.0008297175311327
30
0
41
1
10
29.8411989412877
20
-0.299711060133063
30
0
41
1
10
31.7427132220064
20
-0.969739936095834
30
0
41
1
10
34.4007644110372
20
-1.8783800044001
30
0
41
1
10
36.2042396342678
20
-2.46002970070234
30
0
41
1
10
36.9556184264749
20
-2.69478872240847
30
0
0
SPLINE
5
12B
100
AcDbEntity
8
1
62
256
6
ByLayer
370
18
48
1
60
0
100
AcDbSpline
70
4
71
3
72
8
73
4
40
0
40
0
40
0
40
0
40
1
40
1
40
1
40
1
41
1
10
10.6979690105879
20
-3.78430360914572
30
0
41
1
10
10.6451111160503
20
-3.68961267328467
30
0
41
1
10
10.6052516115926
20
-3.58456986606134
30
0
41
1
10
10.574710638563
20
-3.470893982999
30
0
0
SPLINE
5
12C
100
AcDbEntity
8
1
62
256
6
ByLayer
370
18
48
1
60
0
100
AcDbSpline
70
4
71
3
72
8
73
4
40
0
40
0
40
0
40
0
40
1
40
1
40
1
40
1
41
1
10
54.280317741715
20
2.04680248673679
30
0
41
1
10
54.4094105909114
20
2.05458706566316
30
0
41
1
10
54.5383802415907
20
2.06374780983325
30
0
41
1
10
54.6671676625622
20
2.07500456464024
30
0
0
SPLINE
5
12D
100
AcDbEntity
8
1
62
256
6
ByLayer
370
18
48
1
60
0
100
AcDbSpline
70
4
71
3
72
12
73
8
40
0
40
0
40
0
40
0
40
0.5
40
0.5
40
0.75
40
0.75
40
1
40
1
40
1
40
1
41
1
10
55.3610680988909
20
2.15907883948441
30
0
41
1
10
55.2307834143559
20
2.51874441569205
30
0
41
1
10
55.1023117088563
20
2.88030151292637
30
0
41
1
10
54.9124891561319
20
3.42564714869243
30
0
41
1
10
54.8497006827
20
3.60793578008491
30
0
41
1
10
54.7252002348381
20
3.97363617802867
30
0
41
1
10
54.6637974407094
20
4.15615634653796
30
0
41
1
10
54.6040559306972
20
4.33614329802205
30
0
0
SPLINE
5
12E
100
AcDbEntity
8
1
62
256
6
ByLayer
370
18
48
1
60
0
100
AcDbSpline
70
4
71
3
72
10
73
6
40
0
40
0
40
0
40
0
40
0.0806761968990736
40
0.581942269608518
40
1
40
1
40
1
40
1
41
1
10
48.5111774742529
20
-5.71552840451162
30
0
41
1
10
48.5105767938032
20
-5.71673690643513
30
0
41
1
10
48.5064057585153
20
-5.7254440984774
30
0
41
1
10
48.501231572376
20
-5.74028232446213
30
0
41
1
10
48.5003849824002
20
-5.75338262009012
30
0
41
1
10
48.5000000000005
20
-5.75933991156805
30
0
0
SPLINE
5
12F
100
AcDbEntity
8
1
62
256
6
ByLayer
370
18
48
1
60
0
100
AcDbSpline
70
4
71
3
72
14
73
10
40
0
40
0
40
0
40
0
40
0.25
40
0.25
40
0.5
40
0.5
40
0.75
40
0.75
40
1
40
1
40
1
40
1
41
1
10
12.5537073968316
20
-3.85439006378897
30
0
41
1
10
12.6177381276016
20
-3.70748004688738
30
0
41
1
10
12.6901224659186
20
-3.53525320621597
30
0
41
1
10
12.8481777873553
20
-3.14830457181074
30
0
41
1
10
12.9338428171465
20
-2.93359735292532
30
0
41
1
10
13.114399456631
20
-2.47186324493373
30
0
41
1
10
13.2092842654586
20
-2.22485374755357
30
0
41
1
10
13.4037830162199
20
-1.71022246493135
30
0
41
1
10
13.503389632143
20
-1.44262006384591
30
0
41
1
10
13.6030000000007
20
-1.17105376815431
30
0
0
SPLINE
5
130
100
AcDbEntity
8
1
62
256
6
ByLayer
370
18
48
1
60
0
100
AcDbSpline
70
4
71
3
72
24
73
20
40
0
40
0
40
0
40
0
40
0.249999999999977
40
0.249999999999977
40
0.312499999999977
40
0.312499999999977
40
0.374999999999977
40
0.374999999999977
40
0.499999999999977
40
0.499999999999977
40
0.56249999999998
40
0.56249999999998
40
0.624999999999983
40
0.624999999999983
40
0.749999999999988
40
0.749999999999988
40
0.874999999999994
40
0.874999999999994
40
1
40
1
40
1
40
1
41
1
10
17.8011812824516
20
3.8506174064222
30
0
41
1
10
17.4927479279086
20
3.96453498446113
30
0
41
1
10
17.2121000170401
20
4.10611025183968
30
0
41
1
10
16.8944639888424
20
4.3069791648154
30
0
41
1
10
16.8323819197419
20
4.34855283953692
30
0
41
1
10
16.7131990600701
20
4.43286790478703
30
0
41
1
10
16.6560801040149
20
4.47559510093575
30
0
41
1
10
16.4919711266705
20
4.60502955497748
30
0
41
1
10
16.3921925883364
20
4.6929830408591
30
0
41
1
10
16.2569733273734
20
4.82579102472158
30
0
41
1
10
16.2143174238362
20
4.87020883478874
30
0
41
1
10
16.133955826196
20
4.9590850353878
30
0
41
1
10
16.0962629811841
20
5.00356487903886
30
0
41
1
10
15.992755046808
20
5.13412363232209
30
0
41
1
10
15.9356502144626
20
5.21818891869751
30
0
41
1
10
15.8441649585928
20
5.37876998556831
30
0
41
1
10
15.8097087214195
20
5.4555554790646
30
0
41
1
10
15.7640152606903
20
5.59879202286538
30
0
41
1
10
15.7530000000016
20
5.66428954489228
30
0
41
1
10
15.7530000000016
20
5.72344325631033
30
0
0
SPLINE
5
131
100
AcDbEntity
8
1
62
256
6
ByLayer
370
18
48
1
60
0
100
AcDbSpline
70
4
71
3
72
26
73
22
40
0
40
0
40
0
40
0
40
0.0539103662937556
40
0.0539103662937556
40
0.189066028251791
40
0.189066028251791
40
0.256643859230808
40
0.256643859230808
40
0.324221690209825
40
0.324221690209825
40
0.45937735216786
40
0.45937735216786
40
0.594533014125895
40
0.594533014125895
40
0.662110845104913
40
0.662110845104913
40
0.72968867608393
40
0.72968867608393
40
0.864844338041965
40
0.864844338041965
40
1
40
1
40
1
40
1
41
1
10
37.4278879792356
20
-4.23905859561126
30
0
41
1
10
37.0383032193261
20
-4.3331785416832
30
0
41
1
10
36.6488166580514
20
-4.42366125703964
30
0
41
1
10
35.2829204740534
20
-4.72793619717285
30
0
41
1
10
34.3064780230047
20
-4.92196160884433
30
0
41
1
10
32.8410128887746
20
-5.17583899991908
30
0
41
1
10
32.3523762413432
20
-5.2542069864036
30
0
41
1
10
31.3743713560495
20
-5.39747825328107
30
0
41
1
10
30.8853463968301
20
-5.46229779963048
30
0
41
1
10
29.4205616863917
20
-5.63470087234671
30
0
41
1
10
28.4459066655799
20
-5.72025978114635
30
0
41
1
10
26.4958481751693
20
-5.82830042314686
30
0
41
1
10
25.5202994475582
20
-5.85113177700276
30
0
41
1
10
24.0538424264193
20
-5.83994815881636
30
0
41
1
10
23.5642090239176
20
-5.82867729449074
30
0
41
1
10
22.5862788592771
20
-5.79151351658513
30
0
41
1
10
22.0977412486774
20
-5.76563144339207
30
0
41
1
10
20.6330200158839
20
-5.66640011392718
30
0
41
1
10
19.6578231108335
20
-5.57142376416087
30
0
41
1
10
17.7069799095011
20
-5.32425477991967
30
0
41
1
10
16.7312605331076
20
-5.17202676910395
30
0
41
1
10
15.7529999999463
20
-4.99226665626784
30
0
0
SPLINE
5
132
100
AcDbEntity
8
1
62
256
6
ByLayer
370
18
48
1
60
0
100
AcDbSpline
70
4
71
3
72
10
73
6
40
0
40
0
40
0
40
0
40
0.5
40
0.5
40
1
40
1
40
1
40
1
41
1
10
14.25
20
3.50983412446823
30
0
41
1
10
14.0386292836838
20
3.5112943093269
30
0
41
1
10
13.8296991360448
20
3.4938504615414
30
0
41
1
10
13.4165221410617
20
3.42271824754653
30
0
41
1
10
13.210854999026
20
3.36832525662345
30
0
41
1
10
13.0134914983727
20
3.29537971227592
30
0
0
SPLINE
5
133
100
AcDbEntity
8
1
62
256
6
ByLayer
370
18
48
1
60
0
100
AcDbSpline
70
4
71
3
72
8
73
4
40
0
40
0
40
0
40
0
40
1
40
1
40
1
40
1
41
1
10
54.2319823922407
20
-2.3062623196405
30
0
41
1
10
54.3308238692188
20
-2.22804794396262
30
0
41
1
10
54.4298910891806
20
-2.14856737126294
30
0
41
1
10
54.5294722455448
20
-2.06620411874775
30
0
0
SPLINE
5
134
100
AcDbEntity
8
1
62
256
6
ByLayer
370
18
48
1
60
0
100
AcDbSpline
70
4
71
3
72
8
73
4
40
0
40
0
40
0
40
0
40
1
40
1
40
1
40
1
41
1
10
53.8996032084211
20
6.08513592779295
30
0
41
1
10
53.8383629438594
20
6.09565707090601
30
0
41
1
10
53.7789910755092
20
6.10068484303628
30
0
41
1
10
53.7215454800181
20
6.10004907797722
30
0
0
SPLINE
5
135
100
AcDbEntity
8
1
62
256
6
ByLayer
370
18
48
1
60
0
100
AcDbSpline
70
4
71
1
72
4
73
2
40
0
40
0
40
1
40
1
41
1
10
50.7532796942349
20
-0.0860902467692597
30
0
41
1
10
50.632621110909
20
-0.10003282674441
30
0
0
SPLINE
5
136
100
AcDbEntity
8
1
62
256
6
ByLayer
370
18
48
1
60
0
100
AcDbSpline
70
4
71
2
72
6
73
3
40
0
40
0
40
0
40
1
40
1
40
1
41
1
10
50.6779045787723
20
0.17903051288522
30
0
41
1
10
50.714519857263
20
0.0464748748927946
30
0
41
1
10
50.7532796940628
20
-0.0860902457142174
30
0
0
SPLINE
5
137
100
AcDbEntity
8
1
62
256
6
ByLayer
370
18
48
1
60
0
100
AcDbSpline
70
4
71
3
72
8
73
4
40
0
40
0
40
0
40
0
40
1
40
1
40
1
40
1
41
1
10
53.1705851328628
20
0.315031372625924
30
0
41
1
10
53.1308713677122
20
0.450136788535275
30
0
41
1
10
53.0961200772667
20
0.586133828701009
30
0
41
1
10
53.0675157689668
20
0.72323531749575
30
0
0
SPLINE
5
138
100
AcDbEntity
8
1
62
256
6
ByLayer
370
13
48
1
60
0
100
AcDbSpline
70
4
71
3
72
16
73
12
40
0
40
0
40
0
40
0
40
0.36385863298098
40
0.36385863298098
40
0.54578794947147
40
0.54578794947147
40
0.72771726596196
40
0.72771726596196
40
0.90964658245245
40
0.90964658245245
40
1
40
1
40
1
40
1
41
1
10
54.5725774765663
20
-1.19477072595751
30
0
41
1
10
54.4088864507876
20
-1.0874018566563
30
0
41
1
10
54.2006242332662
20
-0.928183004101953
30
0
41
1
10
53.9645129413359
20
-0.714549135227173
30
0
41
1
10
53.8609478221909
20
-0.612900770511089
30
0
41
1
10
53.7067828648005
20
-0.447474612436252
30
0
41
1
10
53.6036861806651
20
-0.326767224496024
30
0
41
1
10
53.4543057493695
20
-0.133651017742181
30
0
41
1
10
53.3544851458285
20
0.008828908855179
30
0
41
1
10
53.2506867949999
20
0.174598079652242
30
0
41
1
10
53.2102148269329
20
0.243731879306097
30
0
41
1
10
53.1705851353507
20
0.315031368149874
30
0
0
SPLINE
5
139
100
AcDbEntity
8
1
62
256
6
ByLayer
370
18
48
1
60
0
100
AcDbSpline
70
4
71
3
72
8
73
4
40
0
40
0
40
0
40
0
40
1
40
1
40
1
40
1
41
1
10
41.7267306655118
20
4.69951262534107
30
0
41
1
10
41.3288690821774
20
4.63200793897372
30
0
41
1
10
40.9310116074112
20
4.5607046075954
30
0
41
1
10
40.5330749079351
20
4.48595282713171
30
0
0
SPLINE
5
13A
100
AcDbEntity
8
1
62
256
6
ByLayer
370
18
48
1
60
0
100
AcDbSpline
70
4
71
2
72
6
73
3
40
0
40
0
40
0
40
1
40
1
40
1
41
1
10
48.5
20
5.92036007743229
30
0
41
1
10
48.5
20
5.82851718622163
30
0
41
1
10
48.5
20
5.73648506825782
30
0
0
SPLINE
5
13B
100
AcDbEntity
8
1
62
256
6
ByLayer
370
18
48
1
60
0
100
AcDbSpline
70
4
71
3
72
10
73
6
40
0
40
0
40
0
40
0
40
0.5
40
0.5
40
1
40
1
40
1
40
1
41
1
10
40.6868200015188
20
-5.00053719369117
30
0
41
1
10
41.9729675321334
20
-5.27143327939785
30
0
41
1
10
43.2554084305289
20
-5.49565847798749
30
0
41
1
10
45.8233813081715
20
-5.84076286749388
30
0
41
1
10
47.1098327170617
20
-5.9615324551863
30
0
41
1
10
48.4002628303284
20
-6.03072572046466
30
0
0
SPLINE
5
13C
100
AcDbEntity
8
1
62
256
6
ByLayer
370
18
48
1
60
0
100
AcDbSpline
70
4
71
3
72
26
73
22
40
0
40
0
40
0
40
0
40
0.125
40
0.125
40
0.249999999999999
40
0.249999999999999
40
0.374999999999999
40
0.374999999999999
40
0.499999999999999
40
0.499999999999999
40
0.562499999999999
40
0.562499999999999
40
0.625
40
0.625
40
0.750000000000001
40
0.750000000000001
40
0.812500000000001
40
0.812500000000001
40
0.875
40
0.875
40
1
40
1
40
1
40
1
41
1
10
40.6788753041057
20
-5.01382200866476
30
0
41
1
10
39.6120452796507
20
-4.79130393050858
30
0
41
1
10
38.5486105255096
20
-4.53577957246111
30
0
41
1
10
36.4214428767349
20
-3.96949058031376
30
0
41
1
10
35.3567613254946
20
-3.66072366228283
30
0
41
1
10
33.2202859159655
20
-3.00370785174684
30
0
41
1
10
32.1542634626067
20
-2.65632675120466
30
0
41
1
10
30.0235870715844
20
-1.93302378515287
30
0
41
1
10
28.9591556338131
20
-1.5562316120259
30
0
41
1
10
27.3592234491937
20
-0.980483584205786
30
0
41
1
10
26.8250281880129
20
-0.786655529639404
30
0
41
1
10
25.7567275263142
20
-0.397695455265165
30
0
41
1
10
25.2229402381742
20
-0.202722045855865
30
0
41
1
10
23.6218067161807
20
0.381318818156387
30
0
41
1
10
22.5548642137962
20
0.76999750386733
30
0
41
1
10
20.95332377328
20
1.34688107357488
30
0
41
1
10
20.4191857461254
20
1.53807502719516
30
0
41
1
10
19.3526638422122
20
1.91544580119199
30
0
41
1
10
18.8199280376669
20
2.10174879912742
30
0
41
1
10
17.2224002964225
20
2.65108622364448
30
0
41
1
10
16.1582605744903
20
3.00448842268071
30
0
41
1
10
15.0929020115252
20
3.33941648566031
30
0
0
SPLINE
5
13D
100
AcDbEntity
8
1
62
256
6
ByLayer
370
18
48
1
60
0
100
AcDbSpline
70
4
71
4
72
10
73
5
40
0
40
0
40
0
40
0
40
0
40
1
40
1
40
1
40
1
40
1
41
1
10
48.5
20
5.78468195467909
30
0
41
1
10
48.5
20
5.50718898168529
30
0
41
1
10
48.5
20
5.22969600869152
30
0
41
1
10
48.5
20
4.95220303569772
30
0
41
1
10
48.5
20
4.67471006270395
30
0
0
SPLINE
5
13E
100
AcDbEntity
8
1
62
256
6
ByLayer
370
18
48
1
60
0
100
AcDbSpline
70
4
71
3
72
8
73
4
40
0
40
0
40
0
40
0
40
1
40
1
40
1
40
1
41
1
10
54.6040559296005
20
-4.33614329781946
30
0
41
1
10
54.4343179464685
20
-4.84752344418757
30
0
41
1
10
54.2620308314789
20
-5.36203533149506
30
0
41
1
10
54.087119925115
20
-5.87977067972435
30
0
0
SPLINE
5
13F
100
AcDbEntity
8
1
62
256
6
ByLayer
370
18
48
1
60
0
100
AcDbSpline
70
4
71
3
72
14
73
10
40
0
40
0
40
0
40
0
40
0.249999999999999
40
0.249999999999999
40
0.5
40
0.5
40
0.75
40
0.75
40
1
40
1
40
1
40
1
41
1
10
55.8491216586902
20
-0.572283050048867
30
0
41
1
10
55.827969613263
20
-0.657331366522726
30
0
41
1
10
55.8017907363009
20
-0.755072346177627
30
0
41
1
10
55.7404267762138
20
-0.972029107408815
30
0
41
1
10
55.7052434869386
20
-1.09123847787703
30
0
41
1
10
55.6272831711266
20
-1.34634557316079
30
0
41
1
10
55.5845082422669
20
-1.48223643382525
30
0
41
1
10
55.4930817234476
20
-1.76525116261547
30
0
41
1
10
55.4444334647504
20
-1.91236483442989
30
0
41
1
10
55.3938216471333
20
-2.06214699199498
30
0
0
SPLINE
5
140
100
AcDbEntity
8
1
62
256
6
ByLayer
370
18
48
1
60
0
100
AcDbSpline
70
4
71
3
72
8
73
4
40
0
40
0
40
0
40
0
40
1
40
1
40
1
40
1
41
1
10
40.5330749079351
20
4.48595282713231
30
0
41
1
10
40.5342806498645
20
4.50764839530945
30
0
41
1
10
40.535418104886
20
4.52944762891357
30
0
41
1
10
40.5364867677664
20
4.55135129493246
30
0
0
SPLINE
5
141
100
AcDbEntity
8
1
62
256
6
ByLayer
370
18
48
1
60
0
100
AcDbSpline
70
4
71
3
72
8
73
4
40
0
40
0
40
0
40
0
40
1
40
1
40
1
40
1
41
1
10
14.25
20
3.50983412446823
30
0
41
1
10
14.5421491536374
20
3.48865354515755
30
0
41
1
10
14.8231044559423
20
3.43261615951621
30
0
41
1
10
15.0929020115252
20
3.33941648566031
30
0
0
SPLINE
5
142
100
AcDbEntity
8
1
62
256
6
ByLayer
370
18
48
1
60
0
100
AcDbSpline
70
4
71
3
72
9
73
5
40
0
40
0
40
0
40
0
40
0.502009713825849
40
1
40
1
40
1
40
1
41
1
10
50.6326211106476
20
-0.10003282470106
30
0
41
1
10
50.6193885946569
20
-0.0532825339993224
30
0
41
1
10
50.5930295111047
20
0.0398437331110415
30
0
41
1
10
50.567738122069
20
0.133244507067786
30
0
41
1
10
50.5551432560054
20
0.179757185219415
30
0
0
SPLINE
5
143
100
AcDbEntity
8
1
62
256
6
ByLayer
370
18
48
1
60
0
100
AcDbSpline
70
4
71
3
72
12
73
8
40
0
40
0
40
0
40
0
40
0.286809622777701
40
0.286809622777701
40
0.573619245555402
40
0.573619245555402
40
1
40
1
40
1
40
1
41
1
10
42.1927177076387
20
4.69221240979641
30
0
41
1
10
42.183081637565
20
4.52618768661782
30
0
41
1
10
42.1679562002774
20
4.36474947431148
30
0
41
1
10
42.1281094602529
20
4.05111218841427
30
0
41
1
10
42.1033095550065
20
3.89857431859608
30
0
41
1
10
42.0306728335545
20
3.53314195845337
30
0
41
1
10
41.9788568754715
20
3.33252833789544
30
0
41
1
10
41.9197740484992
20
3.1495943347592
30
0
0
SPLINE
5
144
100
AcDbEntity
8
1
62
256
6
ByLayer
370
18
48
1
60
0
100
AcDbSpline
70
4
71
3
72
12
73
8
40
0
40
0
40
0
40
0
40
0.415169185150245
40
0.415169185150245
40
0.707584341804748
40
0.707584341804748
40
1
40
1
40
1
40
1
41
1
10
48.4999999907248
20
5.92036006868278
30
0
41
1
10
48.4862208375087
20
5.93495300115433
30
0
41
1
10
48.4724329464644
20
5.94954222275399
30
0
41
1
10
48.4489192865149
20
5.97440096446647
30
0
41
1
10
48.4391978214024
20
5.9846722860033
30
0
41
1
10
48.4197465092464
20
6.00521152020119
30
0
41
1
10
48.4100166580161
20
6.01547943725964
30
0
41
1
10
48.4002826834116
20
6.02574569412951
30
0
0
SPLINE
5
145
100
AcDbEntity
8
1
62
256
6
ByLayer
370
18
48
1
60
0
100
AcDbSpline
70
4
71
3
72
30
73
26
40
0
40
0
40
0
40
0
40
0.124999999999993
40
0.124999999999993
40
0.18749999999999
40
0.18749999999999
40
0.249999999999987
40
0.249999999999987
40
0.312499999999984
40
0.312499999999984
40
0.374999999999981
40
0.374999999999981
40
0.49999999999998
40
0.49999999999998
40
0.562499999999983
40
0.562499999999983
40
0.624999999999985
40
0.624999999999985
40
0.687499999999988
40
0.687499999999988
40
0.74999999999999
40
0.74999999999999
40
0.874999999999995
40
0.874999999999995
40
1
40
1
40
1
40
1
41
1
10
41
20
-0.0250842389014565
30
0
41
1
10
41
20
-0.255504025894879
30
0
41
1
10
40.9764983521883
20
-0.481383804860286
30
0
41
1
10
40.9037258830009
20
-0.813212752275149
30
0
41
1
10
40.8729004989397
20
-0.923371137806242
30
0
41
1
10
40.7989649814598
20
-1.13745136413533
30
0
41
1
10
40.7561044855783
20
-1.24097685712863
30
0
41
1
10
40.6587250264495
20
-1.44126702166417
30
0
41
1
10
40.6042065073285
20
-1.53803136248791
30
0
41
1
10
40.483225352013
20
-1.72484967220964
30
0
41
1
10
40.416341895027
20
-1.81530170838516
30
0
41
1
10
40.2024309680962
20
-2.07010045150435
30
0
41
1
10
40.0413058052483
20
-2.22016260546135
30
0
41
1
10
39.7715459461618
20
-2.41748048545787
30
0
41
1
10
39.6772538640926
20
-2.47821471166986
30
0
41
1
10
39.4837362062016
20
-2.58781834831871
30
0
41
1
10
39.3840052940544
20
-2.63706988300996
30
0
41
1
10
39.178599657819
20
-2.72486356211905
30
0
41
1
10
39.0729254840513
20
-2.76340599650345
30
0
41
1
10
38.8553958868752
20
-2.82968860421639
30
0
41
1
10
38.7448488419852
20
-2.85698728617439
30
0
41
1
10
38.4113971849709
20
-2.92131810363733
30
0
41
1
10
38.1852761521121
20
-2.94149193011432
30
0
41
1
10
37.7250780638677
20
-2.93537901255854
30
0
41
1
10
37.4976384820826
20
-2.90908753738583
30
0
41
1
10
37.274234313201
20
-2.85929596937706
30
0
0
SPLINE
5
146
100
AcDbEntity
8
1
62
256
6
ByLayer
370
18
48
1
60
0
100
AcDbSpline
70
4
71
3
72
9
73
5
40
0
40
0
40
0
40
0
40
0.494792139603019
40
1
40
1
40
1
40
1
41
1
10
51.8093806946276
20
0.671379917962668
30
0
41
1
10
51.4320569172724
20
0.718494792347002
30
0
41
1
10
50.6694664329977
20
0.813716342192436
30
0
41
1
10
49.906903094243
20
0.909149665671464
30
0
41
1
10
49.5216501014536
20
0.95736333083687
30
0
0
SPLINE
5
147
100
AcDbEntity
8
1
62
256
6
ByLayer
370
18
48
1
60
0
100
AcDbSpline
70
4
71
3
72
18
73
14
40
0
40
0
40
0
40
0
40
0.125
40
0.125
40
0.249999999999999
40
0.249999999999999
40
0.499999999999998
40
0.499999999999998
40
0.624999999999998
40
0.624999999999998
40
0.749999999999999
40
0.749999999999999
40
1
40
1
40
1
40
1
41
1
10
36.5969694132306
20
-2.70755888728792
30
0
41
1
10
35.8317665510087
20
-2.45537752707185
30
0
41
1
10
35.0674960361122
20
-2.19425343404521
30
0
41
1
10
33.5389588962773
20
-1.65869316669577
30
0
41
1
10
32.7740633222209
20
-1.38430823146456
30
0
41
1
10
30.4795278747409
20
-0.551720299998777
30
0
41
1
10
28.9546648885138
20
0.0153182280007229
30
0
41
1
10
26.6632689685129
20
0.852759702657494
30
0
41
1
10
25.898779032896
20
1.12970135296396
30
0
41
1
10
24.3669515158268
20
1.67516814055364
30
0
41
1
10
23.6021536593226
20
1.94303099699351
30
0
41
1
10
21.3111088441257
20
2.72808460994415
30
0
41
1
10
19.7879285485043
20
3.22716994340848
30
0
41
1
10
18.2593499874909
20
3.6782817326872
30
0
0
SPLINE
5
148
100
AcDbEntity
8
1
62
256
6
ByLayer
370
18
48
1
60
0
100
AcDbSpline
70
4
71
3
72
8
73
4
40
0
40
0
40
0
40
0
40
1
40
1
40
1
40
1
41
1
10
36.5969694132306
20
-2.70755888728792
30
0
41
1
10
36.7083528592879
20
-2.69854327476119
30
0
41
1
10
36.8281296811823
20
-2.6944189337708
30
0
41
1
10
36.9556183230476
20
-2.6947886949134
30
0
0
SPLINE
5
149
100
AcDbEntity
8
1
62
256
6
ByLayer
370
18
48
1
60
0
100
AcDbSpline
70
4
71
3
72
14
73
10
40
0
40
0
40
0
40
0
40
0.25
40
0.25
40
0.5
40
0.5
40
0.75
40
0.75
40
1
40
1
40
1
40
1
41
1
10
54.087119925115
20
5.87977067972437
30
0
41
1
10
53.6856611274333
20
5.94369092546805
30
0
41
1
10
53.2849866516433
20
5.99959148323904
30
0
41
1
10
52.483712929671
20
6.09456492135274
30
0
41
1
10
52.0832338544702
20
6.13375928768289
30
0
41
1
10
51.282841290656
20
6.19565383240564
30
0
41
1
10
50.8829682434683
20
6.21829461421473
30
0
41
1
10
50.0818093414403
20
6.24647494561307
30
0
41
1
10
49.6807896345348
20
6.25212983765078
30
0
41
1
10
49.279422863406
20
6.24928838189058
30
0
0
SPLINE
5
14A
100
AcDbEntity
8
1
62
256
6
ByLayer
370
18
48
1
60
0
100
AcDbSpline
70
4
71
3
72
10
73
6
40
0
40
0
40
0
40
0
40
0.839101713010424
40
0.839101713010424
40
1
40
1
40
1
40
1
41
1
10
49.0196057507709
20
-6.05921369582901
30
0
41
1
10
49.438514589834
20
-6.08142244980942
30
0
41
1
10
49.8575037708945
20
-6.09451710434828
30
0
41
1
10
50.3567751101884
20
-6.09938660544009
30
0
41
1
10
50.4371056008855
20
-6.09983847924809
30
0
41
1
10
50.5174343170629
20
-6.09995823104057
30
0
0
SPLINE
5
14B
100
AcDbEntity
8
1
62
256
6
ByLayer
370
18
48
1
60
0
100
AcDbSpline
70
4
71
3
72
25
73
21
40
0
40
0
40
0
40
0
40
0.045662067972047
40
0.0910054966154891
40
0.136031286069093
40
0.180740457791818
40
0.225134055101477
40
0.269213143727629
40
0.312978812379017
40
0.356432173325814
40
0.399574362997038
40
0.442406542593381
40
0.484929898715779
40
0.527145644009984
40
0.569055017827448
40
0.656765208280605
40
0.743702226024738
40
0.829878480369965
40
0.915306712193187
40
1
40
1
40
1
40
1
41
1
10
52.0254527651332
20
-4.61022515848825
30
0
41
1
10
52.0141290509764
20
-4.58241868430923
30
0
41
1
10
51.9915606418758
20
-4.52699977526339
30
0
41
1
10
51.9585669563373
20
-4.44157282360746
30
0
41
1
10
51.9263547774418
20
-4.35491387044385
30
0
41
1
10
51.8949761245735
20
-4.26690458252747
30
0
41
1
10
51.8644172056465
20
-4.1776625901071
30
0
41
1
10
51.8346816771795
20
-4.08724203234402
30
0
41
1
10
51.8057685700625
20
-3.99571290437137
30
0
41
1
10
51.7776781403301
20
-3.90313996909896
30
0
41
1
10
51.7504103236516
20
-3.80958832599782
30
0
41
1
10
51.72396512447
20
-3.71512181407215
30
0
41
1
10
51.6983425888063
20
-3.6198036912306
30
0
41
1
10
51.6735425310527
20
-3.5236953306879
30
0
41
1
10
51.6407731341627
20
-3.39135049650966
30
0
41
1
10
51.6012150966358
20
-3.22084286930499
30
0
41
1
10
51.5564572393345
20
-3.00982363736512
30
0
41
1
10
51.51508631881
20
-2.79530275400654
30
0
41
1
10
51.4768180630605
20
-2.57809447209252
30
0
41
1
10
51.4539752564073
20
-2.43022708831828
30
0
41
1
10
51.4426031948222
20
-2.35661279825982
30
0
0
SPLINE
5
14C
100
AcDbEntity
8
1
62
256
6
ByLayer
370
18
48
1
60
0
100
AcDbSpline
70
4
71
3
72
10
73
6
40
0
40
0
40
0
40
0
40
0.327674101799367
40
0.661013772113878
40
1
40
1
40
1
40
1
41
1
10
48.5000000329937
20
4.89489758196694
30
0
41
1
10
48.4901076298016
20
4.92286443931317
30
0
41
1
10
48.4701517812516
20
4.97928170807836
30
0
41
1
10
48.4381015464208
20
5.06414775642719
30
0
41
1
10
48.4153335100677
20
5.1208314152093
30
0
41
1
10
48.4038538827317
20
5.14941127465659
30
0
0
SPLINE
5
14D
100
AcDbEntity
8
1
62
256
6
ByLayer
370
18
48
1
60
0
100
AcDbSpline
70
4
71
3
72
8
73
4
40
0
40
0
40
0
40
0
40
1
40
1
40
1
40
1
41
1
10
48.4038538593162
20
5.14941124415651
30
0
41
1
10
48.4026774973939
20
5.44296255525461
30
0
41
1
10
48.4014872249481
20
5.73509280740552
30
0
41
1
10
48.4002834329443
20
6.02574502043367
30
0
0
SPLINE
5
14E
100
AcDbEntity
8
1
62
256
6
ByLayer
370
18
48
1
60
0
100
AcDbSpline
70
4
71
3
72
14
73
10
40
0
40
0
40
0
40
0
40
0.327546688357297
40
0.327546688357297
40
0.655093376714594
40
0.655093376714594
40
0.982640065071891
40
0.982640065071891
40
1
40
1
40
1
40
1
41
1
10
50.8022167607537
20
0.411144086591577
30
0
41
1
10
49.9387702638647
20
0.697535776401622
30
0
41
1
10
49.0741635275209
20
0.98077731363901
30
0
41
1
10
47.3421630281537
20
1.53482432678425
30
0
41
1
10
46.4761049536793
20
1.80535424810424
30
0
41
1
10
44.7426340026196
20
2.3301717569573
30
0
41
1
10
43.8748846001961
20
2.58480138520642
30
0
41
1
10
42.9615050994773
20
2.84267376142935
30
0
41
1
10
42.9155331226142
20
2.85562524716386
30
0
41
1
10
42.869561566278
20
2.86854872010295
30
0
0
SPLINE
5
14F
100
AcDbEntity
8
1
62
256
6
ByLayer
370
18
48
1
60
0
100
AcDbSpline
70
4
71
3
72
8
73
4
40
0
40
0
40
0
40
0
40
1
40
1
40
1
40
1
41
1
10
14.25
20
-4.96507578292687
30
0
41
1
10
13.8338583301679
20
-4.8403166803559
30
0
41
1
10
13.4172795342041
20
-4.71149748759663
30
0
41
1
10
13
20
-4.57924552493151
30
0
0
SPLINE
5
150
100
AcDbEntity
8
1
62
256
6
ByLayer
370
18
48
1
60
0
100
AcDbSpline
70
4
71
3
72
21
73
17
40
0
40
0
40
0
40
0
40
0.250000000000002
40
0.250000000000002
40
0.312500000000005
40
0.312500000000005
40
0.375000000000008
40
0.375000000000008
40
0.500000000000008
40
0.625000000000008
40
0.625000000000008
40
0.687500000000007
40
0.687500000000007
40
0.750000000000006
40
0.750000000000006
40
1
40
1
40
1
40
1
41
1
10
50.8022167607536
20
0.411144086591918
30
0
41
1
10
50.9148395117923
20
0.312711013857154
30
0
41
1
10
51.0229227055131
20
0.241733779173586
30
0
41
1
10
51.1519954819679
20
0.189489819384988
30
0
41
1
10
51.1775054595116
20
0.180883153590372
30
0
41
1
10
51.2278941103855
20
0.167488032683593
30
0
41
1
10
51.2528259987974
20
0.16270434543776
30
0
41
1
10
51.3256855828028
20
0.15438390268892
30
0
41
1
10
51.4182612134751
20
0.159118278828174
30
0
41
1
10
51.5017789607792
20
0.195221537814149
30
0
41
1
10
51.5609415999483
20
0.234335781564482
30
0
41
1
10
51.5800820526346
20
0.249383973452609
30
0
41
1
10
51.6171740790259
20
0.283597633193921
30
0
41
1
10
51.6351404194286
20
0.302803674708343
30
0
41
1
10
51.7207247581024
20
0.407795395202754
30
0
41
1
10
51.7768043035166
20
0.521023223995144
30
0
41
1
10
51.8210550911628
20
0.662165916755612
30
0
0
SPLINE
5
151
100
AcDbEntity
8
1
62
256
6
ByLayer
370
18
48
1
60
0
100
AcDbSpline
70
4
71
3
72
21
73
17
40
0
40
0
40
0
40
0
40
0.0180469001422254
40
0.0362138971066269
40
0.104802052650872
40
0.174301464924377
40
0.31274219400636
40
0.451339321130377
40
0.589786220836841
40
0.658537154200448
40
0.727671253286805
40
0.795650648407142
40
0.864252268166638
40
0.909313841956649
40
0.954487262732507
40
1
40
1
40
1
40
1
41
1
10
49.5216499803752
20
0.957362411590282
30
0
41
1
10
49.512789288171
20
0.956988005168995
30
0
41
1
10
49.4950089384572
20
0.956236700761622
30
0
41
1
10
49.4426580185309
20
0.955333822191164
30
0
41
1
10
49.3623531986219
20
0.957366846109238
30
0
41
1
10
49.2172881062149
20
0.969946980509917
30
0
41
1
10
49.0348798354815
20
1.00001540229005
30
0
41
1
10
48.8327691223878
20
1.05298934547048
30
0
41
1
10
48.6884468398077
20
1.10828757073679
30
0
41
1
10
48.5929195073511
20
1.15817660219727
30
0
41
1
10
48.5322566192804
20
1.19817036409188
30
0
41
1
10
48.4828436030505
20
1.24081450137496
30
0
41
1
10
48.4496518543625
20
1.28077037691199
30
0
41
1
10
48.428360425277
20
1.31727963420522
30
0
41
1
10
48.4151531554889
20
1.34944773216259
30
0
41
1
10
48.410818652086
20
1.37173908737827
30
0
41
1
10
48.4086432912721
20
1.38292646828799
30
0
0
SPLINE
5
152
100
AcDbEntity
8
1
62
256
6
ByLayer
370
18
48
1
60
0
100
AcDbSpline
70
4
71
3
72
20
73
16
40
0
40
0
40
0
40
0
40
0.21895600968076
40
0.21895600968076
40
0.437912019361519
40
0.437912019361519
40
0.5473900242019
40
0.5473900242019
40
0.656868029042281
40
0.656868029042281
40
0.875824038723044
40
0.875824038723044
40
0.985302043563425
40
0.985302043563425
40
1
40
1
40
1
40
1
41
1
10
14.9373429311512
20
2.85100554758239
30
0
41
1
10
16.0015981714025
20
2.54253441861522
30
0
41
1
10
17.0637249524301
20
2.21672765939854
30
0
41
1
10
19.1884773931919
20
1.54517082806015
30
0
41
1
10
20.251120721419
20
1.19947264539704
30
0
41
1
10
21.8490991916775
20
0.677678465596074
30
0
41
1
10
22.3827940542944
20
0.503116779322994
30
0
41
1
10
23.4497361731666
20
0.155319278448872
30
0
41
1
10
23.9830318997534
20
-0.0179298413513891
30
0
41
1
10
25.5829517109224
20
-0.534421628758196
30
0
41
1
10
26.6495603635405
20
-0.874709868695106
30
0
41
1
10
28.2509151355612
20
-1.37429091416755
30
0
41
1
10
28.7849273376302
20
-1.5390482275084
30
0
41
1
10
29.391118483404
20
-1.72310345434747
30
0
41
1
10
29.4628764838539
20
-1.74484065635045
30
0
41
1
10
29.5346391851976
20
-1.76652709742385
30
0
0
SPLINE
5
153
100
AcDbEntity
8
1
62
256
6
ByLayer
370
18
48
1
60
0
100
AcDbSpline
70
4
71
3
72
8
73
4
40
0
40
0
40
0
40
0
40
1
40
1
40
1
40
1
41
1
10
54.6040559296005
20
4.33614329781946
30
0
41
1
10
54.4343179464685
20
4.84752344418754
30
0
41
1
10
54.2620308314788
20
5.36203533149504
30
0
41
1
10
54.087119925115
20
5.87977067972435
30
0
0
SPLINE
5
154
100
AcDbEntity
8
1
62
256
6
ByLayer
370
18
48
1
60
0
100
AcDbSpline
70
4
71
3
72
8
73
4
40
0
40
0
40
0
40
0
40
1
40
1
40
1
40
1
41
1
10
55.9893044423296
20
0.0445202038415005
30
0
41
1
10
55.9782189172251
20
0.0808544510477702
30
0
41
1
10
55.9672190449488
20
0.117016876434434
30
0
41
1
10
55.9563039114628
20
0.153009313585329
30
0
0
SPLINE
5
155
100
AcDbEntity
8
1
62
256
6
ByLayer
370
18
48
1
60
0
100
AcDbSpline
70
4
71
3
72
10
73
6
40
0
40
0
40
0
40
0
40
0.5
40
0.5
40
1
40
1
40
1
40
1
41
1
10
48.4038538950071
20
5.14941124391768
30
0
41
1
10
47.3664575796186
20
5.13493101338585
30
0
41
1
10
46.329787593705
20
5.09495267526535
30
0
41
1
10
44.2601336834879
20
4.94464451781883
30
0
41
1
10
43.2269335564678
20
4.83391222291397
30
0
41
1
10
42.1927177076333
20
4.69221240979513
30
0
0
SPLINE
5
156
100
AcDbEntity
8
1
62
256
6
ByLayer
370
18
48
1
60
0
100
AcDbSpline
70
4
71
3
72
65
73
61
40
0
40
0
40
0
40
0
40
0.017241379310345
40
0.0344827586206896
40
0.0517241379310346
40
0.0689655172413794
40
0.0862068965517241
40
0.103448275862069
40
0.120689655172414
40
0.137931034482759
40
0.155172413793104
40
0.172413793103448
40
0.189655172413793
40
0.206896551724138
40
0.224137931034483
40
0.241379310344828
40
0.258620689655172
40
0.275862068965517
40
0.293103448275862
40
0.310344827586207
40
0.327586206896552
40
0.344827586206897
40
0.362068965517241
40
0.379310344827586
40
0.396551724137931
40
0.413793103448276
40
0.431034482758621
40
0.448275862068965
40
0.46551724137931
40
0.482758620689655
40
0.5
40
0.517241379310345
40
0.53448275862069
40
0.551724137931034
40
0.568965517241379
40
0.586206896551724
40
0.603448275862069
40
0.620689655172414
40
0.637931034482759
40
0.655172413793103
40
0.672413793103448
40
0.689655172413793
40
0.706896551724138
40
0.724137931034483
40
0.741379310344827
40
0.758620689655172
40
0.775862068965517
40
0.793103448275862
40
0.810344827586207
40
0.827586206896551
40
0.844827586206896
40
0.862068965517241
40
0.879310344827586
40
0.896551724137931
40
0.913793103448276
40
0.93103448275862
40
0.948275862068965
40
0.96551724137931
40
0.982758620689655
40
1
40
1
40
1
40
1
41
1
10
13.6030000000007
20
-1.17105376815431
30
0
41
1
10
13.6135710457098
20
-1.14220847219809
30
0
41
1
10
13.634713137128
20
-1.08451788028569
30
0
41
1
10
13.6664092765689
20
-0.997690970639241
30
0
41
1
10
13.6980714297479
20
-0.910709983913279
30
0
41
1
10
13.729682626305
20
-0.823597315912565
30
0
41
1
10
13.7612259231925
20
-0.736406148432081
30
0
41
1
10
13.7926844137553
20
-0.649181475171559
30
0
41
1
10
13.8240412367935
20
-0.561970513056536
30
0
41
1
10
13.8552795855988
20
-0.474819880763988
30
0
41
1
10
13.8863827169632
20
-0.387776322966261
30
0
41
1
10
13.9173339601529
20
-0.300886484520959
30
0
41
1
10
13.9481167258434
20
-0.214196939262479
30
0
41
1
10
13.9787145150113
20
-0.127754150625549
30
0
41
1
10
14.0091109277773
20
-0.041604450603927
30
0
41
1
10
14.0392896721963
20
0.0442059861177029
30
0
41
1
10
14.0692345729897
20
0.129631166635335
30
0
41
1
10
14.098929580215
20
0.214625304551163
30
0
41
1
10
14.1283587778682
20
0.29914284449444
30
0
41
1
10
14.1575063924146
20
0.3831384865438
30
0
41
1
10
14.1863568012431
20
0.466567210505644
30
0
41
1
10
14.2148945410398
20
0.549384300044665
30
0
41
1
10
14.2431043160758
20
0.631545366650812
30
0
41
1
10
14.2709710064055
20
0.713006373430943
30
0
41
1
10
14.2984796759708
20
0.793723658711627
30
0
41
1
10
14.3256155806065
20
0.873653959441185
30
0
41
1
10
14.3523641759428
20
0.952754434377908
30
0
41
1
10
14.3787111252008
20
1.0309826870521
30
0
41
1
10
14.4046423068773
20
1.10829678849001
30
0
41
1
10
14.4301438223126
20
1.18465529968688
30
0
41
1
10
14.4552020031411
20
1.26001729381764
30
0
41
1
10
14.4798034186165
20
1.33434237817289
30
0
41
1
10
14.5039348828109
20
1.40759071580871
30
0
41
1
10
14.527583461682
20
1.47972304689861
30
0
41
1
10
14.5507364800056
20
1.55070070977604
30
0
41
1
10
14.5733815281692
20
1.62048566165637
30
0
41
1
10
14.5955064688234
20
1.68904049902724
30
0
41
1
10
14.6170994433875
20
1.75632847769609
30
0
41
1
10
14.6381488784051
20
1.82231353248446
30
0
41
1
10
14.6586434917476
20
1.88696029655824
30
0
41
1
10
14.6785722986611
20
1.95023412038381
30
0
41
1
10
14.697924617654
20
2.01210109029932
30
0
41
1
10
14.7166900762221
20
2.07252804669227
30
0
41
1
10
14.7348586164082
20
2.1314826017715
30
0
41
1
10
14.7524205001933
20
2.18893315692938
30
0
41
1
10
14.7693663147128
20
2.24484891966793
30
0
41
1
10
14.7856869773158
20
2.29919992014087
30
0
41
1
10
14.8013737403797
20
2.35195702707557
30
0
41
1
10
14.8164181961981
20
2.40309196391462
30
0
41
1
10
14.8308122807427
20
2.45257732200238
30
0
41
1
10
14.8445482807663
20
2.50038658262426
30
0
41
1
10
14.8576188275567
20
2.54649410379451
30
0
41
1
10
14.8700169396255
20
2.59087523635455
30
0
41
1
10
14.8817358818754
20
2.63350595519171
30
0
41
1
10
14.8927697087683
20
2.67436429773207
30
0
41
1
10
14.9031112538527
20
2.71342505524203
30
0
41
1
10
14.9127596486859
20
2.75067964260413
30
0
41
1
10
14.9216922766332
20
2.78606199833024
30
0
41
1
10
14.9299694565738
20
2.81972518205882
30
0
41
1
10
14.9348856661264
20
2.84058115985152
30
0
41
1
10
14.9373437709027
20
2.85100914874789
30
0
0
SPLINE
5
157
100
AcDbEntity
8
1
62
256
6
ByLayer
370
18
48
1
60
0
100
AcDbSpline
70
4
71
3
72
10
73
6
40
0
40
0
40
0
40
0
40
0.5
40
0.5
40
1
40
1
40
1
40
1
41
1
10
13.0134914983727
20
3.29537971227592
30
0
41
1
10
13.1291946278153
20
3.25359078733089
30
0
41
1
10
13.2549576405541
20
3.21510461699086
30
0
41
1
10
13.5178897993643
20
3.14800393279825
30
0
41
1
10
13.6558697669109
20
3.11901296932788
30
0
41
1
10
13.8006500635242
20
3.0928751707973
30
0
0
SPLINE
5
158
100
AcDbEntity
8
1
62
256
6
ByLayer
370
18
48
1
60
0
100
AcDbSpline
70
4
71
3
72
8
73
4
40
0
40
0
40
0
40
0
40
1
40
1
40
1
40
1
41
1
10
49.019605750748
20
-5.72359124337652
30
0
41
1
10
49.019605750748
20
-5.89096322158966
30
0
41
1
10
49.019605750748
20
-6.0030907555427
30
0
41
1
10
49.019605750748
20
-6.05921369582901
30
0
0
SPLINE
5
159
100
AcDbEntity
8
1
62
256
6
ByLayer
370
18
48
1
60
0
100
AcDbSpline
70
4
71
3
72
21
73
17
40
0
40
0
40
0
40
0
40
0.0288520052945219
40
0.0576240585912416
40
0.0863876892803916
40
0.11521448945082
40
0.144175582728761
40
0.2160559394533
40
0.287428583543568
40
0.359466303850583
40
0.430490127659031
40
0.572696370438537
40
0.714282795266459
40
0.855449555836291
40
0.996270160918993
40
1
40
1
40
1
40
1
41
1
10
48.40500536954
20
-5.85045607090359
30
0
41
1
10
48.4052214397121
20
-5.84619523279002
30
0
41
1
10
48.4056529813027
20
-5.83768536380182
30
0
41
1
10
48.4091176137561
20
-5.82456149143044
30
0
41
1
10
48.4146481911674
20
-5.81122026947858
30
0
41
1
10
48.4224433286119
20
-5.79763781134176
30
0
41
1
10
48.4373737203234
20
-5.77704954180479
30
0
41
1
10
48.4644916353346
20
-5.74923543574678
30
0
41
1
10
48.5113431451023
20
-5.7144863665861
30
0
41
1
10
48.5699879052836
20
-5.68062948231474
30
0
41
1
10
48.6632979901268
20
-5.63792885697063
30
0
41
1
10
48.806145113025
20
-5.59120669430982
30
0
41
1
10
49.0105279178853
20
-5.55440470165806
30
0
41
1
10
49.2319138758153
20
-5.54404977824663
30
0
41
1
10
49.3796126879529
20
-5.55649218269576
30
0
41
1
10
49.4498578320574
20
-5.56706468020843
30
0
41
1
10
49.45167036944
20
-5.56733748265214
30
0
0
SPLINE
5
15A
100
AcDbEntity
8
1
62
256
6
ByLayer
370
18
48
1
60
0
100
AcDbSpline
70
4
71
3
72
8
73
4
40
0
40
0
40
0
40
0
40
1
40
1
40
1
40
1
41
1
10
48.4086444813017
20
1.38292629334191
30
0
41
1
10
48.3724288565974
20
1.38524599777187
30
0
41
1
10
48.3362140267006
20
1.38757814401018
30
0
41
1
10
48.3
20
1.38992266346869
30
0
0
SPLINE
5
15B
100
AcDbEntity
8
1
62
256
6
ByLayer
370
18
48
1
60
0
100
AcDbSpline
70
4
71
3
72
12
73
8
40
0
40
0
40
0
40
0
40
0.499999999999995
40
0.499999999999995
40
0.749999999999997
40
0.749999999999997
40
1
40
1
40
1
40
1
41
1
10
49.3
20
1.23136671803454
30
0
41
1
10
49.9272548923717
20
1.14175802193915
30
0
41
1
10
50.5546570106434
20
1.0532395844142
30
0
41
1
10
51.4967981100803
20
0.928148098741559
30
0
41
1
10
51.8109811908941
20
0.887458416758022
30
0
41
1
10
52.4392436105646
20
0.80531080781509
30
0
41
1
10
52.753372374367
20
0.764218889627273
30
0
41
1
10
53.0675157689618
20
0.723235317503821
30
0
0
SPLINE
5
15C
100
AcDbEntity
8
1
62
256
6
ByLayer
370
18
48
1
60
0
100
AcDbSpline
70
4
71
3
72
16
73
12
40
0
40
0
40
0
40
0
40
0.25
40
0.25
40
0.5
40
0.5
40
0.625
40
0.625
40
0.75
40
0.75
40
1
40
1
40
1
40
1
41
1
10
10.7811736133218
20
3.46697625157574
30
0
41
1
10
10.9451860006968
20
3.43054963344721
30
0
41
1
10
11.115037867084
20
3.40235175514576
30
0
41
1
10
11.4663039557775
20
3.35832807588969
30
0
41
1
10
11.6477135791059
20
3.34251703510813
30
0
41
1
10
11.9292385485025
20
3.32516613091713
30
0
41
1
10
12.0249647453607
20
3.32043606165985
30
0
41
1
10
12.2169839750963
20
3.31267180000822
30
0
41
1
10
12.3135257611595
20
3.30961638237571
30
0
41
1
10
12.6048001096399
20
3.30197162990211
30
0
41
1
10
12.8011700595009
20
3.29894466520554
30
0
41
1
10
12.9999999999996
20
3.29518823750965
30
0
0
SPLINE
5
15D
100
AcDbEntity
8
1
62
256
6
ByLayer
370
18
48
1
60
0
100
AcDbSpline
70
4
71
4
72
10
73
5
40
0
40
0
40
0
40
0
40
0
40
1
40
1
40
1
40
1
40
1
41
1
10
48.5
20
4.67471006270395
30
0
41
1
10
48.5
20
3.80020055264023
30
0
41
0.989889153136724
10
48.5
20
2.85897732901686
30
0
41
0.997549575205523
10
48.5
20
2.13306873510573
30
0
41
0.999604083168991
10
48.5
20
1.68870342132539
30
0
0
SPLINE
5
15E
100
AcDbEntity
8
1
62
256
6
ByLayer
370
18
48
1
60
0
100
AcDbSpline
70
4
71
3
72
18
73
14
40
0
40
0
40
0
40
0
40
0.249999999999995
40
0.249999999999995
40
0.374999999999992
40
0.374999999999992
40
0.499999999999989
40
0.499999999999989
40
0.749999999999991
40
0.749999999999991
40
0.874999999999996
40
0.874999999999996
40
1
40
1
40
1
40
1
41
1
10
12.5537073968316
20
-3.85439006378888
30
0
41
1
10
12.3855617610042
20
-3.83414683068426
30
0
41
1
10
12.2243874083926
20
-3.81112014727122
30
0
41
1
10
11.9927579422458
20
-3.77254111858971
30
0
41
1
10
11.9172466498086
20
-3.75900390269058
30
0
41
1
10
11.7696849590027
20
-3.730544694701
30
0
41
1
10
11.6973090556379
20
-3.71554495581515
30
0
41
1
10
11.4891017923501
20
-3.66918139156564
30
0
41
1
10
11.3614528885817
20
-3.63637910540984
30
0
41
1
10
11.1862798226456
20
-3.58433949276883
30
0
41
1
10
11.1306211566104
20
-3.56651731576372
30
0
41
1
10
11.0248858900189
20
-3.52988623617739
30
0
41
1
10
10.9747288154281
20
-3.51102804190245
30
0
41
1
10
10.9283445540598
20
-3.49202872338327
30
0
0
SPLINE
5
15F
100
AcDbEntity
8
1
62
256
6
ByLayer
370
18
48
1
60
0
100
AcDbSpline
70
4
71
3
72
8
73
4
40
0
40
0
40
0
40
0
40
1
40
1
40
1
40
1
41
1
10
10.6979690105879
20
-3.78430360914572
30
0
41
1
10
10.7230457436616
20
-3.82922668721878
30
0
41
1
10
10.7506984709239
20
-3.87104100026158
30
0
41
1
10
10.7811736133218
20
-3.90964371218118
30
0
0
SPLINE
5
160
100
AcDbEntity
8
1
62
256
6
ByLayer
370
18
48
1
60
0
100
AcDbSpline
70
4
71
3
72
8
73
4
40
0
40
0
40
0
40
0
40
1
40
1
40
1
40
1
41
1
10
41.7193002556184
20
4.69868289751517
30
0
41
1
10
41.8851737945629
20
4.71748870937088
30
0
41
1
10
42.0432597821646
20
4.71699235774278
30
0
41
1
10
42.1927177076354
20
4.69221240979684
30
0
0
SPLINE
5
161
100
AcDbEntity
8
1
62
256
6
ByLayer
370
18
48
1
60
0
100
AcDbSpline
70
4
71
3
72
8
73
4
40
0
40
0
40
0
40
0
40
1
40
1
40
1
40
1
41
1
10
48.5
20
-5.78468195467914
30
0
41
1
10
48.7610561090784
20
-5.94315019693917
30
0
41
1
10
49.0207669511611
20
-6.09817003070154
30
0
41
1
10
49.2794228634061
20
-6.24928838189058
30
0
0
SPLINE
5
162
100
AcDbEntity
8
1
62
256
6
ByLayer
370
18
48
1
60
0
100
AcDbSpline
70
4
71
3
72
8
73
4
40
0
40
0
40
0
40
0
40
1
40
1
40
1
40
1
41
1
10
55.824336027378
20
-0.508922483268975
30
0
41
1
10
55.8493040876517
20
-0.437538571973192
30
0
41
1
10
55.8742257023638
20
-0.365327773957262
30
0
41
1
10
55.8986378893919
20
-0.293659856771399
30
0
0
SPLINE
5
163
100
AcDbEntity
8
1
62
256
6
ByLayer
370
18
48
1
60
0
100
AcDbSpline
70
4
71
3
72
8
73
4
40
0
40
0
40
0
40
0
40
1
40
1
40
1
40
1
41
1
10
12.7443172551783
20
-3.89635699893944
30
0
41
1
10
12.7545514273275
20
-4.10768423472484
30
0
41
1
10
12.7643303700247
20
-4.31996393552066
30
0
41
1
10
12.7733327610966
20
-4.5330304229316
30
0
0
SPLINE
5
164
100
AcDbEntity
8
1
62
256
6
ByLayer
370
13
48
1
60
0
100
AcDbSpline
70
4
71
3
72
8
73
4
40
0
40
0
40
0
40
0
40
1
40
1
40
1
40
1
41
1
10
55.3501017842799
20
0.621797404598198
30
0
41
1
10
55.3334134940985
20
0.614350030459434
30
0
41
1
10
55.316077583392
20
0.600215723578998
30
0
41
1
10
55.301896769678
20
0.582494913884375
30
0
0
SPLINE
5
165
100
AcDbEntity
8
1
62
256
6
ByLayer
370
18
48
1
60
0
100
AcDbSpline
70
4
71
3
72
8
73
4
40
0
40
0
40
0
40
0
40
1
40
1
40
1
40
1
41
1
10
49.3
20
-5.61230133362821
30
0
41
1
10
50.5342570606944
20
-5.61233570918085
30
0
41
1
10
51.7685141297973
20
-5.6122758279891
30
0
41
1
10
53.0027711752879
20
-5.61229314044928
30
0
0
SPLINE
5
166
100
AcDbEntity
8
1
62
256
6
ByLayer
370
18
48
1
60
0
100
AcDbSpline
70
2053
71
3
72
39
73
35
40
0
40
0
40
0
40
0
40
0.030301698465113
40
0.0624382535005713
40
0.0935960830297094
40
0.124908199717083
40
0.156195133601459
40
0.187404407895544
40
0.219474373595694
40
0.249878158933081
40
0.280269345537051
40
0.312379880784442
40
0.34358360758552
40
0.37491272933052
40
0.40609474233234
40
0.437431220573642
40
0.469592358880585
40
0.499868571374146
40
0.530177997447031
40
0.562410766438719
40
0.593712979192452
40
0.624979338771648
40
0.656206877886593
40
0.687546564588779
40
0.719648292496456
40
0.749999523597419
40
0.78034873613208
40
0.812404780243315
40
0.843718601314125
40
0.874885531220209
40
0.906234207159841
40
0.937451026653314
40
0.969677955011169
40
1
40
1
40
1
40
1
41
1
10
45.87
20
-3.07611585775039
30
0
41
1
10
45.7737055049008
20
-3.0761159700704
30
0
41
1
10
45.5752856440874
20
-3.09360003219561
30
0
41
1
10
45.2897770181033
20
-3.17089883939715
30
0
41
1
10
45.0253756023901
20
-3.29607625426061
30
0
41
1
10
44.7961812922999
20
-3.45779835974673
30
0
41
1
10
44.6077466429139
20
-3.64819518010483
30
0
41
1
10
44.4658575212551
20
-3.85896501278924
30
0
41
1
10
44.3793551765182
20
-4.07600789531193
30
0
41
1
10
44.3506961259202
20
-4.289132931317
30
0
41
1
10
44.3788993842857
20
-4.49061866055968
30
0
41
1
10
44.4650006960206
20
-4.67501056175055
30
0
41
1
10
44.6066443844297
20
-4.83557793316902
30
0
41
1
10
44.7946117953356
20
-4.96695190253041
30
0
41
1
10
45.0237209633037
20
-5.0695602953717
30
0
41
1
10
45.2881451629797
20
-5.14346850922982
30
0
41
1
10
45.5741311802562
20
-5.18725633762293
30
0
41
1
10
45.8688389889782
20
-5.20110827707765
30
0
41
1
10
46.163828732931
20
-5.18745325394914
30
0
41
1
10
46.4501509779628
20
-5.14384144864474
30
0
41
1
10
46.7150720658663
20
-5.06999859270061
30
0
41
1
10
46.9442446169576
20
-4.96758633145618
30
0
41
1
10
47.1326660576879
20
-4.83619556480343
30
0
41
1
10
47.2745923769246
20
-4.67570146043758
30
0
41
1
10
47.3609123521396
20
-4.49118883121466
30
0
41
1
10
47.3892752445665
20
-4.28999373144262
30
0
41
1
10
47.3609300841806
20
-4.077131638255
30
0
41
1
10
47.2747261631469
20
-3.86001506894669
30
0
41
1
10
47.1331001986541
20
-3.6492297882196
30
0
41
1
10
46.9448431497739
20
-3.45869542021049
30
0
41
1
10
46.7159279268309
20
-3.29680943255428
30
0
41
1
10
46.4511315424384
20
-3.17119074509867
30
0
41
1
10
46.1651309523893
20
-3.0936421083241
30
0
41
1
10
45.9663591534626
20
-3.07611574535496
30
0
41
1
10
45.87
20
-3.07611585775039
30
0
0
SPLINE
5
167
100
AcDbEntity
8
1
62
256
6
ByLayer
370
13
48
1
60
0
100
AcDbSpline
70
4
71
2
72
6
73
3
40
0
40
0
40
0
40
1
40
1
40
1
41
0.996031993239127
10
55.301896769678
20
0.582494913884311
30
0
41
0.889030954078291
10
54.6173266668692
20
-0.290102364227138
30
0
41
1
10
54.5725774765663
20
-1.19477072595751
30
0
0
SPLINE
5
168
100
AcDbEntity
8
1
62
256
6
ByLayer
370
18
48
1
60
0
100
AcDbSpline
70
4
71
3
72
8
73
4
40
0
40
0
40
0
40
0
40
1
40
1
40
1
40
1
41
1
10
55.8986378893916
20
-0.293659856771342
30
0
41
1
10
55.9342624266133
20
-0.180029986538358
30
0
41
1
10
55.9644365424327
20
-0.066181372507117
30
0
41
1
10
55.9893044423212
20
0.0445202038417563
30
0
0
SPLINE
5
169
100
AcDbEntity
8
1
62
256
6
ByLayer
370
18
48
1
60
0
100
AcDbSpline
70
4
71
3
72
8
73
4
40
0
40
0
40
0
40
0
40
1
40
1
40
1
40
1
41
1
10
48.4002826961639
20
6.02574567573569
30
0
41
1
10
48.3985217581375
20
6.02731199242149
30
0
41
1
10
48.3967608593395
20
6.02887784681599
30
0
41
1
10
48.395
20
6.03044323854357
30
0
0
SPLINE
5
16A
100
AcDbEntity
8
1
62
256
6
ByLayer
370
18
48
1
60
0
100
AcDbSpline
70
4
71
3
72
38
73
34
40
0
40
0
40
0
40
0
40
0.0624999999999999
40
0.0624999999999999
40
0.125
40
0.125
40
0.1875
40
0.1875
40
0.25
40
0.25
40
0.3125
40
0.3125
40
0.375
40
0.375
40
0.4375
40
0.4375
40
0.5
40
0.5
40
0.5625
40
0.5625
40
0.625
40
0.625
40
0.6875
40
0.6875
40
0.75
40
0.75
40
0.8125
40
0.8125
40
0.875
40
0.875
40
0.9375
40
0.9375
40
1
40
1
40
1
40
1
41
1
10
49.6867759061451
20
-0.0968439811862538
30
0
41
1
10
49.6258148530851
20
-0.0966384468428316
30
0
41
1
10
49.5658348775168
20
-0.102258681333552
30
0
41
1
10
49.4477173303476
20
-0.124437767504077
30
0
41
1
10
49.3890831526558
20
-0.141204958113804
30
0
41
1
10
49.2761632344511
20
-0.185263278591805
30
0
41
1
10
49.2224168605609
20
-0.212223503001837
30
0
41
1
10
49.1202616656624
20
-0.275828516860486
30
0
41
1
10
49.0714031165507
20
-0.312956978171314
30
0
41
1
10
48.982789014452
20
-0.394693432694197
30
0
41
1
10
48.9427536936462
20
-0.439319433282151
30
0
41
1
10
48.8715139858961
20
-0.536305763283451
30
0
41
1
10
48.8402777174926
20
-0.589065813520875
30
0
41
1
10
48.7901497593474
20
-0.697761511492502
30
0
41
1
10
48.7707784108685
20
-0.754219285715322
30
0
41
1
10
48.7441227891676
20
-0.871581013574797
30
0
41
1
10
48.7372001966486
20
-0.931506497234722
30
0
41
1
10
48.7363918462026
20
-1.05012733857836
30
0
41
1
10
48.7425314470057
20
-1.11003699437143
30
0
41
1
10
48.767614272077
20
-1.22645666326272
30
0
41
1
10
48.7862772280958
20
-1.28247072324734
30
0
41
1
10
48.8354013211436
20
-1.39032391370884
30
0
41
1
10
48.8660084023618
20
-1.44205141231302
30
0
41
1
10
48.9361563655489
20
-1.5370701259354
30
0
41
1
10
48.9761496370348
20
-1.58117504920389
30
0
41
1
10
49.0647913931203
20
-1.66151018770589
30
0
41
1
10
49.1124668722439
20
-1.69693529612493
30
0
41
1
10
49.2141943497438
20
-1.75889997072329
30
0
41
1
10
49.2688373197786
20
-1.78561053147331
30
0
41
1
10
49.3810275672994
20
-1.82832183374765
30
0
41
1
10
49.4386900023491
20
-1.84453274111721
30
0
41
1
10
49.5571751860071
20
-1.86666192987829
30
0
41
1
10
49.6181937044152
20
-1.87250433332224
30
0
41
1
10
49.6791659546367
20
-1.87269979926503
30
0
0
SPLINE
5
16B
100
AcDbEntity
8
1
62
256
6
ByLayer
370
18
48
1
60
0
100
AcDbSpline
70
4
71
3
72
8
73
4
40
0
40
0
40
0
40
0
40
1
40
1
40
1
40
1
41
1
10
41
20
3.41383595603781
30
0
41
1
10
40.7628552718387
20
3.48101931680876
30
0
41
1
10
40.5257454396021
20
3.54718354696729
30
0
41
1
10
40.2886287899156
20
3.61224425975922
30
0
0
SPLINE
5
16C
100
AcDbEntity
8
1
62
256
6
ByLayer
370
18
48
1
60
0
100
AcDbSpline
70
4
71
3
72
8
73
4
40
0
40
0
40
0
40
0
40
1
40
1
40
1
40
1
41
1
10
48.3
20
2.84999999999999
30
0
41
1
10
48.3666601821013
20
2.84999999999999
30
0
41
1
10
48.4333269923085
20
2.84999999999999
30
0
41
1
10
48.5
20
2.84999999999999
30
0
0
SPLINE
5
16D
100
AcDbEntity
8
1
62
256
6
ByLayer
370
18
48
1
60
0
100
AcDbSpline
70
4
71
2
72
6
73
3
40
0
40
0
40
0
40
1
40
1
40
1
41
1
10
51.3682884171686
20
-1.86346453570911
30
0
41
1
10
51.4582700429212
20
-2.08485195975206
30
0
41
1
10
51.5526025224702
20
-2.29980007053987
30
0
0
SPLINE
5
16E
100
AcDbEntity
8
1
62
256
6
ByLayer
370
18
48
1
60
0
100
AcDbSpline
70
4
71
1
72
4
73
2
40
0
40
0
40
1
40
1
41
1
10
51.245198050421
20
-1.87771985397131
30
0
41
1
10
51.3682884140266
20
-1.86346447967298
30
0
0
SPLINE
5
16F
100
AcDbEntity
8
1
62
256
6
ByLayer
370
18
48
1
60
0
100
AcDbSpline
70
2053
71
3
72
39
73
35
40
0
40
0
40
0
40
0
40
0.0311089782668199
40
0.0622035161661304
40
0.0933057076455523
40
0.124604430668361
40
0.155798261801093
40
0.18721727897814
40
0.218573961454969
40
0.25000050750641
40
0.281499003770284
40
0.312831599040433
40
0.344276421923315
40
0.37553064812029
40
0.406746966724999
40
0.437934065394045
40
0.469010492084623
40
0.500130635098378
40
0.531169801199739
40
0.562223332484474
40
0.593444889297381
40
0.624577342841782
40
0.655933646582809
40
0.68724238846284
40
0.718637883063727
40
0.750122736629442
40
0.781474486300841
40
0.812974398500807
40
0.844288186677795
40
0.875601753441075
40
0.906863538227756
40
0.937906702725709
40
0.969065038039383
40
1
40
1
40
1
40
1
41
1
10
45.87
20
-3.06055037406716
30
0
41
1
10
45.9745949107058
20
-3.06055087606173
30
0
41
1
10
46.1837409311423
20
-3.07945487012182
30
0
41
1
10
46.4840723002728
20
-3.16218652818949
30
0
41
1
10
46.7597155892453
20
-3.29329108743397
30
0
41
1
10
47.0003978850075
20
-3.46423590873116
30
0
41
1
10
47.198282121236
20
-3.66565890635525
30
0
41
1
10
47.3457301637717
20
-3.8867078419554
30
0
41
1
10
47.4370470015984
20
-4.11701565226912
30
0
41
1
10
47.4680068097974
20
-4.34551635283506
30
0
41
1
10
47.4369810331817
20
-4.56207142572487
30
0
41
1
10
47.3454790473544
20
-4.7587103277489
30
0
41
1
10
47.1978264631584
20
-4.92931077282404
30
0
41
1
10
46.9997685432677
20
-5.07080808197301
30
0
41
1
10
46.7588156163122
20
-5.18147159563608
30
0
41
1
10
46.4831125324978
20
-5.26073208769148
30
0
41
1
10
46.1824523489469
20
-5.30836604026942
30
0
41
1
10
45.8689393883992
20
-5.32417455912886
30
0
41
1
10
45.5555663733046
20
-5.30814319839138
30
0
41
1
10
45.2552391449972
20
-5.26037283047492
30
0
41
1
10
44.9799157672145
20
-5.18099561608696
30
0
41
1
10
44.7390288992981
20
-5.07012420154908
30
0
41
1
10
44.5414493112214
20
-4.92864619061277
30
0
41
1
10
44.3940069583282
20
-4.75787725921171
30
0
41
1
10
44.3027827353352
20
-4.56133552203116
30
0
41
1
10
44.2720231716725
20
-4.34477229055912
30
0
41
1
10
44.3031673161035
20
-4.11612984440276
30
0
41
1
10
44.3946820728967
20
-3.88590443735353
30
0
41
1
10
44.5426079739117
20
-3.66456354937225
30
0
41
1
10
44.7406780428763
20
-3.46328901386329
30
0
41
1
10
44.981656747975
20
-3.292516813341
30
0
41
1
10
45.2573336904321
20
-3.16166097952603
30
0
41
1
10
45.557224193413
20
-3.07931281733085
30
0
41
1
10
45.7659901686193
20
-3.06054987488064
30
0
41
1
10
45.87
20
-3.06055037406716
30
0
0
SPLINE
5
170
100
AcDbEntity
8
1
62
256
6
ByLayer
370
18
48
1
60
0
100
AcDbSpline
70
4
71
3
72
30
73
26
40
0
40
0
40
0
40
0
40
0.124999999999989
40
0.124999999999989
40
0.249999999999979
40
0.249999999999979
40
0.312499999999977
40
0.312499999999977
40
0.374999999999976
40
0.374999999999976
40
0.437499999999974
40
0.437499999999974
40
0.499999999999973
40
0.499999999999973
40
0.624999999999975
40
0.624999999999975
40
0.687499999999979
40
0.687499999999979
40
0.749999999999983
40
0.749999999999983
40
0.812499999999987
40
0.812499999999987
40
0.874999999999991
40
0.874999999999991
40
1
40
1
40
1
40
1
41
1
10
37.274234313201
20
-2.76620424834965
30
0
41
1
10
37.4977887783043
20
-2.81621045663806
30
0
41
1
10
37.7247316046348
20
-2.8427260241871
30
0
41
1
10
38.185435412307
20
-2.84964758468024
30
0
41
1
10
38.4122094029301
20
-2.82986589255077
30
0
41
1
10
38.7454458282115
20
-2.7664271357462
30
0
41
1
10
38.8554650880903
20
-2.73958905621907
30
0
41
1
10
39.0733255333513
20
-2.67389868479393
30
0
41
1
10
39.1792185828396
20
-2.63562361574284
30
0
41
1
10
39.3847461585288
20
-2.54847709295393
30
0
41
1
10
39.4844571911803
20
-2.49958186048605
30
0
41
1
10
39.6778091113511
20
-2.39077898927246
30
0
41
1
10
39.7717978769776
20
-2.33061670672131
30
0
41
1
10
40.0420077927432
20
-2.13400600211057
30
0
41
1
10
40.2031828487274
20
-1.98440818033299
30
0
41
1
10
40.4169845331769
20
-1.73028149890851
30
0
41
1
10
40.483882992639
20
-1.63995251057375
30
0
41
1
10
40.6049794224197
20
-1.45305204365084
30
0
41
1
10
40.6595027597544
20
-1.35622895031568
30
0
41
1
10
40.7568228030227
20
-1.15579416915003
30
0
41
1
10
40.799618864068
20
-1.05218274637113
30
0
41
1
10
40.8733919795892
20
-0.837914391045189
30
0
41
1
10
40.9041717721441
20
-0.727469565609823
30
0
41
1
10
40.9767093303483
20
-0.394999405611571
30
0
41
1
10
41
20
-0.1688139616613
30
0
41
1
10
41
20
0.0617371302561196
30
0
0
SPLINE
5
171
100
AcDbEntity
8
1
62
256
6
ByLayer
370
18
48
1
60
0
100
AcDbSpline
70
4
71
3
72
8
73
4
40
0
40
0
40
0
40
0
40
1
40
1
40
1
40
1
41
1
10
13
20
-4.57924552493151
30
0
41
1
10
12.9245835643453
20
-4.56173912681646
30
0
41
1
10
12.8490195258623
20
-4.5463294142105
30
0
41
1
10
12.7733327610966
20
-4.53303042293163
30
0
0
SPLINE
5
172
100
AcDbEntity
8
1
62
256
6
ByLayer
370
18
48
1
60
0
100
AcDbSpline
70
4
71
3
72
12
73
8
40
0
40
0
40
0
40
0
40
0.281604686090796
40
0.281604686090796
40
0.563209372181593
40
0.563209372181593
40
1
40
1
40
1
40
1
41
1
10
49.2794228633838
20
-6.22112552293919
30
0
41
1
10
49.6722659478625
20
-6.23883564312968
30
0
41
1
10
50.0653481135905
20
-6.24838594509669
30
0
41
1
10
50.8512654566148
20
-6.25123911682596
30
0
41
1
10
51.2439371419392
20
-6.24449503614687
30
0
41
1
10
52.2459347767504
20
-6.20647705543237
30
0
41
1
10
52.8555787851474
20
-6.16387652807873
30
0
41
1
10
53.4649612204889
20
-6.10197146551747
30
0
0
SPLINE
5
173
100
AcDbEntity
8
1
62
256
6
ByLayer
370
18
48
1
60
0
100
AcDbSpline
70
4
71
3
72
8
73
4
40
0
40
0
40
0
40
0
40
1
40
1
40
1
40
1
41
1
10
53.9257287589017
20
-6.05148049304924
30
0
41
1
10
53.9484841431013
20
-6.04880508918171
30
0
41
1
10
53.9712389224036
20
-6.0461028150757
30
0
41
1
10
53.9939930612527
20
-6.04337368014976
30
0
0
SPLINE
5
174
100
AcDbEntity
8
1
62
256
6
ByLayer
370
18
48
1
60
0
100
AcDbSpline
70
4
71
1
72
4
73
2
40
0
40
0
40
1
40
1
41
1
10
40.5330749079352
20
4.48595282713217
30
0
41
1
10
40.6868200015188
20
5.00053719369114
30
0
0
SPLINE
5
175
100
AcDbEntity
8
1
62
256
6
ByLayer
370
18
48
1
60
0
100
AcDbSpline
70
4
71
3
72
8
73
4
40
0
40
0
40
0
40
0
40
1
40
1
40
1
40
1
41
1
10
50.8022167607539
20
0.411144086591491
30
0
41
1
10
50.7614150567426
20
0.332224425449993
30
0
41
1
10
50.7199872639307
20
0.254829845770672
30
0
41
1
10
50.6779045814341
20
0.179030503249123
30
0
0
SPLINE
5
176
100
AcDbEntity
8
1
62
256
6
ByLayer
370
18
48
1
60
0
100
AcDbSpline
70
4
71
3
72
8
73
4
40
0
40
0
40
0
40
0
40
1
40
1
40
1
40
1
41
1
10
15.7529999999463
20
-4.99227189234148
30
0
41
1
10
15.7529999999422
20
-5.08344194767261
30
0
41
1
10
15.752999999938
20
-5.17467006996398
30
0
41
1
10
15.7529999999338
20
-5.26595623316476
30
0
0
SPLINE
5
177
100
AcDbEntity
8
1
62
256
6
ByLayer
370
18
48
1
60
0
100
AcDbSpline
70
4
71
3
72
8
73
4
40
0
40
0
40
0
40
0
40
1
40
1
40
1
40
1
41
1
10
49.4803261809159
20
-6.25000136930291
30
0
41
1
10
49.4133683617605
20
-6.25000011416074
30
0
41
1
10
49.3464004449061
20
-6.24976254629192
30
0
41
1
10
49.279422863406
20
-6.24928838189058
30
0
0
SPLINE
5
178
100
AcDbEntity
8
1
62
256
6
ByLayer
370
18
48
1
60
0
100
AcDbSpline
70
4
71
3
72
16
73
12
40
0
40
0
40
0
40
0
40
0.25
40
0.25
40
0.5
40
0.5
40
0.625
40
0.625
40
0.75
40
0.75
40
1
40
1
40
1
40
1
41
1
10
55.1361442347978
20
-1.56442767759171
30
0
41
1
10
55.1944048797701
20
-1.51624048647113
30
0
41
1
10
55.2535329990769
20
-1.45963607321644
30
0
41
1
10
55.3740160223998
20
-1.32482045005875
30
0
41
1
10
55.4358319643293
20
-1.24570919555526
30
0
41
1
10
55.5256602844187
20
-1.11247443382786
30
0
41
1
10
55.5552935934954
20
-1.06545848637893
30
0
41
1
10
55.6138710887228
20
-0.965627136099926
30
0
41
1
10
55.6431054296332
20
-0.912227179869603
30
0
41
1
10
55.7272824681432
20
-0.746747539297047
30
0
41
1
10
55.7782947721822
20
-0.630648453719544
30
0
41
1
10
55.8243360273774
20
-0.508922483268634
30
0
0
SPLINE
5
179
100
AcDbEntity
8
1
62
256
6
ByLayer
370
18
48
1
60
0
100
AcDbSpline
70
4
71
3
72
8
73
4
40
0
40
0
40
0
40
0
40
1
40
1
40
1
40
1
41
1
10
51.8210550911627
20
0.662165916755612
30
0
41
1
10
51.8171626580968
20
0.665233957682091
30
0
41
1
10
51.8132707519291
20
0.668305347345751
30
0
41
1
10
51.8093793771559
20
0.67138008294998
30
0
0
SPLINE
5
17A
100
AcDbEntity
8
1
62
256
6
ByLayer
370
18
48
1
60
0
100
AcDbSpline
70
4
71
1
72
4
73
2
40
0
40
0
40
1
40
1
41
1
10
51.5526024953545
20
-2.29980007465156
30
0
41
1
10
51.5550957362658
20
-2.3470430925166
30
0
0
SPLINE
5
17B
100
AcDbEntity
8
1
62
256
6
ByLayer
370
18
48
1
60
0
100
AcDbSpline
70
4
71
3
72
8
73
4
40
0
40
0
40
0
40
0
40
1
40
1
40
1
40
1
41
1
10
49.2794228633886
20
-6.22112552292941
30
0
41
1
10
49.1929515535588
20
-6.16753349384555
30
0
41
1
10
49.1063497277854
20
-6.11355733384053
30
0
41
1
10
49.0196057507659
20
-6.05921369583908
30
0
0
SPLINE
5
17C
100
AcDbEntity
8
1
62
256
6
ByLayer
370
18
48
1
60
0
100
AcDbSpline
70
4
71
1
72
4
73
2
40
0
40
0
40
1
40
1
41
1
10
52.1448674451114
20
-4.552880108859
30
0
41
1
10
52.0254519771543
20
-4.61020324413263
30
0
0
SPLINE
5
17D
100
AcDbEntity
8
1
62
256
6
ByLayer
370
18
48
1
60
0
100
AcDbSpline
70
4
71
3
72
8
73
4
40
0
40
0
40
0
40
0
40
1
40
1
40
1
40
1
41
1
10
36.9556183218257
20
-2.69478869890452
30
0
41
1
10
37.0618283815127
20
-2.71864323102415
30
0
41
1
10
37.1680339194912
20
-2.74244861007281
30
0
41
1
10
37.274234313201
20
-2.76620424834965
30
0
0
SPLINE
5
17E
100
AcDbEntity
8
1
62
256
6
ByLayer
370
18
48
1
60
0
100
AcDbSpline
70
4
71
3
72
8
73
4
40
0
40
0
40
0
40
0
40
1
40
1
40
1
40
1
41
1
10
10.6979690105879
20
3.48537672093684
30
0
41
1
10
10.7257026894434
20
3.4792698880108
30
0
41
1
10
10.7534375733694
20
3.47313633589567
30
0
41
1
10
10.7811736133218
20
3.46697625157574
30
0
0
SPLINE
5
17F
100
AcDbEntity
8
1
62
256
6
ByLayer
370
18
48
1
60
0
100
AcDbSpline
70
4
71
3
72
18
73
14
40
0
40
0
40
0
40
0
40
0.124999999999997
40
0.124999999999997
40
0.249999999999994
40
0.249999999999994
40
0.499999999999988
40
0.499999999999988
40
0.624999999999991
40
0.624999999999991
40
0.749999999999994
40
0.749999999999994
40
1
40
1
40
1
40
1
41
1
10
53.0675157689605
20
0.723235317494783
30
0
41
1
10
53.0943975655003
20
0.774597925006844
30
0
41
1
10
53.124760332246
20
0.82720622723437
30
0
41
1
10
53.1922864671592
20
0.935032798782771
30
0
41
1
10
53.2296387196561
20
0.99048626064905
30
0
41
1
10
53.3495020210565
20
1.1574273128482
30
0
41
1
10
53.440160893863
20
1.27040913562919
30
0
41
1
10
53.5921146332359
20
1.44145017706379
30
0
41
1
10
53.6457881577069
20
1.49903947693346
30
0
41
1
10
53.7567425783999
20
1.61229254002202
30
0
41
1
10
53.8140622315807
20
1.66803812951164
30
0
41
1
10
53.9917060288481
20
1.83216107529702
30
0
41
1
10
54.11747717693
20
1.93766234566604
30
0
41
1
10
54.2526418506927
20
2.0364821835829
30
0
0
SPLINE
5
180
100
AcDbEntity
8
1
62
256
6
ByLayer
370
18
48
1
60
0
100
AcDbSpline
70
4
71
3
72
10
73
6
40
0
40
0
40
0
40
0
40
0.643432883267707
40
0.643432883267707
40
1
40
1
40
1
40
1
41
1
10
41.7319503142886
20
4.76098888464287
30
0
41
1
10
41.7031663733307
20
4.40940562692631
30
0
41
1
10
41.6573096006469
20
4.07320859227136
30
0
41
1
10
41.5621996118933
20
3.59435908527769
30
0
41
1
10
41.5235792534586
20
3.43226167357733
30
0
41
1
10
41.4807437166714
20
3.28060907552629
30
0
0
SPLINE
5
181
100
AcDbEntity
8
1
62
256
6
ByLayer
370
18
48
1
60
0
100
AcDbSpline
70
4
71
3
72
10
73
6
40
0
40
0
40
0
40
0
40
0.509793739245988
40
0.509793739245988
40
1
40
1
40
1
40
1
41
1
10
53.9939930612527
20
-6.04337368014976
30
0
41
1
10
54.0028113421443
20
-6.01768959331932
30
0
41
1
10
54.011624702096
20
-5.99200899975199
30
0
41
1
10
54.0289029374798
20
-5.94164197313242
30
0
41
1
10
54.0373682234153
20
-5.91695516087066
30
0
41
1
10
54.0458288051643
20
-5.89227203918205
30
0
0
SPLINE
5
182
100
AcDbEntity
8
SK1
62
256
6
ByLayer
370
18
48
1
60
0
100
AcDbSpline
70
4
71
3
72
68
73
64
40
0
40
0
40
0
40
0
40
0.031249999999999
40
0.031249999999999
40
0.0624999999999979
40
0.0624999999999979
40
0.0937499999999969
40
0.0937499999999969
40
0.124999999999996
40
0.124999999999996
40
0.156249999999995
40
0.156249999999995
40
0.187499999999994
40
0.187499999999994
40
0.203124999999994
40
0.203124999999994
40
0.218749999999993
40
0.218749999999993
40
0.249999999999994
40
0.249999999999994
40
0.281249999999994
40
0.281249999999994
40
0.312499999999995
40
0.312499999999995
40
0.374999999999996
40
0.374999999999996
40
0.406249999999996
40
0.406249999999996
40
0.437499999999997
40
0.437499999999997
40
0.499999999999998
40
0.499999999999998
40
0.531249999999998
40
0.531249999999998
40
0.562499999999999
40
0.562499999999999
40
0.625
40
0.625
40
0.687500000000001
40
0.687500000000001
40
0.718750000000002
40
0.718750000000002
40
0.750000000000002
40
0.750000000000002
40
0.781250000000002
40
0.781250000000002
40
0.796875000000002
40
0.796875000000002
40
0.812500000000002
40
0.812500000000002
40
0.875000000000001
40
0.875000000000001
40
0.890625000000002
40
0.890625000000002
40
0.906250000000002
40
0.906250000000002
40
0.937500000000001
40
0.937500000000001
40
0.953125
40
0.953125
40
0.96875
40
0.96875
40
1
40
1
40
1
40
1
41
1
10
-6.5
20
-5.22687526156881
30
0
41
1
10
-6.34394845902597
20
-5.22687526156881
30
0
41
1
10
-6.19042122799681
20
-5.21639296166188
30
0
41
1
10
-5.88813127356264
20
-5.17538167389498
30
0
41
1
10
-5.73937086802019
20
-5.14484388887027
30
0
41
1
10
-5.44668791013001
20
-5.06264474621489
30
0
41
1
10
-5.30640369525707
20
-5.01193969825908
30
0
41
1
10
-5.03894522260001
20
-4.89264595737453
30
0
41
1
10
-4.9114150500626
20
-4.82393877072775
30
0
41
1
10
-4.66819142451462
20
-4.66792077701672
30
0
41
1
10
-4.55453796065879
20
-4.58183100628238
30
0
41
1
10
-4.34341957458059
20
-4.39591890548189
30
0
41
1
10
-4.24555238453496
20
-4.29582260896419
30
0
41
1
10
-4.10907609706425
20
-4.13515213531713
30
0
41
1
10
-4.06534402103676
20
-4.07984985855634
30
0
41
1
10
-3.98215786603771
20
-3.9672120524713
30
0
41
1
10
-3.94255192832321
20
-3.90970415853502
30
0
41
1
10
-3.82916464826297
20
-3.73374973224327
30
0
41
1
10
-3.76079493452551
20
-3.61187897183513
30
0
41
1
10
-3.63624704359682
20
-3.35953204614827
30
0
41
1
10
-3.58007582712935
20
-3.22905393387657
30
0
41
1
10
-3.4782218447136
20
-2.95982853214917
30
0
41
1
10
-3.43270898082483
20
-2.82135737017342
30
0
41
1
10
-3.31172877897703
20
-2.40192639130166
30
0
41
1
10
-3.25058974448933
20
-2.11444591958698
30
0
41
1
10
-3.17964256237119
20
-1.67264361464774
30
0
41
1
10
-3.15951387424582
20
-1.52360098026489
30
0
41
1
10
-3.12548630669414
20
-1.22203846790575
30
0
41
1
10
-3.111569150642
20
-1.06905861372326
30
0
41
1
10
-3.07879446769871
20
-0.610864071414824
30
0
41
1
10
-3.06851117613567
20
-0.30500095518957
30
0
41
1
10
-3.06855405803267
20
0.154369885010055
30
0
41
1
10
-3.07118881096969
20
0.307590124534158
30
0
41
1
10
-3.08188606588456
20
0.61422697188965
30
0
41
1
10
-3.08996887021809
20
0.767936726458487
30
0
41
1
10
-3.12302468043902
20
1.22746192774332
30
0
41
1
10
-3.15628163406512
20
1.52726901543855
30
0
41
1
10
-3.25044943178841
20
2.11347343178804
30
0
41
1
10
-3.31128420063564
20
2.39987709805374
30
0
41
1
10
-3.43173287409903
20
2.81822348190337
30
0
41
1
10
-3.47692542817427
20
2.95611071389945
30
0
41
1
10
-3.5789463395341
20
3.2263526489771
30
0
41
1
10
-3.63520900785142
20
3.35725729466213
30
0
41
1
10
-3.7599345985283
20
3.6103048347239
30
0
41
1
10
-3.82839078776152
20
3.73244962227668
30
0
41
1
10
-3.94187917539884
20
3.90870910519672
30
0
41
1
10
-3.98151393492188
20
3.9663010269658
30
0
41
1
10
-4.06474193989283
20
4.07907314613499
30
0
41
1
10
-4.10849213670588
20
4.13443194322988
30
0
41
1
10
-4.33594792759203
20
4.40237304536254
30
0
41
1
10
-4.54466702410224
20
4.58831633060635
30
0
41
1
10
-4.84790367859867
20
4.78328857284635
30
0
41
1
10
-4.91085818148966
20
4.82044609497191
30
0
41
1
10
-5.03890746797549
20
4.88957371735646
30
0
41
1
10
-5.10426107134134
20
4.92172722181593
30
0
41
1
10
-5.30435113991214
20
5.01112499993621
30
0
41
1
10
-5.44309556549268
20
5.06134953831224
30
0
41
1
10
-5.65972848213716
20
5.12261167611467
30
0
41
1
10
-5.73336359710802
20
5.14067671547696
30
0
41
1
10
-5.88363874833243
20
5.17194619308157
30
0
41
1
10
-5.95993020834322
20
5.18505308835799
30
0
41
1
10
-6.18918677634795
20
5.21636047859616
30
0
41
1
10
-6.34372076022839
20
5.22687526156881
30
0
41
1
10
-6.5
20
5.22687526156881
30
0
0
SPLINE
5
183
100
AcDbEntity
8
SK1
62
256
6
ByLayer
370
18
48
1
60
0
100
AcDbSpline
70
4
71
3
72
68
73
64
40
0
40
0
40
0
40
0
40
0.0312500000000001
40
0.0312500000000001
40
0.0625000000000002
40
0.0625000000000002
40
0.0937500000000003
40
0.0937500000000003
40
0.125
40
0.125
40
0.156250000000001
40
0.156250000000001
40
0.187500000000001
40
0.187500000000001
40
0.203125000000001
40
0.203125000000001
40
0.218750000000001
40
0.218750000000001
40
0.250000000000001
40
0.250000000000001
40
0.28125
40
0.28125
40
0.3125
40
0.3125
40
0.375
40
0.375
40
0.40625
40
0.40625
40
0.4375
40
0.4375
40
0.5
40
0.5
40
0.53125
40
0.53125
40
0.5625
40
0.5625
40
0.625
40
0.625
40
0.6875
40
0.6875
40
0.71875
40
0.71875
40
0.75
40
0.75
40
0.78125
40
0.78125
40
0.796875
40
0.796875
40
0.8125
40
0.8125
40
0.874999999999999
40
0.874999999999999
40
0.890625
40
0.890625
40
0.90625
40
0.90625
40
0.9375
40
0.9375
40
0.953125
40
0.953125
40
0.96875
40
0.96875
40
1
40
1
40
1
40
1
41
1
10
-41.5
20
5.22687526156881
30
0
41
1
10
-41.656051540974
20
5.22687526156881
30
0
41
1
10
-41.8095787720032
20
5.21639296166188
30
0
41
1
10
-42.1118687264374
20
5.17538167389498
30
0
41
1
10
-42.2606291319798
20
5.14484388887027
30
0
41
1
10
-42.55331208987
20
5.06264474621489
30
0
41
1
10
-42.6935963047429
20
5.01193969825908
30
0
41
1
10
-42.9610547774
20
4.8926459573745
30
0
41
1
10
-43.0885849499374
20
4.82393877072772
30
0
41
1
10
-43.3318085754853
20
4.66792077701672
30
0
41
1
10
-43.4454620393412
20
4.58183100628238
30
0
41
1
10
-43.6565804254194
20
4.39591890548189
30
0
41
1
10
-43.754447615465
20
4.29582260896419
30
0
41
1
10
-43.8909239029357
20
4.13515213531713
30
0
41
1
10
-43.9346559789632
20
4.07984985855634
30
0
41
1
10
-44.0178421339623
20
3.9672120524713
30
0
41
1
10
-44.0574480716768
20
3.90970415853502
30
0
41
1
10
-44.170835351737
20
3.73374973224327
30
0
41
1
10
-44.2392050654745
20
3.61187897183513
30
0
41
1
10
-44.3637529564031
20
3.35953204614827
30
0
41
1
10
-44.4199241728707
20
3.22905393387657
30
0
41
1
10
-44.5217781552864
20
2.95982853214917
30
0
41
1
10
-44.5672910191751
20
2.82135737017342
30
0
41
1
10
-44.688271221023
20
2.40192639130166
30
0
41
1
10
-44.7494102555106
20
2.11444591958698
30
0
41
1
10
-44.8203574376288
20
1.67264361464774
30
0
41
1
10
-44.8404861257542
20
1.52360098026489
30
0
41
1
10
-44.8745136933059
20
1.22203846790575
30
0
41
1
10
-44.888430849358
20
1.06905861372326
30
0
41
1
10
-44.9212055323013
20
0.610864071414824
30
0
41
1
10
-44.9314888238643
20
0.30500095518957
30
0
41
1
10
-44.9314459419673
20
-0.154369885010055
30
0
41
1
10
-44.9288111890303
20
-0.307590124534158
30
0
41
1
10
-44.9181139341154
20
-0.614226971889622
30
0
41
1
10
-44.9100311297819
20
-0.767936726458487
30
0
41
1
10
-44.876975319561
20
-1.22746192774332
30
0
41
1
10
-44.8437183659349
20
-1.52726901543855
30
0
41
1
10
-44.7495505682116
20
-2.11347343178804
30
0
41
1
10
-44.6887157993644
20
-2.39987709805374
30
0
41
1
10
-44.568267125901
20
-2.81822348190337
30
0
41
1
10
-44.5230745718257
20
-2.95611071389945
30
0
41
1
10
-44.4210536604659
20
-3.2263526489771
30
0
41
1
10
-44.3647909921486
20
-3.35725729466213
30
0
41
1
10
-44.2400654014717
20
-3.6103048347239
30
0
41
1
10
-44.1716092122385
20
-3.73244962227668
30
0
41
1
10
-44.0581208246012
20
-3.90870910519672
30
0
41
1
10
-44.0184860650781
20
-3.96630102696577
30
0
41
1
10
-43.9352580601072
20
-4.07907314613499
30
0
41
1
10
-43.8915078632941
20
-4.13443194322986
30
0
41
1
10
-43.664052072408
20
-4.40237304536254
30
0
41
1
10
-43.4553329758977
20
-4.58831633060635
30
0
41
1
10
-43.1520963214013
20
-4.78328857284635
30
0
41
1
10
-43.0891418185103
20
-4.82044609497191
30
0
41
1
10
-42.9610925320245
20
-4.88957371735646
30
0
41
1
10
-42.8957389286587
20
-4.92172722181593
30
0
41
1
10
-42.6956488600879
20
-5.01112499993621
30
0
41
1
10
-42.5569044345073
20
-5.06134953831224
30
0
41
1
10
-42.3402715178628
20
-5.12261167611467
30
0
41
1
10
-42.2666364028919
20
-5.14067671547696
30
0
41
1
10
-42.1163612516675
20
-5.17194619308157
30
0
41
1
10
-42.0400697916568
20
-5.18505308835799
30
0
41
1
10
-41.810813223652
20
-5.21636047859616
30
0
41
1
10
-41.6562792397716
20
-5.22687526156881
30
0
41
1
10
-41.5
20
-5.22687526156881
30
0
0
LINE
5
70
100
AcDbEntity
8
81
62
256
6
ByLayer
370
18
48
1
60
0
100
AcDbLine
10
48.5
20
0
30
0
11
53.5
21
0
31
0
39
0
210
0
220
0
230
1
0
LINE
5
71
100
AcDbEntity
8
1
62
256
6
ByLayer
370
18
48
1
60
0
100
AcDbLine
10
0.2
20
10
30
0
11
0
21
9.8
31
0
39
0
210
0
220
0
230
1
0
LINE
5
73
100
AcDbEntity
8
1
62
256
6
ByLayer
370
18
48
1
60
0
100
AcDbLine
10
0
20
-9.8
30
0
11
0.2
21
-10
31
0
39
0
210
0
220
0
230
1
0
LINE
5
74
100
AcDbEntity
8
1
62
256
6
ByLayer
370
18
48
1
60
0
100
AcDbLine
10
4.0001
20
10
30
0
11
0.2
21
10
31
0
39
0
210
0
220
0
230
1
0
LINE
5
75
100
AcDbEntity
8
1
62
256
6
ByLayer
370
18
48
1
60
0
100
AcDbLine
10
0.2
20
-10
30
0
11
4.0001
21
-10
31
0
39
0
210
0
220
0
230
1
0
LINE
5
76
100
AcDbEntity
8
SK1
62
256
6
ByLayer
370
18
48
1
60
0
100
AcDbLine
10
-47
20
7.99725
30
0
11
-48
21
6.99725
31
0
39
0
210
0
220
0
230
1
0
LINE
5
78
100
AcDbEntity
8
SK1
62
256
6
ByLayer
370
18
48
1
60
0
100
AcDbLine
10
-48
20
-6.99725
30
0
11
-47
21
-7.99725
31
0
39
0
210
0
220
0
230
1
0
LINE
5
79
100
AcDbEntity
8
SK1
62
256
6
ByLayer
370
18
48
1
60
0
100
AcDbLine
10
-46.6
20
7.99725
30
0
11
-47
21
7.99725
31
0
39
0
210
0
220
0
230
1
0
LINE
5
7A
100
AcDbEntity
8
SK1
62
256
6
ByLayer
370
18
48
1
60
0
100
AcDbLine
10
-47
20
-7.99725
30
0
11
-46.6
21
-7.99725
31
0
39
0
210
0
220
0
230
1
0
LINE
5
7B
100
AcDbEntity
8
SK1
62
256
6
ByLayer
370
18
48
1
60
0
100
AcDbLine
10
-1.6
20
-7.99725
30
0
11
-1.144243
21
-7.784727
31
0
39
0
210
0
220
0
230
1
0
LINE
5
7C
100
AcDbEntity
8
SK1
62
256
6
ByLayer
370
18
48
1
60
0
100
AcDbLine
10
-1.144243
20
7.784727
30
0
11
-1.6
21
7.99725
31
0
39
0
210
0
220
0
230
1
0
LINE
5
7D
100
AcDbEntity
8
SK1
62
256
6
ByLayer
370
18
48
1
60
0
100
AcDbLine
10
-45.4
20
7.99725
30
0
11
-45.783316
21
7.850276
31
0
39
0
210
0
220
0
230
1
0
LINE
5
7E
100
AcDbEntity
8
SK1
62
256
6
ByLayer
370
18
48
1
60
0
100
AcDbLine
10
-45.783316
20
-7.850276
30
0
11
-45.4
21
-7.99725
31
0
39
0
210
0
220
0
230
1
0
LINE
5
7F
100
AcDbEntity
8
SK1
62
256
6
ByLayer
370
18
48
1
60
0
100
AcDbLine
10
-46.6
20
-7.99725
30
0
11
-46.573182
21
-7.975533
31
0
39
0
210
0
220
0
230
1
0
LINE
5
80
100
AcDbEntity
8
SK1
62
256
6
ByLayer
370
18
48
1
60
0
100
AcDbLine
10
-46.573182
20
7.975533
30
0
11
-46.6
21
7.99725
31
0
39
0
210
0
220
0
230
1
0
LINE
5
81
100
AcDbEntity
8
SK1
62
256
6
ByLayer
370
18
48
1
60
0
100
AcDbLine
10
-1.6
20
7.99725
30
0
11
-45.4
21
7.99725
31
0
39
0
210
0
220
0
230
1
0
LINE
5
82
100
AcDbEntity
8
SK1
62
256
6
ByLayer
370
18
48
1
60
0
100
AcDbLine
10
-45.4
20
-7.99725
30
0
11
-1.6
21
-7.99725
31
0
39
0
210
0
220
0
230
1
0
LINE
5
83
100
AcDbEntity
8
SK1
62
256
6
ByLayer
370
18
48
1
60
0
100
AcDbLine
10
-0.975195
20
-7.74725
30
0
11
-0.15
21
-7.74725
31
0
39
0
210
0
220
0
230
1
0
LINE
5
84
100
AcDbEntity
8
SK1
62
256
6
ByLayer
370
18
48
1
60
0
100
AcDbLine
10
-0.15
20
7.74725
30
0
11
-0.975195
21
7.74725
31
0
39
0
210
0
220
0
230
1
0
LINE
5
85
100
AcDbEntity
8
1
62
256
6
ByLayer
370
18
48
1
60
0
100
AcDbLine
10
15.753
20
6.1
30
0
11
14.25
21
6.1
31
0
39
0
210
0
220
0
230
1
0
LINE
5
86
100
AcDbEntity
8
1
62
256
6
ByLayer
370
18
48
1
60
0
100
AcDbLine
10
10.781174
20
6.671816
30
0
11
10.697969
21
6.727287
31
0
39
0
210
0
220
0
230
1
0
LINE
5
87
100
AcDbEntity
8
1
62
256
6
ByLayer
370
18
48
1
60
0
100
AcDbLine
10
10.697969
20
-6.727287
30
0
11
10.781174
21
-6.671816
31
0
39
0
210
0
220
0
230
1
0
LINE
5
88
100
AcDbEntity
8
1
62
256
6
ByLayer
370
18
48
1
60
0
100
AcDbLine
10
14.25
20
6.1
30
0
11
13
21
6
31
0
39
0
210
0
220
0
230
1
0
LINE
5
89
100
AcDbEntity
8
1
62
256
6
ByLayer
370
18
48
1
60
0
100
AcDbLine
10
14.25
20
-6.1
30
0
11
15.753
21
-6.1
31
0
39
0
210
0
220
0
230
1
0
LINE
5
8A
100
AcDbEntity
8
1
62
256
6
ByLayer
370
18
48
1
60
0
100
AcDbLine
10
50.560942
20
6.25
30
0
11
49.479968
21
6.25
31
0
39
0
210
0
220
0
230
1
0
LINE
5
8B
100
AcDbEntity
8
1
62
256
6
ByLayer
370
18
48
1
60
0
100
AcDbLine
10
49.479968
20
-6.25
30
0
11
50.560942
21
-6.25
31
0
39
0
210
0
220
0
230
1
0
LINE
5
8C
100
AcDbEntity
8
1
62
256
6
ByLayer
370
18
48
1
60
0
100
AcDbLine
10
13
20
-6
30
0
11
14.25
21
-6.1
31
0
39
0
210
0
220
0
230
1
0
LINE
5
8D
100
AcDbEntity
8
80
62
256
6
ByLayer
370
18
48
1
60
0
100
AcDbLine
10
0
20
0
30
0
11
-5
21
0
31
0
39
0
210
0
220
0
230
1
0
LINE
5
8E
100
AcDbEntity
8
4
62
256
6
ByLayer
370
18
48
0.05
60
0
100
AcDbLine
10
48.5
20
0
30
0
11
0
21
0
31
0
39
0
210
0
220
0
230
1
0
LINE
5
90
100
AcDbEntity
8
SK4
62
256
6
ByLayer
370
18
48
0.05
60
0
100
AcDbLine
10
61
20
0
30
0
11
-53
21
0
31
0
39
0
210
0
220
0
230
1
0
LINE
5
92
100
AcDbEntity
8
1
62
256
6
ByLayer
370
18
48
1
60
0
100
AcDbLine
10
49.451672
20
-5.567338
30
0
11
52.103334
21
-5.567338
31
0
39
0
210
0
220
0
230
1
0
LINE
5
93
100
AcDbEntity
8
1
62
256
6
ByLayer
370
18
48
1
60
0
100
AcDbLine
10
0.2
20
0
30
0
11
0.2
21
-10
31
0
39
0
210
0
220
0
230
1
0
LINE
5
94
100
AcDbEntity
8
1
62
256
6
ByLayer
370
18
48
1
60
0
100
AcDbLine
10
0.2
20
10
30
0
11
0.2
21
0
31
0
39
0
210
0
220
0
230
1
0
LINE
5
95
100
AcDbEntity
8
1
62
256
6
ByLayer
370
13
48
1
60
0
100
AcDbLine
10
55.373024
20
0.607096
30
0
11
55.849122
21
0.572283
31
0
39
0
210
0
220
0
230
1
0
LINE
5
96
100
AcDbEntity
8
1
62
256
6
ByLayer
370
18
48
1
60
0
100
AcDbLine
10
51.368288
20
-1.863464
30
0
11
51.435795
21
-1.827592
31
0
39
0
210
0
220
0
230
1
0
LINE
5
97
100
AcDbEntity
8
1
62
256
6
ByLayer
370
18
48
1
60
0
100
AcDbLine
10
49.3
20
-5.612301
30
0
11
49.3
21
-5.554451
31
0
39
0
210
0
220
0
230
1
0
LINE
5
98
100
AcDbEntity
8
1
62
256
6
ByLayer
370
18
48
1
60
0
100
AcDbLine
10
49.3
20
0.965105
30
0
11
49.3
21
1.231367
31
0
39
0
210
0
220
0
230
1
0
LINE
5
99
100
AcDbEntity
8
1
62
256
6
ByLayer
370
18
48
1
60
0
100
AcDbLine
10
52.144858
20
-4.552888
30
0
11
52.665798
21
-5.073828
31
0
39
0
210
0
220
0
230
1
0
LINE
5
9A
100
AcDbEntity
8
1
62
256
6
ByLayer
370
13
48
1
60
0
100
AcDbLine
10
37.274234
20
-2.766204
30
0
11
37.274234
21
-2.859296
31
0
39
0
210
0
220
0
230
1
0
LINE
5
9B
100
AcDbEntity
8
1
62
256
6
ByLayer
370
18
48
1
60
0
100
AcDbLine
10
13
20
-6
30
0
11
13
21
-4.579246
31
0
39
0
210
0
220
0
230
1
0
LINE
5
9C
100
AcDbEntity
8
1
62
256
6
ByLayer
370
13
48
1
60
0
100
AcDbLine
10
10.781174
20
6.671816
30
0
11
10.781174
21
3.466976
31
0
39
0
210
0
220
0
230
1
0
LINE
5
9D
100
AcDbEntity
8
1
62
256
6
ByLayer
370
18
48
1
60
0
100
AcDbLine
10
55.898638
20
-0.29366
30
0
11
56
21
0
31
0
39
0
210
0
220
0
230
1
0
LINE
5
9E
100
AcDbEntity
8
1
62
256
6
ByLayer
370
18
48
1
60
0
100
AcDbLine
10
55.931583
20
-0.240724
30
0
11
55.849122
21
-0.572283
31
0
39
0
210
0
220
0
230
1
0
LINE
5
9F
100
AcDbEntity
8
1
62
256
6
ByLayer
370
18
48
1
60
0
100
AcDbLine
10
13
20
3.295188
30
0
11
13
21
6
31
0
39
0
210
0
220
0
230
1
0
LINE
5
A0
100
AcDbEntity
8
1
62
256
6
ByLayer
370
18
48
1
60
0
100
AcDbLine
10
52.665798
20
-5.073828
30
0
11
52.665798
21
-2.301407
31
0
39
0
210
0
220
0
230
1
0
LINE
5
A1
100
AcDbEntity
8
1
62
256
6
ByLayer
370
18
48
1
60
0
100
AcDbLine
10
49.279423
20
-6.221126
30
0
11
49.279423
21
-6.249288
31
0
39
0
210
0
220
0
230
1
0
LINE
5
A2
100
AcDbEntity
8
1
62
256
6
ByLayer
370
18
48
1
60
0
100
AcDbLine
10
48.405
20
-6.030193
30
0
11
48.405
21
-5.850456
31
0
39
0
210
0
220
0
230
1
0
LINE
5
A3
100
AcDbEntity
8
1
62
256
6
ByLayer
370
13
48
1
60
0
100
AcDbLine
10
55.324813
20
0.56722
30
0
11
55.956304
21
0.153009
31
0
39
0
210
0
220
0
230
1
0
LINE
5
A4
100
AcDbEntity
8
1
62
256
6
ByLayer
370
13
48
1
60
0
100
AcDbLine
10
55.136144
20
-1.564428
30
0
11
54.572577
21
-1.194771
31
0
39
0
210
0
220
0
230
1
0
LINE
5
A5
100
AcDbEntity
8
1
62
256
6
ByLayer
370
18
48
1
60
0
100
AcDbLine
10
55.989304
20
0.04452
30
0
11
56
21
0
31
0
39
0
210
0
220
0
230
1
0
LINE
5
A6
100
AcDbEntity
8
1
62
256
6
ByLayer
370
18
48
1
60
0
100
AcDbLine
10
48.5
20
-5.759342
30
0
11
48.5
21
-5.929771
31
0
39
0
210
0
220
0
230
1
0
LINE
5
A7
100
AcDbEntity
8
1
62
256
6
ByLayer
370
18
48
1
60
0
100
AcDbLine
10
54.529472
20
-2.066204
30
0
11
55.136144
21
-1.564428
31
0
39
0
210
0
220
0
230
1
0
LINE
5
A8
100
AcDbEntity
8
1
62
256
6
ByLayer
370
13
48
1
60
0
100
AcDbLine
10
10.697969
20
-6.727287
30
0
11
10.697969
21
-3.784304
31
0
39
0
210
0
220
0
230
1
0
LINE
5
A9
100
AcDbEntity
8
1
62
256
6
ByLayer
370
18
48
1
60
0
100
AcDbLine
10
55.931583
20
0.240724
30
0
11
55.849122
21
0.572283
31
0
39
0
210
0
220
0
230
1
0
LINE
5
AA
100
AcDbEntity
8
1
62
256
6
ByLayer
370
18
48
1
60
0
100
AcDbLine
10
55.393822
20
-2.062147
30
0
11
55.361068
21
-2.159079
31
0
39
0
210
0
220
0
230
1
0
LINE
5
AB
100
AcDbEntity
8
1
62
256
6
ByLayer
370
18
48
1
60
0
100
AcDbLine
10
52.662286
20
-5.080331
30
0
11
52.665798
21
-5.073828
31
0
39
0
210
0
220
0
230
1
0
LINE
5
AC
100
AcDbEntity
8
1
62
256
6
ByLayer
370
18
48
1
60
0
100
AcDbLine
10
0
20
9.8
30
0
11
0
21
-9.8
31
0
39
0
210
0
220
0
230
1
0
LINE
5
AD
100
AcDbEntity
8
1
62
256
6
ByLayer
370
18
48
1
60
0
100
AcDbLine
10
14.25
20
6.1
30
0
11
14.25
21
3.509834
31
0
39
0
210
0
220
0
230
1
0
LINE
5
AE
100
AcDbEntity
8
1
62
256
6
ByLayer
370
13
48
1
60
0
100
AcDbLine
10
4.0001
20
0
30
0
11
4.0001
21
-10
31
0
39
0
210
0
220
0
230
1
0
LINE
5
AF
100
AcDbEntity
8
1
62
256
6
ByLayer
370
13
48
1
60
0
100
AcDbLine
10
4.0001
20
10
30
0
11
4.0001
21
0
31
0
39
0
210
0
220
0
230
1
0
LINE
5
B0
100
AcDbEntity
8
1
62
256
6
ByLayer
370
13
48
1
60
0
100
AcDbLine
10
51.435795
20
-1.827592
30
0
11
49.860845
21
-1.755144
31
0
39
0
210
0
220
0
230
1
0
LINE
5
B1
100
AcDbEntity
8
1
62
256
6
ByLayer
370
18
48
1
60
0
100
AcDbLine
10
14.25
20
-4.965076
30
0
11
14.25
21
-6.1
31
0
39
0
210
0
220
0
230
1
0
LINE
5
B2
100
AcDbEntity
8
1
62
256
6
ByLayer
370
18
48
1
60
0
100
AcDbLine
10
52.109389
20
-5.564755
30
0
11
52.662286
21
-5.080331
31
0
39
0
210
0
220
0
230
1
0
LINE
5
B3
100
AcDbEntity
8
1
62
256
6
ByLayer
370
18
48
1
60
0
100
AcDbLine
10
52.103334
20
-5.567338
30
0
11
52.109389
21
-5.564755
31
0
39
0
210
0
220
0
230
1
0
LINE
5
B4
100
AcDbEntity
8
1
62
256
6
ByLayer
370
18
48
1
60
0
100
AcDbLine
10
52.665798
20
-2.301407
30
0
11
52.665647
21
-2.2998
31
0
39
0
210
0
220
0
230
1
0
LINE
5
B5
100
AcDbEntity
8
1
62
256
6
ByLayer
370
18
48
1
60
0
100
AcDbLine
10
56
20
0
30
0
11
55.989304
21
-0.04452
31
0
39
0
210
0
220
0
230
1
0
LINE
5
B6
100
AcDbEntity
8
1
62
256
6
ByLayer
370
18
48
1
60
0
100
AcDbLine
10
53.002771
20
-5.612293
30
0
11
54.231982
21
-2.306262
31
0
39
0
210
0
220
0
230
1
0
LINE
5
B7
100
AcDbEntity
8
1
62
256
6
ByLayer
370
18
48
1
60
0
100
AcDbLine
10
51.552602
20
-2.2998
30
0
11
52.665647
21
-2.2998
31
0
39
0
210
0
220
0
230
1
0
LINE
5
B8
100
AcDbEntity
8
1
62
256
6
ByLayer
370
13
48
1
60
0
100
AcDbLine
10
54.667168
20
2.075005
30
0
11
55.393822
21
2.062147
31
0
39
0
210
0
220
0
230
1
0
LINE
5
B9
100
AcDbEntity
8
1
62
256
6
ByLayer
370
13
48
1
60
0
100
AcDbLine
10
10.781174
20
-6.671816
30
0
11
10.781174
21
-3.909644
31
0
39
0
210
0
220
0
230
1
0
LINE
5
BA
100
AcDbEntity
8
1
62
256
6
ByLayer
370
13
48
1
60
0
100
AcDbLine
10
10.697969
20
6.727287
30
0
11
10.697969
21
3.485377
31
0
39
0
210
0
220
0
230
1
0
LINE
5
BB
100
AcDbEntity
8
1
62
256
6
ByLayer
370
18
48
1
60
0
100
AcDbLine
10
53.899603
20
-6.085136
30
0
11
55.824336
21
-0.508922
31
0
39
0
210
0
220
0
230
1
0
LINE
5
BC
100
AcDbEntity
8
1
62
256
6
ByLayer
370
13
48
1
60
0
100
AcDbLine
10
55.931583
20
0.240724
30
0
11
55.373024
21
0.607096
31
0
39
0
210
0
220
0
230
1
0
LINE
5
BD
100
AcDbEntity
8
1
62
256
6
ByLayer
370
18
48
1
60
0
100
AcDbLine
10
48.5
20
1.272782
30
0
11
48.5
21
1.688673
31
0
39
0
210
0
220
0
230
1
0
LINE
5
BE
100
AcDbEntity
8
1
62
256
6
ByLayer
370
18
48
1
60
0
100
AcDbLine
10
15.753
20
-6.1
30
0
11
15.753
21
-5.265956
31
0
39
0
210
0
220
0
230
1
0
LINE
5
BF
100
AcDbEntity
8
1
62
256
6
ByLayer
370
18
48
1
60
0
100
AcDbLine
10
15.753
20
6.1
30
0
11
15.753
21
5.723443
31
0
39
0
210
0
220
0
230
1
0
LINE
5
C0
100
AcDbEntity
8
1
62
256
6
ByLayer
370
18
48
1
60
0
100
AcDbLine
10
50.865827
20
-0.026283
30
0
11
50.75328
21
-0.08609
31
0
39
0
210
0
220
0
230
1
0
LINE
5
C1
100
AcDbEntity
8
1
62
256
6
ByLayer
370
13
48
1
60
0
100
AcDbLine
10
54.529472
20
-2.066204
30
0
11
54.572577
21
-1.194771
31
0
39
0
210
0
220
0
230
1
0
LINE
5
C2
100
AcDbEntity
8
1
62
256
6
ByLayer
370
13
48
1
60
0
100
AcDbLine
10
48.3
20
1.85
30
0
11
48.50718
21
1.85
31
0
39
0
210
0
220
0
230
1
0
LINE
5
C3
100
AcDbEntity
8
1
62
256
6
ByLayer
370
18
48
1
60
0
100
AcDbLine
10
41
20
-0.025084
30
0
11
41
21
3.442298
31
0
39
0
210
0
220
0
230
1
0
LINE
5
C4
100
AcDbEntity
8
1
62
256
6
ByLayer
370
18
48
1
60
0
100
AcDbLine
10
55.393822
20
2.062147
30
0
11
55.361068
21
2.159079
31
0
39
0
210
0
220
0
230
1
0
LINE
5
C5
100
AcDbEntity
8
1
62
256
6
ByLayer
370
18
48
1
60
0
100
AcDbLine
10
52.665647
20
-2.2998
30
0
11
51.821055
21
0.662166
31
0
39
0
210
0
220
0
230
1
0
LINE
5
C6
100
AcDbEntity
8
1
62
256
6
ByLayer
370
13
48
1
60
0
100
AcDbLine
10
49.679166
20
-1.8727
30
0
11
49.860845
21
-1.755144
31
0
39
0
210
0
220
0
230
1
0
LINE
5
C7
100
AcDbEntity
8
SK1
62
256
6
ByLayer
370
13
48
1
60
0
100
AcDbLine
10
-0.975195
20
7.74725
30
0
11
-0.975195
21
-7.74725
31
0
39
0
210
0
220
0
230
1
0
LINE
5
C8
100
AcDbEntity
8
SK1
62
256
6
ByLayer
370
18
48
1
60
0
100
AcDbLine
10
-45.4
20
0
30
0
11
-45.4
21
-7.99725
31
0
39
0
210
0
220
0
230
1
0
LINE
5
C9
100
AcDbEntity
8
SK1
62
256
6
ByLayer
370
18
48
1
60
0
100
AcDbLine
10
-45.4
20
7.99725
30
0
11
-45.4
21
0
31
0
39
0
210
0
220
0
230
1
0
LINE
5
CA
100
AcDbEntity
8
SK1
62
256
6
ByLayer
370
18
48
1
60
0
100
AcDbLine
10
-41.5
20
-5.226875
30
0
11
-6.5
21
-5.226875
31
0
39
0
210
0
220
0
230
1
0
LINE
5
CB
100
AcDbEntity
8
SK1
62
256
6
ByLayer
370
13
48
1
60
0
100
AcDbLine
10
-46.573182
20
-7.975533
30
0
11
-46.573182
21
0
31
0
39
0
210
0
220
0
230
1
0
LINE
5
CC
100
AcDbEntity
8
SK1
62
256
6
ByLayer
370
13
48
1
60
0
100
AcDbLine
10
-46.573182
20
0
30
0
11
-46.573182
21
7.975533
31
0
39
0
210
0
220
0
230
1
0
LINE
5
CD
100
AcDbEntity
8
SK1
62
256
6
ByLayer
370
18
48
1
60
0
100
AcDbLine
10
-48
20
0
30
0
11
-48
21
-6.99725
31
0
39
0
210
0
220
0
230
1
0
LINE
5
CE
100
AcDbEntity
8
SK1
62
256
6
ByLayer
370
18
48
1
60
0
100
AcDbLine
10
-48
20
6.99725
30
0
11
-48
21
0
31
0
39
0
210
0
220
0
230
1
0
LINE
5
CF
100
AcDbEntity
8
SK1
62
256
6
ByLayer
370
18
48
1
60
0
100
AcDbLine
10
-47
20
0
30
0
11
-47
21
-7.99725
31
0
39
0
210
0
220
0
230
1
0
LINE
5
D0
100
AcDbEntity
8
SK1
62
256
6
ByLayer
370
18
48
1
60
0
100
AcDbLine
10
-47
20
7.99725
30
0
11
-47
21
0
31
0
39
0
210
0
220
0
230
1
0
LINE
5
D1
100
AcDbEntity
8
SK1
62
256
6
ByLayer
370
13
48
1
60
0
100
AcDbLine
10
-41.5
20
5.226875
30
0
11
-41.5
21
-5.226875
31
0
39
0
210
0
220
0
230
1
0
LINE
5
D2
100
AcDbEntity
8
SK1
62
256
6
ByLayer
370
18
48
1
60
0
100
AcDbLine
10
-1.6
20
-7.99725
30
0
11
-1.6
21
0
31
0
39
0
210
0
220
0
230
1
0
LINE
5
D3
100
AcDbEntity
8
SK1
62
256
6
ByLayer
370
18
48
1
60
0
100
AcDbLine
10
-1.6
20
0
30
0
11
-1.6
21
7.99725
31
0
39
0
210
0
220
0
230
1
0
LINE
5
D4
100
AcDbEntity
8
SK1
62
256
6
ByLayer
370
18
48
1
60
0
100
AcDbLine
10
-46.6
20
-7.99725
30
0
11
-46.6
21
7.99725
31
0
39
0
210
0
220
0
230
1
0
LINE
5
D5
100
AcDbEntity
8
SK1
62
256
6
ByLayer
370
18
48
1
60
0
100
AcDbLine
10
-6.5
20
5.226875
30
0
11
-41.5
21
5.226875
31
0
39
0
210
0
220
0
230
1
0
LINE
5
D6
100
AcDbEntity
8
SK1
62
256
6
ByLayer
370
13
48
1
60
0
100
AcDbLine
10
-0.15
20
0
30
0
11
-0.15
21
-7.74725
31
0
39
0
210
0
220
0
230
1
0
LINE
5
D7
100
AcDbEntity
8
SK1
62
256
6
ByLayer
370
13
48
1
60
0
100
AcDbLine
10
-0.15
20
7.74725
30
0
11
-0.15
21
0
31
0
39
0
210
0
220
0
230
1
0
LINE
5
D8
100
AcDbEntity
8
SK1
62
256
6
ByLayer
370
13
48
1
60
0
100
AcDbLine
10
-1.144243
20
0
30
0
11
-1.144243
21
-7.784727
31
0
39
0
210
0
220
0
230
1
0
LINE
5
D9
100
AcDbEntity
8
SK1
62
256
6
ByLayer
370
13
48
1
60
0
100
AcDbLine
10
-1.144243
20
7.784727
30
0
11
-1.144243
21
0
31
0
39
0
210
0
220
0
230
1
0
LINE
5
DA
100
AcDbEntity
8
SK1
62
256
6
ByLayer
370
13
48
1
60
0
100
AcDbLine
10
-45.783316
20
-7.850276
30
0
11
-45.783316
21
0
31
0
39
0
210
0
220
0
230
1
0
LINE
5
DB
100
AcDbEntity
8
SK1
62
256
6
ByLayer
370
13
48
1
60
0
100
AcDbLine
10
-45.783316
20
0
30
0
11
-45.783316
21
7.850276
31
0
39
0
210
0
220
0
230
1
0
LINE
5
DC
100
AcDbEntity
8
SK1
62
256
6
ByLayer
370
13
48
1
60
0
100
AcDbLine
10
-6.5
20
-5.226875
30
0
11
-6.5
21
5.226875
31
0
39
0
210
0
220
0
230
1
0
MTEXT
5
184
100
AcDbEntity
8
SK6
62
256
6
ByLayer
370
13
48
1
60
0
100
AcDbMText
10
-13.773997
20
28.625134
30
0
210
0
220
0
230
1
1
\W0.6740;870-1250-11L16-3
40
3.5
41
0
44
1.084337
50
0
71
7
72
5
7
iso_b_vert
0
DIMENSION
5
192
100
AcDbEntity
8
2
62
256
6
ByLayer
370
13
48
1
60
0
100
AcDbDimension
2
DimnDraft3D1
10
13
20
-19.25
30
0
11
34.5
21
-19.25
31
0
70
32
71
5
72
1
41
1
210
0
220
0
230
1
3
Standard
100
AcDbAlignedDimension
13
56
23
-1.5875
33
0
14
13
24
-7.8375
34
0
50
0
100
AcDbRotatedDimension
1001
ACAD
1000
DSTYLE
1002
{
1070
   279
1070
     0
1070
   172
1070
     1
1070
   173
1070
     1
1070
   340
1005
185
1070
   271
1070
     1
1070
   272
1070
     2
1070
    77
1070
     1
1070
    73
1070
     0
1070
   171
1070
     3
1070
   274
1070
     4
1070
   177
1070
     7
1070
   176
1070
     7
1070
   178
1070
     7
1070
    48
1040
-0.005
1070
    41
1041
3.5
1070
   147
1041
1.5
1070
    42
1041
1.5875
1070
    44
1041
2.0
1070
   140
1041
3.0
1070
   343
1005
0
1070
   344
1005
0
1002
}
0
DIMENSION
5
19C
100
AcDbEntity
8
2
62
256
6
ByLayer
370
13
48
1
60
0
100
AcDbDimension
2
DimnDraft3D2
10
15.033
20
13.25
30
0
11
35.5165
21
13.25
31
0
70
32
71
5
72
1
41
1
210
0
220
0
230
1
3
Standard
100
AcDbAlignedDimension
13
56
23
1.5875
33
0
14
15.033
24
7.8375
34
0
50
0
100
AcDbRotatedDimension
1001
ACAD
1000
DSTYLE
1002
{
1070
   279
1070
     0
1070
   172
1070
     1
1070
   173
1070
     1
1070
   340
1005
185
1070
   271
1070
     1
1070
   272
1070
     2
1070
    77
1070
     1
1070
    73
1070
     0
1070
   171
1070
     3
1070
   274
1070
     4
1070
   177
1070
     7
1070
   176
1070
     7
1070
   178
1070
     7
1070
    48
1040
-0.005
1070
    41
1041
3.5
1070
   147
1041
1.5
1070
    42
1041
1.5875
1070
    44
1041
2.0
1070
   140
1041
3.0
1070
   343
1005
0
1070
   344
1005
0
1002
}
0
DIMENSION
5
1A7
100
AcDbEntity
8
SK2
62
256
6
ByLayer
370
13
48
1
60
0
100
AcDbDimension
2
DimnDraft3D3
10
0
20
-31
30
0
11
-24
21
-31
31
0
70
32
71
5
72
1
41
1
210
0
220
0
230
1
3
Standard
100
AcDbAlignedDimension
13
-48
23
-9.5875
33
0
14
0
24
-11.5875
34
0
50
0
100
AcDbRotatedDimension
1001
ACAD
1000
DSTYLE
1002
{
1070
   279
1070
     0
1070
   172
1070
     1
1070
   173
1070
     1
1070
   340
1005
185
1070
   271
1070
     1
1070
   272
1070
     2
1070
    77
1070
     1
1070
    73
1070
     0
1070
   171
1070
     3
1070
   274
1070
     4
1070
   177
1070
     7
1070
   176
1070
     7
1070
   178
1070
     7
1070
    48
1040
-0.005
1070
    41
1041
3.5
1070
   147
1041
1.5
1070
    42
1041
1.5875
1070
    44
1041
2.0
1070
   140
1041
3.0
1070
   343
1005
0
1070
   344
1005
0
1002
}
0
DIMENSION
5
1B1
100
AcDbEntity
8
2
62
256
6
ByLayer
370
13
48
1
60
0
100
AcDbDimension
2
DimnDraft3D4
10
56
20
-31
30
0
11
28
21
-31
31
0
70
32
71
5
72
1
41
1
210
0
220
0
230
1
3
Standard
100
AcDbAlignedDimension
13
0
23
-11.5875
33
0
14
56
24
-1.5875
34
0
50
0
100
AcDbRotatedDimension
1001
ACAD
1000
DSTYLE
1002
{
1070
   279
1070
     0
1070
   172
1070
     1
1070
   173
1070
     1
1070
   340
1005
185
1070
   271
1070
     1
1070
   272
1070
     2
1070
    77
1070
     1
1070
    73
1070
     0
1070
   171
1070
     3
1070
   274
1070
     4
1070
   177
1070
     7
1070
   176
1070
     7
1070
   178
1070
     7
1070
    48
1040
-0.005
1070
    41
1041
3.5
1070
   147
1041
1.5
1070
    42
1041
1.5875
1070
    44
1041
2.0
1070
   140
1041
3.0
1070
   343
1005
0
1070
   344
1005
0
1002
}
0
DIMENSION
5
1BC
100
AcDbEntity
8
SK2
62
256
6
ByLayer
370
13
48
1
60
0
100
AcDbDimension
2
DimnDraft3D5
10
-56.25
20
-8
30
0
11
-56.5
21
-0.145514
31
0
70
33
71
5
72
1
41
1
210
0
220
0
230
1
3
Standard
100
AcDbAlignedDimension
13
-49.5875
23
8
33
0
14
-49.5875
24
-8
34
0
1001
ACAD
1000
DSTYLE
1002
{
1070
   279
1070
     0
1070
    74
1070
     0
1070
   173
1070
     1
1070
   340
1005
185
1070
   271
1070
     1
1070
   272
1070
     2
1070
    77
1070
     1
1070
    73
1070
     0
1070
   171
1070
     3
1070
   274
1070
     4
1070
   177
1070
     7
1070
   176
1070
     7
1070
   178
1070
     7
1070
    48
1040
-0.005
1070
    41
1041
3.5
1070
   147
1041
1.5
1070
    42
1041
1.5875
1070
    44
1041
2.0
1070
   140
1041
3.0
1070
   343
1005
0
1070
   344
1005
0
1002
}
0
ENDSEC
0
SECTION
2
OBJECTS
0
DICTIONARY
5
227
330
0
100
AcDbDictionary
280
0
281
1
3
ACAD_GROUP
350
228
3
ACAD_MLINESTYLE
350
229
0
DICTIONARY
5
228
330
0
100
AcDbDictionary
280
0
281
1
0
DICTIONARY
5
229
330
0
100
AcDbDictionary
280
0
281
1
3
Standard
350
18
0
MLINESTYLE
5
18
330
229
100
AcDbMlineStyle
2
Standard
70
0
3

62
256
51
90
52
90
71
2
49
-0.5
62
256
6
ByLayer
49
0.5
62
256
6
ByLayer
0
RASTERVARIABLES
5
215
330

100
AcDbRasterVariables
90
0
70
1
71
1
72
1
0
ENDSEC
0
EOF
