0
SECTION
2
HEADER
9
$ACADVER
1
AC1015
9
$DWGCODEPAGE
3
ANSI_1252
9
$HANDSEED
5
246
9
$ANGBASE
50
0
9
$ANGDIR
70
0
9
$ATTMODE
70
1
9
$AUNITS
70
0
9
$AUPREC
70
0
9
$CECOLOR
62
256
9
$CELTSCALE
40
1
9
$CELTYPE
6
ByLayer
9
$CELWEIGHT
370
18
9
$CLAYER
8
0
9
$CMLJUST
70
0
9
$CMLSCALE
40
1
9
$CMLSTYLE
2
Standard
9
$DIMSTYLE
2
Standard
9
$TEXTSIZE
40
0.2
9
$TEXTSTYLE
7
Standard
9
$LUNITS
70
2
9
$LUPREC
70
4
9
$EXTNAMES
290
1
9
$INSUNITS
70
4
9
$LTSCALE
40
1
9
$LWDISPLAY
290
1
9
$PDMODE
70
0
9
$PDSIZE
40
0
9
$PLINEGEN
70
0
0
ENDSEC
0
SECTION
2
CLASSES
0
CLASS
1
RASTERVARIABLES
2
AcDbRasterVariables
3
ISM
90
0
280
0
281
0
0
ENDSEC
0
SECTION
2
TABLES
0
TABLE
2
VPORT
5
23c
100
AcDbSymbolTable
0
VPORT
5
1
100
AcDbSymbolTableRecord
100
AcDbViewportTableRecord
2
*Active
70
0
10
0
20
0
11
1
21
1
12
-1
22
1
13
0
23
0
14
0.5
24
0.5
15
10
25
10
16
0
26
0
36
1
17
0
27
0
37
0
0
ENDTAB
0
TABLE
2
LTYPE
5
23d
100
AcDbSymbolTable
0
LTYPE
5
14
100
AcDbSymbolTableRecord
100
AcDbLinetypeTableRecord
70
0
2
ByBlock
3

72
65
73
0
40
0
0
LTYPE
5
15
100
AcDbSymbolTableRecord
100
AcDbLinetypeTableRecord
70
0
2
ByLayer
3

72
65
73
0
40
0
0
LTYPE
5
16
100
AcDbSymbolTableRecord
100
AcDbLinetypeTableRecord
70
0
2
CONTINUOUS
3
Solid line
72
65
73
0
40
0
0
LTYPE
5
6A
100
AcDbSymbolTableRecord
100
AcDbLinetypeTableRecord
70
0
2
CENTER
3
____ _ ____ _ ____ _ ____
72
65
73
4
40
47.5
49
22
74
0
49
-8.5
74
0
49
8.5
74
0
49
-8.5
74
0
0
LTYPE
5
6B
100
AcDbSymbolTableRecord
100
AcDbLinetypeTableRecord
70
0
2
DASHED
3
__ __ __ __ __ __ __ __ __
72
65
73
2
40
25.72
49
12.86
74
0
49
-12.86
74
0
0
ENDTAB
0
TABLE
2
LAYER
5
23e
100
AcDbSymbolTable
0
LAYER
5
10
100
AcDbSymbolTableRecord
100
AcDbLayerTableRecord
2
0
70
0
62
7
6
CONTINUOUS
290
1
370
-3
390
0
0
LAYER
5
6D
100
AcDbSymbolTableRecord
100
AcDbLayerTableRecord
2
80
70
0
62
-6
6
CONTINUOUS
290
1
370
-3
390
0
0
LAYER
5
6F
100
AcDbSymbolTableRecord
100
AcDbLayerTableRecord
2
81
70
0
62
-3
6
CONTINUOUS
290
1
370
-3
390
0
0
LAYER
5
72
100
AcDbSymbolTableRecord
100
AcDbLayerTableRecord
2
1
70
0
62
4
6
CONTINUOUS
290
1
370
-3
390
0
0
LAYER
5
8F
100
AcDbSymbolTableRecord
100
AcDbLayerTableRecord
2
4
70
0
62
-2
6
CENTER
290
1
370
-3
390
0
0
LAYER
5
19C
100
AcDbSymbolTableRecord
100
AcDbLayerTableRecord
2
2
70
0
62
7
6
CONTINUOUS
290
1
370
-3
390
0
0
LAYER
5
228
100
AcDbSymbolTableRecord
100
AcDbLayerTableRecord
2
SK1
70
0
62
4
6
CONTINUOUS
290
1
370
-3
390
0
0
LAYER
5
229
100
AcDbSymbolTableRecord
100
AcDbLayerTableRecord
2
SK4
70
0
62
2
6
CENTER
290
1
370
-3
390
0
0
LAYER
5
22a
100
AcDbSymbolTableRecord
100
AcDbLayerTableRecord
2
SK6
70
0
62
5
6
CONTINUOUS
290
1
370
-3
390
0
0
LAYER
5
22b
100
AcDbSymbolTableRecord
100
AcDbLayerTableRecord
2
SK2
70
0
62
7
6
CONTINUOUS
290
1
370
-3
390
0
0
ENDTAB
0
TABLE
2
STYLE
5
23f
100
AcDbSymbolTable
0
STYLE
5
11
100
AcDbSymbolTableRecord
100
AcDbTextStyleTableRecord
2
Standard
3
txt
70
0
71
0
40
0
41
1
42
0
50
0
0
STYLE
5
197
100
AcDbSymbolTableRecord
100
AcDbTextStyleTableRecord
2
iso_b_vert
3
simplex.shx
70
0
71
0
40
0
41
1
42
0
50
0
0
STYLE
5
198
100
AcDbSymbolTableRecord
100
AcDbTextStyleTableRecord
2
DWGDirectTextStyle
3
simplex
70
0
71
0
40
0
41
1
42
0
50
0
0
ENDTAB
0
TABLE
2
DIMSTYLE
5
240
100
AcDbSymbolTable
100
AcDbDimStyleTable
0
DIMSTYLE
105
27
100
AcDbSymbolTableRecord
100
AcDbDimStyleTableRecord
2
Standard
70
0
3
<>
41
0.18
42
0.0625
44
0.18
140
0.18
147
0.09
73
0
74
0
77
1
271
2
275
0
278
52
280
0
340
11
0
ENDTAB
0
TABLE
2
VIEW
5
241
100
AcDbSymbolTable
0
ENDTAB
0
TABLE
2
UCS
5
242
100
AcDbSymbolTable
0
ENDTAB
0
TABLE
2
APPID
5
243
100
AcDbSymbolTable
0
APPID
5
12
100
AcDbSymbolTableRecord
100
AcDbRegAppTableRecord
2
ACAD
70
0
0
ENDTAB
0
TABLE
2
BLOCK_RECORD
5
244
100
AcDbSymbolTable
0
BLOCK_RECORD
5
1F
100
AcDbSymbolTableRecord
100
AcDbBlockTableRecord
2
*Model_Space
340
0
70
0
0
BLOCK_RECORD
5
1B
100
AcDbSymbolTableRecord
100
AcDbBlockTableRecord
2
*Paper_Space
340
0
70
0
0
BLOCK_RECORD
5
23
100
AcDbSymbolTableRecord
100
AcDbBlockTableRecord
2
*Paper_Space0
340
0
70
0
0
BLOCK_RECORD
5
19A
100
AcDbSymbolTableRecord
100
AcDbBlockTableRecord
2
DimnDraft3D1
340
0
70
0
0
BLOCK_RECORD
5
1A5
100
AcDbSymbolTableRecord
100
AcDbBlockTableRecord
2
DimnDraft3D2
340
0
70
0
0
BLOCK_RECORD
5
1AF
100
AcDbSymbolTableRecord
100
AcDbBlockTableRecord
2
DimnDraft3D3
340
0
70
0
0
BLOCK_RECORD
5
1BA
100
AcDbSymbolTableRecord
100
AcDbBlockTableRecord
2
DimnDraft3D4
340
0
70
0
0
BLOCK_RECORD
5
1C4
100
AcDbSymbolTableRecord
100
AcDbBlockTableRecord
2
DimnDraft3D5
340
0
70
0
0
ENDTAB
0
ENDSEC
0
SECTION
2
BLOCKS
0
BLOCK
5
20
100
AcDbEntity
8
0
100
AcDbBlockBegin
2
*Model_Space
70
0
10
0
20
0
30
0
3
*Model_Space
0
ENDBLK
5
21
100
AcDbEntity
8
0
100
AcDbBlockEnd
0
BLOCK
5
1C
100
AcDbEntity
8
0
100
AcDbBlockBegin
2
*Paper_Space
70
0
10
0
20
0
30
0
3
*Paper_Space
0
ENDBLK
5
1D
100
AcDbEntity
8
0
100
AcDbBlockEnd
0
BLOCK
5
24
100
AcDbEntity
8
0
100
AcDbBlockBegin
2
*Paper_Space0
70
0
10
0
20
0
30
0
3
*Paper_Space0
0
ENDBLK
5
25
100
AcDbEntity
8
0
100
AcDbBlockEnd
0
BLOCK
5
1A2
100
AcDbEntity
8
0
100
AcDbBlockBegin
2
DimnDraft3D1
70
0
10
0
20
0
30
0
3
DimnDraft3D1
0
MTEXT
5
19B
100
AcDbEntity
8
2
62
256
6
ByLayer
370
13
48
1
60
0
100
AcDbMText
10
39.229544
20
-17.499886
30
0
210
0
220
0
230
1
1
\W0.7346;58.0
40
3
41
0
44
1.084337
50
0
71
7
72
5
7
iso_b_vert
0
LINE
5
19D
100
AcDbEntity
8
2
62
256
6
ByLayer
370
13
48
1
60
0
100
AcDbLine
10
71
20
-1.5875
30
0
11
71
21
-20.25
31
0
39
0
210
0
220
0
230
1
0
LINE
5
19E
100
AcDbEntity
8
2
62
256
6
ByLayer
370
13
48
1
60
0
100
AcDbLine
10
13
20
-6.8375
30
0
11
13
21
-20.25
31
0
39
0
210
0
220
0
230
1
0
LINE
5
19F
100
AcDbEntity
8
2
62
256
6
ByLayer
370
13
48
1
60
0
100
AcDbLine
10
71
20
-18.25
30
0
11
13
21
-18.25
31
0
39
0
210
0
220
0
230
1
0
SOLID
5
1A0
100
AcDbEntity
8
2
62
256
6
ByLayer
370
13
48
1
60
0
100
AcDbTrace
10
71
20
-18.25
30
0
11
67.500002
21
-18.710784
31
0
12
67.499998
22
-17.789216
32
0
13
71
23
-18.25
33
0
39
0
210
0
220
0
230
1
0
SOLID
5
1A1
100
AcDbEntity
8
2
62
256
6
ByLayer
370
13
48
1
60
0
100
AcDbTrace
10
13
20
-18.25
30
0
11
16.499998
21
-17.789216
31
0
12
16.500002
22
-18.710784
32
0
13
13
23
-18.25
33
0
39
0
210
0
220
0
230
1
0
ENDBLK
5
1A3
100
AcDbEntity
8
0
100
AcDbBlockEnd
0
BLOCK
5
1AC
100
AcDbEntity
8
0
100
AcDbBlockBegin
2
DimnDraft3D2
70
0
10
0
20
0
30
0
3
DimnDraft3D2
0
MTEXT
5
1A6
100
AcDbEntity
8
2
62
256
6
ByLayer
370
13
48
1
60
0
100
AcDbMText
10
39.892544
20
13.000114
30
0
210
0
220
0
230
1
1
\W0.7346;56.7
40
3
41
0
44
1.084337
50
0
71
7
72
5
7
iso_b_vert
0
LINE
5
1A7
100
AcDbEntity
8
2
62
256
6
ByLayer
370
13
48
1
60
0
100
AcDbLine
10
71
20
1.5875
30
0
11
71
21
14.25
31
0
39
0
210
0
220
0
230
1
0
LINE
5
1A8
100
AcDbEntity
8
2
62
256
6
ByLayer
370
13
48
1
60
0
100
AcDbLine
10
14.326
20
6.8375
30
0
11
14.326
21
14.25
31
0
39
0
210
0
220
0
230
1
0
LINE
5
1A9
100
AcDbEntity
8
2
62
256
6
ByLayer
370
13
48
1
60
0
100
AcDbLine
10
71
20
12.25
30
0
11
14.326
21
12.25
31
0
39
0
210
0
220
0
230
1
0
SOLID
5
1AA
100
AcDbEntity
8
2
62
256
6
ByLayer
370
13
48
1
60
0
100
AcDbTrace
10
71
20
12.25
30
0
11
67.500002
21
11.789216
31
0
12
67.499998
22
12.710784
32
0
13
71
23
12.25
33
0
39
0
210
0
220
0
230
1
0
SOLID
5
1AB
100
AcDbEntity
8
2
62
256
6
ByLayer
370
13
48
1
60
0
100
AcDbTrace
10
14.326
20
12.25
30
0
11
17.825998
21
12.710784
31
0
12
17.826002
22
11.789216
32
0
13
14.326
23
12.25
33
0
39
0
210
0
220
0
230
1
0
ENDBLK
5
1AD
100
AcDbEntity
8
0
100
AcDbBlockEnd
0
BLOCK
5
1B7
100
AcDbEntity
8
0
100
AcDbBlockBegin
2
DimnDraft3D3
70
0
10
0
20
0
30
0
3
DimnDraft3D3
0
MTEXT
5
1B0
100
AcDbEntity
8
SK2
62
256
6
ByLayer
370
13
48
1
60
0
100
AcDbMText
10
-26.928399
20
-30.249886
30
0
210
0
220
0
230
1
1
\W0.7640;48.0
40
3
41
0
44
1.084337
50
0
71
7
72
5
7
iso_b_vert
0
LINE
5
1B2
100
AcDbEntity
8
SK2
62
256
6
ByLayer
370
13
48
1
60
0
100
AcDbLine
10
-48
20
-9.5875
30
0
11
-48
21
-33
31
0
39
0
210
0
220
0
230
1
0
LINE
5
1B3
100
AcDbEntity
8
SK2
62
256
6
ByLayer
370
13
48
1
60
0
100
AcDbLine
10
0
20
-11.5875
30
0
11
0
21
-33
31
0
39
0
210
0
220
0
230
1
0
LINE
5
1B4
100
AcDbEntity
8
SK2
62
256
6
ByLayer
370
13
48
1
60
0
100
AcDbLine
10
-48
20
-31
30
0
11
0
21
-31
31
0
39
0
210
0
220
0
230
1
0
SOLID
5
1B5
100
AcDbEntity
8
SK2
62
256
6
ByLayer
370
13
48
1
60
0
100
AcDbTrace
10
-48
20
-31
30
0
11
-44.500002
21
-30.539216
31
0
12
-44.499998
22
-31.460784
32
0
13
-48
23
-31
33
0
39
0
210
0
220
0
230
1
0
SOLID
5
1B6
100
AcDbEntity
8
SK2
62
256
6
ByLayer
370
13
48
1
60
0
100
AcDbTrace
10
0
20
-31
30
0
11
-3.499998
21
-31.460784
31
0
12
-3.500002
22
-30.539216
32
0
13
0
23
-31
33
0
39
0
210
0
220
0
230
1
0
ENDBLK
5
1B8
100
AcDbEntity
8
0
100
AcDbBlockEnd
0
BLOCK
5
1C1
100
AcDbEntity
8
0
100
AcDbBlockBegin
2
DimnDraft3D4
70
0
10
0
20
0
30
0
3
DimnDraft3D4
0
MTEXT
5
1BB
100
AcDbEntity
8
2
62
256
6
ByLayer
370
13
48
1
60
0
100
AcDbMText
10
33.104486
20
-30.249886
30
0
210
0
220
0
230
1
1
\W0.6563;71.0
40
3
41
0
44
1.084337
50
0
71
7
72
5
7
iso_b_vert
0
LINE
5
1BC
100
AcDbEntity
8
2
62
256
6
ByLayer
370
13
48
1
60
0
100
AcDbLine
10
0
20
-11.5875
30
0
11
0
21
-33
31
0
39
0
210
0
220
0
230
1
0
LINE
5
1BD
100
AcDbEntity
8
2
62
256
6
ByLayer
370
13
48
1
60
0
100
AcDbLine
10
71
20
-1.5875
30
0
11
71
21
-33
31
0
39
0
210
0
220
0
230
1
0
LINE
5
1BE
100
AcDbEntity
8
2
62
256
6
ByLayer
370
13
48
1
60
0
100
AcDbLine
10
0
20
-31
30
0
11
71
21
-31
31
0
39
0
210
0
220
0
230
1
0
SOLID
5
1BF
100
AcDbEntity
8
2
62
256
6
ByLayer
370
13
48
1
60
0
100
AcDbTrace
10
0
20
-31
30
0
11
3.499998
21
-30.539216
31
0
12
3.500002
22
-31.460784
32
0
13
0
23
-31
33
0
39
0
210
0
220
0
230
1
0
SOLID
5
1C0
100
AcDbEntity
8
2
62
256
6
ByLayer
370
13
48
1
60
0
100
AcDbTrace
10
71
20
-31
30
0
11
67.500002
21
-31.460784
31
0
12
67.499998
22
-30.539216
32
0
13
71
23
-31
33
0
39
0
210
0
220
0
230
1
0
ENDBLK
5
1C2
100
AcDbEntity
8
0
100
AcDbBlockEnd
0
BLOCK
5
1CC
100
AcDbEntity
8
0
100
AcDbBlockBegin
2
DimnDraft3D5
70
0
10
0
20
0
30
0
3
DimnDraft3D5
0
MTEXT
5
1C5
100
AcDbEntity
8
SK2
62
256
6
ByLayer
370
13
48
1
60
0
100
AcDbMText
10
-55.750114
20
0.604486
30
0
210
0
220
0
230
1
1
\W0.6563;16.0
40
3
41
0
44
1.084337
50
90
71
7
72
5
7
iso_b_vert
0
MTEXT
5
1C6
100
AcDbEntity
8
SK2
62
256
6
ByLayer
370
13
48
1
60
0
100
AcDbMText
10
-55.750114
20
-3.872076
30
0
210
0
220
0
230
1
1
%%c
40
3
41
0
44
1.084337
50
90
71
7
72
5
7
iso_b_vert
0
LINE
5
1C7
100
AcDbEntity
8
SK2
62
256
6
ByLayer
370
13
48
1
60
0
100
AcDbLine
10
-49.5875
20
8
30
0
11
-56.25
21
8
31
0
39
0
210
0
220
0
230
1
0
LINE
5
1C8
100
AcDbEntity
8
SK2
62
256
6
ByLayer
370
13
48
1
60
0
100
AcDbLine
10
-49.5875
20
-8
30
0
11
-56.25
21
-8
31
0
39
0
210
0
220
0
230
1
0
LINE
5
1C9
100
AcDbEntity
8
SK2
62
256
6
ByLayer
370
13
48
1
60
0
100
AcDbLine
10
-54.25
20
8
30
0
11
-54.25
21
-8
31
0
39
0
210
0
220
0
230
1
0
SOLID
5
1CA
100
AcDbEntity
8
SK2
62
256
6
ByLayer
370
13
48
1
60
0
100
AcDbTrace
10
-54.25
20
8
30
0
11
-53.789216
21
4.500002
31
0
12
-54.710784
22
4.499998
32
0
13
-54.25
23
8
33
0
39
0
210
0
220
0
230
1
0
SOLID
5
1CB
100
AcDbEntity
8
SK2
62
256
6
ByLayer
370
13
48
1
60
0
100
AcDbTrace
10
-54.25
20
-8
30
0
11
-54.710784
21
-4.500002
31
0
12
-53.789216
22
-4.499998
32
0
13
-54.25
23
-8
33
0
39
0
210
0
220
0
230
1
0
ENDBLK
5
1CD
100
AcDbEntity
8
0
100
AcDbBlockEnd
0
ENDSEC
0
SECTION
2
ENTITIES
0
ARC
5
DD
100
AcDbEntity
8
SK1
62
256
6
ByLayer
370
18
48
1
60
0
100
AcDbCircle
39
0
10
46.069726
20
-8.59725
30
0
40
0.800000000000008
210
0
220
0
230
-1
100
AcDbArc
50
51
51
110.978152
0
ARC
5
DE
100
AcDbEntity
8
SK1
62
256
6
ByLayer
370
18
48
1
60
0
100
AcDbCircle
39
0
10
46.069726
20
8.59725
30
0
40
0.800000000000008
210
0
220
0
230
-1
100
AcDbArc
50
249.021848
51
309
0
ARC
5
DF
100
AcDbEntity
8
SK1
62
256
6
ByLayer
370
18
48
1
60
0
100
AcDbCircle
39
0
10
0.975195
20
8.14725
30
0
40
0.4
210
0
220
0
230
-1
100
AcDbArc
50
270
51
295
0
ARC
5
E0
100
AcDbEntity
8
SK1
62
256
6
ByLayer
370
18
48
1
60
0
100
AcDbCircle
39
0
10
0.975195
20
-8.14725
30
0
40
0.4
210
0
220
0
230
-1
100
AcDbArc
50
65
51
90
0
ARC
5
E1
100
AcDbEntity
8
1
62
256
6
ByLayer
370
18
48
1
60
0
100
AcDbCircle
39
0
10
-13
20
-9.05
30
0
40
3.99999999999994
210
0
220
0
230
-1
100
AcDbArc
50
50.475494
51
90
0
ARC
5
E2
100
AcDbEntity
8
1
62
256
6
ByLayer
370
18
48
1
60
0
100
AcDbCircle
39
0
10
-13
20
9.05
30
0
40
3.99999999999994
210
0
220
0
230
-1
100
AcDbArc
50
270
51
309.524506
0
ARC
5
E3
100
AcDbEntity
8
SK1
62
256
6
ByLayer
370
18
48
1
60
0
100
AcDbCircle
39
0
10
0.15
20
8.14725
30
0
40
0.4
210
0
220
0
230
-1
100
AcDbArc
50
247.975687
51
270
0
ARC
5
E4
100
AcDbEntity
8
SK1
62
256
6
ByLayer
370
18
48
1
60
0
100
AcDbCircle
39
0
10
0.15
20
-8.14725
30
0
40
0.4
210
0
220
0
230
-1
100
AcDbArc
50
90
51
112.024313
0
ARC
5
E5
100
AcDbEntity
8
1
62
256
6
ByLayer
370
18
48
1
60
0
100
AcDbCircle
39
0
10
64.55
20
1.45
30
0
40
0.250000000086299
210
0
220
0
230
1
100
AcDbArc
50
334.770666
51
356.342348
0
ELLIPSE
5
E6
100
AcDbEntity
8
1
62
256
6
ByLayer
370
18
48
1
60
0
100
AcDbEllipse
10
71
20
0
30
0
11
1.8444422554522
21
-5.24880197041623
31
0
210
0
220
0
230
1
40
0.060808
41
2.78678827012101
42
2.87516172723603
0
ELLIPSE
5
E7
100
AcDbEntity
8
1
62
256
6
ByLayer
370
18
48
1
60
0
100
AcDbEllipse
10
62.55
20
-2.214401
30
0
11
0.900000000000005
21
0
31
0
210
0
220
0
230
1
40
0.702153
41
-2.2305309347444
42
-0.666312884902278
0
ELLIPSE
5
E8
100
AcDbEntity
8
1
62
256
6
ByLayer
370
18
48
1
60
0
100
AcDbEllipse
10
74.546225
20
0
30
0
11
6.98364148874541
21
4.73385000048677
31
0
210
0
220
0
230
1
40
0.290406
41
2.80014328020985
42
3.095940911998
0
ELLIPSE
5
E9
100
AcDbEntity
8
1
62
256
6
ByLayer
370
18
48
1
60
0
100
AcDbEllipse
10
70.975255
20
-0.115875
30
0
11
0.0472765641678776
21
0.150392792381805
31
0
210
0
220
0
230
1
40
0.048492
41
1.77666834994742
42
2.4690355445023
0
ELLIPSE
5
EA
100
AcDbEntity
8
1
62
256
6
ByLayer
370
18
48
1
60
0
100
AcDbEllipse
10
57.432146
20
-1.3E-05
30
0
11
0.826702531147729
21
5.14288166655312
31
0
210
0
220
0
230
1
40
0.32711
41
-2.4277141961344
42
-2.40866074689214
0
ELLIPSE
5
EB
100
AcDbEntity
8
1
62
256
6
ByLayer
370
18
48
1
60
0
100
AcDbEllipse
10
64.970605
20
-0.784175
30
0
11
0.897493770978183
21
0.247753272359354
31
0
210
0
220
0
230
1
40
0.780953
41
1.97414425337464
42
-1.78663618570424
0
ELLIPSE
5
EC
100
AcDbEntity
8
1
62
256
6
ByLayer
370
18
48
1
60
0
100
AcDbEllipse
10
13.618051
20
2.204268
30
0
11
2.98476429304149
21
11.6446989893217
31
0
210
0
220
0
230
1
40
0.025932
41
-1.88403284614104
42
-1.8514439345654
0
ELLIPSE
5
ED
100
AcDbEntity
8
1
62
256
6
ByLayer
370
18
48
1
60
0
100
AcDbEllipse
10
13.615547
20
1.795889
30
0
11
2.98949843267995
21
19.2648768617759
31
0
210
0
220
0
230
1
40
0.013012
41
-1.45653682897809
42
-1.42712513775158
0
ELLIPSE
5
EE
100
AcDbEntity
8
1
62
256
6
ByLayer
370
18
48
1
60
0
100
AcDbEllipse
10
70.975255
20
0.115875
30
0
11
0.0472765641420584
21
-0.150392792309011
31
0
210
0
220
0
230
1
40
0.048492
41
-2.46903554444166
42
-1.77666834961962
0
ELLIPSE
5
EF
100
AcDbEntity
8
1
62
256
6
ByLayer
370
18
48
1
60
0
100
AcDbEllipse
10
57.432146
20
1.8E-05
30
0
11
0.82670292490986
21
-5.14287617897749
31
0
210
0
220
0
230
1
40
0.32711
41
2.40866033926766
42
2.42771380114856
0
ELLIPSE
5
F0
100
AcDbEntity
8
1
62
256
6
ByLayer
370
18
48
1
60
0
100
AcDbEllipse
10
55.640722
20
-77.566727
30
0
11
78.585151423439
21
0.00256161264505535
31
0
210
0
220
0
230
1
40
0.931429
41
1.45069758210214
42
1.4539481802418
0
ELLIPSE
5
F1
100
AcDbEntity
8
1
62
256
6
ByLayer
370
18
48
1
60
0
100
AcDbEllipse
10
57.367072
20
4.957602
30
0
11
2.72001839973388
21
8.79096754425561
31
0
210
0
220
0
230
1
40
0.143929
41
-1.66876130332619
42
-1.65720053107289
0
ELLIPSE
5
F2
100
AcDbEntity
8
1
62
256
6
ByLayer
370
18
48
1
60
0
100
AcDbEllipse
10
13.646
20
1.845295
30
0
11
-0.551354278123186
21
-2.94889953372359
31
0
210
0
220
0
230
1
40
0.07861
41
-0.0612123067782074
42
-0.0605610456619848
0
ELLIPSE
5
F3
100
AcDbEntity
8
1
62
256
6
ByLayer
370
18
48
1
60
0
100
AcDbEllipse
10
66.712659
20
-0.875425
30
0
11
0.222205171672999
21
-0.758143681223415
31
0
210
0
220
0
230
1
40
0.314252
41
0.103772692790209
42
-3.06391853692475
0
ELLIPSE
5
F4
100
AcDbEntity
8
1
62
256
6
ByLayer
370
18
48
1
60
0
100
AcDbEllipse
10
13.646
20
1.845295
30
0
11
-0.551354278123186
21
-2.94889953372359
31
0
210
0
220
0
230
1
40
0.07861
41
2.38125657571204
42
2.38195544581485
0
ELLIPSE
5
F5
100
AcDbEntity
8
1
62
256
6
ByLayer
370
13
48
1
60
0
100
AcDbEllipse
10
57.4
20
4.677438
30
0
11
-0.036125591402686
21
-2.99978248238865
31
0
210
0
220
0
230
1
40
0.341833
41
1.07023239119765
42
1.24367786169272
0
ELLIPSE
5
F6
100
AcDbEntity
8
1
62
256
6
ByLayer
370
13
48
1
60
0
100
AcDbEllipse
10
13.646
20
1.845295
30
0
11
1.1004295961347
21
2.79088779852412
31
0
210
0
220
0
230
1
40
0.64982
41
1.0504673901755
42
3.14156159584338
0
ELLIPSE
5
F7
100
AcDbEntity
8
1
62
256
6
ByLayer
370
18
48
1
60
0
100
AcDbEllipse
10
71
20
0
30
0
11
1.84444216678763
21
5.24880170229677
31
0
210
0
220
0
230
1
40
0.060808
41
-2.8751617205849
42
-2.78678826113264
0
ELLIPSE
5
F8
100
AcDbEntity
8
1
62
256
6
ByLayer
370
18
48
1
60
0
100
AcDbEllipse
10
57.301299
20
-5.968233
30
0
11
2.39683929865061
21
3.60415529727228
31
0
210
0
220
0
230
1
40
0.500591
41
1.24085978895921
42
1.27396090376652
0
ELLIPSE
5
F9
100
AcDbEntity
8
1
62
256
6
ByLayer
370
13
48
1
60
0
100
AcDbEllipse
10
13.646
20
1.845295
30
0
11
-0.551354278123186
21
-2.94889953372359
31
0
210
0
220
0
230
1
40
0.07861
41
0.0782790505401667
42
2.38125657571204
0
ELLIPSE
5
FA
100
AcDbEntity
8
1
62
256
6
ByLayer
370
18
48
1
60
0
100
AcDbEllipse
10
62.745
20
-2.214401
30
0
11
-1.36000000000001
21
1.66546464119845E-16
31
0
210
0
220
0
230
1
40
0.702153
41
0.768806273234962
42
2.37484720510785
0
ELLIPSE
5
FB
100
AcDbEntity
8
1
62
256
6
ByLayer
370
18
48
1
60
0
100
AcDbEllipse
10
57.4
20
4.677438
30
0
11
-0.036125591402686
21
-2.99978248238865
31
0
210
0
220
0
230
1
40
0.341833
41
1.24367786169272
42
1.24589495102032
0
POINT
5
6C
100
AcDbEntity
8
80
62
256
6
ByLayer
370
18
48
1
60
0
100
AcDbPoint
10
0
20
0
30
0
39
0
210
0
220
0
230
1
50
360
0
POINT
5
6E
100
AcDbEntity
8
81
62
256
6
ByLayer
370
18
48
1
60
0
100
AcDbPoint
10
64.8
20
0
30
0
39
0
210
0
220
0
230
1
50
360
0
SPLINE
5
FC
100
AcDbEntity
8
1
62
256
6
ByLayer
370
18
48
1
60
0
100
AcDbSpline
70
4
71
3
72
14
73
10
40
0
40
0
40
0
40
0
40
0.197912262026391
40
0.393506112064359
40
0.581776078855918
40
0.688280565562711
40
0.792016338945695
40
0.894817395324096
40
1
40
1
40
1
40
1
41
1
10
10.3772319574651
20
6.02823101560412
30
0
41
1
10
9.99397820516316
20
6.36006823434994
30
0
41
1
10
9.23202668590085
20
7.02009584807928
30
0
41
1
10
8.13961876005305
20
8.03339589951764
30
0
41
1
10
7.16293441216948
20
8.82722644884538
30
0
41
1
10
6.30010303749992
20
9.37623362332045
30
0
41
1
10
5.57418307566431
20
9.7216733566066
30
0
41
1
10
4.80246930982028
20
9.94857932405694
30
0
41
1
10
4.27326071459942
20
9.99866503924812
30
0
41
1
10
4.00040000000001
20
10
30
0
0
SPLINE
5
FD
100
AcDbEntity
8
1
62
256
6
ByLayer
370
18
48
1
60
0
100
AcDbSpline
70
4
71
3
72
13
73
9
40
0
40
0
40
0
40
0
40
0.133194688711123
40
0.264153232408445
40
0.398451425560545
40
0.538102138138665
40
0.766782999788091
40
1
40
1
40
1
40
1
41
1
10
4.00040000000001
20
-10
30
0
41
1
10
4.34798125320219
20
-9.99622371864385
30
0
41
1
10
5.01785279035596
20
-9.91696013204012
30
0
41
1
10
5.98376880288328
20
-9.55502996582609
30
0
41
1
10
6.87779377099869
20
-9.02505550105548
30
0
41
1
10
7.90298004302403
20
-8.24318756833213
30
0
41
1
10
9.03552036522709
20
-7.19780943749942
30
0
41
1
10
9.92942393605512
20
-6.42335702467099
30
0
41
1
10
10.3772319574651
20
-6.02823101560412
30
0
0
SPLINE
5
FE
100
AcDbEntity
8
1
62
256
6
ByLayer
370
18
48
1
60
0
100
AcDbSpline
70
4
71
3
72
33
73
29
40
0
40
0
40
0
40
0
40
0.0027983047801926
40
0.0495199481407982
40
0.0980305966108988
40
0.148242705358919
40
0.191278552144213
40
0.224209343702924
40
0.247049273552343
40
0.273104859147997
40
0.308483953598223
40
0.353185349656825
40
0.404119178266106
40
0.455443330580598
40
0.507054351531866
40
0.556872650156518
40
0.601671187328371
40
0.63629729610153
40
0.667215608543855
40
0.705036629723155
40
0.74884775899801
40
0.792228894261366
40
0.825255770551685
40
0.857349070225824
40
0.890836686345707
40
0.93216319602104
40
0.981699912073386
40
1
40
1
40
1
40
1
41
1
10
43.9141322923194
20
4.936031674746
30
0
41
1
10
43.890432685988
20
4.93585284772368
30
0
41
1
10
43.4706481578624
20
4.93268795706587
30
0
41
1
10
42.6126274584101
20
4.92091719266259
30
0
41
1
10
41.3416918979873
20
4.92004208120215
30
0
41
1
10
40.1083787921236
20
4.93238190709576
30
0
41
1
10
39.0130861009513
20
4.94020769830232
30
0
41
1
10
38.1542893600242
20
4.9443523183906
30
0
41
1
10
37.4428034717937
20
4.94665493567368
30
0
41
1
10
36.7074532804913
20
4.94787862305472
30
0
41
1
10
35.7805533803033
20
4.94894175926848
30
0
41
1
10
34.6360998034585
20
4.94981413349697
30
0
41
1
10
33.352342624138
20
4.95005165585175
30
0
41
1
10
32.0082280772126
20
4.94951895495234
30
0
41
1
10
30.6738571395313
20
4.94829603225114
30
0
41
1
10
29.3964910245186
20
4.94687374437473
30
0
41
1
10
28.2674964273251
20
4.9456513540577
30
0
41
1
10
27.3035977611014
20
4.94477188694191
30
0
41
1
10
26.4006617273342
20
4.9441253503536
30
0
41
1
10
25.4175507648471
20
4.943641513383
30
0
41
1
10
24.3256207077987
20
4.9433960660723
30
0
41
1
10
23.2754741804432
20
4.94354506684095
30
0
41
1
10
22.3276608110879
20
4.94400506575889
30
0
41
1
10
21.4662870793412
20
4.94463700288253
30
0
41
1
10
20.5323906540179
20
4.9455907436903
30
0
41
1
10
19.4471885136771
20
4.9468794249286
30
0
41
1
10
18.4955147819622
20
4.94721414167759
30
0
41
1
10
17.9044871350041
20
4.94680796217818
30
0
41
1
10
17.7450735757279
20
4.94663646999914
30
0
0
SPLINE
5
FF
100
AcDbEntity
8
1
62
256
6
ByLayer
370
18
48
1
60
0
100
AcDbSpline
70
4
71
2
72
6
73
3
40
0
40
0
40
0
40
1
40
1
40
1
41
1
10
41.9663924687807
20
-0.68140932581548
30
0
41
1
10
42.0525869140975
20
-0.697989997599507
30
0
41
1
10
42.1386989655861
20
-0.717086804978209
30
0
0
SPLINE
5
100
100
AcDbEntity
8
1
62
256
6
ByLayer
370
18
48
1
60
0
100
AcDbSpline
70
4
71
1
72
4
73
2
40
0
40
0
40
1
40
1
41
1
10
61.1471646430103
20
2.38012779493838
30
0
41
1
10
61.147174913666
20
2.38012889586099
30
0
0
SPLINE
5
101
100
AcDbEntity
8
1
62
256
6
ByLayer
370
18
48
1
60
0
100
AcDbSpline
70
4
71
3
72
32
73
28
40
0
40
0
40
0
40
0
40
0.0538387266094891
40
0.111717406589075
40
0.161410419581673
40
0.202892793187929
40
0.236509225739846
40
0.300553438365298
40
0.368192192679762
40
0.401421458266264
40
0.430275542526521
40
0.454754434615658
40
0.480073713948351
40
0.511703289256222
40
0.549411250171755
40
0.588705893748616
40
0.640546142783963
40
0.692098249068082
40
0.743258298041389
40
0.788158233388417
40
0.823694462533678
40
0.849865772869041
40
0.869386034370806
40
0.896663540052041
40
0.931711652544397
40
0.974328838227062
40
1
40
1
40
1
40
1
41
1
10
15.3124939374754
20
-4.93752911432125
30
0
41
1
10
15.7786779796196
20
-4.94059135260014
30
0
41
1
10
16.7464712527653
20
-4.94551144988714
30
0
41
1
10
18.1460318807673
20
-4.94733137428329
30
0
41
1
10
19.4397157470418
20
-4.94688622467461
30
0
41
1
10
20.5239425400883
20
-4.94560035465173
30
0
41
1
10
21.7340491983362
20
-4.94436478916489
30
0
41
1
10
23.1716420720557
20
-4.94347247233094
30
0
41
1
10
24.6058046407392
20
-4.9434041477316
30
0
41
1
10
25.7338565334694
20
-4.94378690743247
30
0
41
1
10
26.4866311251367
20
-4.94419157903363
30
0
41
1
10
27.1706466345298
20
-4.94467730922699
30
0
41
1
10
27.8788118613963
20
-4.94528652538241
30
0
41
1
10
28.7020255822307
20
-4.94611351099749
30
0
41
1
10
29.6467803446746
20
-4.94715733286483
30
0
41
1
10
30.7673038412788
20
-4.94838166186526
30
0
41
1
10
32.0082280522954
20
-4.94951896175124
30
0
41
1
10
33.3523427433589
20
-4.95005164271183
30
0
41
1
10
34.6360993781089
20
-4.94981417656464
30
0
41
1
10
35.7805546353389
20
-4.94894163292668
30
0
41
1
10
36.7074500499342
20
-4.94787894814189
30
0
41
1
10
37.4130918139575
20
-4.94670361267995
30
0
41
1
10
38.044880411168
20
-4.94473148240638
30
0
41
1
10
38.7530749048811
20
-4.94152557848398
30
0
41
1
10
39.6609157014865
20
-4.93605138790846
30
0
41
1
10
40.5530725354031
20
-4.92716992885917
30
0
41
1
10
41.1460201455052
20
-4.92322358414552
30
0
41
1
10
41.3691749106977
20
-4.9222904700755
30
0
0
SPLINE
5
102
100
AcDbEntity
8
1
62
256
6
ByLayer
370
18
48
1
60
0
100
AcDbSpline
70
4
71
3
72
8
73
4
40
0
40
0
40
0
40
0
40
1
40
1
40
1
40
1
41
1
10
43.338145066786
20
-4.9296191625734
30
0
41
1
10
43.5306740153119
20
-4.93153307882844
30
0
41
1
10
43.722589432118
20
-4.93374640672138
30
0
41
1
10
43.9140537576649
20
-4.93632265921681
30
0
0
SPLINE
5
103
100
AcDbEntity
8
1
62
256
6
ByLayer
370
18
48
1
60
0
100
AcDbSpline
70
4
71
3
72
10
73
6
40
0
40
0
40
0
40
0
40
0.289542498877742
40
0.658239356545393
40
1
40
1
40
1
40
1
41
1
10
66.5033676132433
20
-5.14999553514187
30
0
41
1
10
66.7517554046943
20
-5.14980477803579
30
0
41
1
10
67.3170617416439
20
-5.14949545146669
30
0
41
1
10
68.1809787768427
20
-5.14955256053045
30
0
41
1
10
68.7923977072849
20
-5.14978878648151
30
0
41
1
10
69.0864666605841
20
-5.14996417894238
30
0
0
SPLINE
5
104
100
AcDbEntity
8
1
62
256
6
ByLayer
370
18
48
1
60
0
100
AcDbSpline
70
4
71
2
72
6
73
3
40
0
40
0
40
0
40
1
40
1
40
1
41
1
10
69.0783839706181
20
5.14997860475515
30
0
41
1
10
68.9089678340785
20
5.14996945260376
30
0
41
1
10
68.739556970981
20
5.14996300203063
30
0
0
SPLINE
5
105
100
AcDbEntity
8
1
62
256
6
ByLayer
370
18
48
1
60
0
100
AcDbSpline
70
4
71
3
72
8
73
4
40
0
40
0
40
0
40
0
40
1
40
1
40
1
40
1
41
1
10
65.3494954838778
20
-5.22055293462026
30
0
41
1
10
65.2580324487465
20
-5.18293681919323
30
0
41
1
10
65.1664498499744
20
-5.14483591389103
30
0
41
1
10
65.0747390262555
20
-5.10626961211708
30
0
0
SPLINE
5
106
100
AcDbEntity
8
1
62
256
6
ByLayer
370
18
48
1
60
0
100
AcDbSpline
70
4
71
1
72
4
73
2
40
0
40
0
40
1
40
1
41
1
10
66.8238927904855
20
-1.63933335588689
30
0
41
1
10
66.9377810683422
20
-1.62508389463469
30
0
0
SPLINE
5
107
100
AcDbEntity
8
1
62
256
6
ByLayer
370
18
48
1
60
0
100
AcDbSpline
70
4
71
3
72
14
73
10
40
0
40
0
40
0
40
0
40
0.313843123847268
40
0.313843123847268
40
0.627686247694537
40
0.627686247694537
40
0.941529371541805
40
0.941529371541805
40
1
40
1
40
1
40
1
41
1
10
64.6
20
2.59999999999999
30
0
41
1
10
64.6
20
2.43750042220981
30
0
41
1
10
64.5999999999998
20
2.28489211431241
30
0
41
1
10
64.5999999999998
20
1.99842124914835
30
0
41
1
10
64.6
20
1.8643911690084
30
0
41
1
10
64.6
20
1.6179976128619
30
0
41
1
10
64.6
20
1.50869231724991
30
0
41
1
10
64.6
20
1.3948842037187
30
0
41
1
10
64.6
20
1.37747757750199
30
0
41
1
10
64.6
20
1.36054199999109
30
0
0
SPLINE
5
108
100
AcDbEntity
8
1
62
256
6
ByLayer
370
18
48
1
60
0
100
AcDbSpline
70
4
71
3
72
8
73
4
40
0
40
0
40
0
40
0
40
1
40
1
40
1
40
1
41
1
10
70.7894263011333
20
-0.610060720697334
30
0
41
1
10
70.8370697528292
20
-0.475458098956409
30
0
41
1
10
70.8845842975242
20
-0.337713941741583
30
0
41
1
10
70.9299154772248
20
-0.203044419621449
30
0
0
SPLINE
5
109
100
AcDbEntity
8
1
62
256
6
ByLayer
370
18
48
1
60
0
100
AcDbSpline
70
4
71
3
72
8
73
4
40
0
40
0
40
0
40
0
40
1
40
1
40
1
40
1
41
1
10
70.9911081250846
20
0.0370123836445657
30
0
41
1
10
70.9801369475326
20
0.0729740724112844
30
0
41
1
10
70.9692517440512
20
0.108760671341486
30
0
41
1
10
70.958451512734
20
0.144374220859675
30
0
0
SPLINE
5
10A
100
AcDbEntity
8
1
62
256
6
ByLayer
370
18
48
1
60
0
100
AcDbSpline
70
4
71
3
72
18
73
14
40
0
40
0
40
0
40
0
40
0.125
40
0.125
40
0.25
40
0.25
40
0.375
40
0.375
40
0.5
40
0.5
40
0.75
40
0.75
40
1
40
1
40
1
40
1
41
1
10
11.1902123923378
20
-0.410535242242617
30
0
41
1
10
11.241287609956
20
-0.480985722055607
30
0
41
1
10
11.2969781444093
20
-0.548691007697414
30
0
41
1
10
11.4147331020017
20
-0.675385889088432
30
0
41
1
10
11.4768360621844
20
-0.73457181567548
30
0
41
1
10
11.6073742482948
20
-0.84570324647305
30
0
41
1
10
11.6758089573979
20
-0.897647641162678
30
0
41
1
10
11.818979190042
20
-0.995180169623211
30
0
41
1
10
11.8940745781272
20
-1.04094439941969
30
0
41
1
10
12.1251380245345
20
-1.16782640462958
30
0
41
1
10
12.2872814404883
20
-1.23917648587326
30
0
41
1
10
12.626750614521
20
-1.3624857503724
30
0
41
1
10
12.8046491351274
20
-1.41441310115638
30
0
41
1
10
12.9856090121782
20
-1.4575564191222
30
0
0
SPLINE
5
10B
100
AcDbEntity
8
1
62
256
6
ByLayer
370
18
48
1
60
0
100
AcDbSpline
70
4
71
3
72
8
73
4
40
0
40
0
40
0
40
0
40
1
40
1
40
1
40
1
41
1
10
57.8340880579253
20
3.70204271660754
30
0
41
1
10
58.0226312184911
20
3.74370533551104
30
0
41
1
10
58.2111258357461
20
3.78401112833538
30
0
41
1
10
58.3995994762051
20
3.82286981491299
30
0
0
SPLINE
5
10C
100
AcDbEntity
8
1
62
256
6
ByLayer
370
13
48
1
60
0
100
AcDbSpline
70
4
71
3
72
8
73
4
40
0
40
0
40
0
40
0
40
1
40
1
40
1
40
1
41
1
10
53.702119261582
20
-1.5864672026803
30
0
41
1
10
53.7112721026854
20
-1.56819299330689
30
0
41
1
10
53.7204584653155
20
-1.5498396861818
30
0
41
1
10
53.7296774613036
20
-1.53140606990652
30
0
0
SPLINE
5
10D
100
AcDbEntity
8
1
62
256
6
ByLayer
370
18
48
1
60
0
100
AcDbSpline
70
4
71
2
72
6
73
3
40
0
40
0
40
0
40
1
40
1
40
1
41
1
10
66.2236542227787
20
0.660396333757575
30
0
41
1
10
66.3196179802658
20
0.259605294980759
30
0
41
1
10
66.4399988600916
20
-0.144016381123833
30
0
0
SPLINE
5
10E
100
AcDbEntity
8
1
62
256
6
ByLayer
370
13
48
1
60
0
100
AcDbSpline
70
4
71
3
72
8
73
4
40
0
40
0
40
0
40
0
40
1
40
1
40
1
40
1
41
1
10
70.4237467579084
20
0.495386535284325
30
0
41
1
10
70.4313274715216
20
0.490222045380335
30
0
41
1
10
70.4389597551194
20
0.485121322626782
30
0
41
1
10
70.4466407870306
20
0.480083149595771
30
0
0
SPLINE
5
10F
100
AcDbEntity
8
1
62
256
6
ByLayer
370
18
48
1
60
0
100
AcDbSpline
70
4
71
3
72
8
73
4
40
0
40
0
40
0
40
0
40
1
40
1
40
1
40
1
41
1
10
14.9960000000536
20
-1.79889014771399
30
0
41
1
10
14.9960000000541
20
-1.86198677154394
30
0
41
1
10
14.9960000000546
20
-1.92517354811767
30
0
41
1
10
14.9960000000552
20
-1.98845038409581
30
0
0
SPLINE
5
110
100
AcDbEntity
8
1
62
256
6
ByLayer
370
18
48
1
60
0
100
AcDbSpline
70
4
71
2
72
6
73
3
40
0
40
0
40
0
40
1
40
1
40
1
41
0.500000021589615
10
14.2923447672736
20
4.51773155245832
30
0
41
0.499999978410385
10
14.2920039738585
20
4.51670985046237
30
0
41
0.500000021589615
10
14.2916629598011
20
4.51568660578939
30
0
0
SPLINE
5
111
100
AcDbEntity
8
1
62
256
6
ByLayer
370
18
48
1
60
0
100
AcDbSpline
70
4
71
3
72
8
73
4
40
0
40
0
40
0
40
0
40
1
40
1
40
1
40
1
41
1
10
12.9844972357367
20
-1.46438651392506
30
0
41
1
10
12.9848675827853
20
-1.46211048296513
30
0
41
1
10
12.985238174899
20
-1.45983378478877
30
0
41
1
10
12.9856090121782
20
-1.4575564191222
30
0
0
SPLINE
5
112
100
AcDbEntity
8
1
62
256
6
ByLayer
370
18
48
1
60
0
100
AcDbSpline
70
4
71
3
72
20
73
16
40
0
40
0
40
0
40
0
40
0.249999999999994
40
0.249999999999994
40
0.374999999999995
40
0.374999999999995
40
0.499999999999996
40
0.499999999999996
40
0.624999999999997
40
0.624999999999997
40
0.749999999999998
40
0.749999999999998
40
0.874999999999999
40
0.874999999999999
40
1
40
1
40
1
40
1
41
1
10
11.3874380028138
20
4.22654119424672
30
0
41
1
10
11.4527264927313
20
4.15271862837918
30
0
41
1
10
11.5236562877536
20
4.08201012041363
30
0
41
1
10
11.6443227503751
20
3.98677992929984
30
0
41
1
10
11.6870511957898
20
3.95688477255675
30
0
41
1
10
11.7774920984235
20
3.90349337171858
30
0
41
1
10
11.8253446708993
20
3.87987814354881
30
0
41
1
10
11.9279260381429
20
3.84086080887224
30
0
41
1
10
11.9833165088273
20
3.82540103626357
30
0
41
1
10
12.0991687453112
20
3.80535955327886
30
0
41
1
10
12.1594975754729
20
3.80067569282568
30
0
41
1
10
12.2851439381779
20
3.80128461226403
30
0
41
1
10
12.3509350129981
20
3.80666034012262
30
0
41
1
10
12.483842861379
20
3.82503188566224
30
0
41
1
10
12.5512191573197
20
3.83793620593846
30
0
41
1
10
12.619536935266
20
3.85327241301209
30
0
0
SPLINE
5
113
100
AcDbEntity
8
1
62
256
6
ByLayer
370
18
48
1
60
0
100
AcDbSpline
70
4
71
3
72
8
73
4
40
0
40
0
40
0
40
0
40
1
40
1
40
1
40
1
41
1
10
70.9911081250843
20
-0.0370123836454184
30
0
41
1
10
70.9801369475325
20
-0.0729740724118528
30
0
41
1
10
70.9692517440511
20
-0.108760671341741
30
0
41
1
10
70.958451512734
20
-0.144374220859675
30
0
0
SPLINE
5
114
100
AcDbEntity
8
1
62
256
6
ByLayer
370
18
48
1
60
0
100
AcDbSpline
70
4
71
3
72
10
73
6
40
0
40
0
40
0
40
0
40
0.5
40
0.5
40
1
40
1
40
1
40
1
41
1
10
11.3874380028151
20
4.22654119424897
30
0
41
1
10
11.2211024400323
20
4.23902041809589
30
0
41
1
10
11.0603168770791
20
4.25878411535967
30
0
41
1
10
10.7492601254355
20
4.3156449821326
30
0
41
1
10
10.598993077719
20
4.35275637442874
30
0
41
1
10
10.4543672025733
20
4.4002781891997
30
0
0
SPLINE
5
115
100
AcDbEntity
8
1
62
256
6
ByLayer
370
18
48
1
60
0
100
AcDbSpline
70
4
71
3
72
8
73
4
40
0
40
0
40
0
40
0
40
1
40
1
40
1
40
1
41
1
10
14.2916629598011
20
4.5156866057894
30
0
41
1
10
14.2118298179411
20
4.52464884126059
30
0
41
1
10
14.131182553891
20
4.53193658384103
30
0
41
1
10
14.05
20
4.53760216675454
30
0
0
SPLINE
5
116
100
AcDbEntity
8
1
62
256
6
ByLayer
370
18
48
1
60
0
100
AcDbSpline
70
4
71
2
72
7
73
4
40
0
40
0
40
0
40
0.484129815508575
40
1
40
1
40
1
41
1
10
67.2436259755186
20
-2.31029180918713
30
0
41
1
10
67.3159888652414
20
-2.69375373487191
30
0
41
1
10
67.5135497185556
20
-3.40816809507552
30
0
41
1
10
67.6375502295512
20
-3.71729380968574
30
0
0
SPLINE
5
117
100
AcDbEntity
8
1
62
256
6
ByLayer
370
18
48
1
60
0
100
AcDbSpline
70
4
71
3
72
18
73
14
40
0
40
0
40
0
40
0
40
0.16492130026959
40
0.16492130026959
40
0.329842600539179
40
0.329842600539179
40
0.659685201078359
40
0.659685201078359
40
0.824606501347948
40
0.824606501347948
40
0.989527801617538
40
0.989527801617538
40
1
40
1
40
1
40
1
41
1
10
14.9960000000846
20
-4.6103580012431
30
0
41
1
10
14.9960001709203
20
-4.64295580597516
30
0
41
1
10
14.9985768649091
20
-4.673214052763
30
0
41
1
10
15.0094900902518
20
-4.72908984156447
30
0
41
1
10
15.0178671851249
20
-4.75474744887822
30
0
41
1
10
15.0522076040614
20
-4.8239904385012
30
0
41
1
10
15.087330044925
20
-4.86017728093174
30
0
41
1
10
15.1613371459803
20
-4.90076494289698
30
0
41
1
10
15.1896605208948
20
-4.91203289835897
30
0
41
1
10
15.2537454525154
20
-4.93008034243792
30
0
41
1
10
15.2891372213931
20
-4.93677614146245
30
0
41
1
10
15.3303748377733
20
-4.94173996282808
30
0
41
1
10
15.3328505903891
20
-4.9420281690081
30
0
41
1
10
15.3353399550036
20
-4.9423082756191
30
0
0
SPLINE
5
118
100
AcDbEntity
8
1
62
256
6
ByLayer
370
18
48
1
60
0
100
AcDbSpline
70
4
71
2
72
6
73
3
40
0
40
0
40
0
40
1
40
1
40
1
41
0.500000349758199
10
66.8238927897997
20
-1.6393331550984
30
0
41
0.499999650241801
10
65.81442624645
20
-1.63518228224022
30
0
41
0.500000349758199
10
64.8047146524271
20
-1.63102904532509
30
0
0
SPLINE
5
119
100
AcDbEntity
8
1
62
256
6
ByLayer
370
18
48
1
60
0
100
AcDbSpline
70
4
71
3
72
28
73
24
40
0
40
0
40
0
40
0
40
0.125000000000005
40
0.125000000000005
40
0.187500000000006
40
0.187500000000006
40
0.250000000000008
40
0.250000000000008
40
0.375000000000009
40
0.375000000000009
40
0.437500000000007
40
0.437500000000007
40
0.500000000000005
40
0.500000000000005
40
0.625000000000002
40
0.625000000000002
40
0.749999999999998
40
0.749999999999998
40
0.874999999999994
40
0.874999999999994
40
0.937499999999997
40
0.937499999999997
40
1
40
1
40
1
40
1
41
1
10
14.996000000087
20
-4.84820573029356
30
0
41
1
10
14.9960000000878
20
-4.90792261461988
30
0
41
1
10
15.0064844442426
20
-4.95831817178953
30
0
41
1
10
15.0406296949853
20
-5.02064997270759
30
0
41
1
10
15.0550899205433
20
-5.03921335772327
30
0
41
1
10
15.0907656642005
20
-5.07199543746489
30
0
41
1
10
15.1121117195131
20
-5.08627081944377
30
0
41
1
10
15.1864078792183
20
-5.12223658908519
30
0
41
1
10
15.2490359790753
20
-5.13700969514963
30
0
41
1
10
15.3637867854495
20
-5.14802530009902
30
0
41
1
10
15.4055160403852
20
-5.1498352092263
30
0
41
1
10
15.4962876837361
20
-5.15014326141008
30
0
41
1
10
15.5456187508664
20
-5.14861640580071
30
0
41
1
10
15.7019871028668
20
-5.13992348302435
30
0
41
1
10
15.8177919485783
20
-5.12874250174013
30
0
41
1
10
16.0724525633799
20
-5.10054968150052
30
0
41
1
10
16.2126614821739
20
-5.08336035114445
30
0
41
1
10
16.5065884544733
20
-5.04886506754181
30
0
41
1
10
16.6610188920599
20
-5.0314775526351
30
0
41
1
10
16.9038948073975
20
-5.00806965169394
30
0
41
1
10
16.9870138322863
20
-5.00068634655418
30
0
41
1
10
17.155384605526
20
-4.98735890614449
30
0
41
1
10
17.2406707455845
20
-4.98140596064906
30
0
41
1
10
17.3270619725789
20
-4.97631727902049
30
0
0
SPLINE
5
11A
100
AcDbEntity
8
1
62
256
6
ByLayer
370
13
48
1
60
0
100
AcDbSpline
70
4
71
3
72
16
73
12
40
0
40
0
40
0
40
0
40
0.374205007509556
40
0.374205007509556
40
0.561307511264334
40
0.561307511264334
40
0.748410015019112
40
0.748410015019112
40
0.93551251877389
40
0.93551251877389
40
1
40
1
40
1
40
1
41
1
10
69.6944055126204
20
-1.28190708591708
30
0
41
1
10
69.5489853831357
20
-1.1865225356465
30
0
41
1
10
69.3582438533248
20
-1.04069872594894
30
0
41
1
10
69.1470928171746
20
-0.849648193296701
30
0
41
1
10
69.051624396338
20
-0.755946189226222
30
0
41
1
10
68.9131509515295
20
-0.607356373267123
30
0
41
1
10
68.8176737459034
20
-0.495567790979493
30
0
41
1
10
68.6828483775844
20
-0.3212653891473
30
0
41
1
10
68.589917457011
20
-0.188618150585569
30
0
41
1
10
68.5053381348221
20
-0.053540785551462
30
0
41
1
10
68.4807068620542
20
-0.0121761829034028
30
0
41
1
10
68.4554142485597
20
0.0319349660150863
30
0
0
SPLINE
5
11B
100
AcDbEntity
8
1
62
256
6
ByLayer
370
18
48
1
60
0
100
AcDbSpline
70
4
71
1
72
4
73
2
40
0
40
0
40
1
40
1
41
1
10
66.4399988757688
20
-0.144016476816233
30
0
41
1
10
66.3061589919489
20
-0.160711283131121
30
0
0
SPLINE
5
11C
100
AcDbEntity
8
1
62
256
6
ByLayer
370
18
48
1
60
0
100
AcDbSpline
70
4
71
3
72
8
73
4
40
0
40
0
40
0
40
0
40
1
40
1
40
1
40
1
41
1
10
64.7761522368915
20
1.34343937993342
30
0
41
1
10
64.7742060898049
20
1.33930909693876
30
0
41
1
10
64.7721540583605
20
1.33524747677959
30
0
41
1
10
64.77
20
1.33125657912961
30
0
0
SPLINE
5
11D
100
AcDbEntity
8
1
62
256
6
ByLayer
370
18
48
1
60
0
100
AcDbSpline
70
4
71
3
72
8
73
4
40
0
40
0
40
0
40
0
40
1
40
1
40
1
40
1
41
1
10
56.5368870693052
20
-3.7020099799781
30
0
41
1
10
56.4486428264868
20
-3.72059885959538
30
0
41
1
10
56.3620376072731
20
-3.74222172372777
30
0
41
1
10
56.2770608722869
20
-3.76667130415427
30
0
0
SPLINE
5
11E
100
AcDbEntity
8
1
62
256
6
ByLayer
370
18
48
1
60
0
100
AcDbSpline
70
4
71
3
72
12
73
8
40
0
40
0
40
0
40
0
40
0.419466637325074
40
0.419466637325074
40
0.709732979762384
40
0.709732979762384
40
1
40
1
40
1
40
1
41
1
10
64.7999999871506
20
4.98078228492472
30
0
41
1
10
64.7874880296806
20
4.99388703745373
30
0
41
1
10
64.7749693751459
20
5.00698898791853
30
0
41
1
10
64.7537769028843
20
5.02915277550474
30
0
41
1
10
64.7451064801377
20
5.03821602739964
30
0
41
1
10
64.7277594630995
20
5.05634004014186
30
0
41
1
10
64.719082863727
20
5.06540080627468
30
0
41
1
10
64.710403238617
20
5.07446035223091
30
0
0
SPLINE
5
11F
100
AcDbEntity
8
1
62
256
6
ByLayer
370
18
48
1
60
0
100
AcDbSpline
70
4
71
3
72
8
73
4
40
0
40
0
40
0
40
0
40
1
40
1
40
1
40
1
41
1
10
64.8
20
5.03664613769831
30
0
41
1
10
64.9836609430988
20
5.1092619010912
30
0
41
1
10
65.1668071923527
20
5.17991080748914
30
0
41
1
10
65.349495483891
20
5.24843832636472
30
0
0
SPLINE
5
120
100
AcDbEntity
8
1
62
256
6
ByLayer
370
18
48
1
60
0
100
AcDbSpline
70
4
71
3
72
45
73
41
40
0
40
0
40
0
40
0
40
0.125
40
0.125
40
0.250000000000001
40
0.250000000000001
40
0.375000000000001
40
0.375000000000001
40
0.406250000000001
40
0.406250000000001
40
0.437500000000002
40
0.437500000000002
40
0.500000000000002
40
0.500000000000002
40
0.625000000000002
40
0.625000000000002
40
0.750000000000003
40
0.750000000000003
40
0.875000000000003
40
0.875000000000003
40
0.890625000000003
40
0.890625000000003
40
0.906250000000003
40
0.906250000000003
40
0.921875000000003
40
0.921875000000003
40
0.937500000000003
40
0.937500000000003
40
0.945312500000003
40
0.945312500000003
40
0.949218750000003
40
0.949218750000003
40
0.950195312500002
40
0.950195312500002
40
0.951171875000002
40
0.951171875000002
40
0.953125000000002
40
0.968750000000001
40
0.968750000000001
40
1
40
1
40
1
40
1
41
1
10
14.9960000000536
20
-1.79889364266361
30
0
41
1
10
16.7192095215465
20
-2.15242729270156
30
0
41
1
10
18.4428259965317
20
-2.4800786882698
30
0
41
1
10
21.8930109103597
20
-3.08267830917106
30
0
41
1
10
23.6201802437898
20
-3.35822007025732
30
0
41
1
10
27.0712074316754
20
-3.85668076076601
30
0
41
1
10
28.7956051519022
20
-4.08007916013403
30
0
41
1
10
30.9501275473465
20
-4.31975847682321
30
0
41
1
10
31.3808891591389
20
-4.36566056837691
30
0
41
1
10
32.2418666591622
20
-4.45300161318292
30
0
41
1
10
32.6720787578119
20
-4.49449826252058
30
0
41
1
10
33.9632308283415
20
-4.60976855487326
30
0
41
1
10
34.8243121783429
20
-4.6751393008432
30
0
41
1
10
37.4091891650342
20
-4.83808356410737
30
0
41
1
10
39.1354505553483
20
-4.90324061102163
30
0
41
1
10
42.5866997939674
20
-4.95651714050808
30
0
41
1
10
44.3121979900707
20
-4.94475753094909
30
0
41
1
10
47.7634894262487
20
-4.8415475298832
30
0
41
1
10
49.4868573721144
20
-4.74983404834586
30
0
41
1
10
51.4219895360916
20
-4.59424198022143
30
0
41
1
10
51.6371272066936
20
-4.57639826688296
30
0
41
1
10
52.0662385250416
20
-4.53736092471286
30
0
41
1
10
52.2802759047914
20
-4.51636410359464
30
0
41
1
10
52.7069323738365
20
-4.4701725124377
30
0
41
1
10
52.9195630754326
20
-4.44502575127714
30
0
41
1
10
53.3426015888323
20
-4.38839249610339
30
0
41
1
10
53.5530866309969
20
-4.35709945562158
30
0
41
1
10
53.8654899968851
20
-4.30100553160008
30
0
41
1
10
53.969072187623
20
-4.28078439933145
30
0
41
1
10
54.1228489810174
20
-4.24619823756214
30
0
41
1
10
54.1739019334018
20
-4.23393686568215
30
0
41
1
10
54.2369768269531
20
-4.21720404956085
30
0
41
1
10
54.2495547082526
20
-4.21379751082767
30
0
41
1
10
54.2745726451196
20
-4.20677588793316
30
0
41
1
10
54.2878789514576
20
-4.20433744825107
30
0
41
1
10
54.3272823259388
20
-4.19630768380711
30
0
41
1
10
54.5637005212077
20
-4.14789931066386
30
0
41
1
10
54.8001025322132
20
-4.09742958044833
30
0
41
1
10
55.4305045792942
20
-3.95803349706998
30
0
41
1
10
55.8507739393312
20
-3.85870699044884
30
0
41
1
10
56.2711104997853
20
-3.75305038884682
30
0
0
SPLINE
5
121
100
AcDbEntity
8
1
62
256
6
ByLayer
370
18
48
1
60
0
100
AcDbSpline
70
4
71
3
72
8
73
4
40
0
40
0
40
0
40
0
40
1
40
1
40
1
40
1
41
1
10
56.8
20
3.58114965171583
30
0
41
1
10
57.0190375549125
20
3.52825465682665
30
0
41
1
10
57.2380717074547
20
3.47409091116259
30
0
41
1
10
57.4571201135672
20
3.4186940302086
30
0
0
SPLINE
5
122
100
AcDbEntity
8
1
62
256
6
ByLayer
370
18
48
1
60
0
100
AcDbSpline
70
4
71
3
72
18
73
14
40
0
40
0
40
0
40
0
40
0.125000000000003
40
0.125000000000003
40
0.250000000000007
40
0.250000000000007
40
0.500000000000014
40
0.500000000000014
40
0.625000000000013
40
0.625000000000013
40
0.750000000000012
40
0.750000000000012
40
1
40
1
40
1
40
1
41
1
10
11.1902123923378
20
-0.410535242242531
30
0
41
1
10
11.2342257261636
20
-0.427463054944894
30
0
41
1
10
11.2810191483564
20
-0.44535720397937
30
0
41
1
10
11.3807955251309
20
-0.48374787475538
30
0
41
1
10
11.4341594412701
20
-0.504396926176042
30
0
41
1
10
11.601672001539
20
-0.569940723344303
30
0
41
1
10
11.7225700950595
20
-0.618312182111993
30
0
41
1
10
11.918399299839
20
-0.697118684961964
30
0
41
1
10
11.9860949858943
20
-0.724394803777017
30
0
41
1
10
12.1265041076266
20
-0.780431184341182
30
0
41
1
10
12.1985828264487
20
-0.808927672059326
30
0
41
1
10
12.4173018140895
20
-0.893491468186369
30
0
41
1
10
12.5676633653062
20
-0.949146515537194
30
0
41
1
10
12.7228985067961
20
-1.00091777034743
30
0
0
SPLINE
5
123
100
AcDbEntity
8
1
62
256
6
ByLayer
370
18
48
1
60
0
100
AcDbSpline
70
4
71
3
72
10
73
6
40
0
40
0
40
0
40
0
40
0.568170064829233
40
0.568170064829233
40
1
40
1
40
1
40
1
41
1
10
58.7197803601878
20
3.79774756561253
30
0
41
1
10
58.7288190357671
20
3.66293947318968
30
0
41
1
10
58.730699276443
20
3.53041222634442
30
0
41
1
10
58.7241031824335
20
3.30213072682432
30
0
41
1
10
58.7180132879012
20
3.2068256267811
30
0
41
1
10
58.7091510112612
20
3.11492530468445
30
0
0
SPLINE
5
124
100
AcDbEntity
8
1
62
256
6
ByLayer
370
18
48
1
60
0
100
AcDbSpline
70
4
71
3
72
8
73
4
40
0
40
0
40
0
40
0
40
1
40
1
40
1
40
1
41
1
10
64.8
20
-4.83735464897913
30
0
41
1
10
64.7666666666667
20
-4.86928438263575
30
0
41
1
10
64.7333333333333
20
-4.90121411629238
30
0
41
1
10
64.7
20
-4.933143849949
30
0
0
SPLINE
5
125
100
AcDbEntity
8
1
62
256
6
ByLayer
370
18
48
1
60
0
100
AcDbSpline
70
4
71
3
72
31
73
27
40
0
40
0
40
0
40
0
40
0.172613315572469
40
0.172613315572469
40
0.586306657786242
40
0.586306657786242
40
0.638018325562964
40
0.638018325562964
40
0.689729993339686
40
0.689729993339686
40
0.741441661116408
40
0.741441661116408
40
0.793153328893129
40
0.793153328893129
40
0.81900916278149
40
0.81900916278149
40
0.831937079725671
40
0.831937079725671
40
0.835169058961717
40
0.835169058961717
40
0.838401038197764
40
0.838401038197764
40
0.844864996669854
40
0.896576664446568
40
0.896576664446568
40
1
40
1
40
1
40
1
41
1
10
43.8778267266424
20
4.93704325307317
30
0
41
1
10
44.5978199706013
20
4.92927987877258
30
0
41
1
10
45.3178189978059
20
4.91468468801492
30
0
41
1
10
47.7634894262486
20
4.8415475298832
30
0
41
1
10
49.4868573721144
20
4.74983404834586
30
0
41
1
10
51.4219895360916
20
4.59424198022143
30
0
41
1
10
51.6371272066936
20
4.57639826688296
30
0
41
1
10
52.0662385250416
20
4.53736092471286
30
0
41
1
10
52.2802759047914
20
4.51636410359464
30
0
41
1
10
52.7069323738364
20
4.4701725124377
30
0
41
1
10
52.9195630754326
20
4.44502575127714
30
0
41
1
10
53.3426015888323
20
4.38839249610339
30
0
41
1
10
53.5530866309969
20
4.35709945562158
30
0
41
1
10
53.8654899968851
20
4.30100553160011
30
0
41
1
10
53.969072187623
20
4.28078439933142
30
0
41
1
10
54.1228489810174
20
4.24619823756214
30
0
41
1
10
54.1739019334017
20
4.23393686568218
30
0
41
1
10
54.2369768269531
20
4.21720404956088
30
0
41
1
10
54.2495547082526
20
4.2137975108277
30
0
41
1
10
54.2745726451196
20
4.20677588793313
30
0
41
1
10
54.2878789514576
20
4.20433744825107
30
0
41
1
10
54.3272823259389
20
4.19630768380711
30
0
41
1
10
54.5637005212077
20
4.14789931066383
30
0
41
1
10
54.8001025322132
20
4.09742958044833
30
0
41
1
10
55.4305045792942
20
3.95803349706998
30
0
41
1
10
55.8507739393313
20
3.85870699044884
30
0
41
1
10
56.2711104997853
20
3.75305038884682
30
0
0
SPLINE
5
126
100
AcDbEntity
8
1
62
256
6
ByLayer
370
18
48
1
60
0
100
AcDbSpline
70
4
71
3
72
12
73
8
40
0
40
0
40
0
40
0
40
0.5
40
0.5
40
0.75
40
0.75
40
1
40
1
40
1
40
1
41
1
10
68.4430403475503
20
-4.68432806006413
30
0
41
1
10
68.528194974723
20
-4.86859618555627
30
0
41
1
10
68.6382506406212
20
-4.99510328970047
30
0
41
1
10
68.8366765245079
20
-5.10752218378005
30
0
41
1
10
68.9089192313733
20
-5.13190886953365
30
0
41
1
10
69.0616016497622
20
-5.15401119351401
30
0
41
1
10
69.1421479281631
20
-5.1519828189233
30
0
41
1
10
69.2267132293184
20
-5.13745359058728
30
0
0
SPLINE
5
127
100
AcDbEntity
8
1
62
256
6
ByLayer
370
18
48
1
60
0
100
AcDbSpline
70
4
71
3
72
38
73
34
40
0
40
0
40
0
40
0
40
0.0625
40
0.0625
40
0.125
40
0.125
40
0.1875
40
0.1875
40
0.25
40
0.25
40
0.3125
40
0.3125
40
0.375
40
0.375
40
0.4375
40
0.4375
40
0.5
40
0.5
40
0.5625
40
0.5625
40
0.625
40
0.625
40
0.6875
40
0.6875
40
0.75
40
0.75
40
0.8125
40
0.8125
40
0.875
40
0.875
40
0.9375
40
0.9375
40
1
40
1
40
1
40
1
41
1
10
64.8132446991804
20
-0.154230471851832
30
0
41
1
10
64.7623677419699
20
-0.154009603098871
30
0
41
1
10
64.7123017862418
20
-0.158632131663211
30
0
41
1
10
64.613692117758
20
-0.176965710000303
30
0
41
1
10
64.5647440404906
20
-0.190844543059256
30
0
41
1
10
64.4703931337319
20
-0.227368927057626
30
0
41
1
10
64.4254708542703
20
-0.249731589544581
30
0
41
1
10
64.3400577630154
20
-0.302505116625866
30
0
41
1
10
64.2991823153973
20
-0.333320095207739
30
0
41
1
10
64.2249586540602
20
-0.401227847843586
30
0
41
1
10
64.1914080960681
20
-0.438309570404243
30
0
41
1
10
64.131668284638
20
-0.518904989365012
30
0
41
1
10
64.1054201884928
20
-0.562798070141952
30
0
41
1
10
64.0632502690258
20
-0.653259120029247
30
0
41
1
10
64.046932124905
20
-0.700241775075312
30
0
41
1
10
64.0244085994116
20
-0.79789306253187
30
0
41
1
10
64.0184932749727
20
-0.847866639774168
30
0
41
1
10
64.0176262165988
20
-0.946665070257922
30
0
41
1
10
64.0226742628178
20
-0.996527540905163
30
0
41
1
10
64.0435362102089
20
-1.09352699094649
30
0
41
1
10
64.0591046880474
20
-1.14016880470442
30
0
41
1
10
64.1001155983752
20
-1.22993120744874
30
0
41
1
10
64.1256943208057
20
-1.27298337503225
30
0
41
1
10
64.1843182865222
20
-1.35202358529952
30
0
41
1
10
64.2177361870998
20
-1.3886874220712
30
0
41
1
10
64.291803319811
20
-1.45546040982211
30
0
41
1
10
64.3316333709024
20
-1.48489340801942
30
0
41
1
10
64.4165983941858
20
-1.53636948942196
30
0
41
1
10
64.4622234543767
20
-1.5585531524178
30
0
41
1
10
64.5558828383526
20
-1.59403709196161
30
0
41
1
10
64.6040155254394
20
-1.60751192967427
30
0
41
1
10
64.7029057965538
20
-1.62593425265311
30
0
41
1
10
64.7538271116228
20
-1.63081973009687
30
0
41
1
10
64.8047146524268
20
-1.63102904532533
30
0
0
SPLINE
5
128
100
AcDbEntity
8
1
62
256
6
ByLayer
370
18
48
1
60
0
100
AcDbSpline
70
4
71
3
72
18
73
14
40
0
40
0
40
0
40
0
40
0.105971758033832
40
0.105971758033832
40
0.32947881852537
40
0.32947881852537
40
0.552985879016908
40
0.552985879016908
40
0.776492939508446
40
0.776492939508446
40
0.888246469754223
40
0.888246469754223
40
1
40
1
40
1
40
1
41
1
10
15.4579777371915
20
5.14999968708131
30
0
41
1
10
15.5013996213425
20
5.14998160292524
30
0
41
1
10
15.5483154179289
20
5.14846649107542
30
0
41
1
10
15.7019871028668
20
5.13992348302435
30
0
41
1
10
15.8177919485783
20
5.12874250174013
30
0
41
1
10
16.0724525633798
20
5.10054968150052
30
0
41
1
10
16.2126614821739
20
5.08336035114445
30
0
41
1
10
16.5065884544733
20
5.04886506754181
30
0
41
1
10
16.6610188920598
20
5.03147755263512
30
0
41
1
10
16.9038948073975
20
5.00806965169394
30
0
41
1
10
16.9870138322863
20
5.00068634655418
30
0
41
1
10
17.155384605526
20
4.98735890614449
30
0
41
1
10
17.2406707455845
20
4.98140596064906
30
0
41
1
10
17.3270619725789
20
4.97631727902049
30
0
0
SPLINE
5
129
100
AcDbEntity
8
1
62
256
6
ByLayer
370
18
48
1
60
0
100
AcDbSpline
70
4
71
3
72
18
73
14
40
0
40
0
40
0
40
0
40
0.125000000000004
40
0.125000000000004
40
0.250000000000007
40
0.250000000000007
40
0.500000000000015
40
0.500000000000015
40
0.625000000000014
40
0.625000000000014
40
0.750000000000013
40
0.750000000000013
40
1
40
1
40
1
40
1
41
1
10
11.3874380028139
20
4.22654119424968
30
0
41
1
10
11.4400328784511
20
4.24179536464391
30
0
41
1
10
11.4948877176183
20
4.25524997171539
30
0
41
1
10
11.6091928512881
20
4.27940655557927
30
0
41
1
10
11.6688803645589
20
4.29013914800908
30
0
41
1
10
11.8526420209081
20
4.31897849257942
30
0
41
1
10
11.9816457281881
20
4.33389201570029
30
0
41
1
10
12.1850774287398
20
4.35413080399246
30
0
41
1
10
12.2545504875641
20
4.36050778825523
30
0
41
1
10
12.3969548964787
20
4.37313111065023
30
0
41
1
10
12.4701490755257
20
4.37939951035995
30
0
41
1
10
12.6922616614534
20
4.39861008537252
30
0
41
1
10
12.8441698791498
20
4.41203240609366
30
0
41
1
10
12.9999999999996
20
4.42788787862278
30
0
0
SPLINE
5
12A
100
AcDbEntity
8
1
62
256
6
ByLayer
370
18
48
1
60
0
100
AcDbSpline
70
4
71
3
72
15
73
11
40
0
40
0
40
0
40
0
40
0.127910885608805
40
0.254978204351825
40
0.381207751383999
40
0.506605438016584
40
0.631177293989117
40
0.754929469760684
40
0.877868238818263
40
1
40
1
40
1
40
1
41
1
10
66.3061589675132
20
-0.160711054082384
30
0
41
1
10
66.2960232969505
20
-0.125316111092388
30
0
41
1
10
66.2758188001425
20
-0.0547596532602768
30
0
41
1
10
66.2465072022139
20
0.0510207415509285
30
0
41
1
10
66.2180539443963
20
0.156259076614191
30
0
41
1
10
66.190523331809
20
0.260936107660939
30
0
41
1
10
66.1638935446711
20
0.365003977966524
30
0
41
1
10
66.1381879661518
20
0.468421197949255
30
0
41
1
10
66.1133353829597
20
0.571156679858262
30
0
41
1
10
66.0974564079875
20
0.639368611512822
30
0
41
1
10
66.0895430649298
20
0.673362267700071
30
0
0
SPLINE
5
12B
100
AcDbEntity
8
1
62
256
6
ByLayer
370
18
48
1
60
0
100
AcDbSpline
70
4
71
3
72
14
73
10
40
0
40
0
40
0
40
0
40
0.25
40
0.25
40
0.5
40
0.5
40
0.75
40
0.75
40
1
40
1
40
1
40
1
41
1
10
57.4571201135896
20
3.47715371916124
30
0
41
1
10
58.1787472535554
20
3.28349573580931
30
0
41
1
10
58.898433435511
20
3.07652030629095
30
0
41
1
10
60.3362195313783
20
2.64130330976451
30
0
41
1
10
61.0543090760013
20
2.4130632043337
30
0
41
1
10
62.4903605206941
20
1.93895599332475
30
0
41
1
10
63.208629125947
20
1.69387061161979
30
0
41
1
10
64.6470512441695
20
1.19127540583042
30
0
41
1
10
65.3672607896735
20
0.933894511063272
30
0
41
1
10
66.089543423162
20
0.673362539783568
30
0
0
SPLINE
5
12C
100
AcDbEntity
8
1
62
256
6
ByLayer
370
18
48
1
60
0
100
AcDbSpline
70
4
71
3
72
8
73
4
40
0
40
0
40
0
40
0
40
1
40
1
40
1
40
1
41
1
10
70.929915477224
20
-0.203044419621278
30
0
41
1
10
70.9529993513319
20
-0.122401344027992
30
0
41
1
10
70.9734249979862
20
-0.0417737916876604
30
0
41
1
10
70.9911081250739
20
0.0370123836449068
30
0
0
SPLINE
5
12D
100
AcDbEntity
8
1
62
256
6
ByLayer
370
18
48
1
60
0
100
AcDbSpline
70
4
71
3
72
8
73
4
40
0
40
0
40
0
40
0
40
1
40
1
40
1
40
1
41
1
10
65.6244285587044
20
-5.25000194551848
30
0
41
1
10
65.5328097367643
20
-5.25000126174871
30
0
41
1
10
65.4411651659913
20
-5.24948058951236
30
0
41
1
10
65.349495483891
20
-5.24843832636472
30
0
0
SPLINE
5
12E
100
AcDbEntity
8
1
62
256
6
ByLayer
370
18
48
1
60
0
100
AcDbSpline
70
4
71
3
72
8
73
4
40
0
40
0
40
0
40
0
40
1
40
1
40
1
40
1
41
1
10
67.2563181650637
20
0.562947160475346
30
0
41
1
10
67.0008697865467
20
0.602740905044243
30
0
41
1
10
66.7454214080297
20
0.642534649613197
30
0
41
1
10
66.4899730295127
20
0.682328394182093
30
0
0
SPLINE
5
12F
100
AcDbEntity
8
1
62
256
6
ByLayer
370
18
48
1
60
0
100
AcDbSpline
70
4
71
3
72
10
73
6
40
0
40
0
40
0
40
0
40
0.728683567081361
40
0.728683567081361
40
1
40
1
40
1
40
1
41
1
10
65.0747390262554
20
-5.10626961211716
30
0
41
1
10
65.4299925694998
20
-5.12745925982125
30
0
41
1
10
65.7854133108712
20
-5.14090949440106
30
0
41
1
10
66.2731939693142
20
-5.14886337121689
30
0
41
1
10
66.4055379010387
20
-5.14996081691683
30
0
41
1
10
66.5378723455221
20
-5.14999379423682
30
0
0
SPLINE
5
130
100
AcDbEntity
8
1
62
256
6
ByLayer
370
18
48
1
60
0
100
AcDbSpline
70
4
71
3
72
8
73
4
40
0
40
0
40
0
40
0
40
1
40
1
40
1
40
1
41
1
10
69.3646581523675
20
-2.20558655029802
30
0
41
1
10
69.462921171892
20
-2.12815008975753
30
0
41
1
10
69.5614172416765
20
-2.04942212808481
30
0
41
1
10
69.6604940184452
20
-1.96747604630391
30
0
0
SPLINE
5
131
100
AcDbEntity
8
1
62
256
6
ByLayer
370
18
48
1
60
0
100
AcDbSpline
70
4
71
3
72
12
73
8
40
0
40
0
40
0
40
0
40
0.291539577890047
40
0.291539577890047
40
0.583079155780094
40
0.583079155780094
40
1
40
1
40
1
40
1
41
1
10
65.3494954838764
20
-5.22055293462495
30
0
41
1
10
65.679019175835
20
-5.23681234056227
30
0
41
1
10
66.0087465095979
20
-5.24632444714655
30
0
41
1
10
66.668072407399
20
-5.25192614596764
30
0
41
1
10
66.9975194626452
20
-5.2479872116503
30
0
41
1
10
67.7982892648079
20
-5.2220187955665
30
0
41
1
10
68.2698256684732
20
-5.19304772742171
30
0
41
1
10
68.7411982891841
20
-5.15048876767557
30
0
0
SPLINE
5
132
100
AcDbEntity
8
1
62
256
6
ByLayer
370
18
48
1
60
0
100
AcDbSpline
70
4
71
3
72
8
73
4
40
0
40
0
40
0
40
0
40
1
40
1
40
1
40
1
41
1
10
69.2572247079429
20
-5.0984652174337
30
0
41
1
10
69.2730399870263
20
-5.09670429857331
30
0
41
1
10
69.2888548939697
20
-5.09492811358299
30
0
41
1
10
69.3046694115183
20
-5.09313666628412
30
0
0
SPLINE
5
133
100
AcDbEntity
8
1
62
256
6
ByLayer
370
18
48
1
60
0
100
AcDbSpline
70
4
71
3
72
8
73
4
40
0
40
0
40
0
40
0
40
1
40
1
40
1
40
1
41
1
10
10.4543672025733
20
-0.113967358394007
30
0
41
1
10
10.6859889353755
20
-0.206395025721577
30
0
41
1
10
10.9315378869342
20
-0.306921529048708
30
0
41
1
10
11.1902123923379
20
-0.41053524224256
30
0
0
SPLINE
5
134
100
AcDbEntity
8
1
62
256
6
ByLayer
370
18
48
1
60
0
100
AcDbSpline
70
4
71
3
72
13
73
9
40
0
40
0
40
0
40
0
40
0.500055647770622
40
0.75009180680349
40
0.875111405596804
40
0.937619982819404
40
0.968874274393883
40
1
40
1
40
1
40
1
41
1
10
67.243626035184
20
-2.31028607605623
30
0
41
1
10
67.2220963934356
20
-2.31208767976483
30
0
41
1
10
67.1898015719473
20
-2.31479011535768
30
0
41
1
10
67.1521350243268
20
-2.31778282295949
30
0
41
1
10
67.1333023579955
20
-2.31925943323304
30
0
41
1
10
67.1238867449914
20
-2.31998826383355
30
0
41
1
10
67.1185115942124
20
-2.32040654241212
30
0
41
1
10
67.115827760892
20
-2.32060722942697
30
0
41
1
10
67.1144886099382
20
-2.32070736612522
30
0
0
SPLINE
5
135
100
AcDbEntity
8
1
62
256
6
ByLayer
370
13
48
1
60
0
100
AcDbSpline
70
4
71
3
72
10
73
6
40
0
40
0
40
0
40
0
40
0.0018294100811403
40
0.0018294100811403
40
1
40
1
40
1
40
1
41
1
10
70.4948515798437
20
0.519959598095767
30
0
41
1
10
70.4948375323257
20
0.519968412632949
30
0
41
1
10
70.4948234846858
20
0.51997722723479
30
0
41
1
10
70.4871448588515
20
0.524795643574976
30
0
41
1
10
70.4795244326629
20
0.529662894138255
30
0
41
1
10
70.4719507697298
20
0.534589069799296
30
0
0
SPLINE
5
136
100
AcDbEntity
8
1
62
256
6
ByLayer
370
18
48
1
60
0
100
AcDbSpline
70
4
71
3
72
14
73
10
40
0
40
0
40
0
40
0
40
0.25
40
0.25
40
0.5
40
0.5
40
0.75
40
0.75
40
1
40
1
40
1
40
1
41
1
10
70.8689378546455
20
0.492605927356948
30
0
41
1
10
70.8510424753422
20
0.564559814167893
30
0
41
1
10
70.828894217909
20
0.647252145919339
30
0
41
1
10
70.7769781353026
20
0.830805246503502
30
0
41
1
10
70.7472118259544
20
0.931660597770787
30
0
41
1
10
70.6812546388506
20
1.14749023160272
30
0
41
1
10
70.6450655334452
20
1.26245871457536
30
0
41
1
10
70.56771546185
20
1.50189919439603
30
0
41
1
10
70.5265573114496
20
1.62636257283776
30
0
41
1
10
70.4837379218504
20
1.75308358108941
30
0
0
SPLINE
5
137
100
AcDbEntity
8
1
62
256
6
ByLayer
370
18
48
1
60
0
100
AcDbSpline
70
4
71
3
72
8
73
4
40
0
40
0
40
0
40
0
40
1
40
1
40
1
40
1
41
1
10
58.3594405209485
20
3.70186647638371
30
0
41
1
10
57.9913740439943
20
3.62972328828525
30
0
41
1
10
57.6234796668221
20
3.55328386881635
30
0
41
1
10
57.255666494465
20
3.47260852723721
30
0
0
SPLINE
5
138
100
AcDbEntity
8
1
62
256
6
ByLayer
370
18
48
1
60
0
100
AcDbSpline
70
4
71
3
72
8
73
4
40
0
40
0
40
0
40
0
40
1
40
1
40
1
40
1
41
1
10
69.56940445027
20
1.71980365354003
30
0
41
1
10
69.5593547045253
20
1.71929817921941
30
0
41
1
10
69.5496768846986
20
1.71579480987049
30
0
41
1
10
69.5413547287045
20
1.71011479985995
30
0
0
SPLINE
5
139
100
AcDbEntity
8
1
62
256
6
ByLayer
370
18
48
1
60
0
100
AcDbSpline
70
4
71
3
72
8
73
4
40
0
40
0
40
0
40
0
40
1
40
1
40
1
40
1
41
1
10
10.3772319574651
20
-0.0831772170926399
30
0
41
1
10
10.4029555820362
20
-0.0934485828592244
30
0
41
1
10
10.4286674643383
20
-0.103711987158903
30
0
41
1
10
10.4543672025733
20
-0.113967358394007
30
0
0
SPLINE
5
13A
100
AcDbEntity
8
1
62
256
6
ByLayer
370
18
48
1
60
0
100
AcDbSpline
70
4
71
3
72
8
73
4
40
0
40
0
40
0
40
0
40
1
40
1
40
1
40
1
41
1
10
58.7075939025448
20
3.79712667558218
30
0
41
1
10
58.7116602470956
20
3.79734644924801
30
0
41
1
10
58.7157224038339
20
3.79755345146825
30
0
41
1
10
58.7197803601879
20
3.79774756561253
30
0
0
SPLINE
5
13B
100
AcDbEntity
8
1
62
256
6
ByLayer
370
13
48
1
60
0
100
AcDbSpline
70
4
71
2
72
6
73
3
40
0
40
0
40
0
40
1
40
1
40
1
41
0.996035837477101
10
70.4237467579084
20
0.495386535284335
30
0
41
0.889028960716269
10
69.7391556071079
20
-0.37722044496476
30
0
41
1
10
69.6944055126204
20
-1.28190708591708
30
0
0
SPLINE
5
13C
100
AcDbEntity
8
1
62
256
6
ByLayer
370
18
48
1
60
0
100
AcDbSpline
70
4
71
3
72
8
73
4
40
0
40
0
40
0
40
0
40
1
40
1
40
1
40
1
41
1
10
65.0747390262558
20
-4.97451494123192
30
0
41
1
10
65.0747390262563
20
-4.95071030007608
30
0
41
1
10
65.0675172742721
20
-4.92488951589104
30
0
41
1
10
65.053658914111
20
-4.89721528063592
30
0
0
SPLINE
5
13D
100
AcDbEntity
8
1
62
256
6
ByLayer
370
18
48
1
60
0
100
AcDbSpline
70
2053
71
3
72
39
73
35
40
0
40
0
40
0
40
0
40
0.0310630692896024
40
0.062151050509563
40
0.0932220195325722
40
0.124517984848727
40
0.155729362651136
40
0.187147926785408
40
0.218596291106368
40
0.249990631953144
40
0.281533885968343
40
0.312892887457254
40
0.344347433893175
40
0.375644808264682
40
0.406819894358555
40
0.438011063168843
40
0.469024041425323
40
0.500105252732664
40
0.531123905896824
40
0.562141742513813
40
0.593351066949785
40
0.624485340574696
40
0.655840449741908
40
0.687186019629954
40
0.718587617125105
40
0.750113828720979
40
0.781492881786125
40
0.813018934888908
40
0.844371695163111
40
0.875675083541636
40
0.906947085736672
40
0.937962106652593
40
0.969092995337884
40
1
40
1
40
1
40
1
41
1
10
62.745
20
-2.49326548917065
30
0
41
1
10
62.8396556929386
20
-2.49326590598756
30
0
41
1
10
63.029046882552
20
-2.51073157705608
30
0
41
1
10
63.3008020263339
20
-2.58707273672599
30
0
41
1
10
63.5500799034912
20
-2.70779474214689
30
0
41
1
10
63.7676344790127
20
-2.86478177606227
30
0
41
1
10
63.9465591623172
20
-3.04930146678115
30
0
41
1
10
64.0799234953902
20
-3.25148685117841
30
0
41
1
10
64.1629834080022
20
-3.46135749784327
30
0
41
1
10
64.1905644569717
20
-3.66911095876028
30
0
41
1
10
64.1626004619143
20
-3.86504647283903
30
0
41
1
10
64.0797139059389
20
-4.04221468074317
30
0
41
1
10
63.9461084480211
20
-4.19513620849781
30
0
41
1
10
63.7670400711726
20
-4.3212330722003
30
0
41
1
10
63.5491779907418
20
-4.41939905596829
30
0
41
1
10
63.2999979733032
20
-4.48938320287047
30
0
41
1
10
63.0279980331883
20
-4.53134696086255
30
0
41
1
10
62.7442368629384
20
-4.54527503583847
30
0
41
1
10
62.4605070979653
20
-4.53118797200594
30
0
41
1
10
62.1887059131527
20
-4.48911016067873
30
0
41
1
10
61.9397129408736
20
-4.41899679894729
30
0
41
1
10
61.7219422994343
20
-4.32066454293931
30
0
41
1
10
61.5432577645182
20
-4.19455317432514
30
0
41
1
10
61.4098645226502
20
-4.04154581170641
30
0
41
1
10
61.3272426678863
20
-3.86446702478653
30
0
41
1
10
61.2993529099857
20
-3.6684456837593
30
0
41
1
10
61.3275483066102
20
-3.46061844079279
30
0
41
1
10
61.4104000066957
20
-3.25067377919223
30
0
41
1
10
61.5442289314437
20
-3.0483492492481
30
0
41
1
10
61.7233365354606
20
-2.8639130945574
30
0
41
1
10
61.9411344736183
20
-2.70709456923066
30
0
41
1
10
62.1904306820725
20
-2.58660788049545
30
0
41
1
10
62.4617812498628
20
-2.51060969551909
30
0
41
1
10
62.6508198687427
20
-2.49326507444787
30
0
41
1
10
62.745
20
-2.49326548917065
30
0
0
SPLINE
5
13E
100
AcDbEntity
8
1
62
256
6
ByLayer
370
18
48
1
60
0
100
AcDbSpline
70
4
71
3
72
12
73
8
40
0
40
0
40
0
40
0
40
0.450642194015671
40
0.450642194015671
40
0.901284388031342
40
0.901284388031342
40
1
40
1
40
1
40
1
41
1
10
66.3636101742705
20
0.805722541597163
30
0
41
1
10
65.5911219175532
20
1.06501503136965
30
0
41
1
10
64.8174302229081
20
1.31478897343868
30
0
41
1
10
63.2677434375963
20
1.79015648595333
30
0
41
1
10
62.4914394545313
20
2.01577665533429
30
0
41
1
10
61.5442860062793
20
2.27426851367051
30
0
41
1
10
61.3740265167165
20
2.32005765804746
30
0
41
1
10
61.203717661363
20
2.36516865264531
30
0
0
SPLINE
5
13F
100
AcDbEntity
8
1
62
256
6
ByLayer
370
18
48
1
60
0
100
AcDbSpline
70
4
71
3
72
8
73
4
40
0
40
0
40
0
40
0
40
1
40
1
40
1
40
1
41
1
10
17.3270619725789
20
-4.97631727902049
30
0
41
1
10
17.4666300444438
20
-4.96809633451093
30
0
41
1
10
17.6061922918564
20
-4.95958984894884
30
0
41
1
10
17.7457497955608
20
-4.95079963007132
30
0
0
SPLINE
5
140
100
AcDbEntity
8
1
62
256
6
ByLayer
370
18
48
1
60
0
100
AcDbSpline
70
4
71
3
72
8
73
4
40
0
40
0
40
0
40
0
40
1
40
1
40
1
40
1
41
1
10
66.937781068342
20
-1.62508389463471
30
0
41
1
10
66.944636680768
20
-1.62422518836024
30
0
41
1
10
66.9514926587582
20
-1.62328273170741
30
0
41
1
10
66.9583484289242
20
-1.62225693787352
30
0
0
SPLINE
5
141
100
AcDbEntity
8
1
62
256
6
ByLayer
370
18
48
1
60
0
100
AcDbSpline
70
4
71
3
72
10
73
6
40
0
40
0
40
0
40
0
40
0.5
40
0.5
40
1
40
1
40
1
40
1
41
1
10
57.9432660462279
20
4.00321207634261
30
0
41
1
10
59.0717060621349
20
4.28864656489392
30
0
41
1
10
60.1947159214237
20
4.52497147154267
30
0
41
1
10
62.4427257190264
20
4.88743096345445
30
0
41
1
10
63.5685545591067
20
5.01316796434622
30
0
41
1
10
64.7000000000027
20
5.08342915992642
30
0
0
SPLINE
5
142
100
AcDbEntity
8
1
62
256
6
ByLayer
370
18
48
1
60
0
100
AcDbSpline
70
2053
71
3
72
39
73
35
40
0
40
0
40
0
40
0
40
0.0302826411064061
40
0.0624384920482327
40
0.0935873600181247
40
0.124918995214258
40
0.156192557613908
40
0.187424233142711
40
0.219487462504034
40
0.249888197828123
40
0.280267855660172
40
0.312374127297554
40
0.343598067707289
40
0.37492275230859
40
0.406115787304264
40
0.437459375860758
40
0.46963670809757
40
0.499896159529872
40
0.53016531931998
40
0.562391409872692
40
0.593717097255864
40
0.624951415288957
40
0.656218882092552
40
0.687551733981185
40
0.719659156208861
40
0.750012516481741
40
0.780364651724079
40
0.812409786559171
40
0.843706638256111
40
0.874887843418724
40
0.906242997404413
40
0.937447758039612
40
0.969687392654453
40
1
40
1
40
1
40
1
41
1
10
62.745
20
-2.50990088269214
30
0
41
1
10
62.6582529165776
20
-2.50990063190473
30
0
41
1
10
62.4793929892776
20
-2.52598219644315
30
0
41
1
10
62.2221965489779
20
-2.59694527154673
30
0
41
1
10
61.984112779045
20
-2.71165114741527
30
0
41
1
10
61.7778832721179
20
-2.85938975718651
30
0
41
1
10
61.6082361757184
20
-3.03292461761052
30
0
41
1
10
61.4804299864983
20
-3.22450822305274
30
0
41
1
10
61.4024432398856
20
-3.42126014243851
30
0
41
1
10
61.3766088451491
20
-3.61375322535255
30
0
41
1
10
61.4020594278387
20
-3.79492113395935
30
0
41
1
10
61.4796990654941
20
-3.95987970346235
30
0
41
1
10
61.6073163995733
20
-4.10262372537053
30
0
41
1
10
61.7765620883054
20
-4.21871011998093
30
0
41
1
10
61.9827679869737
20
-4.30885561686236
30
0
41
1
10
62.2209010577427
20
-4.37348609318855
30
0
41
1
10
62.4785828665429
20
-4.41165777902734
30
0
41
1
10
62.7441256737122
20
-4.42364716826901
30
0
41
1
10
63.0098469519801
20
-4.41179784314977
30
0
41
1
10
63.2677367432094
20
-4.3737748496093
30
0
41
1
10
63.5061815671528
20
-4.30922237637651
30
0
41
1
10
63.7124748892356
20
-4.21923257916086
30
0
41
1
10
63.8820809529486
20
-4.1031616569185
30
0
41
1
10
64.0099677691023
20
-3.960436201108
30
0
41
1
10
64.0877952058131
20
-3.79537822946227
30
0
41
1
10
64.1133706970229
20
-3.61440434236863
30
0
41
1
10
64.0877713630875
20
-3.42211491972958
30
0
41
1
10
64.0100407724296
20
-3.22538007395315
30
0
41
1
10
63.882487760518
20
-3.03382334269986
30
0
41
1
10
63.7130432274657
20
-2.86020722726502
30
0
41
1
10
63.5070340552243
20
-2.71231121843496
30
0
41
1
10
63.2686540534311
20
-2.59722746613531
30
0
41
1
10
63.0110191001939
20
-2.52602897462643
30
0
41
1
10
62.8318329241467
20
-2.5099011337277
30
0
41
1
10
62.745
20
-2.50990088269214
30
0
0
SPLINE
5
143
100
AcDbEntity
8
1
62
256
6
ByLayer
370
18
48
1
60
0
100
AcDbSpline
70
4
71
3
72
8
73
4
40
0
40
0
40
0
40
0
40
1
40
1
40
1
40
1
41
1
10
65.0747390262558
20
-4.97451494123169
30
0
41
1
10
65.0747390262558
20
-5.03298518498573
30
0
41
1
10
65.0747390262558
20
-5.07689994800003
30
0
41
1
10
65.0747390262558
20
-5.10626961211716
30
0
0
SPLINE
5
144
100
AcDbEntity
8
1
62
256
6
ByLayer
370
18
48
1
60
0
100
AcDbSpline
70
4
71
3
72
8
73
4
40
0
40
0
40
0
40
0
40
1
40
1
40
1
40
1
41
1
10
14.05
20
-1.78600443311751
30
0
41
1
10
13.7000500885481
20
-1.67977007640175
30
0
41
1
10
13.3500697362184
20
-1.5736199976192
30
0
41
1
10
13.0000000000006
20
-1.4677485021484
30
0
0
SPLINE
5
145
100
AcDbEntity
8
1
62
256
6
ByLayer
370
18
48
1
60
0
100
AcDbSpline
70
4
71
3
72
14
73
10
40
0
40
0
40
0
40
0
40
0.912825156184271
40
0.912825156184271
40
0.941350942315032
40
0.941350942315032
40
0.969876728445792
40
0.969876728445792
40
1
40
1
40
1
40
1
41
1
10
57.9088141359813
20
4.06421241713954
30
0
41
1
10
57.4736568084397
20
3.95718730825684
30
0
41
1
10
57.0388680936457
20
3.8433523807191
30
0
41
1
10
56.5907330405938
20
3.71926243670413
30
0
41
1
10
56.5771534187869
20
3.71549578767912
30
0
41
1
10
56.5499946232699
20
3.70794981223742
30
0
41
1
10
56.5364977126281
20
3.70397401747619
30
0
41
1
10
56.5082822431257
20
3.69690008848957
30
0
41
1
10
56.493784579417
20
3.69327494629192
30
0
41
1
10
56.4792812624626
20
3.68965806786071
30
0
0
SPLINE
5
146
100
AcDbEntity
8
1
62
256
6
ByLayer
370
18
48
1
60
0
100
AcDbSpline
70
4
71
3
72
8
73
4
40
0
40
0
40
0
40
0
40
1
40
1
40
1
40
1
41
1
10
70.1328457648213
20
1.75929234274963
30
0
41
1
10
70.2450751643
20
1.76997865693247
30
0
41
1
10
70.3570590764946
20
1.78244111095057
30
0
41
1
10
70.4686527282444
20
1.79772716181915
30
0
0
SPLINE
5
147
100
AcDbEntity
8
1
62
256
6
ByLayer
370
18
48
1
60
0
100
AcDbSpline
70
4
71
3
72
18
73
14
40
0
40
0
40
0
40
0
40
0.249999999999995
40
0.249999999999995
40
0.374999999999996
40
0.374999999999996
40
0.499999999999996
40
0.499999999999996
40
0.624999999999997
40
0.624999999999997
40
0.749999999999998
40
0.749999999999998
40
1
40
1
40
1
40
1
41
1
10
69.3646581523674
20
-2.20558655029797
30
0
41
1
10
69.2760812707382
20
-2.02454836117104
30
0
41
1
10
69.188987677859
20
-1.84278960549807
30
0
41
1
10
69.0637621143164
20
-1.56752100485446
30
0
41
1
10
69.0231112558357
20
-1.47525941641342
30
0
41
1
10
68.9428549502368
20
-1.29040723887672
30
0
41
1
10
68.9032155711844
20
-1.19779460979186
30
0
41
1
10
68.8266161881944
20
-1.01154676911864
30
0
41
1
10
68.7894054007726
20
-0.91800726895255
30
0
41
1
10
68.71631831523
20
-0.730418961281259
30
0
41
1
10
68.6805935265033
20
-0.63631233027283
30
0
41
1
10
68.578245446027
20
-0.352150487126181
30
0
41
1
10
68.5135798529937
20
-0.16134812001016
30
0
41
1
10
68.455414247682
20
0.0319349649720095
30
0
0
SPLINE
5
148
100
AcDbEntity
8
1
62
256
6
ByLayer
370
18
48
1
60
0
100
AcDbSpline
70
4
71
3
72
8
73
4
40
0
40
0
40
0
40
0
40
1
40
1
40
1
40
1
41
1
10
64.8000000034351
20
1.4337598208979
30
0
41
1
10
64.7998302493187
20
1.43385696887054
30
0
41
1
10
64.7996605046521
20
1.43395413786422
30
0
41
1
10
64.7994907606347
20
1.4340513211227
30
0
0
SPLINE
5
149
100
AcDbEntity
8
1
62
256
6
ByLayer
370
18
48
1
60
0
100
AcDbSpline
70
4
71
3
72
8
73
4
40
0
40
0
40
0
40
0
40
1
40
1
40
1
40
1
41
1
10
56.8
20
3.65643927526895
30
0
41
1
10
56.8
20
3.63164397926045
30
0
41
1
10
56.8
20
3.60654747313177
30
0
41
1
10
56.8
20
3.58114965171583
30
0
0
SPLINE
5
14A
100
AcDbEntity
8
1
62
256
6
ByLayer
370
18
48
1
60
0
100
AcDbSpline
70
4
71
3
72
8
73
4
40
0
40
0
40
0
40
0
40
1
40
1
40
1
40
1
41
1
10
69.8086992614238
20
3.68835651851052
30
0
41
1
10
69.6682174151815
20
4.11024048980312
30
0
41
1
10
69.5257756695273
20
4.53438172334091
30
0
41
1
10
69.3813209782082
20
4.96084132780672
30
0
0
SPLINE
5
14B
100
AcDbEntity
8
1
62
256
6
ByLayer
370
18
48
1
60
0
100
AcDbSpline
70
4
71
3
72
18
73
14
40
0
40
0
40
0
40
0
40
0.249999999999996
40
0.249999999999996
40
0.374999999999997
40
0.374999999999997
40
0.499999999999997
40
0.499999999999997
40
0.624999999999998
40
0.624999999999998
40
0.749999999999999
40
0.749999999999999
40
1
40
1
40
1
40
1
41
1
10
66.3636101742703
20
0.805722541597447
30
0
41
1
10
66.452840233908
20
0.69578838370353
30
0
41
1
10
66.5408050522203
20
0.604479290312725
30
0
41
1
10
66.6706374813791
20
0.498646671747451
30
0
41
1
10
66.7135221656021
20
0.46872645771316
30
0
41
1
10
66.7962123082735
20
0.421466762339094
30
0
41
1
10
66.8363159484053
20
0.403863270148406
30
0
41
1
10
66.9139834187974
20
0.380985440289749
30
0
41
1
10
66.9515478748772
20
0.375708064669624
30
0
41
1
10
67.0239826588166
20
0.378231584985088
30
0
41
1
10
67.0589147905334
20
0.386099028595424
30
0
41
1
10
67.1566014318938
20
0.428378536592589
30
0
41
1
10
67.2133990154105
20
0.481345771595102
30
0
41
1
10
67.2617488028036
20
0.559453859313322
30
0
0
SPLINE
5
14C
100
AcDbEntity
8
1
62
256
6
ByLayer
370
18
48
1
60
0
100
AcDbSpline
70
4
71
3
72
12
73
8
40
0
40
0
40
0
40
0
40
0.419466637324917
40
0.419466637324917
40
0.709732979762396
40
0.709732979762396
40
1
40
1
40
1
40
1
41
1
10
64.7999999871506
20
-4.98078228492472
30
0
41
1
10
64.7874880296806
20
-4.9938870374537
30
0
41
1
10
64.774969375146
20
-5.00698898791853
30
0
41
1
10
64.7537769028843
20
-5.02915277550477
30
0
41
1
10
64.7451064801376
20
-5.03821602739961
30
0
41
1
10
64.7277594630995
20
-5.05634004014183
30
0
41
1
10
64.719082863727
20
-5.06540080627468
30
0
41
1
10
64.710403238617
20
-5.07446035223091
30
0
0
SPLINE
5
14D
100
AcDbEntity
8
1
62
256
6
ByLayer
370
18
48
1
60
0
100
AcDbSpline
70
4
71
1
72
4
73
2
40
0
40
0
40
1
40
1
41
1
10
56.2711104997853
20
-3.75305038884679
30
0
41
1
10
56.3626881053205
20
-3.66397386735855
30
0
0
SPLINE
5
14E
100
AcDbEntity
8
1
62
256
6
ByLayer
370
18
48
1
60
0
100
AcDbSpline
70
4
71
3
72
14
73
10
40
0
40
0
40
0
40
0
40
0.25
40
0.25
40
0.5
40
0.5
40
0.75
40
0.75
40
1
40
1
40
1
40
1
41
1
10
69.3813209782081
20
4.96084132780678
30
0
41
1
10
69.0449817160639
20
5.0122042488575
30
0
41
1
10
68.7091141186989
20
5.05686682083888
30
0
41
1
10
68.0373128571001
20
5.13234204521714
30
0
41
1
10
67.7015090423285
20
5.16326454915975
30
0
41
1
10
67.0304007278771
20
5.21150794995114
30
0
41
1
10
66.6948952462374
20
5.22871228127534
30
0
41
1
10
66.0227354036806
20
5.24905639280905
30
0
41
1
10
65.6862849185893
20
5.25226754457793
30
0
41
1
10
65.3494954838909
20
5.24843832636472
30
0
0
SPLINE
5
14F
100
AcDbEntity
8
1
62
256
6
ByLayer
370
18
48
1
60
0
100
AcDbSpline
70
4
71
4
72
10
73
5
40
0
40
0
40
0
40
0
40
0
40
1
40
1
40
1
40
1
40
1
41
1
10
64.8
20
5.03664613769826
30
0
41
1
10
64.8
20
4.76626759100498
30
0
41
1
10
64.8
20
4.49588904431167
30
0
41
1
10
64.8
20
4.22551049761836
30
0
41
1
10
64.8
20
3.95513195092505
30
0
0
SPLINE
5
150
100
AcDbEntity
8
1
62
256
6
ByLayer
370
18
48
1
60
0
100
AcDbSpline
70
4
71
3
72
8
73
4
40
0
40
0
40
0
40
0
40
1
40
1
40
1
40
1
41
1
10
57.9088141359816
20
4.0642124171396
30
0
41
1
10
57.8836895145437
20
3.9439849209208
30
0
41
1
10
57.8587781311166
20
3.82326786491538
30
0
41
1
10
57.8340880579253
20
3.70204271660751
30
0
0
SPLINE
5
151
100
AcDbEntity
8
1
62
256
6
ByLayer
370
18
48
1
60
0
100
AcDbSpline
70
4
71
3
72
8
73
4
40
0
40
0
40
0
40
0
40
1
40
1
40
1
40
1
41
1
10
56.2770608722845
20
3.76667130414882
30
0
41
1
10
56.2750743320603
20
3.76214284373162
30
0
41
1
10
56.2730908737042
20
3.75760254192164
30
0
41
1
10
56.2711104997853
20
3.75305038884679
30
0
0
SPLINE
5
152
100
AcDbEntity
8
1
62
256
6
ByLayer
370
18
48
1
60
0
100
AcDbSpline
70
4
71
3
72
8
73
4
40
0
40
0
40
0
40
0
40
1
40
1
40
1
40
1
41
1
10
69.5694044532462
20
1.71980365369376
30
0
41
1
10
69.7575388947522
20
1.72926629409198
30
0
41
1
10
69.9454313617415
20
1.74144702589422
30
0
41
1
10
70.1328457648214
20
1.75929234274963
30
0
0
SPLINE
5
153
100
AcDbEntity
8
1
62
256
6
ByLayer
370
18
48
1
60
0
100
AcDbSpline
70
4
71
2
72
6
73
3
40
0
40
0
40
0
40
1
40
1
40
1
41
0.499998984180808
10
64.81324469918
20
-0.154230471851815
30
0
41
0.500001015819192
10
65.5596304790696
20
-0.157470706832168
30
0
41
0.499998984180808
10
66.3061589936271
20
-0.160710817029238
30
0
0
SPLINE
5
154
100
AcDbEntity
8
1
62
256
6
ByLayer
370
18
48
1
60
0
100
AcDbSpline
70
4
71
3
72
8
73
4
40
0
40
0
40
0
40
0
40
1
40
1
40
1
40
1
41
1
10
14.05
20
-1.78600443311751
30
0
41
1
10
14.3653241222789
20
-1.85430472510612
30
0
41
1
10
14.6806530433323
20
-1.92179924811549
30
0
41
1
10
14.9960000000552
20
-1.98845038409584
30
0
0
SPLINE
5
155
100
AcDbEntity
8
1
62
256
6
ByLayer
370
18
48
1
60
0
100
AcDbSpline
70
4
71
3
72
48
73
44
40
0
40
0
40
0
40
0
40
0.125557156464243
40
0.125557156464243
40
0.251114312928487
40
0.251114312928487
40
0.37667146939273
40
0.37667146939273
40
0.439450047624852
40
0.439450047624852
40
0.470839336740913
40
0.470839336740913
40
0.502228625856974
40
0.502228625856974
40
0.627785782321218
40
0.627785782321218
40
0.753342938785461
40
0.753342938785461
40
0.816121517017583
40
0.816121517017583
40
0.878900095249705
40
0.878900095249705
40
0.910289384365766
40
0.910289384365766
40
0.925984028923796
40
0.925984028923796
40
0.941678673481826
40
0.941678673481826
40
0.949525995760841
40
0.949525995760841
40
0.953449656900349
40
0.953449656900349
40
0.955411487470103
40
0.955411487470103
40
0.95639240275498
40
0.95639240275498
40
0.956882860397419
40
0.956882860397419
40
0.957373318039858
40
0.957373318039858
40
0.973067962597923
40
0.973067962597923
40
1
40
1
40
1
40
1
41
1
10
13.0816263242913
20
-1.09557550367975
30
0
41
1
10
14.892914768115
20
-1.44936029628019
30
0
41
1
10
16.7042141626608
20
-1.78970446638886
30
0
41
1
10
20.3285974212006
20
-2.4352779458448
30
0
41
1
10
22.1399251133778
20
-2.74030723971811
30
0
41
1
10
25.7608515914145
20
-3.29657962747325
30
0
41
1
10
27.5707953979222
20
-3.54765903975058
30
0
41
1
10
30.2881179020753
20
-3.86343979196576
30
0
41
1
10
31.1946768489813
20
-3.95852396376725
30
0
41
1
10
32.5530133357919
20
-4.08287239458537
30
0
41
1
10
33.005662666557
20
-4.1215143084741
30
0
41
1
10
33.9110036208995
20
-4.19521804166411
30
0
41
1
10
34.3636537320702
20
-4.22998058630694
30
0
41
1
10
36.6268599278725
20
-4.3932841619646
30
0
41
1
10
38.4372398906883
20
-4.49084485214513
30
0
41
1
10
42.0597191461492
20
-4.60991621264765
30
0
41
1
10
43.8729341787617
20
-4.63114319303801
30
0
41
1
10
46.5910738722474
20
-4.59261518888627
30
0
41
1
10
47.4969337984385
20
-4.56804786875645
30
0
41
1
10
49.3088167131779
20
-4.49340271039634
30
0
41
1
10
50.2152271645166
20
-4.4433678400556
30
0
41
1
10
51.5733770130496
20
-4.34831648766968
30
0
41
1
10
52.0263644028916
20
-4.31414975510069
30
0
41
1
10
52.701176759291
20
-4.25000614894029
30
0
41
1
10
52.9254416767323
20
-4.22659757049428
30
0
41
1
10
53.372071566163
20
-4.17339309493477
30
0
41
1
10
53.5944636713523
20
-4.14375724767626
30
0
41
1
10
53.925709161325
20
-4.09041173868394
30
0
41
1
10
54.0357394125655
20
-4.07110739875549
30
0
41
1
10
54.1999051515412
20
-4.03836784302524
30
0
41
1
10
54.2544727285844
20
-4.02683414477639
30
0
41
1
10
54.3360491618975
20
-4.00811210089441
30
0
41
1
10
54.3631957231755
20
-4.00163060978377
30
0
41
1
10
54.4038496483251
20
-3.99141995018417
30
0
41
1
10
54.4173835185744
20
-3.98784018353027
30
0
41
1
10
54.4376880522377
20
-3.98259368668857
30
0
41
1
10
54.4445309152116
20
-3.98192339073171
30
0
41
1
10
54.4581440412002
20
-3.97957709919751
30
0
41
1
10
54.4649497105201
20
-3.97840481781014
30
0
41
1
10
54.6895130336088
20
-3.93973164425711
30
0
41
1
10
54.9071705447262
20
-3.90088411314841
30
0
41
1
10
55.4985496077504
20
-3.79051753546457
30
0
41
1
10
55.8722564990935
20
-3.71598168680319
30
0
41
1
10
56.2461502376443
20
-3.63657260633627
30
0
0
SPLINE
5
156
100
AcDbEntity
8
1
62
256
6
ByLayer
370
18
48
1
60
0
100
AcDbSpline
70
4
71
3
72
8
73
4
40
0
40
0
40
0
40
0
40
1
40
1
40
1
40
1
41
1
10
64.6
20
2.59999999999999
30
0
41
1
10
64.6666522870402
20
2.59999999999999
30
0
41
1
10
64.7333192887892
20
2.59999999999999
30
0
41
1
10
64.8
20
2.59999999999999
30
0
0
SPLINE
5
157
100
AcDbEntity
8
1
62
256
6
ByLayer
370
18
48
1
60
0
100
AcDbSpline
70
4
71
1
72
4
73
2
40
0
40
0
40
1
40
1
41
1
10
14.2923447672736
20
4.51773155245832
30
0
41
1
10
14.205270202715
20
3.95221082470863
30
0
0
SPLINE
5
158
100
AcDbEntity
8
1
62
256
6
ByLayer
370
18
48
1
60
0
100
AcDbSpline
70
4
71
3
72
50
73
46
40
0
40
0
40
0
40
0
40
0.0312499999999927
40
0.0312499999999927
40
0.0322265624999929
40
0.0322265624999929
40
0.0332031249999931
40
0.0332031249999931
40
0.0351562499999934
40
0.0390624999999933
40
0.0468749999999929
40
0.0468749999999929
40
0.0624999999999923
40
0.0624999999999923
40
0.0937499999999918
40
0.0937499999999918
40
0.109374999999992
40
0.109374999999992
40
0.113281249999991
40
0.113281249999991
40
0.117187499999991
40
0.117187499999991
40
0.12499999999999
40
0.12499999999999
40
0.187499999999992
40
0.187499999999992
40
0.249999999999993
40
0.249999999999993
40
0.312499999999993
40
0.312499999999993
40
0.374999999999994
40
0.374999999999994
40
0.499999999999996
40
0.499999999999996
40
0.562499999999996
40
0.562499999999996
40
0.624999999999997
40
0.624999999999997
40
0.687499999999997
40
0.687499999999997
40
0.749999999999998
40
0.749999999999998
40
0.874999999999999
40
0.874999999999999
40
1
40
1
40
1
40
1
41
1
10
57.9088141360082
20
-4.06421241714614
30
0
41
1
10
57.4736568084663
20
-3.95718730826366
30
0
41
1
10
57.0388680936719
20
-3.84335238072612
30
0
41
1
10
56.5907330406197
20
-3.71926243671132
30
0
41
1
10
56.5771534188128
20
-3.71549578768631
30
0
41
1
10
56.5499946232959
20
-3.70794981224461
30
0
41
1
10
56.5364977126543
20
-3.70397401748281
30
0
41
1
10
56.495327309563
20
-3.69365214395177
30
0
41
1
10
56.4129255756964
20
-3.67309623108676
30
0
41
1
10
56.2202296046864
20
-3.62576175247489
30
0
41
1
10
56.0543705238926
20
-3.58623449525564
30
0
41
1
10
55.7218258433674
20
-3.50847267683218
30
0
41
1
10
55.4990296844146
20
-3.4583556379151
30
0
41
1
10
54.8279800849319
20
-3.31238795539025
30
0
41
1
10
54.3771034943907
20
-3.22087330714444
30
0
41
1
10
53.6972617275875
20
-3.08976762614518
30
0
41
1
10
53.470049755533
20
-3.04710438458017
30
0
41
1
10
53.185407632493
20
-2.99488303088148
30
0
41
1
10
53.1284476840808
20
-2.98449443637995
30
0
41
1
10
53.0144675975703
20
-2.96382361177217
30
0
41
1
10
52.9573182991654
20
-2.95390752546516
30
0
41
1
10
52.7866943788044
20
-2.92173164673679
30
0
41
1
10
52.6728758215108
20
-2.90034363118642
30
0
41
1
10
51.6486510019903
20
-2.70625015610216
30
0
41
1
10
50.7369463339667
20
-2.52753954403315
30
0
41
1
10
48.913773796202
20
-2.16097213103279
30
0
41
1
10
48.0022763199283
20
-1.97313140144399
30
0
41
1
10
46.1789354039417
20
-1.59074579094872
30
0
41
1
10
45.2670975185491
20
-1.39617913615592
30
0
41
1
10
43.4426421069
20
-1.00237021765281
30
0
41
1
10
42.5297116184286
20
-0.803036122319327
30
0
41
1
10
39.7936025211108
20
-0.201542785029318
30
0
41
1
10
37.9719818108234
20
0.204288495372168
30
0
41
1
10
35.2415704976418
20
0.812379032970995
30
0
41
1
10
34.33185721233
20
1.01534748483795
30
0
41
1
10
32.5125405414324
20
1.41837538719972
30
0
41
1
10
31.6023429915298
20
1.61580547077958
30
0
41
1
10
29.780361736578
20
2.00036802999483
30
0
41
1
10
28.8680653119362
20
2.18758024640144
30
0
41
1
10
27.0442211836056
20
2.54925974241496
30
0
41
1
10
26.1328270426312
20
2.72369306266003
30
0
41
1
10
23.3995754502553
20
3.22569887232601
30
0
41
1
10
21.578601156879
20
3.53189958051695
30
0
41
1
10
17.9362929995254
20
4.07765521205306
30
0
41
1
10
16.1149793163362
20
4.31738594493242
30
0
41
1
10
14.2923447672735
20
4.51773155245832
30
0
0
SPLINE
5
159
100
AcDbEntity
8
1
62
256
6
ByLayer
370
13
48
1
60
0
100
AcDbSpline
70
4
71
3
72
13
73
9
40
0
40
0
40
0
40
0
40
0.265003523256914
40
0.397505284885371
40
0.530007046513828
40
0.795010569770743
40
0.9275123313992
40
1
40
1
40
1
40
1
41
1
10
64.8
20
3.95513195092505
30
0
41
1
10
65.2425754572426
20
3.96721297083246
30
0
41
1
10
65.906352317342
20
3.96905632713362
30
0
41
1
10
66.7910324803918
20
3.94369708153465
30
0
41
1
10
67.6760702795822
20
3.9027601077523
30
0
41
1
10
68.5609469288326
20
3.83128780004259
30
0
41
1
10
69.3454524126412
20
3.74645677027814
30
0
41
1
10
69.6876795643768
20
3.70402306508015
30
0
41
1
10
69.8086992548782
20
3.68835652157316
30
0
0
SPLINE
5
15A
100
AcDbEntity
8
1
62
256
6
ByLayer
370
18
48
1
60
0
100
AcDbSpline
70
4
71
3
72
10
73
6
40
0
40
0
40
0
40
0
40
0.150737492891863
40
0.605333091718294
40
1
40
1
40
1
40
1
41
1
10
64.8140376143637
20
-4.78653858919682
30
0
41
1
10
64.812637618901
20
-4.78917859342965
30
0
41
1
10
64.8074107883484
20
-4.79974496343999
30
0
41
1
10
64.8013589127167
20
-4.81696510035928
30
0
41
1
10
64.8004311481659
20
-4.83089148343919
30
0
41
1
10
64.8000000000064
20
-4.83736331341834
30
0
0
SPLINE
5
15B
100
AcDbEntity
8
1
62
256
6
ByLayer
370
18
48
1
60
0
100
AcDbSpline
70
4
71
3
72
8
73
4
40
0
40
0
40
0
40
0
40
1
40
1
40
1
40
1
41
1
10
56.2770608722845
20
-3.76667130414884
30
0
41
1
10
56.2750743320603
20
-3.76214284373165
30
0
41
1
10
56.2730908737042
20
-3.75760254192164
30
0
41
1
10
56.2711104997853
20
-3.75305038884679
30
0
0
SPLINE
5
15C
100
AcDbEntity
8
1
62
256
6
ByLayer
370
18
48
1
60
0
100
AcDbSpline
70
4
71
3
72
16
73
12
40
0
40
0
40
0
40
0
40
0.25
40
0.25
40
0.5
40
0.5
40
0.75
40
0.75
40
0.875
40
0.875
40
1
40
1
40
1
40
1
41
1
10
70.1377714425275
20
-1.57272143171389
30
0
41
1
10
70.1922840938677
20
-1.52763419401046
30
0
41
1
10
70.2475578149387
20
-1.47516219259848
30
0
41
1
10
70.3600209079534
20
-1.35163036730458
30
0
41
1
10
70.4178397447305
20
-1.27957087952512
30
0
41
1
10
70.5304969712067
20
-1.11832802182119
30
0
41
1
10
70.5857767078255
20
-1.02887955655655
30
0
41
1
10
70.6667501094051
20
-0.878328185027442
30
0
41
1
10
70.6929606979398
20
-0.826184339828757
30
0
41
1
10
70.7428454761542
20
-0.719992454002295
30
0
41
1
10
70.7666821340103
20
-0.665644899478195
30
0
41
1
10
70.7894263011327
20
-0.610060720696936
30
0
0
SPLINE
5
15D
100
AcDbEntity
8
1
62
256
6
ByLayer
370
18
48
1
60
0
100
AcDbSpline
70
4
71
1
72
4
73
2
40
0
40
0
40
1
40
1
41
1
10
67.23945639415
20
-2.25980064021289
30
0
41
1
10
67.2436268725536
20
-2.31029656270539
30
0
0
SPLINE
5
15E
100
AcDbEntity
8
1
62
256
6
ByLayer
370
18
48
1
60
0
100
AcDbSpline
70
4
71
3
72
24
73
20
40
0
40
0
40
0
40
0
40
0.0616876786268593
40
0.12300852022615
40
0.183964178361535
40
0.2445563364971
40
0.30478670857964
40
0.364657039629996
40
0.424169106343316
40
0.483324717698159
40
0.542125715574316
40
0.600573975379178
40
0.658671406682509
40
0.716419953859393
40
0.773821596741161
40
0.830878351274001
40
0.887592270185008
40
0.943965443655319
40
1
40
1
40
1
40
1
41
1
10
67.5053845683827
20
-3.78145960244817
30
0
41
1
10
67.4956811562826
20
-3.7558666785915
30
0
41
1
10
67.4763320351913
20
-3.70483302386586
30
0
41
1
10
67.4481237051403
20
-3.62615187139491
30
0
41
1
10
67.4206241296029
20
-3.54627337400987
30
0
41
1
10
67.393884670224
20
-3.46508759722187
30
0
41
1
10
67.3678916880222
20
-3.38270036057551
30
0
41
1
10
67.3426488052187
20
-3.29915964757649
30
0
41
1
10
67.3181550608539
20
-3.21452820855836
30
0
41
1
10
67.294410709042
20
-3.12886423751479
30
0
41
1
10
67.2714156887741
20
-3.04222644273074
30
0
41
1
10
67.2491699950309
20
-2.95467271295817
30
0
41
1
10
67.2276737105278
20
-2.86626022231721
30
0
41
1
10
67.2069265154059
20
-2.77704613105823
30
0
41
1
10
67.1869295996689
20
-2.687084520279
30
0
41
1
10
67.167678563763
20
-2.5964376790667
30
0
41
1
10
67.1491896826774
20
-2.50513420563496
30
0
41
1
10
67.1314027666772
20
-2.41332385241429
30
0
41
1
10
67.1201273881762
20
-2.35139199295193
30
0
41
1
10
67.1145066819048
20
-2.32051934500962
30
0
0
SPLINE
5
15F
100
AcDbEntity
8
1
62
256
6
ByLayer
370
13
48
1
60
0
100
AcDbSpline
70
4
71
3
72
8
73
4
40
0
40
0
40
0
40
0
40
1
40
1
40
1
40
1
41
1
10
70.4948515798473
20
0.519959598094374
30
0
41
1
10
70.4781473046738
20
0.51247412879718
30
0
41
1
10
70.4607827237963
20
0.498111415087863
30
0
41
1
10
70.4466407870339
20
0.480083149594719
30
0
0
SPLINE
5
160
100
AcDbEntity
8
1
62
256
6
ByLayer
370
18
48
1
60
0
100
AcDbSpline
70
4
71
3
72
10
73
6
40
0
40
0
40
0
40
0
40
0.5
40
0.5
40
1
40
1
40
1
40
1
41
1
10
13
20
4.42788787862295
30
0
41
1
10
13.1736313859499
20
4.46114512612456
30
0
41
1
10
13.3479952219823
20
4.48644731281931
30
0
41
1
10
13.6980061632267
20
4.52292152133839
30
0
41
1
10
13.8736533273087
20
4.53409358536572
30
0
41
1
10
14.05
20
4.53760216675454
30
0
0
SPLINE
5
161
100
AcDbEntity
8
1
62
256
6
ByLayer
370
18
48
1
60
0
100
AcDbSpline
70
4
71
3
72
66
73
62
40
0
40
0
40
0
40
0
40
0.125000000000004
40
0.125000000000004
40
0.187500000000006
40
0.187500000000006
40
0.250000000000008
40
0.250000000000008
40
0.312500000000011
40
0.312500000000011
40
0.328125000000011
40
0.328125000000011
40
0.343750000000012
40
0.343750000000012
40
0.375000000000012
40
0.375000000000012
40
0.390625000000012
40
0.390625000000012
40
0.406250000000012
40
0.406250000000012
40
0.437500000000012
40
0.437500000000012
40
0.468750000000012
40
0.468750000000012
40
0.484375000000012
40
0.484375000000012
40
0.500000000000012
40
0.500000000000012
40
0.515625000000013
40
0.515625000000013
40
0.531250000000013
40
0.531250000000013
40
0.546875000000013
40
0.546875000000013
40
0.562500000000013
40
0.562500000000013
40
0.578125000000013
40
0.578125000000013
40
0.593750000000014
40
0.593750000000014
40
0.609375000000014
40
0.609375000000014
40
0.625000000000014
40
0.625000000000014
40
0.656250000000013
40
0.656250000000013
40
0.671875000000013
40
0.671875000000013
40
0.687500000000012
40
0.687500000000012
40
0.750000000000008
40
0.750000000000008
40
0.781250000000007
40
0.781250000000007
40
0.812500000000006
40
0.812500000000006
40
0.875000000000004
40
0.875000000000004
40
0.937500000000002
40
0.937500000000002
40
1
40
1
40
1
40
1
41
1
10
10.3772319574651
20
-0.0831772170926399
30
0
41
1
10
9.83146530860745
20
0.134745760989574
30
0
41
1
10
9.30485399118706
20
0.342867609198635
30
0
41
1
10
8.50357657961871
20
0.661177501029869
30
0
41
1
10
8.23407078964976
20
0.768547281217764
30
0
41
1
10
7.68491930027847
20
0.990237716948343
30
0
41
1
10
7.40545336406421
20
1.10429431961649
30
0
41
1
10
6.82964164692174
20
1.3484489088589
30
0
41
1
10
6.53319025652664
20
1.47797463046607
30
0
41
1
10
6.14823160077628
20
1.66464560712947
30
0
41
1
10
6.0705286654906
20
1.70328450260192
30
0
41
1
10
5.91366069223113
20
1.78391847718109
30
0
41
1
10
5.83417172958664
20
1.82609105110223
30
0
41
1
10
5.59592170106649
20
1.95781623736747
30
0
41
1
10
5.43858669306798
20
2.05172975747217
30
0
41
1
10
5.20774498163956
20
2.20697370744958
30
0
41
1
10
5.13167198050428
20
2.26113925201059
30
0
41
1
10
4.98200461390553
20
2.37557636922892
30
0
41
1
10
4.90837112171403
20
2.43595197883027
30
0
41
1
10
4.69770541398088
20
2.62385235473096
30
0
41
1
10
4.56880513124906
20
2.75945423528376
30
0
41
1
10
4.34482553972558
20
3.05960098216229
30
0
41
1
10
4.25455517310843
20
3.21767271641224
30
0
41
1
10
4.15775984994744
20
3.47080182914559
30
0
41
1
10
4.13246974047345
20
3.55700418296371
30
0
41
1
10
4.09730955658492
20
3.72893104166749
30
0
41
1
10
4.08717658601054
20
3.81529719103742
30
0
41
1
10
4.08233751902037
20
3.9889535370493
30
0
41
1
10
4.08784664365623
20
4.07657471223595
30
0
41
1
10
4.11403778755476
20
4.24592149654831
30
0
41
1
10
4.134625477024
20
4.32850279903946
30
0
41
1
10
4.19032254994423
20
4.4894036715402
30
0
41
1
10
4.22573270464986
20
4.56801224745263
30
0
41
1
10
4.30814873756276
20
4.71577155480409
30
0
41
1
10
4.35531851475199
20
4.78558829996857
30
0
41
1
10
4.46053021507814
20
4.9173068988982
30
0
41
1
10
4.5189147565693
20
4.9794201620995
30
0
41
1
10
4.64258770960004
20
5.09288514654025
30
0
41
1
10
4.70813572589088
20
5.14464769802481
30
0
41
1
10
4.84551603479682
20
5.2389655263579
30
0
41
1
10
4.91775136601154
20
5.28170661296721
30
0
41
1
10
5.06553548493707
20
5.35743557979876
30
0
41
1
10
5.14085809109037
20
5.39039039600743
30
0
41
1
10
5.36991861761547
20
5.47641059178221
30
0
41
1
10
5.52668938154858
20
5.51669677128123
30
0
41
1
10
5.76474081553459
20
5.5569527389508
30
0
41
1
10
5.84454629478822
20
5.56695322423531
30
0
41
1
10
6.00252947646774
20
5.58083102916694
30
0
41
1
10
6.08101725959756
20
5.58476584736465
30
0
41
1
10
6.47080107898336
20
5.5917385463101
30
0
41
1
10
6.77386457937479
20
5.55771764216467
30
0
41
1
10
7.21716066629037
20
5.47543681663694
30
0
41
1
10
7.36263855186917
20
5.44267624961063
30
0
41
1
10
7.64879106866641
20
5.36992724650429
30
0
41
1
10
7.78970257055227
20
5.32988219661326
30
0
41
1
10
8.20775912999
20
5.20225494700884
30
0
41
1
10
8.4802746831754
20
5.10729760272207
30
0
41
1
10
9.02127967302422
20
4.91134778666333
30
0
41
1
10
9.28964395873805
20
4.81031285040265
30
0
41
1
10
9.82948422475712
20
4.61256899456774
30
0
41
1
10
10.1009495623716
20
4.5158516615694
30
0
41
1
10
10.3772319574651
20
4.42555551319288
30
0
0
SPLINE
5
162
100
AcDbEntity
8
1
62
256
6
ByLayer
370
18
48
1
60
0
100
AcDbSpline
70
4
71
3
72
12
73
8
40
0
40
0
40
0
40
0
40
0.500000000000003
40
0.500000000000003
40
0.750000000000002
40
0.750000000000002
40
1
40
1
40
1
40
1
41
1
10
70.4686527282444
20
1.79772716181918
30
0
41
1
10
70.3553774066947
20
2.10895398648674
30
0
41
1
10
70.2435341306527
20
2.42238665821196
30
0
41
1
10
70.0780339824464
20
2.89602419118128
30
0
41
1
10
70.0232487380977
20
3.05449096767217
30
0
41
1
10
69.9145244368382
20
3.37272794296851
30
0
41
1
10
69.8609091972276
20
3.53156375153054
30
0
41
1
10
69.8086992562463
20
3.68835651744763
30
0
0
SPLINE
5
163
100
AcDbEntity
8
1
62
256
6
ByLayer
370
18
48
1
60
0
100
AcDbSpline
70
4
71
4
72
10
73
5
40
0
40
0
40
0
40
0
40
0
40
1
40
1
40
1
40
1
40
1
41
0.999491899151484
10
64.8
20
1.45002572358147
30
0
41
0.999516004551789
10
64.8
20
1.44593225453139
30
0
41
0.999539540873316
10
64.8
20
1.44186503895389
30
0
41
0.999562480600183
10
64.8
20
1.43782410685633
30
0
41
0.999584795554458
10
64.8
20
1.43380948480768
30
0
0
SPLINE
5
164
100
AcDbEntity
8
1
62
256
6
ByLayer
370
18
48
1
60
0
100
AcDbSpline
70
4
71
3
72
22
73
18
40
0
40
0
40
0
40
0
40
0.0284447931215694
40
0.0568793477073342
40
0.0853743593994349
40
0.114000075918996
40
0.142825789427421
40
0.213802496218677
40
0.284579220458358
40
0.355720219803818
40
0.426187286264459
40
0.566790245357067
40
0.706622961865104
40
0.776268323870574
40
0.846369741780548
40
0.985409952614971
40
1
40
1
40
1
40
1
41
1
10
64.6999824289972
20
-4.93314384465617
30
0
41
1
10
64.7002123959232
20
-4.92874232241888
30
0
41
1
10
64.7006722470001
20
-4.91994086224636
30
0
41
1
10
64.7042463677881
20
-4.90627534062676
30
0
41
1
10
64.709932425904
20
-4.89229607993553
30
0
41
1
10
64.7179399362161
20
-4.87797179524432
30
0
41
1
10
64.7331669857315
20
-4.85622831399789
30
0
41
1
10
64.7608537590406
20
-4.82667379799335
30
0
41
1
10
64.8085589455531
20
-4.7895263243197
30
0
41
1
10
64.8683782262074
20
-4.75304090412646
30
0
41
1
10
64.9634597237366
20
-4.70681973878044
30
0
41
1
10
65.1090087193625
20
-4.6558912327877
30
0
41
1
10
65.2832693855364
20
-4.62254832646136
30
0
41
1
10
65.4308811312424
20
-4.61077867533959
30
0
41
1
10
65.5802777859338
20
-4.60952597727328
30
0
41
1
10
65.6994852068507
20
-4.62134026231598
30
0
41
1
10
65.7752782719653
20
-4.63506096630809
30
0
41
1
10
65.7824762316921
20
-4.6363640020754
30
0
0
SPLINE
5
165
100
AcDbEntity
8
1
62
256
6
ByLayer
370
18
48
1
60
0
100
AcDbSpline
70
4
71
3
72
8
73
4
40
0
40
0
40
0
40
0
40
1
40
1
40
1
40
1
41
1
10
69.2267132293183
20
5.13745359058723
30
0
41
1
10
69.1745407389032
20
5.14641738561593
30
0
41
1
10
69.1239740073495
20
5.15066532837548
30
0
41
1
10
69.075065301827
20
5.15004391870019
30
0
0
SPLINE
5
166
100
AcDbEntity
8
1
62
256
6
ByLayer
370
18
48
1
60
0
100
AcDbSpline
70
4
71
3
72
8
73
4
40
0
40
0
40
0
40
0
40
1
40
1
40
1
40
1
41
1
10
66.0895431006836
20
0.673361912831979
30
0
41
1
10
66.1342468662551
20
0.66875151038073
30
0
41
1
10
66.1789505927425
20
0.664429662582933
30
0
41
1
10
66.223654279697
20
0.660395523833387
30
0
0
SPLINE
5
167
100
AcDbEntity
8
1
62
256
6
ByLayer
370
18
48
1
60
0
100
AcDbSpline
70
4
71
3
72
14
73
10
40
0
40
0
40
0
40
0
40
0.25
40
0.25
40
0.5
40
0.5
40
0.75
40
0.75
40
1
40
1
40
1
40
1
41
1
10
70.8689378546455
20
-0.492605927356948
30
0
41
1
10
70.8510424753422
20
-0.564559814167893
30
0
41
1
10
70.828894217909
20
-0.647252145919339
30
0
41
1
10
70.7769781353026
20
-0.830805246503502
30
0
41
1
10
70.7472118259544
20
-0.931660597770787
30
0
41
1
10
70.6812546388506
20
-1.14749023160272
30
0
41
1
10
70.6450655334452
20
-1.26245871457536
30
0
41
1
10
70.56771546185
20
-1.50189919439603
30
0
41
1
10
70.5265573114496
20
-1.62636257283776
30
0
41
1
10
70.4837379218504
20
-1.75308358108941
30
0
0
SPLINE
5
168
100
AcDbEntity
8
1
62
256
6
ByLayer
370
18
48
1
60
0
100
AcDbSpline
70
4
71
4
72
10
73
5
40
0
40
0
40
0
40
0
40
0
40
1
40
1
40
1
40
1
40
1
41
1
10
64.8
20
3.95513195092505
30
0
41
1
10
64.8
20
3.2252927059252
30
0
41
0.990150037758601
10
64.8
20
2.44070472858431
30
0
41
0.997260080063387
10
64.8
20
1.82988039233082
30
0
41
0.999491899151485
10
64.8
20
1.45002572358147
30
0
0
SPLINE
5
169
100
AcDbEntity
8
1
62
256
6
ByLayer
370
18
48
1
60
0
100
AcDbSpline
70
4
71
3
72
12
73
8
40
0
40
0
40
0
40
0
40
0.500000000000003
40
0.500000000000003
40
0.750000000000002
40
0.750000000000002
40
1
40
1
40
1
40
1
41
1
10
70.4686527282444
20
-1.79772716181918
30
0
41
1
10
70.3553774066947
20
-2.10895398648674
30
0
41
1
10
70.2435341306527
20
-2.42238665821196
30
0
41
1
10
70.0780339824465
20
-2.89602419118128
30
0
41
1
10
70.0232487380976
20
-3.05449096767217
30
0
41
1
10
69.9145244368382
20
-3.37272794296851
30
0
41
1
10
69.8609091972276
20
-3.53156375153054
30
0
41
1
10
69.8086992562463
20
-3.68835651744763
30
0
0
SPLINE
5
16A
100
AcDbEntity
8
1
62
256
6
ByLayer
370
18
48
1
60
0
100
AcDbSpline
70
4
71
3
72
8
73
4
40
0
40
0
40
0
40
0
40
1
40
1
40
1
40
1
41
1
10
67.2617488028056
20
0.55945385930832
30
0
41
1
10
67.2599384896187
20
0.560617327523261
30
0
41
1
10
67.2581282595003
20
0.561781764323058
30
0
41
1
10
67.2563181131365
20
0.562947168579996
30
0
0
SPLINE
5
16B
100
AcDbEntity
8
1
62
256
6
ByLayer
370
18
48
1
60
0
100
AcDbSpline
70
4
71
3
72
22
73
18
40
0
40
0
40
0
40
0
40
0.0033884681036724
40
0.0033884681036724
40
0.202710774482939
40
0.202710774482939
40
0.302371927672573
40
0.302371927672573
40
0.402033080862206
40
0.402033080862206
40
0.601355387241472
40
0.601355387241472
40
0.701016540431104
40
0.701016540431104
40
0.800677693620736
40
0.800677693620736
40
1
40
1
40
1
40
1
41
1
10
41.979045117865
20
-0.68385800780672
30
0
41
1
10
41.947689864327
20
-0.677789203326995
30
0
41
1
10
41.9163349314049
20
-0.671718165667613
30
0
41
1
10
40.0405854872156
20
-0.30839413695665
30
0
41
1
10
38.1967874442402
20
0.0567228517687681
30
0
41
1
10
35.4287002608315
20
0.600898666323445
30
0
41
1
10
34.5052118260675
20
0.781654213615894
30
0
41
1
10
32.6598794001562
20
1.13745635716268
30
0
41
1
10
31.7373204260235
20
1.31226549806362
30
0
41
1
10
28.9694825640142
20
1.82608641068609
30
0
41
1
10
27.1241862313953
20
2.15492789221182
30
0
41
1
10
24.3543850280103
20
2.61694662761451
30
0
41
1
10
23.4309362649565
20
2.76565133131896
30
0
41
1
10
21.5852576901429
20
3.04926889385047
30
0
41
1
10
20.6627609685532
20
3.18425888710504
30
0
41
1
10
17.8956544539255
20
3.563645234793
30
0
41
1
10
16.0514963590787
20
3.78271984602822
30
0
41
1
10
14.205270202715
20
3.95221082470872
30
0
0
SPLINE
5
16C
100
AcDbEntity
8
1
62
256
6
ByLayer
370
18
48
1
60
0
100
AcDbSpline
70
4
71
3
72
10
73
6
40
0
40
0
40
0
40
0
40
0.5
40
0.5
40
1
40
1
40
1
40
1
41
1
10
57.9432660462279
20
-4.00321207634261
30
0
41
1
10
59.0717060621349
20
-4.2886465648939
30
0
41
1
10
60.1947159214237
20
-4.52497147154267
30
0
41
1
10
62.4427257190264
20
-4.88743096345445
30
0
41
1
10
63.5685545591066
20
-5.01316796434622
30
0
41
1
10
64.7000000000026
20
-5.08342915992642
30
0
0
SPLINE
5
16D
100
AcDbEntity
8
1
62
256
6
ByLayer
370
18
48
1
60
0
100
AcDbSpline
70
4
71
3
72
8
73
4
40
0
40
0
40
0
40
0
40
1
40
1
40
1
40
1
41
1
10
69.2518588169393
20
5.11405377206373
30
0
41
1
10
69.2428044163028
20
5.1238405509192
30
0
41
1
10
69.2344219851312
20
5.13164217030049
30
0
41
1
10
69.2267132293184
20
5.13745359058726
30
0
0
SPLINE
5
16E
100
AcDbEntity
8
1
62
256
6
ByLayer
370
18
48
1
60
0
100
AcDbSpline
70
4
71
3
72
10
73
6
40
0
40
0
40
0
40
0
40
0.5
40
0.5
40
1
40
1
40
1
40
1
41
1
10
58.7075939025448
20
3.79712667558215
30
0
41
1
10
58.6637387672363
20
3.81032582426533
30
0
41
1
10
58.6159144091127
20
3.81877808470421
30
0
41
1
10
58.5092957577886
20
3.82339951631991
30
0
41
1
10
58.4523180929539
20
3.81931335624535
30
0
41
1
10
58.3929028511122
20
3.80893984040932
30
0
0
SPLINE
5
16F
100
AcDbEntity
8
1
62
256
6
ByLayer
370
18
48
1
60
0
100
AcDbSpline
70
4
71
3
72
8
73
4
40
0
40
0
40
0
40
0
40
1
40
1
40
1
40
1
41
1
10
69.2267132293184
20
-5.13745359058728
30
0
41
1
10
69.2551342973521
20
-5.11602772429279
30
0
41
1
10
69.2927125690393
20
-5.06754927519987
30
0
41
1
10
69.3393625534034
20
-4.99227080422219
30
0
0
SPLINE
5
170
100
AcDbEntity
8
1
62
256
6
ByLayer
370
18
48
1
60
0
100
AcDbSpline
70
4
71
3
72
12
73
8
40
0
40
0
40
0
40
0
40
0.5
40
0.5
40
0.75
40
0.75
40
1
40
1
40
1
40
1
41
1
10
14.2054182282337
20
3.9536525570818
30
0
41
1
10
13.9399752667213
20
3.97721083709971
30
0
41
1
10
13.6730524103912
20
3.98047739726965
30
0
41
1
10
13.2704934298128
20
3.95527214897146
30
0
41
1
10
13.1356991848712
20
3.94164489068751
30
0
41
1
10
12.8735963223426
20
3.90477006463038
30
0
41
1
10
12.7452332486432
20
3.88148914880617
30
0
41
1
10
12.6195369352663
20
3.85327241301221
30
0
0
SPLINE
5
171
100
AcDbEntity
8
1
62
256
6
ByLayer
370
18
48
1
60
0
100
AcDbSpline
70
4
71
3
72
8
73
4
40
0
40
0
40
0
40
0
40
1
40
1
40
1
40
1
41
1
10
13
20
-1.46774850215061
30
0
41
1
10
12.9948337230384
20
-1.4666195033256
30
0
41
1
10
12.9896661105936
20
-1.46549883644386
30
0
41
1
10
12.9844972357366
20
-1.46438651392506
30
0
0
SPLINE
5
172
100
AcDbEntity
8
1
62
256
6
ByLayer
370
18
48
1
60
0
100
AcDbSpline
70
4
71
3
72
8
73
4
40
0
40
0
40
0
40
0
40
1
40
1
40
1
40
1
41
1
10
58.3929028511159
20
3.80893984041708
30
0
41
1
10
58.3951352891551
20
3.81358220003102
30
0
41
1
10
58.3973674974941
20
3.81822552528439
30
0
41
1
10
58.3995994762051
20
3.82286981491296
30
0
0
SPLINE
5
173
100
AcDbEntity
8
1
62
256
6
ByLayer
370
18
48
1
60
0
100
AcDbSpline
70
4
71
3
72
10
73
6
40
0
40
0
40
0
40
0
40
0.5
40
0.5
40
1
40
1
40
1
40
1
41
1
10
68.455414248817
20
0.0319349655665633
30
0
41
1
10
68.429004616318
20
0.119693619747778
30
0
41
1
10
68.40471125417
20
0.20784742406704
30
0
41
1
10
68.3608057104291
20
0.385029100953545
30
0
41
1
10
68.3418297912609
20
0.474175776829384
30
0
41
1
10
68.324908637732
20
0.563706118197587
30
0
0
SPLINE
5
174
100
AcDbEntity
8
1
62
256
6
ByLayer
370
13
48
1
60
0
100
AcDbSpline
70
4
71
3
72
18
73
14
40
0
40
0
40
0
40
0
40
0.25
40
0.25
40
0.5
40
0.5
40
0.625
40
0.625
40
0.75
40
0.75
40
0.875
40
0.875
40
1
40
1
40
1
40
1
41
1
10
70.4719507697274
20
0.534589069800859
30
0
41
1
10
70.3733969798278
20
0.598691906875558
30
0
41
1
10
70.277878883076
20
0.670412669763323
30
0
41
1
10
70.095885905707
20
0.830949351090254
30
0
41
1
10
70.0094749485613
20
0.91982752845442
30
0
41
1
10
69.8909581222428
20
1.06640989823427
30
0
41
1
10
69.853195518623
20
1.11757858597443
30
0
41
1
10
69.7817489860091
20
1.22525050981162
30
0
41
1
10
69.7479450125037
20
1.28192940730389
30
0
41
1
10
69.6863338541081
20
1.39922215787701
30
0
41
1
10
69.6583512978316
20
1.46003606138782
30
0
41
1
10
69.6087648393773
20
1.58656121854452
30
0
41
1
10
69.5870915422531
20
1.65239754995898
30
0
41
1
10
69.569404454927
20
1.71980363570992
30
0
0
SPLINE
5
175
100
AcDbEntity
8
1
62
256
6
ByLayer
370
18
48
1
60
0
100
AcDbSpline
70
4
71
3
72
8
73
4
40
0
40
0
40
0
40
0
40
1
40
1
40
1
40
1
41
1
10
13.0814974835742
20
-1.09543046837746
30
0
41
1
10
12.959040363355
20
-1.07140522883463
30
0
41
1
10
12.8395479397479
20
-1.03982060806095
30
0
41
1
10
12.7228985067961
20
-1.00091777034743
30
0
0
SPLINE
5
176
100
AcDbEntity
8
1
62
256
6
ByLayer
370
18
48
1
60
0
100
AcDbSpline
70
4
71
3
72
10
73
6
40
0
40
0
40
0
40
0
40
0.283632202397562
40
0.283632202397562
40
1
40
1
40
1
40
1
41
1
10
66.5442302629903
20
5.24999818662209
30
0
41
1
10
66.8052167569509
20
5.24999415612865
30
0
41
1
10
67.0661063485736
20
5.24576298592902
30
0
41
1
10
67.9860972977221
20
5.21592830973145
30
0
41
1
10
68.6457213810687
20
5.16778141379746
30
0
41
1
10
69.3046694115069
20
5.09313666630237
30
0
0
SPLINE
5
177
100
AcDbEntity
8
1
62
256
6
ByLayer
370
13
48
1
60
0
100
AcDbSpline
70
4
71
3
72
8
73
4
40
0
40
0
40
0
40
0
40
1
40
1
40
1
40
1
41
1
10
70.4719507697274
20
0.534589069800859
30
0
41
1
10
70.4552652064079
20
0.527148928258669
30
0
41
1
10
70.4379341888849
20
0.513054254661768
30
0
41
1
10
70.4237467579084
20
0.495386535284382
30
0
0
SPLINE
5
178
100
AcDbEntity
8
1
62
256
6
ByLayer
370
18
48
1
60
0
100
AcDbSpline
70
4
71
3
72
18
73
14
40
0
40
0
40
0
40
0
40
0.125000000000008
40
0.125000000000008
40
0.250000000000016
40
0.250000000000016
40
0.50000000000002
40
0.50000000000002
40
0.625000000000015
40
0.625000000000015
40
0.75000000000001
40
0.75000000000001
40
1
40
1
40
1
40
1
41
1
10
68.3249086377273
20
0.563706118197302
30
0
41
1
10
68.3562029275453
20
0.605240757132606
30
0
41
1
10
68.3905208071351
20
0.64845431216591
30
0
41
1
10
68.4652074138993
20
0.738259837058166
30
0
41
1
10
68.5056592264052
20
0.78492068449458
30
0
41
1
10
68.6333803081267
20
0.926693996597237
30
0
41
1
10
68.7277145195012
20
1.02461447950304
30
0
41
1
10
68.8833724526087
20
1.17506394975862
30
0
41
1
10
68.9378634838299
20
1.22598403004068
30
0
41
1
10
69.0495240054458
20
1.3264731078643
30
0
41
1
10
69.1069270818327
20
1.37628071483024
30
0
41
1
10
69.2841139392413
20
1.52375159696175
30
0
41
1
10
69.4093704511132
20
1.62003333073008
30
0
41
1
10
69.5413547395062
20
1.71011480723229
30
0
0
SPLINE
5
179
100
AcDbEntity
8
1
62
256
6
ByLayer
370
18
48
1
60
0
100
AcDbSpline
70
4
71
3
72
12
73
8
40
0
40
0
40
0
40
0
40
0.25
40
0.25
40
0.5
40
0.5
40
1
40
1
40
1
40
1
41
1
10
64.7137858408112
20
4.36123053949564
30
0
41
1
10
64.2123242660697
20
4.35443235424731
30
0
41
1
10
63.7115678568782
20
4.3390835121935
30
0
41
1
10
62.7107912614413
20
4.28815932402128
30
0
41
1
10
62.2105470197453
20
4.25252863835803
30
0
41
1
10
60.712718239774
20
4.11219284428833
30
0
41
1
10
59.7170094812915
20
3.97467330804935
30
0
41
1
10
58.7197803601879
20
3.79774756561255
30
0
0
SPLINE
5
17A
100
AcDbEntity
8
1
62
256
6
ByLayer
370
18
48
1
60
0
100
AcDbSpline
70
4
71
3
72
8
73
4
40
0
40
0
40
0
40
0
40
1
40
1
40
1
40
1
41
1
10
10.4543672025733
20
4.4002781891997
30
0
41
1
10
10.428667458645
20
4.40872272562441
30
0
41
1
10
10.4029555876413
20
4.4171483733663
30
0
41
1
10
10.3772319574651
20
4.4255555131929
30
0
0
SPLINE
5
17B
100
AcDbEntity
8
1
62
256
6
ByLayer
370
18
48
1
60
0
100
AcDbSpline
70
4
71
3
72
32
73
28
40
0
40
0
40
0
40
0
40
0.125000000000002
40
0.125000000000002
40
0.187499999999999
40
0.187499999999999
40
0.249999999999996
40
0.249999999999996
40
0.312499999999994
40
0.312499999999994
40
0.374999999999991
40
0.374999999999991
40
0.437499999999988
40
0.437499999999988
40
0.499999999999985
40
0.499999999999985
40
0.624999999999985
40
0.624999999999985
40
0.687499999999988
40
0.687499999999988
40
0.74999999999999
40
0.74999999999999
40
0.812499999999992
40
0.812499999999992
40
0.874999999999994
40
0.874999999999994
40
1
40
1
40
1
40
1
41
1
10
53.7296774613036
20
-1.53140606990652
30
0
41
1
10
53.9597804026296
20
-1.58609710280629
30
0
41
1
10
54.1929351168389
20
-1.61408712144251
30
0
41
1
10
54.5471892385715
20
-1.61721430145036
30
0
41
1
10
54.6658950502746
20
-1.6115989285511
30
0
41
1
10
54.8992661794251
20
-1.58749415856377
30
0
41
1
10
55.0146390130813
20
-1.56903017336506
30
0
41
1
10
55.242781634388
20
-1.51924160953422
30
0
41
1
10
55.3555516420167
20
-1.48791872276581
30
0
41
1
10
55.578401925489
20
-1.4117359045884
30
0
41
1
10
55.6872225064959
20
-1.3672469682077
30
0
41
1
10
55.897235780957
20
-1.26653603125675
30
0
41
1
10
55.998843216386
20
-1.21017477339978
30
0
41
1
10
56.1952228791479
20
-1.08506358019838
30
0
41
1
10
56.2905411914909
20
-1.01584531412541
30
0
41
1
10
56.5616105773432
20
-0.79173609189354
30
0
41
1
10
56.7211617016033
20
-0.622321968088869
30
0
41
1
10
56.9293421199871
20
-0.337534636296141
30
0
41
1
10
56.9934856592525
20
-0.237202804055187
30
0
41
1
10
57.1077033089257
20
-0.0323556545016572
30
0
41
1
10
57.1583463222727
20
0.0728678273266326
30
0
41
1
10
57.2474757794772
20
0.288542738293614
30
0
41
1
10
57.2859591025723
20
0.398995627060657
30
0
41
1
10
57.3512290672982
20
0.624895849862583
30
0
41
1
10
57.3776904525207
20
0.739497251984176
30
0
41
1
10
57.4391274377404
20
1.08070455146461
30
0
41
1
10
57.4571202251458
20
1.30750627026319
30
0
41
1
10
57.457120113823
20
1.53277264414612
30
0
0
SPLINE
5
17C
100
AcDbEntity
8
1
62
256
6
ByLayer
370
18
48
1
60
0
100
AcDbSpline
70
4
71
3
72
8
73
4
40
0
40
0
40
0
40
0
40
1
40
1
40
1
40
1
41
1
10
64.7999999999998
20
-5.0366461376982
30
0
41
1
10
64.9836609430987
20
-5.10926190109109
30
0
41
1
10
65.1668071923527
20
-5.17991080748911
30
0
41
1
10
65.349495483891
20
-5.24843832636472
30
0
0
SPLINE
5
17D
100
AcDbEntity
8
1
62
256
6
ByLayer
370
18
48
1
60
0
100
AcDbSpline
70
4
71
1
72
4
73
2
40
0
40
0
40
1
40
1
41
1
10
67.6376033690642
20
-3.71726803089209
30
0
41
1
10
67.5053748766726
20
-3.78131845221944
30
0
0
SPLINE
5
17E
100
AcDbEntity
8
1
62
256
6
ByLayer
370
18
48
1
60
0
100
AcDbSpline
70
4
71
3
72
8
73
4
40
0
40
0
40
0
40
0
40
1
40
1
40
1
40
1
41
1
10
64.7104032614573
20
5.07446032043507
30
0
41
1
10
64.7069353766116
20
5.07745268390249
30
0
41
1
10
64.7034676216334
20
5.0804422984497
30
0
41
1
10
64.7000000000024
20
5.08342915992426
30
0
0
SPLINE
5
17F
100
AcDbEntity
8
1
62
256
6
ByLayer
370
18
48
1
60
0
100
AcDbSpline
70
4
71
3
72
38
73
34
40
0
40
0
40
0
40
0
40
0.125
40
0.125
40
0.1875
40
0.1875
40
0.25
40
0.25
40
0.375000000000001
40
0.375000000000001
40
0.437500000000001
40
0.437500000000001
40
0.500000000000001
40
0.500000000000001
40
0.625
40
0.625
40
0.75
40
0.75
40
0.875
40
0.875
40
0.90625
40
0.90625
40
0.921875
40
0.921875
40
0.9375
40
0.9375
40
0.953125
40
0.953125
40
0.9609375
40
0.9609375
40
0.96875
40
0.96875
40
1
40
1
40
1
40
1
41
1
10
17.3270619725789
20
4.97631727902049
30
0
41
1
10
18.8441060562641
20
4.88695919687547
30
0
41
1
10
20.3604619959429
20
4.76386517588759
30
0
41
1
10
22.6360455445026
20
4.53210250972131
30
0
41
1
10
23.3948365308971
20
4.44699536011933
30
0
41
1
10
24.911183073667
20
4.26217090560075
30
0
41
1
10
25.6689788826677
20
4.16243291251698
30
0
41
1
10
27.9418029313077
20
3.84277238922894
30
0
41
1
10
29.4562847176561
20
3.60241821403346
30
0
41
1
10
31.729032943678
20
3.20755583211354
30
0
41
1
10
32.4867699427836
20
3.07016467730583
30
0
41
1
10
34.002932127831
20
2.78511291515116
30
0
41
1
10
34.7616826340507
20
2.63749876261849
30
0
41
1
10
37.0371266498686
20
2.18268547857051
30
0
41
1
10
38.5528230106397
20
1.86316455136878
30
0
41
1
10
41.584456574925
20
1.20287266904862
30
0
41
1
10
43.1007783781149
20
0.862063726282713
30
0
41
1
10
46.135126942312
20
0.172561891194704
30
0
41
1
10
47.6505714017582
20
-0.175925089591146
30
0
41
1
10
49.5450875078592
20
-0.60599698589246
30
0
41
1
10
49.9238415597797
20
-0.692416719202072
30
0
41
1
10
50.4918834963988
20
-0.822069597222821
30
0
41
1
10
50.6812766896346
20
-0.86503281426269
30
0
41
1
10
51.0604983286454
20
-0.949003190881115
30
0
41
1
10
51.2504277406492
20
-0.989585800699814
30
0
41
1
10
51.6297787234267
20
-1.07278733061395
30
0
41
1
10
51.8191749199488
20
-1.11551390435787
30
0
41
1
10
52.1019001397451
20
-1.18526477186663
30
0
41
1
10
52.1959236490257
20
-1.209415413919
30
0
41
1
10
52.3840540126629
20
-1.25732736283166
30
0
41
1
10
52.4781734436309
20
-1.2810364783038
30
0
41
1
10
52.9488218052707
20
-1.39927443683945
30
0
41
1
10
53.3254104054052
20
-1.49327288929561
30
0
41
1
10
53.7021192615819
20
-1.5864672026803
30
0
0
SPLINE
5
180
100
AcDbEntity
8
1
62
256
6
ByLayer
370
18
48
1
60
0
100
AcDbSpline
70
4
71
3
72
8
73
4
40
0
40
0
40
0
40
0
40
1
40
1
40
1
40
1
41
1
10
65.6
20
-4.68432832825104
30
0
41
1
10
66.5476801169874
20
-4.68433474948981
30
0
41
1
10
67.4953602322254
20
-4.68433427223664
30
0
41
1
10
68.4430403475503
20
-4.68432806006419
30
0
0
SPLINE
5
181
100
AcDbEntity
8
1
62
256
6
ByLayer
370
18
48
1
60
0
100
AcDbSpline
70
4
71
3
72
8
73
4
40
0
40
0
40
0
40
0
40
1
40
1
40
1
40
1
41
1
10
64.8
20
1.45000000000272
30
0
41
1
10
64.8000000000001
20
1.44463775259567
30
0
41
1
10
64.7998275681566
20
1.43932011896416
30
0
41
1
10
64.7994907606347
20
1.4340513211227
30
0
0
SPLINE
5
182
100
AcDbEntity
8
1
62
256
6
ByLayer
370
18
48
1
60
0
100
AcDbSpline
70
4
71
3
72
8
73
4
40
0
40
0
40
0
40
0
40
1
40
1
40
1
40
1
41
1
10
69.8086992614238
20
-3.68835651851052
30
0
41
1
10
69.6682174151815
20
-4.11024048980312
30
0
41
1
10
69.5257756695271
20
-4.53438172334091
30
0
41
1
10
69.3813209782081
20
-4.96084132780669
30
0
0
SPLINE
5
183
100
AcDbEntity
8
1
62
256
6
ByLayer
370
18
48
1
60
0
100
AcDbSpline
70
4
71
1
72
4
73
2
40
0
40
0
40
1
40
1
41
1
10
13.0816263242912
20
-1.09557550367978
30
0
41
1
10
12.9844972357366
20
-1.46438651392506
30
0
0
SPLINE
5
184
100
AcDbEntity
8
1
62
256
6
ByLayer
370
18
48
1
60
0
100
AcDbSpline
70
4
71
3
72
10
73
6
40
0
40
0
40
0
40
0
40
0.509676184930068
40
0.509676184930068
40
1
40
1
40
1
40
1
41
1
10
69.3046694115183
20
-5.09313666628412
30
0
41
1
10
69.3105683957234
20
-5.07599722781728
30
0
41
1
10
69.316464909614
20
-5.05885931186151
30
0
41
1
10
69.3280291166952
20
-5.02523743962499
30
0
41
1
10
69.3336970102533
20
-5.00875332228932
30
0
41
1
10
69.3393625534034
20
-4.99227080422216
30
0
0
SPLINE
5
185
100
AcDbEntity
8
1
62
256
6
ByLayer
370
18
48
1
60
0
100
AcDbSpline
70
4
71
3
72
8
73
4
40
0
40
0
40
0
40
0
40
1
40
1
40
1
40
1
41
1
10
64.8
20
1.43381648266254
30
0
41
1
10
64.9623755314205
20
1.3340120372155
30
0
41
1
10
65.125979511032
20
1.23854780593973
30
0
41
1
10
65.2907313898044
20
1.14713920211489
30
0
0
SPLINE
5
186
100
AcDbEntity
8
1
62
256
6
ByLayer
370
18
48
1
60
0
100
AcDbSpline
70
4
71
3
72
8
73
4
40
0
40
0
40
0
40
0
40
1
40
1
40
1
40
1
41
1
10
64.7104032614573
20
-5.07446032043507
30
0
41
1
10
64.7069353766116
20
-5.07745268390252
30
0
41
1
10
64.7034676216334
20
-5.08044229844973
30
0
41
1
10
64.7000000000023
20
-5.08342915992432
30
0
0
SPLINE
5
187
100
AcDbEntity
8
1
62
256
6
ByLayer
370
18
48
1
60
0
100
AcDbSpline
70
4
71
2
72
6
73
3
40
0
40
0
40
0
40
1
40
1
40
1
41
1
10
66.9583484563629
20
-1.62225730847425
30
0
41
1
10
67.093587327507
20
-1.9505066802235
30
0
41
1
10
67.2394566193108
20
-2.25980058686946
30
0
0
SPLINE
5
188
100
AcDbEntity
8
1
62
256
6
ByLayer
370
18
48
1
60
0
100
AcDbSpline
70
4
71
3
72
15
73
11
40
0
40
0
40
0
40
0
40
0.0113853818153852
40
0.293207296943191
40
0.443596133064579
40
0.594042074541221
40
0.744550462446715
40
0.789313719266685
40
0.834078552678182
40
1
40
1
40
1
40
1
41
1.10374900959774
10
46.9190417296765
20
-0.0072787571379757
30
0
41
1.10374900959774
10
46.9450294138411
20
-0.0129832686509581
30
0
41
1.10374900959774
10
47.6142623021613
20
-0.159889880322967
30
0
41
1.10374900959774
10
48.6256874825102
20
-0.382056037155352
30
0
41
1.10374900959774
10
49.9515257033104
20
-0.670714041842588
30
0
41
1.10374900959774
10
50.9763137426592
20
-0.897699709326973
30
0
41
1.10374900959774
10
51.761616592871
20
-1.0549954984122
30
0
41
1.10374900959774
10
52.3030969395076
20
-1.18896696710708
30
0
41
1.10374900959774
10
52.879761996815
20
-1.32837262799744
30
0
41
1.10374900959774
10
53.3552625170681
20
-1.44241485616828
30
0
41
1.10374900959774
10
53.7296774613036
20
-1.53140606990655
30
0
0
SPLINE
5
189
100
AcDbEntity
8
1
62
256
6
ByLayer
370
13
48
1
60
0
100
AcDbSpline
70
4
71
3
72
18
73
14
40
0
40
0
40
0
40
0
40
0.125
40
0.125
40
0.25
40
0.25
40
0.375
40
0.375
40
0.5
40
0.5
40
0.75
40
0.75
40
1
40
1
40
1
40
1
41
1
10
69.5413547175888
20
1.71011484028782
30
0
41
1
10
69.5585197232238
20
1.64170416685482
30
0
41
1
10
69.5795352436953
20
1.57480832057124
30
0
41
1
10
69.6274796691332
20
1.44596046841599
30
0
41
1
10
69.6545247869821
20
1.38389369644884
30
0
41
1
10
69.7143662991706
20
1.26409249118683
30
0
41
1
10
69.7471962731017
20
1.20608838180144
30
0
41
1
10
69.8167731418004
20
1.09580649156942
30
0
41
1
10
69.8535638719945
20
1.04328883293294
30
0
41
1
10
69.9693141742782
20
0.892744387378343
30
0
41
1
10
70.0539172939803
20
0.801192606593133
30
0
41
1
10
70.2325968958107
20
0.635669490511361
30
0
41
1
10
70.3264649516087
20
0.561697695331588
30
0
41
1
10
70.4237467579084
20
0.495386535284354
30
0
0
SPLINE
5
18A
100
AcDbEntity
8
1
62
256
6
ByLayer
370
18
48
1
60
0
100
AcDbSpline
70
4
71
3
72
30
73
26
40
0
40
0
40
0
40
0
40
0.124999999999996
40
0.124999999999996
40
0.187499999999997
40
0.187499999999997
40
0.249999999999999
40
0.249999999999999
40
0.3125
40
0.3125
40
0.375000000000002
40
0.375000000000002
40
0.500000000000005
40
0.500000000000005
40
0.562500000000004
40
0.562500000000004
40
0.625000000000002
40
0.625000000000002
40
0.687500000000001
40
0.687500000000001
40
0.75
40
0.75
40
0.875
40
0.875
40
1
40
1
40
1
40
1
41
1
10
53.7021192615819
20
-1.5864672026803
30
0
41
1
10
53.9320645655694
20
-1.64335356032697
30
0
41
1
10
54.164426374988
20
-1.67322920029557
30
0
41
1
10
54.5164663220515
20
-1.67966648439878
30
0
41
1
10
54.6349104018178
20
-1.67528460581053
30
0
41
1
10
54.8707424281983
20
-1.65317567973852
30
0
41
1
10
54.9868962604811
20
-1.63562514944724
30
0
41
1
10
55.2157943776814
20
-1.58782452866416
30
0
41
1
10
55.3285383631017
20
-1.55757362118155
30
0
41
1
10
55.5505867571821
20
-1.48403882137356
30
0
41
1
10
55.6605875353492
20
-1.44041056777229
30
0
41
1
10
55.9795910881285
20
-1.29123229773006
30
0
41
1
10
56.1766335357497
20
-1.16864195458078
30
0
41
1
10
56.4489461313075
20
-0.948594999773348
30
0
41
1
10
56.5363624417644
20
-0.868502474736118
30
0
41
1
10
56.6989264223167
20
-0.699544771782797
30
0
41
1
10
56.7743909904517
20
-0.610571182537143
30
0
41
1
10
56.9140563471172
20
-0.423783029067295
30
0
41
1
10
56.9782555429969
20
-0.32596763032484
30
0
41
1
10
57.095393723018
20
-0.121359225266218
30
0
41
1
10
57.1483537489436
20
-0.0142153703068857
30
0
41
1
10
57.2861781998545
20
0.310851366725444
30
0
41
1
10
57.3520743963442
20
0.5353477859978
30
0
41
1
10
57.4382356103467
20
0.997363745510597
30
0
41
1
10
57.4571201138788
20
1.22743621103115
30
0
41
1
10
57.4571201138558
20
1.4552945594265
30
0
0
SPLINE
5
18B
100
AcDbEntity
8
1
62
256
6
ByLayer
370
18
48
1
60
0
100
AcDbSpline
70
4
71
3
72
8
73
4
40
0
40
0
40
0
40
0
40
1
40
1
40
1
40
1
41
1
10
65.053658914111
20
-4.89721528063592
30
0
41
1
10
65.2377638433669
20
-4.83730437338386
30
0
41
1
10
65.4199229262606
20
-4.76659395849424
30
0
41
1
10
65.6
20
-4.68432832825104
30
0
0
SPLINE
5
18C
100
AcDbEntity
8
1
62
256
6
ByLayer
370
18
48
1
60
0
100
AcDbSpline
70
4
71
3
72
8
73
4
40
0
40
0
40
0
40
0
40
1
40
1
40
1
40
1
41
1
10
64.7137857842204
20
4.36123054051822
30
0
41
1
10
64.7126754073663
20
4.60058291026087
30
0
41
1
10
64.7115483157268
20
4.83834405052943
30
0
41
1
10
64.7104051898829
20
5.07445865661532
30
0
0
SPLINE
5
18D
100
AcDbEntity
8
1
62
256
6
ByLayer
370
18
48
1
60
0
100
AcDbSpline
70
4
71
3
72
14
73
10
40
0
40
0
40
0
40
0
40
0.148759941731554
40
0.295548799412108
40
0.440368577907072
40
0.583221365083598
40
0.724109336354276
40
0.863034759529021
40
1
40
1
40
1
40
1
41
1
10
67.1144805085795
20
-2.32037508226827
30
0
41
1
10
67.0996316608491
20
-2.2877294265607
30
0
41
1
10
67.0701307141002
20
-2.22287067333661
30
0
41
1
10
67.0266700314065
20
-2.12478949492583
30
0
41
1
10
66.984166094961
20
-2.02704072592303
30
0
41
1
10
66.9426499856054
20
-1.92959926459207
30
0
41
1
10
66.9021240404027
20
-1.83254363475496
30
0
41
1
10
66.8625492603265
20
-1.7360096877313
30
0
41
1
10
66.8367171121353
20
-1.67140572471041
30
0
41
1
10
66.8238928057881
20
-1.6393332463829
30
0
0
SPLINE
5
18E
100
AcDbEntity
8
1
62
256
6
ByLayer
370
18
48
1
60
0
100
AcDbSpline
70
4
71
3
72
8
73
4
40
0
40
0
40
0
40
0
40
1
40
1
40
1
40
1
41
1
10
66.3636101742703
20
0.805722541596879
30
0
41
1
10
66.3176448019586
20
0.75535432919807
30
0
41
1
10
66.2710021396813
20
0.706886021484593
30
0
41
1
10
66.223654419698
20
0.660395511327408
30
0
0
SPLINE
5
18F
100
AcDbEntity
8
1
62
256
6
ByLayer
370
18
48
1
60
0
100
AcDbSpline
70
4
71
3
72
8
73
4
40
0
40
0
40
0
40
0
40
1
40
1
40
1
40
1
41
1
10
56.8
20
3.65643927526833
30
0
41
1
10
56.6192732535311
20
3.6810781759938
30
0
41
1
10
56.444987322294
20
3.71835535925649
30
0
41
1
10
56.2770608722869
20
3.76667130415427
30
0
0
SPLINE
5
190
100
AcDbEntity
8
1
62
256
6
ByLayer
370
18
48
1
60
0
100
AcDbSpline
70
4
71
3
72
8
73
4
40
0
40
0
40
0
40
0
40
1
40
1
40
1
40
1
41
1
10
58.3602445060545
20
3.70815818051088
30
0
41
1
10
58.4798989235676
20
3.73399272756245
30
0
41
1
10
58.5956340038432
20
3.76372268938559
30
0
41
1
10
58.7075939025448
20
3.79712667558218
30
0
0
SPLINE
5
191
100
AcDbEntity
8
1
62
256
6
ByLayer
370
18
48
1
60
0
100
AcDbSpline
70
4
71
3
72
10
73
6
40
0
40
0
40
0
40
0
40
0.404229967284552
40
0.404229967284552
40
1
40
1
40
1
40
1
41
1
10
66.0394704910471
20
0.911758093300421
30
0
41
1
10
66.3472108876595
20
0.863529845617848
30
0
41
1
10
66.6550382292318
20
0.815860111015951
30
0
41
1
10
67.4169953244387
20
0.700770245392476
30
0
41
1
10
67.8710579755707
20
0.632919064363278
30
0
41
1
10
68.3249086377286
20
0.563706118201708
30
0
0
SPLINE
5
192
100
AcDbEntity
8
1
62
256
6
ByLayer
370
18
48
1
60
0
100
AcDbSpline
70
4
71
1
72
4
73
2
40
0
40
0
40
1
40
1
41
1
10
57.8340880579253
20
3.70204271660751
30
0
41
1
10
57.9432660462279
20
4.00321207634261
30
0
0
SPLINE
5
193
100
AcDbEntity
8
1
62
256
6
ByLayer
370
18
48
1
60
0
100
AcDbSpline
70
4
71
3
72
9
73
5
40
0
40
0
40
0
40
0
40
0.491386170922502
40
1
40
1
40
1
40
1
41
1
10
64.8000000333307
20
4.1994553384188
30
0
41
1
10
64.7862615239299
20
4.22612676791195
30
0
41
1
10
64.7583028425224
20
4.28040470870764
30
0
41
1
10
64.7287942738578
20
4.33398097096858
30
0
41
1
10
64.7137858077587
20
4.36123059886478
30
0
0
SPLINE
5
194
100
AcDbEntity
8
SK1
62
256
6
ByLayer
370
18
48
1
60
0
100
AcDbSpline
70
4
71
3
72
68
73
64
40
0
40
0
40
0
40
0
40
0.0312500000000001
40
0.0312500000000001
40
0.0625000000000002
40
0.0625000000000002
40
0.0937500000000003
40
0.0937500000000003
40
0.125
40
0.125
40
0.156250000000001
40
0.156250000000001
40
0.187500000000001
40
0.187500000000001
40
0.203125000000001
40
0.203125000000001
40
0.218750000000001
40
0.218750000000001
40
0.250000000000001
40
0.250000000000001
40
0.28125
40
0.28125
40
0.3125
40
0.3125
40
0.375
40
0.375
40
0.40625
40
0.40625
40
0.4375
40
0.4375
40
0.5
40
0.5
40
0.53125
40
0.53125
40
0.5625
40
0.5625
40
0.625
40
0.625
40
0.6875
40
0.6875
40
0.71875
40
0.71875
40
0.75
40
0.75
40
0.78125
40
0.78125
40
0.796875
40
0.796875
40
0.8125
40
0.8125
40
0.874999999999999
40
0.874999999999999
40
0.890625
40
0.890625
40
0.90625
40
0.90625
40
0.9375
40
0.9375
40
0.953125
40
0.953125
40
0.96875
40
0.96875
40
1
40
1
40
1
40
1
41
1
10
-41.5
20
5.22687526156881
30
0
41
1
10
-41.656051540974
20
5.22687526156881
30
0
41
1
10
-41.8095787720032
20
5.21639296166188
30
0
41
1
10
-42.1118687264374
20
5.17538167389498
30
0
41
1
10
-42.2606291319798
20
5.14484388887027
30
0
41
1
10
-42.55331208987
20
5.06264474621489
30
0
41
1
10
-42.6935963047429
20
5.01193969825908
30
0
41
1
10
-42.9610547774
20
4.8926459573745
30
0
41
1
10
-43.0885849499374
20
4.82393877072772
30
0
41
1
10
-43.3318085754853
20
4.66792077701672
30
0
41
1
10
-43.4454620393412
20
4.58183100628238
30
0
41
1
10
-43.6565804254194
20
4.39591890548189
30
0
41
1
10
-43.754447615465
20
4.29582260896419
30
0
41
1
10
-43.8909239029357
20
4.13515213531713
30
0
41
1
10
-43.9346559789632
20
4.07984985855634
30
0
41
1
10
-44.0178421339623
20
3.9672120524713
30
0
41
1
10
-44.0574480716768
20
3.90970415853502
30
0
41
1
10
-44.170835351737
20
3.73374973224327
30
0
41
1
10
-44.2392050654745
20
3.61187897183513
30
0
41
1
10
-44.3637529564031
20
3.35953204614827
30
0
41
1
10
-44.4199241728707
20
3.22905393387657
30
0
41
1
10
-44.5217781552864
20
2.95982853214917
30
0
41
1
10
-44.5672910191751
20
2.82135737017342
30
0
41
1
10
-44.688271221023
20
2.40192639130166
30
0
41
1
10
-44.7494102555106
20
2.11444591958698
30
0
41
1
10
-44.8203574376288
20
1.67264361464774
30
0
41
1
10
-44.8404861257542
20
1.52360098026489
30
0
41
1
10
-44.8745136933059
20
1.22203846790575
30
0
41
1
10
-44.888430849358
20
1.06905861372326
30
0
41
1
10
-44.9212055323013
20
0.610864071414824
30
0
41
1
10
-44.9314888238643
20
0.30500095518957
30
0
41
1
10
-44.9314459419673
20
-0.154369885010055
30
0
41
1
10
-44.9288111890303
20
-0.307590124534158
30
0
41
1
10
-44.9181139341154
20
-0.614226971889622
30
0
41
1
10
-44.9100311297819
20
-0.767936726458487
30
0
41
1
10
-44.876975319561
20
-1.22746192774332
30
0
41
1
10
-44.8437183659349
20
-1.52726901543855
30
0
41
1
10
-44.7495505682116
20
-2.11347343178804
30
0
41
1
10
-44.6887157993644
20
-2.39987709805374
30
0
41
1
10
-44.568267125901
20
-2.81822348190337
30
0
41
1
10
-44.5230745718257
20
-2.95611071389945
30
0
41
1
10
-44.4210536604659
20
-3.2263526489771
30
0
41
1
10
-44.3647909921486
20
-3.35725729466213
30
0
41
1
10
-44.2400654014717
20
-3.6103048347239
30
0
41
1
10
-44.1716092122385
20
-3.73244962227668
30
0
41
1
10
-44.0581208246012
20
-3.90870910519672
30
0
41
1
10
-44.0184860650781
20
-3.96630102696577
30
0
41
1
10
-43.9352580601072
20
-4.07907314613499
30
0
41
1
10
-43.8915078632941
20
-4.13443194322986
30
0
41
1
10
-43.664052072408
20
-4.40237304536254
30
0
41
1
10
-43.4553329758977
20
-4.58831633060635
30
0
41
1
10
-43.1520963214013
20
-4.78328857284635
30
0
41
1
10
-43.0891418185103
20
-4.82044609497191
30
0
41
1
10
-42.9610925320245
20
-4.88957371735646
30
0
41
1
10
-42.8957389286587
20
-4.92172722181593
30
0
41
1
10
-42.6956488600879
20
-5.01112499993621
30
0
41
1
10
-42.5569044345073
20
-5.06134953831224
30
0
41
1
10
-42.3402715178628
20
-5.12261167611467
30
0
41
1
10
-42.2666364028919
20
-5.14067671547696
30
0
41
1
10
-42.1163612516675
20
-5.17194619308157
30
0
41
1
10
-42.0400697916568
20
-5.18505308835799
30
0
41
1
10
-41.810813223652
20
-5.21636047859616
30
0
41
1
10
-41.6562792397716
20
-5.22687526156881
30
0
41
1
10
-41.5
20
-5.22687526156881
30
0
0
SPLINE
5
195
100
AcDbEntity
8
SK1
62
256
6
ByLayer
370
18
48
1
60
0
100
AcDbSpline
70
4
71
3
72
68
73
64
40
0
40
0
40
0
40
0
40
0.031249999999999
40
0.031249999999999
40
0.0624999999999979
40
0.0624999999999979
40
0.0937499999999969
40
0.0937499999999969
40
0.124999999999996
40
0.124999999999996
40
0.156249999999995
40
0.156249999999995
40
0.187499999999994
40
0.187499999999994
40
0.203124999999994
40
0.203124999999994
40
0.218749999999993
40
0.218749999999993
40
0.249999999999994
40
0.249999999999994
40
0.281249999999994
40
0.281249999999994
40
0.312499999999995
40
0.312499999999995
40
0.374999999999996
40
0.374999999999996
40
0.406249999999996
40
0.406249999999996
40
0.437499999999997
40
0.437499999999997
40
0.499999999999998
40
0.499999999999998
40
0.531249999999998
40
0.531249999999998
40
0.562499999999999
40
0.562499999999999
40
0.625
40
0.625
40
0.687500000000001
40
0.687500000000001
40
0.718750000000002
40
0.718750000000002
40
0.750000000000002
40
0.750000000000002
40
0.781250000000002
40
0.781250000000002
40
0.796875000000002
40
0.796875000000002
40
0.812500000000002
40
0.812500000000002
40
0.875000000000001
40
0.875000000000001
40
0.890625000000002
40
0.890625000000002
40
0.906250000000002
40
0.906250000000002
40
0.937500000000001
40
0.937500000000001
40
0.953125
40
0.953125
40
0.96875
40
0.96875
40
1
40
1
40
1
40
1
41
1
10
-6.5
20
-5.22687526156881
30
0
41
1
10
-6.34394845902597
20
-5.22687526156881
30
0
41
1
10
-6.19042122799681
20
-5.21639296166188
30
0
41
1
10
-5.88813127356264
20
-5.17538167389498
30
0
41
1
10
-5.73937086802019
20
-5.14484388887027
30
0
41
1
10
-5.44668791013001
20
-5.06264474621489
30
0
41
1
10
-5.30640369525707
20
-5.01193969825908
30
0
41
1
10
-5.03894522260001
20
-4.89264595737453
30
0
41
1
10
-4.9114150500626
20
-4.82393877072775
30
0
41
1
10
-4.66819142451462
20
-4.66792077701672
30
0
41
1
10
-4.55453796065879
20
-4.58183100628238
30
0
41
1
10
-4.34341957458059
20
-4.39591890548189
30
0
41
1
10
-4.24555238453496
20
-4.29582260896419
30
0
41
1
10
-4.10907609706425
20
-4.13515213531713
30
0
41
1
10
-4.06534402103676
20
-4.07984985855634
30
0
41
1
10
-3.98215786603771
20
-3.9672120524713
30
0
41
1
10
-3.94255192832321
20
-3.90970415853502
30
0
41
1
10
-3.82916464826297
20
-3.73374973224327
30
0
41
1
10
-3.76079493452551
20
-3.61187897183513
30
0
41
1
10
-3.63624704359682
20
-3.35953204614827
30
0
41
1
10
-3.58007582712935
20
-3.22905393387657
30
0
41
1
10
-3.4782218447136
20
-2.95982853214917
30
0
41
1
10
-3.43270898082483
20
-2.82135737017342
30
0
41
1
10
-3.31172877897703
20
-2.40192639130166
30
0
41
1
10
-3.25058974448933
20
-2.11444591958698
30
0
41
1
10
-3.17964256237119
20
-1.67264361464774
30
0
41
1
10
-3.15951387424582
20
-1.52360098026489
30
0
41
1
10
-3.12548630669414
20
-1.22203846790575
30
0
41
1
10
-3.111569150642
20
-1.06905861372326
30
0
41
1
10
-3.07879446769871
20
-0.610864071414824
30
0
41
1
10
-3.06851117613567
20
-0.30500095518957
30
0
41
1
10
-3.06855405803267
20
0.154369885010055
30
0
41
1
10
-3.07118881096969
20
0.307590124534158
30
0
41
1
10
-3.08188606588456
20
0.61422697188965
30
0
41
1
10
-3.08996887021809
20
0.767936726458487
30
0
41
1
10
-3.12302468043902
20
1.22746192774332
30
0
41
1
10
-3.15628163406512
20
1.52726901543855
30
0
41
1
10
-3.25044943178841
20
2.11347343178804
30
0
41
1
10
-3.31128420063564
20
2.39987709805374
30
0
41
1
10
-3.43173287409903
20
2.81822348190337
30
0
41
1
10
-3.47692542817427
20
2.95611071389945
30
0
41
1
10
-3.5789463395341
20
3.2263526489771
30
0
41
1
10
-3.63520900785142
20
3.35725729466213
30
0
41
1
10
-3.7599345985283
20
3.6103048347239
30
0
41
1
10
-3.82839078776152
20
3.73244962227668
30
0
41
1
10
-3.94187917539884
20
3.90870910519672
30
0
41
1
10
-3.98151393492188
20
3.9663010269658
30
0
41
1
10
-4.06474193989283
20
4.07907314613499
30
0
41
1
10
-4.10849213670588
20
4.13443194322988
30
0
41
1
10
-4.33594792759203
20
4.40237304536254
30
0
41
1
10
-4.54466702410224
20
4.58831633060635
30
0
41
1
10
-4.84790367859867
20
4.78328857284635
30
0
41
1
10
-4.91085818148966
20
4.82044609497191
30
0
41
1
10
-5.03890746797549
20
4.88957371735646
30
0
41
1
10
-5.10426107134134
20
4.92172722181593
30
0
41
1
10
-5.30435113991214
20
5.01112499993621
30
0
41
1
10
-5.44309556549268
20
5.06134953831224
30
0
41
1
10
-5.65972848213716
20
5.12261167611467
30
0
41
1
10
-5.73336359710802
20
5.14067671547696
30
0
41
1
10
-5.88363874833243
20
5.17194619308157
30
0
41
1
10
-5.95993020834322
20
5.18505308835799
30
0
41
1
10
-6.18918677634795
20
5.21636047859616
30
0
41
1
10
-6.34372076022839
20
5.22687526156881
30
0
41
1
10
-6.5
20
5.22687526156881
30
0
0
LINE
5
70
100
AcDbEntity
8
81
62
256
6
ByLayer
370
18
48
1
60
0
100
AcDbLine
10
64.8
20
0
30
0
11
69.8
21
0
31
0
39
0
210
0
220
0
230
1
0
LINE
5
71
100
AcDbEntity
8
1
62
256
6
ByLayer
370
18
48
1
60
0
100
AcDbLine
10
4.0004
20
10
30
0
11
0.2
21
10
31
0
39
0
210
0
220
0
230
1
0
LINE
5
73
100
AcDbEntity
8
1
62
256
6
ByLayer
370
18
48
1
60
0
100
AcDbLine
10
0.2
20
-10
30
0
11
4.0004
21
-10
31
0
39
0
210
0
220
0
230
1
0
LINE
5
74
100
AcDbEntity
8
1
62
256
6
ByLayer
370
18
48
1
60
0
100
AcDbLine
10
0.2
20
10
30
0
11
0
21
9.8
31
0
39
0
210
0
220
0
230
1
0
LINE
5
75
100
AcDbEntity
8
1
62
256
6
ByLayer
370
18
48
1
60
0
100
AcDbLine
10
0
20
-9.8
30
0
11
0.2
21
-10
31
0
39
0
210
0
220
0
230
1
0
LINE
5
76
100
AcDbEntity
8
SK1
62
256
6
ByLayer
370
18
48
1
60
0
100
AcDbLine
10
-45.4
20
7.99725
30
0
11
-45.783316
21
7.850276
31
0
39
0
210
0
220
0
230
1
0
LINE
5
78
100
AcDbEntity
8
SK1
62
256
6
ByLayer
370
18
48
1
60
0
100
AcDbLine
10
-45.783316
20
-7.850276
30
0
11
-45.4
21
-7.99725
31
0
39
0
210
0
220
0
230
1
0
LINE
5
79
100
AcDbEntity
8
SK1
62
256
6
ByLayer
370
18
48
1
60
0
100
AcDbLine
10
-47
20
7.99725
30
0
11
-48
21
6.99725
31
0
39
0
210
0
220
0
230
1
0
LINE
5
7A
100
AcDbEntity
8
SK1
62
256
6
ByLayer
370
18
48
1
60
0
100
AcDbLine
10
-48
20
-6.99725
30
0
11
-47
21
-7.99725
31
0
39
0
210
0
220
0
230
1
0
LINE
5
7B
100
AcDbEntity
8
SK1
62
256
6
ByLayer
370
18
48
1
60
0
100
AcDbLine
10
-46.6
20
7.99725
30
0
11
-47
21
7.99725
31
0
39
0
210
0
220
0
230
1
0
LINE
5
7C
100
AcDbEntity
8
SK1
62
256
6
ByLayer
370
18
48
1
60
0
100
AcDbLine
10
-47
20
-7.99725
30
0
11
-46.6
21
-7.99725
31
0
39
0
210
0
220
0
230
1
0
LINE
5
7D
100
AcDbEntity
8
SK1
62
256
6
ByLayer
370
18
48
1
60
0
100
AcDbLine
10
-46.6
20
-7.99725
30
0
11
-46.573182
21
-7.975533
31
0
39
0
210
0
220
0
230
1
0
LINE
5
7E
100
AcDbEntity
8
SK1
62
256
6
ByLayer
370
18
48
1
60
0
100
AcDbLine
10
-46.573182
20
7.975533
30
0
11
-46.6
21
7.99725
31
0
39
0
210
0
220
0
230
1
0
LINE
5
7F
100
AcDbEntity
8
SK1
62
256
6
ByLayer
370
18
48
1
60
0
100
AcDbLine
10
-1.6
20
-7.99725
30
0
11
-1.144243
21
-7.784727
31
0
39
0
210
0
220
0
230
1
0
LINE
5
80
100
AcDbEntity
8
SK1
62
256
6
ByLayer
370
18
48
1
60
0
100
AcDbLine
10
-1.144243
20
7.784727
30
0
11
-1.6
21
7.99725
31
0
39
0
210
0
220
0
230
1
0
LINE
5
81
100
AcDbEntity
8
SK1
62
256
6
ByLayer
370
18
48
1
60
0
100
AcDbLine
10
-1.6
20
7.99725
30
0
11
-45.4
21
7.99725
31
0
39
0
210
0
220
0
230
1
0
LINE
5
82
100
AcDbEntity
8
SK1
62
256
6
ByLayer
370
18
48
1
60
0
100
AcDbLine
10
-45.4
20
-7.99725
30
0
11
-1.6
21
-7.99725
31
0
39
0
210
0
220
0
230
1
0
LINE
5
83
100
AcDbEntity
8
SK1
62
256
6
ByLayer
370
18
48
1
60
0
100
AcDbLine
10
-0.975195
20
-7.74725
30
0
11
-0.15
21
-7.74725
31
0
39
0
210
0
220
0
230
1
0
LINE
5
84
100
AcDbEntity
8
SK1
62
256
6
ByLayer
370
18
48
1
60
0
100
AcDbLine
10
-0.15
20
7.74725
30
0
11
-0.975195
21
7.74725
31
0
39
0
210
0
220
0
230
1
0
LINE
5
85
100
AcDbEntity
8
1
62
256
6
ByLayer
370
18
48
1
60
0
100
AcDbLine
10
10.377232
20
-6.028231
30
0
11
10.454367
21
-5.96459
31
0
39
0
210
0
220
0
230
1
0
LINE
5
86
100
AcDbEntity
8
1
62
256
6
ByLayer
370
18
48
1
60
0
100
AcDbLine
10
15.466984
20
5.15
30
0
11
14.05
21
5.15
31
0
39
0
210
0
220
0
230
1
0
LINE
5
87
100
AcDbEntity
8
1
62
256
6
ByLayer
370
18
48
1
60
0
100
AcDbLine
10
13
20
-5.05
30
0
11
14.05
21
-5.15
31
0
39
0
210
0
220
0
230
1
0
LINE
5
88
100
AcDbEntity
8
1
62
256
6
ByLayer
370
18
48
1
60
0
100
AcDbLine
10
14.05
20
-5.15
30
0
11
15.466984
21
-5.15
31
0
39
0
210
0
220
0
230
1
0
LINE
5
89
100
AcDbEntity
8
1
62
256
6
ByLayer
370
18
48
1
60
0
100
AcDbLine
10
10.454367
20
5.96459
30
0
11
10.377232
21
6.028231
31
0
39
0
210
0
220
0
230
1
0
LINE
5
8A
100
AcDbEntity
8
1
62
256
6
ByLayer
370
18
48
1
60
0
100
AcDbLine
10
14.05
20
5.15
30
0
11
13
21
5.05
31
0
39
0
210
0
220
0
230
1
0
LINE
5
8B
100
AcDbEntity
8
1
62
256
6
ByLayer
370
18
48
1
60
0
100
AcDbLine
10
66.544203
20
5.25
30
0
11
65.623822
21
5.25
31
0
39
0
210
0
220
0
230
1
0
LINE
5
8C
100
AcDbEntity
8
1
62
256
6
ByLayer
370
18
48
1
60
0
100
AcDbLine
10
65.623822
20
-5.25
30
0
11
66.544203
21
-5.25
31
0
39
0
210
0
220
0
230
1
0
LINE
5
8D
100
AcDbEntity
8
80
62
256
6
ByLayer
370
18
48
1
60
0
100
AcDbLine
10
0
20
0
30
0
11
-5
21
0
31
0
39
0
210
0
220
0
230
1
0
LINE
5
8E
100
AcDbEntity
8
4
62
256
6
ByLayer
370
18
48
0.05
60
0
100
AcDbLine
10
64.8
20
0
30
0
11
0
21
0
31
0
39
0
210
0
220
0
230
1
0
LINE
5
90
100
AcDbEntity
8
SK4
62
256
6
ByLayer
370
18
48
0.05
60
0
100
AcDbLine
10
76
20
0
30
0
11
-53
21
0
31
0
39
0
210
0
220
0
230
1
0
LINE
5
92
100
AcDbEntity
8
1
62
256
6
ByLayer
370
13
48
1
60
0
100
AcDbLine
10
64.804715
20
-1.631029
30
0
11
64.967384
21
-1.521873
31
0
39
0
210
0
220
0
230
1
0
LINE
5
93
100
AcDbEntity
8
1
62
256
6
ByLayer
370
18
48
1
60
0
100
AcDbLine
10
70.483738
20
-1.753084
30
0
11
70.468653
21
-1.797727
31
0
39
0
210
0
220
0
230
1
0
LINE
5
94
100
AcDbEntity
8
1
62
256
6
ByLayer
370
18
48
1
60
0
100
AcDbLine
10
14.05
20
-5.15
30
0
11
14.05
21
-1.786004
31
0
39
0
210
0
220
0
230
1
0
LINE
5
95
100
AcDbEntity
8
1
62
256
6
ByLayer
370
18
48
1
60
0
100
AcDbLine
10
68.065647
20
-2.2598
30
0
11
67.261749
21
0.559454
31
0
39
0
210
0
220
0
230
1
0
LINE
5
96
100
AcDbEntity
8
1
62
256
6
ByLayer
370
18
48
1
60
0
100
AcDbLine
10
65.6
20
-4.684328
30
0
11
65.6
21
-4.616687
31
0
39
0
210
0
220
0
230
1
0
LINE
5
97
100
AcDbEntity
8
1
62
256
6
ByLayer
370
18
48
1
60
0
100
AcDbLine
10
65.349495
20
-5.220553
30
0
11
65.349495
21
-5.248438
31
0
39
0
210
0
220
0
230
1
0
LINE
5
98
100
AcDbEntity
8
1
62
256
6
ByLayer
370
18
48
1
60
0
100
AcDbLine
10
68.065798
20
-4.145542
30
0
11
68.065798
21
-2.261407
31
0
39
0
210
0
220
0
230
1
0
LINE
5
99
100
AcDbEntity
8
1
62
256
6
ByLayer
370
18
48
1
60
0
100
AcDbLine
10
68.44304
20
-4.684328
30
0
11
69.364658
21
-2.205587
31
0
39
0
210
0
220
0
230
1
0
LINE
5
9A
100
AcDbEntity
8
1
62
256
6
ByLayer
370
13
48
1
60
0
100
AcDbLine
10
10.377232
20
-0.083177
30
0
11
10.377232
21
-6.028231
31
0
39
0
210
0
220
0
230
1
0
LINE
5
9B
100
AcDbEntity
8
1
62
256
6
ByLayer
370
18
48
1
60
0
100
AcDbLine
10
64.7
20
-5.083429
30
0
11
64.7
21
-4.933144
31
0
39
0
210
0
220
0
230
1
0
LINE
5
9C
100
AcDbEntity
8
1
62
256
6
ByLayer
370
18
48
1
60
0
100
AcDbLine
10
64.8
20
-5.036646
30
0
11
64.8
21
-4.980782
31
0
39
0
210
0
220
0
230
1
0
LINE
5
9D
100
AcDbEntity
8
1
62
256
6
ByLayer
370
18
48
1
60
0
100
AcDbLine
10
69.226713
20
-5.137454
30
0
11
70.789426
21
-0.610061
31
0
39
0
210
0
220
0
230
1
0
LINE
5
9E
100
AcDbEntity
8
1
62
256
6
ByLayer
370
18
48
1
60
0
100
AcDbLine
10
13
20
-5.05
30
0
11
13
21
-1.467749
31
0
39
0
210
0
220
0
230
1
0
LINE
5
9F
100
AcDbEntity
8
1
62
256
6
ByLayer
370
13
48
1
60
0
100
AcDbLine
10
70.446641
20
0.480083
30
0
11
70.958452
21
0.144374
31
0
39
0
210
0
220
0
230
1
0
LINE
5
A0
100
AcDbEntity
8
1
62
256
6
ByLayer
370
13
48
1
60
0
100
AcDbLine
10
10.377232
20
6.02823
30
0
11
10.377232
21
4.425556
31
0
39
0
210
0
220
0
230
1
0
LINE
5
A1
100
AcDbEntity
8
1
62
256
6
ByLayer
370
13
48
1
60
0
100
AcDbLine
10
10.454367
20
5.96459
30
0
11
10.454367
21
4.400278
31
0
39
0
210
0
220
0
230
1
0
LINE
5
A2
100
AcDbEntity
8
1
62
256
6
ByLayer
370
18
48
1
60
0
100
AcDbLine
10
69.660494
20
-1.967476
30
0
11
70.137771
21
-1.572721
31
0
39
0
210
0
220
0
230
1
0
LINE
5
A3
100
AcDbEntity
8
1
62
256
6
ByLayer
370
18
48
1
60
0
100
AcDbLine
10
0.2
20
0
30
0
11
0.2
21
-10
31
0
39
0
210
0
220
0
230
1
0
LINE
5
A4
100
AcDbEntity
8
1
62
256
6
ByLayer
370
18
48
1
60
0
100
AcDbLine
10
0.2
20
10
30
0
11
0.2
21
0
31
0
39
0
210
0
220
0
230
1
0
LINE
5
A5
100
AcDbEntity
8
1
62
256
6
ByLayer
370
18
48
1
60
0
100
AcDbLine
10
70.991108
20
0.037012
30
0
11
71
21
0
31
0
39
0
210
0
220
0
230
1
0
LINE
5
A6
100
AcDbEntity
8
1
62
256
6
ByLayer
370
18
48
1
60
0
100
AcDbLine
10
70.93373
20
0.232089
30
0
11
70.868938
21
0.492606
31
0
39
0
210
0
220
0
230
1
0
LINE
5
A7
100
AcDbEntity
8
1
62
256
6
ByLayer
370
13
48
1
60
0
100
AcDbLine
10
69.660494
20
-1.967476
30
0
11
69.694406
21
-1.281907
31
0
39
0
210
0
220
0
230
1
0
LINE
5
A8
100
AcDbEntity
8
1
62
256
6
ByLayer
370
13
48
1
60
0
100
AcDbLine
10
70.494852
20
0.51996
30
0
11
70.868938
21
0.492606
31
0
39
0
210
0
220
0
230
1
0
LINE
5
A9
100
AcDbEntity
8
1
62
256
6
ByLayer
370
18
48
1
60
0
100
AcDbLine
10
64.8
20
-4.877925
30
0
11
64.8
21
-4.869101
31
0
39
0
210
0
220
0
230
1
0
LINE
5
AA
100
AcDbEntity
8
1
62
256
6
ByLayer
370
18
48
1
60
0
100
AcDbLine
10
67.239456
20
-2.2598
30
0
11
68.065647
21
-2.2598
31
0
39
0
210
0
220
0
230
1
0
LINE
5
AB
100
AcDbEntity
8
1
62
256
6
ByLayer
370
13
48
1
60
0
100
AcDbLine
10
70.132846
20
1.759292
30
0
11
70.483738
21
1.753084
31
0
39
0
210
0
220
0
230
1
0
LINE
5
AC
100
AcDbEntity
8
1
62
256
6
ByLayer
370
18
48
1
60
0
100
AcDbLine
10
0
20
9.8
30
0
11
0
21
-9.8
31
0
39
0
210
0
220
0
230
1
0
LINE
5
AD
100
AcDbEntity
8
1
62
256
6
ByLayer
370
18
48
1
60
0
100
AcDbLine
10
13
20
5.05
30
0
11
13
21
4.427888
31
0
39
0
210
0
220
0
230
1
0
LINE
5
AE
100
AcDbEntity
8
1
62
256
6
ByLayer
370
18
48
1
60
0
100
AcDbLine
10
64.8
20
-4.877925
30
0
11
64.8
21
-4.980782
31
0
39
0
210
0
220
0
230
1
0
LINE
5
AF
100
AcDbEntity
8
1
62
256
6
ByLayer
370
18
48
1
60
0
100
AcDbLine
10
65.782477
20
-4.636364
30
0
11
67.507122
21
-4.636364
31
0
39
0
210
0
220
0
230
1
0
LINE
5
B0
100
AcDbEntity
8
1
62
256
6
ByLayer
370
18
48
1
60
0
100
AcDbLine
10
67.63755
20
-3.717294
30
0
11
68.065798
21
-4.145542
31
0
39
0
210
0
220
0
230
1
0
LINE
5
B1
100
AcDbEntity
8
1
62
256
6
ByLayer
370
13
48
1
60
0
100
AcDbLine
10
64.8
20
-4.877925
30
0
11
65.074739
21
-4.974515
31
0
39
0
210
0
220
0
230
1
0
LINE
5
B2
100
AcDbEntity
8
1
62
256
6
ByLayer
370
13
48
1
60
0
100
AcDbLine
10
70.93373
20
0.232089
30
0
11
70.494852
21
0.51996
31
0
39
0
210
0
220
0
230
1
0
LINE
5
B3
100
AcDbEntity
8
1
62
256
6
ByLayer
370
18
48
1
60
0
100
AcDbLine
10
14.996
20
-4.848206
30
0
11
14.996
21
-1.98845
31
0
39
0
210
0
220
0
230
1
0
LINE
5
B4
100
AcDbEntity
8
1
62
256
6
ByLayer
370
18
48
1
60
0
100
AcDbLine
10
57.45712
20
1.455295
30
0
11
57.45712
21
3.477154
31
0
39
0
210
0
220
0
230
1
0
LINE
5
B5
100
AcDbEntity
8
1
62
256
6
ByLayer
370
18
48
1
60
0
100
AcDbLine
10
66.472637
20
-0.124986
30
0
11
66.439999
21
-0.144016
31
0
39
0
210
0
220
0
230
1
0
LINE
5
B6
100
AcDbEntity
8
1
62
256
6
ByLayer
370
13
48
1
60
0
100
AcDbLine
10
4.0004
20
0
30
0
11
4.0004
21
-10
31
0
39
0
210
0
220
0
230
1
0
LINE
5
B7
100
AcDbEntity
8
1
62
256
6
ByLayer
370
13
48
1
60
0
100
AcDbLine
10
4.0004
20
10
30
0
11
4.0004
21
0
31
0
39
0
210
0
220
0
230
1
0
LINE
5
B8
100
AcDbEntity
8
1
62
256
6
ByLayer
370
18
48
1
60
0
100
AcDbLine
10
68.065798
20
-2.261407
30
0
11
68.065647
21
-2.2598
31
0
39
0
210
0
220
0
230
1
0
LINE
5
B9
100
AcDbEntity
8
1
62
256
6
ByLayer
370
13
48
1
60
0
100
AcDbLine
10
70.137771
20
-1.572721
30
0
11
69.694406
21
-1.281907
31
0
39
0
210
0
220
0
230
1
0
LINE
5
BA
100
AcDbEntity
8
1
62
256
6
ByLayer
370
18
48
1
60
0
100
AcDbLine
10
68.062286
20
-4.152044
30
0
11
68.065798
21
-4.145542
31
0
39
0
210
0
220
0
230
1
0
LINE
5
BB
100
AcDbEntity
8
1
62
256
6
ByLayer
370
18
48
1
60
0
100
AcDbLine
10
71
20
0
30
0
11
70.991108
21
-0.037012
31
0
39
0
210
0
220
0
230
1
0
LINE
5
BC
100
AcDbEntity
8
1
62
256
6
ByLayer
370
18
48
1
60
0
100
AcDbLine
10
14.05
20
5.15
30
0
11
14.05
21
4.537602
31
0
39
0
210
0
220
0
230
1
0
LINE
5
BD
100
AcDbEntity
8
1
62
256
6
ByLayer
370
13
48
1
60
0
100
AcDbLine
10
64.6
20
1.6
30
0
11
64.80718
21
1.6
31
0
39
0
210
0
220
0
230
1
0
LINE
5
BE
100
AcDbEntity
8
1
62
256
6
ByLayer
370
18
48
1
60
0
100
AcDbLine
10
67.507122
20
-4.636364
30
0
11
67.511699
21
-4.634444
31
0
39
0
210
0
220
0
230
1
0
LINE
5
BF
100
AcDbEntity
8
1
62
256
6
ByLayer
370
13
48
1
60
0
100
AcDbLine
10
10.454367
20
-0.113967
30
0
11
10.454367
21
-5.96459
31
0
39
0
210
0
220
0
230
1
0
LINE
5
C0
100
AcDbEntity
8
1
62
256
6
ByLayer
370
18
48
1
60
0
100
AcDbLine
10
64.8
20
-4.837355
30
0
11
64.8
21
-4.868973
31
0
39
0
210
0
220
0
230
1
0
LINE
5
C1
100
AcDbEntity
8
1
62
256
6
ByLayer
370
18
48
1
60
0
100
AcDbLine
10
70.929915
20
-0.203044
30
0
11
71
21
0
31
0
39
0
210
0
220
0
230
1
0
LINE
5
C2
100
AcDbEntity
8
1
62
256
6
ByLayer
370
13
48
1
60
0
100
AcDbLine
10
66.937781
20
-1.625084
30
0
11
64.967384
21
-1.521873
31
0
39
0
210
0
220
0
230
1
0
LINE
5
C3
100
AcDbEntity
8
1
62
256
6
ByLayer
370
18
48
1
60
0
100
AcDbLine
10
70.93373
20
-0.232089
30
0
11
70.868938
21
-0.492606
31
0
39
0
210
0
220
0
230
1
0
LINE
5
C4
100
AcDbEntity
8
1
62
256
6
ByLayer
370
18
48
1
60
0
100
AcDbLine
10
64.8
20
-4.868973
30
0
11
64.8
21
-4.869101
31
0
39
0
210
0
220
0
230
1
0
LINE
5
C5
100
AcDbEntity
8
1
62
256
6
ByLayer
370
18
48
1
60
0
100
AcDbLine
10
70.483738
20
1.753084
30
0
11
70.468653
21
1.797727
31
0
39
0
210
0
220
0
230
1
0
LINE
5
C6
100
AcDbEntity
8
1
62
256
6
ByLayer
370
18
48
1
60
0
100
AcDbLine
10
67.511699
20
-4.634444
30
0
11
68.062286
21
-4.152044
31
0
39
0
210
0
220
0
230
1
0
LINE
5
C7
100
AcDbEntity
8
SK1
62
256
6
ByLayer
370
18
48
1
60
0
100
AcDbLine
10
-47
20
0
30
0
11
-47
21
-7.99725
31
0
39
0
210
0
220
0
230
1
0
LINE
5
C8
100
AcDbEntity
8
SK1
62
256
6
ByLayer
370
18
48
1
60
0
100
AcDbLine
10
-47
20
7.99725
30
0
11
-47
21
0
31
0
39
0
210
0
220
0
230
1
0
LINE
5
C9
100
AcDbEntity
8
SK1
62
256
6
ByLayer
370
18
48
1
60
0
100
AcDbLine
10
-41.5
20
-5.226875
30
0
11
-6.5
21
-5.226875
31
0
39
0
210
0
220
0
230
1
0
LINE
5
CA
100
AcDbEntity
8
SK1
62
256
6
ByLayer
370
13
48
1
60
0
100
AcDbLine
10
-46.573182
20
-7.975533
30
0
11
-46.573182
21
0
31
0
39
0
210
0
220
0
230
1
0
LINE
5
CB
100
AcDbEntity
8
SK1
62
256
6
ByLayer
370
13
48
1
60
0
100
AcDbLine
10
-46.573182
20
0
30
0
11
-46.573182
21
7.975533
31
0
39
0
210
0
220
0
230
1
0
LINE
5
CC
100
AcDbEntity
8
SK1
62
256
6
ByLayer
370
13
48
1
60
0
100
AcDbLine
10
-1.144243
20
0
30
0
11
-1.144243
21
-7.784727
31
0
39
0
210
0
220
0
230
1
0
LINE
5
CD
100
AcDbEntity
8
SK1
62
256
6
ByLayer
370
13
48
1
60
0
100
AcDbLine
10
-1.144243
20
7.784727
30
0
11
-1.144243
21
0
31
0
39
0
210
0
220
0
230
1
0
LINE
5
CE
100
AcDbEntity
8
SK1
62
256
6
ByLayer
370
18
48
1
60
0
100
AcDbLine
10
-1.6
20
-7.99725
30
0
11
-1.6
21
0
31
0
39
0
210
0
220
0
230
1
0
LINE
5
CF
100
AcDbEntity
8
SK1
62
256
6
ByLayer
370
18
48
1
60
0
100
AcDbLine
10
-1.6
20
0
30
0
11
-1.6
21
7.99725
31
0
39
0
210
0
220
0
230
1
0
LINE
5
D0
100
AcDbEntity
8
SK1
62
256
6
ByLayer
370
18
48
1
60
0
100
AcDbLine
10
-48
20
0
30
0
11
-48
21
-6.99725
31
0
39
0
210
0
220
0
230
1
0
LINE
5
D1
100
AcDbEntity
8
SK1
62
256
6
ByLayer
370
18
48
1
60
0
100
AcDbLine
10
-48
20
6.99725
30
0
11
-48
21
0
31
0
39
0
210
0
220
0
230
1
0
LINE
5
D2
100
AcDbEntity
8
SK1
62
256
6
ByLayer
370
18
48
1
60
0
100
AcDbLine
10
-6.5
20
5.226875
30
0
11
-41.5
21
5.226875
31
0
39
0
210
0
220
0
230
1
0
LINE
5
D3
100
AcDbEntity
8
SK1
62
256
6
ByLayer
370
18
48
1
60
0
100
AcDbLine
10
-45.4
20
0
30
0
11
-45.4
21
-7.99725
31
0
39
0
210
0
220
0
230
1
0
LINE
5
D4
100
AcDbEntity
8
SK1
62
256
6
ByLayer
370
18
48
1
60
0
100
AcDbLine
10
-45.4
20
7.99725
30
0
11
-45.4
21
0
31
0
39
0
210
0
220
0
230
1
0
LINE
5
D5
100
AcDbEntity
8
SK1
62
256
6
ByLayer
370
13
48
1
60
0
100
AcDbLine
10
-41.5
20
5.226875
30
0
11
-41.5
21
-5.226875
31
0
39
0
210
0
220
0
230
1
0
LINE
5
D6
100
AcDbEntity
8
SK1
62
256
6
ByLayer
370
13
48
1
60
0
100
AcDbLine
10
-0.15
20
0
30
0
11
-0.15
21
-7.74725
31
0
39
0
210
0
220
0
230
1
0
LINE
5
D7
100
AcDbEntity
8
SK1
62
256
6
ByLayer
370
13
48
1
60
0
100
AcDbLine
10
-0.15
20
7.74725
30
0
11
-0.15
21
0
31
0
39
0
210
0
220
0
230
1
0
LINE
5
D8
100
AcDbEntity
8
SK1
62
256
6
ByLayer
370
18
48
1
60
0
100
AcDbLine
10
-46.6
20
-7.99725
30
0
11
-46.6
21
7.99725
31
0
39
0
210
0
220
0
230
1
0
LINE
5
D9
100
AcDbEntity
8
SK1
62
256
6
ByLayer
370
13
48
1
60
0
100
AcDbLine
10
-45.783316
20
-7.850276
30
0
11
-45.783316
21
0
31
0
39
0
210
0
220
0
230
1
0
LINE
5
DA
100
AcDbEntity
8
SK1
62
256
6
ByLayer
370
13
48
1
60
0
100
AcDbLine
10
-45.783316
20
0
30
0
11
-45.783316
21
7.850276
31
0
39
0
210
0
220
0
230
1
0
LINE
5
DB
100
AcDbEntity
8
SK1
62
256
6
ByLayer
370
13
48
1
60
0
100
AcDbLine
10
-6.5
20
-5.226875
30
0
11
-6.5
21
5.226875
31
0
39
0
210
0
220
0
230
1
0
LINE
5
DC
100
AcDbEntity
8
SK1
62
256
6
ByLayer
370
13
48
1
60
0
100
AcDbLine
10
-0.975195
20
7.74725
30
0
11
-0.975195
21
-7.74725
31
0
39
0
210
0
220
0
230
1
0
MTEXT
5
196
100
AcDbEntity
8
SK6
62
256
6
ByLayer
370
13
48
1
60
0
100
AcDbMText
10
-5.84113
20
27.625134
30
0
210
0
220
0
230
1
1
\W0.7004;870-1050-7L16-5
40
3.5
41
0
44
1.084337
50
0
71
7
72
5
7
iso_b_vert
0
DIMENSION
5
1A4
100
AcDbEntity
8
2
62
256
6
ByLayer
370
13
48
1
60
0
100
AcDbDimension
2
DimnDraft3D1
10
13
20
-18.25
30
0
11
42
21
-18.25
31
0
70
32
71
5
72
1
41
1
210
0
220
0
230
1
3
Standard
100
AcDbAlignedDimension
13
71
23
-1.5875
33
0
14
13
24
-6.8375
34
0
50
0
100
AcDbRotatedDimension
1001
ACAD
1000
DSTYLE
1002
{
1070
   279
1070
     0
1070
   172
1070
     1
1070
   173
1070
     1
1070
   340
1005
197
1070
   271
1070
     1
1070
   272
1070
     2
1070
    77
1070
     1
1070
    73
1070
     0
1070
   171
1070
     3
1070
   274
1070
     4
1070
   177
1070
     7
1070
   176
1070
     7
1070
   178
1070
     7
1070
    48
1040
-0.005
1070
    41
1041
3.5
1070
   147
1041
1.5
1070
    42
1041
1.5875
1070
    44
1041
2.0
1070
   140
1041
3.0
1070
   343
1005
0
1070
   344
1005
0
1002
}
0
DIMENSION
5
1AE
100
AcDbEntity
8
2
62
256
6
ByLayer
370
13
48
1
60
0
100
AcDbDimension
2
DimnDraft3D2
10
14.326
20
12.25
30
0
11
42.663
21
12.25
31
0
70
32
71
5
72
1
41
1
210
0
220
0
230
1
3
Standard
100
AcDbAlignedDimension
13
71
23
1.5875
33
0
14
14.326
24
6.8375
34
0
50
0
100
AcDbRotatedDimension
1001
ACAD
1000
DSTYLE
1002
{
1070
   279
1070
     0
1070
   172
1070
     1
1070
   173
1070
     1
1070
   340
1005
197
1070
   271
1070
     1
1070
   272
1070
     2
1070
    77
1070
     1
1070
    73
1070
     0
1070
   171
1070
     3
1070
   274
1070
     4
1070
   177
1070
     7
1070
   176
1070
     7
1070
   178
1070
     7
1070
    48
1040
-0.005
1070
    41
1041
3.5
1070
   147
1041
1.5
1070
    42
1041
1.5875
1070
    44
1041
2.0
1070
   140
1041
3.0
1070
   343
1005
0
1070
   344
1005
0
1002
}
0
DIMENSION
5
1B9
100
AcDbEntity
8
SK2
62
256
6
ByLayer
370
13
48
1
60
0
100
AcDbDimension
2
DimnDraft3D3
10
0
20
-31
30
0
11
-24
21
-31
31
0
70
32
71
5
72
1
41
1
210
0
220
0
230
1
3
Standard
100
AcDbAlignedDimension
13
-48
23
-9.5875
33
0
14
0
24
-11.5875
34
0
50
0
100
AcDbRotatedDimension
1001
ACAD
1000
DSTYLE
1002
{
1070
   279
1070
     0
1070
   172
1070
     1
1070
   173
1070
     1
1070
   340
1005
197
1070
   271
1070
     1
1070
   272
1070
     2
1070
    77
1070
     1
1070
    73
1070
     0
1070
   171
1070
     3
1070
   274
1070
     4
1070
   177
1070
     7
1070
   176
1070
     7
1070
   178
1070
     7
1070
    48
1040
-0.005
1070
    41
1041
3.5
1070
   147
1041
1.5
1070
    42
1041
1.5875
1070
    44
1041
2.0
1070
   140
1041
3.0
1070
   343
1005
0
1070
   344
1005
0
1002
}
0
DIMENSION
5
1C3
100
AcDbEntity
8
2
62
256
6
ByLayer
370
13
48
1
60
0
100
AcDbDimension
2
DimnDraft3D4
10
71
20
-31
30
0
11
35.5
21
-31
31
0
70
32
71
5
72
1
41
1
210
0
220
0
230
1
3
Standard
100
AcDbAlignedDimension
13
0
23
-11.5875
33
0
14
71
24
-1.5875
34
0
50
0
100
AcDbRotatedDimension
1001
ACAD
1000
DSTYLE
1002
{
1070
   279
1070
     0
1070
   172
1070
     1
1070
   173
1070
     1
1070
   340
1005
197
1070
   271
1070
     1
1070
   272
1070
     2
1070
    77
1070
     1
1070
    73
1070
     0
1070
   171
1070
     3
1070
   274
1070
     4
1070
   177
1070
     7
1070
   176
1070
     7
1070
   178
1070
     7
1070
    48
1040
-0.005
1070
    41
1041
3.5
1070
   147
1041
1.5
1070
    42
1041
1.5875
1070
    44
1041
2.0
1070
   140
1041
3.0
1070
   343
1005
0
1070
   344
1005
0
1002
}
0
DIMENSION
5
1CE
100
AcDbEntity
8
SK2
62
256
6
ByLayer
370
13
48
1
60
0
100
AcDbDimension
2
DimnDraft3D5
10
-56.25
20
-8
30
0
11
-56.5
21
-0.145514
31
0
70
33
71
5
72
1
41
1
210
0
220
0
230
1
3
Standard
100
AcDbAlignedDimension
13
-49.5875
23
8
33
0
14
-49.5875
24
-8
34
0
1001
ACAD
1000
DSTYLE
1002
{
1070
   279
1070
     0
1070
    74
1070
     0
1070
   173
1070
     1
1070
   340
1005
197
1070
   271
1070
     1
1070
   272
1070
     2
1070
    77
1070
     1
1070
    73
1070
     0
1070
   171
1070
     3
1070
   274
1070
     4
1070
   177
1070
     7
1070
   176
1070
     7
1070
   178
1070
     7
1070
    48
1040
-0.005
1070
    41
1041
3.5
1070
   147
1041
1.5
1070
    42
1041
1.5875
1070
    44
1041
2.0
1070
   140
1041
3.0
1070
   343
1005
0
1070
   344
1005
0
1002
}
0
ENDSEC
0
SECTION
2
OBJECTS
0
DICTIONARY
5
239
330
0
100
AcDbDictionary
280
0
281
1
3
ACAD_GROUP
350
23a
3
ACAD_MLINESTYLE
350
23b
0
DICTIONARY
5
23a
330
0
100
AcDbDictionary
280
0
281
1
0
DICTIONARY
5
23b
330
0
100
AcDbDictionary
280
0
281
1
3
Standard
350
18
0
MLINESTYLE
5
18
330
23b
100
AcDbMlineStyle
2
Standard
70
0
3

62
256
51
90
52
90
71
2
49
-0.5
62
256
6
ByLayer
49
0.5
62
256
6
ByLayer
0
RASTERVARIABLES
5
227
330

100
AcDbRasterVariables
90
0
70
1
71
1
72
1
0
ENDSEC
0
EOF
