  0
SECTION
  2
HEADER
  9
$ACADVER
  1
AC1018
  9
$ACADMAINTVER
 70
     0
  9
$DWGCODEPAGE
  3
ANSI_1252
  9
$INSBASE
 10
0.0
 20
0.0
 30
0.0
  9
$EXTMIN
 10
-19.63429151489346
 20
-26.47889408236393
 30
0.0
  9
$EXTMAX
 10
164.1627134921881
 20
39.61197779146398
 30
0.0
  9
$LIMMIN
 10
0.0
 20
0.0
  9
$LIMMAX
 10
12.0
 20
9.0
  9
$ORTHOMODE
 70
     0
  9
$REGENMODE
 70
     1
  9
$FILLMODE
 70
     1
  9
$QTEXTMODE
 70
     0
  9
$MIRRTEXT
 70
     0
  9
$LTSCALE
 40
1.0
  9
$ATTMODE
 70
     1
  9
$TEXTSIZE
 40
0.0
  9
$TRACEWID
 40
0.05
  9
$TEXTSTYLE
  7
Standard
  9
$CLAYER
  8
1
  9
$CELTYPE
  6
ByLayer
  9
$CECOLOR
 62
   256
  9
$CELTSCALE
 40
1.0
  9
$DISPSILH
 70
     0
  9
$DIMSCALE
 40
1.0
  9
$DIMASZ
 40
0.18
  9
$DIMEXO
 40
0.0625
  9
$DIMDLI
 40
0.38
  9
$DIMRND
 40
0.0
  9
$DIMDLE
 40
0.0
  9
$DIMEXE
 40
0.18
  9
$DIMTP
 40
0.0
  9
$DIMTM
 40
0.0
  9
$DIMTXT
 40
0.18
  9
$DIMCEN
 40
0.09
  9
$DIMTSZ
 40
0.0
  9
$DIMTOL
 70
     0
  9
$DIMLIM
 70
     0
  9
$DIMTIH
 70
     1
  9
$DIMTOH
 70
     1
  9
$DIMSE1
 70
     0
  9
$DIMSE2
 70
     0
  9
$DIMTAD
 70
     0
  9
$DIMZIN
 70
     0
  9
$DIMBLK
  1

  9
$DIMASO
 70
     1
  9
$DIMSHO
 70
     1
  9
$DIMPOST
  1

  9
$DIMAPOST
  1

  9
$DIMALT
 70
     0
  9
$DIMALTD
 70
     2
  9
$DIMALTF
 40
25.4
  9
$DIMLFAC
 40
1.0
  9
$DIMTOFL
 70
     0
  9
$DIMTVP
 40
0.0
  9
$DIMTIX
 70
     0
  9
$DIMSOXD
 70
     0
  9
$DIMSAH
 70
     0
  9
$DIMBLK1
  1

  9
$DIMBLK2
  1

  9
$DIMSTYLE
  2
Standard
  9
$DIMCLRD
 70
     0
  9
$DIMCLRE
 70
     0
  9
$DIMCLRT
 70
     0
  9
$DIMTFAC
 40
1.0
  9
$DIMGAP
 40
0.09
  9
$DIMJUST
 70
     0
  9
$DIMSD1
 70
     0
  9
$DIMSD2
 70
     0
  9
$DIMTOLJ
 70
     1
  9
$DIMTZIN
 70
     0
  9
$DIMALTZ
 70
     0
  9
$DIMALTTZ
 70
     0
  9
$DIMUPT
 70
     0
  9
$DIMDEC
 70
     4
  9
$DIMTDEC
 70
     4
  9
$DIMALTU
 70
     2
  9
$DIMALTTD
 70
     2
  9
$DIMTXSTY
  7
Standard
  9
$DIMAUNIT
 70
     0
  9
$DIMADEC
 70
     0
  9
$DIMALTRND
 40
0.0
  9
$DIMAZIN
 70
     0
  9
$DIMDSEP
 70
    46
  9
$DIMATFIT
 70
     3
  9
$DIMFRAC
 70
     0
  9
$DIMLDRBLK
  1

  9
$DIMLUNIT
 70
     2
  9
$DIMLWD
 70
    -2
  9
$DIMLWE
 70
    -2
  9
$DIMTMOVE
 70
     0
  9
$LUNITS
 70
     2
  9
$LUPREC
 70
     4
  9
$SKETCHINC
 40
0.1
  9
$FILLETRAD
 40
0.0
  9
$AUNITS
 70
     0
  9
$AUPREC
 70
     0
  9
$MENU
  1
.
  9
$ELEVATION
 40
0.0
  9
$PELEVATION
 40
0.0
  9
$THICKNESS
 40
0.0
  9
$LIMCHECK
 70
     0
  9
$CHAMFERA
 40
0.0
  9
$CHAMFERB
 40
0.0
  9
$CHAMFERC
 40
0.0
  9
$CHAMFERD
 40
0.0
  9
$SKPOLY
 70
     0
  9
$TDCREATE
 40
2457169.520690984
  9
$TDUCREATE
 40
2457169.812357651
  9
$TDUPDATE
 40
2457457.523473900
  9
$TDUUPDATE
 40
2457457.815140568
  9
$TDINDWG
 40
0.0221611806
  9
$TDUSRTIMER
 40
0.0221605208
  9
$USRTIMER
 70
     1
  9
$ANGBASE
 50
0.0
  9
$ANGDIR
 70
     0
  9
$PDMODE
 70
     0
  9
$PDSIZE
 40
0.0
  9
$PLINEWID
 40
0.0
  9
$SPLFRAME
 70
     0
  9
$SPLINETYPE
 70
     6
  9
$SPLINESEGS
 70
     8
  9
$HANDSEED
  5
5F4
  9
$SURFTAB1
 70
     6
  9
$SURFTAB2
 70
     6
  9
$SURFTYPE
 70
     6
  9
$SURFU
 70
     6
  9
$SURFV
 70
     6
  9
$UCSBASE
  2

  9
$UCSNAME
  2

  9
$UCSORG
 10
0.0
 20
0.0
 30
0.0
  9
$UCSXDIR
 10
1.0
 20
0.0
 30
0.0
  9
$UCSYDIR
 10
0.0
 20
1.0
 30
0.0
  9
$UCSORTHOREF
  2

  9
$UCSORTHOVIEW
 70
     0
  9
$UCSORGTOP
 10
0.0
 20
0.0
 30
0.0
  9
$UCSORGBOTTOM
 10
0.0
 20
0.0
 30
0.0
  9
$UCSORGLEFT
 10
0.0
 20
0.0
 30
0.0
  9
$UCSORGRIGHT
 10
0.0
 20
0.0
 30
0.0
  9
$UCSORGFRONT
 10
0.0
 20
0.0
 30
0.0
  9
$UCSORGBACK
 10
0.0
 20
0.0
 30
0.0
  9
$PUCSBASE
  2

  9
$PUCSNAME
  2

  9
$PUCSORG
 10
0.0
 20
0.0
 30
0.0
  9
$PUCSXDIR
 10
1.0
 20
0.0
 30
0.0
  9
$PUCSYDIR
 10
0.0
 20
1.0
 30
0.0
  9
$PUCSORTHOREF
  2

  9
$PUCSORTHOVIEW
 70
     0
  9
$PUCSORGTOP
 10
0.0
 20
0.0
 30
0.0
  9
$PUCSORGBOTTOM
 10
0.0
 20
0.0
 30
0.0
  9
$PUCSORGLEFT
 10
0.0
 20
0.0
 30
0.0
  9
$PUCSORGRIGHT
 10
0.0
 20
0.0
 30
0.0
  9
$PUCSORGFRONT
 10
0.0
 20
0.0
 30
0.0
  9
$PUCSORGBACK
 10
0.0
 20
0.0
 30
0.0
  9
$USERI1
 70
     0
  9
$USERI2
 70
     0
  9
$USERI3
 70
     0
  9
$USERI4
 70
     0
  9
$USERI5
 70
     0
  9
$USERR1
 40
0.0
  9
$USERR2
 40
0.0
  9
$USERR3
 40
0.0
  9
$USERR4
 40
0.0
  9
$USERR5
 40
0.0
  9
$WORLDVIEW
 70
     1
  9
$SHADEDGE
 70
     3
  9
$SHADEDIF
 70
    70
  9
$TILEMODE
 70
     1
  9
$MAXACTVP
 70
    64
  9
$PINSBASE
 10
0.0
 20
0.0
 30
0.0
  9
$PLIMCHECK
 70
     0
  9
$PEXTMIN
 10
1.000000000000000E+20
 20
1.000000000000000E+20
 30
1.000000000000000E+20
  9
$PEXTMAX
 10
-1.000000000000000E+20
 20
-1.000000000000000E+20
 30
-1.000000000000000E+20
  9
$PLIMMIN
 10
0.0
 20
0.0
  9
$PLIMMAX
 10
12.0
 20
9.0
  9
$UNITMODE
 70
     0
  9
$VISRETAIN
 70
     1
  9
$PLINEGEN
 70
     0
  9
$PSLTSCALE
 70
     1
  9
$TREEDEPTH
 70
  3020
  9
$CMLSTYLE
  2
Standard
  9
$CMLJUST
 70
     0
  9
$CMLSCALE
 40
1.0
  9
$PROXYGRAPHICS
 70
     1
  9
$MEASUREMENT
 70
     0
  9
$CELWEIGHT
370
    18
  9
$ENDCAPS
280
     0
  9
$JOINSTYLE
280
     0
  9
$LWDISPLAY
290
     1
  9
$INSUNITS
 70
     4
  9
$HYPERLINKBASE
  1

  9
$STYLESHEET
  1

  9
$XEDIT
290
     1
  9
$CEPSNTYPE
380
     0
  9
$PSTYLEMODE
290
     1
  9
$FINGERPRINTGUID
  2
{1A3370DD-E015-4359-90D3-D666A526498D}
  9
$VERSIONGUID
  2
{712EDDB8-1D6F-4E09-A646-7415855842DC}
  9
$EXTNAMES
290
     1
  9
$PSVPSCALE
 40
0.0
  9
$OLESTARTUP
290
     0
  9
$SORTENTS
280
   127
  9
$INDEXCTL
280
     0
  9
$HIDETEXT
280
     0
  9
$XCLIPFRAME
290
     0
  9
$HALOGAP
280
     0
  9
$OBSCOLOR
 70
   257
  9
$OBSLTYPE
280
     0
  9
$INTERSECTIONDISPLAY
280
     0
  9
$INTERSECTIONCOLOR
 70
   257
  9
$DIMASSOC
280
     1
  9
$PROJECTNAME
  1

  0
ENDSEC
  0
SECTION
  2
CLASSES
  0
CLASS
  1
RASTERVARIABLES
  2
AcDbRasterVariables
  3
ISM
 90
        0
 91
        0
280
     0
281
     0
  0
CLASS
  1
ACDBDICTIONARYWDFLT
  2
AcDbDictionaryWithDefault
  3
ObjectDBX Classes
 90
        0
 91
        1
280
     0
281
     0
  0
ENDSEC
  0
SECTION
  2
TABLES
  0
TABLE
  2
VPORT
  5
186
330
0
100
AcDbSymbolTable
 70
     2
  0
VPORT
  5
5F3
330
186
100
AcDbSymbolTableRecord
100
AcDbViewportTableRecord
  2
*Active
 70
     0
 10
0.0
 20
0.0
 11
1.0
 21
1.0
 12
65.85626079068806
 22
10.70837868935244
 13
0.0
 23
0.0
 14
0.5
 24
0.5
 15
10.0
 25
10.0
 16
0.0
 26
0.0
 36
1.0
 17
0.0
 27
0.0
 37
0.0
 40
128.303617210231
 41
2.336906584992342
 42
50.0
 43
0.0
 44
0.0
 50
0.0
 51
0.0
 71
     0
 72
   100
 73
     1
 74
     1
 75
     0
 76
     0
 77
     0
 78
     0
281
     0
 65
     1
110
0.0
120
0.0
130
0.0
111
1.0
121
0.0
131
0.0
112
0.0
122
1.0
132
0.0
 79
     0
146
0.0
  0
ENDTAB
  0
TABLE
  2
LTYPE
  5
187
330
0
100
AcDbSymbolTable
 70
     3
  0
LTYPE
  5
14
330
187
100
AcDbSymbolTableRecord
100
AcDbLinetypeTableRecord
  2
ByBlock
 70
     0
  3

 72
    65
 73
     0
 40
0.0
  0
LTYPE
  5
15
330
187
100
AcDbSymbolTableRecord
100
AcDbLinetypeTableRecord
  2
ByLayer
 70
     0
  3

 72
    65
 73
     0
 40
0.0
  0
LTYPE
  5
16
330
187
100
AcDbSymbolTableRecord
100
AcDbLinetypeTableRecord
  2
CONTINUOUS
 70
     0
  3
Solid line
 72
    65
 73
     0
 40
0.0
  0
LTYPE
  5
6A
330
187
100
AcDbSymbolTableRecord
100
AcDbLinetypeTableRecord
  2
CENTER
 70
     0
  3
____ _ ____ _ ____ _ ____
 72
    65
 73
     4
 40
47.5
 49
22.0
 74
     0
 49
-8.5
 74
     0
 49
8.5
 74
     0
 49
-8.5
 74
     0
  0
LTYPE
  5
6B
330
187
100
AcDbSymbolTableRecord
100
AcDbLinetypeTableRecord
  2
DASHED
 70
     0
  3
__ __ __ __ __ __ __ __ __
 72
    65
 73
     2
 40
25.72
 49
12.86
 74
     0
 49
-12.86
 74
     0
  0
ENDTAB
  0
TABLE
  2
LAYER
  5
188
330
0
100
AcDbSymbolTable
 70
    11
  0
LAYER
  5
10
330
188
100
AcDbSymbolTableRecord
100
AcDbLayerTableRecord
  2
0
 70
     0
 62
     7
  6
CONTINUOUS
370
    -3
390
193
  0
LAYER
  5
6D
330
188
100
AcDbSymbolTableRecord
100
AcDbLayerTableRecord
  2
81
 70
     0
 62
    -3
  6
CONTINUOUS
370
    -3
390
193
  0
LAYER
  5
6F
330
188
100
AcDbSymbolTableRecord
100
AcDbLayerTableRecord
  2
80
 70
     0
 62
    -6
  6
CONTINUOUS
370
    -3
390
193
  0
LAYER
  5
74
330
188
100
AcDbSymbolTableRecord
100
AcDbLayerTableRecord
  2
2
 70
     0
 62
     7
  6
CONTINUOUS
370
    -3
390
193
  0
LAYER
  5
78
330
188
100
AcDbSymbolTableRecord
100
AcDbLayerTableRecord
  2
1
 70
     0
 62
     4
  6
CONTINUOUS
370
    -3
390
193
  0
LAYER
  5
88
330
188
100
AcDbSymbolTableRecord
100
AcDbLayerTableRecord
  2
4
 70
     0
 62
    -2
  6
CENTER
370
    -3
390
193
  0
LAYER
  5
172
330
188
100
AcDbSymbolTableRecord
100
AcDbLayerTableRecord
  2
SK2
 70
     0
 62
     7
  6
CONTINUOUS
370
    -3
390
193
  0
LAYER
  5
173
330
188
100
AcDbSymbolTableRecord
100
AcDbLayerTableRecord
  2
SK1
 70
     0
 62
     4
  6
CONTINUOUS
370
    -3
390
193
  0
LAYER
  5
174
330
188
100
AcDbSymbolTableRecord
100
AcDbLayerTableRecord
  2
SK4
 70
     0
 62
    -2
  6
CENTER
370
    -3
390
193
  0
LAYER
  5
175
330
188
100
AcDbSymbolTableRecord
100
AcDbLayerTableRecord
  2
SK6
 70
     0
 62
     5
  6
CONTINUOUS
370
    -3
390
193
  0
LAYER
  5
336
330
188
100
AcDbSymbolTableRecord
100
AcDbLayerTableRecord
  2
Defpoints
 70
     0
 62
     7
  6
CONTINUOUS
290
     0
370
    -3
390
193
  0
ENDTAB
  0
TABLE
  2
STYLE
  5
189
330
0
100
AcDbSymbolTable
 70
     3
  0
STYLE
  5
11
330
189
100
AcDbSymbolTableRecord
100
AcDbTextStyleTableRecord
  2
Standard
 70
     0
 40
0.0
 41
1.0
 50
0.0
 71
     0
 42
0.0
  3
txt
  4

  0
STYLE
  5
CE
330
189
100
AcDbSymbolTableRecord
100
AcDbTextStyleTableRecord
  2
iso_b_vert
 70
     0
 40
0.0
 41
1.0
 50
0.0
 71
     0
 42
0.0
  3
simplex.shx
  4

  0
STYLE
  5
CF
330
189
100
AcDbSymbolTableRecord
100
AcDbTextStyleTableRecord
  2
DWGDirectTextStyle
 70
     0
 40
0.0
 41
1.0
 50
0.0
 71
     0
 42
0.0
  3
simplex
  4

  0
ENDTAB
  0
TABLE
  2
VIEW
  5
18B
330
0
100
AcDbSymbolTable
 70
     0
  0
ENDTAB
  0
TABLE
  2
UCS
  5
18C
330
0
100
AcDbSymbolTable
 70
     0
  0
ENDTAB
  0
TABLE
  2
APPID
  5
18D
330
0
100
AcDbSymbolTable
 70
     1
  0
APPID
  5
12
330
18D
100
AcDbSymbolTableRecord
100
AcDbRegAppTableRecord
  2
ACAD
 70
     0
  0
ENDTAB
  0
TABLE
  2
DIMSTYLE
  5
18A
330
0
100
AcDbSymbolTable
 70
     2
100
AcDbDimStyleTable
 71
     1
340
27
  0
DIMSTYLE
105
27
102
{ACAD_REACTORS
330
335
330
344
330
352
330
360
330
36E
330
38A
102
}
330
18A
100
AcDbSymbolTableRecord
100
AcDbDimStyleTableRecord
  2
Standard
 70
     0
  3
<>
 73
     0
 74
     0
 77
     1
271
     2
278
    52
340
11
  0
DIMSTYLE
105
1A6
330
18A
100
AcDbSymbolTableRecord
100
AcDbDimStyleTableRecord
  2
ISO-25
 70
     0
 41
2.5
 42
0.625
 43
3.75
 44
1.25
 73
     0
 74
     0
 77
     1
 78
     8
140
2.5
141
2.5
143
0.0393700787
147
0.625
171
     3
172
     1
271
     2
272
     2
274
     3
278
    44
283
     0
284
     8
340
11
  0
ENDTAB
  0
TABLE
  2
BLOCK_RECORD
  5
18E
330
0
100
AcDbSymbolTable
 70
    15
  0
BLOCK_RECORD
  5
1F
330
18E
100
AcDbSymbolTableRecord
100
AcDbBlockTableRecord
  2
*Model_Space
340
198
  0
BLOCK_RECORD
  5
1B
330
18E
100
AcDbSymbolTableRecord
100
AcDbBlockTableRecord
  2
*Paper_Space
340
199
  0
BLOCK_RECORD
  5
23
330
18E
100
AcDbSymbolTableRecord
100
AcDbBlockTableRecord
  2
*Paper_Space0
340
0
  0
BLOCK_RECORD
  5
D1
330
18E
100
AcDbSymbolTableRecord
100
AcDbBlockTableRecord
  2
DimnDraft3D1
340
0
  0
BLOCK_RECORD
  5
DB
330
18E
100
AcDbSymbolTableRecord
100
AcDbBlockTableRecord
  2
DimnDraft3D2
340
0
  0
BLOCK_RECORD
  5
E5
330
18E
100
AcDbSymbolTableRecord
100
AcDbBlockTableRecord
  2
DimnDraft3D3
340
0
  0
BLOCK_RECORD
  5
EF
330
18E
100
AcDbSymbolTableRecord
100
AcDbBlockTableRecord
  2
DimnDraft3D4
340
0
  0
BLOCK_RECORD
  5
F9
330
18E
100
AcDbSymbolTableRecord
100
AcDbBlockTableRecord
  2
DimnDraft3D5
340
0
  0
BLOCK_RECORD
  5
103
330
18E
100
AcDbSymbolTableRecord
100
AcDbBlockTableRecord
  2
DimnDraft3D6
340
0
  0
BLOCK_RECORD
  5
10E
330
18E
100
AcDbSymbolTableRecord
100
AcDbBlockTableRecord
  2
DimnDraft3D7
340
0
  0
BLOCK_RECORD
  5
337
330
18E
100
AcDbSymbolTableRecord
100
AcDbBlockTableRecord
  2
*D8
340
0
  0
BLOCK_RECORD
  5
345
330
18E
100
AcDbSymbolTableRecord
100
AcDbBlockTableRecord
  2
*D9
340
0
  0
BLOCK_RECORD
  5
353
330
18E
100
AcDbSymbolTableRecord
100
AcDbBlockTableRecord
  2
*D10
340
0
  0
BLOCK_RECORD
  5
361
330
18E
100
AcDbSymbolTableRecord
100
AcDbBlockTableRecord
  2
*D11
340
0
  0
BLOCK_RECORD
  5
36F
330
18E
100
AcDbSymbolTableRecord
100
AcDbBlockTableRecord
  2
*D12
340
0
  0
BLOCK_RECORD
  5
37D
330
18E
100
AcDbSymbolTableRecord
100
AcDbBlockTableRecord
  2
*D13
340
0
  0
BLOCK_RECORD
  5
38B
330
18E
100
AcDbSymbolTableRecord
100
AcDbBlockTableRecord
  2
*D14
340
0
  0
ENDTAB
  0
ENDSEC
  0
SECTION
  2
BLOCKS
  0
BLOCK
  5
20
330
1F
100
AcDbEntity
  8
0
100
AcDbBlockBegin
  2
*Model_Space
 70
     0
 10
0.0
 20
0.0
 30
0.0
  3
*Model_Space
  1

  0
ENDBLK
  5
21
330
1F
100
AcDbEntity
  8
0
100
AcDbBlockEnd
  0
BLOCK
  5
1C
330
1B
100
AcDbEntity
 67
     1
  8
0
100
AcDbBlockBegin
  2
*Paper_Space
 70
     0
 10
0.0
 20
0.0
 30
0.0
  3
*Paper_Space
  1

  0
ENDBLK
  5
1D
330
1B
100
AcDbEntity
 67
     1
  8
0
100
AcDbBlockEnd
  0
BLOCK
  5
24
330
23
100
AcDbEntity
  8
0
100
AcDbBlockBegin
  2
*Paper_Space0
 70
     0
 10
0.0
 20
0.0
 30
0.0
  3
*Paper_Space0
  1

  0
ENDBLK
  5
25
330
23
100
AcDbEntity
  8
0
100
AcDbBlockEnd
  0
BLOCK
  5
D8
330
D1
100
AcDbEntity
  8
0
100
AcDbBlockBegin
  2
DimnDraft3D1
 70
     0
 10
0.0
 20
0.0
 30
0.0
  3
DimnDraft3D1
  1

  0
MTEXT
  5
D2
330
D1
100
AcDbEntity
  8
SK2
370
    13
100
AcDbMText
 10
7.372275
 20
-10.838398
 30
0.0
 40
3.5
 41
0.0
 71
     7
 72
     5
  1
\W0.7317;25,57
  7
iso_b_vert
 73
     1
 44
1.084337
  0
LINE
  5
D3
330
D1
100
AcDbEntity
  8
SK2
370
    13
100
AcDbLine
 10
0.0
 20
-1.587499999999999
 30
0.0
 11
0.0
 21
-13.713398
 31
0.0
  0
LINE
  5
D4
330
D1
100
AcDbEntity
  8
SK2
370
    13
100
AcDbLine
 10
25.5709
 20
-3.087499999999999
 30
0.0
 11
25.5709
 21
-13.713398
 31
0.0
  0
LINE
  5
D5
330
D1
100
AcDbEntity
  8
SK2
370
    13
100
AcDbLine
 10
0.0
 20
-11.713398
 30
0.0
 11
25.5709
 21
-11.713398
 31
0.0
  0
SOLID
  5
D6
330
D1
100
AcDbEntity
  8
SK2
370
    13
100
AcDbTrace
 10
0.0
 20
-11.713398
 30
0.0
 11
3.499998
 21
-11.252615
 31
0.0
 12
3.500001999999998
 22
-12.174182
 32
0.0
 13
0.0
 23
-11.713398
 33
0.0
  0
SOLID
  5
D7
330
D1
100
AcDbEntity
  8
SK2
370
    13
100
AcDbTrace
 10
25.5709
 20
-11.713398
 30
0.0
 11
22.070902
 21
-12.174182
 31
0.0
 12
22.070898
 22
-11.252615
 32
0.0
 13
25.5709
 23
-11.713398
 33
0.0
  0
ENDBLK
  5
D9
330
D1
100
AcDbEntity
  8
0
100
AcDbBlockEnd
  0
BLOCK
  5
E2
330
DB
100
AcDbEntity
  8
0
100
AcDbBlockBegin
  2
DimnDraft3D2
 70
     0
 10
0.0
 20
0.0
 30
0.0
  3
DimnDraft3D2
  1

  0
MTEXT
  5
DC
330
DB
100
AcDbEntity
  8
SK2
370
    13
100
AcDbMText
 10
-8.536483999999997
 20
-30.817985
 30
0.0
 40
3.5
 41
0.0
 71
     7
 72
     5
  1
\W0.7317;62,00
  7
iso_b_vert
 73
     1
 44
1.084337
  0
LINE
  5
DD
330
DB
100
AcDbEntity
  8
SK2
370
    13
100
AcDbLine
 10
-36.0
 20
-4.5875
 30
0.0
 11
-36.0
 21
-33.692985
 31
0.0
  0
LINE
  5
DE
330
DB
100
AcDbEntity
  8
SK2
370
    13
100
AcDbLine
 10
26.0
 20
-1.587499999999999
 30
0.0
 11
26.0
 21
-33.692985
 31
0.0
  0
LINE
  5
DF
330
DB
100
AcDbEntity
  8
SK2
370
    13
100
AcDbLine
 10
-36.0
 20
-31.692985
 30
0.0
 11
26.0
 21
-31.692985
 31
0.0
  0
SOLID
  5
E0
330
DB
100
AcDbEntity
  8
SK2
370
    13
100
AcDbTrace
 10
-36.0
 20
-31.692985
 30
0.0
 11
-32.50000200000001
 21
-31.232202
 31
0.0
 12
-32.499998
 22
-32.153769
 32
0.0
 13
-36.0
 23
-31.692985
 33
0.0
  0
SOLID
  5
E1
330
DB
100
AcDbEntity
  8
SK2
370
    13
100
AcDbTrace
 10
26.0
 20
-31.692985
 30
0.0
 11
22.500002
 21
-32.153769
 31
0.0
 12
22.499998
 22
-31.232202
 32
0.0
 13
26.0
 23
-31.692985
 33
0.0
  0
ENDBLK
  5
E3
330
DB
100
AcDbEntity
  8
0
100
AcDbBlockEnd
  0
BLOCK
  5
EC
330
E5
100
AcDbEntity
  8
0
100
AcDbBlockBegin
  2
DimnDraft3D3
 70
     0
 10
0.0
 20
0.0
 30
0.0
  3
DimnDraft3D3
  1

  0
MTEXT
  5
E6
330
E5
100
AcDbEntity
  8
SK2
370
    13
100
AcDbMText
 10
17.965
 20
13.984119
 30
0.0
 40
3.5
 41
0.0
 71
     7
 72
     5
  1
\W0.7493;9,42
  7
iso_b_vert
 73
     1
 44
1.084337
  0
LINE
  5
E7
330
E5
100
AcDbEntity
  8
SK2
370
    13
100
AcDbLine
 10
16.58
 20
3.087499999999999
 30
0.0
 11
16.58
 21
15.109119
 31
0.0
  0
LINE
  5
E8
330
E5
100
AcDbEntity
  8
SK2
370
    13
100
AcDbLine
 10
26.0
 20
1.587499999999999
 30
0.0
 11
26.0
 21
15.109119
 31
0.0
  0
LINE
  5
E9
330
E5
100
AcDbEntity
  8
SK2
370
    13
100
AcDbLine
 10
16.58
 20
13.109119
 30
0.0
 11
26.0
 21
13.109119
 31
0.0
  0
SOLID
  5
EA
330
E5
100
AcDbEntity
  8
SK2
370
    13
100
AcDbTrace
 10
16.58
 20
13.109119
 30
0.0
 11
20.079998
 21
13.569903
 31
0.0
 12
20.080002
 22
12.648335
 32
0.0
 13
16.58
 23
13.109119
 33
0.0
  0
SOLID
  5
EB
330
E5
100
AcDbEntity
  8
SK2
370
    13
100
AcDbTrace
 10
26.0
 20
13.109119
 30
0.0
 11
22.500002
 21
12.648335
 31
0.0
 12
22.499998
 22
13.569903
 32
0.0
 13
26.0
 23
13.109119
 33
0.0
  0
ENDBLK
  5
ED
330
E5
100
AcDbEntity
  8
0
100
AcDbBlockEnd
  0
BLOCK
  5
F6
330
EF
100
AcDbEntity
  8
0
100
AcDbBlockBegin
  2
DimnDraft3D4
 70
     0
 10
0.0
 20
0.0
 30
0.0
  3
DimnDraft3D4
  1

  0
MTEXT
  5
F0
330
EF
100
AcDbEntity
  8
SK2
370
    13
100
AcDbMText
 10
32.656425
 20
-13.427503
 30
0.0
 40
3.5
 41
0.0
 71
     7
 72
     5
  1
\W0.7493;0,43
  7
iso_b_vert
 73
     1
 44
1.084337
  0
LINE
  5
F1
330
EF
100
AcDbEntity
  8
SK2
370
    13
100
AcDbLine
 10
26.0
 20
-1.587499999999999
 30
0.0
 11
26.0
 21
-16.302503
 31
0.0
  0
LINE
  5
F2
330
EF
100
AcDbEntity
  8
SK2
370
    13
100
AcDbLine
 10
25.5709
 20
-3.087499999999999
 30
0.0
 11
25.5709
 21
-16.302503
 31
0.0
  0
LINE
  5
F3
330
EF
100
AcDbEntity
  8
SK2
370
    13
100
AcDbLine
 10
16.8209
 20
-14.302503
 30
0.0
 11
40.18142499999997
 21
-14.302503
 31
0.0
  0
SOLID
  5
F4
330
EF
100
AcDbEntity
  8
SK2
370
    13
100
AcDbTrace
 10
26.0
 20
-14.302503
 30
0.0
 11
29.499998
 21
-13.841719
 31
0.0
 12
29.500002
 22
-14.763287
 32
0.0
 13
26.0
 23
-14.302503
 33
0.0
  0
SOLID
  5
F5
330
EF
100
AcDbEntity
  8
SK2
370
    13
100
AcDbTrace
 10
25.5709
 20
-14.302503
 30
0.0
 11
22.070902
 21
-14.763287
 31
0.0
 12
22.070898
 22
-13.841719
 32
0.0
 13
25.5709
 23
-14.302503
 33
0.0
  0
ENDBLK
  5
F7
330
EF
100
AcDbEntity
  8
0
100
AcDbBlockEnd
  0
BLOCK
  5
100
330
F9
100
AcDbEntity
  8
0
100
AcDbBlockBegin
  2
DimnDraft3D5
 70
     0
 10
0.0
 20
0.0
 30
0.0
  3
DimnDraft3D5
  1

  0
MTEXT
  5
FA
330
F9
100
AcDbEntity
  8
SK2
370
    13
100
AcDbMText
 10
-11.179608
 20
-20.468428
 30
0.0
 40
3.5
 41
0.0
 71
     7
 72
     5
  1
\W0.6713;61,57
  7
iso_b_vert
 73
     1
 44
1.084337
  0
LINE
  5
FB
330
F9
100
AcDbEntity
  8
SK2
370
    13
100
AcDbLine
 10
-36.0
 20
-4.5875
 30
0.0
 11
-36.0
 21
-23.343428
 31
0.0
  0
LINE
  5
FC
330
F9
100
AcDbEntity
  8
SK2
370
    13
100
AcDbLine
 10
25.5709
 20
-3.087499999999999
 30
0.0
 11
25.5709
 21
-23.343428
 31
0.0
  0
LINE
  5
FD
330
F9
100
AcDbEntity
  8
SK2
370
    13
100
AcDbLine
 10
-36.0
 20
-21.343428
 30
0.0
 11
25.5709
 21
-21.343428
 31
0.0
  0
SOLID
  5
FE
330
F9
100
AcDbEntity
  8
SK2
370
    13
100
AcDbTrace
 10
-36.0
 20
-21.343428
 30
0.0
 11
-32.50000200000001
 21
-20.882645
 31
0.0
 12
-32.499998
 22
-21.804212
 32
0.0
 13
-36.0
 23
-21.343428
 33
0.0
  0
SOLID
  5
FF
330
F9
100
AcDbEntity
  8
SK2
370
    13
100
AcDbTrace
 10
25.5709
 20
-21.343428
 30
0.0
 11
22.070902
 21
-21.804212
 31
0.0
 12
22.070898
 22
-20.882645
 32
0.0
 13
25.5709
 23
-21.343428
 33
0.0
  0
ENDBLK
  5
101
330
F9
100
AcDbEntity
  8
0
100
AcDbBlockEnd
  0
BLOCK
  5
10B
330
103
100
AcDbEntity
  8
0
100
AcDbBlockBegin
  2
DimnDraft3D6
 70
     0
 10
0.0
 20
0.0
 30
0.0
  3
DimnDraft3D6
  1

  0
MTEXT
  5
104
330
103
100
AcDbEntity
  8
SK2
370
    13
100
AcDbMText
 10
-46.375163
 20
22.34918
 30
0.0
 40
3.5
 41
0.0
 71
     7
 72
     5
  1
\W0.7317;6,000
  7
iso_b_vert
 11
0.0000000000000001
 21
1.0
 31
0.0
 73
     1
 44
1.084337
  0
MTEXT
  5
105
330
103
100
AcDbEntity
  8
SK2
370
    13
100
AcDbMText
 10
-46.375163
 20
17.126524
 30
0.0
 40
3.5
 41
0.0
 71
     7
 72
     5
  1
%%c
  7
iso_b_vert
 11
0.0000000000000001
 21
1.0
 31
0.0
 73
     1
 44
1.084337
  0
LINE
  5
106
330
103
100
AcDbEntity
  8
SK2
370
    13
100
AcDbLine
 10
-37.5875
 20
-3.0
 30
0.0
 11
-46.625163
 21
-3.0
 31
0.0
  0
LINE
  5
107
330
103
100
AcDbEntity
  8
SK2
370
    13
100
AcDbLine
 10
-37.5875
 20
3.0
 30
0.0
 11
-46.625163
 21
3.0
 31
0.0
  0
LINE
  5
108
330
103
100
AcDbEntity
  8
SK2
370
    13
100
AcDbLine
 10
-44.62516299999999
 20
32.121549
 30
0.0
 11
-44.62516299999999
 21
-11.75
 31
0.0
  0
SOLID
  5
109
330
103
100
AcDbEntity
  8
SK2
370
    13
100
AcDbTrace
 10
-44.62516299999999
 20
-3.0
 30
0.0
 11
-44.164379
 21
-6.499998
 31
0.0
 12
-45.085946
 22
-6.500001999999997
 32
0.0
 13
-44.62516299999999
 23
-3.0
 33
0.0
  0
SOLID
  5
10A
330
103
100
AcDbEntity
  8
SK2
370
    13
100
AcDbTrace
 10
-44.62516299999999
 20
3.0
 30
0.0
 11
-45.085946
 21
6.499998
 31
0.0
 12
-44.164379
 22
6.500001999999997
 32
0.0
 13
-44.62516299999999
 23
3.0
 33
0.0
  0
ENDBLK
  5
10C
330
103
100
AcDbEntity
  8
0
100
AcDbBlockEnd
  0
BLOCK
  5
116
330
10E
100
AcDbEntity
  8
0
100
AcDbBlockBegin
  2
DimnDraft3D7
 70
     0
 10
0.0
 20
0.0
 30
0.0
  3
DimnDraft3D7
  1

  0
MTEXT
  5
10F
330
10E
100
AcDbEntity
  8
2
370
    13
100
AcDbMText
 10
36.333343
 20
19.442266
 30
0.0
 40
3.5
 41
0.0
 71
     7
 72
     5
  1
\W0.7317;3,000
  7
iso_b_vert
 11
0.0000000000000001
 21
1.0
 31
0.0
 73
     1
 44
1.084337
  0
MTEXT
  5
110
330
10E
100
AcDbEntity
  8
2
370
    13
100
AcDbMText
 10
36.333343
 20
14.21961
 30
0.0
 40
3.5
 41
0.0
 71
     7
 72
     5
  1
%%c
  7
iso_b_vert
 11
0.0000000000000001
 21
1.0
 31
0.0
 73
     1
 44
1.084337
  0
LINE
  5
111
330
10E
100
AcDbEntity
  8
2
370
    13
100
AcDbLine
 10
27.1584
 20
-1.5
 30
0.0
 11
40.083343
 21
-1.5
 31
0.0
  0
LINE
  5
112
330
10E
100
AcDbEntity
  8
2
370
    13
100
AcDbLine
 10
27.1584
 20
1.5
 30
0.0
 11
40.083343
 21
1.5
 31
0.0
  0
LINE
  5
113
330
10E
100
AcDbEntity
  8
2
370
    13
100
AcDbLine
 10
38.083343
 20
29.214635
 30
0.0
 11
38.083343
 21
-10.25
 31
0.0
  0
SOLID
  5
114
330
10E
100
AcDbEntity
  8
2
370
    13
100
AcDbTrace
 10
38.083343
 20
-1.5
 30
0.0
 11
38.544126
 21
-4.999998
 31
0.0
 12
37.622559
 22
-5.000001999999998
 32
0.0
 13
38.083343
 23
-1.5
 33
0.0
  0
SOLID
  5
115
330
10E
100
AcDbEntity
  8
2
370
    13
100
AcDbTrace
 10
38.083343
 20
1.5
 30
0.0
 11
37.622559
 21
4.999998
 31
0.0
 12
38.544126
 22
5.000001999999998
 32
0.0
 13
38.083343
 23
1.5
 33
0.0
  0
ENDBLK
  5
117
330
10E
100
AcDbEntity
  8
0
100
AcDbBlockEnd
  0
BLOCK
  5
342
330
337
100
AcDbEntity
  8
0
370
    18
100
AcDbBlockBegin
  2
*D8
 70
     1
 10
0.0
 20
0.0
 30
0.0
  3
*D8
  1

  0
LINE
  5
5CC
330
337
100
AcDbEntity
  8
2
 62
     0
370
    -2
100
AcDbLine
 10
137.4012915022
 20
5.570000000000002
 30
0.0
 11
146.2260468255214
 21
5.569999999999997
 31
0.0
  0
LINE
  5
5CD
330
337
100
AcDbEntity
  8
2
 62
     0
370
    -2
100
AcDbLine
 10
137.4081480443
 20
-5.569999999999997
 30
0.0
 11
146.2260468255214
 21
-5.570000000000002
 31
0.0
  0
LINE
  5
5CE
330
337
100
AcDbEntity
  8
2
 62
     0
370
    -2
100
AcDbLine
 10
146.0460468255214
 20
-2.569999999999999
 30
0.0
 11
146.0460468255214
 21
2.569999999999998
 31
0.0
  0
LINE
  5
5CF
330
337
100
AcDbEntity
  8
2
 62
     0
370
    -2
100
AcDbLine
 10
146.0460468255214
 20
5.569999999999997
 30
0.0
 11
146.0460468255214
 21
15.81728879242119
 31
0.0
  0
LINE
  5
5D0
330
337
100
AcDbEntity
  8
2
 62
     0
370
    -2
100
AcDbLine
 10
146.0460468255214
 20
15.81728879242119
 30
0.0
 11
164.1627134921881
 21
15.81728879242118
 31
0.0
  0
SOLID
  5
5D1
330
337
100
AcDbEntity
  8
2
 62
     0
370
    18
100
AcDbTrace
 10
145.5460468255215
 20
-2.569999999999999
 30
0.0
 11
146.5460468255215
 21
-2.569999999999999
 31
0.0
 12
146.0460468255214
 22
-5.570000000000002
 32
0.0
 13
146.0460468255214
 23
-5.570000000000002
 33
0.0
  0
SOLID
  5
5D2
330
337
100
AcDbEntity
  8
2
 62
     0
370
    18
100
AcDbTrace
 10
145.5460468255215
 20
2.569999999999998
 30
0.0
 11
146.5460468255215
 21
2.569999999999998
 31
0.0
 12
146.0460468255214
 22
5.569999999999997
 32
0.0
 13
146.0460468255214
 23
5.569999999999997
 33
0.0
  0
MTEXT
  5
5D3
330
337
100
AcDbEntity
  8
2
 62
     0
370
    18
100
AcDbMText
 10
155.7043801588548
 20
18.76728879242121
 30
0.0
 40
3.5
 41
0.0
 71
     5
 72
     1
  1
\A1;%%c11.140
 73
     1
 44
1.0
  0
POINT
  5
5D4
330
337
100
AcDbEntity
  8
Defpoints
 62
     0
370
    18
100
AcDbPoint
 10
137.3387915022
 20
5.570000000000002
 30
0.0
  0
POINT
  5
5D5
330
337
100
AcDbEntity
  8
Defpoints
 62
     0
370
    18
100
AcDbPoint
 10
137.3456480443
 20
-5.569999999999997
 30
0.0
  0
POINT
  5
5D6
330
337
100
AcDbEntity
  8
Defpoints
 62
     0
370
    18
100
AcDbPoint
 10
146.0460468255214
 20
-5.570000000000002
 30
0.0
  0
ENDBLK
  5
343
330
337
100
AcDbEntity
  8
0
370
    18
100
AcDbBlockEnd
  0
BLOCK
  5
350
330
345
100
AcDbEntity
  8
0
370
    18
100
AcDbBlockBegin
  2
*D9
 70
     1
 10
0.0
 20
0.0
 30
0.0
  3
*D9
  1

  0
LINE
  5
5DC
330
345
100
AcDbEntity
  8
2
 62
     0
370
    -2
100
AcDbLine
 10
97.43434169336548
 20
5.196510711296769
 30
0.0
 11
97.43434169336548
 21
15.98311225739308
 31
0.0
  0
LINE
  5
5DD
330
345
100
AcDbEntity
  8
2
 62
     0
370
    -2
100
AcDbLine
 10
141.881568792
 20
0.0625000000000022
 30
0.0
 11
141.881568792
 21
15.98311225739308
 31
0.0
  0
LINE
  5
5DE
330
345
100
AcDbEntity
  8
2
 62
     0
370
    -2
100
AcDbLine
 10
100.4343416933655
 20
15.80311225739308
 30
0.0
 11
138.881568792
 21
15.80311225739308
 31
0.0
  0
SOLID
  5
5DF
330
345
100
AcDbEntity
  8
2
 62
     0
370
    18
100
AcDbTrace
 10
100.4343416933655
 20
16.30311225739308
 30
0.0
 11
100.4343416933655
 21
15.30311225739308
 31
0.0
 12
97.43434169336548
 22
15.80311225739308
 32
0.0
 13
97.43434169336548
 23
15.80311225739308
 33
0.0
  0
SOLID
  5
5E0
330
345
100
AcDbEntity
  8
2
 62
     0
370
    18
100
AcDbTrace
 10
138.881568792
 20
16.30311225739308
 30
0.0
 11
138.881568792
 21
15.30311225739308
 31
0.0
 12
141.881568792
 22
15.80311225739308
 32
0.0
 13
141.881568792
 23
15.80311225739308
 33
0.0
  0
MTEXT
  5
5E1
330
345
100
AcDbEntity
  8
2
 62
     0
370
    18
100
AcDbMText
 10
119.6579552426827
 20
18.75311225739308
 30
0.0
 40
3.5
 41
0.0
 71
     5
 72
     1
  1
\A1;44.56
 73
     1
 44
1.0
  0
POINT
  5
5E2
330
345
100
AcDbEntity
  8
Defpoints
 62
     0
370
    18
100
AcDbPoint
 10
97.43434169336548
 20
5.134010711296769
 30
0.0
  0
POINT
  5
5E3
330
345
100
AcDbEntity
  8
Defpoints
 62
     0
370
    18
100
AcDbPoint
 10
141.881568792
 20
0.0000000000000022
 30
0.0
  0
POINT
  5
5E4
330
345
100
AcDbEntity
  8
Defpoints
 62
     0
370
    18
100
AcDbPoint
 10
141.881568792
 20
15.80311225739308
 30
0.0
  0
ENDBLK
  5
351
330
345
100
AcDbEntity
  8
0
370
    18
100
AcDbBlockEnd
  0
BLOCK
  5
35E
330
353
100
AcDbEntity
  8
0
370
    18
100
AcDbBlockBegin
  2
*D10
 70
     1
 10
0.0
 20
0.0
 30
0.0
  3
*D10
  1

  0
LINE
  5
5E5
330
353
100
AcDbEntity
  8
2
 62
     0
370
    -2
100
AcDbLine
 10
0.0
 20
-6.012499999999997
 30
0.0
 11
-0.0000000000000006
 21
-16.50878172756437
 31
0.0
  0
LINE
  5
5E6
330
353
100
AcDbEntity
  8
2
 62
     0
370
    -2
100
AcDbLine
 10
138.0545148754204
 20
-5.617436904854764
 30
0.0
 11
138.0545148754204
 21
-16.50878172756437
 31
0.0
  0
LINE
  5
5E7
330
353
100
AcDbEntity
  8
2
 62
     0
370
    -2
100
AcDbLine
 10
2.999999999999998
 20
-16.32878172756437
 30
0.0
 11
135.0545148754204
 21
-16.32878172756437
 31
0.0
  0
SOLID
  5
5E8
330
353
100
AcDbEntity
  8
2
 62
     0
370
    18
100
AcDbTrace
 10
2.999999999999998
 20
-15.82878172756437
 30
0.0
 11
2.999999999999998
 21
-16.82878172756437
 31
0.0
 12
-0.0000000000000006
 22
-16.32878172756437
 32
0.0
 13
-0.0000000000000006
 23
-16.32878172756437
 33
0.0
  0
SOLID
  5
5E9
330
353
100
AcDbEntity
  8
2
 62
     0
370
    18
100
AcDbTrace
 10
135.0545148754204
 20
-15.82878172756437
 30
0.0
 11
135.0545148754204
 21
-16.82878172756437
 31
0.0
 12
138.0545148754204
 22
-16.32878172756437
 32
0.0
 13
138.0545148754204
 23
-16.32878172756437
 33
0.0
  0
MTEXT
  5
5EA
330
353
100
AcDbEntity
  8
2
 62
     0
370
    18
100
AcDbMText
 10
69.0272574377102
 20
-13.37878172756437
 30
0.0
 40
3.5
 41
0.0
 71
     5
 72
     1
  1
\A1;138.05
 73
     1
 44
1.0
  0
POINT
  5
5EB
330
353
100
AcDbEntity
  8
Defpoints
 62
     0
370
    18
100
AcDbPoint
 10
0.0
 20
-5.949999999999997
 30
0.0
  0
POINT
  5
5EC
330
353
100
AcDbEntity
  8
Defpoints
 62
     0
370
    18
100
AcDbPoint
 10
138.0545148754204
 20
-5.554936904854764
 30
0.0
  0
POINT
  5
5ED
330
353
100
AcDbEntity
  8
Defpoints
 62
     0
370
    18
100
AcDbPoint
 10
138.0545148754204
 20
-16.32878172756437
 30
0.0
  0
ENDBLK
  5
35F
330
353
100
AcDbEntity
  8
0
370
    18
100
AcDbBlockEnd
  0
BLOCK
  5
36C
330
361
100
AcDbEntity
  8
0
370
    18
100
AcDbBlockBegin
  2
*D11
 70
     1
 10
0.0
 20
0.0
 30
0.0
  3
*D11
  1

  0
LINE
  5
5AF
330
361
100
AcDbEntity
  8
SK2
 62
     0
370
    -2
100
AcDbLine
 10
-0.0625
 20
5.949999999999997
 30
0.0
 11
-19.31429151489346
 21
5.950000000000001
 31
0.0
  0
LINE
  5
5B0
330
361
100
AcDbEntity
  8
SK2
 62
     0
370
    -2
100
AcDbLine
 10
-0.0625
 20
-5.949999999999997
 30
0.0
 11
-19.31429151489346
 21
-5.949999999999991
 31
0.0
  0
LINE
  5
5B1
330
361
100
AcDbEntity
  8
SK2
 62
     0
370
    -2
100
AcDbLine
 10
-19.13429151489346
 20
-2.949999999999993
 30
0.0
 11
-19.13429151489346
 21
2.950000000000004
 31
0.0
  0
LINE
  5
5B2
330
361
100
AcDbEntity
  8
SK2
 62
     0
370
    -2
100
AcDbLine
 10
-19.13429151489346
 20
5.950000000000001
 30
0.0
 11
-19.13429151489346
 21
16.16484188043358
 31
0.0
  0
LINE
  5
5B3
330
361
100
AcDbEntity
  8
SK2
 62
     0
370
    -2
100
AcDbLine
 10
-19.13429151489346
 20
16.16484188043358
 30
0.0
 11
-0.4342915148934594
 21
16.16484188043358
 31
0.0
  0
SOLID
  5
5B4
330
361
100
AcDbEntity
  8
SK2
 62
     0
370
    18
100
AcDbTrace
 10
-19.63429151489346
 20
-2.949999999999993
 30
0.0
 11
-18.63429151489346
 21
-2.949999999999993
 31
0.0
 12
-19.13429151489346
 22
-5.949999999999991
 32
0.0
 13
-19.13429151489346
 23
-5.949999999999991
 33
0.0
  0
SOLID
  5
5B5
330
361
100
AcDbEntity
  8
SK2
 62
     0
370
    18
100
AcDbTrace
 10
-19.63429151489346
 20
2.950000000000004
 30
0.0
 11
-18.63429151489346
 21
2.950000000000004
 31
0.0
 12
-19.13429151489346
 22
5.950000000000001
 32
0.0
 13
-19.13429151489346
 23
5.950000000000001
 33
0.0
  0
MTEXT
  5
5B6
330
361
100
AcDbEntity
  8
SK2
 62
     0
370
    18
100
AcDbMText
 10
-9.184291514893462
 20
19.11484188043358
 30
0.0
 40
3.5
 41
0.0
 71
     5
 72
     1
  1
\A1;%%c11.900
 73
     1
 44
1.0
  0
POINT
  5
5B7
330
361
100
AcDbEntity
  8
Defpoints
 62
     0
370
    18
100
AcDbPoint
 10
0.0
 20
5.949999999999997
 30
0.0
  0
POINT
  5
5B8
330
361
100
AcDbEntity
  8
Defpoints
 62
     0
370
    18
100
AcDbPoint
 10
0.0
 20
-5.949999999999997
 30
0.0
  0
POINT
  5
5B9
330
361
100
AcDbEntity
  8
Defpoints
 62
     0
370
    18
100
AcDbPoint
 10
-19.13429151489346
 20
-5.949999999999991
 30
0.0
  0
ENDBLK
  5
36D
330
361
100
AcDbEntity
  8
0
370
    18
100
AcDbBlockEnd
  0
BLOCK
  5
37A
330
36F
100
AcDbEntity
  8
0
370
    18
100
AcDbBlockBegin
  2
*D12
 70
     1
 10
0.0
 20
0.0
 30
0.0
  3
*D12
  1

  0
LINE
  5
5A5
330
36F
100
AcDbEntity
  8
SK2
 62
     0
370
    -2
100
AcDbLine
 10
138.0545148754204
 20
-5.617436904854764
 30
0.0
 11
138.0545148754204
 21
-20.45720267252272
 31
0.0
  0
LINE
  5
5A6
330
36F
100
AcDbEntity
  8
SK2
 62
     0
370
    -2
100
AcDbLine
 10
141.881568792
 20
-0.0624999999999978
 30
0.0
 11
141.881568792
 21
-20.45720267252272
 31
0.0
  0
LINE
  5
5A7
330
36F
100
AcDbEntity
  8
SK2
 62
     0
370
    -2
100
AcDbLine
 10
135.0545148754204
 20
-20.27720267252272
 30
0.0
 11
132.0545148754204
 21
-20.27720267252272
 31
0.0
  0
LINE
  5
5A8
330
36F
100
AcDbEntity
  8
SK2
 62
     0
370
    -2
100
AcDbLine
 10
144.881568792
 20
-20.27720267252272
 30
0.0
 11
160.781568792
 21
-20.27720267252272
 31
0.0
  0
SOLID
  5
5A9
330
36F
100
AcDbEntity
  8
SK2
 62
     0
370
    18
100
AcDbTrace
 10
135.0545148754204
 20
-19.77720267252272
 30
0.0
 11
135.0545148754204
 21
-20.77720267252272
 31
0.0
 12
138.0545148754204
 22
-20.27720267252272
 32
0.0
 13
138.0545148754204
 23
-20.27720267252272
 33
0.0
  0
SOLID
  5
5AA
330
36F
100
AcDbEntity
  8
SK2
 62
     0
370
    18
100
AcDbTrace
 10
144.881568792
 20
-19.77720267252272
 30
0.0
 11
144.881568792
 21
-20.77720267252272
 31
0.0
 12
141.881568792
 22
-20.27720267252272
 32
0.0
 13
141.881568792
 23
-20.27720267252272
 33
0.0
  0
MTEXT
  5
5AB
330
36F
100
AcDbEntity
  8
SK2
 62
     0
370
    18
100
AcDbMText
 10
154.331568792
 20
-17.32720267252272
 30
0.0
 40
3.5
 41
0.0
 71
     5
 72
     1
  1
\A1;3.83
 73
     1
 44
1.0
  0
POINT
  5
5AC
330
36F
100
AcDbEntity
  8
Defpoints
 62
     0
370
    18
100
AcDbPoint
 10
138.0545148754204
 20
-5.554936904854764
 30
0.0
  0
POINT
  5
5AD
330
36F
100
AcDbEntity
  8
Defpoints
 62
     0
370
    18
100
AcDbPoint
 10
141.881568792
 20
0.0000000000000022
 30
0.0
  0
POINT
  5
5AE
330
36F
100
AcDbEntity
  8
Defpoints
 62
     0
370
    18
100
AcDbPoint
 10
141.881568792
 20
-20.27720267252272
 30
0.0
  0
ENDBLK
  5
37B
330
36F
100
AcDbEntity
  8
0
370
    18
100
AcDbBlockEnd
  0
BLOCK
  5
388
330
37D
100
AcDbEntity
  8
0
370
    18
100
AcDbBlockBegin
  2
*D13
 70
     1
 10
0.0
 20
0.0
 30
0.0
  3
*D13
  1

  0
LINE
  5
50C
330
37D
100
AcDbEntity
  8
SK2
 62
     0
370
    -2
100
AcDbLine
 10
130.5729460834204
 20
-5.617436904854768
 30
0.0
 11
130.5729460834204
 21
-30.42338852594542
 31
0.0
  0
LINE
  5
50D
330
37D
100
AcDbEntity
  8
SK2
 62
     0
370
    -2
100
AcDbLine
 10
-18.0
 20
-3.5325
 30
0.0
 11
-18.0
 21
-30.42338852594542
 31
0.0
  0
LINE
  5
50E
330
37D
100
AcDbEntity
  8
SK2
 62
     0
370
    -2
100
AcDbLine
 10
127.5729460834204
 20
-30.24338852594542
 30
0.0
 11
-15.0
 21
-30.24338852594542
 31
0.0
  0
SOLID
  5
50F
330
37D
100
AcDbEntity
  8
SK2
 62
     0
370
    18
100
AcDbTrace
 10
127.5729460834204
 20
-29.74338852594542
 30
0.0
 11
127.5729460834204
 21
-30.74338852594542
 31
0.0
 12
130.5729460834204
 22
-30.24338852594542
 32
0.0
 13
130.5729460834204
 23
-30.24338852594542
 33
0.0
  0
SOLID
  5
510
330
37D
100
AcDbEntity
  8
SK2
 62
     0
370
    18
100
AcDbTrace
 10
-15.0
 20
-29.74338852594542
 30
0.0
 11
-15.0
 21
-30.74338852594542
 31
0.0
 12
-18.0
 22
-30.24338852594542
 32
0.0
 13
-18.0
 23
-30.24338852594542
 33
0.0
  0
MTEXT
  5
511
330
37D
100
AcDbEntity
  8
SK2
 62
     0
370
    18
100
AcDbMText
 10
56.28647304171025
 20
-27.29338852594542
 30
0.0
 40
3.5
 41
0.0
 71
     5
 72
     1
  1
\A1;148.57
 73
     1
 44
1.0
  0
POINT
  5
512
330
37D
100
AcDbEntity
  8
Defpoints
 62
     0
370
    18
100
AcDbPoint
 10
130.5729460834204
 20
-5.554936904854768
 30
0.0
  0
POINT
  5
513
330
37D
100
AcDbEntity
  8
Defpoints
 62
     0
370
    18
100
AcDbPoint
 10
-18.0
 20
-3.47
 30
0.0
  0
POINT
  5
514
330
37D
100
AcDbEntity
  8
Defpoints
 62
     0
370
    18
100
AcDbPoint
 10
-18.0
 20
-30.24338852594542
 30
0.0
  0
ENDBLK
  5
389
330
37D
100
AcDbEntity
  8
0
370
    18
100
AcDbBlockEnd
  0
BLOCK
  5
396
330
38B
100
AcDbEntity
  8
0
370
    18
100
AcDbBlockBegin
  2
*D14
 70
     1
 10
0.0
 20
0.0
 30
0.0
  3
*D14
  1

  0
LINE
  5
59C
330
38B
100
AcDbEntity
  8
SK2
 62
     0
370
    -2
100
AcDbLine
 10
-10.51843120800001
 20
-3.532499999999998
 30
0.0
 11
-10.51843120800001
 21
-26.15889408236393
 31
0.0
  0
LINE
  5
59D
330
38B
100
AcDbEntity
  8
SK2
 62
     0
370
    -2
100
AcDbLine
 10
141.881568792
 20
-0.0624999999999978
 30
0.0
 11
141.881568792
 21
-26.15889408236393
 31
0.0
  0
LINE
  5
59E
330
38B
100
AcDbEntity
  8
SK2
 62
     0
370
    -2
100
AcDbLine
 10
-7.518431208000015
 20
-25.97889408236393
 30
0.0
 11
138.881568792
 21
-25.97889408236393
 31
0.0
  0
SOLID
  5
59F
330
38B
100
AcDbEntity
  8
SK2
 62
     0
370
    18
100
AcDbTrace
 10
-7.518431208000015
 20
-25.47889408236393
 30
0.0
 11
-7.518431208000015
 21
-26.47889408236393
 31
0.0
 12
-10.51843120800001
 22
-25.97889408236393
 32
0.0
 13
-10.51843120800001
 23
-25.97889408236393
 33
0.0
  0
SOLID
  5
5A0
330
38B
100
AcDbEntity
  8
SK2
 62
     0
370
    18
100
AcDbTrace
 10
138.881568792
 20
-25.47889408236393
 30
0.0
 11
138.881568792
 21
-26.47889408236393
 31
0.0
 12
141.881568792
 22
-25.97889408236393
 32
0.0
 13
141.881568792
 23
-25.97889408236393
 33
0.0
  0
MTEXT
  5
5A1
330
38B
100
AcDbEntity
  8
SK2
 62
     0
370
    18
100
AcDbMText
 10
63.42466481717636
 20
-23.02889408236393
 30
0.0
 40
3.5
 41
0.0
 71
     5
 72
     1
  1
\A1;152.40
 73
     1
 44
1.0
  0
POINT
  5
5A2
330
38B
100
AcDbEntity
  8
Defpoints
 62
     0
370
    18
100
AcDbPoint
 10
-10.51843120800001
 20
-3.469999999999998
 30
0.0
  0
POINT
  5
5A3
330
38B
100
AcDbEntity
  8
Defpoints
 62
     0
370
    18
100
AcDbPoint
 10
141.881568792
 20
0.0000000000000022
 30
0.0
  0
POINT
  5
5A4
330
38B
100
AcDbEntity
  8
Defpoints
 62
     0
370
    18
100
AcDbPoint
 10
141.881568792
 20
-25.97889408236393
 30
0.0
  0
ENDBLK
  5
397
330
38B
100
AcDbEntity
  8
0
370
    18
100
AcDbBlockEnd
  0
ENDSEC
  0
SECTION
  2
ENTITIES
  0
POINT
  5
6E
330
1F
100
AcDbEntity
  8
80
370
    18
100
AcDbPoint
 10
7.481568791999987
 20
0.0000000000000013
 30
0.0
 50
360.0
  0
POINT
  5
70
330
1F
100
AcDbEntity
  8
SK2
 60
     1
370
    18
100
AcDbPoint
 10
-36.0
 20
-3.0
 30
0.0
 50
360.0
  0
POINT
  5
72
330
1F
100
AcDbEntity
  8
SK2
 60
     1
370
    18
100
AcDbPoint
 10
-36.0
 20
3.0
 30
0.0
 50
360.0
  0
POINT
  5
73
330
1F
100
AcDbEntity
  8
2
 60
     1
370
    18
100
AcDbPoint
 10
25.5709
 20
-1.5
 30
0.0
 50
360.0
  0
POINT
  5
75
330
1F
100
AcDbEntity
  8
2
 60
     1
370
    18
100
AcDbPoint
 10
25.5709
 20
1.5
 30
0.0
 50
360.0
  0
LINE
  5
76
330
1F
100
AcDbEntity
  8
81
370
    18
100
AcDbLine
 10
141.881568792
 20
0.0000000000000022
 30
0.0
 11
146.881568792
 21
0.0000000000000022
 31
0.0
  0
LINE
  5
85
330
1F
100
AcDbEntity
  8
SK4
 48
0.05
370
    18
100
AcDbLine
 10
145.0
 20
0.0
 30
0.0
 11
-12.0
 21
0.0
 31
0.0
  0
LINE
  5
87
330
1F
100
AcDbEntity
  8
4
 48
0.05
370
    18
100
AcDbLine
 10
141.881568792
 20
0.0000000000000022
 30
0.0
 11
0.0
 21
0.0
 31
0.0
  0
LINE
  5
89
330
1F
100
AcDbEntity
  8
80
370
    18
100
AcDbLine
 10
0.0
 20
0.0000000000000013
 30
0.0
 11
-5.0
 21
0.0000000000000013
 31
0.0
  0
MTEXT
  5
CD
330
1F
100
AcDbEntity
  8
SK6
370
    13
100
AcDbMText
 10
67.40408229443445
 20
36.11197779146396
 30
0.0
 40
3.5
 41
0.0
 71
     8
 72
     5
  1
\W0.7645;863.1-1114-067B1-MS
  7
iso_b_vert
 73
     1
 44
1.084337
  0
ARC
  5
26E
330
1F
100
AcDbEntity
  8
1
  6
Continuous
370
    15
100
AcDbCircle
 10
137.7411343024
 20
4.096013090099996
 30
0.0
 40
1.492235342493655
100
AcDbArc
 50
65.22713935469986
 51
77.80297584400077
  0
ARC
  5
26F
330
1F
100
AcDbEntity
  8
1
  6
Continuous
370
    15
100
AcDbCircle
 10
137.7439176777
 20
-4.104438864699996
 30
0.0
 40
1.483379649221545
100
AcDbArc
 50
282.0863042348995
 51
294.7063623889002
  0
LINE
  5
270
330
1F
100
AcDbEntity
  8
1
  6
Continuous
370
    15
100
AcDbLine
 10
141.1839850175
 20
-1.456867401599998
 30
0.0
 11
141.881568792
 21
0.0000000000000013
 31
0.0
  0
LINE
  5
271
330
1F
100
AcDbEntity
  8
1
  6
Continuous
370
    15
100
AcDbLine
 10
139.8068829751
 20
-4.332873334799996
 30
0.0
 11
140.8584740304
 21
-2.136680154299996
 31
0.0
  0
LINE
  5
272
330
1F
100
AcDbEntity
  8
SK1
  6
Continuous
370
    15
100
AcDbLine
 10
-10.51843120800001
 20
-3.469999999999998
 30
0.0
 11
-10.51843120800001
 21
2.381074576399996
 31
0.0
  0
LINE
  5
273
330
1F
100
AcDbEntity
  8
SK1
  6
Continuous
370
    15
100
AcDbLine
 10
-3.437919531600011
 20
3.875752960599998
 30
0.0
 11
-3.430930704299982
 21
3.899481132099997
 31
0.0
  0
LINE
  5
274
330
1F
100
AcDbEntity
  8
SK1
  6
Continuous
370
    15
100
AcDbLine
 10
-3.903430704300001
 20
-3.899481132099995
 30
0.0
 11
-3.896551209299982
 21
-3.876122965699998
 31
0.0
  0
LINE
  5
275
330
1F
100
AcDbEntity
  8
SK1
  6
Continuous
370
    15
100
AcDbLine
 10
-4.382672615800002
 20
3.876591278599997
 30
0.0
 11
-4.375930704299998
 21
3.899481132099997
 31
0.0
  0
LINE
  5
276
330
1F
100
AcDbEntity
  8
SK1
  6
Continuous
370
    15
100
AcDbLine
 10
-4.848430704300001
 20
-3.899481132099995
 30
0.0
 11
-4.841533661200001
 21
-3.876063384099997
 31
0.0
  0
LINE
  5
277
330
1F
100
AcDbEntity
  8
SK1
  6
Continuous
370
    15
100
AcDbLine
 10
-5.327835457199991
 20
3.876038406299997
 30
0.0
 11
-5.320930704300001
 21
3.899481132099997
 31
0.0
  0
LINE
  5
278
330
1F
100
AcDbEntity
  8
SK1
  6
Continuous
370
    15
100
AcDbLine
 10
-5.793430704299992
 20
-3.899481132099995
 30
0.0
 11
-5.786435045400002
 21
-3.875728550699996
 31
0.0
  0
LINE
  5
279
330
1F
100
AcDbEntity
  8
SK1
  6
Continuous
370
    15
100
AcDbLine
 10
-6.272838922999992
 20
3.876026639500001
 30
0.0
 11
-6.265930704299992
 21
3.899481132099997
 31
0.0
  0
LINE
  5
27A
330
1F
100
AcDbEntity
  8
SK1
  6
Continuous
370
    15
100
AcDbLine
 10
-6.738430704299992
 20
-3.899481132099995
 30
0.0
 11
-6.731437951000002
 21
-3.875738416099997
 31
0.0
  0
LINE
  5
27B
330
1F
100
AcDbEntity
  8
SK1
  6
Continuous
370
    15
100
AcDbLine
 10
-7.217838482100011
 20
3.876028136400001
 30
0.0
 11
-7.210930704299983
 21
3.899481132099997
 31
0.0
  0
LINE
  5
27C
330
1F
100
AcDbEntity
  8
SK1
  6
Continuous
370
    15
100
AcDbLine
 10
-7.683430704300012
 20
-3.899481132099995
 30
0.0
 11
-7.676544891399999
 21
-3.876101514399998
 31
0.0
  0
LINE
  5
27D
330
1F
100
AcDbEntity
  8
SK1
  6
Continuous
370
    15
100
AcDbLine
 10
-8.162756584100012
 20
3.876306192999998
 30
0.0
 11
-8.155930704300001
 21
3.899481132099997
 31
0.0
  0
LINE
  5
27E
330
1F
100
AcDbEntity
  8
SK1
  6
Continuous
370
    15
100
AcDbLine
 10
-8.628430704300001
 20
-3.899481132099995
 30
0.0
 11
-8.62167804879999
 21
-3.876553628099997
 31
0.0
  0
LINE
  5
27F
330
1F
100
AcDbEntity
  8
SK1
  6
Continuous
370
    15
100
AcDbLine
 10
-9.107835760099996
 20
3.876037377900002
 30
0.0
 11
-9.100930704299999
 21
3.899481132099997
 31
0.0
  0
LINE
  5
280
330
1F
100
AcDbEntity
  8
SK1
  6
Continuous
370
    15
100
AcDbLine
 10
-9.573430704299994
 20
-3.899481132099995
 30
0.0
 11
-9.566622625500002
 21
-3.876365447299993
 31
0.0
  0
LINE
  5
281
330
1F
100
AcDbEntity
  8
SK1
  6
Continuous
370
    15
100
AcDbLine
 10
-10.05294993340001
 20
3.873174991199998
 30
0.0
 11
-10.04593070429999
 21
3.899481132099997
 31
0.0
  0
LINE
  5
282
330
1F
100
AcDbEntity
  8
SK1
  6
Continuous
370
    15
100
AcDbLine
 10
-2.958430704299982
 20
-3.899481132099995
 30
0.0
 11
-2.951537981099992
 21
-3.876078051499998
 31
0.0
  0
LINE
  5
283
330
1F
100
AcDbEntity
  8
1
  6
Continuous
370
    15
100
AcDbLine
 10
141.881568792
 20
0.0000000000000013
 30
0.0
 11
138.0683731008
 21
-5.349999999999996
 31
0.0
  0
LINE
  5
284
330
1F
100
AcDbEntity
  8
1
  6
Continuous
370
    15
100
AcDbLine
 10
139.8068829751
 20
4.332873334800002
 30
0.0
 11
140.8584740304
 21
2.1366801543
 31
0.0
  0
LINE
  5
285
330
1F
100
AcDbEntity
  8
1
  6
Continuous
370
    15
100
AcDbLine
 10
141.1839850175
 20
1.4568674016
 30
0.0
 11
141.881568792
 21
0.0000000000000013
 31
0.0
  0
LINE
  5
286
330
1F
100
AcDbEntity
  8
1
  6
Continuous
370
    15
100
AcDbLine
 10
139.845473308
 20
0.3539219387000014
 30
0.0
 11
141.2691619579
 21
0.1064509085000016
 31
0.0
  0
LINE
  5
287
330
1F
100
AcDbEntity
  8
1
  6
Continuous
370
    15
100
AcDbLine
 10
139.8542545871
 20
3.648746528799998
 30
0.0
 11
141.2691619579
 21
0.1064509085000016
 31
0.0
  0
LINE
  5
288
330
1F
100
AcDbEntity
  8
1
  6
Continuous
370
    15
100
AcDbLine
 10
137.6572378414
 20
-5.324041855699997
 30
0.0
 11
137.568642721
 21
-5.320848307299996
 31
0.0
  0
LINE
  5
289
330
1F
100
AcDbEntity
  8
1
  6
Continuous
370
    15
100
AcDbLine
 10
60.60997808109997
 20
3.119382231999998
 30
0.0
 11
63.281568792
 21
3.892505183099999
 31
0.0
  0
LINE
  5
28A
330
1F
100
AcDbEntity
  8
1
  6
Continuous
370
    15
100
AcDbLine
 10
138.0564048782
 20
5.554564008499998
 30
0.0
 11
137.3387915022
 21
5.536803866299997
 31
0.0
  0
LINE
  5
28C
330
1F
100
AcDbEntity
  8
1
  6
Continuous
370
    15
100
AcDbLine
 10
75.44215534789998
 20
5.311261452700001
 30
0.0
 11
75.12530979819999
 21
5.302276597200002
 31
0.0
  0
LINE
  5
28D
330
1F
100
AcDbEntity
  8
1
  6
Continuous
370
    15
100
AcDbLine
 10
105.8201403258
 20
5.313328828799996
 30
0.0
 11
105.441461354
 21
5.3011198173
 31
0.0
  0
LINE
  5
28F
330
1F
100
AcDbEntity
  8
1
  6
Continuous
370
    15
100
AcDbLine
 10
1.501568791999998
 20
-4.999999999999998
 30
0.0
 11
1.501568791999998
 21
-5.949999999999997
 31
0.0
  0
LINE
  5
290
330
1F
100
AcDbEntity
  8
1
  6
Continuous
370
    15
100
AcDbLine
 10
1.501568791999998
 20
-4.999999999999998
 30
0.0
 11
5.981568791999987
 21
-4.999999999999998
 31
0.0
  0
LINE
  5
291
330
1F
100
AcDbEntity
  8
1
  6
Continuous
370
    15
100
AcDbLine
 10
5.981568791999987
 20
-4.999999999999998
 30
0.0
 11
5.981568791999987
 21
-5.949999999999997
 31
0.0
  0
LINE
  5
292
330
1F
100
AcDbEntity
  8
1
  6
Continuous
370
    15
100
AcDbLine
 10
7.481568791999987
 20
-5.949999999999997
 30
0.0
 11
7.481568791999987
 21
5.949999999999997
 31
0.0
  0
LINE
  5
293
330
1F
100
AcDbEntity
  8
1
  6
Continuous
370
    15
100
AcDbLine
 10
1.501568791999998
 20
5.949999999999997
 30
0.0
 11
1.501568791999998
 21
5.0
 31
0.0
  0
LINE
  5
294
330
1F
100
AcDbEntity
  8
1
  6
Continuous
370
    15
100
AcDbLine
 10
5.981568791999987
 20
5.949999999999997
 30
0.0
 11
5.981568791999987
 21
5.0
 31
0.0
  0
LINE
  5
295
330
1F
100
AcDbEntity
  8
1
  6
Continuous
370
    15
100
AcDbLine
 10
1.501568791999998
 20
5.0
 30
0.0
 11
5.981568791999987
 21
5.0
 31
0.0
  0
LINE
  5
296
330
1F
100
AcDbEntity
  8
SK1
  6
Continuous
370
    15
100
AcDbLine
 10
0.0
 20
-5.949999999999997
 30
0.0
 11
0.0
 21
5.949999999999997
 31
0.0
  0
LINE
  5
297
330
1F
100
AcDbEntity
  8
SK1
  6
Continuous
370
    15
100
AcDbLine
 10
-1.51843120800001
 20
-3.319999999999995
 30
0.0
 11
-1.51843120800001
 21
3.319999999999998
 31
0.0
  0
LINE
  5
298
330
1F
100
AcDbEntity
  8
SK1
  6
Continuous
370
    15
100
AcDbLine
 10
-2.51843120800001
 20
-3.319999999999995
 30
0.0
 11
-1.51843120800001
 21
-3.319999999999995
 31
0.0
  0
LINE
  5
299
330
1F
100
AcDbEntity
  8
SK1
  6
Continuous
370
    15
100
AcDbLine
 10
-1.51843120800001
 20
3.319999999999998
 30
0.0
 11
-2.51843120800001
 21
3.319999999999998
 31
0.0
  0
LINE
  5
29A
330
1F
100
AcDbEntity
  8
SK1
  6
Continuous
370
    15
100
AcDbLine
 10
-10.51843120800001
 20
-3.469999999999998
 30
0.0
 11
-10.32688386890001
 21
-3.661547339099997
 31
0.0
  0
LINE
  5
29B
330
1F
100
AcDbEntity
  8
1
  6
Continuous
370
    15
100
AcDbLine
 10
126.832986124
 20
-0.0484322649999985
 30
0.0
 11
126.7264347378
 21
0.0000746493000014
 31
0.0
  0
LINE
  5
29C
330
1F
100
AcDbEntity
  8
1
  6
Continuous
370
    15
100
AcDbLine
 10
96.4575372406
 20
-0.0188467909999984
 30
0.0
 11
96.41642914569999
 21
0.0000777633000015
 31
0.0
  0
LINE
  5
29D
330
1F
100
AcDbEntity
  8
1
  6
Continuous
370
    15
100
AcDbLine
 10
75.44135279729998
 20
5.349999998699998
 30
0.0
 11
74.41753210000001
 21
5.349999997899995
 31
0.0
  0
LINE
  5
29E
330
1F
100
AcDbEntity
  8
1
  6
Continuous
370
    15
100
AcDbLine
 10
136.0611970065999
 20
5.349999996200001
 30
0.0
 11
135.1948972926
 21
5.349999997899995
 31
0.0
  0
LINE
  5
29F
330
1F
100
AcDbEntity
  8
1
  6
Continuous
370
    15
100
AcDbLine
 10
102.5585370646
 20
-5.349999999599996
 30
0.0
 11
103.5162046387
 21
-5.349999999799997
 31
0.0
  0
LINE
  5
2A0
330
1F
100
AcDbEntity
  8
1
  6
Continuous
370
    15
100
AcDbLine
 10
105.8191778192
 20
5.349999996200001
 30
0.0
 11
104.727464429
 21
5.349997970500002
 31
0.0
  0
LINE
  5
2A1
330
1F
100
AcDbEntity
  8
1
  6
Continuous
370
    15
100
AcDbLine
 10
132.8084328390999
 20
-5.349999999799997
 30
0.0
 11
133.6692777386
 21
-5.349999999899998
 31
0.0
  0
LINE
  5
2A2
330
1F
100
AcDbEntity
  8
1
  6
Continuous
370
    15
100
AcDbLine
 10
72.18852835709999
 20
-5.349999998999996
 30
0.0
 11
73.2114578147
 21
-5.349999999599996
 31
0.0
  0
LINE
  5
2A3
330
1F
100
AcDbEntity
  8
1
  6
Continuous
370
    15
100
AcDbLine
 10
111.5713866127
 20
5.349999999000001
 30
0.0
 11
109.5662007954
 21
5.349999997899995
 31
0.0
  0
LINE
  5
2A4
330
1F
100
AcDbEntity
  8
1
  6
Continuous
370
    15
100
AcDbLine
 10
137.5682153931
 20
-5.349799508499997
 30
0.0
 11
138.0238869264
 21
-5.349892962599998
 31
0.0
  0
LINE
  5
2A5
330
1F
100
AcDbEntity
  8
1
  6
Continuous
370
    15
100
AcDbLine
 10
77.03145468499998
 20
-5.349999999999996
 30
0.0
 11
81.26145954679996
 21
-5.349999999699997
 31
0.0
  0
LINE
  5
2A6
330
1F
100
AcDbEntity
  8
1
  6
Continuous
370
    15
100
AcDbLine
 10
107.3344830154
 20
-5.349999999399996
 30
0.0
 11
111.5713869999
 21
-5.349999998999996
 31
0.0
  0
LINE
  5
2A7
330
1F
100
AcDbEntity
  8
1
  6
Continuous
370
    15
100
AcDbLine
 10
7.481568791999987
 20
-5.569999999999997
 30
0.0
 11
52.04451047879999
 21
-5.569999999999997
 31
0.0
  0
LINE
  5
2A8
330
1F
100
AcDbEntity
  8
1
  6
Continuous
370
    15
100
AcDbLine
 10
70.9712084862
 20
-5.569999999999997
 30
0.0
 11
71.93971825019996
 21
-5.569999999999997
 31
0.0
  0
LINE
  5
2A9
330
1F
100
AcDbEntity
  8
1
  6
Continuous
370
    15
100
AcDbLine
 10
75.7571935151
 20
-5.569999999999997
 30
0.0
 11
76.72499624769999
 21
-5.569999999999997
 31
0.0
  0
LINE
  5
2AA
330
1F
100
AcDbEntity
  8
1
  6
Continuous
370
    15
100
AcDbLine
 10
101.2812084862
 20
-5.569999999999997
 30
0.0
 11
102.2498145082
 21
-5.569999999999997
 31
0.0
  0
LINE
  5
2AB
330
1F
100
AcDbEntity
  8
1
  6
Continuous
370
    15
100
AcDbLine
 10
106.0603504696
 20
-5.569999999999997
 30
0.0
 11
107.0281514981
 21
-5.569999999999997
 31
0.0
  0
LINE
  5
2AC
330
1F
100
AcDbEntity
  8
1
  6
Continuous
370
    15
100
AcDbLine
 10
131.5895326923
 20
-5.569999999999997
 30
0.0
 11
132.5619413931
 21
-5.569999999999997
 31
0.0
  0
LINE
  5
2AD
330
1F
100
AcDbEntity
  8
1
  6
Continuous
370
    15
100
AcDbLine
 10
136.3735481463
 20
-5.569999999999997
 30
0.0
 11
137.3456480443
 21
-5.569999999999997
 31
0.0
  0
LINE
  5
2AE
330
1F
100
AcDbEntity
  8
1
  6
Continuous
370
    15
100
AcDbLine
 10
137.3387915022
 20
5.570000000000002
 30
0.0
 11
136.3667149738
 21
5.570000000000002
 31
0.0
  0
LINE
  5
2AF
330
1F
100
AcDbEntity
  8
1
  6
Continuous
370
    15
100
AcDbLine
 10
132.5620376060999
 20
5.570000000000002
 30
0.0
 11
131.5895326923
 21
5.570000000000002
 31
0.0
  0
LINE
  5
2B0
330
1F
100
AcDbEntity
  8
1
  6
Continuous
370
    15
100
AcDbLine
 10
107.0349962477
 20
5.570000000000002
 30
0.0
 11
106.0671935151
 21
5.570000000000002
 31
0.0
  0
LINE
  5
2B1
330
1F
100
AcDbEntity
  8
1
  6
Continuous
370
    15
100
AcDbLine
 10
102.2497182502
 20
5.570000000000002
 30
0.0
 11
101.2812084862
 21
5.570000000000002
 31
0.0
  0
LINE
  5
2B2
330
1F
100
AcDbEntity
  8
1
  6
Continuous
370
    15
100
AcDbLine
 10
76.71815149809998
 20
5.570000000000002
 30
0.0
 11
75.7503504696
 21
5.570000000000002
 31
0.0
  0
LINE
  5
2B3
330
1F
100
AcDbEntity
  8
1
  6
Continuous
370
    15
100
AcDbLine
 10
71.93981450820001
 20
5.570000000000002
 30
0.0
 11
70.9712084862
 21
5.570000000000002
 31
0.0
  0
LINE
  5
2B4
330
1F
100
AcDbEntity
  8
1
  6
Continuous
370
    15
100
AcDbLine
 10
52.04452150380001
 20
5.570000000000002
 30
0.0
 11
7.481568791999987
 21
5.570000000000002
 31
0.0
  0
LINE
  5
2B5
330
1F
100
AcDbEntity
  8
1
  6
Continuous
370
    15
100
AcDbLine
 10
0.0
 20
-5.949999999999997
 30
0.0
 11
1.501568791999998
 21
-5.949999999999997
 31
0.0
  0
LINE
  5
2B6
330
1F
100
AcDbEntity
  8
1
  6
Continuous
370
    15
100
AcDbLine
 10
5.981568791999987
 20
-5.949999999999997
 30
0.0
 11
7.481568791999987
 21
-5.949999999999997
 31
0.0
  0
LINE
  5
2B7
330
1F
100
AcDbEntity
  8
1
  6
Continuous
370
    15
100
AcDbLine
 10
7.481568791999987
 20
5.949999999999997
 30
0.0
 11
5.981568791999987
 21
5.949999999999997
 31
0.0
  0
LINE
  5
2B8
330
1F
100
AcDbEntity
  8
1
  6
Continuous
370
    15
100
AcDbLine
 10
1.501568791999998
 20
5.949999999999997
 30
0.0
 11
0.0
 21
5.949999999999997
 31
0.0
  0
LINE
  5
2B9
330
1F
100
AcDbEntity
  8
SK1
  6
Continuous
370
    15
100
AcDbLine
 10
-1.51843120800001
 20
-3.319999999999995
 30
0.0
 11
0.0
 21
-5.949999999999997
 31
0.0
  0
LINE
  5
2BA
330
1F
100
AcDbEntity
  8
SK1
  6
Continuous
370
    15
100
AcDbLine
 10
0.0
 20
5.949999999999997
 30
0.0
 11
-1.51843120800001
 21
3.319999999999998
 31
0.0
  0
SPLINE
  5
2BB
330
1F
100
AcDbEntity
  8
1
  6
Continuous
370
    15
100
AcDbSpline
210
0.0
220
0.0
230
1.0
 70
     8
 71
     3
 72
    17
 73
    13
 74
     0
 42
0.0000000001
 43
0.0000000001
 40
0.0
 40
0.0
 40
0.0
 40
0.0
 40
0.0325573789101099
 40
0.1440522673541024
 40
0.2555349341856031
 40
0.3669268845767111
 40
0.4920967959255388
 40
0.6173742451879342
 40
0.7424757566830735
 40
0.8677310904446159
 40
0.9929521519730794
 40
1.0
 40
1.0
 40
1.0
 40
1.0
 10
90.04376878274143
 20
-2.181009262129046
 30
0.0
 10
89.78402772458926
 20
-2.261844242461706
 30
0.0
 10
88.63478630515309
 20
-2.619503937076373
 30
0.0
 10
86.59597798523119
 20
-3.079275088895303
 30
0.0
 10
83.9282037087643
 20
-3.491412579671457
 30
0.0
 10
81.15173407060845
 20
-3.6323960751406
 30
0.0
 10
78.26468922132469
 20
-3.465166798759186
 30
0.0
 10
75.26785658781617
 20
-2.959943439904661
 30
0.0
 10
72.27117956088584
 20
-2.169288149862766
 30
0.0
 10
69.27421815666713
 20
-1.17579876495735
 30
0.0
 10
67.21939114778601
 20
-0.4085934923763517
 30
0.0
 10
66.16409012703472
 20
-0.0220904398347206
 30
0.0
 10
66.10785921652136
 20
-0.001495919282529
 30
0.0
  0
SPLINE
  5
2BC
330
1F
100
AcDbEntity
  8
1
  6
Continuous
370
    15
100
AcDbSpline
210
0.0
220
0.0
230
1.0
 70
     8
 71
     3
 72
    11
 73
     7
 74
     0
 42
0.0000000001
 43
0.0000000001
 40
0.0
 40
0.0
 40
0.0
 40
0.0
 40
0.2721922487977372
 40
0.5444876148066046
 40
0.8164340570775141
 40
1.0
 40
1.0
 40
1.0
 40
1.0
 10
137.3320280789637
 20
-3.190361123148218
 30
0.0
 10
136.3701750053219
 20
-3.000482562053603
 30
0.0
 10
134.4461044699748
 20
-2.620653506340334
 30
0.0
 10
131.5607253045633
 20
-1.743101211845514
 30
0.0
 10
128.9892062607503
 20
-0.8405320028964617
 30
0.0
 10
127.3794820827456
 20
-0.2415561050565471
 30
0.0
 10
126.7307828460497
 20
-0.0001761139765138
 30
0.0
  0
SPLINE
  5
2BD
330
1F
100
AcDbEntity
  8
1
  6
Continuous
370
    15
100
AcDbSpline
210
0.0
220
0.0
230
1.0
 70
     8
 71
     3
 72
    17
 73
    13
 74
     0
 42
0.0000000001
 43
0.0000000001
 40
0.0
 40
0.0
 40
0.0
 40
0.0
 40
0.0121626238843377
 40
0.1304945984675727
 40
0.2488971660533918
 40
0.3671850560771719
 40
0.4852803701633998
 40
0.6034900446815992
 40
0.7216326117457576
 40
0.8396884701721031
 40
0.9578857726839608
 40
1.0
 40
1.0
 40
1.0
 40
1.0
 10
120.3642134295896
 20
-2.186517102030089
 30
0.0
 10
120.2671375207546
 20
-2.217536026140729
 30
0.0
 10
119.2255956738004
 20
-2.550342670924538
 30
0.0
 10
117.2388857686056
 20
-3.013367851881542
 30
0.0
 10
114.4048416552587
 20
-3.480426388178555
 30
0.0
 10
111.573104664453
 20
-3.63235023534037
 30
0.0
 10
108.7429143274107
 20
-3.478038040029593
 30
0.0
 10
105.9134667680066
 20
-3.026065537776265
 30
0.0
 10
103.084556527438
 20
-2.315974276172803
 30
0.0
 10
100.2561167817832
 20
-1.407654066414867
 30
0.0
 10
98.03397552822126
 20
-0.599596694364403
 30
0.0
 10
96.75434436118415
 20
-0.126112530813344
 30
0.0
 10
96.41818215309378
 20
-0.001727093809897
 30
0.0
  0
SPLINE
  5
2BE
330
1F
100
AcDbEntity
  8
1
  6
Continuous
370
    15
100
AcDbSpline
210
0.0
220
0.0
230
1.0
 70
     8
 71
     3
 72
    14
 73
    10
 74
     0
 42
0.0000000001
 43
0.0000000001
 40
0.0
 40
0.0
 40
0.0
 40
0.0
 40
0.0596699088451686
 40
0.2434146843758176
 40
0.4271594599064664
 40
0.6108576406940875
 40
0.7944629495274406
 40
0.8973240184135761
 40
1.0
 40
1.0
 40
1.0
 40
1.0
 10
77.03145084892367
 20
-5.309866264994829
 30
0.0
 10
76.75793999270109
 20
-5.321049799874954
 30
0.0
 10
75.64219237335191
 20
-5.366671398193733
 30
0.0
 10
73.68406332498398
 20
-5.07286102192786
 30
0.0
 10
71.15741274224358
 20
-4.443464258194508
 30
0.0
 10
68.63155204320967
 20
-3.486232125353488
 30
0.0
 10
66.4765081216062
 20
-2.470778893190022
 30
0.0
 10
64.69336480244033
 20
-1.546598557280403
 30
0.0
 10
63.75196808787459
 20
-1.032628031740072
 30
0.0
 10
63.28169359717799
 20
-0.7758741856816021
 30
0.0
  0
SPLINE
  5
2BF
330
1F
100
AcDbEntity
  8
1
  6
Continuous
370
    15
100
AcDbSpline
210
0.0
220
0.0
230
1.0
 70
     8
 71
     3
 72
    17
 73
    13
 74
     0
 42
0.0000000001
 43
0.0000000001
 40
0.0
 40
0.0
 40
0.0
 40
0.0
 40
0.0780531586570084
 40
0.1836748035094223
 40
0.2892896618794438
 40
0.3948965752149116
 40
0.5004943911929881
 40
0.6170272859846559
 40
0.7336191259002104
 40
0.8502405391452162
 40
0.9668619523902219
 40
1.0
 40
1.0
 40
1.0
 40
1.0
 10
137.568642720979
 20
-5.320848307254447
 30
0.0
 10
137.0050128336633
 20
-5.313868889321025
 30
0.0
 10
135.678678184483
 20
-5.297444913154162
 30
0.0
 10
133.5897117917277
 20
-4.922600649042578
 30
0.0
 10
131.3018097258779
 20
-4.274259816062832
 30
0.0
 10
129.0140911356763
 20
-3.376598402585021
 30
0.0
 10
126.6476541517269
 20
-2.255075622912618
 30
0.0
 10
124.2016145287673
 20
-0.9514088247155038
 30
0.0
 10
121.6757169413583
 20
0.4634229258254022
 30
0.0
 10
119.1490768586041
 20
1.828945691683701
 30
0.0
 10
117.2251352082824
 20
2.824945202941433
 30
0.0
 10
116.1435758289555
 20
3.2572432303492
 30
0.0
 10
115.9042536118457
 20
3.352900042493727
 30
0.0
  0
SPLINE
  5
2C0
330
1F
100
AcDbEntity
  8
1
  6
Continuous
370
    15
100
AcDbSpline
210
0.0
220
0.0
230
1.0
 70
     8
 71
     3
 72
    17
 73
    13
 74
     0
 42
0.0000000001
 43
0.0000000001
 40
0.0
 40
0.0
 40
0.0
 40
0.0
 40
0.0374124767104505
 40
0.1535992620992971
 40
0.2697860474881441
 40
0.3859433697622287
 40
0.5020419665907189
 40
0.6181405634192079
 40
0.7342978856932928
 40
0.8504846710821396
 40
0.9666714564709868
 40
1.0
 40
1.0
 40
1.0
 40
1.0
 10
107.3345261676052
 20
-5.310044035188544
 30
0.0
 10
107.0633235559719
 20
-5.321213755243221
 30
0.0
 10
105.9498842787842
 20
-5.367071739239632
 30
0.0
 10
103.9940601218535
 20
-5.074073438663793
 30
0.0
 10
101.4674242446732
 20
-4.445741495407782
 30
0.0
 10
98.94150925748757
 20
-3.488929158605852
 30
0.0
 10
96.4165687844205
 20
-2.300734525067605
 30
0.0
 10
93.89162835683867
 20
-0.9551587548140362
 30
0.0
 10
91.36571323311676
 20
0.4595748009461884
 30
0.0
 10
88.83907785674615
 20
1.825394210954259
 30
0.0
 10
86.91285890491363
 20
2.822712733831046
 30
0.0
 10
85.82902346535028
 20
3.256148354804818
 30
0.0
 10
85.58742511628986
 20
3.352765725513247
 30
0.0
  0
SPLINE
  5
2C1
330
1F
100
AcDbEntity
  8
1
  6
Continuous
370
    15
100
AcDbSpline
210
0.0
220
0.0
230
1.0
 70
     8
 71
     3
 72
    17
 73
    13
 74
     0
 42
0.0000000001
 43
0.0000000001
 40
0.0
 40
0.0
 40
0.0
 40
0.0
 40
0.0501594444194697
 40
0.1663126050097553
 40
0.2824070422584613
 40
0.3985014795071661
 40
0.514654640097452
 40
0.6308372627468956
 40
0.7470198853963394
 40
0.8631730459866252
 40
0.9792674832353307
 40
1.0
 40
1.0
 40
1.0
 40
1.0
 10
102.5581371246632
 20
-5.305074974121283
 30
0.0
 10
102.19449808055
 20
-5.315600885208032
 30
0.0
 10
100.9887878218006
 20
-5.35050142514023
 30
0.0
 10
98.94151169584336
 20
-5.022588284666908
 30
0.0
 10
96.41656830203409
 20
-4.355348218666881
 30
0.0
 10
93.89162784851668
 20
-3.37000921041225
 30
0.0
 10
91.36571575081651
 20
-2.160505973388286
 30
0.0
 10
88.83906829210008
 20
-0.8036656122904361
 30
0.0
 10
86.31242383253022
 20
0.6134516692615751
 30
0.0
 10
83.78650274118776
 20
1.96663860031404
 30
0.0
 10
81.95281250845601
 20
2.911945248854055
 30
0.0
 10
80.96100512575171
 20
3.300586947698024
 30
0.0
 10
80.81072287078589
 20
3.359475348706677
 30
0.0
  0
SPLINE
  5
2C2
330
1F
100
AcDbEntity
  8
1
  6
Continuous
370
    15
100
AcDbSpline
210
0.0
220
0.0
230
1.0
 70
     8
 71
     3
 72
    12
 73
     8
 74
     0
 42
0.0000000001
 43
0.0000000001
 40
0.0
 40
0.0
 40
0.0
 40
0.0
 40
0.1157136133900675
 40
0.3992860722968586
 40
0.6827151659927261
 40
0.841500441408097
 40
1.0
 40
1.0
 40
1.0
 40
1.0
 10
72.18805837722422
 20
-5.305775863716407
 30
0.0
 10
71.84444484331272
 20
-5.316655257322413
 30
0.0
 10
70.65875809199628
 20
-5.354196132718552
 30
0.0
 10
68.63155581672298
 20
-5.034661430988101
 30
0.0
 10
66.47650759433211
 20
-4.470868727942043
 30
0.0
 10
64.6933649015655
 20
-3.832360081435401
 30
0.0
 10
63.75196812090666
 20
-3.429139193817225
 30
0.0
 10
63.28169359719325
 20
-3.22771030137589
 30
0.0
  0
SPLINE
  5
2C3
330
1F
100
AcDbEntity
  8
1
  6
Continuous
370
    15
100
AcDbSpline
210
0.0
220
0.0
230
1.0
 70
     8
 71
     3
 72
    16
 73
    12
 74
     0
 42
0.0000000001
 43
0.0000000001
 40
0.0
 40
0.0
 40
0.0
 40
0.0
 40
0.0399478512078668
 40
0.1667525865387854
 40
0.2934703824745871
 40
0.4153152488820803
 40
0.5372217473356861
 40
0.6591591671731864
 40
0.7810965870106866
 40
0.9030030854642919
 40
1.0
 40
1.0
 40
1.0
 40
1.0
 10
132.807942474584
 20
-5.307287184281575
 30
0.0
 10
132.5319826080491
 20
-5.319355628426736
 30
0.0
 10
131.3800552794388
 20
-5.36973241255545
 30
0.0
 10
129.352774790342
 20
-5.055473709481695
 30
0.0
 10
126.760190341258
 20
-4.389280256625971
 30
0.0
 10
124.2016363348309
 20
-3.395943793477095
 30
0.0
 10
121.6757134702624
 20
-2.191967906594644
 30
0.0
 10
119.1490689238624
 20
-0.8350018204000752
 30
0.0
 10
116.6224235863552
 20
0.5725661806135949
 30
0.0
 10
114.2681352399353
 20
1.86825042875732
 30
0.0
 10
112.7563048149984
 20
2.585375931353913
 30
0.0
 10
112.0864071440688
 20
2.903136902445464
 30
0.0
  0
SPLINE
  5
2C4
330
1F
100
AcDbEntity
  8
1
  6
Continuous
370
    15
100
AcDbSpline
210
0.0
220
0.0
230
1.0
 70
     8
 71
     3
 72
    17
 73
    13
 74
     0
 42
0.0000000001
 43
0.0000000001
 40
0.0
 40
0.0
 40
0.0
 40
0.0
 40
0.0355091867178318
 40
0.1516079328996721
 40
0.267765404602655
 40
0.3839523394583021
 40
0.5001392743139494
 40
0.6162967460169322
 40
0.7323954921987737
 40
0.8484942383806137
 40
0.964651710083597
 40
1.0
 40
1.0
 40
1.0
 40
1.0
 10
97.18871710416912
 20
-3.351882329748246
 30
0.0
 10
96.93133359813021
 20
-3.248534126685338
 30
0.0
 10
95.83242413497886
 20
-2.807284723826035
 30
0.0
 10
93.89163407232201
 20
-1.800610105372198
 30
0.0
 10
91.36571395888115
 20
-0.4330261390308449
 30
0.0
 10
88.83906923312151
 20
0.9814234848153867
 30
0.0
 10
86.31242186085732
 20
2.324851449721048
 30
0.0
 10
83.78650968357908
 20
3.509035533008975
 30
0.0
 10
81.26156946182723
 20
4.461046846789316
 30
0.0
 10
78.73662522043504
 20
5.082583948735778
 30
0.0
 10
76.79673272805473
 20
5.369826252291889
 30
0.0
 10
75.69840879034874
 20
5.322340503461497
 30
0.0
 10
75.44215534785798
 20
5.311261452746775
 30
0.0
  0
SPLINE
  5
2C5
330
1F
100
AcDbEntity
  8
1
  6
Continuous
370
    15
100
AcDbSpline
210
0.0
220
0.0
230
1.0
 70
     8
 71
     3
 72
     9
 73
     5
 74
     0
 42
0.0000000001
 43
0.0000000001
 40
0.0
 40
0.0
 40
0.0
 40
0.0
 40
0.916792671953125
 40
1.0
 40
1.0
 40
1.0
 40
1.0
 10
138.6674313195669
 20
5.156157579999876
 30
0.0
 10
137.8711487411633
 20
5.270150829948168
 30
0.0
 10
137.0025962289501
 20
5.394490010916361
 30
0.0
 10
136.1340567980885
 20
5.340976698365063
 30
0.0
 10
136.0617879527432
 20
5.336523998612735
 30
0.0
  0
SPLINE
  5
2C6
330
1F
100
AcDbEntity
  8
1
  6
Continuous
370
    15
100
AcDbSpline
210
0.0
220
0.0
230
1.0
 70
     8
 71
     3
 72
     9
 73
     5
 74
     0
 42
0.0000000001
 43
0.0000000001
 40
0.0
 40
0.0
 40
0.0
 40
0.0
 40
0.4619912267112256
 40
1.0
 40
1.0
 40
1.0
 40
1.0
 10
65.90460157933596
 20
-2.906797750574552
 30
0.0
 10
65.50057735053822
 20
-2.716306913727985
 30
0.0
 10
64.62604942568153
 20
-2.303981255072915
 30
0.0
 10
63.75196089521542
 20
-1.84472503998001
 30
0.0
 10
63.28169359719357
 20
-1.59764116707263
 30
0.0
  0
SPLINE
  5
2C7
330
1F
100
AcDbEntity
  8
1
  6
Continuous
370
    15
100
AcDbSpline
210
0.0
220
0.0
230
1.0
 70
     8
 71
     3
 72
    16
 73
    12
 74
     0
 42
0.0000000001
 43
0.0000000001
 40
0.0
 40
0.0
 40
0.0
 40
0.0
 40
0.1121361793934787
 40
0.2341474880873864
 40
0.3561897447501345
 40
0.4782320014128827
 40
0.6002433101067906
 40
0.7221929337658634
 40
0.8441425574249365
 40
0.9661538661188442
 40
1.0
 40
1.0
 40
1.0
 40
1.0
 10
126.5234133191719
 20
-2.903272200999986
 30
0.0
 10
125.7496245366919
 20
-2.529388781506502
 30
0.0
 10
124.1339042516967
 20
-1.748696377097617
 30
0.0
 10
121.6757149858104
 20
-0.3893032923899349
 30
0.0
 10
119.1490689571584
 20
1.017300167542793
 30
0.0
 10
116.6224219376398
 20
2.359606612104165
 30
0.0
 10
114.0965096523576
 20
3.537762349169002
 30
0.0
 10
111.5715695099561
 20
4.48277308125571
 30
0.0
 10
109.0466250590917
 20
5.094421309087518
 30
0.0
 10
107.1293939810195
 20
5.373717450943833
 30
0.0
 10
106.0537319919272
 20
5.324103119064965
 30
0.0
 10
105.8201403257727
 20
5.313328828845313
 30
0.0
  0
SPLINE
  5
2C8
330
1F
100
AcDbEntity
  8
1
  6
Continuous
370
    15
100
AcDbSpline
210
0.0
220
0.0
230
1.0
 70
     8
 71
     3
 72
    14
 73
    10
 74
     0
 42
0.0000000001
 43
0.0000000001
 40
0.0
 40
0.0
 40
0.0
 40
0.0
 40
0.0995209431231113
 40
0.2516978554852544
 40
0.4037608592395941
 40
0.5558170380331081
 40
0.7079765299886655
 40
0.8601379321328829
 40
1.0
 40
1.0
 40
1.0
 40
1.0
 10
118.3052272551287
 20
-1.052223941502957
 30
0.0
 10
117.4823029951538
 20
-0.9445648587609396
 30
0.0
 10
115.4010498944243
 20
-0.6722848803029913
 30
0.0
 10
112.062492043503
 20
-0.08293296848167
 30
0.0
 10
108.289591009592
 20
0.5701444647320871
 30
0.0
 10
104.5168454033064
 20
1.14541346543509
 30
0.0
 10
100.7432082441732
 20
1.54005014770967
 30
0.0
 10
97.07039839491155
 20
1.718756585963284
 30
0.0
 10
94.65579704699823
 20
1.62833791167477
 30
0.0
 10
93.4993450070962
 20
1.585032684326764
 30
0.0
  0
SPLINE
  5
2C9
330
1F
100
AcDbEntity
  8
1
  6
Continuous
370
    15
100
AcDbSpline
210
0.0
220
0.0
230
1.0
 70
     8
 71
     3
 72
    14
 73
    10
 74
     0
 42
0.0000000001
 43
0.0000000001
 40
0.0
 40
0.0
 40
0.0
 40
0.0
 40
0.0948918038471294
 40
0.2476038666135296
 40
0.4002231801982151
 40
0.5501365226927544
 40
0.7001825610289976
 40
0.8501166107752375
 40
1.0
 40
1.0
 40
1.0
 40
1.0
 10
87.99511445980019
 20
-1.054609967670864
 30
0.0
 10
87.2134020854363
 20
-0.9521041842637128
 30
0.0
 10
85.17365788599049
 20
-0.684632945517439
 30
0.0
 10
81.87665407239586
 20
-0.1050911906119008
 30
0.0
 10
78.12644085112619
 20
0.5455071991916866
 30
0.0
 10
74.39823354300495
 20
1.118699860955422
 30
0.0
 10
70.69201082443203
 20
1.518815570758879
 30
0.0
 10
66.98614822937694
 20
1.71515172009452
 30
0.0
 10
64.51633305780624
 20
1.637636818363438
 30
0.0
 10
63.28163413587471
 20
1.598885916392051
 30
0.0
  0
SPLINE
  5
2CA
330
1F
100
AcDbEntity
  8
1
  6
Continuous
370
    15
100
AcDbSpline
210
0.0
220
0.0
230
1.0
 70
     8
 71
     3
 72
    12
 73
     8
 74
     0
 42
0.0000000001
 43
0.0000000001
 40
0.0
 40
0.0
 40
0.0
 40
0.0
 40
0.2493591165610715
 40
0.4986520652788543
 40
0.7479135820286063
 40
0.9971785835153667
 40
1.0
 40
1.0
 40
1.0
 40
1.0
 10
139.8468141125891
 20
0.3495206366739265
 30
0.0
 10
138.5126346233679
 20
0.568968589410085
 30
0.0
 10
135.8446296716024
 20
1.007806264014617
 30
0.0
 10
131.8429972917874
 20
1.486970904456633
 30
0.0
 10
127.8418741986493
 20
1.68770427132336
 30
0.0
 10
125.1594735472166
 20
1.706230496857489
 30
0.0
 10
123.8107093867271
 20
1.593310791631006
 30
0.0
 10
123.7956136688899
 20
1.592046965041975
 30
0.0
  0
SPLINE
  5
2CB
330
1F
100
AcDbEntity
  8
1
  6
Continuous
370
    15
100
AcDbSpline
210
0.0
220
0.0
230
1.0
 70
     8
 71
     3
 72
    10
 73
     6
 74
     0
 42
0.0000000001
 43
0.0000000001
 40
0.0
 40
0.0
 40
0.0
 40
0.0
 40
0.2505097024386556
 40
0.6219675599995843
 40
1.0
 40
1.0
 40
1.0
 40
1.0
 10
59.69440032935465
 20
-2.854426162712956
 30
0.0
 10
59.25336506919729
 20
-3.086274891224336
 30
0.0
 10
58.15835907955499
 20
-3.661910830900334
 30
0.0
 10
56.42859706860235
 20
-4.541005283327976
 30
0.0
 10
55.15909070985763
 20
-5.074046135482151
 30
0.0
 10
54.5187694302442
 20
-5.342904497779032
 30
0.0
  0
SPLINE
  5
2CC
330
1F
100
AcDbEntity
  8
1
  6
Continuous
370
    15
100
AcDbSpline
210
0.0
220
0.0
230
1.0
 70
     8
 71
     3
 72
    14
 73
    10
 74
     0
 42
0.0000000001
 43
0.0000000001
 40
0.0
 40
0.0
 40
0.0
 40
0.0
 40
0.0964100400184966
 40
0.2423762844711836
 40
0.3904418442356955
 40
0.5383055465161311
 40
0.6889595478161749
 40
0.8427502270787002
 40
1.0
 40
1.0
 40
1.0
 40
1.0
 10
57.68693135390599
 20
-2.224023009142755
 30
0.0
 10
57.15158561117497
 20
-2.296073277318525
 30
0.0
 10
55.80571839645639
 20
-2.477208730558106
 30
0.0
 10
53.66806517683868
 20
-2.705495586939174
 30
0.0
 10
51.27974917926247
 20
-2.811238475960994
 30
0.0
 10
48.90685571822176
 20
-2.693742129713395
 30
0.0
 10
46.54894130506189
 20
-2.298388833901126
 30
0.0
 10
44.18763796932593
 20
-1.614428450818274
 30
0.0
 10
42.6415566552944
 20
-0.9168027504204394
 30
0.0
 10
41.85991898134441
 20
-0.5641107381712121
 30
0.0
  0
SPLINE
  5
2CD
330
1F
100
AcDbEntity
  8
1
  6
Continuous
370
    15
100
AcDbSpline
210
0.0
220
0.0
230
1.0
 70
     8
 71
     3
 72
    10
 73
     6
 74
     0
 42
0.0000000001
 43
0.0000000001
 40
0.0
 40
0.0
 40
0.0
 40
0.0
 40
0.5
 40
0.5
 40
1.0
 40
1.0
 40
1.0
 40
1.0
 10
140.8584740304139
 20
-2.136680154343354
 30
0.0
 10
140.901217080585
 20
-1.97797049515859
 30
0.0
 10
140.9540889794045
 20
-1.821930080553034
 30
0.0
 10
141.0706865246566
 20
-1.570000163308769
 30
0.0
 10
141.1321882214735
 20
-1.480999672979016
 30
0.0
 10
141.1839850175226
 20
-1.45686740161485
 30
0.0
  0
SPLINE
  5
2CE
330
1F
100
AcDbEntity
  8
1
  6
Continuous
370
    15
100
AcDbSpline
210
0.0
220
0.0
230
1.0
 70
     8
 71
     3
 72
    28
 73
    24
 74
     0
 42
0.0000000001
 43
0.0000000001
 40
0.0
 40
0.0
 40
0.0
 40
0.0
 40
0.1250000000000002
 40
0.1250000000000002
 40
0.2500000000000003
 40
0.2500000000000003
 40
0.3750000000000003
 40
0.3750000000000003
 40
0.4375000000000002
 40
0.4375000000000002
 40
0.5000000000000002
 40
0.5000000000000002
 40
0.5625000000000002
 40
0.5625000000000002
 40
0.6250000000000001
 40
0.6250000000000001
 40
0.6875000000000001
 40
0.6875000000000001
 40
0.7500000000000001
 40
0.7500000000000001
 40
0.875
 40
0.875
 40
1.0
 40
1.0
 40
1.0
 40
1.0
 10
141.1839850175226
 20
-1.45686740161485
 30
0.0
 10
141.1414314751794
 20
-1.444114734321634
 30
0.0
 10
141.0634672579103
 20
-1.488087517434063
 30
0.0
 10
140.8907025055327
 20
-1.620011494870456
 30
0.0
 10
140.7945549389222
 20
-1.709473529347792
 30
0.0
 10
140.5958995591573
 20
-1.917748476353093
 30
0.0
 10
140.4948624081515
 20
-2.03481480614273
 30
0.0
 10
140.3462743343859
 20
-2.228613246198078
 30
0.0
 10
140.2979867542407
 20
-2.29541790459149
 30
0.0
 10
140.2076840785531
 20
-2.431224604155264
 30
0.0
 10
140.1659966499311
 20
-2.499760009849258
 30
0.0
 10
140.0990596098585
 20
-2.629258900858415
 30
0.0
 10
140.0753810047431
 20
-2.688109008541708
 30
0.0
 10
140.0581503750858
 20
-2.774674604965856
 30
0.0
 10
140.0648482024674
 20
-2.802158045986891
 30
0.0
 10
140.1007021246315
 20
-2.823809711379345
 30
0.0
 10
140.1292947412454
 20
-2.81936561230681
 30
0.0
 10
140.1967899522734
 20
-2.790783618798825
 30
0.0
 10
140.2363598665675
 20
-2.766440729188916
 30
0.0
 10
140.363107331601
 20
-2.674031297346582
 30
0.0
 10
140.4590885852202
 20
-2.586573337694757
 30
0.0
 10
140.6561176543513
 20
-2.38298034726518
 30
0.0
 10
140.7587113765567
 20
-2.265298516893654
 30
0.0
 10
140.8584740304139
 20
-2.136680154343356
 30
0.0
  0
SPLINE
  5
2CF
330
1F
100
AcDbEntity
  8
SK1
  6
Continuous
370
    15
100
AcDbSpline
210
0.0
220
0.0
230
1.0
 70
    24
 71
     3
 72
    19
 73
    15
 74
     0
 42
0.0000000001
 43
0.0000000001
 40
0.0
 40
0.0
 40
0.0
 40
0.0
 40
0.105559669701024
 40
0.2111091937449759
 40
0.3179621075297772
 40
0.4281016933001949
 40
0.5381569930479497
 40
0.6525429370396089
 40
0.7092842421437432
 40
0.7676106248781021
 40
0.8255797586184167
 40
0.8851688455788938
 40
0.9441692767673115
 40
1.0
 40
1.0
 40
1.0
 40
1.0
 10
-2.51843120800001
 20
-3.240173903597042
 30
0.0
 10
-2.51843120800009
 20
-3.142424833575292
 30
0.0
 10
-2.518431208000323
 20
-2.946936088488653
 30
0.0
 10
-2.518431207999896
 20
-2.210272047039351
 30
0.0
 10
-2.51843120800009
 20
-1.237387362222529
 30
0.0
 10
-2.51843120800009
 20
-0.0864935510420187
 30
0.0
 10
-2.518431207999896
 20
1.115945105093552
 30
0.0
 10
-2.51843120800001
 20
2.046129564125009
 30
0.0
 10
-2.51843120800009
 20
2.68549016591309
 30
0.0
 10
-2.51843120800001
 20
3.098861803859529
 30
0.0
 10
-2.518431207999813
 20
3.438200251465663
 30
0.0
 10
-2.51843120800009
 20
3.684464939978425
 30
0.0
 10
-2.51843120800001
 20
3.838242136985538
 30
0.0
 10
-2.51843120800009
 20
3.852649478988146
 30
0.0
 10
-2.51843120800009
 20
3.859654305578296
 30
0.0
  0
SPLINE
  5
2D0
330
1F
100
AcDbEntity
  8
SK1
  6
Continuous
370
    15
100
AcDbSpline
210
0.0
220
0.0
230
1.0
 70
     8
 71
     3
 72
    18
 73
    14
 74
     0
 42
0.0000000001
 43
0.0000000001
 40
0.0
 40
0.0
 40
0.0
 40
0.0
 40
0.0721590872396394
 40
0.1644876045096531
 40
0.2552342942377667
 40
0.3459809839658806
 40
0.4383095012358928
 40
0.529056190964004
 40
0.6198028806921162
 40
0.7121313979621289
 40
0.8028780876902409
 40
0.9006641872771272
 40
1.0
 40
1.0
 40
1.0
 40
1.0
 10
-2.950506745912091
 20
3.297093663625832
 30
0.0
 10
-2.940360245140001
 20
3.278442269273361
 30
0.0
 10
-2.917231160917912
 20
3.235926166379568
 30
0.0
 10
-2.878744359584493
 20
2.904115479046748
 30
0.0
 10
-2.840309744753001
 20
2.375378121266058
 30
0.0
 10
-2.801850746099912
 20
1.678923060452561
 30
0.0
 10
-2.760635120123
 20
0.8692246423605855
 30
0.0
 10
-2.722179310530493
 20
-0.0000872185040462
 30
0.0
 10
-2.6837319119019
 20
-0.8689398335288071
 30
0.0
 10
-2.642490759805892
 20
-1.680027439506868
 30
0.0
 10
-2.603137814171593
 20
-2.38921808742577
 30
0.0
 10
-2.562351995048201
 20
-2.958979283247618
 30
0.0
 10
-2.533148001351892
 20
-3.145952388058478
 30
0.0
 10
-2.51843120800001
 20
-3.240173903597145
 30
0.0
  0
SPLINE
  5
2D1
330
1F
100
AcDbEntity
  8
SK1
  6
Continuous
370
    15
100
AcDbSpline
210
0.0
220
0.0
230
1.0
 70
     8
 71
     3
 72
    19
 73
    15
 74
     0
 42
0.0000000001
 43
0.0000000001
 40
0.0
 40
0.0
 40
0.0
 40
0.0
 40
0.0681925878835358
 40
0.1554166513943895
 40
0.2411463399270943
 40
0.3268760284597978
 40
0.4141000919706507
 40
0.4998297805033542
 40
0.585559469036058
 40
0.672783532546911
 40
0.7585132210796142
 40
0.844242909612319
 40
0.9314669731231727
 40
1.0
 40
1.0
 40
1.0
 40
1.0
 10
-3.895517066840992
 20
3.297123499051436
 30
0.0
 10
-3.885367180297413
 20
3.278467761322073
 30
0.0
 10
-3.862234733977091
 20
3.235949763733516
 30
0.0
 10
-3.823744388998501
 20
2.904118137785578
 30
0.0
 10
-3.785309712102701
 20
2.375376062448665
 30
0.0
 10
-3.74685084842508
 20
1.678928708758794
 30
0.0
 10
-3.7056347392691
 20
0.8692038849831462
 30
0.0
 10
-3.667180702583581
 20
-0.0000114174644597
 30
0.0
 10
-3.62872667601269
 20
-0.8692249229222801
 30
0.0
 10
-3.587510536160492
 20
-1.678950640230231
 30
0.0
 10
-3.549051783575323
 20
-2.375383047193603
 30
0.0
 10
-3.510616691780993
 20
-2.904162925815258
 30
0.0
 10
-3.472073469489711
 20
-3.236308383170275
 30
0.0
 10
-3.448890993700813
 20
-3.278850313333911
 30
0.0
 10
-3.438690718179683
 20
-3.297568737233843
 30
0.0
  0
SPLINE
  5
2D2
330
1F
100
AcDbEntity
  8
SK1
  6
Continuous
370
    15
100
AcDbSpline
210
0.0
220
0.0
230
1.0
 70
     8
 71
     3
 72
    19
 73
    15
 74
     0
 42
0.0000000001
 43
0.0000000001
 40
0.0
 40
0.0
 40
0.0
 40
0.0
 40
0.0681453523570396
 40
0.1554119805338205
 40
0.2411835044890654
 40
0.3269550284443065
 40
0.4142216566210866
 40
0.4999931805763277
 40
0.5857647045315689
 40
0.6730313327083488
 40
0.75880285666359
 40
0.8445743806188325
 40
0.9318410087956127
 40
1.0
 40
1.0
 40
1.0
 40
1.0
 10
-4.840480752984402
 20
3.297018524065721
 30
0.0
 10
-4.83034277771159
 20
3.278377990384301
 30
0.0
 10
-4.807222157430683
 20
3.235866474082226
 30
0.0
 10
-4.768744311312191
 20
2.904110187219601
 30
0.0
 10
-4.730309732719691
 20
2.375378172424951
 30
0.0
 10
-4.691850842925021
 20
1.678928145860649
 30
0.0
 10
-4.650634740215512
 20
0.8692039818353528
 30
0.0
 10
-4.612180704192321
 20
-0.0000112528295096
 30
0.0
 10
-4.573726668575521
 20
-0.8692256840538799
 30
0.0
 10
-4.532510564632811
 20
-1.678947726325981
 30
0.0
 10
-4.494051679301601
 20
-2.375393718777473
 30
0.0
 10
-4.455617084038832
 20
-2.904122781346113
 30
0.0
 10
-4.41713712063509
 20
-3.235886781546198
 30
0.0
 10
-4.394014497031321
 20
-3.278395903585419
 30
0.0
 10
-4.383874503990822
 20
-3.297037482024759
 30
0.0
  0
SPLINE
  5
2D3
330
1F
100
AcDbEntity
  8
SK1
  6
Continuous
370
    15
100
AcDbSpline
210
0.0
220
0.0
230
1.0
 70
     8
 71
     3
 72
    19
 73
    15
 74
     0
 42
0.0000000001
 43
0.0000000001
 40
0.0
 40
0.0
 40
0.0
 40
0.0
 40
0.0679855006872082
 40
0.1552712907933206
 40
0.2410616483842269
 40
0.3268520059751349
 40
0.4141377960812467
 40
0.4999281536721492
 40
0.5857185112630543
 40
0.6730043013691665
 40
0.7587946589600714
 40
0.8445850165509771
 40
0.9318708066570888
 40
1.0
 40
1.0
 40
1.0
 40
1.0
 10
-5.785401923310099
 20
3.296790645655038
 30
0.0
 10
-5.77528980516382
 20
3.278183146009356
 30
0.0
 10
-5.75219485666219
 20
3.235685694946757
 30
0.0
 10
-5.713744142349812
 20
2.904092895279207
 30
0.0
 10
-5.675309777634001
 20
2.375382769041634
 30
0.0
 10
-5.636850830664314
 20
1.678926891084745
 30
0.0
 10
-5.595634743405324
 20
0.8692043082929645
 30
0.0
 10
-5.5571807035493
 20
-0.0000113186414743
 30
0.0
 10
-5.518726667980419
 20
-0.8692257449693187
 30
0.0
 10
-5.477510567710422
 20
-1.67894741135242
 30
0.0
 10
-5.439051667828809
 20
-2.375394892936538
 30
0.0
 10
-5.400617127252581
 20
-2.904118358749276
 30
0.0
 10
-5.362144111469921
 20
-3.235840487165587
 30
0.0
 10
-5.339028061539923
 20
-3.278346007932802
 30
0.0
 10
-5.328894689582823
 20
-3.296979133119477
 30
0.0
  0
SPLINE
  5
2D4
330
1F
100
AcDbEntity
  8
SK1
  6
Continuous
370
    15
100
AcDbSpline
210
0.0
220
0.0
230
1.0
 70
     8
 71
     3
 72
    19
 73
    15
 74
     0
 42
0.0000000001
 43
0.0000000001
 40
0.0
 40
0.0
 40
0.0
 40
0.0
 40
0.0680961881968658
 40
0.1553444240592266
 40
0.2410978708082117
 40
0.3268513175571974
 40
0.4140995534195583
 40
0.4998530001685433
 40
0.5856064469175301
 40
0.6728546827798903
 40
0.7586081295288741
 40
0.8443615762778609
 40
0.931609812140222
 40
1.0
 40
1.0
 40
1.0
 40
1.0
 10
-6.730465052961192
 20
3.296973138919096
 30
0.0
 10
-6.720332227463102
 20
3.278339181277805
 30
0.0
 10
-6.697216720078812
 20
3.235830466849303
 30
0.0
 10
-6.658744277687191
 20
2.904106745969709
 30
0.0
 10
-6.620309741680411
 20
2.375379089482831
 30
0.0
 10
-6.581850840394592
 20
1.678927886908081
 30
0.0
 10
-6.540634741193093
 20
0.8692040818797954
 30
0.0
 10
-6.502180702809822
 20
-0.0000113943110267
 30
0.0
 10
-6.463726673175922
 20
-0.8692252132398891
 30
0.0
 10
-6.422510547421492
 20
-1.678949487745711
 30
0.0
 10
-6.384051742232602
 20
-2.375387278289708
 30
0.0
 10
-6.34561684733208
 20
-2.904147006408863
 30
0.0
 10
-6.307098754263424
 20
-3.236140885764598
 30
0.0
 10
-6.283940053988173
 20
-3.27866977933937
 30
0.0
 10
-6.273763724618192
 20
-3.297357703256148
 30
0.0
  0
SPLINE
  5
2D5
330
1F
100
AcDbEntity
  8
SK1
  6
Continuous
370
    15
100
AcDbSpline
210
0.0
220
0.0
230
1.0
 70
     8
 71
     3
 72
    19
 73
    15
 74
     0
 42
0.0000000001
 43
0.0000000001
 40
0.0
 40
0.0
 40
0.0
 40
0.0
 40
0.0683979441245222
 40
0.1556306322748457
 40
0.2413687976845237
 40
0.3271069630942004
 40
0.4143396512445242
 40
0.5000778166542026
 40
0.5858159820638799
 40
0.6730486702142038
 40
0.7587868356238822
 40
0.8445250010335588
 40
0.9317576891838827
 40
1.0
 40
1.0
 40
1.0
 40
1.0
 10
-7.675606682519512
 20
3.297382557312818
 30
0.0
 10
-7.665427401580102
 20
3.278689334815108
 30
0.0
 10
-7.642265770788922
 20
3.236155336552291
 30
0.0
 10
-7.60374458037532
 20
2.904137723656901
 30
0.0
 10
-7.565309661199503
 20
2.37537085291974
 30
0.0
 10
-7.52685086243559
 20
1.678930142620334
 30
0.0
 10
-7.485634735187602
 20
0.8692034672840327
 30
0.0
 10
-7.447180705026313
 20
-0.0000111674775832
 30
0.0
 10
-7.40872667023819
 20
-0.8692255138858357
 30
0.0
 10
-7.367510557031523
 20
-1.67894850425034
 30
0.0
 10
-7.329051707451331
 20
-2.37539083787819
 30
0.0
 10
-7.29061697805983
 20
-2.904133627454205
 30
0.0
 10
-7.252119958186512
 20
-3.236000442590682
 30
0.0
 10
-7.228981196328931
 20
-3.278518407462567
 30
0.0
 10
-7.218824948770822
 20
-3.297180727406896
 30
0.0
  0
SPLINE
  5
2D6
330
1F
100
AcDbEntity
  8
SK1
  6
Continuous
370
    15
100
AcDbSpline
210
0.0
220
0.0
230
1.0
 70
     8
 71
     3
 72
    19
 73
    15
 74
     0
 42
0.0000000001
 43
0.0000000001
 40
0.0
 40
0.0
 40
0.0
 40
0.0
 40
0.0685745654548933
 40
0.1557989859759912
 40
0.2415290254024257
 40
0.3272590648288609
 40
0.4144834853499584
 40
0.5002135247763933
 40
0.5859435642028271
 40
0.6731679847239244
 40
0.7588980241503604
 40
0.8446280635767935
 40
0.9318524840978914
 40
1.0
 40
1.0
 40
1.0
 40
1.0
 10
-8.620689308016611
 20
3.297621408571989
 30
0.0
 10
-8.610482925940402
 20
3.278893670621258
 30
0.0
 10
-8.587294387049816
 20
3.236344912740073
 30
0.0
 10
-8.54874475635199
 20
2.904155733444491
 30
0.0
 10
-8.510309614408813
 20
2.37536606426583
 30
0.0
 10
-8.471850875253098
 20
1.678931454392736
 30
0.0
 10
-8.430634731683481
 20
0.8692031086502318
 30
0.0
 10
-8.392180706362012
 20
-0.0000110307681074
 30
0.0
 10
-8.353726668352692
 20
-0.8692257068559793
 30
0.0
 10
-8.312510563289492
 20
-1.67894786379567
 30
0.0
 10
-8.274051684775095
 20
-2.375393158606951
 30
0.0
 10
-8.23561706329718
 20
-2.904124904087444
 30
0.0
 10
-8.197133762054424
 20
-3.235909023493254
 30
0.0
 10
-8.174007980294021
 20
-3.2784198756866
 30
0.0
 10
-8.163864806329911
 20
-3.297065514291294
 30
0.0
  0
SPLINE
  5
2D7
330
1F
100
AcDbEntity
  8
SK1
  6
Continuous
370
    15
100
AcDbSpline
210
0.0
220
0.0
230
1.0
 70
     8
 71
     3
 72
    19
 73
    15
 74
     0
 42
0.0000000001
 43
0.0000000001
 40
0.0
 40
0.0
 40
0.0
 40
0.0
 40
0.0683330712323052
 40
0.1555916874054805
 40
0.241355336623569
 40
0.327118985841658
 40
0.4143776020148339
 40
0.5001412512329222
 40
0.5859049004510109
 40
0.6731635166241868
 40
0.7589271658422753
 40
0.8446908150603633
 40
0.9319494312335388
 40
1.0
 40
1.0
 40
1.0
 40
1.0
 10
-9.565568249926512
 20
3.297271457548975
 30
0.0
 10
-9.555401575009994
 20
3.278594304434172
 30
0.0
 10
-9.532252460283594
 20
3.236067169085866
 30
0.0
 10
-9.493744498375212
 20
2.904129331588337
 30
0.0
 10
-9.455309682980411
 20
2.3753730820196
 30
0.0
 10
-9.416850856553022
 20
1.678929540577463
 30
0.0
 10
-9.375634736479007
 20
0.8692035994494004
 30
0.0
 10
-9.337180705653825
 20
-0.0000111032657446
 30
0.0
 10
-9.298726666415324
 20
-0.8692259051371779
 30
0.0
 10
-9.257510571873892
 20
-1.678946985254946
 30
0.0
 10
-9.219051653042102
 20
-2.375396406224075
 30
0.0
 10
-9.180617182751014
 20
-2.904112678939693
 30
0.0
 10
-9.142153080672102
 20
-3.23578109503471
 30
0.0
 10
-9.119045464758102
 20
-3.278281995763319
 30
0.0
 10
-9.108920587685419
 20
-3.296904271508265
 30
0.0
  0
SPLINE
  5
2D8
330
1F
100
AcDbEntity
  8
SK1
  6
Continuous
370
    15
100
AcDbSpline
210
0.0
220
0.0
230
1.0
 70
     8
 71
     3
 72
    20
 73
    16
 74
     0
 42
0.0000000001
 43
0.0000000001
 40
0.0
 40
0.0
 40
0.0
 40
0.0
 40
0.0000011466189178
 40
0.0842490518536055
 40
0.1699655027426517
 40
0.2542134079773396
 40
0.3384613132120272
 40
0.4241777641010735
 40
0.5084256693357614
 40
0.592673574570449
 40
0.6783900254594954
 40
0.7626379306941832
 40
0.8468858359288709
 40
0.9326022868179173
 40
1.0
 40
1.0
 40
1.0
 40
1.0
 10
-10.51843120800001
 20
3.319999999999943
 30
0.0
 10
-10.5184310400866
 20
3.319999999996082
 30
0.0
 10
-10.50609342124542
 20
3.319999716304368
 30
0.0
 10
-10.4797847702084
 20
3.243949666069142
 30
0.0
 10
-10.43881034745283
 20
2.908389191374691
 30
0.0
 10
-10.40029217721269
 20
2.37424061371077
 30
0.0
 10
-10.3618556408403
 20
1.67923903468553
 30
0.0
 10
-10.32063347052252
 20
0.869121731483133
 30
0.0
 10
-10.28218103964869
 20
0.0000103994989664
 30
0.0
 10
-10.24372658474792
 20
-0.8692307978695536
 30
0.0
 10
-10.20251055707351
 20
-1.678949417404319
 30
0.0
 10
-10.16405178987281
 20
-2.375382158739826
 30
0.0
 10
-10.12561664545831
 20
-2.904167733430023
 30
0.0
 10
-10.08706563889169
 20
-3.23636028154627
 30
0.0
 10
-10.06387580051233
 20
-3.278906234772788
 30
0.0
 10
-10.053668109504
 20
-3.297634090356984
 30
0.0
  0
SPLINE
  5
2D9
330
1F
100
AcDbEntity
  8
SK1
  6
Continuous
370
    15
100
AcDbSpline
210
0.0
220
0.0
230
1.0
 70
    24
 71
     3
 72
    14
 73
    10
 74
     0
 42
0.0000000001
 43
0.0000000001
 40
0.0
 40
0.0
 40
0.0
 40
0.0
 40
0.25
 40
0.25
 40
0.5
 40
0.5
 40
0.75
 40
0.75
 40
1.0
 40
1.0
 40
1.0
 40
1.0
 10
-10.51843120799989
 20
2.381074576423646
 30
0.0
 10
-10.51843120799989
 20
2.540202355326294
 30
0.0
 10
-10.51843120800008
 20
2.684962461858173
 30
0.0
 10
-10.51843120800008
 20
2.929694503280318
 30
0.0
 10
-10.51843120800001
 20
3.031333153033954
 30
0.0
 10
-10.51843120800001
 20
3.192656759611947
 30
0.0
 10
-10.51843120800001
 20
3.251256853840819
 30
0.0
 10
-10.51843120800008
 20
3.320534046275751
 30
0.0
 10
-10.51843120800008
 20
3.332262383970859
 30
0.0
 10
-10.51843120800008
 20
3.319999999999943
 30
0.0
  0
SPLINE
  5
2DA
330
1F
100
AcDbEntity
  8
SK1
  6
Continuous
370
    15
100
AcDbSpline
210
0.0
220
0.0
230
1.0
 70
     8
 71
     3
 72
    20
 73
    16
 74
     0
 42
0.0000000001
 43
0.0000000001
 40
0.0
 40
0.0
 40
0.0
 40
0.0
 40
0.0041915108156091
 40
0.0804652547398866
 40
0.153868387300744
 40
0.2294383253062848
 40
0.3022253782367971
 40
0.3771292985008593
 40
0.4496354937041053
 40
0.5243082478119066
 40
0.6688321540224335
 40
0.7403217325638039
 40
0.8139594331787687
 40
0.9560791374460283
 40
1.0
 40
1.0
 40
1.0
 40
1.0
 10
-10.32551189418831
 20
-3.660175364333515
 30
0.0
 10
-10.32576658573998
 20
-3.660826557630735
 30
0.0
 10
-10.3306559493821
 20
-3.673327643003261
 30
0.0
 10
-10.34000773207751
 20
-3.599401567487775
 30
0.0
 10
-10.35453241050382
 20
-3.430222145927498
 30
0.0
 10
-10.36891305827393
 20
-3.154940740912446
 30
0.0
 10
-10.38320814807218
 20
-2.79126808834608
 30
0.0
 10
-10.39640924553001
 20
-2.353937296243461
 30
0.0
 10
-10.41064070716199
 20
-1.845942379536202
 30
0.0
 10
-10.4298741483619
 20
-1.111335655122385
 30
0.0
 10
-10.4489858444754
 20
-0.3032711680232328
 30
0.0
 10
-10.46684469228742
 20
0.4974122881620671
 30
0.0
 10
-10.48592054668866
 20
1.268277971724639
 30
0.0
 10
-10.50372768605768
 20
1.915121773182367
 30
0.0
 10
-10.51562294851041
 20
2.2920811783421
 30
0.0
 10
-10.51843120800001
 20
2.381074576423694
 30
0.0
  0
SPLINE
  5
2DB
330
1F
100
AcDbEntity
  8
SK1
  6
Continuous
370
    15
100
AcDbSpline
210
0.0
220
0.0
230
1.0
 70
     8
 71
     3
 72
    15
 73
    11
 74
     0
 42
0.0000000001
 43
0.0000000001
 40
0.0
 40
0.0
 40
0.0
 40
0.0
 40
0.1151875911521834
 40
0.2577577141451511
 40
0.3978880365355834
 40
0.5380183589260163
 40
0.6805884819189815
 40
0.8207188043094099
 40
0.9095076331293068
 40
1.0
 40
1.0
 40
1.0
 40
1.0
 10
-3.424044791985093
 20
3.876101176846868
 30
0.0
 10
-3.413557954130821
 20
3.853688591812853
 30
0.0
 10
-3.390091334793591
 20
3.803535475243034
 30
0.0
 10
-3.351245170405833
 20
3.411265241019948
 30
0.0
 10
-3.312812229931011
 20
2.789906100341128
 30
0.0
 10
-3.274339908191821
 20
1.972018254067784
 30
0.0
 10
-3.23317807779833
 20
1.020846304169475
 30
0.0
 10
-3.199214038836711
 20
0.1241129787755732
 30
0.0
 10
-3.170609496796122
 20
-0.6476308341125821
 30
0.0
 10
-3.153531857859403
 20
-1.062982542435777
 30
0.0
 10
-3.144911902141301
 20
-1.272631741980495
 30
0.0
  0
SPLINE
  5
2DC
330
1F
100
AcDbEntity
  8
SK1
  6
Continuous
370
    15
100
AcDbSpline
210
0.0
220
0.0
230
1.0
 70
     8
 71
     3
 72
    19
 73
    15
 74
     0
 42
0.0000000001
 43
0.0000000001
 40
0.0
 40
0.0
 40
0.0
 40
0.0
 40
0.0701896051515148
 40
0.1570500137363692
 40
0.2424239813141393
 40
0.3277979488919082
 40
0.4146583574767619
 40
0.5000323250545307
 40
0.5854062926322995
 40
0.6722667012171533
 40
0.757640668794922
 40
0.8430146363726919
 40
0.9298750449575463
 40
1.0
 40
1.0
 40
1.0
 40
1.0
 10
-4.369050193222191
 20
3.876119515837616
 30
0.0
 10
-4.358561532785501
 20
3.853704378302013
 30
0.0
 10
-4.33509303966471
 20
3.803550261459928
 30
0.0
 10
-4.296246027763513
 20
3.411265566799396
 30
0.0
 10
-4.257809136202181
 20
2.789909466737838
 30
0.0
 10
-4.219351533478911
 20
1.972004345477253
 30
0.0
 10
-4.178134171824209
 20
1.020899180375089
 30
0.0
 10
-4.13968070457034
 20
-0.0000131714989489
 30
0.0
 10
-4.101227235441312
 20
-1.020924853851919
 30
0.0
 10
-4.060009879477181
 20
-1.972026694908018
 30
0.0
 10
-4.021552256159082
 20
-2.789930088680663
 30
0.0
 10
-3.983115441513801
 20
-3.411271477169484
 30
0.0
 10
-3.94427851635331
 20
-3.803478375092024
 30
0.0
 10
-3.920819563656412
 20
-3.853622154188631
 30
0.0
 10
-3.910340510289981
 20
-3.876021250343583
 30
0.0
  0
SPLINE
  5
2DD
330
1F
100
AcDbEntity
  8
SK1
  6
Continuous
370
    15
100
AcDbSpline
210
0.0
220
0.0
230
1.0
 70
     8
 71
     3
 72
    19
 73
    15
 74
     0
 42
0.0000000001
 43
0.0000000001
 40
0.0
 40
0.0
 40
0.0
 40
0.0
 40
0.0700783524928501
 40
0.1569581845864458
 40
0.2423512432787149
 40
0.3277443019709803
 40
0.4146241340645755
 40
0.5000171927568406
 40
0.5854102514491061
 40
0.6722900835427012
 40
0.7576831422349664
 40
0.8430762009272331
 40
0.9299560330208286
 40
1.0
 40
1.0
 40
1.0
 40
1.0
 10
-5.313992681832191
 20
3.875924245600823
 30
0.0
 10
-5.303522881866799
 20
3.853536955434174
 30
0.0
 10
-5.280073118322091
 20
3.803394960119348
 30
0.0
 10
-5.24124590843891
 20
3.411251231044113
 30
0.0
 10
-5.202809167916403
 20
2.789913276901667
 30
0.0
 10
-5.164351524842601
 20
1.972003307900204
 30
0.0
 10
-5.123134173992579
 20
1.020899440882954
 30
0.0
 10
-5.084680704425101
 20
-0.0000131889475461
 30
0.0
 10
-5.046227233858902
 20
-1.02092504395781
 30
0.0
 10
-5.005009886039601
 20
-1.97202590649321
 30
0.0
 10
-4.966552231997691
 20
-2.789932991455125
 30
0.0
 10
-4.928115532438313
 20
-3.41126055340639
 30
0.0
 10
-4.889293686110313
 20
-3.803360123799377
 30
0.0
 10
-4.865848995698001
 20
-3.853494676251041
 30
0.0
 10
-4.855384304358691
 20
-3.875872562570325
 30
0.0
  0
SPLINE
  5
2DE
330
1F
100
AcDbEntity
  8
SK1
  6
Continuous
370
    15
100
AcDbSpline
210
0.0
220
0.0
230
1.0
 70
     8
 71
     3
 72
    19
 73
    15
 74
     0
 42
0.0000000001
 43
0.0000000001
 40
0.0
 40
0.0
 40
0.0
 40
0.0
 40
0.0699054930169778
 40
0.1567749175119032
 40
0.2421577467105962
 40
0.3275405759092906
 40
0.4144100004042154
 40
0.4997928296029044
 40
0.5851756588015961
 40
0.6720450832965208
 40
0.7574279124952125
 40
0.8428107416939047
 40
0.9296801661888292
 40
1.0
 40
1.0
 40
1.0
 40
1.0
 10
-6.258918165506602
 20
3.875671237969341
 30
0.0
 10
-6.248472802961321
 20
3.853320064548618
 30
0.0
 10
-6.225047306898912
 20
3.803193769487991
 30
0.0
 10
-6.186245753511482
 20
3.411232617937453
 30
0.0
 10
-6.147809209128102
 20
2.789918228122965
 30
0.0
 10
-6.10935151348761
 20
1.972001943710735
 30
0.0
 10
-6.068134177346022
 20
1.020899843763131
 30
0.0
 10
-6.029680702267111
 20
-0.0000134482156624
 30
0.0
 10
-5.9912272392128
 20
-1.020924400737379
 30
0.0
 10
-5.950009866578311
 20
-1.972028244597253
 30
0.0
 10
-5.911552303011322
 20
-2.789924459807897
 30
0.0
 10
-5.873115265372402
 20
-3.411292638979237
 30
0.0
 10
-5.834249073549813
 20
-3.803707918362536
 30
0.0
 10
-5.810762439556331
 20
-3.853869611539701
 30
0.0
 10
-5.800255511684611
 20
-3.876309834020021
 30
0.0
  0
SPLINE
  5
2DF
330
1F
100
AcDbEntity
  8
SK1
  6
Continuous
370
    15
100
AcDbSpline
210
0.0
220
0.0
230
1.0
 70
     8
 71
     3
 72
    19
 73
    15
 74
     0
 42
0.0000000001
 43
0.0000000001
 40
0.0
 40
0.0
 40
0.0
 40
0.0
 40
0.0700481051579701
 40
0.1569152815828125
 40
0.2422959011826149
 40
0.3276765207824177
 40
0.4145436972072602
 40
0.4999243168070627
 40
0.5853049364068667
 40
0.6721721128317083
 40
0.7575527324315095
 40
0.8429333520313136
 40
0.9298005284561563
 40
1.0
 40
1.0
 40
1.0
 40
1.0
 10
-7.203983602187923
 20
3.875893417197818
 30
0.0
 10
-7.19351677984869
 20
3.853510525657991
 30
0.0
 10
-7.17006997324469
 20
3.803370443771555
 30
0.0
 10
-7.131245889576923
 20
3.411248964936487
 30
0.0
 10
-7.092809172945012
 20
2.789913881054129
 30
0.0
 10
-7.054351523414823
 20
1.972003136360235
 30
0.0
 10
-7.013134174573191
 20
1.020899510629521
 30
0.0
 10
-6.974680703531812
 20
-0.0000132962672921
 30
0.0
 10
-6.936227236882611
 20
-1.020924680688352
 30
0.0
 10
-6.895009874711688
 20
-1.972027267456338
 30
0.0
 10
-6.856552273422692
 20
-2.789928014597419
 30
0.0
 10
-6.818115376623411
 20
-3.411279273177651
 30
0.0
 10
-6.779267678677602
 20
-3.803562863473695
 30
0.0
 10
-6.755798536670313
 20
-3.853713235710353
 30
0.0
 10
-6.745309222816501
 20
-3.876127476252638
 30
0.0
  0
SPLINE
  5
2E0
330
1F
100
AcDbEntity
  8
SK1
  6
Continuous
370
    15
100
AcDbSpline
210
0.0
220
0.0
230
1.0
 70
     8
 71
     3
 72
    19
 73
    15
 74
     0
 42
0.0000000001
 43
0.0000000001
 40
0.0
 40
0.0
 40
0.0
 40
0.0
 40
0.0703156454813774
 40
0.1571620111670444
 40
0.2425221761615731
 40
0.3278823411561003
 40
0.4147287068417679
 40
0.5000888718362969
 40
0.5854490368308248
 40
0.6722954025164924
 40
0.7576555675110207
 40
0.8430157325055484
 40
0.929862098191216
 40
1.0
 40
1.0
 40
1.0
 40
1.0
 10
-8.149112458114021
 20
3.876330925789542
 30
0.0
 10
-8.138603378550012
 20
3.853885665956665
 30
0.0
 10
-8.115114607757995
 20
3.803718421492753
 30
0.0
 10
-8.076246156717902
 20
3.411281059490643
 30
0.0
 10
-8.037809101921821
 20
2.789905348256259
 30
0.0
 10
-7.99935154284009
 20
1.972005470125638
 30
0.0
 10
-7.958134169375512
 20
1.020898886181377
 30
0.0
 10
-7.919680705113111
 20
-0.0000131062961244
 30
0.0
 10
-7.881227235700321
 20
-1.020924822739988
 30
0.0
 10
-7.840009877866092
 20
-1.972026888473914
 30
0.0
 10
-7.801552262216092
 20
-2.78992936097911
 30
0.0
 10
-7.76311541868591
 20
-3.411274219749773
 30
0.0
 10
-7.724274704116423
 20
-3.80350809401237
 30
0.0
 10
-7.70081216724729
 20
-3.853654192097217
 30
0.0
 10
-7.690329504663512
 20
-3.876058616181897
 30
0.0
  0
SPLINE
  5
2E1
330
1F
100
AcDbEntity
  8
SK1
  6
Continuous
370
    15
100
AcDbSpline
210
0.0
220
0.0
230
1.0
 70
     8
 71
     3
 72
    19
 73
    15
 74
     0
 42
0.0000000001
 43
0.0000000001
 40
0.0
 40
0.0
 40
0.0
 40
0.0
 40
0.0704688147352469
 40
0.1573155562252281
 40
0.2426760905929354
 40
0.3280366249606431
 40
0.4148833664506243
 40
0.5002439008183316
 40
0.5856044351860385
 40
0.6724511766760191
 40
0.7578117110437278
 40
0.8431722454114336
 40
0.930018986901415
 40
1.0
 40
1.0
 40
1.0
 40
1.0
 10
-9.094181736934192
 20
3.876566150353736
 30
0.0
 10
-9.08364993836869
 20
3.854087407622576
 30
0.0
 10
-9.060138605651903
 20
3.803905551587646
 30
0.0
 10
-9.021246299917184
 20
3.411298263574892
 30
0.0
 10
-8.982809063838692
 20
2.78990077292931
 30
0.0
 10
-8.944351553298982
 20
1.972006726670639
 30
0.0
 10
-8.903134166414192
 20
1.020898530403834
 30
0.0
 10
-8.864680706601921
 20
-0.0000129274304173
 30
0.0
 10
-8.826227232654503
 20
-1.020925188653734
 30
0.0
 10
-8.785009888666902
 20
-1.972025590854558
 30
0.0
 10
-8.746552222876204
 20
-2.789934087308648
 30
0.0
 10
-8.70811556661442
 20
-3.411256447471266
 30
0.0
 10
-8.669299380790423
 20
-3.803315735697962
 30
0.0
 10
-8.645860044418579
 20
-3.853446824844201
 30
0.0
 10
-8.635400744596584
 20
-3.875816745368747
 30
0.0
  0
SPLINE
  5
2E2
330
1F
100
AcDbEntity
  8
SK1
  6
Continuous
370
    15
100
AcDbSpline
210
0.0
220
0.0
230
1.0
 70
     8
 71
     3
 72
    19
 73
    15
 74
     0
 42
0.0000000001
 43
0.0000000001
 40
0.0
 40
0.0
 40
0.0
 40
0.0
 40
0.0702241328402698
 40
0.157047523855819
 40
0.2423851073454504
 40
0.3277226908350824
 40
0.4145460818506315
 40
0.4998836653402629
 40
0.5852212488298944
 40
0.672044639845444
 40
0.7573822233350757
 40
0.8427198068247065
 40
0.9295431978402556
 40
1.0
 40
1.0
 40
1.0
 40
1.0
 10
-10.03907940573398
 20
3.876218702001026
 30
0.0
 10
-10.02858116532801
 20
3.85378942874037
 30
0.0
 10
-10.00510315863801
 20
3.803629153561406
 30
0.0
 10
-9.966246088285911
 20
3.41127283801204
 30
0.0
 10
-9.927809120143193
 20
2.789907537405925
 30
0.0
 10
-9.889351537751425
 20
1.972004858775235
 30
0.0
 10
-9.848134171134198
 20
1.020899097471884
 30
0.0
 10
-9.809680703144213
 20
-0.0000133428356626
 30
0.0
 10
-9.771227241885616
 20
-1.020924079635632
 30
0.0
 10
-9.730009854839812
 20
-1.972029654857811
 30
0.0
 10
-9.691552346381801
 20
-2.789919249227335
 30
0.0
 10
-9.653115102118302
 20
-3.411312252483189
 30
0.0
 10
-9.614221713958503
 20
-3.803921257342931
 30
0.0
 10
-9.590709357496512
 20
-3.854099603877553
 30
0.0
 10
-9.580176528065802
 20
-3.87657799586778
 30
0.0
  0
SPLINE
  5
2E3
330
1F
100
AcDbEntity
  8
SK1
  6
Continuous
370
    15
100
AcDbSpline
210
0.0
220
0.0
230
1.0
 70
     8
 71
     3
 72
    12
 73
     8
 74
     0
 42
0.0000000001
 43
0.0000000001
 40
0.0
 40
0.0
 40
0.0
 40
0.0
 40
0.1917550847857667
 40
0.3799001783730805
 40
0.598051779526536
 40
0.8200016050675394
 40
1.0
 40
1.0
 40
1.0
 40
1.0
 10
-3.144911902141301
 20
-1.272631741980488
 30
0.0
 10
-3.133079263945431
 20
-1.54703306110194
 30
0.0
 10
-3.109636749415813
 20
-2.090669805840752
 30
0.0
 10
-3.074832285764701
 20
-2.817233071693845
 30
0.0
 10
-3.038105811265691
 20
-3.411601805269711
 30
0.0
 10
-2.999230489912092
 20
-3.803809109131351
 30
0.0
 10
-2.975723384059822
 20
-3.854023333654565
 30
0.0
 10
-2.965196552225823
 20
-3.876510010685525
 30
0.0
  0
SPLINE
  5
2E4
330
1F
100
AcDbEntity
  8
1
  6
Continuous
370
    15
100
AcDbSpline
210
0.0
220
0.0
230
1.0
 70
     8
 71
     3
 72
    24
 73
    20
 74
     0
 42
0.0000000001
 43
0.0000000001
 40
0.0
 40
0.0
 40
0.0
 40
0.0
 40
0.1250000000000001
 40
0.1250000000000001
 40
0.2500000000000001
 40
0.2500000000000001
 40
0.3750000000000001
 40
0.3750000000000001
 40
0.4375000000000002
 40
0.4375000000000002
 40
0.5000000000000002
 40
0.5000000000000002
 40
0.5625000000000002
 40
0.5625000000000002
 40
0.6250000000000002
 40
0.6250000000000002
 40
0.7500000000000002
 40
0.7500000000000002
 40
1.0
 40
1.0
 40
1.0
 40
1.0
 10
139.8468141125891
 20
0.3495206366739265
 30
0.0
 10
139.8998483564069
 20
0.1755707284053085
 30
0.0
 10
139.9400480754852
 20
-0.0045092321267695
 30
0.0
 10
139.9821814014845
 20
-0.382945892859659
 30
0.0
 10
139.9835261016344
 20
-0.5816066197441187
 30
0.0
 10
139.9284762484994
 20
-0.9848081987659295
 30
0.0
 10
139.870293673912
 20
-1.193204122913152
 30
0.0
 10
139.7354495882205
 20
-1.489646163831028
 30
0.0
 10
139.6818828456211
 20
-1.587620991259169
 30
0.0
 10
139.5627241637409
 20
-1.773508901124533
 30
0.0
 10
139.4971145932956
 20
-1.861898508281818
 30
0.0
 10
139.3552496623211
 20
-2.03063745972673
 30
0.0
 10
139.2787170900135
 20
-2.111109527217474
 30
0.0
 10
139.121110334951
 20
-2.260480540563865
 30
0.0
 10
139.0394736303789
 20
-2.330104240261505
 30
0.0
 10
138.7875636077506
 20
-2.52646983354794
 30
0.0
 10
138.6089470251746
 20
-2.641451704927505
 30
0.0
 10
138.0707951727199
 20
-2.939580332347702
 30
0.0
 10
137.7038554073418
 20
-3.081859079820857
 30
0.0
 10
137.3320280789637
 20
-3.190361123148216
 30
0.0
  0
SPLINE
  5
2E5
330
1F
100
AcDbEntity
  8
1
  6
Continuous
370
    15
100
AcDbSpline
210
0.0
220
0.0
230
1.0
 70
     8
 71
     3
 72
    10
 73
     6
 74
     0
 42
0.0000000001
 43
0.0000000001
 40
0.0
 40
0.0
 40
0.0
 40
0.0
 40
0.5
 40
0.5
 40
1.0
 40
1.0
 40
1.0
 40
1.0
 10
140.8584740304139
 20
2.136680154343387
 30
0.0
 10
140.901217080585
 20
1.977970495158625
 30
0.0
 10
140.9540889794045
 20
1.82193008055305
 30
0.0
 10
141.0706865246565
 20
1.570000163308774
 30
0.0
 10
141.1321882214735
 20
1.480999672979023
 30
0.0
 10
141.1839850175226
 20
1.456867401614863
 30
0.0
  0
SPLINE
  5
2E6
330
1F
100
AcDbEntity
  8
1
  6
Continuous
370
    15
100
AcDbSpline
210
0.0
220
0.0
230
1.0
 70
    24
 71
     3
 72
    14
 73
    10
 74
     0
 42
0.0000000001
 43
0.0000000001
 40
0.0
 40
0.0
 40
0.0
 40
0.0
 40
0.0004391235726784
 40
0.0004391235726784
 40
0.0004391235726784
 40
0.0010978178597449
 40
0.0010978178597449
 40
0.0010978178597449
 40
0.0017565205331121
 40
0.0017565205331121
 40
0.0017565205331121
 40
0.0017565205331121
 10
141.2691619578785
 20
0.1064509084818792
 30
0.0
 10
141.3195426115545
 20
0.097693549721488
 30
0.0
 10
141.3700900019779
 20
0.0889072081391213
 30
0.0
 10
141.420801336435
 20
0.0800923691750347
 30
0.0
 10
141.4968693015201
 20
0.0668699432671311
 30
0.0
 10
141.5733063455826
 20
0.0535833626335225
 30
0.0
 10
141.6501033070391
 20
0.04023421977586
 30
0.0
 10
141.7269012499801
 20
0.0268849063128003
 30
0.0
 10
141.8040593638512
 20
0.0134729865550578
 30
0.0
 10
141.881568792
 20
0.0000000000000013
 30
0.0
  0
SPLINE
  5
2E7
330
1F
100
AcDbEntity
  8
1
  6
Continuous
370
    15
100
AcDbSpline
210
0.0
220
0.0
230
1.0
 70
     8
 71
     3
 72
    10
 73
     6
 74
     0
 42
0.0000000001
 43
0.0000000001
 40
0.0
 40
0.0
 40
0.0
 40
0.0
 40
0.5
 40
0.5
 40
1.0
 40
1.0
 40
1.0
 40
1.0
 10
137.3320280789637
 20
-3.190361123148218
 30
0.0
 10
136.7242904760708
 20
-3.3677035794125
 30
0.0
 10
136.1193664418585
 20
-3.481878929676206
 30
0.0
 10
134.924754141297
 20
-3.599277704926915
 30
0.0
 10
134.3362652902752
 20
-3.605939352091578
 30
0.0
 10
133.7614038594405
 20
-3.564721891911876
 30
0.0
  0
SPLINE
  5
2E8
330
1F
100
AcDbEntity
  8
1
  6
Continuous
370
    15
100
AcDbSpline
210
0.0
220
0.0
230
1.0
 70
     8
 71
     3
 72
    10
 73
     6
 74
     0
 42
0.0000000001
 43
0.0000000001
 40
0.0
 40
0.0
 40
0.0
 40
0.0
 40
0.5
 40
0.5
 40
1.0
 40
1.0
 40
1.0
 40
1.0
 10
138.6674313195672
 20
5.156157579999748
 30
0.0
 10
138.8340890907542
 20
5.067493718928811
 30
0.0
 10
139.0150729985702
 20
4.951294636562893
 30
0.0
 10
139.3974961886905
 20
4.67373048245057
 30
0.0
 10
139.5979880592481
 20
4.513164352162943
 30
0.0
 10
139.8068829751238
 20
4.332873334767651
 30
0.0
  0
SPLINE
  5
2E9
330
1F
100
AcDbEntity
  8
1
  6
Continuous
370
    15
100
AcDbSpline
210
0.0
220
0.0
230
1.0
 70
     8
 71
     3
 72
     8
 73
     4
 74
     0
 42
0.0000000001
 43
0.0000000001
 40
0.0
 40
0.0
 40
0.0
 40
0.0
 40
1.0
 40
1.0
 40
1.0
 40
1.0
 10
139.8068829751238
 20
4.332873334767644
 30
0.0
 10
139.8233824449249
 20
4.230582400551337
 30
0.0
 10
139.8404546078513
 20
4.121681130630753
 30
0.0
 10
139.8573743974602
 20
4.006130345282596
 30
0.0
  0
SPLINE
  5
2EA
330
1F
100
AcDbEntity
  8
1
  6
Continuous
370
    15
100
AcDbSpline
210
0.0
220
0.0
230
1.0
 70
     8
 71
     3
 72
    10
 73
     6
 74
     0
 42
0.0000000001
 43
0.0000000001
 40
0.0
 40
0.0
 40
0.0
 40
0.0
 40
0.5
 40
0.5
 40
1.0
 40
1.0
 40
1.0
 40
1.0
 10
138.6415195715098
 20
-5.169780249363832
 30
0.0
 10
138.810950030723
 20
-5.081781318162605
 30
0.0
 10
138.9956710292455
 20
-4.964531419333959
 30
0.0
 10
139.3870137252524
 20
-4.682121875046366
 30
0.0
 10
139.5925130782121
 20
-4.517889646204003
 30
0.0
 10
139.8068829751238
 20
-4.332873334767645
 30
0.0
  0
SPLINE
  5
2EB
330
1F
100
AcDbEntity
  8
1
  6
Continuous
370
    15
100
AcDbSpline
210
0.0
220
0.0
230
1.0
 70
     8
 71
     3
 72
    16
 73
    12
 74
     0
 42
0.0000000001
 43
0.0000000001
 40
0.0
 40
0.0
 40
0.0
 40
0.0
 40
0.1250000000000001
 40
0.1250000000000001
 40
0.2500000000000002
 40
0.2500000000000002
 40
0.5000000000000001
 40
0.5000000000000001
 40
0.75
 40
0.75
 40
1.0
 40
1.0
 40
1.0
 40
1.0
 10
133.7614038594381
 20
-3.564721891914442
 30
0.0
 10
133.8603153989739
 20
-3.748935410237296
 30
0.0
 10
133.9796715290661
 20
-3.912256280687298
 30
0.0
 10
134.249717196915
 20
-4.206877920668681
 30
0.0
 10
134.4015649665369
 20
-4.33859769660652
 30
0.0
 10
134.8826994276922
 20
-4.684969989858508
 30
0.0
 10
135.2397111402996
 20
-4.856268954778011
 30
0.0
 10
136.0018804999806
 20
-5.11969901796241
 30
0.0
 10
136.4018415256798
 20
-5.208924521021768
 30
0.0
 10
137.2197563646571
 20
-5.323991210177983
 30
0.0
 10
137.6395815863897
 20
-5.349999999999994
 30
0.0
 10
138.0683731007971
 20
-5.349999999999994
 30
0.0
  0
SPLINE
  5
2EC
330
1F
100
AcDbEntity
  8
1
  6
Continuous
370
    15
100
AcDbSpline
210
0.0
220
0.0
230
1.0
 70
     8
 71
     3
 72
    19
 73
    15
 74
     0
 42
0.0000000001
 43
0.0000000001
 40
0.0
 40
0.0
 40
0.0
 40
0.0
 40
0.083090103851713
 40
0.1737336784506687
 40
0.2643542672855214
 40
0.3549290412345346
 40
0.4455038151835471
 40
0.5361244040184002
 40
0.6267679786173562
 40
0.7174115532163126
 40
0.8080321420511651
 40
0.8986069160001772
 40
0.949349110721827
 40
1.0
 40
1.0
 40
1.0
 40
1.0
 10
91.15534742192457
 20
-2.767184866820025
 30
0.0
 10
90.38325579581913
 20
-3.120958865373562
 30
0.0
 10
88.76888402245311
 20
-3.860667389731608
 30
0.0
 10
86.31242073381391
 20
-4.68362889085408
 30
0.0
 10
83.7865101689425
 20
-5.227804341547546
 30
0.0
 10
81.26156864709658
 20
-5.411259843186637
 30
0.0
 10
78.73662799481845
 20
-5.227094312319707
 30
0.0
 10
76.2107148197033
 20
-4.686470984233626
 30
0.0
 10
73.68407187108525
 20
-3.826491984111102
 30
0.0
 10
71.15741044951805
 20
-2.705710802364206
 30
0.0
 10
68.63155266986115
 20
-1.400632061113955
 30
0.0
 10
66.47651216565157
 20
-0.2054629232047147
 30
0.0
 10
64.69337722786653
 20
0.7844261441065644
 30
0.0
 10
63.75198877130283
 20
1.291328639675807
 30
0.0
 10
63.28171840768272
 20
1.544551652183761
 30
0.0
  0
SPLINE
  5
2ED
330
1F
100
AcDbEntity
  8
1
  6
Continuous
370
    15
100
AcDbSpline
210
0.0
220
0.0
230
1.0
 70
     8
 71
     3
 72
    42
 73
    38
 74
     0
 42
0.0000000001
 43
0.0000000001
 40
0.0
 40
0.0
 40
0.0
 40
0.0
 40
0.0625000000000003
 40
0.0625000000000003
 40
0.1250000000000006
 40
0.1250000000000006
 40
0.1875000000000009
 40
0.1875000000000009
 40
0.2500000000000012
 40
0.2500000000000012
 40
0.3125000000000016
 40
0.3125000000000016
 40
0.3750000000000018
 40
0.3750000000000018
 40
0.4375000000000023
 40
0.4375000000000023
 40
0.5000000000000026
 40
0.5000000000000026
 40
0.5312500000000023
 40
0.5312500000000023
 40
0.5625000000000023
 40
0.5625000000000023
 40
0.5937500000000023
 40
0.5937500000000023
 40
0.6250000000000023
 40
0.6250000000000023
 40
0.6875000000000018
 40
0.6875000000000018
 40
0.7500000000000016
 40
0.7500000000000016
 40
0.812500000000001
 40
0.812500000000001
 40
0.8750000000000007
 40
0.8750000000000007
 40
0.9375000000000003
 40
0.9375000000000003
 40
1.0
 40
1.0
 40
1.0
 40
1.0
 10
133.7614038594386
 20
-3.564721891914975
 30
0.0
 10
133.2987270195274
 20
-3.373506815292097
 30
0.0
 10
132.8400124263797
 20
-3.170582929357578
 30
0.0
 10
131.91288593717
 20
-2.742889301528093
 30
0.0
 10
131.449115997002
 20
-2.518776694302667
 30
0.0
 10
130.5292460433596
 20
-2.056073268042327
 30
0.0
 10
130.0640689798814
 20
-1.81595432374021
 30
0.0
 10
129.1375600726059
 20
-1.325491687679356
 30
0.0
 10
128.6791607903854
 20
-1.075715159019462
 30
0.0
 10
127.7528474997569
 20
-0.5687731033138498
 30
0.0
 10
127.2875928692607
 20
-0.3120757926019695
 30
0.0
 10
126.3672249105171
 20
0.1998346250663281
 30
0.0
 10
125.9040160830147
 20
0.4565428247459625
 30
0.0
 10
124.976778937547
 20
0.9652001396107047
 30
0.0
 10
124.5179079744955
 20
1.216211941477
 30
0.0
 10
123.5928345709111
 20
1.709478459574168
 30
0.0
 10
123.1273194936685
 20
1.951569592737774
 30
0.0
 10
122.4353521206925
 20
2.302314759744075
 30
0.0
 10
122.2060335450804
 20
2.417130057516458
 30
0.0
 10
121.7438865342101
 20
2.642987438659008
 30
0.0
 10
121.5119588975026
 20
2.75387431533251
 30
0.0
 10
121.0481902605477
 20
2.970689116171296
 30
0.0
 10
120.8163508100437
 20
3.076616319026048
 30
0.0
 10
120.3545542743301
 20
3.28271216120676
 30
0.0
 10
120.1253248472204
 20
3.382783656295345
 30
0.0
 10
119.4327682975928
 20
3.674724225233033
 30
0.0
 10
118.9672097387424
 20
3.857851327500818
 30
0.0
 10
118.0427523982779
 20
4.195424555310278
 30
0.0
 10
117.5834717703926
 20
4.350011802630373
 30
0.0
 10
116.6560629398899
 20
4.629144259160034
 30
0.0
 10
116.1938917415816
 20
4.753033430129407
 30
0.0
 10
115.2725699107727
 20
4.967121301815821
 30
0.0
 10
114.8071849033355
 20
5.057743349964813
 30
0.0
 10
113.8813172248194
 20
5.203179180947407
 30
0.0
 10
113.4228234436229
 20
5.258027651292606
 30
0.0
 10
112.4959714305935
 20
5.331555349775054
 30
0.0
 10
112.0309767366926
 20
5.349999999999996
 30
0.0
 10
111.571568792
 20
5.350000000000003
 30
0.0
  0
SPLINE
  5
2EE
330
1F
100
AcDbEntity
  8
1
  6
Continuous
370
    15
100
AcDbSpline
210
0.0
220
0.0
230
1.0
 70
     8
 71
     3
 72
     8
 73
     4
 74
     0
 42
0.0000000001
 43
0.0000000001
 40
0.0
 40
0.0
 40
0.0
 40
0.0
 40
1.0
 40
1.0
 40
1.0
 40
1.0
 10
138.0683731007971
 20
-5.349999999999996
 30
0.0
 10
138.099282279754
 20
-5.349999999999996
 30
0.0
 10
138.1318373314619
 20
-5.347434159308736
 30
0.0
 10
138.1659881761005
 20
-5.342380550085159
 30
0.0
  0
SPLINE
  5
2EF
330
1F
100
AcDbEntity
  8
1
  6
Continuous
370
    15
100
AcDbSpline
210
0.0
220
0.0
230
1.0
 70
     8
 71
     3
 72
    23
 73
    19
 74
     0
 42
0.0000000001
 43
0.0000000001
 40
0.0
 40
0.0
 40
0.0
 40
0.0
 40
0.0576100534261296
 40
0.1204572630613546
 40
0.1832885356470797
 40
0.2460880427409037
 40
0.3088875498347278
 40
0.3717188224204529
 40
0.4345660320556777
 40
0.4974132416909024
 40
0.5602445142766274
 40
0.6230440213704519
 40
0.6858435284642761
 40
0.748674801050001
 40
0.8115220106852254
 40
0.8743692203204505
 40
0.9372004929061755
 40
1.0
 40
1.0
 40
1.0
 40
1.0
 10
121.4653474219245
 20
-2.767184866820021
 30
0.0
 10
120.6932557955091
 20
-3.120958865730189
 30
0.0
 10
119.078884021495
 20
-3.860667390833913
 30
0.0
 10
116.6224207380552
 20
-4.683628885973828
 30
0.0
 10
114.096510153091
 20
-5.227804359786407
 30
0.0
 10
111.5715687062301
 20
-5.411259775146783
 30
0.0
 10
109.0466277740757
 20
-5.227094566309089
 30
0.0
 10
106.52071564408
 20
-4.686470035695043
 30
0.0
 10
103.994068793652
 20
-3.826495525045756
 30
0.0
 10
101.4674219333131
 20
-2.70569758896008
 30
0.0
 10
98.94150983303768
 20
-1.400681349720529
 30
0.0
 10
96.4165687919684
 20
-0.0000226720096266
 30
0.0
 10
93.8916277510895
 20
1.400772060695093
 30
0.0
 10
91.36571565024219
 20
2.70537989394861
 30
0.0
 10
88.83906879200068
 20
3.827675847611023
 30
0.0
 10
86.31242193375559
 20
4.682067039067343
 30
0.0
 10
83.78650983291924
 20
5.243518208126165
 30
0.0
 10
82.10307392116972
 20
5.314512052926041
 30
0.0
 10
81.26156879200008
 20
5.350000000000003
 30
0.0
  0
SPLINE
  5
2F0
330
1F
100
AcDbEntity
  8
1
  6
Continuous
370
    15
100
AcDbSpline
210
0.0
220
0.0
230
1.0
 70
     8
 71
     3
 72
    14
 73
    10
 74
     0
 42
0.0000000001
 43
0.0000000001
 40
0.0
 40
0.0
 40
0.0
 40
0.0
 40
0.25
 40
0.25
 40
0.5
 40
0.5
 40
0.75
 40
0.75
 40
1.0
 40
1.0
 40
1.0
 40
1.0
 10
138.1659881761005
 20
-5.342380550085159
 30
0.0
 10
138.1765568297937
 20
-5.340816610851776
 30
0.0
 10
138.1846809151266
 20
-5.343358034595468
 30
0.0
 10
138.1870667708387
 20
-5.366170431161043
 30
0.0
 10
138.178978762827
 20
-5.388698522568856
 30
0.0
 10
138.1495175041161
 20
-5.43940378442633
 30
0.0
 10
138.1305336878499
 20
-5.465456840267046
 30
0.0
 10
138.092466023482
 20
-5.513160380606565
 30
0.0
 10
138.0734771611165
 20
-5.534724599697447
 30
0.0
 10
138.0545148753471
 20
-5.554936904852151
 30
0.0
  0
SPLINE
  5
2F1
330
1F
100
AcDbEntity
  8
1
  6
Continuous
370
    15
100
AcDbSpline
210
0.0
220
0.0
230
1.0
 70
     8
 71
     3
 72
    10
 73
     6
 74
     0
 42
0.0000000001
 43
0.0000000001
 40
0.0
 40
0.0
 40
0.0
 40
0.0
 40
0.5
 40
0.5
 40
1.0
 40
1.0
 40
1.0
 40
1.0
 10
139.8573743974602
 20
4.006130345282596
 30
0.0
 10
139.8626215806505
 20
3.970295612550796
 30
0.0
 10
139.8587371772823
 20
3.95275254668585
 30
0.0
 10
139.8322469902482
 20
3.984340030257418
 30
0.0
 10
139.8128005259259
 20
4.027790727404933
 30
0.0
 10
139.7946010677123
 20
4.076505969420213
 30
0.0
  0
SPLINE
  5
2F2
330
1F
100
AcDbEntity
  8
1
  6
Continuous
370
    15
100
AcDbSpline
210
0.0
220
0.0
230
1.0
 70
     8
 71
     3
 72
     9
 73
     5
 74
     0
 42
0.0000000001
 43
0.0000000001
 40
0.0
 40
0.0
 40
0.0
 40
0.0
 40
0.5278731685949091
 40
1.0
 40
1.0
 40
1.0
 40
1.0
 10
54.5187694302442
 20
5.342904497779036
 30
0.0
 10
54.0811873377163
 20
5.412313508665762
 30
0.0
 10
53.25223425094987
 20
5.54380155355254
 30
0.0
 10
52.43184790830877
 20
5.557173948397705
 30
0.0
 10
52.04452150382961
 20
5.563487414804258
 30
0.0
  0
SPLINE
  5
2F3
330
1F
100
AcDbEntity
  8
1
  6
Continuous
370
    15
100
AcDbSpline
210
0.0
220
0.0
230
1.0
 70
     8
 71
     3
 72
    14
 73
    10
 74
     0
 42
0.0000000001
 43
0.0000000001
 40
0.0
 40
0.0
 40
0.0
 40
0.0
 40
0.0004382951696354
 40
0.0004382951696354
 40
0.0004382951696354
 40
0.0008765903972033
 40
0.0008765903972033
 40
0.0008765903972033
 40
0.0016174097693277
 40
0.0016174097693277
 40
0.0016174097693277
 40
0.0016174097693277
 10
139.854254587133
 20
3.64874652877849
 30
0.0
 10
139.7274620414842
 20
3.700155715375768
 30
0.0
 10
139.6007670645885
 20
3.751637703878883
 30
0.0
 10
139.474056179971
 20
3.803123588545873
 30
0.0
 10
139.3473453072449
 20
3.854609468381049
 30
0.0
 10
139.2206628522165
 20
3.906125669703363
 30
0.0
 10
139.0940733768849
 20
3.957682746081746
 30
0.0
 10
138.8801093352172
 20
4.044825539031855
 30
0.0
 10
138.6664124263758
 20
4.132097764960843
 30
0.0
 10
138.4532473768476
 20
4.219366804360451
 30
0.0
  0
SPLINE
  5
2F4
330
1F
100
AcDbEntity
  8
1
  6
Continuous
370
    15
100
AcDbSpline
210
0.0
220
0.0
230
1.0
 70
     8
 71
     3
 72
     8
 73
     4
 74
     0
 42
0.0000000001
 43
0.0000000001
 40
0.0
 40
0.0
 40
0.0
 40
0.0
 40
1.0
 40
1.0
 40
1.0
 40
1.0
 10
139.7946010677123
 20
4.076505969420213
 30
0.0
 10
139.8154790817885
 20
3.941500637221323
 30
0.0
 10
139.8356967916198
 20
3.798716824620851
 30
0.0
 10
139.8542545871373
 20
3.648746528776651
 30
0.0
  0
SPLINE
  5
2F5
330
1F
100
AcDbEntity
  8
1
  6
Continuous
370
    15
100
AcDbSpline
210
0.0
220
0.0
230
1.0
 70
     8
 71
     3
 72
    21
 73
    17
 74
     0
 42
0.0000000001
 43
0.0000000001
 40
0.0
 40
0.0
 40
0.0
 40
0.0
 40
0.0050414154377461
 40
0.0834692978879577
 40
0.1618775250713566
 40
0.2402465753769801
 40
0.3186156256826028
 40
0.3970238528660018
 40
0.4754517353162134
 40
0.553879617766425
 40
0.6322878449498242
 40
0.7106568952554474
 40
0.7890259455610702
 40
0.8674341727444694
 40
0.9458620551946815
 40
1.0
 40
1.0
 40
1.0
 40
1.0
 10
104.1564966511582
 20
-5.450736412829235
 30
0.0
 10
104.1023540439627
 20
-5.460504499297774
 30
0.0
 10
103.2059301201196
 20
-5.622231960425721
 30
0.0
 10
101.4674159943911
 20
-5.590138100243748
 30
0.0
 10
98.94150201720712
 20
-5.312651689336731
 30
0.0
 10
96.41656861731412
 20
-4.632865608081238
 30
0.0
 10
93.89163626571155
 20
-3.648066013595046
 30
0.0
 10
91.36571914182129
 20
-2.411975502781892
 30
0.0
 10
88.83906879335375
 20
-1.012111186721805
 30
0.0
 10
86.31241843676511
 20
0.4568705589295865
 30
0.0
 10
83.786501337228
 20
1.894747586393264
 30
0.0
 10
81.26156889637842
 20
3.202740044804971
 30
0.0
 10
78.73663582915465
 20
4.296194214682013
 30
0.0
 10
76.21072060983675
 20
5.082676628530967
 30
0.0
 10
73.94492923160952
 20
5.52451160763099
 30
0.0
 10
72.52123173946205
 20
5.527885999736528
 30
0.0
 10
71.93981450815112
 20
5.529264052115061
 30
0.0
  0
SPLINE
  5
2F7
330
1F
100
AcDbEntity
  8
1
  6
Continuous
370
    15
100
AcDbSpline
210
0.0
220
0.0
230
1.0
 70
     8
 71
     3
 72
    11
 73
     7
 74
     0
 42
0.0000000001
 43
0.0000000001
 40
0.0
 40
0.0
 40
0.0
 40
0.0
 40
0.3011396901792311
 40
0.602279058493922
 40
0.9034181008802748
 40
1.0
 40
1.0
 40
1.0
 40
1.0
 10
139.7946010677124
 20
4.076505969420146
 30
0.0
 10
139.0685968740586
 20
4.343100647066021
 30
0.0
 10
137.6165892627196
 20
4.876289717415675
 30
0.0
 10
135.4385796388528
 20
5.354462197748421
 30
0.0
 10
133.7537293323411
 20
5.583564866596346
 30
0.0
 10
132.7948824142479
 20
5.547806852483858
 30
0.0
 10
132.5620376061174
 20
5.539123435164527
 30
0.0
  0
SPLINE
  5
2F8
330
1F
100
AcDbEntity
  8
1
  6
Continuous
370
    15
100
AcDbSpline
210
0.0
220
0.0
230
1.0
 70
     8
 71
     3
 72
    21
 73
    17
 74
     0
 42
0.0000000001
 43
0.0000000001
 40
0.0
 40
0.0
 40
0.0
 40
0.0
 40
0.0156484747782348
 40
0.0925617297674259
 40
0.169494265265851
 40
0.2464268007642763
 40
0.3233400557534674
 40
0.4002148808316879
 40
0.4770897059099077
 40
0.5540029608990987
 40
0.6309354963975239
 40
0.7078680318959491
 40
0.7847812868851403
 40
0.8616561119633605
 40
0.9385309370415802
 40
1.0
 40
1.0
 40
1.0
 40
1.0
 10
109.560894330476
 20
-5.349999997951915
 30
0.0
 10
109.3895970135842
 20
-5.384770109188732
 30
0.0
 10
108.3763624216677
 20
-5.590437542334464
 30
0.0
 10
106.5207074206401
 20
-5.606510104791118
 30
0.0
 10
103.9940719362861
 20
-5.36284256823848
 30
0.0
 10
101.4674175877918
 20
-4.722431298873176
 30
0.0
 10
98.9415015908496
 20
-3.768690701056113
 30
0.0
 10
96.41656873037504
 20
-2.55572214508586
 30
0.0
 10
93.89163623971242
 20
-1.169139475498745
 30
0.0
 10
91.36571913268699
 20
0.2969813369654947
 30
0.0
 10
88.83906885591876
 20
1.74322888471299
 30
0.0
 10
86.31241819567055
 20
3.069856660552511
 30
0.0
 10
83.78650223860535
 20
4.190187211327968
 30
0.0
 10
81.26156553368891
 20
5.013762196492717
 30
0.0
 10
78.90570593074523
 20
5.502962163535068
 30
0.0
 10
77.39111549007643
 20
5.528229171054458
 30
0.0
 10
76.71815149813601
 20
5.539455827309557
 30
0.0
  0
SPLINE
  5
2F9
330
1F
100
AcDbEntity
  8
1
  6
Continuous
370
    15
100
AcDbSpline
210
0.0
220
0.0
230
1.0
 70
     8
 71
     3
 72
    11
 73
     7
 74
     0
 42
0.0000000001
 43
0.0000000001
 40
0.0
 40
0.0
 40
0.0
 40
0.0
 40
0.1947061482182445
 40
0.4092180737657495
 40
0.7028786373919182
 40
1.0
 40
1.0
 40
1.0
 40
1.0
 10
60.60997808109519
 20
-3.119382231962975
 30
0.0
 10
60.21468933663006
 20
-3.321520678177285
 30
0.0
 10
59.38390253266129
 20
-3.746359371514803
 30
0.0
 10
57.95703315514908
 20
-4.365437882732837
 30
0.0
 10
56.321755438482
 20
-4.957700529765028
 30
0.0
 10
55.12210727825396
 20
-5.214002702621153
 30
0.0
 10
54.5187694302442
 20
-5.342904497779027
 30
0.0
  0
SPLINE
  5
2FA
330
1F
100
AcDbEntity
  8
1
  6
Continuous
370
    15
100
AcDbSpline
210
0.0
220
0.0
230
1.0
 70
     8
 71
     3
 72
    36
 73
    32
 74
     0
 42
0.0000000001
 43
0.0000000001
 40
0.0
 40
0.0
 40
0.0
 40
0.0
 40
0.0312500000000014
 40
0.0312500000000014
 40
0.0468750000000022
 40
0.0468750000000022
 40
0.0625000000000029
 40
0.0625000000000029
 40
0.0781250000000036
 40
0.0781250000000036
 40
0.0937500000000043
 40
0.0937500000000043
 40
0.1093750000000051
 40
0.1093750000000051
 40
0.1250000000000058
 40
0.1250000000000058
 40
0.1562500000000056
 40
0.1562500000000056
 40
0.1875000000000054
 40
0.1875000000000054
 40
0.250000000000005
 40
0.250000000000005
 40
0.3750000000000042
 40
0.3750000000000042
 40
0.5000000000000036
 40
0.5000000000000036
 40
0.6250000000000026
 40
0.6250000000000026
 40
0.7500000000000017
 40
0.7500000000000017
 40
1.0
 40
1.0
 40
1.0
 40
1.0
 10
41.85991898135458
 20
-0.5641107381763307
 30
0.0
 10
41.7336511705547
 20
-0.3395641873767174
 30
0.0
 10
41.6212762756266
 20
-0.106544805590008
 30
0.0
 10
41.5073680435435
 20
0.2640320701097027
 30
0.0
 10
41.47924056737878
 20
0.3893957351608077
 30
0.0
 10
41.45882505725592
 20
0.6471176263939955
 30
0.0
 10
41.46772805343188
 20
0.7775332104091023
 30
0.0
 10
41.54683827953471
 20
1.020627304078487
 30
0.0
 10
41.61861546175918
 20
1.13066456927731
 30
0.0
 10
41.8060921572929
 20
1.304438746470875
 30
0.0
 10
41.91886462795571
 20
1.36910888914449
 30
0.0
 10
42.15641329180203
 20
1.46771310927069
 30
0.0
 10
42.28110778552887
 20
1.501964208842579
 30
0.0
 10
42.53196894781129
 20
1.552697514363528
 30
0.0
 10
42.65929048786335
 20
1.569296085126034
 30
0.0
 10
43.04487884457842
 20
1.602408836791668
 30
0.0
 10
43.3002638333596
 20
1.602370546655014
 30
0.0
 10
43.80895691911422
 20
1.58154912236186
 30
0.0
 10
44.06233656061107
 20
1.560090763330304
 30
0.0
 10
44.8207164285464
 20
1.47538261854712
 30
0.0
 10
45.32480055714404
 20
1.391956714556489
 30
0.0
 10
46.82715883201888
 20
1.101265185489957
 30
0.0
 10
47.8152136752625
 20
0.8539284194242103
 30
0.0
 10
49.78106693482539
 20
0.3135819437322511
 30
0.0
 10
50.75914306140546
 20
0.0183880781700307
 30
0.0
 10
52.70541218415205
 20
-0.5931090966863325
 30
0.0
 10
53.67395023919424
 20
-0.9097995535823672
 30
0.0
 10
55.60763132680413
 20
-1.545985981775993
 30
0.0
 10
56.57245735385049
 20
-1.865441813622273
 30
0.0
 10
59.45454978931802
 20
-2.798880915012875
 30
0.0
 10
61.36419157719497
 20
-3.388791908682168
 30
0.0
 10
63.281568792
 20
-3.892505183083794
 30
0.0
  0
SPLINE
  5
2FB
330
1F
100
AcDbEntity
  8
1
  6
Continuous
370
    15
100
AcDbSpline
210
0.0
220
0.0
230
1.0
 70
     8
 71
     3
 72
    13
 73
     9
 74
     0
 42
0.0000000001
 43
0.0000000001
 40
0.0
 40
0.0
 40
0.0
 40
0.0
 40
0.0156879224360091
 40
0.2547361553367213
 40
0.4937244789723602
 40
0.732593391460962
 40
0.8664156864940954
 40
1.0
 40
1.0
 40
1.0
 40
1.0
 10
73.84989700408553
 20
-5.450125687287638
 30
0.0
 10
73.79462095515981
 20
-5.460103032563726
 30
0.0
 10
72.89706372647113
 20
-5.622112411846748
 30
0.0
 10
71.15740303268704
 20
-5.589965352596315
 30
0.0
 10
68.63154777164209
 20
-5.313495096059407
 30
0.0
 10
66.47649589433794
 20
-4.72998689699966
 30
0.0
 10
64.69336306294106
 20
-4.08926339654614
 30
0.0
 10
63.75199057134795
 20
-3.678074807604615
 30
0.0
 10
63.28172321808454
 20
-3.472663484095025
 30
0.0
  0
SPLINE
  5
2FC
330
1F
100
AcDbEntity
  8
1
  6
Continuous
370
    15
100
AcDbSpline
210
0.0
220
0.0
230
1.0
 70
     8
 71
     3
 72
    21
 73
    17
 74
     0
 42
0.0000000001
 43
0.0000000001
 40
0.0
 40
0.0
 40
0.0
 40
0.0
 40
0.0375800680391114
 40
0.1051846078969584
 40
0.1727890727506227
 40
0.2403934616895247
 40
0.3187470524618718
 40
0.397139812383737
 40
0.475552223695103
 40
0.5539646350064693
 40
0.6323573949283344
 40
0.7107109857006813
 40
0.7890645764730283
 40
0.8674573363948935
 40
0.9458697477062592
 40
1.0
 40
1.0
 40
1.0
 40
1.0
 10
134.4712866774268
 20
-5.42681820575482
 30
0.0
 10
134.0677160414563
 20
-5.477719594927267
 30
0.0
 10
132.9381433366092
 20
-5.620189870817737
 30
0.0
 10
131.0825743634917
 20
-5.543433917740934
 30
0.0
 10
128.904555851346
 20
-5.220992225759291
 30
0.0
 10
126.611184846116
 20
-4.588939549467143
 30
0.0
 10
124.2016189676269
 20
-3.647804710379334
 30
0.0
 10
121.6757237791049
 20
-2.412107717882788
 30
0.0
 10
119.1490675506537
 20
-1.012144535431163
 30
0.0
 10
116.6224187696579
 20
0.4568087911207888
 30
0.0
 10
114.096501248089
 20
1.894696304120801
 30
0.0
 10
111.5715689202561
 20
3.202693517154623
 30
0.0
 10
109.0466358227584
 20
4.296157834804041
 30
0.0
 10
106.5207206115312
 20
5.082653208777673
 30
0.0
 10
104.254897145153
 20
5.524504303926026
 30
0.0
 10
102.8311675673279
 20
5.527885818651417
 30
0.0
 10
102.2497182501832
 20
5.529266824889268
 30
0.0
  0
SPLINE
  5
2FD
330
1F
100
AcDbEntity
  8
1
  6
Continuous
370
    15
100
AcDbSpline
210
0.0
220
0.0
230
1.0
 70
     8
 71
     3
 72
    15
 73
    11
 74
     0
 42
0.0000000001
 43
0.0000000001
 40
0.0
 40
0.0
 40
0.0
 40
0.0
 40
0.0325018685659831
 40
0.1906179328596878
 40
0.3487736334714513
 40
0.506929334083215
 40
0.6650453983769192
 40
0.8230824595615374
 40
0.9116199547095636
 40
1.0
 40
1.0
 40
1.0
 40
1.0
 10
79.25620080066437
 20
-5.349999996900428
 30
0.0
 10
79.08313469227405
 20
-5.385078689872171
 30
0.0
 10
78.06813139292663
 20
-5.590809259735218
 30
0.0
 10
76.21070655935927
 20
-5.606357668348468
 30
0.0
 10
73.6840752039181
 20
-5.361612627956813
 30
0.0
 10
71.15740538018285
 20
-4.720159174394959
 30
0.0
 10
68.6315471316683
 20
-3.766079416173206
 30
0.0
 10
66.47649658606342
 20
-2.72892288486387
 30
0.0
 10
64.69336485526532
 20
-1.779423669344387
 30
0.0
 10
63.75199358041829
 20
-1.247804600488519
 30
0.0
 10
63.28172683524481
 20
-0.982231626399589
 30
0.0
  0
SPLINE
  5
2FE
330
1F
100
AcDbEntity
  8
1
  6
Continuous
370
    15
100
AcDbSpline
210
0.0
220
0.0
230
1.0
 70
     8
 71
     3
 72
    20
 73
    16
 74
     0
 42
0.0000000001
 43
0.0000000001
 40
0.0
 40
0.0
 40
0.0
 40
0.0
 40
0.0730513190403232
 40
0.1460996439589761
 40
0.2191445344843769
 40
0.292185552147025
 40
0.3652222605061712
 40
0.4466103908976468
 40
0.5280392074123347
 40
0.6094884363910247
 40
0.6909376653697147
 40
0.7723664818844025
 40
0.8537546122758779
 40
0.9351427426673536
 40
1.0
 40
1.0
 40
1.0
 40
1.0
 10
138.0545148753489
 20
-5.554936904854997
 30
0.0
 10
137.2992321102694
 20
-5.557365839740624
 30
0.0
 10
135.7886975365465
 20
-5.562223609958218
 30
0.0
 10
133.5229679759352
 20
-5.182420865881661
 30
0.0
 10
131.2573709755237
 20
-4.540023134194445
 30
0.0
 10
128.991896193244
 20
-3.642491524057151
 30
0.0
 10
126.6402754943434
 20
-2.50499928033609
 30
0.0
 10
124.2016207122058
 20
-1.165152725639813
 30
0.0
 10
121.6757232951647
 20
0.3009526036458187
 30
0.0
 10
119.14906774101
 20
1.747035998224889
 30
0.0
 10
116.6224184922687
 20
3.073203304083481
 30
0.0
 10
114.0965021668775
 20
4.192870753286745
 30
0.0
 10
111.5715655242109
 20
5.01553513228537
 30
0.0
 10
109.2179873207776
 20
5.503516836236926
 30
0.0
 10
107.7056785773786
 20
5.528200841350121
 30
0.0
 10
107.0349962477445
 20
5.539147763482436
 30
0.0
  0
SPLINE
  5
2FF
330
1F
100
AcDbEntity
  8
1
  6
Continuous
370
    15
100
AcDbSpline
210
0.0
220
0.0
230
1.0
 70
     8
 71
     3
 72
    14
 73
    10
 74
     0
 42
0.0000000001
 43
0.0000000001
 40
0.0
 40
0.0
 40
0.0
 40
0.0
 40
0.5000000000000002
 40
0.5000000000000002
 40
0.6250000000000011
 40
0.6250000000000011
 40
0.7500000000000019
 40
0.7500000000000019
 40
1.0
 40
1.0
 40
1.0
 40
1.0
 10
63.281568792
 20
1.607911544823529
 30
0.0
 10
61.81180155224375
 20
2.4946200441877
 30
0.0
 10
60.37182079968528
 20
3.296452173266497
 30
0.0
 10
58.54605964058681
 20
4.108454240096651
 30
0.0
 10
58.17854931166738
 20
4.261674011157913
 30
0.0
 10
57.44498010353075
 20
4.544732916972129
 30
0.0
 10
57.07934435097254
 20
4.674529451132221
 30
0.0
 10
55.9832828187424
 20
5.026755127465744
 30
0.0
 10
55.25356967789575
 20
5.211989359748833
 30
0.0
 10
54.5187694302442
 20
5.342904497779028
 30
0.0
  0
SPLINE
  5
300
330
1F
100
AcDbEntity
  8
1
  6
Continuous
370
    15
100
AcDbSpline
210
0.0
220
0.0
230
1.0
 70
     8
 71
     3
 72
    12
 73
     8
 74
     0
 42
0.0000000001
 43
0.0000000001
 40
0.0
 40
0.0
 40
0.0
 40
0.0
 40
0.2499999999999993
 40
0.2499999999999993
 40
0.4999999999999986
 40
0.4999999999999986
 40
1.0
 40
1.0
 40
1.0
 40
1.0
 10
138.3664138108708
 20
5.45092705553011
 30
0.0
 10
138.3919839242887
 20
5.414364051843167
 30
0.0
 10
138.4198295541349
 20
5.380903026751016
 30
0.0
 10
138.473790012149
 20
5.320328004364596
 30
0.0
 10
138.5007758319698
 20
5.292546721048028
 30
0.0
 10
138.5781846147364
 20
5.218227294571429
 30
0.0
 10
138.6276786306606
 20
5.177306470095315
 30
0.0
 10
138.6674313195669
 20
5.156157579999868
 30
0.0
  0
SPLINE
  5
301
330
1F
100
AcDbEntity
  8
1
  6
Continuous
370
    15
100
AcDbSpline
210
0.0
220
0.0
230
1.0
 70
     8
 71
     3
 72
    20
 73
    16
 74
     0
 42
0.0000000001
 43
0.0000000001
 40
0.0
 40
0.0
 40
0.0
 40
0.0
 40
0.0641386209188689
 40
0.1425733887794902
 40
0.2209884996477061
 40
0.2993644301986954
 40
0.3777403607496839
 40
0.4561554716178999
 40
0.5345902394785213
 40
0.6130250073391427
 40
0.6914401182073588
 40
0.7698160487583479
 40
0.8481919793093364
 40
0.9266070901775528
 40
1.0
 40
1.0
 40
1.0
 40
1.0
 10
106.0603504695742
 20
-5.541631778373641
 30
0.0
 10
105.3715910301858
 20
-5.528430529422188
 30
0.0
 10
103.840551448719
 20
-5.499085545508195
 30
0.0
 10
101.4674170843649
 20
-5.001367906788757
 30
0.0
 10
98.94150172534883
 20
-4.171666606643526
 30
0.0
 10
96.41656869547844
 20
-3.046566186422801
 30
0.0
 10
93.8916362448344
 20
-1.716750562911426
 30
0.0
 10
91.36571914712515
 20
-0.2693780206819656
 30
0.0
 10
88.83906879302577
 20
1.196284348102597
 30
0.0
 10
86.31241843277301
 20
2.580628772367064
 30
0.0
 10
83.78650135351616
 20
3.788340442198948
 30
0.0
 10
81.26156883524968
 20
4.740319540234448
 30
0.0
 10
78.73663605744265
 20
5.360840945425588
 30
0.0
 10
76.26486054836298
 20
5.641040806509797
 30
0.0
 10
74.63464065669592
 20
5.51275655267675
 30
0.0
 10
73.84649665115829
 20
5.45073641282924
 30
0.0
  0
SPLINE
  5
302
330
1F
100
AcDbEntity
  8
1
  6
Continuous
370
    15
100
AcDbSpline
210
0.0
220
0.0
230
1.0
 70
     8
 71
     3
 72
     9
 73
     5
 74
     0
 42
0.0000000001
 43
0.0000000001
 40
0.0
 40
0.0
 40
0.0
 40
0.0
 40
0.5971751063904339
 40
1.0
 40
1.0
 40
1.0
 40
1.0
 10
138.3664138108709
 20
5.450927055530165
 30
0.0
 10
137.5902513091092
 20
5.521643337737888
 30
0.0
 10
136.2905278386299
 20
5.640061338506802
 30
0.0
 10
134.9908301696856
 20
5.488362591108268
 30
0.0
 10
134.4672795944686
 20
5.427254559326748
 30
0.0
  0
SPLINE
  5
303
330
1F
100
AcDbEntity
  8
1
  6
Continuous
370
    15
100
AcDbSpline
210
0.0
220
0.0
230
1.0
 70
     8
 71
     3
 72
    12
 73
     8
 74
     0
 42
0.0000000001
 43
0.0000000001
 40
0.0
 40
0.0
 40
0.0
 40
0.0
 40
0.249999999999999
 40
0.249999999999999
 40
0.4999999999999984
 40
0.4999999999999984
 40
1.0
 40
1.0
 40
1.0
 40
1.0
 10
138.3639228379183
 20
-5.452032566443412
 30
0.0
 10
138.3840693713123
 20
-5.41795311507829
 30
0.0
 10
138.4102804745869
 20
-5.384804608311169
 30
0.0
 10
138.4609634661396
 20
-5.325386888872502
 30
0.0
 10
138.4857061804363
 20
-5.299239700741221
 30
0.0
 10
138.5585302667247
 20
-5.22766178528854
 30
0.0
 10
138.6050355205666
 20
-5.188729365737616
 30
0.0
 10
138.6415195715096
 20
-5.169780249363934
 30
0.0
  0
SPLINE
  5
304
330
1F
100
AcDbEntity
  8
1
  6
Continuous
370
    15
100
AcDbSpline
210
0.0
220
0.0
230
1.0
 70
     8
 71
     3
 72
    13
 73
     9
 74
     0
 42
0.0000000001
 43
0.0000000001
 40
0.0
 40
0.0
 40
0.0
 40
0.0
 40
0.1661459222028348
 40
0.3686541990846535
 40
0.5711117241918532
 40
0.7734680908619727
 40
0.8868348477437866
 40
1.0
 40
1.0
 40
1.0
 40
1.0
 10
75.75719351510598
 20
-5.541961549952113
 30
0.0
 10
75.06615382012387
 20
-5.528474510107622
 30
0.0
 10
73.5328349043678
 20
-5.498548684628595
 30
0.0
 10
71.15740485337259
 20
-4.999447130150481
 30
0.0
 10
68.63154727511538
 20
-4.169438768837025
 30
0.0
 10
66.47649595456487
 20
-3.20677047358635
 30
0.0
 10
64.69336302240266
 20
-2.303112965268442
 30
0.0
 10
63.75199052118524
 20
-1.786079321814034
 30
0.0
 10
63.28172316310994
 20
-1.52779257004587
 30
0.0
  0
SPLINE
  5
305
330
1F
100
AcDbEntity
  8
1
  6
Continuous
370
    15
100
AcDbSpline
210
0.0
220
0.0
230
1.0
 70
     8
 71
     3
 72
    21
 73
    17
 74
     0
 42
0.0000000001
 43
0.0000000001
 40
0.0
 40
0.0
 40
0.0
 40
0.0
 40
0.010480604554933
 40
0.0827458495841026
 40
0.1550045242140446
 40
0.2272548473099472
 40
0.2994950491610078
 40
0.37786817486106
 40
0.4562804794761878
 40
0.5347124403802532
 40
0.6131444012843187
 40
0.6915567058994469
 40
0.7699298315994985
 40
0.8483029572995505
 40
0.9267152619146783
 40
1.0
 40
1.0
 40
1.0
 40
1.0
 10
136.3735481463026
 20
-5.54996043284245
 30
0.0
 10
136.2610135432916
 20
-5.556383668000143
 30
0.0
 10
135.3725369974076
 20
-5.607096014546186
 30
0.0
 10
133.7082150187129
 20
-5.391568805975153
 30
0.0
 10
131.3806956288074
 20
-4.892761360953768
 30
0.0
 10
129.053477944457
 20
-4.079799139449177
 30
0.0
 10
126.6607659218978
 20
-3.009451084572908
 30
0.0
 10
124.201623118103
 20
-1.712681794157769
 30
0.0
 10
121.6757226661537
 20
-0.2654549965684336
 30
0.0
 10
119.1490678499792
 20
1.200209027413229
 30
0.0
 10
116.6224186854575
 20
2.584176906811666
 30
0.0
 10
114.0965012856215
 20
3.791298278318831
 30
0.0
 10
111.5715688543062
 20
4.742484250525012
 30
0.0
 10
109.0466360490917
 20
5.362041649524416
 30
0.0
 10
106.5759939749065
 20
5.641182704377468
 30
0.0
 10
104.9469075481258
 20
5.51235989757742
 30
0.0
 10
104.1598970040854
 20
5.450125687287644
 30
0.0
  0
SPLINE
  5
306
330
1F
100
AcDbEntity
  8
1
  6
Continuous
370
    15
100
AcDbSpline
210
0.0
220
0.0
230
1.0
 70
     8
 71
     3
 72
    11
 73
     7
 74
     0
 42
0.0000000001
 43
0.0000000001
 40
0.0
 40
0.0
 40
0.0
 40
0.0
 40
0.3042468120181679
 40
0.6325145802162421
 40
0.816420814120082
 40
1.0
 40
1.0
 40
1.0
 40
1.0
 10
70.97120848622044
 20
-5.557037050875695
 30
0.0
 10
70.19117915198916
 20
-5.530999195312451
 30
0.0
 10
68.5695354488887
 20
-5.476867738117976
 30
0.0
 10
66.47649793587169
 20
-5.006336284651561
 30
0.0
 10
64.69336487016232
 20
-4.452398159122122
 30
0.0
 10
63.75199392244548
 20
-4.078929079750666
 30
0.0
 10
63.28172734072762
 20
-3.892360726691442
 30
0.0
  0
SPLINE
  5
307
330
1F
100
AcDbEntity
  8
1
  6
Continuous
370
    15
100
AcDbSpline
210
0.0
220
0.0
230
1.0
 70
     8
 71
     3
 72
    25
 73
    21
 74
     0
 42
0.0000000001
 43
0.0000000001
 40
0.0
 40
0.0
 40
0.0
 40
0.0
 40
0.0042871571315052
 40
0.0622900063805
 40
0.1202831183087439
 40
0.1827235574381882
 40
0.2451952106941597
 40
0.3076825242584572
 40
0.3701698378227546
 40
0.4326414910787264
 40
0.4950819302081703
 40
0.5575223693376147
 40
0.6199940225935862
 40
0.6824813361578837
 40
0.7449686497221807
 40
0.8074403029781521
 40
0.8698807421075967
 40
0.9323211812370407
 40
0.9947928344930121
 40
1.0
 40
1.0
 40
1.0
 40
1.0
 10
131.5895326922535
 20
-5.558779229917375
 30
0.0
 10
131.531754621259
 20
-5.562468783308533
 30
0.0
 10
130.6922714158373
 20
-5.616075940038943
 30
0.0
 10
129.0712538987577
 20
-5.412298009779195
 30
0.0
 10
126.6666760334484
 20
-4.918645505181699
 30
0.0
 10
124.2016242073611
 20
-4.058512676952748
 30
0.0
 10
121.6757223739349
 20
-2.911637130145468
 30
0.0
 10
119.1490679290708
 20
-1.563361373413679
 30
0.0
 10
116.6224186613494
 20
-0.1092906270977605
 30
0.0
 10
114.0965013029735
 20
1.352242470787889
 30
0.0
 10
111.5715688090153
 20
2.721807672106159
 30
0.0
 10
109.0466362129486
 20
3.905861932787797
 30
0.0
 10
106.5207191610767
 20
4.82360350354684
 30
0.0
 10
103.9940687691151
 20
5.412660774446981
 30
0.0
 10
101.4674185144518
 20
5.633144169273905
 30
0.0
 10
98.94150105085699
 20
5.468506632169995
 30
0.0
 10
96.4165699636289
 20
4.935871365000505
 30
0.0
 10
93.89163184545656
 20
4.049246864385646
 30
0.0
 10
92.1377961915523
 20
3.287673117631573
 30
0.0
 10
91.22553613374384
 20
2.804369909919413
 30
0.0
 10
91.15534742192451
 20
2.767184866820039
 30
0.0
  0
SPLINE
  5
308
330
1F
100
AcDbEntity
  8
1
  6
Continuous
370
    15
100
AcDbSpline
210
0.0
220
0.0
230
1.0
 70
     8
 71
     3
 72
    10
 73
     6
 74
     0
 42
0.0000000001
 43
0.0000000001
 40
0.0
 40
0.0
 40
0.0
 40
0.0
 40
0.5
 40
0.5
 40
1.0
 40
1.0
 40
1.0
 40
1.0
 10
139.845473307982
 20
0.3539219387444174
 30
0.0
 10
139.6101781519239
 20
0.9465693273770867
 30
0.0
 10
139.3752969824589
 20
1.569043035278023
 30
0.0
 10
138.9095256466801
 20
2.863138665358258
 30
0.0
 10
138.6798384941617
 20
3.53131427501389
 30
0.0
 10
138.4532473768476
 20
4.219366804360451
 30
0.0
  0
SPLINE
  5
309
330
1F
100
AcDbEntity
  8
1
  6
Continuous
370
    15
100
AcDbSpline
210
0.0
220
0.0
230
1.0
 70
     8
 71
     3
 72
    23
 73
    19
 74
     0
 42
0.0000000001
 43
0.0000000001
 40
0.0
 40
0.0
 40
0.0
 40
0.0
 40
0.0615777613510664
 40
0.1280172226399541
 40
0.1944566839288411
 40
0.2609293584651044
 40
0.3274186962802185
 40
0.3939080340953326
 40
0.4603807086315961
 40
0.5268201699204834
 40
0.5932596312093708
 40
0.6597323057456343
 40
0.7262216435607484
 40
0.7927109813758629
 40
0.859183655912126
 40
0.9256231172010128
 40
0.9628446548966252
 40
1.0
 40
1.0
 40
1.0
 40
1.0
 10
101.2812084862204
 20
-5.557037050875699
 30
0.0
 10
100.5011666096466
 20
-5.530678590687941
 30
0.0
 10
98.87949683161544
 20
-5.475880611802924
 30
0.0
 10
96.41657070186159
 20
-4.927450627236066
 30
0.0
 10
93.89163570706704
 20
-4.061759035622165
 30
0.0
 10
91.3657192907819
 20
-2.91076685406603
 30
0.0
 10
88.83906875642621
 20
-1.563594551910264
 30
0.0
 10
86.31241843549593
 20
-0.109228306067307
 30
0.0
 10
83.78650137920187
 20
1.352226314786314
 30
0.0
 10
81.26156872984493
 20
2.721810016596211
 30
0.0
 10
78.73663645348128
 20
3.905868708485133
 30
0.0
 10
76.21071827755433
 20
4.823574034695403
 30
0.0
 10
73.68407206337781
 20
5.412771898625453
 30
0.0
 10
71.15740622257494
 20
5.632729197110442
 30
0.0
 10
68.63154690196791
 20
5.470054649336782
 30
0.0
 10
66.47649670232889
 20
5.009235972368556
 30
0.0
 10
64.69336510205057
 20
4.45185305969121
 30
0.0
 10
63.75199399969569
 20
4.078747487776293
 30
0.0
 10
63.28172734072762
 20
3.892360726691439
 30
0.0
  0
SPLINE
  5
30A
330
1F
100
AcDbEntity
  8
1
  6
Continuous
370
    15
100
AcDbSpline
210
0.0
220
0.0
230
1.0
 70
     8
 71
     3
 72
    15
 73
    11
 74
     0
 42
0.0000000001
 43
0.0000000001
 40
0.0
 40
0.0
 40
0.0
 40
0.0
 40
0.1380903709314679
 40
0.2761714194885083
 40
0.4142385019147898
 40
0.5522869980530487
 40
0.6903123190800243
 40
0.8389224103365581
 40
0.9876067921371111
 40
1.0
 40
1.0
 40
1.0
 40
1.0
 10
138.453247376848
 20
4.219366804360404
 30
0.0
 10
137.6712773073053
 20
4.489922339032196
 30
0.0
 10
136.107389958416
 20
5.031015143380326
 30
0.0
 10
133.7616986954339
 20
5.480202989121438
 30
0.0
 10
131.4162973000124
 20
5.625213922888461
 30
0.0
 10
129.0712505860742
 20
5.433518887841521
 30
0.0
 10
126.6666781633599
 20
4.914999970537136
 30
0.0
 10
124.2016188543834
 20
4.049195805494798
 30
0.0
 10
122.4477963859579
 20
3.287673881705681
 30
0.0
 10
121.5355361476326
 20
2.804369964506864
 30
0.0
 10
121.4653474219245
 20
2.767184866820039
 30
0.0
  0
SPLINE
  5
30B
330
1F
100
AcDbEntity
  8
1
  6
Continuous
370
    15
100
AcDbSpline
210
0.0
220
0.0
230
1.0
 70
     8
 71
     3
 72
     8
 73
     4
 74
     0
 42
0.0000000001
 43
0.0000000001
 40
0.0
 40
0.0
 40
0.0
 40
0.0
 40
1.0
 40
1.0
 40
1.0
 40
1.0
 10
139.8454733079928
 20
0.3539219387459051
 30
0.0
 10
139.8459199357484
 20
0.3524546714619272
 30
0.0
 10
139.8463668704165
 20
0.3509875706641776
 30
0.0
 10
139.8468141125891
 20
0.3495206366739274
 30
0.0
  0
SPLINE
  5
30C
330
1F
100
AcDbEntity
  8
1
  6
Continuous
370
    15
100
AcDbSpline
210
0.0
220
0.0
230
1.0
 70
     8
 71
     3
 72
    24
 73
    20
 74
     0
 42
0.0000000001
 43
0.0000000001
 40
0.0
 40
0.0
 40
0.0
 40
0.0
 40
0.1249999999999998
 40
0.1249999999999998
 40
0.2499999999999995
 40
0.2499999999999995
 40
0.5000000000000011
 40
0.5000000000000011
 40
0.6250000000000009
 40
0.6250000000000009
 40
0.7500000000000006
 40
0.7500000000000006
 40
0.8750000000000001
 40
0.8750000000000001
 40
0.9375
 40
0.9375
 40
0.96875
 40
0.96875
 40
1.0
 40
1.0
 40
1.0
 40
1.0
 10
54.5187694302442
 20
-5.342904497779032
 30
0.0
 10
53.95099133026553
 20
-5.444062176584665
 30
0.0
 10
53.38815260715494
 20
-5.512837565846915
 30
0.0
 10
52.26605328227785
 20
-5.579920185896948
 30
0.0
 10
51.70535768898224
 20
-5.578045961241167
 30
0.0
 10
50.03803155623915
 20
-5.458828622279783
 30
0.0
 10
48.9363377134582
 20
-5.226848102176643
 30
0.0
 10
47.30947509856593
 20
-4.642377163507129
 30
0.0
 10
46.76988623442121
 20
-4.40783225726142
 30
0.0
 10
45.70626867288583
 20
-3.863333076575108
 30
0.0
 10
45.17770677855708
 20
-3.551027833244616
 30
0.0
 10
44.14960078175663
 20
-2.855581486457688
 30
0.0
 10
43.64758879212041
 20
-2.473311115744965
 30
0.0
 10
42.92310729422764
 20
-1.827740452486235
 30
0.0
 10
42.68501572684562
 20
-1.599047990463958
 30
0.0
 10
42.35068120855044
 20
-1.234825611886311
 30
0.0
 10
42.24288485387388
 20
-1.109723649867718
 30
0.0
 10
42.03934620641849
 20
-0.8480638715045301
 30
0.0
 10
41.9430586385471
 20
-0.7119628301407529
 30
0.0
 10
41.8599189813545
 20
-0.5641107381761446
 30
0.0
  0
SPLINE
  5
30D
330
1F
100
AcDbEntity
  8
SK1
  6
Continuous
370
    15
100
AcDbSpline
210
0.0
220
0.0
230
1.0
 70
     8
 71
     3
 72
     9
 73
     5
 74
     0
 42
0.0000000001
 43
0.0000000001
 40
0.0
 40
0.0
 40
0.0
 40
0.0
 40
0.4999716336390881
 40
1.0
 40
1.0
 40
1.0
 40
1.0
 10
-3.438578700612393
 20
-3.315325004827234
 30
0.0
 10
-3.359634714276102
 20
-3.412010278596258
 30
0.0
 10
-3.201737783680812
 20
-3.605391797194208
 30
0.0
 10
-3.043868930401912
 20
-3.798796060497092
 30
0.0
 10
-2.964930025597593
 20
-3.895503678323665
 30
0.0
  0
SPLINE
  5
30E
330
1F
100
AcDbEntity
  8
SK1
  6
Continuous
370
    15
100
AcDbSpline
210
0.0
220
0.0
230
1.0
 70
     8
 71
     3
 72
     9
 73
     5
 74
     0
 42
0.0000000001
 43
0.0000000001
 40
0.0
 40
0.0
 40
0.0
 40
0.0
 40
0.4999696390484782
 40
1.0
 40
1.0
 40
1.0
 40
1.0
 10
-4.383758273792611
 20
-3.315105191874058
 30
0.0
 10
-4.304807376447823
 20
-3.41179823441927
 30
0.0
 10
-4.146895993078511
 20
-3.605196062993891
 30
0.0
 10
-3.989014660380798
 20
-3.798616799092835
 30
0.0
 10
-3.910069200604421
 20
-3.895333039579895
 30
0.0
  0
SPLINE
  5
30F
330
1F
100
AcDbEntity
  8
SK1
  6
Continuous
370
    15
100
AcDbSpline
210
0.0
220
0.0
230
1.0
 70
     8
 71
     3
 72
     9
 73
     5
 74
     0
 42
0.0000000001
 43
0.0000000001
 40
0.0
 40
0.0
 40
0.0
 40
0.0
 40
0.4999708541281634
 40
1.0
 40
1.0
 40
1.0
 40
1.0
 10
-5.328777175020403
 20
-3.315081767276194
 30
0.0
 10
-5.249830407825813
 20
-3.411769554516078
 30
0.0
 10
-5.091927669010693
 20
-3.605156401852388
 30
0.0
 10
-4.934053775699683
 20
-3.798568090877018
 30
0.0
 10
-4.855112227671891
 20
-3.895279572541637
 30
0.0
  0
SPLINE
  5
310
330
1F
100
AcDbEntity
  8
SK1
  6
Continuous
370
    15
100
AcDbSpline
210
0.0
220
0.0
230
1.0
 70
     8
 71
     3
 72
     9
 73
     5
 74
     0
 42
0.0000000001
 43
0.0000000001
 40
0.0
 40
0.0
 40
0.0
 40
0.0
 40
0.4999709393356752
 40
1.0
 40
1.0
 40
1.0
 40
1.0
 10
-6.273649972969422
 20
-3.315238353870654
 30
0.0
 10
-6.194703552358109
 20
-3.411926302936384
 30
0.0
 10
-6.036801533660512
 20
-3.605313440985248
 30
0.0
 10
-5.878928279009191
 20
-3.798723514163895
 30
0.0
 10
-5.799987063781911
 20
-3.895434171378431
 30
0.0
  0
SPLINE
  5
311
330
1F
100
AcDbEntity
  8
SK1
  6
Continuous
370
    15
100
AcDbSpline
210
0.0
220
0.0
230
1.0
 70
     8
 71
     3
 72
     9
 73
     5
 74
     0
 42
0.0000000001
 43
0.0000000001
 40
0.0
 40
0.0
 40
0.0
 40
0.0
 40
0.4999705688304524
 40
1.0
 40
1.0
 40
1.0
 40
1.0
 10
-7.218709625062582
 20
-3.315165230935102
 30
0.0
 10
-7.139761907351012
 20
-3.411854521853126
 30
0.0
 10
-6.981857177286002
 20
-3.605244487074893
 30
0.0
 10
-6.823981577196402
 20
-3.798657837977575
 30
0.0
 10
-6.745039130688012
 20
-3.89537020581004
 30
0.0
  0
SPLINE
  5
312
330
1F
100
AcDbEntity
  8
SK1
  6
Continuous
370
    15
100
AcDbSpline
210
0.0
220
0.0
230
1.0
 70
     8
 71
     3
 72
     9
 73
     5
 74
     0
 42
0.0000000001
 43
0.0000000001
 40
0.0
 40
0.0
 40
0.0
 40
0.0
 40
0.4999695693611453
 40
1.0
 40
1.0
 40
1.0
 40
1.0
 10
-8.163748897484001
 20
-3.315116791747301
 30
0.0
 10
-8.084797769259321
 20
-3.41181016159623
 30
0.0
 10
-7.926885902091924
 20
-3.605208671774526
 30
0.0
 10
-7.769004154925992
 20
-3.798629841884573
 30
0.0
 10
-7.690058476900502
 20
-3.895346312869371
 30
0.0
  0
SPLINE
  5
313
330
1F
100
AcDbEntity
  8
SK1
  6
Continuous
370
    15
100
AcDbSpline
210
0.0
220
0.0
230
1.0
 70
     8
 71
     3
 72
     9
 73
     5
 74
     0
 42
0.0000000001
 43
0.0000000001
 40
0.0
 40
0.0
 40
0.0
 40
0.0
 40
0.4999703768467644
 40
1.0
 40
1.0
 40
1.0
 40
1.0
 10
-9.108802600025512
 20
-3.315050171218659
 30
0.0
 10
-9.029854186906304
 20
-3.411739900919526
 30
0.0
 10
-8.871948005309924
 20
-3.605130818018798
 30
0.0
 10
-8.714071141791011
 20
-3.79854635127593
 30
0.0
 10
-8.635128033221091
 20
-3.895259847482475
 30
0.0
  0
SPLINE
  5
314
330
1F
100
AcDbEntity
  8
SK1
  6
Continuous
370
    15
100
AcDbSpline
210
0.0
220
0.0
230
1.0
 70
     8
 71
     3
 72
     9
 73
     5
 74
     0
 42
0.0000000001
 43
0.0000000001
 40
0.0
 40
0.0
 40
0.0
 40
0.0
 40
0.4999717587830368
 40
1.0
 40
1.0
 40
1.0
 40
1.0
 10
-10.05355668366729
 20
-3.315351614677468
 30
0.0
 10
-9.974613142828102
 20
-3.412036441731717
 30
0.0
 10
-9.816717142799404
 20
-3.605417018445861
 30
0.0
 10
-9.658849096515492
 20
-3.798820162966113
 30
0.0
 10
-9.579910614987824
 20
-3.895527197166406
 30
0.0
  0
SPLINE
  5
315
330
1F
100
AcDbEntity
  8
SK1
  6
Continuous
370
    15
100
AcDbSpline
210
0.0
220
0.0
230
1.0
 70
     8
 71
     3
 72
     9
 73
     5
 74
     0
 42
0.0000000001
 43
0.0000000001
 40
0.0
 40
0.0
 40
0.0
 40
0.0
 40
0.5000293486283589
 40
1.0
 40
1.0
 40
1.0
 40
1.0
 10
-10.05264513497818
 20
3.895238453650556
 30
0.0
 10
-10.13158735884119
 20
3.798526021574688
 30
0.0
 10
-10.28946253972731
 20
3.605112510265477
 30
0.0
 10
-10.44736676624458
 20
3.411724163921681
 30
0.0
 10
-10.52631424523082
 20
3.315035666432494
 30
0.0
  0
SPLINE
  5
316
330
1F
100
AcDbEntity
  8
SK1
  6
Continuous
370
    15
100
AcDbSpline
210
0.0
220
0.0
230
1.0
 70
     8
 71
     3
 72
     9
 73
     5
 74
     0
 42
0.0000000001
 43
0.0000000001
 40
0.0
 40
0.0
 40
0.0
 40
0.0
 40
0.50842937355973
 40
1.0
 40
1.0
 40
1.0
 40
1.0
 10
-9.107564529104514
 20
3.895338824309538
 30
0.0
 10
-9.186510415857179
 20
3.798621983564549
 30
0.0
 10
-9.341784463459703
 20
3.608395285866431
 30
0.0
 10
-9.497088209090922
 20
3.418190890388336
 30
0.0
 10
-9.573430968619334
 20
3.324691996551472
 30
0.0
  0
SPLINE
  5
317
330
1F
100
AcDbEntity
  8
SK1
  6
Continuous
370
    15
100
AcDbSpline
210
0.0
220
0.0
230
1.0
 70
     8
 71
     3
 72
     9
 73
     5
 74
     0
 42
0.0000000001
 43
0.0000000001
 40
0.0
 40
0.0
 40
0.0
 40
0.0
 40
0.508307557612687
 40
1.0
 40
1.0
 40
1.0
 40
1.0
 10
-8.162488192367423
 20
3.895432790109051
 30
0.0
 10
-8.241428607733103
 20
3.798723036409676
 30
0.0
 10
-8.396729102843814
 20
3.608464693304211
 30
0.0
 10
-8.552057667267522
 20
3.418229163323348
 30
0.0
 10
-8.628431548481412
 20
3.324691790958211
 30
0.0
  0
SPLINE
  5
318
330
1F
100
AcDbEntity
  8
SK1
  6
Continuous
370
    15
100
AcDbSpline
210
0.0
220
0.0
230
1.0
 70
     8
 71
     3
 72
     9
 73
     5
 74
     0
 42
0.0000000001
 43
0.0000000001
 40
0.0
 40
0.0
 40
0.0
 40
0.0
 40
0.5084101350426998
 40
1.0
 40
1.0
 40
1.0
 40
1.0
 10
-7.217567545856611
 20
3.895335089111877
 30
0.0
 10
-7.296510198820191
 20
3.798622281091558
 30
0.0
 10
-7.451783761486324
 20
3.608396317141811
 30
0.0
 10
-7.607086043712681
 20
3.418193728410428
 30
0.0
 10
-7.683431071659891
 20
3.324692063501433
 30
0.0
  0
SPLINE
  5
319
330
1F
100
AcDbEntity
  8
SK1
  6
Continuous
370
    15
100
AcDbSpline
210
0.0
220
0.0
230
1.0
 70
     8
 71
     3
 72
     9
 73
     5
 74
     0
 42
0.0000000001
 43
0.0000000001
 40
0.0
 40
0.0
 40
0.0
 40
0.0
 40
0.5084210095611809
 40
1.0
 40
1.0
 40
1.0
 40
1.0
 10
-6.272567793656093
 20
3.895334782224913
 30
0.0
 10
-6.351512024105089
 20
3.798620000518666
 30
0.0
 10
-6.506785368370002
 20
3.608394223283919
 30
0.0
 10
-6.662087907081511
 20
3.418191331503826
 30
0.0
 10
-6.738431372273821
 20
3.324691585984023
 30
0.0
  0
SPLINE
  5
31A
330
1F
100
AcDbEntity
  8
SK1
  6
Continuous
370
    15
100
AcDbSpline
210
0.0
220
0.0
230
1.0
 70
     8
 71
     3
 72
     9
 73
     5
 74
     0
 42
0.0000000001
 43
0.0000000001
 40
0.0
 40
0.0
 40
0.0
 40
0.0
 40
0.5084162513536949
 40
1.0
 40
1.0
 40
1.0
 40
1.0
 10
-5.327564432483313
 20
3.895338943914028
 30
0.0
 10
-5.406508592982421
 20
3.798624262254727
 30
0.0
 10
-5.561783252848299
 20
3.608396901501036
 30
0.0
 10
-5.717087086783922
 20
3.418192394654936
 30
0.0
 10
-5.793431927649092
 20
3.324690950170108
 30
0.0
  0
SPLINE
  5
31B
330
1F
100
AcDbEntity
  8
SK1
  6
Continuous
370
    15
100
AcDbSpline
210
0.0
220
0.0
230
1.0
 70
     8
 71
     3
 72
     9
 73
     5
 74
     0
 42
0.0000000001
 43
0.0000000001
 40
0.0
 40
0.0
 40
0.0
 40
0.0
 40
0.5082089044258364
 40
1.0
 40
1.0
 40
1.0
 40
1.0
 10
-4.38240676077859
 20
3.895531858955256
 30
0.0
 10
-4.461345672833002
 20
3.798824235403623
 30
0.0
 10
-4.616673356718419
 20
3.60853315095108
 30
0.0
 10
-4.772028682846181
 20
3.418264068191208
 30
0.0
 10
-4.848431048885831
 20
3.324691427526841
 30
0.0
  0
SPLINE
  5
31C
330
1F
100
AcDbEntity
  8
SK1
  6
Continuous
370
    15
100
AcDbSpline
210
0.0
220
0.0
230
1.0
 70
     8
 71
     3
 72
     9
 73
     5
 74
     0
 42
0.0000000001
 43
0.0000000001
 40
0.0
 40
0.0
 40
0.0
 40
0.0
 40
0.5084955801835092
 40
1.0
 40
1.0
 40
1.0
 40
1.0
 10
-3.437646366803991
 20
3.895236910618598
 30
0.0
 10
-3.516588867753403
 20
3.798524037217761
 30
0.0
 10
-3.671836040051322
 20
3.608329909343662
 30
0.0
 10
-3.827111869466823
 20
3.418160451270359
 30
0.0
 10
-3.903430625915201
 20
3.324691322113223
 30
0.0
  0
SPLINE
  5
31D
330
1F
100
AcDbEntity
  8
SK1
  6
Continuous
370
    15
100
AcDbSpline
210
0.0
220
0.0
230
1.0
 70
     8
 71
     3
 72
     9
 73
     5
 74
     0
 42
0.0000000001
 43
0.0000000001
 40
0.0
 40
0.0
 40
0.0
 40
0.0
 40
0.5084275113261498
 40
1.0
 40
1.0
 40
1.0
 40
1.0
 10
-2.492562759910982
 20
3.895341014070497
 30
0.0
 10
-2.57150868043192
 20
3.798624138271477
 30
0.0
 10
-2.726783363178701
 20
3.608396674878022
 30
0.0
 10
-2.882087754654011
 20
3.418191474217733
 30
0.0
 10
-2.958431120873403
 20
3.324691830370448
 30
0.0
  0
SPLINE
  5
31E
330
1F
100
AcDbEntity
  8
SK1
  6
Continuous
370
    15
100
AcDbSpline
210
0.0
220
0.0
230
1.0
 70
     8
 71
     3
 72
     9
 73
     5
 74
     0
 42
0.0000000001
 43
0.0000000001
 40
0.0
 40
0.0
 40
0.0
 40
0.0
 40
0.504269437266399
 40
1.0
 40
1.0
 40
1.0
 40
1.0
 10
-2.951808842738301
 20
-3.895352418822214
 30
0.0
 10
-2.872863154907491
 20
-3.798635912279821
 30
0.0
 10
-2.716308579126089
 20
-3.606840615173016
 30
0.0
 10
-2.559724126033612
 20
-3.415067696761298
 30
0.0
 10
-2.482100426986818
 20
-3.319999999999995
 30
0.0
  0
SPLINE
  5
31F
330
1F
100
AcDbEntity
  8
SK1
  6
Continuous
370
    15
100
AcDbSpline
210
0.0
220
0.0
230
1.0
 70
     8
 71
     3
 72
     9
 73
     5
 74
     0
 42
0.0000000001
 43
0.0000000001
 40
0.0
 40
0.0
 40
0.0
 40
0.0
 40
0.5084036318394605
 40
1.0
 40
1.0
 40
1.0
 40
1.0
 10
-3.896821738266821
 20
-3.895368341066928
 30
0.0
 10
-3.817875747378311
 20
-3.798651467991041
 30
0.0
 10
-3.662593633041412
 20
-3.608415075056643
 30
0.0
 10
-3.507281783433112
 20
-3.418200564909968
 30
0.0
 10
-3.4309310422332
 20
-3.324691802550426
 30
0.0
  0
SPLINE
  5
320
330
1F
100
AcDbEntity
  8
SK1
  6
Continuous
370
    15
100
AcDbSpline
210
0.0
220
0.0
230
1.0
 70
     8
 71
     3
 72
     9
 73
     5
 74
     0
 42
0.0000000001
 43
0.0000000001
 40
0.0
 40
0.0
 40
0.0
 40
0.0
 40
0.5084079881111851
 40
1.0
 40
1.0
 40
1.0
 40
1.0
 10
-4.841804439922813
 20
-3.895346975696373
 30
0.0
 10
-4.762860550628601
 20
-3.798632656561477
 30
0.0
 10
-4.607583900496821
 20
-3.608402917067794
 30
0.0
 10
-4.452278156674001
 20
-3.418196013402116
 30
0.0
 10
-4.375931093610323
 20
-3.324691818953961
 30
0.0
  0
SPLINE
  5
321
330
1F
100
AcDbEntity
  8
SK1
  6
Continuous
370
    15
100
AcDbSpline
210
0.0
220
0.0
230
1.0
 70
     8
 71
     3
 72
     9
 73
     5
 74
     0
 42
0.0000000001
 43
0.0000000001
 40
0.0
 40
0.0
 40
0.0
 40
0.0
 40
0.5084942785701261
 40
1.0
 40
1.0
 40
1.0
 40
1.0
 10
-5.786708239521909
 20
-3.895227165273783
 30
0.0
 10
-5.707767112187923
 20
-3.798516006106535
 30
0.0
 10
-5.552522243836499
 20
-3.608324762580259
 30
0.0
 10
-5.397249129616001
 20
-3.418158721295761
 30
0.0
 10
-5.320931505592313
 20
-3.324691023982763
 30
0.0
  0
SPLINE
  5
322
330
1F
100
AcDbEntity
  8
SK1
  6
Continuous
370
    15
100
AcDbSpline
210
0.0
220
0.0
230
1.0
 70
     8
 71
     3
 72
     9
 73
     5
 74
     0
 42
0.0000000001
 43
0.0000000001
 40
0.0
 40
0.0
 40
0.0
 40
0.0
 40
0.50850450312472
 40
1.0
 40
1.0
 40
1.0
 40
1.0
 10
-6.731711283726182
 20
-3.895230982368211
 30
0.0
 10
-6.652768266793172
 20
-3.798517441091652
 30
0.0
 10
-6.497522803974502
 20
-3.608325337221856
 30
0.0
 10
-6.342248530218002
 20
-3.418157821651096
 30
0.0
 10
-6.265931923885999
 20
-3.324691344096106
 30
0.0
  0
SPLINE
  5
323
330
1F
100
AcDbEntity
  8
SK1
  6
Continuous
370
    15
100
AcDbSpline
210
0.0
220
0.0
230
1.0
 70
     8
 71
     3
 72
     9
 73
     5
 74
     0
 42
0.0000000001
 43
0.0000000001
 40
0.0
 40
0.0
 40
0.0
 40
0.0
 40
0.5083838647101567
 40
1.0
 40
1.0
 40
1.0
 40
1.0
 10
-7.676815149434298
 20
-3.895360209543501
 30
0.0
 10
-7.597873073473325
 20
-3.798648191405673
 30
0.0
 10
-7.442592622143421
 20
-3.608413951393026
 30
0.0
 10
-7.287283619499421
 20
-3.418202943234693
 30
0.0
 10
-7.210931207843911
 20
-3.324692142514308
 30
0.0
  0
SPLINE
  5
324
330
1F
100
AcDbEntity
  8
SK1
  6
Continuous
370
    15
100
AcDbSpline
210
0.0
220
0.0
230
1.0
 70
     8
 71
     3
 72
     9
 73
     5
 74
     0
 42
0.0000000001
 43
0.0000000001
 40
0.0
 40
0.0
 40
0.0
 40
0.0
 40
0.508222403814705
 40
1.0
 40
1.0
 40
1.0
 40
1.0
 10
-8.621944225252605
 20
-3.895518069124022
 30
0.0
 10
-8.543005158599411
 20
-3.798810215884836
 30
0.0
 10
-8.387681296328391
 20
-3.6085237339956
 30
0.0
 10
-8.232329748521321
 20
-3.418259383693621
 30
0.0
 10
-8.15593133777719
 20
-3.324691638862359
 30
0.0
  0
SPLINE
  5
325
330
1F
100
AcDbEntity
  8
SK1
  6
Continuous
370
    15
100
AcDbSpline
210
0.0
220
0.0
230
1.0
 70
     8
 71
     3
 72
     9
 73
     5
 74
     0
 42
0.0000000001
 43
0.0000000001
 40
0.0
 40
0.0
 40
0.0
 40
0.0
 40
0.5082875354429605
 40
1.0
 40
1.0
 40
1.0
 40
1.0
 10
-9.566890482448679
 20
-3.895452709958142
 30
0.0
 10
-9.487950372846995
 20
-3.798743389075561
 30
0.0
 10
-9.332644361786011
 20
-3.608478402942662
 30
0.0
 10
-9.177310368420672
 20
-3.418236068203651
 30
0.0
 10
-9.1009307077135
 20
-3.324691540926046
 30
0.0
  0
SPLINE
  5
326
330
1F
100
AcDbEntity
  8
SK1
  6
Continuous
370
    15
100
AcDbSpline
210
0.0
220
0.0
230
1.0
 70
     8
 71
     3
 72
     9
 73
     5
 74
     0
 42
0.0000000001
 43
0.0000000001
 40
0.0
 40
0.0
 40
0.0
 40
0.0
 40
0.151571496460617
 40
1.0
 40
1.0
 40
1.0
 40
1.0
 10
-10.31590063641269
 20
-3.65535764254593
 30
0.0
 10
-10.30226228989659
 20
-3.63864989825412
 30
0.0
 10
-10.21228266421194
 20
-3.528419777934957
 30
0.0
 10
-10.1222863120692
 20
-3.418202867293296
 30
0.0
 10
-10.04593084169659
 20
-3.324691698732853
 30
0.0
  0
SPLINE
  5
327
330
1F
100
AcDbEntity
  8
SK1
  6
Continuous
370
    15
100
AcDbSpline
210
0.0
220
0.0
230
1.0
 70
     8
 71
     3
 72
     9
 73
     5
 74
     0
 42
0.0000000001
 43
0.0000000001
 40
0.0
 40
0.0
 40
0.0
 40
0.0
 40
0.4999707955139412
 40
1.0
 40
1.0
 40
1.0
 40
1.0
 10
-9.565682778192183
 20
3.315202098065165
 30
0.0
 10
-9.644629705505824
 20
3.411890542958618
 30
0.0
 10
-9.802532783089391
 20
3.605278728350653
 30
0.0
 10
-9.960406954710579
 20
3.798690125992686
 30
0.0
 10
-10.03934865115531
 20
3.895401473294167
 30
0.0
  0
SPLINE
  5
328
330
1F
100
AcDbEntity
  8
SK1
  6
Continuous
370
    15
100
AcDbSpline
210
0.0
220
0.0
230
1.0
 70
     8
 71
     3
 72
     9
 73
     5
 74
     0
 42
0.0000000001
 43
0.0000000001
 40
0.0
 40
0.0
 40
0.0
 40
0.0
 40
0.4999717171411444
 40
1.0
 40
1.0
 40
1.0
 40
1.0
 10
-8.620800826755335
 20
3.315345731728941
 30
0.0
 10
-8.699744514506022
 20
3.412030717093799
 30
0.0
 10
-8.857640821525192
 20
3.605411626553446
 30
0.0
 10
-9.015509133602904
 20
3.798815124149165
 30
0.0
 10
-9.094447754608815
 20
3.895522342950846
 30
0.0
  0
SPLINE
  5
329
330
1F
100
AcDbEntity
  8
SK1
  6
Continuous
370
    15
100
AcDbSpline
210
0.0
220
0.0
230
1.0
 70
     8
 71
     3
 72
     9
 73
     5
 74
     0
 42
0.0000000001
 43
0.0000000001
 40
0.0
 40
0.0
 40
0.0
 40
0.0
 40
0.4999710610902734
 40
1.0
 40
1.0
 40
1.0
 40
1.0
 10
-7.675720241952181
 20
3.315247913287779
 30
0.0
 10
-7.75466623919308
 20
3.411935375396068
 30
0.0
 10
-7.912567372648202
 20
3.605321492379416
 30
0.0
 10
-8.070439862568921
 20
3.798730584368681
 30
0.0
 10
-8.149380676186922
 20
3.895440727411566
 30
0.0
  0
SPLINE
  5
32A
330
1F
100
AcDbEntity
  8
SK1
  6
Continuous
370
    15
100
AcDbSpline
210
0.0
220
0.0
230
1.0
 70
     8
 71
     3
 72
     9
 73
     5
 74
     0
 42
0.0000000001
 43
0.0000000001
 40
0.0
 40
0.0
 40
0.0
 40
0.0
 40
0.4999704383505076
 40
1.0
 40
1.0
 40
1.0
 40
1.0
 10
-6.730582375087412
 20
3.315078250724118
 30
0.0
 10
-6.809530568252202
 20
3.411767812350154
 30
0.0
 10
-6.967436290488822
 20
3.605158369489958
 30
0.0
 10
-7.125312755056603
 20
3.7985732628457
 30
0.0
 10
-7.204255654429322
 20
3.895286427186857
 30
0.0
  0
SPLINE
  5
32B
330
1F
100
AcDbEntity
  8
SK1
  6
Continuous
370
    15
100
AcDbSpline
210
0.0
220
0.0
230
1.0
 70
     8
 71
     3
 72
     9
 73
     5
 74
     0
 42
0.0000000001
 43
0.0000000001
 40
0.0
 40
0.0
 40
0.0
 40
0.0
 40
0.499970568508349
 40
1.0
 40
1.0
 40
1.0
 40
1.0
 10
-5.7855211435477
 20
3.315001962403909
 30
0.0
 10
-5.864468917356991
 20
3.411690696421064
 30
0.0
 10
-6.022373759725692
 20
3.60507954790011
 30
0.0
 10
-6.180249474939192
 20
3.798493886286765
 30
0.0
 10
-6.259191979063809
 20
3.895206747952578
 30
0.0
  0
SPLINE
  5
32C
330
1F
100
AcDbEntity
  8
SK1
  6
Continuous
370
    15
100
AcDbSpline
210
0.0
220
0.0
230
1.0
 70
     8
 71
     3
 72
     9
 73
     5
 74
     0
 42
0.0000000001
 43
0.0000000001
 40
0.0
 40
0.0
 40
0.0
 40
0.0
 40
0.4999707729641063
 40
1.0
 40
1.0
 40
1.0
 40
1.0
 10
-4.84059781386392
 20
3.315097395106476
 30
0.0
 10
-4.919544854330584
 20
3.411785586693837
 30
0.0
 10
-5.077448165355693
 20
3.605173274166325
 30
0.0
 10
-5.235322550087322
 20
3.798585495721446
 30
0.0
 10
-5.314264356653413
 20
3.895297259364951
 30
0.0
  0
SPLINE
  5
32D
330
1F
100
AcDbEntity
  8
SK1
  6
Continuous
370
    15
100
AcDbSpline
210
0.0
220
0.0
230
1.0
 70
     8
 71
     3
 72
     9
 73
     5
 74
     0
 42
0.0000000001
 43
0.0000000001
 40
0.0
 40
0.0
 40
0.0
 40
0.0
 40
0.4999696781376873
 40
1.0
 40
1.0
 40
1.0
 40
1.0
 10
-3.895632442661312
 20
3.315140202491228
 30
0.0
 10
-3.974583195605191
 20
3.411833182796935
 30
0.0
 10
-4.132494277808912
 20
3.605230871764546
 30
0.0
 10
-4.290375347374691
 20
3.798651062335915
 30
0.0
 10
-4.369320669405593
 20
3.895367022481988
 30
0.0
  0
SPLINE
  5
32E
330
1F
100
AcDbEntity
  8
SK1
  6
Continuous
370
    15
100
AcDbSpline
210
0.0
220
0.0
230
1.0
 70
     8
 71
     3
 72
     9
 73
     5
 74
     0
 42
0.0000000001
 43
0.0000000001
 40
0.0
 40
0.0
 40
0.0
 40
0.0
 40
0.4999694248779002
 40
1.0
 40
1.0
 40
1.0
 40
1.0
 10
-2.95062227765618
 20
3.315127655804853
 30
0.0
 10
-3.029573887862111
 20
3.411821663123761
 30
0.0
 10
-3.187486764685073
 20
3.605221504209095
 30
0.0
 10
-3.345369378002002
 20
3.798643663553078
 30
0.0
 10
-3.424315511940592
 20
3.895360657131211
 30
0.0
  0
LWPOLYLINE
  5
32F
330
1F
100
AcDbEntity
  8
1
  6
Continuous
370
    15
100
AcDbPolyline
 90
        3
 70
   128
 43
0.0
 10
66.10680933849997
 20
-0.0000896672999989
 10
66.10672327750001
 20
-0.000071806699999
 10
66.10663721659999
 20
-0.0000381028999983
  0
SPLINE
  5
330
330
1F
100
AcDbEntity
  8
1
  6
Continuous
370
    15
100
AcDbSpline
210
0.0
220
0.0
230
1.0
 70
     8
 71
     3
 72
     9
 73
     5
 74
     0
 42
0.0000000001
 43
0.0000000001
 40
0.0
 40
0.0
 40
0.0
 40
0.0
 40
0.9200640810235546
 40
1.0
 40
1.0
 40
1.0
 40
1.0
 10
81.26145996471683
 20
5.349999999656771
 30
0.0
 10
80.64484771628595
 20
5.349982986417191
 30
0.0
 10
79.97466369198964
 20
5.349964495053463
 30
0.0
 10
79.30455158072479
 20
5.349981149257065
 30
0.0
 10
79.25098555329356
 20
5.349982480526136
 30
0.0
  0
LINE
  5
331
330
1F
100
AcDbEntity
  8
1
370
    18
100
AcDbLine
 10
63.28163413587471
 20
1.598885916392051
 30
0.0
 11
63.2817184076827
 21
1.544551652183761
 31
0.0
  0
LINE
  5
332
330
1F
100
AcDbEntity
  8
1
370
    18
100
AcDbLine
 10
63.28169359717799
 20
-0.7758741856816021
 30
0.0
 11
63.28172683524481
 21
-0.982231626399589
 31
0.0
  0
LINE
  5
333
330
1F
100
AcDbEntity
  8
1
370
    18
100
AcDbLine
 10
63.28172316310994
 20
-1.52779257004587
 30
0.0
 11
63.28169359719357
 21
-1.59764116707263
 31
0.0
  0
LINE
  5
334
330
1F
100
AcDbEntity
  8
1
370
    18
100
AcDbLine
 10
63.28169359719325
 20
-3.22771030137589
 30
0.0
 11
63.28172321808454
 21
-3.472663484095025
 31
0.0
  0
DIMENSION
  5
335
330
1F
100
AcDbEntity
  8
2
370
    18
100
AcDbDimension
  2
*D8
 10
146.0460468255214
 20
-5.570000000000002
 30
0.0
 11
155.7043801588548
 21
15.81728879242121
 31
0.0
 70
   160
  1
%%c<>
 71
     5
 42
11.14
  3
Standard
100
AcDbAlignedDimension
 13
137.3387915022
 23
5.570000000000002
 33
0.0
 14
137.3456480443
 24
-5.569999999999997
 34
0.0
 50
90.0
100
AcDbRotatedDimension
1001
ACAD
1000
DSTYLE
1002
{
1070
     3
1000

1070
    41
1040
3.0
1070
    73
1070
     1
1070
    74
1070
     1
1070
    77
1070
     3
1070
   140
1040
3.5
1070
   147
1040
1.199999999999999
1070
   271
1070
     3
1070
   278
1070
    46
1002
}
  0
DIMENSION
  5
344
330
1F
100
AcDbEntity
  8
2
370
    18
100
AcDbDimension
  2
*D9
 10
141.881568792
 20
15.80311225739308
 30
0.0
 11
119.6579552426827
 21
18.75311225739308
 31
0.0
 70
    32
  1
44.56
 71
     5
 42
44.44722709863451
  3
Standard
100
AcDbAlignedDimension
 13
97.43434169336548
 23
5.134010711296769
 33
0.0
 14
141.881568792
 24
0.0000000000000022
 34
0.0
100
AcDbRotatedDimension
1001
ACAD
1000
DSTYLE
1002
{
1070
     3
1000

1070
    41
1040
3.0
1070
    73
1070
     1
1070
    74
1070
     1
1070
    77
1070
     3
1070
   140
1040
3.5
1070
   147
1040
1.199999999999999
1070
   278
1070
    46
1002
}
  0
DIMENSION
  5
352
330
1F
100
AcDbEntity
  8
2
370
    18
100
AcDbDimension
  2
*D10
 10
138.0545148754204
 20
-16.32878172756437
 30
0.0
 11
69.0272574377102
 21
-13.37878172756437
 31
0.0
 70
    32
 71
     5
 42
138.0545148754204
  3
Standard
100
AcDbAlignedDimension
 13
0.0
 23
-5.949999999999997
 33
0.0
 14
138.0545148754204
 24
-5.554936904854764
 34
0.0
100
AcDbRotatedDimension
1001
ACAD
1000
DSTYLE
1002
{
1070
     3
1000

1070
    41
1040
3.0
1070
    73
1070
     1
1070
    74
1070
     1
1070
    77
1070
     3
1070
   140
1040
3.5
1070
   147
1040
1.199999999999999
1070
   278
1070
    46
1002
}
  0
DIMENSION
  5
360
330
1F
100
AcDbEntity
  8
SK2
370
    18
100
AcDbDimension
  2
*D11
 10
-19.13429151489346
 20
-5.949999999999991
 30
0.0
 11
-9.184291514893462
 21
16.16484188043358
 31
0.0
 70
   160
  1
%%c<>
 71
     5
 42
11.9
  3
Standard
100
AcDbAlignedDimension
 13
0.0
 23
5.949999999999997
 33
0.0
 14
0.0
 24
-5.949999999999997
 34
0.0
 50
90.0
100
AcDbRotatedDimension
1001
ACAD
1000
DSTYLE
1002
{
1070
     3
1000

1070
    41
1040
3.0
1070
    73
1070
     1
1070
    74
1070
     1
1070
    77
1070
     3
1070
   140
1040
3.5
1070
   147
1040
1.199999999999999
1070
   271
1070
     3
1070
   278
1070
    46
1002
}
  0
DIMENSION
  5
36E
330
1F
100
AcDbEntity
  8
SK2
370
    18
100
AcDbDimension
  2
*D12
 10
141.881568792
 20
-20.27720267252272
 30
0.0
 11
154.331568792
 21
-17.32720267252272
 31
0.0
 70
    32
 71
     5
 42
3.827053916579586
  3
Standard
100
AcDbAlignedDimension
 13
138.0545148754204
 23
-5.554936904854764
 33
0.0
 14
141.881568792
 24
0.0000000000000022
 34
0.0
100
AcDbRotatedDimension
1001
ACAD
1000
DSTYLE
1002
{
1070
     3
1000

1070
    41
1040
3.0
1070
    73
1070
     1
1070
    74
1070
     1
1070
    77
1070
     3
1070
   140
1040
3.5
1070
   147
1040
1.199999999999999
1070
   278
1070
    46
1002
}
  0
DIMENSION
  5
38A
330
1F
100
AcDbEntity
  8
SK2
370
    18
100
AcDbDimension
  2
*D14
 10
141.881568792
 20
-25.97889408236393
 30
0.0
 11
63.42466481717636
 21
-25.97889408236393
 31
0.0
 70
   160
 71
     5
 42
152.4
  3
Standard
100
AcDbAlignedDimension
 13
-10.51843120800001
 23
-3.469999999999998
 33
0.0
 14
141.881568792
 24
0.0000000000000022
 34
0.0
100
AcDbRotatedDimension
1001
ACAD
1000
DSTYLE
1002
{
1070
     3
1000

1070
    41
1040
3.0
1070
    73
1070
     1
1070
    74
1070
     1
1070
    77
1070
     3
1070
   140
1040
3.5
1070
   147
1040
1.199999999999999
1070
   278
1070
    46
1002
}
  0
ENDSEC
  0
SECTION
  2
OBJECTS
  0
DICTIONARY
  5
183
330
0
100
AcDbDictionary
281
     1
  3
ACAD_COLOR
350
195
  3
ACAD_GROUP
350
184
  3
ACAD_LAYOUT
350
196
  3
ACAD_MATERIAL
350
194
  3
ACAD_MLINESTYLE
350
185
  3
ACAD_PLOTSETTINGS
350
197
  3
ACAD_PLOTSTYLENAME
350
192
  0
DICTIONARY
  5
195
102
{ACAD_REACTORS
330
183
102
}
330
183
100
AcDbDictionary
281
     1
  0
DICTIONARY
  5
184
330
183
100
AcDbDictionary
281
     1
  0
DICTIONARY
  5
196
102
{ACAD_REACTORS
330
183
102
}
330
183
100
AcDbDictionary
281
     1
  3
Layout1
350
199
  3
Model
350
198
  0
DICTIONARY
  5
194
102
{ACAD_REACTORS
330
183
102
}
330
183
100
AcDbDictionary
281
     1
  0
DICTIONARY
  5
185
330
183
100
AcDbDictionary
281
     1
  3
Standard
350
18
  0
DICTIONARY
  5
197
102
{ACAD_REACTORS
330
183
102
}
330
183
100
AcDbDictionary
281
     1
  0
ACDBDICTIONARYWDFLT
  5
192
102
{ACAD_REACTORS
330
183
102
}
330
183
100
AcDbDictionary
281
     1
  3
Normal
350
193
100
AcDbDictionaryWithDefault
340
193
  0
LAYOUT
  5
199
102
{ACAD_REACTORS
330
196
102
}
330
196
100
AcDbPlotSettings
  1

  2
Chappel Main Office
  4

  6

 40
0.0
 41
0.0
 42
0.0
 43
0.0
 44
0.0
 45
0.0
 46
0.0
 47
0.0
 48
0.0
 49
0.0
140
0.0
141
0.0
142
1.0
143
1.0
 70
   688
 72
     0
 73
     0
 74
     5
  7

 75
    16
147
1.0
 76
     0
 77
     2
 78
   300
148
0.0
149
0.0
100
AcDbLayout
  1
Layout1
 70
     1
 71
     1
 10
0.0
 20
0.0
 11
12.0
 21
9.0
 12
0.0
 22
0.0
 32
0.0
 14
1.000000000000000E+20
 24
1.000000000000000E+20
 34
1.000000000000000E+20
 15
-1.000000000000000E+20
 25
-1.000000000000000E+20
 35
-1.000000000000000E+20
146
0.0
 13
0.0
 23
0.0
 33
0.0
 16
1.0
 26
0.0
 36
0.0
 17
0.0
 27
1.0
 37
0.0
 76
     0
330
1B
  0
LAYOUT
  5
198
102
{ACAD_REACTORS
330
196
102
}
330
196
100
AcDbPlotSettings
  1

  2
Chappel Main Office
  4

  6

 40
0.0
 41
0.0
 42
0.0
 43
0.0
 44
0.0
 45
0.0
 46
0.0
 47
0.0
 48
0.0
 49
0.0
140
0.0
141
0.0
142
1.0
143
1.0
 70
  1712
 72
     0
 73
     0
 74
     0
  7

 75
     0
147
1.0
 76
     0
 77
     2
 78
   300
148
0.0
149
0.0
100
AcDbLayout
  1
Model
 70
     1
 71
     0
 10
0.0
 20
0.0
 11
12.0
 21
9.0
 12
0.0
 22
0.0
 32
0.0
 14
0.0
 24
0.0
 34
0.0
 15
0.0
 25
0.0
 35
0.0
146
0.0
 13
0.0
 23
0.0
 33
0.0
 16
1.0
 26
0.0
 36
0.0
 17
0.0
 27
1.0
 37
0.0
 76
     0
330
1F
  0
MLINESTYLE
  5
18
330
185
100
AcDbMlineStyle
  2
STANDARD
 70
     0
  3

 62
   256
 51
90.0
 52
90.0
 71
     2
 49
0.5
 62
   256
  6
BYLAYER
 49
-0.5
 62
   256
  6
BYLAYER
  0
ACDBPLACEHOLDER
  5
193
102
{ACAD_REACTORS
330
192
102
}
330
192
  0
ENDSEC
  0
EOF
