  0
SECTION
  2
HEADER
  9
$ACADVER
  1
AC1018
  9
$ACADMAINTVER
 70
     0
  9
$DWGCODEPAGE
  3
ANSI_1252
  9
$INSBASE
 10
0.0
 20
0.0
 30
0.0
  9
$EXTMIN
 10
-53.17764292250677
 20
-33.692985
 30
0.0
  9
$EXTMAX
 10
204.2756231167824
 20
37.38269400000001
 30
0.0
  9
$LIMMIN
 10
0.0
 20
0.0
  9
$LIMMAX
 10
12.0
 20
9.0
  9
$ORTHOMODE
 70
     0
  9
$REGENMODE
 70
     1
  9
$FILLMODE
 70
     1
  9
$QTEXTMODE
 70
     0
  9
$MIRRTEXT
 70
     0
  9
$LTSCALE
 40
1.0
  9
$ATTMODE
 70
     1
  9
$TEXTSIZE
 40
0.0
  9
$TRACEWID
 40
0.05
  9
$TEXTSTYLE
  7
Standard
  9
$CLAYER
  8
1
  9
$CELTYPE
  6
ByLayer
  9
$CECOLOR
 62
   256
  9
$CELTSCALE
 40
1.0
  9
$DISPSILH
 70
     0
  9
$DIMSCALE
 40
1.0
  9
$DIMASZ
 40
0.18
  9
$DIMEXO
 40
0.0625
  9
$DIMDLI
 40
0.38
  9
$DIMRND
 40
0.0
  9
$DIMDLE
 40
0.0
  9
$DIMEXE
 40
0.18
  9
$DIMTP
 40
0.0
  9
$DIMTM
 40
0.0
  9
$DIMTXT
 40
0.18
  9
$DIMCEN
 40
0.09
  9
$DIMTSZ
 40
0.0
  9
$DIMTOL
 70
     0
  9
$DIMLIM
 70
     0
  9
$DIMTIH
 70
     1
  9
$DIMTOH
 70
     1
  9
$DIMSE1
 70
     0
  9
$DIMSE2
 70
     0
  9
$DIMTAD
 70
     0
  9
$DIMZIN
 70
     0
  9
$DIMBLK
  1

  9
$DIMASO
 70
     1
  9
$DIMSHO
 70
     1
  9
$DIMPOST
  1

  9
$DIMAPOST
  1

  9
$DIMALT
 70
     0
  9
$DIMALTD
 70
     2
  9
$DIMALTF
 40
25.4
  9
$DIMLFAC
 40
1.0
  9
$DIMTOFL
 70
     0
  9
$DIMTVP
 40
0.0
  9
$DIMTIX
 70
     0
  9
$DIMSOXD
 70
     0
  9
$DIMSAH
 70
     0
  9
$DIMBLK1
  1

  9
$DIMBLK2
  1

  9
$DIMSTYLE
  2
Standard
  9
$DIMCLRD
 70
     0
  9
$DIMCLRE
 70
     0
  9
$DIMCLRT
 70
     0
  9
$DIMTFAC
 40
1.0
  9
$DIMGAP
 40
0.09
  9
$DIMJUST
 70
     0
  9
$DIMSD1
 70
     0
  9
$DIMSD2
 70
     0
  9
$DIMTOLJ
 70
     1
  9
$DIMTZIN
 70
     0
  9
$DIMALTZ
 70
     0
  9
$DIMALTTZ
 70
     0
  9
$DIMUPT
 70
     0
  9
$DIMDEC
 70
     4
  9
$DIMTDEC
 70
     4
  9
$DIMALTU
 70
     2
  9
$DIMALTTD
 70
     2
  9
$DIMTXSTY
  7
Standard
  9
$DIMAUNIT
 70
     0
  9
$DIMADEC
 70
     0
  9
$DIMALTRND
 40
0.0
  9
$DIMAZIN
 70
     0
  9
$DIMDSEP
 70
    46
  9
$DIMATFIT
 70
     3
  9
$DIMFRAC
 70
     0
  9
$DIMLDRBLK
  1

  9
$DIMLUNIT
 70
     2
  9
$DIMLWD
 70
    -2
  9
$DIMLWE
 70
    -2
  9
$DIMTMOVE
 70
     0
  9
$LUNITS
 70
     2
  9
$LUPREC
 70
     4
  9
$SKETCHINC
 40
0.1
  9
$FILLETRAD
 40
0.0
  9
$AUNITS
 70
     0
  9
$AUPREC
 70
     0
  9
$MENU
  1
.
  9
$ELEVATION
 40
0.0
  9
$PELEVATION
 40
0.0
  9
$THICKNESS
 40
0.0
  9
$LIMCHECK
 70
     0
  9
$CHAMFERA
 40
0.0
  9
$CHAMFERB
 40
0.0
  9
$CHAMFERC
 40
0.0
  9
$CHAMFERD
 40
0.0
  9
$SKPOLY
 70
     0
  9
$TDCREATE
 40
2457169.562357651
  9
$TDUCREATE
 40
2457169.812357651
  9
$TDUPDATE
 40
2457172.731731644
  9
$TDUUPDATE
 40
2457172.981731643
  9
$TDINDWG
 40
0.0081230556
  9
$TDUSRTIMER
 40
0.0081229745
  9
$USRTIMER
 70
     1
  9
$ANGBASE
 50
0.0
  9
$ANGDIR
 70
     0
  9
$PDMODE
 70
     0
  9
$PDSIZE
 40
0.0
  9
$PLINEWID
 40
0.0
  9
$SPLFRAME
 70
     0
  9
$SPLINETYPE
 70
     6
  9
$SPLINESEGS
 70
     8
  9
$HANDSEED
  5
46D
  9
$SURFTAB1
 70
     6
  9
$SURFTAB2
 70
     6
  9
$SURFTYPE
 70
     6
  9
$SURFU
 70
     6
  9
$SURFV
 70
     6
  9
$UCSBASE
  2

  9
$UCSNAME
  2

  9
$UCSORG
 10
0.0
 20
0.0
 30
0.0
  9
$UCSXDIR
 10
1.0
 20
0.0
 30
0.0
  9
$UCSYDIR
 10
0.0
 20
1.0
 30
0.0
  9
$UCSORTHOREF
  2

  9
$UCSORTHOVIEW
 70
     0
  9
$UCSORGTOP
 10
0.0
 20
0.0
 30
0.0
  9
$UCSORGBOTTOM
 10
0.0
 20
0.0
 30
0.0
  9
$UCSORGLEFT
 10
0.0
 20
0.0
 30
0.0
  9
$UCSORGRIGHT
 10
0.0
 20
0.0
 30
0.0
  9
$UCSORGFRONT
 10
0.0
 20
0.0
 30
0.0
  9
$UCSORGBACK
 10
0.0
 20
0.0
 30
0.0
  9
$PUCSBASE
  2

  9
$PUCSNAME
  2

  9
$PUCSORG
 10
0.0
 20
0.0
 30
0.0
  9
$PUCSXDIR
 10
1.0
 20
0.0
 30
0.0
  9
$PUCSYDIR
 10
0.0
 20
1.0
 30
0.0
  9
$PUCSORTHOREF
  2

  9
$PUCSORTHOVIEW
 70
     0
  9
$PUCSORGTOP
 10
0.0
 20
0.0
 30
0.0
  9
$PUCSORGBOTTOM
 10
0.0
 20
0.0
 30
0.0
  9
$PUCSORGLEFT
 10
0.0
 20
0.0
 30
0.0
  9
$PUCSORGRIGHT
 10
0.0
 20
0.0
 30
0.0
  9
$PUCSORGFRONT
 10
0.0
 20
0.0
 30
0.0
  9
$PUCSORGBACK
 10
0.0
 20
0.0
 30
0.0
  9
$USERI1
 70
     0
  9
$USERI2
 70
     0
  9
$USERI3
 70
     0
  9
$USERI4
 70
     0
  9
$USERI5
 70
     0
  9
$USERR1
 40
0.0
  9
$USERR2
 40
0.0
  9
$USERR3
 40
0.0
  9
$USERR4
 40
0.0
  9
$USERR5
 40
0.0
  9
$WORLDVIEW
 70
     1
  9
$SHADEDGE
 70
     3
  9
$SHADEDIF
 70
    70
  9
$TILEMODE
 70
     1
  9
$MAXACTVP
 70
    64
  9
$PINSBASE
 10
0.0
 20
0.0
 30
0.0
  9
$PLIMCHECK
 70
     0
  9
$PEXTMIN
 10
1.000000000000000E+20
 20
1.000000000000000E+20
 30
1.000000000000000E+20
  9
$PEXTMAX
 10
-1.000000000000000E+20
 20
-1.000000000000000E+20
 30
-1.000000000000000E+20
  9
$PLIMMIN
 10
0.0
 20
0.0
  9
$PLIMMAX
 10
12.0
 20
9.0
  9
$UNITMODE
 70
     0
  9
$VISRETAIN
 70
     1
  9
$PLINEGEN
 70
     0
  9
$PSLTSCALE
 70
     1
  9
$TREEDEPTH
 70
  3020
  9
$CMLSTYLE
  2
Standard
  9
$CMLJUST
 70
     0
  9
$CMLSCALE
 40
1.0
  9
$PROXYGRAPHICS
 70
     1
  9
$MEASUREMENT
 70
     0
  9
$CELWEIGHT
370
    18
  9
$ENDCAPS
280
     0
  9
$JOINSTYLE
280
     0
  9
$LWDISPLAY
290
     1
  9
$INSUNITS
 70
     4
  9
$HYPERLINKBASE
  1

  9
$STYLESHEET
  1

  9
$XEDIT
290
     1
  9
$CEPSNTYPE
380
     0
  9
$PSTYLEMODE
290
     1
  9
$FINGERPRINTGUID
  2
{1A3370DD-E015-4359-90D3-D666A526498D}
  9
$VERSIONGUID
  2
{0845DE65-5BE6-4781-B807-104F34C7D916}
  9
$EXTNAMES
290
     1
  9
$PSVPSCALE
 40
0.0
  9
$OLESTARTUP
290
     0
  9
$SORTENTS
280
   127
  9
$INDEXCTL
280
     0
  9
$HIDETEXT
280
     0
  9
$XCLIPFRAME
290
     0
  9
$HALOGAP
280
     0
  9
$OBSCOLOR
 70
   257
  9
$OBSLTYPE
280
     0
  9
$INTERSECTIONDISPLAY
280
     0
  9
$INTERSECTIONCOLOR
 70
   257
  9
$DIMASSOC
280
     1
  9
$PROJECTNAME
  1

  0
ENDSEC
  0
SECTION
  2
CLASSES
  0
CLASS
  1
RASTERVARIABLES
  2
AcDbRasterVariables
  3
ISM
 90
        0
 91
        0
280
     0
281
     0
  0
CLASS
  1
ACDBDICTIONARYWDFLT
  2
AcDbDictionaryWithDefault
  3
ObjectDBX Classes
 90
        0
 91
        1
280
     0
281
     0
  0
ENDSEC
  0
SECTION
  2
TABLES
  0
TABLE
  2
VPORT
  5
186
330
0
100
AcDbSymbolTable
 70
     4
  0
VPORT
  5
46C
330
186
100
AcDbSymbolTableRecord
100
AcDbViewportTableRecord
  2
*Active
 70
     0
 10
0.0
 20
0.0
 11
1.0
 21
1.0
 12
4.468078960196834
 22
4.694854118111152
 13
0.0
 23
0.0
 14
0.5
 24
0.5
 15
10.0
 25
10.0
 16
0.0
 26
0.0
 36
1.0
 17
0.0
 27
0.0
 37
0.0
 40
117.5846129966961
 41
2.336906584992342
 42
50.0
 43
0.0
 44
0.0
 50
0.0
 51
0.0
 71
     0
 72
   100
 73
     1
 74
     1
 75
     0
 76
     0
 77
     0
 78
     0
281
     0
 65
     1
110
0.0
120
0.0
130
0.0
111
1.0
121
0.0
131
0.0
112
0.0
122
1.0
132
0.0
 79
     0
146
0.0
  0
ENDTAB
  0
TABLE
  2
LTYPE
  5
187
330
0
100
AcDbSymbolTable
 70
     3
  0
LTYPE
  5
14
330
187
100
AcDbSymbolTableRecord
100
AcDbLinetypeTableRecord
  2
ByBlock
 70
     0
  3

 72
    65
 73
     0
 40
0.0
  0
LTYPE
  5
15
330
187
100
AcDbSymbolTableRecord
100
AcDbLinetypeTableRecord
  2
ByLayer
 70
     0
  3

 72
    65
 73
     0
 40
0.0
  0
LTYPE
  5
16
330
187
100
AcDbSymbolTableRecord
100
AcDbLinetypeTableRecord
  2
CONTINUOUS
 70
     0
  3
Solid line
 72
    65
 73
     0
 40
0.0
  0
LTYPE
  5
6A
330
187
100
AcDbSymbolTableRecord
100
AcDbLinetypeTableRecord
  2
CENTER
 70
     0
  3
____ _ ____ _ ____ _ ____
 72
    65
 73
     4
 40
47.5
 49
22.0
 74
     0
 49
-8.5
 74
     0
 49
8.5
 74
     0
 49
-8.5
 74
     0
  0
LTYPE
  5
6B
330
187
100
AcDbSymbolTableRecord
100
AcDbLinetypeTableRecord
  2
DASHED
 70
     0
  3
__ __ __ __ __ __ __ __ __
 72
    65
 73
     2
 40
25.72
 49
12.86
 74
     0
 49
-12.86
 74
     0
  0
ENDTAB
  0
TABLE
  2
LAYER
  5
188
330
0
100
AcDbSymbolTable
 70
    11
  0
LAYER
  5
10
330
188
100
AcDbSymbolTableRecord
100
AcDbLayerTableRecord
  2
0
 70
     0
 62
     7
  6
CONTINUOUS
370
    -3
390
193
  0
LAYER
  5
6D
330
188
100
AcDbSymbolTableRecord
100
AcDbLayerTableRecord
  2
81
 70
     0
 62
    -3
  6
CONTINUOUS
370
    -3
390
193
  0
LAYER
  5
6F
330
188
100
AcDbSymbolTableRecord
100
AcDbLayerTableRecord
  2
80
 70
     0
 62
    -6
  6
CONTINUOUS
370
    -3
390
193
  0
LAYER
  5
74
330
188
100
AcDbSymbolTableRecord
100
AcDbLayerTableRecord
  2
2
 70
     0
 62
     7
  6
CONTINUOUS
370
    -3
390
193
  0
LAYER
  5
78
330
188
100
AcDbSymbolTableRecord
100
AcDbLayerTableRecord
  2
1
 70
     0
 62
     4
  6
CONTINUOUS
370
    -3
390
193
  0
LAYER
  5
88
330
188
100
AcDbSymbolTableRecord
100
AcDbLayerTableRecord
  2
4
 70
     0
 62
    -2
  6
CENTER
370
    -3
390
193
  0
LAYER
  5
172
330
188
100
AcDbSymbolTableRecord
100
AcDbLayerTableRecord
  2
SK2
 70
     0
 62
     7
  6
CONTINUOUS
370
    -3
390
193
  0
LAYER
  5
173
330
188
100
AcDbSymbolTableRecord
100
AcDbLayerTableRecord
  2
SK1
 70
     0
 62
     4
  6
CONTINUOUS
370
    -3
390
193
  0
LAYER
  5
174
330
188
100
AcDbSymbolTableRecord
100
AcDbLayerTableRecord
  2
SK4
 70
     0
 62
     2
  6
CENTER
370
    -3
390
193
  0
LAYER
  5
175
330
188
100
AcDbSymbolTableRecord
100
AcDbLayerTableRecord
  2
SK6
 70
     0
 62
     5
  6
CONTINUOUS
370
    -3
390
193
  0
LAYER
  5
248
330
188
100
AcDbSymbolTableRecord
100
AcDbLayerTableRecord
  2
Defpoints
 70
     0
 62
     7
  6
CONTINUOUS
290
     0
370
    -3
390
193
  0
ENDTAB
  0
TABLE
  2
STYLE
  5
189
330
0
100
AcDbSymbolTable
 70
     3
  0
STYLE
  5
11
330
189
100
AcDbSymbolTableRecord
100
AcDbTextStyleTableRecord
  2
Standard
 70
     0
 40
0.0
 41
1.0
 50
0.0
 71
     0
 42
0.0
  3
txt
  4

  0
STYLE
  5
CE
330
189
100
AcDbSymbolTableRecord
100
AcDbTextStyleTableRecord
  2
iso_b_vert
 70
     0
 40
0.0
 41
1.0
 50
0.0
 71
     0
 42
0.0
  3
simplex.shx
  4

  0
STYLE
  5
CF
330
189
100
AcDbSymbolTableRecord
100
AcDbTextStyleTableRecord
  2
DWGDirectTextStyle
 70
     0
 40
0.0
 41
1.0
 50
0.0
 71
     0
 42
0.0
  3
simplex
  4

  0
ENDTAB
  0
TABLE
  2
VIEW
  5
18B
330
0
100
AcDbSymbolTable
 70
     0
  0
ENDTAB
  0
TABLE
  2
UCS
  5
18C
330
0
100
AcDbSymbolTable
 70
     0
  0
ENDTAB
  0
TABLE
  2
APPID
  5
18D
330
0
100
AcDbSymbolTable
 70
     1
  0
APPID
  5
12
330
18D
100
AcDbSymbolTableRecord
100
AcDbRegAppTableRecord
  2
ACAD
 70
     0
  0
ENDTAB
  0
TABLE
  2
DIMSTYLE
  5
18A
330
0
100
AcDbSymbolTable
 70
     2
100
AcDbDimStyleTable
 71
     1
340
27
  0
DIMSTYLE
105
27
102
{ACAD_REACTORS
330
247
330
256
330
264
330
272
330
280
330
28E
330
29C
102
}
330
18A
100
AcDbSymbolTableRecord
100
AcDbDimStyleTableRecord
  2
Standard
 70
     0
  3
<>
 73
     0
 74
     0
 77
     1
271
     2
278
    52
340
11
  0
DIMSTYLE
105
1A2
330
18A
100
AcDbSymbolTableRecord
100
AcDbDimStyleTableRecord
  2
ISO-25
 70
     0
 41
2.5
 42
0.625
 43
3.75
 44
1.25
 73
     0
 74
     0
 77
     1
 78
     8
140
2.5
141
2.5
143
0.0393700787
147
0.625
171
     3
172
     1
271
     2
272
     2
274
     3
278
    44
283
     0
284
     8
340
11
  0
ENDTAB
  0
TABLE
  2
BLOCK_RECORD
  5
18E
330
0
100
AcDbSymbolTable
 70
    16
  0
BLOCK_RECORD
  5
1F
330
18E
100
AcDbSymbolTableRecord
100
AcDbBlockTableRecord
  2
*Model_Space
340
198
  0
BLOCK_RECORD
  5
1B
330
18E
100
AcDbSymbolTableRecord
100
AcDbBlockTableRecord
  2
*Paper_Space
340
199
  0
BLOCK_RECORD
  5
23
330
18E
100
AcDbSymbolTableRecord
100
AcDbBlockTableRecord
  2
*Paper_Space0
340
0
  0
BLOCK_RECORD
  5
D1
330
18E
100
AcDbSymbolTableRecord
100
AcDbBlockTableRecord
  2
DimnDraft3D1
340
0
  0
BLOCK_RECORD
  5
DB
330
18E
100
AcDbSymbolTableRecord
100
AcDbBlockTableRecord
  2
DimnDraft3D2
340
0
  0
BLOCK_RECORD
  5
E5
330
18E
100
AcDbSymbolTableRecord
100
AcDbBlockTableRecord
  2
DimnDraft3D3
340
0
  0
BLOCK_RECORD
  5
EF
330
18E
100
AcDbSymbolTableRecord
100
AcDbBlockTableRecord
  2
DimnDraft3D4
340
0
  0
BLOCK_RECORD
  5
F9
330
18E
100
AcDbSymbolTableRecord
100
AcDbBlockTableRecord
  2
DimnDraft3D5
340
0
  0
BLOCK_RECORD
  5
103
330
18E
100
AcDbSymbolTableRecord
100
AcDbBlockTableRecord
  2
DimnDraft3D6
340
0
  0
BLOCK_RECORD
  5
10E
330
18E
100
AcDbSymbolTableRecord
100
AcDbBlockTableRecord
  2
DimnDraft3D7
340
0
  0
BLOCK_RECORD
  5
249
330
18E
100
AcDbSymbolTableRecord
100
AcDbBlockTableRecord
  2
*D9
340
0
  0
BLOCK_RECORD
  5
257
330
18E
100
AcDbSymbolTableRecord
100
AcDbBlockTableRecord
  2
*D10
340
0
  0
BLOCK_RECORD
  5
265
330
18E
100
AcDbSymbolTableRecord
100
AcDbBlockTableRecord
  2
*D11
340
0
  0
BLOCK_RECORD
  5
273
330
18E
100
AcDbSymbolTableRecord
100
AcDbBlockTableRecord
  2
*D12
340
0
  0
BLOCK_RECORD
  5
281
330
18E
100
AcDbSymbolTableRecord
100
AcDbBlockTableRecord
  2
*D13
340
0
  0
BLOCK_RECORD
  5
28F
330
18E
100
AcDbSymbolTableRecord
100
AcDbBlockTableRecord
  2
*D14
340
0
  0
BLOCK_RECORD
  5
29D
330
18E
100
AcDbSymbolTableRecord
100
AcDbBlockTableRecord
  2
*D15
340
0
  0
ENDTAB
  0
ENDSEC
  0
SECTION
  2
BLOCKS
  0
BLOCK
  5
20
330
1F
100
AcDbEntity
  8
0
100
AcDbBlockBegin
  2
*Model_Space
 70
     0
 10
0.0
 20
0.0
 30
0.0
  3
*Model_Space
  1

  0
ENDBLK
  5
21
330
1F
100
AcDbEntity
  8
0
100
AcDbBlockEnd
  0
BLOCK
  5
1C
330
1B
100
AcDbEntity
 67
     1
  8
0
100
AcDbBlockBegin
  2
*Paper_Space
 70
     0
 10
0.0
 20
0.0
 30
0.0
  3
*Paper_Space
  1

  0
ENDBLK
  5
1D
330
1B
100
AcDbEntity
 67
     1
  8
0
100
AcDbBlockEnd
  0
BLOCK
  5
24
330
23
100
AcDbEntity
  8
0
100
AcDbBlockBegin
  2
*Paper_Space0
 70
     0
 10
0.0
 20
0.0
 30
0.0
  3
*Paper_Space0
  1

  0
ENDBLK
  5
25
330
23
100
AcDbEntity
  8
0
100
AcDbBlockEnd
  0
BLOCK
  5
D8
330
D1
100
AcDbEntity
  8
0
100
AcDbBlockBegin
  2
DimnDraft3D1
 70
     0
 10
0.0
 20
0.0
 30
0.0
  3
DimnDraft3D1
  1

  0
MTEXT
  5
D2
330
D1
100
AcDbEntity
  8
SK2
370
    13
100
AcDbMText
 10
7.372275
 20
-10.838398
 30
0.0
 40
3.5
 41
0.0
 71
     7
 72
     5
  1
\W0.7317;25,57
  7
iso_b_vert
 73
     1
 44
1.084337
  0
LINE
  5
D3
330
D1
100
AcDbEntity
  8
SK2
370
    13
100
AcDbLine
 10
0.0
 20
-1.587499999999999
 30
0.0
 11
0.0
 21
-13.713398
 31
0.0
  0
LINE
  5
D4
330
D1
100
AcDbEntity
  8
SK2
370
    13
100
AcDbLine
 10
25.5709
 20
-3.087499999999999
 30
0.0
 11
25.5709
 21
-13.713398
 31
0.0
  0
LINE
  5
D5
330
D1
100
AcDbEntity
  8
SK2
370
    13
100
AcDbLine
 10
0.0
 20
-11.713398
 30
0.0
 11
25.5709
 21
-11.713398
 31
0.0
  0
SOLID
  5
D6
330
D1
100
AcDbEntity
  8
SK2
370
    13
100
AcDbTrace
 10
0.0
 20
-11.713398
 30
0.0
 11
3.499998
 21
-11.252615
 31
0.0
 12
3.500001999999998
 22
-12.174182
 32
0.0
 13
0.0
 23
-11.713398
 33
0.0
  0
SOLID
  5
D7
330
D1
100
AcDbEntity
  8
SK2
370
    13
100
AcDbTrace
 10
25.5709
 20
-11.713398
 30
0.0
 11
22.070902
 21
-12.174182
 31
0.0
 12
22.070898
 22
-11.252615
 32
0.0
 13
25.5709
 23
-11.713398
 33
0.0
  0
ENDBLK
  5
D9
330
D1
100
AcDbEntity
  8
0
100
AcDbBlockEnd
  0
BLOCK
  5
E2
330
DB
100
AcDbEntity
  8
0
100
AcDbBlockBegin
  2
DimnDraft3D2
 70
     0
 10
0.0
 20
0.0
 30
0.0
  3
DimnDraft3D2
  1

  0
MTEXT
  5
DC
330
DB
100
AcDbEntity
  8
SK2
370
    13
100
AcDbMText
 10
-8.536483999999997
 20
-30.817985
 30
0.0
 40
3.5
 41
0.0
 71
     7
 72
     5
  1
\W0.7317;62,00
  7
iso_b_vert
 73
     1
 44
1.084337
  0
LINE
  5
DD
330
DB
100
AcDbEntity
  8
SK2
370
    13
100
AcDbLine
 10
-36.0
 20
-4.5875
 30
0.0
 11
-36.0
 21
-33.692985
 31
0.0
  0
LINE
  5
DE
330
DB
100
AcDbEntity
  8
SK2
370
    13
100
AcDbLine
 10
26.0
 20
-1.587499999999999
 30
0.0
 11
26.0
 21
-33.692985
 31
0.0
  0
LINE
  5
DF
330
DB
100
AcDbEntity
  8
SK2
370
    13
100
AcDbLine
 10
-36.0
 20
-31.692985
 30
0.0
 11
26.0
 21
-31.692985
 31
0.0
  0
SOLID
  5
E0
330
DB
100
AcDbEntity
  8
SK2
370
    13
100
AcDbTrace
 10
-36.0
 20
-31.692985
 30
0.0
 11
-32.50000200000001
 21
-31.232202
 31
0.0
 12
-32.499998
 22
-32.153769
 32
0.0
 13
-36.0
 23
-31.692985
 33
0.0
  0
SOLID
  5
E1
330
DB
100
AcDbEntity
  8
SK2
370
    13
100
AcDbTrace
 10
26.0
 20
-31.692985
 30
0.0
 11
22.500002
 21
-32.153769
 31
0.0
 12
22.499998
 22
-31.232202
 32
0.0
 13
26.0
 23
-31.692985
 33
0.0
  0
ENDBLK
  5
E3
330
DB
100
AcDbEntity
  8
0
100
AcDbBlockEnd
  0
BLOCK
  5
EC
330
E5
100
AcDbEntity
  8
0
100
AcDbBlockBegin
  2
DimnDraft3D3
 70
     0
 10
0.0
 20
0.0
 30
0.0
  3
DimnDraft3D3
  1

  0
MTEXT
  5
E6
330
E5
100
AcDbEntity
  8
SK2
370
    13
100
AcDbMText
 10
17.965
 20
13.984119
 30
0.0
 40
3.5
 41
0.0
 71
     7
 72
     5
  1
\W0.7493;9,42
  7
iso_b_vert
 73
     1
 44
1.084337
  0
LINE
  5
E7
330
E5
100
AcDbEntity
  8
SK2
370
    13
100
AcDbLine
 10
16.58
 20
3.087499999999999
 30
0.0
 11
16.58
 21
15.109119
 31
0.0
  0
LINE
  5
E8
330
E5
100
AcDbEntity
  8
SK2
370
    13
100
AcDbLine
 10
26.0
 20
1.587499999999999
 30
0.0
 11
26.0
 21
15.109119
 31
0.0
  0
LINE
  5
E9
330
E5
100
AcDbEntity
  8
SK2
370
    13
100
AcDbLine
 10
16.58
 20
13.109119
 30
0.0
 11
26.0
 21
13.109119
 31
0.0
  0
SOLID
  5
EA
330
E5
100
AcDbEntity
  8
SK2
370
    13
100
AcDbTrace
 10
16.58
 20
13.109119
 30
0.0
 11
20.079998
 21
13.569903
 31
0.0
 12
20.080002
 22
12.648335
 32
0.0
 13
16.58
 23
13.109119
 33
0.0
  0
SOLID
  5
EB
330
E5
100
AcDbEntity
  8
SK2
370
    13
100
AcDbTrace
 10
26.0
 20
13.109119
 30
0.0
 11
22.500002
 21
12.648335
 31
0.0
 12
22.499998
 22
13.569903
 32
0.0
 13
26.0
 23
13.109119
 33
0.0
  0
ENDBLK
  5
ED
330
E5
100
AcDbEntity
  8
0
100
AcDbBlockEnd
  0
BLOCK
  5
F6
330
EF
100
AcDbEntity
  8
0
100
AcDbBlockBegin
  2
DimnDraft3D4
 70
     0
 10
0.0
 20
0.0
 30
0.0
  3
DimnDraft3D4
  1

  0
MTEXT
  5
F0
330
EF
100
AcDbEntity
  8
SK2
370
    13
100
AcDbMText
 10
32.656425
 20
-13.427503
 30
0.0
 40
3.5
 41
0.0
 71
     7
 72
     5
  1
\W0.7493;0,43
  7
iso_b_vert
 73
     1
 44
1.084337
  0
LINE
  5
F1
330
EF
100
AcDbEntity
  8
SK2
370
    13
100
AcDbLine
 10
26.0
 20
-1.587499999999999
 30
0.0
 11
26.0
 21
-16.302503
 31
0.0
  0
LINE
  5
F2
330
EF
100
AcDbEntity
  8
SK2
370
    13
100
AcDbLine
 10
25.5709
 20
-3.087499999999999
 30
0.0
 11
25.5709
 21
-16.302503
 31
0.0
  0
LINE
  5
F3
330
EF
100
AcDbEntity
  8
SK2
370
    13
100
AcDbLine
 10
16.8209
 20
-14.302503
 30
0.0
 11
40.18142499999998
 21
-14.302503
 31
0.0
  0
SOLID
  5
F4
330
EF
100
AcDbEntity
  8
SK2
370
    13
100
AcDbTrace
 10
26.0
 20
-14.302503
 30
0.0
 11
29.499998
 21
-13.841719
 31
0.0
 12
29.500002
 22
-14.763287
 32
0.0
 13
26.0
 23
-14.302503
 33
0.0
  0
SOLID
  5
F5
330
EF
100
AcDbEntity
  8
SK2
370
    13
100
AcDbTrace
 10
25.5709
 20
-14.302503
 30
0.0
 11
22.070902
 21
-14.763287
 31
0.0
 12
22.070898
 22
-13.841719
 32
0.0
 13
25.5709
 23
-14.302503
 33
0.0
  0
ENDBLK
  5
F7
330
EF
100
AcDbEntity
  8
0
100
AcDbBlockEnd
  0
BLOCK
  5
100
330
F9
100
AcDbEntity
  8
0
100
AcDbBlockBegin
  2
DimnDraft3D5
 70
     0
 10
0.0
 20
0.0
 30
0.0
  3
DimnDraft3D5
  1

  0
MTEXT
  5
FA
330
F9
100
AcDbEntity
  8
SK2
370
    13
100
AcDbMText
 10
-11.179608
 20
-20.468428
 30
0.0
 40
3.5
 41
0.0
 71
     7
 72
     5
  1
\W0.6713;61,57
  7
iso_b_vert
 73
     1
 44
1.084337
  0
LINE
  5
FB
330
F9
100
AcDbEntity
  8
SK2
370
    13
100
AcDbLine
 10
-36.0
 20
-4.5875
 30
0.0
 11
-36.0
 21
-23.343428
 31
0.0
  0
LINE
  5
FC
330
F9
100
AcDbEntity
  8
SK2
370
    13
100
AcDbLine
 10
25.5709
 20
-3.087499999999999
 30
0.0
 11
25.5709
 21
-23.343428
 31
0.0
  0
LINE
  5
FD
330
F9
100
AcDbEntity
  8
SK2
370
    13
100
AcDbLine
 10
-36.0
 20
-21.343428
 30
0.0
 11
25.5709
 21
-21.343428
 31
0.0
  0
SOLID
  5
FE
330
F9
100
AcDbEntity
  8
SK2
370
    13
100
AcDbTrace
 10
-36.0
 20
-21.343428
 30
0.0
 11
-32.50000200000001
 21
-20.882645
 31
0.0
 12
-32.499998
 22
-21.804212
 32
0.0
 13
-36.0
 23
-21.343428
 33
0.0
  0
SOLID
  5
FF
330
F9
100
AcDbEntity
  8
SK2
370
    13
100
AcDbTrace
 10
25.5709
 20
-21.343428
 30
0.0
 11
22.070902
 21
-21.804212
 31
0.0
 12
22.070898
 22
-20.882645
 32
0.0
 13
25.5709
 23
-21.343428
 33
0.0
  0
ENDBLK
  5
101
330
F9
100
AcDbEntity
  8
0
100
AcDbBlockEnd
  0
BLOCK
  5
10B
330
103
100
AcDbEntity
  8
0
100
AcDbBlockBegin
  2
DimnDraft3D6
 70
     0
 10
0.0
 20
0.0
 30
0.0
  3
DimnDraft3D6
  1

  0
MTEXT
  5
104
330
103
100
AcDbEntity
  8
SK2
370
    13
100
AcDbMText
 10
-46.375163
 20
22.34918
 30
0.0
 40
3.5
 41
0.0
 71
     7
 72
     5
  1
\W0.7317;6,000
  7
iso_b_vert
 11
0.0000000000000001
 21
1.0
 31
0.0
 73
     1
 44
1.084337
  0
MTEXT
  5
105
330
103
100
AcDbEntity
  8
SK2
370
    13
100
AcDbMText
 10
-46.375163
 20
17.126524
 30
0.0
 40
3.5
 41
0.0
 71
     7
 72
     5
  1
%%c
  7
iso_b_vert
 11
0.0000000000000001
 21
1.0
 31
0.0
 73
     1
 44
1.084337
  0
LINE
  5
106
330
103
100
AcDbEntity
  8
SK2
370
    13
100
AcDbLine
 10
-37.5875
 20
-3.0
 30
0.0
 11
-46.625163
 21
-3.0
 31
0.0
  0
LINE
  5
107
330
103
100
AcDbEntity
  8
SK2
370
    13
100
AcDbLine
 10
-37.5875
 20
3.0
 30
0.0
 11
-46.625163
 21
3.0
 31
0.0
  0
LINE
  5
108
330
103
100
AcDbEntity
  8
SK2
370
    13
100
AcDbLine
 10
-44.62516299999999
 20
32.121549
 30
0.0
 11
-44.62516299999999
 21
-11.75
 31
0.0
  0
SOLID
  5
109
330
103
100
AcDbEntity
  8
SK2
370
    13
100
AcDbTrace
 10
-44.62516299999999
 20
-3.0
 30
0.0
 11
-44.164379
 21
-6.499998
 31
0.0
 12
-45.085946
 22
-6.500001999999998
 32
0.0
 13
-44.62516299999999
 23
-3.0
 33
0.0
  0
SOLID
  5
10A
330
103
100
AcDbEntity
  8
SK2
370
    13
100
AcDbTrace
 10
-44.62516299999999
 20
3.0
 30
0.0
 11
-45.085946
 21
6.499998
 31
0.0
 12
-44.164379
 22
6.500001999999998
 32
0.0
 13
-44.62516299999999
 23
3.0
 33
0.0
  0
ENDBLK
  5
10C
330
103
100
AcDbEntity
  8
0
100
AcDbBlockEnd
  0
BLOCK
  5
116
330
10E
100
AcDbEntity
  8
0
100
AcDbBlockBegin
  2
DimnDraft3D7
 70
     0
 10
0.0
 20
0.0
 30
0.0
  3
DimnDraft3D7
  1

  0
MTEXT
  5
10F
330
10E
100
AcDbEntity
  8
2
370
    13
100
AcDbMText
 10
36.333343
 20
19.442266
 30
0.0
 40
3.5
 41
0.0
 71
     7
 72
     5
  1
\W0.7317;3,000
  7
iso_b_vert
 11
0.0000000000000001
 21
1.0
 31
0.0
 73
     1
 44
1.084337
  0
MTEXT
  5
110
330
10E
100
AcDbEntity
  8
2
370
    13
100
AcDbMText
 10
36.333343
 20
14.21961
 30
0.0
 40
3.5
 41
0.0
 71
     7
 72
     5
  1
%%c
  7
iso_b_vert
 11
0.0000000000000001
 21
1.0
 31
0.0
 73
     1
 44
1.084337
  0
LINE
  5
111
330
10E
100
AcDbEntity
  8
2
370
    13
100
AcDbLine
 10
27.1584
 20
-1.5
 30
0.0
 11
40.083343
 21
-1.5
 31
0.0
  0
LINE
  5
112
330
10E
100
AcDbEntity
  8
2
370
    13
100
AcDbLine
 10
27.1584
 20
1.5
 30
0.0
 11
40.083343
 21
1.5
 31
0.0
  0
LINE
  5
113
330
10E
100
AcDbEntity
  8
2
370
    13
100
AcDbLine
 10
38.083343
 20
29.214635
 30
0.0
 11
38.083343
 21
-10.25
 31
0.0
  0
SOLID
  5
114
330
10E
100
AcDbEntity
  8
2
370
    13
100
AcDbTrace
 10
38.083343
 20
-1.5
 30
0.0
 11
38.544126
 21
-4.999998
 31
0.0
 12
37.622559
 22
-5.000001999999998
 32
0.0
 13
38.083343
 23
-1.5
 33
0.0
  0
SOLID
  5
115
330
10E
100
AcDbEntity
  8
2
370
    13
100
AcDbTrace
 10
38.083343
 20
1.5
 30
0.0
 11
37.622559
 21
4.999998
 31
0.0
 12
38.544126
 22
5.000001999999998
 32
0.0
 13
38.083343
 23
1.5
 33
0.0
  0
ENDBLK
  5
117
330
10E
100
AcDbEntity
  8
0
100
AcDbBlockEnd
  0
BLOCK
  5
254
330
249
100
AcDbEntity
  8
0
370
    18
100
AcDbBlockBegin
  2
*D9
 70
     1
 10
0.0
 20
0.0
 30
0.0
  3
*D9
  1

  0
LINE
  5
460
330
249
100
AcDbEntity
  8
2
 62
     0
370
    -2
100
AcDbLine
 10
52.79140783949998
 20
5.561000000000003
 30
0.0
 11
65.12667078878476
 21
5.560999999999999
 31
0.0
  0
LINE
  5
461
330
249
100
AcDbEntity
  8
2
 62
     0
370
    -2
100
AcDbLine
 10
52.79112554666602
 20
-5.560999992226693
 30
0.0
 11
65.12667078878476
 21
-5.560999992226697
 31
0.0
  0
LINE
  5
462
330
249
100
AcDbEntity
  8
2
 62
     0
370
    -2
100
AcDbLine
 10
64.94667078878477
 20
-2.560999992226697
 30
0.0
 11
64.94667078878477
 21
2.560999999999999
 31
0.0
  0
LINE
  5
463
330
249
100
AcDbEntity
  8
2
 62
     0
370
    -2
100
AcDbLine
 10
64.94667078878477
 20
5.560999999999999
 30
0.0
 11
64.94667078878477
 21
10.74539633101847
 31
0.0
  0
LINE
  5
464
330
249
100
AcDbEntity
  8
2
 62
     0
370
    -2
100
AcDbLine
 10
64.94667078878477
 20
10.74539633101847
 30
0.0
 11
83.64667078878477
 21
10.74539633101847
 31
0.0
  0
SOLID
  5
465
330
249
100
AcDbEntity
  8
2
 62
     0
370
    18
100
AcDbTrace
 10
64.44667078878477
 20
-2.560999992226697
 30
0.0
 11
65.44667078878477
 21
-2.560999992226697
 31
0.0
 12
64.94667078878477
 22
-5.560999992226697
 32
0.0
 13
64.94667078878477
 23
-5.560999992226697
 33
0.0
  0
SOLID
  5
466
330
249
100
AcDbEntity
  8
2
 62
     0
370
    18
100
AcDbTrace
 10
64.44667078878477
 20
2.560999999999999
 30
0.0
 11
65.44667078878477
 21
2.560999999999999
 31
0.0
 12
64.94667078878477
 22
5.560999999999999
 32
0.0
 13
64.94667078878477
 23
5.560999999999999
 33
0.0
  0
MTEXT
  5
467
330
249
100
AcDbEntity
  8
2
 62
     0
370
    18
100
AcDbMText
 10
74.89667078878477
 20
13.69539633101849
 30
0.0
 40
3.5
 41
0.0
 71
     5
 72
     1
  1
\A1;%%c11.122
 73
     1
 44
1.0
  0
POINT
  5
468
330
249
100
AcDbEntity
  8
Defpoints
 62
     0
370
    18
100
AcDbPoint
 10
52.72890783949998
 20
5.561000000000003
 30
0.0
  0
POINT
  5
469
330
249
100
AcDbEntity
  8
Defpoints
 62
     0
370
    18
100
AcDbPoint
 10
52.72862554666602
 20
-5.560999992226693
 30
0.0
  0
POINT
  5
46A
330
249
100
AcDbEntity
  8
Defpoints
 62
     0
370
    18
100
AcDbPoint
 10
64.94667078878477
 20
-5.560999992226697
 30
0.0
  0
ENDBLK
  5
255
330
249
100
AcDbEntity
  8
0
370
    18
100
AcDbBlockEnd
  0
BLOCK
  5
262
330
257
100
AcDbEntity
  8
0
370
    18
100
AcDbBlockBegin
  2
*D10
 70
     1
 10
0.0
 20
0.0
 30
0.0
  3
*D10
  1

  0
LINE
  5
457
330
257
100
AcDbEntity
  8
SK2
 62
     0
370
    -2
100
AcDbLine
 10
17.43899999999999
 20
5.623500000000003
 30
0.0
 11
17.43899999999999
 21
10.85466297958858
 31
0.0
  0
LINE
  5
458
330
257
100
AcDbEntity
  8
SK2
 62
     0
370
    -2
100
AcDbLine
 10
60.43899999999999
 20
0.0625000000000036
 30
0.0
 11
60.43899999999999
 21
10.85466297958858
 31
0.0
  0
LINE
  5
459
330
257
100
AcDbEntity
  8
SK2
 62
     0
370
    -2
100
AcDbLine
 10
20.43899999999999
 20
10.67466297958858
 30
0.0
 11
57.439
 21
10.67466297958858
 31
0.0
  0
SOLID
  5
45A
330
257
100
AcDbEntity
  8
SK2
 62
     0
370
    18
100
AcDbTrace
 10
20.43899999999999
 20
11.17466297958858
 30
0.0
 11
20.43899999999999
 21
10.17466297958858
 31
0.0
 12
17.43899999999999
 22
10.67466297958858
 32
0.0
 13
17.43899999999999
 23
10.67466297958858
 33
0.0
  0
SOLID
  5
45B
330
257
100
AcDbEntity
  8
SK2
 62
     0
370
    18
100
AcDbTrace
 10
57.439
 20
11.17466297958858
 30
0.0
 11
57.439
 21
10.17466297958858
 31
0.0
 12
60.43899999999999
 22
10.67466297958858
 32
0.0
 13
60.43899999999999
 23
10.67466297958858
 33
0.0
  0
MTEXT
  5
45C
330
257
100
AcDbEntity
  8
SK2
 62
     0
370
    18
100
AcDbMText
 10
38.939
 20
13.62466297958858
 30
0.0
 40
3.5
 41
0.0
 71
     5
 72
     1
  1
\A1;43.00
 73
     1
 44
1.0
  0
POINT
  5
45D
330
257
100
AcDbEntity
  8
Defpoints
 62
     0
370
    18
100
AcDbPoint
 10
17.43899999999999
 20
5.561000000000003
 30
0.0
  0
POINT
  5
45E
330
257
100
AcDbEntity
  8
Defpoints
 62
     0
370
    18
100
AcDbPoint
 10
60.43899999999999
 20
0.0000000000000036
 30
0.0
  0
POINT
  5
45F
330
257
100
AcDbEntity
  8
Defpoints
 62
     0
370
    18
100
AcDbPoint
 10
60.43899999999999
 20
10.67466297958858
 30
0.0
  0
ENDBLK
  5
263
330
257
100
AcDbEntity
  8
0
370
    18
100
AcDbBlockEnd
  0
BLOCK
  5
270
330
265
100
AcDbEntity
  8
0
370
    18
100
AcDbBlockBegin
  2
*D11
 70
     1
 10
0.0
 20
0.0
 30
0.0
  3
*D11
  1

  0
LINE
  5
44E
330
265
100
AcDbEntity
  8
SK2
 62
     0
370
    -2
100
AcDbLine
 10
0.0
 20
-6.062499999999996
 30
0.0
 11
-0.0000000000000003
 21
-11.52061134516791
 31
0.0
  0
LINE
  5
44F
330
265
100
AcDbEntity
  8
SK2
 62
     0
370
    -2
100
AcDbLine
 10
57.07724891123675
 20
-5.412499967986764
 30
0.0
 11
57.07724891123675
 21
-11.52061134516791
 31
0.0
  0
LINE
  5
450
330
265
100
AcDbEntity
  8
SK2
 62
     0
370
    -2
100
AcDbLine
 10
2.999999999999999
 20
-11.34061134516791
 30
0.0
 11
54.07724891123675
 21
-11.34061134516791
 31
0.0
  0
SOLID
  5
451
330
265
100
AcDbEntity
  8
SK2
 62
     0
370
    18
100
AcDbTrace
 10
2.999999999999999
 20
-10.84061134516791
 30
0.0
 11
2.999999999999999
 21
-11.84061134516791
 31
0.0
 12
-0.0000000000000003
 22
-11.34061134516791
 32
0.0
 13
-0.0000000000000003
 23
-11.34061134516791
 33
0.0
  0
SOLID
  5
452
330
265
100
AcDbEntity
  8
SK2
 62
     0
370
    18
100
AcDbTrace
 10
54.07724891123675
 20
-10.84061134516791
 30
0.0
 11
54.07724891123675
 21
-11.84061134516791
 31
0.0
 12
57.07724891123675
 22
-11.34061134516791
 32
0.0
 13
57.07724891123675
 23
-11.34061134516791
 33
0.0
  0
MTEXT
  5
453
330
265
100
AcDbEntity
  8
SK2
 62
     0
370
    18
100
AcDbMText
 10
28.53862445561837
 20
-8.390611345167911
 30
0.0
 40
3.5
 41
0.0
 71
     5
 72
     1
  1
\A1;57.08
 73
     1
 44
1.0
  0
POINT
  5
454
330
265
100
AcDbEntity
  8
Defpoints
 62
     0
370
    18
100
AcDbPoint
 10
0.0
 20
-5.999999999999996
 30
0.0
  0
POINT
  5
455
330
265
100
AcDbEntity
  8
Defpoints
 62
     0
370
    18
100
AcDbPoint
 10
57.07724891123675
 20
-5.349999967986764
 30
0.0
  0
POINT
  5
456
330
265
100
AcDbEntity
  8
Defpoints
 62
     0
370
    18
100
AcDbPoint
 10
57.07724891123675
 20
-11.34061134516791
 30
0.0
  0
ENDBLK
  5
271
330
265
100
AcDbEntity
  8
0
370
    18
100
AcDbBlockEnd
  0
BLOCK
  5
27E
330
273
100
AcDbEntity
  8
0
370
    18
100
AcDbBlockBegin
  2
*D12
 70
     1
 10
0.0
 20
0.0
 30
0.0
  3
*D12
  1

  0
LINE
  5
444
330
273
100
AcDbEntity
  8
SK2
 62
     0
370
    -2
100
AcDbLine
 10
57.0772405745
 20
-5.412499999999996
 30
0.0
 11
57.0772405745
 21
-15.90208579993103
 31
0.0
  0
LINE
  5
445
330
273
100
AcDbEntity
  8
SK2
 62
     0
370
    -2
100
AcDbLine
 10
60.43899999999999
 20
-0.0624999999999997
 30
0.0
 11
60.43899999999999
 21
-15.90208579993103
 31
0.0
  0
LINE
  5
446
330
273
100
AcDbEntity
  8
SK2
 62
     0
370
    -2
100
AcDbLine
 10
54.0772405745
 20
-15.72208579993103
 30
0.0
 11
51.07724057449999
 21
-15.72208579993103
 31
0.0
  0
LINE
  5
447
330
273
100
AcDbEntity
  8
SK2
 62
     0
370
    -2
100
AcDbLine
 10
63.43899999999999
 20
-15.72208579993103
 30
0.0
 11
79.339
 21
-15.72208579993103
 31
0.0
  0
SOLID
  5
448
330
273
100
AcDbEntity
  8
SK2
 62
     0
370
    18
100
AcDbTrace
 10
54.0772405745
 20
-15.22208579993103
 30
0.0
 11
54.0772405745
 21
-16.22208579993103
 31
0.0
 12
57.0772405745
 22
-15.72208579993103
 32
0.0
 13
57.0772405745
 23
-15.72208579993103
 33
0.0
  0
SOLID
  5
449
330
273
100
AcDbEntity
  8
SK2
 62
     0
370
    18
100
AcDbTrace
 10
63.43899999999999
 20
-15.22208579993103
 30
0.0
 11
63.43899999999999
 21
-16.22208579993103
 31
0.0
 12
60.43899999999999
 22
-15.72208579993103
 32
0.0
 13
60.43899999999999
 23
-15.72208579993103
 33
0.0
  0
MTEXT
  5
44A
330
273
100
AcDbEntity
  8
SK2
 62
     0
370
    18
100
AcDbMText
 10
72.88899999999999
 20
-12.77208579993103
 30
0.0
 40
3.5
 41
0.0
 71
     5
 72
     1
  1
\A1;3.36
 73
     1
 44
1.0
  0
POINT
  5
44B
330
273
100
AcDbEntity
  8
Defpoints
 62
     0
370
    18
100
AcDbPoint
 10
57.0772405745
 20
-5.349999999999996
 30
0.0
  0
POINT
  5
44C
330
273
100
AcDbEntity
  8
Defpoints
 62
     0
370
    18
100
AcDbPoint
 10
60.43899999999999
 20
0.0000000000000003
 30
0.0
  0
POINT
  5
44D
330
273
100
AcDbEntity
  8
Defpoints
 62
     0
370
    18
100
AcDbPoint
 10
60.43899999999999
 20
-15.72208579993103
 30
0.0
  0
ENDBLK
  5
27F
330
273
100
AcDbEntity
  8
0
370
    18
100
AcDbBlockEnd
  0
BLOCK
  5
28C
330
281
100
AcDbEntity
  8
0
370
    18
100
AcDbBlockBegin
  2
*D13
 70
     1
 10
0.0
 20
0.0
 30
0.0
  3
*D13
  1

  0
LINE
  5
43B
330
281
100
AcDbEntity
  8
SK2
 62
     0
370
    -2
100
AcDbLine
 10
-44.56100000000001
 20
-5.562499999999996
 30
0.0
 11
-44.56100000000001
 21
-20.2825131452149
 31
0.0
  0
LINE
  5
43C
330
281
100
AcDbEntity
  8
SK2
 62
     0
370
    -2
100
AcDbLine
 10
57.0772405745
 20
-5.412499999999996
 30
0.0
 11
57.0772405745
 21
-20.2825131452149
 31
0.0
  0
LINE
  5
43D
330
281
100
AcDbEntity
  8
SK2
 62
     0
370
    -2
100
AcDbLine
 10
-41.56100000000001
 20
-20.10251314521489
 30
0.0
 11
54.0772405745
 21
-20.10251314521489
 31
0.0
  0
SOLID
  5
43E
330
281
100
AcDbEntity
  8
SK2
 62
     0
370
    18
100
AcDbTrace
 10
-41.56100000000001
 20
-19.60251314521489
 30
0.0
 11
-41.56100000000001
 21
-20.6025131452149
 31
0.0
 12
-44.56100000000001
 22
-20.10251314521489
 32
0.0
 13
-44.56100000000001
 23
-20.10251314521489
 33
0.0
  0
SOLID
  5
43F
330
281
100
AcDbEntity
  8
SK2
 62
     0
370
    18
100
AcDbTrace
 10
54.0772405745
 20
-19.60251314521489
 30
0.0
 11
54.0772405745
 21
-20.6025131452149
 31
0.0
 12
57.0772405745
 22
-20.10251314521489
 32
0.0
 13
57.0772405745
 23
-20.10251314521489
 33
0.0
  0
MTEXT
  5
440
330
281
100
AcDbEntity
  8
SK2
 62
     0
370
    18
100
AcDbMText
 10
6.258120287249994
 20
-17.1525131452149
 30
0.0
 40
3.5
 41
0.0
 71
     5
 72
     1
  1
\A1;101.64
 73
     1
 44
1.0
  0
POINT
  5
441
330
281
100
AcDbEntity
  8
Defpoints
 62
     0
370
    18
100
AcDbPoint
 10
-44.56100000000001
 20
-5.499999999999996
 30
0.0
  0
POINT
  5
442
330
281
100
AcDbEntity
  8
Defpoints
 62
     0
370
    18
100
AcDbPoint
 10
57.0772405745
 20
-5.349999999999996
 30
0.0
  0
POINT
  5
443
330
281
100
AcDbEntity
  8
Defpoints
 62
     0
370
    18
100
AcDbPoint
 10
57.0772405745
 20
-20.10251314521489
 30
0.0
  0
ENDBLK
  5
28D
330
281
100
AcDbEntity
  8
0
370
    18
100
AcDbBlockEnd
  0
BLOCK
  5
29A
330
28F
100
AcDbEntity
  8
0
370
    18
100
AcDbBlockBegin
  2
*D14
 70
     1
 10
0.0
 20
0.0
 30
0.0
  3
*D14
  1

  0
LINE
  5
432
330
28F
100
AcDbEntity
  8
SK2
 62
     0
370
    -2
100
AcDbLine
 10
-44.56100000000001
 20
-5.562499999999996
 30
0.0
 11
-44.56100000000001
 21
-29.58203499529501
 31
0.0
  0
LINE
  5
433
330
28F
100
AcDbEntity
  8
SK2
 62
     0
370
    -2
100
AcDbLine
 10
60.43899999999999
 20
-0.0624999999999965
 30
0.0
 11
60.43899999999999
 21
-29.58203499529501
 31
0.0
  0
LINE
  5
434
330
28F
100
AcDbEntity
  8
SK2
 62
     0
370
    -2
100
AcDbLine
 10
-41.56100000000001
 20
-29.40203499529501
 30
0.0
 11
57.439
 21
-29.40203499529501
 31
0.0
  0
SOLID
  5
435
330
28F
100
AcDbEntity
  8
SK2
 62
     0
370
    18
100
AcDbTrace
 10
-41.56100000000001
 20
-28.90203499529501
 30
0.0
 11
-41.56100000000001
 21
-29.90203499529501
 31
0.0
 12
-44.56100000000001
 22
-29.40203499529501
 32
0.0
 13
-44.56100000000001
 23
-29.40203499529501
 33
0.0
  0
SOLID
  5
436
330
28F
100
AcDbEntity
  8
SK2
 62
     0
370
    18
100
AcDbTrace
 10
57.439
 20
-28.90203499529501
 30
0.0
 11
57.439
 21
-29.90203499529501
 31
0.0
 12
60.43899999999999
 22
-29.40203499529501
 32
0.0
 13
60.43899999999999
 23
-29.40203499529501
 33
0.0
  0
MTEXT
  5
437
330
28F
100
AcDbEntity
  8
SK2
 62
     0
370
    18
100
AcDbMText
 10
7.938999999999992
 20
-26.45203499529501
 30
0.0
 40
3.5
 41
0.0
 71
     5
 72
     1
  1
\A1;105.00
 73
     1
 44
1.0
  0
POINT
  5
438
330
28F
100
AcDbEntity
  8
Defpoints
 62
     0
370
    18
100
AcDbPoint
 10
-44.56100000000001
 20
-5.499999999999996
 30
0.0
  0
POINT
  5
439
330
28F
100
AcDbEntity
  8
Defpoints
 62
     0
370
    18
100
AcDbPoint
 10
60.43899999999999
 20
0.0000000000000036
 30
0.0
  0
POINT
  5
43A
330
28F
100
AcDbEntity
  8
Defpoints
 62
     0
370
    18
100
AcDbPoint
 10
60.43899999999999
 20
-29.40203499529501
 30
0.0
  0
ENDBLK
  5
29B
330
28F
100
AcDbEntity
  8
0
370
    18
100
AcDbBlockEnd
  0
BLOCK
  5
2A8
330
29D
100
AcDbEntity
  8
0
370
    18
100
AcDbBlockBegin
  2
*D15
 70
     1
 10
0.0
 20
0.0
 30
0.0
  3
*D15
  1

  0
LINE
  5
427
330
29D
100
AcDbEntity
  8
SK2
 62
     0
370
    -2
100
AcDbLine
 10
-44.1235
 20
6.000000000000003
 30
0.0
 11
-52.85764292250677
 21
6.000000000000006
 31
0.0
  0
LINE
  5
428
330
29D
100
AcDbEntity
  8
SK2
 62
     0
370
    -2
100
AcDbLine
 10
-44.1235
 20
-5.999999999999996
 30
0.0
 11
-52.85764292250677
 21
-5.999999999999993
 31
0.0
  0
LINE
  5
429
330
29D
100
AcDbEntity
  8
SK2
 62
     0
370
    -2
100
AcDbLine
 10
-52.67764292250677
 20
-2.999999999999993
 30
0.0
 11
-52.67764292250677
 21
3.000000000000006
 31
0.0
  0
LINE
  5
42A
330
29D
100
AcDbEntity
  8
SK2
 62
     0
370
    -2
100
AcDbLine
 10
-52.67764292250677
 20
6.000000000000006
 30
0.0
 11
-52.67764292250677
 21
11.15457617484523
 31
0.0
  0
LINE
  5
42B
330
29D
100
AcDbEntity
  8
SK2
 62
     0
370
    -2
100
AcDbLine
 10
-52.67764292250677
 20
11.15457617484523
 30
0.0
 11
-33.39430958917344
 21
11.15457617484523
 31
0.0
  0
SOLID
  5
42C
330
29D
100
AcDbEntity
  8
SK2
 62
     0
370
    18
100
AcDbTrace
 10
-53.17764292250677
 20
-2.999999999999993
 30
0.0
 11
-52.17764292250677
 21
-2.999999999999993
 31
0.0
 12
-52.67764292250677
 22
-5.999999999999993
 32
0.0
 13
-52.67764292250677
 23
-5.999999999999993
 33
0.0
  0
SOLID
  5
42D
330
29D
100
AcDbEntity
  8
SK2
 62
     0
370
    18
100
AcDbTrace
 10
-53.17764292250677
 20
3.000000000000006
 30
0.0
 11
-52.17764292250677
 21
3.000000000000006
 31
0.0
 12
-52.67764292250677
 22
6.000000000000006
 32
0.0
 13
-52.67764292250677
 23
6.000000000000006
 33
0.0
  0
MTEXT
  5
42E
330
29D
100
AcDbEntity
  8
SK2
 62
     0
370
    18
100
AcDbMText
 10
-42.4359762558401
 20
14.10457617484522
 30
0.0
 40
3.5
 41
0.0
 71
     5
 72
     1
  1
\A1;%%c12.000
 73
     1
 44
1.0
  0
POINT
  5
42F
330
29D
100
AcDbEntity
  8
Defpoints
 62
     0
370
    18
100
AcDbPoint
 10
-44.06100000000001
 20
6.000000000000003
 30
0.0
  0
POINT
  5
430
330
29D
100
AcDbEntity
  8
Defpoints
 62
     0
370
    18
100
AcDbPoint
 10
-44.06100000000001
 20
-5.999999999999996
 30
0.0
  0
POINT
  5
431
330
29D
100
AcDbEntity
  8
Defpoints
 62
     0
370
    18
100
AcDbPoint
 10
-52.67764292250677
 20
-5.999999999999993
 30
0.0
  0
ENDBLK
  5
2A9
330
29D
100
AcDbEntity
  8
0
370
    18
100
AcDbBlockEnd
  0
ENDSEC
  0
SECTION
  2
ENTITIES
  0
POINT
  5
6E
330
1F
100
AcDbEntity
  8
80
370
    18
100
AcDbPoint
 10
0.0
 20
0.0
 30
0.0
 50
360.0
  0
POINT
  5
70
330
1F
100
AcDbEntity
  8
SK2
 60
     1
370
    18
100
AcDbPoint
 10
-36.0
 20
-3.0
 30
0.0
 50
360.0
  0
POINT
  5
72
330
1F
100
AcDbEntity
  8
SK2
 60
     1
370
    18
100
AcDbPoint
 10
-36.0
 20
3.0
 30
0.0
 50
360.0
  0
POINT
  5
73
330
1F
100
AcDbEntity
  8
2
 60
     1
370
    18
100
AcDbPoint
 10
25.5709
 20
-1.5
 30
0.0
 50
360.0
  0
POINT
  5
75
330
1F
100
AcDbEntity
  8
2
 60
     1
370
    18
100
AcDbPoint
 10
25.5709
 20
1.5
 30
0.0
 50
360.0
  0
LINE
  5
76
330
1F
100
AcDbEntity
  8
81
370
    18
100
AcDbLine
 10
60.43899999999999
 20
0.0000000000000036
 30
0.0
 11
65.43899999999999
 21
0.0000000000000036
 31
0.0
  0
LINE
  5
85
330
1F
100
AcDbEntity
  8
SK4
 48
0.05
370
    18
100
AcDbLine
 10
64.19788923202879
 20
0.0000000000000003
 30
0.0
 11
-50.48935512481188
 21
0.0000000000000003
 31
0.0
  0
LINE
  5
87
330
1F
100
AcDbEntity
  8
4
 48
0.05
370
    18
100
AcDbLine
 10
60.43899999999999
 20
0.0000000000000036
 30
0.0
 11
0.0
 21
0.0
 31
0.0
  0
LINE
  5
89
330
1F
100
AcDbEntity
  8
80
370
    18
100
AcDbLine
 10
0.0
 20
0.0
 30
0.0
 11
-5.0
 21
0.0
 31
0.0
  0
MTEXT
  5
CD
330
1F
100
AcDbEntity
  8
SK6
370
    13
100
AcDbMText
 10
7.834900947402342
 20
28.87588379778161
 30
0.0
 40
3.5
 41
0.0
 71
     8
 72
     5
  1
\W0.7645;863.1-1112-043A1-N
  7
iso_b_vert
 73
     1
 44
1.084337
  0
LINE
  5
1F7
330
1F
100
AcDbEntity
  8
1
  6
Continuous
370
    15
100
AcDbLine
 10
4.863347532399984
 20
-5.201816278399996
 30
0.0
 11
4.003296715299995
 21
-5.558066376899996
 31
0.0
  0
LINE
  5
1F8
330
1F
100
AcDbEntity
  8
SK1
  6
Continuous
370
    15
100
AcDbLine
 10
-44.56100000000001
 20
-5.499999999999996
 30
0.0
 11
-44.56100000000001
 21
5.500000000000003
 31
0.0
  0
LINE
  5
1F9
330
1F
100
AcDbEntity
  8
SK1
  6
Continuous
370
    15
100
AcDbLine
 10
-44.06100000000001
 20
6.000000000000003
 30
0.0
 11
-44.06100000000001
 21
-5.999999999999996
 31
0.0
  0
LINE
  5
1FA
330
1F
100
AcDbEntity
  8
SK1
  6
Continuous
370
    15
100
AcDbLine
 10
0.0
 20
-5.999999999999996
 30
0.0
 11
0.0
 21
6.000000000000003
 31
0.0
  0
LINE
  5
1FB
330
1F
100
AcDbEntity
  8
1
  6
Continuous
370
    15
100
AcDbLine
 10
60.43899999999999
 20
0.0000000000000036
 30
0.0
 11
57.0772405745
 21
5.350000000000003
 31
0.0
  0
LINE
  5
1FC
330
1F
100
AcDbEntity
  8
1
  6
Continuous
370
    15
100
AcDbLine
 10
58.4649771837
 20
0.5088548190000033
 30
0.0
 11
59.74670364309997
 21
0.1784570748000034
 31
0.0
  0
LINE
  5
1FD
330
1F
100
AcDbEntity
  8
1
  6
Continuous
370
    15
100
AcDbLine
 10
58.13555837960001
 20
3.384819871800003
 30
0.0
 11
59.74670364309997
 21
0.1784570748000034
 31
0.0
  0
LINE
  5
1FE
330
1F
100
AcDbEntity
  8
1
  6
Continuous
370
    15
100
AcDbLine
 10
60.43899999999999
 20
0.0000000000000036
 30
0.0
 11
57.0772405745
 21
-5.349999999999996
 31
0.0
  0
LINE
  5
200
330
1F
100
AcDbEntity
  8
1
  6
Continuous
370
    15
100
AcDbLine
 10
0.438999999999993
 20
5.561000000000003
 30
0.0
 11
0.438999999999993
 21
-5.560999999999996
 31
0.0
  0
LINE
  5
201
330
1F
100
AcDbEntity
  8
1
  6
Continuous
370
    15
100
AcDbLine
 10
17.43899999999999
 20
-5.237783138499996
 30
0.0
 11
17.43899999999999
 21
-5.560999999999996
 31
0.0
  0
LINE
  5
202
330
1F
100
AcDbEntity
  8
1
  6
Continuous
370
    15
100
AcDbLine
 10
5.19917971209999
 20
5.265631758300003
 30
0.0
 11
5.479245244499992
 21
5.318850352100003
 31
0.0
  0
LINE
  5
203
330
1F
100
AcDbEntity
  8
1
  6
Continuous
370
    15
100
AcDbLine
 10
4.003296715299995
 20
5.558066376900004
 30
0.0
 11
3.875298988299988
 21
5.548297173200005
 31
0.0
  0
LINE
  5
204
330
1F
100
AcDbEntity
  8
1
  6
Continuous
370
    15
100
AcDbLine
 10
17.43899999999999
 20
3.197996487100002
 30
0.0
 11
17.43899999999999
 21
5.561000000000003
 31
0.0
  0
LINE
  5
205
330
1F
100
AcDbEntity
  8
1
  6
Continuous
370
    15
100
AcDbLine
 10
32.335410551
 20
-5.523808402399996
 30
0.0
 11
31.908908255
 21
-5.553530302899996
 31
0.0
  0
LINE
  5
206
330
1F
100
AcDbEntity
  8
1
  6
Continuous
370
    15
100
AcDbLine
 10
32.39810801559997
 20
5.519439169600003
 30
0.0
 11
31.908908255
 21
5.553530302900004
 31
0.0
  0
LINE
  5
207
330
1F
100
AcDbEntity
  8
1
  6
Continuous
370
    15
100
AcDbLine
 10
53.18508417409998
 20
-5.521738525799996
 30
0.0
 11
52.72890783949998
 21
-5.553555944399996
 31
0.0
  0
LINE
  5
208
330
1F
100
AcDbEntity
  8
SK1
  6
Continuous
370
    15
100
AcDbLine
 10
-44.56100000000001
 20
-5.499999999999996
 30
0.0
 11
-44.06100000000001
 21
-5.999999999999996
 31
0.0
  0
LINE
  5
209
330
1F
100
AcDbEntity
  8
SK1
  6
Continuous
370
    15
100
AcDbLine
 10
-44.06100000000001
 20
6.000000000000003
 30
0.0
 11
-44.56100000000001
 21
5.500000000000003
 31
0.0
  0
LINE
  5
20A
330
1F
100
AcDbEntity
  8
SK1
  6
Continuous
370
    15
100
AcDbLine
 10
-44.06100000000001
 20
-5.999999999999996
 30
0.0
 11
0.0
 21
-5.999999999999996
 31
0.0
  0
LINE
  5
20B
330
1F
100
AcDbEntity
  8
SK1
  6
Continuous
370
    15
100
AcDbLine
 10
0.0
 20
6.000000000000003
 30
0.0
 11
-44.06100000000001
 21
6.000000000000003
 31
0.0
  0
LINE
  5
20C
330
1F
100
AcDbEntity
  8
1
  6
Continuous
370
    15
100
AcDbLine
 10
0.438999999999993
 20
5.561000000000003
 30
0.0
 11
0.0
 21
6.000000000000003
 31
0.0
  0
LINE
  5
20D
330
1F
100
AcDbEntity
  8
1
  6
Continuous
370
    15
100
AcDbLine
 10
0.0
 20
-5.999999999999996
 30
0.0
 11
0.438999999999993
 21
-5.560999999999996
 31
0.0
  0
LINE
  5
20E
330
1F
100
AcDbEntity
  8
1
  6
Continuous
370
    15
100
AcDbLine
 10
0.438999999999993
 20
-5.560999999999996
 30
0.0
 11
3.875298988299988
 21
-5.560999999999996
 31
0.0
  0
LINE
  5
20F
330
1F
100
AcDbEntity
  8
1
  6
Continuous
370
    15
100
AcDbLine
 10
8.159699746499995
 20
-5.560999999999996
 30
0.0
 11
17.43899999999999
 21
-5.560999999999996
 31
0.0
  0
LINE
  5
210
330
1F
100
AcDbEntity
  8
1
  6
Continuous
370
    15
100
AcDbLine
 10
31.2415607785
 20
-5.560999999999996
 30
0.0
 11
31.908908255
 21
-5.560999999999996
 31
0.0
  0
LINE
  5
211
330
1F
100
AcDbEntity
  8
1
  6
Continuous
370
    15
100
AcDbLine
 10
52.06138801739999
 20
-5.560999999999996
 30
0.0
 11
52.72890783949998
 21
-5.560999999999996
 31
0.0
  0
LINE
  5
212
330
1F
100
AcDbEntity
  8
1
  6
Continuous
370
    15
100
AcDbLine
 10
52.72890783949998
 20
5.561000000000003
 30
0.0
 11
52.06138801739999
 21
5.561000000000003
 31
0.0
  0
LINE
  5
213
330
1F
100
AcDbEntity
  8
1
  6
Continuous
370
    15
100
AcDbLine
 10
31.908908255
 20
5.561000000000003
 30
0.0
 11
31.2415607785
 21
5.561000000000003
 31
0.0
  0
LINE
  5
214
330
1F
100
AcDbEntity
  8
1
  6
Continuous
370
    15
100
AcDbLine
 10
17.43899999999999
 20
5.561000000000003
 30
0.0
 11
8.159699746499995
 21
5.561000000000003
 31
0.0
  0
LINE
  5
215
330
1F
100
AcDbEntity
  8
1
  6
Continuous
370
    15
100
AcDbLine
 10
3.875298988299988
 20
5.561000000000003
 30
0.0
 11
0.438999999999993
 21
5.561000000000003
 31
0.0
  0
SPLINE
  5
216
330
1F
100
AcDbEntity
  8
1
  6
Continuous
370
    15
100
AcDbSpline
210
0.0
220
0.0
230
1.0
 70
     8
 71
     3
 72
    11
 73
     7
 74
     0
 42
0.0000000001
 43
0.0000000001
 40
0.0
 40
0.0
 40
0.0
 40
0.0
 40
0.1489177987952791
 40
0.4593113954927103
 40
0.7695459137350385
 40
1.0
 40
1.0
 40
1.0
 40
1.0
 10
23.34135024355007
 20
-2.046082957968887
 30
0.0
 10
23.0483328611586
 20
-2.124837518099564
 30
0.0
 10
22.14457102812975
 20
-2.36774244422437
 30
0.0
 10
20.63043537299501
 20
-2.592607558418286
 30
0.0
 10
18.95593142130485
 20
-2.701610793268934
 30
0.0
 10
17.89223779680199
 20
-2.639144736509303
 30
0.0
 10
17.43886678018134
 20
-2.612520247083944
 30
0.0
  0
SPLINE
  5
217
330
1F
100
AcDbEntity
  8
1
  6
Continuous
370
    15
100
AcDbSpline
210
0.0
220
0.0
230
1.0
 70
     8
 71
     3
 72
    11
 73
     7
 74
     0
 42
0.0000000001
 43
0.0000000001
 40
0.0
 40
0.0
 40
0.0
 40
0.0
 40
0.2744133540570035
 40
0.5490606225097059
 40
0.8237265471807253
 40
1.0
 40
1.0
 40
1.0
 40
1.0
 10
57.20280115693753
 20
-2.356552772806683
 30
0.0
 10
56.54665128681185
 20
-2.212381429002723
 30
0.0
 10
55.23379223376434
 20
-1.923915847401985
 30
0.0
 10
53.26392832332977
 20
-1.267305886239863
 30
0.0
 10
51.52873405974418
 20
-0.6049393218374802
 30
0.0
 10
50.45046338873465
 20
-0.1695972976732802
 30
0.0
 10
50.02896439410159
 20
0.0005791064896217
 30
0.0
  0
SPLINE
  5
218
330
1F
100
AcDbEntity
  8
1
  6
Continuous
370
    15
100
AcDbSpline
210
0.0
220
0.0
230
1.0
 70
     8
 71
     3
 72
    16
 73
    12
 74
     0
 42
0.0000000001
 43
0.0000000001
 40
0.0
 40
0.0
 40
0.0
 40
0.0
 40
0.0451202364078862
 40
0.1745148047272637
 40
0.3038019392653633
 40
0.4336908328034795
 40
0.5636908869404293
 40
0.6937194828974678
 40
0.8236936272555023
 40
0.9535498413415044
 40
1.0
 40
1.0
 40
1.0
 40
1.0
 10
44.16160441661065
 20
-2.046280748564057
 30
0.0
 10
43.93670439055052
 20
-2.108797720802157
 30
0.0
 10
43.06684227865392
 20
-2.350599140095361
 30
0.0
 10
41.55256138451432
 20
-2.584844532997673
 30
0.0
 10
39.61600324897915
 20
-2.708764423182395
 30
0.0
 10
37.67641364151103
 20
-2.590857611234917
 30
0.0
 10
35.73288033955311
 20
-2.254851325771372
 30
0.0
 10
33.78890915488609
 20
-1.725410187974316
 30
0.0
 10
31.84569338422787
 20
-1.049457683771712
 30
0.0
 10
30.31934821862075
 20
-0.446297857382354
 30
0.0
 10
29.44060794366289
 20
-0.0935093070616979
 30
0.0
 10
29.20909262997339
 20
-0.0005626717234328
 30
0.0
  0
SPLINE
  5
219
330
1F
100
AcDbEntity
  8
1
  6
Continuous
370
    15
100
AcDbSpline
210
0.0
220
0.0
230
1.0
 70
     8
 71
     3
 72
    15
 73
    11
 74
     0
 42
0.0000000001
 43
0.0000000001
 40
0.0
 40
0.0
 40
0.0
 40
0.0
 40
0.1344814994705445
 40
0.2697322532305073
 40
0.4060798198231761
 40
0.5438421551132291
 40
0.6833186922381517
 40
0.8248072019050516
 40
0.9603299831260043
 40
1.0
 40
1.0
 40
1.0
 40
1.0
 10
17.43899999999999
 20
-2.612496177040638
 30
0.0
 10
17.02053981982391
 20
-2.554027951944256
 30
0.0
 10
16.18122580465811
 20
-2.436757054759697
 30
0.0
 10
14.92598460509958
 20
-1.955770165676103
 30
0.0
 10
13.67048263241239
 20
-1.279405514983827
 30
0.0
 10
12.41530979124044
 20
-0.4222579743858228
 30
0.0
 10
11.15976076825578
 20
0.5622719491897535
 30
0.0
 10
9.930223878337187
 20
1.590084331333084
 30
0.0
 10
9.005803827988529
 20
2.382906611854188
 30
0.0
 10
8.505527402034744
 20
2.779065826427274
 30
0.0
 10
8.392246636643363
 20
2.868770671020177
 30
0.0
  0
SPLINE
  5
21A
330
1F
100
AcDbEntity
  8
1
  6
Continuous
370
    15
100
AcDbSpline
210
0.0
220
0.0
230
1.0
 70
     8
 71
     3
 72
    19
 73
    15
 74
     0
 42
0.0000000001
 43
0.0000000001
 40
0.0
 40
0.0
 40
0.0
 40
0.0
 40
0.006795807010921
 40
0.0967225089229264
 40
0.1866027511703755
 40
0.2764829934178238
 40
0.3664096953298294
 40
0.4564152448818707
 40
0.5463676963399604
 40
0.6362582752539394
 40
0.7261333465293926
 40
0.8160394172607375
 40
0.9060227104666271
 40
1.0
 40
1.0
 40
1.0
 40
1.0
 10
31.90890825500509
 20
-5.553530302893154
 30
0.0
 10
31.87611866234175
 20
-5.555986142954381
 30
0.0
 10
31.40943506407848
 20
-5.59093931508737
 30
0.0
 10
30.50951634608822
 20
-5.45807667641436
 30
0.0
 10
29.20899477084194
 20
-5.14235795206638
 30
0.0
 10
27.90850457595031
 20
-4.606003129448934
 30
0.0
 10
26.60720063956191
 20
-3.898621399337451
 30
0.0
 10
25.30481877258856
 20
-3.040195452676498
 30
0.0
 10
24.00314039149368
 20
-2.064963036503194
 30
0.0
 10
22.7024531528505
 20
-1.010495641973896
 30
0.0
 10
21.40205636819832
 20
0.083302010304287
 30
0.0
 10
20.10109658927254
 20
1.171743610835417
 30
0.0
 10
18.7797154125779
 20
2.23938322391786
 30
0.0
 10
17.89218088382412
 20
2.873762087118016
 30
0.0
 10
17.43877892054715
 20
3.197838066945237
 30
0.0
  0
SPLINE
  5
21B
330
1F
100
AcDbEntity
  8
1
  6
Continuous
370
    15
100
AcDbSpline
210
0.0
220
0.0
230
1.0
 70
     8
 71
     3
 72
    24
 73
    20
 74
     0
 42
0.0000000001
 43
0.0000000001
 40
0.0
 40
0.0
 40
0.0
 40
0.0
 40
0.0048178285371967
 40
0.0688300374594223
 40
0.1328092434575564
 40
0.196778982151119
 40
0.2607817872064001
 40
0.3248407098555324
 40
0.3888618414272228
 40
0.4528389369529477
 40
0.5168049953523873
 40
0.5807931167441311
 40
0.6448361990638203
 40
0.7088792813835097
 40
0.7728674027752534
 40
0.8368334611746929
 40
0.9008105567004175
 40
0.9648316882721083
 40
1.0
 40
1.0
 40
1.0
 40
1.0
 10
52.72890783947218
 20
-5.553555944420139
 30
0.0
 10
52.69624635910472
 20
-5.556003556372197
 30
0.0
 10
52.22962723810093
 20
-5.590971430601308
 30
0.0
 10
51.32970894812479
 20
-5.458108884194366
 30
0.0
 10
50.02905875776272
 20
-5.142386945396454
 30
0.0
 10
48.72850461704499
 20
-4.606001931611205
 30
0.0
 10
47.42720063332524
 20
-3.898623653386933
 30
0.0
 10
46.12481875637553
 20
-3.040187630124206
 30
0.0
 10
44.82314046250604
 20
-2.064992042847159
 30
0.0
 10
43.52245288521792
 20
-1.010387520353641
 30
0.0
 10
42.22205736775237
 20
0.0828985152796182
 30
0.0
 10
40.9210928558673
 20
1.173250608107116
 30
0.0
 10
39.61900002053105
 20
2.21818355401038
 30
0.0
 10
38.31690706204395
 20
3.17809309874973
 30
0.0
 10
37.01594291925193
 20
4.015352502233323
 30
0.0
 10
35.71554604906635
 20
4.700870295281358
 30
0.0
 10
34.41486351540806
 20
5.19559723215222
 30
0.0
 10
33.30897698141962
 20
5.47870168628077
 30
0.0
 10
32.63652911547064
 20
5.508776082023709
 30
0.0
 10
32.39810801556564
 20
5.519439169640012
 30
0.0
  0
SPLINE
  5
21C
330
1F
100
AcDbEntity
  8
1
  6
Continuous
370
    15
100
AcDbSpline
210
0.0
220
0.0
230
1.0
 70
     8
 71
     3
 72
    14
 73
    10
 74
     0
 42
0.0000000001
 43
0.0000000001
 40
0.0
 40
0.0
 40
0.0
 40
0.0
 40
0.1279861500863257
 40
0.2929037881310999
 40
0.4578165413860999
 40
0.6050316840499205
 40
0.7522159346938579
 40
0.8995550519065979
 40
1.0
 40
1.0
 40
1.0
 40
1.0
 10
42.51092517935066
 20
-0.7109738458454152
 30
0.0
 10
41.856989925176
 20
-0.5558148191462849
 30
0.0
 10
40.36042085882752
 20
-0.2007243140232182
 30
0.0
 10
38.02114076406929
 20
0.4178814323498177
 30
0.0
 10
35.58355634385379
 20
0.9932567406652568
 30
0.0
 10
33.23689708300284
 20
1.424056021006897
 30
0.0
 10
30.98004453811643
 20
1.667233972290138
 30
0.0
 10
28.96191979937817
 20
1.736908136355815
 30
0.0
 10
27.69601732966848
 20
1.639922611450914
 30
0.0
 10
27.18285475924975
 20
1.600607306801086
 30
0.0
  0
SPLINE
  5
21D
330
1F
100
AcDbEntity
  8
1
  6
Continuous
370
    15
100
AcDbSpline
210
0.0
220
0.0
230
1.0
 70
     8
 71
     3
 72
     9
 73
     5
 74
     0
 42
0.0000000001
 43
0.0000000001
 40
0.0
 40
0.0
 40
0.0
 40
0.0
 40
0.4689233336109983
 40
1.0
 40
1.0
 40
1.0
 40
1.0
 10
21.69078840458303
 20
-0.7149669078228956
 30
0.0
 10
21.02619827342471
 20
-0.5549797656017068
 30
0.0
 10
19.60893006874698
 20
-0.2138000230856125
 30
0.0
 10
18.19160694574648
 20
0.1520019866114914
 30
0.0
 10
17.43889970638733
 20
0.3462708984798271
 30
0.0
  0
SPLINE
  5
21E
330
1F
100
AcDbEntity
  8
1
  6
Continuous
370
    15
100
AcDbSpline
210
0.0
220
0.0
230
1.0
 70
     8
 71
     3
 72
    12
 73
     8
 74
     0
 42
0.0000000001
 43
0.0000000001
 40
0.0
 40
0.0
 40
0.0
 40
0.0
 40
0.2456597237983549
 40
0.49098922259502
 40
0.7364329091895359
 40
0.9820122878084724
 40
1.0
 40
1.0
 40
1.0
 40
1.0
 10
58.47214051752513
 20
0.4973442458872031
 30
0.0
 10
57.61357090587179
 20
0.7000990976350608
 30
0.0
 10
55.89758580399404
 20
1.105336250465057
 30
0.0
 10
53.32403090140648
 20
1.535596953705095
 30
0.0
 10
50.75066418611664
 20
1.717342907883452
 30
0.0
 10
48.97167448113996
 20
1.729373910575155
 30
0.0
 10
48.0505961108899
 20
1.619597842643604
 30
0.0
 10
47.98773510430919
 20
1.612105934949823
 30
0.0
  0
SPLINE
  5
21F
330
1F
100
AcDbEntity
  8
1
  6
Continuous
370
    15
100
AcDbSpline
210
0.0
220
0.0
230
1.0
 70
     8
 71
     3
 72
    18
 73
    14
 74
     0
 42
0.0000000001
 43
0.0000000001
 40
0.0
 40
0.0
 40
0.0
 40
0.0
 40
0.0251955154719418
 40
0.1235020532766258
 40
0.2218060863194367
 40
0.3201101193622466
 40
0.4184166571669313
 40
0.5167282010591056
 40
0.6150472455020503
 40
0.7133762746909289
 40
0.8117177591773375
 40
0.9100741525340401
 40
1.0
 40
1.0
 40
1.0
 40
1.0
 10
32.56358009403419
 20
-5.324343660268732
 30
0.0
 10
32.43655888462484
 20
-5.332378453402967
 30
0.0
 10
31.81393299752193
 20
-5.371762980019853
 30
0.0
 10
30.69574484338171
 20
-5.174239554966519
 30
0.0
 10
29.20899957356068
 20
-4.731303825736917
 30
0.0
 10
27.72225686239773
 20
-4.029958128675303
 30
0.0
 10
26.23546214355912
 20
-3.132251716609824
 30
0.0
 10
24.74856452438479
 20
-2.075892976313599
 30
0.0
 10
23.26151422969869
 20
-0.9160476724566528
 30
0.0
 10
21.77425425826391
 20
0.2907626191312929
 30
0.0
 10
20.28675677458574
 20
1.479801616186969
 30
0.0
 10
18.84148398061867
 20
2.574499306781536
 30
0.0
 10
17.89218490808264
 20
3.186207854722415
 30
0.0
 10
17.43878833056448
 20
3.478367164784831
 30
0.0
  0
SPLINE
  5
220
330
1F
100
AcDbEntity
  8
1
  6
Continuous
370
    15
100
AcDbSpline
210
0.0
220
0.0
230
1.0
 70
     8
 71
     3
 72
     9
 73
     5
 74
     0
 42
0.0000000001
 43
0.0000000001
 40
0.0
 40
0.0
 40
0.0
 40
0.0
 40
0.8047027498281256
 40
1.0
 40
1.0
 40
1.0
 40
1.0
 10
57.70867766312801
 20
4.238718584813454
 30
0.0
 10
57.28229815257532
 20
4.44514133499549
 30
0.0
 10
56.75243851105705
 20
4.701661833062789
 30
0.0
 10
56.22258211613007
 20
4.847621850563117
 30
0.0
 10
56.11910261921486
 20
4.87612744061597
 30
0.0
  0
SPLINE
  5
221
330
1F
100
AcDbEntity
  8
1
  6
Continuous
370
    15
100
AcDbSpline
210
0.0
220
0.0
230
1.0
 70
     8
 71
     3
 72
    20
 73
    16
 74
     0
 42
0.0000000001
 43
0.0000000001
 40
0.0
 40
0.0
 40
0.0
 40
0.0
 40
0.0433019570637447
 40
0.11512985907026
 40
0.1869107259669043
 40
0.2703131436847896
 40
0.3537176864751629
 40
0.437126476495147
 40
0.5205416300797687
 40
0.6039652548524535
 40
0.6873994468612442
 40
0.7708462877491249
 40
0.8542931286370055
 40
0.9377273206457964
 40
1.0
 40
1.0
 40
1.0
 40
1.0
 10
53.3604496921657
 20
-5.326093339445963
 30
0.0
 10
53.10308447369095
 20
-5.328472539932687
 30
0.0
 10
52.41881005881947
 20
-5.334798282123353
 30
0.0
 10
51.30832341252698
 20
-5.12219280012491
 30
0.0
 10
49.96010972437296
 20
-4.697062303380103
 30
0.0
 10
48.54220979501602
 20
-4.030434622958138
 30
0.0
 10
47.05547472283251
 20
-3.132116039657492
 30
0.0
 10
45.56856127738018
 20
-2.075959165398863
 30
0.0
 10
44.08151463721497
 20
-0.9159185904748632
 30
0.0
 10
42.59425587592343
 20
0.2903124153050926
 30
0.0
 10
41.10674989496593
 20
1.481473665115284
 30
0.0
 10
39.61899966190603
 20
2.600459038173113
 30
0.0
 10
38.13125145730771
 20
3.581043316130514
 30
0.0
 10
36.76943536117915
 20
4.341619016108701
 30
0.0
 10
35.90357204748006
 20
4.656278575072512
 30
0.0
 10
35.53351655185267
 20
4.790758806771901
 30
0.0
  0
SPLINE
  5
222
330
1F
100
AcDbEntity
  8
1
  6
Continuous
370
    15
100
AcDbSpline
210
0.0
220
0.0
230
1.0
 70
    24
 71
     3
 72
     8
 73
     4
 74
     0
 42
0.0000000001
 43
0.0000000001
 40
0.0
 40
0.0
 40
0.0
 40
0.0
 40
1.0
 40
1.0
 40
1.0
 40
1.0
 10
59.74670364305115
 20
0.1784570748045784
 30
0.0
 10
59.94976036623291
 20
0.1261140161206917
 30
0.0
 10
60.18022314998614
 20
0.0667063450747367
 30
0.0
 10
60.43899999999999
 20
0.0000000000000036
 30
0.0
  0
SPLINE
  5
223
330
1F
100
AcDbEntity
  8
1
  6
Continuous
370
    15
100
AcDbSpline
210
0.0
220
0.0
230
1.0
 70
    11
 71
     3
 72
    34
 73
    30
 74
     0
 42
0.0000000001
 43
0.0000000001
 40
0.0
 40
0.0
 40
0.0
 40
0.0
 40
0.0624999999999999
 40
0.0624999999999999
 40
0.1249999999999999
 40
0.1249999999999999
 40
0.1874999999999999
 40
0.1874999999999999
 40
0.25
 40
0.25
 40
0.3125000000000001
 40
0.3125000000000001
 40
0.3750000000000001
 40
0.3750000000000001
 40
0.5000000000000001
 40
0.5000000000000001
 40
0.6250000000000001
 40
0.6250000000000001
 40
0.6875000000000001
 40
0.6875000000000001
 40
0.7500000000000001
 40
0.7500000000000001
 40
0.8125000000000001
 40
0.8125000000000001
 40
0.8750000000000001
 40
0.8750000000000001
 40
0.9375
 40
0.9375
 40
1.0
 40
1.0
 40
1.0
 40
1.0
 10
59.26009625504701
 20
1.675529716813215
 30
0.0
 10
59.21838388974999
 20
1.756106650087091
 30
0.0
 10
59.174256563146
 20
1.83657596312886
 30
0.0
 10
59.08233590258436
 20
1.997878261504085
 30
0.0
 10
59.03434324701198
 20
2.078935523265991
 30
0.0
 10
58.94078974903464
 20
2.231983516494722
 30
0.0
 10
58.89411933741576
 20
2.305802213792471
 30
0.0
 10
58.81123470821496
 20
2.431229854980887
 30
0.0
 10
58.77483965837939
 20
2.482952193597883
 30
0.0
 10
58.72857476051692
 20
2.53826221956732
 30
0.0
 10
58.71876216603735
 20
2.541626096859847
 30
0.0
 10
58.72531704551241
 20
2.502295752106313
 30
0.0
 10
58.74071264377033
 20
2.461406187857141
 30
0.0
 10
58.80646487083254
 20
2.303937966359423
 30
0.0
 10
58.87606397956497
 20
2.15183745833985
 30
0.0
 10
59.02561408408877
 20
1.82867214419434
 30
0.0
 10
59.10819095141992
 20
1.651533004732196
 30
0.0
 10
59.22797181980508
 20
1.414092627987598
 30
0.0
 10
59.26762511067074
 20
1.339341716775258
 30
0.0
 10
59.34120168232033
 20
1.215552826715448
 30
0.0
 10
59.37576480597653
 20
1.16585866270839
 30
0.0
 10
59.43092047325094
 20
1.110099582427986
 30
0.0
 10
59.45157942981734
 20
1.104505176502741
 30
0.0
 10
59.46741367725218
 20
1.143193305211013
 30
0.0
 10
59.46248872141254
 20
1.186309615268992
 30
0.0
 10
59.43058427303959
 20
1.299914091670938
 30
0.0
 10
59.40461651240923
 20
1.368369056380438
 30
0.0
 10
59.3396948079253
 20
1.516988222879309
 30
0.0
 10
59.30180862034402
 20
1.59495278353934
 30
0.0
 10
59.26009625504701
 20
1.675529716813215
 30
0.0
  0
SPLINE
  5
224
330
1F
100
AcDbEntity
  8
1
  6
Continuous
370
    15
100
AcDbSpline
210
0.0
220
0.0
230
1.0
 70
     8
 71
     3
 72
    24
 73
    20
 74
     0
 42
0.0000000001
 43
0.0000000001
 40
0.0
 40
0.0
 40
0.0
 40
0.0
 40
0.125
 40
0.125
 40
0.25
 40
0.25
 40
0.375
 40
0.375
 40
0.4375
 40
0.4375
 40
0.5
 40
0.5
 40
0.625
 40
0.625
 40
0.75
 40
0.75
 40
0.875
 40
0.875
 40
1.0
 40
1.0
 40
1.0
 40
1.0
 10
58.47214051752513
 20
0.4973442458872084
 30
0.0
 10
58.54641649503122
 20
0.3783686581016923
 30
0.0
 10
58.61464042230372
 20
0.255035980939498
 30
0.0
 10
58.73380638019179
 20
-0.0040712344776725
 30
0.0
 10
58.78497798064902
 20
-0.1396804971186345
 30
0.0
 10
58.85883568486796
 20
-0.4314067594897955
 30
0.0
 10
58.88111207999955
 20
-0.5861834807351638
 30
0.0
 10
58.87325180551477
 20
-0.831441485724361
 30
0.0
 10
58.86366925033368
 20
-0.9135859290417709
 30
0.0
 10
58.82802189607838
 20
-1.07804377897049
 30
0.0
 10
58.80130228850311
 20
-1.161808628904635
 30
0.0
 10
58.69639562829317
 20
-1.402543530619318
 30
0.0
 10
58.59213307884672
 20
-1.550629313572445
 30
0.0
 10
58.3522229551534
 20
-1.800219305488782
 30
0.0
 10
58.21537882262896
 20
-1.905198920043325
 30
0.0
 10
57.93645736424759
 20
-2.079426607012774
 30
0.0
 10
57.79165100639935
 20
-2.150816269200196
 30
0.0
 10
57.4983117674343
 20
-2.270358801733293
 30
0.0
 10
57.35084998861555
 20
-2.317963852350444
 30
0.0
 10
57.20280115693753
 20
-2.356552772806683
 30
0.0
  0
SPLINE
  5
225
330
1F
100
AcDbEntity
  8
1
  6
Continuous
370
    15
100
AcDbSpline
210
0.0
220
0.0
230
1.0
 70
     8
 71
     3
 72
    14
 73
    10
 74
     0
 42
0.0000000001
 43
0.0000000001
 40
0.0
 40
0.0
 40
0.0
 40
0.0
 40
0.25
 40
0.25
 40
0.5
 40
0.5
 40
0.75
 40
0.75
 40
1.0
 40
1.0
 40
1.0
 40
1.0
 10
57.20280115693753
 20
-2.356552772806684
 30
0.0
 10
56.75472395125672
 20
-2.473344073705807
 30
0.0
 10
56.3143431338772
 20
-2.53821002000255
 30
0.0
 10
55.44619071447527
 20
-2.582871103660721
 30
0.0
 10
55.01591397289414
 20
-2.563442502475775
 30
0.0
 10
54.17890654803421
 20
-2.452385418788696
 30
0.0
 10
53.77263125762198
 20
-2.358407290745763
 30
0.0
 10
52.98691620264856
 20
-2.107422273949723
 30
0.0
 10
52.61043854216947
 20
-1.948595004242898
 30
0.0
 10
52.24928558037515
 20
-1.758580352333896
 30
0.0
  0
SPLINE
  5
226
330
1F
100
AcDbEntity
  8
1
  6
Continuous
370
    15
100
AcDbSpline
210
0.0
220
0.0
230
1.0
 70
     8
 71
     3
 72
    20
 73
    16
 74
     0
 42
0.0000000001
 43
0.0000000001
 40
0.0000311166745436
 40
0.0000311166745436
 40
0.0000311166745436
 40
0.0000311166745436
 40
0.125
 40
0.125
 40
0.25
 40
0.25
 40
0.375
 40
0.375
 40
0.5
 40
0.5
 40
0.625
 40
0.625
 40
0.75
 40
0.75
 40
0.7973169836999283
 40
0.7973169836999283
 40
0.7973169836999283
 40
0.7973169836999283
 10
17.43853327498959
 20
0.3464567816526944
 30
0.0
 10
16.81372245368669
 20
0.5033951465932312
 30
0.0
 10
16.18884441662581
 20
0.7138654546163821
 30
0.0
 10
14.93900000000147
 20
1.220727815608288
 30
0.0
 10
14.31399999999863
 20
1.517047614525389
 30
0.0
 10
13.06400000000136
 20
2.158762038941706
 30
0.0
 10
12.43899999999922
 20
2.503995917090341
 30
0.0
 10
11.18900000000079
 20
3.195077303972711
 30
0.0
 10
10.56400000000525
 20
3.540721840493027
 30
0.0
 10
9.313999999994734
 20
4.178071466551529
 30
0.0
 10
8.688999999997776
 20
4.46955262006006
 30
0.0
 10
7.439000000002209
 20
4.944421253111471
 30
0.0
 10
6.814000000000703
 20
5.127587816465762
 30
0.0
 10
5.952415081500078
 20
5.273197327850068
 30
0.0
 10
5.715830163000774
 20
5.302042183908117
 30
0.0
 10
5.479245244501498
 20
5.318850352131839
 30
0.0
  0
SPLINE
  5
227
330
1F
100
AcDbEntity
  8
1
  6
Continuous
370
    15
100
AcDbSpline
210
0.0
220
0.0
230
1.0
 70
     8
 71
     3
 72
    26
 73
    22
 74
     0
 42
0.0000000001
 43
0.0000000001
 40
0.0
 40
0.0
 40
0.0
 40
0.0
 40
0.2499999999999987
 40
0.2499999999999987
 40
0.3749999999999979
 40
0.3749999999999979
 40
0.4374999999999969
 40
0.4374999999999969
 40
0.4687499999999964
 40
0.4687499999999964
 40
0.499999999999996
 40
0.499999999999996
 40
0.5312499999999955
 40
0.5312499999999955
 40
0.5624999999999949
 40
0.5624999999999949
 40
0.6249999999999939
 40
0.6249999999999939
 40
0.7499999999999949
 40
0.7499999999999949
 40
1.0
 40
1.0
 40
1.0
 40
1.0
 10
4.003296715258187
 20
-5.558066376920906
 30
0.0
 10
3.683630940109736
 20
-5.571938769797532
 30
0.0
 10
3.378417419708654
 20
-5.538033386300152
 30
0.0
 10
2.964166979454034
 20
-5.403115307798298
 30
0.0
 10
2.832514806845352
 20
-5.344356706976089
 30
0.0
 10
2.666471925377123
 20
-5.225908167562784
 30
0.0
 10
2.616958748663378
 20
-5.181889282312496
 30
0.0
 10
2.567115675727563
 20
-5.10669207500775
 30
0.0
 10
2.554496655356985
 20
-5.079716025741389
 30
0.0
 10
2.548159412811202
 20
-5.023403034219922
 30
0.0
 10
2.554138922427739
 20
-4.993158559629734
 30
0.0
 10
2.61085586370676
 20
-4.937084372634295
 30
0.0
 10
2.663596146104779
 20
-4.914458831666468
 30
0.0
 10
2.789136436860488
 20
-4.889544363120517
 30
0.0
 10
2.857826649256935
 20
-4.88577886726718
 30
0.0
 10
3.059815097056372
 20
-4.8855066119921
 30
0.0
 10
3.193646563093167
 20
-4.899314893141156
 30
0.0
 10
3.580278865247834
 20
-4.949231817672997
 30
0.0
 10
3.82725594558687
 20
-4.996624883814434
 30
0.0
 10
4.556384976029733
 20
-5.139511808072196
 30
0.0
 10
5.021054609625679
 20
-5.237674926169945
 30
0.0
 10
5.479245244507524
 20
-5.318850352131403
 30
0.0
  0
SPLINE
  5
228
330
1F
100
AcDbEntity
  8
1
  6
Continuous
370
    15
100
AcDbSpline
210
0.0
220
0.0
230
1.0
 70
     8
 71
     3
 72
     9
 73
     5
 74
     0
 42
0.0000000001
 43
0.0000000001
 40
0.0
 40
0.0
 40
0.0
 40
0.0
 40
0.5316979153873555
 40
1.0
 40
1.0
 40
1.0
 40
1.0
 10
5.479245244507779
 20
-5.318850352131428
 30
0.0
 10
5.955473033783562
 20
-5.393634479553374
 30
0.0
 10
6.851146639968078
 20
-5.534286013549825
 30
0.0
 10
7.742348198730638
 20
-5.547221775773822
 30
0.0
 10
8.159699746509161
 20
-5.553279620189373
 30
0.0
  0
SPLINE
  5
229
330
1F
100
AcDbEntity
  8
1
  6
Continuous
370
    15
100
AcDbSpline
210
0.0
220
0.0
230
1.0
 70
     8
 71
     3
 72
    32
 73
    28
 74
     0
 42
0.0000000001
 43
0.0000000001
 40
0.0
 40
0.0
 40
0.0
 40
0.0
 40
0.1250000000000007
 40
0.1250000000000007
 40
0.1875000000000007
 40
0.1875000000000007
 40
0.2500000000000007
 40
0.2500000000000007
 40
0.3125000000000008
 40
0.3125000000000008
 40
0.3750000000000008
 40
0.3750000000000008
 40
0.4375000000000009
 40
0.4375000000000009
 40
0.5000000000000009
 40
0.5000000000000009
 40
0.6250000000000011
 40
0.6250000000000011
 40
0.7500000000000013
 40
0.7500000000000013
 40
0.812500000000001
 40
0.812500000000001
 40
0.8750000000000007
 40
0.8750000000000007
 40
0.9375000000000003
 40
0.9375000000000003
 40
1.0
 40
1.0
 40
1.0
 40
1.0
 10
17.43899999999999
 20
-5.444357230369202
 30
0.0
 10
16.86145312957473
 20
-5.308187154527253
 30
0.0
 10
16.29701955820758
 20
-5.058818180027787
 30
0.0
 10
15.43921282814202
 20
-4.52917758646719
 30
0.0
 10
15.14979449380376
 20
-4.324818977096998
 30
0.0
 10
14.57855556815949
 20
-3.876971179477797
 30
0.0
 10
14.29504873557857
 20
-3.632696689722814
 30
0.0
 10
13.7271668800152
 20
-3.107114007980716
 30
0.0
 10
13.4428289396296
 20
-2.825783654989748
 30
0.0
 10
12.86809300298955
 20
-2.228197008779023
 30
0.0
 10
12.58437061329513
 20
-1.918935367260447
 30
0.0
 10
12.01887856611628
 20
-1.28431324885137
 30
0.0
 10
11.73714180664922
 20
-0.9589252694001926
 30
0.0
 10
11.17059524117067
 20
-0.2959895516607256
 30
0.0
 10
10.88415167593527
 20
0.0435503682298428
 30
0.0
 10
10.03750489947552
 20
1.044323961526373
 30
0.0
 10
9.482154459148119
 20
1.697220476162678
 30
0.0
 10
8.353640910319057
 20
2.932106039518608
 30
0.0
 10
7.80554608004104
 20
3.486552567079126
 30
0.0
 10
6.976511304283135
 20
4.202111819559258
 30
0.0
 10
6.698101500800774
 20
4.421350694847561
 30
0.0
 10
6.151769740928315
 20
4.802549761449379
 30
0.0
 10
5.881638984438367
 20
4.966621899068599
 30
0.0
 10
5.342435247558853
 20
5.239031653174269
 30
0.0
 10
5.071921149837095
 20
5.347789332917884
 30
0.0
 10
4.533905240302459
 20
5.501629826206363
 30
0.0
 10
4.268191952268523
 20
5.546570911197056
 30
0.0
 10
4.003296715258628
 20
5.558066376920894
 30
0.0
  0
SPLINE
  5
22A
330
1F
100
AcDbEntity
  8
1
  6
Continuous
370
    15
100
AcDbSpline
210
0.0
220
0.0
230
1.0
 70
     8
 71
     3
 72
    14
 73
    10
 74
     0
 42
0.0000000001
 43
0.0000000001
 40
0.0
 40
0.0
 40
0.0
 40
0.0
 40
0.2500000000000007
 40
0.2500000000000007
 40
0.3750000000000011
 40
0.3750000000000011
 40
0.5000000000000014
 40
0.5000000000000014
 40
1.0
 40
1.0
 40
1.0
 40
1.0
 10
5.479245244507779
 20
5.318850352131434
 30
0.0
 10
6.496670912050575
 20
5.499104432939923
 30
0.0
 10
7.495220341731254
 20
5.580145179415204
 30
0.0
 10
8.989991424090902
 20
5.545703496387059
 30
0.0
 10
9.487499259727599
 20
5.508239456513482
 30
0.0
 10
10.48581155441644
 20
5.380539438900999
 30
0.0
 10
10.98842888537413
 20
5.289862125023176
 30
0.0
 10
13.49792857564455
 20
4.707310152750611
 30
0.0
 10
15.43516533976552
 20
3.847535571542941
 30
0.0
 10
17.43899999999999
 20
2.724214355081922
 30
0.0
  0
SPLINE
  5
22B
330
1F
100
AcDbEntity
  8
1
  6
Continuous
370
    15
100
AcDbSpline
210
0.0
220
0.0
230
1.0
 70
     8
 71
     3
 72
    14
 73
    10
 74
     0
 42
0.0000000001
 43
0.0000000001
 40
0.0
 40
0.0
 40
0.0
 40
0.0
 40
0.000609916196774
 40
0.000609916196774
 40
0.000609916196774
 40
0.0011024783585141
 40
0.0011024783585141
 40
0.0011024783585141
 40
0.0015950687131943
 40
0.0015950687131943
 40
0.0015950687131943
 40
0.0015950687131943
 10
58.1355583796431
 20
3.384819871785074
 30
0.0
 10
57.97918076520608
 20
3.480390478988365
 30
0.0
 10
57.82266847418904
 20
3.576122765736059
 30
0.0
 10
57.66649905344121
 20
3.672095241555869
 30
0.0
 10
57.54037872568415
 20
3.749601324680764
 30
0.0
 10
57.41448075647759
 20
3.82724892177698
 30
0.0
 10
57.28899499145746
 20
3.904789986444489
 30
0.0
 10
57.16350176850323
 20
3.982335659572157
 30
0.0
 10
57.03825342791913
 20
4.059766554214416
 30
0.0
 10
56.91318867077825
 20
4.136908670683506
 30
0.0
  0
SPLINE
  5
22C
330
1F
100
AcDbEntity
  8
1
  6
Continuous
370
    15
100
AcDbSpline
210
0.0
220
0.0
230
1.0
 70
     8
 71
     3
 72
     8
 73
     4
 74
     0
 42
0.0000000001
 43
0.0000000001
 40
0.0
 40
0.0
 40
0.0
 40
0.0
 40
1.0
 40
1.0
 40
1.0
 40
1.0
 10
57.83697152799942
 20
3.989522123305302
 30
0.0
 10
57.9339694292278
 20
3.801347797916422
 30
0.0
 10
58.03424528010234
 20
3.600039826570871
 30
0.0
 10
58.13555837964321
 20
3.384819871784987
 30
0.0
  0
SPLINE
  5
22D
330
1F
100
AcDbEntity
  8
1
  6
Continuous
370
    15
100
AcDbSpline
210
0.0
220
0.0
230
1.0
 70
     8
 71
     3
 72
    10
 73
     6
 74
     0
 42
0.0000000001
 43
0.0000000001
 40
0.0
 40
0.0
 40
0.0
 40
0.0
 40
0.1975101646469329
 40
0.5971295905649149
 40
1.0
 40
1.0
 40
1.0
 40
1.0
 10
5.199179712131751
 20
-5.265631758329903
 30
0.0
 10
5.11908194245818
 20
-5.305013196778658
 30
0.0
 10
4.876923527493403
 20
-5.424074523363037
 30
0.0
 10
4.478807487503175
 20
-5.511767070034131
 30
0.0
 10
4.162227806883137
 20
-5.542591649923148
 30
0.0
 10
4.003296715258628
 20
-5.558066376920888
 30
0.0
  0
SPLINE
  5
22E
330
1F
100
AcDbEntity
  8
1
  6
Continuous
370
    15
100
AcDbSpline
210
0.0
220
0.0
230
1.0
 70
     8
 71
     3
 72
    14
 73
    10
 74
     0
 42
0.0000000001
 43
0.0000000001
 40
0.0
 40
0.0
 40
0.0
 40
0.0
 40
0.25
 40
0.25
 40
0.5
 40
0.5
 40
0.75
 40
0.75
 40
1.0
 40
1.0
 40
1.0
 40
1.0
 10
57.70867766312836
 20
4.238718584813288
 30
0.0
 10
57.72646511576235
 20
4.20550504687273
 30
0.0
 10
57.74113544090988
 20
4.177723474030143
 30
0.0
 10
57.76212676467912
 20
4.137210952230045
 30
0.0
 10
57.76777567655705
 20
4.12576832139895
 30
0.0
 10
57.77685961602333
 20
4.107053834536671
 30
0.0
 10
57.78112362557948
 20
4.098240420184252
 30
0.0
 10
57.80128129391906
 20
4.058693842543501
 30
0.0
 10
57.81745767017418
 20
4.02737868499884
 30
0.0
 10
57.83697152799937
 20
3.989522123305356
 30
0.0
  0
SPLINE
  5
22F
330
1F
100
AcDbEntity
  8
1
  6
Continuous
370
    15
100
AcDbSpline
210
0.0
220
0.0
230
1.0
 70
     8
 71
     3
 72
    12
 73
     8
 74
     0
 42
0.0000000001
 43
0.0000000001
 40
0.0
 40
0.0
 40
0.0
 40
0.0
 40
0.2546356538397797
 40
0.5093156030587562
 40
0.764170935037464
 40
0.8260881838106213
 40
1.0
 40
1.0
 40
1.0
 40
1.0
 10
57.83697152799942
 20
3.989522123305302
 30
0.0
 10
57.40350854363305
 20
4.229128132330476
 30
0.0
 10
56.53650717144848
 20
4.70838183126434
 30
0.0
 10
55.23562970753099
 20
5.188828040644109
 30
0.0
 10
54.26255441192177
 20
5.456524335255215
 30
0.0
 10
53.42678775956699
 20
5.501164148501377
 30
0.0
 10
53.02511837146664
 20
5.531318591984021
 30
0.0
 10
52.72890783947258
 20
5.553555944420118
 30
0.0
  0
SPLINE
  5
230
330
1F
100
AcDbEntity
  8
1
  6
Continuous
370
    15
100
AcDbSpline
210
0.0
220
0.0
230
1.0
 70
     8
 71
     3
 72
    29
 73
    25
 74
     0
 42
0.0000000001
 43
0.0000000001
 40
0.0
 40
0.0
 40
0.0
 40
0.0
 40
0.0241982006028346
 40
0.0749128160589294
 40
0.1228487700663123
 40
0.1708095024709014
 40
0.2188122867964895
 40
0.266786752242133
 40
0.3147282191181844
 40
0.3626614152839156
 40
0.4106111444323659
 40
0.458602058750054
 40
0.5065929730677423
 40
0.5545427022161925
 40
0.6024758983819237
 40
0.6504173652579749
 40
0.6983918307036186
 40
0.7463946150292067
 40
0.7943553474337957
 40
0.8422913014411788
 40
0.8902272554485614
 40
0.9381879878531503
 40
0.9861907721787384
 40
1.0
 40
1.0
 40
1.0
 40
1.0
 10
52.06138801744277
 20
-5.531102250516773
 30
0.0
 10
51.84254226402817
 20
-5.5373170182109
 30
0.0
 10
51.16503933974442
 20
-5.556556702878383
 30
0.0
 10
50.05407564761151
 20
-5.336219460856183
 30
0.0
 10
48.72851580610109
 20
-4.905311467919045
 30
0.0
 10
47.42719763157364
 20
-4.281937178723215
 30
0.0
 10
46.12481956050714
 20
-3.497596111048719
 30
0.0
 10
44.82314024715864
 20
-2.57764568326901
 30
0.0
 10
43.52245294325927
 20
-1.558925990985285
 30
0.0
 10
42.22205735082318
 20
-0.4803481825631684
 30
0.0
 10
40.9210928655352
 20
0.6169028158059327
 30
0.0
 10
39.61899999878691
 20
1.690171939182024
 30
0.0
 10
38.31690713931531
 20
2.698504808046005
 30
0.0
 10
37.01594263221853
 20
3.603369056185929
 30
0.0
 10
35.71554711971135
 20
4.369571206827728
 30
0.0
 10
34.41485951779623
 20
4.967942119727936
 30
0.0
 10
33.11318131755883
 20
5.375402114206583
 30
0.0
 10
31.81079909058266
 20
5.576156640354827
 30
0.0
 10
30.50949641211844
 20
5.562867359380748
 30
0.0
 10
29.20900154842889
 20
5.335124242553208
 30
0.0
 10
27.90849739256555
 20
4.904817202245359
 30
0.0
 10
26.60722261318614
 20
4.276833957752677
 30
0.0
 10
25.61389682591994
 20
3.698513443508161
 30
0.0
 10
25.05484462231527
 20
3.300625954308006
 30
0.0
 10
24.9299485224243
 20
3.211735157927829
 30
0.0
  0
SPLINE
  5
231
330
1F
100
AcDbEntity
  8
1
  6
Continuous
370
    15
100
AcDbSpline
210
0.0
220
0.0
230
1.0
 70
     8
 71
     3
 72
    10
 73
     6
 74
     0
 42
0.0000000001
 43
0.0000000001
 40
0.0
 40
0.0
 40
0.0
 40
0.0
 40
0.5
 40
0.5
 40
1.0
 40
1.0
 40
1.0
 40
1.0
 10
58.46497718368718
 20
0.5088548189877296
 30
0.0
 10
58.19955240172163
 20
1.023445430965336
 30
0.0
 10
57.93450509011822
 20
1.591790844538004
 30
0.0
 10
57.41324099646402
 20
2.813389640735291
 30
0.0
 10
57.15920182472473
 20
3.461954585684562
 30
0.0
 10
56.91318867077831
 20
4.136908670683482
 30
0.0
  0
SPLINE
  5
232
330
1F
100
AcDbEntity
  8
1
  6
Continuous
370
    15
100
AcDbSpline
210
0.0
220
0.0
230
1.0
 70
     8
 71
     3
 72
    18
 73
    14
 74
     0
 42
0.0000000001
 43
0.0000000001
 40
0.0
 40
0.0
 40
0.0
 40
0.0
 40
0.0530516863409267
 40
0.1472771354029148
 40
0.2415025844649021
 40
0.3357767392562768
 40
0.4301335535299147
 40
0.5244347027138527
 40
0.6186709881623616
 40
0.7128910162647904
 40
0.8071435424733552
 40
0.9014770244310335
 40
1.0
 40
1.0
 40
1.0
 40
1.0
 10
31.24156077852371
 20
-5.534645078710158
 30
0.0
 10
30.99746681672826
 20
-5.53836441822047
 30
0.0
 10
30.3198359638397
 20
-5.548689701099305
 30
0.0
 10
29.20901416717493
 20
-5.329264172341295
 30
0.0
 10
27.908499375871
 20
-4.904987099639515
 30
0.0
 10
26.60720203461568
 20
-4.282022565511952
 30
0.0
 10
25.304818398875
 20
-3.497579337565183
 30
0.0
 10
24.00314049156026
 20
-2.577627432261778
 30
0.0
 10
22.70245312593357
 20
-1.559015677091908
 30
0.0
 10
21.40205637585106
 20
-0.480007679797402
 30
0.0
 10
20.10109658558258
 20
0.6156295282322218
 30
0.0
 10
18.7797043284641
 20
1.710911169350533
 30
0.0
 10
17.89215868744685
 20
2.381502574418959
 30
0.0
 10
17.43874562247748
 20
2.724082032040634
 30
0.0
  0
SPLINE
  5
233
330
1F
100
AcDbEntity
  8
1
  6
Continuous
370
    15
100
AcDbSpline
210
0.0
220
0.0
230
1.0
 70
     8
 71
     3
 72
    16
 73
    12
 74
     0
 42
0.0000000001
 43
0.0000000001
 40
0.0
 40
0.0
 40
0.0
 40
0.0
 40
0.1233530005188342
 40
0.2467564332028445
 40
0.370101666675426
 40
0.4933963622159084
 40
0.6166657229415828
 40
0.7331811367548148
 40
0.8497567781209117
 40
0.9664346328898352
 40
1.0
 40
1.0
 40
1.0
 40
1.0
 10
56.91318867077794
 20
4.136908670683688
 30
0.0
 10
56.45416444601611
 20
4.377022319559415
 30
0.0
 10
55.53592832707682
 20
4.857347786395941
 30
0.0
 10
54.15827042476479
 20
5.320973576338971
 30
0.0
 10
52.78125362400129
 20
5.568659815222664
 30
0.0
 10
51.40494481449616
 20
5.573624325108648
 30
0.0
 10
50.05407360870885
 20
5.343496493754338
 30
0.0
 10
48.72851103415348
 20
4.904801654367613
 30
0.0
 10
47.42721883169042
 20
4.27683826767819
 30
0.0
 10
46.43389704782257
 20
3.698513190596525
 30
0.0
 10
45.87484466283723
 20
3.30062590812364
 30
0.0
 10
45.74994852242466
 20
3.211735157927826
 30
0.0
  0
SPLINE
  5
234
330
1F
100
AcDbEntity
  8
1
  6
Continuous
370
    15
100
AcDbSpline
210
0.0
220
0.0
230
1.0
 70
     8
 71
     3
 72
     8
 73
     4
 74
     0
 42
0.0000000001
 43
0.0000000001
 40
0.0
 40
0.0
 40
0.0
 40
0.0
 40
1.0
 40
1.0
 40
1.0
 40
1.0
 10
58.46497718369604
 20
0.5088548189895539
 30
0.0
 10
58.46735984493657
 20
0.50501407472004
 30
0.0
 10
58.46974761358262
 20
0.5011772099574632
 30
0.0
 10
58.47214051752508
 20
0.4973442458872182
 30
0.0
  0
SPLINE
  5
235
330
1F
100
AcDbEntity
  8
1
  6
Continuous
370
    15
100
AcDbSpline
210
0.0
220
0.0
230
1.0
 70
     8
 71
     3
 72
    27
 73
    23
 74
     0
 42
0.0000000001
 43
0.0000000001
 40
0.0
 40
0.0
 40
0.0
 40
0.0
 40
0.0067293332394983
 40
0.0619064554607075
 40
0.1170891811695209
 40
0.172278896851416
 40
0.2274769794632694
 40
0.2826750620751228
 40
0.337864777757018
 40
0.3930475034658311
 40
0.4482246256870405
 40
0.5033975385629609
 40
0.5585676419984224
 40
0.6137363397494329
 40
0.6689050375004429
 40
0.7240751409359048
 40
0.7792480538118248
 40
0.8344251760330342
 40
0.8896079017418474
 40
0.9447976174237428
 40
0.999995700035596
 40
1.0
 40
1.0
 40
1.0
 40
1.0
 10
45.74994852242428
 20
-3.211735157927823
 30
0.0
 10
45.68949768569803
 20
-3.253287512720086
 30
0.0
 10
45.1333806235512
 20
-3.635548118590534
 30
0.0
 10
44.08151152311347
 20
-4.208543188862012
 30
0.0
 10
42.5942567318579
 20
-4.86322488746314
 30
0.0
 10
41.10674958581955
 20
-5.259138723404208
 30
0.0
 10
39.61900004242378
 20
-5.39527824078726
 30
0.0
 10
38.13125024449843
 20
-5.259762040005744
 30
0.0
 10
36.64374386190073
 20
-4.860732193519472
 30
0.0
 10
35.15648627189134
 20
-4.217889115644798
 30
0.0
 10
33.66943534879897
 20
-3.363594983644788
 30
0.0
 10
32.18253786217986
 20
-2.340674776084375
 30
0.0
 10
30.69574324144543
 20
-1.200421097473293
 30
0.0
 10
29.20900000533953
 20
-0.0000070004534045
 30
0.0
 10
27.72225673719646
 20
1.200449099641666
 30
0.0
 10
26.23546221257789
 20
2.340576763677658
 30
0.0
 10
24.74856437350548
 20
3.363959061745372
 30
0.0
 10
23.2615147642581
 20
4.216530653003255
 30
0.0
 10
21.77425227059902
 20
4.865802751153594
 30
0.0
 10
20.28676419209279
 20
5.240834681248569
 30
0.0
 10
19.29487186796803
 20
5.390898748937301
 30
0.0
 10
18.79892273653712
 20
5.349993628132068
 30
0.0
 10
18.79888410480583
 20
5.349990441846347
 30
0.0
  0
SPLINE
  5
236
330
1F
100
AcDbEntity
  8
1
  6
Continuous
370
    15
100
AcDbSpline
210
0.0
220
0.0
230
1.0
 70
     8
 71
     3
 72
    14
 73
    10
 74
     0
 42
0.0000000001
 43
0.0000000001
 40
0.0
 40
0.0
 40
0.0
 40
0.0
 40
0.25
 40
0.25
 40
0.5
 40
0.5
 40
0.75
 40
0.75
 40
1.0
 40
1.0
 40
1.0
 40
1.0
 10
57.07724057450628
 20
5.350000000000004
 30
0.0
 10
57.07522389834071
 20
5.350000000000004
 30
0.0
 10
57.08998316067021
 20
5.324728674515895
 30
0.0
 10
57.14840880163226
 20
5.226625159131081
 30
0.0
 10
57.19262412837361
 20
5.15291129798328
 30
0.0
 10
57.30558741939489
 20
4.960793743040319
 30
0.0
 10
57.37351864824683
 20
4.843798568365937
 30
0.0
 10
57.52808534982967
 20
4.570454267950648
 30
0.0
 10
57.6152490081173
 20
4.413172804975832
 30
0.0
 10
57.70867766312818
 20
4.238718584813543
 30
0.0
  0
SPLINE
  5
237
330
1F
100
AcDbEntity
  8
1
  6
Continuous
370
    15
100
AcDbSpline
210
0.0
220
0.0
230
1.0
 70
     8
 71
     3
 72
    24
 73
    20
 74
     0
 42
0.0000000001
 43
0.0000000001
 40
0.0
 40
0.0
 40
0.0
 40
0.0
 40
0.1250000000000001
 40
0.1250000000000001
 40
0.1875000000000001
 40
0.1875000000000001
 40
0.2500000000000001
 40
0.2500000000000001
 40
0.3125
 40
0.3125
 40
0.3750000000000001
 40
0.3750000000000001
 40
0.5000000000000002
 40
0.5000000000000002
 40
0.7500000000000002
 40
0.7500000000000002
 40
0.8750000000000001
 40
0.8750000000000001
 40
1.0
 40
1.0
 40
1.0
 40
1.0
 10
52.24928558038214
 20
-1.758580352339444
 30
0.0
 10
52.20155913831161
 20
-2.09863135851593
 30
0.0
 10
52.20966776354862
 20
-2.421457899147949
 30
0.0
 10
52.30272964020642
 20
-2.880741333199448
 30
0.0
 10
52.34703865148816
 20
-3.027197188537754
 30
0.0
 10
52.45694024639064
 20
-3.301793259486979
 30
0.0
 10
52.52277493777938
 20
-3.431110130915893
 30
0.0
 10
52.67372143124536
 20
-3.675607960320603
 30
0.0
 10
52.75875591195813
 20
-3.790322692344382
 30
0.0
 10
52.94079469142957
 20
-4.001625298222334
 30
0.0
 10
53.03835060209397
 20
-4.099128125223828
 30
0.0
 10
53.34757761387368
 20
-4.370993684043531
 30
0.0
 10
53.5777041607086
 20
-4.52585444008057
 30
0.0
 10
54.30077053575721
 20
-4.916820310492016
 30
0.0
 10
54.82584810015061
 20
-5.084979172062368
 30
0.0
 10
55.65455373311436
 20
-5.248910420331688
 30
0.0
 10
55.93640112858366
 20
-5.287770422266333
 30
0.0
 10
56.50311974176492
 20
-5.338227327371321
 30
0.0
 10
56.7890538089485
 20
-5.349999999999997
 30
0.0
 10
57.07724057450628
 20
-5.349999999999995
 30
0.0
  0
SPLINE
  5
238
330
1F
100
AcDbEntity
  8
1
  6
Continuous
370
    15
100
AcDbSpline
210
0.0
220
0.0
230
1.0
 70
     8
 71
     3
 72
    13
 73
     9
 74
     0
 42
0.0000000001
 43
0.0000000001
 40
0.0
 40
0.0
 40
0.0
 40
0.0
 40
0.0242110298820467
 40
0.2227292050645562
 40
0.421267540670244
 40
0.6198310250449321
 40
0.8184246122521035
 40
1.0
 40
1.0
 40
1.0
 40
1.0
 10
24.9299485224247
 20
-3.211735157927819
 30
0.0
 10
24.86949768452345
 20
-3.253288018430349
 30
0.0
 10
24.31338061156845
 20
-3.635553276578237
 30
0.0
 10
23.26151205486332
 20
-4.208314299762075
 30
0.0
 10
21.77425484152295
 20
-4.86403857294113
 30
0.0
 10
20.28675661673893
 20
-5.256112298497729
 30
0.0
 10
18.84147377433632
 20
-5.402273919272681
 30
0.0
 10
17.89216441092401
 20
-5.290975593211042
 30
0.0
 10
17.43875756525838
 20
-5.237817555491834
 30
0.0
  0
SPLINE
  5
239
330
1F
100
AcDbEntity
  8
1
  6
Continuous
370
    15
100
AcDbSpline
210
0.0
220
0.0
230
1.0
 70
     8
 71
     3
 72
    30
 73
    26
 74
     0
 42
0.0000000001
 43
0.0000000001
 40
0.0
 40
0.0
 40
0.0
 40
0.0
 40
0.0625
 40
0.0625
 40
0.125
 40
0.125
 40
0.1875
 40
0.1875
 40
0.25
 40
0.25
 40
0.3125
 40
0.3125
 40
0.375
 40
0.375
 40
0.4375
 40
0.4375
 40
0.5
 40
0.5
 40
0.625
 40
0.625
 40
0.75
 40
0.75
 40
0.875
 40
0.875
 40
1.0
 40
1.0
 40
1.0
 40
1.0
 10
52.24928558037493
 20
-1.758580352333728
 30
0.0
 10
51.98692943110405
 20
-1.558170301476556
 30
0.0
 10
51.72237831648686
 20
-1.353038176390762
 30
0.0
 10
51.19449324840849
 20
-0.9376411344739743
 30
0.0
 10
50.93276478010409
 20
-0.727815070118492
 30
0.0
 10
50.4083106617395
 20
-0.3054644548538699
 30
0.0
 10
50.14380841404324
 20
-0.0924569044474444
 30
0.0
 10
49.61585720606115
 20
0.3327099685218311
 30
0.0
 10
49.35387179769771
 20
0.5444720335784173
 30
0.0
 10
48.82968509074911
 20
0.9644937634865016
 30
0.0
 10
48.56523646058647
 20
1.173346494253059
 30
0.0
 10
48.03722855158913
 20
1.58426925848159
 30
0.0
 10
47.77496238962044
 20
1.786009804868388
 30
0.0
 10
47.25105230951785
 20
2.179982725970564
 30
0.0
 10
46.9866620442774
 20
2.372886669969293
 30
0.0
 10
46.45860687653384
 20
2.74635441619074
 30
0.0
 10
46.19603616403174
 20
2.926672733255745
 30
0.0
 10
45.41059978277707
 20
3.445198362108451
 30
0.0
 10
44.87875735309176
 20
3.763086883980015
 30
0.0
 10
43.83209886104009
 20
4.318866522263657
 30
0.0
 10
43.29964423445718
 20
4.559779849897665
 30
0.0
 10
42.25359408830388
 20
4.948635301546023
 30
0.0
 10
41.7205085553688
 20
5.098904101121203
 30
0.0
 10
40.67508504885615
 20
5.298939882088234
 30
0.0
 10
40.14134993729899
 20
5.350002529597599
 30
0.0
 10
39.61896063227414
 20
5.349999999904682
 30
0.0
  0
SPLINE
  5
23A
330
1F
100
AcDbEntity
  8
1
  6
Continuous
370
    15
100
AcDbSpline
210
0.0
220
0.0
230
1.0
 70
     8
 71
     3
 72
    20
 73
    16
 74
     0
 42
0.0000000001
 43
0.0000000001
 40
0.0
 40
0.0
 40
0.0
 40
0.0
 40
0.0003802357670126
 40
0.001018257586091
 40
0.0016276485577459
 40
0.0022691268200127
 40
0.0029954337055969
 40
0.0048327473758183
 40
0.0104749663568344
 40
0.0619360772257739
 40
0.1595980756813381
 40
0.3033388767535716
 40
0.4944861038074946
 40
0.7327401806295834
 40
1.0
 40
1.0
 40
1.0
 40
1.0
 10
56.29280644739401
 20
4.803036447363169
 30
0.0
 10
56.29283301603919
 20
4.803061285728224
 30
0.0
 10
56.29290416590681
 20
4.803127801968516
 30
0.0
 10
56.29248985527815
 20
4.803469900616004
 30
0.0
 10
56.29150058226338
 20
4.804073875209962
 30
0.0
 10
56.28995151851618
 20
4.804896687047378
 30
0.0
 10
56.28700122852086
 20
4.806359324647363
 30
0.0
 10
56.27866073571926
 20
4.810233905551232
 30
0.0
 10
56.21925063825
 20
4.836144417196129
 30
0.0
 10
56.0757707730902
 20
4.893885833811324
 30
0.0
 10
55.81044913920777
 20
4.995399325438022
 30
0.0
 10
55.42681972079003
 20
5.128544887807858
 30
0.0
 10
54.92162145613713
 20
5.277024393860475
 30
0.0
 10
54.31108849830372
 20
5.420834483911598
 30
0.0
 10
53.87101213674805
 20
5.478612552975299
 30
0.0
 10
53.63834844582988
 20
5.509159203458782
 30
0.0
  0
SPLINE
  5
23B
330
1F
100
AcDbEntity
  8
1
  6
Continuous
370
    15
100
AcDbSpline
210
0.0
220
0.0
230
1.0
 70
     8
 71
     3
 72
     9
 73
     5
 74
     0
 42
0.0000000001
 43
0.0000000001
 40
0.0
 40
0.0
 40
0.0
 40
0.0
 40
0.0477233482143469
 40
1.0
 40
1.0
 40
1.0
 40
1.0
 10
53.63834844582988
 20
5.509159203458784
 30
0.0
 10
53.62385963192434
 20
5.511362767400981
 30
0.0
 10
53.32025951903034
 20
5.557536475337425
 30
0.0
 10
53.01722750557431
 20
5.559310567255899
 30
0.0
 10
52.72865719441651
 20
5.560999993567985
 30
0.0
  0
SPLINE
  5
23C
330
1F
100
AcDbEntity
  8
1
  6
Continuous
370
    15
100
AcDbSpline
210
0.0
220
0.0
230
1.0
 70
     8
 71
     3
 72
    10
 73
     6
 74
     0
 42
0.0000000001
 43
0.0000000001
 40
0.0
 40
0.0
 40
0.0
 40
0.0
 40
0.4745035201858016
 40
0.8810067207636798
 40
1.0
 40
1.0
 40
1.0
 40
1.0
 10
31.90885303735655
 20
-5.560999999045082
 30
0.0
 10
32.20249349196814
 20
-5.550984092097028
 30
0.0
 10
32.74769327025348
 20
-5.532387641364005
 30
0.0
 10
33.36095196090304
 20
-5.442795245856005
 30
0.0
 10
33.68113703385035
 20
-5.367092483120727
 30
0.0
 10
33.75363965424083
 20
-5.349950370221502
 30
0.0
  0
SPLINE
  5
23D
330
1F
100
AcDbEntity
  8
1
  6
Continuous
370
    15
100
AcDbSpline
210
0.0
220
0.0
230
1.0
 70
     8
 71
     3
 72
     9
 73
     5
 74
     0
 42
0.0000000001
 43
0.0000000001
 40
0.0
 40
0.0
 40
0.0
 40
0.0
 40
0.1347745911736906
 40
1.0
 40
1.0
 40
1.0
 40
1.0
 10
33.07718856052935
 20
5.472115709543771
 30
0.0
 10
33.02515904776456
 20
5.481431779108952
 30
0.0
 10
32.6391106664513
 20
5.55055511670584
 30
0.0
 10
32.24759893514016
 20
5.556154913003823
 30
0.0
 10
31.90885303735618
 20
5.56099999904509
 30
0.0
  0
SPLINE
  5
23E
330
1F
100
AcDbEntity
  8
1
  6
Continuous
370
    15
100
AcDbSpline
210
0.0
220
0.0
230
1.0
 70
     8
 71
     3
 72
    21
 73
    17
 74
     0
 42
0.0000000001
 43
0.0000000001
 40
0.0
 40
0.0
 40
0.0
 40
0.0
 40
0.0006614251282239
 40
0.0017442811929667
 40
0.002739069466283
 40
0.0037550967280065
 40
0.0048956820641574
 40
0.0062357198142809
 40
0.009678013962009
 40
0.0201288214784534
 40
0.0357023765342192
 40
0.1071992021893132
 40
0.189035966647469
 40
0.4401912117540683
 40
0.7442354080691637
 40
1.0
 40
1.0
 40
1.0
 40
1.0
 10
35.53700281560697
 20
4.792318582307299
 30
0.0
 10
35.53703901651235
 20
4.792347374364041
 30
0.0
 10
35.5371344839443
 20
4.792423303506947
 30
0.0
 10
35.53653660988298
 20
4.79286481888165
 30
0.0
 10
35.53509009419276
 20
4.793675068385468
 30
0.0
 10
35.53280568122727
 20
4.794803992978646
 30
0.0
 10
35.5298113922394
 20
4.796196529515409
 30
0.0
 10
35.52444020512274
 20
4.798604316618547
 30
0.0
 10
35.51041114033222
 20
4.804654049112883
 30
0.0
 10
35.4845185181004
 20
4.815383977614482
 30
0.0
 10
35.40254793376064
 20
4.848625939595976
 30
0.0
 10
35.26779924290929
 20
4.901171225340906
 30
0.0
 10
34.94387972865207
 20
5.022332617640492
 30
0.0
 10
34.44441242570969
 20
5.187597985382883
 30
0.0
 10
33.81532058411128
 20
5.35650612302625
 30
0.0
 10
33.37583417166164
 20
5.424337837702259
 30
0.0
 10
33.17504228468266
 20
5.455328688843479
 30
0.0
  0
SPLINE
  5
23F
330
1F
100
AcDbEntity
  8
1
  6
Continuous
370
    15
100
AcDbSpline
210
0.0
220
0.0
230
1.0
 70
     8
 71
     3
 72
    10
 73
     6
 74
     0
 42
0.0000000001
 43
0.0000000001
 40
0.0
 40
0.0
 40
0.0
 40
0.0
 40
0.5022733257959025
 40
0.9311755561335861
 40
1.0
 40
1.0
 40
1.0
 40
1.0
 10
52.72862554666602
 20
-5.560999992226693
 30
0.0
 10
53.04103696322193
 20
-5.549782172838669
 30
0.0
 10
53.62022335360603
 20
-5.52898521096398
 30
0.0
 10
54.23998452142541
 20
-5.437429435628859
 30
0.0
 10
54.54999637907718
 20
-5.360560944598335
 30
0.0
 10
54.59286407092633
 20
-5.349931755084862
 30
0.0
  0
LWPOLYLINE
  5
240
330
1F
100
AcDbEntity
  8
1
  6
Continuous
370
    15
100
AcDbPolyline
 90
        3
 70
   128
 43
0.0
 10
21.6916769698
 20
-0.7185122436999967
 10
21.6918556293
 20
-0.7186862880999963
 10
21.69203428829999
 20
-0.718967487899997
  0
SPLINE
  5
241
330
1F
100
AcDbEntity
  8
1
  6
Continuous
370
    15
100
AcDbSpline
210
0.0
220
0.0
230
1.0
 70
     8
 71
     3
 72
     9
 73
     5
 74
     0
 42
0.0000000001
 43
0.0000000001
 40
0.0
 40
0.0
 40
0.0
 40
0.0
 40
0.4993018387010122
 40
1.0
 40
1.0
 40
1.0
 40
1.0
 10
18.79888431002851
 20
5.349999999176827
 30
0.0
 10
18.5725108447252
 20
5.349997884268478
 30
0.0
 10
18.11913084938561
 20
5.349993648537338
 30
0.0
 10
17.66573744346937
 20
5.349997717169625
 30
0.0
 10
17.43872419878204
 20
5.349999754326328
 30
0.0
  0
SPLINE
  5
242
330
1F
100
AcDbEntity
  8
1
  6
Continuous
370
    15
100
AcDbSpline
210
0.0
220
0.0
230
1.0
 70
     8
 71
     3
 72
     9
 73
     5
 74
     0
 42
0.0000000001
 43
0.0000000001
 40
0.0
 40
0.0
 40
0.0
 40
0.0
 40
0.4777264799841707
 40
1.0
 40
1.0
 40
1.0
 40
1.0
 10
57.07685088739203
 20
5.349999985415109
 30
0.0
 10
56.67828951435137
 20
5.34999993198993
 30
0.0
 10
55.84400171633379
 20
5.349999820157783
 30
0.0
 10
55.00971312795329
 20
5.349999896319935
 30
0.0
 10
54.57398629019076
 20
5.349999936097415
 30
0.0
  0
SPLINE
  5
243
330
1F
100
AcDbEntity
  8
1
  6
Continuous
370
    15
100
AcDbSpline
210
0.0
220
0.0
230
1.0
 70
     8
 71
     3
 72
    19
 73
    15
 74
     0
 42
0.0000000001
 43
0.0000000001
 40
0.0
 40
0.0
 40
0.0
 40
0.0
 40
0.0857866045548293
 40
0.1503044178124506
 40
0.1941531417347741
 40
0.289529186813325
 40
0.3883747238061831
 40
0.5003345017893817
 40
0.6291748492827204
 40
0.743079282687553
 40
0.7845009450405421
 40
0.8282772774883017
 40
0.8977318425472642
 40
1.0
 40
1.0
 40
1.0
 40
1.0
 10
32.54042824829179
 20
-5.349999999523904
 30
0.0
 10
32.74278409399591
 20
-5.349985856973209
 30
0.0
 10
33.09732636475406
 20
-5.349961078187995
 30
0.0
 10
33.5556805222356
 20
-5.349910970650309
 30
0.0
 10
34.03689943914691
 20
-5.350011577879588
 30
0.0
 10
34.59539216247998
 20
-5.3498082850606
 30
0.0
 10
35.31957988925296
 20
-5.349933187537774
 30
0.0
 10
36.12011288840881
 20
-5.350022055829684
 30
0.0
 10
36.95791229109023
 20
-5.34999462229947
 30
0.0
 10
37.62868728413991
 20
-5.3499986198257
 30
0.0
 10
38.09874160521374
 20
-5.350001926258209
 30
0.0
 10
38.46350388183001
 20
-5.349961169100334
 30
0.0
 10
38.97245566107478
 20
-5.349963132377149
 30
0.0
 10
39.37765002733039
 20
-5.349986238956613
 30
0.0
 10
39.6189604412412
 20
-5.34999999990375
 30
0.0
  0
SPLINE
  5
244
330
1F
100
AcDbEntity
  8
1
  6
Continuous
370
    15
100
AcDbSpline
210
0.0
220
0.0
230
1.0
 70
     8
 71
     3
 72
    19
 73
    15
 74
     0
 42
0.0000000001
 43
0.0000000001
 40
0.0
 40
0.0
 40
0.0
 40
0.0
 40
0.1077980776069061
 40
0.1870803556555095
 40
0.2383371082755703
 40
0.2813184517488159
 40
0.3238316100358958
 40
0.3677718414255734
 40
0.4826137660641983
 40
0.6062304805008015
 40
0.7420679336298404
 40
0.8619942700351831
 40
0.9777111755736743
 40
1.0
 40
1.0
 40
1.0
 40
1.0
 10
39.6189604412416
 20
5.349999999903758
 30
0.0
 10
39.40931851013886
 20
5.349990163606037
 30
0.0
 10
39.04549117757708
 20
5.349973093004063
 30
0.0
 10
38.58160787835368
 20
5.349952469934297
 30
0.0
 10
38.24412985350085
 20
5.349991569407052
 30
0.0
 10
37.97818230045033
 20
5.350000347660722
 30
0.0
 10
37.7263052425391
 20
5.349999714432478
 30
0.0
 10
37.33462007381249
 20
5.35000017358222
 30
0.0
 10
36.78518240696968
 20
5.349995535915642
 30
0.0
 10
36.05654968884892
 20
5.350017081503262
 30
0.0
 10
35.31960837171477
 20
5.349933374368982
 30
0.0
 10
34.5953228986032
 20
5.349806066515206
 30
0.0
 10
34.09682858580507
 20
5.349995423960583
 30
0.0
 10
33.82827941597947
 20
5.349959496707914
 30
0.0
 10
33.78490697559164
 20
5.349953694222559
 30
0.0
  0
SPLINE
  5
245
330
1F
100
AcDbEntity
  8
1
  6
Continuous
370
    15
100
AcDbSpline
210
0.0
220
0.0
230
1.0
 70
     8
 71
     3
 72
    11
 73
     7
 74
     0
 42
0.0000000001
 43
0.0000000001
 40
0.0
 40
0.0
 40
0.0
 40
0.0
 40
0.2612903992422199
 40
0.6014390734276364
 40
0.7917959403867018
 40
1.0
 40
1.0
 40
1.0
 40
1.0
 10
53.36040771445443
 20
-5.34999999927769
 30
0.0
 10
53.68403406320763
 20
-5.349957409206589
 30
0.0
 10
54.4289582238174
 20
-5.349859375245242
 30
0.0
 10
55.4098736864662
 20
-5.350021590343831
 30
0.0
 10
56.32534317175532
 20
-5.349995412793809
 30
0.0
 10
56.81924155917989
 20
-5.349998404927447
 30
0.0
 10
57.07724891123675
 20
-5.349999967986764
 30
0.0
  0
SPLINE
  5
246
330
1F
100
AcDbEntity
  8
1
  6
Continuous
370
    15
100
AcDbSpline
210
0.0
220
0.0
230
1.0
 70
     8
 71
     3
 72
     9
 73
     5
 74
     0
 42
0.0000000001
 43
0.0000000001
 40
0.0
 40
0.0
 40
0.0
 40
0.0
 40
0.5006981612989902
 40
1.0
 40
1.0
 40
1.0
 40
1.0
 10
17.43872419878204
 20
-5.34999975432632
 30
0.0
 10
17.66573744346945
 20
-5.349997717169617
 30
0.0
 10
18.11913084938581
 20
-5.349993648537333
 30
0.0
 10
18.57251084472557
 20
-5.349997884268471
 30
0.0
 10
18.79888431002891
 20
-5.349999999176819
 30
0.0
  0
DIMENSION
  5
247
330
1F
100
AcDbEntity
  8
2
370
    18
100
AcDbDimension
  2
*D9
 10
64.94667078878477
 20
-5.560999992226697
 30
0.0
 11
74.89667078878477
 21
10.74539633101848
 31
0.0
 70
   160
  1
%%c<>
 71
     5
 42
11.1219999922267
  3
Standard
100
AcDbAlignedDimension
 13
52.72890783949998
 23
5.561000000000003
 33
0.0
 14
52.72862554666602
 24
-5.560999992226693
 34
0.0
 50
90.0
100
AcDbRotatedDimension
1001
ACAD
1000
DSTYLE
1002
{
1070
     3
1000

1070
    41
1040
3.0
1070
    73
1070
     1
1070
    74
1070
     1
1070
    77
1070
     3
1070
   140
1040
3.5
1070
   147
1040
1.199999999999999
1070
   271
1070
     3
1070
   278
1070
    46
1002
}
  0
DIMENSION
  5
256
330
1F
100
AcDbEntity
  8
SK2
370
    18
100
AcDbDimension
  2
*D10
 10
60.43899999999999
 20
10.67466297958858
 30
0.0
 11
38.939
 21
13.62466297958858
 31
0.0
 70
    32
 71
     5
 42
43.0
  3
Standard
100
AcDbAlignedDimension
 13
17.43899999999999
 23
5.561000000000003
 33
0.0
 14
60.43899999999999
 24
0.0000000000000036
 34
0.0
100
AcDbRotatedDimension
1001
ACAD
1000
DSTYLE
1002
{
1070
     3
1000

1070
    41
1040
3.0
1070
    73
1070
     1
1070
    74
1070
     1
1070
    77
1070
     3
1070
   140
1040
3.5
1070
   147
1040
1.199999999999999
1070
   278
1070
    46
1002
}
  0
DIMENSION
  5
264
330
1F
100
AcDbEntity
  8
SK2
370
    18
100
AcDbDimension
  2
*D11
 10
57.07724891123675
 20
-11.34061134516791
 30
0.0
 11
28.53862445561837
 21
-8.390611345167911
 31
0.0
 70
    32
 71
     5
 42
57.07724891123675
  3
Standard
100
AcDbAlignedDimension
 13
0.0
 23
-5.999999999999996
 33
0.0
 14
57.07724891123675
 24
-5.349999967986764
 34
0.0
100
AcDbRotatedDimension
1001
ACAD
1000
DSTYLE
1002
{
1070
     3
1000

1070
    41
1040
3.0
1070
    73
1070
     1
1070
    74
1070
     1
1070
    77
1070
     3
1070
   140
1040
3.5
1070
   147
1040
1.199999999999999
1070
   278
1070
    46
1002
}
  0
DIMENSION
  5
272
330
1F
100
AcDbEntity
  8
SK2
370
    18
100
AcDbDimension
  2
*D12
 10
60.43899999999999
 20
-15.72208579993103
 30
0.0
 11
72.88899999999999
 21
-12.77208579993103
 31
0.0
 70
    32
 71
     5
 42
3.361759425499997
  3
Standard
100
AcDbAlignedDimension
 13
57.0772405745
 23
-5.349999999999996
 33
0.0
 14
60.43899999999999
 24
0.0000000000000003
 34
0.0
100
AcDbRotatedDimension
1001
ACAD
1000
DSTYLE
1002
{
1070
     3
1000

1070
    41
1040
3.0
1070
    73
1070
     1
1070
    74
1070
     1
1070
    77
1070
     3
1070
   140
1040
3.5
1070
   147
1040
1.199999999999999
1070
   278
1070
    46
1002
}
  0
DIMENSION
  5
280
330
1F
100
AcDbEntity
  8
SK2
370
    18
100
AcDbDimension
  2
*D13
 10
57.0772405745
 20
-20.10251314521489
 30
0.0
 11
6.258120287249994
 21
-17.1525131452149
 31
0.0
 70
    32
 71
     5
 42
101.6382405745
  3
Standard
100
AcDbAlignedDimension
 13
-44.56100000000001
 23
-5.499999999999996
 33
0.0
 14
57.0772405745
 24
-5.349999999999996
 34
0.0
100
AcDbRotatedDimension
1001
ACAD
1000
DSTYLE
1002
{
1070
     3
1000

1070
    41
1040
3.0
1070
    73
1070
     1
1070
    74
1070
     1
1070
    77
1070
     3
1070
   140
1040
3.5
1070
   147
1040
1.199999999999999
1070
   278
1070
    46
1002
}
  0
DIMENSION
  5
28E
330
1F
100
AcDbEntity
  8
SK2
370
    18
100
AcDbDimension
  2
*D14
 10
60.43899999999999
 20
-29.40203499529501
 30
0.0
 11
7.938999999999992
 21
-26.45203499529501
 31
0.0
 70
    32
 71
     5
 42
105.0
  3
Standard
100
AcDbAlignedDimension
 13
-44.56100000000001
 23
-5.499999999999996
 33
0.0
 14
60.43899999999999
 24
0.0000000000000036
 34
0.0
100
AcDbRotatedDimension
1001
ACAD
1000
DSTYLE
1002
{
1070
     3
1000

1070
    41
1040
3.0
1070
    73
1070
     1
1070
    74
1070
     1
1070
    77
1070
     3
1070
   140
1040
3.5
1070
   147
1040
1.199999999999999
1070
   278
1070
    46
1002
}
  0
DIMENSION
  5
29C
330
1F
100
AcDbEntity
  8
SK2
370
    18
100
AcDbDimension
  2
*D15
 10
-52.67764292250677
 20
-5.999999999999993
 30
0.0
 11
-42.4359762558401
 21
11.15457617484522
 31
0.0
 70
   160
  1
%%c<>
 71
     5
 42
12.0
  3
Standard
100
AcDbAlignedDimension
 13
-44.06100000000001
 23
6.000000000000003
 33
0.0
 14
-44.06100000000001
 24
-5.999999999999996
 34
0.0
 50
90.0
100
AcDbRotatedDimension
1001
ACAD
1000
DSTYLE
1002
{
1070
     3
1000

1070
    41
1040
3.0
1070
    73
1070
     1
1070
    74
1070
     1
1070
    77
1070
     3
1070
   140
1040
3.5
1070
   147
1040
1.199999999999999
1070
   271
1070
     3
1070
   278
1070
    46
1002
}
  0
ENDSEC
  0
SECTION
  2
OBJECTS
  0
DICTIONARY
  5
183
330
0
100
AcDbDictionary
281
     1
  3
ACAD_COLOR
350
195
  3
ACAD_GROUP
350
184
  3
ACAD_LAYOUT
350
196
  3
ACAD_MATERIAL
350
194
  3
ACAD_MLINESTYLE
350
185
  3
ACAD_PLOTSETTINGS
350
197
  3
ACAD_PLOTSTYLENAME
350
192
  0
DICTIONARY
  5
195
102
{ACAD_REACTORS
330
183
102
}
330
183
100
AcDbDictionary
281
     1
  0
DICTIONARY
  5
184
330
183
100
AcDbDictionary
281
     1
  0
DICTIONARY
  5
196
102
{ACAD_REACTORS
330
183
102
}
330
183
100
AcDbDictionary
281
     1
  3
Layout1
350
199
  3
Model
350
198
  0
DICTIONARY
  5
194
102
{ACAD_REACTORS
330
183
102
}
330
183
100
AcDbDictionary
281
     1
  0
DICTIONARY
  5
185
330
183
100
AcDbDictionary
281
     1
  3
Standard
350
18
  0
DICTIONARY
  5
197
102
{ACAD_REACTORS
330
183
102
}
330
183
100
AcDbDictionary
281
     1
  0
ACDBDICTIONARYWDFLT
  5
192
102
{ACAD_REACTORS
330
183
102
}
330
183
100
AcDbDictionary
281
     1
  3
Normal
350
193
100
AcDbDictionaryWithDefault
340
193
  0
LAYOUT
  5
199
102
{ACAD_REACTORS
330
196
102
}
330
196
100
AcDbPlotSettings
  1

  2
Chappel Main Office
  4

  6

 40
0.0
 41
0.0
 42
0.0
 43
0.0
 44
0.0
 45
0.0
 46
0.0
 47
0.0
 48
0.0
 49
0.0
140
0.0
141
0.0
142
1.0
143
1.0
 70
   688
 72
     0
 73
     0
 74
     5
  7

 75
    16
147
1.0
 76
     0
 77
     2
 78
   300
148
0.0
149
0.0
100
AcDbLayout
  1
Layout1
 70
     1
 71
     1
 10
0.0
 20
0.0
 11
12.0
 21
9.0
 12
0.0
 22
0.0
 32
0.0
 14
1.000000000000000E+20
 24
1.000000000000000E+20
 34
1.000000000000000E+20
 15
-1.000000000000000E+20
 25
-1.000000000000000E+20
 35
-1.000000000000000E+20
146
0.0
 13
0.0
 23
0.0
 33
0.0
 16
1.0
 26
0.0
 36
0.0
 17
0.0
 27
1.0
 37
0.0
 76
     0
330
1B
  0
LAYOUT
  5
198
102
{ACAD_REACTORS
330
196
102
}
330
196
100
AcDbPlotSettings
  1

  2
Chappel Main Office
  4

  6

 40
0.0
 41
0.0
 42
0.0
 43
0.0
 44
0.0
 45
0.0
 46
0.0
 47
0.0
 48
0.0
 49
0.0
140
0.0
141
0.0
142
1.0
143
1.0
 70
  1712
 72
     0
 73
     0
 74
     0
  7

 75
     0
147
1.0
 76
     0
 77
     2
 78
   300
148
0.0
149
0.0
100
AcDbLayout
  1
Model
 70
     1
 71
     0
 10
0.0
 20
0.0
 11
12.0
 21
9.0
 12
0.0
 22
0.0
 32
0.0
 14
0.0
 24
0.0
 34
0.0
 15
0.0
 25
0.0
 35
0.0
146
0.0
 13
0.0
 23
0.0
 33
0.0
 16
1.0
 26
0.0
 36
0.0
 17
0.0
 27
1.0
 37
0.0
 76
     0
330
1F
  0
MLINESTYLE
  5
18
330
185
100
AcDbMlineStyle
  2
STANDARD
 70
     0
  3

 62
   256
 51
90.0
 52
90.0
 71
     2
 49
0.5
 62
   256
  6
BYLAYER
 49
-0.5
 62
   256
  6
BYLAYER
  0
ACDBPLACEHOLDER
  5
193
102
{ACAD_REACTORS
330
192
102
}
330
192
  0
ENDSEC
  0
EOF
