  0
SECTION
  2
HEADER
  9
$ACADVER
  1
AC1018
  9
$ACADMAINTVER
 70
     0
  9
$DWGCODEPAGE
  3
ANSI_1252
  9
$INSBASE
 10
0.0
 20
0.0
 30
0.0
  9
$EXTMIN
 10
-50.54182966666666
 20
-33.692985
 30
0.0
  9
$EXTMAX
 10
182.2737041777336
 20
37.38269400000001
 30
0.0
  9
$LIMMIN
 10
0.0
 20
0.0
  9
$LIMMAX
 10
12.0
 20
9.0
  9
$ORTHOMODE
 70
     0
  9
$REGENMODE
 70
     1
  9
$FILLMODE
 70
     1
  9
$QTEXTMODE
 70
     0
  9
$MIRRTEXT
 70
     0
  9
$LTSCALE
 40
1.0
  9
$ATTMODE
 70
     1
  9
$TEXTSIZE
 40
0.0
  9
$TRACEWID
 40
0.05
  9
$TEXTSTYLE
  7
Standard
  9
$CLAYER
  8
1
  9
$CELTYPE
  6
ByLayer
  9
$CECOLOR
 62
   256
  9
$CELTSCALE
 40
1.0
  9
$DISPSILH
 70
     0
  9
$DIMSCALE
 40
1.0
  9
$DIMASZ
 40
0.18
  9
$DIMEXO
 40
0.0625
  9
$DIMDLI
 40
0.38
  9
$DIMRND
 40
0.0
  9
$DIMDLE
 40
0.0
  9
$DIMEXE
 40
0.18
  9
$DIMTP
 40
0.0
  9
$DIMTM
 40
0.0
  9
$DIMTXT
 40
0.18
  9
$DIMCEN
 40
0.09
  9
$DIMTSZ
 40
0.0
  9
$DIMTOL
 70
     0
  9
$DIMLIM
 70
     0
  9
$DIMTIH
 70
     1
  9
$DIMTOH
 70
     1
  9
$DIMSE1
 70
     0
  9
$DIMSE2
 70
     0
  9
$DIMTAD
 70
     0
  9
$DIMZIN
 70
     0
  9
$DIMBLK
  1

  9
$DIMASO
 70
     1
  9
$DIMSHO
 70
     1
  9
$DIMPOST
  1

  9
$DIMAPOST
  1

  9
$DIMALT
 70
     0
  9
$DIMALTD
 70
     2
  9
$DIMALTF
 40
25.4
  9
$DIMLFAC
 40
1.0
  9
$DIMTOFL
 70
     0
  9
$DIMTVP
 40
0.0
  9
$DIMTIX
 70
     0
  9
$DIMSOXD
 70
     0
  9
$DIMSAH
 70
     0
  9
$DIMBLK1
  1

  9
$DIMBLK2
  1

  9
$DIMSTYLE
  2
Standard
  9
$DIMCLRD
 70
     0
  9
$DIMCLRE
 70
     0
  9
$DIMCLRT
 70
     0
  9
$DIMTFAC
 40
1.0
  9
$DIMGAP
 40
0.09
  9
$DIMJUST
 70
     0
  9
$DIMSD1
 70
     0
  9
$DIMSD2
 70
     0
  9
$DIMTOLJ
 70
     1
  9
$DIMTZIN
 70
     0
  9
$DIMALTZ
 70
     0
  9
$DIMALTTZ
 70
     0
  9
$DIMUPT
 70
     0
  9
$DIMDEC
 70
     4
  9
$DIMTDEC
 70
     4
  9
$DIMALTU
 70
     2
  9
$DIMALTTD
 70
     2
  9
$DIMTXSTY
  7
Standard
  9
$DIMAUNIT
 70
     0
  9
$DIMADEC
 70
     0
  9
$DIMALTRND
 40
0.0
  9
$DIMAZIN
 70
     0
  9
$DIMDSEP
 70
    46
  9
$DIMATFIT
 70
     3
  9
$DIMFRAC
 70
     0
  9
$DIMLDRBLK
  1

  9
$DIMLUNIT
 70
     2
  9
$DIMLWD
 70
    -2
  9
$DIMLWE
 70
    -2
  9
$DIMTMOVE
 70
     0
  9
$LUNITS
 70
     2
  9
$LUPREC
 70
     4
  9
$SKETCHINC
 40
0.1
  9
$FILLETRAD
 40
0.0
  9
$AUNITS
 70
     0
  9
$AUPREC
 70
     0
  9
$MENU
  1
.
  9
$ELEVATION
 40
0.0
  9
$PELEVATION
 40
0.0
  9
$THICKNESS
 40
0.0
  9
$LIMCHECK
 70
     0
  9
$CHAMFERA
 40
0.0
  9
$CHAMFERB
 40
0.0
  9
$CHAMFERC
 40
0.0
  9
$CHAMFERD
 40
0.0
  9
$SKPOLY
 70
     0
  9
$TDCREATE
 40
2457169.562357651
  9
$TDUCREATE
 40
2457169.812357651
  9
$TDUPDATE
 40
2457172.724212246
  9
$TDUUPDATE
 40
2457172.974212246
  9
$TDINDWG
 40
0.0074201620
  9
$TDUSRTIMER
 40
0.0074200810
  9
$USRTIMER
 70
     1
  9
$ANGBASE
 50
0.0
  9
$ANGDIR
 70
     0
  9
$PDMODE
 70
     0
  9
$PDSIZE
 40
0.0
  9
$PLINEWID
 40
0.0
  9
$SPLFRAME
 70
     0
  9
$SPLINETYPE
 70
     6
  9
$SPLINESEGS
 70
     8
  9
$HANDSEED
  5
469
  9
$SURFTAB1
 70
     6
  9
$SURFTAB2
 70
     6
  9
$SURFTYPE
 70
     6
  9
$SURFU
 70
     6
  9
$SURFV
 70
     6
  9
$UCSBASE
  2

  9
$UCSNAME
  2

  9
$UCSORG
 10
0.0
 20
0.0
 30
0.0
  9
$UCSXDIR
 10
1.0
 20
0.0
 30
0.0
  9
$UCSYDIR
 10
0.0
 20
1.0
 30
0.0
  9
$UCSORTHOREF
  2

  9
$UCSORTHOVIEW
 70
     0
  9
$UCSORGTOP
 10
0.0
 20
0.0
 30
0.0
  9
$UCSORGBOTTOM
 10
0.0
 20
0.0
 30
0.0
  9
$UCSORGLEFT
 10
0.0
 20
0.0
 30
0.0
  9
$UCSORGRIGHT
 10
0.0
 20
0.0
 30
0.0
  9
$UCSORGFRONT
 10
0.0
 20
0.0
 30
0.0
  9
$UCSORGBACK
 10
0.0
 20
0.0
 30
0.0
  9
$PUCSBASE
  2

  9
$PUCSNAME
  2

  9
$PUCSORG
 10
0.0
 20
0.0
 30
0.0
  9
$PUCSXDIR
 10
1.0
 20
0.0
 30
0.0
  9
$PUCSYDIR
 10
0.0
 20
1.0
 30
0.0
  9
$PUCSORTHOREF
  2

  9
$PUCSORTHOVIEW
 70
     0
  9
$PUCSORGTOP
 10
0.0
 20
0.0
 30
0.0
  9
$PUCSORGBOTTOM
 10
0.0
 20
0.0
 30
0.0
  9
$PUCSORGLEFT
 10
0.0
 20
0.0
 30
0.0
  9
$PUCSORGRIGHT
 10
0.0
 20
0.0
 30
0.0
  9
$PUCSORGFRONT
 10
0.0
 20
0.0
 30
0.0
  9
$PUCSORGBACK
 10
0.0
 20
0.0
 30
0.0
  9
$USERI1
 70
     0
  9
$USERI2
 70
     0
  9
$USERI3
 70
     0
  9
$USERI4
 70
     0
  9
$USERI5
 70
     0
  9
$USERR1
 40
0.0
  9
$USERR2
 40
0.0
  9
$USERR3
 40
0.0
  9
$USERR4
 40
0.0
  9
$USERR5
 40
0.0
  9
$WORLDVIEW
 70
     1
  9
$SHADEDGE
 70
     3
  9
$SHADEDIF
 70
    70
  9
$TILEMODE
 70
     1
  9
$MAXACTVP
 70
    64
  9
$PINSBASE
 10
0.0
 20
0.0
 30
0.0
  9
$PLIMCHECK
 70
     0
  9
$PEXTMIN
 10
1.000000000000000E+20
 20
1.000000000000000E+20
 30
1.000000000000000E+20
  9
$PEXTMAX
 10
-1.000000000000000E+20
 20
-1.000000000000000E+20
 30
-1.000000000000000E+20
  9
$PLIMMIN
 10
0.0
 20
0.0
  9
$PLIMMAX
 10
12.0
 20
9.0
  9
$UNITMODE
 70
     0
  9
$VISRETAIN
 70
     1
  9
$PLINEGEN
 70
     0
  9
$PSLTSCALE
 70
     1
  9
$TREEDEPTH
 70
  3020
  9
$CMLSTYLE
  2
Standard
  9
$CMLJUST
 70
     0
  9
$CMLSCALE
 40
1.0
  9
$PROXYGRAPHICS
 70
     1
  9
$MEASUREMENT
 70
     0
  9
$CELWEIGHT
370
    18
  9
$ENDCAPS
280
     0
  9
$JOINSTYLE
280
     0
  9
$LWDISPLAY
290
     1
  9
$INSUNITS
 70
     4
  9
$HYPERLINKBASE
  1

  9
$STYLESHEET
  1

  9
$XEDIT
290
     1
  9
$CEPSNTYPE
380
     0
  9
$PSTYLEMODE
290
     1
  9
$FINGERPRINTGUID
  2
{1A3370DD-E015-4359-90D3-D666A526498D}
  9
$VERSIONGUID
  2
{7F8C805E-ACAF-4E71-B00A-894E9D413CD7}
  9
$EXTNAMES
290
     1
  9
$PSVPSCALE
 40
0.0
  9
$OLESTARTUP
290
     0
  9
$SORTENTS
280
   127
  9
$INDEXCTL
280
     0
  9
$HIDETEXT
280
     0
  9
$XCLIPFRAME
290
     0
  9
$HALOGAP
280
     0
  9
$OBSCOLOR
 70
   257
  9
$OBSLTYPE
280
     0
  9
$INTERSECTIONDISPLAY
280
     0
  9
$INTERSECTIONCOLOR
 70
   257
  9
$DIMASSOC
280
     1
  9
$PROJECTNAME
  1

  0
ENDSEC
  0
SECTION
  2
CLASSES
  0
CLASS
  1
RASTERVARIABLES
  2
AcDbRasterVariables
  3
ISM
 90
        0
 91
        0
280
     0
281
     0
  0
CLASS
  1
ACDBDICTIONARYWDFLT
  2
AcDbDictionaryWithDefault
  3
ObjectDBX Classes
 90
        0
 91
        1
280
     0
281
     0
  0
ENDSEC
  0
SECTION
  2
TABLES
  0
TABLE
  2
VPORT
  5
186
330
0
100
AcDbSymbolTable
 70
     4
  0
VPORT
  5
468
330
186
100
AcDbSymbolTableRecord
100
AcDbViewportTableRecord
  2
*Active
 70
     0
 10
0.0
 20
0.0
 11
1.0
 21
1.0
 12
3.220328388825294
 22
2.326897298359156
 13
0.0
 23
0.0
 14
0.5
 24
0.5
 15
10.0
 25
10.0
 16
0.0
 26
0.0
 36
1.0
 17
0.0
 27
0.0
 37
0.0
 40
116.858825714076
 41
2.336906584992342
 42
50.0
 43
0.0
 44
0.0
 50
0.0
 51
0.0
 71
     0
 72
   100
 73
     1
 74
     1
 75
     0
 76
     0
 77
     0
 78
     0
281
     0
 65
     1
110
0.0
120
0.0
130
0.0
111
1.0
121
0.0
131
0.0
112
0.0
122
1.0
132
0.0
 79
     0
146
0.0
  0
ENDTAB
  0
TABLE
  2
LTYPE
  5
187
330
0
100
AcDbSymbolTable
 70
     3
  0
LTYPE
  5
14
330
187
100
AcDbSymbolTableRecord
100
AcDbLinetypeTableRecord
  2
ByBlock
 70
     0
  3

 72
    65
 73
     0
 40
0.0
  0
LTYPE
  5
15
330
187
100
AcDbSymbolTableRecord
100
AcDbLinetypeTableRecord
  2
ByLayer
 70
     0
  3

 72
    65
 73
     0
 40
0.0
  0
LTYPE
  5
16
330
187
100
AcDbSymbolTableRecord
100
AcDbLinetypeTableRecord
  2
CONTINUOUS
 70
     0
  3
Solid line
 72
    65
 73
     0
 40
0.0
  0
LTYPE
  5
6A
330
187
100
AcDbSymbolTableRecord
100
AcDbLinetypeTableRecord
  2
CENTER
 70
     0
  3
____ _ ____ _ ____ _ ____
 72
    65
 73
     4
 40
47.5
 49
22.0
 74
     0
 49
-8.5
 74
     0
 49
8.5
 74
     0
 49
-8.5
 74
     0
  0
LTYPE
  5
6B
330
187
100
AcDbSymbolTableRecord
100
AcDbLinetypeTableRecord
  2
DASHED
 70
     0
  3
__ __ __ __ __ __ __ __ __
 72
    65
 73
     2
 40
25.72
 49
12.86
 74
     0
 49
-12.86
 74
     0
  0
ENDTAB
  0
TABLE
  2
LAYER
  5
188
330
0
100
AcDbSymbolTable
 70
    11
  0
LAYER
  5
10
330
188
100
AcDbSymbolTableRecord
100
AcDbLayerTableRecord
  2
0
 70
     0
 62
     7
  6
CONTINUOUS
370
    -3
390
193
  0
LAYER
  5
6D
330
188
100
AcDbSymbolTableRecord
100
AcDbLayerTableRecord
  2
81
 70
     0
 62
    -3
  6
CONTINUOUS
370
    -3
390
193
  0
LAYER
  5
6F
330
188
100
AcDbSymbolTableRecord
100
AcDbLayerTableRecord
  2
80
 70
     0
 62
    -6
  6
CONTINUOUS
370
    -3
390
193
  0
LAYER
  5
74
330
188
100
AcDbSymbolTableRecord
100
AcDbLayerTableRecord
  2
2
 70
     0
 62
     7
  6
CONTINUOUS
370
    -3
390
193
  0
LAYER
  5
78
330
188
100
AcDbSymbolTableRecord
100
AcDbLayerTableRecord
  2
1
 70
     0
 62
     4
  6
CONTINUOUS
370
    -3
390
193
  0
LAYER
  5
88
330
188
100
AcDbSymbolTableRecord
100
AcDbLayerTableRecord
  2
4
 70
     0
 62
    -2
  6
CENTER
370
    -3
390
193
  0
LAYER
  5
172
330
188
100
AcDbSymbolTableRecord
100
AcDbLayerTableRecord
  2
SK2
 70
     0
 62
     7
  6
CONTINUOUS
370
    -3
390
193
  0
LAYER
  5
173
330
188
100
AcDbSymbolTableRecord
100
AcDbLayerTableRecord
  2
SK1
 70
     0
 62
     4
  6
CONTINUOUS
370
    -3
390
193
  0
LAYER
  5
174
330
188
100
AcDbSymbolTableRecord
100
AcDbLayerTableRecord
  2
SK4
 70
     0
 62
     2
  6
CENTER
370
    -3
390
193
  0
LAYER
  5
175
330
188
100
AcDbSymbolTableRecord
100
AcDbLayerTableRecord
  2
SK6
 70
     0
 62
     5
  6
CONTINUOUS
370
    -3
390
193
  0
LAYER
  5
243
330
188
100
AcDbSymbolTableRecord
100
AcDbLayerTableRecord
  2
Defpoints
 70
     0
 62
     7
  6
CONTINUOUS
290
     0
370
    -3
390
193
  0
ENDTAB
  0
TABLE
  2
STYLE
  5
189
330
0
100
AcDbSymbolTable
 70
     3
  0
STYLE
  5
11
330
189
100
AcDbSymbolTableRecord
100
AcDbTextStyleTableRecord
  2
Standard
 70
     0
 40
0.0
 41
1.0
 50
0.0
 71
     0
 42
0.0
  3
txt
  4

  0
STYLE
  5
CE
330
189
100
AcDbSymbolTableRecord
100
AcDbTextStyleTableRecord
  2
iso_b_vert
 70
     0
 40
0.0
 41
1.0
 50
0.0
 71
     0
 42
0.0
  3
simplex.shx
  4

  0
STYLE
  5
CF
330
189
100
AcDbSymbolTableRecord
100
AcDbTextStyleTableRecord
  2
DWGDirectTextStyle
 70
     0
 40
0.0
 41
1.0
 50
0.0
 71
     0
 42
0.0
  3
simplex
  4

  0
ENDTAB
  0
TABLE
  2
VIEW
  5
18B
330
0
100
AcDbSymbolTable
 70
     0
  0
ENDTAB
  0
TABLE
  2
UCS
  5
18C
330
0
100
AcDbSymbolTable
 70
     0
  0
ENDTAB
  0
TABLE
  2
APPID
  5
18D
330
0
100
AcDbSymbolTable
 70
     1
  0
APPID
  5
12
330
18D
100
AcDbSymbolTableRecord
100
AcDbRegAppTableRecord
  2
ACAD
 70
     0
  0
ENDTAB
  0
TABLE
  2
DIMSTYLE
  5
18A
330
0
100
AcDbSymbolTable
 70
     2
100
AcDbDimStyleTable
 71
     1
340
27
  0
DIMSTYLE
105
27
102
{ACAD_REACTORS
330
242
330
251
330
25F
330
26D
330
27B
330
289
330
297
102
}
330
18A
100
AcDbSymbolTableRecord
100
AcDbDimStyleTableRecord
  2
Standard
 70
     0
  3
<>
 73
     0
 74
     0
 77
     1
271
     2
278
    52
340
11
  0
DIMSTYLE
105
1A2
330
18A
100
AcDbSymbolTableRecord
100
AcDbDimStyleTableRecord
  2
ISO-25
 70
     0
 41
2.5
 42
0.625
 43
3.75
 44
1.25
 73
     0
 74
     0
 77
     1
 78
     8
140
2.5
141
2.5
143
0.0393700787
147
0.625
171
     3
172
     1
271
     2
272
     2
274
     3
278
    44
283
     0
284
     8
340
11
  0
ENDTAB
  0
TABLE
  2
BLOCK_RECORD
  5
18E
330
0
100
AcDbSymbolTable
 70
    16
  0
BLOCK_RECORD
  5
1F
330
18E
100
AcDbSymbolTableRecord
100
AcDbBlockTableRecord
  2
*Model_Space
340
198
  0
BLOCK_RECORD
  5
1B
330
18E
100
AcDbSymbolTableRecord
100
AcDbBlockTableRecord
  2
*Paper_Space
340
199
  0
BLOCK_RECORD
  5
23
330
18E
100
AcDbSymbolTableRecord
100
AcDbBlockTableRecord
  2
*Paper_Space0
340
0
  0
BLOCK_RECORD
  5
D1
330
18E
100
AcDbSymbolTableRecord
100
AcDbBlockTableRecord
  2
DimnDraft3D1
340
0
  0
BLOCK_RECORD
  5
DB
330
18E
100
AcDbSymbolTableRecord
100
AcDbBlockTableRecord
  2
DimnDraft3D2
340
0
  0
BLOCK_RECORD
  5
E5
330
18E
100
AcDbSymbolTableRecord
100
AcDbBlockTableRecord
  2
DimnDraft3D3
340
0
  0
BLOCK_RECORD
  5
EF
330
18E
100
AcDbSymbolTableRecord
100
AcDbBlockTableRecord
  2
DimnDraft3D4
340
0
  0
BLOCK_RECORD
  5
F9
330
18E
100
AcDbSymbolTableRecord
100
AcDbBlockTableRecord
  2
DimnDraft3D5
340
0
  0
BLOCK_RECORD
  5
103
330
18E
100
AcDbSymbolTableRecord
100
AcDbBlockTableRecord
  2
DimnDraft3D6
340
0
  0
BLOCK_RECORD
  5
10E
330
18E
100
AcDbSymbolTableRecord
100
AcDbBlockTableRecord
  2
DimnDraft3D7
340
0
  0
BLOCK_RECORD
  5
244
330
18E
100
AcDbSymbolTableRecord
100
AcDbBlockTableRecord
  2
*D9
340
0
  0
BLOCK_RECORD
  5
252
330
18E
100
AcDbSymbolTableRecord
100
AcDbBlockTableRecord
  2
*D10
340
0
  0
BLOCK_RECORD
  5
260
330
18E
100
AcDbSymbolTableRecord
100
AcDbBlockTableRecord
  2
*D11
340
0
  0
BLOCK_RECORD
  5
26E
330
18E
100
AcDbSymbolTableRecord
100
AcDbBlockTableRecord
  2
*D12
340
0
  0
BLOCK_RECORD
  5
27C
330
18E
100
AcDbSymbolTableRecord
100
AcDbBlockTableRecord
  2
*D13
340
0
  0
BLOCK_RECORD
  5
28A
330
18E
100
AcDbSymbolTableRecord
100
AcDbBlockTableRecord
  2
*D14
340
0
  0
BLOCK_RECORD
  5
298
330
18E
100
AcDbSymbolTableRecord
100
AcDbBlockTableRecord
  2
*D15
340
0
  0
ENDTAB
  0
ENDSEC
  0
SECTION
  2
BLOCKS
  0
BLOCK
  5
20
330
1F
100
AcDbEntity
  8
0
100
AcDbBlockBegin
  2
*Model_Space
 70
     0
 10
0.0
 20
0.0
 30
0.0
  3
*Model_Space
  1

  0
ENDBLK
  5
21
330
1F
100
AcDbEntity
  8
0
100
AcDbBlockEnd
  0
BLOCK
  5
1C
330
1B
100
AcDbEntity
 67
     1
  8
0
100
AcDbBlockBegin
  2
*Paper_Space
 70
     0
 10
0.0
 20
0.0
 30
0.0
  3
*Paper_Space
  1

  0
ENDBLK
  5
1D
330
1B
100
AcDbEntity
 67
     1
  8
0
100
AcDbBlockEnd
  0
BLOCK
  5
24
330
23
100
AcDbEntity
  8
0
100
AcDbBlockBegin
  2
*Paper_Space0
 70
     0
 10
0.0
 20
0.0
 30
0.0
  3
*Paper_Space0
  1

  0
ENDBLK
  5
25
330
23
100
AcDbEntity
  8
0
100
AcDbBlockEnd
  0
BLOCK
  5
D8
330
D1
100
AcDbEntity
  8
0
100
AcDbBlockBegin
  2
DimnDraft3D1
 70
     0
 10
0.0
 20
0.0
 30
0.0
  3
DimnDraft3D1
  1

  0
MTEXT
  5
D2
330
D1
100
AcDbEntity
  8
SK2
370
    13
100
AcDbMText
 10
7.372275
 20
-10.838398
 30
0.0
 40
3.5
 41
0.0
 71
     7
 72
     5
  1
\W0.7317;25,57
  7
iso_b_vert
 73
     1
 44
1.084337
  0
LINE
  5
D3
330
D1
100
AcDbEntity
  8
SK2
370
    13
100
AcDbLine
 10
0.0
 20
-1.587499999999999
 30
0.0
 11
0.0
 21
-13.713398
 31
0.0
  0
LINE
  5
D4
330
D1
100
AcDbEntity
  8
SK2
370
    13
100
AcDbLine
 10
25.5709
 20
-3.087499999999999
 30
0.0
 11
25.5709
 21
-13.713398
 31
0.0
  0
LINE
  5
D5
330
D1
100
AcDbEntity
  8
SK2
370
    13
100
AcDbLine
 10
0.0
 20
-11.713398
 30
0.0
 11
25.5709
 21
-11.713398
 31
0.0
  0
SOLID
  5
D6
330
D1
100
AcDbEntity
  8
SK2
370
    13
100
AcDbTrace
 10
0.0
 20
-11.713398
 30
0.0
 11
3.499998
 21
-11.252615
 31
0.0
 12
3.500001999999998
 22
-12.174182
 32
0.0
 13
0.0
 23
-11.713398
 33
0.0
  0
SOLID
  5
D7
330
D1
100
AcDbEntity
  8
SK2
370
    13
100
AcDbTrace
 10
25.5709
 20
-11.713398
 30
0.0
 11
22.070902
 21
-12.174182
 31
0.0
 12
22.070898
 22
-11.252615
 32
0.0
 13
25.5709
 23
-11.713398
 33
0.0
  0
ENDBLK
  5
D9
330
D1
100
AcDbEntity
  8
0
100
AcDbBlockEnd
  0
BLOCK
  5
E2
330
DB
100
AcDbEntity
  8
0
100
AcDbBlockBegin
  2
DimnDraft3D2
 70
     0
 10
0.0
 20
0.0
 30
0.0
  3
DimnDraft3D2
  1

  0
MTEXT
  5
DC
330
DB
100
AcDbEntity
  8
SK2
370
    13
100
AcDbMText
 10
-8.536483999999997
 20
-30.817985
 30
0.0
 40
3.5
 41
0.0
 71
     7
 72
     5
  1
\W0.7317;62,00
  7
iso_b_vert
 73
     1
 44
1.084337
  0
LINE
  5
DD
330
DB
100
AcDbEntity
  8
SK2
370
    13
100
AcDbLine
 10
-36.0
 20
-4.5875
 30
0.0
 11
-36.0
 21
-33.692985
 31
0.0
  0
LINE
  5
DE
330
DB
100
AcDbEntity
  8
SK2
370
    13
100
AcDbLine
 10
26.0
 20
-1.587499999999999
 30
0.0
 11
26.0
 21
-33.692985
 31
0.0
  0
LINE
  5
DF
330
DB
100
AcDbEntity
  8
SK2
370
    13
100
AcDbLine
 10
-36.0
 20
-31.692985
 30
0.0
 11
26.0
 21
-31.692985
 31
0.0
  0
SOLID
  5
E0
330
DB
100
AcDbEntity
  8
SK2
370
    13
100
AcDbTrace
 10
-36.0
 20
-31.692985
 30
0.0
 11
-32.50000200000001
 21
-31.232202
 31
0.0
 12
-32.499998
 22
-32.153769
 32
0.0
 13
-36.0
 23
-31.692985
 33
0.0
  0
SOLID
  5
E1
330
DB
100
AcDbEntity
  8
SK2
370
    13
100
AcDbTrace
 10
26.0
 20
-31.692985
 30
0.0
 11
22.500002
 21
-32.153769
 31
0.0
 12
22.499998
 22
-31.232202
 32
0.0
 13
26.0
 23
-31.692985
 33
0.0
  0
ENDBLK
  5
E3
330
DB
100
AcDbEntity
  8
0
100
AcDbBlockEnd
  0
BLOCK
  5
EC
330
E5
100
AcDbEntity
  8
0
100
AcDbBlockBegin
  2
DimnDraft3D3
 70
     0
 10
0.0
 20
0.0
 30
0.0
  3
DimnDraft3D3
  1

  0
MTEXT
  5
E6
330
E5
100
AcDbEntity
  8
SK2
370
    13
100
AcDbMText
 10
17.965
 20
13.984119
 30
0.0
 40
3.5
 41
0.0
 71
     7
 72
     5
  1
\W0.7493;9,42
  7
iso_b_vert
 73
     1
 44
1.084337
  0
LINE
  5
E7
330
E5
100
AcDbEntity
  8
SK2
370
    13
100
AcDbLine
 10
16.58
 20
3.087499999999999
 30
0.0
 11
16.58
 21
15.109119
 31
0.0
  0
LINE
  5
E8
330
E5
100
AcDbEntity
  8
SK2
370
    13
100
AcDbLine
 10
26.0
 20
1.587499999999999
 30
0.0
 11
26.0
 21
15.109119
 31
0.0
  0
LINE
  5
E9
330
E5
100
AcDbEntity
  8
SK2
370
    13
100
AcDbLine
 10
16.58
 20
13.109119
 30
0.0
 11
26.0
 21
13.109119
 31
0.0
  0
SOLID
  5
EA
330
E5
100
AcDbEntity
  8
SK2
370
    13
100
AcDbTrace
 10
16.58
 20
13.109119
 30
0.0
 11
20.079998
 21
13.569903
 31
0.0
 12
20.080002
 22
12.648335
 32
0.0
 13
16.58
 23
13.109119
 33
0.0
  0
SOLID
  5
EB
330
E5
100
AcDbEntity
  8
SK2
370
    13
100
AcDbTrace
 10
26.0
 20
13.109119
 30
0.0
 11
22.500002
 21
12.648335
 31
0.0
 12
22.499998
 22
13.569903
 32
0.0
 13
26.0
 23
13.109119
 33
0.0
  0
ENDBLK
  5
ED
330
E5
100
AcDbEntity
  8
0
100
AcDbBlockEnd
  0
BLOCK
  5
F6
330
EF
100
AcDbEntity
  8
0
100
AcDbBlockBegin
  2
DimnDraft3D4
 70
     0
 10
0.0
 20
0.0
 30
0.0
  3
DimnDraft3D4
  1

  0
MTEXT
  5
F0
330
EF
100
AcDbEntity
  8
SK2
370
    13
100
AcDbMText
 10
32.656425
 20
-13.427503
 30
0.0
 40
3.5
 41
0.0
 71
     7
 72
     5
  1
\W0.7493;0,43
  7
iso_b_vert
 73
     1
 44
1.084337
  0
LINE
  5
F1
330
EF
100
AcDbEntity
  8
SK2
370
    13
100
AcDbLine
 10
26.0
 20
-1.587499999999999
 30
0.0
 11
26.0
 21
-16.302503
 31
0.0
  0
LINE
  5
F2
330
EF
100
AcDbEntity
  8
SK2
370
    13
100
AcDbLine
 10
25.5709
 20
-3.087499999999999
 30
0.0
 11
25.5709
 21
-16.302503
 31
0.0
  0
LINE
  5
F3
330
EF
100
AcDbEntity
  8
SK2
370
    13
100
AcDbLine
 10
16.8209
 20
-14.302503
 30
0.0
 11
40.18142499999998
 21
-14.302503
 31
0.0
  0
SOLID
  5
F4
330
EF
100
AcDbEntity
  8
SK2
370
    13
100
AcDbTrace
 10
26.0
 20
-14.302503
 30
0.0
 11
29.499998
 21
-13.841719
 31
0.0
 12
29.500002
 22
-14.763287
 32
0.0
 13
26.0
 23
-14.302503
 33
0.0
  0
SOLID
  5
F5
330
EF
100
AcDbEntity
  8
SK2
370
    13
100
AcDbTrace
 10
25.5709
 20
-14.302503
 30
0.0
 11
22.070902
 21
-14.763287
 31
0.0
 12
22.070898
 22
-13.841719
 32
0.0
 13
25.5709
 23
-14.302503
 33
0.0
  0
ENDBLK
  5
F7
330
EF
100
AcDbEntity
  8
0
100
AcDbBlockEnd
  0
BLOCK
  5
100
330
F9
100
AcDbEntity
  8
0
100
AcDbBlockBegin
  2
DimnDraft3D5
 70
     0
 10
0.0
 20
0.0
 30
0.0
  3
DimnDraft3D5
  1

  0
MTEXT
  5
FA
330
F9
100
AcDbEntity
  8
SK2
370
    13
100
AcDbMText
 10
-11.179608
 20
-20.468428
 30
0.0
 40
3.5
 41
0.0
 71
     7
 72
     5
  1
\W0.6713;61,57
  7
iso_b_vert
 73
     1
 44
1.084337
  0
LINE
  5
FB
330
F9
100
AcDbEntity
  8
SK2
370
    13
100
AcDbLine
 10
-36.0
 20
-4.5875
 30
0.0
 11
-36.0
 21
-23.343428
 31
0.0
  0
LINE
  5
FC
330
F9
100
AcDbEntity
  8
SK2
370
    13
100
AcDbLine
 10
25.5709
 20
-3.087499999999999
 30
0.0
 11
25.5709
 21
-23.343428
 31
0.0
  0
LINE
  5
FD
330
F9
100
AcDbEntity
  8
SK2
370
    13
100
AcDbLine
 10
-36.0
 20
-21.343428
 30
0.0
 11
25.5709
 21
-21.343428
 31
0.0
  0
SOLID
  5
FE
330
F9
100
AcDbEntity
  8
SK2
370
    13
100
AcDbTrace
 10
-36.0
 20
-21.343428
 30
0.0
 11
-32.50000200000001
 21
-20.882645
 31
0.0
 12
-32.499998
 22
-21.804212
 32
0.0
 13
-36.0
 23
-21.343428
 33
0.0
  0
SOLID
  5
FF
330
F9
100
AcDbEntity
  8
SK2
370
    13
100
AcDbTrace
 10
25.5709
 20
-21.343428
 30
0.0
 11
22.070902
 21
-21.804212
 31
0.0
 12
22.070898
 22
-20.882645
 32
0.0
 13
25.5709
 23
-21.343428
 33
0.0
  0
ENDBLK
  5
101
330
F9
100
AcDbEntity
  8
0
100
AcDbBlockEnd
  0
BLOCK
  5
10B
330
103
100
AcDbEntity
  8
0
100
AcDbBlockBegin
  2
DimnDraft3D6
 70
     0
 10
0.0
 20
0.0
 30
0.0
  3
DimnDraft3D6
  1

  0
MTEXT
  5
104
330
103
100
AcDbEntity
  8
SK2
370
    13
100
AcDbMText
 10
-46.375163
 20
22.34918
 30
0.0
 40
3.5
 41
0.0
 71
     7
 72
     5
  1
\W0.7317;6,000
  7
iso_b_vert
 11
0.0000000000000001
 21
1.0
 31
0.0
 73
     1
 44
1.084337
  0
MTEXT
  5
105
330
103
100
AcDbEntity
  8
SK2
370
    13
100
AcDbMText
 10
-46.375163
 20
17.126524
 30
0.0
 40
3.5
 41
0.0
 71
     7
 72
     5
  1
%%c
  7
iso_b_vert
 11
0.0000000000000001
 21
1.0
 31
0.0
 73
     1
 44
1.084337
  0
LINE
  5
106
330
103
100
AcDbEntity
  8
SK2
370
    13
100
AcDbLine
 10
-37.5875
 20
-3.0
 30
0.0
 11
-46.625163
 21
-3.0
 31
0.0
  0
LINE
  5
107
330
103
100
AcDbEntity
  8
SK2
370
    13
100
AcDbLine
 10
-37.5875
 20
3.0
 30
0.0
 11
-46.625163
 21
3.0
 31
0.0
  0
LINE
  5
108
330
103
100
AcDbEntity
  8
SK2
370
    13
100
AcDbLine
 10
-44.62516299999999
 20
32.121549
 30
0.0
 11
-44.62516299999999
 21
-11.75
 31
0.0
  0
SOLID
  5
109
330
103
100
AcDbEntity
  8
SK2
370
    13
100
AcDbTrace
 10
-44.62516299999999
 20
-3.0
 30
0.0
 11
-44.164379
 21
-6.499998
 31
0.0
 12
-45.085946
 22
-6.500001999999998
 32
0.0
 13
-44.62516299999999
 23
-3.0
 33
0.0
  0
SOLID
  5
10A
330
103
100
AcDbEntity
  8
SK2
370
    13
100
AcDbTrace
 10
-44.62516299999999
 20
3.0
 30
0.0
 11
-45.085946
 21
6.499998
 31
0.0
 12
-44.164379
 22
6.500001999999998
 32
0.0
 13
-44.62516299999999
 23
3.0
 33
0.0
  0
ENDBLK
  5
10C
330
103
100
AcDbEntity
  8
0
100
AcDbBlockEnd
  0
BLOCK
  5
116
330
10E
100
AcDbEntity
  8
0
100
AcDbBlockBegin
  2
DimnDraft3D7
 70
     0
 10
0.0
 20
0.0
 30
0.0
  3
DimnDraft3D7
  1

  0
MTEXT
  5
10F
330
10E
100
AcDbEntity
  8
2
370
    13
100
AcDbMText
 10
36.333343
 20
19.442266
 30
0.0
 40
3.5
 41
0.0
 71
     7
 72
     5
  1
\W0.7317;3,000
  7
iso_b_vert
 11
0.0000000000000001
 21
1.0
 31
0.0
 73
     1
 44
1.084337
  0
MTEXT
  5
110
330
10E
100
AcDbEntity
  8
2
370
    13
100
AcDbMText
 10
36.333343
 20
14.21961
 30
0.0
 40
3.5
 41
0.0
 71
     7
 72
     5
  1
%%c
  7
iso_b_vert
 11
0.0000000000000001
 21
1.0
 31
0.0
 73
     1
 44
1.084337
  0
LINE
  5
111
330
10E
100
AcDbEntity
  8
2
370
    13
100
AcDbLine
 10
27.1584
 20
-1.5
 30
0.0
 11
40.083343
 21
-1.5
 31
0.0
  0
LINE
  5
112
330
10E
100
AcDbEntity
  8
2
370
    13
100
AcDbLine
 10
27.1584
 20
1.5
 30
0.0
 11
40.083343
 21
1.5
 31
0.0
  0
LINE
  5
113
330
10E
100
AcDbEntity
  8
2
370
    13
100
AcDbLine
 10
38.083343
 20
29.214635
 30
0.0
 11
38.083343
 21
-10.25
 31
0.0
  0
SOLID
  5
114
330
10E
100
AcDbEntity
  8
2
370
    13
100
AcDbTrace
 10
38.083343
 20
-1.5
 30
0.0
 11
38.544126
 21
-4.999998
 31
0.0
 12
37.622559
 22
-5.000001999999998
 32
0.0
 13
38.083343
 23
-1.5
 33
0.0
  0
SOLID
  5
115
330
10E
100
AcDbEntity
  8
2
370
    13
100
AcDbTrace
 10
38.083343
 20
1.5
 30
0.0
 11
37.622559
 21
4.999998
 31
0.0
 12
38.544126
 22
5.000001999999998
 32
0.0
 13
38.083343
 23
1.5
 33
0.0
  0
ENDBLK
  5
117
330
10E
100
AcDbEntity
  8
0
100
AcDbBlockEnd
  0
BLOCK
  5
24F
330
244
100
AcDbEntity
  8
0
370
    18
100
AcDbBlockBegin
  2
*D9
 70
     1
 10
0.0
 20
0.0
 30
0.0
  3
*D9
  1

  0
LINE
  5
45C
330
244
100
AcDbEntity
  8
2
 62
     0
370
    -2
100
AcDbLine
 10
46.73582235509999
 20
4.774000000000001
 30
0.0
 11
57.99698046865437
 21
4.773999999999999
 31
0.0
  0
LINE
  5
45D
330
244
100
AcDbEntity
  8
2
 62
     0
370
    -2
100
AcDbLine
 10
46.73582235509999
 20
-4.773999999999999
 30
0.0
 11
57.99698046865437
 21
-4.774000000000001
 31
0.0
  0
LINE
  5
45E
330
244
100
AcDbEntity
  8
2
 62
     0
370
    -2
100
AcDbLine
 10
57.81698046865436
 20
-1.774000000000002
 30
0.0
 11
57.81698046865436
 21
1.773999999999998
 31
0.0
  0
LINE
  5
45F
330
244
100
AcDbEntity
  8
2
 62
     0
370
    -2
100
AcDbLine
 10
57.81698046865436
 20
4.773999999999999
 30
0.0
 11
57.81698046865436
 21
10.98202738408885
 31
0.0
  0
LINE
  5
460
330
244
100
AcDbEntity
  8
2
 62
     0
370
    -2
100
AcDbLine
 10
57.81698046865436
 20
10.98202738408885
 30
0.0
 11
76.51698046865437
 21
10.98202738408885
 31
0.0
  0
SOLID
  5
461
330
244
100
AcDbEntity
  8
2
 62
     0
370
    18
100
AcDbTrace
 10
57.31698046865436
 20
-1.774000000000001
 30
0.0
 11
58.31698046865437
 21
-1.774000000000002
 31
0.0
 12
57.81698046865436
 22
-4.774000000000001
 32
0.0
 13
57.81698046865436
 23
-4.774000000000001
 33
0.0
  0
SOLID
  5
462
330
244
100
AcDbEntity
  8
2
 62
     0
370
    18
100
AcDbTrace
 10
57.31698046865436
 20
1.773999999999998
 30
0.0
 11
58.31698046865437
 21
1.773999999999998
 31
0.0
 12
57.81698046865436
 22
4.773999999999999
 32
0.0
 13
57.81698046865436
 23
4.773999999999999
 33
0.0
  0
MTEXT
  5
463
330
244
100
AcDbEntity
  8
2
 62
     0
370
    18
100
AcDbMText
 10
67.76698046865437
 20
13.93202738408886
 30
0.0
 40
3.5
 41
0.0
 71
     5
 72
     1
  1
\A1;%%c9.548
 73
     1
 44
1.0
  0
POINT
  5
464
330
244
100
AcDbEntity
  8
Defpoints
 62
     0
370
    18
100
AcDbPoint
 10
46.67332235509999
 20
4.774000000000001
 30
0.0
  0
POINT
  5
465
330
244
100
AcDbEntity
  8
Defpoints
 62
     0
370
    18
100
AcDbPoint
 10
46.67332235509999
 20
-4.773999999999999
 30
0.0
  0
POINT
  5
466
330
244
100
AcDbEntity
  8
Defpoints
 62
     0
370
    18
100
AcDbPoint
 10
57.81698046865436
 20
-4.774000000000001
 30
0.0
  0
ENDBLK
  5
250
330
244
100
AcDbEntity
  8
0
370
    18
100
AcDbBlockEnd
  0
BLOCK
  5
25D
330
252
100
AcDbEntity
  8
0
370
    18
100
AcDbBlockBegin
  2
*D10
 70
     1
 10
0.0
 20
0.0
 30
0.0
  3
*D10
  1

  0
LINE
  5
453
330
252
100
AcDbEntity
  8
SK2
 62
     0
370
    -2
100
AcDbLine
 10
14.226
 20
4.836500000000001
 30
0.0
 11
14.226
 21
11.03633184601008
 31
0.0
  0
LINE
  5
454
330
252
100
AcDbEntity
  8
SK2
 62
     0
370
    -2
100
AcDbLine
 10
53.226
 20
0.0625
 30
0.0
 11
53.226
 21
11.03633184601008
 31
0.0
  0
LINE
  5
455
330
252
100
AcDbEntity
  8
SK2
 62
     0
370
    -2
100
AcDbLine
 10
17.226
 20
10.85633184601008
 30
0.0
 11
50.226
 21
10.85633184601008
 31
0.0
  0
SOLID
  5
456
330
252
100
AcDbEntity
  8
SK2
 62
     0
370
    18
100
AcDbTrace
 10
17.226
 20
11.35633184601008
 30
0.0
 11
17.226
 21
10.35633184601008
 31
0.0
 12
14.226
 22
10.85633184601008
 32
0.0
 13
14.226
 23
10.85633184601008
 33
0.0
  0
SOLID
  5
457
330
252
100
AcDbEntity
  8
SK2
 62
     0
370
    18
100
AcDbTrace
 10
50.226
 20
11.35633184601008
 30
0.0
 11
50.226
 21
10.35633184601008
 31
0.0
 12
53.226
 22
10.85633184601008
 32
0.0
 13
53.226
 23
10.85633184601008
 33
0.0
  0
MTEXT
  5
458
330
252
100
AcDbEntity
  8
SK2
 62
     0
370
    18
100
AcDbMText
 10
33.726
 20
13.80633184601008
 30
0.0
 40
3.5
 41
0.0
 71
     5
 72
     1
  1
\A1;39.00
 73
     1
 44
1.0
  0
POINT
  5
459
330
252
100
AcDbEntity
  8
Defpoints
 62
     0
370
    18
100
AcDbPoint
 10
14.226
 20
4.774000000000001
 30
0.0
  0
POINT
  5
45A
330
252
100
AcDbEntity
  8
Defpoints
 62
     0
370
    18
100
AcDbPoint
 10
53.226
 20
0.0
 30
0.0
  0
POINT
  5
45B
330
252
100
AcDbEntity
  8
Defpoints
 62
     0
370
    18
100
AcDbPoint
 10
53.226
 20
10.85633184601008
 30
0.0
  0
ENDBLK
  5
25E
330
252
100
AcDbEntity
  8
0
370
    18
100
AcDbBlockEnd
  0
BLOCK
  5
26B
330
260
100
AcDbEntity
  8
0
370
    18
100
AcDbBlockBegin
  2
*D11
 70
     1
 10
0.0
 20
0.0
 30
0.0
  3
*D11
  1

  0
LINE
  5
44A
330
260
100
AcDbEntity
  8
SK2
 62
     0
370
    -2
100
AcDbLine
 10
0.0
 20
-5.062499999999999
 30
0.0
 11
-0.0000000000000004
 21
-11.18641660376251
 31
0.0
  0
LINE
  5
44B
330
260
100
AcDbEntity
  8
SK2
 62
     0
370
    -2
100
AcDbLine
 10
50.35168077084205
 20
-4.636499999999997
 30
0.0
 11
50.35168077084205
 21
-11.18641660376251
 31
0.0
  0
LINE
  5
44C
330
260
100
AcDbEntity
  8
SK2
 62
     0
370
    -2
100
AcDbLine
 10
2.999999999999999
 20
-11.00641660376251
 30
0.0
 11
47.35168077084205
 21
-11.00641660376251
 31
0.0
  0
SOLID
  5
44D
330
260
100
AcDbEntity
  8
SK2
 62
     0
370
    18
100
AcDbTrace
 10
2.999999999999999
 20
-10.50641660376252
 30
0.0
 11
2.999999999999999
 21
-11.50641660376251
 31
0.0
 12
-0.0000000000000004
 22
-11.00641660376251
 32
0.0
 13
-0.0000000000000004
 23
-11.00641660376251
 33
0.0
  0
SOLID
  5
44E
330
260
100
AcDbEntity
  8
SK2
 62
     0
370
    18
100
AcDbTrace
 10
47.35168077084205
 20
-10.50641660376252
 30
0.0
 11
47.35168077084205
 21
-11.50641660376251
 31
0.0
 12
50.35168077084205
 22
-11.00641660376251
 32
0.0
 13
50.35168077084205
 23
-11.00641660376251
 33
0.0
  0
MTEXT
  5
44F
330
260
100
AcDbEntity
  8
SK2
 62
     0
370
    18
100
AcDbMText
 10
25.17584038542103
 20
-8.056416603762517
 30
0.0
 40
3.5
 41
0.0
 71
     5
 72
     1
  1
\A1;50.35
 73
     1
 44
1.0
  0
POINT
  5
450
330
260
100
AcDbEntity
  8
Defpoints
 62
     0
370
    18
100
AcDbPoint
 10
0.0
 20
-4.999999999999999
 30
0.0
  0
POINT
  5
451
330
260
100
AcDbEntity
  8
Defpoints
 62
     0
370
    18
100
AcDbPoint
 10
50.35168077084205
 20
-4.573999999999997
 30
0.0
  0
POINT
  5
452
330
260
100
AcDbEntity
  8
Defpoints
 62
     0
370
    18
100
AcDbPoint
 10
50.35168077084205
 20
-11.00641660376251
 30
0.0
  0
ENDBLK
  5
26C
330
260
100
AcDbEntity
  8
0
370
    18
100
AcDbBlockEnd
  0
BLOCK
  5
279
330
26E
100
AcDbEntity
  8
0
370
    18
100
AcDbBlockBegin
  2
*D12
 70
     1
 10
0.0
 20
0.0
 30
0.0
  3
*D12
  1

  0
LINE
  5
440
330
26E
100
AcDbEntity
  8
SK2
 62
     0
370
    -2
100
AcDbLine
 10
50.35168077084205
 20
-4.636499999999997
 30
0.0
 11
50.35168077084205
 21
-15.43062385459873
 31
0.0
  0
LINE
  5
441
330
26E
100
AcDbEntity
  8
SK2
 62
     0
370
    -2
100
AcDbLine
 10
53.226
 20
-0.0625
 30
0.0
 11
53.226
 21
-15.43062385459873
 31
0.0
  0
LINE
  5
442
330
26E
100
AcDbEntity
  8
SK2
 62
     0
370
    -2
100
AcDbLine
 10
47.35168077084205
 20
-15.25062385459873
 30
0.0
 11
44.35168077084205
 21
-15.25062385459873
 31
0.0
  0
LINE
  5
443
330
26E
100
AcDbEntity
  8
SK2
 62
     0
370
    -2
100
AcDbLine
 10
56.226
 20
-15.25062385459873
 30
0.0
 11
72.12600000000001
 21
-15.25062385459873
 31
0.0
  0
SOLID
  5
444
330
26E
100
AcDbEntity
  8
SK2
 62
     0
370
    18
100
AcDbTrace
 10
47.35168077084205
 20
-14.75062385459873
 30
0.0
 11
47.35168077084205
 21
-15.75062385459873
 31
0.0
 12
50.35168077084205
 22
-15.25062385459873
 32
0.0
 13
50.35168077084205
 23
-15.25062385459873
 33
0.0
  0
SOLID
  5
445
330
26E
100
AcDbEntity
  8
SK2
 62
     0
370
    18
100
AcDbTrace
 10
56.226
 20
-14.75062385459873
 30
0.0
 11
56.226
 21
-15.75062385459873
 31
0.0
 12
53.226
 22
-15.25062385459873
 32
0.0
 13
53.226
 23
-15.25062385459873
 33
0.0
  0
MTEXT
  5
446
330
26E
100
AcDbEntity
  8
SK2
 62
     0
370
    18
100
AcDbMText
 10
65.676
 20
-12.30062385459873
 30
0.0
 40
3.5
 41
0.0
 71
     5
 72
     1
  1
\A1;2.87
 73
     1
 44
1.0
  0
POINT
  5
447
330
26E
100
AcDbEntity
  8
Defpoints
 62
     0
370
    18
100
AcDbPoint
 10
50.35168077084205
 20
-4.573999999999997
 30
0.0
  0
POINT
  5
448
330
26E
100
AcDbEntity
  8
Defpoints
 62
     0
370
    18
100
AcDbPoint
 10
53.226
 20
0.0
 30
0.0
  0
POINT
  5
449
330
26E
100
AcDbEntity
  8
Defpoints
 62
     0
370
    18
100
AcDbPoint
 10
53.226
 20
-15.25062385459873
 30
0.0
  0
ENDBLK
  5
27A
330
26E
100
AcDbEntity
  8
0
370
    18
100
AcDbBlockEnd
  0
BLOCK
  5
287
330
27C
100
AcDbEntity
  8
0
370
    18
100
AcDbBlockBegin
  2
*D13
 70
     1
 10
0.0
 20
0.0
 30
0.0
  3
*D13
  1

  0
LINE
  5
437
330
27C
100
AcDbEntity
  8
SK2
 62
     0
370
    -2
100
AcDbLine
 10
-39.774
 20
-4.662499999999998
 30
0.0
 11
-39.774
 21
-19.40367675960638
 31
0.0
  0
LINE
  5
438
330
27C
100
AcDbEntity
  8
SK2
 62
     0
370
    -2
100
AcDbLine
 10
50.35168077084205
 20
-4.636499999999997
 30
0.0
 11
50.35168077084205
 21
-19.40367675960638
 31
0.0
  0
LINE
  5
439
330
27C
100
AcDbEntity
  8
SK2
 62
     0
370
    -2
100
AcDbLine
 10
-36.774
 20
-19.22367675960638
 30
0.0
 11
47.35168077084205
 21
-19.22367675960638
 31
0.0
  0
SOLID
  5
43A
330
27C
100
AcDbEntity
  8
SK2
 62
     0
370
    18
100
AcDbTrace
 10
-36.774
 20
-18.72367675960638
 30
0.0
 11
-36.774
 21
-19.72367675960638
 31
0.0
 12
-39.774
 22
-19.22367675960638
 32
0.0
 13
-39.774
 23
-19.22367675960638
 33
0.0
  0
SOLID
  5
43B
330
27C
100
AcDbEntity
  8
SK2
 62
     0
370
    18
100
AcDbTrace
 10
47.35168077084205
 20
-18.72367675960638
 30
0.0
 11
47.35168077084205
 21
-19.72367675960638
 31
0.0
 12
50.35168077084205
 22
-19.22367675960638
 32
0.0
 13
50.35168077084205
 23
-19.22367675960638
 33
0.0
  0
MTEXT
  5
43C
330
27C
100
AcDbEntity
  8
SK2
 62
     0
370
    18
100
AcDbMText
 10
5.288840385421025
 20
-16.27367675960638
 30
0.0
 40
3.5
 41
0.0
 71
     5
 72
     1
  1
\A1;90.13
 73
     1
 44
1.0
  0
POINT
  5
43D
330
27C
100
AcDbEntity
  8
Defpoints
 62
     0
370
    18
100
AcDbPoint
 10
-39.774
 20
-4.599999999999998
 30
0.0
  0
POINT
  5
43E
330
27C
100
AcDbEntity
  8
Defpoints
 62
     0
370
    18
100
AcDbPoint
 10
50.35168077084205
 20
-4.573999999999997
 30
0.0
  0
POINT
  5
43F
330
27C
100
AcDbEntity
  8
Defpoints
 62
     0
370
    18
100
AcDbPoint
 10
50.35168077084205
 20
-19.22367675960638
 30
0.0
  0
ENDBLK
  5
288
330
27C
100
AcDbEntity
  8
0
370
    18
100
AcDbBlockEnd
  0
BLOCK
  5
295
330
28A
100
AcDbEntity
  8
0
370
    18
100
AcDbBlockBegin
  2
*D14
 70
     1
 10
0.0
 20
0.0
 30
0.0
  3
*D14
  1

  0
LINE
  5
42E
330
28A
100
AcDbEntity
  8
SK2
 62
     0
370
    -2
100
AcDbLine
 10
-39.774
 20
-4.662499999999998
 30
0.0
 11
-39.774
 21
-28.01512693234993
 31
0.0
  0
LINE
  5
42F
330
28A
100
AcDbEntity
  8
SK2
 62
     0
370
    -2
100
AcDbLine
 10
53.226
 20
-0.0624999999999991
 30
0.0
 11
53.226
 21
-28.01512693234993
 31
0.0
  0
LINE
  5
430
330
28A
100
AcDbEntity
  8
SK2
 62
     0
370
    -2
100
AcDbLine
 10
-36.774
 20
-27.83512693234994
 30
0.0
 11
50.226
 21
-27.83512693234994
 31
0.0
  0
SOLID
  5
431
330
28A
100
AcDbEntity
  8
SK2
 62
     0
370
    18
100
AcDbTrace
 10
-36.774
 20
-27.33512693234994
 30
0.0
 11
-36.774
 21
-28.33512693234994
 31
0.0
 12
-39.774
 22
-27.83512693234994
 32
0.0
 13
-39.774
 23
-27.83512693234994
 33
0.0
  0
SOLID
  5
432
330
28A
100
AcDbEntity
  8
SK2
 62
     0
370
    18
100
AcDbTrace
 10
50.226
 20
-27.33512693234994
 30
0.0
 11
50.226
 21
-28.33512693234994
 31
0.0
 12
53.226
 22
-27.83512693234994
 32
0.0
 13
53.226
 23
-27.83512693234994
 33
0.0
  0
MTEXT
  5
433
330
28A
100
AcDbEntity
  8
SK2
 62
     0
370
    18
100
AcDbMText
 10
6.725999999999999
 20
-24.88512693234994
 30
0.0
 40
3.5
 41
0.0
 71
     5
 72
     1
  1
\A1;93.00
 73
     1
 44
1.0
  0
POINT
  5
434
330
28A
100
AcDbEntity
  8
Defpoints
 62
     0
370
    18
100
AcDbPoint
 10
-39.774
 20
-4.599999999999998
 30
0.0
  0
POINT
  5
435
330
28A
100
AcDbEntity
  8
Defpoints
 62
     0
370
    18
100
AcDbPoint
 10
53.226
 20
0.0000000000000009
 30
0.0
  0
POINT
  5
436
330
28A
100
AcDbEntity
  8
Defpoints
 62
     0
370
    18
100
AcDbPoint
 10
53.226
 20
-27.83512693234994
 30
0.0
  0
ENDBLK
  5
296
330
28A
100
AcDbEntity
  8
0
370
    18
100
AcDbBlockEnd
  0
BLOCK
  5
2A3
330
298
100
AcDbEntity
  8
0
370
    18
100
AcDbBlockBegin
  2
*D15
 70
     1
 10
0.0
 20
0.0
 30
0.0
  3
*D15
  1

  0
LINE
  5
423
330
298
100
AcDbEntity
  8
SK2
 62
     0
370
    -2
100
AcDbLine
 10
-39.4365
 20
5.0
 30
0.0
 11
-46.77959695660121
 21
5.000000000000003
 31
0.0
  0
LINE
  5
424
330
298
100
AcDbEntity
  8
SK2
 62
     0
370
    -2
100
AcDbLine
 10
-39.4365
 20
-4.999999999999999
 30
0.0
 11
-46.77959695660121
 21
-4.999999999999996
 31
0.0
  0
LINE
  5
425
330
298
100
AcDbEntity
  8
SK2
 62
     0
370
    -2
100
AcDbLine
 10
-46.59959695660122
 20
-1.999999999999997
 30
0.0
 11
-46.59959695660122
 21
2.000000000000002
 31
0.0
  0
LINE
  5
426
330
298
100
AcDbEntity
  8
SK2
 62
     0
370
    -2
100
AcDbLine
 10
-46.59959695660122
 20
5.000000000000002
 30
0.0
 11
-46.59959695660122
 21
10.91337657610112
 31
0.0
  0
LINE
  5
427
330
298
100
AcDbEntity
  8
SK2
 62
     0
370
    -2
100
AcDbLine
 10
-46.59959695660122
 20
10.91337657610112
 30
0.0
 11
-27.89959695660122
 21
10.91337657610112
 31
0.0
  0
SOLID
  5
428
330
298
100
AcDbEntity
  8
SK2
 62
     0
370
    18
100
AcDbTrace
 10
-47.09959695660121
 20
-1.999999999999997
 30
0.0
 11
-46.09959695660122
 21
-1.999999999999997
 31
0.0
 12
-46.59959695660122
 22
-4.999999999999997
 32
0.0
 13
-46.59959695660122
 23
-4.999999999999997
 33
0.0
  0
SOLID
  5
429
330
298
100
AcDbEntity
  8
SK2
 62
     0
370
    18
100
AcDbTrace
 10
-47.09959695660121
 20
2.000000000000002
 30
0.0
 11
-46.09959695660122
 21
2.000000000000002
 31
0.0
 12
-46.59959695660122
 22
5.000000000000002
 32
0.0
 13
-46.59959695660122
 23
5.000000000000002
 33
0.0
  0
MTEXT
  5
42A
330
298
100
AcDbEntity
  8
SK2
 62
     0
370
    18
100
AcDbMText
 10
-36.64959695660122
 20
13.86337657610111
 30
0.0
 40
3.5
 41
0.0
 71
     5
 72
     1
  1
\A1;%%c10.000
 73
     1
 44
1.0
  0
POINT
  5
42B
330
298
100
AcDbEntity
  8
Defpoints
 62
     0
370
    18
100
AcDbPoint
 10
-39.374
 20
5.0
 30
0.0
  0
POINT
  5
42C
330
298
100
AcDbEntity
  8
Defpoints
 62
     0
370
    18
100
AcDbPoint
 10
-39.374
 20
-4.999999999999999
 30
0.0
  0
POINT
  5
42D
330
298
100
AcDbEntity
  8
Defpoints
 62
     0
370
    18
100
AcDbPoint
 10
-46.59959695660122
 20
-4.999999999999997
 30
0.0
  0
ENDBLK
  5
2A4
330
298
100
AcDbEntity
  8
0
370
    18
100
AcDbBlockEnd
  0
ENDSEC
  0
SECTION
  2
ENTITIES
  0
POINT
  5
6E
330
1F
100
AcDbEntity
  8
80
370
    18
100
AcDbPoint
 10
0.0
 20
0.0
 30
0.0
 50
360.0
  0
POINT
  5
70
330
1F
100
AcDbEntity
  8
SK2
 60
     1
370
    18
100
AcDbPoint
 10
-36.0
 20
-3.0
 30
0.0
 50
360.0
  0
POINT
  5
72
330
1F
100
AcDbEntity
  8
SK2
 60
     1
370
    18
100
AcDbPoint
 10
-36.0
 20
3.0
 30
0.0
 50
360.0
  0
POINT
  5
73
330
1F
100
AcDbEntity
  8
2
 60
     1
370
    18
100
AcDbPoint
 10
25.5709
 20
-1.5
 30
0.0
 50
360.0
  0
POINT
  5
75
330
1F
100
AcDbEntity
  8
2
 60
     1
370
    18
100
AcDbPoint
 10
25.5709
 20
1.5
 30
0.0
 50
360.0
  0
LINE
  5
76
330
1F
100
AcDbEntity
  8
81
370
    18
100
AcDbLine
 10
53.226
 20
0.0
 30
0.0
 11
58.226
 21
0.0
 31
0.0
  0
LINE
  5
85
330
1F
100
AcDbEntity
  8
SK4
 48
0.05
370
    18
100
AcDbLine
 10
56.3093526762845
 20
0.0
 30
0.0
 11
-45.28136105578441
 21
0.0
 31
0.0
  0
LINE
  5
87
330
1F
100
AcDbEntity
  8
4
 48
0.05
370
    18
100
AcDbLine
 10
53.226
 20
0.0000000000000009
 30
0.0
 11
0.0
 21
0.0
 31
0.0
  0
LINE
  5
89
330
1F
100
AcDbEntity
  8
80
370
    18
100
AcDbLine
 10
0.0
 20
0.0
 30
0.0
 11
-5.0
 21
0.0
 31
0.0
  0
MTEXT
  5
CD
330
1F
100
AcDbEntity
  8
SK6
370
    13
100
AcDbMText
 10
8.267678365636992
 20
27.84136390499354
 30
0.0
 40
3.5
 41
0.0
 71
     8
 72
     5
  1
\W0.7645;863.1-0955-039A1-N
  7
iso_b_vert
 73
     1
 44
1.084337
  0
LINE
  5
1F4
330
1F
100
AcDbEntity
  8
1
  6
Continuous
370
    15
100
AcDbLine
 10
4.850069754900005
 20
-4.473687856099998
 30
0.0
 11
4.678126417499996
 21
-4.584006905699999
 31
0.0
  0
LINE
  5
1F5
330
1F
100
AcDbEntity
  8
1
  6
Continuous
370
    15
100
AcDbLine
 10
50.86033238359999
 20
3.6707739761
 30
0.0
 11
49.85627169219998
 21
4.0746210596
 31
0.0
  0
LINE
  5
1F6
330
1F
100
AcDbEntity
  8
SK1
  6
Continuous
370
    15
100
AcDbLine
 10
-39.774
 20
-4.599999999999998
 30
0.0
 11
-39.774
 21
4.6
 31
0.0
  0
LINE
  5
1F7
330
1F
100
AcDbEntity
  8
SK1
  6
Continuous
370
    15
100
AcDbLine
 10
-39.374
 20
5.0
 30
0.0
 11
-39.374
 21
-4.999999999999999
 31
0.0
  0
LINE
  5
1F8
330
1F
100
AcDbEntity
  8
SK1
  6
Continuous
370
    15
100
AcDbLine
 10
0.0
 20
-4.999999999999999
 30
0.0
 11
0.0
 21
5.0
 31
0.0
  0
LINE
  5
1F9
330
1F
100
AcDbEntity
  8
1
  6
Continuous
370
    15
100
AcDbLine
 10
53.226
 20
0.0000000000000009
 30
0.0
 11
50.35168077079998
 21
4.574
 31
0.0
  0
LINE
  5
1FA
330
1F
100
AcDbEntity
  8
1
  6
Continuous
370
    15
100
AcDbLine
 10
51.5881886457
 20
0.406135796000001
 30
0.0
 11
52.65620452320002
 21
0.141294868200001
 31
0.0
  0
LINE
  5
1FB
330
1F
100
AcDbEntity
  8
1
  6
Continuous
370
    15
100
AcDbLine
 10
51.2485444532
 20
2.928701150300001
 30
0.0
 11
52.65620452320002
 21
0.141294868200001
 31
0.0
  0
LINE
  5
1FC
330
1F
100
AcDbEntity
  8
1
  6
Continuous
370
    15
100
AcDbLine
 10
53.226
 20
0.0000000000000009
 30
0.0
 11
50.35168077079998
 21
-4.573999999999998
 31
0.0
  0
LINE
  5
1FE
330
1F
100
AcDbEntity
  8
1
  6
Continuous
370
    15
100
AcDbLine
 10
0.2259999999999991
 20
4.774000000000001
 30
0.0
 11
0.2259999999999991
 21
-4.773999999999999
 31
0.0
  0
LINE
  5
1FF
330
1F
100
AcDbEntity
  8
1
  6
Continuous
370
    15
100
AcDbLine
 10
14.226
 20
4.0227466803
 30
0.0
 11
14.226
 21
4.774000000000001
 31
0.0
  0
LINE
  5
200
330
1F
100
AcDbEntity
  8
1
  6
Continuous
370
    15
100
AcDbLine
 10
4.918949685400008
 20
-4.484461433499999
 30
0.0
 11
4.678126417499996
 21
-4.584006905699999
 31
0.0
  0
LINE
  5
201
330
1F
100
AcDbEntity
  8
SK1
  6
Continuous
370
    15
100
AcDbLine
 10
-39.774
 20
-4.599999999999998
 30
0.0
 11
-39.374
 21
-4.999999999999999
 31
0.0
  0
LINE
  5
202
330
1F
100
AcDbEntity
  8
SK1
  6
Continuous
370
    15
100
AcDbLine
 10
-39.374
 20
5.0
 30
0.0
 11
-39.774
 21
4.6
 31
0.0
  0
LINE
  5
203
330
1F
100
AcDbEntity
  8
SK1
  6
Continuous
370
    15
100
AcDbLine
 10
-39.374
 20
-4.999999999999999
 30
0.0
 11
0.0
 21
-4.999999999999999
 31
0.0
  0
LINE
  5
204
330
1F
100
AcDbEntity
  8
SK1
  6
Continuous
370
    15
100
AcDbLine
 10
0.0
 20
5.0
 30
0.0
 11
-39.374
 21
5.0
 31
0.0
  0
LINE
  5
205
330
1F
100
AcDbEntity
  8
1
  6
Continuous
370
    15
100
AcDbLine
 10
0.2259999999999991
 20
4.774000000000001
 30
0.0
 11
0.0
 21
5.0
 31
0.0
  0
LINE
  5
206
330
1F
100
AcDbEntity
  8
1
  6
Continuous
370
    15
100
AcDbLine
 10
0.0
 20
-4.999999999999999
 30
0.0
 11
0.2259999999999991
 21
-4.773999999999999
 31
0.0
  0
LINE
  5
207
330
1F
100
AcDbEntity
  8
1
  6
Continuous
370
    15
100
AcDbLine
 10
50.95281036879999
 20
3.480397126
 30
0.0
 11
50.99039524559998
 21
3.4116894791
 31
0.0
  0
LINE
  5
208
330
1F
100
AcDbEntity
  8
1
  6
Continuous
370
    15
100
AcDbLine
 10
0.2259999999999991
 20
-4.773999999999999
 30
0.0
 11
3.592738333200003
 21
-4.773999999999999
 31
0.0
  0
LINE
  5
209
330
1F
100
AcDbEntity
  8
1
  6
Continuous
370
    15
100
AcDbLine
 10
8.253172360999997
 20
-4.773999999999999
 30
0.0
 11
14.226
 21
-4.773999999999999
 31
0.0
  0
LINE
  5
20A
330
1F
100
AcDbEntity
  8
1
  6
Continuous
370
    15
100
AcDbLine
 10
28.24074583570001
 20
-4.773999999999999
 30
0.0
 11
28.8364630822
 21
-4.773999999999999
 31
0.0
  0
LINE
  5
20B
330
1F
100
AcDbEntity
  8
1
  6
Continuous
370
    15
100
AcDbLine
 10
46.07937518419999
 20
-4.773999999999999
 30
0.0
 11
46.67332235509999
 21
-4.773999999999999
 31
0.0
  0
LINE
  5
20C
330
1F
100
AcDbEntity
  8
1
  6
Continuous
370
    15
100
AcDbLine
 10
46.67332235509999
 20
4.774000000000001
 30
0.0
 11
46.07937518419999
 21
4.774000000000001
 31
0.0
  0
LINE
  5
20D
330
1F
100
AcDbEntity
  8
1
  6
Continuous
370
    15
100
AcDbLine
 10
28.8364630822
 20
4.774000000000001
 30
0.0
 11
28.24074583570001
 21
4.774000000000001
 31
0.0
  0
LINE
  5
20E
330
1F
100
AcDbEntity
  8
1
  6
Continuous
370
    15
100
AcDbLine
 10
14.226
 20
4.774000000000001
 30
0.0
 11
8.253172360999997
 21
4.774000000000001
 31
0.0
  0
LINE
  5
20F
330
1F
100
AcDbEntity
  8
1
  6
Continuous
370
    15
100
AcDbLine
 10
3.592738333200003
 20
4.774000000000001
 30
0.0
 11
0.2259999999999991
 21
4.774000000000001
 31
0.0
  0
LINE
  5
210
330
1F
100
AcDbEntity
  8
1
  6
Continuous
370
    15
100
AcDbLine
 10
28.83568832079999
 20
-4.773999999799999
 30
0.0
 11
29.0574002809
 21
-4.762071950799999
 31
0.0
  0
LINE
  5
211
330
1F
100
AcDbEntity
  8
1
  6
Continuous
370
    15
100
AcDbLine
 10
28.95699642260002
 20
4.7674736537
 30
0.0
 11
28.83568832079999
 21
4.773999999800001
 31
0.0
  0
SPLINE
  5
212
330
1F
100
AcDbEntity
  8
1
  6
Continuous
370
    15
100
AcDbSpline
210
0.0
220
0.0
230
1.0
 70
     8
 71
     3
 72
    15
 73
    11
 74
     0
 42
0.0000000001
 43
0.0000000001
 40
0.0
 40
0.0
 40
0.0
 40
0.0
 40
0.1319173228509113
 40
0.2661234525916992
 40
0.4031428566080983
 40
0.5434712005927642
 40
0.6875719830456241
 40
0.8331895997441231
 40
0.9832252790517349
 40
1.0
 40
1.0
 40
1.0
 40
1.0
 10
14.226
 20
0.7734274034608469
 30
0.0
 10
13.82921714416375
 20
0.868016316433394
 30
0.0
 10
13.0287671256042
 20
1.058835289659518
 30
0.0
 10
11.84133139704192
 20
1.494695492126289
 30
0.0
 10
10.65290357192464
 20
2.007682490038703
 30
0.0
 10
9.465315094711129
 20
2.569007075449291
 30
0.0
 10
8.284337965618291
 20
3.129511789289851
 30
0.0
 10
7.114341140802295
 20
3.617841471786062
 30
0.0
 10
6.298146983326859
 20
3.928278184891806
 30
0.0
 10
5.880225639587962
 20
4.011927492607617
 30
0.0
 10
5.838198800081613
 20
4.020339400931654
 30
0.0
  0
SPLINE
  5
213
330
1F
100
AcDbEntity
  8
1
  6
Continuous
370
    15
100
AcDbSpline
210
0.0
220
0.0
230
1.0
 70
     8
 71
     3
 72
    12
 73
     8
 74
     0
 42
0.0000000001
 43
0.0000000001
 40
0.0
 40
0.0
 40
0.0
 40
0.0
 40
0.0976824295179071
 40
0.3168476769250342
 40
0.5359858954274469
 40
0.7679411505844297
 40
1.0
 40
1.0
 40
1.0
 40
1.0
 10
21.38708603989028
 20
-1.698163833680251
 30
0.0
 10
21.15392140219291
 20
-1.75822848461107
 30
0.0
 10
20.39761677135928
 20
-1.953057229214053
 30
0.0
 10
19.11824886148261
 20
-2.137047392051011
 30
0.0
 10
17.51841671140846
 20
-2.226935184260126
 30
0.0
 10
15.8877477910666
 20
-2.14107393993749
 30
0.0
 10
14.7800970878329
 20
-1.934852809296311
 30
0.0
 10
14.22614809099468
 20
-1.831719223850983
 30
0.0
  0
SPLINE
  5
214
330
1F
100
AcDbEntity
  8
1
  6
Continuous
370
    15
100
AcDbSpline
210
0.0
220
0.0
230
1.0
 70
     8
 71
     3
 72
    11
 73
     7
 74
     0
 42
0.0000000001
 43
0.0000000001
 40
0.0
 40
0.0
 40
0.0
 40
0.0
 40
0.2700458875609229
 40
0.5399215876005328
 40
0.8098990385008866
 40
1.0
 40
1.0
 40
1.0
 40
1.0
 10
50.62643154341208
 20
-1.971389147200608
 30
0.0
 10
50.05754147783398
 20
-1.856861500564538
 30
0.0
 10
48.92011987089384
 20
-1.627878384567448
 30
0.0
 10
47.21413153752812
 20
-1.090607343717917
 30
0.0
 10
45.67644663135522
 20
-0.5304415508641656
 30
0.0
 10
44.70720699808038
 20
-0.1543065623733835
 30
0.0
 10
44.30672442545187
 20
0.0011096037376053
 30
0.0
  0
SPLINE
  5
215
330
1F
100
AcDbEntity
  8
1
  6
Continuous
370
    15
100
AcDbSpline
210
0.0
220
0.0
230
1.0
 70
     8
 71
     3
 72
    16
 73
    12
 74
     0
 42
0.0000000001
 43
0.0000000001
 40
0.0
 40
0.0
 40
0.0
 40
0.0
 40
0.0382193434585482
 40
0.1696066674921881
 40
0.3009276245833646
 40
0.4313515401761516
 40
0.5618352351925076
 40
0.6923600094490949
 40
0.8229069633113535
 40
0.9534570891264461
 40
1.0
 40
1.0
 40
1.0
 40
1.0
 10
39.22677111988074
 20
-1.6990492200499
 30
0.0
 10
39.0642271563124
 20
-1.742676584684202
 30
0.0
 10
38.34290288731506
 20
-1.936282524961953
 30
0.0
 10
37.0631230559531
 20
-2.126494484835892
 30
0.0
 10
35.39131231397755
 20
-2.231285405306044
 30
0.0
 10
33.72335852942999
 20
-2.133637298550274
 30
0.0
 10
32.05868905384077
 20
-1.856989546231128
 30
0.0
 10
30.39345385724306
 20
-1.42095922327122
 30
0.0
 10
28.72790912578023
 20
-0.8640812612747099
 30
0.0
 10
27.4195260018364
 20
-0.3677944335882746
 30
0.0
 10
26.66636914865061
 20
-0.0772406528180465
 30
0.0
 10
26.46842736083622
 20
-0.0008784255095922
 30
0.0
  0
SPLINE
  5
216
330
1F
100
AcDbEntity
  8
1
  6
Continuous
370
    15
100
AcDbSpline
210
0.0
220
0.0
230
1.0
 70
     8
 71
     3
 72
    13
 73
     9
 74
     0
 42
0.0000000001
 43
0.0000000001
 40
0.0
 40
0.0
 40
0.0
 40
0.0
 40
0.1855385201982214
 40
0.3732288067679169
 40
0.5635281199611741
 40
0.7568806122967342
 40
0.9537022068073776
 40
1.0
 40
1.0
 40
1.0
 40
1.0
 10
14.226
 20
-1.831792610368154
 30
0.0
 10
13.86871448363635
 20
-1.735841094141416
 30
0.0
 10
13.14999986413096
 20
-1.542825272571761
 30
0.0
 10
12.08007791139079
 20
-1.013843261221165
 30
0.0
 10
11.00908233703907
 20
-0.3380963322202808
 30
0.0
 10
9.940088154642126
 20
0.4670759785841936
 30
0.0
 10
9.145741696750391
 20
1.123002792715785
 30
0.0
 10
8.714559912263965
 20
1.489755401708205
 30
0.0
 10
8.632448957332883
 20
1.559596958173089
 30
0.0
  0
SPLINE
  5
217
330
1F
100
AcDbEntity
  8
1
  6
Continuous
370
    15
100
AcDbSpline
210
0.0
220
0.0
230
1.0
 70
     8
 71
     3
 72
    19
 73
    15
 74
     0
 42
0.0000000001
 43
0.0000000001
 40
0.0
 40
0.0
 40
0.0
 40
0.0
 40
0.0748014583001983
 40
0.1620638693920766
 40
0.2493262804839542
 40
0.3365335281254477
 40
0.423707538082735
 40
0.5108704454492483
 40
0.5980444554065358
 40
0.6852517030480293
 40
0.7725141141399071
 40
0.8484216896729734
 40
0.9242085473358452
 40
1.0
 40
1.0
 40
1.0
 40
1.0
 10
28.83646308223266
 20
-4.759372416372439
 30
0.0
 10
28.47217695062767
 20
-4.748223384181361
 30
0.0
 10
27.68291934261637
 20
-4.72406803563707
 30
0.0
 10
26.46824644165395
 20
-4.397971252360545
 30
0.0
 10
25.1931561066161
 20
-3.858931007281052
 30
0.0
 10
23.91891250661128
 20
-3.119892771956867
 30
0.0
 10
22.64530943675298
 20
-2.22627257916757
 30
0.0
 10
21.37194088279207
 20
-1.22065771695312
 30
0.0
 10
20.09833589513553
 20
-0.1538375426012806
 30
0.0
 10
18.82409997094871
 20
0.9206468248737209
 30
0.0
 10
17.60429987671676
 20
1.905306359495367
 30
0.0
 10
16.44023634821252
 20
2.757947805158699
 30
0.0
 10
15.33311591298934
 20
3.477108665234248
 30
0.0
 10
14.59521723834996
 20
3.840898016529556
 30
0.0
 10
14.22625671656283
 20
4.022798206200067
 30
0.0
  0
SPLINE
  5
218
330
1F
100
AcDbEntity
  8
1
  6
Continuous
370
    15
100
AcDbSpline
210
0.0
220
0.0
230
1.0
 70
     8
 71
     3
 72
    11
 73
     7
 74
     0
 42
0.0000000001
 43
0.0000000001
 40
0.0
 40
0.0
 40
0.0
 40
0.0
 40
0.2587317724962375
 40
0.5178514450633003
 40
0.7770316014193429
 40
1.0
 40
1.0
 40
1.0
 40
1.0
 10
50.96742175410773
 20
3.472886159695224
 30
0.0
 10
50.59785690873664
 20
3.67374922901867
 30
0.0
 10
49.85817315295514
 20
4.075776508874716
 30
0.0
 10
48.74738721748906
 20
4.483121640632696
 30
0.0
 10
47.68751545549315
 20
4.734971997207076
 30
0.0
 10
46.99882104462796
 20
4.754242565403743
 30
0.0
 10
46.68033602931513
 20
4.763154191678581
 30
0.0
  0
SPLINE
  5
219
330
1F
100
AcDbEntity
  8
1
  6
Continuous
370
    15
100
AcDbSpline
210
0.0
220
0.0
230
1.0
 70
     8
 71
     3
 72
    22
 73
    18
 74
     0
 42
0.0000000001
 43
0.0000000001
 40
0.0
 40
0.0
 40
0.0
 40
0.0
 40
0.0087035930604332
 40
0.0716367936145936
 40
0.1346694920662541
 40
0.2069911675457747
 40
0.2792671244494838
 40
0.3515155344979001
 40
0.4237547428985861
 40
0.4960031529470025
 40
0.5682791098507117
 40
0.6406007853302325
 40
0.7129224608097531
 40
0.7851984177134622
 40
0.8574468277618784
 40
0.9296860361625643
 40
1.0
 40
1.0
 40
1.0
 40
1.0
 10
46.6803360293147
 20
-4.763154191678608
 30
0.0
 10
46.62921473616807
 20
-4.7666945087171
 30
0.0
 10
46.20844994385445
 20
-4.795833849131569
 30
0.0
 10
45.41767549833361
 20
-4.676212339833393
 30
0.0
 10
44.25216187172518
 20
-4.382119509942122
 30
0.0
 10
43.03165110411109
 20
-3.856883834167894
 30
0.0
 10
41.75741382151289
 20
-3.120440089846092
 30
0.0
 10
40.4838091762785
 20
-2.226129116850457
 30
0.0
 10
39.21044061022383
 20
-1.220684420688375
 30
0.0
 10
37.93683724632913
 20
-0.1538742107878246
 30
0.0
 10
36.66259483528197
 20
0.9208203342519372
 30
0.0
 10
35.38750003554941
 20
1.94930376532417
 30
0.0
 10
34.11240502256556
 20
2.879686728966762
 30
0.0
 10
32.8381632507867
 20
3.66706734393137
 30
0.0
 10
31.56455754418835
 20
4.265498283375362
 30
0.0
 10
30.30256289851641
 20
4.664794958218743
 30
0.0
 10
29.46496457539792
 20
4.733536550213906
 30
0.0
 10
29.0518214844559
 20
4.767443153187298
 30
0.0
  0
SPLINE
  5
21A
330
1F
100
AcDbEntity
  8
1
  6
Continuous
370
    15
100
AcDbSpline
210
0.0
220
0.0
230
1.0
 70
     8
 71
     3
 72
    14
 73
    10
 74
     0
 42
0.0000000001
 43
0.0000000001
 40
0.0
 40
0.0
 40
0.0
 40
0.0
 40
0.0223319311150717
 40
0.1982343702343489
 40
0.3743209441966412
 40
0.5501507366592613
 40
0.707397426784233
 40
0.8645482727842509
 40
1.0
 40
1.0
 40
1.0
 40
1.0
 10
37.8645466940736
 20
-0.5850833291750544
 30
0.0
 10
37.7671728820385
 20
-0.5654599659417974
 30
0.0
 10
36.90281250914302
 20
-0.3912688029662341
 30
0.0
 10
35.27074723054051
 20
0.0371390724551413
 30
0.0
 10
32.96915751021342
 20
0.5919674466603091
 30
0.0
 10
30.74917837151719
 20
1.047952201135721
 30
0.0
 10
28.61173990227669
 20
1.327042480829832
 30
0.0
 10
26.65040498011655
 20
1.436399309879152
 30
0.0
 10
25.37472091739548
 20
1.362472939369234
 30
0.0
 10
24.78418062317273
 20
1.328250907545283
 30
0.0
  0
SPLINE
  5
21B
330
1F
100
AcDbEntity
  8
1
  6
Continuous
370
    15
100
AcDbSpline
210
0.0
220
0.0
230
1.0
 70
     8
 71
     3
 72
    10
 73
     6
 74
     0
 42
0.0000000001
 43
0.0000000001
 40
0.0
 40
0.0
 40
0.0
 40
0.0
 40
0.2915579720011391
 40
0.6460817995334174
 40
1.0
 40
1.0
 40
1.0
 40
1.0
 10
20.02688428272978
 20
-0.586946529330918
 30
0.0
 10
19.46312583655742
 20
-0.4580456637751782
 30
0.0
 10
18.21385774450272
 20
-0.1724060614413343
 30
0.0
 10
16.28016088077426
 20
0.3225405097064744
 30
0.0
 10
14.91040521563675
 20
0.6232548060143613
 30
0.0
 10
14.22611286576904
 20
0.7734834180921775
 30
0.0
  0
SPLINE
  5
21C
330
1F
100
AcDbEntity
  8
1
  6
Continuous
370
    15
100
AcDbSpline
210
0.0
220
0.0
230
1.0
 70
     8
 71
     3
 72
    12
 73
     8
 74
     0
 42
0.0000000001
 43
0.0000000001
 40
0.0
 40
0.0
 40
0.0
 40
0.0
 40
0.2179971193735316
 40
0.4361366102694233
 40
0.6539231588852054
 40
0.8718377991582951
 40
1.0
 40
1.0
 40
1.0
 40
1.0
 10
51.59411366753665
 20
0.3969820842997436
 30
0.0
 10
50.94296084589379
 20
0.5462641589748785
 30
0.0
 10
49.64022994185802
 20
0.8449258028071575
 30
0.0
 10
47.68683789452438
 20
1.1826807472061
 30
0.0
 10
45.7339386290152
 20
1.37880035056771
 30
0.0
 10
44.04970030484131
 20
1.43006176899438
 30
0.0
 10
43.01592835743645
 20
1.350000027631741
 30
0.0
 10
42.63309289372545
 20
1.320350863754718
 30
0.0
  0
SPLINE
  5
21D
330
1F
100
AcDbEntity
  8
1
  6
Continuous
370
    15
100
AcDbSpline
210
0.0
220
0.0
230
1.0
 70
     8
 71
     3
 72
    20
 73
    16
 74
     0
 42
0.0000000001
 43
0.0000000001
 40
0.0
 40
0.0
 40
0.0
 40
0.0
 40
0.0265918883524171
 40
0.1104400691489896
 40
0.1943422957841604
 40
0.2782445224193305
 40
0.3620927032159032
 40
0.4459083188289281
 40
0.529713056341151
 40
0.6135286719541762
 40
0.6973768527507488
 40
0.7812790793859192
 40
0.8542634004251594
 40
0.9271294505624771
 40
1.0
 40
1.0
 40
1.0
 40
1.0
 10
29.42176517611577
 20
-4.549044971376274
 30
0.0
 10
29.28708602955837
 20
-4.556607136535993
 30
0.0
 10
28.72774349390977
 20
-4.588013933679812
 30
0.0
 10
27.74333114484643
 20
-4.408942243373937
 30
0.0
 10
26.46825136576149
 20
-4.01710376966995
 30
0.0
 10
25.19316339386757
 20
-3.407468903580208
 30
0.0
 10
23.91891722034458
 20
-2.631231069523935
 30
0.0
 10
22.64531097839293
 20
-1.722039468060477
 30
0.0
 10
21.37193925841566
 20
-0.726902496673568
 30
0.0
 10
20.09833159521411
 20
0.3048916696929131
 30
0.0
 10
18.82409111018337
 20
1.321284854917078
 30
0.0
 10
17.60430218663458
 20
2.231152514584405
 30
0.0
 10
16.44025231700644
 20
2.99864162555117
 30
0.0
 10
15.3331049010397
 20
3.62764508216351
 30
0.0
 10
14.59520566232909
 20
3.927199513179748
 30
0.0
 10
14.22624465245758
 20
4.076981352733292
 30
0.0
  0
SPLINE
  5
21E
330
1F
100
AcDbEntity
  8
1
  6
Continuous
370
    15
100
AcDbSpline
210
0.0
220
0.0
230
1.0
 70
     8
 71
     3
 72
    20
 73
    16
 74
     0
 42
0.0000000001
 43
0.0000000001
 40
0.0
 40
0.0
 40
0.0
 40
0.0
 40
0.0205217159090059
 40
0.1062507871021254
 40
0.1920191347079159
 40
0.2753996650531678
 40
0.3587264856118509
 40
0.4420209434742877
 40
0.5253045908749473
 40
0.608599048737384
 40
0.6919258692960673
 40
0.7753063996413193
 40
0.8586869299865709
 40
0.9420137505452544
 40
1.0
 40
1.0
 40
1.0
 40
1.0
 10
47.2434187186422
 20
-4.551843937446636
 30
0.0
 10
47.13882053970173
 20
-4.558734670161878
 30
0.0
 10
46.59726549181221
 20
-4.594411305485705
 30
0.0
 10
45.61843547659799
 20
-4.417436753215949
 30
0.0
 10
44.31892378441858
 20
-4.023353872321102
 30
0.0
 10
43.03166393165918
 20
-3.40735512234465
 30
0.0
 10
41.75741705380494
 20
-2.631262245714814
 30
0.0
 10
40.4838111070835
 20
-1.722028468662743
 30
0.0
 10
39.21043891016137
 20
-0.7269153273448366
 30
0.0
 10
37.93683285994189
 20
0.3049320053353544
 30
0.0
 10
36.66258639633429
 20
1.321136243223265
 30
0.0
 10
35.38749939361793
 20
2.272971699471077
 30
0.0
 10
34.11241602841307
 20
3.103306045320409
 30
0.0
 10
32.96715441152594
 20
3.735018961610593
 30
0.0
 10
32.24697744029282
 20
3.99063650299512
 30
0.0
 10
31.95146081538672
 20
4.095526323294994
 30
0.0
  0
SPLINE
  5
21F
330
1F
100
AcDbEntity
  8
1
  6
Continuous
370
    15
100
AcDbSpline
210
0.0
220
0.0
230
1.0
 70
    24
 71
     3
 72
    14
 73
    10
 74
     0
 42
0.0000000001
 43
0.0000000001
 40
0.0
 40
0.0
 40
0.0
 40
0.0
 40
0.0004664087994115
 40
0.0004664087994115
 40
0.0004664087994115
 40
0.0009588119565848
 40
0.0009588119565848
 40
0.0009588119565848
 40
0.0014518323074529
 40
0.0014518323074529
 40
0.0014518323074529
 40
0.0014518323074529
 10
52.65620452324594
 20
0.1412948682265833
 30
0.0
 10
52.70947729932089
 20
0.1280845670173649
 30
0.0
 10
52.76544250353476
 20
0.1142066117206317
 30
0.0
 10
52.82390394522906
 20
0.0997096526580777
 30
0.0
 10
52.88562339390643
 20
0.0844047902580343
 30
0.0
 10
52.95014538586406
 20
0.0684049680002277
 30
0.0
 10
53.01719919597286
 20
0.0517773188700774
 30
0.0
 10
53.08433822309808
 20
0.0351285380749662
 30
0.0
 10
53.15403467849518
 20
0.0178455797452681
 30
0.0
 10
53.226
 20
0.0
 30
0.0
  0
SPLINE
  5
220
330
1F
100
AcDbEntity
  8
1
  6
Continuous
370
    15
100
AcDbSpline
210
0.0
220
0.0
230
1.0
 70
    11
 71
     3
 72
    34
 73
    30
 74
     0
 42
0.0000000001
 43
0.0000000001
 40
0.0
 40
0.0
 40
0.0
 40
0.0
 40
0.0625
 40
0.0625
 40
0.1249999999999999
 40
0.1249999999999999
 40
0.1874999999999999
 40
0.1874999999999999
 40
0.2499999999999998
 40
0.2499999999999998
 40
0.3124999999999998
 40
0.3124999999999998
 40
0.3749999999999998
 40
0.3749999999999998
 40
0.4999999999999999
 40
0.4999999999999999
 40
0.6249999999999999
 40
0.6249999999999999
 40
0.6874999999999999
 40
0.6874999999999999
 40
0.7499999999999997
 40
0.7499999999999997
 40
0.8124999999999996
 40
0.8124999999999996
 40
0.8749999999999998
 40
0.8749999999999998
 40
0.9374999999999998
 40
0.9374999999999998
 40
1.0
 40
1.0
 40
1.0
 40
1.0
 10
52.26485667345468
 20
1.393734251813389
 30
0.0
 10
52.22225050137416
 20
1.473702237079909
 30
0.0
 10
52.17719347648887
 20
1.553423012825168
 30
0.0
 10
52.08344686354971
 20
1.713044759252483
 30
0.0
 10
52.03455676376558
 20
1.793158832340789
 30
0.0
 10
51.939452807371
 20
1.944184436573848
 30
0.0
 10
51.89215176505141
 20
2.016835780723102
 30
0.0
 10
51.8085917775972
 20
2.139673233870822
 30
0.0
 10
51.77229446314879
 20
2.189758622915904
 30
0.0
 10
51.72698860640378
 20
2.242035742077376
 30
0.0
 10
51.71798356499943
 20
2.244068108508282
 30
0.0
 10
51.72610748536027
 20
2.203427707369651
 30
0.0
 10
51.7422587090177
 20
2.162453667111353
 30
0.0
 10
51.81014661367019
 20
2.005503894238935
 30
0.0
 10
51.88113702826019
 20
1.854533301464178
 30
0.0
 10
52.03265291009
 20
1.533150495224366
 30
0.0
 10
52.11575424092393
 20
1.356533559528323
 30
0.0
 10
52.23489363252667
 20
1.121063757871484
 30
0.0
 10
52.27419265514683
 20
1.047109094534801
 30
0.0
 10
52.3465945869803
 20
0.9264591258091243
 30
0.0
 10
52.38089539971702
 20
0.8782142572773876
 30
0.0
 10
52.43648586707331
 20
0.825248831363317
 30
0.0
 10
52.45773041922359
 20
0.8209994132009077
 30
0.0
 10
52.47495002398574
 20
0.8613955983896826
 30
0.0
 10
52.47060558741345
 20
0.9050899972540902
 30
0.0
 10
52.43880442567149
 20
1.019359205879845
 30
0.0
 10
52.41242048106295
 20
1.087920131115677
 30
0.0
 10
52.34619703474175
 20
1.236217366084232
 30
0.0
 10
52.30746284553518
 20
1.313766266546866
 30
0.0
 10
52.26485667345468
 20
1.393734251813389
 30
0.0
  0
SPLINE
  5
221
330
1F
100
AcDbEntity
  8
1
  6
Continuous
370
    15
100
AcDbSpline
210
0.0
220
0.0
230
1.0
 70
     8
 71
     3
 72
    20
 73
    16
 74
     0
 42
0.0000000001
 43
0.0000000001
 40
0.0
 40
0.0
 40
0.0
 40
0.0
 40
0.2499999999999999
 40
0.2499999999999999
 40
0.3749999999999998
 40
0.3749999999999998
 40
0.4999999999999999
 40
0.4999999999999999
 40
0.5624999999999999
 40
0.5624999999999999
 40
0.6249999999999999
 40
0.6249999999999999
 40
0.7499999999999999
 40
0.7499999999999999
 40
1.0
 40
1.0
 40
1.0
 40
1.0
 10
51.59411366753665
 20
0.396982084299748
 30
0.0
 10
51.71815765718213
 20
0.2059210666056979
 30
0.0
 10
51.82499167591001
 20
0.0021828442584333
 30
0.0
 10
51.92273698005468
 20
-0.3494674406578913
 30
0.0
 10
51.94399113095108
 20
-0.4744780677771887
 30
0.0
 10
51.94422183755449
 20
-0.7379194408912593
 30
0.0
 10
51.92241587139424
 20
-0.874184260680904
 30
0.0
 10
51.84579237979415
 20
-1.074285875252487
 30
0.0
 10
51.81394200166085
 20
-1.138003784471489
 30
0.0
 10
51.73852084477755
 20
-1.259898880253701
 30
0.0
 10
51.69454587926415
 20
-1.318312790696313
 30
0.0
 10
51.55380242155695
 20
-1.47825638522697
 30
0.0
 10
51.44510091365351
 20
-1.569010214291335
 30
0.0
 10
51.10909550068623
 20
-1.797572665723042
 30
0.0
 10
50.86763305623001
 20
-1.89897584633639
 30
0.0
 10
50.62643154341208
 20
-1.971389147200607
 30
0.0
  0
SPLINE
  5
222
330
1F
100
AcDbEntity
  8
1
  6
Continuous
370
    15
100
AcDbSpline
210
0.0
220
0.0
230
1.0
 70
     8
 71
     3
 72
    14
 73
    10
 74
     0
 42
0.0000000001
 43
0.0000000001
 40
0.0
 40
0.0
 40
0.0
 40
0.0
 40
0.25
 40
0.25
 40
0.5
 40
0.5
 40
0.75
 40
0.75
 40
1.0
 40
1.0
 40
1.0
 40
1.0
 10
50.62643154341208
 20
-1.971389147200608
 30
0.0
 10
50.22978880459959
 20
-2.090468872885907
 30
0.0
 10
49.83955972991214
 20
-2.156358515394384
 30
0.0
 10
49.06786426306254
 20
-2.215466733876308
 30
0.0
 10
48.68472691232241
 20
-2.20416123199516
 30
0.0
 10
47.94086489942805
 20
-2.116965245648477
 30
0.0
 10
47.57842805314658
 20
-2.03991830120927
 30
0.0
 10
46.88148351353265
 20
-1.821198572411907
 30
0.0
 10
46.5465117194401
 20
-1.683881536913203
 30
0.0
 10
46.22575245500255
 20
-1.51713278865608
 30
0.0
  0
SPLINE
  5
223
330
1F
100
AcDbEntity
  8
1
  6
Continuous
370
    15
100
AcDbSpline
210
0.0
220
0.0
230
1.0
 70
     8
 71
     3
 72
    30
 73
    26
 74
     0
 42
0.0000000001
 43
0.0000000001
 40
0.0
 40
0.0
 40
0.0
 40
0.0
 40
0.2499999999999968
 40
0.2499999999999968
 40
0.4999999999999937
 40
0.4999999999999937
 40
0.6249999999999933
 40
0.6249999999999933
 40
0.6874999999999921
 40
0.6874999999999921
 40
0.7187499999999921
 40
0.7187499999999921
 40
0.7499999999999921
 40
0.7499999999999921
 40
0.7812499999999922
 40
0.7812499999999922
 40
0.8124999999999921
 40
0.8124999999999921
 40
0.8437499999999923
 40
0.8437499999999923
 40
0.8749999999999923
 40
0.8749999999999923
 40
0.937499999999996
 40
0.937499999999996
 40
1.0
 40
1.0
 40
1.0
 40
1.0
 10
4.678126417511691
 20
-4.584006905705421
 30
0.0
 10
4.376870058552441
 20
-4.68302930193882
 30
0.0
 10
4.084439062286662
 20
-4.744731175080013
 30
0.0
 10
3.516199547353522
 20
-4.78708603747789
 30
0.0
 10
3.237641201536462
 20
-4.767591644306305
 30
0.0
 10
2.858284990749837
 20
-4.664102128243933
 30
0.0
 10
2.737314364604316
 20
-4.617105760632439
 30
0.0
 10
2.581744858783849
 20
-4.524004794535706
 30
0.0
 10
2.533963730290139
 20
-4.489194974907277
 30
0.0
 10
2.476371656263694
 20
-4.428995552313906
 30
0.0
 10
2.459813823941061
 20
-4.407820987013096
 30
0.0
 10
2.435939229347923
 20
-4.362734755635275
 30
0.0
 10
2.428326946447342
 20
-4.338530222518483
 30
0.0
 10
2.433544748517405
 20
-4.288371652019395
 30
0.0
 10
2.447196567393092
 20
-4.261928607964499
 30
0.0
 10
2.513635679769151
 20
-4.217377160690255
 30
0.0
 10
2.566100657300324
 20
-4.201362296215501
 30
0.0
 10
2.677551948944852
 20
-4.184209675900032
 30
0.0
 10
2.737018592130397
 20
-4.181670067367553
 30
0.0
 10
2.853237503241786
 20
-4.182095571282809
 30
0.0
 10
2.910878921148295
 20
-4.185093937127005
 30
0.0
 10
3.083055225041178
 20
-4.198441360166677
 30
0.0
 10
3.196060244062522
 20
-4.213033919433222
 30
0.0
 10
3.417357824090956
 20
-4.245795012506802
 30
0.0
 10
3.526308407460049
 20
-4.264262813623192
 30
0.0
 10
3.634282785851681
 20
-4.283525425475155
 30
0.0
  0
SPLINE
  5
224
330
1F
100
AcDbEntity
  8
1
  6
Continuous
370
    15
100
AcDbSpline
210
0.0
220
0.0
230
1.0
 70
     8
 71
     3
 72
    10
 73
     6
 74
     0
 42
0.0000000001
 43
0.0000000001
 40
0.0
 40
0.0
 40
0.0
 40
0.0
 40
0.4371788217291032
 40
0.8095953427074164
 40
1.0
 40
1.0
 40
1.0
 40
1.0
 10
3.634282785851851
 20
-4.283525425475257
 30
0.0
 10
4.318447935833603
 20
-4.398437314003737
 30
0.0
 10
5.585428154310818
 20
-4.611238403970576
 30
0.0
 10
7.113630852725179
 20
-4.767934850688963
 30
0.0
 10
7.965112658170326
 20
-4.757436563040848
 30
0.0
 10
8.25317236099589
 20
-4.753884950310249
 30
0.0
  0
SPLINE
  5
225
330
1F
100
AcDbEntity
  8
1
  6
Continuous
370
    15
100
AcDbSpline
210
0.0
220
0.0
230
1.0
 70
     8
 71
     3
 72
    30
 73
    26
 74
     0
 42
0.0000000001
 43
0.0000000001
 40
0.0
 40
0.0
 40
0.0
 40
0.0
 40
0.124999999999998
 40
0.124999999999998
 40
0.1874999999999974
 40
0.1874999999999974
 40
0.2499999999999968
 40
0.2499999999999968
 40
0.3749999999999967
 40
0.3749999999999967
 40
0.4374999999999972
 40
0.4374999999999972
 40
0.4999999999999976
 40
0.4999999999999976
 40
0.5624999999999979
 40
0.5624999999999979
 40
0.6249999999999984
 40
0.6249999999999984
 40
0.7499999999999992
 40
0.7499999999999992
 40
0.8124999999999996
 40
0.8124999999999996
 40
0.8750000000000001
 40
0.8750000000000001
 40
1.0
 40
1.0
 40
1.0
 40
1.0
 10
14.226
 20
-3.979419141404858
 30
0.0
 10
13.82093009608854
 20
-3.728868658769977
 30
0.0
 10
13.42307046454201
 20
-3.42937077587753
 30
0.0
 10
12.82371535732747
 20
-2.917322909112733
 30
0.0
 10
12.62354701997938
 20
-2.736077841171356
 30
0.0
 10
12.2202070265308
 20
-2.353416089104047
 30
0.0
 10
12.01811112067914
 20
-2.152953151115216
 30
0.0
 10
11.41779358795125
 20
-1.537775178768575
 30
0.0
 10
11.02145942483966
 20
-1.105408100953132
 30
0.0
 10
10.41973458338285
 20
-0.4342552731586525
 30
0.0
 10
10.21738680110942
 20
-0.2061240108175593
 30
0.0
 10
9.817508058812549
 20
0.245099057148721
 30
0.0
 10
9.618846711027089
 20
0.4694780666461096
 30
0.0
 10
9.221880253932397
 20
0.9138760225033273
 30
0.0
 10
9.023576258715621
 20
1.133895969786903
 30
0.0
 10
8.625109625748393
 20
1.567549214965927
 30
0.0
 10
8.423738770607684
 20
1.782408581052513
 30
0.0
 10
7.825408227558625
 20
2.40172268467849
 30
0.0
 10
7.432855587417662
 20
2.782806403112352
 30
0.0
 10
6.840205135529998
 20
3.297074671860444
 30
0.0
 10
6.641004451074778
 20
3.459667429432436
 30
0.0
 10
6.244050612732991
 20
3.75946071179231
 30
0.0
 10
6.047519001387001
 20
3.895857324151511
 30
0.0
 10
5.460288935343882
 20
4.263785910590738
 30
0.0
 10
5.072057203036422
 20
4.454521766742232
 30
0.0
 10
4.678126417511066
 20
4.584006905705581
 30
0.0
  0
SPLINE
  5
226
330
1F
100
AcDbEntity
  8
1
  6
Continuous
370
    15
100
AcDbSpline
210
0.0
220
0.0
230
1.0
 70
     8
 71
     3
 72
     9
 73
     5
 74
     0
 42
0.0000000001
 43
0.0000000001
 40
0.0
 40
0.0
 40
0.0
 40
0.0
 40
0.5854385125062868
 40
1.0
 40
1.0
 40
1.0
 40
1.0
 10
4.678126417511691
 20
4.584006905705423
 30
0.0
 10
4.459739598720702
 20
4.648634811201636
 30
0.0
 10
4.086708419312856
 20
4.759027113921075
 30
0.0
 10
3.737504732875592
 20
4.759104479869272
 30
0.0
 10
3.592738333187881
 20
4.759136552811836
 30
0.0
  0
SPLINE
  5
227
330
1F
100
AcDbEntity
  8
1
  6
Continuous
370
    15
100
AcDbSpline
210
0.0
220
0.0
230
1.0
 70
     8
 71
     3
 72
    14
 73
    10
 74
     0
 42
0.0000000001
 43
0.0000000001
 40
0.0
 40
0.0
 40
0.0
 40
0.0
 40
0.0791087190152337
 40
0.2605381552313819
 40
0.4431891158496958
 40
0.5807633681319663
 40
0.7189640803648416
 40
0.8591247973254681
 40
1.0
 40
1.0
 40
1.0
 40
1.0
 10
4.918949685404015
 20
4.484461433469498
 30
0.0
 10
5.172661554564456
 20
4.526274470340312
 30
0.0
 10
6.008241035236309
 20
4.663982318812046
 30
0.0
 10
7.393011733408755
 20
4.774623031023472
 30
0.0
 10
8.953866020469533
 20
4.782930928860204
 30
0.0
 10
10.36912005885571
 20
4.662157598819914
 30
0.0
 10
11.64868600004084
 20
4.454148774115666
 30
0.0
 10
12.93469870934046
 20
4.152341042886004
 30
0.0
 10
13.79483731805953
 20
3.872154517134892
 30
0.0
 10
14.226
 20
3.731705091121651
 30
0.0
  0
SPLINE
  5
228
330
1F
100
AcDbEntity
  8
1
  6
Continuous
370
    15
100
AcDbSpline
210
0.0
220
0.0
230
1.0
 70
     8
 71
     3
 72
    14
 73
    10
 74
     0
 42
0.0000000001
 43
0.0000000001
 40
0.0
 40
0.0
 40
0.0
 40
0.0
 40
0.0003494469863665
 40
0.0003494469863665
 40
0.0003494469863665
 40
0.0006988942178382
 40
0.0006988942178382
 40
0.0006988942178382
 40
0.0013305706200417
 40
0.0013305706200417
 40
0.0013305706200417
 40
0.0013305706200417
 10
51.24854445323089
 20
2.928701150264754
 30
0.0
 10
51.15905674117053
 20
2.983316739422487
 30
0.0
 10
51.06948657854855
 20
3.037923316055114
 30
0.0
 10
50.97995995333292
 20
3.092599736558809
 30
0.0
 10
50.89043330690379
 20
3.147276170018186
 30
0.0
 10
50.80095061057926
 20
3.202022274254759
 30
0.0
 10
50.71162641508187
 20
3.256842639365943
 30
0.0
 10
50.55016295284445
 20
3.355936573575818
 30
0.0
 10
50.38928683711944
 20
3.455313266565743
 30
0.0
 10
50.22934531383288
 20
3.554450131549072
 30
0.0
  0
SPLINE
  5
229
330
1F
100
AcDbEntity
  8
1
  6
Continuous
370
    15
100
AcDbSpline
210
0.0
220
0.0
230
1.0
 70
     8
 71
     3
 72
     8
 73
     4
 74
     0
 42
0.0000000001
 43
0.0000000001
 40
0.0
 40
0.0
 40
0.0
 40
0.0
 40
1.0
 40
1.0
 40
1.0
 40
1.0
 10
50.96742175410773
 20
3.472886159695222
 30
0.0
 10
51.05736038481848
 20
3.304909847013438
 30
0.0
 10
51.15166438834336
 20
3.123803230777729
 30
0.0
 10
51.2485444532308
 20
2.9287011502649
 30
0.0
  0
SPLINE
  5
22A
330
1F
100
AcDbEntity
  8
1
  6
Continuous
370
    15
100
AcDbSpline
210
0.0
220
0.0
230
1.0
 70
     8
 71
     3
 72
    14
 73
    10
 74
     0
 42
0.0000000001
 43
0.0000000001
 40
0.0
 40
0.0
 40
0.0
 40
0.0
 40
0.25
 40
0.25
 40
0.5
 40
0.5
 40
0.75
 40
0.75
 40
1.0
 40
1.0
 40
1.0
 40
1.0
 10
50.86033238356924
 20
3.670773976075623
 30
0.0
 10
50.87613879555437
 20
3.642021246479793
 30
0.0
 10
50.88778114794715
 20
3.620622755619865
 30
0.0
 10
50.90092286547122
 20
3.596281814336349
 30
0.0
 10
50.90263228925619
 20
3.592999146009113
 30
0.0
 10
50.90872571042368
 20
3.581687678183533
 30
0.0
 10
50.91381736969544
 20
3.572350461796962
 30
0.0
 10
50.93474066248091
 20
3.533707976336654
 30
0.0
 10
50.94985453714738
 20
3.505696046901195
 30
0.0
 10
50.96742175410773
 20
3.472886159695224
 30
0.0
  0
SPLINE
  5
22B
330
1F
100
AcDbEntity
  8
1
  6
Continuous
370
    15
100
AcDbSpline
210
0.0
220
0.0
230
1.0
 70
     8
 71
     3
 72
     9
 73
     5
 74
     0
 42
0.0000000001
 43
0.0000000001
 40
0.0
 40
0.0
 40
0.0
 40
0.0
 40
0.1583513642830415
 40
1.0
 40
1.0
 40
1.0
 40
1.0
 10
29.05182148445579
 20
-4.767443153187322
 30
0.0
 10
29.04045557544311
 20
-4.768982856475507
 30
0.0
 10
28.96867906082872
 20
-4.77870619100538
 30
0.0
 10
28.89688687635237
 20
-4.768208111047032
 30
0.0
 10
28.83646308223266
 20
-4.759372416372439
 30
0.0
  0
SPLINE
  5
22C
330
1F
100
AcDbEntity
  8
1
  6
Continuous
370
    15
100
AcDbSpline
210
0.0
220
0.0
230
1.0
 70
     8
 71
     3
 72
     9
 73
     5
 74
     0
 42
0.0000000001
 43
0.0000000001
 40
0.0
 40
0.0
 40
0.0
 40
0.0
 40
0.1583513642831599
 40
1.0
 40
1.0
 40
1.0
 40
1.0
 10
29.0518214844559
 20
4.767443153187298
 30
0.0
 10
29.04045557544319
 20
4.768982856475489
 30
0.0
 10
28.96867906082866
 20
4.77870619100538
 30
0.0
 10
28.89688687635209
 20
4.768208111047017
 30
0.0
 10
28.83646308223229
 20
4.759372416372415
 30
0.0
  0
SPLINE
  5
22D
330
1F
100
AcDbEntity
  8
1
  6
Continuous
370
    15
100
AcDbSpline
210
0.0
220
0.0
230
1.0
 70
     8
 71
     3
 72
    26
 73
    22
 74
     0
 42
0.0000000001
 43
0.0000000001
 40
0.0
 40
0.0
 40
0.0
 40
0.0
 40
0.0252262541044418
 40
0.0761665926809762
 40
0.1309517413337558
 40
0.185702257230098
 40
0.2404319058200327
 40
0.2951545839735745
 40
0.3498842325635092
 40
0.4046347484598515
 40
0.4594198971126311
 40
0.5142050457654108
 40
0.5689555616617529
 40
0.6236852102516878
 40
0.6784078884052296
 40
0.7331375369951642
 40
0.7878880528915062
 40
0.8426732015442862
 40
0.8974583501970657
 40
0.952208866093408
 40
1.0
 40
1.0
 40
1.0
 40
1.0
 10
46.07937518420942
 20
-4.748067287905695
 30
0.0
 10
45.88374976166813
 20
-4.75311669712394
 30
0.0
 10
45.29309045033895
 20
-4.768362571268127
 30
0.0
 10
44.27690864009713
 20
-4.563932551876294
 30
0.0
 10
43.031656938883
 20
-4.139949293987848
 30
0.0
 10
41.75741225921285
 20
-3.485973271163191
 30
0.0
 10
40.48380959458969
 20
-2.660587505200254
 30
0.0
 10
39.21044049878921
 20
-1.70099672810486
 30
0.0
 10
37.93683727373838
 20
-0.6563147016614926
 30
0.0
 10
36.66259483713048
 20
0.4215634995448561
 30
0.0
 10
35.38750000069686
 20
1.478148725740529
 30
0.0
 10
34.1124051600832
 20
2.460618951147375
 30
0.0
 10
32.83816273600587
 20
3.319792608032678
 30
0.0
 10
31.56455946503476
 20
4.012330919558739
 30
0.0
 10
30.29119054036505
 20
4.503675472295898
 30
0.0
 10
29.01758723698669
 20
4.769332021048957
 30
0.0
 10
27.74334494261669
 20
4.795587948889658
 30
0.0
 10
26.46824961526494
 20
4.582315781217057
 30
0.0
 10
25.19315659583754
 20
4.13562552270135
 30
0.0
 10
23.97273126521034
 20
3.522099012303907
 30
0.0
 10
23.17739791371996
 20
2.990001481307317
 30
0.0
 10
22.80672041072969
 20
2.742009134742816
 30
0.0
  0
SPLINE
  5
22E
330
1F
100
AcDbEntity
  8
1
  6
Continuous
370
    15
100
AcDbSpline
210
0.0
220
0.0
230
1.0
 70
     8
 71
     3
 72
    10
 73
     6
 74
     0
 42
0.0000000001
 43
0.0000000001
 40
0.0
 40
0.0
 40
0.0
 40
0.0
 40
0.5
 40
0.5
 40
1.0
 40
1.0
 40
1.0
 40
1.0
 10
51.5881886457297
 20
0.4061357959583143
 30
0.0
 10
51.35603271659104
 20
0.849567994894711
 30
0.0
 10
51.1235812872568
 20
1.342429732852937
 30
0.0
 10
50.66738578672067
 20
2.401872986950871
 30
0.0
 10
50.44457862350444
 20
2.966151405905347
 30
0.0
 10
50.22934531383288
 20
3.554450131549075
 30
0.0
  0
SPLINE
  5
22F
330
1F
100
AcDbEntity
  8
1
  6
Continuous
370
    15
100
AcDbSpline
210
0.0
220
0.0
230
1.0
 70
     8
 71
     3
 72
    19
 73
    15
 74
     0
 42
0.0000000001
 43
0.0000000001
 40
0.0
 40
0.0
 40
0.0
 40
0.0
 40
0.0354759874181472
 40
0.1264477386335354
 40
0.2174194898489228
 40
0.3083337327325817
 40
0.3992133250685332
 40
0.4900813428661113
 40
0.580960935202063
 40
0.6718751780857219
 40
0.7628469293011096
 40
0.8419802553212043
 40
0.9209877278729001
 40
1.0
 40
1.0
 40
1.0
 40
1.0
 10
28.24074583571766
 20
-4.745433606710871
 30
0.0
 10
28.0750174509767
 20
-4.752676910929954
 30
0.0
 10
27.48430860809435
 20
-4.778494358318866
 30
0.0
 10
26.4682381045669
 20
-4.57223239292857
 30
0.0
 10
25.19315833898804
 20
-4.14044664053182
 30
0.0
 10
23.9189119088631
 20
-3.485840974937315
 30
0.0
 10
22.64530959685942
 20
-2.66061967609666
 30
0.0
 10
21.37194083992718
 20
-1.701000298443299
 30
0.0
 10
20.09833590648213
 20
-0.656268232580282
 30
0.0
 10
18.82409996844457
 20
0.4213810679177188
 30
0.0
 10
17.60430417301575
 20
1.432952990507062
 30
0.0
 10
16.44024926589996
 20
2.331617362018088
 30
0.0
 10
15.33314177938547
 20
3.110053796962641
 30
0.0
 10
14.59525167709893
 20
3.524581023514937
 30
0.0
 10
14.22629541989025
 20
3.731850932063506
 30
0.0
  0
SPLINE
  5
230
330
1F
100
AcDbEntity
  8
1
  6
Continuous
370
    15
100
AcDbSpline
210
0.0
220
0.0
230
1.0
 70
     8
 71
     3
 72
    15
 73
    11
 74
     0
 42
0.0000000001
 43
0.0000000001
 40
0.0
 40
0.0
 40
0.0
 40
0.0
 40
0.1237022115421951
 40
0.247256720047019
 40
0.3707587354930979
 40
0.4943055939526936
 40
0.6179940674557211
 40
0.7510181422230932
 40
0.8839581250331551
 40
1.0
 40
1.0
 40
1.0
 40
1.0
 10
50.22934531383285
 20
3.554450131549097
 30
0.0
 10
49.83400599524978
 20
3.761172381400375
 30
0.0
 10
49.0437994015291
 20
4.174370050397038
 30
0.0
 10
47.85967314703199
 20
4.572168276092605
 30
0.0
 10
46.67615915057419
 20
4.782732262902404
 30
0.0
 10
45.49212737353474
 20
4.782723732049046
 30
0.0
 10
44.27692315358683
 20
4.571924355637752
 30
0.0
 10
43.03165427555547
 20
4.135608882252651
 30
0.0
 10
41.81123175996069
 20
3.522102560521742
 30
0.0
 10
41.01589807100242
 20
2.990002609293799
 30
0.0
 10
40.64522041073002
 20
2.742009134742803
 30
0.0
  0
SPLINE
  5
231
330
1F
100
AcDbEntity
  8
1
  6
Continuous
370
    15
100
AcDbSpline
210
0.0
220
0.0
230
1.0
 70
     8
 71
     3
 72
     8
 73
     4
 74
     0
 42
0.0000000001
 43
0.0000000001
 40
0.0
 40
0.0
 40
0.0
 40
0.0
 40
1.0
 40
1.0
 40
1.0
 40
1.0
 10
51.58818864573771
 20
0.4061357959599326
 30
0.0
 10
51.59015969050622
 20
0.4030814814024231
 30
0.0
 10
51.59213469103682
 20
0.4000302389513158
 30
0.0
 10
51.59411366753656
 20
0.3969820842997578
 30
0.0
  0
SPLINE
  5
232
330
1F
100
AcDbEntity
  8
1
  6
Continuous
370
    15
100
AcDbSpline
210
0.0
220
0.0
230
1.0
 70
     8
 71
     3
 72
    27
 73
    23
 74
     0
 42
0.0000000001
 43
0.0000000001
 40
0.0
 40
0.0
 40
0.0
 40
0.0
 40
0.0069913370645932
 40
0.0621304810578899
 40
0.1172767822738487
 40
0.1724445096811913
 40
0.2276477964299881
 40
0.2828510831787847
 40
0.3380188105861272
 40
0.3931651118020861
 40
0.4483042557953829
 40
0.5034505570113415
 40
0.5586182844186839
 40
0.613821571167481
 40
0.6690248579162775
 40
0.7241925853236199
 40
0.7793388865395787
 40
0.8344780305328754
 40
0.8896243317488343
 40
0.9447920591561768
 40
0.9999953459049736
 40
1.0
 40
1.0
 40
1.0
 40
1.0
 10
40.64522041072968
 20
-2.742009134742815
 30
0.0
 10
40.59140258682759
 20
-2.778938367741204
 30
0.0
 10
40.11313537447168
 20
-3.107120372140427
 30
0.0
 10
39.21044490915455
 20
-3.598273693734145
 30
0.0
 10
37.93683129212465
 20
-4.157824087946396
 30
0.0
 10
36.66258666608005
 20
-4.496343825319901
 30
0.0
 10
35.38749988423786
 20
-4.61270853377772
 30
0.0
 10
34.11241379681963
 20
-4.49687190797563
 30
0.0
 10
32.83816708911436
 20
-4.155713686218791
 30
0.0
 10
31.56456110059253
 20
-3.606184004420319
 30
0.0
 10
30.29118890082805
 20
-2.875918532669164
 30
0.0
 10
29.01758290378097
 20
-2.001433515755588
 30
0.0
 10
27.74333623019766
 20
-1.026386177562014
 30
0.0
 10
26.46825001473203
 20
-0.0000057016115651
 30
0.0
 10
25.19316371089357
 20
1.026408976661048
 30
0.0
 10
23.91891730222363
 20
2.001353787250232
 30
0.0
 10
22.64531033436814
 20
2.876214529498885
 30
0.0
 10
21.37194175250025
 20
3.605079791514996
 30
0.0
 10
20.09832225991706
 20
4.159835857646542
 30
0.0
 10
18.82412598093722
 20
4.481476995349624
 30
0.0
 10
17.97399848048127
 20
4.607286519905522
 30
0.0
 10
17.54892833216163
 20
4.573994387551157
 30
0.0
 10
17.54889249824296
 20
4.573991580984832
 30
0.0
  0
SPLINE
  5
233
330
1F
100
AcDbEntity
  8
1
  6
Continuous
370
    15
100
AcDbSpline
210
0.0
220
0.0
230
1.0
 70
     8
 71
     3
 72
    14
 73
    10
 74
     0
 42
0.0000000001
 43
0.0000000001
 40
0.0
 40
0.0
 40
0.0
 40
0.0
 40
0.2500000000000001
 40
0.2500000000000001
 40
0.5
 40
0.5
 40
0.75
 40
0.75
 40
1.0
 40
1.0
 40
1.0
 40
1.0
 10
50.35168077084205
 20
4.574
 30
0.0
 10
50.34761204009817
 20
4.574000000000002
 30
0.0
 10
50.35761541371499
 20
4.553560651354417
 30
0.0
 10
50.40238397426157
 20
4.473494739792122
 30
0.0
 10
50.43768924179463
 20
4.412980622307498
 30
0.0
 10
50.52809944172125
 20
4.257662457143342
 30
0.0
 10
50.58318668154504
 20
4.162893478572125
 30
0.0
 10
50.71014366863408
 20
3.940671955810608
 30
0.0
 10
50.782386290853
 20
3.812562190189624
 30
0.0
 10
50.86033238356924
 20
3.670773976075623
 30
0.0
  0
SPLINE
  5
234
330
1F
100
AcDbEntity
  8
1
  6
Continuous
370
    15
100
AcDbSpline
210
0.0
220
0.0
230
1.0
 70
     8
 71
     3
 72
    24
 73
    20
 74
     0
 42
0.0000000001
 43
0.0000000001
 40
0.0
 40
0.0
 40
0.0
 40
0.0
 40
0.1250000000000001
 40
0.1250000000000001
 40
0.1875000000000001
 40
0.1875000000000001
 40
0.2500000000000001
 40
0.2500000000000001
 40
0.3125000000000001
 40
0.3125000000000001
 40
0.3750000000000001
 40
0.3750000000000001
 40
0.5
 40
0.5
 40
0.7499999999999999
 40
0.7499999999999999
 40
0.8749999999999998
 40
0.8749999999999998
 40
1.0
 40
1.0
 40
1.0
 40
1.0
 10
46.22575245500479
 20
-1.517132788657845
 30
0.0
 10
46.18641118032704
 20
-1.807031883238623
 30
0.0
 10
46.19463773040473
 20
-2.081943877053598
 30
0.0
 10
46.27557782867876
 20
-2.472698114958777
 30
0.0
 10
46.31385523321921
 20
-2.597378930442252
 30
0.0
 10
46.40840019740778
 20
-2.831001912693621
 30
0.0
 10
46.46488502565737
 20
-2.94098902755912
 30
0.0
 10
46.59414893368818
 20
-3.148892705278496
 30
0.0
 10
46.66693156481463
 20
-3.246514137311204
 30
0.0
 10
46.82260052038805
 20
-3.426294921135124
 30
0.0
 10
46.90595931797651
 20
-3.509241955574092
 30
0.0
 10
47.17002297245892
 20
-3.74050287496692
 30
0.0
 10
47.36631489786122
 20
-3.872221093853338
 30
0.0
 10
47.98352427032395
 20
-4.205116594872232
 30
0.0
 10
48.43130547109746
 20
-4.348232121041909
 30
0.0
 10
49.13758419813667
 20
-4.487783763729746
 30
0.0
 10
49.37823598236724
 20
-4.52094823060226
 30
0.0
 10
49.86183088206127
 20
-4.563964885441476
 30
0.0
 10
50.10580424063255
 20
-4.573999999999996
 30
0.0
 10
50.35168077084205
 20
-4.573999999999998
 30
0.0
  0
SPLINE
  5
235
330
1F
100
AcDbEntity
  8
1
  6
Continuous
370
    15
100
AcDbSpline
210
0.0
220
0.0
230
1.0
 70
     8
 71
     3
 72
    15
 73
    11
 74
     0
 42
0.0000000001
 43
0.0000000001
 40
0.0
 40
0.0
 40
0.0
 40
0.0
 40
0.0188165158395879
 40
0.1672182545546699
 40
0.3156392562508304
 40
0.4641179244942948
 40
0.6126922973083634
 40
0.7419318316193598
 40
0.8709619250957935
 40
1.0
 40
1.0
 40
1.0
 40
1.0
 10
22.80672041073007
 20
-2.742009134742802
 30
0.0
 10
22.75290258595145
 20
-2.77893839376732
 30
0.0
 10
22.27463536580676
 20
-3.107120629454405
 30
0.0
 10
21.37194527774308
 20
-3.598262748354159
 30
0.0
 10
20.0983299809255
 20
-4.157863024523072
 30
0.0
 10
18.82409154558888
 20
-4.496198926383624
 30
0.0
 10
17.60430600784812
 20
-4.608170965592822
 30
0.0
 10
16.44026413311863
 20
-4.514065707772111
 30
0.0
 10
15.33312850212643
 20
-4.263490048737422
 30
0.0
 10
14.59523709295962
 20
-3.96289860829471
 30
0.0
 10
14.22627997777293
 20
-3.8125982397882
 30
0.0
  0
SPLINE
  5
236
330
1F
100
AcDbEntity
  8
1
  6
Continuous
370
    15
100
AcDbSpline
210
0.0
220
0.0
230
1.0
 70
     8
 71
     3
 72
    34
 73
    30
 74
     0
 42
0.0000000001
 43
0.0000000001
 40
0.0
 40
0.0
 40
0.0
 40
0.0
 40
0.0625000000000001
 40
0.0625000000000001
 40
0.1250000000000002
 40
0.1250000000000002
 40
0.1875000000000003
 40
0.1875000000000003
 40
0.2500000000000004
 40
0.2500000000000004
 40
0.3750000000000006
 40
0.3750000000000006
 40
0.4375000000000007
 40
0.4375000000000007
 40
0.5000000000000008
 40
0.5000000000000008
 40
0.5625000000000009
 40
0.5625000000000009
 40
0.625000000000001
 40
0.625000000000001
 40
0.6875000000000011
 40
0.6875000000000011
 40
0.7500000000000011
 40
0.7500000000000011
 40
0.8125000000000012
 40
0.8125000000000012
 40
0.875000000000001
 40
0.875000000000001
 40
1.0
 40
1.0
 40
1.0
 40
1.0
 10
46.22575245500249
 20
-1.517132788656035
 30
0.0
 10
45.9994703059649
 20
-1.345406781978977
 30
0.0
 10
45.77604297743221
 20
-1.170812582045646
 30
0.0
 10
45.32509516101899
 20
-0.8158629978102309
 30
0.0
 10
45.09783809062156
 20
-0.6355591028769956
 30
0.0
 10
44.64459551766867
 20
-0.2731171185019168
 30
0.0
 10
44.4199290616053
 20
-0.0913402478823748
 30
0.0
 10
43.97054248415514
 20
0.2717976987698059
 30
0.0
 10
43.74360316435047
 20
0.4537560839842208
 30
0.0
 10
43.06327040806141
 20
0.9949687882970215
 30
0.0
 10
42.61597330774384
 20
1.348084249012027
 30
0.0
 10
41.93572143233285
 20
1.856039974264075
 30
0.0
 10
41.70866952900917
 20
2.021404175958061
 30
0.0
 10
41.25878661553843
 20
2.340777171444395
 30
0.0
 10
41.03458989461694
 20
2.49513793008164
 30
0.0
 10
40.58150893821417
 20
2.792340422975306
 30
0.0
 10
40.35419350086653
 20
2.934801541304772
 30
0.0
 10
39.9028547116817
 20
3.204459723802217
 30
0.0
 10
39.67959872863705
 20
3.331559438655054
 30
0.0
 10
39.22730330827926
 20
3.570452832114074
 30
0.0
 10
38.99990903902221
 20
3.681893394182536
 30
0.0
 10
38.54747494136805
 20
3.886381312593042
 30
0.0
 10
38.32414407530308
 20
3.979236657599668
 30
0.0
 10
37.8729973225324
 20
4.146310118061163
 30
0.0
 10
37.64570913779676
 20
4.220391750925929
 30
0.0
 10
37.1925432354976
 20
4.347978003631582
 30
0.0
 10
36.96812206556268
 20
4.401394142109464
 30
0.0
 10
36.29366501770977
 20
4.530220453909042
 30
0.0
 10
35.83531835180134
 20
4.573997191934794
 30
0.0
 10
35.38754369854451
 20
4.573999999862986
 30
0.0
  0
SPLINE
  5
237
330
1F
100
AcDbEntity
  8
1
  6
Continuous
370
    15
100
AcDbSpline
210
0.0
220
0.0
230
1.0
 70
     8
 71
     3
 72
    22
 73
    18
 74
     0
 42
0.0000000001
 43
0.0000000001
 40
0.0
 40
0.0
 40
0.0
 40
0.0
 40
0.0004553145402605
 40
0.0015069481919848
 40
0.0024521331395572
 40
0.0033528339973971
 40
0.0042801152552563
 40
0.0064511942712616
 40
0.0093239306263201
 40
0.0176962677018873
 40
0.0299158006267281
 40
0.0875897339328494
 40
0.1586104651073147
 40
0.2388294425237504
 40
0.4638438684542633
 40
0.7463673968334873
 40
1.0
 40
1.0
 40
1.0
 40
1.0
 10
49.85637174803475
 20
4.080051351445566
 30
0.0
 10
49.8564689475852
 20
4.080066819302143
 30
0.0
 10
49.85679064758333
 20
4.080118013051614
 30
0.0
 10
49.85628021975066
 20
4.080676432814013
 30
0.0
 10
49.85514862487059
 20
4.081557004691542
 30
0.0
 10
49.85313044053317
 20
4.082780217443619
 30
0.0
 10
49.84921543683475
 20
4.084896667001506
 30
0.0
 10
49.84196315683945
 20
4.088433559698473
 30
0.0
 10
49.8255008709254
 20
4.095960083210603
 30
0.0
 10
49.79753411996279
 20
4.108027456543504
 30
0.0
 10
49.70880837190333
 20
4.145069137878924
 30
0.0
 10
49.55859574946504
 20
4.204338531829882
 30
0.0
 10
49.3349075476819
 20
4.287693581335918
 30
0.0
 10
48.93638248813664
 20
4.42435926059855
 30
0.0
 10
48.32172954447123
 20
4.596875666888979
 30
0.0
 10
47.52605797441055
 20
4.741644803435549
 30
0.0
 10
46.94786129640386
 20
4.763609456139797
 30
0.0
 10
46.67434110339164
 20
4.773999996721635
 30
0.0
  0
SPLINE
  5
238
330
1F
100
AcDbEntity
  8
1
  6
Continuous
370
    15
100
AcDbSpline
210
0.0
220
0.0
230
1.0
 70
     8
 71
     3
 72
    10
 73
     6
 74
     0
 42
0.0000000001
 43
0.0000000001
 40
0.0
 40
0.0
 40
0.0
 40
0.0
 40
0.373735434502552
 40
0.8333757488290116
 40
1.0
 40
1.0
 40
1.0
 40
1.0
 10
29.05740028094965
 20
-4.76207195080871
 30
0.0
 10
29.23768811491607
 20
-4.75546280770706
 30
0.0
 10
29.63970380506999
 20
-4.74072537830386
 30
0.0
 10
30.12243756326086
 20
-4.667709243994285
 30
0.0
 10
30.42478405997062
 20
-4.593692036824277
 30
0.0
 10
30.50522651414082
 20
-4.57399898312472
 30
0.0
  0
SPLINE
  5
239
330
1F
100
AcDbEntity
  8
1
  6
Continuous
370
    15
100
AcDbSpline
210
0.0
220
0.0
230
1.0
 70
     8
 71
     3
 72
    22
 73
    18
 74
     0
 42
0.0000000001
 43
0.0000000001
 40
0.0
 40
0.0
 40
0.0
 40
0.0
 40
0.0005526241944037
 40
0.0013828823753793
 40
0.0021499102755133
 40
0.0029223569604059
 40
0.0037676273054275
 40
0.0047381376843929
 40
0.0071784808571242
 40
0.0144728781676226
 40
0.0252959632710447
 40
0.1054544038849577
 40
0.2343123239307122
 40
0.3979836791897321
 40
0.5978262205122461
 40
0.8333780564129709
 40
1.0
 40
1.0
 40
1.0
 40
1.0
 10
31.96415750758433
 20
4.101787086026997
 30
0.0
 10
31.96419742622294
 20
4.101839542306204
 30
0.0
 10
31.96429731830563
 20
4.101970808480804
 30
0.0
 10
31.96381105966324
 20
4.102468447689447
 30
0.0
 10
31.96263289203031
 20
4.103285337803058
 30
0.0
 10
31.96075251371971
 20
4.104369706092687
 30
0.0
 10
31.95825367430894
 20
4.105681519620902
 30
0.0
 10
31.95378131152649
 20
4.107895979233469
 30
0.0
 10
31.94204354479973
 20
4.11335541522065
 30
0.0
 10
31.92014679444179
 20
4.122884861423174
 30
0.0
 10
31.8197994749743
 20
4.164999486238976
 30
0.0
 10
31.61066796063176
 20
4.24601349233279
 30
0.0
 10
31.25818303599431
 20
4.371012075823956
 30
0.0
 10
30.79471253855496
 20
4.51296373355444
 30
0.0
 10
30.230219066529
 20
4.64470979772587
 30
0.0
 10
29.6631653333412
 20
4.73916243218573
 30
0.0
 10
29.28458739943355
 20
4.752685124790219
 30
0.0
 10
29.12774129368495
 20
4.758287621619223
 30
0.0
  0
SPLINE
  5
23A
330
1F
100
AcDbEntity
  8
1
  6
Continuous
370
    15
100
AcDbSpline
210
0.0
220
0.0
230
1.0
 70
     8
 71
     3
 72
     9
 73
     5
 74
     0
 42
0.0000000001
 43
0.0000000001
 40
0.0
 40
0.0
 40
0.0
 40
0.0
 40
0.4800823494482477
 40
1.0
 40
1.0
 40
1.0
 40
1.0
 10
46.67434110339129
 20
-4.773999996721636
 30
0.0
 10
46.94787604137551
 20
-4.764865313767886
 30
0.0
 10
47.51764274556399
 20
-4.745837988634503
 30
0.0
 10
48.06999426368918
 20
-4.63277996853444
 30
0.0
 10
48.35717156727153
 20
-4.573999108347982
 30
0.0
  0
SPLINE
  5
23B
330
1F
100
AcDbEntity
  8
1
  6
Continuous
370
    15
100
AcDbSpline
210
0.0
220
0.0
230
1.0
 70
     8
 71
     3
 72
    15
 73
    11
 74
     0
 42
0.0000000001
 43
0.0000000001
 40
0.0
 40
0.0
 40
0.0
 40
0.0
 40
0.2172616621909206
 40
0.358788267746891
 40
0.4491569485440476
 40
0.5433034426676925
 40
0.6379603928734661
 40
0.7286577729494465
 40
0.8637312592747175
 40
1.0
 40
1.0
 40
1.0
 40
1.0
 10
17.54889281695767
 20
4.573999999175708
 30
0.0
 10
17.30840548180595
 20
4.573970849687879
 30
0.0
 10
16.91126208557104
 20
4.573922711907202
 30
0.0
 10
16.41326450819434
 20
4.573932700950181
 30
0.0
 10
16.05275640777331
 20
4.574009564468405
 30
0.0
 10
15.743360187343
 20
4.57399734862233
 30
0.0
 10
15.43372220957845
 20
4.574000627085085
 30
0.0
 10
15.07870718644605
 20
4.573999619704363
 30
0.0
 10
14.67759977014491
 20
4.57400005393837
 30
0.0
 10
14.37697449341138
 20
4.57400000900045
 30
0.0
 10
14.22599973236529
 20
4.573999986432512
 30
0.0
  0
SPLINE
  5
23C
330
1F
100
AcDbEntity
  8
1
  6
Continuous
370
    15
100
AcDbSpline
210
0.0
220
0.0
230
1.0
 70
     8
 71
     3
 72
    15
 73
    11
 74
     0
 42
0.0000000001
 43
0.0000000001
 40
0.0
 40
0.0
 40
0.0
 40
0.0
 40
0.1162102260895239
 40
0.2519091372759036
 40
0.3657437755616134
 40
0.4805898257322365
 40
0.5932464785136533
 40
0.7528401733026295
 40
0.9316846504021063
 40
1.0
 40
1.0
 40
1.0
 40
1.0
 10
50.35111645836869
 20
4.573999949180039
 30
0.0
 10
50.27323954455147
 20
4.574000504950874
 30
0.0
 10
50.1044256042164
 20
4.574001709696411
 30
0.0
 10
49.85941259723552
 20
4.573992405145561
 30
0.0
 10
49.61500072443914
 20
4.574022804889524
 30
0.0
 10
49.39314507958724
 20
4.573584225256301
 30
0.0
 10
49.14179133414586
 20
4.571915362508378
 30
0.0
 10
48.83438768495896
 20
4.572111376449329
 30
0.0
 10
48.57034703167454
 20
4.573665303682639
 30
0.0
 10
48.40470344170862
 20
4.573688256487824
 30
0.0
 10
48.35891930312761
 20
4.573694600677865
 30
0.0
  0
SPLINE
  5
23D
330
1F
100
AcDbEntity
  8
1
  6
Continuous
370
    15
100
AcDbSpline
210
0.0
220
0.0
230
1.0
 70
     8
 71
     3
 72
    10
 73
     6
 74
     0
 42
0.0000000001
 43
0.0000000001
 40
0.0
 40
0.0
 40
0.0
 40
0.0
 40
0.2068895218868955
 40
0.4919733219028588
 40
1.0
 40
1.0
 40
1.0
 40
1.0
 10
29.39272853709224
 20
-4.573999998096459
 30
0.0
 10
29.80615209161306
 20
-4.573999466172409
 30
0.0
 10
30.78925339909094
 20
-4.573998201282627
 30
0.0
 10
32.7875394992098
 20
-4.574000965989582
 30
0.0
 10
34.37240360662662
 20
-4.574000376831491
 30
0.0
 10
35.38758783372433
 20
-4.573999999446455
 30
0.0
  0
SPLINE
  5
23E
330
1F
100
AcDbEntity
  8
1
  6
Continuous
370
    15
100
AcDbSpline
210
0.0
220
0.0
230
1.0
 70
     8
 71
     3
 72
    21
 73
    17
 74
     0
 42
0.0000000001
 43
0.0000000001
 40
0.0
 40
0.0
 40
0.0
 40
0.0
 40
0.1170466344408363
 40
0.2022386628923249
 40
0.2586456002659662
 40
0.3098576707681388
 40
0.3604106649137444
 40
0.4588793380814461
 40
0.56617654875831
 40
0.6377576841698125
 40
0.7123120485732163
 40
0.7864287273436866
 40
0.8541746291137839
 40
0.9137318147845549
 40
0.9851581729829764
 40
1.0
 40
1.0
 40
1.0
 40
1.0
 10
35.3875878337247
 20
4.573999999446457
 30
0.0
 10
35.19717525982469
 20
4.573991543789991
 30
0.0
 10
34.86817148686362
 20
4.573976933710292
 30
0.0
 10
34.44708961315129
 20
4.573967577941968
 30
0.0
 10
34.13346085852123
 20
4.573998666656572
 30
0.0
 10
33.87607300509436
 20
4.573999913768166
 30
0.0
 10
33.55016506651077
 20
4.573999907389915
 30
0.0
 10
33.13299420771242
 20
4.573999866878993
 30
0.0
 10
32.68158946713934
 20
4.573999955308692
 30
0.0
 10
32.26911165938893
 20
4.574000021135367
 30
0.0
 10
31.910635769149
 20
4.573999891448353
 30
0.0
 10
31.55840168492648
 20
4.573999819637349
 30
0.0
 10
31.23057731870597
 20
4.573999598909472
 30
0.0
 10
30.90712925755279
 20
4.57399967169393
 30
0.0
 10
30.66979748563535
 20
4.57399775288911
 30
0.0
 10
30.52939010636064
 20
4.573997288599987
 30
0.0
 10
30.50523401648923
 20
4.57399720872235
 30
0.0
  0
SPLINE
  5
23F
330
1F
100
AcDbEntity
  8
1
  6
Continuous
370
    15
100
AcDbSpline
210
0.0
220
0.0
230
1.0
 70
     8
 71
     3
 72
    17
 73
    13
 74
     0
 42
0.0000000001
 43
0.0000000001
 40
0.0
 40
0.0
 40
0.0
 40
0.0
 40
0.1600180338809566
 40
0.2755953978898907
 40
0.35626286118149
 40
0.4349523198183566
 40
0.514038479829533
 40
0.5832052502070225
 40
0.6565917033197565
 40
0.7365095782896738
 40
0.8546193597661366
 40
1.0
 40
1.0
 40
1.0
 40
1.0
 10
47.2310566435284
 20
-4.573999999994409
 30
0.0
 10
47.39748268558765
 20
-4.57399792693284
 30
0.0
 10
47.68411444932175
 20
-4.573994356546336
 30
0.0
 10
48.05479195468411
 20
-4.573985142328741
 30
0.0
 10
48.34065162107797
 20
-4.5740018318576
 30
0.0
 10
48.58867710634268
 20
-4.573999421408817
 30
0.0
 10
48.82476170772918
 20
-4.573999735702605
 30
0.0
 10
49.05532476622756
 20
-4.57399977760372
 30
0.0
 10
49.28675441741583
 20
-4.57399982375983
 30
0.0
 10
49.5690974402147
 20
-4.573999834466067
 30
0.0
 10
49.92633424017441
 20
-4.573999935491544
 30
0.0
 10
50.20043288096468
 20
-4.573999934981283
 30
0.0
 10
50.35166659802604
 20
-4.573999934699745
 30
0.0
  0
SPLINE
  5
240
330
1F
100
AcDbEntity
  8
1
  6
Continuous
370
    15
100
AcDbSpline
210
0.0
220
0.0
230
1.0
 70
     8
 71
     3
 72
    16
 73
    12
 74
     0
 42
0.0000000001
 43
0.0000000001
 40
0.0
 40
0.0
 40
0.0
 40
0.0
 40
0.1362676164450921
 40
0.2713399883515833
 40
0.3620366201321946
 40
0.4566927893743139
 40
0.5325204949160898
 40
0.6045672060342878
 40
0.6885935901891292
 40
0.8202433513179517
 40
1.0
 40
1.0
 40
1.0
 40
1.0
 10
14.22599973236529
 20
-4.573999986432512
 30
0.0
 10
14.37697441612006
 20
-4.573999988919886
 30
0.0
 10
14.67759953894892
 20
-4.573999993872817
 30
0.0
 10
15.07870797658715
 20
-4.573999824985742
 30
0.0
 10
15.43372027426566
 20
-4.574000124283974
 30
0.0
 10
15.72307390452539
 20
-4.573999391091589
 30
0.0
 10
15.99182643611873
 20
-4.574001652732453
 30
0.0
 10
16.24845564566372
 20
-4.57398406443422
 30
0.0
 10
16.56693664422144
 20
-4.573904683403454
 30
0.0
 10
17.00525239334595
 20
-4.57395187758284
 30
0.0
 10
17.34993041751282
 20
-4.573982387557502
 30
0.0
 10
17.54889281695804
 20
-4.573999999175706
 30
0.0
  0
LINE
  5
241
330
1F
100
AcDbEntity
  8
1
370
    18
100
AcDbLine
 10
14.22627997777295
 20
-3.8125982397882
 30
0.0
 11
14.226
 21
-4.773999999999999
 31
0.0
  0
DIMENSION
  5
242
330
1F
100
AcDbEntity
  8
2
370
    18
100
AcDbDimension
  2
*D9
 10
57.81698046865436
 20
-4.774000000000001
 30
0.0
 11
67.76698046865437
 21
10.98202738408886
 31
0.0
 70
   160
  1
%%c<>
 71
     5
 42
9.548000000000001
  3
Standard
100
AcDbAlignedDimension
 13
46.67332235509999
 23
4.774000000000001
 33
0.0
 14
46.67332235509999
 24
-4.773999999999999
 34
0.0
 50
90.0
100
AcDbRotatedDimension
1001
ACAD
1000
DSTYLE
1002
{
1070
     3
1000

1070
    41
1040
3.0
1070
    73
1070
     1
1070
    74
1070
     1
1070
    77
1070
     3
1070
   140
1040
3.5
1070
   147
1040
1.199999999999999
1070
   271
1070
     3
1070
   278
1070
    46
1002
}
  0
DIMENSION
  5
251
330
1F
100
AcDbEntity
  8
SK2
370
    18
100
AcDbDimension
  2
*D10
 10
53.226
 20
10.85633184601008
 30
0.0
 11
33.726
 21
13.80633184601008
 31
0.0
 70
    32
 71
     5
 42
39.0
  3
Standard
100
AcDbAlignedDimension
 13
14.226
 23
4.774000000000001
 33
0.0
 14
53.226
 24
0.0
 34
0.0
100
AcDbRotatedDimension
1001
ACAD
1000
DSTYLE
1002
{
1070
     3
1000

1070
    41
1040
3.0
1070
    73
1070
     1
1070
    74
1070
     1
1070
    77
1070
     3
1070
   140
1040
3.5
1070
   147
1040
1.199999999999999
1070
   278
1070
    46
1002
}
  0
DIMENSION
  5
25F
330
1F
100
AcDbEntity
  8
SK2
370
    18
100
AcDbDimension
  2
*D11
 10
50.35168077084205
 20
-11.00641660376251
 30
0.0
 11
25.17584038542103
 21
-8.056416603762517
 31
0.0
 70
    32
 71
     5
 42
50.35168077084205
  3
Standard
100
AcDbAlignedDimension
 13
0.0
 23
-4.999999999999999
 33
0.0
 14
50.35168077084205
 24
-4.573999999999997
 34
0.0
100
AcDbRotatedDimension
1001
ACAD
1000
DSTYLE
1002
{
1070
     3
1000

1070
    41
1040
3.0
1070
    73
1070
     1
1070
    74
1070
     1
1070
    77
1070
     3
1070
   140
1040
3.5
1070
   147
1040
1.199999999999999
1070
   278
1070
    46
1002
}
  0
DIMENSION
  5
26D
330
1F
100
AcDbEntity
  8
SK2
370
    18
100
AcDbDimension
  2
*D12
 10
53.226
 20
-15.25062385459873
 30
0.0
 11
65.676
 21
-12.30062385459873
 31
0.0
 70
    32
 71
     5
 42
2.874319229157947
  3
Standard
100
AcDbAlignedDimension
 13
50.35168077084205
 23
-4.573999999999997
 33
0.0
 14
53.226
 24
0.0
 34
0.0
100
AcDbRotatedDimension
1001
ACAD
1000
DSTYLE
1002
{
1070
     3
1000

1070
    41
1040
3.0
1070
    73
1070
     1
1070
    74
1070
     1
1070
    77
1070
     3
1070
   140
1040
3.5
1070
   147
1040
1.199999999999999
1070
   278
1070
    46
1002
}
  0
DIMENSION
  5
27B
330
1F
100
AcDbEntity
  8
SK2
370
    18
100
AcDbDimension
  2
*D13
 10
50.35168077084205
 20
-19.22367675960638
 30
0.0
 11
5.288840385421025
 21
-16.27367675960638
 31
0.0
 70
    32
 71
     5
 42
90.12568077084205
  3
Standard
100
AcDbAlignedDimension
 13
-39.774
 23
-4.599999999999998
 33
0.0
 14
50.35168077084205
 24
-4.573999999999997
 34
0.0
100
AcDbRotatedDimension
1001
ACAD
1000
DSTYLE
1002
{
1070
     3
1000

1070
    41
1040
3.0
1070
    73
1070
     1
1070
    74
1070
     1
1070
    77
1070
     3
1070
   140
1040
3.5
1070
   147
1040
1.199999999999999
1070
   278
1070
    46
1002
}
  0
DIMENSION
  5
289
330
1F
100
AcDbEntity
  8
SK2
370
    18
100
AcDbDimension
  2
*D14
 10
53.226
 20
-27.83512693234994
 30
0.0
 11
6.725999999999999
 21
-24.88512693234994
 31
0.0
 70
    32
 71
     5
 42
93.0
  3
Standard
100
AcDbAlignedDimension
 13
-39.774
 23
-4.599999999999998
 33
0.0
 14
53.226
 24
0.0000000000000009
 34
0.0
100
AcDbRotatedDimension
1001
ACAD
1000
DSTYLE
1002
{
1070
     3
1000

1070
    41
1040
3.0
1070
    73
1070
     1
1070
    74
1070
     1
1070
    77
1070
     3
1070
   140
1040
3.5
1070
   147
1040
1.199999999999999
1070
   278
1070
    46
1002
}
  0
DIMENSION
  5
297
330
1F
100
AcDbEntity
  8
SK2
370
    18
100
AcDbDimension
  2
*D15
 10
-46.59959695660122
 20
-4.999999999999997
 30
0.0
 11
-36.64959695660122
 21
10.91337657610111
 31
0.0
 70
   160
  1
%%c<>
 71
     5
 42
10.0
  3
Standard
100
AcDbAlignedDimension
 13
-39.374
 23
5.0
 33
0.0
 14
-39.374
 24
-4.999999999999999
 34
0.0
 50
90.0
100
AcDbRotatedDimension
1001
ACAD
1000
DSTYLE
1002
{
1070
     3
1000

1070
    41
1040
3.0
1070
    73
1070
     1
1070
    74
1070
     1
1070
    77
1070
     3
1070
   140
1040
3.5
1070
   147
1040
1.199999999999999
1070
   271
1070
     3
1070
   278
1070
    46
1002
}
  0
ENDSEC
  0
SECTION
  2
OBJECTS
  0
DICTIONARY
  5
183
330
0
100
AcDbDictionary
281
     1
  3
ACAD_COLOR
350
195
  3
ACAD_GROUP
350
184
  3
ACAD_LAYOUT
350
196
  3
ACAD_MATERIAL
350
194
  3
ACAD_MLINESTYLE
350
185
  3
ACAD_PLOTSETTINGS
350
197
  3
ACAD_PLOTSTYLENAME
350
192
  0
DICTIONARY
  5
195
102
{ACAD_REACTORS
330
183
102
}
330
183
100
AcDbDictionary
281
     1
  0
DICTIONARY
  5
184
330
183
100
AcDbDictionary
281
     1
  0
DICTIONARY
  5
196
102
{ACAD_REACTORS
330
183
102
}
330
183
100
AcDbDictionary
281
     1
  3
Layout1
350
199
  3
Model
350
198
  0
DICTIONARY
  5
194
102
{ACAD_REACTORS
330
183
102
}
330
183
100
AcDbDictionary
281
     1
  0
DICTIONARY
  5
185
330
183
100
AcDbDictionary
281
     1
  3
Standard
350
18
  0
DICTIONARY
  5
197
102
{ACAD_REACTORS
330
183
102
}
330
183
100
AcDbDictionary
281
     1
  0
ACDBDICTIONARYWDFLT
  5
192
102
{ACAD_REACTORS
330
183
102
}
330
183
100
AcDbDictionary
281
     1
  3
Normal
350
193
100
AcDbDictionaryWithDefault
340
193
  0
LAYOUT
  5
199
102
{ACAD_REACTORS
330
196
102
}
330
196
100
AcDbPlotSettings
  1

  2
Chappel Main Office
  4

  6

 40
0.0
 41
0.0
 42
0.0
 43
0.0
 44
0.0
 45
0.0
 46
0.0
 47
0.0
 48
0.0
 49
0.0
140
0.0
141
0.0
142
1.0
143
1.0
 70
   688
 72
     0
 73
     0
 74
     5
  7

 75
    16
147
1.0
 76
     0
 77
     2
 78
   300
148
0.0
149
0.0
100
AcDbLayout
  1
Layout1
 70
     1
 71
     1
 10
0.0
 20
0.0
 11
12.0
 21
9.0
 12
0.0
 22
0.0
 32
0.0
 14
1.000000000000000E+20
 24
1.000000000000000E+20
 34
1.000000000000000E+20
 15
-1.000000000000000E+20
 25
-1.000000000000000E+20
 35
-1.000000000000000E+20
146
0.0
 13
0.0
 23
0.0
 33
0.0
 16
1.0
 26
0.0
 36
0.0
 17
0.0
 27
1.0
 37
0.0
 76
     0
330
1B
  0
LAYOUT
  5
198
102
{ACAD_REACTORS
330
196
102
}
330
196
100
AcDbPlotSettings
  1

  2
Chappel Main Office
  4

  6

 40
0.0
 41
0.0
 42
0.0
 43
0.0
 44
0.0
 45
0.0
 46
0.0
 47
0.0
 48
0.0
 49
0.0
140
0.0
141
0.0
142
1.0
143
1.0
 70
  1712
 72
     0
 73
     0
 74
     0
  7

 75
     0
147
1.0
 76
     0
 77
     2
 78
   300
148
0.0
149
0.0
100
AcDbLayout
  1
Model
 70
     1
 71
     0
 10
0.0
 20
0.0
 11
12.0
 21
9.0
 12
0.0
 22
0.0
 32
0.0
 14
0.0
 24
0.0
 34
0.0
 15
0.0
 25
0.0
 35
0.0
146
0.0
 13
0.0
 23
0.0
 33
0.0
 16
1.0
 26
0.0
 36
0.0
 17
0.0
 27
1.0
 37
0.0
 76
     0
330
1F
  0
MLINESTYLE
  5
18
330
185
100
AcDbMlineStyle
  2
STANDARD
 70
     0
  3

 62
   256
 51
90.0
 52
90.0
 71
     2
 49
0.5
 62
   256
  6
BYLAYER
 49
-0.5
 62
   256
  6
BYLAYER
  0
ACDBPLACEHOLDER
  5
193
102
{ACAD_REACTORS
330
192
102
}
330
192
  0
ENDSEC
  0
EOF
