  0
SECTION
  2
HEADER
  9
$ACADVER
  1
AC1018
  9
$ACADMAINTVER
 70
     0
  9
$DWGCODEPAGE
  3
ANSI_1252
  9
$INSBASE
 10
0.0
 20
0.0
 30
0.0
  9
$EXTMIN
 10
-50.54182966666666
 20
-33.692985
 30
0.0
  9
$EXTMAX
 10
189.8070997663269
 20
37.38269400000001
 30
0.0
  9
$LIMMIN
 10
0.0
 20
0.0
  9
$LIMMAX
 10
12.0
 20
9.0
  9
$ORTHOMODE
 70
     0
  9
$REGENMODE
 70
     1
  9
$FILLMODE
 70
     1
  9
$QTEXTMODE
 70
     0
  9
$MIRRTEXT
 70
     0
  9
$LTSCALE
 40
1.0
  9
$ATTMODE
 70
     1
  9
$TEXTSIZE
 40
0.0
  9
$TRACEWID
 40
0.05
  9
$TEXTSTYLE
  7
Standard
  9
$CLAYER
  8
1
  9
$CELTYPE
  6
ByLayer
  9
$CECOLOR
 62
   256
  9
$CELTSCALE
 40
1.0
  9
$DISPSILH
 70
     0
  9
$DIMSCALE
 40
1.0
  9
$DIMASZ
 40
0.18
  9
$DIMEXO
 40
0.0625
  9
$DIMDLI
 40
0.38
  9
$DIMRND
 40
0.0
  9
$DIMDLE
 40
0.0
  9
$DIMEXE
 40
0.18
  9
$DIMTP
 40
0.0
  9
$DIMTM
 40
0.0
  9
$DIMTXT
 40
0.18
  9
$DIMCEN
 40
0.09
  9
$DIMTSZ
 40
0.0
  9
$DIMTOL
 70
     0
  9
$DIMLIM
 70
     0
  9
$DIMTIH
 70
     1
  9
$DIMTOH
 70
     1
  9
$DIMSE1
 70
     0
  9
$DIMSE2
 70
     0
  9
$DIMTAD
 70
     0
  9
$DIMZIN
 70
     0
  9
$DIMBLK
  1

  9
$DIMASO
 70
     1
  9
$DIMSHO
 70
     1
  9
$DIMPOST
  1

  9
$DIMAPOST
  1

  9
$DIMALT
 70
     0
  9
$DIMALTD
 70
     2
  9
$DIMALTF
 40
25.4
  9
$DIMLFAC
 40
1.0
  9
$DIMTOFL
 70
     0
  9
$DIMTVP
 40
0.0
  9
$DIMTIX
 70
     0
  9
$DIMSOXD
 70
     0
  9
$DIMSAH
 70
     0
  9
$DIMBLK1
  1

  9
$DIMBLK2
  1

  9
$DIMSTYLE
  2
Standard
  9
$DIMCLRD
 70
     0
  9
$DIMCLRE
 70
     0
  9
$DIMCLRT
 70
     0
  9
$DIMTFAC
 40
1.0
  9
$DIMGAP
 40
0.09
  9
$DIMJUST
 70
     0
  9
$DIMSD1
 70
     0
  9
$DIMSD2
 70
     0
  9
$DIMTOLJ
 70
     1
  9
$DIMTZIN
 70
     0
  9
$DIMALTZ
 70
     0
  9
$DIMALTTZ
 70
     0
  9
$DIMUPT
 70
     0
  9
$DIMDEC
 70
     4
  9
$DIMTDEC
 70
     4
  9
$DIMALTU
 70
     2
  9
$DIMALTTD
 70
     2
  9
$DIMTXSTY
  7
Standard
  9
$DIMAUNIT
 70
     0
  9
$DIMADEC
 70
     0
  9
$DIMALTRND
 40
0.0
  9
$DIMAZIN
 70
     0
  9
$DIMDSEP
 70
    46
  9
$DIMATFIT
 70
     3
  9
$DIMFRAC
 70
     0
  9
$DIMLDRBLK
  1

  9
$DIMLUNIT
 70
     2
  9
$DIMLWD
 70
    -2
  9
$DIMLWE
 70
    -2
  9
$DIMTMOVE
 70
     0
  9
$LUNITS
 70
     2
  9
$LUPREC
 70
     4
  9
$SKETCHINC
 40
0.1
  9
$FILLETRAD
 40
0.0
  9
$AUNITS
 70
     0
  9
$AUPREC
 70
     0
  9
$MENU
  1
.
  9
$ELEVATION
 40
0.0
  9
$PELEVATION
 40
0.0
  9
$THICKNESS
 40
0.0
  9
$LIMCHECK
 70
     0
  9
$CHAMFERA
 40
0.0
  9
$CHAMFERB
 40
0.0
  9
$CHAMFERC
 40
0.0
  9
$CHAMFERD
 40
0.0
  9
$SKPOLY
 70
     0
  9
$TDCREATE
 40
2457169.562357651
  9
$TDUCREATE
 40
2457169.812357651
  9
$TDUPDATE
 40
2457172.716894132
  9
$TDUUPDATE
 40
2457172.966894132
  9
$TDINDWG
 40
0.0096604167
  9
$TDUSRTIMER
 40
0.0096603472
  9
$USRTIMER
 70
     1
  9
$ANGBASE
 50
0.0
  9
$ANGDIR
 70
     0
  9
$PDMODE
 70
     0
  9
$PDSIZE
 40
0.0
  9
$PLINEWID
 40
0.0
  9
$SPLFRAME
 70
     0
  9
$SPLINETYPE
 70
     6
  9
$SPLINESEGS
 70
     8
  9
$HANDSEED
  5
46A
  9
$SURFTAB1
 70
     6
  9
$SURFTAB2
 70
     6
  9
$SURFTYPE
 70
     6
  9
$SURFU
 70
     6
  9
$SURFV
 70
     6
  9
$UCSBASE
  2

  9
$UCSNAME
  2

  9
$UCSORG
 10
0.0
 20
0.0
 30
0.0
  9
$UCSXDIR
 10
1.0
 20
0.0
 30
0.0
  9
$UCSYDIR
 10
0.0
 20
1.0
 30
0.0
  9
$UCSORTHOREF
  2

  9
$UCSORTHOVIEW
 70
     0
  9
$UCSORGTOP
 10
0.0
 20
0.0
 30
0.0
  9
$UCSORGBOTTOM
 10
0.0
 20
0.0
 30
0.0
  9
$UCSORGLEFT
 10
0.0
 20
0.0
 30
0.0
  9
$UCSORGRIGHT
 10
0.0
 20
0.0
 30
0.0
  9
$UCSORGFRONT
 10
0.0
 20
0.0
 30
0.0
  9
$UCSORGBACK
 10
0.0
 20
0.0
 30
0.0
  9
$PUCSBASE
  2

  9
$PUCSNAME
  2

  9
$PUCSORG
 10
0.0
 20
0.0
 30
0.0
  9
$PUCSXDIR
 10
1.0
 20
0.0
 30
0.0
  9
$PUCSYDIR
 10
0.0
 20
1.0
 30
0.0
  9
$PUCSORTHOREF
  2

  9
$PUCSORTHOVIEW
 70
     0
  9
$PUCSORGTOP
 10
0.0
 20
0.0
 30
0.0
  9
$PUCSORGBOTTOM
 10
0.0
 20
0.0
 30
0.0
  9
$PUCSORGLEFT
 10
0.0
 20
0.0
 30
0.0
  9
$PUCSORGRIGHT
 10
0.0
 20
0.0
 30
0.0
  9
$PUCSORGFRONT
 10
0.0
 20
0.0
 30
0.0
  9
$PUCSORGBACK
 10
0.0
 20
0.0
 30
0.0
  9
$USERI1
 70
     0
  9
$USERI2
 70
     0
  9
$USERI3
 70
     0
  9
$USERI4
 70
     0
  9
$USERI5
 70
     0
  9
$USERR1
 40
0.0
  9
$USERR2
 40
0.0
  9
$USERR3
 40
0.0
  9
$USERR4
 40
0.0
  9
$USERR5
 40
0.0
  9
$WORLDVIEW
 70
     1
  9
$SHADEDGE
 70
     3
  9
$SHADEDIF
 70
    70
  9
$TILEMODE
 70
     1
  9
$MAXACTVP
 70
    64
  9
$PINSBASE
 10
0.0
 20
0.0
 30
0.0
  9
$PLIMCHECK
 70
     0
  9
$PEXTMIN
 10
1.000000000000000E+20
 20
1.000000000000000E+20
 30
1.000000000000000E+20
  9
$PEXTMAX
 10
-1.000000000000000E+20
 20
-1.000000000000000E+20
 30
-1.000000000000000E+20
  9
$PLIMMIN
 10
0.0
 20
0.0
  9
$PLIMMAX
 10
12.0
 20
9.0
  9
$UNITMODE
 70
     0
  9
$VISRETAIN
 70
     1
  9
$PLINEGEN
 70
     0
  9
$PSLTSCALE
 70
     1
  9
$TREEDEPTH
 70
  3020
  9
$CMLSTYLE
  2
Standard
  9
$CMLJUST
 70
     0
  9
$CMLSCALE
 40
1.0
  9
$PROXYGRAPHICS
 70
     1
  9
$MEASUREMENT
 70
     0
  9
$CELWEIGHT
370
    18
  9
$ENDCAPS
280
     0
  9
$JOINSTYLE
280
     0
  9
$LWDISPLAY
290
     1
  9
$INSUNITS
 70
     4
  9
$HYPERLINKBASE
  1

  9
$STYLESHEET
  1

  9
$XEDIT
290
     1
  9
$CEPSNTYPE
380
     0
  9
$PSTYLEMODE
290
     1
  9
$FINGERPRINTGUID
  2
{1A3370DD-E015-4359-90D3-D666A526498D}
  9
$VERSIONGUID
  2
{ECA09B3F-5FCC-4C0C-BE52-187DA78C0275}
  9
$EXTNAMES
290
     1
  9
$PSVPSCALE
 40
0.0
  9
$OLESTARTUP
290
     0
  9
$SORTENTS
280
   127
  9
$INDEXCTL
280
     0
  9
$HIDETEXT
280
     0
  9
$XCLIPFRAME
290
     0
  9
$HALOGAP
280
     0
  9
$OBSCOLOR
 70
   257
  9
$OBSLTYPE
280
     0
  9
$INTERSECTIONDISPLAY
280
     0
  9
$INTERSECTIONCOLOR
 70
   257
  9
$DIMASSOC
280
     1
  9
$PROJECTNAME
  1

  0
ENDSEC
  0
SECTION
  2
CLASSES
  0
CLASS
  1
RASTERVARIABLES
  2
AcDbRasterVariables
  3
ISM
 90
        0
 91
        0
280
     0
281
     0
  0
CLASS
  1
ACDBDICTIONARYWDFLT
  2
AcDbDictionaryWithDefault
  3
ObjectDBX Classes
 90
        0
 91
        1
280
     0
281
     0
  0
ENDSEC
  0
SECTION
  2
TABLES
  0
TABLE
  2
VPORT
  5
186
330
0
100
AcDbSymbolTable
 70
     5
  0
VPORT
  5
469
330
186
100
AcDbSymbolTableRecord
100
AcDbViewportTableRecord
  2
*Active
 70
     0
 10
0.0
 20
0.0
 11
1.0
 21
1.0
 12
5.986150543641542
 22
-2.558033262546373
 13
0.0
 23
0.0
 14
0.5
 24
0.5
 15
10.0
 25
10.0
 16
0.0
 26
0.0
 36
1.0
 17
0.0
 27
0.0
 37
0.0
 40
150.4099171352822
 41
2.336906584992342
 42
50.0
 43
0.0
 44
0.0
 50
0.0
 51
0.0
 71
     0
 72
   100
 73
     1
 74
     1
 75
     0
 76
     0
 77
     0
 78
     0
281
     0
 65
     1
110
0.0
120
0.0
130
0.0
111
1.0
121
0.0
131
0.0
112
0.0
122
1.0
132
0.0
 79
     0
146
0.0
  0
ENDTAB
  0
TABLE
  2
LTYPE
  5
187
330
0
100
AcDbSymbolTable
 70
     3
  0
LTYPE
  5
14
330
187
100
AcDbSymbolTableRecord
100
AcDbLinetypeTableRecord
  2
ByBlock
 70
     0
  3

 72
    65
 73
     0
 40
0.0
  0
LTYPE
  5
15
330
187
100
AcDbSymbolTableRecord
100
AcDbLinetypeTableRecord
  2
ByLayer
 70
     0
  3

 72
    65
 73
     0
 40
0.0
  0
LTYPE
  5
16
330
187
100
AcDbSymbolTableRecord
100
AcDbLinetypeTableRecord
  2
CONTINUOUS
 70
     0
  3
Solid line
 72
    65
 73
     0
 40
0.0
  0
LTYPE
  5
6A
330
187
100
AcDbSymbolTableRecord
100
AcDbLinetypeTableRecord
  2
CENTER
 70
     0
  3
____ _ ____ _ ____ _ ____
 72
    65
 73
     4
 40
47.5
 49
22.0
 74
     0
 49
-8.5
 74
     0
 49
8.5
 74
     0
 49
-8.5
 74
     0
  0
LTYPE
  5
6B
330
187
100
AcDbSymbolTableRecord
100
AcDbLinetypeTableRecord
  2
DASHED
 70
     0
  3
__ __ __ __ __ __ __ __ __
 72
    65
 73
     2
 40
25.72
 49
12.86
 74
     0
 49
-12.86
 74
     0
  0
ENDTAB
  0
TABLE
  2
LAYER
  5
188
330
0
100
AcDbSymbolTable
 70
    11
  0
LAYER
  5
10
330
188
100
AcDbSymbolTableRecord
100
AcDbLayerTableRecord
  2
0
 70
     0
 62
     7
  6
CONTINUOUS
370
    -3
390
193
  0
LAYER
  5
6D
330
188
100
AcDbSymbolTableRecord
100
AcDbLayerTableRecord
  2
81
 70
     0
 62
    -3
  6
CONTINUOUS
370
    -3
390
193
  0
LAYER
  5
6F
330
188
100
AcDbSymbolTableRecord
100
AcDbLayerTableRecord
  2
80
 70
     0
 62
    -6
  6
CONTINUOUS
370
    -3
390
193
  0
LAYER
  5
74
330
188
100
AcDbSymbolTableRecord
100
AcDbLayerTableRecord
  2
2
 70
     0
 62
     7
  6
CONTINUOUS
370
    -3
390
193
  0
LAYER
  5
78
330
188
100
AcDbSymbolTableRecord
100
AcDbLayerTableRecord
  2
1
 70
     0
 62
     4
  6
CONTINUOUS
370
    -3
390
193
  0
LAYER
  5
88
330
188
100
AcDbSymbolTableRecord
100
AcDbLayerTableRecord
  2
4
 70
     0
 62
    -2
  6
CENTER
370
    -3
390
193
  0
LAYER
  5
172
330
188
100
AcDbSymbolTableRecord
100
AcDbLayerTableRecord
  2
SK2
 70
     0
 62
     7
  6
CONTINUOUS
370
    -3
390
193
  0
LAYER
  5
173
330
188
100
AcDbSymbolTableRecord
100
AcDbLayerTableRecord
  2
SK1
 70
     0
 62
     4
  6
CONTINUOUS
370
    -3
390
193
  0
LAYER
  5
174
330
188
100
AcDbSymbolTableRecord
100
AcDbLayerTableRecord
  2
SK4
 70
     0
 62
     2
  6
CENTER
370
    -3
390
193
  0
LAYER
  5
175
330
188
100
AcDbSymbolTableRecord
100
AcDbLayerTableRecord
  2
SK6
 70
     0
 62
     5
  6
CONTINUOUS
370
    -3
390
193
  0
LAYER
  5
243
330
188
100
AcDbSymbolTableRecord
100
AcDbLayerTableRecord
  2
Defpoints
 70
     0
 62
     7
  6
CONTINUOUS
290
     0
370
    -3
390
193
  0
ENDTAB
  0
TABLE
  2
STYLE
  5
189
330
0
100
AcDbSymbolTable
 70
     3
  0
STYLE
  5
11
330
189
100
AcDbSymbolTableRecord
100
AcDbTextStyleTableRecord
  2
Standard
 70
     0
 40
0.0
 41
1.0
 50
0.0
 71
     0
 42
0.0
  3
txt
  4

  0
STYLE
  5
CE
330
189
100
AcDbSymbolTableRecord
100
AcDbTextStyleTableRecord
  2
iso_b_vert
 70
     0
 40
0.0
 41
1.0
 50
0.0
 71
     0
 42
0.0
  3
simplex.shx
  4

  0
STYLE
  5
CF
330
189
100
AcDbSymbolTableRecord
100
AcDbTextStyleTableRecord
  2
DWGDirectTextStyle
 70
     0
 40
0.0
 41
1.0
 50
0.0
 71
     0
 42
0.0
  3
simplex
  4

  0
ENDTAB
  0
TABLE
  2
VIEW
  5
18B
330
0
100
AcDbSymbolTable
 70
     0
  0
ENDTAB
  0
TABLE
  2
UCS
  5
18C
330
0
100
AcDbSymbolTable
 70
     0
  0
ENDTAB
  0
TABLE
  2
APPID
  5
18D
330
0
100
AcDbSymbolTable
 70
     1
  0
APPID
  5
12
330
18D
100
AcDbSymbolTableRecord
100
AcDbRegAppTableRecord
  2
ACAD
 70
     0
  0
ENDTAB
  0
TABLE
  2
DIMSTYLE
  5
18A
330
0
100
AcDbSymbolTable
 70
     2
100
AcDbDimStyleTable
 71
     1
340
27
  0
DIMSTYLE
105
27
102
{ACAD_REACTORS
330
242
330
251
330
25F
330
26D
330
27B
330
289
330
297
102
}
330
18A
100
AcDbSymbolTableRecord
100
AcDbDimStyleTableRecord
  2
Standard
 70
     0
  3
<>
 73
     0
 74
     0
 77
     1
271
     2
278
    52
340
11
  0
DIMSTYLE
105
1A2
330
18A
100
AcDbSymbolTableRecord
100
AcDbDimStyleTableRecord
  2
ISO-25
 70
     0
 41
2.5
 42
0.625
 43
3.75
 44
1.25
 73
     0
 74
     0
 77
     1
 78
     8
140
2.5
141
2.5
143
0.0393700787
147
0.625
171
     3
172
     1
271
     2
272
     2
274
     3
278
    44
283
     0
284
     8
340
11
  0
ENDTAB
  0
TABLE
  2
BLOCK_RECORD
  5
18E
330
0
100
AcDbSymbolTable
 70
    16
  0
BLOCK_RECORD
  5
1F
330
18E
100
AcDbSymbolTableRecord
100
AcDbBlockTableRecord
  2
*Model_Space
340
198
  0
BLOCK_RECORD
  5
1B
330
18E
100
AcDbSymbolTableRecord
100
AcDbBlockTableRecord
  2
*Paper_Space
340
199
  0
BLOCK_RECORD
  5
23
330
18E
100
AcDbSymbolTableRecord
100
AcDbBlockTableRecord
  2
*Paper_Space0
340
0
  0
BLOCK_RECORD
  5
D1
330
18E
100
AcDbSymbolTableRecord
100
AcDbBlockTableRecord
  2
DimnDraft3D1
340
0
  0
BLOCK_RECORD
  5
DB
330
18E
100
AcDbSymbolTableRecord
100
AcDbBlockTableRecord
  2
DimnDraft3D2
340
0
  0
BLOCK_RECORD
  5
E5
330
18E
100
AcDbSymbolTableRecord
100
AcDbBlockTableRecord
  2
DimnDraft3D3
340
0
  0
BLOCK_RECORD
  5
EF
330
18E
100
AcDbSymbolTableRecord
100
AcDbBlockTableRecord
  2
DimnDraft3D4
340
0
  0
BLOCK_RECORD
  5
F9
330
18E
100
AcDbSymbolTableRecord
100
AcDbBlockTableRecord
  2
DimnDraft3D5
340
0
  0
BLOCK_RECORD
  5
103
330
18E
100
AcDbSymbolTableRecord
100
AcDbBlockTableRecord
  2
DimnDraft3D6
340
0
  0
BLOCK_RECORD
  5
10E
330
18E
100
AcDbSymbolTableRecord
100
AcDbBlockTableRecord
  2
DimnDraft3D7
340
0
  0
BLOCK_RECORD
  5
244
330
18E
100
AcDbSymbolTableRecord
100
AcDbBlockTableRecord
  2
*D9
340
0
  0
BLOCK_RECORD
  5
252
330
18E
100
AcDbSymbolTableRecord
100
AcDbBlockTableRecord
  2
*D10
340
0
  0
BLOCK_RECORD
  5
260
330
18E
100
AcDbSymbolTableRecord
100
AcDbBlockTableRecord
  2
*D11
340
0
  0
BLOCK_RECORD
  5
26E
330
18E
100
AcDbSymbolTableRecord
100
AcDbBlockTableRecord
  2
*D12
340
0
  0
BLOCK_RECORD
  5
27C
330
18E
100
AcDbSymbolTableRecord
100
AcDbBlockTableRecord
  2
*D13
340
0
  0
BLOCK_RECORD
  5
28A
330
18E
100
AcDbSymbolTableRecord
100
AcDbBlockTableRecord
  2
*D14
340
0
  0
BLOCK_RECORD
  5
298
330
18E
100
AcDbSymbolTableRecord
100
AcDbBlockTableRecord
  2
*D15
340
0
  0
ENDTAB
  0
ENDSEC
  0
SECTION
  2
BLOCKS
  0
BLOCK
  5
20
330
1F
100
AcDbEntity
  8
0
100
AcDbBlockBegin
  2
*Model_Space
 70
     0
 10
0.0
 20
0.0
 30
0.0
  3
*Model_Space
  1

  0
ENDBLK
  5
21
330
1F
100
AcDbEntity
  8
0
100
AcDbBlockEnd
  0
BLOCK
  5
1C
330
1B
100
AcDbEntity
 67
     1
  8
0
100
AcDbBlockBegin
  2
*Paper_Space
 70
     0
 10
0.0
 20
0.0
 30
0.0
  3
*Paper_Space
  1

  0
ENDBLK
  5
1D
330
1B
100
AcDbEntity
 67
     1
  8
0
100
AcDbBlockEnd
  0
BLOCK
  5
24
330
23
100
AcDbEntity
  8
0
100
AcDbBlockBegin
  2
*Paper_Space0
 70
     0
 10
0.0
 20
0.0
 30
0.0
  3
*Paper_Space0
  1

  0
ENDBLK
  5
25
330
23
100
AcDbEntity
  8
0
100
AcDbBlockEnd
  0
BLOCK
  5
D8
330
D1
100
AcDbEntity
  8
0
100
AcDbBlockBegin
  2
DimnDraft3D1
 70
     0
 10
0.0
 20
0.0
 30
0.0
  3
DimnDraft3D1
  1

  0
MTEXT
  5
D2
330
D1
100
AcDbEntity
  8
SK2
370
    13
100
AcDbMText
 10
7.372275
 20
-10.838398
 30
0.0
 40
3.5
 41
0.0
 71
     7
 72
     5
  1
\W0.7317;25,57
  7
iso_b_vert
 73
     1
 44
1.084337
  0
LINE
  5
D3
330
D1
100
AcDbEntity
  8
SK2
370
    13
100
AcDbLine
 10
0.0
 20
-1.587499999999999
 30
0.0
 11
0.0
 21
-13.713398
 31
0.0
  0
LINE
  5
D4
330
D1
100
AcDbEntity
  8
SK2
370
    13
100
AcDbLine
 10
25.5709
 20
-3.087499999999999
 30
0.0
 11
25.5709
 21
-13.713398
 31
0.0
  0
LINE
  5
D5
330
D1
100
AcDbEntity
  8
SK2
370
    13
100
AcDbLine
 10
0.0
 20
-11.713398
 30
0.0
 11
25.5709
 21
-11.713398
 31
0.0
  0
SOLID
  5
D6
330
D1
100
AcDbEntity
  8
SK2
370
    13
100
AcDbTrace
 10
0.0
 20
-11.713398
 30
0.0
 11
3.499998
 21
-11.252615
 31
0.0
 12
3.500001999999998
 22
-12.174182
 32
0.0
 13
0.0
 23
-11.713398
 33
0.0
  0
SOLID
  5
D7
330
D1
100
AcDbEntity
  8
SK2
370
    13
100
AcDbTrace
 10
25.5709
 20
-11.713398
 30
0.0
 11
22.070902
 21
-12.174182
 31
0.0
 12
22.070898
 22
-11.252615
 32
0.0
 13
25.5709
 23
-11.713398
 33
0.0
  0
ENDBLK
  5
D9
330
D1
100
AcDbEntity
  8
0
100
AcDbBlockEnd
  0
BLOCK
  5
E2
330
DB
100
AcDbEntity
  8
0
100
AcDbBlockBegin
  2
DimnDraft3D2
 70
     0
 10
0.0
 20
0.0
 30
0.0
  3
DimnDraft3D2
  1

  0
MTEXT
  5
DC
330
DB
100
AcDbEntity
  8
SK2
370
    13
100
AcDbMText
 10
-8.536483999999997
 20
-30.817985
 30
0.0
 40
3.5
 41
0.0
 71
     7
 72
     5
  1
\W0.7317;62,00
  7
iso_b_vert
 73
     1
 44
1.084337
  0
LINE
  5
DD
330
DB
100
AcDbEntity
  8
SK2
370
    13
100
AcDbLine
 10
-36.0
 20
-4.5875
 30
0.0
 11
-36.0
 21
-33.692985
 31
0.0
  0
LINE
  5
DE
330
DB
100
AcDbEntity
  8
SK2
370
    13
100
AcDbLine
 10
26.0
 20
-1.587499999999999
 30
0.0
 11
26.0
 21
-33.692985
 31
0.0
  0
LINE
  5
DF
330
DB
100
AcDbEntity
  8
SK2
370
    13
100
AcDbLine
 10
-36.0
 20
-31.692985
 30
0.0
 11
26.0
 21
-31.692985
 31
0.0
  0
SOLID
  5
E0
330
DB
100
AcDbEntity
  8
SK2
370
    13
100
AcDbTrace
 10
-36.0
 20
-31.692985
 30
0.0
 11
-32.50000200000001
 21
-31.232202
 31
0.0
 12
-32.499998
 22
-32.153769
 32
0.0
 13
-36.0
 23
-31.692985
 33
0.0
  0
SOLID
  5
E1
330
DB
100
AcDbEntity
  8
SK2
370
    13
100
AcDbTrace
 10
26.0
 20
-31.692985
 30
0.0
 11
22.500002
 21
-32.153769
 31
0.0
 12
22.499998
 22
-31.232202
 32
0.0
 13
26.0
 23
-31.692985
 33
0.0
  0
ENDBLK
  5
E3
330
DB
100
AcDbEntity
  8
0
100
AcDbBlockEnd
  0
BLOCK
  5
EC
330
E5
100
AcDbEntity
  8
0
100
AcDbBlockBegin
  2
DimnDraft3D3
 70
     0
 10
0.0
 20
0.0
 30
0.0
  3
DimnDraft3D3
  1

  0
MTEXT
  5
E6
330
E5
100
AcDbEntity
  8
SK2
370
    13
100
AcDbMText
 10
17.965
 20
13.984119
 30
0.0
 40
3.5
 41
0.0
 71
     7
 72
     5
  1
\W0.7493;9,42
  7
iso_b_vert
 73
     1
 44
1.084337
  0
LINE
  5
E7
330
E5
100
AcDbEntity
  8
SK2
370
    13
100
AcDbLine
 10
16.58
 20
3.087499999999999
 30
0.0
 11
16.58
 21
15.109119
 31
0.0
  0
LINE
  5
E8
330
E5
100
AcDbEntity
  8
SK2
370
    13
100
AcDbLine
 10
26.0
 20
1.587499999999999
 30
0.0
 11
26.0
 21
15.109119
 31
0.0
  0
LINE
  5
E9
330
E5
100
AcDbEntity
  8
SK2
370
    13
100
AcDbLine
 10
16.58
 20
13.109119
 30
0.0
 11
26.0
 21
13.109119
 31
0.0
  0
SOLID
  5
EA
330
E5
100
AcDbEntity
  8
SK2
370
    13
100
AcDbTrace
 10
16.58
 20
13.109119
 30
0.0
 11
20.079998
 21
13.569903
 31
0.0
 12
20.080002
 22
12.648335
 32
0.0
 13
16.58
 23
13.109119
 33
0.0
  0
SOLID
  5
EB
330
E5
100
AcDbEntity
  8
SK2
370
    13
100
AcDbTrace
 10
26.0
 20
13.109119
 30
0.0
 11
22.500002
 21
12.648335
 31
0.0
 12
22.499998
 22
13.569903
 32
0.0
 13
26.0
 23
13.109119
 33
0.0
  0
ENDBLK
  5
ED
330
E5
100
AcDbEntity
  8
0
100
AcDbBlockEnd
  0
BLOCK
  5
F6
330
EF
100
AcDbEntity
  8
0
100
AcDbBlockBegin
  2
DimnDraft3D4
 70
     0
 10
0.0
 20
0.0
 30
0.0
  3
DimnDraft3D4
  1

  0
MTEXT
  5
F0
330
EF
100
AcDbEntity
  8
SK2
370
    13
100
AcDbMText
 10
32.656425
 20
-13.427503
 30
0.0
 40
3.5
 41
0.0
 71
     7
 72
     5
  1
\W0.7493;0,43
  7
iso_b_vert
 73
     1
 44
1.084337
  0
LINE
  5
F1
330
EF
100
AcDbEntity
  8
SK2
370
    13
100
AcDbLine
 10
26.0
 20
-1.587499999999999
 30
0.0
 11
26.0
 21
-16.302503
 31
0.0
  0
LINE
  5
F2
330
EF
100
AcDbEntity
  8
SK2
370
    13
100
AcDbLine
 10
25.5709
 20
-3.087499999999999
 30
0.0
 11
25.5709
 21
-16.302503
 31
0.0
  0
LINE
  5
F3
330
EF
100
AcDbEntity
  8
SK2
370
    13
100
AcDbLine
 10
16.8209
 20
-14.302503
 30
0.0
 11
40.18142499999998
 21
-14.302503
 31
0.0
  0
SOLID
  5
F4
330
EF
100
AcDbEntity
  8
SK2
370
    13
100
AcDbTrace
 10
26.0
 20
-14.302503
 30
0.0
 11
29.499998
 21
-13.841719
 31
0.0
 12
29.500002
 22
-14.763287
 32
0.0
 13
26.0
 23
-14.302503
 33
0.0
  0
SOLID
  5
F5
330
EF
100
AcDbEntity
  8
SK2
370
    13
100
AcDbTrace
 10
25.5709
 20
-14.302503
 30
0.0
 11
22.070902
 21
-14.763287
 31
0.0
 12
22.070898
 22
-13.841719
 32
0.0
 13
25.5709
 23
-14.302503
 33
0.0
  0
ENDBLK
  5
F7
330
EF
100
AcDbEntity
  8
0
100
AcDbBlockEnd
  0
BLOCK
  5
100
330
F9
100
AcDbEntity
  8
0
100
AcDbBlockBegin
  2
DimnDraft3D5
 70
     0
 10
0.0
 20
0.0
 30
0.0
  3
DimnDraft3D5
  1

  0
MTEXT
  5
FA
330
F9
100
AcDbEntity
  8
SK2
370
    13
100
AcDbMText
 10
-11.179608
 20
-20.468428
 30
0.0
 40
3.5
 41
0.0
 71
     7
 72
     5
  1
\W0.6713;61,57
  7
iso_b_vert
 73
     1
 44
1.084337
  0
LINE
  5
FB
330
F9
100
AcDbEntity
  8
SK2
370
    13
100
AcDbLine
 10
-36.0
 20
-4.5875
 30
0.0
 11
-36.0
 21
-23.343428
 31
0.0
  0
LINE
  5
FC
330
F9
100
AcDbEntity
  8
SK2
370
    13
100
AcDbLine
 10
25.5709
 20
-3.087499999999999
 30
0.0
 11
25.5709
 21
-23.343428
 31
0.0
  0
LINE
  5
FD
330
F9
100
AcDbEntity
  8
SK2
370
    13
100
AcDbLine
 10
-36.0
 20
-21.343428
 30
0.0
 11
25.5709
 21
-21.343428
 31
0.0
  0
SOLID
  5
FE
330
F9
100
AcDbEntity
  8
SK2
370
    13
100
AcDbTrace
 10
-36.0
 20
-21.343428
 30
0.0
 11
-32.50000200000001
 21
-20.882645
 31
0.0
 12
-32.499998
 22
-21.804212
 32
0.0
 13
-36.0
 23
-21.343428
 33
0.0
  0
SOLID
  5
FF
330
F9
100
AcDbEntity
  8
SK2
370
    13
100
AcDbTrace
 10
25.5709
 20
-21.343428
 30
0.0
 11
22.070902
 21
-21.804212
 31
0.0
 12
22.070898
 22
-20.882645
 32
0.0
 13
25.5709
 23
-21.343428
 33
0.0
  0
ENDBLK
  5
101
330
F9
100
AcDbEntity
  8
0
100
AcDbBlockEnd
  0
BLOCK
  5
10B
330
103
100
AcDbEntity
  8
0
100
AcDbBlockBegin
  2
DimnDraft3D6
 70
     0
 10
0.0
 20
0.0
 30
0.0
  3
DimnDraft3D6
  1

  0
MTEXT
  5
104
330
103
100
AcDbEntity
  8
SK2
370
    13
100
AcDbMText
 10
-46.375163
 20
22.34918
 30
0.0
 40
3.5
 41
0.0
 71
     7
 72
     5
  1
\W0.7317;6,000
  7
iso_b_vert
 11
0.0000000000000001
 21
1.0
 31
0.0
 73
     1
 44
1.084337
  0
MTEXT
  5
105
330
103
100
AcDbEntity
  8
SK2
370
    13
100
AcDbMText
 10
-46.375163
 20
17.126524
 30
0.0
 40
3.5
 41
0.0
 71
     7
 72
     5
  1
%%c
  7
iso_b_vert
 11
0.0000000000000001
 21
1.0
 31
0.0
 73
     1
 44
1.084337
  0
LINE
  5
106
330
103
100
AcDbEntity
  8
SK2
370
    13
100
AcDbLine
 10
-37.5875
 20
-3.0
 30
0.0
 11
-46.625163
 21
-3.0
 31
0.0
  0
LINE
  5
107
330
103
100
AcDbEntity
  8
SK2
370
    13
100
AcDbLine
 10
-37.5875
 20
3.0
 30
0.0
 11
-46.625163
 21
3.0
 31
0.0
  0
LINE
  5
108
330
103
100
AcDbEntity
  8
SK2
370
    13
100
AcDbLine
 10
-44.62516299999999
 20
32.121549
 30
0.0
 11
-44.62516299999999
 21
-11.75
 31
0.0
  0
SOLID
  5
109
330
103
100
AcDbEntity
  8
SK2
370
    13
100
AcDbTrace
 10
-44.62516299999999
 20
-3.0
 30
0.0
 11
-44.164379
 21
-6.499998
 31
0.0
 12
-45.085946
 22
-6.500001999999998
 32
0.0
 13
-44.62516299999999
 23
-3.0
 33
0.0
  0
SOLID
  5
10A
330
103
100
AcDbEntity
  8
SK2
370
    13
100
AcDbTrace
 10
-44.62516299999999
 20
3.0
 30
0.0
 11
-45.085946
 21
6.499998
 31
0.0
 12
-44.164379
 22
6.500001999999998
 32
0.0
 13
-44.62516299999999
 23
3.0
 33
0.0
  0
ENDBLK
  5
10C
330
103
100
AcDbEntity
  8
0
100
AcDbBlockEnd
  0
BLOCK
  5
116
330
10E
100
AcDbEntity
  8
0
100
AcDbBlockBegin
  2
DimnDraft3D7
 70
     0
 10
0.0
 20
0.0
 30
0.0
  3
DimnDraft3D7
  1

  0
MTEXT
  5
10F
330
10E
100
AcDbEntity
  8
2
370
    13
100
AcDbMText
 10
36.333343
 20
19.442266
 30
0.0
 40
3.5
 41
0.0
 71
     7
 72
     5
  1
\W0.7317;3,000
  7
iso_b_vert
 11
0.0000000000000001
 21
1.0
 31
0.0
 73
     1
 44
1.084337
  0
MTEXT
  5
110
330
10E
100
AcDbEntity
  8
2
370
    13
100
AcDbMText
 10
36.333343
 20
14.21961
 30
0.0
 40
3.5
 41
0.0
 71
     7
 72
     5
  1
%%c
  7
iso_b_vert
 11
0.0000000000000001
 21
1.0
 31
0.0
 73
     1
 44
1.084337
  0
LINE
  5
111
330
10E
100
AcDbEntity
  8
2
370
    13
100
AcDbLine
 10
27.1584
 20
-1.5
 30
0.0
 11
40.083343
 21
-1.5
 31
0.0
  0
LINE
  5
112
330
10E
100
AcDbEntity
  8
2
370
    13
100
AcDbLine
 10
27.1584
 20
1.5
 30
0.0
 11
40.083343
 21
1.5
 31
0.0
  0
LINE
  5
113
330
10E
100
AcDbEntity
  8
2
370
    13
100
AcDbLine
 10
38.083343
 20
29.214635
 30
0.0
 11
38.083343
 21
-10.25
 31
0.0
  0
SOLID
  5
114
330
10E
100
AcDbEntity
  8
2
370
    13
100
AcDbTrace
 10
38.083343
 20
-1.5
 30
0.0
 11
38.544126
 21
-4.999998
 31
0.0
 12
37.622559
 22
-5.000001999999998
 32
0.0
 13
38.083343
 23
-1.5
 33
0.0
  0
SOLID
  5
115
330
10E
100
AcDbEntity
  8
2
370
    13
100
AcDbTrace
 10
38.083343
 20
1.5
 30
0.0
 11
37.622559
 21
4.999998
 31
0.0
 12
38.544126
 22
5.000001999999998
 32
0.0
 13
38.083343
 23
1.5
 33
0.0
  0
ENDBLK
  5
117
330
10E
100
AcDbEntity
  8
0
100
AcDbBlockEnd
  0
BLOCK
  5
24F
330
244
100
AcDbEntity
  8
0
370
    18
100
AcDbBlockBegin
  2
*D9
 70
     1
 10
0.0
 20
0.0
 30
0.0
  3
*D9
  1

  0
LINE
  5
45C
330
244
100
AcDbEntity
  8
2
 62
     0
370
    -2
100
AcDbLine
 10
46.81054506890001
 20
4.7645
 30
0.0
 11
58.80221338167636
 21
4.764499999999997
 31
0.0
  0
LINE
  5
45D
330
244
100
AcDbEntity
  8
2
 62
     0
370
    -2
100
AcDbLine
 10
46.81940653349999
 20
-4.764499999999999
 30
0.0
 11
58.80221338167636
 21
-4.764500000000002
 31
0.0
  0
LINE
  5
45E
330
244
100
AcDbEntity
  8
2
 62
     0
370
    -2
100
AcDbLine
 10
58.62221338167636
 20
-1.764500000000002
 30
0.0
 11
58.62221338167636
 21
1.764499999999997
 31
0.0
  0
LINE
  5
45F
330
244
100
AcDbEntity
  8
2
 62
     0
370
    -2
100
AcDbLine
 10
58.62221338167636
 20
4.764499999999997
 30
0.0
 11
58.62221338167636
 21
12.49497891054053
 31
0.0
  0
LINE
  5
460
330
244
100
AcDbEntity
  8
2
 62
     0
370
    -2
100
AcDbLine
 10
58.62221338167636
 20
12.49497891054053
 30
0.0
 11
77.32221338167637
 21
12.49497891054052
 31
0.0
  0
SOLID
  5
461
330
244
100
AcDbEntity
  8
2
 62
     0
370
    18
100
AcDbTrace
 10
58.12221338167636
 20
-1.764500000000002
 30
0.0
 11
59.12221338167636
 21
-1.764500000000002
 31
0.0
 12
58.62221338167636
 22
-4.764500000000002
 32
0.0
 13
58.62221338167636
 23
-4.764500000000002
 33
0.0
  0
SOLID
  5
462
330
244
100
AcDbEntity
  8
2
 62
     0
370
    18
100
AcDbTrace
 10
58.12221338167636
 20
1.764499999999997
 30
0.0
 11
59.12221338167636
 21
1.764499999999997
 31
0.0
 12
58.62221338167636
 22
4.764499999999997
 32
0.0
 13
58.62221338167636
 23
4.764499999999997
 33
0.0
  0
MTEXT
  5
463
330
244
100
AcDbEntity
  8
2
 62
     0
370
    18
100
AcDbMText
 10
68.57221338167637
 20
15.44497891054054
 30
0.0
 40
3.5
 41
0.0
 71
     5
 72
     1
  1
\A1;%%c9.529
 73
     1
 44
1.0
  0
POINT
  5
464
330
244
100
AcDbEntity
  8
Defpoints
 62
     0
370
    18
100
AcDbPoint
 10
46.74804506890001
 20
4.7645
 30
0.0
  0
POINT
  5
465
330
244
100
AcDbEntity
  8
Defpoints
 62
     0
370
    18
100
AcDbPoint
 10
46.7569065335
 20
-4.764499999999999
 30
0.0
  0
POINT
  5
466
330
244
100
AcDbEntity
  8
Defpoints
 62
     0
370
    18
100
AcDbPoint
 10
58.62221338167636
 20
-4.764500000000002
 30
0.0
  0
ENDBLK
  5
250
330
244
100
AcDbEntity
  8
0
370
    18
100
AcDbBlockEnd
  0
BLOCK
  5
25D
330
252
100
AcDbEntity
  8
0
370
    18
100
AcDbBlockBegin
  2
*D10
 70
     1
 10
0.0
 20
0.0
 30
0.0
  3
*D10
  1

  0
LINE
  5
453
330
252
100
AcDbEntity
  8
SK2
 62
     0
370
    -2
100
AcDbLine
 10
14.226
 20
4.827
 30
0.0
 11
14.226
 21
12.54771977500271
 31
0.0
  0
LINE
  5
454
330
252
100
AcDbEntity
  8
SK2
 62
     0
370
    -2
100
AcDbLine
 10
53.22600000000003
 20
0.0625000000000001
 30
0.0
 11
53.22600000000003
 21
12.54771977500271
 31
0.0
  0
LINE
  5
455
330
252
100
AcDbEntity
  8
SK2
 62
     0
370
    -2
100
AcDbLine
 10
17.226
 20
12.36771977500271
 30
0.0
 11
50.22600000000003
 21
12.36771977500271
 31
0.0
  0
SOLID
  5
456
330
252
100
AcDbEntity
  8
SK2
 62
     0
370
    18
100
AcDbTrace
 10
17.226
 20
12.86771977500271
 30
0.0
 11
17.226
 21
11.86771977500271
 31
0.0
 12
14.226
 22
12.36771977500271
 32
0.0
 13
14.226
 23
12.36771977500271
 33
0.0
  0
SOLID
  5
457
330
252
100
AcDbEntity
  8
SK2
 62
     0
370
    18
100
AcDbTrace
 10
50.22600000000003
 20
12.86771977500271
 30
0.0
 11
50.22600000000003
 21
11.86771977500271
 31
0.0
 12
53.22600000000003
 22
12.36771977500271
 32
0.0
 13
53.22600000000003
 23
12.36771977500271
 33
0.0
  0
MTEXT
  5
458
330
252
100
AcDbEntity
  8
SK2
 62
     0
370
    18
100
AcDbMText
 10
33.72600000000002
 20
15.31771977500271
 30
0.0
 40
3.5
 41
0.0
 71
     5
 72
     1
  1
\A1;39.00
 73
     1
 44
1.0
  0
POINT
  5
459
330
252
100
AcDbEntity
  8
Defpoints
 62
     0
370
    18
100
AcDbPoint
 10
14.226
 20
4.7645
 30
0.0
  0
POINT
  5
45A
330
252
100
AcDbEntity
  8
Defpoints
 62
     0
370
    18
100
AcDbPoint
 10
53.22600000000003
 20
0.0000000000000001
 30
0.0
  0
POINT
  5
45B
330
252
100
AcDbEntity
  8
Defpoints
 62
     0
370
    18
100
AcDbPoint
 10
53.22600000000003
 20
12.36771977500271
 30
0.0
  0
ENDBLK
  5
25E
330
252
100
AcDbEntity
  8
0
370
    18
100
AcDbBlockEnd
  0
BLOCK
  5
26B
330
260
100
AcDbEntity
  8
0
370
    18
100
AcDbBlockBegin
  2
*D11
 70
     1
 10
0.0
 20
0.0
 30
0.0
  3
*D11
  1

  0
LINE
  5
44A
330
260
100
AcDbEntity
  8
SK2
 62
     0
370
    -2
100
AcDbLine
 10
0.0
 20
-5.062499999999999
 30
0.0
 11
-0.0000000000000005
 21
-13.68383907804465
 31
0.0
  0
LINE
  5
44B
330
260
100
AcDbEntity
  8
SK2
 62
     0
370
    -2
100
AcDbLine
 10
50.35168077084205
 20
-4.636499999999997
 30
0.0
 11
50.35168077084205
 21
-13.68383907804465
 31
0.0
  0
LINE
  5
44C
330
260
100
AcDbEntity
  8
SK2
 62
     0
370
    -2
100
AcDbLine
 10
2.999999999999999
 20
-13.50383907804465
 30
0.0
 11
47.35168077084205
 21
-13.50383907804465
 31
0.0
  0
SOLID
  5
44D
330
260
100
AcDbEntity
  8
SK2
 62
     0
370
    18
100
AcDbTrace
 10
2.999999999999999
 20
-13.00383907804465
 30
0.0
 11
2.999999999999999
 21
-14.00383907804465
 31
0.0
 12
-0.0000000000000005
 22
-13.50383907804465
 32
0.0
 13
-0.0000000000000005
 23
-13.50383907804465
 33
0.0
  0
SOLID
  5
44E
330
260
100
AcDbEntity
  8
SK2
 62
     0
370
    18
100
AcDbTrace
 10
47.35168077084205
 20
-13.00383907804465
 30
0.0
 11
47.35168077084205
 21
-14.00383907804465
 31
0.0
 12
50.35168077084205
 22
-13.50383907804465
 32
0.0
 13
50.35168077084205
 23
-13.50383907804465
 33
0.0
  0
MTEXT
  5
44F
330
260
100
AcDbEntity
  8
SK2
 62
     0
370
    18
100
AcDbMText
 10
25.17584038542103
 20
-10.55383907804465
 30
0.0
 40
3.5
 41
0.0
 71
     5
 72
     1
  1
\A1;50.35
 73
     1
 44
1.0
  0
POINT
  5
450
330
260
100
AcDbEntity
  8
Defpoints
 62
     0
370
    18
100
AcDbPoint
 10
0.0
 20
-4.999999999999999
 30
0.0
  0
POINT
  5
451
330
260
100
AcDbEntity
  8
Defpoints
 62
     0
370
    18
100
AcDbPoint
 10
50.35168077084205
 20
-4.573999999999997
 30
0.0
  0
POINT
  5
452
330
260
100
AcDbEntity
  8
Defpoints
 62
     0
370
    18
100
AcDbPoint
 10
50.35168077084205
 20
-13.50383907804465
 30
0.0
  0
ENDBLK
  5
26C
330
260
100
AcDbEntity
  8
0
370
    18
100
AcDbBlockEnd
  0
BLOCK
  5
279
330
26E
100
AcDbEntity
  8
0
370
    18
100
AcDbBlockBegin
  2
*D12
 70
     1
 10
0.0
 20
0.0
 30
0.0
  3
*D12
  1

  0
LINE
  5
440
330
26E
100
AcDbEntity
  8
SK2
 62
     0
370
    -2
100
AcDbLine
 10
50.35168077084205
 20
-4.636499999999997
 30
0.0
 11
50.35168077084205
 21
-17.95501646473345
 31
0.0
  0
LINE
  5
441
330
26E
100
AcDbEntity
  8
SK2
 62
     0
370
    -2
100
AcDbLine
 10
53.22600000000003
 20
-0.0625
 30
0.0
 11
53.22600000000003
 21
-17.95501646473345
 31
0.0
  0
LINE
  5
442
330
26E
100
AcDbEntity
  8
SK2
 62
     0
370
    -2
100
AcDbLine
 10
47.35168077084205
 20
-17.77501646473345
 30
0.0
 11
44.35168077084205
 21
-17.77501646473345
 31
0.0
  0
LINE
  5
443
330
26E
100
AcDbEntity
  8
SK2
 62
     0
370
    -2
100
AcDbLine
 10
56.22600000000002
 20
-17.77501646473345
 30
0.0
 11
72.12600000000003
 21
-17.77501646473345
 31
0.0
  0
SOLID
  5
444
330
26E
100
AcDbEntity
  8
SK2
 62
     0
370
    18
100
AcDbTrace
 10
47.35168077084205
 20
-17.27501646473345
 30
0.0
 11
47.35168077084205
 21
-18.27501646473345
 31
0.0
 12
50.35168077084205
 22
-17.77501646473345
 32
0.0
 13
50.35168077084205
 23
-17.77501646473345
 33
0.0
  0
SOLID
  5
445
330
26E
100
AcDbEntity
  8
SK2
 62
     0
370
    18
100
AcDbTrace
 10
56.22600000000002
 20
-17.27501646473345
 30
0.0
 11
56.22600000000002
 21
-18.27501646473345
 31
0.0
 12
53.22600000000003
 22
-17.77501646473345
 32
0.0
 13
53.22600000000003
 23
-17.77501646473345
 33
0.0
  0
MTEXT
  5
446
330
26E
100
AcDbEntity
  8
SK2
 62
     0
370
    18
100
AcDbMText
 10
65.67600000000003
 20
-14.82501646473345
 30
0.0
 40
3.5
 41
0.0
 71
     5
 72
     1
  1
\A1;2.87
 73
     1
 44
1.0
  0
POINT
  5
447
330
26E
100
AcDbEntity
  8
Defpoints
 62
     0
370
    18
100
AcDbPoint
 10
50.35168077084205
 20
-4.573999999999997
 30
0.0
  0
POINT
  5
448
330
26E
100
AcDbEntity
  8
Defpoints
 62
     0
370
    18
100
AcDbPoint
 10
53.22600000000003
 20
0.0000000000000001
 30
0.0
  0
POINT
  5
449
330
26E
100
AcDbEntity
  8
Defpoints
 62
     0
370
    18
100
AcDbPoint
 10
53.22600000000003
 20
-17.77501646473345
 30
0.0
  0
ENDBLK
  5
27A
330
26E
100
AcDbEntity
  8
0
370
    18
100
AcDbBlockEnd
  0
BLOCK
  5
287
330
27C
100
AcDbEntity
  8
0
370
    18
100
AcDbBlockBegin
  2
*D13
 70
     1
 10
0.0
 20
0.0
 30
0.0
  3
*D13
  1

  0
LINE
  5
437
330
27C
100
AcDbEntity
  8
SK2
 62
     0
370
    -2
100
AcDbLine
 10
-39.774
 20
-4.662499999999998
 30
0.0
 11
-39.774
 21
-21.28335380115666
 31
0.0
  0
LINE
  5
438
330
27C
100
AcDbEntity
  8
SK2
 62
     0
370
    -2
100
AcDbLine
 10
50.35168077079998
 20
-4.636499999999998
 30
0.0
 11
50.35168077079998
 21
-21.28335380115666
 31
0.0
  0
LINE
  5
439
330
27C
100
AcDbEntity
  8
SK2
 62
     0
370
    -2
100
AcDbLine
 10
-36.774
 20
-21.10335380115666
 30
0.0
 11
47.35168077079999
 21
-21.10335380115666
 31
0.0
  0
SOLID
  5
43A
330
27C
100
AcDbEntity
  8
SK2
 62
     0
370
    18
100
AcDbTrace
 10
-36.774
 20
-20.60335380115666
 30
0.0
 11
-36.774
 21
-21.60335380115666
 31
0.0
 12
-39.774
 22
-21.10335380115666
 32
0.0
 13
-39.774
 23
-21.10335380115666
 33
0.0
  0
SOLID
  5
43B
330
27C
100
AcDbEntity
  8
SK2
 62
     0
370
    18
100
AcDbTrace
 10
47.35168077079999
 20
-20.60335380115666
 30
0.0
 11
47.35168077079999
 21
-21.60335380115666
 31
0.0
 12
50.35168077079998
 22
-21.10335380115666
 32
0.0
 13
50.35168077079998
 23
-21.10335380115666
 33
0.0
  0
MTEXT
  5
43C
330
27C
100
AcDbEntity
  8
SK2
 62
     0
370
    18
100
AcDbMText
 10
5.288840385399993
 20
-18.15335380115666
 30
0.0
 40
3.5
 41
0.0
 71
     5
 72
     1
  1
\A1;90.13
 73
     1
 44
1.0
  0
POINT
  5
43D
330
27C
100
AcDbEntity
  8
Defpoints
 62
     0
370
    18
100
AcDbPoint
 10
-39.774
 20
-4.599999999999998
 30
0.0
  0
POINT
  5
43E
330
27C
100
AcDbEntity
  8
Defpoints
 62
     0
370
    18
100
AcDbPoint
 10
50.35168077079998
 20
-4.573999999999998
 30
0.0
  0
POINT
  5
43F
330
27C
100
AcDbEntity
  8
Defpoints
 62
     0
370
    18
100
AcDbPoint
 10
50.35168077079998
 20
-21.10335380115666
 30
0.0
  0
ENDBLK
  5
288
330
27C
100
AcDbEntity
  8
0
370
    18
100
AcDbBlockEnd
  0
BLOCK
  5
295
330
28A
100
AcDbEntity
  8
0
370
    18
100
AcDbBlockBegin
  2
*D14
 70
     1
 10
0.0
 20
0.0
 30
0.0
  3
*D14
  1

  0
LINE
  5
42E
330
28A
100
AcDbEntity
  8
SK2
 62
     0
370
    -2
100
AcDbLine
 10
53.22600000000003
 20
-0.0625
 30
0.0
 11
53.22600000000003
 21
-29.2729376983465
 31
0.0
  0
LINE
  5
42F
330
28A
100
AcDbEntity
  8
SK2
 62
     0
370
    -2
100
AcDbLine
 10
-39.774
 20
-4.662499999999998
 30
0.0
 11
-39.774
 21
-29.2729376983465
 31
0.0
  0
LINE
  5
430
330
28A
100
AcDbEntity
  8
SK2
 62
     0
370
    -2
100
AcDbLine
 10
50.22600000000003
 20
-29.09293769834651
 30
0.0
 11
-36.774
 21
-29.09293769834651
 31
0.0
  0
SOLID
  5
431
330
28A
100
AcDbEntity
  8
SK2
 62
     0
370
    18
100
AcDbTrace
 10
50.22600000000003
 20
-28.5929376983465
 30
0.0
 11
50.22600000000003
 21
-29.5929376983465
 31
0.0
 12
53.22600000000003
 22
-29.09293769834651
 32
0.0
 13
53.22600000000003
 23
-29.09293769834651
 33
0.0
  0
SOLID
  5
432
330
28A
100
AcDbEntity
  8
SK2
 62
     0
370
    18
100
AcDbTrace
 10
-36.774
 20
-28.5929376983465
 30
0.0
 11
-36.774
 21
-29.5929376983465
 31
0.0
 12
-39.774
 22
-29.09293769834651
 32
0.0
 13
-39.774
 23
-29.09293769834651
 33
0.0
  0
MTEXT
  5
433
330
28A
100
AcDbEntity
  8
SK2
 62
     0
370
    18
100
AcDbMText
 10
6.726000000000013
 20
-26.14293769834651
 30
0.0
 40
3.5
 41
0.0
 71
     5
 72
     1
  1
\A1;93.00
 73
     1
 44
1.0
  0
POINT
  5
434
330
28A
100
AcDbEntity
  8
Defpoints
 62
     0
370
    18
100
AcDbPoint
 10
53.22600000000003
 20
0.0000000000000001
 30
0.0
  0
POINT
  5
435
330
28A
100
AcDbEntity
  8
Defpoints
 62
     0
370
    18
100
AcDbPoint
 10
-39.774
 20
-4.599999999999998
 30
0.0
  0
POINT
  5
436
330
28A
100
AcDbEntity
  8
Defpoints
 62
     0
370
    18
100
AcDbPoint
 10
-39.774
 20
-29.09293769834651
 30
0.0
  0
ENDBLK
  5
296
330
28A
100
AcDbEntity
  8
0
370
    18
100
AcDbBlockEnd
  0
BLOCK
  5
2A3
330
298
100
AcDbEntity
  8
0
370
    18
100
AcDbBlockBegin
  2
*D15
 70
     1
 10
0.0
 20
0.0
 30
0.0
  3
*D15
  1

  0
LINE
  5
423
330
298
100
AcDbEntity
  8
SK2
 62
     0
370
    -2
100
AcDbLine
 10
-39.4365
 20
5.0
 30
0.0
 11
-46.04880861512817
 21
5.000000000000002
 31
0.0
  0
LINE
  5
424
330
298
100
AcDbEntity
  8
SK2
 62
     0
370
    -2
100
AcDbLine
 10
-39.4365
 20
-4.999999999999999
 30
0.0
 11
-46.04880861512817
 21
-4.999999999999997
 31
0.0
  0
LINE
  5
425
330
298
100
AcDbEntity
  8
SK2
 62
     0
370
    -2
100
AcDbLine
 10
-45.86880861512817
 20
-1.999999999999997
 30
0.0
 11
-45.86880861512817
 21
2.000000000000002
 31
0.0
  0
LINE
  5
426
330
298
100
AcDbEntity
  8
SK2
 62
     0
370
    -2
100
AcDbLine
 10
-45.86880861512817
 20
5.000000000000001
 30
0.0
 11
-45.86880861512817
 21
11.8760090848289
 31
0.0
  0
LINE
  5
427
330
298
100
AcDbEntity
  8
SK2
 62
     0
370
    -2
100
AcDbLine
 10
-45.86880861512817
 20
11.8760090848289
 30
0.0
 11
-27.16880861512817
 21
11.8760090848289
 31
0.0
  0
SOLID
  5
428
330
298
100
AcDbEntity
  8
SK2
 62
     0
370
    18
100
AcDbTrace
 10
-46.36880861512817
 20
-1.999999999999997
 30
0.0
 11
-45.36880861512817
 21
-1.999999999999998
 31
0.0
 12
-45.86880861512817
 22
-4.999999999999998
 32
0.0
 13
-45.86880861512817
 23
-4.999999999999998
 33
0.0
  0
SOLID
  5
429
330
298
100
AcDbEntity
  8
SK2
 62
     0
370
    18
100
AcDbTrace
 10
-46.36880861512817
 20
2.000000000000002
 30
0.0
 11
-45.36880861512817
 21
2.000000000000002
 31
0.0
 12
-45.86880861512817
 22
5.000000000000001
 32
0.0
 13
-45.86880861512817
 23
5.000000000000001
 33
0.0
  0
MTEXT
  5
42A
330
298
100
AcDbEntity
  8
SK2
 62
     0
370
    18
100
AcDbMText
 10
-35.91880861512817
 20
14.82600908482889
 30
0.0
 40
3.5
 41
0.0
 71
     5
 72
     1
  1
\A1;%%c10.000
 73
     1
 44
1.0
  0
POINT
  5
42B
330
298
100
AcDbEntity
  8
Defpoints
 62
     0
370
    18
100
AcDbPoint
 10
-39.374
 20
5.0
 30
0.0
  0
POINT
  5
42C
330
298
100
AcDbEntity
  8
Defpoints
 62
     0
370
    18
100
AcDbPoint
 10
-39.374
 20
-4.999999999999999
 30
0.0
  0
POINT
  5
42D
330
298
100
AcDbEntity
  8
Defpoints
 62
     0
370
    18
100
AcDbPoint
 10
-45.86880861512817
 20
-4.999999999999998
 30
0.0
  0
ENDBLK
  5
2A4
330
298
100
AcDbEntity
  8
0
370
    18
100
AcDbBlockEnd
  0
ENDSEC
  0
SECTION
  2
ENTITIES
  0
POINT
  5
6E
330
1F
100
AcDbEntity
  8
80
370
    18
100
AcDbPoint
 10
0.0
 20
0.0
 30
0.0
 50
360.0
  0
POINT
  5
70
330
1F
100
AcDbEntity
  8
SK2
 60
     1
370
    18
100
AcDbPoint
 10
-36.0
 20
-3.0
 30
0.0
 50
360.0
  0
POINT
  5
72
330
1F
100
AcDbEntity
  8
SK2
 60
     1
370
    18
100
AcDbPoint
 10
-36.0
 20
3.0
 30
0.0
 50
360.0
  0
POINT
  5
73
330
1F
100
AcDbEntity
  8
2
 60
     1
370
    18
100
AcDbPoint
 10
25.5709
 20
-1.5
 30
0.0
 50
360.0
  0
POINT
  5
75
330
1F
100
AcDbEntity
  8
2
 60
     1
370
    18
100
AcDbPoint
 10
25.5709
 20
1.5
 30
0.0
 50
360.0
  0
LINE
  5
76
330
1F
100
AcDbEntity
  8
81
370
    18
100
AcDbLine
 10
53.22600000000003
 20
0.0000000000000001
 30
0.0
 11
58.22600000000003
 21
0.0000000000000001
 31
0.0
  0
LINE
  5
85
330
1F
100
AcDbEntity
  8
SK4
 48
0.05
370
    18
100
AcDbLine
 10
59.36632260258369
 20
0.0000000000000001
 30
0.0
 11
-44.82295766211932
 21
0.0000000000000001
 31
0.0
  0
LINE
  5
87
330
1F
100
AcDbEntity
  8
4
 48
0.05
370
    18
100
AcDbLine
 10
53.22600000000003
 20
0.0000000000000001
 30
0.0
 11
0.0
 21
0.0
 31
0.0
  0
LINE
  5
89
330
1F
100
AcDbEntity
  8
80
370
    18
100
AcDbLine
 10
0.0
 20
0.0
 30
0.0
 11
-5.0
 21
0.0
 31
0.0
  0
MTEXT
  5
CD
330
1F
100
AcDbEntity
  8
SK6
370
    13
100
AcDbMText
 10
8.178093717934483
 20
27.67311018753985
 30
0.0
 40
3.5
 41
0.0
 71
     8
 72
     5
  1
\W0.7645;863.1-0953-039A1-N
  7
iso_b_vert
 73
     1
 44
1.084337
  0
LINE
  5
1F4
330
1F
100
AcDbEntity
  8
1
  6
Continuous
370
    15
100
AcDbLine
 10
4.85965761060001
 20
-4.469160907999999
 30
0.0
 11
4.708890575499992
 21
-4.566481563999999
 31
0.0
  0
LINE
  5
1F5
330
1F
100
AcDbEntity
  8
1
  6
Continuous
370
    15
100
AcDbLine
 10
50.85915916400001
 20
3.6713362941
 30
0.0
 11
49.85427776939999
 21
4.0753841523
 31
0.0
  0
LINE
  5
1F6
330
1F
100
AcDbEntity
  8
SK1
  6
Continuous
370
    15
100
AcDbLine
 10
-39.774
 20
-4.599999999999998
 30
0.0
 11
-39.774
 21
4.6
 31
0.0
  0
LINE
  5
1F7
330
1F
100
AcDbEntity
  8
1
  6
Continuous
370
    15
100
AcDbLine
 10
0.2259999999999991
 20
4.774000000000001
 30
0.0
 11
0.2259999999999991
 21
-4.773999999999999
 31
0.0
  0
LINE
  5
1F8
330
1F
100
AcDbEntity
  8
SK1
  6
Continuous
370
    15
100
AcDbLine
 10
-39.374
 20
5.0
 30
0.0
 11
-39.374
 21
-4.999999999999999
 31
0.0
  0
LINE
  5
1F9
330
1F
100
AcDbEntity
  8
SK1
  6
Continuous
370
    15
100
AcDbLine
 10
0.0
 20
-4.999999999999999
 30
0.0
 11
0.0
 21
5.0
 31
0.0
  0
LINE
  5
1FA
330
1F
100
AcDbEntity
  8
1
  6
Continuous
370
    15
100
AcDbLine
 10
53.226
 20
0.0000000000000009
 30
0.0
 11
50.35168077079998
 21
4.574
 31
0.0
  0
LINE
  5
1FB
330
1F
100
AcDbEntity
  8
1
  6
Continuous
370
    15
100
AcDbLine
 10
51.5881886457
 20
0.406135796100001
 30
0.0
 11
52.65614638549999
 21
0.1413092850000011
 31
0.0
  0
LINE
  5
1FC
330
1F
100
AcDbEntity
  8
1
  6
Continuous
370
    15
100
AcDbLine
 10
51.25254728250002
 20
2.918694821600001
 30
0.0
 11
52.65614638549999
 21
0.1413092850000011
 31
0.0
  0
LINE
  5
1FD
330
1F
100
AcDbEntity
  8
1
  6
Continuous
370
    15
100
AcDbLine
 10
53.226
 20
0.0000000000000009
 30
0.0
 11
50.35168077079998
 21
-4.573999999999998
 31
0.0
  0
LINE
  5
1FF
330
1F
100
AcDbEntity
  8
1
  6
Continuous
370
    15
100
AcDbLine
 10
51.25225724789999
 20
2.9193195115
 30
0.0
 11
51.22238584769999
 21
2.938985704900001
 31
0.0
  0
LINE
  5
200
330
1F
100
AcDbEntity
  8
1
  6
Continuous
370
    15
100
AcDbLine
 10
14.226
 20
4.047627848600002
 30
0.0
 11
14.226
 21
4.7645
 31
0.0
  0
LINE
  5
201
330
1F
100
AcDbEntity
  8
1
  6
Continuous
370
    15
100
AcDbLine
 10
4.906036070600009
 20
-4.476301576299999
 30
0.0
 11
4.708890575499992
 21
-4.566481563999999
 31
0.0
  0
LINE
  5
202
330
1F
100
AcDbEntity
  8
SK1
  6
Continuous
370
    15
100
AcDbLine
 10
-39.774
 20
-4.599999999999998
 30
0.0
 11
-39.374
 21
-4.999999999999999
 31
0.0
  0
LINE
  5
203
330
1F
100
AcDbEntity
  8
SK1
  6
Continuous
370
    15
100
AcDbLine
 10
-39.374
 20
5.0
 30
0.0
 11
-39.774
 21
4.6
 31
0.0
  0
LINE
  5
204
330
1F
100
AcDbEntity
  8
1
  6
Continuous
370
    15
100
AcDbLine
 10
0.2259999999999991
 20
4.774000000000001
 30
0.0
 11
0.0
 21
5.0
 31
0.0
  0
LINE
  5
205
330
1F
100
AcDbEntity
  8
1
  6
Continuous
370
    15
100
AcDbLine
 10
0.0
 20
-4.999999999999999
 30
0.0
 11
0.2259999999999991
 21
-4.773999999999999
 31
0.0
  0
LINE
  5
206
330
1F
100
AcDbEntity
  8
SK1
  6
Continuous
370
    15
100
AcDbLine
 10
-39.374
 20
-4.999999999999999
 30
0.0
 11
0.0
 21
-4.999999999999999
 31
0.0
  0
LINE
  5
207
330
1F
100
AcDbEntity
  8
SK1
  6
Continuous
370
    15
100
AcDbLine
 10
0.0
 20
5.0
 30
0.0
 11
-39.374
 21
5.0
 31
0.0
  0
LINE
  5
208
330
1F
100
AcDbEntity
  8
1
  6
Continuous
370
    15
100
AcDbLine
 10
50.91587806479998
 20
3.546892695700001
 30
0.0
 11
50.95900195050001
 21
3.467977418500001
 31
0.0
  0
LINE
  5
209
330
1F
100
AcDbEntity
  8
1
  6
Continuous
370
    15
100
AcDbLine
 10
0.2259999999999991
 20
-4.764499999999999
 30
0.0
 11
3.600954633399993
 21
-4.764499999999999
 31
0.0
  0
LINE
  5
20A
330
1F
100
AcDbEntity
  8
1
  6
Continuous
370
    15
100
AcDbLine
 10
8.243000881900002
 20
-4.764499999999999
 30
0.0
 11
14.226
 21
-4.764499999999999
 31
0.0
  0
LINE
  5
20B
330
1F
100
AcDbEntity
  8
1
  6
Continuous
370
    15
100
AcDbLine
 10
28.23932920710002
 20
-4.764499999999999
 30
0.0
 11
28.9111809792
 21
-4.764499999999999
 31
0.0
  0
LINE
  5
20C
330
1F
100
AcDbEntity
  8
1
  6
Continuous
370
    15
100
AcDbLine
 10
46.07795922290001
 20
-4.764499999999999
 30
0.0
 11
46.7569065335
 21
-4.764499999999999
 31
0.0
  0
LINE
  5
20D
330
1F
100
AcDbEntity
  8
1
  6
Continuous
370
    15
100
AcDbLine
 10
46.74804506890001
 20
4.7645
 30
0.0
 11
46.07795922290001
 21
4.7645
 31
0.0
  0
LINE
  5
20E
330
1F
100
AcDbEntity
  8
1
  6
Continuous
370
    15
100
AcDbLine
 10
28.9200309247
 20
4.7645
 30
0.0
 11
28.23932920710002
 21
4.7645
 31
0.0
  0
LINE
  5
20F
330
1F
100
AcDbEntity
  8
1
  6
Continuous
370
    15
100
AcDbLine
 10
14.226
 20
4.7645
 30
0.0
 11
8.243000881900002
 21
4.7645
 31
0.0
  0
LINE
  5
210
330
1F
100
AcDbEntity
  8
1
  6
Continuous
370
    15
100
AcDbLine
 10
3.600954633399993
 20
4.7645
 30
0.0
 11
0.2259999999999991
 21
4.7645
 31
0.0
  0
LINE
  5
211
330
1F
100
AcDbEntity
  8
1
  6
Continuous
370
    15
100
AcDbLine
 10
48.20231367119998
 20
-4.611205367699999
 30
0.0
 11
48.35320643820001
 21
-4.573999046599999
 31
0.0
  0
LINE
  5
212
330
1F
100
AcDbEntity
  8
1
  6
Continuous
370
    15
100
AcDbLine
 10
48.77578102270001
 20
4.461101429900002
 30
0.0
 11
48.35164185899998
 21
4.5760810379
 31
0.0
  0
SPLINE
  5
213
330
1F
100
AcDbEntity
  8
1
  6
Continuous
370
    15
100
AcDbSpline
210
0.0
220
0.0
230
1.0
 70
     8
 71
     3
 72
    15
 73
    11
 74
     0
 42
0.0000000001
 43
0.0000000001
 40
0.0
 40
0.0
 40
0.0
 40
0.0
 40
0.1310022857326026
 40
0.2642699494777573
 40
0.4003210876871274
 40
0.5396455708022029
 40
0.6827016746344953
 40
0.8272485775827297
 40
0.9761650728416684
 40
1.0
 40
1.0
 40
1.0
 40
1.0
 10
14.226
 20
0.7734274034608469
 30
0.0
 10
13.83029961235058
 20
0.867721867365419
 30
0.0
 10
13.03205612470729
 20
1.057941397297573
 30
0.0
 10
11.84785350837846
 20
1.492150336115398
 30
0.0
 10
10.66266728415721
 20
2.003230273511927
 30
0.0
 10
9.478294884889862
 20
2.562835244529721
 30
0.0
 10
8.300590547129047
 20
3.121813883331893
 30
0.0
 10
7.133543889429233
 20
3.611059665484215
 30
0.0
 10
6.301300240786787
 20
3.926375265954139
 30
0.0
 10
5.866604120292208
 20
4.013738878279274
 30
0.0
 10
5.806628056286399
 20
4.025792644939607
 30
0.0
  0
SPLINE
  5
214
330
1F
100
AcDbEntity
  8
1
  6
Continuous
370
    15
100
AcDbSpline
210
0.0
220
0.0
230
1.0
 70
     8
 71
     3
 72
    12
 73
     8
 74
     0
 42
0.0000000001
 43
0.0000000001
 40
0.0
 40
0.0
 40
0.0
 40
0.0
 40
0.0979709342256329
 40
0.3170661062981824
 40
0.5361342581081701
 40
0.7680153484862727
 40
1.0
 40
1.0
 40
1.0
 40
1.0
 10
21.38937637712627
 20
-1.697600611421623
 30
0.0
 10
21.15544829244072
 20
-1.757867838566745
 30
0.0
 10
20.39838021351199
 20
-1.952912370900022
 30
0.0
 10
19.11824886045801
 20
-2.137059621767918
 30
0.0
 10
17.51841671169955
 20
-2.226931709556823
 30
0.0
 10
15.88774779099205
 20
-2.141074829547003
 30
0.0
 10
14.78009708780806
 20
-1.934853105876947
 30
0.0
 10
14.22614809099468
 20
-1.831719223850983
 30
0.0
  0
SPLINE
  5
215
330
1F
100
AcDbEntity
  8
1
  6
Continuous
370
    15
100
AcDbSpline
210
0.0
220
0.0
230
1.0
 70
     8
 71
     3
 72
    11
 73
     7
 74
     0
 42
0.0000000001
 43
0.0000000001
 40
0.0
 40
0.0
 40
0.0
 40
0.0
 40
0.2700458875609229
 40
0.5399215876005328
 40
0.8098990385008868
 40
1.0
 40
1.0
 40
1.0
 40
1.0
 10
50.62643154341208
 20
-1.971389147200608
 30
0.0
 10
50.05754147783398
 20
-1.856861500564538
 30
0.0
 10
48.92011987089384
 20
-1.627878384567448
 30
0.0
 10
47.21413153752812
 20
-1.090607343717916
 30
0.0
 10
45.67644663135522
 20
-0.5304415508641647
 30
0.0
 10
44.70720699808038
 20
-0.1543065623733826
 30
0.0
 10
44.30672442545187
 20
0.0011096037376062
 30
0.0
  0
SPLINE
  5
216
330
1F
100
AcDbEntity
  8
1
  6
Continuous
370
    15
100
AcDbSpline
210
0.0
220
0.0
230
1.0
 70
     8
 71
     3
 72
    16
 73
    12
 74
     0
 42
0.0000000001
 43
0.0000000001
 40
0.0
 40
0.0
 40
0.0
 40
0.0
 40
0.0383897858869293
 40
0.1697538260518259
 40
0.3010515110355092
 40
0.4314523134904496
 40
0.5619128847751196
 40
0.6924145280201434
 40
0.8229383469402685
 40
0.9534653372511087
 40
1.0
 40
1.0
 40
1.0
 40
1.0
 10
39.22903256701884
 20
-1.698462584778476
 30
0.0
 10
39.06573478444597
 20
-1.74229737107344
 30
0.0
 10
38.34365669161233
 20
-1.936128165276119
 30
0.0
 10
37.06312305146946
 20
-2.126510661253787
 30
0.0
 10
35.39131231516956
 20
-2.2312811047824
 30
0.0
 10
33.72335852911135
 20
-2.133638448117815
 30
0.0
 10
32.05868905392617
 20
-1.856989237995448
 30
0.0
 10
30.39345385722012
 20
-1.420959306053974
 30
0.0
 10
28.72790912578657
 20
-0.8640812384761327
 30
0.0
 10
27.41952600183589
 20
-0.3677944352989897
 30
0.0
 10
26.66636914865052
 20
-0.077240653174079
 30
0.0
 10
26.46842736083622
 20
-0.0008784255095922
 30
0.0
  0
SPLINE
  5
217
330
1F
100
AcDbEntity
  8
1
  6
Continuous
370
    15
100
AcDbSpline
210
0.0
220
0.0
230
1.0
 70
     8
 71
     3
 72
    13
 73
     9
 74
     0
 42
0.0000000001
 43
0.0000000001
 40
0.0
 40
0.0
 40
0.0
 40
0.0
 40
0.183683448003433
 40
0.3694888038400738
 40
0.5578660313732137
 40
0.7492523183491454
 40
0.9440565661707474
 40
1.0
 40
1.0
 40
1.0
 40
1.0
 10
14.226
 20
-1.831792610368154
 30
0.0
 10
13.86986931183895
 20
-1.736214763077944
 30
0.0
 10
13.15349392031811
 20
-1.543954954952996
 30
0.0
 10
12.08701678317473
 20
-1.017594478736197
 30
0.0
 10
11.01950846469032
 20
-0.3452348446420652
 30
0.0
 10
9.953850010887805
 20
0.4561581322211286
 30
0.0
 10
9.143820312697528
 20
1.124524311686605
 30
0.0
 10
8.696032247150384
 20
1.50551996338281
 30
0.0
 10
8.596127825902925
 20
1.590522563963491
 30
0.0
  0
SPLINE
  5
218
330
1F
100
AcDbEntity
  8
1
  6
Continuous
370
    15
100
AcDbSpline
210
0.0
220
0.0
230
1.0
 70
     8
 71
     3
 72
    14
 73
    10
 74
     0
 42
0.0000000001
 43
0.0000000001
 40
0.0
 40
0.0
 40
0.0
 40
0.0
 40
0.0223319319749444
 40
0.198234370939513
 40
0.3743209447469347
 40
0.55015073705491
 40
0.707397427041581
 40
0.8645482729033824
 40
1.0
 40
1.0
 40
1.0
 40
1.0
 10
37.86454670557839
 20
-0.5850833315199102
 30
0.0
 10
37.76717288970832
 20
-0.565459967521468
 30
0.0
 10
36.90281251297788
 20
-0.3912688038410206
 30
0.0
 10
35.27074723054045
 20
0.0371390723990874
 30
0.0
 10
32.96915751021342
 20
0.5919674466753673
 30
0.0
 10
30.74917837151719
 20
1.047952201132161
 30
0.0
 10
28.61173990227669
 20
1.327042480830741
 30
0.0
 10
26.65040498011655
 20
1.43639930987896
 30
0.0
 10
25.37472091739548
 20
1.362472939369173
 30
0.0
 10
24.78418062317274
 20
1.328250907545283
 30
0.0
  0
SPLINE
  5
219
330
1F
100
AcDbEntity
  8
1
  6
Continuous
370
    15
100
AcDbSpline
210
0.0
220
0.0
230
1.0
 70
     8
 71
     3
 72
    10
 73
     6
 74
     0
 42
0.0000000001
 43
0.0000000001
 40
0.0
 40
0.0
 40
0.0
 40
0.0
 40
0.2915579725887701
 40
0.6460817998269817
 40
1.0
 40
1.0
 40
1.0
 40
1.0
 10
20.02688428754141
 20
-0.5869465304508461
 30
0.0
 10
19.46312583976518
 20
-0.4580456645317881
 30
0.0
 10
18.21385774610661
 20
-0.1724060618387577
 30
0.0
 10
16.28016088077426
 20
0.3225405097029395
 30
0.0
 10
14.91040521563674
 20
0.6232548060131835
 30
0.0
 10
14.22611286576904
 20
0.7734834180921775
 30
0.0
  0
SPLINE
  5
21A
330
1F
100
AcDbEntity
  8
1
  6
Continuous
370
    15
100
AcDbSpline
210
0.0
220
0.0
230
1.0
 70
     8
 71
     3
 72
    12
 73
     8
 74
     0
 42
0.0000000001
 43
0.0000000001
 40
0.0
 40
0.0
 40
0.0
 40
0.0
 40
0.2179971193735315
 40
0.4361366102694234
 40
0.6539231588852054
 40
0.8718377991582947
 40
1.0
 40
1.0
 40
1.0
 40
1.0
 10
51.59411366753662
 20
0.3969820842997436
 30
0.0
 10
50.94296084589379
 20
0.5462641589748794
 30
0.0
 10
49.64022994185802
 20
0.8449258028071584
 30
0.0
 10
47.68683789452438
 20
1.1826807472061
 30
0.0
 10
45.7339386290152
 20
1.37880035056771
 30
0.0
 10
44.04970030484128
 20
1.43006176899438
 30
0.0
 10
43.01592835743645
 20
1.350000027631741
 30
0.0
 10
42.63309289372545
 20
1.320350863754718
 30
0.0
  0
SPLINE
  5
21B
330
1F
100
AcDbEntity
  8
1
  6
Continuous
370
    15
100
AcDbSpline
210
0.0
220
0.0
230
1.0
 70
     8
 71
     3
 72
    20
 73
    16
 74
     0
 42
0.0000000001
 43
0.0000000001
 40
0.0
 40
0.0
 40
0.0
 40
0.0
 40
0.0201847494696395
 40
0.1078184979197796
 40
0.1954924931252999
 40
0.2807407470940748
 40
0.3659340881772271
 40
0.4510943416398364
 40
0.5362435424863579
 40
0.6214037959489673
 40
0.7065971370321196
 40
0.7918453910008948
 40
0.8770936449696696
 40
0.962286986052822
 40
1.0
 40
1.0
 40
1.0
 40
1.0
 10
47.23103598528783
 20
-4.5524444991831
 30
0.0
 10
47.1304093930913
 20
-4.55901728980415
 30
0.0
 10
46.59290418215294
 20
-4.594126391007946
 30
0.0
 10
45.61820204729445
 20
-4.417181190789412
 30
0.0
 10
44.31884621108094
 20
-4.023366597452231
 30
0.0
 10
43.03166392157192
 20
-3.407341694580317
 30
0.0
 10
41.7574170570922
 20
-2.63126671828928
 30
0.0
 10
40.48381110401587
 20
-1.722023998614462
 30
0.0
 10
39.21043891914516
 20
-0.7269287355416952
 30
0.0
 10
37.936832827064
 20
0.3049811837212912
 30
0.0
 10
36.66258651894518
 20
1.32095281360058
 30
0.0
 10
35.38749893575306
 20
2.273656687210912
 30
0.0
 10
34.11241773667177
 20
3.100750406457032
 30
0.0
 10
33.07469352951395
 20
3.682984975426731
 30
0.0
 10
32.46204375345082
 20
3.904405652672333
 30
0.0
 10
32.2740561628685
 20
3.972347144282726
 30
0.0
  0
SPLINE
  5
21C
330
1F
100
AcDbEntity
  8
1
  6
Continuous
370
    15
100
AcDbSpline
210
0.0
220
0.0
230
1.0
 70
     8
 71
     3
 72
    20
 73
    16
 74
     0
 42
0.0000000001
 43
0.0000000001
 40
0.0
 40
0.0
 40
0.0
 40
0.0
 40
0.0265919157660316
 40
0.110440094201229
 40
0.1943423184735026
 40
0.2782445427457755
 40
0.3620927211809731
 40
0.4459083344335399
 40
0.5297130695856112
 40
0.6135286828381784
 40
0.6973768612733759
 40
0.7812790855456491
 40
0.8542634045294676
 40
0.9271294526146947
 40
1.0
 40
1.0
 40
1.0
 40
1.0
 10
29.42176560402188
 20
-4.549044955526375
 30
0.0
 10
29.28708631483178
 20
-4.55660713068989
 30
0.0
 10
28.72774363655404
 20
-4.58801394412797
 30
0.0
 10
27.74333114484972
 20
-4.408942249216694
 30
0.0
 10
26.46825136576058
 20
-4.017103768103924
 30
0.0
 10
25.19316339386779
 20
-3.407468903999526
 30
0.0
 10
23.91891722034452
 20
-2.631231069411657
 30
0.0
 10
22.64531097839296
 20
-1.722039468090553
 30
0.0
 10
21.37193925841564
 20
-0.7269024966655087
 30
0.0
 10
20.09833159521412
 20
0.3048916696907531
 30
0.0
 10
18.82409111018336
 20
1.32128485491766
 30
0.0
 10
17.60430218663458
 20
2.231152514584274
 30
0.0
 10
16.44025231700644
 20
2.998641625551203
 30
0.0
 10
15.33310490103969
 20
3.627645082163502
 30
0.0
 10
14.59520566232906
 20
3.927199513179746
 30
0.0
 10
14.22624465245758
 20
4.076981352733292
 30
0.0
  0
SPLINE
  5
21D
330
1F
100
AcDbEntity
  8
1
  6
Continuous
370
    15
100
AcDbSpline
210
0.0
220
0.0
230
1.0
 70
    24
 71
     3
 72
    14
 73
    10
 74
     0
 42
0.0000000001
 43
0.0000000001
 40
0.0
 40
0.0
 40
0.0
 40
0.0
 40
0.0004655286018475
 40
0.0004655286018475
 40
0.0004655286018475
 40
0.0009584658688564
 40
0.0009584658688564
 40
0.0009584658688564
 40
0.0014520226499175
 40
0.0014520226499175
 40
0.0014520226499175
 40
0.0014520226499175
 10
52.65614638548652
 20
0.1413092849563329
 30
0.0
 10
52.70931127673015
 20
0.1281257364535522
 30
0.0
 10
52.76516109745441
 20
0.1142763933407265
 30
0.0
 10
52.82349967990689
 20
0.0998099002593973
 30
0.0
 10
52.885272748533
 20
0.0844917414642446
 30
0.0
 10
52.94985663472582
 20
0.0684765709973512
 30
0.0
 10
53.01697836159388
 20
0.0518320802242984
 30
0.0
 10
53.08418562778101
 20
0.0351663778633853
 30
0.0
 10
53.15395643167651
 20
0.0178649829819682
 30
0.0
 10
53.226
 20
0.0
 30
0.0
  0
SPLINE
  5
21E
330
1F
100
AcDbEntity
  8
1
  6
Continuous
370
    15
100
AcDbSpline
210
0.0
220
0.0
230
1.0
 70
     8
 71
     3
 72
    14
 73
    10
 74
     0
 42
0.0000000001
 43
0.0000000001
 40
0.0
 40
0.0
 40
0.0
 40
0.0
 40
0.0003518290913879
 40
0.0003518290913879
 40
0.0003518290913879
 40
0.0007036586654324
 40
0.0007036586654324
 40
0.0007036586654324
 40
0.0012907237260987
 40
0.0012907237260987
 40
0.0012907237260987
 40
0.0012907237260987
 10
51.22238584770627
 20
2.937593115358098
 30
0.0
 10
51.13219742204171
 20
2.992580024471822
 30
0.0
 10
51.04194046722361
 20
3.047569807149032
 30
0.0
 10
50.95174195351529
 20
3.102628186844815
 30
0.0
 10
50.86154338406527
 20
3.157686600566067
 30
0.0
 10
50.77140354411361
 20
3.212813500275783
 30
0.0
 10
50.68143712633787
 20
3.268007200417209
 30
0.0
 10
50.53132111057891
 20
3.360102212812578
 30
0.0
 10
50.38174071481859
 20
3.452410327619063
 30
0.0
 10
50.23297785057195
 20
3.54453798506868
 30
0.0
  0
SPLINE
  5
21F
330
1F
100
AcDbEntity
  8
1
  6
Continuous
370
    15
100
AcDbSpline
210
0.0
220
0.0
230
1.0
 70
    11
 71
     3
 72
    34
 73
    30
 74
     0
 42
0.0000000001
 43
0.0000000001
 40
0.0
 40
0.0
 40
0.0
 40
0.0
 40
0.0625
 40
0.0625
 40
0.125
 40
0.125
 40
0.1875
 40
0.1875
 40
0.25
 40
0.25
 40
0.3125
 40
0.3125
 40
0.375
 40
0.375
 40
0.5
 40
0.5
 40
0.625
 40
0.625
 40
0.6875
 40
0.6875
 40
0.75
 40
0.75
 40
0.8125
 40
0.8125
 40
0.875
 40
0.875
 40
0.9375
 40
0.9375
 40
1.0
 40
1.0
 40
1.0
 40
1.0
 10
51.91465488843829
 20
1.939033524325318
 30
0.0
 10
51.87220956110869
 20
2.018859268252737
 30
0.0
 10
51.82741566275956
 20
2.099502959044256
 30
0.0
 10
51.7339269482137
 20
2.262830013203975
 30
0.0
 10
51.68468228591379
 20
2.346374361344914
 30
0.0
 10
51.58770517586543
 20
2.507026896278561
 30
0.0
 10
51.53872846588476
 20
2.586213387129562
 30
0.0
 10
51.45076281158478
 20
2.724533992281895
 30
0.0
 10
51.41157301928723
 20
2.783867591482375
 30
0.0
 10
51.36382511116801
 20
2.849396930054599
 30
0.0
 10
51.35547891320453
 20
2.855118408189256
 30
0.0
 10
51.36668414973638
 20
2.819361469578824
 30
0.0
 10
51.38477355537361
 20
2.780198974926717
 30
0.0
 10
51.45858720476732
 20
2.628152650283536
 30
0.0
 10
51.532342538183
 20
2.482984835945644
 30
0.0
 10
51.69193369867446
 20
2.166532289012026
 30
0.0
 10
51.77990058390022
 20
1.990623366900146
 30
0.0
 10
51.90808379094676
 20
1.741374300419214
 30
0.0
 10
51.95048733778071
 20
1.660449119591405
 30
0.0
 10
52.02785349693624
 20
1.521947946483527
 30
0.0
 10
52.06344431798715
 20
1.463633481885815
 30
0.0
 10
52.11694028330644
 20
1.394801101256477
 30
0.0
 10
52.13366547109078
 20
1.386189031897857
 30
0.0
 10
52.14054237118023
 20
1.420751080611124
 30
0.0
 10
52.1305679846115
 20
1.463183476554063
 30
0.0
 10
52.09203046276184
 20
1.57182337785607
 30
0.0
 10
52.06336930493577
 20
1.639027324339574
 30
0.0
 10
51.99624648009677
 20
1.781884007238716
 30
0.0
 10
51.95710021576786
 20
1.859207780397899
 30
0.0
 10
51.91465488843829
 20
1.939033524325318
 30
0.0
  0
SPLINE
  5
220
330
1F
100
AcDbEntity
  8
1
  6
Continuous
370
    15
100
AcDbSpline
210
0.0
220
0.0
230
1.0
 70
     8
 71
     3
 72
    20
 73
    16
 74
     0
 42
0.0000000001
 43
0.0000000001
 40
0.0
 40
0.0
 40
0.0
 40
0.0
 40
0.2499999999999998
 40
0.2499999999999998
 40
0.3749999999999997
 40
0.3749999999999997
 40
0.4999999999999998
 40
0.4999999999999998
 40
0.5624999999999997
 40
0.5624999999999997
 40
0.625
 40
0.625
 40
0.75
 40
0.75
 40
1.0
 40
1.0
 40
1.0
 40
1.0
 10
51.59411366753665
 20
0.3969820842997489
 30
0.0
 10
51.71815765718213
 20
0.2059210666056987
 30
0.0
 10
51.82499167591001
 20
0.002182844258436
 30
0.0
 10
51.92273698005468
 20
-0.3494674406578859
 30
0.0
 10
51.94399113095108
 20
-0.4744780677771825
 30
0.0
 10
51.94422183755449
 20
-0.7379194408912504
 30
0.0
 10
51.92241587139424
 20
-0.8741842606808942
 30
0.0
 10
51.84579237979415
 20
-1.074285875252477
 30
0.0
 10
51.81394200166085
 20
-1.13800378447148
 30
0.0
 10
51.73852084477755
 20
-1.259898880253691
 30
0.0
 10
51.69454587926418
 20
-1.318312790696302
 30
0.0
 10
51.55380242155695
 20
-1.47825638522696
 30
0.0
 10
51.44510091365351
 20
-1.569010214291327
 30
0.0
 10
51.10909550068623
 20
-1.797572665723037
 30
0.0
 10
50.86763305623373
 20
-1.898975846334939
 30
0.0
 10
50.62643154341583
 20
-1.971389147199479
 30
0.0
  0
SPLINE
  5
221
330
1F
100
AcDbEntity
  8
1
  6
Continuous
370
    15
100
AcDbSpline
210
0.0
220
0.0
230
1.0
 70
     8
 71
     3
 72
    14
 73
    10
 74
     0
 42
0.0000000001
 43
0.0000000001
 40
0.0
 40
0.0
 40
0.0
 40
0.0
 40
0.2500000000000001
 40
0.2500000000000001
 40
0.5
 40
0.5
 40
0.75
 40
0.75
 40
1.0
 40
1.0
 40
1.0
 40
1.0
 10
50.62643154341208
 20
-1.971389147200608
 30
0.0
 10
50.22978880459959
 20
-2.090468872885907
 30
0.0
 10
49.83955972991214
 20
-2.156358515394384
 30
0.0
 10
49.06786426306254
 20
-2.215466733876307
 30
0.0
 10
48.68472691232241
 20
-2.204161231995156
 30
0.0
 10
47.94086489942805
 20
-2.116965245648474
 30
0.0
 10
47.57842805314658
 20
-2.039918301209268
 30
0.0
 10
46.88148351353265
 20
-1.821198572411906
 30
0.0
 10
46.5465117194401
 20
-1.6838815369132
 30
0.0
 10
46.22575245500252
 20
-1.517132788656077
 30
0.0
  0
SPLINE
  5
222
330
1F
100
AcDbEntity
  8
1
  6
Continuous
370
    15
100
AcDbSpline
210
0.0
220
0.0
230
1.0
 70
     8
 71
     3
 72
    10
 73
     6
 74
     0
 42
0.0000000001
 43
0.0000000001
 40
0.0
 40
0.0
 40
0.0
 40
0.0
 40
0.5
 40
0.5
 40
1.0
 40
1.0
 40
1.0
 40
1.0
 10
51.58818864565012
 20
0.4061357960809256
 30
0.0
 10
51.35665685087349
 20
0.8483138464621839
 30
0.0
 10
51.12484591312801
 20
1.339651010483246
 30
0.0
 10
50.66988020234617
 20
2.395725534252686
 30
0.0
 10
50.44766751355666
 20
2.958131316100933
 30
0.0
 10
50.23297785057036
 20
3.544537985072808
 30
0.0
  0
SPLINE
  5
223
330
1F
100
AcDbEntity
  8
1
  6
Continuous
370
    15
100
AcDbSpline
210
0.0
220
0.0
230
1.0
 70
     8
 71
     3
 72
     8
 73
     4
 74
     0
 42
0.0000000001
 43
0.0000000001
 40
0.0
 40
0.0
 40
0.0
 40
0.0
 40
1.0
 40
1.0
 40
1.0
 40
1.0
 10
51.58818864565853
 20
0.4061357960826202
 30
0.0
 10
51.59015969045333
 20
0.4030814814841328
 30
0.0
 10
51.5921346910103
 20
0.4000302389921302
 30
0.0
 10
51.59411366753656
 20
0.3969820842997578
 30
0.0
  0
SPLINE
  5
224
330
1F
100
AcDbEntity
  8
1
  6
Continuous
370
    15
100
AcDbSpline
210
0.0
220
0.0
230
1.0
 70
     8
 71
     3
 72
    30
 73
    26
 74
     0
 42
0.0000000001
 43
0.0000000001
 40
0.0
 40
0.0
 40
0.0
 40
0.0
 40
0.2499999999999996
 40
0.2499999999999996
 40
0.4999999999999992
 40
0.4999999999999992
 40
0.6249999999999979
 40
0.6249999999999979
 40
0.6874999999999982
 40
0.6874999999999982
 40
0.7187499999999984
 40
0.7187499999999984
 40
0.7499999999999984
 40
0.7499999999999984
 40
0.7812499999999987
 40
0.7812499999999987
 40
0.8124999999999987
 40
0.8124999999999987
 40
0.8437499999999989
 40
0.8437499999999989
 40
0.8749999999999991
 40
0.8749999999999991
 40
0.9374999999999996
 40
0.9374999999999996
 40
1.0
 40
1.0
 40
1.0
 40
1.0
 10
4.708890575520015
 20
-4.566481563982885
 30
0.0
 10
4.407351783148044
 20
-4.66756377303843
 30
0.0
 10
4.11464760883183
 20
-4.731373332139797
 30
0.0
 10
3.545856669733922
 20
-4.77801505378616
 30
0.0
 10
3.267019182637525
 20
-4.760709132058162
 30
0.0
 10
2.887257307137844
 20
-4.660476335133768
 30
0.0
 10
2.766156891887987
 20
-4.614566700022196
 30
0.0
 10
2.610416445120961
 20
-4.523092564657025
 30
0.0
 10
2.562583834168393
 20
-4.488827388541641
 30
0.0
 10
2.504915703235297
 20
-4.429451338809357
 30
0.0
 10
2.488328200881596
 20
-4.408542143060799
 30
0.0
 10
2.464411074840569
 20
-4.363993691113152
 30
0.0
 10
2.456786119762583
 20
-4.340066280465662
 30
0.0
 10
2.461975259439611
 20
-4.290453545541325
 30
0.0
 10
2.475573318209512
 20
-4.264312409459384
 30
0.0
 10
2.541966277755093
 20
-4.220131608690058
 30
0.0
 10
2.594345964948004
 20
-4.204235792449435
 30
0.0
 10
2.705798037617938
 20
-4.187138768435413
 30
0.0
 10
2.765248330907951
 20
-4.184574035251357
 30
0.0
 10
2.881527287007202
 20
-4.18490677052151
 30
0.0
 10
2.939178472749318
 20
-4.18783770430044
 30
0.0
 10
3.111353428617974
 20
-4.200940859226395
 30
0.0
 10
3.22447754348903
 20
-4.215335945987479
 30
0.0
 10
3.445958064368625
 20
-4.247671143458685
 30
0.0
 10
3.55499759697335
 20
-4.26590744096878
 30
0.0
 10
3.663060402972604
 20
-4.28492659434859
 30
0.0
  0
SPLINE
  5
225
330
1F
100
AcDbEntity
  8
1
  6
Continuous
370
    15
100
AcDbSpline
210
0.0
220
0.0
230
1.0
 70
     8
 71
     3
 72
    10
 73
     6
 74
     0
 42
0.0000000001
 43
0.0000000001
 40
0.0
 40
0.0
 40
0.0
 40
0.0
 40
0.4412037746724067
 40
0.8180341395706427
 40
1.0
 40
1.0
 40
1.0
 40
1.0
 10
3.663060402972831
 20
-4.284926594352754
 30
0.0
 10
4.347571891350668
 20
-4.398131953840343
 30
0.0
 10
5.61672188182203
 20
-4.608025554392551
 30
0.0
 10
7.131882194959473
 20
-4.76050213034973
 30
0.0
 10
7.970058095277011
 20
-4.748322606091244
 30
0.0
 10
8.243000881894829
 20
-4.744356477633564
 30
0.0
  0
SPLINE
  5
226
330
1F
100
AcDbEntity
  8
1
  6
Continuous
370
    15
100
AcDbSpline
210
0.0
220
0.0
230
1.0
 70
     8
 71
     3
 72
    26
 73
    22
 74
     0
 42
0.0000000001
 43
0.0000000001
 40
0.0
 40
0.0
 40
0.0
 40
0.0
 40
0.0476551069138241
 40
0.1024169484952233
 40
0.1572134608498244
 40
0.2120099732044256
 40
0.2667718147858247
 40
0.3215127661272956
 40
0.3762467393671928
 40
0.4309876907086638
 40
0.4857495322900631
 40
0.5405460446446643
 40
0.5953425569992651
 40
0.6501043985806645
 40
0.7048453499221356
 40
0.7595793231620327
 40
0.8143202745035036
 40
0.8690821160849031
 40
0.9238786284395043
 40
0.9748609448205387
 40
1.0
 40
1.0
 40
1.0
 40
1.0
 10
22.8101145957192
 20
2.739698168426443
 30
0.0
 10
23.17966075822284
 20
2.986380067115117
 30
0.0
 10
23.97386294856068
 20
3.516531166311858
 30
0.0
 10
25.19315700888285
 20
4.127991204908007
 30
0.0
 10
26.46824961273888
 20
4.573568800720477
 30
0.0
 10
27.74334453967191
 20
4.786148418426848
 30
0.0
 10
29.01758703221967
 20
4.759678388590448
 30
0.0
 10
30.29119046390429
 20
4.494290425478067
 30
0.0
 10
31.56455954153088
 20
4.003685230261457
 30
0.0
 10
32.83816294059611
 20
3.312319620574982
 30
0.0
 10
34.11240556370012
 20
2.454693632830761
 30
0.0
 10
35.38750000070911
 20
1.474068479028661
 30
0.0
 10
36.66259443346457
 20
0.4195329941815018
 30
0.0
 10
37.93683706931944
 20
-0.656193899036448
 30
0.0
 10
39.21044042165716
 20
-1.698730933950739
 30
0.0
 10
40.48380967342285
 20
-2.656290878010075
 30
0.0
 10
41.75741245512341
 20
-3.479859328294515
 30
0.0
 10
43.03165737490428
 20
-4.132330778221055
 30
0.0
 10
44.27715222173415
 20
-4.555276753501182
 30
0.0
 10
45.29286093206787
 20
-4.759063872821558
 30
0.0
 10
45.88304962305301
 20
-4.743672235484902
 30
0.0
 10
46.07795922287778
 20
-4.738589152871224
 30
0.0
  0
SPLINE
  5
227
330
1F
100
AcDbEntity
  8
1
  6
Continuous
370
    15
100
AcDbSpline
210
0.0
220
0.0
230
1.0
 70
     8
 71
     3
 72
    29
 73
    25
 74
     0
 42
0.0000000001
 43
0.0000000001
 40
0.0
 40
0.0
 40
0.0
 40
0.0
 40
0.1249999999999987
 40
0.1249999999999987
 40
0.1874999999999986
 40
0.1874999999999986
 40
0.2499999999999984
 40
0.2499999999999984
 40
0.3749999999999991
 40
0.3749999999999991
 40
0.4374999999999988
 40
0.4374999999999988
 40
0.4999999999999988
 40
0.5624999999999984
 40
0.5624999999999984
 40
0.6249999999999983
 40
0.6249999999999983
 40
0.749999999999999
 40
0.749999999999999
 40
0.8124999999999991
 40
0.8124999999999991
 40
0.8749999999999992
 40
0.8749999999999992
 40
1.0
 40
1.0
 40
1.0
 40
1.0
 10
14.226
 20
-3.971500288079472
 30
0.0
 10
13.8222716947584
 20
-3.722152776332637
 30
0.0
 10
13.42570538832697
 20
-3.424223766148636
 30
0.0
 10
12.82835265953025
 20
-2.914991803842868
 30
0.0
 10
12.62886147681985
 20
-2.734763948988542
 30
0.0
 10
12.22692152462738
 20
-2.354289702359217
 30
0.0
 10
12.02543105244626
 20
-2.15488024296046
 30
0.0
 10
11.42702509616168
 20
-1.54301325745174
 30
0.0
 10
11.03199763311966
 20
-1.112985273622963
 30
0.0
 10
10.4324262512829
 20
-0.4454615881974302
 30
0.0
 10
10.23071735108986
 20
-0.2184352721255029
 30
0.0
 10
9.832046207606111
 20
0.2307520179054707
 30
0.0
 10
9.435967654862622
 20
0.6775186032097747
 30
0.0
 10
9.040723018487597
 20
1.115696699271746
 30
0.0
 10
8.643704357450815
 20
1.547576288357745
 30
0.0
 10
8.443086593695454
 20
1.761612251503745
 30
0.0
 10
7.84642594869382
 20
2.379379453476079
 30
0.0
 10
7.455111108152664
 20
2.759707183992124
 30
0.0
 10
6.864616377594614
 20
3.273432077914081
 30
0.0
 10
6.666357232221457
 20
3.43582227430049
 30
0.0
 10
6.270377695853042
 20
3.736217672418228
 30
0.0
 10
6.07434526918044
 20
3.873031156783732
 30
0.0
 10
5.488671785895093
 20
4.242571709019288
 30
0.0
 10
5.101548108043218
 20
4.434853569917454
 30
0.0
 10
4.708890575519106
 20
4.566481563983104
 30
0.0
  0
SPLINE
  5
228
330
1F
100
AcDbEntity
  8
1
  6
Continuous
370
    15
100
AcDbSpline
210
0.0
220
0.0
230
1.0
 70
     8
 71
     3
 72
     9
 73
     5
 74
     0
 42
0.0000000001
 43
0.0000000001
 40
0.0
 40
0.0
 40
0.0
 40
0.0
 40
0.5737747236940899
 40
1.0
 40
1.0
 40
1.0
 40
1.0
 10
4.708890575520015
 20
4.566481563982887
 30
0.0
 10
4.490355928602667
 20
4.632376469896949
 30
0.0
 10
4.10948406741231
 20
4.747221030301795
 30
0.0
 10
3.75292788904602
 20
4.749619823229669
 30
0.0
 10
3.60095463340329
 20
4.750642249408152
 30
0.0
  0
SPLINE
  5
229
330
1F
100
AcDbEntity
  8
1
  6
Continuous
370
    15
100
AcDbSpline
210
0.0
220
0.0
230
1.0
 70
     8
 71
     3
 72
    14
 73
    10
 74
     0
 42
0.0000000001
 43
0.0000000001
 40
0.0
 40
0.0
 40
0.0
 40
0.0
 40
0.0834710480004914
 40
0.2652663375707065
 40
0.4482858426905193
 40
0.5846357836011668
 40
0.7215933098492782
 40
0.8604507562066725
 40
1.0
 40
1.0
 40
1.0
 40
1.0
 10
4.906036070637156
 20
4.476301576310736
 30
0.0
 10
5.174064658789859
 20
4.51989940501303
 30
0.0
 10
6.025844571066812
 20
4.658450874329969
 30
0.0
 10
7.428344114541118
 20
4.767565091727173
 30
0.0
 10
8.989409866466417
 20
4.771502432392584
 30
0.0
 10
10.39988075743318
 20
4.64796514984214
 30
0.0
 10
11.66941203445934
 20
4.439864028901454
 30
0.0
 10
12.94515988802297
 20
4.139909754681672
 30
0.0
 10
13.79834661711854
 20
3.862600708332956
 30
0.0
 10
14.226
 20
3.723601650177919
 30
0.0
  0
SPLINE
  5
22A
330
1F
100
AcDbEntity
  8
1
  6
Continuous
370
    15
100
AcDbSpline
210
0.0
220
0.0
230
1.0
 70
     8
 71
     3
 72
    15
 73
    11
 74
     0
 42
0.0000000001
 43
0.0000000001
 40
0.0
 40
0.0
 40
0.0
 40
0.0
 40
0.1156847652899828
 40
0.2486214262369297
 40
0.3816422519359885
 40
0.5054039573739181
 40
0.6290243789303861
 40
0.7525996660680755
 40
0.8762265334670729
 40
1.0
 40
1.0
 40
1.0
 40
1.0
 10
40.64861459571952
 20
2.739698168426428
 30
0.0
 10
41.01816091266698
 20
2.986381186184869
 30
0.0
 10
41.81236343492457
 20
3.516534690406435
 30
0.0
 10
43.03165471975922
 20
4.127974618376957
 30
0.0
 10
44.27716673996309
 20
4.563288379986965
 30
0.0
 10
45.49285972416277
 20
4.773435282820948
 30
0.0
 10
46.67762845224546
 20
4.773002242063399
 30
0.0
 10
47.86187563913571
 20
4.562167343291972
 30
0.0
 10
49.04672395230875
 20
4.164272908763849
 30
0.0
 10
49.83740370985202
 20
3.751197883321817
 30
0.0
 10
50.23297785057033
 20
3.544537985072827
 30
0.0
  0
SPLINE
  5
22B
330
1F
100
AcDbEntity
  8
1
  6
Continuous
370
    15
100
AcDbSpline
210
0.0
220
0.0
230
1.0
 70
     8
 71
     3
 72
    19
 73
    15
 74
     0
 42
0.0000000001
 43
0.0000000001
 40
0.0
 40
0.0
 40
0.0
 40
0.0
 40
0.079019458347862
 40
0.1580341027910418
 40
0.2371747301714886
 40
0.3281559987384798
 40
0.4190797017635675
 40
0.5099687197248131
 40
0.600846151610484
 40
0.6917351695717299
 40
0.7826588725968177
 40
0.8736401411638086
 40
0.9646214097308
 40
1.0
 40
1.0
 40
1.0
 40
1.0
 10
14.22633532948029
 20
3.72366376309742
 30
0.0
 10
14.59528714970696
 20
3.516749783668104
 30
0.0
 10
15.33316831343202
 20
3.102934430111951
 30
0.0
 10
16.44026352428096
 20
2.325923185238404
 30
0.0
 10
17.6043087736995
 20
1.428956479637776
 30
0.0
 10
18.82409955337834
 20
0.4193509556517557
 30
0.0
 10
20.09833570496085
 20
-0.6561475144085272
 30
0.0
 10
21.37194076259993
 20
-1.698734559386439
 30
0.0
 10
22.64530967357615
 20
-2.656322744095473
 30
0.0
 10
23.91891211343722
 20
-3.479728196544798
 30
0.0
 10
25.19315874245058
 20
-4.13282376906311
 30
0.0
 10
26.46823810520641
 20
-4.56348327531225
 30
0.0
 10
27.48383601209997
 20
-4.769097168766037
 30
0.0
 10
28.0740729903857
 20
-4.743255234643291
 30
0.0
 10
28.23932920710539
 20
-4.736019936918895
 30
0.0
  0
SPLINE
  5
22C
330
1F
100
AcDbEntity
  8
1
  6
Continuous
370
    15
100
AcDbSpline
210
0.0
220
0.0
230
1.0
 70
     8
 71
     3
 72
     8
 73
     4
 74
     0
 42
0.0000000001
 43
0.0000000001
 40
0.0
 40
0.0
 40
0.0
 40
0.0
 40
1.0
 40
1.0
 40
1.0
 40
1.0
 10
51.2225249477043
 20
2.93911651300984
 30
0.0
 10
50.89189019644695
 20
3.157021310531168
 30
0.0
 10
50.55999354071076
 20
3.360206296656245
 30
0.0
 10
50.23297785057033
 20
3.544537985072827
 30
0.0
  0
SPLINE
  5
22D
330
1F
100
AcDbEntity
  8
1
  6
Continuous
370
    15
100
AcDbSpline
210
0.0
220
0.0
230
1.0
 70
     8
 71
     3
 72
     9
 73
     5
 74
     0
 42
0.0000000001
 43
0.0000000001
 40
0.0
 40
0.0
 40
0.0
 40
0.0
 40
0.5953797009908902
 40
1.0
 40
1.0
 40
1.0
 40
1.0
 10
50.96646849344733
 20
3.471730260070102
 30
0.0
 10
51.02189918415186
 20
3.367815665361931
 30
0.0
 10
51.115000595927
 20
3.193280667720551
 30
0.0
 10
51.21269574459507
 20
2.998246826510141
 30
0.0
 10
51.25222518486089
 20
2.919332175362689
 30
0.0
  0
SPLINE
  5
22E
330
1F
100
AcDbEntity
  8
1
  6
Continuous
370
    15
100
AcDbSpline
210
0.0
220
0.0
230
1.0
 70
     8
 71
     3
 72
    24
 73
    20
 74
     0
 42
0.0000000001
 43
0.0000000001
 40
0.0
 40
0.0
 40
0.0
 40
0.0
 40
0.0339180250712112
 40
0.0909545635654822
 40
0.1479858732345842
 40
0.20510914694046
 40
0.2709746959201157
 40
0.336798570541088
 40
0.4025973350398634
 40
0.4683877118425742
 40
0.5341864763413496
 40
0.6000103509623218
 40
0.6658758999419777
 40
0.7317414489216335
 40
0.7975653235426056
 40
0.863364088041381
 40
0.929154464844092
 40
0.9949532293428672
 40
1.0
 40
1.0
 40
1.0
 40
1.0
 10
48.276193697525
 20
-4.573996586823725
 30
0.0
 10
48.05727416738671
 20
-4.624816883747202
 30
0.0
 10
47.47021963582466
 20
-4.76109657329983
 30
0.0
 10
46.51602930977586
 20
-4.785523261002164
 30
0.0
 10
45.41216612072358
 20
-4.661735638875587
 30
0.0
 10
44.25034789282284
 20
-4.339037748891085
 30
0.0
 10
43.03164880093049
 20
-3.807500865916851
 30
0.0
 10
41.75741475104217
 20
-3.059659724438775
 30
0.0
 10
40.4838090580109
 20
-2.158731541846491
 30
0.0
 10
39.21044058810642
 20
-1.149581145514938
 30
0.0
 10
37.93683701895756
 20
-0.082770042221032
 30
0.0
 10
36.66259446841298
 20
0.9884534810517262
 30
0.0
 10
35.3874999112594
 20
2.009837920104366
 30
0.0
 10
34.11240588643736
 20
2.930936845625288
 30
0.0
 10
32.83816174011142
 20
3.703298982932081
 30
0.0
 10
31.56456401896245
 20
4.296692891463478
 30
0.0
 10
30.29117375534696
 20
4.648974211016914
 30
0.0
 10
29.40972650270214
 20
4.797862237842722
 30
0.0
 10
28.95259524389633
 20
4.758817252679258
 30
0.0
 10
28.92003092465842
 20
4.756035834132593
 30
0.0
  0
SPLINE
  5
22F
330
1F
100
AcDbEntity
  8
1
  6
Continuous
370
    15
100
AcDbSpline
210
0.0
220
0.0
230
1.0
 70
     8
 71
     3
 72
     9
 73
     5
 74
     0
 42
0.0000000001
 43
0.0000000001
 40
0.0
 40
0.0
 40
0.0
 40
0.0
 40
0.5273478446876196
 40
1.0
 40
1.0
 40
1.0
 40
1.0
 10
50.92414987660678
 20
3.551463950167756
 30
0.0
 10
50.9254317380535
 20
3.549090237882421
 30
0.0
 10
50.92786250829298
 20
3.544589011018129
 30
0.0
 10
50.93497141969391
 20
3.531412189227748
 30
0.0
 10
50.93833146198949
 20
3.525184136008358
 30
0.0
  0
SPLINE
  5
230
330
1F
100
AcDbEntity
  8
1
  6
Continuous
370
    15
100
AcDbSpline
210
0.0
220
0.0
230
1.0
 70
     8
 71
     3
 72
    10
 73
     6
 74
     0
 42
0.0000000001
 43
0.0000000001
 40
0.0
 40
0.0
 40
0.0
 40
0.0
 40
0.5
 40
0.5
 40
1.0
 40
1.0
 40
1.0
 40
1.0
 10
50.85915916399449
 20
3.671336294061327
 30
0.0
 10
50.87716633588494
 20
3.638564889733538
 30
0.0
 10
50.89148574276913
 20
3.612240298170953
 30
0.0
 10
50.90911017143122
 20
3.57956285044409
 30
0.0
 10
50.91123321011713
 20
3.575446131513747
 30
0.0
 10
50.91454219662989
 20
3.569261783131561
 30
0.0
  0
SPLINE
  5
231
330
1F
100
AcDbEntity
  8
1
  6
Continuous
370
    15
100
AcDbSpline
210
0.0
220
0.0
230
1.0
 70
     8
 71
     3
 72
    21
 73
    17
 74
     0
 42
0.0000000001
 43
0.0000000001
 40
0.0
 40
0.0
 40
0.0
 40
0.0
 40
0.0106320693351906
 40
0.089068917306757
 40
0.1675356983454913
 40
0.2460521582096765
 40
0.3245686180738613
 40
0.4030353991125958
 40
0.4814722470841624
 40
0.5598990963202507
 40
0.6383359442918173
 40
0.7168027253305518
 40
0.7953191851947368
 40
0.8636172205070028
 40
0.9318065330635491
 40
1.0
 40
1.0
 40
1.0
 40
1.0
 10
30.4638475604539
 20
-4.573999022148277
 30
0.0
 10
30.40630931300342
 20
-4.591323619693421
 30
0.0
 10
29.92428937477925
 20
-4.73645840930712
 30
0.0
 10
29.01758588468357
 20
-4.789997289022382
 30
0.0
 10
27.7433447507004
 20
-4.707135199954392
 30
0.0
 10
26.46824991740653
 20
-4.366199648340457
 30
0.0
 10
25.19315557956929
 20
-3.812230557699089
 30
0.0
 10
23.91891296034555
 20
-3.065402502620014
 30
0.0
 10
22.64530944671733
 20
-2.165441706962362
 30
0.0
 10
21.37194082339255
 20
-1.156880155466
 30
0.0
 10
20.09833568865866
 20
-0.0902180583257293
 30
0.0
 10
18.82409955777044
 20
0.980891886562583
 30
0.0
 10
17.60430877269189
 20
1.959435774190663
 30
0.0
 10
16.44026352453328
 20
2.803916911144022
 30
0.0
 10
15.33316831336904
 20
3.51362020045907
 30
0.0
 10
14.59528714968601
 20
3.870019391529951
 30
0.0
 10
14.22633532948036
 20
4.048224415234707
 30
0.0
  0
SPLINE
  5
232
330
1F
100
AcDbEntity
  8
1
  6
Continuous
370
    15
100
AcDbSpline
210
0.0
220
0.0
230
1.0
 70
     8
 71
     3
 72
    11
 73
     7
 74
     0
 42
0.0000000001
 43
0.0000000001
 40
0.0
 40
0.0
 40
0.0
 40
0.0
 40
0.2635419127036834
 40
0.5274631343106289
 40
0.7915056102359177
 40
1.0
 40
1.0
 40
1.0
 40
1.0
 10
50.93833146198949
 20
3.525184136008358
 30
0.0
 10
50.57039828415824
 20
3.7204987208219
 30
0.0
 10
49.83400237200618
 20
4.111409001564083
 30
0.0
 10
48.72817346931549
 20
4.501291293959284
 30
0.0
 10
47.69885685963944
 20
4.733848137477942
 30
0.0
 10
47.03913145078487
 20
4.744785261407762
 30
0.0
 10
46.74804506892061
 20
4.749610977971049
 30
0.0
  0
SPLINE
  5
233
330
1F
100
AcDbEntity
  8
1
  6
Continuous
370
    15
100
AcDbSpline
210
0.0
220
0.0
230
1.0
 70
     8
 71
     3
 72
    24
 73
    20
 74
     0
 42
0.0000000001
 43
0.0000000001
 40
0.0
 40
0.0
 40
0.0
 40
0.0
 40
0.1249999999999999
 40
0.1249999999999999
 40
0.1874999999999999
 40
0.1874999999999999
 40
0.25
 40
0.25
 40
0.3125000000000001
 40
0.3125000000000001
 40
0.3750000000000001
 40
0.3750000000000001
 40
0.5000000000000002
 40
0.5000000000000002
 40
0.75
 40
0.75
 40
0.875
 40
0.875
 40
1.0
 40
1.0
 40
1.0
 40
1.0
 10
46.22575245500255
 20
-1.517132788656077
 30
0.0
 10
46.18641118032451
 20
-1.807031883237239
 30
0.0
 10
46.19463773040457
 20
-2.081943877052099
 30
0.0
 10
46.27557782867842
 20
-2.472698114957541
 30
0.0
 10
46.31385523321881
 20
-2.597378930441069
 30
0.0
 10
46.40840019740728
 20
-2.831001912692579
 30
0.0
 10
46.46488502565683
 20
-2.94098902755815
 30
0.0
 10
46.59414893368762
 20
-3.148892705277669
 30
0.0
 10
46.66693156481403
 20
-3.246514137310436
 30
0.0
 10
46.82260052038739
 20
-3.426294921134463
 30
0.0
 10
46.90595931797588
 20
-3.509241955573485
 30
0.0
 10
47.17002297245826
 20
-3.740502874966462
 30
0.0
 10
47.36631489786063
 20
-3.87222109385297
 30
0.0
 10
47.98352427032341
 20
-4.205116594872042
 30
0.0
 10
48.43130547109703
 20
-4.348232121041807
 30
0.0
 10
49.1375841981365
 20
-4.48778376372972
 30
0.0
 10
49.37823598236708
 20
-4.520948230602242
 30
0.0
 10
49.86183088206118
 20
-4.563964885441472
 30
0.0
 10
50.10580424063249
 20
-4.573999999999998
 30
0.0
 10
50.35168077084205
 20
-4.573999999999998
 30
0.0
  0
SPLINE
  5
234
330
1F
100
AcDbEntity
  8
1
  6
Continuous
370
    15
100
AcDbSpline
210
0.0
220
0.0
230
1.0
 70
     8
 71
     3
 72
    15
 73
    11
 74
     0
 42
0.0000000001
 43
0.0000000001
 40
0.0
 40
0.0
 40
0.0
 40
0.0
 40
0.0192044939860287
 40
0.1675475519013982
 40
0.3159098651809061
 40
0.4643298222052957
 40
0.6128454459569273
 40
0.7420338765592104
 40
0.8710129491437211
 40
1.0
 40
1.0
 40
1.0
 40
1.0
 10
22.81011459571957
 20
-2.739698168426424
 30
0.0
 10
22.75516536869947
 20
-2.777409140536198
 30
0.0
 10
22.27576671998776
 20
-3.106414479672495
 30
0.0
 10
21.37194525330409
 20
-3.59830117263058
 30
0.0
 10
20.09832998747913
 20
-4.157852720558117
 30
0.0
 10
18.82409154382319
 20
-4.496201702507057
 30
0.0
 10
17.60430600825316
 20
-4.60817032871202
 30
0.0
 10
16.44026413301725
 20
-4.51406586722562
 30
0.0
 10
15.33312850215175
 20
-4.263490008898113
 30
0.0
 10
14.59523709296806
 20
-3.962898595014666
 30
0.0
 10
14.22627997777293
 20
-3.8125982397882
 30
0.0
  0
SPLINE
  5
235
330
1F
100
AcDbEntity
  8
1
  6
Continuous
370
    15
100
AcDbSpline
210
0.0
220
0.0
230
1.0
 70
     8
 71
     3
 72
    34
 73
    30
 74
     0
 42
0.0000000001
 43
0.0000000001
 40
0.0
 40
0.0
 40
0.0
 40
0.0
 40
0.0625
 40
0.0625
 40
0.1250000000000001
 40
0.1250000000000001
 40
0.1875000000000001
 40
0.1875000000000001
 40
0.2500000000000002
 40
0.2500000000000002
 40
0.3750000000000003
 40
0.3750000000000003
 40
0.4375000000000003
 40
0.4375000000000003
 40
0.5000000000000004
 40
0.5000000000000004
 40
0.5625000000000004
 40
0.5625000000000004
 40
0.6250000000000005
 40
0.6250000000000005
 40
0.6875000000000005
 40
0.6875000000000005
 40
0.7500000000000005
 40
0.7500000000000005
 40
0.8125000000000003
 40
0.8125000000000003
 40
0.8750000000000005
 40
0.8750000000000005
 40
1.0
 40
1.0
 40
1.0
 40
1.0
 10
46.22575245500249
 20
-1.517132788656034
 30
0.0
 10
45.99947029648098
 20
-1.345406774781614
 30
0.0
 10
45.77604295868122
 20
-1.170812567405437
 30
0.0
 10
45.32509512306979
 20
-0.8158629678206095
 30
0.0
 10
45.09783804302401
 20
-0.635559065053057
 30
0.0
 10
44.64459545128869
 20
-0.2731170651820705
 30
0.0
 10
44.41992898682963
 20
-0.0913401871008324
 30
0.0
 10
43.97054238941905
 20
0.2717977749664611
 30
0.0
 10
43.74360305974318
 20
0.4537561676768212
 30
0.0
 10
43.06327027510758
 20
0.99496889311082
 30
0.0
 10
42.61597315599408
 20
1.348084366515268
 30
0.0
 10
41.93572125161191
 20
1.856040107116935
 30
0.0
 10
41.70866933922036
 20
2.021404313133265
 30
0.0
 10
41.25878640936292
 20
2.340777315365264
 30
0.0
 10
41.03458967675834
 20
2.495138077430517
 30
0.0
 10
40.5815087003252
 20
2.792340574578096
 30
0.0
 10
40.35419325371373
 20
2.934801693967327
 30
0.0
 10
39.90285444808998
 20
3.204459876290555
 30
0.0
 10
39.67959845481047
 20
3.331559590521897
 30
0.0
 10
39.22730301340909
 20
3.570452980621461
 30
0.0
 10
38.99990873453999
 20
3.681893539761087
 30
0.0
 10
38.54747462009209
 20
3.88638144984019
 30
0.0
 10
38.32414374612625
 20
3.979236789617334
 30
0.0
 10
37.87299697100627
 20
4.146310238128628
 30
0.0
 10
37.64570877615876
 20
4.220391863699181
 30
0.0
 10
37.19254285640699
 20
4.347978099406192
 30
0.0
 10
36.96812168178451
 20
4.401394228075877
 30
0.0
 10
36.29366459801969
 20
4.530220508749086
 30
0.0
 10
35.83531791311438
 20
4.573997220879388
 30
0.0
 10
35.38754324813451
 20
4.573999999865796
 30
0.0
  0
SPLINE
  5
236
330
1F
100
AcDbEntity
  8
1
  6
Continuous
370
    15
100
AcDbSpline
210
0.0
220
0.0
230
1.0
 70
     8
 71
     3
 72
    27
 73
    23
 74
     0
 42
0.0000000001
 43
0.0000000001
 40
0.0
 40
0.0
 40
0.0
 40
0.0
 40
0.0071372651669196
 40
0.0622683058903222
 40
0.1174065027845588
 40
0.1725661227213778
 40
0.2277612967738364
 40
0.2829564708262948
 40
0.3381160907631138
 40
0.3932542876573505
 40
0.4483853283807532
 40
0.5035235252749896
 40
0.5586831452118084
 40
0.6138783192642673
 40
0.6690734933167257
 40
0.7242331132535444
 40
0.779371310147781
 40
0.8345023508711836
 40
0.8896405477654203
 40
0.9448001677022391
 40
0.9999953417546979
 40
1.0
 40
1.0
 40
1.0
 40
1.0
 10
40.64861459571915
 20
-2.739698168426441
 30
0.0
 10
40.59366536961038
 20
-2.777409113479516
 30
0.0
 10
40.11426672884868
 20
-3.106414216563206
 30
0.0
 10
39.21044488483364
 20
-3.598312113488502
 30
0.0
 10
37.93683129864448
 20
-4.157813788606345
 30
0.0
 10
36.66258666433151
 20
-4.4963465874579
 30
0.0
 10
35.3874998847065
 20
-4.612707793446925
 30
0.0
 10
34.11241379669417
 20
-4.496872106207042
 30
0.0
 10
32.83816708914796
 20
-4.155713633140065
 30
0.0
 10
31.56456110058352
 20
-3.606184018638251
 30
0.0
 10
30.29118890083046
 20
-2.875918528859211
 30
0.0
 10
29.0175829037803
 20
-2.001433516776874
 30
0.0
 10
27.74333623019783
 20
-1.026386177288359
 30
0.0
 10
26.46825001473195
 20
-0.0000057016840174
 30
0.0
 10
25.1931637108936
 20
1.026408976677108
 30
0.0
 10
23.91891730222358
 20
2.001353787258385
 30
0.0
 10
22.64531033436839
 20
2.876214529450244
 30
0.0
 10
21.37194175249925
 20
3.6050797917014
 30
0.0
 10
20.09832225992076
 20
4.159835856949343
 30
0.0
 10
18.8241259809233
 20
4.48147699795379
 30
0.0
 10
17.97399844327185
 20
4.607286519801253
 30
0.0
 10
17.54892825770878
 20
4.573994381720843
 30
0.0
 10
17.54889238656363
 20
4.573991572238651
 30
0.0
  0
SPLINE
  5
237
330
1F
100
AcDbEntity
  8
1
  6
Continuous
370
    15
100
AcDbSpline
210
0.0
220
0.0
230
1.0
 70
     8
 71
     3
 72
    14
 73
    10
 74
     0
 42
0.0000000001
 43
0.0000000001
 40
0.0
 40
0.0
 40
0.0
 40
0.0
 40
0.2499999999999999
 40
0.2499999999999999
 40
0.5
 40
0.5
 40
0.7499999999999999
 40
0.7499999999999999
 40
1.0
 40
1.0
 40
1.0
 40
1.0
 10
50.35168077084205
 20
4.574
 30
0.0
 10
50.34752375469486
 20
4.574000000000002
 30
0.0
 10
50.35743024675269
 20
4.553575716328677
 30
0.0
 10
50.40199389247803
 20
4.473568535827763
 30
0.0
 10
50.43719140734345
 20
4.41309653894513
 30
0.0
 10
50.52739780834878
 20
4.257870514167859
 30
0.0
 10
50.58238450369504
 20
4.163157964777561
 30
0.0
 10
50.70914467800637
 20
3.941075822991192
 30
0.0
 10
50.7812940601153
 20
3.813043654760481
 30
0.0
 10
50.85915916399449
 20
3.671336294061327
 30
0.0
  0
LWPOLYLINE
  5
238
330
1F
100
AcDbEntity
  8
1
  6
Continuous
370
    15
100
AcDbPolyline
 90
        3
 70
   128
 43
0.0
 10
20.0274760657
 20
-0.5917272333999995
 10
20.0276370819
 20
-0.5918961434999988
 10
20.0277980978
 20
-0.5921629476999995
  0
SPLINE
  5
239
330
1F
100
AcDbEntity
  8
1
  6
Continuous
370
    15
100
AcDbSpline
210
0.0
220
0.0
230
1.0
 70
     8
 71
     3
 72
    20
 73
    16
 74
     0
 42
0.0000000001
 43
0.0000000001
 40
0.0
 40
0.0
 40
0.0
 40
0.0
 40
0.0000513667481489
 40
0.0007857790504083
 40
0.001454934117369
 40
0.0021004411955076
 40
0.0027683727021246
 40
0.0043226242767464
 40
0.0063491091429984
 40
0.0121687797491919
 40
0.0620785575056777
 40
0.1567834813993339
 40
0.3556942473737874
 40
0.6370316118192866
 40
1.0
 40
1.0
 40
1.0
 40
1.0
 10
32.31978872751333
 20
3.950864589729792
 30
0.0
 10
32.31979564997497
 20
3.950863530541869
 30
0.0
 10
32.31990154582255
 20
3.950847327692561
 30
0.0
 10
32.31970540176153
 20
3.951005387605317
 30
0.0
 10
32.31928461261967
 20
3.951291959208444
 30
0.0
 10
32.31846287998184
 20
3.95175665048183
 30
0.0
 10
32.31685404236183
 20
3.952605957434559
 30
0.0
 10
32.31382792861567
 20
3.954112720493037
 30
0.0
 10
32.30687160350743
 20
3.957457382953514
 30
0.0
 10
32.26451551259624
 20
3.977183587419729
 30
0.0
 10
32.16380817038288
 20
4.021841603821486
 30
0.0
 10
31.93839403450642
 20
4.118431309906971
 30
0.0
 10
31.563403986271
 20
4.265868482811318
 30
0.0
 10
31.01610472353892
 20
4.454907183560384
 30
0.0
 10
30.59905494252558
 20
4.554843616818232
 30
0.0
 10
30.36411076239295
 20
4.611142611437288
 30
0.0
  0
SPLINE
  5
23A
330
1F
100
AcDbEntity
  8
1
  6
Continuous
370
    15
100
AcDbSpline
210
0.0
220
0.0
230
1.0
 70
     8
 71
     3
 72
    20
 73
    16
 74
     0
 42
0.0000000001
 43
0.0000000001
 40
0.0
 40
0.0
 40
0.0
 40
0.0
 40
0.0012596617280973
 40
0.0018744177118326
 40
0.0024886367577218
 40
0.0038163898268405
 40
0.005423494207744
 40
0.0085631646316875
 40
0.0127182682747086
 40
0.0537372841573084
 40
0.1778265005626011
 40
0.3784624849893237
 40
0.6213527046625622
 40
0.9238203237546418
 40
1.0
 40
1.0
 40
1.0
 40
1.0
 10
50.28776024728791
 20
3.881232580772027
 30
0.0
 10
50.28772888795391
 20
3.881272561627794
 30
0.0
 10
50.2876822242427
 20
3.881332054444407
 30
0.0
 10
50.28707978516923
 20
3.881667455494599
 30
0.0
 10
50.28620871590144
 20
3.882128373280033
 30
0.0
 10
50.28450874786916
 20
3.882990126068471
 30
0.0
 10
50.28118980593226
 20
3.884629772310405
 30
0.0
 10
50.27610840882656
 20
3.887097277506648
 30
0.0
 10
50.24884687652622
 20
3.90018925777973
 30
0.0
 10
50.1584785763228
 20
3.942555628253196
 30
0.0
 10
49.97098898227164
 20
4.027612121693963
 30
0.0
 10
49.68404810610332
 20
4.149772766934874
 30
0.0
 10
49.31047555513498
 20
4.291963910512429
 30
0.0
 10
49.0009632162737
 20
4.401399914927492
 30
0.0
 10
48.81349713825523
 20
4.451101930382342
 30
0.0
 10
48.77578102274014
 20
4.461101429897365
 30
0.0
  0
SPLINE
  5
23B
330
1F
100
AcDbEntity
  8
1
  6
Continuous
370
    15
100
AcDbSpline
210
0.0
220
0.0
230
1.0
 70
     8
 71
     3
 72
    21
 73
    17
 74
     0
 42
0.0000000001
 43
0.0000000001
 40
0.0
 40
0.0
 40
0.0
 40
0.0
 40
0.1171794961576119
 40
0.2024479797612093
 40
0.2588815056439907
 40
0.310112283836328
 40
0.3606834961100076
 40
0.4591412328031206
 40
0.5664167233842852
 40
0.6380196171607271
 40
0.7126042810586234
 40
0.7867522601087002
 40
0.8545401699277633
 40
0.9141524266720011
 40
0.985630477269072
 40
1.0
 40
1.0
 40
1.0
 40
1.0
 10
35.38758692840463
 20
4.573999999457808
 30
0.0
 10
35.19703697806085
 20
4.573991463616111
 30
0.0
 10
34.86782876539877
 20
4.573976716463548
 30
0.0
 10
34.44653399252587
 20
4.573967223180184
 30
0.0
 10
34.13283769944374
 20
4.573998663337039
 30
0.0
 10
33.87545240571077
 20
4.573999914036977
 30
0.0
 10
33.54963533710242
 20
4.57399990804284
 30
0.0
 10
33.13265869785431
 20
4.573999867192353
 30
0.0
 10
32.68145631462724
 20
4.573999955254106
 30
0.0
 10
32.26909788688085
 20
4.574000021173184
 30
0.0
 10
31.91063302064737
 20
4.573999891295588
 30
0.0
 10
31.55837446333453
 20
4.573999819503396
 30
0.0
 10
31.23047533821648
 20
4.573999598192853
 30
0.0
 10
30.90691755669474
 20
4.573999669915139
 30
0.0
 10
30.6702775458167
 20
4.573997753627252
 30
0.0
 10
30.53061190223127
 20
4.573997292163222
 30
0.0
 10
30.50723408778146
 20
4.573997214921461
 30
0.0
  0
SPLINE
  5
23C
330
1F
100
AcDbEntity
  8
1
  6
Continuous
370
    15
100
AcDbSpline
210
0.0
220
0.0
230
1.0
 70
     8
 71
     3
 72
    17
 73
    13
 74
     0
 42
0.0000000001
 43
0.0000000001
 40
0.0
 40
0.0
 40
0.0
 40
0.0
 40
0.1597847054311292
 40
0.2752542281280883
 40
0.3559278460820403
 40
0.4346865146037735
 40
0.5138964651545123
 40
0.5831499926722864
 40
0.6565835235378534
 40
0.7365066161008375
 40
0.8545597441949899
 40
1.0
 40
1.0
 40
1.0
 40
1.0
 10
47.23105798619971
 20
-4.57399999999598
 30
0.0
 10
47.39723999192967
 20
-4.573997813347628
 30
0.0
 10
47.68351457367105
 20
-4.57399404650272
 30
0.0
 10
48.05384704089374
 20
-4.573984531150458
 30
0.0
 10
48.33966826617396
 20
-4.574001884814894
 30
0.0
 10
48.58790078755959
 20
-4.573999411084231
 30
0.0
 10
48.82427703036967
 20
-4.573999734920908
 30
0.0
 10
49.0551085415672
 20
-4.573999776530754
 30
0.0
 10
49.28668334013702
 20
-4.57399982384181
 30
0.0
 10
49.56902242270974
 20
-4.573999834483326
 30
0.0
 10
49.92626848616578
 20
-4.573999934934002
 30
0.0
 10
50.20037079176569
 20
-4.573999935261897
 30
0.0
 10
50.35166684654047
 20
-4.573999935442886
 30
0.0
  0
SPLINE
  5
23D
330
1F
100
AcDbEntity
  8
1
  6
Continuous
370
    15
100
AcDbSpline
210
0.0
220
0.0
230
1.0
 70
     8
 71
     3
 72
    16
 73
    12
 74
     0
 42
0.0000000001
 43
0.0000000001
 40
0.0
 40
0.0
 40
0.0
 40
0.0
 40
0.1362636447149779
 40
0.2713315785699011
 40
0.3620251898676968
 40
0.4566781604709932
 40
0.5325033655541347
 40
0.6045476786856181
 40
0.6885735382305773
 40
0.8202297172902685
 40
1.0
 40
1.0
 40
1.0
 40
1.0
 10
14.22599973238621
 20
-4.573999986435124
 30
0.0
 10
14.3769700169841
 20
-4.573999988925824
 30
0.0
 10
14.67758582483782
 20
-4.573999993885371
 30
0.0
 10
15.07868160130357
 20
-4.573999824981128
 30
0.0
 10
15.43368209554968
 20
-4.574000124342152
 30
0.0
 10
15.72302606350421
 20
-4.573999390948663
 30
0.0
 10
15.9917696380452
 20
-4.57400165319939
 30
0.0
 10
16.24839277731047
 20
-4.573984062285729
 30
0.0
 10
16.56687758840766
 20
-4.57390466653973
 30
0.0
 10
17.00521502031873
 20
-4.573951868831189
 30
0.0
 10
17.34991522400716
 20
-4.573982384225542
 30
0.0
 10
17.54889270560937
 20
-4.573999999173993
 30
0.0
  0
SPLINE
  5
23E
330
1F
100
AcDbEntity
  8
1
  6
Continuous
370
    15
100
AcDbSpline
210
0.0
220
0.0
230
1.0
 70
     8
 71
     3
 72
    15
 73
    11
 74
     0
 42
0.0000000001
 43
0.0000000001
 40
0.0
 40
0.0
 40
0.0
 40
0.0
 40
0.2172775880064559
 40
0.3588087995495939
 40
0.4491746516072942
 40
0.5433180714695438
 40
0.6379718230561468
 40
0.7286661826685096
 40
0.8637352309713087
 40
1.0
 40
1.0
 40
1.0
 40
1.0
 10
17.548892705609
 20
4.573999999173994
 30
0.0
 10
17.30838775647818
 20
4.573970844052266
 30
0.0
 10
16.91122165722632
 20
4.573922697741719
 30
0.0
 10
16.41320437354902
 20
4.573932689402909
 30
0.0
 10
16.05269787067294
 20
4.574009566273294
 30
0.0
 10
15.7433117088766
 20
4.573997348151059
 30
0.0
 10
15.43368403125984
 20
4.574000627222614
 30
0.0
 10
15.07868081099974
 20
4.573999619667223
 30
0.0
 10
14.67758605608245
 20
4.574000053960708
 30
0.0
 10
14.37697009429175
 20
4.574000009009684
 30
0.0
 10
14.2259997323862
 20
4.573999986435125
 30
0.0
  0
SPLINE
  5
23F
330
1F
100
AcDbEntity
  8
1
  6
Continuous
370
    15
100
AcDbSpline
210
0.0
220
0.0
230
1.0
 70
     8
 71
     3
 72
    15
 73
    11
 74
     0
 42
0.0000000001
 43
0.0000000001
 40
0.0
 40
0.0
 40
0.0
 40
0.0
 40
0.1168714250513478
 40
0.2526772015401649
 40
0.3665977407837943
 40
0.4815189109857331
 40
0.5942253047901374
 40
0.7538028040963788
 40
0.9325701716503228
 40
1.0
 40
1.0
 40
1.0
 40
1.0
 10
50.35111831692109
 20
4.573999949406325
 30
0.0
 10
50.27286065998436
 20
4.574000506376028
 30
0.0
 10
50.10366681516586
 20
4.57400171055015
 30
0.0
 10
49.85827688406186
 20
4.573992442694419
 30
0.0
 10
49.61388095416706
 20
4.574022691756291
 30
0.0
 10
49.39203451844611
 20
4.573586176585629
 30
0.0
 10
49.14078366621248
 20
4.571924984461269
 30
0.0
 10
48.83366651851048
 20
4.572118823692918
 30
0.0
 10
48.57046205499276
 20
4.573664862488015
 30
0.0
 10
48.40559840833037
 20
4.57368827991315
 30
0.0
 10
48.36044465523929
 20
4.573694693605035
 30
0.0
  0
SPLINE
  5
240
330
1F
100
AcDbEntity
  8
1
  6
Continuous
370
    15
100
AcDbSpline
210
0.0
220
0.0
230
1.0
 70
     8
 71
     3
 72
    10
 73
     6
 74
     0
 42
0.0000000001
 43
0.0000000001
 40
0.0
 40
0.0
 40
0.0
 40
0.0
 40
0.2068605493627405
 40
0.4918768888822155
 40
1.0
 40
1.0
 40
1.0
 40
1.0
 10
29.39272907689389
 20
-4.573999998083834
 30
0.0
 10
29.80609463769292
 20
-4.573999466929841
 30
0.0
 10
30.78900301071644
 20
-4.573998203941925
 30
0.0
 10
32.78728863166222
 20
-4.574000964819838
 30
0.0
 10
34.37221024793416
 20
-4.574000376416901
 30
0.0
 10
35.38758692840423
 20
-4.573999999457807
 30
0.0
  0
LINE
  5
241
330
1F
100
AcDbEntity
  8
1
370
    18
100
AcDbLine
 10
14.226
 20
-4.764499999999999
 30
0.0
 11
14.22627997777293
 21
-3.8125982397882
 31
0.0
  0
DIMENSION
  5
242
330
1F
100
AcDbEntity
  8
2
370
    18
100
AcDbDimension
  2
*D9
 10
58.62221338167636
 20
-4.764500000000002
 30
0.0
 11
68.57221338167637
 21
12.49497891054054
 31
0.0
 70
   160
  1
%%c<>
 71
     5
 42
9.528999999999999
  3
Standard
100
AcDbAlignedDimension
 13
46.74804506890001
 23
4.7645
 33
0.0
 14
46.7569065335
 24
-4.764499999999999
 34
0.0
 50
90.0
100
AcDbRotatedDimension
1001
ACAD
1000
DSTYLE
1002
{
1070
     3
1000

1070
    41
1040
3.0
1070
    73
1070
     1
1070
    74
1070
     1
1070
    77
1070
     3
1070
   140
1040
3.5
1070
   147
1040
1.199999999999999
1070
   271
1070
     3
1070
   278
1070
    46
1002
}
  0
DIMENSION
  5
251
330
1F
100
AcDbEntity
  8
SK2
370
    18
100
AcDbDimension
  2
*D10
 10
53.22600000000003
 20
12.36771977500271
 30
0.0
 11
33.72600000000002
 21
15.31771977500271
 31
0.0
 70
    32
 71
     5
 42
39.00000000000003
  3
Standard
100
AcDbAlignedDimension
 13
14.226
 23
4.7645
 33
0.0
 14
53.22600000000003
 24
0.0000000000000001
 34
0.0
100
AcDbRotatedDimension
1001
ACAD
1000
DSTYLE
1002
{
1070
     3
1000

1070
    41
1040
3.0
1070
    73
1070
     1
1070
    74
1070
     1
1070
    77
1070
     3
1070
   140
1040
3.5
1070
   147
1040
1.199999999999999
1070
   278
1070
    46
1002
}
  0
DIMENSION
  5
25F
330
1F
100
AcDbEntity
  8
SK2
370
    18
100
AcDbDimension
  2
*D11
 10
50.35168077084205
 20
-13.50383907804465
 30
0.0
 11
25.17584038542103
 21
-10.55383907804465
 31
0.0
 70
    32
 71
     5
 42
50.35168077084205
  3
Standard
100
AcDbAlignedDimension
 13
0.0
 23
-4.999999999999999
 33
0.0
 14
50.35168077084205
 24
-4.573999999999997
 34
0.0
100
AcDbRotatedDimension
1001
ACAD
1000
DSTYLE
1002
{
1070
     3
1000

1070
    41
1040
3.0
1070
    73
1070
     1
1070
    74
1070
     1
1070
    77
1070
     3
1070
   140
1040
3.5
1070
   147
1040
1.199999999999999
1070
   278
1070
    46
1002
}
  0
DIMENSION
  5
26D
330
1F
100
AcDbEntity
  8
SK2
370
    18
100
AcDbDimension
  2
*D12
 10
53.22600000000003
 20
-17.77501646473345
 30
0.0
 11
65.67600000000003
 21
-14.82501646473345
 31
0.0
 70
    32
 71
     5
 42
2.874319229157975
  3
Standard
100
AcDbAlignedDimension
 13
50.35168077084205
 23
-4.573999999999997
 33
0.0
 14
53.22600000000003
 24
0.0000000000000001
 34
0.0
100
AcDbRotatedDimension
1001
ACAD
1000
DSTYLE
1002
{
1070
     3
1000

1070
    41
1040
3.0
1070
    73
1070
     1
1070
    74
1070
     1
1070
    77
1070
     3
1070
   140
1040
3.5
1070
   147
1040
1.199999999999999
1070
   278
1070
    46
1002
}
  0
DIMENSION
  5
27B
330
1F
100
AcDbEntity
  8
SK2
370
    18
100
AcDbDimension
  2
*D13
 10
50.35168077079998
 20
-21.10335380115666
 30
0.0
 11
5.288840385399993
 21
-18.15335380115666
 31
0.0
 70
    32
 71
     5
 42
90.12568077079999
  3
Standard
100
AcDbAlignedDimension
 13
-39.774
 23
-4.599999999999998
 33
0.0
 14
50.35168077079998
 24
-4.573999999999998
 34
0.0
100
AcDbRotatedDimension
1001
ACAD
1000
DSTYLE
1002
{
1070
     3
1000

1070
    41
1040
3.0
1070
    73
1070
     1
1070
    74
1070
     1
1070
    77
1070
     3
1070
   140
1040
3.5
1070
   147
1040
1.199999999999999
1070
   278
1070
    46
1002
}
  0
DIMENSION
  5
289
330
1F
100
AcDbEntity
  8
SK2
370
    18
100
AcDbDimension
  2
*D14
 10
-39.774
 20
-29.09293769834651
 30
0.0
 11
6.726000000000013
 21
-26.14293769834651
 31
0.0
 70
    32
 71
     5
 42
93.00000000000002
  3
Standard
100
AcDbAlignedDimension
 13
53.22600000000003
 23
0.0000000000000001
 33
0.0
 14
-39.774
 24
-4.599999999999998
 34
0.0
100
AcDbRotatedDimension
1001
ACAD
1000
DSTYLE
1002
{
1070
     3
1000

1070
    41
1040
3.0
1070
    73
1070
     1
1070
    74
1070
     1
1070
    77
1070
     3
1070
   140
1040
3.5
1070
   147
1040
1.199999999999999
1070
   278
1070
    46
1002
}
  0
DIMENSION
  5
297
330
1F
100
AcDbEntity
  8
SK2
370
    18
100
AcDbDimension
  2
*D15
 10
-45.86880861512817
 20
-4.999999999999998
 30
0.0
 11
-35.91880861512817
 21
11.87600908482889
 31
0.0
 70
   160
  1
%%c<>
 71
     5
 42
10.0
  3
Standard
100
AcDbAlignedDimension
 13
-39.374
 23
5.0
 33
0.0
 14
-39.374
 24
-4.999999999999999
 34
0.0
 50
90.0
100
AcDbRotatedDimension
1001
ACAD
1000
DSTYLE
1002
{
1070
     3
1000

1070
    41
1040
3.0
1070
    73
1070
     1
1070
    74
1070
     1
1070
    77
1070
     3
1070
   140
1040
3.5
1070
   147
1040
1.199999999999999
1070
   271
1070
     3
1070
   278
1070
    46
1002
}
  0
ENDSEC
  0
SECTION
  2
OBJECTS
  0
DICTIONARY
  5
183
330
0
100
AcDbDictionary
281
     1
  3
ACAD_COLOR
350
195
  3
ACAD_GROUP
350
184
  3
ACAD_LAYOUT
350
196
  3
ACAD_MATERIAL
350
194
  3
ACAD_MLINESTYLE
350
185
  3
ACAD_PLOTSETTINGS
350
197
  3
ACAD_PLOTSTYLENAME
350
192
  0
DICTIONARY
  5
195
102
{ACAD_REACTORS
330
183
102
}
330
183
100
AcDbDictionary
281
     1
  0
DICTIONARY
  5
184
330
183
100
AcDbDictionary
281
     1
  0
DICTIONARY
  5
196
102
{ACAD_REACTORS
330
183
102
}
330
183
100
AcDbDictionary
281
     1
  3
Layout1
350
199
  3
Model
350
198
  0
DICTIONARY
  5
194
102
{ACAD_REACTORS
330
183
102
}
330
183
100
AcDbDictionary
281
     1
  0
DICTIONARY
  5
185
330
183
100
AcDbDictionary
281
     1
  3
Standard
350
18
  0
DICTIONARY
  5
197
102
{ACAD_REACTORS
330
183
102
}
330
183
100
AcDbDictionary
281
     1
  0
ACDBDICTIONARYWDFLT
  5
192
102
{ACAD_REACTORS
330
183
102
}
330
183
100
AcDbDictionary
281
     1
  3
Normal
350
193
100
AcDbDictionaryWithDefault
340
193
  0
LAYOUT
  5
199
102
{ACAD_REACTORS
330
196
102
}
330
196
100
AcDbPlotSettings
  1

  2
Chappel Main Office
  4

  6

 40
0.0
 41
0.0
 42
0.0
 43
0.0
 44
0.0
 45
0.0
 46
0.0
 47
0.0
 48
0.0
 49
0.0
140
0.0
141
0.0
142
1.0
143
1.0
 70
   688
 72
     0
 73
     0
 74
     5
  7

 75
    16
147
1.0
 76
     0
 77
     2
 78
   300
148
0.0
149
0.0
100
AcDbLayout
  1
Layout1
 70
     1
 71
     1
 10
0.0
 20
0.0
 11
12.0
 21
9.0
 12
0.0
 22
0.0
 32
0.0
 14
1.000000000000000E+20
 24
1.000000000000000E+20
 34
1.000000000000000E+20
 15
-1.000000000000000E+20
 25
-1.000000000000000E+20
 35
-1.000000000000000E+20
146
0.0
 13
0.0
 23
0.0
 33
0.0
 16
1.0
 26
0.0
 36
0.0
 17
0.0
 27
1.0
 37
0.0
 76
     0
330
1B
  0
LAYOUT
  5
198
102
{ACAD_REACTORS
330
196
102
}
330
196
100
AcDbPlotSettings
  1

  2
Chappel Main Office
  4

  6

 40
0.0
 41
0.0
 42
0.0
 43
0.0
 44
0.0
 45
0.0
 46
0.0
 47
0.0
 48
0.0
 49
0.0
140
0.0
141
0.0
142
1.0
143
1.0
 70
  1712
 72
     0
 73
     0
 74
     0
  7

 75
     0
147
1.0
 76
     0
 77
     2
 78
   300
148
0.0
149
0.0
100
AcDbLayout
  1
Model
 70
     1
 71
     0
 10
0.0
 20
0.0
 11
12.0
 21
9.0
 12
0.0
 22
0.0
 32
0.0
 14
0.0
 24
0.0
 34
0.0
 15
0.0
 25
0.0
 35
0.0
146
0.0
 13
0.0
 23
0.0
 33
0.0
 16
1.0
 26
0.0
 36
0.0
 17
0.0
 27
1.0
 37
0.0
 76
     0
330
1F
  0
MLINESTYLE
  5
18
330
185
100
AcDbMlineStyle
  2
STANDARD
 70
     0
  3

 62
   256
 51
90.0
 52
90.0
 71
     2
 49
0.5
 62
   256
  6
BYLAYER
 49
-0.5
 62
   256
  6
BYLAYER
  0
ACDBPLACEHOLDER
  5
193
102
{ACAD_REACTORS
330
192
102
}
330
192
  0
ENDSEC
  0
EOF
