  0
SECTION
  2
HEADER
  9
$ACADVER
  1
AC1018
  9
$ACADMAINTVER
 70
     0
  9
$DWGCODEPAGE
  3
ANSI_1252
  9
$INSBASE
 10
0.0
 20
0.0
 30
0.0
  9
$EXTMIN
 10
-42.34170702027518
 20
-32.19205454918658
 30
0.0
  9
$EXTMAX
 10
68.60252862747922
 20
29.25311359327735
 30
0.0
  9
$LIMMIN
 10
0.0
 20
0.0
  9
$LIMMAX
 10
12.0
 20
9.0
  9
$ORTHOMODE
 70
     0
  9
$REGENMODE
 70
     1
  9
$FILLMODE
 70
     1
  9
$QTEXTMODE
 70
     0
  9
$MIRRTEXT
 70
     0
  9
$LTSCALE
 40
1.0
  9
$ATTMODE
 70
     1
  9
$TEXTSIZE
 40
0.0
  9
$TRACEWID
 40
0.05
  9
$TEXTSTYLE
  7
Standard
  9
$CLAYER
  8
1
  9
$CELTYPE
  6
ByLayer
  9
$CECOLOR
 62
   256
  9
$CELTSCALE
 40
1.0
  9
$DISPSILH
 70
     0
  9
$DIMSCALE
 40
1.0
  9
$DIMASZ
 40
0.18
  9
$DIMEXO
 40
0.0625
  9
$DIMDLI
 40
0.38
  9
$DIMRND
 40
0.0
  9
$DIMDLE
 40
0.0
  9
$DIMEXE
 40
0.18
  9
$DIMTP
 40
0.0
  9
$DIMTM
 40
0.0
  9
$DIMTXT
 40
0.18
  9
$DIMCEN
 40
0.09
  9
$DIMTSZ
 40
0.0
  9
$DIMTOL
 70
     0
  9
$DIMLIM
 70
     0
  9
$DIMTIH
 70
     1
  9
$DIMTOH
 70
     1
  9
$DIMSE1
 70
     0
  9
$DIMSE2
 70
     0
  9
$DIMTAD
 70
     0
  9
$DIMZIN
 70
     0
  9
$DIMBLK
  1

  9
$DIMASO
 70
     1
  9
$DIMSHO
 70
     1
  9
$DIMPOST
  1

  9
$DIMAPOST
  1

  9
$DIMALT
 70
     0
  9
$DIMALTD
 70
     2
  9
$DIMALTF
 40
25.4
  9
$DIMLFAC
 40
1.0
  9
$DIMTOFL
 70
     0
  9
$DIMTVP
 40
0.0
  9
$DIMTIX
 70
     0
  9
$DIMSOXD
 70
     0
  9
$DIMSAH
 70
     0
  9
$DIMBLK1
  1

  9
$DIMBLK2
  1

  9
$DIMSTYLE
  2
Standard
  9
$DIMCLRD
 70
     0
  9
$DIMCLRE
 70
     0
  9
$DIMCLRT
 70
     0
  9
$DIMTFAC
 40
1.0
  9
$DIMGAP
 40
0.09
  9
$DIMJUST
 70
     0
  9
$DIMSD1
 70
     0
  9
$DIMSD2
 70
     0
  9
$DIMTOLJ
 70
     1
  9
$DIMTZIN
 70
     0
  9
$DIMALTZ
 70
     0
  9
$DIMALTTZ
 70
     0
  9
$DIMUPT
 70
     0
  9
$DIMDEC
 70
     4
  9
$DIMTDEC
 70
     4
  9
$DIMALTU
 70
     2
  9
$DIMALTTD
 70
     2
  9
$DIMTXSTY
  7
Standard
  9
$DIMAUNIT
 70
     0
  9
$DIMADEC
 70
     0
  9
$DIMALTRND
 40
0.0
  9
$DIMAZIN
 70
     0
  9
$DIMDSEP
 70
    46
  9
$DIMATFIT
 70
     3
  9
$DIMFRAC
 70
     0
  9
$DIMLDRBLK
  1

  9
$DIMLUNIT
 70
     2
  9
$DIMLWD
 70
    -2
  9
$DIMLWE
 70
    -2
  9
$DIMTMOVE
 70
     0
  9
$LUNITS
 70
     2
  9
$LUPREC
 70
     4
  9
$SKETCHINC
 40
0.1
  9
$FILLETRAD
 40
0.0
  9
$AUNITS
 70
     0
  9
$AUPREC
 70
     0
  9
$MENU
  1
.
  9
$ELEVATION
 40
0.0
  9
$PELEVATION
 40
0.0
  9
$THICKNESS
 40
0.0
  9
$LIMCHECK
 70
     0
  9
$CHAMFERA
 40
0.0
  9
$CHAMFERB
 40
0.0
  9
$CHAMFERC
 40
0.0
  9
$CHAMFERD
 40
0.0
  9
$SKPOLY
 70
     0
  9
$TDCREATE
 40
2457169.562357651
  9
$TDUCREATE
 40
2457169.812357651
  9
$TDUPDATE
 40
2457175.622970174
  9
$TDUUPDATE
 40
2457175.872970174
  9
$TDINDWG
 40
0.0071408681
  9
$TDUSRTIMER
 40
0.0071407523
  9
$USRTIMER
 70
     1
  9
$ANGBASE
 50
0.0
  9
$ANGDIR
 70
     0
  9
$PDMODE
 70
     0
  9
$PDSIZE
 40
0.0
  9
$PLINEWID
 40
0.0
  9
$SPLFRAME
 70
     0
  9
$SPLINETYPE
 70
     6
  9
$SPLINESEGS
 70
     8
  9
$HANDSEED
  5
488
  9
$SURFTAB1
 70
     6
  9
$SURFTAB2
 70
     6
  9
$SURFTYPE
 70
     6
  9
$SURFU
 70
     6
  9
$SURFV
 70
     6
  9
$UCSBASE
  2

  9
$UCSNAME
  2

  9
$UCSORG
 10
0.0
 20
0.0
 30
0.0
  9
$UCSXDIR
 10
1.0
 20
0.0
 30
0.0
  9
$UCSYDIR
 10
0.0
 20
1.0
 30
0.0
  9
$UCSORTHOREF
  2

  9
$UCSORTHOVIEW
 70
     0
  9
$UCSORGTOP
 10
0.0
 20
0.0
 30
0.0
  9
$UCSORGBOTTOM
 10
0.0
 20
0.0
 30
0.0
  9
$UCSORGLEFT
 10
0.0
 20
0.0
 30
0.0
  9
$UCSORGRIGHT
 10
0.0
 20
0.0
 30
0.0
  9
$UCSORGFRONT
 10
0.0
 20
0.0
 30
0.0
  9
$UCSORGBACK
 10
0.0
 20
0.0
 30
0.0
  9
$PUCSBASE
  2

  9
$PUCSNAME
  2

  9
$PUCSORG
 10
0.0
 20
0.0
 30
0.0
  9
$PUCSXDIR
 10
1.0
 20
0.0
 30
0.0
  9
$PUCSYDIR
 10
0.0
 20
1.0
 30
0.0
  9
$PUCSORTHOREF
  2

  9
$PUCSORTHOVIEW
 70
     0
  9
$PUCSORGTOP
 10
0.0
 20
0.0
 30
0.0
  9
$PUCSORGBOTTOM
 10
0.0
 20
0.0
 30
0.0
  9
$PUCSORGLEFT
 10
0.0
 20
0.0
 30
0.0
  9
$PUCSORGRIGHT
 10
0.0
 20
0.0
 30
0.0
  9
$PUCSORGFRONT
 10
0.0
 20
0.0
 30
0.0
  9
$PUCSORGBACK
 10
0.0
 20
0.0
 30
0.0
  9
$USERI1
 70
     0
  9
$USERI2
 70
     0
  9
$USERI3
 70
     0
  9
$USERI4
 70
     0
  9
$USERI5
 70
     0
  9
$USERR1
 40
0.0
  9
$USERR2
 40
0.0
  9
$USERR3
 40
0.0
  9
$USERR4
 40
0.0
  9
$USERR5
 40
0.0
  9
$WORLDVIEW
 70
     1
  9
$SHADEDGE
 70
     3
  9
$SHADEDIF
 70
    70
  9
$TILEMODE
 70
     1
  9
$MAXACTVP
 70
    64
  9
$PINSBASE
 10
0.0
 20
0.0
 30
0.0
  9
$PLIMCHECK
 70
     0
  9
$PEXTMIN
 10
1.000000000000000E+20
 20
1.000000000000000E+20
 30
1.000000000000000E+20
  9
$PEXTMAX
 10
-1.000000000000000E+20
 20
-1.000000000000000E+20
 30
-1.000000000000000E+20
  9
$PLIMMIN
 10
0.0
 20
0.0
  9
$PLIMMAX
 10
12.0
 20
9.0
  9
$UNITMODE
 70
     0
  9
$VISRETAIN
 70
     1
  9
$PLINEGEN
 70
     0
  9
$PSLTSCALE
 70
     1
  9
$TREEDEPTH
 70
  3020
  9
$CMLSTYLE
  2
Standard
  9
$CMLJUST
 70
     0
  9
$CMLSCALE
 40
1.0
  9
$PROXYGRAPHICS
 70
     1
  9
$MEASUREMENT
 70
     0
  9
$CELWEIGHT
370
    18
  9
$ENDCAPS
280
     0
  9
$JOINSTYLE
280
     0
  9
$LWDISPLAY
290
     1
  9
$INSUNITS
 70
     4
  9
$HYPERLINKBASE
  1

  9
$STYLESHEET
  1

  9
$XEDIT
290
     1
  9
$CEPSNTYPE
380
     0
  9
$PSTYLEMODE
290
     1
  9
$FINGERPRINTGUID
  2
{1A3370DD-E015-4359-90D3-D666A526498D}
  9
$VERSIONGUID
  2
{F726B944-A8D8-4F37-A6CB-F05CF0194F23}
  9
$EXTNAMES
290
     1
  9
$PSVPSCALE
 40
0.0
  9
$OLESTARTUP
290
     0
  9
$SORTENTS
280
   127
  9
$INDEXCTL
280
     0
  9
$HIDETEXT
280
     0
  9
$XCLIPFRAME
290
     0
  9
$HALOGAP
280
     0
  9
$OBSCOLOR
 70
   257
  9
$OBSLTYPE
280
     0
  9
$INTERSECTIONDISPLAY
280
     0
  9
$INTERSECTIONCOLOR
 70
   257
  9
$DIMASSOC
280
     1
  9
$PROJECTNAME
  1

  0
ENDSEC
  0
SECTION
  2
CLASSES
  0
CLASS
  1
RASTERVARIABLES
  2
AcDbRasterVariables
  3
ISM
 90
        0
 91
        0
280
     0
281
     0
  0
CLASS
  1
ACDBDICTIONARYWDFLT
  2
AcDbDictionaryWithDefault
  3
ObjectDBX Classes
 90
        0
 91
        1
280
     0
281
     0
  0
ENDSEC
  0
SECTION
  2
TABLES
  0
TABLE
  2
VPORT
  5
186
330
0
100
AcDbSymbolTable
 70
     2
  0
VPORT
  5
487
330
186
100
AcDbSymbolTableRecord
100
AcDbViewportTableRecord
  2
*Active
 70
     0
 10
0.0
 20
0.0
 11
1.0
 21
1.0
 12
21.09602996209992
 22
-6.712882508581579
 13
0.0
 23
0.0
 14
0.5
 24
0.5
 15
10.0
 25
10.0
 16
0.0
 26
0.0
 36
1.0
 17
0.0
 27
0.0
 37
0.0
 40
120.0581006326165
 41
2.336906584992342
 42
50.0
 43
0.0
 44
0.0
 50
0.0
 51
0.0
 71
     0
 72
   100
 73
     1
 74
     1
 75
     0
 76
     0
 77
     0
 78
     0
281
     0
 65
     1
110
0.0
120
0.0
130
0.0
111
1.0
121
0.0
131
0.0
112
0.0
122
1.0
132
0.0
 79
     0
146
0.0
  0
ENDTAB
  0
TABLE
  2
LTYPE
  5
187
330
0
100
AcDbSymbolTable
 70
     3
  0
LTYPE
  5
14
330
187
100
AcDbSymbolTableRecord
100
AcDbLinetypeTableRecord
  2
ByBlock
 70
     0
  3

 72
    65
 73
     0
 40
0.0
  0
LTYPE
  5
15
330
187
100
AcDbSymbolTableRecord
100
AcDbLinetypeTableRecord
  2
ByLayer
 70
     0
  3

 72
    65
 73
     0
 40
0.0
  0
LTYPE
  5
16
330
187
100
AcDbSymbolTableRecord
100
AcDbLinetypeTableRecord
  2
CONTINUOUS
 70
     0
  3
Solid line
 72
    65
 73
     0
 40
0.0
  0
LTYPE
  5
6A
330
187
100
AcDbSymbolTableRecord
100
AcDbLinetypeTableRecord
  2
CENTER
 70
     0
  3
____ _ ____ _ ____ _ ____
 72
    65
 73
     4
 40
47.5
 49
22.0
 74
     0
 49
-8.5
 74
     0
 49
8.5
 74
     0
 49
-8.5
 74
     0
  0
LTYPE
  5
6B
330
187
100
AcDbSymbolTableRecord
100
AcDbLinetypeTableRecord
  2
DASHED
 70
     0
  3
__ __ __ __ __ __ __ __ __
 72
    65
 73
     2
 40
25.72
 49
12.86
 74
     0
 49
-12.86
 74
     0
  0
ENDTAB
  0
TABLE
  2
LAYER
  5
188
330
0
100
AcDbSymbolTable
 70
    11
  0
LAYER
  5
10
330
188
100
AcDbSymbolTableRecord
100
AcDbLayerTableRecord
  2
0
 70
     0
 62
     7
  6
CONTINUOUS
370
    -3
390
193
  0
LAYER
  5
6D
330
188
100
AcDbSymbolTableRecord
100
AcDbLayerTableRecord
  2
81
 70
     0
 62
    -3
  6
CONTINUOUS
370
    -3
390
193
  0
LAYER
  5
6F
330
188
100
AcDbSymbolTableRecord
100
AcDbLayerTableRecord
  2
80
 70
     0
 62
    -6
  6
CONTINUOUS
370
    -3
390
193
  0
LAYER
  5
74
330
188
100
AcDbSymbolTableRecord
100
AcDbLayerTableRecord
  2
2
 70
     0
 62
     7
  6
CONTINUOUS
370
    -3
390
193
  0
LAYER
  5
78
330
188
100
AcDbSymbolTableRecord
100
AcDbLayerTableRecord
  2
1
 70
     0
 62
     4
  6
CONTINUOUS
370
    -3
390
193
  0
LAYER
  5
88
330
188
100
AcDbSymbolTableRecord
100
AcDbLayerTableRecord
  2
4
 70
     0
 62
    -2
  6
CENTER
370
    -3
390
193
  0
LAYER
  5
172
330
188
100
AcDbSymbolTableRecord
100
AcDbLayerTableRecord
  2
SK2
 70
     0
 62
     7
  6
CONTINUOUS
370
    -3
390
193
  0
LAYER
  5
173
330
188
100
AcDbSymbolTableRecord
100
AcDbLayerTableRecord
  2
SK1
 70
     0
 62
     4
  6
CONTINUOUS
370
    -3
390
193
  0
LAYER
  5
174
330
188
100
AcDbSymbolTableRecord
100
AcDbLayerTableRecord
  2
SK4
 70
     0
 62
     2
  6
CENTER
370
    -3
390
193
  0
LAYER
  5
175
330
188
100
AcDbSymbolTableRecord
100
AcDbLayerTableRecord
  2
SK6
 70
     0
 62
     5
  6
CONTINUOUS
370
    -3
390
193
  0
LAYER
  5
244
330
188
100
AcDbSymbolTableRecord
100
AcDbLayerTableRecord
  2
Defpoints
 70
     0
 62
     7
  6
CONTINUOUS
290
     0
370
    -3
390
193
  0
ENDTAB
  0
TABLE
  2
STYLE
  5
189
330
0
100
AcDbSymbolTable
 70
     3
  0
STYLE
  5
11
330
189
100
AcDbSymbolTableRecord
100
AcDbTextStyleTableRecord
  2
Standard
 70
     0
 40
0.0
 41
1.0
 50
0.0
 71
     0
 42
0.0
  3
txt
  4

  0
STYLE
  5
CE
330
189
100
AcDbSymbolTableRecord
100
AcDbTextStyleTableRecord
  2
iso_b_vert
 70
     0
 40
0.0
 41
1.0
 50
0.0
 71
     0
 42
0.0
  3
simplex.shx
  4

  0
STYLE
  5
CF
330
189
100
AcDbSymbolTableRecord
100
AcDbTextStyleTableRecord
  2
DWGDirectTextStyle
 70
     0
 40
0.0
 41
1.0
 50
0.0
 71
     0
 42
0.0
  3
simplex
  4

  0
ENDTAB
  0
TABLE
  2
VIEW
  5
18B
330
0
100
AcDbSymbolTable
 70
     0
  0
ENDTAB
  0
TABLE
  2
UCS
  5
18C
330
0
100
AcDbSymbolTable
 70
     0
  0
ENDTAB
  0
TABLE
  2
APPID
  5
18D
330
0
100
AcDbSymbolTable
 70
     1
  0
APPID
  5
12
330
18D
100
AcDbSymbolTableRecord
100
AcDbRegAppTableRecord
  2
ACAD
 70
     0
  0
ENDTAB
  0
TABLE
  2
DIMSTYLE
  5
18A
330
0
100
AcDbSymbolTable
 70
     2
100
AcDbDimStyleTable
 71
     1
340
27
  0
DIMSTYLE
105
27
102
{ACAD_REACTORS
330
243
330
252
330
260
330
26E
330
27C
330
28A
330
298
102
}
330
18A
100
AcDbSymbolTableRecord
100
AcDbDimStyleTableRecord
  2
Standard
 70
     0
  3
<>
 73
     0
 74
     0
 77
     1
271
     2
278
    52
340
11
  0
DIMSTYLE
105
1A2
330
18A
100
AcDbSymbolTableRecord
100
AcDbDimStyleTableRecord
  2
ISO-25
 70
     0
 41
2.5
 42
0.625
 43
3.75
 44
1.25
 73
     0
 74
     0
 77
     1
 78
     8
140
2.5
141
2.5
143
0.0393700787
147
0.625
171
     3
172
     1
271
     2
272
     2
274
     3
278
    44
283
     0
284
     8
340
11
  0
ENDTAB
  0
TABLE
  2
BLOCK_RECORD
  5
18E
330
0
100
AcDbSymbolTable
 70
    15
  0
BLOCK_RECORD
  5
1F
330
18E
100
AcDbSymbolTableRecord
100
AcDbBlockTableRecord
  2
*Model_Space
340
198
  0
BLOCK_RECORD
  5
1B
330
18E
100
AcDbSymbolTableRecord
100
AcDbBlockTableRecord
  2
*Paper_Space
340
199
  0
BLOCK_RECORD
  5
23
330
18E
100
AcDbSymbolTableRecord
100
AcDbBlockTableRecord
  2
*Paper_Space0
340
0
  0
BLOCK_RECORD
  5
D1
330
18E
100
AcDbSymbolTableRecord
100
AcDbBlockTableRecord
  2
DimnDraft3D1
340
0
  0
BLOCK_RECORD
  5
DB
330
18E
100
AcDbSymbolTableRecord
100
AcDbBlockTableRecord
  2
DimnDraft3D2
340
0
  0
BLOCK_RECORD
  5
E5
330
18E
100
AcDbSymbolTableRecord
100
AcDbBlockTableRecord
  2
DimnDraft3D3
340
0
  0
BLOCK_RECORD
  5
EF
330
18E
100
AcDbSymbolTableRecord
100
AcDbBlockTableRecord
  2
DimnDraft3D4
340
0
  0
BLOCK_RECORD
  5
F9
330
18E
100
AcDbSymbolTableRecord
100
AcDbBlockTableRecord
  2
DimnDraft3D5
340
0
  0
BLOCK_RECORD
  5
103
330
18E
100
AcDbSymbolTableRecord
100
AcDbBlockTableRecord
  2
DimnDraft3D6
340
0
  0
BLOCK_RECORD
  5
10E
330
18E
100
AcDbSymbolTableRecord
100
AcDbBlockTableRecord
  2
DimnDraft3D7
340
0
  0
BLOCK_RECORD
  5
245
330
18E
100
AcDbSymbolTableRecord
100
AcDbBlockTableRecord
  2
*D8
340
0
  0
BLOCK_RECORD
  5
253
330
18E
100
AcDbSymbolTableRecord
100
AcDbBlockTableRecord
  2
*D9
340
0
  0
BLOCK_RECORD
  5
261
330
18E
100
AcDbSymbolTableRecord
100
AcDbBlockTableRecord
  2
*D10
340
0
  0
BLOCK_RECORD
  5
26F
330
18E
100
AcDbSymbolTableRecord
100
AcDbBlockTableRecord
  2
*D11
340
0
  0
BLOCK_RECORD
  5
27D
330
18E
100
AcDbSymbolTableRecord
100
AcDbBlockTableRecord
  2
*D12
340
0
  0
BLOCK_RECORD
  5
28B
330
18E
100
AcDbSymbolTableRecord
100
AcDbBlockTableRecord
  2
*D13
340
0
  0
BLOCK_RECORD
  5
299
330
18E
100
AcDbSymbolTableRecord
100
AcDbBlockTableRecord
  2
*D14
340
0
  0
ENDTAB
  0
ENDSEC
  0
SECTION
  2
BLOCKS
  0
BLOCK
  5
20
330
1F
100
AcDbEntity
  8
0
100
AcDbBlockBegin
  2
*Model_Space
 70
     0
 10
0.0
 20
0.0
 30
0.0
  3
*Model_Space
  1

  0
ENDBLK
  5
21
330
1F
100
AcDbEntity
  8
0
100
AcDbBlockEnd
  0
BLOCK
  5
1C
330
1B
100
AcDbEntity
 67
     1
  8
0
100
AcDbBlockBegin
  2
*Paper_Space
 70
     0
 10
0.0
 20
0.0
 30
0.0
  3
*Paper_Space
  1

  0
ENDBLK
  5
1D
330
1B
100
AcDbEntity
 67
     1
  8
0
100
AcDbBlockEnd
  0
BLOCK
  5
24
330
23
100
AcDbEntity
  8
0
100
AcDbBlockBegin
  2
*Paper_Space0
 70
     0
 10
0.0
 20
0.0
 30
0.0
  3
*Paper_Space0
  1

  0
ENDBLK
  5
25
330
23
100
AcDbEntity
  8
0
100
AcDbBlockEnd
  0
BLOCK
  5
D8
330
D1
100
AcDbEntity
  8
0
100
AcDbBlockBegin
  2
DimnDraft3D1
 70
     0
 10
0.0
 20
0.0
 30
0.0
  3
DimnDraft3D1
  1

  0
MTEXT
  5
D2
330
D1
100
AcDbEntity
  8
SK2
370
    13
100
AcDbMText
 10
7.372275
 20
-10.838398
 30
0.0
 40
3.5
 41
0.0
 71
     7
 72
     5
  1
\W0.7317;25,57
  7
iso_b_vert
 73
     1
 44
1.084337
  0
LINE
  5
D3
330
D1
100
AcDbEntity
  8
SK2
370
    13
100
AcDbLine
 10
0.0
 20
-1.587499999999999
 30
0.0
 11
0.0
 21
-13.713398
 31
0.0
  0
LINE
  5
D4
330
D1
100
AcDbEntity
  8
SK2
370
    13
100
AcDbLine
 10
25.5709
 20
-3.087499999999999
 30
0.0
 11
25.5709
 21
-13.713398
 31
0.0
  0
LINE
  5
D5
330
D1
100
AcDbEntity
  8
SK2
370
    13
100
AcDbLine
 10
0.0
 20
-11.713398
 30
0.0
 11
25.5709
 21
-11.713398
 31
0.0
  0
SOLID
  5
D6
330
D1
100
AcDbEntity
  8
SK2
370
    13
100
AcDbTrace
 10
0.0
 20
-11.713398
 30
0.0
 11
3.499998
 21
-11.252615
 31
0.0
 12
3.500001999999998
 22
-12.174182
 32
0.0
 13
0.0
 23
-11.713398
 33
0.0
  0
SOLID
  5
D7
330
D1
100
AcDbEntity
  8
SK2
370
    13
100
AcDbTrace
 10
25.5709
 20
-11.713398
 30
0.0
 11
22.070902
 21
-12.174182
 31
0.0
 12
22.070898
 22
-11.252615
 32
0.0
 13
25.5709
 23
-11.713398
 33
0.0
  0
ENDBLK
  5
D9
330
D1
100
AcDbEntity
  8
0
100
AcDbBlockEnd
  0
BLOCK
  5
E2
330
DB
100
AcDbEntity
  8
0
100
AcDbBlockBegin
  2
DimnDraft3D2
 70
     0
 10
0.0
 20
0.0
 30
0.0
  3
DimnDraft3D2
  1

  0
MTEXT
  5
DC
330
DB
100
AcDbEntity
  8
SK2
370
    13
100
AcDbMText
 10
-8.536483999999997
 20
-30.817985
 30
0.0
 40
3.5
 41
0.0
 71
     7
 72
     5
  1
\W0.7317;62,00
  7
iso_b_vert
 73
     1
 44
1.084337
  0
LINE
  5
DD
330
DB
100
AcDbEntity
  8
SK2
370
    13
100
AcDbLine
 10
-36.0
 20
-4.5875
 30
0.0
 11
-36.0
 21
-33.692985
 31
0.0
  0
LINE
  5
DE
330
DB
100
AcDbEntity
  8
SK2
370
    13
100
AcDbLine
 10
26.0
 20
-1.587499999999999
 30
0.0
 11
26.0
 21
-33.692985
 31
0.0
  0
LINE
  5
DF
330
DB
100
AcDbEntity
  8
SK2
370
    13
100
AcDbLine
 10
-36.0
 20
-31.692985
 30
0.0
 11
26.0
 21
-31.692985
 31
0.0
  0
SOLID
  5
E0
330
DB
100
AcDbEntity
  8
SK2
370
    13
100
AcDbTrace
 10
-36.0
 20
-31.692985
 30
0.0
 11
-32.50000200000001
 21
-31.232202
 31
0.0
 12
-32.499998
 22
-32.153769
 32
0.0
 13
-36.0
 23
-31.692985
 33
0.0
  0
SOLID
  5
E1
330
DB
100
AcDbEntity
  8
SK2
370
    13
100
AcDbTrace
 10
26.0
 20
-31.692985
 30
0.0
 11
22.500002
 21
-32.153769
 31
0.0
 12
22.499998
 22
-31.232202
 32
0.0
 13
26.0
 23
-31.692985
 33
0.0
  0
ENDBLK
  5
E3
330
DB
100
AcDbEntity
  8
0
100
AcDbBlockEnd
  0
BLOCK
  5
EC
330
E5
100
AcDbEntity
  8
0
100
AcDbBlockBegin
  2
DimnDraft3D3
 70
     0
 10
0.0
 20
0.0
 30
0.0
  3
DimnDraft3D3
  1

  0
MTEXT
  5
E6
330
E5
100
AcDbEntity
  8
SK2
370
    13
100
AcDbMText
 10
17.965
 20
13.984119
 30
0.0
 40
3.5
 41
0.0
 71
     7
 72
     5
  1
\W0.7493;9,42
  7
iso_b_vert
 73
     1
 44
1.084337
  0
LINE
  5
E7
330
E5
100
AcDbEntity
  8
SK2
370
    13
100
AcDbLine
 10
16.58
 20
3.087499999999999
 30
0.0
 11
16.58
 21
15.109119
 31
0.0
  0
LINE
  5
E8
330
E5
100
AcDbEntity
  8
SK2
370
    13
100
AcDbLine
 10
26.0
 20
1.587499999999999
 30
0.0
 11
26.0
 21
15.109119
 31
0.0
  0
LINE
  5
E9
330
E5
100
AcDbEntity
  8
SK2
370
    13
100
AcDbLine
 10
16.58
 20
13.109119
 30
0.0
 11
26.0
 21
13.109119
 31
0.0
  0
SOLID
  5
EA
330
E5
100
AcDbEntity
  8
SK2
370
    13
100
AcDbTrace
 10
16.58
 20
13.109119
 30
0.0
 11
20.079998
 21
13.569903
 31
0.0
 12
20.080002
 22
12.648335
 32
0.0
 13
16.58
 23
13.109119
 33
0.0
  0
SOLID
  5
EB
330
E5
100
AcDbEntity
  8
SK2
370
    13
100
AcDbTrace
 10
26.0
 20
13.109119
 30
0.0
 11
22.500002
 21
12.648335
 31
0.0
 12
22.499998
 22
13.569903
 32
0.0
 13
26.0
 23
13.109119
 33
0.0
  0
ENDBLK
  5
ED
330
E5
100
AcDbEntity
  8
0
100
AcDbBlockEnd
  0
BLOCK
  5
F6
330
EF
100
AcDbEntity
  8
0
100
AcDbBlockBegin
  2
DimnDraft3D4
 70
     0
 10
0.0
 20
0.0
 30
0.0
  3
DimnDraft3D4
  1

  0
MTEXT
  5
F0
330
EF
100
AcDbEntity
  8
SK2
370
    13
100
AcDbMText
 10
32.656425
 20
-13.427503
 30
0.0
 40
3.5
 41
0.0
 71
     7
 72
     5
  1
\W0.7493;0,43
  7
iso_b_vert
 73
     1
 44
1.084337
  0
LINE
  5
F1
330
EF
100
AcDbEntity
  8
SK2
370
    13
100
AcDbLine
 10
26.0
 20
-1.587499999999999
 30
0.0
 11
26.0
 21
-16.302503
 31
0.0
  0
LINE
  5
F2
330
EF
100
AcDbEntity
  8
SK2
370
    13
100
AcDbLine
 10
25.5709
 20
-3.087499999999999
 30
0.0
 11
25.5709
 21
-16.302503
 31
0.0
  0
LINE
  5
F3
330
EF
100
AcDbEntity
  8
SK2
370
    13
100
AcDbLine
 10
16.8209
 20
-14.302503
 30
0.0
 11
40.18142499999997
 21
-14.302503
 31
0.0
  0
SOLID
  5
F4
330
EF
100
AcDbEntity
  8
SK2
370
    13
100
AcDbTrace
 10
26.0
 20
-14.302503
 30
0.0
 11
29.499998
 21
-13.841719
 31
0.0
 12
29.500002
 22
-14.763287
 32
0.0
 13
26.0
 23
-14.302503
 33
0.0
  0
SOLID
  5
F5
330
EF
100
AcDbEntity
  8
SK2
370
    13
100
AcDbTrace
 10
25.5709
 20
-14.302503
 30
0.0
 11
22.070902
 21
-14.763287
 31
0.0
 12
22.070898
 22
-13.841719
 32
0.0
 13
25.5709
 23
-14.302503
 33
0.0
  0
ENDBLK
  5
F7
330
EF
100
AcDbEntity
  8
0
100
AcDbBlockEnd
  0
BLOCK
  5
100
330
F9
100
AcDbEntity
  8
0
100
AcDbBlockBegin
  2
DimnDraft3D5
 70
     0
 10
0.0
 20
0.0
 30
0.0
  3
DimnDraft3D5
  1

  0
MTEXT
  5
FA
330
F9
100
AcDbEntity
  8
SK2
370
    13
100
AcDbMText
 10
-11.179608
 20
-20.468428
 30
0.0
 40
3.5
 41
0.0
 71
     7
 72
     5
  1
\W0.6713;61,57
  7
iso_b_vert
 73
     1
 44
1.084337
  0
LINE
  5
FB
330
F9
100
AcDbEntity
  8
SK2
370
    13
100
AcDbLine
 10
-36.0
 20
-4.5875
 30
0.0
 11
-36.0
 21
-23.343428
 31
0.0
  0
LINE
  5
FC
330
F9
100
AcDbEntity
  8
SK2
370
    13
100
AcDbLine
 10
25.5709
 20
-3.087499999999999
 30
0.0
 11
25.5709
 21
-23.343428
 31
0.0
  0
LINE
  5
FD
330
F9
100
AcDbEntity
  8
SK2
370
    13
100
AcDbLine
 10
-36.0
 20
-21.343428
 30
0.0
 11
25.5709
 21
-21.343428
 31
0.0
  0
SOLID
  5
FE
330
F9
100
AcDbEntity
  8
SK2
370
    13
100
AcDbTrace
 10
-36.0
 20
-21.343428
 30
0.0
 11
-32.50000200000001
 21
-20.882645
 31
0.0
 12
-32.499998
 22
-21.804212
 32
0.0
 13
-36.0
 23
-21.343428
 33
0.0
  0
SOLID
  5
FF
330
F9
100
AcDbEntity
  8
SK2
370
    13
100
AcDbTrace
 10
25.5709
 20
-21.343428
 30
0.0
 11
22.070902
 21
-21.804212
 31
0.0
 12
22.070898
 22
-20.882645
 32
0.0
 13
25.5709
 23
-21.343428
 33
0.0
  0
ENDBLK
  5
101
330
F9
100
AcDbEntity
  8
0
100
AcDbBlockEnd
  0
BLOCK
  5
10B
330
103
100
AcDbEntity
  8
0
100
AcDbBlockBegin
  2
DimnDraft3D6
 70
     0
 10
0.0
 20
0.0
 30
0.0
  3
DimnDraft3D6
  1

  0
MTEXT
  5
104
330
103
100
AcDbEntity
  8
SK2
370
    13
100
AcDbMText
 10
-46.375163
 20
22.34918
 30
0.0
 40
3.5
 41
0.0
 71
     7
 72
     5
  1
\W0.7317;6,000
  7
iso_b_vert
 11
0.0000000000000001
 21
1.0
 31
0.0
 73
     1
 44
1.084337
  0
MTEXT
  5
105
330
103
100
AcDbEntity
  8
SK2
370
    13
100
AcDbMText
 10
-46.375163
 20
17.126524
 30
0.0
 40
3.5
 41
0.0
 71
     7
 72
     5
  1
%%c
  7
iso_b_vert
 11
0.0000000000000001
 21
1.0
 31
0.0
 73
     1
 44
1.084337
  0
LINE
  5
106
330
103
100
AcDbEntity
  8
SK2
370
    13
100
AcDbLine
 10
-37.5875
 20
-3.0
 30
0.0
 11
-46.625163
 21
-3.0
 31
0.0
  0
LINE
  5
107
330
103
100
AcDbEntity
  8
SK2
370
    13
100
AcDbLine
 10
-37.5875
 20
3.0
 30
0.0
 11
-46.625163
 21
3.0
 31
0.0
  0
LINE
  5
108
330
103
100
AcDbEntity
  8
SK2
370
    13
100
AcDbLine
 10
-44.62516299999999
 20
32.121549
 30
0.0
 11
-44.62516299999999
 21
-11.75
 31
0.0
  0
SOLID
  5
109
330
103
100
AcDbEntity
  8
SK2
370
    13
100
AcDbTrace
 10
-44.62516299999999
 20
-3.0
 30
0.0
 11
-44.164379
 21
-6.499998
 31
0.0
 12
-45.085946
 22
-6.500001999999997
 32
0.0
 13
-44.62516299999999
 23
-3.0
 33
0.0
  0
SOLID
  5
10A
330
103
100
AcDbEntity
  8
SK2
370
    13
100
AcDbTrace
 10
-44.62516299999999
 20
3.0
 30
0.0
 11
-45.085946
 21
6.499998
 31
0.0
 12
-44.164379
 22
6.500001999999997
 32
0.0
 13
-44.62516299999999
 23
3.0
 33
0.0
  0
ENDBLK
  5
10C
330
103
100
AcDbEntity
  8
0
100
AcDbBlockEnd
  0
BLOCK
  5
116
330
10E
100
AcDbEntity
  8
0
100
AcDbBlockBegin
  2
DimnDraft3D7
 70
     0
 10
0.0
 20
0.0
 30
0.0
  3
DimnDraft3D7
  1

  0
MTEXT
  5
10F
330
10E
100
AcDbEntity
  8
2
370
    13
100
AcDbMText
 10
36.333343
 20
19.442266
 30
0.0
 40
3.5
 41
0.0
 71
     7
 72
     5
  1
\W0.7317;3,000
  7
iso_b_vert
 11
0.0000000000000001
 21
1.0
 31
0.0
 73
     1
 44
1.084337
  0
MTEXT
  5
110
330
10E
100
AcDbEntity
  8
2
370
    13
100
AcDbMText
 10
36.333343
 20
14.21961
 30
0.0
 40
3.5
 41
0.0
 71
     7
 72
     5
  1
%%c
  7
iso_b_vert
 11
0.0000000000000001
 21
1.0
 31
0.0
 73
     1
 44
1.084337
  0
LINE
  5
111
330
10E
100
AcDbEntity
  8
2
370
    13
100
AcDbLine
 10
27.1584
 20
-1.5
 30
0.0
 11
40.083343
 21
-1.5
 31
0.0
  0
LINE
  5
112
330
10E
100
AcDbEntity
  8
2
370
    13
100
AcDbLine
 10
27.1584
 20
1.5
 30
0.0
 11
40.083343
 21
1.5
 31
0.0
  0
LINE
  5
113
330
10E
100
AcDbEntity
  8
2
370
    13
100
AcDbLine
 10
38.083343
 20
29.214635
 30
0.0
 11
38.083343
 21
-10.25
 31
0.0
  0
SOLID
  5
114
330
10E
100
AcDbEntity
  8
2
370
    13
100
AcDbTrace
 10
38.083343
 20
-1.5
 30
0.0
 11
38.544126
 21
-4.999998
 31
0.0
 12
37.622559
 22
-5.000001999999998
 32
0.0
 13
38.083343
 23
-1.5
 33
0.0
  0
SOLID
  5
115
330
10E
100
AcDbEntity
  8
2
370
    13
100
AcDbTrace
 10
38.083343
 20
1.5
 30
0.0
 11
37.622559
 21
4.999998
 31
0.0
 12
38.544126
 22
5.000001999999998
 32
0.0
 13
38.083343
 23
1.5
 33
0.0
  0
ENDBLK
  5
117
330
10E
100
AcDbEntity
  8
0
100
AcDbBlockEnd
  0
BLOCK
  5
250
330
245
100
AcDbEntity
  8
0
370
    18
100
AcDbBlockBegin
  2
*D8
 70
     1
 10
0.0
 20
0.0
 30
0.0
  3
*D8
  1

  0
LINE
  5
475
330
245
100
AcDbEntity
  8
2
 62
     0
370
    -2
100
AcDbLine
 10
37.209998334
 20
3.9710000285
 30
0.0
 11
50.08252862747921
 21
3.971000028499997
 31
0.0
  0
LINE
  5
476
330
245
100
AcDbEntity
  8
2
 62
     0
370
    -2
100
AcDbLine
 10
37.20311843920001
 20
-3.971
 30
0.0
 11
50.08252862747921
 21
-3.971000000000003
 31
0.0
  0
LINE
  5
477
330
245
100
AcDbEntity
  8
2
 62
     0
370
    -2
100
AcDbLine
 10
49.90252862747921
 20
-6.971000000000002
 30
0.0
 11
49.90252862747921
 21
-9.971000000000003
 31
0.0
  0
LINE
  5
478
330
245
100
AcDbEntity
  8
2
 62
     0
370
    -2
100
AcDbLine
 10
49.90252862747921
 20
6.971000028499996
 30
0.0
 11
49.90252862747921
 21
12.20524112332061
 31
0.0
  0
LINE
  5
479
330
245
100
AcDbEntity
  8
2
 62
     0
370
    -2
100
AcDbLine
 10
49.90252862747921
 20
12.20524112332061
 30
0.0
 11
68.60252862747922
 21
12.20524112332061
 31
0.0
  0
SOLID
  5
47A
330
245
100
AcDbEntity
  8
2
 62
     0
370
    18
100
AcDbTrace
 10
49.40252862747922
 20
-6.971000000000002
 30
0.0
 11
50.4025286274792
 21
-6.971000000000003
 31
0.0
 12
49.90252862747921
 22
-3.971000000000003
 32
0.0
 13
49.90252862747921
 23
-3.971000000000003
 33
0.0
  0
SOLID
  5
47B
330
245
100
AcDbEntity
  8
2
 62
     0
370
    18
100
AcDbTrace
 10
49.40252862747922
 20
6.971000028499996
 30
0.0
 11
50.4025286274792
 21
6.971000028499996
 31
0.0
 12
49.90252862747921
 22
3.971000028499997
 32
0.0
 13
49.90252862747921
 23
3.971000028499997
 33
0.0
  0
MTEXT
  5
47C
330
245
100
AcDbEntity
  8
2
 62
     0
370
    18
100
AcDbMText
 10
59.85252862747922
 20
15.15524112332062
 30
0.0
 40
3.5
 41
0.0
 71
     5
 72
     1
  1
\A1;%%c7.942
 73
     1
 44
1.0
  0
POINT
  5
47D
330
245
100
AcDbEntity
  8
Defpoints
 62
     0
370
    18
100
AcDbPoint
 10
37.14749833400001
 20
3.9710000285
 30
0.0
  0
POINT
  5
47E
330
245
100
AcDbEntity
  8
Defpoints
 62
     0
370
    18
100
AcDbPoint
 10
37.14061843920001
 20
-3.971
 30
0.0
  0
POINT
  5
47F
330
245
100
AcDbEntity
  8
Defpoints
 62
     0
370
    18
100
AcDbPoint
 10
49.90252862747921
 20
-3.971000000000003
 30
0.0
  0
ENDBLK
  5
251
330
245
100
AcDbEntity
  8
0
370
    18
100
AcDbBlockEnd
  0
BLOCK
  5
25E
330
253
100
AcDbEntity
  8
0
370
    18
100
AcDbBlockBegin
  2
*D9
 70
     1
 10
0.0
 20
0.0
 30
0.0
  3
*D9
  1

  0
LINE
  5
46C
330
253
100
AcDbEntity
  8
SK2
 62
     0
370
    -2
100
AcDbLine
 10
13.00016925561907
 20
3.984958848076599
 30
0.0
 11
13.00016925561907
 21
12.29182593034648
 31
0.0
  0
LINE
  5
46D
330
253
100
AcDbEntity
  8
SK2
 62
     0
370
    -2
100
AcDbLine
 10
45.0
 20
0.0624999999999996
 30
0.0
 11
45.0
 21
12.29182593034648
 31
0.0
  0
LINE
  5
46E
330
253
100
AcDbEntity
  8
SK2
 62
     0
370
    -2
100
AcDbLine
 10
16.00016925561907
 20
12.11182593034648
 30
0.0
 11
42.0
 21
12.11182593034648
 31
0.0
  0
SOLID
  5
46F
330
253
100
AcDbEntity
  8
SK2
 62
     0
370
    18
100
AcDbTrace
 10
16.00016925561907
 20
12.61182593034648
 30
0.0
 11
16.00016925561907
 21
11.61182593034648
 31
0.0
 12
13.00016925561907
 22
12.11182593034648
 32
0.0
 13
13.00016925561907
 23
12.11182593034648
 33
0.0
  0
SOLID
  5
470
330
253
100
AcDbEntity
  8
SK2
 62
     0
370
    18
100
AcDbTrace
 10
42.0
 20
12.61182593034648
 30
0.0
 11
42.0
 21
11.61182593034648
 31
0.0
 12
45.0
 22
12.11182593034648
 32
0.0
 13
45.0
 23
12.11182593034648
 33
0.0
  0
MTEXT
  5
471
330
253
100
AcDbEntity
  8
SK2
 62
     0
370
    18
100
AcDbMText
 10
29.00008462780954
 20
15.06182593034648
 30
0.0
 40
3.5
 41
0.0
 71
     5
 72
     1
  1
\A1;32.00
 73
     1
 44
1.0
  0
POINT
  5
472
330
253
100
AcDbEntity
  8
Defpoints
 62
     0
370
    18
100
AcDbPoint
 10
13.00016925561907
 20
3.922458848076599
 30
0.0
  0
POINT
  5
473
330
253
100
AcDbEntity
  8
Defpoints
 62
     0
370
    18
100
AcDbPoint
 10
45.0
 20
-0.0000000000000004
 30
0.0
  0
POINT
  5
474
330
253
100
AcDbEntity
  8
Defpoints
 62
     0
370
    18
100
AcDbPoint
 10
45.0
 20
12.11182593034648
 30
0.0
  0
ENDBLK
  5
25F
330
253
100
AcDbEntity
  8
0
370
    18
100
AcDbBlockEnd
  0
BLOCK
  5
26C
330
261
100
AcDbEntity
  8
0
370
    18
100
AcDbBlockBegin
  2
*D10
 70
     1
 10
0.0
 20
0.0
 30
0.0
  3
*D10
  1

  0
LINE
  5
463
330
261
100
AcDbEntity
  8
SK2
 62
     0
370
    -2
100
AcDbLine
 10
0.0
 20
-4.0625
 30
0.0
 11
-0.0000000000000006
 21
-13.16621059814216
 31
0.0
  0
LINE
  5
464
330
261
100
AcDbEntity
  8
SK2
 62
     0
370
    -2
100
AcDbLine
 10
41.7078028876334
 20
-3.884999999999999
 30
0.0
 11
41.7078028876334
 21
-13.16621059814216
 31
0.0
  0
LINE
  5
465
330
261
100
AcDbEntity
  8
SK2
 62
     0
370
    -2
100
AcDbLine
 10
2.999999999999998
 20
-12.98621059814216
 30
0.0
 11
38.70780288763343
 21
-12.98621059814216
 31
0.0
  0
SOLID
  5
466
330
261
100
AcDbEntity
  8
SK2
 62
     0
370
    18
100
AcDbTrace
 10
2.999999999999998
 20
-12.48621059814216
 30
0.0
 11
2.999999999999998
 21
-13.48621059814216
 31
0.0
 12
-0.0000000000000006
 22
-12.98621059814216
 32
0.0
 13
-0.0000000000000006
 23
-12.98621059814216
 33
0.0
  0
SOLID
  5
467
330
261
100
AcDbEntity
  8
SK2
 62
     0
370
    18
100
AcDbTrace
 10
38.70780288763343
 20
-12.48621059814216
 30
0.0
 11
38.70780288763343
 21
-13.48621059814216
 31
0.0
 12
41.7078028876334
 22
-12.98621059814216
 32
0.0
 13
41.7078028876334
 23
-12.98621059814216
 33
0.0
  0
MTEXT
  5
468
330
261
100
AcDbEntity
  8
SK2
 62
     0
370
    18
100
AcDbMText
 10
20.85390144381671
 20
-10.03621059814216
 30
0.0
 40
3.5
 41
0.0
 71
     5
 72
     1
  1
\A1;41.71
 73
     1
 44
1.0
  0
POINT
  5
469
330
261
100
AcDbEntity
  8
Defpoints
 62
     0
370
    18
100
AcDbPoint
 10
0.0
 20
-4.0
 30
0.0
  0
POINT
  5
46A
330
261
100
AcDbEntity
  8
Defpoints
 62
     0
370
    18
100
AcDbPoint
 10
41.7078028876334
 20
-3.822499999999999
 30
0.0
  0
POINT
  5
46B
330
261
100
AcDbEntity
  8
Defpoints
 62
     0
370
    18
100
AcDbPoint
 10
41.7078028876334
 20
-12.98621059814216
 30
0.0
  0
ENDBLK
  5
26D
330
261
100
AcDbEntity
  8
0
370
    18
100
AcDbBlockEnd
  0
BLOCK
  5
27A
330
26F
100
AcDbEntity
  8
0
370
    18
100
AcDbBlockBegin
  2
*D11
 70
     1
 10
0.0
 20
0.0
 30
0.0
  3
*D11
  1

  0
LINE
  5
45A
330
26F
100
AcDbEntity
  8
SK2
 62
     0
370
    -2
100
AcDbLine
 10
-36.0
 20
-3.7625
 30
0.0
 11
-36.0
 21
-22.20545446050952
 31
0.0
  0
LINE
  5
45B
330
26F
100
AcDbEntity
  8
SK2
 62
     0
370
    -2
100
AcDbLine
 10
41.70780288763331
 20
-3.884999999999981
 30
0.0
 11
41.70780288763331
 21
-22.20545446050952
 31
0.0
  0
LINE
  5
45C
330
26F
100
AcDbEntity
  8
SK2
 62
     0
370
    -2
100
AcDbLine
 10
-33.0
 20
-22.02545446050952
 30
0.0
 11
38.70780288763331
 21
-22.02545446050952
 31
0.0
  0
SOLID
  5
45D
330
26F
100
AcDbEntity
  8
SK2
 62
     0
370
    18
100
AcDbTrace
 10
-33.0
 20
-21.52545446050952
 30
0.0
 11
-33.0
 21
-22.52545446050952
 31
0.0
 12
-36.0
 22
-22.02545446050952
 32
0.0
 13
-36.0
 23
-22.02545446050952
 33
0.0
  0
SOLID
  5
45E
330
26F
100
AcDbEntity
  8
SK2
 62
     0
370
    18
100
AcDbTrace
 10
38.70780288763331
 20
-21.52545446050952
 30
0.0
 11
38.70780288763331
 21
-22.52545446050952
 31
0.0
 12
41.70780288763331
 22
-22.02545446050952
 32
0.0
 13
41.70780288763331
 23
-22.02545446050952
 33
0.0
  0
MTEXT
  5
45F
330
26F
100
AcDbEntity
  8
SK2
 62
     0
370
    18
100
AcDbMText
 10
2.853901443816653
 20
-19.07545446050952
 30
0.0
 40
3.5
 41
0.0
 71
     5
 72
     1
  1
\A1;77.71
 73
     1
 44
1.0
  0
POINT
  5
460
330
26F
100
AcDbEntity
  8
Defpoints
 62
     0
370
    18
100
AcDbPoint
 10
-36.0
 20
-3.7
 30
0.0
  0
POINT
  5
461
330
26F
100
AcDbEntity
  8
Defpoints
 62
     0
370
    18
100
AcDbPoint
 10
41.70780288763331
 20
-3.822499999999981
 30
0.0
  0
POINT
  5
462
330
26F
100
AcDbEntity
  8
Defpoints
 62
     0
370
    18
100
AcDbPoint
 10
41.70780288763331
 20
-22.02545446050952
 30
0.0
  0
ENDBLK
  5
27B
330
26F
100
AcDbEntity
  8
0
370
    18
100
AcDbBlockEnd
  0
BLOCK
  5
288
330
27D
100
AcDbEntity
  8
0
370
    18
100
AcDbBlockBegin
  2
*D12
 70
     1
 10
0.0
 20
0.0
 30
0.0
  3
*D12
  1

  0
LINE
  5
451
330
27D
100
AcDbEntity
  8
SK2
 62
     0
370
    -2
100
AcDbLine
 10
-36.0
 20
-3.7625
 30
0.0
 11
-36.0
 21
-31.87205454918658
 31
0.0
  0
LINE
  5
452
330
27D
100
AcDbEntity
  8
SK2
 62
     0
370
    -2
100
AcDbLine
 10
45.0
 20
-0.0625000000000005
 30
0.0
 11
45.0
 21
-31.87205454918658
 31
0.0
  0
LINE
  5
453
330
27D
100
AcDbEntity
  8
SK2
 62
     0
370
    -2
100
AcDbLine
 10
-33.0
 20
-31.69205454918658
 30
0.0
 11
42.0
 21
-31.69205454918658
 31
0.0
  0
SOLID
  5
454
330
27D
100
AcDbEntity
  8
SK2
 62
     0
370
    18
100
AcDbTrace
 10
-33.0
 20
-31.19205454918658
 30
0.0
 11
-33.0
 21
-32.19205454918658
 31
0.0
 12
-36.0
 22
-31.69205454918658
 32
0.0
 13
-36.0
 23
-31.69205454918658
 33
0.0
  0
SOLID
  5
455
330
27D
100
AcDbEntity
  8
SK2
 62
     0
370
    18
100
AcDbTrace
 10
42.0
 20
-31.19205454918658
 30
0.0
 11
42.0
 21
-32.19205454918658
 31
0.0
 12
45.0
 22
-31.69205454918658
 32
0.0
 13
45.0
 23
-31.69205454918658
 33
0.0
  0
MTEXT
  5
456
330
27D
100
AcDbEntity
  8
SK2
 62
     0
370
    18
100
AcDbMText
 10
4.5
 20
-28.74205454918658
 30
0.0
 40
3.5
 41
0.0
 71
     5
 72
     1
  1
\A1;81.00
 73
     1
 44
1.0
  0
POINT
  5
457
330
27D
100
AcDbEntity
  8
Defpoints
 62
     0
370
    18
100
AcDbPoint
 10
-36.0
 20
-3.7
 30
0.0
  0
POINT
  5
458
330
27D
100
AcDbEntity
  8
Defpoints
 62
     0
370
    18
100
AcDbPoint
 10
45.0
 20
-0.0000000000000004
 30
0.0
  0
POINT
  5
459
330
27D
100
AcDbEntity
  8
Defpoints
 62
     0
370
    18
100
AcDbPoint
 10
45.0
 20
-31.69205454918658
 30
0.0
  0
ENDBLK
  5
289
330
27D
100
AcDbEntity
  8
0
370
    18
100
AcDbBlockEnd
  0
BLOCK
  5
296
330
28B
100
AcDbEntity
  8
0
370
    18
100
AcDbBlockBegin
  2
*D13
 70
     1
 10
0.0
 20
0.0
 30
0.0
  3
*D13
  1

  0
LINE
  5
447
330
28B
100
AcDbEntity
  8
SK2
 62
     0
370
    -2
100
AcDbLine
 10
45.0
 20
-0.1250000000000004
 30
0.0
 11
45.0
 21
-17.30307960258418
 31
0.0
  0
LINE
  5
448
330
28B
100
AcDbEntity
  8
SK2
 62
     0
370
    -2
100
AcDbLine
 10
41.70780288763331
 20
-3.884999999999981
 30
0.0
 11
41.70780288763331
 21
-17.30307960258418
 31
0.0
  0
LINE
  5
449
330
28B
100
AcDbEntity
  8
SK2
 62
     0
370
    -2
100
AcDbLine
 10
38.70780288763331
 20
-17.12307960258418
 30
0.0
 11
35.70780288763331
 21
-17.12307960258418
 31
0.0
  0
LINE
  5
44A
330
28B
100
AcDbEntity
  8
SK2
 62
     0
370
    -2
100
AcDbLine
 10
48.0
 20
-17.12307960258418
 30
0.0
 11
63.9
 21
-17.12307960258418
 31
0.0
  0
SOLID
  5
44B
330
28B
100
AcDbEntity
  8
SK2
 62
     0
370
    18
100
AcDbTrace
 10
38.70780288763331
 20
-16.62307960258418
 30
0.0
 11
38.70780288763331
 21
-17.62307960258418
 31
0.0
 12
41.70780288763331
 22
-17.12307960258418
 32
0.0
 13
41.70780288763331
 23
-17.12307960258418
 33
0.0
  0
SOLID
  5
44C
330
28B
100
AcDbEntity
  8
SK2
 62
     0
370
    18
100
AcDbTrace
 10
48.0
 20
-16.62307960258418
 30
0.0
 11
48.0
 21
-17.62307960258418
 31
0.0
 12
45.0
 22
-17.12307960258418
 32
0.0
 13
45.0
 23
-17.12307960258418
 33
0.0
  0
MTEXT
  5
44D
330
28B
100
AcDbEntity
  8
SK2
 62
     0
370
    18
100
AcDbMText
 10
57.45
 20
-14.17307960258418
 30
0.0
 40
3.5
 41
0.0
 71
     5
 72
     1
  1
\A1;3.29
 73
     1
 44
1.0
  0
POINT
  5
44E
330
28B
100
AcDbEntity
  8
Defpoints
 62
     0
370
    18
100
AcDbPoint
 10
45.0
 20
-0.0625000000000005
 30
0.0
  0
POINT
  5
44F
330
28B
100
AcDbEntity
  8
Defpoints
 62
     0
370
    18
100
AcDbPoint
 10
41.70780288763331
 20
-3.822499999999981
 30
0.0
  0
POINT
  5
450
330
28B
100
AcDbEntity
  8
Defpoints
 62
     0
370
    18
100
AcDbPoint
 10
41.70780288763331
 20
-17.12307960258418
 30
0.0
  0
ENDBLK
  5
297
330
28B
100
AcDbEntity
  8
0
370
    18
100
AcDbBlockEnd
  0
BLOCK
  5
2A4
330
299
100
AcDbEntity
  8
0
370
    18
100
AcDbBlockBegin
  2
*D14
 70
     1
 10
0.0
 20
0.0
 30
0.0
  3
*D14
  1

  0
LINE
  5
43C
330
299
100
AcDbEntity
  8
SK2
 62
     0
370
    -2
100
AcDbLine
 10
-35.7625
 20
4.0
 30
0.0
 11
-42.02170702027518
 21
4.0
 31
0.0
  0
LINE
  5
43D
330
299
100
AcDbEntity
  8
SK2
 62
     0
370
    -2
100
AcDbLine
 10
-35.7625
 20
-4.0
 30
0.0
 11
-42.02170702027518
 21
-3.999999999999998
 31
0.0
  0
LINE
  5
43E
330
299
100
AcDbEntity
  8
SK2
 62
     0
370
    -2
100
AcDbLine
 10
-41.84170702027517
 20
-6.999999999999999
 30
0.0
 11
-41.84170702027517
 21
-9.999999999999998
 31
0.0
  0
LINE
  5
43F
330
299
100
AcDbEntity
  8
SK2
 62
     0
370
    -2
100
AcDbLine
 10
-41.84170702027517
 20
7.0
 30
0.0
 11
-41.84170702027517
 21
11.93740262417659
 31
0.0
  0
LINE
  5
440
330
299
100
AcDbEntity
  8
SK2
 62
     0
370
    -2
100
AcDbLine
 10
-41.84170702027517
 20
11.93740262417659
 30
0.0
 11
-24.89170702027519
 21
11.93740262417659
 31
0.0
  0
SOLID
  5
441
330
299
100
AcDbEntity
  8
SK2
 62
     0
370
    18
100
AcDbTrace
 10
-42.34170702027518
 20
-6.999999999999997
 30
0.0
 11
-41.34170702027518
 21
-6.999999999999999
 31
0.0
 12
-41.84170702027517
 22
-3.999999999999998
 32
0.0
 13
-41.84170702027517
 23
-3.999999999999998
 33
0.0
  0
SOLID
  5
442
330
299
100
AcDbEntity
  8
SK2
 62
     0
370
    18
100
AcDbTrace
 10
-42.34170702027518
 20
7.000000000000002
 30
0.0
 11
-41.34170702027518
 21
7.0
 31
0.0
 12
-41.84170702027517
 22
4.0
 32
0.0
 13
-41.84170702027517
 23
4.0
 33
0.0
  0
MTEXT
  5
443
330
299
100
AcDbEntity
  8
SK2
 62
     0
370
    18
100
AcDbMText
 10
-32.76670702027519
 20
14.88740262417658
 30
0.0
 40
3.5
 41
0.0
 71
     5
 72
     1
  1
\A1;%%c8.000
 73
     1
 44
1.0
  0
POINT
  5
444
330
299
100
AcDbEntity
  8
Defpoints
 62
     0
370
    18
100
AcDbPoint
 10
-35.7
 20
4.0
 30
0.0
  0
POINT
  5
445
330
299
100
AcDbEntity
  8
Defpoints
 62
     0
370
    18
100
AcDbPoint
 10
-35.7
 20
-4.0
 30
0.0
  0
POINT
  5
446
330
299
100
AcDbEntity
  8
Defpoints
 62
     0
370
    18
100
AcDbPoint
 10
-41.84170702027517
 20
-3.999999999999998
 30
0.0
  0
ENDBLK
  5
2A5
330
299
100
AcDbEntity
  8
0
370
    18
100
AcDbBlockEnd
  0
ENDSEC
  0
SECTION
  2
ENTITIES
  0
POINT
  5
6E
330
1F
100
AcDbEntity
  8
80
370
    18
100
AcDbPoint
 10
0.0
 20
0.0
 30
0.0
 50
360.0
  0
POINT
  5
70
330
1F
100
AcDbEntity
  8
SK2
 60
     1
370
    18
100
AcDbPoint
 10
-36.0
 20
-3.0
 30
0.0
 50
360.0
  0
POINT
  5
72
330
1F
100
AcDbEntity
  8
SK2
 60
     1
370
    18
100
AcDbPoint
 10
-36.0
 20
3.0
 30
0.0
 50
360.0
  0
POINT
  5
73
330
1F
100
AcDbEntity
  8
2
 60
     1
370
    18
100
AcDbPoint
 10
25.5709
 20
-1.5
 30
0.0
 50
360.0
  0
POINT
  5
75
330
1F
100
AcDbEntity
  8
2
 60
     1
370
    18
100
AcDbPoint
 10
25.5709
 20
1.5
 30
0.0
 50
360.0
  0
LINE
  5
76
330
1F
100
AcDbEntity
  8
81
370
    18
100
AcDbLine
 10
45.0
 20
0.0
 30
0.0
 11
50.0
 21
0.0
 31
0.0
  0
LINE
  5
85
330
1F
100
AcDbEntity
  8
SK4
 48
0.05
370
    18
100
AcDbLine
 10
48.24528865033989
 20
-0.0000000000000004
 30
0.0
 11
-40.47823437178572
 21
-0.0000000000000004
 31
0.0
  0
LINE
  5
87
330
1F
100
AcDbEntity
  8
4
 48
0.05
370
    18
100
AcDbLine
 10
45.0
 20
0.0624999999999996
 30
0.0
 11
0.0
 21
-0.0000000000000004
 31
0.0
  0
LINE
  5
89
330
1F
100
AcDbEntity
  8
80
370
    18
100
AcDbLine
 10
0.0
 20
-0.0000000000000004
 30
0.0
 11
-5.0
 21
-0.0000000000000004
 31
0.0
  0
MTEXT
  5
CD
330
1F
100
AcDbEntity
  8
SK6
370
    13
100
AcDbMText
 10
6.57823728984415
 20
25.75311359327735
 30
0.0
 40
3.5
 41
0.0
 71
     8
 72
     5
  1
\W0.7645;863.1-0794-032A1-OS
  7
iso_b_vert
 73
     1
 44
1.084337
  0
LINE
  5
1F5
330
1F
100
AcDbEntity
  8
1
  6
Continuous
370
    15
100
AcDbLine
 10
13.0
 20
-0.2519162057999997
 30
0.0
 11
12.2729088935
 21
0.1400897751999999
 31
0.0
  0
LINE
  5
1F6
330
1F
100
AcDbEntity
  8
SK1
  6
Continuous
370
    15
100
AcDbLine
 10
-36.0
 20
-3.7
 30
0.0
 11
-36.0
 21
3.7
 31
0.0
  0
LINE
  5
1F7
330
1F
100
AcDbEntity
  8
SK1
  6
Continuous
370
    15
100
AcDbLine
 10
-35.7
 20
4.0
 30
0.0
 11
-35.7
 21
-4.0
 31
0.0
  0
LINE
  5
1F8
330
1F
100
AcDbEntity
  8
SK1
  6
Continuous
370
    15
100
AcDbLine
 10
0.0
 20
-4.0
 30
0.0
 11
0.0
 21
4.0
 31
0.0
  0
LINE
  5
1F9
330
1F
100
AcDbEntity
  8
1
  6
Continuous
370
    15
100
AcDbLine
 10
43.23975611420002
 20
-2.724256999599999
 30
0.0
 11
45.0
 21
0.0
 31
0.0
  0
LINE
  5
1FA
330
1F
100
AcDbEntity
  8
1
  6
Continuous
370
    15
100
AcDbLine
 10
45.0
 20
0.0
 30
0.0
 11
41.70780288759999
 21
-3.822499999999998
 31
0.0
  0
LINE
  5
1FB
330
1F
100
AcDbEntity
  8
1
  6
Continuous
370
    15
100
AcDbLine
 10
43.24000752809999
 20
2.723867896599998
 30
0.0
 11
45.0
 21
0.0
 31
0.0
  0
LINE
  5
1FC
330
1F
100
AcDbEntity
  8
1
  6
Continuous
370
    15
100
AcDbLine
 10
43.18977623310003
 20
0.5495356479
 30
0.0
 11
44.13425173920001
 21
0.2628180780999996
 31
0.0
  0
LINE
  5
1FD
330
1F
100
AcDbEntity
  8
1
  6
Continuous
370
    15
100
AcDbLine
 10
44.13425173920001
 20
0.2628180780999996
 30
0.0
 11
43.38930229800001
 21
1.7264378318
 31
0.0
  0
LINE
  5
1FE
330
1F
100
AcDbEntity
  8
1
  6
Continuous
370
    15
100
AcDbLine
 10
42.91991503809997
 20
2.006777451199999
 30
0.0
 11
42.92030066719999
 21
2.006638957899999
 31
0.0
  0
LINE
  5
1FF
330
1F
100
AcDbEntity
  8
1
  6
Continuous
370
    15
100
AcDbLine
 10
42.8478179424
 20
2.0511907566
 30
0.0
 11
42.8478179424
 21
2.6910836419
 31
0.0
  0
LINE
  5
201
330
1F
100
AcDbEntity
  8
1
  6
Continuous
370
    15
100
AcDbLine
 10
14.087320864
 20
-3.9568681457
 30
0.0
 11
13.0001594789
 21
-3.9218043251
 31
0.0
  0
LINE
  5
202
330
1F
100
AcDbEntity
  8
1
  6
Continuous
370
    15
100
AcDbLine
 10
15.5844212187
 20
3.9599205605
 30
0.0
 11
15.471528745
 21
3.956414220699998
 31
0.0
  0
LINE
  5
203
330
1F
100
AcDbEntity
  8
1
  6
Continuous
370
    15
100
AcDbLine
 10
37.21586814630001
 20
-3.9479475229
 30
0.0
 11
37.14061843920001
 21
-3.949808823399998
 31
0.0
  0
LINE
  5
205
330
1F
100
AcDbEntity
  8
SK1
  6
Continuous
370
    15
100
AcDbLine
 10
-36.0
 20
-3.7
 30
0.0
 11
-35.7
 21
-4.0
 31
0.0
  0
LINE
  5
206
330
1F
100
AcDbEntity
  8
SK1
  6
Continuous
370
    15
100
AcDbLine
 10
-35.7
 20
4.0
 30
0.0
 11
-36.0
 21
3.7
 31
0.0
  0
LINE
  5
207
330
1F
100
AcDbEntity
  8
SK1
  6
Continuous
370
    15
100
AcDbLine
 10
-35.7
 20
-4.0
 30
0.0
 11
0.0
 21
-4.0
 31
0.0
  0
LINE
  5
208
330
1F
100
AcDbEntity
  8
SK1
  6
Continuous
370
    15
100
AcDbLine
 10
0.0
 20
4.0
 30
0.0
 11
-35.7
 21
4.0
 31
0.0
  0
LINE
  5
209
330
1F
100
AcDbEntity
  8
1
  6
Continuous
370
    15
100
AcDbLine
 10
37.23189394720001
 20
3.9686633629
 30
0.0
 11
37.14749833400001
 21
3.9710000285
 31
0.0
  0
LINE
  5
20A
330
1F
100
AcDbEntity
  8
1
  6
Continuous
370
    15
100
AcDbLine
 10
15.4775864474
 20
-3.9709999885
 30
0.0
 11
15.60386205359999
 21
-3.967692242699998
 31
0.0
  0
LINE
  5
20B
330
1F
100
AcDbEntity
  8
1
  6
Continuous
370
    15
100
AcDbLine
 10
0.0
 20
-3.971
 30
0.0
 11
3.486250567099999
 21
-3.971
 31
0.0
  0
LINE
  5
20C
330
1F
100
AcDbEntity
  8
1
  6
Continuous
370
    15
100
AcDbLine
 10
14.087320864
 20
-3.971
 30
0.0
 11
15.47878685809999
 21
-3.971
 31
0.0
  0
LINE
  5
20D
330
1F
100
AcDbEntity
  8
1
  6
Continuous
370
    15
100
AcDbLine
 10
35.74818126029999
 20
-3.971
 30
0.0
 11
37.14061843920001
 21
-3.971
 31
0.0
  0
LINE
  5
20E
330
1F
100
AcDbEntity
  8
1
  6
Continuous
370
    15
100
AcDbLine
 10
37.1478888682
 20
3.971
 30
0.0
 11
35.75545345400003
 21
3.971
 31
0.0
  0
LINE
  5
20F
330
1F
100
AcDbEntity
  8
1
  6
Continuous
370
    15
100
AcDbLine
 10
15.471528745
 20
3.971
 30
0.0
 11
14.0800613378
 21
3.971
 31
0.0
  0
LINE
  5
210
330
1F
100
AcDbEntity
  8
1
  6
Continuous
370
    15
100
AcDbLine
 10
3.486250567099999
 20
3.971
 30
0.0
 11
0.0
 21
3.971
 31
0.0
  0
LINE
  5
211
330
1F
100
AcDbEntity
  8
1
  6
Continuous
370
    15
100
AcDbLine
 10
15.74656662009999
 20
3.964956652399998
 30
0.0
 11
15.4703190978
 21
3.970999987799998
 31
0.0
  0
SPLINE
  5
212
330
1F
100
AcDbEntity
  8
1
  6
Continuous
370
    15
100
AcDbSpline
210
0.0
220
0.0
230
1.0
 70
     8
 71
     3
 72
     9
 73
     5
 74
     0
 42
0.0000000001
 43
0.0000000001
 40
0.0
 40
0.0
 40
0.0
 40
0.0
 40
0.4092752109881114
 40
1.0
 40
1.0
 40
1.0
 40
1.0
 10
4.832147411449851
 20
-3.157704969819148
 30
0.0
 10
4.451887057635473
 20
-3.210207741127995
 30
0.0
 10
3.522780325526511
 20
-3.33849005556891
 30
0.0
 10
2.627051168166544
 20
-3.354193754147226
 30
0.0
 10
2.097921750673293
 20
-3.363470318176608
 30
0.0
  0
SPLINE
  5
213
330
1F
100
AcDbEntity
  8
1
  6
Continuous
370
    15
100
AcDbSpline
210
0.0
220
0.0
230
1.0
 70
     8
 71
     3
 72
    14
 73
    10
 74
     0
 42
0.0000000001
 43
0.0000000001
 40
0.0
 40
0.0
 40
0.0
 40
0.0
 40
0.1523157577864334
 40
0.3046828646354356
 40
0.4570743247296262
 40
0.609463014707773
 40
0.7618218257276991
 40
0.9114142364919477
 40
1.0
 40
1.0
 40
1.0
 40
1.0
 10
43.14994374169947
 20
0.5523978774333465
 30
0.0
 10
42.5196818800421
 20
0.7319763384448548
 30
0.0
 10
41.25894568129972
 20
1.091193800399945
 30
0.0
 10
39.36758156118316
 20
1.537466421924744
 30
0.0
 10
37.47590158324579
 20
1.871467836956987
 30
0.0
 10
35.58425816620101
 20
2.066496167873022
 30
0.0
 10
33.7042144130466
 20
2.10112504550123
 30
0.0
 10
32.08823564796211
 20
2.017028833460495
 30
0.0
 10
31.10271831950735
 20
1.870118481100885
 30
0.0
 10
30.73617421756217
 20
1.815478018049326
 30
0.0
  0
SPLINE
  5
214
330
1F
100
AcDbEntity
  8
1
  6
Continuous
370
    15
100
AcDbSpline
210
0.0
220
0.0
230
1.0
 70
     8
 71
     3
 72
    10
 73
     6
 74
     0
 42
0.0000000001
 43
0.0000000001
 40
0.0
 40
0.0
 40
0.0
 40
0.0
 40
0.1681285746943233
 40
0.583997102378802
 40
1.0
 40
1.0
 40
1.0
 40
1.0
 10
16.36314503211532
 20
-3.803518768758211
 30
0.0
 10
16.17467629410461
 20
-3.808665272476011
 30
0.0
 10
15.52002733221726
 20
-3.826541729610321
 30
0.0
 10
14.39908976595367
 20
-3.700591758117211
 30
0.0
 10
13.46651733824639
 20
-3.491546877411746
 30
0.0
 10
13.0001558064444
 20
-3.387007553832508
 30
0.0
  0
SPLINE
  5
215
330
1F
100
AcDbEntity
  8
1
  6
Continuous
370
    15
100
AcDbSpline
210
0.0
220
0.0
230
1.0
 70
     8
 71
     3
 72
    10
 73
     6
 74
     0
 42
0.0000000001
 43
0.0000000001
 40
0.0
 40
0.0
 40
0.0
 40
0.0
 40
0.478396647898154
 40
0.9568046800432751
 40
1.0
 40
1.0
 40
1.0
 40
1.0
 10
43.15121553627159
 20
2.80322347592306
 30
0.0
 10
42.61075381840456
 20
2.987784642517627
 30
0.0
 10
41.5298175214816
 20
3.356911367647859
 30
0.0
 10
40.40007761273963
 20
3.635878909523051
 30
0.0
 10
39.81079790528406
 20
3.685105989490701
 30
0.0
 10
39.7619981316534
 20
3.689182611048381
 30
0.0
  0
SPLINE
  5
216
330
1F
100
AcDbEntity
  8
1
  6
Continuous
370
    15
100
AcDbSpline
210
0.0
220
0.0
230
1.0
 70
     8
 71
     3
 72
    18
 73
    14
 74
     0
 42
0.0000000001
 43
0.0000000001
 40
0.0
 40
0.0
 40
0.0
 40
0.0
 40
0.0476568160406227
 40
0.1518144290315832
 40
0.2559721012811682
 40
0.3490331366713291
 40
0.4420616052353836
 40
0.5350653523904284
 40
0.6280525369970015
 40
0.7210313656051893
 40
0.8140100688641469
 40
0.9069968777847442
 40
1.0
 40
1.0
 40
1.0
 40
1.0
 10
29.1072224643292
 20
-2.256634580866306
 30
0.0
 10
28.85132980246189
 20
-2.354067449279614
 30
0.0
 10
28.03616417491261
 20
-2.664447296612831
 30
0.0
 10
26.66172566717138
 20
-3.034875115866796
 30
0.0
 10
25.04349020922536
 20
-3.325651729320161
 30
0.0
 10
23.48500989135812
 20
-3.426023266823932
 30
0.0
 10
21.98652552916991
 20
-3.363326150640151
 30
0.0
 10
20.48849038900852
 20
-3.142122482336066
 30
0.0
 10
18.99076354550489
 20
-2.773424254426615
 30
0.0
 10
17.4931911553348
 20
-2.274475985438298
 30
0.0
 10
15.99562008345832
 20
-1.668464348689274
 30
0.0
 10
14.49790319821547
 20
-0.9848875479664988
 30
0.0
 10
13.49933026122673
 20
-0.4962542734778685
 30
0.0
 10
13.0
 20
-0.2519162070665604
 30
0.0
  0
SPLINE
  5
217
330
1F
100
AcDbEntity
  8
1
  6
Continuous
370
    15
100
AcDbSpline
210
0.0
220
0.0
230
1.0
 70
     8
 71
     3
 72
    11
 73
     7
 74
     0
 42
0.0000000001
 43
0.0000000001
 40
0.0
 40
0.0
 40
0.0
 40
0.0
 40
0.2814202922497604
 40
0.5628356510362204
 40
0.8442457612656934
 40
1.0
 40
1.0
 40
1.0
 40
1.0
 10
40.23487569077018
 20
-2.621014997419977
 30
0.0
 10
39.66547095777247
 20
-2.426637472870733
 30
0.0
 10
38.52667147377701
 20
-2.03788583132462
 30
0.0
 10
36.8184936937199
 20
-1.28744688248723
 30
0.0
 10
35.36458133071113
 20
-0.5919605644148152
 30
0.0
 10
34.48006405929368
 20
-0.1554398062676463
 30
0.0
 10
34.1649255659936
 20
0.0000851319806179
 30
0.0
  0
SPLINE
  5
218
330
1F
100
AcDbEntity
  8
1
  6
Continuous
370
    15
100
AcDbSpline
210
0.0
220
0.0
230
1.0
 70
     8
 71
     3
 72
    15
 73
    11
 74
     0
 42
0.0000000001
 43
0.0000000001
 40
0.0
 40
0.0
 40
0.0
 40
0.0
 40
0.0228207704638192
 40
0.1624491995215254
 40
0.3021012125962432
 40
0.4417506495593325
 40
0.5813713642730455
 40
0.7209373664016662
 40
0.8604416478893405
 40
1.0
 40
1.0
 40
1.0
 40
1.0
 10
26.57509486428421
 20
-0.9410078568300964
 30
0.0
 10
26.47183267806534
 20
-0.91491960160704
 30
0.0
 10
25.73676286441946
 20
-0.7292108769775246
 30
0.0
 10
24.36971935573553
 20
-0.3144508604989173
 30
0.0
 10
22.47402088968812
 20
0.2578070643708745
 30
0.0
 10
20.5783516692577
 20
0.8176038383571562
 30
0.0
 10
18.68309816416953
 20
1.314937678622659
 30
0.0
 10
16.78853890330323
 20
1.711129125569285
 30
0.0
 10
14.89434810794782
 20
1.99012208343575
 30
0.0
 10
13.63160126605257
 20
2.04874267885301
 30
0.0
 10
13.00010551144183
 20
2.078058655666857
 30
0.0
  0
SPLINE
  5
219
330
1F
100
AcDbEntity
  8
1
  6
Continuous
370
    15
100
AcDbSpline
210
0.0
220
0.0
230
1.0
 70
     8
 71
     3
 72
     9
 73
     5
 74
     0
 42
0.0000000001
 43
0.0000000001
 40
0.0
 40
0.0
 40
0.0
 40
0.0
 40
0.4621093762878983
 40
1.0
 40
1.0
 40
1.0
 40
1.0
 10
15.60106020658456
 20
-3.960513917208364
 30
0.0
 10
15.20043788707519
 20
-3.958472354472516
 30
0.0
 10
14.33349525386667
 20
-3.954054433433451
 30
0.0
 10
13.46646991233785
 20
-3.80011319733768
 30
0.0
 10
13.00010511060874
 20
-3.717309649839113
 30
0.0
  0
SPLINE
  5
21A
330
1F
100
AcDbEntity
  8
1
  6
Continuous
370
    15
100
AcDbSpline
210
0.0
220
0.0
230
1.0
 70
     8
 71
     3
 72
    11
 73
     7
 74
     0
 42
0.0000000001
 43
0.0000000001
 40
0.0
 40
0.0
 40
0.0
 40
0.0
 40
0.2711053894976674
 40
0.54224281221684
 40
0.8134204900363924
 40
1.0
 40
1.0
 40
1.0
 40
1.0
 10
42.84781823238985
 20
2.691084716474247
 30
0.0
 10
42.33274608965102
 20
2.896480459586796
 30
0.0
 10
41.30254094437241
 20
3.307296214924903
 30
0.0
 10
39.75708066962415
 20
3.715264175794426
 30
0.0
 10
38.37218397417557
 20
3.947755032580743
 30
0.0
 10
37.50240597347522
 20
3.949087232875268
 30
0.0
 10
37.14788886816507
 20
3.949630230964126
 30
0.0
  0
SPLINE
  5
21B
330
1F
100
AcDbEntity
  8
1
  6
Continuous
370
    15
100
AcDbSpline
210
0.0
220
0.0
230
1.0
 70
     8
 71
     3
 72
    24
 73
    20
 74
     0
 42
0.0000000001
 43
0.0000000001
 40
0.0
 40
0.0
 40
0.0
 40
0.0
 40
0.0220425232990894
 40
0.0865274636777326
 40
0.1509600795448763
 40
0.21536643287604
 40
0.2797727862072037
 40
0.3442054020743472
 40
0.4086903424529901
 40
0.4731752828316333
 40
0.5376078986987767
 40
0.6020142520299406
 40
0.6664206053611041
 40
0.7308532212282479
 40
0.7953381616068912
 40
0.8603020184294321
 40
0.9252164789993098
 40
0.9901047875199715
 40
1.0
 40
1.0
 40
1.0
 40
1.0
 10
37.1406184392319
 20
-3.949808823421218
 30
0.0
 10
36.98220709805588
 20
-3.955920370106439
 30
0.0
 10
36.36036669513277
 20
-3.979911118653908
 30
0.0
 10
35.27547863529929
 20
-3.844877071430143
 30
0.0
 10
33.88644972104902
 20
-3.563401137875818
 30
0.0
 10
32.49807695588936
 20
-3.125368711808178
 30
0.0
 10
31.10970399382853
 20
-2.56440981305754
 30
0.0
 10
29.72067567068257
 20
-1.898754480710436
 30
0.0
 10
28.33076923027377
 20
-1.156778255408089
 30
0.0
 10
26.94086279283713
 20
-0.3679935923408233
 30
0.0
 10
25.55183446078314
 20
0.4358583477091324
 30
0.0
 10
24.16346153136647
 20
1.221950459916766
 30
0.0
 10
22.77508864452636
 20
1.958583530289574
 30
0.0
 10
21.38606018465583
 20
2.616481591162595
 30
0.0
 10
19.99271243639872
 20
3.1687175119752
 30
0.0
 10
18.59589962450394
 20
3.597358855221753
 30
0.0
 10
17.19648120398732
 20
3.864148588244978
 30
0.0
 10
16.19280708296449
 20
3.98301283914912
 30
0.0
 10
15.65551471700351
 20
3.962619030275238
 30
0.0
 10
15.58442121867742
 20
3.959920560486923
 30
0.0
  0
SPLINE
  5
21C
330
1F
100
AcDbEntity
  8
1
  6
Continuous
370
    15
100
AcDbSpline
210
0.0
220
0.0
230
1.0
 70
     8
 71
     3
 72
    11
 73
     7
 74
     0
 42
0.0000000001
 43
0.0000000001
 40
0.0
 40
0.0
 40
0.0
 40
0.0
 40
0.2898732936253234
 40
0.5813914715089338
 40
0.8757897054832357
 40
1.0
 40
1.0
 40
1.0
 40
1.0
 10
13.0
 20
2.078086644334913
 30
0.0
 10
12.49065771426657
 20
2.099292574516835
 30
0.0
 10
11.46908288306795
 20
2.141824767803742
 30
0.0
 10
9.940741786241103
 20
2.322382484110279
 30
0.0
 10
8.709532487913321
 20
2.515471015754354
 30
0.0
 10
7.997199518701223
 20
2.641687947711202
 30
0.0
 10
7.785834766485662
 20
2.679139268514135
 30
0.0
  0
SPLINE
  5
21D
330
1F
100
AcDbEntity
  8
1
  6
Continuous
370
    15
100
AcDbSpline
210
0.0
220
0.0
230
1.0
 70
     8
 71
     3
 72
    22
 73
    18
 74
     0
 42
0.0000000001
 43
0.0000000001
 40
0.0
 40
0.0
 40
0.0
 40
0.0
 40
0.0677038268205671
 40
0.1388864178237595
 40
0.2100106050860722
 40
0.281105478128519
 40
0.3522003511709656
 40
0.4233245384332783
 40
0.4945071294364704
 40
0.5656897204396625
 40
0.6368139077019751
 40
0.707908780744422
 40
0.7790036537868686
 40
0.8501278410491812
 40
0.9213104320523738
 40
0.9930210310738294
 40
1.0
 40
1.0
 40
1.0
 40
1.0
 10
37.98773388548881
 20
-3.80658412726337
 30
0.0
 10
37.5469495669804
 20
-3.79968834882519
 30
0.0
 10
36.64273251005147
 20
-3.785542472434431
 30
0.0
 10
35.27548640202642
 20
-3.552089191795963
 30
0.0
 10
33.88645251219561
 20
-3.189281922640796
 30
0.0
 10
32.49807700120226
 20
-2.692771529722675
 30
0.0
 10
31.10970102139257
 20
-2.088749557726476
 30
0.0
 10
29.72066853897601
 20
-1.399803791089559
 30
0.0
 10
28.33076923441812
 20
-0.6545726148613841
 30
0.0
 10
26.94086990797311
 20
0.1171542147686146
 30
0.0
 10
25.55183749115497
 20
0.8842721616312328
 30
0.0
 10
24.16346127095574
 20
1.615787811947575
 30
0.0
 10
22.77508665601212
 20
2.280890345744734
 30
0.0
 10
21.38604942012256
 20
2.858094386481941
 30
0.0
 10
19.99273028416938
 20
3.305128070586435
 30
0.0
 10
19.01695741536112
 20
3.565127184793751
 30
0.0
 10
18.50475048246528
 20
3.627267783870083
 30
0.0
 10
18.45932290722648
 20
3.63277902660935
 30
0.0
  0
SPLINE
  5
21E
330
1F
100
AcDbEntity
  8
1
  6
Continuous
370
    15
100
AcDbSpline
210
0.0
220
0.0
230
1.0
 70
     8
 71
     3
 72
     8
 73
     4
 74
     0
 42
0.0000000001
 43
0.0000000001
 40
0.0
 40
0.0
 40
0.0
 40
0.0
 40
0.0001516836331685
 40
0.0001516836331685
 40
0.0001516836331685
 40
0.0001516836331685
 10
43.15121553627159
 20
2.803223475923065
 30
0.0
 10
43.181425708322
 20
2.775659794403928
 30
0.0
 10
43.21108362951021
 20
2.749143176014196
 30
0.0
 10
43.24000752814581
 20
2.723867896560338
 30
0.0
  0
SPLINE
  5
21F
330
1F
100
AcDbEntity
  8
1
  6
Continuous
370
    15
100
AcDbSpline
210
0.0
220
0.0
230
1.0
 70
     8
 71
     3
 72
    24
 73
    20
 74
     0
 42
0.0000000001
 43
0.0000000001
 40
0.0
 40
0.0
 40
0.0
 40
0.0
 40
0.1250000000000001
 40
0.1250000000000001
 40
0.2500000000000003
 40
0.2500000000000003
 40
0.3125000000000003
 40
0.3125000000000003
 40
0.3750000000000004
 40
0.3750000000000004
 40
0.5000000000000005
 40
0.5000000000000005
 40
0.6250000000000005
 40
0.6250000000000005
 40
0.7500000000000002
 40
0.7500000000000002
 40
0.8750000000000001
 40
0.8750000000000001
 40
1.0
 40
1.0
 40
1.0
 40
1.0
 10
43.14994374169947
 20
0.5523978774333475
 30
0.0
 10
43.19497252413802
 20
0.390767871736096
 30
0.0
 10
43.22546316730256
 20
0.2215092383651953
 30
0.0
 10
43.24075492264525
 20
-0.1409827897830014
 30
0.0
 10
43.22476005945145
 20
-0.3346773299415253
 30
0.0
 10
43.14648487472577
 20
-0.633917367319727
 30
0.0
 10
43.11083844574874
 20
-0.7360940435372143
 30
0.0
 10
43.02225937940614
 20
-0.9346968338557156
 30
0.0
 10
42.96910011357613
 20
-1.032361545636439
 30
0.0
 10
42.78190911647175
 20
-1.320241915443784
 30
0.0
 10
42.62477739924409
 20
-1.496314162084954
 30
0.0
 10
42.2844358976426
 20
-1.800613842167693
 30
0.0
 10
42.10318728934503
 20
-1.929076517720665
 30
0.0
 10
41.7292419508413
 20
-2.151180228643978
 30
0.0
 10
41.54171097764717
 20
-2.241595154391279
 30
0.0
 10
41.16590493374061
 20
-2.394920474710207
 30
0.0
 10
40.97674186517036
 20
-2.45760942700544
 30
0.0
 10
40.60238181913773
 20
-2.55766754917437
 30
0.0
 10
40.41756838469381
 20
-2.595020785185224
 30
0.0
 10
40.23487569077022
 20
-2.621014997419977
 30
0.0
  0
SPLINE
  5
220
330
1F
100
AcDbEntity
  8
1
  6
Continuous
370
    15
100
AcDbSpline
210
0.0
220
0.0
230
1.0
 70
     8
 71
     3
 72
     8
 73
     4
 74
     0
 42
0.0000000001
 43
0.0000000001
 40
0.0005024800433246
 40
0.0005024800433246
 40
0.0005024800433246
 40
0.0005024800433246
 40
0.0005521302845139
 40
0.0005521302845139
 40
0.0005521302845139
 40
0.0005521302845139
 10
42.91991503805195
 20
2.006777451181144
 30
0.0
 10
42.905559094473
 20
2.013876889250068
 30
0.0
 10
42.8912048633014
 20
2.020977249598514
 30
0.0
 10
42.8768524811029
 20
2.028078475102306
 30
0.0
  0
SPLINE
  5
221
330
1F
100
AcDbEntity
  8
1
  6
Continuous
370
    15
100
AcDbSpline
210
0.0
220
0.0
230
1.0
 70
     8
 71
     3
 72
     8
 73
     4
 74
     0
 42
0.0000000001
 43
0.0000000001
 40
0.0
 40
0.0
 40
0.0
 40
0.0
 40
1.0
 40
1.0
 40
1.0
 40
1.0
 10
43.14714207336669
 20
0.5624782415234844
 30
0.0
 10
43.14807408143923
 20
0.5591169467258565
 30
0.0
 10
43.14900796722958
 20
0.5557568230834873
 30
0.0
 10
43.14994374169947
 20
0.5523978774333465
 30
0.0
  0
SPLINE
  5
222
330
1F
100
AcDbEntity
  8
1
  6
Continuous
370
    15
100
AcDbSpline
210
0.0
220
0.0
230
1.0
 70
    24
 71
     3
 72
     8
 73
     4
 74
     0
 42
0.0000000001
 43
0.0000000001
 40
0.0
 40
0.0
 40
0.0
 40
0.0
 40
1.0
 40
1.0
 40
1.0
 40
1.0
 10
43.18977623305692
 20
0.5495356479036051
 30
0.0
 10
43.1755641683685
 20
0.5538500516360223
 30
0.0
 10
43.16135277834372
 20
0.5581642505585604
 30
0.0
 10
43.14714207336225
 20
0.5624782415202052
 30
0.0
  0
SPLINE
  5
223
330
1F
100
AcDbEntity
  8
1
  6
Continuous
370
    15
100
AcDbSpline
210
0.0
220
0.0
230
1.0
 70
     8
 71
     3
 72
     8
 73
     4
 74
     0
 42
0.0000000001
 43
0.0000000001
 40
0.0
 40
0.0
 40
0.0
 40
0.0
 40
1.0
 40
1.0
 40
1.0
 40
1.0
 10
43.24000752814581
 20
2.723867896560338
 30
0.0
 10
43.24076887391327
 20
2.686900653334213
 30
0.0
 10
43.2332279541684
 20
2.665952675548566
 30
0.0
 10
43.22678502829504
 20
2.643197093192997
 30
0.0
  0
SPLINE
  5
224
330
1F
100
AcDbEntity
  8
1
  6
Continuous
370
    15
100
AcDbSpline
210
0.0
220
0.0
230
1.0
 70
    24
 71
     3
 72
    14
 73
    10
 74
     0
 42
0.0000000001
 43
0.0000000001
 40
0.0
 40
0.0
 40
0.0
 40
0.0
 40
0.0009564261933542
 40
0.0009564261933542
 40
0.0009564261933542
 40
0.0015880845502553
 40
0.0015880845502553
 40
0.0015880845502553
 40
0.0022197961332178
 40
0.0022197961332178
 40
0.0022197961332178
 40
0.0022197961332178
 10
44.1342517392152
 20
0.2628180781292064
 30
0.0
 10
44.25280093885212
 20
0.226829703420738
 30
0.0
 10
44.37446346248342
 20
0.1898962065953551
 30
0.0
 10
44.49837445619225
 20
0.1522801342325737
 30
0.0
 10
44.58021206211492
 20
0.127436420093546
 30
0.0
 10
44.66304311344128
 20
0.1022911224303051
 30
0.0
 10
44.74669374458517
 20
0.0768970221965955
 30
0.0
 10
44.83035162711143
 20
0.0515007206366249
 30
0.0
 10
44.91483182495089
 20
0.025854786082828
 30
0.0
 10
45.0
 20
0.0
 30
0.0
  0
SPLINE
  5
225
330
1F
100
AcDbEntity
  8
1
  6
Continuous
370
    15
100
AcDbSpline
210
0.0
220
0.0
230
1.0
 70
     8
 71
     3
 72
    24
 73
    20
 74
     0
 42
0.0000000001
 43
0.0000000001
 40
0.0
 40
0.0
 40
0.0
 40
0.0
 40
0.0624999999999993
 40
0.0624999999999993
 40
0.1249999999999986
 40
0.1249999999999986
 40
0.1562499999999983
 40
0.1562499999999983
 40
0.1874999999999979
 40
0.1874999999999979
 40
0.2499999999999976
 40
0.2499999999999976
 40
0.3749999999999978
 40
0.3749999999999978
 40
0.4999999999999982
 40
0.4999999999999982
 40
0.7499999999999992
 40
0.7499999999999992
 40
1.0
 40
1.0
 40
1.0
 40
1.0
 10
42.87685248110335
 20
2.028078475102076
 30
0.0
 10
42.83236693395553
 20
2.048742763018246
 30
0.0
 10
42.7878625457984
 20
2.068759883911225
 30
0.0
 10
42.69847081179313
 20
2.103061171704119
 30
0.0
 10
42.65186070473561
 20
2.120343006618968
 30
0.0
 10
42.59311363272967
 20
2.113838055636492
 30
0.0
 10
42.57853865560291
 20
2.103367382785545
 30
0.0
 10
42.56530365554541
 20
2.072150379801658
 30
0.0
 10
42.56482554975079
 20
2.05309477303281
 30
0.0
 10
42.56903536615275
 20
1.99571089298325
 30
0.0
 10
42.57934975485972
 20
1.955500274468714
 30
0.0
 10
42.61382699591012
 20
1.835490707838239
 30
0.0
 10
42.64331117043179
 20
1.75560711220391
 30
0.0
 10
42.70404446200686
 20
1.597279053968851
 30
0.0
 10
42.73596735349484
 20
1.518764315966866
 30
0.0
 10
42.8336668433799
 20
1.285495966853841
 30
0.0
 10
42.90128031217131
 20
1.133144177158142
 30
0.0
 10
43.03999981955071
 20
0.8354733809876755
 30
0.0
 10
43.10871920735226
 20
0.6900104693869161
 30
0.0
 10
43.18977623299946
 20
0.5495356479243762
 30
0.0
  0
SPLINE
  5
226
330
1F
100
AcDbEntity
  8
1
  6
Continuous
370
    15
100
AcDbSpline
210
0.0
220
0.0
230
1.0
 70
     8
 71
     3
 72
     8
 73
     4
 74
     0
 42
0.0000000001
 43
0.0000000001
 40
0.0
 40
0.0
 40
0.0
 40
0.0
 40
0.0000855484283505
 40
0.0000855484283505
 40
0.0000855484283505
 40
0.0000855484283505
 10
42.84781794236018
 20
2.051184011869517
 30
0.0
 10
42.87184343911753
 20
2.036395719953635
 30
0.0
 10
42.89587600352017
 20
2.021593294136334
 30
0.0
 10
42.91991503805075
 20
2.006777451181843
 30
0.0
  0
SPLINE
  5
227
330
1F
100
AcDbEntity
  8
1
  6
Continuous
370
    15
100
AcDbSpline
210
0.0
220
0.0
230
1.0
 70
     8
 71
     3
 72
    11
 73
     7
 74
     0
 42
0.0000000001
 43
0.0000000001
 40
0.0
 40
0.0
 40
0.0
 40
0.0
 40
0.0002748278648935
 40
0.0002748278648935
 40
0.0002748278648935
 40
0.0005498032124343
 40
0.0005498032124343
 40
0.0005498032124343
 40
0.0005498032124343
 10
42.92030066724652
 20
2.006638957884524
 30
0.0
 10
42.99802622789331
 20
1.95973651608909
 30
0.0
 10
43.07595605307722
 20
1.91288911766777
 30
0.0
 10
43.15409579894981
 20
1.866178124362605
 30
0.0
 10
43.2322774746999
 20
1.819442065884692
 30
0.0
 10
43.31067969607203
 20
1.772836363054821
 30
0.0
 10
43.38930229796875
 20
1.726437831784359
 30
0.0
  0
SPLINE
  5
228
330
1F
100
AcDbEntity
  8
1
  6
Continuous
370
    15
100
AcDbSpline
210
0.0
220
0.0
230
1.0
 70
     8
 71
     3
 72
     8
 73
     4
 74
     0
 42
0.0000000001
 43
0.0000000001
 40
0.0
 40
0.0
 40
0.0
 40
0.0
 40
1.0
 40
1.0
 40
1.0
 40
1.0
 10
43.22678502829478
 20
2.643197093193569
 30
0.0
 10
43.27555411920792
 20
2.367773267586733
 30
0.0
 10
43.338032343135
 20
2.058613160386459
 30
0.0
 10
43.38930229796868
 20
1.7264378317843
 30
0.0
  0
SPLINE
  5
229
330
1F
100
AcDbEntity
  8
1
  6
Continuous
370
    15
100
AcDbSpline
210
0.0
220
0.0
230
1.0
 70
     8
 71
     3
 72
    35
 73
    31
 74
     0
 42
0.0000000001
 43
0.0000000001
 40
0.0002012324495208
 40
0.0002012324495208
 40
0.0002012324495208
 40
0.0002012324495208
 40
0.0002896657323583
 40
0.0002896657323583
 40
0.0002896657323583
 40
0.0003899024095846
 40
0.0003899024095846
 40
0.0003899024095846
 40
0.0004553408546156
 40
0.0004553408546156
 40
0.0004553408546156
 40
0.0004988936971045
 40
0.0004988936971045
 40
0.0004988936971045
 40
0.00053926309493
 40
0.00053926309493
 40
0.00053926309493
 40
0.0005646941002154
 40
0.0005646941002154
 40
0.0005646941002154
 40
0.0005795331912331
 40
0.0005795331912331
 40
0.0005795331912331
 40
0.0005913142119675
 40
0.0005913142119675
 40
0.0005913142119675
 40
0.000603162136481
 40
0.000603162136481
 40
0.000603162136481
 40
0.0006124047711978
 40
0.0006124047711978
 40
0.0006124047711978
 40
0.0006124047711978
 10
43.22678502829496
 20
2.643197093192561
 30
0.0
 10
43.19840859916695
 20
2.651142163022015
 30
0.0
 10
43.17001902500698
 20
2.659046419271279
 30
0.0
 10
43.14157023081992
 20
2.666746675245437
 30
0.0
 10
43.10932847085473
 20
2.675473576046826
 30
0.0
 10
43.0770052451586
 20
2.683964385630436
 30
0.0
 10
43.04451761100343
 20
2.691747358156958
 30
0.0
 10
43.02331022975346
 20
2.696827951740345
 30
0.0
 10
43.00201772691599
 20
2.7016172968437
 30
0.0
 10
42.98063388356665
 20
2.705754371337463
 30
0.0
 10
42.96640283335436
 20
2.708507614236373
 30
0.0
 10
42.95211169586547
 20
2.71098014692802
 30
0.0
 10
42.93780740582088
 20
2.712879430845902
 30
0.0
 10
42.92456759659103
 20
2.71463737595661
 30
0.0
 10
42.91123375575191
 20
2.715953142500911
 30
0.0
 10
42.89812541089808
 20
2.716093715611987
 30
0.0
 10
42.88987679285975
 20
2.716182173301547
 30
0.0
 10
42.881610494619
 20
2.715808708402815
 30
0.0
 10
42.87388892352882
 20
2.714391192783274
 30
0.0
 10
42.86937699161382
 20
2.713562898400029
 30
0.0
 10
42.86499279663725
 20
2.712347588173958
 30
0.0
 10
42.86115932049855
 20
2.710569025523313
 30
0.0
 10
42.85811873392282
 20
2.709158328410809
 30
0.0
 10
42.85538069860558
 20
2.707347894847166
 30
0.0
 10
42.85327310252379
 20
2.705189666590742
 30
0.0
 10
42.85115712832747
 20
2.703022858946845
 30
0.0
 10
42.8496374998406
 20
2.700449106357798
 30
0.0
 10
42.84878223829807
 20
2.697732940950043
 30
0.0
 10
42.84811147205568
 20
2.695602701282147
 30
0.0
 10
42.84781794542142
 20
2.693352810329396
 30
0.0
 10
42.84781794236002
 20
2.691084345577
 30
0.0
  0
SPLINE
  5
22A
330
1F
100
AcDbEntity
  8
1
  6
Continuous
370
    15
100
AcDbSpline
210
0.0
220
0.0
230
1.0
 70
    11
 71
     3
 72
    38
 73
    34
 74
     0
 42
0.0000000001
 43
0.0000000001
 40
0.0
 40
0.0
 40
0.0
 40
0.0
 40
0.0624999999999999
 40
0.0624999999999999
 40
0.125
 40
0.125
 40
0.1875000000000001
 40
0.1875000000000001
 40
0.2187500000000001
 40
0.2187500000000001
 40
0.2500000000000002
 40
0.2500000000000002
 40
0.3125000000000003
 40
0.3125000000000003
 40
0.3750000000000003
 40
0.3750000000000003
 40
0.5000000000000006
 40
0.5000000000000006
 40
0.5625000000000006
 40
0.5625000000000006
 40
0.6250000000000007
 40
0.6250000000000007
 40
0.6875000000000007
 40
0.6875000000000007
 40
0.7187500000000007
 40
0.7187500000000007
 40
0.7500000000000007
 40
0.7500000000000007
 40
0.8125000000000003
 40
0.8125000000000003
 40
0.8750000000000003
 40
0.8750000000000003
 40
1.0
 40
1.0
 40
1.0
 40
1.0
 10
43.39246134735528
 20
-2.229889568882893
 30
0.0
 10
43.46516636231582
 20
-2.155012711419114
 30
0.0
 10
43.53780783875651
 20
-2.077541339468588
 30
0.0
 10
43.68294396595223
 20
-1.916603155803685
 30
0.0
 10
43.75673673560917
 20
-1.831665216268135
 30
0.0
 10
43.89548881504356
 20
-1.662125089996824
 30
0.0
 10
43.96136621938405
 20
-1.57658097126253
 30
0.0
 10
44.03317434335943
 20
-1.466590995966261
 30
0.0
 10
44.05141429565881
 20
-1.434433619878141
 30
0.0
 10
44.0709918498297
 20
-1.386823144165321
 30
0.0
 10
44.07223867927053
 20
-1.371430070486665
 30
0.0
 10
44.05361765595921
 20
-1.351363554172829
 30
0.0
 10
44.01361572010213
 20
-1.370568975542747
 30
0.0
 10
43.91685756319732
 20
-1.435398918987743
 30
0.0
 10
43.85826328364646
 20
-1.482117764076305
 30
0.0
 10
43.6726317823494
 20
-1.641409333586614
 30
0.0
 10
43.53192172087406
 20
-1.77588797899618
 30
0.0
 10
43.31588939763114
 20
-1.997264408474473
 30
0.0
 10
43.24172218758564
 20
-2.075818705433689
 30
0.0
 10
43.09495791632977
 20
-2.237642259136589
 30
0.0
 10
43.02086705984264
 20
-2.322496138893823
 30
0.0
 10
42.8820416401727
 20
-2.491775486355924
 30
0.0
 10
42.81488761640519
 20
-2.579378438946311
 30
0.0
 10
42.7465013900711
 20
-2.686151481983649
 30
0.0
 10
42.72953041700122
 20
-2.717230146071822
 30
0.0
 10
42.71240467132867
 20
-2.762298748238397
 30
0.0
 10
42.71202589137867
 20
-2.77671471020012
 30
0.0
 10
42.73156935151951
 20
-2.795776318703193
 30
0.0
 10
42.77007725391709
 20
-2.778219308029231
 30
0.0
 10
42.86460944739821
 20
-2.716378089189884
 30
0.0
 10
42.92233296698889
 20
-2.670991167440603
 30
0.0
 10
43.10622666998802
 20
-2.514269571837931
 30
0.0
 10
43.24705131743423
 20
-2.379643283810448
 30
0.0
 10
43.39246134735528
 20
-2.229889568882893
 30
0.0
  0
SPLINE
  5
22B
330
1F
100
AcDbEntity
  8
1
  6
Continuous
370
    15
100
AcDbSpline
210
0.0
220
0.0
230
1.0
 70
     8
 71
     3
 72
    14
 73
    10
 74
     0
 42
0.0000000001
 43
0.0000000001
 40
0.0
 40
0.0
 40
0.0
 40
0.0
 40
0.2500000000000001
 40
0.2500000000000001
 40
0.5000000000000001
 40
0.5000000000000001
 40
0.7500000000000001
 40
0.7500000000000001
 40
1.0
 40
1.0
 40
1.0
 40
1.0
 10
41.70780288763331
 20
3.822499999999979
 30
0.0
 10
41.76500103732386
 20
3.822499999999976
 30
0.0
 10
41.84327264768191
 20
3.795734095224172
 30
0.0
 10
42.03645925503065
 20
3.695660646747183
 30
0.0
 10
42.15103791890425
 20
3.622181619102803
 30
0.0
 10
42.40232277712038
 20
3.44097109279756
 30
0.0
 10
42.54123438843418
 20
3.331715166422356
 30
0.0
 10
42.83513943517556
 20
3.086283224174326
 30
0.0
 10
42.98978329929053
 20
2.950513824340935
 30
0.0
 10
43.15121553627159
 20
2.80322347592306
 30
0.0
  0
SPLINE
  5
22C
330
1F
100
AcDbEntity
  8
1
  6
Continuous
370
    15
100
AcDbSpline
210
0.0
220
0.0
230
1.0
 70
     8
 71
     3
 72
    19
 73
    15
 74
     0
 42
0.0000000001
 43
0.0000000001
 40
0.0
 40
0.0
 40
0.0
 40
0.0
 40
0.0669775683461748
 40
0.1515756197524984
 40
0.2361042603295221
 40
0.3205980619684825
 40
0.4050918636074428
 40
0.4896205041844665
 40
0.5742185555907909
 40
0.6594440274953817
 40
0.7446039675551274
 40
0.8297292148539805
 40
0.914850855177082
 40
1.0
 40
1.0
 40
1.0
 40
1.0
 10
29.43143569221422
 20
-2.410750724988476
 30
0.0
 10
29.06454998124366
 20
-2.56554986462235
 30
0.0
 10
28.23425813291502
 20
-2.915872757891404
 30
0.0
 10
26.94086594203254
 20
-3.32884979594783
 30
0.0
 10
25.5518384886887
 20
-3.649610751050211
 30
0.0
 10
24.16346124350989
 20
-3.819728594149981
 30
0.0
 10
22.7750857682845
 20
-3.83630966791339
 30
0.0
 10
21.38605300143666
 20
-3.697573968318455
 30
0.0
 10
19.99271733433088
 20
-3.408786970398501
 30
0.0
 10
18.59592049304839
 20
-2.980267825263227
 30
0.0
 10
17.19651540913405
 20
-2.428370389974706
 30
0.0
 10
15.79776060394087
 20
-1.776754618924873
 30
0.0
 10
14.39909438454832
 20
-1.053084516221129
 30
0.0
 10
13.46652429987544
 20
-0.5399059164728515
 30
0.0
 10
13.00016393670903
 20
-0.2832751687346797
 30
0.0
  0
SPLINE
  5
22D
330
1F
100
AcDbEntity
  8
1
  6
Continuous
370
    15
100
AcDbSpline
210
0.0
220
0.0
230
1.0
 70
     8
 71
     3
 72
     8
 73
     4
 74
     0
 42
0.0000000001
 43
0.0000000001
 40
0.0
 40
0.0
 40
0.0
 40
0.0
 40
1.0
 40
1.0
 40
1.0
 40
1.0
 10
40.23487569076997
 20
-2.621014997419949
 30
0.0
 10
39.99918399353873
 20
-2.654550109679884
 30
0.0
 10
39.76685488772189
 20
-2.675331823467911
 30
0.0
 10
39.53814926252471
 20
-2.685194747508372
 30
0.0
  0
SPLINE
  5
22E
330
1F
100
AcDbEntity
  8
1
  6
Continuous
370
    15
100
AcDbSpline
210
0.0
220
0.0
230
1.0
 70
     8
 71
     3
 72
     9
 73
     5
 74
     0
 42
0.0000000001
 43
0.0000000001
 40
0.0
 40
0.0
 40
0.0
 40
0.0
 40
0.2641721493203075
 40
1.0
 40
1.0
 40
1.0
 40
1.0
 10
15.86831096494053
 20
-3.960765094879032
 30
0.0
 10
15.84477739183805
 20
-3.963118349401838
 30
0.0
 10
15.75569315959394
 20
-3.972026383533596
 30
0.0
 10
15.66661004403681
 20
-3.965394120823488
 30
0.0
 10
15.60106020658456
 20
-3.960513917208364
 30
0.0
  0
SPLINE
  5
22F
330
1F
100
AcDbEntity
  8
1
  6
Continuous
370
    15
100
AcDbSpline
210
0.0
220
0.0
230
1.0
 70
     8
 71
     3
 72
     8
 73
     4
 74
     0
 42
0.0000000001
 43
0.0000000001
 40
0.0
 40
0.0
 40
0.0
 40
0.0
 40
1.0
 40
1.0
 40
1.0
 40
1.0
 10
13.0
 20
-0.2945198527771891
 30
0.0
 10
12.35496316888165
 20
0.0900267907601489
 30
0.0
 10
11.71382669449738
 20
0.477124696235916
 30
0.0
 10
11.06864178339705
 20
0.8534764537782313
 30
0.0
  0
SPLINE
  5
230
330
1F
100
AcDbEntity
  8
1
  6
Continuous
370
    15
100
AcDbSpline
210
0.0
220
0.0
230
1.0
 70
     8
 71
     3
 72
    11
 73
     7
 74
     0
 42
0.0000000001
 43
0.0000000001
 40
0.0
 40
0.0
 40
0.0
 40
0.0
 40
0.1280869113754707
 40
0.3456934593765051
 40
0.563310073480688
 40
1.0
 40
1.0
 40
1.0
 40
1.0
 10
6.416845712187039
 20
3.304871511177438
 30
0.0
 10
6.701934956282642
 20
3.336332231182661
 30
0.0
 10
7.471361636683652
 20
3.421241493310151
 30
0.0
 10
8.711908443052648
 20
3.566596644336935
 30
0.0
 10
10.62408711373089
 20
3.773831832016741
 30
0.0
 10
12.04900038179012
 20
3.862989501611558
 30
0.0
 10
13.0
 20
3.922494112625981
 30
0.0
  0
SPLINE
  5
231
330
1F
100
AcDbEntity
  8
1
  6
Continuous
370
    15
100
AcDbSpline
210
0.0
220
0.0
230
1.0
 70
     8
 71
     3
 72
    24
 73
    20
 74
     0
 42
0.0000000001
 43
0.0000000001
 40
0.0
 40
0.0
 40
0.0
 40
0.0
 40
0.0207911591305063
 40
0.0818469830985729
 40
0.142877920900648
 40
0.2039088587027229
 40
0.2649646826707894
 40
0.3260700889213743
 40
0.3871754951719592
 40
0.4482313191400257
 40
0.5092622569421007
 40
0.5702931947441755
 40
0.6313490187122423
 40
0.6924544249628278
 40
0.7540129594062771
 40
0.8155246821518103
 40
0.8770116231193066
 40
0.9384959878081762
 40
1.0
 40
1.0
 40
1.0
 40
1.0
 10
35.74818126032364
 20
-3.952934318876401
 30
0.0
 10
35.59050252560814
 20
-3.957877420221058
 30
0.0
 10
34.96978058056146
 20
-3.977336553291568
 30
0.0
 10
33.88645749359461
 20
-3.846270626910646
 30
0.0
 10
32.49807487363228
 20
-3.563907563141123
 30
0.0
 10
31.10970455200928
 20
-3.126513619336781
 30
0.0
 10
29.72067552094461
 20
-2.565578856257239
 30
0.0
 10
28.33076927045789
 20
-1.900309946606681
 30
0.0
 10
26.9408627819038
 20
-1.15846737246226
 30
0.0
 10
25.55183446436499
 20
-0.3695323653102003
 30
0.0
 10
24.16346152796496
 20
0.434158055005825
 30
0.0
 10
22.7750886545532
 20
1.220312094935501
 30
0.0
 10
21.38606014792131
 20
1.957279119803427
 30
0.0
 10
19.99271780036039
 20
2.616619970961888
 30
0.0
 10
18.59591481899001
 20
3.170809212423908
 30
0.0
 10
17.19651463073953
 20
3.597221116681771
 30
0.0
 10
15.79776329539184
 20
3.872894989411926
 30
0.0
 10
14.39910163942952
 20
4.001269802218994
 30
0.0
 10
13.46652970995519
 20
3.948731963779589
 30
0.0
 10
13.00016925561907
 20
3.922458848076598
 30
0.0
  0
SPLINE
  5
232
330
1F
100
AcDbEntity
  8
1
  6
Continuous
370
    15
100
AcDbSpline
210
0.0
220
0.0
230
1.0
 70
     8
 71
     3
 72
    19
 73
    15
 74
     0
 42
0.0000000001
 43
0.0000000001
 40
0.0
 40
0.0
 40
0.0
 40
0.0
 40
0.123589510983576
 40
0.2536134227895809
 40
0.3836152094933314
 40
0.5651423039513968
 40
0.6711084030013055
 40
0.7782624097204902
 40
0.8425840633248952
 40
0.9144398978771427
 40
0.9426196687466331
 40
0.9710589186461064
 40
0.9903799810239391
 40
1.0
 40
1.0
 40
1.0
 40
1.0
 10
6.416845712187027
 20
-3.304871511177438
 30
0.0
 10
6.199362419547043
 20
-3.388255328860523
 30
0.0
 10
5.753073071794034
 20
-3.559364149015008
 30
0.0
 10
5.088767764408146
 20
-3.755642434326089
 30
0.0
 10
4.337075371442523
 20
-3.918321543673918
 30
0.0
 10
3.644985394090453
 20
-3.985074819232858
 30
0.0
 10
3.021423241154167
 20
-3.957407897556656
 30
0.0
 10
2.606955663801699
 20
-3.88284957257106
 30
0.0
 10
2.2813339868228
 20
-3.768253818199506
 30
0.0
 10
2.094551091198439
 20
-3.656576405643516
 30
0.0
 10
2.01165453115567
 20
-3.540530115293156
 30
0.0
 10
2.005384412488098
 20
-3.460555809752113
 30
0.0
 10
2.047522864228325
 20
-3.399024198257678
 30
0.0
 10
2.08534850354485
 20
-3.3723401117802
 30
0.0
 10
2.097921750672583
 20
-3.363470318176662
 30
0.0
  0
SPLINE
  5
233
330
1F
100
AcDbEntity
  8
1
  6
Continuous
370
    15
100
AcDbSpline
210
0.0
220
0.0
230
1.0
 70
     8
 71
     3
 72
    22
 73
    18
 74
     0
 42
0.0000000001
 43
0.0000000001
 40
0.0
 40
0.0
 40
0.0
 40
0.0
 40
0.03125
 40
0.03125
 40
0.0625
 40
0.0625
 40
0.125
 40
0.125
 40
0.25
 40
0.25
 40
0.375
 40
0.375
 40
0.5
 40
0.5
 40
0.75
 40
0.75
 40
1.0
 40
1.0
 40
1.0
 40
1.0
 10
2.097921750673321
 20
-3.363470318176736
 30
0.0
 10
2.174430475553605
 20
-3.314338660457853
 30
0.0
 10
2.270411374966839
 20
-3.274153363489332
 30
0.0
 10
2.480091874438443
 20
-3.209708417555438
 30
0.0
 10
2.590991060616957
 20
-3.185903343824728
 30
0.0
 10
2.933783200588123
 20
-3.130010244773308
 30
0.0
 10
3.168567599820518
 20
-3.114035848554205
 30
0.0
 10
3.868911751024086
 20
-3.093690718101635
 30
0.0
 10
4.340153632248075
 20
-3.116983256047406
 30
0.0
 10
5.270959430332354
 20
-3.18409520379572
 30
0.0
 10
5.732880630080032
 20
-3.229764020517041
 30
0.0
 10
6.653269094392384
 20
-3.328221026059503
 30
0.0
 10
7.111861170814107
 20
-3.381394780541456
 30
0.0
 10
8.482868030227647
 20
-3.539961231405051
 30
0.0
 10
9.390165667619866
 20
-3.643695761887446
 30
0.0
 10
11.19943197887844
 20
-3.814160580171031
 30
0.0
 10
12.10011559936788
 20
-3.881209029812988
 30
0.0
 10
13.0
 20
-3.922494112625978
 30
0.0
  0
SPLINE
  5
234
330
1F
100
AcDbEntity
  8
1
  6
Continuous
370
    15
100
AcDbSpline
210
0.0
220
0.0
230
1.0
 70
     8
 71
     3
 72
    17
 73
    13
 74
     0
 42
0.0000000001
 43
0.0000000001
 40
0.0
 40
0.0
 40
0.0
 40
0.0
 40
0.1152323385177856
 40
0.2304782926479427
 40
0.3457413570759784
 40
0.4610250012613046
 40
0.5646939943495794
 40
0.6682788681165186
 40
0.7718215210076229
 40
0.8753641738987266
 40
0.9789490476656659
 40
1.0
 40
1.0
 40
1.0
 40
1.0
 10
42.84781794236017
 20
2.051184011869528
 30
0.0
 10
42.33274580060739
 20
2.295152332653795
 30
0.0
 10
41.30254065725367
 20
2.783117801009408
 30
0.0
 10
39.75708080471074
 20
3.348463232671753
 30
0.0
 10
38.2113546965561
 20
3.753841600281957
 30
0.0
 10
36.71730079229758
 20
3.962253190834116
 30
0.0
 10
35.2754794740527
 20
3.988374497670459
 30
0.0
 10
33.88644880136175
 20
3.851679378762066
 30
0.0
 10
32.49807979540856
 20
3.561496030212166
 30
0.0
 10
31.10969355312324
 20
3.119354064289746
 30
0.0
 10
30.08994243255097
 20
2.724115735833933
 30
0.0
 10
29.5328012408375
 20
2.456159409397878
 30
0.0
 10
29.43870026652596
 20
2.410901669051973
 30
0.0
  0
SPLINE
  5
235
330
1F
100
AcDbEntity
  8
1
  6
Continuous
370
    15
100
AcDbSpline
210
0.0
220
0.0
230
1.0
 70
     8
 71
     3
 72
     8
 73
     4
 74
     0
 42
0.0000000001
 43
0.0000000001
 40
0.0
 40
0.0
 40
0.0
 40
0.0
 40
0.0001430179085955
 40
0.0001430179085955
 40
0.0001430179085955
 40
0.0001430179085955
 10
43.15633412017165
 20
-2.798551492801931
 30
0.0
 10
43.18483968663531
 20
-2.772523045017063
 30
0.0
 10
43.21269001374685
 20
-2.747737543917127
 30
0.0
 10
43.23975611420499
 20
-2.724256999566792
 30
0.0
  0
SPLINE
  5
236
330
1F
100
AcDbEntity
  8
1
  6
Continuous
370
    15
100
AcDbSpline
210
0.0
220
0.0
230
1.0
 70
     8
 71
     3
 72
    17
 73
    13
 74
     0
 42
0.0000000001
 43
0.0000000001
 40
0.0
 40
0.0
 40
0.0
 40
0.0
 40
0.1246109713795795
 40
0.2492073579712222
 40
0.3776494485277911
 40
0.5060691641905214
 40
0.5950975148219473
 40
0.6841185732398283
 40
0.7752846501206455
 40
0.8664352140181577
 40
0.9937126725982883
 40
1.0
 40
1.0
 40
1.0
 40
1.0
 10
11.0686417833963
 20
0.8534764537787733
 30
0.0
 10
10.73770306685735
 20
1.046861124851223
 30
0.0
 10
10.07586436769625
 20
1.433607832757845
 30
0.0
 10
9.085983602352952
 20
2.000720681202498
 30
0.0
 10
8.096083789790171
 20
2.536352038002298
 30
0.0
 10
7.209247546162173
 20
2.97134701609425
 30
0.0
 10
6.433388108958111
 20
3.305564624083308
 30
0.0
 10
5.759386070693325
 20
3.555223795828418
 30
0.0
 10
5.088260621543071
 20
3.757307608410396
 30
0.0
 10
4.338899752004606
 20
3.913330143597223
 30
0.0
 10
3.800128494398421
 20
3.984641698462377
 30
0.0
 10
3.500361568003113
 20
3.969496069843423
 30
0.0
 10
3.486250567138653
 20
3.968783116012576
 30
0.0
  0
SPLINE
  5
237
330
1F
100
AcDbEntity
  8
1
  6
Continuous
370
    15
100
AcDbSpline
210
0.0
220
0.0
230
1.0
 70
     8
 71
     3
 72
    16
 73
    12
 74
     0
 42
0.0000000001
 43
0.0000000001
 40
0.0
 40
0.0
 40
0.0
 40
0.0
 40
0.2500000000000001
 40
0.2500000000000001
 40
0.3750000000000002
 40
0.3750000000000002
 40
0.5000000000000002
 40
0.5000000000000002
 40
0.7500000000000005
 40
0.7500000000000005
 40
1.0
 40
1.0
 40
1.0
 40
1.0
 10
39.53814926252125
 20
-2.68519474750852
 30
0.0
 10
39.60107708396782
 20
-2.908926076047171
 30
0.0
 10
39.71308290827142
 20
-3.089111751107928
 30
0.0
 10
39.93343899636358
 20
-3.312943800882399
 30
0.0
 10
40.0156364501518
 20
-3.379124308757963
 30
0.0
 10
40.18988469179862
 20
-3.494095450789868
 30
0.0
 10
40.28257875559273
 20
-3.543538513690527
 30
0.0
 10
40.57457019841428
 20
-3.671783965775716
 30
0.0
 10
40.78911058187188
 20
-3.730783117962102
 30
0.0
 10
41.23518653944312
 20
-3.805867870559803
 30
0.0
 10
41.46771880761393
 20
-3.822500000000001
 30
0.0
 10
41.7078028876334
 20
-3.822500000000001
 30
0.0
  0
SPLINE
  5
238
330
1F
100
AcDbEntity
  8
1
  6
Continuous
370
    15
100
AcDbSpline
210
0.0
220
0.0
230
1.0
 70
     8
 71
     3
 72
    19
 73
    15
 74
     0
 42
0.0000000001
 43
0.0000000001
 40
0.0
 40
0.0
 40
0.0
 40
0.0
 40
0.0884559312442229
 40
0.1769645242981795
 40
0.2626003078072338
 40
0.3481658290507594
 40
0.4336960840002262
 40
0.519226338949693
 40
0.6047918601932186
 40
0.6904276437022725
 40
0.7760634272113265
 40
0.8616289484548518
 40
0.9471592034043187
 40
1.0
 40
1.0
 40
1.0
 40
1.0
 10
39.53814926252545
 20
-2.685194747510166
 30
0.0
 10
39.05953747865432
 20
-2.485172873885233
 30
0.0
 10
38.10202897170734
 20
-2.085010044582839
 30
0.0
 10
36.68092844030545
 20
-1.371661440178605
 30
0.0
 10
35.27548601581248
 20
-0.6177820983481981
 30
0.0
 10
33.88645261513028
 20
0.1550908593110671
 30
0.0
 10
32.49807697537031
 20
0.9209659462738855
 30
0.0
 10
31.10970102180701
 20
1.649745018186469
 30
0.0
 10
29.72066856318074
 20
2.312064430999701
 30
0.0
 10
28.33076913709451
 20
2.880291748155745
 30
0.0
 10
26.94087027290311
 20
3.333893943383031
 30
0.0
 10
25.55183613020652
 20
3.646273348349564
 30
0.0
 10
24.34031924160007
 20
3.811558211938651
 30
0.0
 10
23.591706888262
 20
3.806232358283617
 30
0.0
 10
23.30582864530561
 20
3.804198534398191
 30
0.0
  0
SPLINE
  5
239
330
1F
100
AcDbEntity
  8
1
  6
Continuous
370
    15
100
AcDbSpline
210
0.0
220
0.0
230
1.0
 70
     8
 71
     3
 72
    14
 73
    10
 74
     0
 42
0.0000000001
 43
0.0000000001
 40
0.0
 40
0.0
 40
0.0
 40
0.0
 40
0.25
 40
0.25
 40
0.5
 40
0.5
 40
0.75
 40
0.75
 40
1.0
 40
1.0
 40
1.0
 40
1.0
 10
41.70780288763331
 20
-3.822499999999981
 30
0.0
 10
41.76515375302949
 20
-3.822499999999976
 30
0.0
 10
41.84368947941975
 20
-3.795592603013615
 30
0.0
 10
42.03759060781272
 20
-3.694999560041308
 30
0.0
 10
42.15258436514278
 20
-3.62116222940476
 30
0.0
 10
42.40480393351899
 20
-3.439084490466542
 30
0.0
 10
42.54425361475194
 20
-3.329299971296482
 30
0.0
 10
42.83917985694228
 20
-3.082800531611428
 30
0.0
 10
42.99435354599205
 20
-2.946456040588083
 30
0.0
 10
43.15633412017165
 20
-2.798551492801931
 30
0.0
  0
SPLINE
  5
23A
330
1F
100
AcDbEntity
  8
1
  6
Continuous
370
    15
100
AcDbSpline
210
0.0
220
0.0
230
1.0
 70
     8
 71
     3
 72
     9
 73
     5
 74
     0
 42
0.0000000001
 43
0.0000000001
 40
0.0
 40
0.0
 40
0.0
 40
0.0
 40
0.3586597322726956
 40
1.0
 40
1.0
 40
1.0
 40
1.0
 10
38.1793852364699
 20
3.924739095614984
 30
0.0
 10
38.06684093934121
 20
3.934809634423848
 30
0.0
 10
37.75304965751661
 20
3.962887887717163
 30
0.0
 10
37.43553127296127
 20
3.966406643242515
 30
0.0
 10
37.23189394720221
 20
3.968663362853211
 30
0.0
  0
SPLINE
  5
23B
330
1F
100
AcDbEntity
  8
1
  6
Continuous
370
    15
100
AcDbSpline
210
0.0
220
0.0
230
1.0
 70
     8
 71
     3
 72
    21
 73
    17
 74
     0
 42
0.0000000001
 43
0.0000000001
 40
0.0
 40
0.0
 40
0.0
 40
0.0
 40
0.0041660812434738
 40
0.0062264154696267
 40
0.0081784039086518
 40
0.0101139954329237
 40
0.0121272066382412
 40
0.0166903643549933
 40
0.0223584816623346
 40
0.0401241411313117
 40
0.0648021017732065
 40
0.1083940419773455
 40
0.3070208756550179
 40
0.5705052862615948
 40
0.8738963022275907
 40
1.0
 40
1.0
 40
1.0
 40
1.0
 10
40.3302220475831
 20
3.585375784975751
 30
0.0
 10
40.33017066871434
 20
3.585568579018415
 30
0.0
 10
40.33009388044144
 20
3.585856719296899
 30
0.0
 10
40.32792075348038
 20
3.586709769940465
 30
0.0
 10
40.32551970903522
 20
3.587504527329278
 30
0.0
 10
40.3223066314988
 20
3.588458462235778
 30
0.0
 10
40.31677410191696
 20
3.589991184447851
 30
0.0
 10
40.30754390641885
 20
3.592371872409072
 30
0.0
 10
40.2859314415227
 20
3.597668262182996
 30
0.0
 10
40.2496233356357
 20
3.606129595339748
 30
0.0
 10
40.18804210040172
 20
3.62012970481199
 30
0.0
 10
39.99655091361768
 20
3.662845817823956
 30
0.0
 10
39.64037239591147
 20
3.736397700522926
 30
0.0
 10
39.10705436152699
 20
3.825857767313182
 30
0.0
 10
38.62620742423331
 20
3.891337993825974
 30
0.0
 10
38.32506266377823
 20
3.913616628166653
 30
0.0
 10
38.23664372253532
 20
3.920157845280187
 30
0.0
  0
SPLINE
  5
23C
330
1F
100
AcDbEntity
  8
1
  6
Continuous
370
    15
100
AcDbSpline
210
0.0
220
0.0
230
1.0
 70
     8
 71
     3
 72
    11
 73
     7
 74
     0
 42
0.0000000001
 43
0.0000000001
 40
0.0
 40
0.0
 40
0.0
 40
0.0
 40
0.2788172760507833
 40
0.631072776475551
 40
0.9859076860861067
 40
1.0
 40
1.0
 40
1.0
 40
1.0
 10
15.6038620535601
 20
-3.967692242679806
 30
0.0
 10
15.776257981935
 20
-3.9649057259533
 30
0.0
 10
16.1664575374059
 20
-3.958598746442561
 30
0.0
 10
16.76787391141209
 20
-3.907437988788764
 30
0.0
 10
17.20183703422702
 20
-3.861328142326694
 30
0.0
 10
17.42631172159306
 20
-3.82391645795208
 30
0.0
 10
17.43488622506793
 20
-3.822487403204595
 30
0.0
  0
SPLINE
  5
23D
330
1F
100
AcDbEntity
  8
1
  6
Continuous
370
    15
100
AcDbSpline
210
0.0
220
0.0
230
1.0
 70
     8
 71
     3
 72
    16
 73
    12
 74
     0
 42
0.0000000001
 43
0.0000000001
 40
0.0
 40
0.0
 40
0.0
 40
0.0
 40
0.0114186183880473
 40
0.1466354516886273
 40
0.2609494376326871
 40
0.3610154983870889
 40
0.4837888844374006
 40
0.6285571039555689
 40
0.8060167776690219
 40
0.9288233705204907
 40
1.0
 40
1.0
 40
1.0
 40
1.0
 10
41.69478939046961
 20
3.822480817595586
 30
0.0
 10
41.68492686906762
 20
3.822480329009984
 30
0.0
 10
41.55827448158706
 20
3.82247405469833
 30
0.0
 10
41.33305126049523
 20
3.822399342663148
 30
0.0
 10
41.03077413065739
 20
3.822443203511326
 30
0.0
 10
40.74015811991967
 20
3.822511835052651
 30
0.0
 10
40.42239611742825
 20
3.822495763919069
 30
0.0
 10
40.03794153601041
 20
3.822501973569033
 30
0.0
 10
39.65343957596946
 20
3.822497220547173
 30
0.0
 10
39.33250596889264
 20
3.822488918698703
 30
0.0
 10
39.1649036055623
 20
3.822492511123328
 30
0.0
 10
39.10340668241963
 20
3.822493829261431
 30
0.0
  0
SPLINE
  5
23E
330
1F
100
AcDbEntity
  8
1
  6
Continuous
370
    15
100
AcDbSpline
210
0.0
220
0.0
230
1.0
 70
     8
 71
     3
 72
    26
 73
    22
 74
     0
 42
0.0000000001
 43
0.0000000001
 40
0.0
 40
0.0
 40
0.0
 40
0.0
 40
0.0659144034409049
 40
0.1159041104671791
 40
0.1508812782419471
 40
0.1864016397072155
 40
0.2279569362848176
 40
0.2734040833846346
 40
0.3131992786008725
 40
0.3582907164571757
 40
0.4013777121361181
 40
0.4514140565202518
 40
0.5145613962216058
 40
0.5856415763163963
 40
0.6404303264739835
 40
0.6924150290175698
 40
0.7564675410742049
 40
0.8118202278744631
 40
0.8632499269273241
 40
0.9217271940885888
 40
1.0
 40
1.0
 40
1.0
 40
1.0
 10
16.32486303858033
 20
-3.822499999999569
 30
0.0
 10
16.47859084122572
 20
-3.822493068154376
 30
0.0
 10
16.74890633055067
 20
-3.822480879174292
 30
0.0
 10
17.10111637222361
 20
-3.822434361191201
 30
0.0
 10
17.38213155256835
 20
-3.822490822300359
 30
0.0
 10
17.64345546093898
 20
-3.822501751676982
 30
0.0
 10
17.92941457853459
 20
-3.822498972212777
 30
0.0
 10
18.22533523436802
 20
-3.822499724966716
 30
0.0
 10
18.52950998338068
 20
-3.822499973339356
 30
0.0
 10
18.82817821936299
 20
-3.822500014996828
 30
0.0
 10
19.15074576415134
 20
-3.822499954119948
 30
0.0
 10
19.51545422176748
 20
-3.822499735106658
 30
0.0
 10
19.94549476962253
 20
-3.822500058618501
 30
0.0
 10
20.38662169925633
 20
-3.822499618000138
 30
0.0
 10
20.8017134092494
 20
-3.82250090631947
 30
0.0
 10
21.20034073798217
 20
-3.822494843161408
 30
0.0
 10
21.60028366176053
 20
-3.822481019593428
 30
0.0
 10
21.99921678441604
 20
-3.822538038044008
 30
0.0
 10
22.38310716234023
 20
-3.822348413338966
 30
0.0
 10
22.82300759617755
 20
-3.8222073311337
 30
0.0
 10
23.14090626685277
 20
-3.82239346223183
 30
0.0
 10
23.32286464091544
 20
-3.822499999676308
 30
0.0
  0
SPLINE
  5
23F
330
1F
100
AcDbEntity
  8
1
  6
Continuous
370
    15
100
AcDbSpline
210
0.0
220
0.0
230
1.0
 70
     8
 71
     3
 72
    23
 73
    19
 74
     0
 42
0.0000000001
 43
0.0000000001
 40
0.0
 40
0.0
 40
0.0
 40
0.0
 40
0.0019906236144614
 40
0.0053125672621198
 40
0.0082999233184946
 40
0.0111183289959666
 40
0.0139637135366055
 40
0.0170272736636717
 40
0.0204642495064904
 40
0.0288523139977068
 40
0.0396741287545109
 40
0.0691810094783519
 40
0.1801779106243184
 40
0.3335186304924434
 40
0.5281521972253053
 40
0.7336448255643533
 40
0.9370305277489647
 40
1.0
 40
1.0
 40
1.0
 40
1.0
 10
18.4726308358525
 20
3.626986813014671
 30
0.0
 10
18.47292277221224
 20
3.627071883566376
 30
0.0
 10
18.47370189064335
 20
3.627298919468425
 30
0.0
 10
18.4721001824811
 20
3.628319291106863
 30
0.0
 10
18.46913707776493
 20
3.629675424362996
 30
0.0
 10
18.46420784079463
 20
3.631369199947728
 30
0.0
 10
18.45755864855911
 20
3.633335746883028
 30
0.0
 10
18.44925257311132
 20
3.635564664353528
 30
0.0
 10
18.43512810843779
 20
3.639112299361943
 30
0.0
 10
18.4129670850092
 20
3.644291073585593
 30
0.0
 10
18.36659260198132
 20
3.654616917069101
 30
0.0
 10
18.22964017228271
 20
3.683717686320612
 30
0.0
 10
17.96806376006995
 20
3.735856508581296
 30
0.0
 10
17.56359982226931
 20
3.806157294055468
 30
0.0
 10
17.08060103678805
 20
3.874152546141501
 30
0.0
 10
16.55153849557183
 20
3.927187636480084
 30
0.0
 10
16.13490169340301
 20
3.957741271985901
 30
0.0
 10
15.89673243089506
 20
3.961916300478378
 30
0.0
 10
15.84042643722205
 20
3.962903325946765
 30
0.0
  0
SPLINE
  5
240
330
1F
100
AcDbEntity
  8
1
  6
Continuous
370
    15
100
AcDbSpline
210
0.0
220
0.0
230
1.0
 70
     8
 71
     3
 72
    10
 73
     6
 74
     0
 42
0.0000000001
 43
0.0000000001
 40
0.0
 40
0.0
 40
0.0
 40
0.0
 40
0.3262818915079657
 40
0.6772432927732094
 40
1.0
 40
1.0
 40
1.0
 40
1.0
 10
37.21684164754821
 20
-3.968886661129915
 30
0.0
 10
37.42406342833869
 20
-3.96529517198613
 30
0.0
 10
37.85418095802521
 20
-3.95784053844072
 30
0.0
 10
38.48287875566601
 20
-3.906464532524558
 30
0.0
 10
38.90351772781818
 20
-3.849690345069727
 30
0.0
 10
39.10503234924789
 20
-3.822491655339669
 30
0.0
  0
SPLINE
  5
241
330
1F
100
AcDbEntity
  8
1
  6
Continuous
370
    15
100
AcDbSpline
210
0.0
220
0.0
230
1.0
 70
     8
 71
     3
 72
    21
 73
    17
 74
     0
 42
0.0000000001
 43
0.0000000001
 40
0.0
 40
0.0
 40
0.0
 40
0.0
 40
0.1042669038027424
 40
0.1788091309082565
 40
0.2498888218317659
 40
0.3243869755415079
 40
0.3856754556965297
 40
0.4404761878269244
 40
0.4999557266356444
 40
0.5763129218807219
 40
0.6689753624877528
 40
0.7382579339807763
 40
0.8043256862489776
 40
0.8890670610191893
 40
0.9600771708731027
 40
1.0
 40
1.0
 40
1.0
 40
1.0
 10
23.33008136378183
 20
3.822499999731464
 30
0.0
 10
23.12532959060817
 20
3.822369040975071
 30
0.0
 10
22.77419720556711
 20
3.822144457520868
 30
0.0
 10
22.28218224558327
 20
3.822471377680748
 30
0.0
 10
21.84979161282945
 20
3.822510243106793
 30
0.0
 10
21.44214156083407
 20
3.822486968384795
 30
0.0
 10
21.06685005718208
 20
3.822498022169759
 30
0.0
 10
20.72110568613851
 20
3.822500404070074
 30
0.0
 10
20.34564954255612
 20
3.822499801143314
 30
0.0
 10
19.89563828469238
 20
3.822499988905411
 30
0.0
 10
19.42631529807534
 20
3.822499714110462
 30
0.0
 10
18.9772628381596
 20
3.822499874753816
 30
0.0
 10
18.54380061861516
 20
3.822500755045799
 30
0.0
 10
18.10697061528241
 20
3.822496109315053
 30
0.0
 10
17.72152804589726
 20
3.822507546268693
 30
0.0
 10
17.50320405877033
 20
3.822490437722116
 30
0.0
 10
17.42463306522729
 20
3.822484280654721
 30
0.0
  0
SPLINE
  5
242
330
1F
100
AcDbEntity
  8
1
  6
Continuous
370
    15
100
AcDbSpline
210
0.0
220
0.0
230
1.0
 70
     8
 71
     3
 72
    20
 73
    16
 74
     0
 42
0.0000000001
 43
0.0000000001
 40
0.0
 40
0.0
 40
0.0
 40
0.0
 40
0.0979668050724154
 40
0.177718748185022
 40
0.283096845446058
 40
0.3507593342632334
 40
0.4358184377978129
 40
0.5300578009957953
 40
0.6123254599966571
 40
0.6824455343882977
 40
0.7467289537447586
 40
0.8166535779472066
 40
0.8961483268770125
 40
0.9899943470169599
 40
1.0
 40
1.0
 40
1.0
 40
1.0
 10
37.98763174237826
 20
-3.822499999961888
 30
0.0
 10
38.1090403219107
 20
-3.822499916875976
 30
0.0
 10
38.32928411528008
 20
-3.822499766152228
 30
0.0
 10
38.68012590650554
 20
-3.822500327105636
 30
0.0
 10
38.99336342620919
 20
-3.822498170770728
 30
0.0
 10
39.3131758102231
 20
-3.822480306528495
 30
0.0
 10
39.61924639595618
 20
-3.822492354079216
 30
0.0
 10
39.94333320818811
 20
-3.82250018034432
 30
0.0
 10
40.24897754798849
 20
-3.822500563634061
 30
0.0
 10
40.51748271889223
 20
-3.822498057384073
 30
0.0
 10
40.77075042889275
 20
-3.822506913239358
 30
0.0
 10
41.03494678682946
 20
-3.822442776072821
 30
0.0
 10
41.33663799208611
 20
-3.822399177729891
 30
0.0
 10
41.56360750715513
 20
-3.822474361657393
 30
0.0
 10
41.69226350717865
 20
-3.822480554135081
 30
0.0
 10
41.7046589482121
 20
-3.822481150753133
 30
0.0
  0
DIMENSION
  5
243
330
1F
100
AcDbEntity
  8
2
370
    18
100
AcDbDimension
  2
*D8
 10
49.90252862747921
 20
-3.971000000000003
 30
0.0
 11
59.85252862747922
 21
12.20524112332062
 31
0.0
 70
   160
  1
%%c<>
 71
     5
 42
7.942000028499999
  3
Standard
100
AcDbAlignedDimension
 13
37.14749833400001
 23
3.9710000285
 33
0.0
 14
37.14061843920001
 24
-3.971
 34
0.0
 50
90.0
100
AcDbRotatedDimension
1001
ACAD
1000
DSTYLE
1002
{
1070
     3
1000

1070
    41
1040
3.0
1070
    73
1070
     1
1070
    74
1070
     1
1070
    77
1070
     3
1070
   140
1040
3.5
1070
   147
1040
1.199999999999999
1070
   271
1070
     3
1070
   278
1070
    46
1002
}
  0
DIMENSION
  5
252
330
1F
100
AcDbEntity
  8
SK2
370
    18
100
AcDbDimension
  2
*D9
 10
45.0
 20
12.11182593034648
 30
0.0
 11
29.00008462780954
 21
15.06182593034648
 31
0.0
 70
    32
 71
     5
 42
31.99983074438093
  3
Standard
100
AcDbAlignedDimension
 13
13.00016925561907
 23
3.922458848076599
 33
0.0
 14
45.0
 24
-0.0000000000000004
 34
0.0
100
AcDbRotatedDimension
1001
ACAD
1000
DSTYLE
1002
{
1070
     3
1000

1070
    41
1040
3.0
1070
    73
1070
     1
1070
    74
1070
     1
1070
    77
1070
     3
1070
   140
1040
3.5
1070
   147
1040
1.199999999999999
1070
   278
1070
    46
1002
}
  0
DIMENSION
  5
260
330
1F
100
AcDbEntity
  8
SK2
370
    18
100
AcDbDimension
  2
*D10
 10
41.7078028876334
 20
-12.98621059814216
 30
0.0
 11
20.85390144381671
 21
-10.03621059814216
 31
0.0
 70
    32
 71
     5
 42
41.7078028876334
  3
Standard
100
AcDbAlignedDimension
 13
0.0
 23
-4.0
 33
0.0
 14
41.7078028876334
 24
-3.822499999999999
 34
0.0
100
AcDbRotatedDimension
1001
ACAD
1000
DSTYLE
1002
{
1070
     3
1000

1070
    41
1040
3.0
1070
    73
1070
     1
1070
    74
1070
     1
1070
    77
1070
     3
1070
   140
1040
3.5
1070
   147
1040
1.199999999999999
1070
   278
1070
    46
1002
}
  0
DIMENSION
  5
26E
330
1F
100
AcDbEntity
  8
SK2
370
    18
100
AcDbDimension
  2
*D11
 10
41.70780288763331
 20
-22.02545446050952
 30
0.0
 11
2.853901443816653
 21
-19.07545446050952
 31
0.0
 70
    32
 71
     5
 42
77.70780288763329
  3
Standard
100
AcDbAlignedDimension
 13
-36.0
 23
-3.7
 33
0.0
 14
41.70780288763331
 24
-3.822499999999981
 34
0.0
100
AcDbRotatedDimension
1001
ACAD
1000
DSTYLE
1002
{
1070
     3
1000

1070
    41
1040
3.0
1070
    73
1070
     1
1070
    74
1070
     1
1070
    77
1070
     3
1070
   140
1040
3.5
1070
   147
1040
1.199999999999999
1070
   278
1070
    46
1002
}
  0
DIMENSION
  5
27C
330
1F
100
AcDbEntity
  8
SK2
370
    18
100
AcDbDimension
  2
*D12
 10
45.0
 20
-31.69205454918658
 30
0.0
 11
4.5
 21
-28.74205454918658
 31
0.0
 70
    32
 71
     5
 42
81.0
  3
Standard
100
AcDbAlignedDimension
 13
-36.0
 23
-3.7
 33
0.0
 14
45.0
 24
-0.0000000000000004
 34
0.0
100
AcDbRotatedDimension
1001
ACAD
1000
DSTYLE
1002
{
1070
     3
1000

1070
    41
1040
3.0
1070
    73
1070
     1
1070
    74
1070
     1
1070
    77
1070
     3
1070
   140
1040
3.5
1070
   147
1040
1.199999999999999
1070
   278
1070
    46
1002
}
  0
DIMENSION
  5
28A
330
1F
100
AcDbEntity
  8
SK2
370
    18
100
AcDbDimension
  2
*D13
 10
41.70780288763331
 20
-17.12307960258418
 30
0.0
 11
57.45
 21
-17.12307960258418
 31
0.0
 70
   160
 71
     5
 42
3.292197112366693
  3
Standard
100
AcDbAlignedDimension
 13
45.0
 23
-0.0625000000000005
 33
0.0
 14
41.70780288763331
 24
-3.822499999999981
 34
0.0
100
AcDbRotatedDimension
1001
ACAD
1000
DSTYLE
1002
{
1070
     3
1000

1070
    41
1040
3.0
1070
    73
1070
     1
1070
    74
1070
     1
1070
    77
1070
     3
1070
   140
1040
3.5
1070
   147
1040
1.199999999999999
1070
   278
1070
    46
1002
}
  0
DIMENSION
  5
298
330
1F
100
AcDbEntity
  8
SK2
370
    18
100
AcDbDimension
  2
*D14
 10
-41.84170702027517
 20
-3.999999999999998
 30
0.0
 11
-32.76670702027519
 21
11.93740262417658
 31
0.0
 70
   160
  1
%%c<>
 71
     5
 42
8.0
  3
Standard
100
AcDbAlignedDimension
 13
-35.7
 23
4.0
 33
0.0
 14
-35.7
 24
-4.0
 34
0.0
 50
90.0
100
AcDbRotatedDimension
1001
ACAD
1000
DSTYLE
1002
{
1070
     3
1000

1070
    41
1040
3.0
1070
    73
1070
     1
1070
    74
1070
     1
1070
    77
1070
     3
1070
   140
1040
3.5
1070
   147
1040
1.199999999999999
1070
   271
1070
     3
1070
   278
1070
    46
1002
}
  0
LINE
  5
486
330
1F
100
AcDbEntity
  8
1
370
    18
100
AcDbLine
 10
13.0001558064444
 20
-3.387007553832508
 30
0.0
 11
13.00010511060874
 21
-3.717309649839113
 31
0.0
  0
ENDSEC
  0
SECTION
  2
OBJECTS
  0
DICTIONARY
  5
183
330
0
100
AcDbDictionary
281
     1
  3
ACAD_COLOR
350
195
  3
ACAD_GROUP
350
184
  3
ACAD_LAYOUT
350
196
  3
ACAD_MATERIAL
350
194
  3
ACAD_MLINESTYLE
350
185
  3
ACAD_PLOTSETTINGS
350
197
  3
ACAD_PLOTSTYLENAME
350
192
  0
DICTIONARY
  5
195
102
{ACAD_REACTORS
330
183
102
}
330
183
100
AcDbDictionary
281
     1
  0
DICTIONARY
  5
184
330
183
100
AcDbDictionary
281
     1
  0
DICTIONARY
  5
196
102
{ACAD_REACTORS
330
183
102
}
330
183
100
AcDbDictionary
281
     1
  3
Layout1
350
199
  3
Model
350
198
  0
DICTIONARY
  5
194
102
{ACAD_REACTORS
330
183
102
}
330
183
100
AcDbDictionary
281
     1
  0
DICTIONARY
  5
185
330
183
100
AcDbDictionary
281
     1
  3
Standard
350
18
  0
DICTIONARY
  5
197
102
{ACAD_REACTORS
330
183
102
}
330
183
100
AcDbDictionary
281
     1
  0
ACDBDICTIONARYWDFLT
  5
192
102
{ACAD_REACTORS
330
183
102
}
330
183
100
AcDbDictionary
281
     1
  3
Normal
350
193
100
AcDbDictionaryWithDefault
340
193
  0
LAYOUT
  5
199
102
{ACAD_REACTORS
330
196
102
}
330
196
100
AcDbPlotSettings
  1

  2
Chappel Main Office
  4

  6

 40
0.0
 41
0.0
 42
0.0
 43
0.0
 44
0.0
 45
0.0
 46
0.0
 47
0.0
 48
0.0
 49
0.0
140
0.0
141
0.0
142
1.0
143
1.0
 70
   688
 72
     0
 73
     0
 74
     5
  7

 75
    16
147
1.0
 76
     0
 77
     2
 78
   300
148
0.0
149
0.0
100
AcDbLayout
  1
Layout1
 70
     1
 71
     1
 10
0.0
 20
0.0
 11
12.0
 21
9.0
 12
0.0
 22
0.0
 32
0.0
 14
1.000000000000000E+20
 24
1.000000000000000E+20
 34
1.000000000000000E+20
 15
-1.000000000000000E+20
 25
-1.000000000000000E+20
 35
-1.000000000000000E+20
146
0.0
 13
0.0
 23
0.0
 33
0.0
 16
1.0
 26
0.0
 36
0.0
 17
0.0
 27
1.0
 37
0.0
 76
     0
330
1B
  0
LAYOUT
  5
198
102
{ACAD_REACTORS
330
196
102
}
330
196
100
AcDbPlotSettings
  1

  2
Chappel Main Office
  4

  6

 40
0.0
 41
0.0
 42
0.0
 43
0.0
 44
0.0
 45
0.0
 46
0.0
 47
0.0
 48
0.0
 49
0.0
140
0.0
141
0.0
142
1.0
143
1.0
 70
  1712
 72
     0
 73
     0
 74
     0
  7

 75
     0
147
1.0
 76
     0
 77
     2
 78
   300
148
0.0
149
0.0
100
AcDbLayout
  1
Model
 70
     1
 71
     0
 10
0.0
 20
0.0
 11
12.0
 21
9.0
 12
0.0
 22
0.0
 32
0.0
 14
0.0
 24
0.0
 34
0.0
 15
0.0
 25
0.0
 35
0.0
146
0.0
 13
0.0
 23
0.0
 33
0.0
 16
1.0
 26
0.0
 36
0.0
 17
0.0
 27
1.0
 37
0.0
 76
     0
330
1F
  0
MLINESTYLE
  5
18
330
185
100
AcDbMlineStyle
  2
STANDARD
 70
     0
  3

 62
   256
 51
90.0
 52
90.0
 71
     2
 49
0.5
 62
   256
  6
BYLAYER
 49
-0.5
 62
   256
  6
BYLAYER
  0
ACDBPLACEHOLDER
  5
193
102
{ACAD_REACTORS
330
192
102
}
330
192
  0
ENDSEC
  0
EOF
