  0
SECTION
  2
HEADER
  9
$ACADVER
  1
AC1018
  9
$ACADMAINTVER
 70
     0
  9
$DWGCODEPAGE
  3
ANSI_1252
  9
$INSBASE
 10
0.0
 20
0.0
 30
0.0
  9
$EXTMIN
 10
-50.54182966666666
 20
-33.692985
 30
0.0
  9
$EXTMAX
 10
166.3247661323053
 20
37.38269400000001
 30
0.0
  9
$LIMMIN
 10
0.0
 20
0.0
  9
$LIMMAX
 10
12.0
 20
9.0
  9
$ORTHOMODE
 70
     0
  9
$REGENMODE
 70
     1
  9
$FILLMODE
 70
     1
  9
$QTEXTMODE
 70
     0
  9
$MIRRTEXT
 70
     0
  9
$LTSCALE
 40
1.0
  9
$ATTMODE
 70
     1
  9
$TEXTSIZE
 40
0.0
  9
$TRACEWID
 40
0.05
  9
$TEXTSTYLE
  7
Standard
  9
$CLAYER
  8
1
  9
$CELTYPE
  6
ByLayer
  9
$CECOLOR
 62
   256
  9
$CELTSCALE
 40
1.0
  9
$DISPSILH
 70
     0
  9
$DIMSCALE
 40
1.0
  9
$DIMASZ
 40
0.18
  9
$DIMEXO
 40
0.0625
  9
$DIMDLI
 40
0.38
  9
$DIMRND
 40
0.0
  9
$DIMDLE
 40
0.0
  9
$DIMEXE
 40
0.18
  9
$DIMTP
 40
0.0
  9
$DIMTM
 40
0.0
  9
$DIMTXT
 40
0.18
  9
$DIMCEN
 40
0.09
  9
$DIMTSZ
 40
0.0
  9
$DIMTOL
 70
     0
  9
$DIMLIM
 70
     0
  9
$DIMTIH
 70
     1
  9
$DIMTOH
 70
     1
  9
$DIMSE1
 70
     0
  9
$DIMSE2
 70
     0
  9
$DIMTAD
 70
     0
  9
$DIMZIN
 70
     0
  9
$DIMBLK
  1

  9
$DIMASO
 70
     1
  9
$DIMSHO
 70
     1
  9
$DIMPOST
  1

  9
$DIMAPOST
  1

  9
$DIMALT
 70
     0
  9
$DIMALTD
 70
     2
  9
$DIMALTF
 40
25.4
  9
$DIMLFAC
 40
1.0
  9
$DIMTOFL
 70
     0
  9
$DIMTVP
 40
0.0
  9
$DIMTIX
 70
     0
  9
$DIMSOXD
 70
     0
  9
$DIMSAH
 70
     0
  9
$DIMBLK1
  1

  9
$DIMBLK2
  1

  9
$DIMSTYLE
  2
Standard
  9
$DIMCLRD
 70
     0
  9
$DIMCLRE
 70
     0
  9
$DIMCLRT
 70
     0
  9
$DIMTFAC
 40
1.0
  9
$DIMGAP
 40
0.09
  9
$DIMJUST
 70
     0
  9
$DIMSD1
 70
     0
  9
$DIMSD2
 70
     0
  9
$DIMTOLJ
 70
     1
  9
$DIMTZIN
 70
     0
  9
$DIMALTZ
 70
     0
  9
$DIMALTTZ
 70
     0
  9
$DIMUPT
 70
     0
  9
$DIMDEC
 70
     4
  9
$DIMTDEC
 70
     4
  9
$DIMALTU
 70
     2
  9
$DIMALTTD
 70
     2
  9
$DIMTXSTY
  7
Standard
  9
$DIMAUNIT
 70
     0
  9
$DIMADEC
 70
     0
  9
$DIMALTRND
 40
0.0
  9
$DIMAZIN
 70
     0
  9
$DIMDSEP
 70
    46
  9
$DIMATFIT
 70
     3
  9
$DIMFRAC
 70
     0
  9
$DIMLDRBLK
  1

  9
$DIMLUNIT
 70
     2
  9
$DIMLWD
 70
    -2
  9
$DIMLWE
 70
    -2
  9
$DIMTMOVE
 70
     0
  9
$LUNITS
 70
     2
  9
$LUPREC
 70
     4
  9
$SKETCHINC
 40
0.1
  9
$FILLETRAD
 40
0.0
  9
$AUNITS
 70
     0
  9
$AUPREC
 70
     0
  9
$MENU
  1
.
  9
$ELEVATION
 40
0.0
  9
$PELEVATION
 40
0.0
  9
$THICKNESS
 40
0.0
  9
$LIMCHECK
 70
     0
  9
$CHAMFERA
 40
0.0
  9
$CHAMFERB
 40
0.0
  9
$CHAMFERC
 40
0.0
  9
$CHAMFERD
 40
0.0
  9
$SKPOLY
 70
     0
  9
$TDCREATE
 40
2457169.562357651
  9
$TDUCREATE
 40
2457169.812357651
  9
$TDUPDATE
 40
2457175.517554248
  9
$TDUUPDATE
 40
2457175.767554248
  9
$TDINDWG
 40
0.0075462731
  9
$TDUSRTIMER
 40
0.0075461921
  9
$USRTIMER
 70
     1
  9
$ANGBASE
 50
0.0
  9
$ANGDIR
 70
     0
  9
$PDMODE
 70
     0
  9
$PDSIZE
 40
0.0
  9
$PLINEWID
 40
0.0
  9
$SPLFRAME
 70
     0
  9
$SPLINETYPE
 70
     6
  9
$SPLINESEGS
 70
     8
  9
$HANDSEED
  5
482
  9
$SURFTAB1
 70
     6
  9
$SURFTAB2
 70
     6
  9
$SURFTYPE
 70
     6
  9
$SURFU
 70
     6
  9
$SURFV
 70
     6
  9
$UCSBASE
  2

  9
$UCSNAME
  2

  9
$UCSORG
 10
0.0
 20
0.0
 30
0.0
  9
$UCSXDIR
 10
1.0
 20
0.0
 30
0.0
  9
$UCSYDIR
 10
0.0
 20
1.0
 30
0.0
  9
$UCSORTHOREF
  2

  9
$UCSORTHOVIEW
 70
     0
  9
$UCSORGTOP
 10
0.0
 20
0.0
 30
0.0
  9
$UCSORGBOTTOM
 10
0.0
 20
0.0
 30
0.0
  9
$UCSORGLEFT
 10
0.0
 20
0.0
 30
0.0
  9
$UCSORGRIGHT
 10
0.0
 20
0.0
 30
0.0
  9
$UCSORGFRONT
 10
0.0
 20
0.0
 30
0.0
  9
$UCSORGBACK
 10
0.0
 20
0.0
 30
0.0
  9
$PUCSBASE
  2

  9
$PUCSNAME
  2

  9
$PUCSORG
 10
0.0
 20
0.0
 30
0.0
  9
$PUCSXDIR
 10
1.0
 20
0.0
 30
0.0
  9
$PUCSYDIR
 10
0.0
 20
1.0
 30
0.0
  9
$PUCSORTHOREF
  2

  9
$PUCSORTHOVIEW
 70
     0
  9
$PUCSORGTOP
 10
0.0
 20
0.0
 30
0.0
  9
$PUCSORGBOTTOM
 10
0.0
 20
0.0
 30
0.0
  9
$PUCSORGLEFT
 10
0.0
 20
0.0
 30
0.0
  9
$PUCSORGRIGHT
 10
0.0
 20
0.0
 30
0.0
  9
$PUCSORGFRONT
 10
0.0
 20
0.0
 30
0.0
  9
$PUCSORGBACK
 10
0.0
 20
0.0
 30
0.0
  9
$USERI1
 70
     0
  9
$USERI2
 70
     0
  9
$USERI3
 70
     0
  9
$USERI4
 70
     0
  9
$USERI5
 70
     0
  9
$USERR1
 40
0.0
  9
$USERR2
 40
0.0
  9
$USERR3
 40
0.0
  9
$USERR4
 40
0.0
  9
$USERR5
 40
0.0
  9
$WORLDVIEW
 70
     1
  9
$SHADEDGE
 70
     3
  9
$SHADEDIF
 70
    70
  9
$TILEMODE
 70
     1
  9
$MAXACTVP
 70
    64
  9
$PINSBASE
 10
0.0
 20
0.0
 30
0.0
  9
$PLIMCHECK
 70
     0
  9
$PEXTMIN
 10
1.000000000000000E+20
 20
1.000000000000000E+20
 30
1.000000000000000E+20
  9
$PEXTMAX
 10
-1.000000000000000E+20
 20
-1.000000000000000E+20
 30
-1.000000000000000E+20
  9
$PLIMMIN
 10
0.0
 20
0.0
  9
$PLIMMAX
 10
12.0
 20
9.0
  9
$UNITMODE
 70
     0
  9
$VISRETAIN
 70
     1
  9
$PLINEGEN
 70
     0
  9
$PSLTSCALE
 70
     1
  9
$TREEDEPTH
 70
  3020
  9
$CMLSTYLE
  2
Standard
  9
$CMLJUST
 70
     0
  9
$CMLSCALE
 40
1.0
  9
$PROXYGRAPHICS
 70
     1
  9
$MEASUREMENT
 70
     0
  9
$CELWEIGHT
370
    18
  9
$ENDCAPS
280
     0
  9
$JOINSTYLE
280
     0
  9
$LWDISPLAY
290
     1
  9
$INSUNITS
 70
     4
  9
$HYPERLINKBASE
  1

  9
$STYLESHEET
  1

  9
$XEDIT
290
     1
  9
$CEPSNTYPE
380
     0
  9
$PSTYLEMODE
290
     1
  9
$FINGERPRINTGUID
  2
{1A3370DD-E015-4359-90D3-D666A526498D}
  9
$VERSIONGUID
  2
{F1567538-6740-4F62-9CA5-E0D420DD67B9}
  9
$EXTNAMES
290
     1
  9
$PSVPSCALE
 40
0.0
  9
$OLESTARTUP
290
     0
  9
$SORTENTS
280
   127
  9
$INDEXCTL
280
     0
  9
$HIDETEXT
280
     0
  9
$XCLIPFRAME
290
     0
  9
$HALOGAP
280
     0
  9
$OBSCOLOR
 70
   257
  9
$OBSLTYPE
280
     0
  9
$INTERSECTIONDISPLAY
280
     0
  9
$INTERSECTIONCOLOR
 70
   257
  9
$DIMASSOC
280
     1
  9
$PROJECTNAME
  1

  0
ENDSEC
  0
SECTION
  2
CLASSES
  0
CLASS
  1
RASTERVARIABLES
  2
AcDbRasterVariables
  3
ISM
 90
        0
 91
        0
280
     0
281
     0
  0
CLASS
  1
ACDBDICTIONARYWDFLT
  2
AcDbDictionaryWithDefault
  3
ObjectDBX Classes
 90
        0
 91
        1
280
     0
281
     0
  0
ENDSEC
  0
SECTION
  2
TABLES
  0
TABLE
  2
VPORT
  5
186
330
0
100
AcDbSymbolTable
 70
     4
  0
VPORT
  5
481
330
186
100
AcDbSymbolTableRecord
100
AcDbViewportTableRecord
  2
*Active
 70
     0
 10
0.0
 20
0.0
 11
1.0
 21
1.0
 12
-6.726155952263695
 22
-2.812654616142651
 13
0.0
 23
0.0
 14
0.5
 24
0.5
 15
10.0
 25
10.0
 16
0.0
 26
0.0
 36
1.0
 17
0.0
 27
0.0
 37
0.0
 40
99.10515393073138
 41
2.336906584992342
 42
50.0
 43
0.0
 44
0.0
 50
0.0
 51
0.0
 71
     0
 72
   100
 73
     1
 74
     1
 75
     0
 76
     0
 77
     0
 78
     0
281
     0
 65
     1
110
0.0
120
0.0
130
0.0
111
1.0
121
0.0
131
0.0
112
0.0
122
1.0
132
0.0
 79
     0
146
0.0
  0
ENDTAB
  0
TABLE
  2
LTYPE
  5
187
330
0
100
AcDbSymbolTable
 70
     3
  0
LTYPE
  5
14
330
187
100
AcDbSymbolTableRecord
100
AcDbLinetypeTableRecord
  2
ByBlock
 70
     0
  3

 72
    65
 73
     0
 40
0.0
  0
LTYPE
  5
15
330
187
100
AcDbSymbolTableRecord
100
AcDbLinetypeTableRecord
  2
ByLayer
 70
     0
  3

 72
    65
 73
     0
 40
0.0
  0
LTYPE
  5
16
330
187
100
AcDbSymbolTableRecord
100
AcDbLinetypeTableRecord
  2
CONTINUOUS
 70
     0
  3
Solid line
 72
    65
 73
     0
 40
0.0
  0
LTYPE
  5
6A
330
187
100
AcDbSymbolTableRecord
100
AcDbLinetypeTableRecord
  2
CENTER
 70
     0
  3
____ _ ____ _ ____ _ ____
 72
    65
 73
     4
 40
47.5
 49
22.0
 74
     0
 49
-8.5
 74
     0
 49
8.5
 74
     0
 49
-8.5
 74
     0
  0
LTYPE
  5
6B
330
187
100
AcDbSymbolTableRecord
100
AcDbLinetypeTableRecord
  2
DASHED
 70
     0
  3
__ __ __ __ __ __ __ __ __
 72
    65
 73
     2
 40
25.72
 49
12.86
 74
     0
 49
-12.86
 74
     0
  0
ENDTAB
  0
TABLE
  2
LAYER
  5
188
330
0
100
AcDbSymbolTable
 70
    11
  0
LAYER
  5
10
330
188
100
AcDbSymbolTableRecord
100
AcDbLayerTableRecord
  2
0
 70
     0
 62
     7
  6
CONTINUOUS
370
    -3
390
193
  0
LAYER
  5
6D
330
188
100
AcDbSymbolTableRecord
100
AcDbLayerTableRecord
  2
81
 70
     0
 62
    -3
  6
CONTINUOUS
370
    -3
390
193
  0
LAYER
  5
6F
330
188
100
AcDbSymbolTableRecord
100
AcDbLayerTableRecord
  2
80
 70
     0
 62
    -6
  6
CONTINUOUS
370
    -3
390
193
  0
LAYER
  5
74
330
188
100
AcDbSymbolTableRecord
100
AcDbLayerTableRecord
  2
2
 70
     0
 62
     7
  6
CONTINUOUS
370
    -3
390
193
  0
LAYER
  5
78
330
188
100
AcDbSymbolTableRecord
100
AcDbLayerTableRecord
  2
1
 70
     0
 62
     4
  6
CONTINUOUS
370
    -3
390
193
  0
LAYER
  5
88
330
188
100
AcDbSymbolTableRecord
100
AcDbLayerTableRecord
  2
4
 70
     0
 62
    -2
  6
CENTER
370
    -3
390
193
  0
LAYER
  5
172
330
188
100
AcDbSymbolTableRecord
100
AcDbLayerTableRecord
  2
SK2
 70
     0
 62
     7
  6
CONTINUOUS
370
    -3
390
193
  0
LAYER
  5
173
330
188
100
AcDbSymbolTableRecord
100
AcDbLayerTableRecord
  2
SK1
 70
     0
 62
     4
  6
CONTINUOUS
370
    -3
390
193
  0
LAYER
  5
174
330
188
100
AcDbSymbolTableRecord
100
AcDbLayerTableRecord
  2
SK4
 70
     0
 62
     2
  6
CENTER
370
    -3
390
193
  0
LAYER
  5
175
330
188
100
AcDbSymbolTableRecord
100
AcDbLayerTableRecord
  2
SK6
 70
     0
 62
     5
  6
CONTINUOUS
370
    -3
390
193
  0
LAYER
  5
239
330
188
100
AcDbSymbolTableRecord
100
AcDbLayerTableRecord
  2
Defpoints
 70
     0
 62
     7
  6
CONTINUOUS
290
     0
370
    -3
390
193
  0
ENDTAB
  0
TABLE
  2
STYLE
  5
189
330
0
100
AcDbSymbolTable
 70
     3
  0
STYLE
  5
11
330
189
100
AcDbSymbolTableRecord
100
AcDbTextStyleTableRecord
  2
Standard
 70
     0
 40
0.0
 41
1.0
 50
0.0
 71
     0
 42
0.0
  3
txt
  4

  0
STYLE
  5
CE
330
189
100
AcDbSymbolTableRecord
100
AcDbTextStyleTableRecord
  2
iso_b_vert
 70
     0
 40
0.0
 41
1.0
 50
0.0
 71
     0
 42
0.0
  3
simplex.shx
  4

  0
STYLE
  5
CF
330
189
100
AcDbSymbolTableRecord
100
AcDbTextStyleTableRecord
  2
DWGDirectTextStyle
 70
     0
 40
0.0
 41
1.0
 50
0.0
 71
     0
 42
0.0
  3
simplex
  4

  0
ENDTAB
  0
TABLE
  2
VIEW
  5
18B
330
0
100
AcDbSymbolTable
 70
     0
  0
ENDTAB
  0
TABLE
  2
UCS
  5
18C
330
0
100
AcDbSymbolTable
 70
     0
  0
ENDTAB
  0
TABLE
  2
APPID
  5
18D
330
0
100
AcDbSymbolTable
 70
     1
  0
APPID
  5
12
330
18D
100
AcDbSymbolTableRecord
100
AcDbRegAppTableRecord
  2
ACAD
 70
     0
  0
ENDTAB
  0
TABLE
  2
DIMSTYLE
  5
18A
330
0
100
AcDbSymbolTable
 70
     2
100
AcDbDimStyleTable
 71
     1
340
27
  0
DIMSTYLE
105
27
102
{ACAD_REACTORS
330
238
330
247
330
255
330
263
330
271
330
27F
330
28D
102
}
330
18A
100
AcDbSymbolTableRecord
100
AcDbDimStyleTableRecord
  2
Standard
 70
     0
  3
<>
 73
     0
 74
     0
 77
     1
271
     2
278
    52
340
11
  0
DIMSTYLE
105
1A1
330
18A
100
AcDbSymbolTableRecord
100
AcDbDimStyleTableRecord
  2
ISO-25
 70
     0
 41
2.5
 42
0.625
 43
3.75
 44
1.25
 73
     0
 74
     0
 77
     1
 78
     8
140
2.5
141
2.5
143
0.0393700787
147
0.625
171
     3
172
     1
271
     2
272
     2
274
     3
278
    44
283
     0
284
     8
340
11
  0
ENDTAB
  0
TABLE
  2
BLOCK_RECORD
  5
18E
330
0
100
AcDbSymbolTable
 70
    16
  0
BLOCK_RECORD
  5
1F
330
18E
100
AcDbSymbolTableRecord
100
AcDbBlockTableRecord
  2
*Model_Space
340
198
  0
BLOCK_RECORD
  5
1B
330
18E
100
AcDbSymbolTableRecord
100
AcDbBlockTableRecord
  2
*Paper_Space
340
199
  0
BLOCK_RECORD
  5
23
330
18E
100
AcDbSymbolTableRecord
100
AcDbBlockTableRecord
  2
*Paper_Space0
340
0
  0
BLOCK_RECORD
  5
D1
330
18E
100
AcDbSymbolTableRecord
100
AcDbBlockTableRecord
  2
DimnDraft3D1
340
0
  0
BLOCK_RECORD
  5
DB
330
18E
100
AcDbSymbolTableRecord
100
AcDbBlockTableRecord
  2
DimnDraft3D2
340
0
  0
BLOCK_RECORD
  5
E5
330
18E
100
AcDbSymbolTableRecord
100
AcDbBlockTableRecord
  2
DimnDraft3D3
340
0
  0
BLOCK_RECORD
  5
EF
330
18E
100
AcDbSymbolTableRecord
100
AcDbBlockTableRecord
  2
DimnDraft3D4
340
0
  0
BLOCK_RECORD
  5
F9
330
18E
100
AcDbSymbolTableRecord
100
AcDbBlockTableRecord
  2
DimnDraft3D5
340
0
  0
BLOCK_RECORD
  5
103
330
18E
100
AcDbSymbolTableRecord
100
AcDbBlockTableRecord
  2
DimnDraft3D6
340
0
  0
BLOCK_RECORD
  5
10E
330
18E
100
AcDbSymbolTableRecord
100
AcDbBlockTableRecord
  2
DimnDraft3D7
340
0
  0
BLOCK_RECORD
  5
23A
330
18E
100
AcDbSymbolTableRecord
100
AcDbBlockTableRecord
  2
*D9
340
0
  0
BLOCK_RECORD
  5
248
330
18E
100
AcDbSymbolTableRecord
100
AcDbBlockTableRecord
  2
*D10
340
0
  0
BLOCK_RECORD
  5
256
330
18E
100
AcDbSymbolTableRecord
100
AcDbBlockTableRecord
  2
*D11
340
0
  0
BLOCK_RECORD
  5
264
330
18E
100
AcDbSymbolTableRecord
100
AcDbBlockTableRecord
  2
*D12
340
0
  0
BLOCK_RECORD
  5
272
330
18E
100
AcDbSymbolTableRecord
100
AcDbBlockTableRecord
  2
*D13
340
0
  0
BLOCK_RECORD
  5
280
330
18E
100
AcDbSymbolTableRecord
100
AcDbBlockTableRecord
  2
*D14
340
0
  0
BLOCK_RECORD
  5
28E
330
18E
100
AcDbSymbolTableRecord
100
AcDbBlockTableRecord
  2
*D15
340
0
  0
ENDTAB
  0
ENDSEC
  0
SECTION
  2
BLOCKS
  0
BLOCK
  5
20
330
1F
100
AcDbEntity
  8
0
100
AcDbBlockBegin
  2
*Model_Space
 70
     0
 10
0.0
 20
0.0
 30
0.0
  3
*Model_Space
  1

  0
ENDBLK
  5
21
330
1F
100
AcDbEntity
  8
0
100
AcDbBlockEnd
  0
BLOCK
  5
1C
330
1B
100
AcDbEntity
 67
     1
  8
0
100
AcDbBlockBegin
  2
*Paper_Space
 70
     0
 10
0.0
 20
0.0
 30
0.0
  3
*Paper_Space
  1

  0
ENDBLK
  5
1D
330
1B
100
AcDbEntity
 67
     1
  8
0
100
AcDbBlockEnd
  0
BLOCK
  5
24
330
23
100
AcDbEntity
  8
0
100
AcDbBlockBegin
  2
*Paper_Space0
 70
     0
 10
0.0
 20
0.0
 30
0.0
  3
*Paper_Space0
  1

  0
ENDBLK
  5
25
330
23
100
AcDbEntity
  8
0
100
AcDbBlockEnd
  0
BLOCK
  5
D8
330
D1
100
AcDbEntity
  8
0
100
AcDbBlockBegin
  2
DimnDraft3D1
 70
     0
 10
0.0
 20
0.0
 30
0.0
  3
DimnDraft3D1
  1

  0
MTEXT
  5
D2
330
D1
100
AcDbEntity
  8
SK2
370
    13
100
AcDbMText
 10
7.372275
 20
-10.838398
 30
0.0
 40
3.5
 41
0.0
 71
     7
 72
     5
  1
\W0.7317;25,57
  7
iso_b_vert
 73
     1
 44
1.084337
  0
LINE
  5
D3
330
D1
100
AcDbEntity
  8
SK2
370
    13
100
AcDbLine
 10
0.0
 20
-1.587499999999999
 30
0.0
 11
0.0
 21
-13.713398
 31
0.0
  0
LINE
  5
D4
330
D1
100
AcDbEntity
  8
SK2
370
    13
100
AcDbLine
 10
25.5709
 20
-3.087499999999999
 30
0.0
 11
25.5709
 21
-13.713398
 31
0.0
  0
LINE
  5
D5
330
D1
100
AcDbEntity
  8
SK2
370
    13
100
AcDbLine
 10
0.0
 20
-11.713398
 30
0.0
 11
25.5709
 21
-11.713398
 31
0.0
  0
SOLID
  5
D6
330
D1
100
AcDbEntity
  8
SK2
370
    13
100
AcDbTrace
 10
0.0
 20
-11.713398
 30
0.0
 11
3.499998
 21
-11.252615
 31
0.0
 12
3.500001999999998
 22
-12.174182
 32
0.0
 13
0.0
 23
-11.713398
 33
0.0
  0
SOLID
  5
D7
330
D1
100
AcDbEntity
  8
SK2
370
    13
100
AcDbTrace
 10
25.5709
 20
-11.713398
 30
0.0
 11
22.070902
 21
-12.174182
 31
0.0
 12
22.070898
 22
-11.252615
 32
0.0
 13
25.5709
 23
-11.713398
 33
0.0
  0
ENDBLK
  5
D9
330
D1
100
AcDbEntity
  8
0
100
AcDbBlockEnd
  0
BLOCK
  5
E2
330
DB
100
AcDbEntity
  8
0
100
AcDbBlockBegin
  2
DimnDraft3D2
 70
     0
 10
0.0
 20
0.0
 30
0.0
  3
DimnDraft3D2
  1

  0
MTEXT
  5
DC
330
DB
100
AcDbEntity
  8
SK2
370
    13
100
AcDbMText
 10
-8.536483999999997
 20
-30.817985
 30
0.0
 40
3.5
 41
0.0
 71
     7
 72
     5
  1
\W0.7317;62,00
  7
iso_b_vert
 73
     1
 44
1.084337
  0
LINE
  5
DD
330
DB
100
AcDbEntity
  8
SK2
370
    13
100
AcDbLine
 10
-36.0
 20
-4.5875
 30
0.0
 11
-36.0
 21
-33.692985
 31
0.0
  0
LINE
  5
DE
330
DB
100
AcDbEntity
  8
SK2
370
    13
100
AcDbLine
 10
26.0
 20
-1.587499999999999
 30
0.0
 11
26.0
 21
-33.692985
 31
0.0
  0
LINE
  5
DF
330
DB
100
AcDbEntity
  8
SK2
370
    13
100
AcDbLine
 10
-36.0
 20
-31.692985
 30
0.0
 11
26.0
 21
-31.692985
 31
0.0
  0
SOLID
  5
E0
330
DB
100
AcDbEntity
  8
SK2
370
    13
100
AcDbTrace
 10
-36.0
 20
-31.692985
 30
0.0
 11
-32.50000200000001
 21
-31.232202
 31
0.0
 12
-32.499998
 22
-32.153769
 32
0.0
 13
-36.0
 23
-31.692985
 33
0.0
  0
SOLID
  5
E1
330
DB
100
AcDbEntity
  8
SK2
370
    13
100
AcDbTrace
 10
26.0
 20
-31.692985
 30
0.0
 11
22.500002
 21
-32.153769
 31
0.0
 12
22.499998
 22
-31.232202
 32
0.0
 13
26.0
 23
-31.692985
 33
0.0
  0
ENDBLK
  5
E3
330
DB
100
AcDbEntity
  8
0
100
AcDbBlockEnd
  0
BLOCK
  5
EC
330
E5
100
AcDbEntity
  8
0
100
AcDbBlockBegin
  2
DimnDraft3D3
 70
     0
 10
0.0
 20
0.0
 30
0.0
  3
DimnDraft3D3
  1

  0
MTEXT
  5
E6
330
E5
100
AcDbEntity
  8
SK2
370
    13
100
AcDbMText
 10
17.965
 20
13.984119
 30
0.0
 40
3.5
 41
0.0
 71
     7
 72
     5
  1
\W0.7493;9,42
  7
iso_b_vert
 73
     1
 44
1.084337
  0
LINE
  5
E7
330
E5
100
AcDbEntity
  8
SK2
370
    13
100
AcDbLine
 10
16.58
 20
3.087499999999999
 30
0.0
 11
16.58
 21
15.109119
 31
0.0
  0
LINE
  5
E8
330
E5
100
AcDbEntity
  8
SK2
370
    13
100
AcDbLine
 10
26.0
 20
1.587499999999999
 30
0.0
 11
26.0
 21
15.109119
 31
0.0
  0
LINE
  5
E9
330
E5
100
AcDbEntity
  8
SK2
370
    13
100
AcDbLine
 10
16.58
 20
13.109119
 30
0.0
 11
26.0
 21
13.109119
 31
0.0
  0
SOLID
  5
EA
330
E5
100
AcDbEntity
  8
SK2
370
    13
100
AcDbTrace
 10
16.58
 20
13.109119
 30
0.0
 11
20.079998
 21
13.569903
 31
0.0
 12
20.080002
 22
12.648335
 32
0.0
 13
16.58
 23
13.109119
 33
0.0
  0
SOLID
  5
EB
330
E5
100
AcDbEntity
  8
SK2
370
    13
100
AcDbTrace
 10
26.0
 20
13.109119
 30
0.0
 11
22.500002
 21
12.648335
 31
0.0
 12
22.499998
 22
13.569903
 32
0.0
 13
26.0
 23
13.109119
 33
0.0
  0
ENDBLK
  5
ED
330
E5
100
AcDbEntity
  8
0
100
AcDbBlockEnd
  0
BLOCK
  5
F6
330
EF
100
AcDbEntity
  8
0
100
AcDbBlockBegin
  2
DimnDraft3D4
 70
     0
 10
0.0
 20
0.0
 30
0.0
  3
DimnDraft3D4
  1

  0
MTEXT
  5
F0
330
EF
100
AcDbEntity
  8
SK2
370
    13
100
AcDbMText
 10
32.656425
 20
-13.427503
 30
0.0
 40
3.5
 41
0.0
 71
     7
 72
     5
  1
\W0.7493;0,43
  7
iso_b_vert
 73
     1
 44
1.084337
  0
LINE
  5
F1
330
EF
100
AcDbEntity
  8
SK2
370
    13
100
AcDbLine
 10
26.0
 20
-1.587499999999999
 30
0.0
 11
26.0
 21
-16.302503
 31
0.0
  0
LINE
  5
F2
330
EF
100
AcDbEntity
  8
SK2
370
    13
100
AcDbLine
 10
25.5709
 20
-3.087499999999999
 30
0.0
 11
25.5709
 21
-16.302503
 31
0.0
  0
LINE
  5
F3
330
EF
100
AcDbEntity
  8
SK2
370
    13
100
AcDbLine
 10
16.8209
 20
-14.302503
 30
0.0
 11
40.18142499999998
 21
-14.302503
 31
0.0
  0
SOLID
  5
F4
330
EF
100
AcDbEntity
  8
SK2
370
    13
100
AcDbTrace
 10
26.0
 20
-14.302503
 30
0.0
 11
29.499998
 21
-13.841719
 31
0.0
 12
29.500002
 22
-14.763287
 32
0.0
 13
26.0
 23
-14.302503
 33
0.0
  0
SOLID
  5
F5
330
EF
100
AcDbEntity
  8
SK2
370
    13
100
AcDbTrace
 10
25.5709
 20
-14.302503
 30
0.0
 11
22.070902
 21
-14.763287
 31
0.0
 12
22.070898
 22
-13.841719
 32
0.0
 13
25.5709
 23
-14.302503
 33
0.0
  0
ENDBLK
  5
F7
330
EF
100
AcDbEntity
  8
0
100
AcDbBlockEnd
  0
BLOCK
  5
100
330
F9
100
AcDbEntity
  8
0
100
AcDbBlockBegin
  2
DimnDraft3D5
 70
     0
 10
0.0
 20
0.0
 30
0.0
  3
DimnDraft3D5
  1

  0
MTEXT
  5
FA
330
F9
100
AcDbEntity
  8
SK2
370
    13
100
AcDbMText
 10
-11.179608
 20
-20.468428
 30
0.0
 40
3.5
 41
0.0
 71
     7
 72
     5
  1
\W0.6713;61,57
  7
iso_b_vert
 73
     1
 44
1.084337
  0
LINE
  5
FB
330
F9
100
AcDbEntity
  8
SK2
370
    13
100
AcDbLine
 10
-36.0
 20
-4.5875
 30
0.0
 11
-36.0
 21
-23.343428
 31
0.0
  0
LINE
  5
FC
330
F9
100
AcDbEntity
  8
SK2
370
    13
100
AcDbLine
 10
25.5709
 20
-3.087499999999999
 30
0.0
 11
25.5709
 21
-23.343428
 31
0.0
  0
LINE
  5
FD
330
F9
100
AcDbEntity
  8
SK2
370
    13
100
AcDbLine
 10
-36.0
 20
-21.343428
 30
0.0
 11
25.5709
 21
-21.343428
 31
0.0
  0
SOLID
  5
FE
330
F9
100
AcDbEntity
  8
SK2
370
    13
100
AcDbTrace
 10
-36.0
 20
-21.343428
 30
0.0
 11
-32.50000200000001
 21
-20.882645
 31
0.0
 12
-32.499998
 22
-21.804212
 32
0.0
 13
-36.0
 23
-21.343428
 33
0.0
  0
SOLID
  5
FF
330
F9
100
AcDbEntity
  8
SK2
370
    13
100
AcDbTrace
 10
25.5709
 20
-21.343428
 30
0.0
 11
22.070902
 21
-21.804212
 31
0.0
 12
22.070898
 22
-20.882645
 32
0.0
 13
25.5709
 23
-21.343428
 33
0.0
  0
ENDBLK
  5
101
330
F9
100
AcDbEntity
  8
0
100
AcDbBlockEnd
  0
BLOCK
  5
10B
330
103
100
AcDbEntity
  8
0
100
AcDbBlockBegin
  2
DimnDraft3D6
 70
     0
 10
0.0
 20
0.0
 30
0.0
  3
DimnDraft3D6
  1

  0
MTEXT
  5
104
330
103
100
AcDbEntity
  8
SK2
370
    13
100
AcDbMText
 10
-46.375163
 20
22.34918
 30
0.0
 40
3.5
 41
0.0
 71
     7
 72
     5
  1
\W0.7317;6,000
  7
iso_b_vert
 11
0.0000000000000001
 21
1.0
 31
0.0
 73
     1
 44
1.084337
  0
MTEXT
  5
105
330
103
100
AcDbEntity
  8
SK2
370
    13
100
AcDbMText
 10
-46.375163
 20
17.126524
 30
0.0
 40
3.5
 41
0.0
 71
     7
 72
     5
  1
%%c
  7
iso_b_vert
 11
0.0000000000000001
 21
1.0
 31
0.0
 73
     1
 44
1.084337
  0
LINE
  5
106
330
103
100
AcDbEntity
  8
SK2
370
    13
100
AcDbLine
 10
-37.5875
 20
-3.0
 30
0.0
 11
-46.625163
 21
-3.0
 31
0.0
  0
LINE
  5
107
330
103
100
AcDbEntity
  8
SK2
370
    13
100
AcDbLine
 10
-37.5875
 20
3.0
 30
0.0
 11
-46.625163
 21
3.0
 31
0.0
  0
LINE
  5
108
330
103
100
AcDbEntity
  8
SK2
370
    13
100
AcDbLine
 10
-44.62516299999999
 20
32.121549
 30
0.0
 11
-44.62516299999999
 21
-11.75
 31
0.0
  0
SOLID
  5
109
330
103
100
AcDbEntity
  8
SK2
370
    13
100
AcDbTrace
 10
-44.62516299999999
 20
-3.0
 30
0.0
 11
-44.164379
 21
-6.499998
 31
0.0
 12
-45.085946
 22
-6.500001999999998
 32
0.0
 13
-44.62516299999999
 23
-3.0
 33
0.0
  0
SOLID
  5
10A
330
103
100
AcDbEntity
  8
SK2
370
    13
100
AcDbTrace
 10
-44.62516299999999
 20
3.0
 30
0.0
 11
-45.085946
 21
6.499998
 31
0.0
 12
-44.164379
 22
6.500001999999998
 32
0.0
 13
-44.62516299999999
 23
3.0
 33
0.0
  0
ENDBLK
  5
10C
330
103
100
AcDbEntity
  8
0
100
AcDbBlockEnd
  0
BLOCK
  5
116
330
10E
100
AcDbEntity
  8
0
100
AcDbBlockBegin
  2
DimnDraft3D7
 70
     0
 10
0.0
 20
0.0
 30
0.0
  3
DimnDraft3D7
  1

  0
MTEXT
  5
10F
330
10E
100
AcDbEntity
  8
2
370
    13
100
AcDbMText
 10
36.333343
 20
19.442266
 30
0.0
 40
3.5
 41
0.0
 71
     7
 72
     5
  1
\W0.7317;3,000
  7
iso_b_vert
 11
0.0000000000000001
 21
1.0
 31
0.0
 73
     1
 44
1.084337
  0
MTEXT
  5
110
330
10E
100
AcDbEntity
  8
2
370
    13
100
AcDbMText
 10
36.333343
 20
14.21961
 30
0.0
 40
3.5
 41
0.0
 71
     7
 72
     5
  1
%%c
  7
iso_b_vert
 11
0.0000000000000001
 21
1.0
 31
0.0
 73
     1
 44
1.084337
  0
LINE
  5
111
330
10E
100
AcDbEntity
  8
2
370
    13
100
AcDbLine
 10
27.1584
 20
-1.5
 30
0.0
 11
40.083343
 21
-1.5
 31
0.0
  0
LINE
  5
112
330
10E
100
AcDbEntity
  8
2
370
    13
100
AcDbLine
 10
27.1584
 20
1.5
 30
0.0
 11
40.083343
 21
1.5
 31
0.0
  0
LINE
  5
113
330
10E
100
AcDbEntity
  8
2
370
    13
100
AcDbLine
 10
38.083343
 20
29.214635
 30
0.0
 11
38.083343
 21
-10.25
 31
0.0
  0
SOLID
  5
114
330
10E
100
AcDbEntity
  8
2
370
    13
100
AcDbTrace
 10
38.083343
 20
-1.5
 30
0.0
 11
38.544126
 21
-4.999998
 31
0.0
 12
37.622559
 22
-5.000001999999998
 32
0.0
 13
38.083343
 23
-1.5
 33
0.0
  0
SOLID
  5
115
330
10E
100
AcDbEntity
  8
2
370
    13
100
AcDbTrace
 10
38.083343
 20
1.5
 30
0.0
 11
37.622559
 21
4.999998
 31
0.0
 12
38.544126
 22
5.000001999999998
 32
0.0
 13
38.083343
 23
1.5
 33
0.0
  0
ENDBLK
  5
117
330
10E
100
AcDbEntity
  8
0
100
AcDbBlockEnd
  0
BLOCK
  5
245
330
23A
100
AcDbEntity
  8
0
370
    18
100
AcDbBlockBegin
  2
*D9
 70
     1
 10
0.0
 20
0.0
 30
0.0
  3
*D9
  1

  0
LINE
  5
473
330
23A
100
AcDbEntity
  8
2
 62
     0
370
    -2
100
AcDbLine
 10
33.0505061721
 20
3.176999999999996
 30
0.0
 11
42.91721725679767
 21
3.176999999999994
 31
0.0
  0
LINE
  5
474
330
23A
100
AcDbEntity
  8
2
 62
     0
370
    -2
100
AcDbLine
 10
32.7986373041
 20
-3.177000000000002
 30
0.0
 11
42.91721725679767
 21
-3.177000000000005
 31
0.0
  0
LINE
  5
475
330
23A
100
AcDbEntity
  8
2
 62
     0
370
    -2
100
AcDbLine
 10
42.73721725679767
 20
-6.177000000000005
 30
0.0
 11
42.73721725679767
 21
-9.177000000000004
 31
0.0
  0
LINE
  5
476
330
23A
100
AcDbEntity
  8
2
 62
     0
370
    -2
100
AcDbLine
 10
42.73721725679767
 20
6.176999999999993
 30
0.0
 11
42.73721725679767
 21
9.177000000000012
 31
0.0
  0
LINE
  5
477
330
23A
100
AcDbEntity
  8
2
 62
     0
370
    -2
100
AcDbLine
 10
42.73721725679767
 20
9.177000000000012
 30
0.0
 11
61.43721725679768
 21
9.177000000000008
 31
0.0
  0
SOLID
  5
478
330
23A
100
AcDbEntity
  8
2
 62
     0
370
    18
100
AcDbTrace
 10
42.23721725679768
 20
-6.177000000000005
 30
0.0
 11
43.23721725679767
 21
-6.177000000000005
 31
0.0
 12
42.73721725679767
 22
-3.177000000000005
 32
0.0
 13
42.73721725679767
 23
-3.177000000000005
 33
0.0
  0
SOLID
  5
479
330
23A
100
AcDbEntity
  8
2
 62
     0
370
    18
100
AcDbTrace
 10
42.23721725679768
 20
6.176999999999993
 30
0.0
 11
43.23721725679767
 21
6.176999999999993
 31
0.0
 12
42.73721725679767
 22
3.176999999999994
 32
0.0
 13
42.73721725679767
 23
3.176999999999994
 33
0.0
  0
MTEXT
  5
47A
330
23A
100
AcDbEntity
  8
2
 62
     0
370
    18
100
AcDbMText
 10
52.68721725679768
 20
12.12700000000001
 30
0.0
 40
3.5
 41
0.0
 71
     5
 72
     1
  1
\A1;%%c6.354
 73
     1
 44
1.0
  0
POINT
  5
47B
330
23A
100
AcDbEntity
  8
Defpoints
 62
     0
370
    18
100
AcDbPoint
 10
32.9880061721
 20
3.176999999999996
 30
0.0
  0
POINT
  5
47C
330
23A
100
AcDbEntity
  8
Defpoints
 62
     0
370
    18
100
AcDbPoint
 10
32.7361373041
 20
-3.177000000000002
 30
0.0
  0
POINT
  5
47D
330
23A
100
AcDbEntity
  8
Defpoints
 62
     0
370
    18
100
AcDbPoint
 10
42.73721725679767
 20
-3.177000000000005
 30
0.0
  0
ENDBLK
  5
246
330
23A
100
AcDbEntity
  8
0
370
    18
100
AcDbBlockEnd
  0
BLOCK
  5
253
330
248
100
AcDbEntity
  8
0
370
    18
100
AcDbBlockBegin
  2
*D10
 70
     1
 10
0.0
 20
0.0
 30
0.0
  3
*D10
  1

  0
LINE
  5
46A
330
248
100
AcDbEntity
  8
SK2
 62
     0
370
    -2
100
AcDbLine
 10
13.0
 20
3.158538476499997
 30
0.0
 11
13.0
 21
12.70580515970426
 31
0.0
  0
LINE
  5
46B
330
248
100
AcDbEntity
  8
SK2
 62
     0
370
    -2
100
AcDbLine
 10
39.0
 20
0.0624999999999973
 30
0.0
 11
39.0
 21
12.70580515970426
 31
0.0
  0
LINE
  5
46C
330
248
100
AcDbEntity
  8
SK2
 62
     0
370
    -2
100
AcDbLine
 10
16.0
 20
12.52580515970426
 30
0.0
 11
36.0
 21
12.52580515970426
 31
0.0
  0
SOLID
  5
46D
330
248
100
AcDbEntity
  8
SK2
 62
     0
370
    18
100
AcDbTrace
 10
16.0
 20
13.02580515970426
 30
0.0
 11
16.0
 21
12.02580515970426
 31
0.0
 12
13.0
 22
12.52580515970426
 32
0.0
 13
13.0
 23
12.52580515970426
 33
0.0
  0
SOLID
  5
46E
330
248
100
AcDbEntity
  8
SK2
 62
     0
370
    18
100
AcDbTrace
 10
36.0
 20
13.02580515970426
 30
0.0
 11
36.0
 21
12.02580515970426
 31
0.0
 12
39.0
 22
12.52580515970426
 32
0.0
 13
39.0
 23
12.52580515970426
 33
0.0
  0
MTEXT
  5
46F
330
248
100
AcDbEntity
  8
SK2
 62
     0
370
    18
100
AcDbMText
 10
26.00967428835474
 20
15.47580515970426
 30
0.0
 40
3.5
 41
0.0
 71
     5
 72
     1
  1
\A1;26.00
 73
     1
 44
1.0
  0
POINT
  5
470
330
248
100
AcDbEntity
  8
Defpoints
 62
     0
370
    18
100
AcDbPoint
 10
13.0
 20
3.096038476499997
 30
0.0
  0
POINT
  5
471
330
248
100
AcDbEntity
  8
Defpoints
 62
     0
370
    18
100
AcDbPoint
 10
39.0
 20
-0.0000000000000027
 30
0.0
  0
POINT
  5
472
330
248
100
AcDbEntity
  8
Defpoints
 62
     0
370
    18
100
AcDbPoint
 10
39.0
 20
12.52580515970426
 30
0.0
  0
ENDBLK
  5
254
330
248
100
AcDbEntity
  8
0
370
    18
100
AcDbBlockEnd
  0
BLOCK
  5
261
330
256
100
AcDbEntity
  8
0
370
    18
100
AcDbBlockBegin
  2
*D11
 70
     1
 10
0.0
 20
0.0
 30
0.0
  3
*D11
  1

  0
LINE
  5
461
330
256
100
AcDbEntity
  8
SK2
 62
     0
370
    -2
100
AcDbLine
 10
0.0
 20
-3.062500000000002
 30
0.0
 11
-0.0000000000000004
 21
-10.15995669124798
 31
0.0
  0
LINE
  5
462
330
256
100
AcDbEntity
  8
SK2
 62
     0
370
    -2
100
AcDbLine
 10
36.25667974266435
 20
-3.119000000000002
 30
0.0
 11
36.25667974266435
 21
-10.15995669124798
 31
0.0
  0
LINE
  5
463
330
256
100
AcDbEntity
  8
SK2
 62
     0
370
    -2
100
AcDbLine
 10
2.999999999999999
 20
-9.979956691247981
 30
0.0
 11
33.25667974266435
 21
-9.979956691247981
 31
0.0
  0
SOLID
  5
464
330
256
100
AcDbEntity
  8
SK2
 62
     0
370
    18
100
AcDbTrace
 10
2.999999999999999
 20
-9.479956691247981
 30
0.0
 11
2.999999999999999
 21
-10.47995669124798
 31
0.0
 12
-0.0000000000000004
 22
-9.979956691247981
 32
0.0
 13
-0.0000000000000004
 23
-9.979956691247981
 33
0.0
  0
SOLID
  5
465
330
256
100
AcDbEntity
  8
SK2
 62
     0
370
    18
100
AcDbTrace
 10
33.25667974266435
 20
-9.479956691247981
 30
0.0
 11
33.25667974266435
 21
-10.47995669124798
 31
0.0
 12
36.25667974266435
 22
-9.979956691247981
 32
0.0
 13
36.25667974266435
 23
-9.979956691247981
 33
0.0
  0
MTEXT
  5
466
330
256
100
AcDbEntity
  8
SK2
 62
     0
370
    18
100
AcDbMText
 10
18.12833987133217
 20
-7.02995669124798
 30
0.0
 40
3.5
 41
0.0
 71
     5
 72
     1
  1
\A1;36.26
 73
     1
 44
1.0
  0
POINT
  5
467
330
256
100
AcDbEntity
  8
Defpoints
 62
     0
370
    18
100
AcDbPoint
 10
0.0
 20
-3.000000000000002
 30
0.0
  0
POINT
  5
468
330
256
100
AcDbEntity
  8
Defpoints
 62
     0
370
    18
100
AcDbPoint
 10
36.25667974266435
 20
-3.056500000000002
 30
0.0
  0
POINT
  5
469
330
256
100
AcDbEntity
  8
Defpoints
 62
     0
370
    18
100
AcDbPoint
 10
36.25667974266435
 20
-9.979956691247981
 30
0.0
  0
ENDBLK
  5
262
330
256
100
AcDbEntity
  8
0
370
    18
100
AcDbBlockEnd
  0
BLOCK
  5
26F
330
264
100
AcDbEntity
  8
0
370
    18
100
AcDbBlockBegin
  2
*D12
 70
     1
 10
0.0
 20
0.0
 30
0.0
  3
*D12
  1

  0
LINE
  5
458
330
264
100
AcDbEntity
  8
SK2
 62
     0
370
    -2
100
AcDbLine
 10
-36.0
 20
-2.762500000000002
 30
0.0
 11
-36.0
 21
-18.01188041120575
 31
0.0
  0
LINE
  5
459
330
264
100
AcDbEntity
  8
SK2
 62
     0
370
    -2
100
AcDbLine
 10
36.25667974266435
 20
-3.119000000000002
 30
0.0
 11
36.25667974266435
 21
-18.01188041120575
 31
0.0
  0
LINE
  5
45A
330
264
100
AcDbEntity
  8
SK2
 62
     0
370
    -2
100
AcDbLine
 10
-33.0
 20
-17.83188041120575
 30
0.0
 11
33.25667974266435
 21
-17.83188041120575
 31
0.0
  0
SOLID
  5
45B
330
264
100
AcDbEntity
  8
SK2
 62
     0
370
    18
100
AcDbTrace
 10
-33.0
 20
-17.33188041120575
 30
0.0
 11
-33.0
 21
-18.33188041120575
 31
0.0
 12
-36.0
 22
-17.83188041120575
 32
0.0
 13
-36.0
 23
-17.83188041120575
 33
0.0
  0
SOLID
  5
45C
330
264
100
AcDbEntity
  8
SK2
 62
     0
370
    18
100
AcDbTrace
 10
33.25667974266435
 20
-17.33188041120575
 30
0.0
 11
33.25667974266435
 21
-18.33188041120575
 31
0.0
 12
36.25667974266435
 22
-17.83188041120575
 32
0.0
 13
36.25667974266435
 23
-17.83188041120575
 33
0.0
  0
MTEXT
  5
45D
330
264
100
AcDbEntity
  8
SK2
 62
     0
370
    18
100
AcDbMText
 10
0.1283398713321733
 20
-14.88188041120575
 30
0.0
 40
3.5
 41
0.0
 71
     5
 72
     1
  1
\A1;72.26
 73
     1
 44
1.0
  0
POINT
  5
45E
330
264
100
AcDbEntity
  8
Defpoints
 62
     0
370
    18
100
AcDbPoint
 10
-36.0
 20
-2.700000000000002
 30
0.0
  0
POINT
  5
45F
330
264
100
AcDbEntity
  8
Defpoints
 62
     0
370
    18
100
AcDbPoint
 10
36.25667974266435
 20
-3.056500000000002
 30
0.0
  0
POINT
  5
460
330
264
100
AcDbEntity
  8
Defpoints
 62
     0
370
    18
100
AcDbPoint
 10
36.25667974266435
 20
-17.83188041120575
 30
0.0
  0
ENDBLK
  5
270
330
264
100
AcDbEntity
  8
0
370
    18
100
AcDbBlockEnd
  0
BLOCK
  5
27D
330
272
100
AcDbEntity
  8
0
370
    18
100
AcDbBlockBegin
  2
*D13
 70
     1
 10
0.0
 20
0.0
 30
0.0
  3
*D13
  1

  0
LINE
  5
44E
330
272
100
AcDbEntity
  8
SK2
 62
     0
370
    -2
100
AcDbLine
 10
39.0
 20
-0.0625000000000027
 30
0.0
 11
39.0
 21
-14.30840135579374
 31
0.0
  0
LINE
  5
44F
330
272
100
AcDbEntity
  8
SK2
 62
     0
370
    -2
100
AcDbLine
 10
36.26980824708966
 20
-3.118635517414589
 30
0.0
 11
36.26980824708966
 21
-14.30840135579374
 31
0.0
  0
LINE
  5
450
330
272
100
AcDbEntity
  8
SK2
 62
     0
370
    -2
100
AcDbLine
 10
33.26980824708966
 20
-14.12840135579374
 30
0.0
 11
30.26980824708966
 21
-14.12840135579374
 31
0.0
  0
LINE
  5
451
330
272
100
AcDbEntity
  8
SK2
 62
     0
370
    -2
100
AcDbLine
 10
42.0
 20
-14.12840135579374
 30
0.0
 11
59.62447841394027
 21
-14.12840135579374
 31
0.0
  0
SOLID
  5
452
330
272
100
AcDbEntity
  8
SK2
 62
     0
370
    18
100
AcDbTrace
 10
33.26980824708966
 20
-13.62840135579374
 30
0.0
 11
33.26980824708966
 21
-14.62840135579374
 31
0.0
 12
36.26980824708966
 22
-14.12840135579374
 32
0.0
 13
36.26980824708966
 23
-14.12840135579374
 33
0.0
  0
SOLID
  5
453
330
272
100
AcDbEntity
  8
SK2
 62
     0
370
    18
100
AcDbTrace
 10
42.0
 20
-13.62840135579374
 30
0.0
 11
42.0
 21
-14.62840135579374
 31
0.0
 12
39.0
 22
-14.12840135579374
 32
0.0
 13
39.0
 23
-14.12840135579374
 33
0.0
  0
MTEXT
  5
454
330
272
100
AcDbEntity
  8
SK2
 62
     0
370
    18
100
AcDbMText
 10
53.17447841394027
 20
-11.17840135579374
 30
0.0
 40
3.5
 41
0.0
 71
     5
 72
     1
  1
\A1;2.73
 73
     1
 44
1.0
  0
POINT
  5
455
330
272
100
AcDbEntity
  8
Defpoints
 62
     0
370
    18
100
AcDbPoint
 10
39.0
 20
-0.0000000000000027
 30
0.0
  0
POINT
  5
456
330
272
100
AcDbEntity
  8
Defpoints
 62
     0
370
    18
100
AcDbPoint
 10
36.26980824708966
 20
-3.056135517414589
 30
0.0
  0
POINT
  5
457
330
272
100
AcDbEntity
  8
Defpoints
 62
     0
370
    18
100
AcDbPoint
 10
36.26980824708966
 20
-14.12840135579374
 30
0.0
  0
ENDBLK
  5
27E
330
272
100
AcDbEntity
  8
0
370
    18
100
AcDbBlockEnd
  0
BLOCK
  5
28B
330
280
100
AcDbEntity
  8
0
370
    18
100
AcDbBlockBegin
  2
*D14
 70
     1
 10
0.0
 20
0.0
 30
0.0
  3
*D14
  1

  0
LINE
  5
445
330
280
100
AcDbEntity
  8
SK2
 62
     0
370
    -2
100
AcDbLine
 10
-36.0
 20
-2.762500000000002
 30
0.0
 11
-36.0
 21
-26.15124766600495
 31
0.0
  0
LINE
  5
446
330
280
100
AcDbEntity
  8
SK2
 62
     0
370
    -2
100
AcDbLine
 10
39.0
 20
-0.1250000000000027
 30
0.0
 11
39.0
 21
-26.15124766600495
 31
0.0
  0
LINE
  5
447
330
280
100
AcDbEntity
  8
SK2
 62
     0
370
    -2
100
AcDbLine
 10
-33.0
 20
-25.97124766600495
 30
0.0
 11
36.0
 21
-25.97124766600495
 31
0.0
  0
SOLID
  5
448
330
280
100
AcDbEntity
  8
SK2
 62
     0
370
    18
100
AcDbTrace
 10
-33.0
 20
-25.47124766600495
 30
0.0
 11
-33.0
 21
-26.47124766600495
 31
0.0
 12
-36.0
 22
-25.97124766600495
 32
0.0
 13
-36.0
 23
-25.97124766600495
 33
0.0
  0
SOLID
  5
449
330
280
100
AcDbEntity
  8
SK2
 62
     0
370
    18
100
AcDbTrace
 10
36.0
 20
-25.47124766600495
 30
0.0
 11
36.0
 21
-26.47124766600495
 31
0.0
 12
39.0
 22
-25.97124766600495
 32
0.0
 13
39.0
 23
-25.97124766600495
 33
0.0
  0
MTEXT
  5
44A
330
280
100
AcDbEntity
  8
SK2
 62
     0
370
    18
100
AcDbMText
 10
1.5
 20
-23.02124766600495
 30
0.0
 40
3.5
 41
0.0
 71
     5
 72
     1
  1
\A1;75.00
 73
     1
 44
1.0
  0
POINT
  5
44B
330
280
100
AcDbEntity
  8
Defpoints
 62
     0
370
    18
100
AcDbPoint
 10
-36.0
 20
-2.700000000000002
 30
0.0
  0
POINT
  5
44C
330
280
100
AcDbEntity
  8
Defpoints
 62
     0
370
    18
100
AcDbPoint
 10
39.0
 20
-0.0625000000000027
 30
0.0
  0
POINT
  5
44D
330
280
100
AcDbEntity
  8
Defpoints
 62
     0
370
    18
100
AcDbPoint
 10
39.0
 20
-25.97124766600495
 30
0.0
  0
ENDBLK
  5
28C
330
280
100
AcDbEntity
  8
0
370
    18
100
AcDbBlockEnd
  0
BLOCK
  5
299
330
28E
100
AcDbEntity
  8
0
370
    18
100
AcDbBlockBegin
  2
*D15
 70
     1
 10
0.0
 20
0.0
 30
0.0
  3
*D15
  1

  0
LINE
  5
43A
330
28E
100
AcDbEntity
  8
SK2
 62
     0
370
    -2
100
AcDbLine
 10
-35.7625
 20
2.999999999999997
 30
0.0
 11
-42.08209715333146
 21
2.999999999999999
 31
0.0
  0
LINE
  5
43B
330
28E
100
AcDbEntity
  8
SK2
 62
     0
370
    -2
100
AcDbLine
 10
-35.7625
 20
-3.000000000000002
 30
0.0
 11
-42.08209715333146
 21
-3.0
 31
0.0
  0
LINE
  5
43C
330
28E
100
AcDbEntity
  8
SK2
 62
     0
370
    -2
100
AcDbLine
 10
-41.90209715333145
 20
-6.000000000000001
 30
0.0
 11
-41.90209715333145
 21
-9.000000000000001
 31
0.0
  0
LINE
  5
43D
330
28E
100
AcDbEntity
  8
SK2
 62
     0
370
    -2
100
AcDbLine
 10
-41.90209715333145
 20
5.999999999999998
 30
0.0
 11
-41.90209715333145
 21
9.000000000000017
 31
0.0
  0
LINE
  5
43E
330
28E
100
AcDbEntity
  8
SK2
 62
     0
370
    -2
100
AcDbLine
 10
-41.90209715333145
 20
9.000000000000017
 30
0.0
 11
-24.95209715333146
 21
9.000000000000015
 31
0.0
  0
SOLID
  5
43F
330
28E
100
AcDbEntity
  8
SK2
 62
     0
370
    18
100
AcDbTrace
 10
-42.40209715333146
 20
-6.0
 30
0.0
 11
-41.40209715333146
 21
-6.000000000000001
 31
0.0
 12
-41.90209715333145
 22
-3.0
 32
0.0
 13
-41.90209715333145
 23
-3.0
 33
0.0
  0
SOLID
  5
440
330
28E
100
AcDbEntity
  8
SK2
 62
     0
370
    18
100
AcDbTrace
 10
-42.40209715333146
 20
5.999999999999999
 30
0.0
 11
-41.40209715333146
 21
5.999999999999998
 31
0.0
 12
-41.90209715333145
 22
2.999999999999999
 32
0.0
 13
-41.90209715333145
 23
2.999999999999999
 33
0.0
  0
MTEXT
  5
441
330
28E
100
AcDbEntity
  8
SK2
 62
     0
370
    18
100
AcDbMText
 10
-32.82709715333147
 20
11.95000000000001
 30
0.0
 40
3.5
 41
0.0
 71
     5
 72
     1
  1
\A1;%%c6.000
 73
     1
 44
1.0
  0
POINT
  5
442
330
28E
100
AcDbEntity
  8
Defpoints
 62
     0
370
    18
100
AcDbPoint
 10
-35.7
 20
2.999999999999997
 30
0.0
  0
POINT
  5
443
330
28E
100
AcDbEntity
  8
Defpoints
 62
     0
370
    18
100
AcDbPoint
 10
-35.7
 20
-3.000000000000002
 30
0.0
  0
POINT
  5
444
330
28E
100
AcDbEntity
  8
Defpoints
 62
     0
370
    18
100
AcDbPoint
 10
-41.90209715333145
 20
-3.0
 30
0.0
  0
ENDBLK
  5
29A
330
28E
100
AcDbEntity
  8
0
370
    18
100
AcDbBlockEnd
  0
ENDSEC
  0
SECTION
  2
ENTITIES
  0
POINT
  5
6E
330
1F
100
AcDbEntity
  8
80
370
    18
100
AcDbPoint
 10
0.0
 20
0.0
 30
0.0
 50
360.0
  0
POINT
  5
70
330
1F
100
AcDbEntity
  8
SK2
 60
     1
370
    18
100
AcDbPoint
 10
-36.0
 20
-3.0
 30
0.0
 50
360.0
  0
POINT
  5
72
330
1F
100
AcDbEntity
  8
SK2
 60
     1
370
    18
100
AcDbPoint
 10
-36.0
 20
3.0
 30
0.0
 50
360.0
  0
POINT
  5
73
330
1F
100
AcDbEntity
  8
2
 60
     1
370
    18
100
AcDbPoint
 10
25.5709
 20
-1.5
 30
0.0
 50
360.0
  0
POINT
  5
75
330
1F
100
AcDbEntity
  8
2
 60
     1
370
    18
100
AcDbPoint
 10
25.5709
 20
1.5
 30
0.0
 50
360.0
  0
LINE
  5
76
330
1F
100
AcDbEntity
  8
81
370
    18
100
AcDbLine
 10
39.0
 20
-0.0000000000000027
 30
0.0
 11
44.0
 21
-0.0000000000000027
 31
0.0
  0
LINE
  5
85
330
1F
100
AcDbEntity
  8
SK4
 48
0.05
370
    18
100
AcDbLine
 10
42.07853660093372
 20
0.0
 30
0.0
 11
-39.62436667275927
 21
0.0
 31
0.0
  0
LINE
  5
87
330
1F
100
AcDbEntity
  8
4
 48
0.05
370
    18
100
AcDbLine
 10
39.0
 20
-0.0000000000000027
 30
0.0
 11
0.0
 21
0.0
 31
0.0
  0
LINE
  5
89
330
1F
100
AcDbEntity
  8
80
370
    18
100
AcDbLine
 10
0.0
 20
0.0
 30
0.0
 11
-5.0
 21
0.0
 31
0.0
  0
MTEXT
  5
CD
330
1F
100
AcDbEntity
  8
SK6
370
    13
100
AcDbMText
 10
1.211496742418443
 20
25.00539969068005
 30
0.0
 40
3.5
 41
0.0
 71
     8
 72
     5
  1
\W0.7645;863.1-0635-026A1-OS
  7
iso_b_vert
 73
     1
 44
1.084337
  0
LINE
  5
1EF
330
1F
100
AcDbEntity
  8
SK1
  6
Continuous
370
    15
100
AcDbLine
 10
-35.7
 20
2.999999999999997
 30
0.0
 11
-35.7
 21
-3.000000000000002
 31
0.0
  0
LINE
  5
1F0
330
1F
100
AcDbEntity
  8
SK1
  6
Continuous
370
    15
100
AcDbLine
 10
-36.0
 20
-2.700000000000002
 30
0.0
 11
-36.0
 21
2.699999999999997
 31
0.0
  0
LINE
  5
1F1
330
1F
100
AcDbEntity
  8
1
  6
Continuous
370
    15
100
AcDbLine
 10
37.4639823508
 20
-2.232831945000002
 30
0.0
 11
39.0
 21
-0.0000000000000027
 31
0.0
  0
LINE
  5
1F2
330
1F
100
AcDbEntity
  8
1
  6
Continuous
370
    15
100
AcDbLine
 10
39.0
 20
-0.0000000000000027
 30
0.0
 11
36.25667974269999
 21
-3.056500000000002
 31
0.0
  0
LINE
  5
1F3
330
1F
100
AcDbEntity
  8
1
  6
Continuous
370
    15
100
AcDbLine
 10
37.45886241789998
 20
2.240274535099996
 30
0.0
 11
39.0
 21
-0.0000000000000027
 31
0.0
  0
LINE
  5
1F4
330
1F
100
AcDbEntity
  8
1
  6
Continuous
370
    15
100
AcDbLine
 10
37.51978483829998
 20
0.4550361901999973
 30
0.0
 11
38.29893193750002
 21
0.2155168710999975
 31
0.0
  0
LINE
  5
1F5
330
1F
100
AcDbEntity
  8
1
  6
Continuous
370
    15
100
AcDbLine
 10
37.70992692760001
 20
1.376756692099997
 30
0.0
 11
38.29893193750002
 21
0.2155168710999975
 31
0.0
  0
LINE
  5
1F6
330
1F
100
AcDbEntity
  8
SK1
  6
Continuous
370
    15
100
AcDbLine
 10
0.0
 20
-3.000000000000002
 30
0.0
 11
0.0
 21
2.999999999999997
 31
0.0
  0
LINE
  5
1F8
330
1F
100
AcDbEntity
  8
1
  6
Continuous
370
    15
100
AcDbLine
 10
0.1769999999999925
 20
3.176999999999996
 30
0.0
 11
0.1769999999999925
 21
-3.177000000000002
 31
0.0
  0
LINE
  5
1F9
330
1F
100
AcDbEntity
  8
1
  6
Continuous
370
    15
100
AcDbLine
 10
12.99998796299999
 20
-3.096047557000002
 30
0.0
 11
14.24939054570001
 21
-3.173742789400002
 31
0.0
  0
LINE
  5
1FB
330
1F
100
AcDbEntity
  8
SK1
  6
Continuous
370
    15
100
AcDbLine
 10
-35.7
 20
-3.000000000000002
 30
0.0
 11
0.0
 21
-3.000000000000002
 31
0.0
  0
LINE
  5
1FC
330
1F
100
AcDbEntity
  8
SK1
  6
Continuous
370
    15
100
AcDbLine
 10
0.0
 20
2.999999999999997
 30
0.0
 11
-35.7
 21
2.999999999999997
 31
0.0
  0
LINE
  5
1FD
330
1F
100
AcDbEntity
  8
SK1
  6
Continuous
370
    15
100
AcDbLine
 10
-36.0
 20
-2.700000000000002
 30
0.0
 11
-35.7
 21
-3.000000000000002
 31
0.0
  0
LINE
  5
1FE
330
1F
100
AcDbEntity
  8
SK1
  6
Continuous
370
    15
100
AcDbLine
 10
-35.7
 20
2.999999999999997
 30
0.0
 11
-36.0
 21
2.699999999999997
 31
0.0
  0
LINE
  5
1FF
330
1F
100
AcDbEntity
  8
1
  6
Continuous
370
    15
100
AcDbLine
 10
33.6639306109
 20
3.151299693599997
 30
0.0
 11
33.56234276239999
 21
3.159805879699997
 31
0.0
  0
LINE
  5
200
330
1F
100
AcDbEntity
  8
1
  6
Continuous
370
    15
100
AcDbLine
 10
0.0
 20
-3.000000000000002
 30
0.0
 11
0.1769999999999925
 21
-3.177000000000002
 31
0.0
  0
LINE
  5
201
330
1F
100
AcDbEntity
  8
1
  6
Continuous
370
    15
100
AcDbLine
 10
0.1769999999999925
 20
3.176999999999996
 30
0.0
 11
0.0
 21
2.999999999999997
 31
0.0
  0
LINE
  5
202
330
1F
100
AcDbEntity
  8
1
  6
Continuous
370
    15
100
AcDbLine
 10
0.1769999999999925
 20
-3.177000000000002
 30
0.0
 11
6.13288175369999
 21
-3.177000000000002
 31
0.0
  0
LINE
  5
203
330
1F
100
AcDbEntity
  8
1
  6
Continuous
370
    15
100
AcDbLine
 10
14.24939054570001
 20
-3.177000000000002
 30
0.0
 11
15.650045539
 21
-3.177000000000002
 31
0.0
  0
LINE
  5
204
330
1F
100
AcDbEntity
  8
1
  6
Continuous
370
    15
100
AcDbLine
 10
31.5874046365
 20
-3.177000000000002
 30
0.0
 11
32.7361373041
 21
-3.177000000000002
 31
0.0
  0
LINE
  5
205
330
1F
100
AcDbEntity
  8
1
  6
Continuous
370
    15
100
AcDbLine
 10
32.9880061721
 20
3.176999999999996
 30
0.0
 11
31.5874046365
 21
3.176999999999996
 31
0.0
  0
LINE
  5
206
330
1F
100
AcDbEntity
  8
1
  6
Continuous
370
    15
100
AcDbLine
 10
15.3990134859
 20
3.176999999999996
 30
0.0
 11
14.24939054570001
 21
3.176999999999996
 31
0.0
  0
LINE
  5
207
330
1F
100
AcDbEntity
  8
1
  6
Continuous
370
    15
100
AcDbLine
 10
6.13288175369999
 20
3.176999999999996
 30
0.0
 11
0.1769999999999925
 21
3.176999999999996
 31
0.0
  0
SPLINE
  5
208
330
1F
100
AcDbEntity
  8
1
  6
Continuous
370
    15
100
AcDbSpline
210
0.0
220
0.0
230
1.0
 70
     8
 71
     3
 72
    10
 73
     6
 74
     0
 42
0.0000000001
 43
0.0000000001
 40
0.0
 40
0.0
 40
0.0
 40
0.0
 40
0.4096136612696644
 40
0.8236725283834964
 40
1.0
 40
1.0
 40
1.0
 40
1.0
 10
12.99997975003016
 20
1.686959291332153
 30
0.0
 10
12.57895142378361
 20
1.743295004853728
 30
0.0
 10
11.73232569131744
 20
1.856577797841571
 30
0.0
 10
10.71539682799289
 20
1.97349001703799
 30
0.0
 10
10.12441795017551
 20
1.997260804223101
 30
0.0
 10
9.947913508137787
 20
2.004360295738602
 30
0.0
  0
SPLINE
  5
209
330
1F
100
AcDbEntity
  8
1
  6
Continuous
370
    15
100
AcDbSpline
210
0.0
220
0.0
230
1.0
 70
     8
 71
     3
 72
    14
 73
    10
 74
     0
 42
0.0000000001
 43
0.0000000001
 40
0.0
 40
0.0
 40
0.0
 40
0.0
 40
0.1543344971465608
 40
0.308693002304782
 40
0.4630718221340396
 40
0.6174672348386283
 40
0.7718754953209178
 40
0.9235275917851863
 40
1.0
 40
1.0
 40
1.0
 40
1.0
 10
37.52193997130564
 20
0.4464476299719391
 30
0.0
 10
37.00945899964608
 20
0.5941761699970596
 30
0.0
 10
35.9844173356594
 20
0.8896562304475157
 30
0.0
 10
34.44672884068712
 20
1.255097094760337
 30
0.0
 10
32.90882636858629
 20
1.525788756639131
 30
0.0
 10
31.37075100418221
 20
1.679673848886489
 30
0.0
 10
29.84171290678211
 20
1.698185380488455
 30
0.0
 10
28.57145946904075
 20
1.624139008213216
 30
0.0
 10
27.81393503179959
 20
1.504926937753007
 30
0.0
 10
27.55999599057779
 20
1.464964400062499
 30
0.0
  0
SPLINE
  5
20A
330
1F
100
AcDbEntity
  8
1
  6
Continuous
370
    15
100
AcDbSpline
210
0.0
220
0.0
230
1.0
 70
     8
 71
     3
 72
    17
 73
    13
 74
     0
 42
0.0000000001
 43
0.0000000001
 40
0.0
 40
0.0
 40
0.0
 40
0.0
 40
0.0667255433231244
 40
0.1687801262188237
 40
0.2708403300204766
 40
0.3749901301465395
 40
0.4791441468702717
 40
0.583303031338873
 40
0.6874674320297448
 40
0.7916379943997924
 40
0.8958153605382445
 40
1.0
 40
1.0
 40
1.0
 40
1.0
 10
26.30741779051917
 20
-1.820798695474823
 30
0.0
 10
26.01145219006662
 20
-1.931436090827017
 30
0.0
 10
25.26281667639376
 20
-2.211289841311108
 30
0.0
 10
24.06147584039886
 20
-2.519228569443131
 30
0.0
 10
22.69414002856235
 20
-2.733618462334651
 30
0.0
 10
21.31741894570003
 20
-2.776339574966101
 30
0.0
 10
19.93139785561594
 20
-2.646401468028901
 30
0.0
 10
18.54529726020645
 20
-2.350103374897332
 30
0.0
 10
17.15911341074201
 20
-1.906443247600186
 30
0.0
 10
15.77283442695824
 20
-1.343129334162296
 30
0.0
 10
14.38645295793014
 20
-0.6955490728332454
 30
0.0
 10
13.46215511516722
 20
-0.2346941339207467
 30
0.0
 10
12.9999900614851
 20
-0.0042586208987885
 30
0.0
  0
SPLINE
  5
20B
330
1F
100
AcDbEntity
  8
1
  6
Continuous
370
    15
100
AcDbSpline
210
0.0
220
0.0
230
1.0
 70
     8
 71
     3
 72
    11
 73
     7
 74
     0
 42
0.0000000001
 43
0.0000000001
 40
0.0
 40
0.0
 40
0.0
 40
0.0
 40
0.0625583771286267
 40
0.3749349834060135
 40
0.6874054350282235
 40
1.0
 40
1.0
 40
1.0
 40
1.0
 10
17.1573006226665
 20
-3.042931502053627
 30
0.0
 10
17.07061738535555
 20
-3.047433963282379
 30
0.0
 10
16.55109338817863
 20
-3.074418842103918
 30
0.0
 10
15.59855469224153
 20
-2.956931227922149
 30
0.0
 10
14.29948958948736
 20
-2.69729579464515
 30
0.0
 10
13.43321520013336
 20
-2.393918129409498
 30
0.0
 10
12.99999200143017
 20
-2.24219917735032
 30
0.0
  0
SPLINE
  5
20C
330
1F
100
AcDbEntity
  8
1
  6
Continuous
370
    15
100
AcDbSpline
210
0.0
220
0.0
230
1.0
 70
     8
 71
     3
 72
     9
 73
     5
 74
     0
 42
0.0000000001
 43
0.0000000001
 40
0.0
 40
0.0
 40
0.0
 40
0.0
 40
0.6257164183665287
 40
1.0
 40
1.0
 40
1.0
 40
1.0
 10
36.75029784570609
 20
2.797718548948099
 30
0.0
 10
36.27780582317769
 20
2.892002081775833
 30
0.0
 10
35.52268415997776
 20
3.042683013361211
 30
0.0
 10
34.76756274984496
 20
3.035115118307248
 30
0.0
 10
34.4849332038923
 20
3.032282579441026
 30
0.0
  0
SPLINE
  5
20D
330
1F
100
AcDbEntity
  8
1
  6
Continuous
370
    15
100
AcDbSpline
210
0.0
220
0.0
230
1.0
 70
     8
 71
     3
 72
    11
 73
     7
 74
     0
 42
0.0000000001
 43
0.0000000001
 40
0.0
 40
0.0
 40
0.0
 40
0.0
 40
0.2930484992490752
 40
0.5860874052304686
 40
0.8791188699540533
 40
1.0
 40
1.0
 40
1.0
 40
1.0
 10
35.0494590528476
 20
-2.077505499311531
 30
0.0
 10
34.58849605714573
 20
-1.914028002720907
 30
0.0
 10
33.66658515587702
 20
-1.587078361156844
 30
0.0
 10
32.28374743626389
 20
-0.9628059893137548
 30
0.0
 10
31.17172906038886
 20
-0.4197430713117507
 30
0.0
 10
30.52065633327425
 20
-0.095250840931751
 30
0.0
 10
30.33051375730475
 20
-0.000484486887113
 30
0.0
  0
SPLINE
  5
20E
330
1F
100
AcDbEntity
  8
1
  6
Continuous
370
    15
100
AcDbSpline
210
0.0
220
0.0
230
1.0
 70
     8
 71
     3
 72
    22
 73
    18
 74
     0
 42
0.0000000001
 43
0.0000000001
 40
0.0
 40
0.0
 40
0.0
 40
0.0
 40
0.0356000684873694
 40
0.0986127518734495
 40
0.1735839010641059
 40
0.2485623223598215
 40
0.3235552640642297
 40
0.3985699270430915
 40
0.4736134414158721
 40
0.5486569557886525
 40
0.6236716187675145
 40
0.6986645604719226
 40
0.7736429817676385
 40
0.8486141309582945
 40
0.9234862895353536
 40
0.998365981759494
 40
1.0
 40
1.0
 40
1.0
 40
1.0
 10
34.20735431601059
 20
-3.04175542492196
 30
0.0
 10
34.00158682136851
 20
-3.043828834004331
 30
0.0
 10
33.43160761191948
 20
-3.049572209903862
 30
0.0
 10
32.4288981104761
 20
-2.917983715354248
 30
0.0
 10
31.19796914212145
 20
-2.638830693033339
 30
0.0
 10
29.89800164597978
 20
-2.190963758257302
 30
0.0
 10
28.59767192084169
 20
-1.623936281605081
 30
0.0
 10
27.29692094405215
 20
-0.9665526920164793
 30
0.0
 10
25.99574980131758
 20
-0.2559482987817776
 30
0.0
 10
24.69457985052498
 20
0.4688659258186916
 30
0.0
 10
23.39382529962916
 20
1.167710053762839
 30
0.0
 10
22.09350867395348
 20
1.802314258622553
 30
0.0
 10
20.79349236605799
 20
2.335853174766078
 30
0.0
 10
19.49419728050884
 20
2.745493623791007
 30
0.0
 10
18.19547162449372
 20
2.983540680869926
 30
0.0
 10
17.32057759062333
 20
3.083275887322808
 30
0.0
 10
16.87836246168885
 20
3.05529944239158
 30
0.0
 10
16.86891856486933
 20
3.054701980563569
 30
0.0
  0
SPLINE
  5
20F
330
1F
100
AcDbEntity
  8
1
  6
Continuous
370
    15
100
AcDbSpline
210
0.0
220
0.0
230
1.0
 70
     8
 71
     3
 72
    14
 73
    10
 74
     0
 42
0.0000000001
 43
0.0000000001
 40
0.0
 40
0.0
 40
0.0
 40
0.0
 40
0.0419393973940531
 40
0.2017029591796424
 40
0.3612659268544998
 40
0.5208638667542627
 40
0.6806404047688847
 40
0.8404132031062603
 40
1.0
 40
1.0
 40
1.0
 40
1.0
 10
24.26166969427792
 20
-0.7592668958909506
 30
0.0
 10
24.10425153133218
 20
-0.7182545816480231
 30
0.0
 10
23.34716603970128
 20
-0.5210103278052891
 30
0.0
 10
21.99081955945878
 20
-0.0995327344124628
 30
0.0
 10
20.19314343171875
 20
0.4503167196694498
 30
0.0
 10
18.39531923516281
 20
0.9588357335485824
 30
0.0
 10
16.59655184533793
 20
1.361371312592706
 30
0.0
 10
14.7978213678049
 20
1.633917326610821
 30
0.0
 10
13.59903673100457
 20
1.669286184204242
 30
0.0
 10
12.9999935107314
 20
1.686960313234372
 30
0.0
  0
SPLINE
  5
210
330
1F
100
AcDbEntity
  8
1
  6
Continuous
370
    15
100
AcDbSpline
210
0.0
220
0.0
230
1.0
 70
     8
 71
     3
 72
    10
 73
     6
 74
     0
 42
0.0000000001
 43
0.0000000001
 40
0.0
 40
0.0
 40
0.0
 40
0.0
 40
0.0804208678076965
 40
0.5360193201178244
 40
1.0
 40
1.0
 40
1.0
 40
1.0
 10
6.872831525878467
 20
-1.870390458518236
 30
0.0
 10
6.793689008987698
 20
-1.861137992967379
 30
0.0
 10
6.266190124026067
 20
-1.799468672190558
 30
0.0
 10
5.302750502344991
 20
-1.550474331582562
 30
0.0
 10
4.432798408887222
 20
-1.224373262970648
 30
0.0
 10
3.993857430719117
 20
-1.059836476273297
 30
0.0
  0
SPLINE
  5
211
330
1F
100
AcDbEntity
  8
1
  6
Continuous
370
    15
100
AcDbSpline
210
0.0
220
0.0
230
1.0
 70
    11
 71
     3
 72
    32
 73
    28
 74
     0
 42
0.0000000001
 43
0.0000000001
 40
0.0
 40
0.0
 40
0.0
 40
0.0
 40
0.0625
 40
0.0625
 40
0.125
 40
0.125
 40
0.1875000000000001
 40
0.1875000000000001
 40
0.2500000000000002
 40
0.2500000000000002
 40
0.3125000000000002
 40
0.3125000000000002
 40
0.3750000000000003
 40
0.3750000000000003
 40
0.5000000000000005
 40
0.5000000000000005
 40
0.6250000000000006
 40
0.6250000000000006
 40
0.6875000000000005
 40
0.6875000000000005
 40
0.7500000000000004
 40
0.7500000000000004
 40
0.8125000000000001
 40
0.8125000000000001
 40
0.8750000000000001
 40
0.8750000000000001
 40
1.0
 40
1.0
 40
1.0
 40
1.0
 10
38.01795407302643
 20
-1.287777116186842
 30
0.0
 10
38.06161105404152
 20
-1.243163893320649
 30
0.0
 10
38.10493123290354
 20
-1.197346341573548
 30
0.0
 10
38.19077892969472
 20
-1.102876860550463
 30
0.0
 10
38.23392217127639
 20
-1.053513863939036
 30
0.0
 10
38.31266152660589
 20
-0.9574398563603136
 30
0.0
 10
38.34920012765326
 20
-0.9094408846891578
 30
0.0
 10
38.39562232642305
 20
-0.8352807626287592
 30
0.0
 10
38.40293763460309
 20
-0.811716118423417
 30
0.0
 10
38.38285784111088
 20
-0.8037972395989569
 30
0.0
 10
38.35829809350025
 20
-0.8166855990044115
 30
0.0
 10
38.29906672178163
 20
-0.8574934743547597
 30
0.0
 10
38.26345611612442
 20
-0.8860064426945708
 30
0.0
 10
38.15079353653309
 20
-0.9826817202617856
 30
0.0
 10
38.06561914667696
 20
-1.063613924087421
 30
0.0
 10
37.89249480451366
 20
-1.240061200600975
 30
0.0
 10
37.80145799328551
 20
-1.33855549823988
 30
0.0
 10
37.68362519540009
 20
-1.482278880881805
 30
0.0
 10
37.64716361248219
 20
-1.530325615380019
 30
0.0
 10
37.60194706879196
 20
-1.603432669869846
 30
0.0
 10
37.59545473970405
 20
-1.626137170538878
 30
0.0
 10
37.61554125736592
 20
-1.633996928405332
 30
0.0
 10
37.6396011387011
 20
-1.621704998178023
 30
0.0
 10
37.69811906862086
 20
-1.581856209934967
 30
0.0
 10
37.73339592301318
 20
-1.553800553522322
 30
0.0
 10
37.84565574552479
 20
-1.45778175206058
 30
0.0
 10
37.93064011099622
 20
-1.37700356191923
 30
0.0
 10
38.01795407302643
 20
-1.287777116186842
 30
0.0
  0
SPLINE
  5
212
330
1F
100
AcDbEntity
  8
1
  6
Continuous
370
    15
100
AcDbSpline
210
0.0
220
0.0
230
1.0
 70
     8
 71
     3
 72
    10
 73
     6
 74
     0
 42
0.0000000001
 43
0.0000000001
 40
0.0
 40
0.0
 40
0.0
 40
0.0
 40
0.5
 40
0.5
 40
1.0
 40
1.0
 40
1.0
 40
1.0
 10
36.75029784570609
 20
2.7977185489481
 30
0.0
 10
36.85143574855184
 20
2.724439878569042
 30
0.0
 10
36.95158559606239
 20
2.652639340256149
 30
0.0
 10
37.16470243219442
 20
2.490575748146569
 30
0.0
 10
37.27813516748637
 20
2.399753331134875
 30
0.0
 10
37.39921821894853
 20
2.296420113921513
 30
0.0
  0
SPLINE
  5
213
330
1F
100
AcDbEntity
  8
1
  6
Continuous
370
    15
100
AcDbSpline
210
0.0
220
0.0
230
1.0
 70
     8
 71
     3
 72
    22
 73
    18
 74
     0
 42
0.0000000001
 43
0.0000000001
 40
0.0
 40
0.0
 40
0.0
 40
0.0
 40
0.125
 40
0.125
 40
0.25
 40
0.25
 40
0.375
 40
0.375
 40
0.5
 40
0.5
 40
0.625
 40
0.625
 40
0.75
 40
0.75
 40
0.875
 40
0.875
 40
1.0
 40
1.0
 40
1.0
 40
1.0
 10
37.52193997130564
 20
0.4464476299719396
 30
0.0
 10
37.55514100127556
 20
0.3144700500267734
 30
0.0
 10
37.57573610530824
 20
0.1761274512111495
 30
0.0
 10
37.57673675996475
 20
-0.1208503665024514
 30
0.0
 10
37.55647825069215
 20
-0.27876105486521
 30
0.0
 10
37.45356166363962
 20
-0.6040118626114817
 30
0.0
 10
37.37176957242889
 20
-0.7661682090776823
 30
0.0
 10
37.1506628161585
 20
-1.072427266532097
 30
0.0
 10
37.01679761209255
 20
-1.209597595778051
 30
0.0
 10
36.73163306880883
 20
-1.446498634836092
 30
0.0
 10
36.58018121412158
 20
-1.547136062819718
 30
0.0
 10
36.27218001372688
 20
-1.719250438715217
 30
0.0
 10
36.11804920396242
 20
-1.78931732785145
 30
0.0
 10
35.80960819400644
 20
-1.907421184693425
 30
0.0
 10
35.65453992113353
 20
-1.95547534755229
 30
0.0
 10
35.34890146703805
 20
-2.031169031532206
 30
0.0
 10
35.1982109567245
 20
-2.058929883375538
 30
0.0
 10
35.04945905284404
 20
-2.077505499310374
 30
0.0
  0
SPLINE
  5
214
330
1F
100
AcDbEntity
  8
1
  6
Continuous
370
    15
100
AcDbSpline
210
0.0
220
0.0
230
1.0
 70
    24
 71
     3
 72
     8
 73
     4
 74
     0
 42
0.0000000001
 43
0.0000000001
 40
0.0
 40
0.0
 40
0.0
 40
0.0
 40
1.0
 40
1.0
 40
1.0
 40
1.0
 10
38.29893193752014
 20
0.2155168711168964
 30
0.0
 10
38.51800293299977
 20
0.1481717757901606
 30
0.0
 10
38.75462318609903
 20
0.0754318246783474
 30
0.0
 10
39.0
 20
-0.0000000000000022
 30
0.0
  0
SPLINE
  5
215
330
1F
100
AcDbEntity
  8
1
  6
Continuous
370
    15
100
AcDbSpline
210
0.0
220
0.0
230
1.0
 70
     8
 71
     3
 72
     8
 73
     4
 74
     0
 42
0.0000000001
 43
0.0000000001
 40
0.0
 40
0.0
 40
0.0
 40
0.0
 40
1.0
 40
1.0
 40
1.0
 40
1.0
 10
37.51978483827554
 20
0.4550361902251483
 30
0.0
 10
37.52050164131964
 20
0.4521723847746007
 30
0.0
 10
37.52122001564052
 20
0.4493095293282319
 30
0.0
 10
37.52193997130524
 20
0.4464476299720653
 30
0.0
  0
SPLINE
  5
216
330
1F
100
AcDbEntity
  8
1
  6
Continuous
370
    15
100
AcDbSpline
210
0.0
220
0.0
230
1.0
 70
     8
 71
     3
 72
    11
 73
     7
 74
     0
 42
0.0000000001
 43
0.0000000001
 40
0.0000487716284177
 40
0.0000487716284177
 40
0.0000487716284177
 40
0.0000487716284177
 40
0.0002649360241675
 40
0.0002649360241675
 40
0.0002649360241675
 40
0.0004931611768474
 40
0.0004931611768474
 40
0.0004931611768474
 40
0.0004931611768474
 10
37.66707639946645
 20
1.395391800553038
 30
0.0
 10
37.60484428761583
 20
1.429295082703759
 30
0.0
 10
37.54275880161384
 20
1.463362543500578
 30
0.0
 10
37.48074308830536
 20
1.49746790459715
 30
0.0
 10
37.41526733544544
 20
1.533476104377932
 30
0.0
 10
37.34987681020792
 20
1.569539514738743
 30
0.0
 10
37.28456940250857
 20
1.605588839014163
 30
0.0
  0
SPLINE
  5
217
330
1F
100
AcDbEntity
  8
1
  6
Continuous
370
    15
100
AcDbSpline
210
0.0
220
0.0
230
1.0
 70
     8
 71
     3
 72
    18
 73
    14
 74
     0
 42
0.0000000001
 43
0.0000000001
 40
0.0
 40
0.0
 40
0.0
 40
0.0
 40
0.0402101863524586
 40
0.1363074335112465
 40
0.2323677349118911
 40
0.328400221054985
 40
0.4244141130355503
 40
0.5204186926953489
 40
0.6162965331226472
 40
0.7121840207263236
 40
0.8080907703603397
 40
0.9040263324631215
 40
1.0
 40
1.0
 40
1.0
 40
1.0
 10
26.54026273489384
 20
-1.925110682056583
 30
0.0
 10
26.35875895752074
 20
-2.005873038989701
 30
0.0
 10
25.7434841649727
 20
-2.279647189185833
 30
0.0
 10
24.69457764616393
 20
-2.626356119450782
 30
0.0
 10
23.39382590959022
 20
-2.935038301747208
 30
0.0
 10
22.09350843749946
 20
-3.075122926405009
 30
0.0
 10
20.79349270203804
 20
-3.046989520614252
 30
0.0
 10
19.49419606741036
 20
-2.850146277365123
 30
0.0
 10
18.19547539132512
 20
-2.496295432417536
 30
0.0
 10
16.89717104769295
 20
-2.004993793533799
 30
0.0
 10
15.5985559377211
 20
-1.403158446794069
 30
0.0
 10
14.29948777199841
 20
-0.7239025103110635
 30
0.0
 10
13.43321354161166
 20
-0.2444849185253726
 30
0.0
 10
12.99999042285384
 20
-0.0047285261321326
 30
0.0
  0
SPLINE
  5
218
330
1F
100
AcDbEntity
  8
1
  6
Continuous
370
    15
100
AcDbSpline
210
0.0
220
0.0
230
1.0
 70
     8
 71
     3
 72
    10
 73
     6
 74
     0
 42
0.0000000001
 43
0.0000000001
 40
0.0
 40
0.0
 40
0.0
 40
0.0
 40
0.5
 40
0.5
 40
1.0
 40
1.0
 40
1.0
 40
1.0
 10
36.25667974266435
 20
3.056499999999997
 30
0.0
 10
36.30436594743355
 20
3.056499999999997
 30
0.0
 10
36.37171067766246
 20
3.032149290168558
 30
0.0
 10
36.53873733140069
 20
2.943392291975894
 30
0.0
 10
36.63905091949187
 20
2.878321632533602
 30
0.0
 10
36.75029784570609
 20
2.7977185489481
 30
0.0
  0
SPLINE
  5
219
330
1F
100
AcDbEntity
  8
1
  6
Continuous
370
    15
100
AcDbSpline
210
0.0
220
0.0
230
1.0
 70
     8
 71
     3
 72
    14
 73
    10
 74
     0
 42
0.0000000001
 43
0.0000000001
 40
0.0
 40
0.0
 40
0.0
 40
0.0
 40
0.000318375611138
 40
0.000318375611138
 40
0.000318375611138
 40
0.00047779710549
 40
0.00047779710549
 40
0.00047779710549
 40
0.000637284981263
 40
0.000637284981263
 40
0.000637284981263
 40
0.000637284981263
 10
35.04945905284393
 20
-2.07750549931033
 30
0.0
 10
34.96573530363384
 20
-2.087960627408731
 30
0.0
 10
34.88254578075993
 20
-2.09646822172425
 30
0.0
 10
34.80000186363904
 20
-2.103025770604457
 30
0.0
 10
34.75866223420468
 20
-2.106309921032022
 30
0.0
 10
34.71747740891786
 20
-2.109105562396334
 30
0.0
 10
34.67646134960148
 20
-2.111412175239829
 30
0.0
 10
34.63542780619972
 20
-2.11371977133273
 30
0.0
 10
34.59454707382639
 20
-2.11557333803242
 30
0.0
 10
34.55382081152686
 20
-2.1170000982556
 30
0.0
  0
SPLINE
  5
21A
330
1F
100
AcDbEntity
  8
1
  6
Continuous
370
    15
100
AcDbSpline
210
0.0
220
0.0
230
1.0
 70
     8
 71
     3
 72
     8
 73
     4
 74
     0
 42
0.0000000001
 43
0.0000000001
 40
0.0
 40
0.0
 40
0.0
 40
0.0
 40
1.0
 40
1.0
 40
1.0
 40
1.0
 10
37.51978483826849
 20
0.4550361902253309
 30
0.0
 10
37.31924246322262
 20
0.8688600608428691
 30
0.0
 10
37.11993147141902
 20
1.321615344824054
 30
0.0
 10
36.92480678077868
 20
1.803870491529911
 30
0.0
  0
SPLINE
  5
21B
330
1F
100
AcDbEntity
  8
1
  6
Continuous
370
    15
100
AcDbSpline
210
0.0
220
0.0
230
1.0
 70
     8
 71
     3
 72
    11
 73
     7
 74
     0
 42
0.0000000001
 43
0.0000000001
 40
0.0
 40
0.0
 40
0.0
 40
0.0
 40
0.0003002204766612
 40
0.0003002204766612
 40
0.0003002204766612
 40
0.0004439645668219
 40
0.0004439645668219
 40
0.0004439645668219
 40
0.0004439645668219
 10
37.29199999999997
 20
1.625910719283278
 30
0.0
 10
37.37635656651759
 20
1.574122365434472
 30
0.0
 10
37.46084613650791
 20
1.522187358863017
 30
0.0
 10
37.54543032952904
 20
1.470134638001516
 30
0.0
 10
37.5859310095328
 20
1.445210706996922
 30
0.0
 10
37.62647648506351
 20
1.420287686719265
 30
0.0
 10
37.66707639946503
 20
1.39539180055392
 30
0.0
  0
SPLINE
  5
21C
330
1F
100
AcDbEntity
  8
1
  6
Continuous
370
    15
100
AcDbSpline
210
0.0
220
0.0
230
1.0
 70
     8
 71
     3
 72
     8
 73
     4
 74
     0
 42
0.0000000001
 43
0.0000000001
 40
0.0
 40
0.0
 40
0.0
 40
0.0
 40
1.0
 40
1.0
 40
1.0
 40
1.0
 10
37.66707639946645
 20
1.395391800553039
 30
0.0
 10
37.68130257314601
 20
1.389068207141675
 30
0.0
 10
37.6955836913599
 20
1.382851663634232
 30
0.0
 10
37.70992692758765
 20
1.376756692140931
 30
0.0
  0
SPLINE
  5
21D
330
1F
100
AcDbEntity
  8
1
  6
Continuous
370
    15
100
AcDbSpline
210
0.0
220
0.0
230
1.0
 70
     8
 71
     3
 72
     8
 73
     4
 74
     0
 42
0.0000000001
 43
0.0000000001
 40
0.0
 40
0.0
 40
0.0
 40
0.0
 40
1.0
 40
1.0
 40
1.0
 40
1.0
 10
37.45886241792775
 20
2.24027453510608
 30
0.0
 10
37.53960725681634
 20
1.986232341917333
 30
0.0
 10
37.63705474443725
 20
1.694978480301172
 30
0.0
 10
37.70992692758762
 20
1.376756692140935
 30
0.0
  0
SPLINE
  5
21E
330
1F
100
AcDbEntity
  8
1
  6
Continuous
370
    15
100
AcDbSpline
210
0.0
220
0.0
230
1.0
 70
     8
 71
     3
 72
     8
 73
     4
 74
     0
 42
0.0000000001
 43
0.0000000001
 40
0.0001681954600844
 40
0.0001681954600844
 40
0.0001681954600844
 40
0.0001681954600844
 40
0.0002609700464631
 40
0.0002609700464631
 40
0.0002609700464631
 40
0.0002609700464631
 10
37.39921821894856
 20
2.296420113921513
 30
0.0
 10
37.41904078697934
 20
2.277825772781583
 30
0.0
 10
37.43892359362596
 20
2.259109376309862
 30
0.0
 10
37.45886241792775
 20
2.24027453510608
 30
0.0
  0
SPLINE
  5
21F
330
1F
100
AcDbEntity
  8
1
  6
Continuous
370
    15
100
AcDbSpline
210
0.0
220
0.0
230
1.0
 70
     8
 71
     3
 72
     8
 73
     4
 74
     0
 42
0.0000000001
 43
0.0000000001
 40
0.0
 40
0.0
 40
0.0
 40
0.0
 40
1.0
 40
1.0
 40
1.0
 40
1.0
 10
37.39921821894856
 20
2.296420113921513
 30
0.0
 10
37.36031455935239
 20
2.288773936691901
 30
0.0
 10
37.32239184105779
 20
2.2781207379779
 30
0.0
 10
37.2919999999998
 20
2.259758614709611
 30
0.0
  0
SPLINE
  5
220
330
1F
100
AcDbEntity
  8
1
  6
Continuous
370
    15
100
AcDbSpline
210
0.0
220
0.0
230
1.0
 70
     8
 71
     3
 72
    14
 73
    10
 74
     0
 42
0.0000000001
 43
0.0000000001
 40
0.0
 40
0.0
 40
0.0
 40
0.0
 40
0.25
 40
0.25
 40
0.5
 40
0.5
 40
0.75
 40
0.75
 40
1.0
 40
1.0
 40
1.0
 40
1.0
 10
3.993856898426372
 20
-1.059839427709724
 30
0.0
 10
4.760007714474966
 20
-1.268407571608608
 30
0.0
 10
5.518684302549729
 20
-1.491318194733965
 30
0.0
 10
7.029142584524848
 20
-1.920807239633207
 30
0.0
 10
7.778940317673615
 20
-2.127715657967304
 30
0.0
 10
9.276015436704895
 20
-2.499321536287785
 30
0.0
 10
10.02409212021854
 20
-2.664067100020861
 30
0.0
 10
11.51320133571997
 20
-2.930032783536643
 30
0.0
 10
12.25564781810058
 20
-3.031725777891747
 30
0.0
 10
13.0
 20
-3.096046432370045
 30
0.0
  0
SPLINE
  5
221
330
1F
100
AcDbEntity
  8
1
  6
Continuous
370
    15
100
AcDbSpline
210
0.0
220
0.0
230
1.0
 70
     8
 71
     3
 72
    16
 73
    12
 74
     0
 42
0.0000000001
 43
0.0000000001
 40
0.0
 40
0.0
 40
0.0
 40
0.0
 40
0.0728647123839075
 40
0.19810723258065
 40
0.3233138937163713
 40
0.448496583721229
 40
0.5736672685794427
 40
0.6801515977247647
 40
0.7867894305585411
 40
0.8934891283487383
 40
1.0
 40
1.0
 40
1.0
 40
1.0
 10
26.54026273489384
 20
1.925110682056577
 30
0.0
 10
26.79253388202213
 20
2.041789590079697
 30
0.0
 10
27.47841786045899
 20
2.359020452766773
 30
0.0
 10
28.59767255437294
 20
2.744078795808916
 30
0.0
 10
29.89800231282706
 20
3.058128492464919
 30
0.0
 10
31.19797430556707
 20
3.198319134495966
 30
0.0
 10
32.43331105654557
 20
3.164764747281844
 30
0.0
 10
33.60381528257278
 20
2.987317314586793
 30
0.0
 10
34.71096984051332
 20
2.698742942970984
 30
0.0
 10
35.81842643265395
 20
2.307523743107627
 30
0.0
 10
36.55623113926447
 20
1.971655756891514
 30
0.0
 10
36.92480678077866
 20
1.803870491529919
 30
0.0
  0
SPLINE
  5
222
330
1F
100
AcDbEntity
  8
1
  6
Continuous
370
    15
100
AcDbSpline
210
0.0
220
0.0
230
1.0
 70
     8
 71
     3
 72
    11
 73
     7
 74
     0
 42
0.0000000001
 43
0.0000000001
 40
0.0004931483098062
 40
0.0004931483098062
 40
0.0004931483098062
 40
0.0004931483098062
 40
0.0005298720692033
 40
0.0005298720692033
 40
0.0005298720692033
 40
0.0009131351903229
 40
0.0009131351903229
 40
0.0009131351903229
 40
0.0009131351903229
 10
37.28458044843563
 20
1.605582741724407
 30
0.0
 10
37.27407169890972
 20
1.611383512234904
 30
0.0
 10
37.26356506141275
 20
1.617183876511536
 30
0.0
 10
37.25306050876219
 20
1.622983485321366
 30
0.0
 10
37.14343734184726
 20
1.683506908426709
 30
0.0
 10
37.03403632158773
 20
1.743965127497423
 30
0.0
 10
36.92480678077868
 20
1.803870491529911
 30
0.0
  0
SPLINE
  5
223
330
1F
100
AcDbEntity
  8
1
  6
Continuous
370
    15
100
AcDbSpline
210
0.0
220
0.0
230
1.0
 70
     8
 71
     3
 72
     8
 73
     4
 74
     0
 42
0.0000000001
 43
0.0000000001
 40
0.0
 40
0.0
 40
0.0
 40
0.0
 40
1.0
 40
1.0
 40
1.0
 40
1.0
 10
37.28894171000372
 20
1.627013450443021
 30
0.0
 10
37.28826927971116
 20
1.85890930056879
 30
0.0
 10
37.29303706163432
 20
2.069739686851482
 30
0.0
 10
37.29171053744523
 20
2.259535371544653
 30
0.0
  0
SPLINE
  5
224
330
1F
100
AcDbEntity
  8
1
  6
Continuous
370
    15
100
AcDbSpline
210
0.0
220
0.0
230
1.0
 70
     8
 71
     3
 72
    10
 73
     6
 74
     0
 42
0.0000000001
 43
0.0000000001
 40
0.0
 40
0.0
 40
0.0
 40
0.0
 40
0.2005095784985949
 40
0.6001763044377107
 40
1.0
 40
1.0
 40
1.0
 40
1.0
 10
16.25035185882848
 20
-3.136403755638901
 30
0.0
 10
16.03312740843192
 20
-3.153932066647243
 30
0.0
 10
15.38291922960698
 20
-3.206398771743306
 30
0.0
 10
14.29948717009213
 20
-3.112775967325134
 30
0.0
 10
13.43321105942135
 20
-2.91621974469184
 30
0.0
 10
12.99998796302043
 20
-2.817922337736765
 30
0.0
  0
SPLINE
  5
225
330
1F
100
AcDbEntity
  8
1
  6
Continuous
370
    15
100
AcDbSpline
210
0.0
220
0.0
230
1.0
 70
     8
 71
     3
 72
    11
 73
     7
 74
     0
 42
0.0000000001
 43
0.0000000001
 40
0.0
 40
0.0
 40
0.0
 40
0.0
 40
0.2786184065873817
 40
0.557284430948249
 40
0.8356659894865734
 40
1.0
 40
1.0
 40
1.0
 40
1.0
 10
37.29185840941608
 20
2.259523126007837
 30
0.0
 10
36.89212330611738
 20
2.411245021273351
 30
0.0
 10
36.09258478208238
 20
2.714714742104283
 30
0.0
 10
34.89349635762892
 20
3.00755235333134
 30
0.0
 10
33.85871670947307
 20
3.166614764474053
 30
0.0
 10
33.22371567497896
 20
3.161007903662317
 30
0.0
 10
32.98800617214377
 20
3.158926662368823
 30
0.0
  0
SPLINE
  5
226
330
1F
100
AcDbEntity
  8
1
  6
Continuous
370
    15
100
AcDbSpline
210
0.0
220
0.0
230
1.0
 70
     8
 71
     3
 72
    10
 73
     6
 74
     0
 42
0.0000000001
 43
0.0000000001
 40
0.0
 40
0.0
 40
0.0
 40
0.0
 40
0.5
 40
0.5
 40
1.0
 40
1.0
 40
1.0
 40
1.0
 10
13.0
 20
-0.0049079367245346
 30
0.0
 10
12.51407687685766
 20
0.3416971198671002
 30
0.0
 10
12.03268795671458
 20
0.685129477484058
 30
0.0
 10
11.06177793765607
 20
1.341766343039661
 30
0.0
 10
10.57937734168008
 20
1.650026835258742
 30
0.0
 10
10.09371422533495
 20
1.925974691395632
 30
0.0
  0
SPLINE
  5
227
330
1F
100
AcDbEntity
  8
1
  6
Continuous
370
    15
100
AcDbSpline
210
0.0
220
0.0
230
1.0
 70
     8
 71
     3
 72
    14
 73
    10
 74
     0
 42
0.0000000001
 43
0.0000000001
 40
0.0
 40
0.0
 40
0.0
 40
0.0
 40
0.1571240245637628
 40
0.3142439635060286
 40
0.475974354308294
 40
0.6376985875411427
 40
0.7949084360280021
 40
0.9521102676456399
 40
1.0
 40
1.0
 40
1.0
 40
1.0
 10
10.0937159592264
 20
1.92597665444458
 30
0.0
 10
9.884130564759573
 20
2.041563531888297
 30
0.0
 10
9.464965225575554
 20
2.272734281224972
 30
0.0
 10
8.832272742052921
 20
2.56874353624129
 30
0.0
 10
8.195492438150552
 20
2.817038209063833
 30
0.0
 10
7.560925537966284
 20
3.006947902722294
 30
0.0
 10
6.935516147923692
 20
3.12579196763634
 30
0.0
 10
6.461137852270482
 20
3.181152026206817
 30
0.0
 10
6.195021117086184
 20
3.171426596550161
 30
0.0
 10
6.132881753690767
 20
3.169155668315628
 30
0.0
  0
SPLINE
  5
228
330
1F
100
AcDbEntity
  8
1
  6
Continuous
370
    15
100
AcDbSpline
210
0.0
220
0.0
230
1.0
 70
     8
 71
     3
 72
    10
 73
     6
 74
     0
 42
0.0000000001
 43
0.0000000001
 40
0.0
 40
0.0
 40
0.0
 40
0.0
 40
0.1005305722046189
 40
0.5490466433437275
 40
1.0
 40
1.0
 40
1.0
 40
1.0
 10
9.086678372135054
 20
2.441418292459698
 30
0.0
 10
9.218461604026217
 20
2.474215569742026
 30
0.0
 10
9.938194313510365
 20
2.653337548337993
 30
0.0
 10
11.24215984587844
 20
2.900192778822996
 30
0.0
 10
12.41299574689257
 20
3.030644053576277
 30
0.0
 10
13.0
 20
3.09604643237004
 30
0.0
  0
SPLINE
  5
229
330
1F
100
AcDbEntity
  8
1
  6
Continuous
370
    15
100
AcDbSpline
210
0.0
220
0.0
230
1.0
 70
     8
 71
     3
 72
    14
 73
    10
 74
     0
 42
0.0000000001
 43
0.0000000001
 40
0.0
 40
0.0
 40
0.0
 40
0.0
 40
0.25
 40
0.25
 40
0.5
 40
0.5
 40
0.75
 40
0.75
 40
1.0
 40
1.0
 40
1.0
 40
1.0
 10
34.55382081152078
 20
-2.117000098255812
 30
0.0
 10
34.5928380580514
 20
-2.301549346595616
 30
0.0
 10
34.67463425928901
 20
-2.451422068582576
 30
0.0
 10
34.90110691203341
 20
-2.700196920346679
 30
0.0
 10
35.0402431955678
 20
-2.792828389669801
 30
0.0
 10
35.35065345900867
 20
-2.934165926551297
 30
0.0
 10
35.52253304106995
 20
-2.982270482069068
 30
0.0
 10
35.87851662950092
 20
-3.043119662561596
 30
0.0
 10
36.0644722459283
 20
-3.056499999999958
 30
0.0
 10
36.25667974266412
 20
-3.056499999999949
 30
0.0
  0
SPLINE
  5
22A
330
1F
100
AcDbEntity
  8
1
  6
Continuous
370
    15
100
AcDbSpline
210
0.0
220
0.0
230
1.0
 70
     8
 71
     3
 72
    18
 73
    14
 74
     0
 42
0.0000000001
 43
0.0000000001
 40
0.0
 40
0.0
 40
0.0
 40
0.0
 40
0.0798432523671556
 40
0.1594813693508491
 40
0.2603026071725128
 40
0.36113362452459
 40
0.4619841689293251
 40
0.5628639241144887
 40
0.6637824786681982
 40
0.7647010332219075
 40
0.8655807884070711
 40
0.9664313328118062
 40
1.0
 40
1.0
 40
1.0
 40
1.0
 10
34.55382081152786
 20
-2.117000098258651
 30
0.0
 10
34.21059048110766
 20
-1.973062447982072
 30
0.0
 10
33.5250116566574
 20
-1.685556955824851
 30
0.0
 10
32.40700477505962
 20
-1.130434231488049
 30
0.0
 10
31.1979595373071
 20
-0.4830303018410742
 30
0.0
 10
29.89800421810634
 20
0.2420143481456338
 30
0.0
 10
28.59767123924561
 20
0.953101116314456
 30
0.0
 10
27.2969210973894
 20
1.611984228731407
 30
0.0
 10
25.99574986998184
 20
2.180835775105399
 30
0.0
 10
24.6945794225835
 20
2.632318974185545
 30
0.0
 10
23.39382694182487
 20
2.926609143083603
 30
0.0
 10
22.38257741254265
 20
3.063684590044445
 30
0.0
 10
21.80490638643869
 20
3.04288525769694
 30
0.0
 10
21.66064392432671
 20
3.037691016062608
 30
0.0
  0
SPLINE
  5
22B
330
1F
100
AcDbEntity
  8
1
  6
Continuous
370
    15
100
AcDbSpline
210
0.0
220
0.0
230
1.0
 70
     8
 71
     3
 72
    10
 73
     6
 74
     0
 42
0.0000000001
 43
0.0000000001
 40
0.0
 40
0.0
 40
0.0
 40
0.0
 40
0.5000000000000001
 40
0.5000000000000001
 40
1.0
 40
1.0
 40
1.0
 40
1.0
 10
36.25667974266435
 20
-3.056500000000002
 30
0.0
 10
36.31283423761818
 20
-3.056500000000003
 30
0.0
 10
36.39605303699076
 20
-3.022916623383176
 30
0.0
 10
36.60596731001482
 20
-2.901800819629814
 30
0.0
 10
36.73206714245299
 20
-2.814218039467683
 30
0.0
 10
36.87153213563983
 20
-2.707154365712718
 30
0.0
  0
SPLINE
  5
22C
330
1F
100
AcDbEntity
  8
1
  6
Continuous
370
    15
100
AcDbSpline
210
0.0
220
0.0
230
1.0
 70
     8
 71
     3
 72
     8
 73
     4
 74
     0
 42
0.0000000001
 43
0.0000000001
 40
0.0
 40
0.0
 40
0.0
 40
0.0
 40
1.0
 40
1.0
 40
1.0
 40
1.0
 10
36.87153213563985
 20
-2.707154365712717
 30
0.0
 10
37.06022109320614
 20
-2.562302725652938
 30
0.0
 10
37.25060243976299
 20
-2.415418839990656
 30
0.0
 10
37.46398235082771
 20
-2.232831945015063
 30
0.0
  0
SPLINE
  5
22D
330
1F
100
AcDbEntity
  8
1
  6
Continuous
370
    15
100
AcDbSpline
210
0.0
220
0.0
230
1.0
 70
     8
 71
     3
 72
    22
 73
    18
 74
     0
 42
0.0000000001
 43
0.0000000001
 40
0.0
 40
0.0
 40
0.0
 40
0.0
 40
0.0470421147482748
 40
0.1194891908654753
 40
0.1919432153969444
 40
0.2644111140902773
 40
0.3368997675164472
 40
0.4094159888714757
 40
0.4819322102265042
 40
0.5544208636526742
 40
0.6268887623460071
 40
0.6993427868774766
 40
0.7717898629946767
 40
0.8441413367749534
 40
0.9165000087505433
 40
0.9888730530797536
 40
1.0
 40
1.0
 40
1.0
 40
1.0
 10
33.34177564503685
 20
-3.142397419439844
 30
0.0
 10
33.06048370076263
 20
-3.159069635511264
 30
0.0
 10
32.34598889120412
 20
-3.201417850912903
 30
0.0
 10
31.19799251381272
 20
-3.078867738619522
 30
0.0
 10
29.8979970043317
 20
-2.792468862144029
 30
0.0
 10
28.59767557675914
 20
-2.345719560871302
 30
0.0
 10
27.29692361618834
 20
-1.770873367719872
 30
0.0
 10
25.99574992047056
 20
-1.097761718014184
 30
0.0
 10
24.69457670186918
 20
-0.3641045282601354
 30
0.0
 10
23.39382331062976
 20
0.3897897940194146
 30
0.0
 10
22.093507126628
 20
1.12194778908332
 30
0.0
 10
20.79349207827791
 20
1.792381137329372
 30
0.0
 10
19.49419540524445
 20
2.362325444156506
 30
0.0
 10
18.19547709749565
 20
2.806109179918014
 30
0.0
 10
16.89716606863828
 20
3.078620808588131
 30
0.0
 10
15.96500630937908
 20
3.196570666478675
 30
0.0
 10
15.46556717798285
 20
3.169232300112162
 30
0.0
 10
15.39901348591913
 20
3.165589275162163
 30
0.0
  0
SPLINE
  5
22E
330
1F
100
AcDbEntity
  8
1
  6
Continuous
370
    15
100
AcDbSpline
210
0.0
220
0.0
230
1.0
 70
     8
 71
     3
 72
    22
 73
    18
 74
     0
 42
0.0000000001
 43
0.0000000001
 40
0.0
 40
0.0
 40
0.0
 40
0.0
 40
0.0699129187381515
 40
0.1397983898671911
 40
0.2096631074934312
 40
0.2795139508873988
 40
0.3493578455632675
 40
0.4192940291615641
 40
0.4892369203539014
 40
0.5591932048532341
 40
0.629169524761641
 40
0.6991724571413493
 40
0.7691753895210578
 40
0.8391517094294647
 40
0.9091079939287975
 40
0.9790508851211344
 40
1.0
 40
1.0
 40
1.0
 40
1.0
 10
12.99998796302091
 20
3.096047557018644
 30
0.0
 10
13.43321167029097
 20
3.13537669709182
 30
0.0
 10
14.29948900246023
 20
3.214019536731853
 30
0.0
 10
15.59855655370977
 20
3.109083048575575
 30
0.0
 10
16.89717153631535
 20
2.845032440019696
 30
0.0
 10
18.19547563281837
 20
2.420937460571095
 30
0.0
 10
19.49419579814289
 20
1.864090342989498
 30
0.0
 10
20.79349197338075
 20
1.203875697413455
 30
0.0
 10
22.09350715306653
 20
0.4768966880088961
 30
0.0
 10
23.39382330979765
 20
-0.2765219470909948
 30
0.0
 10
24.69457667873803
 20
-1.014686982525577
 30
0.0
 10
25.99575001386702
 20
-1.696961791189062
 30
0.0
 10
27.2969232658046
 20
-2.284527475089161
 30
0.0
 10
28.59767688420064
 20
-2.74931974467429
 30
0.0
 10
29.89799212664698
 20
-3.04921801843634
 30
0.0
 10
30.89451515337962
 20
-3.186810230164899
 30
0.0
 10
31.45761855018745
 20
-3.163830297214486
 30
0.0
 10
31.58740463653663
 20
-3.158533800018576
 30
0.0
  0
LWPOLYLINE
  5
22F
330
1F
100
AcDbEntity
  8
1
  6
Continuous
370
    15
100
AcDbPolyline
 90
       26
 70
   128
 43
0.0
 10
9.086678372099996
 20
-2.441418292500002
 10
8.838727790799993
 20
-2.557728217700002
 10
8.195876703999999
 20
-2.807210917400002
 10
7.555513232099997
 20
-2.996799791600003
 10
6.935832869800009
 20
-3.118184816100002
 10
6.319431754499987
 20
-3.173729490800002
 10
5.686229140699992
 20
-3.158204664500002
 10
5.05843495869999
 20
-3.066388712200002
 10
4.149943748200001
 20
-2.789342188700002
 10
3.693000342200008
 20
-2.580473012400002
 10
3.245641621200007
 20
-2.324865919400002
 10
2.824319515500008
 20
-2.028769475000002
 10
2.423593699500003
 20
-1.674040746000002
 10
2.2448665693
 20
-1.472398015000002
 10
2.094044856799996
 20
-1.240163081400002
 10
2.049245691799995
 20
-1.120793931800002
 10
2.039400140300003
 20
-1.016938000100002
 10
2.056299436199992
 20
-0.9496355201000028
 10
2.0966714977
 20
-0.8912742160000025
 10
2.164918746899999
 20
-0.8429451427000028
 10
2.299853761299999
 20
-0.8000154190000028
 10
2.514681200500007
 20
-0.7835363135000027
 10
2.735257364000005
 20
-0.7959731262000025
 10
3.367230603899997
 20
-0.9035611121000023
 10
3.993841290799991
 20
-1.059829797300002
 10
3.993841290799991
 20
-1.059829797300002
  0
SPLINE
  5
230
330
1F
100
AcDbEntity
  8
1
  6
Continuous
370
    15
100
AcDbSpline
210
0.0
220
0.0
230
1.0
 70
     8
 71
     3
 72
    15
 73
    11
 74
     0
 42
0.0000000001
 43
0.0000000001
 40
0.0
 40
0.0
 40
0.0
 40
0.0
 40
0.0162949679897977
 40
0.0325945114984279
 40
0.0468451249912801
 40
0.0608506160746296
 40
0.0777584930397183
 40
0.2027041817593659
 40
0.4269385932343721
 40
1.0
 40
1.0
 40
1.0
 40
1.0
 10
34.68921824438627
 20
3.055676921250481
 30
0.0
 10
34.68981509030772
 20
3.055735153767371
 30
0.0
 10
34.69100894974096
 20
3.055851635152456
 30
0.0
 10
34.68639496336204
 20
3.056587122286315
 30
0.0
 10
34.67820957040044
 20
3.057651962516028
 30
0.0
 10
34.66523017343067
 20
3.059153578256416
 30
0.0
 10
34.6142709158948
 20
3.064785056396151
 30
0.0
 10
34.49014061270381
 20
3.078152114620032
 30
0.0
 10
34.18643861243214
 20
3.111041057241265
 30
0.0
 10
33.92639095625515
 20
3.130783649794225
 30
0.0
 10
33.73948006036744
 20
3.144973762927599
 30
0.0
  0
SPLINE
  5
231
330
1F
100
AcDbEntity
  8
1
  6
Continuous
370
    15
100
AcDbSpline
210
0.0
220
0.0
230
1.0
 70
     8
 71
     3
 72
    17
 73
    13
 74
     0
 42
0.0000000001
 43
0.0000000001
 40
0.0
 40
0.0
 40
0.0
 40
0.0
 40
0.3043335531477933
 40
0.5730939922477988
 40
0.7911592555755115
 40
0.9034437874202179
 40
0.9459069828111468
 40
0.9552799509123174
 40
0.9646445680677684
 40
0.9746178801894787
 40
0.9857158659924319
 40
1.0
 40
1.0
 40
1.0
 40
1.0
 10
16.2233733948941
 20
-3.159804019219509
 30
0.0
 10
16.34167637512833
 20
-3.151613070611984
 30
0.0
 10
16.564454069326
 20
-3.136188601672459
 30
0.0
 10
16.86880696966739
 20
-3.107687453449587
 30
0.0
 10
17.09859134646271
 20
-3.084405856296016
 30
0.0
 10
17.24684507871151
 20
-3.068044344271197
 30
0.0
 10
17.31204005565405
 20
-3.060793868634742
 30
0.0
 10
17.3323077784825
 20
-3.058428493272626
 30
0.0
 10
17.33955504881794
 20
-3.057520089687575
 30
0.0
 10
17.34458195760922
 20
-3.056804983027375
 30
0.0
 10
17.34804135984751
 20
-3.056200200055119
 30
0.0
 10
17.34753752530709
 20
-3.056034494065154
 30
0.0
 10
17.34725398554971
 20
-3.055941240759904
 30
0.0
  0
SPLINE
  5
232
330
1F
100
AcDbEntity
  8
1
  6
Continuous
370
    15
100
AcDbSpline
210
0.0
220
0.0
230
1.0
 70
     8
 71
     3
 72
     9
 73
     5
 74
     0
 42
0.0000000001
 43
0.0000000001
 40
0.0
 40
0.0
 40
0.0
 40
0.0
 40
0.2860078489323622
 40
1.0
 40
1.0
 40
1.0
 40
1.0
 10
36.2546814433951
 20
3.056499831828436
 30
0.0
 10
36.10518699457543
 20
3.056499792181024
 30
0.0
 10
35.58249347627623
 20
3.056499653557515
 30
0.0
 10
35.05979927015108
 20
3.056499829859984
 30
0.0
 10
34.68659970956918
 20
3.056499955738564
 30
0.0
  0
SPLINE
  5
233
330
1F
100
AcDbEntity
  8
1
  6
Continuous
370
    15
100
AcDbSpline
210
0.0
220
0.0
230
1.0
 70
     8
 71
     3
 72
    19
 73
    15
 74
     0
 42
0.0000000001
 43
0.0000000001
 40
0.0
 40
0.0
 40
0.0
 40
0.0
 40
0.1096943435069265
 40
0.2061204524537693
 40
0.2890279868009533
 40
0.356129171076398
 40
0.4068833635556978
 40
0.4563110099609892
 40
0.5343122575984501
 40
0.6160569625888538
 40
0.6839838411218288
 40
0.7552419181629619
 40
0.8606996132339167
 40
1.0
 40
1.0
 40
1.0
 40
1.0
 10
17.12477469901765
 20
-3.056499999999247
 30
0.0
 10
17.28995346824962
 20
-3.056398938282296
 30
0.0
 10
17.60033157491745
 20
-3.056209038911391
 30
0.0
 10
18.03856111007078
 20
-3.055892317390312
 30
0.0
 10
18.4103291756373
 20
-3.056458038033157
 30
0.0
 10
18.71281089681797
 20
-3.056511793145879
 30
0.0
 10
18.96612355600076
 20
-3.056485612391264
 30
0.0
 10
19.23567557343887
 20
-3.056505373471118
 30
0.0
 10
19.55230195415248
 20
-3.056497819461188
 30
0.0
 10
19.8968929209648
 20
-3.056501816238432
 30
0.0
 10
20.23119193493233
 20
-3.056493069151798
 30
0.0
 10
20.6014171302717
 20
-3.056463380009235
 30
0.0
 10
21.07972108626249
 20
-3.056493491296231
 30
0.0
 10
21.45011657876535
 20
-3.056497639054071
 30
0.0
 10
21.66092161112546
 20
-3.05649999968816
 30
0.0
  0
SPLINE
  5
234
330
1F
100
AcDbEntity
  8
1
  6
Continuous
370
    15
100
AcDbSpline
210
0.0
220
0.0
230
1.0
 70
     8
 71
     3
 72
    21
 73
    17
 74
     0
 42
0.0000000001
 43
0.0000000001
 40
0.0
 40
0.0
 40
0.0
 40
0.0
 40
0.1170989710603128
 40
0.2174569842405704
 40
0.3008479181220735
 40
0.3675302883682712
 40
0.4180973423840129
 40
0.4703223999208054
 40
0.5574140183392269
 40
0.6571814859146973
 40
0.7286924003401117
 40
0.7960394997530335
 40
0.852105683947348
 40
0.9126932912444797
 40
0.9787115959768058
 40
1.0
 40
1.0
 40
1.0
 40
1.0
 10
21.66095621608025
 20
3.056499999902709
 30
0.0
 10
21.48347817585167
 20
3.056377041366988
 30
0.0
 10
21.15389509713143
 20
3.056148702961256
 30
0.0
 10
20.6943125489581
 20
3.055803197298375
 30
0.0
 10
20.31460096366611
 20
3.056518562689075
 30
0.0
 10
20.01060972031858
 20
3.056495287454829
 30
0.0
 10
19.75203531188876
 20
3.056464445723725
 30
0.0
 10
19.4630609557876
 20
3.056513924069553
 30
0.0
 10
19.09855955072943
 20
3.056494869670914
 30
0.0
 10
18.70493154906025
 20
3.056500502343005
 30
0.0
 10
18.34115243867789
 20
3.056499569373831
 30
0.0
 10
18.04450517029504
 20
3.056498830935804
 30
0.0
 10
17.76917376895669
 20
3.055941632589894
 30
0.0
 10
17.49942121555631
 20
3.052994256529635
 30
0.0
 10
17.26773819473156
 20
3.054313442901293
 30
0.0
 10
17.14176883540948
 20
3.055001964159066
 30
0.0
 10
17.11105313607757
 20
3.055169849524612
 30
0.0
  0
SPLINE
  5
235
330
1F
100
AcDbEntity
  8
1
  6
Continuous
370
    15
100
AcDbSpline
210
0.0
220
0.0
230
1.0
 70
     8
 71
     3
 72
    12
 73
     8
 74
     0
 42
0.0000000001
 43
0.0000000001
 40
0.0
 40
0.0
 40
0.0
 40
0.0
 40
0.2495429714650284
 40
0.4526908505464456
 40
0.6193151178317643
 40
0.815593052298346
 40
1.0
 40
1.0
 40
1.0
 40
1.0
 10
34.20755010829427
 20
-3.056499999784056
 30
0.0
 10
34.37866925696079
 20
-3.056353284181489
 30
0.0
 10
34.68909303888438
 20
-3.056087130378301
 30
0.0
 10
35.11951475928305
 20
-3.056137414129656
 30
0.0
 10
35.50214493119915
 20
-3.056665338338274
 30
0.0
 10
35.8798014525058
 20
-3.055891946645729
 30
0.0
 10
36.14253696343178
 20
-3.05605603273677
 30
0.0
 10
36.26980824708966
 20
-3.056135517414589
 30
0.0
  0
SPLINE
  5
236
330
1F
100
AcDbEntity
  8
1
  6
Continuous
370
    15
100
AcDbSpline
210
0.0
220
0.0
230
1.0
 70
     8
 71
     3
 72
    15
 73
    11
 74
     0
 42
0.0000000001
 43
0.0000000001
 40
0.0
 40
0.0
 40
0.0
 40
0.0
 40
0.0131200054583003
 40
0.0266322244047409
 40
0.0385410751791262
 40
0.0505569256548355
 40
0.0651989043039167
 40
0.1727026531333501
 40
0.3639128803184384
 40
1.0
 40
1.0
 40
1.0
 40
1.0
 10
17.11083281709477
 20
3.053707835792744
 30
0.0
 10
17.11146753389417
 20
3.053741898046514
 30
0.0
 10
17.11275594191262
 20
3.053811040821573
 30
0.0
 10
17.10794468146701
 20
3.054532826008063
 30
0.0
 10
17.09916930644095
 20
3.055640795852255
 30
0.0
 10
17.08541900359137
 20
3.057220108242066
 30
0.0
 10
17.03259082986088
 20
3.063082946689489
 30
0.0
 10
16.90635213713082
 20
3.076891085730776
 30
0.0
 10
16.5395875704331
 20
3.11678912396801
 30
0.0
 10
16.21849221902066
 20
3.141119097371719
 30
0.0
 10
15.97161046846671
 20
3.159825772502382
 30
0.0
  0
SPLINE
  5
237
330
1F
100
AcDbEntity
  8
1
  6
Continuous
370
    15
100
AcDbSpline
210
0.0
220
0.0
230
1.0
 70
     8
 71
     3
 72
    17
 73
    13
 74
     0
 42
0.0000000001
 43
0.0000000001
 40
0.0
 40
0.0
 40
0.0
 40
0.0
 40
0.4982371593697428
 40
0.7854997972051129
 40
0.8066002827023838
 40
0.8252617105341048
 40
0.8426225483949512
 40
0.86008470958658
 40
0.8790446961175323
 40
0.9006296804963149
 40
0.9545036195062996
 40
1.0
 40
1.0
 40
1.0
 40
1.0
 10
33.31063265255716
 20
-3.159824420693631
 30
0.0
 10
33.48813980424828
 20
-3.147195149743843
 30
0.0
 10
33.76799013061134
 20
-3.127284371145041
 30
0.0
 10
34.05595858824569
 20
-3.097830676501886
 30
0.0
 10
34.17576915285668
 20
-3.084987667338772
 30
0.0
 10
34.19704600114398
 20
-3.082621073320684
 30
0.0
 10
34.21576283028122
 20
-3.080433455007281
 30
0.0
 10
34.23157358095711
 20
-3.078418174133375
 30
0.0
 10
34.24440058265117
 20
-3.07653692555708
 30
0.0
 10
34.25820334393279
 20
-3.073988300955698
 30
0.0
 10
34.26918391349114
 20
-3.070945657185211
 30
0.0
 10
34.26197985020525
 20
-3.069974854848479
 30
0.0
 10
34.25868149305001
 20
-3.069530376127703
 30
0.0
  0
DIMENSION
  5
238
330
1F
100
AcDbEntity
  8
2
370
    18
100
AcDbDimension
  2
*D9
 10
42.73721725679767
 20
-3.177000000000005
 30
0.0
 11
52.68721725679768
 21
9.177000000000017
 31
0.0
 70
   160
  1
%%c<>
 71
     5
 42
6.353999999999999
  3
Standard
100
AcDbAlignedDimension
 13
32.9880061721
 23
3.176999999999996
 33
0.0
 14
32.7361373041
 24
-3.177000000000002
 34
0.0
 50
90.0
100
AcDbRotatedDimension
1001
ACAD
1000
DSTYLE
1002
{
1070
     3
1000

1070
    41
1040
3.0
1070
    73
1070
     1
1070
    74
1070
     1
1070
    77
1070
     3
1070
   140
1040
3.5
1070
   147
1040
1.199999999999999
1070
   271
1070
     3
1070
   278
1070
    46
1002
}
  0
DIMENSION
  5
247
330
1F
100
AcDbEntity
  8
SK2
370
    18
100
AcDbDimension
  2
*D10
 10
39.0
 20
12.52580515970426
 30
0.0
 11
26.00967428835474
 21
12.52580515970426
 31
0.0
 70
   160
 71
     5
 42
26.0
  3
Standard
100
AcDbAlignedDimension
 13
13.0
 23
3.096038476499997
 33
0.0
 14
39.0
 24
-0.0000000000000027
 34
0.0
100
AcDbRotatedDimension
1001
ACAD
1000
DSTYLE
1002
{
1070
     3
1000

1070
    41
1040
3.0
1070
    73
1070
     1
1070
    74
1070
     1
1070
    77
1070
     3
1070
   140
1040
3.5
1070
   147
1040
1.199999999999999
1070
   278
1070
    46
1002
}
  0
DIMENSION
  5
255
330
1F
100
AcDbEntity
  8
SK2
370
    18
100
AcDbDimension
  2
*D11
 10
36.25667974266435
 20
-9.979956691247981
 30
0.0
 11
18.12833987133217
 21
-7.02995669124798
 31
0.0
 70
    32
 71
     5
 42
36.25667974266435
  3
Standard
100
AcDbAlignedDimension
 13
0.0
 23
-3.000000000000002
 33
0.0
 14
36.25667974266435
 24
-3.056500000000002
 34
0.0
100
AcDbRotatedDimension
1001
ACAD
1000
DSTYLE
1002
{
1070
     3
1000

1070
    41
1040
3.0
1070
    73
1070
     1
1070
    74
1070
     1
1070
    77
1070
     3
1070
   140
1040
3.5
1070
   147
1040
1.199999999999999
1070
   278
1070
    46
1002
}
  0
DIMENSION
  5
263
330
1F
100
AcDbEntity
  8
SK2
370
    18
100
AcDbDimension
  2
*D12
 10
36.25667974266435
 20
-17.83188041120575
 30
0.0
 11
0.1283398713321733
 21
-14.88188041120575
 31
0.0
 70
    32
 71
     5
 42
72.25667974266435
  3
Standard
100
AcDbAlignedDimension
 13
-36.0
 23
-2.700000000000002
 33
0.0
 14
36.25667974266435
 24
-3.056500000000002
 34
0.0
100
AcDbRotatedDimension
1001
ACAD
1000
DSTYLE
1002
{
1070
     3
1000

1070
    41
1040
3.0
1070
    73
1070
     1
1070
    74
1070
     1
1070
    77
1070
     3
1070
   140
1040
3.5
1070
   147
1040
1.199999999999999
1070
   278
1070
    46
1002
}
  0
DIMENSION
  5
271
330
1F
100
AcDbEntity
  8
SK2
370
    18
100
AcDbDimension
  2
*D13
 10
36.26980824708966
 20
-14.12840135579374
 30
0.0
 11
53.17447841394027
 21
-14.12840135579374
 31
0.0
 70
   160
 71
     5
 42
2.730191752910343
  3
Standard
100
AcDbAlignedDimension
 13
39.0
 23
-0.0000000000000027
 33
0.0
 14
36.26980824708966
 24
-3.056135517414589
 34
0.0
100
AcDbRotatedDimension
1001
ACAD
1000
DSTYLE
1002
{
1070
     3
1000

1070
    41
1040
3.0
1070
    73
1070
     1
1070
    74
1070
     1
1070
    77
1070
     3
1070
   140
1040
3.5
1070
   147
1040
1.199999999999999
1070
   278
1070
    46
1002
}
  0
DIMENSION
  5
27F
330
1F
100
AcDbEntity
  8
SK2
370
    18
100
AcDbDimension
  2
*D14
 10
39.0
 20
-25.97124766600495
 30
0.0
 11
1.5
 21
-23.02124766600495
 31
0.0
 70
    32
 71
     5
 42
75.0
  3
Standard
100
AcDbAlignedDimension
 13
-36.0
 23
-2.700000000000002
 33
0.0
 14
39.0
 24
-0.0625000000000027
 34
0.0
100
AcDbRotatedDimension
1001
ACAD
1000
DSTYLE
1002
{
1070
     3
1000

1070
    41
1040
3.0
1070
    73
1070
     1
1070
    74
1070
     1
1070
    77
1070
     3
1070
   140
1040
3.5
1070
   147
1040
1.199999999999999
1070
   278
1070
    46
1002
}
  0
DIMENSION
  5
28D
330
1F
100
AcDbEntity
  8
SK2
370
    18
100
AcDbDimension
  2
*D15
 10
-41.90209715333145
 20
-3.0
 30
0.0
 11
-32.82709715333147
 21
9.00000000000001
 31
0.0
 70
   160
  1
%%c<>
 71
     5
 42
6.0
  3
Standard
100
AcDbAlignedDimension
 13
-35.7
 23
2.999999999999997
 33
0.0
 14
-35.7
 24
-3.000000000000002
 34
0.0
 50
90.0
100
AcDbRotatedDimension
1001
ACAD
1000
DSTYLE
1002
{
1070
     3
1000

1070
    41
1040
3.0
1070
    73
1070
     1
1070
    74
1070
     1
1070
    77
1070
     3
1070
   140
1040
3.5
1070
   147
1040
1.199999999999999
1070
   271
1070
     3
1070
   278
1070
    46
1002
}
  0
LINE
  5
47E
330
1F
100
AcDbEntity
  8
1
370
    18
100
AcDbLine
 10
12.99999200143017
 20
-2.242199177350321
 30
0.0
 11
12.99999200143017
 21
-2.817923254043419
 31
0.0
  0
ENDSEC
  0
SECTION
  2
OBJECTS
  0
DICTIONARY
  5
183
330
0
100
AcDbDictionary
281
     1
  3
ACAD_COLOR
350
195
  3
ACAD_GROUP
350
184
  3
ACAD_LAYOUT
350
196
  3
ACAD_MATERIAL
350
194
  3
ACAD_MLINESTYLE
350
185
  3
ACAD_PLOTSETTINGS
350
197
  3
ACAD_PLOTSTYLENAME
350
192
  0
DICTIONARY
  5
195
102
{ACAD_REACTORS
330
183
102
}
330
183
100
AcDbDictionary
281
     1
  0
DICTIONARY
  5
184
330
183
100
AcDbDictionary
281
     1
  0
DICTIONARY
  5
196
102
{ACAD_REACTORS
330
183
102
}
330
183
100
AcDbDictionary
281
     1
  3
Layout1
350
199
  3
Model
350
198
  0
DICTIONARY
  5
194
102
{ACAD_REACTORS
330
183
102
}
330
183
100
AcDbDictionary
281
     1
  0
DICTIONARY
  5
185
330
183
100
AcDbDictionary
281
     1
  3
Standard
350
18
  0
DICTIONARY
  5
197
102
{ACAD_REACTORS
330
183
102
}
330
183
100
AcDbDictionary
281
     1
  0
ACDBDICTIONARYWDFLT
  5
192
102
{ACAD_REACTORS
330
183
102
}
330
183
100
AcDbDictionary
281
     1
  3
Normal
350
193
100
AcDbDictionaryWithDefault
340
193
  0
LAYOUT
  5
199
102
{ACAD_REACTORS
330
196
102
}
330
196
100
AcDbPlotSettings
  1

  2
Chappel Main Office
  4

  6

 40
0.0
 41
0.0
 42
0.0
 43
0.0
 44
0.0
 45
0.0
 46
0.0
 47
0.0
 48
0.0
 49
0.0
140
0.0
141
0.0
142
1.0
143
1.0
 70
   688
 72
     0
 73
     0
 74
     5
  7

 75
    16
147
1.0
 76
     0
 77
     2
 78
   300
148
0.0
149
0.0
100
AcDbLayout
  1
Layout1
 70
     1
 71
     1
 10
0.0
 20
0.0
 11
12.0
 21
9.0
 12
0.0
 22
0.0
 32
0.0
 14
1.000000000000000E+20
 24
1.000000000000000E+20
 34
1.000000000000000E+20
 15
-1.000000000000000E+20
 25
-1.000000000000000E+20
 35
-1.000000000000000E+20
146
0.0
 13
0.0
 23
0.0
 33
0.0
 16
1.0
 26
0.0
 36
0.0
 17
0.0
 27
1.0
 37
0.0
 76
     0
330
1B
  0
LAYOUT
  5
198
102
{ACAD_REACTORS
330
196
102
}
330
196
100
AcDbPlotSettings
  1

  2
Chappel Main Office
  4

  6

 40
0.0
 41
0.0
 42
0.0
 43
0.0
 44
0.0
 45
0.0
 46
0.0
 47
0.0
 48
0.0
 49
0.0
140
0.0
141
0.0
142
1.0
143
1.0
 70
  1712
 72
     0
 73
     0
 74
     0
  7

 75
     0
147
1.0
 76
     0
 77
     2
 78
   300
148
0.0
149
0.0
100
AcDbLayout
  1
Model
 70
     1
 71
     0
 10
0.0
 20
0.0
 11
12.0
 21
9.0
 12
0.0
 22
0.0
 32
0.0
 14
0.0
 24
0.0
 34
0.0
 15
0.0
 25
0.0
 35
0.0
146
0.0
 13
0.0
 23
0.0
 33
0.0
 16
1.0
 26
0.0
 36
0.0
 17
0.0
 27
1.0
 37
0.0
 76
     0
330
1F
  0
MLINESTYLE
  5
18
330
185
100
AcDbMlineStyle
  2
STANDARD
 70
     0
  3

 62
   256
 51
90.0
 52
90.0
 71
     2
 49
0.5
 62
   256
  6
BYLAYER
 49
-0.5
 62
   256
  6
BYLAYER
  0
ACDBPLACEHOLDER
  5
193
102
{ACAD_REACTORS
330
192
102
}
330
192
  0
ENDSEC
  0
EOF
