0
SECTION
2
HEADER
9
$ACADVER
1
AC1015
9
$DWGCODEPAGE
3
ANSI_1252
9
$HANDSEED
5
237
9
$ANGBASE
50
0
9
$ANGDIR
70
0
9
$ATTMODE
70
1
9
$AUNITS
70
0
9
$AUPREC
70
0
9
$CECOLOR
62
256
9
$CELTSCALE
40
1
9
$CELTYPE
6
ByLayer
9
$CELWEIGHT
370
18
9
$CLAYER
8
0
9
$CMLJUST
70
0
9
$CMLSCALE
40
1
9
$CMLSTYLE
2
Standard
9
$DIMSTYLE
2
Standard
9
$TEXTSIZE
40
0.2
9
$TEXTSTYLE
7
Standard
9
$LUNITS
70
2
9
$LUPREC
70
4
9
$EXTNAMES
290
1
9
$INSUNITS
70
4
9
$LTSCALE
40
1
9
$LWDISPLAY
290
1
9
$PDMODE
70
0
9
$PDSIZE
40
0
9
$PLINEGEN
70
0
0
ENDSEC
0
SECTION
2
CLASSES
0
CLASS
1
RASTERVARIABLES
2
AcDbRasterVariables
3
ISM
90
0
280
0
281
0
0
ENDSEC
0
SECTION
2
TABLES
0
TABLE
2
VPORT
5
22d
100
AcDbSymbolTable
0
VPORT
5
1
100
AcDbSymbolTableRecord
100
AcDbViewportTableRecord
2
*Active
70
0
10
0
20
0
11
1
21
1
12
-1
22
1
13
0
23
0
14
0.5
24
0.5
15
10
25
10
16
0
26
0
36
1
17
0
27
0
37
0
0
ENDTAB
0
TABLE
2
LTYPE
5
22e
100
AcDbSymbolTable
0
LTYPE
5
14
100
AcDbSymbolTableRecord
100
AcDbLinetypeTableRecord
70
0
2
ByBlock
3

72
65
73
0
40
0
0
LTYPE
5
15
100
AcDbSymbolTableRecord
100
AcDbLinetypeTableRecord
70
0
2
ByLayer
3

72
65
73
0
40
0
0
LTYPE
5
16
100
AcDbSymbolTableRecord
100
AcDbLinetypeTableRecord
70
0
2
Continuous
3
Solid line
72
65
73
0
40
0
0
LTYPE
5
6E
100
AcDbSymbolTableRecord
100
AcDbLinetypeTableRecord
70
0
2
CENTER
3
____ _ ____ _ ____ _ ____
72
65
73
4
40
47.5
49
22
74
0
49
-8.5
74
0
49
8.5
74
0
49
-8.5
74
0
0
LTYPE
5
6F
100
AcDbSymbolTableRecord
100
AcDbLinetypeTableRecord
70
0
2
DASHED
3
__ __ __ __ __ __ __ __ __
72
65
73
2
40
25.72
49
12.86
74
0
49
-12.86
74
0
0
ENDTAB
0
TABLE
2
LAYER
5
22f
100
AcDbSymbolTable
0
LAYER
5
10
100
AcDbSymbolTableRecord
100
AcDbLayerTableRecord
2
0
70
0
62
7
6
Continuous
290
1
370
-3
390
0
0
LAYER
5
71
100
AcDbSymbolTableRecord
100
AcDbLayerTableRecord
2
80
70
0
62
-6
6
Continuous
290
1
370
-3
390
0
0
LAYER
5
73
100
AcDbSymbolTableRecord
100
AcDbLayerTableRecord
2
81
70
0
62
-3
6
Continuous
290
1
370
-3
390
0
0
LAYER
5
75
100
AcDbSymbolTableRecord
100
AcDbLayerTableRecord
2
1
70
0
62
4
6
Continuous
290
1
370
-3
390
0
0
LAYER
5
93
100
AcDbSymbolTableRecord
100
AcDbLayerTableRecord
2
4
70
0
62
-2
6
CENTER
290
1
370
-3
390
0
0
LAYER
5
B6
100
AcDbSymbolTableRecord
100
AcDbLayerTableRecord
2
2
70
0
62
7
6
Continuous
290
1
370
-3
390
0
0
LAYER
5
142
100
AcDbSymbolTableRecord
100
AcDbLayerTableRecord
2
Defpoints
70
0
62
7
6
Continuous
290
0
370
-3
390
0
0
LAYER
5
219
100
AcDbSymbolTableRecord
100
AcDbLayerTableRecord
2
SK1
70
0
62
4
6
Continuous
290
1
370
-3
390
0
0
LAYER
5
21a
100
AcDbSymbolTableRecord
100
AcDbLayerTableRecord
2
SK4
70
0
62
2
6
CENTER
290
1
370
-3
390
0
0
LAYER
5
21b
100
AcDbSymbolTableRecord
100
AcDbLayerTableRecord
2
SK2
70
0
62
7
6
Continuous
290
1
370
-3
390
0
0
LAYER
5
21c
100
AcDbSymbolTableRecord
100
AcDbLayerTableRecord
2
SK6
70
0
62
5
6
Continuous
290
1
370
-3
390
0
0
ENDTAB
0
TABLE
2
STYLE
5
230
100
AcDbSymbolTable
0
STYLE
5
11
100
AcDbSymbolTableRecord
100
AcDbTextStyleTableRecord
2
Standard
3
txt
70
0
71
0
40
0
41
1
42
0
50
0
0
STYLE
5
127
100
AcDbSymbolTableRecord
100
AcDbTextStyleTableRecord
2
iso_b_vert
3
simplex.shx
70
0
71
0
40
0
41
1
42
0
50
0
0
STYLE
5
128
100
AcDbSymbolTableRecord
100
AcDbTextStyleTableRecord
2
DWGDirectTextStyle
3
simplex
70
0
71
0
40
0
41
1
42
0
50
0
0
ENDTAB
0
TABLE
2
DIMSTYLE
5
231
100
AcDbSymbolTable
100
AcDbDimStyleTable
0
DIMSTYLE
105
27
100
AcDbSymbolTableRecord
100
AcDbDimStyleTableRecord
2
Standard
70
0
3
<>
41
0.18
42
0.0625
44
0.18
140
0.18
147
0.09
73
0
74
0
77
1
271
2
275
0
278
52
280
0
340
11
0
ENDTAB
0
TABLE
2
VIEW
5
232
100
AcDbSymbolTable
0
ENDTAB
0
TABLE
2
UCS
5
233
100
AcDbSymbolTable
0
ENDTAB
0
TABLE
2
APPID
5
234
100
AcDbSymbolTable
0
APPID
5
12
100
AcDbSymbolTableRecord
100
AcDbRegAppTableRecord
2
ACAD
70
0
0
APPID
5
13E
100
AcDbSymbolTableRecord
100
AcDbRegAppTableRecord
2
ACAD_DSTYLE_DIMBREAK
70
0
0
APPID
5
1D8
100
AcDbSymbolTableRecord
100
AcDbRegAppTableRecord
2
ACAD_DSTYLE_DIM_LINETYPE
70
0
0
APPID
5
1D9
100
AcDbSymbolTableRecord
100
AcDbRegAppTableRecord
2
ACAD_DSTYLE_DIM_EXT1_LINETYPE
70
0
0
APPID
5
1DA
100
AcDbSymbolTableRecord
100
AcDbRegAppTableRecord
2
ACAD_DSTYLE_DIM_EXT2_LINETYPE
70
0
0
APPID
5
215
100
AcDbSymbolTableRecord
100
AcDbRegAppTableRecord
2
ACAD_MLEADERVER
70
0
0
ENDTAB
0
TABLE
2
BLOCK_RECORD
5
235
100
AcDbSymbolTable
0
BLOCK_RECORD
5
1F
100
AcDbSymbolTableRecord
100
AcDbBlockTableRecord
2
*Model_Space
340
0
70
0
0
BLOCK_RECORD
5
1B
100
AcDbSymbolTableRecord
100
AcDbBlockTableRecord
2
*Paper_Space
340
0
70
0
0
BLOCK_RECORD
5
23
100
AcDbSymbolTableRecord
100
AcDbBlockTableRecord
2
*Paper_Space0
340
0
70
0
0
BLOCK_RECORD
5
143
100
AcDbSymbolTableRecord
100
AcDbBlockTableRecord
2
*D1
340
0
70
0
0
BLOCK_RECORD
5
14F
100
AcDbSymbolTableRecord
100
AcDbBlockTableRecord
2
_U0
340
0
70
0
0
BLOCK_RECORD
5
15B
100
AcDbSymbolTableRecord
100
AcDbBlockTableRecord
2
*D3
340
0
70
0
0
BLOCK_RECORD
5
167
100
AcDbSymbolTableRecord
100
AcDbBlockTableRecord
2
_U1
340
0
70
0
0
BLOCK_RECORD
5
173
100
AcDbSymbolTableRecord
100
AcDbBlockTableRecord
2
*D5
340
0
70
0
0
BLOCK_RECORD
5
17F
100
AcDbSymbolTableRecord
100
AcDbBlockTableRecord
2
_U2
340
0
70
0
0
BLOCK_RECORD
5
18B
100
AcDbSymbolTableRecord
100
AcDbBlockTableRecord
2
*D7
340
0
70
0
0
BLOCK_RECORD
5
199
100
AcDbSymbolTableRecord
100
AcDbBlockTableRecord
2
_U3
340
0
70
0
0
BLOCK_RECORD
5
1A5
100
AcDbSymbolTableRecord
100
AcDbBlockTableRecord
2
*D9
340
0
70
0
0
BLOCK_RECORD
5
1B1
100
AcDbSymbolTableRecord
100
AcDbBlockTableRecord
2
_U4
340
0
70
0
0
ENDTAB
0
ENDSEC
0
SECTION
2
BLOCKS
0
BLOCK
5
20
100
AcDbEntity
8
0
100
AcDbBlockBegin
2
*Model_Space
70
0
10
0
20
0
30
0
3
*Model_Space
0
ENDBLK
5
21
100
AcDbEntity
8
0
100
AcDbBlockEnd
0
BLOCK
5
1C
100
AcDbEntity
8
0
100
AcDbBlockBegin
2
*Paper_Space
70
0
10
0
20
0
30
0
3
*Paper_Space
0
ENDBLK
5
1D
100
AcDbEntity
8
0
100
AcDbBlockEnd
0
BLOCK
5
24
100
AcDbEntity
8
0
100
AcDbBlockBegin
2
*Paper_Space0
70
0
10
0
20
0
30
0
3
*Paper_Space0
0
ENDBLK
5
25
100
AcDbEntity
8
0
100
AcDbBlockEnd
0
BLOCK
5
144
100
AcDbEntity
8
0
100
AcDbBlockBegin
2
*D1
70
1
10
0
20
0
30
0
3
*D1
0
LINE
5
146
100
AcDbEntity
8
0
62
256
6
ByLayer
370
-2
48
1
60
0
100
AcDbLine
10
0
20
-1.5875
30
0
11
0
21
-20.963398
31
0
39
0
210
0
220
0
230
1
0
LINE
5
147
100
AcDbEntity
8
0
62
256
6
ByLayer
370
-2
48
1
60
0
100
AcDbLine
10
267.1334
20
-10.3375
30
0
11
267.1334
21
-20.963398
31
0
39
0
210
0
220
0
230
1
0
LINE
5
148
100
AcDbEntity
8
0
62
256
6
ByLayer
370
-2
48
1
60
0
100
AcDbLine
10
3.5
20
-18.963398
30
0
11
263.6334
21
-18.963398
31
0
39
0
210
0
220
0
230
1
0
SOLID
5
149
100
AcDbEntity
8
0
62
256
6
ByLayer
370
-1
48
1
60
0
100
AcDbTrace
10
3.5
20
-18.380065
30
0
11
3.5
21
-19.546732
31
0
12
0
22
-18.963398
32
0
13
0
23
-18.963398
33
0
39
0
210
0
220
0
230
1
0
SOLID
5
14A
100
AcDbEntity
8
0
62
256
6
ByLayer
370
-1
48
1
60
0
100
AcDbTrace
10
263.6334
20
-19.546732
30
0
11
263.6334
21
-18.380065
31
0
12
267.1334
22
-18.963398
32
0
13
267.1334
23
-18.963398
33
0
39
0
210
0
220
0
230
1
0
MTEXT
5
14B
100
AcDbEntity
8
0
62
256
6
ByLayer
370
18
48
1
60
0
100
AcDbMText
10
133.5667
20
-11.963398
30
0
210
0
220
0
230
1
1
\A1;267.13
40
3.5
41
0
44
1
50
0
71
5
72
5
7
iso_b_vert
0
POINT
5
14C
100
AcDbEntity
8
Defpoints
62
0
6
ByLayer
370
-1
48
1
60
0
100
AcDbPoint
10
0
20
0
30
0
39
0
210
0
220
0
230
1
50
360
0
POINT
5
14D
100
AcDbEntity
8
Defpoints
62
0
6
ByLayer
370
-1
48
1
60
0
100
AcDbPoint
10
267.1334
20
-8.75
30
0
39
0
210
0
220
0
230
1
50
360
0
POINT
5
14E
100
AcDbEntity
8
Defpoints
62
0
6
ByLayer
370
-1
48
1
60
0
100
AcDbPoint
10
267.1334
20
-18.963398
30
0
39
0
210
0
220
0
230
1
50
360
0
ENDBLK
5
145
100
AcDbEntity
8
0
100
AcDbBlockEnd
0
BLOCK
5
156
100
AcDbEntity
8
0
100
AcDbBlockBegin
2
_U0
70
0
10
0
20
0
30
0
3
_U0
0
MTEXT
5
150
100
AcDbEntity
8
SK2
62
256
6
ByLayer
370
13
48
1
60
0
100
AcDbMText
10
127.559101
20
-17.930765
30
0
210
0
220
0
230
1
1
\W0.6930;267,13
40
3.5
41
0
44
1.084337
50
0
71
7
72
5
7
iso_b_vert
0
LINE
5
151
100
AcDbEntity
8
SK2
62
256
6
ByLayer
370
13
48
1
60
0
100
AcDbLine
10
0
20
-1.5875
30
0
11
0
21
-20.963398
31
0
39
0
210
0
220
0
230
1
0
LINE
5
152
100
AcDbEntity
8
SK2
62
256
6
ByLayer
370
13
48
1
60
0
100
AcDbLine
10
267.1334
20
-10.3375
30
0
11
267.1334
21
-20.963398
31
0
39
0
210
0
220
0
230
1
0
LINE
5
153
100
AcDbEntity
8
SK2
62
256
6
ByLayer
370
13
48
1
60
0
100
AcDbLine
10
0
20
-18.963398
30
0
11
267.1334
21
-18.963398
31
0
39
0
210
0
220
0
230
1
0
SOLID
5
154
100
AcDbEntity
8
SK2
62
256
6
ByLayer
370
18
48
1
60
0
100
AcDbTrace
10
0
20
-18.963398
30
0
11
3.499998
21
-18.502615
31
0
12
3.500002
22
-19.424182
32
0
13
3.500002
23
-19.424182
33
0
39
0
210
0
220
0
230
1
0
SOLID
5
155
100
AcDbEntity
8
SK2
62
256
6
ByLayer
370
18
48
1
60
0
100
AcDbTrace
10
267.1334
20
-18.963398
30
0
11
263.633402
21
-19.424182
31
0
12
263.633398
22
-18.502615
32
0
13
263.633398
23
-18.502615
33
0
39
0
210
0
220
0
230
1
0
ENDBLK
5
157
100
AcDbEntity
8
0
100
AcDbBlockEnd
0
BLOCK
5
15C
100
AcDbEntity
8
0
100
AcDbBlockBegin
2
*D3
70
1
10
0
20
0
30
0
3
*D3
0
LINE
5
15E
100
AcDbEntity
8
0
62
256
6
ByLayer
370
-2
48
1
60
0
100
AcDbLine
10
-48
20
-10.5875
30
0
11
-48
21
-39.692985
31
0
39
0
210
0
220
0
230
1
0
LINE
5
15F
100
AcDbEntity
8
0
62
256
6
ByLayer
370
-2
48
1
60
0
100
AcDbLine
10
270
20
-1.5875
30
0
11
270
21
-39.692985
31
0
39
0
210
0
220
0
230
1
0
LINE
5
160
100
AcDbEntity
8
0
62
256
6
ByLayer
370
-2
48
1
60
0
100
AcDbLine
10
-44.5
20
-37.692985
30
0
11
266.5
21
-37.692985
31
0
39
0
210
0
220
0
230
1
0
SOLID
5
161
100
AcDbEntity
8
0
62
256
6
ByLayer
370
-1
48
1
60
0
100
AcDbTrace
10
-44.5
20
-37.109652
30
0
11
-44.5
21
-38.276319
31
0
12
-48
22
-37.692985
32
0
13
-48
23
-37.692985
33
0
39
0
210
0
220
0
230
1
0
SOLID
5
162
100
AcDbEntity
8
0
62
256
6
ByLayer
370
-1
48
1
60
0
100
AcDbTrace
10
266.5
20
-38.276319
30
0
11
266.5
21
-37.109652
31
0
12
270
22
-37.692985
32
0
13
270
23
-37.692985
33
0
39
0
210
0
220
0
230
1
0
MTEXT
5
163
100
AcDbEntity
8
0
62
256
6
ByLayer
370
18
48
1
60
0
100
AcDbMText
10
111
20
-30.692985
30
0
210
0
220
0
230
1
1
\A1;318.00
40
3.5
41
0
44
1
50
0
71
5
72
5
7
iso_b_vert
0
POINT
5
164
100
AcDbEntity
8
Defpoints
62
0
6
ByLayer
370
-1
48
1
60
0
100
AcDbPoint
10
-48
20
-9
30
0
39
0
210
0
220
0
230
1
50
360
0
POINT
5
165
100
AcDbEntity
8
Defpoints
62
0
6
ByLayer
370
-1
48
1
60
0
100
AcDbPoint
10
270
20
0
30
0
39
0
210
0
220
0
230
1
50
360
0
POINT
5
166
100
AcDbEntity
8
Defpoints
62
0
6
ByLayer
370
-1
48
1
60
0
100
AcDbPoint
10
270
20
-37.692985
30
0
39
0
210
0
220
0
230
1
50
360
0
ENDBLK
5
15D
100
AcDbEntity
8
0
100
AcDbBlockEnd
0
BLOCK
5
16E
100
AcDbEntity
8
0
100
AcDbBlockBegin
2
_U1
70
0
10
0
20
0
30
0
3
_U1
0
MTEXT
5
168
100
AcDbEntity
8
SK2
62
256
6
ByLayer
370
13
48
1
60
0
100
AcDbMText
10
104.992401
20
-36.660352
30
0
210
0
220
0
230
1
1
\W0.6930;318,00
40
3.5
41
0
44
1.084337
50
0
71
7
72
5
7
iso_b_vert
0
LINE
5
169
100
AcDbEntity
8
SK2
62
256
6
ByLayer
370
13
48
1
60
0
100
AcDbLine
10
-48
20
-10.5875
30
0
11
-48
21
-39.692985
31
0
39
0
210
0
220
0
230
1
0
LINE
5
16A
100
AcDbEntity
8
SK2
62
256
6
ByLayer
370
13
48
1
60
0
100
AcDbLine
10
270
20
-1.5875
30
0
11
270
21
-39.692985
31
0
39
0
210
0
220
0
230
1
0
LINE
5
16B
100
AcDbEntity
8
SK2
62
256
6
ByLayer
370
13
48
1
60
0
100
AcDbLine
10
-48
20
-37.692985
30
0
11
270
21
-37.692985
31
0
39
0
210
0
220
0
230
1
0
SOLID
5
16C
100
AcDbEntity
8
SK2
62
256
6
ByLayer
370
18
48
1
60
0
100
AcDbTrace
10
-48
20
-37.692985
30
0
11
-44.500002
21
-37.232202
31
0
12
-44.499998
22
-38.153769
32
0
13
-44.499998
23
-38.153769
33
0
39
0
210
0
220
0
230
1
0
SOLID
5
16D
100
AcDbEntity
8
SK2
62
256
6
ByLayer
370
18
48
1
60
0
100
AcDbTrace
10
270
20
-37.692985
30
0
11
266.500002
21
-38.153769
31
0
12
266.499998
22
-37.232202
32
0
13
266.499998
23
-37.232202
33
0
39
0
210
0
220
0
230
1
0
ENDBLK
5
16F
100
AcDbEntity
8
0
100
AcDbBlockEnd
0
BLOCK
5
174
100
AcDbEntity
8
0
100
AcDbBlockBegin
2
*D5
70
1
10
0
20
0
30
0
3
*D5
0
LINE
5
176
100
AcDbEntity
8
0
62
256
6
ByLayer
370
-2
48
1
60
0
100
AcDbLine
10
57.14
20
10.3375
30
0
11
57.14
21
22.359119
31
0
39
0
210
0
220
0
230
1
0
LINE
5
177
100
AcDbEntity
8
0
62
256
6
ByLayer
370
-2
48
1
60
0
100
AcDbLine
10
270
20
1.5875
30
0
11
270
21
22.359119
31
0
39
0
210
0
220
0
230
1
0
LINE
5
178
100
AcDbEntity
8
0
62
256
6
ByLayer
370
-2
48
1
60
0
100
AcDbLine
10
60.64
20
20.359119
30
0
11
266.5
21
20.359119
31
0
39
0
210
0
220
0
230
1
0
SOLID
5
179
100
AcDbEntity
8
0
62
256
6
ByLayer
370
-1
48
1
60
0
100
AcDbTrace
10
60.64
20
20.942453
30
0
11
60.64
21
19.775786
31
0
12
57.14
22
20.359119
32
0
13
57.14
23
20.359119
33
0
39
0
210
0
220
0
230
1
0
SOLID
5
17A
100
AcDbEntity
8
0
62
256
6
ByLayer
370
-1
48
1
60
0
100
AcDbTrace
10
266.5
20
19.775786
30
0
11
266.5
21
20.942453
31
0
12
270
22
20.359119
32
0
13
270
23
20.359119
33
0
39
0
210
0
220
0
230
1
0
MTEXT
5
17B
100
AcDbEntity
8
0
62
256
6
ByLayer
370
18
48
1
60
0
100
AcDbMText
10
163.57
20
27.359119
30
0
210
0
220
0
230
1
1
\A1;212.86
40
3.5
41
0
44
1
50
0
71
5
72
5
7
iso_b_vert
0
POINT
5
17C
100
AcDbEntity
8
Defpoints
62
0
6
ByLayer
370
-1
48
1
60
0
100
AcDbPoint
10
57.14
20
8.75
30
0
39
0
210
0
220
0
230
1
50
360
0
POINT
5
17D
100
AcDbEntity
8
Defpoints
62
0
6
ByLayer
370
-1
48
1
60
0
100
AcDbPoint
10
270
20
0
30
0
39
0
210
0
220
0
230
1
50
360
0
POINT
5
17E
100
AcDbEntity
8
Defpoints
62
0
6
ByLayer
370
-1
48
1
60
0
100
AcDbPoint
10
270
20
20.359119
30
0
39
0
210
0
220
0
230
1
50
360
0
ENDBLK
5
175
100
AcDbEntity
8
0
100
AcDbBlockEnd
0
BLOCK
5
186
100
AcDbEntity
8
0
100
AcDbBlockBegin
2
_U2
70
0
10
0
20
0
30
0
3
_U2
0
MTEXT
5
180
100
AcDbEntity
8
SK2
62
256
6
ByLayer
370
13
48
1
60
0
100
AcDbMText
10
157.562401
20
21.391753
30
0
210
0
220
0
230
1
1
\W0.6930;212,86
40
3.5
41
0
44
1.084337
50
0
71
7
72
5
7
iso_b_vert
0
LINE
5
181
100
AcDbEntity
8
SK2
62
256
6
ByLayer
370
13
48
1
60
0
100
AcDbLine
10
57.14
20
10.3375
30
0
11
57.14
21
22.359119
31
0
39
0
210
0
220
0
230
1
0
LINE
5
182
100
AcDbEntity
8
SK2
62
256
6
ByLayer
370
13
48
1
60
0
100
AcDbLine
10
270
20
1.5875
30
0
11
270
21
22.359119
31
0
39
0
210
0
220
0
230
1
0
LINE
5
183
100
AcDbEntity
8
SK2
62
256
6
ByLayer
370
13
48
1
60
0
100
AcDbLine
10
57.14
20
20.359119
30
0
11
270
21
20.359119
31
0
39
0
210
0
220
0
230
1
0
SOLID
5
184
100
AcDbEntity
8
SK2
62
256
6
ByLayer
370
18
48
1
60
0
100
AcDbTrace
10
57.14
20
20.359119
30
0
11
60.639998
21
20.819903
31
0
12
60.640002
22
19.898335
32
0
13
60.640002
23
19.898335
33
0
39
0
210
0
220
0
230
1
0
SOLID
5
185
100
AcDbEntity
8
SK2
62
256
6
ByLayer
370
18
48
1
60
0
100
AcDbTrace
10
270
20
20.359119
30
0
11
266.500002
21
19.898335
31
0
12
266.499998
22
20.819903
32
0
13
266.499998
23
20.819903
33
0
39
0
210
0
220
0
230
1
0
ENDBLK
5
187
100
AcDbEntity
8
0
100
AcDbBlockEnd
0
BLOCK
5
18C
100
AcDbEntity
8
0
100
AcDbBlockBegin
2
*D7
70
1
10
0
20
0
30
0
3
*D7
0
LINE
5
18E
100
AcDbEntity
8
0
62
256
6
ByLayer
370
-2
48
1
60
0
100
AcDbLine
10
270
20
-1.5875
30
0
11
270
21
-23.552503
31
0
39
0
210
0
220
0
230
1
0
LINE
5
18F
100
AcDbEntity
8
0
62
256
6
ByLayer
370
-2
48
1
60
0
100
AcDbLine
10
267.1334
20
-10.3375
30
0
11
267.1334
21
-23.552503
31
0
39
0
210
0
220
0
230
1
0
LINE
5
190
100
AcDbEntity
8
0
62
256
6
ByLayer
370
-2
48
1
60
0
100
AcDbLine
10
270
20
-21.552503
30
0
11
298.166667
21
-21.552503
31
0
39
0
210
0
220
0
230
1
0
LINE
5
191
100
AcDbEntity
8
0
62
256
6
ByLayer
370
-2
48
1
60
0
100
AcDbLine
10
273.5
20
-21.552503
30
0
11
277
21
-21.552503
31
0
39
0
210
0
220
0
230
1
0
LINE
5
192
100
AcDbEntity
8
0
62
256
6
ByLayer
370
-2
48
1
60
0
100
AcDbLine
10
263.6334
20
-21.552503
30
0
11
260.1334
21
-21.552503
31
0
39
0
210
0
220
0
230
1
0
SOLID
5
193
100
AcDbEntity
8
0
62
256
6
ByLayer
370
-1
48
1
60
0
100
AcDbTrace
10
273.5
20
-20.96917
30
0
11
273.5
21
-22.135837
31
0
12
270
22
-21.552503
32
0
13
270
23
-21.552503
33
0
39
0
210
0
220
0
230
1
0
SOLID
5
194
100
AcDbEntity
8
0
62
256
6
ByLayer
370
-1
48
1
60
0
100
AcDbTrace
10
263.6334
20
-22.135837
30
0
11
263.6334
21
-20.96917
31
0
12
267.1334
22
-21.552503
32
0
13
267.1334
23
-21.552503
33
0
39
0
210
0
220
0
230
1
0
MTEXT
5
195
100
AcDbEntity
8
0
62
256
6
ByLayer
370
18
48
1
60
0
100
AcDbMText
10
287.583333
20
-14.552503
30
0
210
0
220
0
230
1
1
\A1;2.87
40
3.5
41
0
44
1
50
0
71
5
72
5
7
iso_b_vert
0
POINT
5
196
100
AcDbEntity
8
Defpoints
62
0
6
ByLayer
370
-1
48
1
60
0
100
AcDbPoint
10
270
20
0
30
0
39
0
210
0
220
0
230
1
50
360
0
POINT
5
197
100
AcDbEntity
8
Defpoints
62
0
6
ByLayer
370
-1
48
1
60
0
100
AcDbPoint
10
267.1334
20
-8.75
30
0
39
0
210
0
220
0
230
1
50
360
0
POINT
5
198
100
AcDbEntity
8
Defpoints
62
0
6
ByLayer
370
-1
48
1
60
0
100
AcDbPoint
10
267.1334
20
-21.552503
30
0
39
0
210
0
220
0
230
1
50
360
0
ENDBLK
5
18D
100
AcDbEntity
8
0
100
AcDbBlockEnd
0
BLOCK
5
1A0
100
AcDbEntity
8
0
100
AcDbBlockBegin
2
_U3
70
0
10
0
20
0
30
0
3
_U3
0
MTEXT
5
19A
100
AcDbEntity
8
SK2
62
256
6
ByLayer
370
13
48
1
60
0
100
AcDbMText
10
276.15186
20
-20.51987
30
0
210
0
220
0
230
1
1
\W0.7150;2,87
40
3.5
41
0
44
1.084337
50
0
71
7
72
5
7
iso_b_vert
0
LINE
5
19B
100
AcDbEntity
8
SK2
62
256
6
ByLayer
370
13
48
1
60
0
100
AcDbLine
10
270
20
-1.5875
30
0
11
270
21
-23.552503
31
0
39
0
210
0
220
0
230
1
0
LINE
5
19C
100
AcDbEntity
8
SK2
62
256
6
ByLayer
370
13
48
1
60
0
100
AcDbLine
10
267.1334
20
-10.3375
30
0
11
267.1334
21
-23.552503
31
0
39
0
210
0
220
0
230
1
0
LINE
5
19D
100
AcDbEntity
8
SK2
62
256
6
ByLayer
370
13
48
1
60
0
100
AcDbLine
10
258.3834
20
-21.552503
30
0
11
283.996491
21
-21.552503
31
0
39
0
210
0
220
0
230
1
0
SOLID
5
19E
100
AcDbEntity
8
SK2
62
256
6
ByLayer
370
18
48
1
60
0
100
AcDbTrace
10
270
20
-21.552503
30
0
11
273.499998
21
-21.091719
31
0
12
273.500002
22
-22.013287
32
0
13
273.500002
23
-22.013287
33
0
39
0
210
0
220
0
230
1
0
SOLID
5
19F
100
AcDbEntity
8
SK2
62
256
6
ByLayer
370
18
48
1
60
0
100
AcDbTrace
10
267.1334
20
-21.552503
30
0
11
263.633402
21
-22.013287
31
0
12
263.633398
22
-21.091719
32
0
13
263.633398
23
-21.091719
33
0
39
0
210
0
220
0
230
1
0
ENDBLK
5
1A1
100
AcDbEntity
8
0
100
AcDbBlockEnd
0
BLOCK
5
1A6
100
AcDbEntity
8
0
100
AcDbBlockBegin
2
*D9
70
1
10
0
20
0
30
0
3
*D9
0
LINE
5
1A8
100
AcDbEntity
8
0
62
256
6
ByLayer
370
-2
48
1
60
0
100
AcDbLine
10
-48
20
-10.5875
30
0
11
-48
21
-29.343428
31
0
39
0
210
0
220
0
230
1
0
LINE
5
1A9
100
AcDbEntity
8
0
62
256
6
ByLayer
370
-2
48
1
60
0
100
AcDbLine
10
267.1334
20
-10.3375
30
0
11
267.1334
21
-29.343428
31
0
39
0
210
0
220
0
230
1
0
LINE
5
1AA
100
AcDbEntity
8
0
62
256
6
ByLayer
370
-2
48
1
60
0
100
AcDbLine
10
-44.5
20
-27.343428
30
0
11
263.6334
21
-27.343428
31
0
39
0
210
0
220
0
230
1
0
SOLID
5
1AB
100
AcDbEntity
8
0
62
256
6
ByLayer
370
-1
48
1
60
0
100
AcDbTrace
10
-44.5
20
-26.760095
30
0
11
-44.5
21
-27.926762
31
0
12
-48
22
-27.343428
32
0
13
-48
23
-27.343428
33
0
39
0
210
0
220
0
230
1
0
SOLID
5
1AC
100
AcDbEntity
8
0
62
256
6
ByLayer
370
-1
48
1
60
0
100
AcDbTrace
10
263.6334
20
-27.926762
30
0
11
263.6334
21
-26.760095
31
0
12
267.1334
22
-27.343428
32
0
13
267.1334
23
-27.343428
33
0
39
0
210
0
220
0
230
1
0
MTEXT
5
1AD
100
AcDbEntity
8
0
62
256
6
ByLayer
370
18
48
1
60
0
100
AcDbMText
10
109.5667
20
-20.343428
30
0
210
0
220
0
230
1
1
\A1;315.13
40
3.5
41
0
44
1
50
0
71
5
72
5
7
iso_b_vert
0
POINT
5
1AE
100
AcDbEntity
8
Defpoints
62
0
6
ByLayer
370
-1
48
1
60
0
100
AcDbPoint
10
-48
20
-9
30
0
39
0
210
0
220
0
230
1
50
360
0
POINT
5
1AF
100
AcDbEntity
8
Defpoints
62
0
6
ByLayer
370
-1
48
1
60
0
100
AcDbPoint
10
267.1334
20
-8.75
30
0
39
0
210
0
220
0
230
1
50
360
0
POINT
5
1B0
100
AcDbEntity
8
Defpoints
62
0
6
ByLayer
370
-1
48
1
60
0
100
AcDbPoint
10
267.1334
20
-27.343428
30
0
39
0
210
0
220
0
230
1
50
360
0
ENDBLK
5
1A7
100
AcDbEntity
8
0
100
AcDbBlockEnd
0
BLOCK
5
1B8
100
AcDbEntity
8
0
100
AcDbBlockBegin
2
_U4
70
0
10
0
20
0
30
0
3
_U4
0
MTEXT
5
1B2
100
AcDbEntity
8
SK2
62
256
6
ByLayer
370
13
48
1
60
0
100
AcDbMText
10
103.996535
20
-26.310795
30
0
210
0
220
0
230
1
1
\W0.6440;315,13
40
3.5
41
0
44
1.084337
50
0
71
7
72
5
7
iso_b_vert
0
LINE
5
1B3
100
AcDbEntity
8
SK2
62
256
6
ByLayer
370
13
48
1
60
0
100
AcDbLine
10
-48
20
-10.5875
30
0
11
-48
21
-29.343428
31
0
39
0
210
0
220
0
230
1
0
LINE
5
1B4
100
AcDbEntity
8
SK2
62
256
6
ByLayer
370
13
48
1
60
0
100
AcDbLine
10
267.1334
20
-10.3375
30
0
11
267.1334
21
-29.343428
31
0
39
0
210
0
220
0
230
1
0
LINE
5
1B5
100
AcDbEntity
8
SK2
62
256
6
ByLayer
370
13
48
1
60
0
100
AcDbLine
10
-48
20
-27.343428
30
0
11
267.1334
21
-27.343428
31
0
39
0
210
0
220
0
230
1
0
SOLID
5
1B6
100
AcDbEntity
8
SK2
62
256
6
ByLayer
370
18
48
1
60
0
100
AcDbTrace
10
-48
20
-27.343428
30
0
11
-44.500002
21
-26.882645
31
0
12
-44.499998
22
-27.804212
32
0
13
-44.499998
23
-27.804212
33
0
39
0
210
0
220
0
230
1
0
SOLID
5
1B7
100
AcDbEntity
8
SK2
62
256
6
ByLayer
370
18
48
1
60
0
100
AcDbTrace
10
267.1334
20
-27.343428
30
0
11
263.633402
21
-27.804212
31
0
12
263.633398
22
-26.882645
32
0
13
263.633398
23
-26.882645
33
0
39
0
210
0
220
0
230
1
0
ENDBLK
5
1B9
100
AcDbEntity
8
0
100
AcDbBlockEnd
0
ENDSEC
0
SECTION
2
ENTITIES
0
ARC
5
BF
100
AcDbEntity
8
1
62
256
6
ByLayer
370
18
48
1
60
0
100
AcDbCircle
39
0
10
0
20
-8.2
30
0
40
0.800000000000004
210
0
220
0
230
1
100
AcDbArc
50
270
51
312.193813
0
ARC
5
C0
100
AcDbEntity
8
1
62
256
6
ByLayer
370
18
48
1
60
0
100
AcDbCircle
39
0
10
1.074625
20
9.385403
30
0
40
0.799999999999998
210
0
220
0
230
1
100
AcDbArc
50
227.806187
51
270
0
ARC
5
C1
100
AcDbEntity
8
1
62
256
6
ByLayer
370
18
48
1
60
0
100
AcDbCircle
39
0
10
1.074625
20
-9.385403
30
0
40
0.799999999999998
210
0
220
0
230
1
100
AcDbArc
50
90
51
132.193813
0
ARC
5
C2
100
AcDbEntity
8
1
62
256
6
ByLayer
370
18
48
1
60
0
100
AcDbCircle
39
0
10
0
20
8.2
30
0
40
0.800000000000004
210
0
220
0
230
1
100
AcDbArc
50
47.806187
51
90
0
ELLIPSE
5
C3
100
AcDbEntity
8
1
62
256
6
ByLayer
370
13
48
1
60
0
100
AcDbEllipse
10
6.250158
20
-5.085963
30
0
11
0.0382112588623241
21
0.0924115777170613
31
0
210
0
220
0
230
1
40
0.287889
41
0.960331871728361
42
2.52201207251443
0
ELLIPSE
5
C4
100
AcDbEntity
8
1
62
256
6
ByLayer
370
18
48
1
60
0
100
AcDbEllipse
10
270.010952
20
-0.059454
30
0
11
0.0589437085254974
21
0.184293960590743
31
0
210
0
220
0
230
1
40
0.095759
41
1.45884861767212
42
2.42741609950003
0
ELLIPSE
5
C5
100
AcDbEntity
8
1
62
256
6
ByLayer
370
18
48
1
60
0
100
AcDbEllipse
10
269.991851
20
0.071546
30
0
11
0.0413443265139142
21
0.121655763877612
31
0
210
0
220
0
230
1
40
0.161566
41
-2.17604772045723
42
-1.83561826145821
0
ELLIPSE
5
C6
100
AcDbEntity
8
1
62
256
6
ByLayer
370
18
48
1
60
0
100
AcDbEllipse
10
270.000847
20
0.001991
30
0
11
3.24549065554769
21
8.74120098293973
31
0
210
0
220
0
230
1
40
0.131755
41
-2.97181804823812
42
-2.78828620067712
0
ELLIPSE
5
C7
100
AcDbEntity
8
1
62
256
6
ByLayer
370
13
48
1
60
0
100
AcDbEllipse
10
6.180044
20
-5.067783
30
0
11
-0.00854395072689758
21
-0.0996343359790005
31
0
210
0
220
0
230
1
40
0.591688
41
-2.09831571351596
42
-0.755421990939127
0
ELLIPSE
5
C8
100
AcDbEntity
8
1
62
256
6
ByLayer
370
18
48
1
60
0
100
AcDbEllipse
10
270.010952
20
0.059454
30
0
11
0.0589437085125605
21
-0.184293960557354
31
0
210
0
220
0
230
1
40
0.095759
41
-2.42741609953988
42
-1.4588486175331
0
ELLIPSE
5
C9
100
AcDbEntity
8
1
62
256
6
ByLayer
370
18
48
1
60
0
100
AcDbEllipse
10
270.000847
20
-0.001991
30
0
11
3.24549065924645
21
-8.74120099405405
31
0
210
0
220
0
230
1
40
0.131755
41
2.78828620090515
42
2.971818048347
0
POINT
5
70
100
AcDbEntity
8
80
62
256
6
ByLayer
370
18
48
1
60
0
100
AcDbPoint
10
0
20
0
30
0
39
0
210
0
220
0
230
1
50
360
0
POINT
5
72
100
AcDbEntity
8
81
62
256
6
ByLayer
370
18
48
1
60
0
100
AcDbPoint
10
270
20
0
30
0
39
0
210
0
220
0
230
1
50
360
0
POINT
5
74
100
AcDbEntity
8
1
62
256
6
ByLayer
370
18
48
1
60
1
100
AcDbPoint
10
267.1334
20
-8.75
30
0
39
0
210
0
220
0
230
1
50
360
0
POINT
5
76
100
AcDbEntity
8
1
62
256
6
ByLayer
370
18
48
1
60
1
100
AcDbPoint
10
-48
20
-9
30
0
39
0
210
0
220
0
230
1
50
360
0
POINT
5
77
100
AcDbEntity
8
1
62
256
6
ByLayer
370
18
48
1
60
1
100
AcDbPoint
10
57.14
20
8.75
30
0
39
0
210
0
220
0
230
1
50
360
0
POINT
5
78
100
AcDbEntity
8
1
62
256
6
ByLayer
370
18
48
1
60
1
100
AcDbPoint
10
267.1334
20
-8.75
30
0
39
0
210
0
220
0
230
1
50
360
0
POINT
5
79
100
AcDbEntity
8
1
62
256
6
ByLayer
370
18
48
1
60
1
100
AcDbPoint
10
-48
20
-9
30
0
39
0
210
0
220
0
230
1
50
360
0
POINT
5
7A
100
AcDbEntity
8
1
62
256
6
ByLayer
370
18
48
1
60
1
100
AcDbPoint
10
267.1334
20
-8.75
30
0
39
0
210
0
220
0
230
1
50
360
0
SPLINE
5
CA
100
AcDbEntity
8
SK1
62
256
6
ByLayer
370
18
48
1
60
0
100
AcDbSpline
70
4
71
3
72
10
73
6
40
0
40
0
40
0
40
0
40
0.5
40
0.5
40
1
40
1
40
1
40
1
41
1
10
-45.6
20
2.2698111193983
30
0
41
1
10
-45.952979085048
20
2.23129087430638
30
0
41
1
10
-46.3048490132588
20
2.1927305350016
30
0
41
1
10
-47.0038126616616
20
2.1154488904875
30
0
41
1
10
-47.3511268002113
20
2.07673511616875
30
0
41
1
10
-47.6925047923768
20
2.03782156467435
30
0
0
SPLINE
5
CB
100
AcDbEntity
8
SK1
62
256
6
ByLayer
370
18
48
1
60
0
100
AcDbSpline
70
4
71
3
72
14
73
10
40
0
40
0
40
0
40
0
40
0.334337629684792
40
0.334337629684792
40
0.668675259369583
40
0.668675259369583
40
0.835844074211979
40
0.835844074211979
40
1
40
1
40
1
40
1
41
1
10
-48.0000000000159
20
1.9894349206059
30
0
41
1
10
-47.930542894915
20
1.99211293209549
30
0
41
1
10
-47.8639121980668
20
1.99502187896107
30
0
41
1
10
-47.7409200454345
20
2.00167883444016
30
0
41
1
10
-47.684374132444
20
2.00541125529773
30
0
41
1
10
-47.6222141125275
20
2.01200362118078
30
0
41
1
10
-47.6059420747138
20
2.01431365788514
30
0
41
1
10
-47.5863519151298
20
2.01921254778759
30
0
41
1
10
-47.58340687351
20
2.021700376197
30
0
41
1
10
-47.5880814209912
20
2.02418927991002
30
0
0
SPLINE
5
CC
100
AcDbEntity
8
SK1
62
256
6
ByLayer
370
18
48
1
60
0
100
AcDbSpline
70
4
71
3
72
10
73
6
40
0
40
0
40
0
40
0
40
0.421992230994277
40
0.421992230994277
40
1
40
1
40
1
40
1
41
1
10
-47.5940621773405
20
2.02635324491698
30
0
41
1
10
-47.6006496571437
20
2.0281571615545
30
0
41
1
10
-47.6110205712084
20
2.02989579194454
30
0
41
1
10
-47.642719047346
20
2.03383122112982
30
0
41
1
10
-47.6659695827005
20
2.03589626054557
30
0
41
1
10
-47.6925047923766
20
2.03782156467423
30
0
0
SPLINE
5
CD
100
AcDbEntity
8
SK1
62
256
6
ByLayer
370
18
48
1
60
0
100
AcDbSpline
70
4
71
3
72
10
73
6
40
0
40
0
40
0
40
0
40
0.5
40
0.5
40
1
40
1
40
1
40
1
41
1
10
-48
20
-1.49085043921963
30
0
41
1
10
-47.6124700595522
20
-1.44589405136196
30
0
41
1
10
-47.2140554105197
20
-1.40128689330191
30
0
41
1
10
-46.4113054722542
20
-1.31226253761693
30
0
41
1
10
-46.0063560042656
20
-1.26786463276591
30
0
41
1
10
-45.6
20
-1.22351941929028
30
0
0
SPLINE
5
CE
100
AcDbEntity
8
SK1
62
256
6
ByLayer
370
18
48
1
60
0
100
AcDbSpline
70
4
71
3
72
14
73
10
40
0
40
0
40
0
40
0
40
0.125
40
0.125
40
0.25
40
0.25
40
0.500000000000001
40
0.500000000000001
40
1
40
1
40
1
40
1
41
1
10
-45.5
20
2.18212064344911
30
0
41
1
10
-45.5
20
2.19258194565899
30
0
41
1
10
-45.5017107697461
20
2.20211849564308
30
0
41
1
10
-45.5068845888984
20
2.21839184014857
30
0
41
1
10
-45.5102281895671
20
2.22506147884073
30
0
41
1
10
-45.521528237522
20
2.24261125544444
30
0
41
1
10
-45.5303630420009
20
2.25052606074382
30
0
41
1
10
-45.558525242781
20
2.26841045008695
30
0
41
1
10
-45.5788396428357
20
2.27212032744697
30
0
41
1
10
-45.6
20
2.2698111193983
30
0
0
SPLINE
5
CF
100
AcDbEntity
8
SK1
62
256
6
ByLayer
370
18
48
1
60
0
100
AcDbSpline
70
4
71
3
72
14
73
10
40
0
40
0
40
0
40
0
40
0.500000000000007
40
0.500000000000007
40
0.75000000000001
40
0.75000000000001
40
0.875000000000005
40
0.875000000000005
40
1
40
1
40
1
40
1
41
1
10
-45.6
20
1.22351941929034
30
0
41
1
10
-45.5789465118595
20
1.2212218737485
30
0
41
1
10
-45.5585985142981
20
1.21296201484387
30
0
41
1
10
-45.5303873672755
20
1.18838871279405
30
0
41
1
10
-45.5214287539013
20
1.17811342916431
30
0
41
1
10
-45.5102864584886
20
1.15792971516601
30
0
41
1
10
-45.50688945626
20
1.15026005848355
30
0
41
1
10
-45.5017228477084
20
1.13249468872075
30
0
41
1
10
-45.5
20
1.12236577269562
30
0
41
1
10
-45.5
20
1.11159100731447
30
0
0
SPLINE
5
D0
100
AcDbEntity
8
SK1
62
256
6
ByLayer
370
18
48
1
60
0
100
AcDbSpline
70
4
71
3
72
10
73
6
40
0
40
0
40
0
40
0
40
0.5
40
0.5
40
1
40
1
40
1
40
1
41
1
10
-48
20
1.49085043921966
30
0
41
1
10
-47.6124700595522
20
1.44589405136199
30
0
41
1
10
-47.2140554105197
20
1.40128689330194
30
0
41
1
10
-46.4113054722542
20
1.31226253761699
30
0
41
1
10
-46.0063560042656
20
1.26786463276594
30
0
41
1
10
-45.6
20
1.22351941929031
30
0
0
SPLINE
5
D1
100
AcDbEntity
8
SK1
62
256
6
ByLayer
370
18
48
1
60
0
100
AcDbSpline
70
4
71
3
72
14
73
10
40
0
40
0
40
0
40
0
40
0.500000000000005
40
0.500000000000005
40
0.750000000000009
40
0.750000000000009
40
0.875000000000004
40
0.875000000000004
40
1
40
1
40
1
40
1
41
1
10
-45.6
20
-1.22351941929028
30
0
41
1
10
-45.5789465118595
20
-1.22122187374848
30
0
41
1
10
-45.5585985142981
20
-1.21296201484384
30
0
41
1
10
-45.5303873672755
20
-1.18838871279399
30
0
41
1
10
-45.5214287539013
20
-1.17811342916428
30
0
41
1
10
-45.5102864584886
20
-1.15792971516598
30
0
41
1
10
-45.50688945626
20
-1.15026005848352
30
0
41
1
10
-45.5017228477084
20
-1.13249468872073
30
0
41
1
10
-45.5
20
-1.12236577269556
30
0
41
1
10
-45.5
20
-1.11159100731442
30
0
0
SPLINE
5
D2
100
AcDbEntity
8
SK1
62
256
6
ByLayer
370
18
48
1
60
0
100
AcDbSpline
70
4
71
4
72
10
73
5
40
0
40
0
40
0
40
0
40
0
40
1
40
1
40
1
40
1
40
1
41
1.0143485628486
10
-48.0000000411549
20
2.07118661151205
30
0
41
1.01306517320539
10
-48.0000000123571
20
2.05492755219891
30
0
41
1.01141190345214
10
-47.9999999886228
20
2.03591679048142
30
0
41
1.00958492453086
10
-47.9999999706351
20
2.01407873903361
30
0
41
1.0077275305045
10
-47.9999999588448
20
1.98943491074223
30
0
0
SPLINE
5
D3
100
AcDbEntity
8
SK1
62
256
6
ByLayer
370
18
48
1
60
0
100
AcDbSpline
70
4
71
3
72
10
73
6
40
0
40
0
40
0
40
0
40
0.5
40
0.5
40
1
40
1
40
1
40
1
41
1
10
-47.6925047923768
20
2.03782156467435
30
0
41
1
10
-47.7388662244612
20
2.06770656862057
30
0
41
1
10
-47.7874915803456
20
2.08526325959258
30
0
41
1
10
-47.8899617348759
20
2.09668789946716
30
0
41
1
10
-47.9441954207782
20
2.09031268534855
30
0
41
1
10
-48.0000000000001
20
2.07118660044847
30
0
0
SPLINE
5
D4
100
AcDbEntity
8
1
62
256
6
ByLayer
370
18
48
1
60
0
100
AcDbSpline
70
2053
71
3
72
73
73
69
40
0
40
0
40
0
40
0
40
0.0312499999999983
40
0.0312499999999983
40
0.0624999999999967
40
0.0624999999999967
40
0.093749999999995
40
0.093749999999995
40
0.109374999999994
40
0.109374999999994
40
0.124999999999993
40
0.124999999999993
40
0.156249999999989
40
0.156249999999989
40
0.187499999999984
40
0.187499999999984
40
0.218749999999979
40
0.218749999999979
40
0.249999999999974
40
0.249999999999974
40
0.281249999999969
40
0.281249999999969
40
0.312499999999964
40
0.312499999999964
40
0.34374999999996
40
0.34374999999996
40
0.374999999999955
40
0.40624999999995
40
0.40624999999995
40
0.437499999999945
40
0.437499999999945
40
0.46874999999994
40
0.46874999999994
40
0.499999999999936
40
0.499999999999936
40
0.531249999999931
40
0.531249999999931
40
0.546874999999929
40
0.546874999999929
40
0.562499999999926
40
0.562499999999926
40
0.593749999999929
40
0.593749999999929
40
0.624999999999932
40
0.624999999999932
40
0.656249999999935
40
0.656249999999935
40
0.671874999999937
40
0.671874999999937
40
0.687499999999938
40
0.687499999999938
40
0.718749999999944
40
0.718749999999944
40
0.749999999999949
40
0.749999999999949
40
0.781249999999954
40
0.781249999999954
40
0.81249999999996
40
0.81249999999996
40
0.843749999999965
40
0.843749999999965
40
0.87499999999997
40
0.87499999999997
40
0.93749999999999
40
0.93749999999999
40
0.968749999999995
40
0.968749999999995
40
1
40
1
40
1
40
1
41
1
10
268.191923034405
20
-4.61135714086307
30
0
41
1
10
268.230997584819
20
-4.54601815766736
30
0
41
1
10
268.268486456358
20
-4.47733616318405
30
0
41
1
10
268.339924896367
20
-4.33251043005379
30
0
41
1
10
268.374246546605
20
-4.25531978383262
30
0
41
1
10
268.435332438421
20
-4.09974936949269
30
0
41
1
10
268.462441453033
20
-4.02089401452213
30
0
41
1
10
268.49711635764
20
-3.90074469381244
30
0
41
1
10
268.507579305822
20
-3.86059751944248
30
0
41
1
10
268.525649022327
20
-3.78256884332419
30
0
41
1
10
268.533360326239
20
-3.74433774681242
30
0
41
1
10
268.552494353639
20
-3.63201147425502
30
0
41
1
10
268.55982359745
20
-3.55969132233292
30
0
41
1
10
268.562951620502
20
-3.43037959682724
30
0
41
1
10
268.558880909039
20
-3.37155404290686
30
0
41
1
10
268.541042689947
20
-3.27034663664432
30
0
41
1
10
268.527299076353
20
-3.22731690952162
30
0
41
1
10
268.492010837824
20
-3.15629737479392
30
0
41
1
10
268.470830797005
20
-3.12879462021377
30
0
41
1
10
268.422529885657
20
-3.08724198287234
30
0
41
1
10
268.395112509489
20
-3.07320662952864
30
0
41
1
10
268.336445434301
20
-3.05819508669953
30
0
41
1
10
268.305170807609
20
-3.05703467548909
30
0
41
1
10
268.239123746054
20
-3.0661480797333
30
0
41
1
10
268.204144188799
20
-3.07652763908448
30
0
41
1
10
268.131647773267
20
-3.108249427586
30
0
41
1
10
268.057301681556
20
-3.15051511359752
30
0
41
1
10
267.979407051358
20
-3.21300889495498
30
0
41
1
10
267.899642641593
20
-3.2861611712039
30
0
41
1
10
267.859523229092
20
-3.32745415497919
30
0
41
1
10
267.779519125261
20
-3.4188861562377
30
0
41
1
10
267.739520474295
20
-3.46912041127879
30
0
41
1
10
267.659530731433
20
-3.57963135513174
30
0
41
1
10
267.619180930989
20
-3.6405523461757
30
0
41
1
10
267.541520315527
20
-3.76955466350591
30
0
41
1
10
267.503951013006
20
-3.83787832392525
30
0
41
1
10
267.449821101783
20
-3.94710558413979
30
0
41
1
10
267.432120652807
20
-3.98474659126742
30
0
41
1
10
267.398399302807
20
-4.0606555158266
30
0
41
1
10
267.382269957313
20
-4.09913039836823
30
0
41
1
10
267.336211275938
20
-4.21621263478627
30
0
41
1
10
267.308285825022
20
-4.29769008173457
30
0
41
1
10
267.262638003141
20
-4.45651717173689
30
0
41
1
10
267.244448436562
20
-4.53499742070662
30
0
41
1
10
267.218799123739
20
-4.68682425564785
30
0
41
1
10
267.211780553432
20
-4.75720075849705
30
0
41
1
10
267.209428028198
20
-4.85496919272833
30
0
41
1
10
267.210045363214
20
-4.88614265986539
30
0
41
1
10
267.213871258114
20
-4.94425898551432
30
0
41
1
10
267.21707053146
20
-4.97144274714776
30
0
41
1
10
267.230286336668
20
-5.04772199661275
30
0
41
1
10
267.24400584775
20
-5.09139635058003
30
0
41
1
10
267.278774054086
20
-5.16280898837942
30
0
41
1
10
267.300167495631
20
-5.19132470239802
30
0
41
1
10
267.348450378481
20
-5.23378564062725
30
0
41
1
10
267.375258411737
20
-5.24789714218755
30
0
41
1
10
267.433561052882
20
-5.26360845439953
30
0
41
1
10
267.465331861644
20
-5.26512249817478
30
0
41
1
10
267.531838155561
20
-5.25621963879999
30
0
41
1
10
267.566563460413
20
-5.24592291050772
30
0
41
1
10
267.638786865731
20
-5.21431988869912
30
0
41
1
10
267.676566893791
20
-5.19279171929026
30
0
41
1
10
267.79161283014
20
-5.11305892836808
30
0
41
1
10
267.870577804251
20
-5.04051449139337
30
0
41
1
10
267.99275484249
20
-4.89978812922286
30
0
41
1
10
268.033124380508
20
-4.8485765331076
30
0
41
1
10
268.113115242397
20
-4.73711360998678
30
0
41
1
10
268.152848483989
20
-4.67669612405879
30
0
41
1
10
268.191923034405
20
-4.61135714086307
30
0
0
SPLINE
5
D5
100
AcDbEntity
8
1
62
256
6
ByLayer
370
18
48
1
60
0
100
AcDbSpline
70
4
71
3
72
52
73
48
40
0
40
0
40
0
40
0
40
0.031249999999989
40
0.031249999999989
40
0.0468749999999834
40
0.0468749999999834
40
0.0624999999999778
40
0.0624999999999778
40
0.0937499999999663
40
0.0937499999999663
40
0.124999999999955
40
0.124999999999955
40
0.132812499999953
40
0.132812499999953
40
0.136718749999951
40
0.136718749999951
40
0.138671874999951
40
0.138671874999951
40
0.140624999999951
40
0.140624999999951
40
0.144531249999951
40
0.144531249999951
40
0.148437499999951
40
0.148437499999951
40
0.152343749999952
40
0.152343749999952
40
0.156249999999952
40
0.156249999999952
40
0.187499999999953
40
0.187499999999953
40
0.249999999999956
40
0.249999999999956
40
0.499999999999967
40
0.499999999999967
40
0.531249999999968
40
0.531249999999968
40
0.562499999999969
40
0.562499999999969
40
0.624999999999973
40
0.624999999999973
40
0.74999999999998
40
0.74999999999998
40
0.812499999999985
40
0.812499999999985
40
0.87499999999999
40
0.87499999999999
40
1
40
1
40
1
40
1
41
1
10
4.00000038865923
20
8.36928956685435
30
0
41
1
10
4.00000038865923
20
8.41015877829983
30
0
41
1
10
4.01353919594477
20
8.44499224263075
30
0
41
1
10
4.05384145106109
20
8.48855227298122
30
0
41
1
10
4.07061057375905
20
8.50162264799897
30
0
41
1
10
4.11080191148878
20
8.52491052605006
30
0
41
1
10
4.13434546337595
20
8.53515761697946
30
0
41
1
10
4.21373769945606
20
8.56133375820443
30
0
41
1
10
4.27833421709801
20
8.57284986843467
30
0
41
1
10
4.42793092553913
20
8.5857924350648
30
0
41
1
10
4.51308851310066
20
8.58720742536707
30
0
41
1
10
4.6305559314078
20
8.58351593778386
30
0
41
1
10
4.65456676823285
20
8.58250576264498
30
0
41
1
10
4.69133017893087
20
8.58060113906774
30
0
41
1
10
4.70378957757876
20
8.57990379819574
30
0
41
1
10
4.72237280617198
20
8.57875543172563
30
0
41
1
10
4.7285740475798
20
8.57835553572008
30
0
41
1
10
4.74259009990141
20
8.57757242287593
30
0
41
1
10
4.75060431739541
20
8.57718987179825
30
0
41
1
10
4.7768444004855
20
8.57618063251394
30
0
41
1
10
4.79675021334143
20
8.57562362143415
30
0
41
1
10
4.83894961337901
20
8.57470208574574
30
0
41
1
10
4.8607248941459
20
8.57434927958295
30
0
41
1
10
4.90522249850301
20
8.57381622092578
30
0
41
1
10
4.92808226292439
20
8.57363694672114
30
0
41
1
10
4.97395679316153
20
8.57344516331599
30
0
41
1
10
4.99694533009219
20
8.57344884330541
30
0
41
1
10
5.20375983665284
20
8.57332260830535
30
0
41
1
10
5.38759650753272
20
8.57320599429187
30
0
41
1
10
5.93914686029996
20
8.57296041002115
30
0
41
1
10
6.30686661819045
20
8.57288659446002
30
0
41
1
10
8.14556391268778
20
8.57302101926959
30
0
41
1
10
9.6160674130692
20
8.57487794550605
30
0
41
1
10
11.2671636594851
20
8.57849548695279
30
0
41
1
10
11.4506085937099
20
8.57890123601467
30
0
41
1
10
11.8171387977682
20
8.57993809902155
30
0
41
1
10
12.0002565500785
20
8.58054564756827
30
0
41
1
10
12.5491751011692
20
8.58256821097197
30
0
41
1
10
12.9145409360057
20
8.58419049198571
30
0
41
1
10
14.0089476258717
20
8.58907641181091
30
0
41
1
10
14.7362974215281
20
8.59246027087553
30
0
41
1
10
15.8241097786526
20
8.59257218020366
30
0
41
1
10
16.1864301695616
20
8.59175066738354
30
0
41
1
10
16.9064607810605
20
8.58728884787698
30
0
41
1
10
17.2646062428355
20
8.58365064610896
30
0
41
1
10
18.3336889637091
20
8.56671356296999
30
0
41
1
10
19.039239045554
20
8.54739495767657
30
0
41
1
10
19.7386315888644
20
8.51491218400807
30
0
0
SPLINE
5
D6
100
AcDbEntity
8
1
62
256
6
ByLayer
370
18
48
1
60
0
100
AcDbSpline
70
4
71
3
72
28
73
24
40
0
40
0
40
0
40
0
40
0.124999999999999
40
0.124999999999999
40
0.249999999999999
40
0.249999999999999
40
0.374999999999998
40
0.374999999999998
40
0.437499999999999
40
0.437499999999999
40
0.499999999999999
40
0.499999999999999
40
0.625
40
0.625
40
0.75
40
0.75
40
0.875000000000001
40
0.875000000000001
40
0.906250000000001
40
0.906250000000001
40
0.9375
40
0.9375
40
1
40
1
40
1
40
1
41
1
10
19.7386315888643
20
-1.36854610331812
30
0
41
1
10
19.1314963662423
20
-1.06934555586216
30
0
41
1
10
18.5293194898048
20
-0.761780627982091
30
0
41
1
10
17.3329801076443
20
-0.133714284806871
30
0
41
1
10
16.7388446969025
20
0.186736631568152
30
0
41
1
10
15.5567950887391
20
0.83720460474467
30
0
41
1
10
14.9689032175404
20
1.16721900993954
30
0
41
1
10
14.0908215233617
20
1.66737833040799
30
0
41
1
10
13.7987552296163
20
1.8349662559896
30
0
41
1
10
13.2157707906015
20
2.17167386943311
30
0
41
1
10
12.9249078417439
20
2.34076367415366
30
0
41
1
10
12.0599325077323
20
2.8465460111166
30
0
41
1
10
11.4917840201379
20
3.1825618120769
30
0
41
1
10
10.3731291163474
20
3.85160951819844
30
0
41
1
10
9.82245728966228
20
4.18471635053473
30
0
41
1
10
8.74378354347736
20
4.84711404466012
30
0
41
1
10
8.21553749579959
20
5.17641882401838
30
0
41
1
10
7.57616183759635
20
5.5862147418155
30
0
41
1
10
7.44936105051745
20
5.66808584619045
30
0
41
1
10
7.19822991400636
20
5.83168478631811
30
0
41
1
10
7.07370941203382
20
5.91354179189906
30
0
41
1
10
6.70792022764354
20
6.15666378107662
30
0
41
1
10
6.47334139543511
20
6.31612372225879
30
0
41
1
10
6.25096980389213
20
6.47257513612513
30
0
0
SPLINE
5
D7
100
AcDbEntity
8
1
62
256
6
ByLayer
370
13
48
1
60
0
100
AcDbSpline
70
4
71
3
72
14
73
10
40
0
40
0
40
0
40
0
40
0.25
40
0.25
40
0.5
40
0.5
40
0.75
40
0.75
40
1
40
1
40
1
40
1
41
1
10
6.00000023223055
20
-5.04555199726002
30
0
41
1
10
6.00000023223055
20
-5.05450492616416
30
0
41
1
10
6.00286641939763
20
-5.0637007941053
30
0
41
1
10
6.01430717839298
20
-5.08130591961481
30
0
41
1
10
6.02283069619841
20
-5.08977582017417
30
0
41
1
10
6.04523549796829
20
-5.10562334252151
30
0
41
1
10
6.05946342675722
20
-5.11318019549191
30
0
41
1
10
6.09275636704189
20
-5.12642734901078
30
0
41
1
10
6.11171029229342
20
-5.13216087844998
30
0
41
1
10
6.13340677369317
20
-5.13684938287403
30
0
0
SPLINE
5
D8
100
AcDbEntity
8
1
62
256
6
ByLayer
370
18
48
1
60
0
100
AcDbSpline
70
4
71
3
72
66
73
62
40
0
40
0
40
0
40
0
40
0.0199888062097666
40
0.0199888062097666
40
0.0399776124195332
40
0.0399776124195332
40
0.0799552248390638
40
0.0799552248390638
40
0.0999440310488292
40
0.0999440310488292
40
0.119932837258594
40
0.119932837258594
40
0.159910449678125
40
0.159910449678125
40
0.199888062097656
40
0.199888062097656
40
0.239865674517186
40
0.239865674517186
40
0.31982089935625
40
0.31982089935625
40
0.399776124195314
40
0.399776124195314
40
0.439753736614847
40
0.439753736614847
40
0.479731349034381
40
0.479731349034381
40
0.519708961453914
40
0.519708961453914
40
0.539697767663679
40
0.539697767663679
40
0.559686573873444
40
0.559686573873444
40
0.599664186292977
40
0.599664186292977
40
0.619652992502743
40
0.619652992502743
40
0.639641798712508
40
0.639641798712508
40
0.719597023551572
40
0.719597023551572
40
0.739585829761339
40
0.739585829761339
40
0.759574635971105
40
0.759574635971105
40
0.799552248390638
40
0.799552248390638
40
0.819541054600404
40
0.819541054600404
40
0.839529860810169
40
0.839529860810169
40
0.879507473229702
40
0.879507473229702
40
0.919485085649235
40
0.919485085649235
40
0.939473891859002
40
0.939473891859002
40
0.959462698068768
40
0.959462698068768
40
0.999440310488299
40
0.999440310488299
40
1
40
1
40
1
40
1
41
1
10
266.996608608721
20
-8.68578602995458
30
0
41
1
10
266.657244527829
20
-8.70858183345328
30
0
41
1
10
266.317491238134
20
-8.72519479651146
30
0
41
1
10
265.638746596706
20
-8.74596187352341
30
0
41
1
10
265.299723654825
20
-8.75012769369778
30
0
41
1
10
264.283252034521
20
-8.74406761737762
30
0
41
1
10
263.606431397482
20
-8.71527990441783
30
0
41
1
10
262.590405593272
20
-8.6352797278727
30
0
41
1
10
262.251591336834
20
-8.60247860600887
30
0
41
1
10
261.573358723218
20
-8.52465732663711
30
0
41
1
10
261.233659006802
20
-8.47959759320239
30
0
41
1
10
260.215220701696
20
-8.32651113218526
30
0
41
1
10
259.53784296617
20
-8.20073718296013
30
0
41
1
10
258.18341135369
20
-7.90383655168617
30
0
41
1
10
257.506389352565
20
-7.73269274008362
30
0
41
1
10
256.150051105557
20
-7.34699717730692
30
0
41
1
10
255.470110333661
20
-7.13217703407804
30
0
41
1
10
253.436398551478
20
-6.43093456718344
30
0
41
1
10
252.084289154101
20
-5.88674718227853
30
0
41
1
10
249.366428724775
20
-4.67193719195583
30
0
41
1
10
248.014371176673
20
-4.00780921053544
30
0
41
1
10
245.980250024775
20
-2.95252574916552
30
0
41
1
10
245.300155168242
20
-2.59037405792677
30
0
41
1
10
243.94365570318
20
-1.85528759541077
30
0
41
1
10
243.266503668618
20
-1.48214805340407
30
0
41
1
10
241.911660377423
20
-0.729533000358771
30
0
41
1
10
241.234017408491
20
-0.349971081603172
30
0
41
1
10
240.215103083846
20
0.220490852284115
30
0
41
1
10
239.875306382982
20
0.410701960844961
30
0
41
1
10
239.196831902803
20
0.789629731980739
30
0
41
1
10
238.857896962981
20
0.978488364818048
30
0
41
1
10
237.841480170179
20
1.54233248107883
30
0
41
1
10
237.164417172807
20
1.91464092630545
30
0
41
1
10
236.147596731075
20
2.46410512607613
30
0
41
1
10
235.808423454848
20
2.64571011624514
30
0
41
1
10
235.129269598645
20
3.00522254903407
30
0
41
1
10
234.789299756227
20
3.18312843719281
30
0
41
1
10
233.092523948146
20
4.05907761599414
30
0
41
1
10
231.74020844567
20
4.71881632431084
30
0
41
1
10
230.04278367243
20
5.47124756157501
30
0
41
1
10
229.702749088704
20
5.61813199167824
30
0
41
1
10
229.023863590708
20
5.90314521711301
30
0
41
1
10
228.684754192975
20
6.04139707625964
30
0
41
1
10
227.667953520616
20
6.44283207326859
30
0
41
1
10
226.990726261339
20
6.69261500775426
30
0
41
1
10
225.973892906477
20
7.03822705388777
30
0
41
1
10
225.634780936365
20
7.14858395417073
30
0
41
1
10
224.955853664699
20
7.35917545428319
30
0
41
1
10
224.615776665738
20
7.45947830089366
30
0
41
1
10
223.597055621879
20
7.74374203413376
30
0
41
1
10
222.919397614872
20
7.91139058506718
30
0
41
1
10
221.564246332319
20
8.20100286217212
30
0
41
1
10
220.886691971341
20
8.32293393408159
30
0
41
1
10
219.868478553403
20
8.47023453187899
30
0
41
1
10
219.528464623407
20
8.51342644389408
30
0
41
1
10
218.849120080216
20
8.58751066275613
30
0
41
1
10
218.509805161867
20
8.61842062711489
30
0
41
1
10
217.492573476983
20
8.69274365601913
30
0
41
1
10
216.815252736496
20
8.71770716972568
30
0
41
1
10
216.127841303023
20
8.71797847012095
30
0
41
1
10
216.118350250912
20
8.7179773783183
30
0
41
1
10
216.108859080815
20
8.71797144847719
30
0
0
SPLINE
5
D9
100
AcDbEntity
8
1
62
256
6
ByLayer
370
18
48
1
60
0
100
AcDbSpline
70
4
71
3
72
64
73
60
40
0
40
0
40
0
40
0
40
0.0164897145995094
40
0.0164897145995094
40
0.0541374896331197
40
0.0541374896331197
40
0.0917852646667299
40
0.0917852646667299
40
0.12943303970034
40
0.12943303970034
40
0.167080814733951
40
0.167080814733951
40
0.204728589767561
40
0.204728589767561
40
0.28002413983478
40
0.28002413983478
40
0.355319689902
40
0.355319689902
40
0.39296746493561
40
0.39296746493561
40
0.430615239969221
40
0.430615239969221
40
0.468263015002831
40
0.468263015002831
40
0.487086902519636
40
0.487086902519636
40
0.505910790036441
40
0.505910790036441
40
0.543558565070052
40
0.543558565070052
40
0.562382452586857
40
0.562382452586857
40
0.581206340103663
40
0.581206340103663
40
0.656501890170884
40
0.656501890170884
40
0.675325777687689
40
0.675325777687689
40
0.694149665204495
40
0.694149665204495
40
0.731797440238105
40
0.731797440238105
40
0.750621327754909
40
0.750621327754909
40
0.769445215271714
40
0.769445215271714
40
0.807092990305325
40
0.807092990305325
40
0.844740765338936
40
0.844740765338936
40
0.86356465285574
40
0.86356465285574
40
0.882388540372546
40
0.882388540372546
40
0.920036315406156
40
0.920036315406156
40
0.957684090439767
40
0.957684090439767
40
1
40
1
40
1
40
1
41
1
10
172.235507576548
20
-8.22532589203507
30
0
41
1
10
171.93778111186
20
-8.27869734149371
30
0
41
1
10
171.640329176849
20
-8.32751825671753
30
0
41
1
10
170.664321198903
20
-8.4727485340581
30
0
41
1
10
169.986426616597
20
-8.54980928975516
30
0
41
1
10
168.629521854298
20
-8.65516670229644
30
0
41
1
10
167.950093164229
20
-8.68348839996273
30
0
41
1
10
166.589721417282
20
-8.69047596129579
30
0
41
1
10
165.91120981356
20
-8.66918203799085
30
0
41
1
10
164.554684475748
20
-8.57767456039301
30
0
41
1
10
163.876598579208
20
-8.50748774828489
30
0
41
1
10
162.518227102175
20
-8.31896155523413
30
0
41
1
10
161.83716131884
20
-8.20040674993913
30
0
41
1
10
159.799821490907
20
-7.77702988540091
30
0
41
1
10
158.445767140301
20
-7.40392220100745
30
0
41
1
10
155.723884226594
20
-6.49437329649288
30
0
41
1
10
154.369194973607
20
-5.9626714814589
30
0
41
1
10
152.331955477924
20
-5.07129406816384
30
0
41
1
10
151.65087683197
20
-4.75789791593664
30
0
41
1
10
150.29193541608
20
-4.10768608854335
30
0
41
1
10
149.613692408086
20
-3.77046064358714
30
0
41
1
10
148.256826862943
20
-3.07640773623018
30
0
41
1
10
147.578130685554
20
-2.71970659037905
30
0
41
1
10
146.557750233365
20
-2.1733562399055
30
0
41
1
10
146.217347455554
20
-1.98940933088022
30
0
41
1
10
145.537699078109
20
-1.61965895831884
30
0
41
1
10
145.198165223462
20
-1.43371497618702
30
0
41
1
10
144.179986509188
20
-0.873484485843107
30
0
41
1
10
143.501849086558
20
-0.496646444522526
30
0
41
1
10
142.483345372093
20
0.0695518985991157
30
0
41
1
10
142.143640744597
20
0.25846449529837
30
0
41
1
10
141.463531733585
20
0.636122990568794
30
0
41
1
10
141.123026236691
20
0.824895802856929
30
0
41
1
10
139.42354677574
20
1.76335713930484
30
0
41
1
10
138.069034453449
20
2.49910167534407
30
0
41
1
10
136.368930571562
20
3.37671435986184
30
0
41
1
10
136.028342747986
20
3.55024566754145
30
0
41
1
10
135.348295319123
20
3.89139809109614
30
0
41
1
10
135.008610555716
20
4.05911827772923
30
0
41
1
10
133.990050653758
20
4.55292260350566
30
0
41
1
10
133.31179285306
20
4.86984230256186
30
0
41
1
10
132.293462218634
20
5.32356939958953
30
0
41
1
10
131.953852911984
20
5.47119119474436
30
0
41
1
10
131.273931205447
20
5.75864151706296
30
0
41
1
10
130.933333860689
20
5.89858132313813
30
0
41
1
10
129.912897556428
20
6.30491342016714
30
0
41
1
10
129.234072281288
20
6.55794890612316
30
0
41
1
10
127.876570382779
20
7.02523668078345
30
0
41
1
10
127.198018779384
20
7.23962169948104
30
0
41
1
10
126.17822161287
20
7.52982509826711
30
0
41
1
10
125.837694329987
20
7.6214155583211
30
0
41
1
10
125.157214711218
20
7.79346530950272
30
0
41
1
10
124.817374896355
20
7.87389190210939
30
0
41
1
10
123.79850034154
20
8.09803714566462
30
0
41
1
10
123.120067955416
20
8.22459293730137
30
0
41
1
10
121.762164704264
20
8.43047149077245
30
0
41
1
10
121.082249673444
20
8.50984240277586
30
0
41
1
10
119.636249861901
20
8.62649552597864
30
0
41
1
10
118.873131538887
20
8.65714016742282
30
0
41
1
10
118.110158180104
20
8.65671408082471
30
0
0
SPLINE
5
DA
100
AcDbEntity
8
1
62
256
6
ByLayer
370
18
48
1
60
0
100
AcDbSpline
70
4
71
3
72
66
73
62
40
0
40
0
40
0
40
0
40
0.0135806200468213
40
0.0135806200468213
40
0.0512964340607768
40
0.0512964340607768
40
0.0890122480747318
40
0.0890122480747318
40
0.126728062088687
40
0.126728062088687
40
0.2021596901166
40
0.2021596901166
40
0.239875504130556
40
0.239875504130556
40
0.277591318144512
40
0.277591318144512
40
0.29644922515149
40
0.29644922515149
40
0.315307132158468
40
0.315307132158468
40
0.353022946172425
40
0.353022946172425
40
0.390738760186382
40
0.390738760186382
40
0.409596667193362
40
0.409596667193362
40
0.42845457420034
40
0.42845457420034
40
0.466170388214298
40
0.466170388214298
40
0.485028295221278
40
0.485028295221278
40
0.503886202228257
40
0.503886202228257
40
0.579317830256174
40
0.579317830256174
40
0.598175737263153
40
0.598175737263153
40
0.617033644270132
40
0.617033644270132
40
0.65474945828409
40
0.65474945828409
40
0.67360736529107
40
0.67360736529107
40
0.692465272298049
40
0.692465272298049
40
0.730181086312007
40
0.730181086312007
40
0.767896900325965
40
0.767896900325965
40
0.805612714339922
40
0.805612714339922
40
0.84332852835388
40
0.84332852835388
40
0.881044342367838
40
0.881044342367838
40
0.956475970395754
40
0.956475970395754
40
0.994191784409712
40
0.994191784409712
40
1
40
1
40
1
40
1
41
1
10
74.2310750244312
20
-8.16807572368791
30
0
41
1
10
73.9859905927124
20
-8.21166522280555
30
0
41
1
10
73.7407830214852
20
-8.25225106845335
30
0
41
1
10
72.8141209515643
20
-8.39399834683582
30
0
41
1
10
72.134398645269
20
-8.47420332248254
30
0
41
1
10
70.7754923752896
20
-8.58600257686493
30
0
41
1
10
70.0964275069373
20
-8.6176139218758
30
0
41
1
10
68.7360176552662
20
-8.63160626146706
30
0
41
1
10
68.0538512297762
20
-8.61389216000148
30
0
41
1
10
66.013303543572
20
-8.48734752919631
30
0
41
1
10
64.6569935583912
20
-8.30541400379704
30
0
41
1
10
62.612431695582
20
-7.89262716007016
30
0
41
1
10
61.9320913307446
20
-7.73221019271929
30
0
41
1
10
60.5728649983946
20
-7.36882971964343
30
0
41
1
10
59.8936545342979
20
-7.16580787856731
30
0
41
1
10
58.8735122190525
20
-6.83111332031757
30
0
41
1
10
58.5332318525688
20
-6.71453321721185
30
0
41
1
10
57.8518470897747
20
-6.47169598583164
30
0
41
1
10
57.5109792718703
20
-6.34551974609528
30
0
41
1
10
56.4900883964288
20
-5.95425079759434
30
0
41
1
10
55.8107356962621
20
-5.67608028645583
30
0
41
1
10
54.4515686242417
20
-5.08920905002205
30
0
41
1
10
53.7718789413637
20
-4.78033362654907
30
0
41
1
10
52.7500411696712
20
-4.29688760191638
30
0
41
1
10
52.409040337072
20
-4.13239417953844
30
0
41
1
10
51.7282384970511
20
-3.79837285221808
30
0
41
1
10
51.3881567510949
20
-3.62869427437911
30
0
41
1
10
50.3683632347746
20
-3.1125151341015
30
0
41
1
10
49.689065224416
20
-2.7589351690074
30
0
41
1
10
48.6690086601287
20
-2.21771554353592
30
0
41
1
10
48.328808033799
20
-2.03549476884777
30
0
41
1
10
47.6476668440532
20
-1.6680718619788
30
0
41
1
10
47.306548931323
20
-1.48280902050268
30
0
41
1
10
45.6040229161646
20
-0.553367347436449
30
0
41
1
10
44.247496088043
20
0.202055767799976
30
0
41
1
10
42.5448632309228
20
1.13598633539706
30
0
41
1
10
42.2037313734723
20
1.32240040810888
30
0
41
1
10
41.522504543094
20
1.69250206168041
30
0
41
1
10
41.1822471617505
20
1.87626760060223
30
0
41
1
10
40.1620555605898
20
2.42286240598185
30
0
41
1
10
39.4826614175882
20
2.78091753925489
30
0
41
1
10
38.4626632263009
20
3.30501662041797
30
0
41
1
10
38.1225264697891
20
3.47757571838997
30
0
41
1
10
37.4416119887046
20
3.81778036652526
30
0
41
1
10
37.1005475847413
20
3.9855691920028
30
0
41
1
10
36.0784121664939
20
4.47937969025952
30
0
41
1
10
35.3984176298819
20
4.79581424162748
30
0
41
1
10
34.0388104058665
20
5.39956327664717
30
0
41
1
10
33.3590994301711
20
5.68673259698795
30
0
41
1
10
31.9973583005036
20
6.22803989907936
30
0
41
1
10
31.314917054932
20
6.48219521614698
30
0
41
1
10
29.9540468853512
20
6.95048463448973
30
0
41
1
10
29.2745636544631
20
7.16516427252557
30
0
41
1
10
27.9146000510122
20
7.55265670822629
30
0
41
1
10
27.2337765035574
20
7.72552877703015
30
0
41
1
10
25.1879544667413
20
8.17714311851088
30
0
41
1
10
23.8307555947677
20
8.38633831969125
30
0
41
1
10
21.78857121025
20
8.55480670315669
30
0
41
1
10
21.1059283264602
20
8.58671042162302
30
0
41
1
10
20.3203149237957
20
8.59500608193582
30
0
41
1
10
20.2154998523964
20
8.59553038563945
30
0
41
1
10
20.1107039504665
20
8.59547269040277
30
0
0
SPLINE
5
DB
100
AcDbEntity
8
1
62
256
6
ByLayer
370
18
48
1
60
0
100
AcDbSpline
70
4
71
3
72
20
73
16
40
0
40
0
40
0
40
0
40
0.125
40
0.125
40
0.25
40
0.25
40
0.375
40
0.375
40
0.5
40
0.5
40
0.625
40
0.625
40
0.75
40
0.75
40
1
40
1
40
1
40
1
41
1
10
6.25096980714542
20
6.47257513383624
30
0
41
1
10
6.2373250108697
20
6.48217504564912
30
0
41
1
10
6.22303903865662
20
6.49212825361792
30
0
41
1
10
6.19250326222831
20
6.51308718550601
30
0
41
1
10
6.17607145485127
20
6.52421517279851
30
0
41
1
10
6.14176937948898
20
6.54693280553931
30
0
41
1
10
6.12361343722367
20
6.5586960265729
30
0
41
1
10
6.08915707792714
20
6.58029221787825
30
0
41
1
10
6.07350426521245
20
6.58971386277997
30
0
41
1
10
6.04793937903685
20
6.60446651538612
30
0
41
1
10
6.03794955329622
20
6.60987213566722
30
0
41
1
10
6.02222262631142
20
6.61788619087309
30
0
41
1
10
6.01638978764495
20
6.62054334702995
30
0
41
1
10
6.0032932840914
20
6.62575688620913
30
0
41
1
10
6.00000023223055
20
6.62577117114739
30
0
41
1
10
6.00000023223055
20
6.6238088602764
30
0
0
SPLINE
5
DC
100
AcDbEntity
8
1
62
256
6
ByLayer
370
18
48
1
60
0
100
AcDbSpline
70
4
71
3
72
14
73
10
40
0
40
0
40
0
40
0
40
0.25
40
0.25
40
0.5
40
0.5
40
0.75
40
0.75
40
1
40
1
40
1
40
1
41
1
10
266.361019156717
20
2.29057867272269
30
0
41
1
10
266.358355094348
20
2.30549324431166
30
0
41
1
10
266.358773583794
20
2.32104977721102
30
0
41
1
10
266.368323751904
20
2.34970217432914
30
0
41
1
10
266.377748195998
20
2.3627153091287
30
0
41
1
10
266.401871311378
20
2.38176045979304
30
0
41
1
10
266.416250382149
20
2.38804579042082
30
0
41
1
10
266.445699240696
20
2.39568089061612
30
0
41
1
10
266.461078301635
20
2.39716020562813
30
0
41
1
10
266.476349144627
20
2.39699206033728
30
0
0
SPLINE
5
DD
100
AcDbEntity
8
1
62
256
6
ByLayer
370
13
48
1
60
0
100
AcDbSpline
70
4
71
3
72
14
73
10
40
0
40
0
40
0
40
0
40
0.25
40
0.25
40
0.5
40
0.5
40
0.75
40
0.75
40
1
40
1
40
1
40
1
41
1
10
6.00000023223055
20
-5.04555199726005
30
0
41
1
10
6.00000023223055
20
-5.04257747269949
30
0
41
1
10
6.00286122240344
20
-5.03946824033673
30
0
41
1
10
6.01429384002169
20
-5.03339995734612
30
0
41
1
10
6.02281448771743
20
-5.03042435942555
30
0
41
1
10
6.04521997312568
20
-5.02477055806025
30
0
41
1
10
6.05945303994045
20
-5.02202705314127
30
0
41
1
10
6.0927558641192
20
-5.01715938535054
30
0
41
1
10
6.11171398590616
20
-5.01502120411453
30
0
41
1
10
6.13340677369318
20
-5.01326008226013
30
0
0
SPLINE
5
DE
100
AcDbEntity
8
1
62
256
6
ByLayer
370
18
48
1
60
0
100
AcDbSpline
70
4
71
3
72
8
73
4
40
0
40
0
40
0
40
0
40
1
40
1
40
1
40
1
41
1
10
266.996608608721
20
8.68578602995456
30
0
41
1
10
266.365146615314
20
8.7282026683942
30
0
41
1
10
265.734246087276
20
8.74910306975531
30
0
41
1
10
265.104170257657
20
8.74859275566206
30
0
0
SPLINE
5
DF
100
AcDbEntity
8
1
62
256
6
ByLayer
370
18
48
1
60
0
100
AcDbSpline
70
4
71
3
72
72
73
68
40
0
40
0
40
0
40
0
40
0.0175543682992303
40
0.0175543682992303
40
0.0363895983000414
40
0.0363895983000414
40
0.0552248283008524
40
0.0552248283008524
40
0.0928952883024747
40
0.0928952883024747
40
0.111730518303287
40
0.111730518303287
40
0.130565748304099
40
0.130565748304099
40
0.205906668307353
40
0.205906668307353
40
0.224741898308167
40
0.224741898308167
40
0.243577128308981
40
0.243577128308981
40
0.28124758831061
40
0.28124758831061
40
0.300082818311425
40
0.300082818311425
40
0.31891804831224
40
0.31891804831224
40
0.356588508313868
40
0.356588508313868
40
0.394258968315498
40
0.394258968315498
40
0.413094198316313
40
0.413094198316313
40
0.431929428317128
40
0.431929428317128
40
0.46959988831876
40
0.46959988831876
40
0.488435118319575
40
0.488435118319575
40
0.507270348320391
40
0.507270348320391
40
0.582611268323656
40
0.582611268323656
40
0.620281728325289
40
0.620281728325289
40
0.657952188326921
40
0.657952188326921
40
0.695622648328553
40
0.695622648328553
40
0.733293108330185
40
0.733293108330185
40
0.770963568331818
40
0.770963568331818
40
0.80863402833345
40
0.80863402833345
40
0.883974948336715
40
0.883974948336715
40
0.902810178337531
40
0.902810178337531
40
0.921645408338347
40
0.921645408338347
40
0.959315868339977
40
0.959315868339977
40
0.978151098340792
40
0.978151098340792
40
0.996986328341606
40
0.996986328341606
40
1
40
1
40
1
40
1
41
1
10
221.156645695074
20
-8.26839273095646
30
0
41
1
10
220.840573551162
20
-8.32440803221837
30
0
41
1
10
220.524293657884
20
-8.3753628175098
30
0
41
1
10
219.867957282189
20
-8.47030751214101
30
0
41
1
10
219.528031328794
20
-8.51347535099146
30
0
41
1
10
218.849276448801
20
-8.58749195445824
30
0
41
1
10
218.510181742674
20
-8.61838681054172
30
0
41
1
10
217.493388998908
20
-8.69269666027827
30
0
41
1
10
216.816065507452
20
-8.71769434028676
30
0
41
1
10
215.79873777181
20
-8.71811460449337
30
0
41
1
10
215.459407486942
20
-8.71207897876945
30
0
41
1
10
214.780062290681
20
-8.68759888542971
30
0
41
1
10
214.439997960692
20
-8.66913642483286
30
0
41
1
10
212.742721515681
20
-8.54625988263041
30
0
41
1
10
211.389958400924
20
-8.35008036082675
30
0
41
1
10
209.691891040731
20
-7.98869513337809
30
0
41
1
10
209.351730376058
20
-7.91055480729185
30
0
41
1
10
208.672575083434
20
-7.74342260626764
30
0
41
1
10
208.333336897631
20
-7.65438521468843
30
0
41
1
10
207.316099688403
20
-7.37139928113891
30
0
41
1
10
206.638628114914
20
-7.1615357319271
30
0
41
1
10
205.621487024248
20
-6.81687459458959
30
0
41
1
10
205.282264797611
20
-6.69703082578607
30
0
41
1
10
204.603138479773
20
-6.44776536874539
30
0
41
1
10
204.262952992776
20
-6.31823966368427
30
0
41
1
10
203.243898650811
20
-5.91699835407829
30
0
41
1
10
202.565933102209
20
-5.63258295216593
30
0
41
1
10
201.210265236325
20
-5.03356538667629
30
0
41
1
10
200.532528347004
20
-4.71900448748548
30
0
41
1
10
199.513914087312
20
-4.22770767074348
30
0
41
1
10
199.173747685225
20
-4.06056109048606
30
0
41
1
10
198.494116312753
20
-3.72098250783512
30
0
41
1
10
198.154716512321
20
-3.54857439600468
30
0
41
1
10
197.1371299374
20
-3.02456630322101
30
0
41
1
10
196.459522824605
20
-2.66624173183109
30
0
41
1
10
195.442389171481
20
-2.11853206504318
30
0
41
1
10
195.103227409961
20
-1.93425170220914
30
0
41
1
10
194.424250250075
20
-1.56299378344951
30
0
41
1
10
194.084199701559
20
-1.37588490908973
30
0
41
1
10
192.384518844902
20
-0.436203770690952
30
0
41
1
10
191.031193302504
20
0.325235260287116
30
0
41
1
10
188.994644220955
20
1.45278762969062
30
0
41
1
10
188.313862716382
20
1.82640469069832
30
0
41
1
10
186.95636827322
20
2.55901904777318
30
0
41
1
10
186.27859808443
20
2.9184575660492
30
0
41
1
10
184.92230399611
20
3.61902881294566
30
0
41
1
10
184.243834165558
20
3.96024979763087
30
0
41
1
10
182.883374249687
20
4.61972340451428
30
0
41
1
10
182.204640424492
20
4.93647142639929
30
0
41
1
10
180.848315743272
20
5.53976217304367
30
0
41
1
10
180.170497858992
20
5.82625304065155
30
0
41
1
10
178.812954847863
20
6.36533291887787
30
0
41
1
10
178.132122155846
20
6.61822754170018
30
0
41
1
10
176.094618209236
20
7.31623817838801
30
0
41
1
10
174.741032156837
20
7.70204596533142
30
0
41
1
10
173.041217845292
20
8.07187087349459
30
0
41
1
10
172.700975708401
20
8.14017197339942
30
0
41
1
10
172.021649729308
20
8.26483993363533
30
0
41
1
10
171.682289295795
20
8.32127423581406
30
0
41
1
10
170.664651451838
20
8.47270007773287
30
0
41
1
10
169.986762847775
20
8.54978204310416
30
0
41
1
10
168.968651218255
20
8.62883543716612
30
0
41
1
10
168.629096852906
20
8.64909959455608
30
0
41
1
10
167.949256808507
20
8.67731367332686
30
0
41
1
10
167.608882131398
20
8.68525075487847
30
0
41
1
10
167.214739951171
20
8.6872639793657
30
0
41
1
10
167.160383781251
20
8.68738332685717
30
0
41
1
10
167.106035694116
20
8.68734446774246
30
0
0
SPLINE
5
E0
100
AcDbEntity
8
1
62
256
6
ByLayer
370
18
48
1
60
0
100
AcDbSpline
70
4
71
3
72
68
73
64
40
0
40
0
40
0
40
0
40
0.0151402672746299
40
0.0151402672746299
40
0.0339712498087043
40
0.0339712498087043
40
0.0528022323427783
40
0.0528022323427783
40
0.128126162479076
40
0.128126162479076
40
0.146957145013151
40
0.146957145013151
40
0.165788127547226
40
0.165788127547226
40
0.203450092615375
40
0.203450092615375
40
0.222281075149449
40
0.222281075149449
40
0.241112057683523
40
0.241112057683523
40
0.278774022751672
40
0.278774022751672
40
0.316435987819821
40
0.316435987819821
40
0.335266970353895
40
0.335266970353895
40
0.354097952887969
40
0.354097952887969
40
0.391759917956118
40
0.391759917956118
40
0.429421883024267
40
0.429421883024267
40
0.504745813160563
40
0.504745813160563
40
0.542407778228711
40
0.542407778228711
40
0.580069743296859
40
0.580069743296859
40
0.617731708365006
40
0.617731708365006
40
0.655393673433154
40
0.655393673433154
40
0.693055638501302
40
0.693055638501302
40
0.73071760356945
40
0.73071760356945
40
0.806041533705745
40
0.806041533705745
40
0.824872516239819
40
0.824872516239819
40
0.843703498773893
40
0.843703498773893
40
0.881365463842038
40
0.881365463842038
40
0.900196446376111
40
0.900196446376111
40
0.919027428910183
40
0.919027428910183
40
0.956689393978329
40
0.956689393978329
40
0.994351359046474
40
0.994351359046474
40
1
40
1
40
1
40
1
41
1
10
123.259550616727
20
-8.19202501108981
30
0
41
1
10
122.986672813267
20
-8.24099305343336
30
0
41
1
10
122.713750364823
20
-8.28620071565567
30
0
41
1
10
122.101080730794
20
-8.37908184048351
30
0
41
1
10
121.76127192081
20
-8.42467473811502
30
0
41
1
10
121.080907979416
20
-8.50385979289172
30
0
41
1
10
120.740226019032
20
-8.53745009860108
30
0
41
1
10
119.039841662531
20
-8.674546901268
30
0
41
1
10
117.684965758241
20
-8.6860775568037
30
0
41
1
10
115.984474631246
20
-8.5772830627063
30
0
41
1
10
115.64378604622
20
-8.54933574484809
30
0
41
1
10
114.963463287453
20
-8.48138200959662
30
0
41
1
10
114.623638704009
20
-8.44137283544197
30
0
41
1
10
113.604735575724
20
-8.30350718651835
30
0
41
1
10
112.926197147995
20
-8.18781605474001
30
0
41
1
10
111.907353239994
20
-7.97984231053212
30
0
41
1
10
111.567588069727
20
-7.90476565214229
30
0
41
1
10
110.887446913509
20
-7.74327321555728
30
0
41
1
10
110.546770045051
20
-7.65678290219645
30
0
41
1
10
109.525917848117
20
-7.38148045669806
30
0
41
1
10
108.84688383817
20
-7.17672692679463
30
0
41
1
10
107.489090259031
20
-6.72778883553451
30
0
41
1
10
106.810285289376
20
-6.48365567526173
30
0
41
1
10
105.790183842472
20
-6.09023326728826
30
0
41
1
10
105.449569674915
20
-5.95443620690361
30
0
41
1
10
104.768756500129
20
-5.6747365840927
30
0
41
1
10
104.428731715027
20
-5.53091719348245
30
0
41
1
10
103.409281619367
20
-5.0883387255104
30
0
41
1
10
102.730634485737
20
-4.77823386909702
30
0
41
1
10
101.37233716793
20
-4.13237679662055
30
0
41
1
10
100.69226909522
20
-3.79643769743956
30
0
41
1
10
98.6492823388162
20
-2.75735290990008
30
0
41
1
10
97.2937992069133
20
-2.02879679430367
30
0
41
1
10
95.253837859513
20
-0.9112405119686
30
0
41
1
10
94.5720534930878
20
-0.533822460209535
30
0
41
1
10
93.2122376720182
20
0.219462899346752
30
0
41
1
10
92.5333647341953
20
0.59592369110166
30
0
41
1
10
91.1750617933032
20
1.34373183152786
30
0
41
1
10
90.4955618820896
20
1.71495295508927
30
0
41
1
10
89.133164598443
20
2.44715545850752
30
0
41
1
10
88.4530933608158
20
2.80660592521033
30
0
41
1
10
87.0943558050687
20
3.50649852033055
30
0
41
1
10
86.4154980926958
20
3.84732224706539
30
0
41
1
10
85.0558889537587
20
4.50588464452838
30
0
41
1
10
84.3740293260982
20
4.82413237295756
30
0
41
1
10
82.3332540200761
20
5.73266114679387
30
0
41
1
10
80.9774171307089
20
6.27737160524782
30
0
41
1
10
79.274913327627
20
6.86421484895141
30
0
41
1
10
78.9340665559261
20
6.97689867840634
30
0
41
1
10
78.253624209723
20
7.19176465319137
30
0
41
1
10
77.9137256522706
20
7.29403553369099
30
0
41
1
10
76.8944113077088
20
7.58485704070208
30
0
41
1
10
76.2154105830663
20
7.75745762583023
30
0
41
1
10
75.1958477449537
20
7.98285346466253
30
0
41
1
10
74.8557882822224
20
8.05237917469663
30
0
41
1
10
74.1749185775165
20
8.17994485745706
30
0
41
1
10
73.833979301767
20
8.23801625634368
30
0
41
1
10
72.8129528907544
20
8.39413485419055
30
0
41
1
10
72.1335794138743
20
8.47428887326515
30
0
41
1
10
70.7747853963886
20
8.58604256929019
30
0
41
1
10
70.0954836733974
20
8.61765923199007
30
0
41
1
10
69.3126472741301
20
8.62567001942452
30
0
41
1
10
69.2104932518455
20
8.62615953403673
30
0
41
1
10
69.108314671218
20
8.62609411381396
30
0
0
SPLINE
5
E1
100
AcDbEntity
8
1
62
256
6
ByLayer
370
18
48
1
60
0
100
AcDbSpline
70
4
71
3
72
26
73
22
40
0
40
0
40
0
40
0
40
0.144384267902678
40
0.144384267902678
40
0.19786025115876
40
0.19786025115876
40
0.251336234414843
40
0.251336234414843
40
0.358288200927008
40
0.358288200927008
40
0.411764184183091
40
0.411764184183091
40
0.465240167439173
40
0.465240167439173
40
0.572192133951339
40
0.572192133951339
40
0.679144100463505
40
0.679144100463505
40
0.78609606697567
40
0.78609606697567
40
1
40
1
40
1
40
1
41
1
10
25.2223558299264
20
-8.14058499294623
30
0
41
1
10
24.3042575737679
20
-8.30303299898927
30
0
41
1
10
23.3870475232965
20
-8.42300382912813
30
0
41
1
10
22.1267370547027
20
-8.52688686620959
30
0
41
1
10
21.7855085461356
20
-8.5489175897136
30
0
41
1
10
21.1040386532354
20
-8.58063629951269
30
0
41
1
10
20.7636651499771
20
-8.59034469038903
30
0
41
1
10
19.7430894815262
20
-8.60106082358297
30
0
41
1
10
19.0634172221891
20
-8.58366440753832
30
0
41
1
10
18.0430583877939
20
-8.52096849833242
30
0
41
1
10
17.7027862359323
20
-8.49397107679476
30
0
41
1
10
17.0216086273429
20
-8.42781752079361
30
0
41
1
10
16.6804155791878
20
-8.38862010634315
30
0
41
1
10
15.6578384169602
20
-8.25319295587272
30
0
41
1
10
14.9776803761492
20
-8.13919211725067
30
0
41
1
10
13.6176011323619
20
-7.86572022944327
30
0
41
1
10
12.937748288615
20
-7.70620880304293
30
0
41
1
10
11.5756765350723
20
-7.34356201995101
30
0
41
1
10
10.8929361843193
20
-7.1401660371362
30
0
41
1
10
8.85098771004232
20
-6.47250506074934
30
0
41
1
10
7.49340783869744
20
-5.95007232428628
30
0
41
1
10
6.1293747869402
20
-5.36269666980235
30
0
0
SPLINE
5
E2
100
AcDbEntity
8
1
62
256
6
ByLayer
370
18
48
1
60
0
100
AcDbSpline
70
4
71
3
72
14
73
10
40
0
40
0
40
0
40
0
40
0.25
40
0.25
40
0.5
40
0.5
40
0.75
40
0.75
40
1
40
1
40
1
40
1
41
1
10
267.156514120161
20
-8.21144932860591
30
0
41
1
10
267.159192039814
20
-8.20980694613306
30
0
41
1
10
267.161220604037
20
-8.20994345800105
30
0
41
1
10
267.163609703448
20
-8.21478600910535
30
0
41
1
10
267.163916849961
20
-8.2195979354679
30
0
41
1
10
267.161908825774
20
-8.23496314314517
30
0
41
1
10
267.15955141427
20
-8.24551335599728
30
0
41
1
10
267.152499795156
20
-8.26996948515162
30
0
41
1
10
267.147842648988
20
-8.28376212423666
30
0
41
1
10
267.142816106743
20
-8.297176193507
30
0
0
SPLINE
5
E3
100
AcDbEntity
8
1
62
256
6
ByLayer
370
18
48
1
60
0
100
AcDbSpline
70
4
71
3
72
18
73
14
40
0
40
0
40
0
40
0
40
0.25
40
0.25
40
0.5
40
0.5
40
0.75
40
0.75
40
0.874999999999995
40
0.874999999999995
40
0.937499999999998
40
0.937499999999998
40
1
40
1
40
1
40
1
41
1
10
267.354308370112
20
8.34725359847911
30
0
41
1
10
267.526160783831
20
7.84967626810837
30
0
41
1
10
267.700685560881
20
7.35262794104457
30
0
41
1
10
268.053873295009
20
6.359350453568
30
0
41
1
10
268.232512844044
20
5.86311665945436
30
0
41
1
10
268.593116349369
20
4.87130714882116
30
0
41
1
10
268.775041281027
20
4.37572370724467
30
0
41
1
10
269.049934337046
20
3.63274557173
30
0
41
1
10
269.141888691577
20
3.38515019864536
30
0
41
1
10
269.280339860498
20
3.01386000293462
30
0
41
1
10
269.32652290539
20
2.89010306858131
30
0
41
1
10
269.418480004456
20
2.64250823878655
30
0
41
1
10
269.464315694001
20
2.5186825442743
30
0
41
1
10
269.510010052319
20
2.3948288727704
30
0
0
SPLINE
5
E4
100
AcDbEntity
8
1
62
256
6
ByLayer
370
18
48
1
60
0
100
AcDbSpline
70
4
71
3
72
44
73
40
40
0
40
0
40
0
40
0
40
0.134282810360265
40
0.134282810360265
40
0.219019817861266
40
0.219019817861266
40
0.261388321611766
40
0.261388321611766
40
0.303756825362266
40
0.303756825362266
40
0.346125329112766
40
0.367309580988016
40
0.367309580988016
40
0.388493832863266
40
0.388493832863266
40
0.473230840364267
40
0.473230840364267
40
0.642704855366268
40
0.685073359116768
40
0.690369422085581
40
0.690369422085581
40
0.693017453569987
40
0.693017453569987
40
0.695665485054393
40
0.695665485054393
40
0.706257610992019
40
0.706257610992019
40
0.711553673960831
40
0.711553673960831
40
0.716849736929644
40
0.727441862867269
40
0.727441862867269
40
0.812178870368271
40
0.812178870368271
40
0.896915877869273
40
0.896915877869273
40
0.981652885370274
40
0.981652885370274
40
1
40
1
40
1
40
1
41
1
10
19.7386315888643
20
8.51491218400807
30
0
41
1
10
19.7386315888643
20
7.93430330083294
30
0
41
1
10
19.7386315888643
20
7.35358447442414
30
0
41
1
10
19.7386315888643
20
6.40740893716332
30
0
41
1
10
19.7386315888643
20
6.04146059847628
30
0
41
1
10
19.7386315888643
20
5.49271520873029
30
0
41
1
10
19.7386315888643
20
5.30982965415274
30
0
41
1
10
19.7386315888643
20
4.94411803272081
30
0
41
1
10
19.7386315888643
20
4.76094581534309
30
0
41
1
10
19.7386315888643
20
4.39710669374975
30
0
41
1
10
19.7386315888644
20
4.12589655169788
30
0
41
1
10
19.7386315888643
20
3.85715236835873
30
0
41
1
10
19.7386315888643
20
3.67853529622738
30
0
41
1
10
19.7386315888643
20
3.58956914913426
30
0
41
1
10
19.7386315888643
20
3.1444969929621
30
0
41
1
10
19.7386315888643
20
2.78862844940713
30
0
41
1
10
19.7386315888643
20
1.72158526966359
30
0
41
1
10
19.7386315888643
20
0.833296389662735
30
0
41
1
10
19.7386315888643
20
-0.0759403334515127
30
0
41
1
10
19.7386315888643
20
-0.275462988092102
30
0
41
1
10
19.7386315888643
20
-0.308715476860783
30
0
41
1
10
19.7386315888643
20
-0.319886579688159
30
0
41
1
10
19.7386315888643
20
-0.341743841558639
30
0
41
1
10
19.7386315888643
20
-0.352409545457107
30
0
41
1
10
19.7386315888643
20
-0.404402594830771
30
0
41
1
10
19.7386315888643
20
-0.439759438724735
30
0
41
1
10
19.7386315888643
20
-0.472428273321185
30
0
41
1
10
19.7386315888643
20
-0.478781607806724
30
0
41
1
10
19.7386315888643
20
-0.492593648616236
30
0
41
1
10
19.7386315888643
20
-0.513198580324683
30
0
41
1
10
19.7386315888643
20
-0.533464333838452
30
0
41
1
10
19.7386315888643
20
-0.653692037193736
30
0
41
1
10
19.7386315888643
20
-0.750857010522424
30
0
41
1
10
19.7386315888643
20
-0.925148766528878
30
0
41
1
10
19.7386315888643
20
-1.00230156545359
30
0
41
1
10
19.7386315888643
20
-1.13587516915209
30
0
41
1
10
19.7386315888643
20
-1.19235366756905
30
0
41
1
10
19.7386315888643
20
-1.24828618353786
30
0
41
1
10
19.7386315888643
20
-1.25774689401177
30
0
41
1
10
19.7386315888643
20
-1.2667098159921
30
0
0
SPLINE
5
E5
100
AcDbEntity
8
1
62
256
6
ByLayer
370
18
48
1
60
0
100
AcDbSpline
70
4
71
3
72
10
73
6
40
0
40
0
40
0
40
0
40
0.0745904716027103
40
0.0745904716027103
40
1
40
1
40
1
40
1
41
1
10
19.7386315888643
20
-1.34188110326701
30
0
41
1
10
19.7386315888643
20
-1.34269448203958
30
0
41
1
10
19.7386315888643
20
-1.34349656820459
30
0
41
1
10
19.7386315888643
20
-1.35409821668645
30
0
41
1
10
19.7386315888643
20
-1.36218542871762
30
0
41
1
10
19.7386315888643
20
-1.36854610331812
30
0
0
SPLINE
5
E6
100
AcDbEntity
8
1
62
256
6
ByLayer
370
18
48
1
60
0
100
AcDbSpline
70
4
71
3
72
22
73
18
40
0
40
0
40
0
40
0
40
0.250000000000004
40
0.250000000000004
40
0.375000000000004
40
0.375000000000004
40
0.500000000000004
40
0.500000000000004
40
0.625000000000005
40
0.625000000000005
40
0.687500000000004
40
0.687500000000004
40
0.750000000000003
40
0.750000000000003
40
0.875000000000001
40
0.875000000000001
40
1
40
1
40
1
40
1
41
1
10
6.00000023223892
20
6.61013360487232
30
0
41
1
10
5.73874210575859
20
6.78592017766908
30
0
41
1
10
5.48908925501266
20
6.95857573866903
30
0
41
1
10
5.13899093171497
20
7.21195750104994
30
0
41
1
10
5.02596723158511
20
7.29581618678537
30
0
41
1
10
4.81300342147976
20
7.45909917208451
30
0
41
1
10
4.71288920822626
20
7.53862506345837
30
0
41
1
10
4.52763966771923
20
7.69291982375572
30
0
41
1
10
4.44249076498559
20
7.76769231422554
30
0
41
1
10
4.32833200470104
20
7.87571666734297
30
0
41
1
10
4.29249635228415
20
7.91109870961961
30
0
41
1
10
4.2266841114174
20
7.97948659569306
30
0
41
1
10
4.19659253812719
20
8.01259511354488
30
0
41
1
10
4.1152514418702
20
8.10853265418862
30
0
41
1
10
4.07289946683329
20
8.16798290608963
30
0
41
1
10
4.0151471834499
20
8.27695834440033
30
0
41
1
10
4.00000038865923
20
8.3266734605732
30
0
41
1
10
4.00000038865923
20
8.36928956685435
30
0
0
SPLINE
5
E7
100
AcDbEntity
8
1
62
256
6
ByLayer
370
18
48
1
60
0
100
AcDbSpline
70
4
71
3
72
18
73
14
40
0
40
0
40
0
40
0
40
0.250000000000002
40
0.250000000000002
40
0.500000000000005
40
0.500000000000005
40
0.750000000000007
40
0.750000000000007
40
0.875000000000008
40
0.875000000000008
40
0.937500000000004
40
0.937500000000004
40
1
40
1
40
1
40
1
41
1
10
267.354308370112
20
-8.34725359847911
30
0
41
1
10
267.526170821395
20
-7.84964720558722
30
0
41
1
10
267.700702485657
20
-7.35257984592303
30
0
41
1
10
268.05389862142
20
-6.35927972482421
30
0
41
1
10
268.232539728723
20
-5.86304224511511
30
0
41
1
10
268.593141768314
20
-4.87123770652576
30
0
41
1
10
268.775063731236
20
-4.37566277799127
30
0
41
1
10
269.049949455308
20
-3.63270483579296
30
0
41
1
10
269.141900902969
20
-3.38511739085601
30
0
41
1
10
269.28034695456
20
-3.01384100850052
30
0
41
1
10
269.326528215801
20
-2.89008879320861
30
0
41
1
10
269.41848235334
20
-2.64250189147799
30
0
41
1
10
269.464316768288
20
-2.51867963243973
30
0
41
1
10
269.510010052319
20
-2.39482887277043
30
0
0
SPLINE
5
E8
100
AcDbEntity
8
1
62
256
6
ByLayer
370
18
48
1
60
0
100
AcDbSpline
70
4
71
3
72
22
73
18
40
0
40
0
40
0
40
0
40
0.037844064772573
40
0.037844064772573
40
0.133409808349633
40
0.133409808349633
40
0.228975551926693
40
0.228975551926693
40
0.611238526234934
40
0.611238526234934
40
0.706804269811993
40
0.706804269811993
40
0.802370013389051
40
0.802370013389051
40
0.993501500543165
40
0.993501500543165
40
1
40
1
40
1
40
1
41
1
10
44.5804694489223
20
0.0150670462669495
30
0
41
1
10
44.71504028698
20
-0.0559300691406577
30
0
41
1
10
44.8496934424699
20
-0.126980979494363
30
0
41
1
10
45.3246992803317
20
-0.37758587783037
30
0
41
1
10
45.6655499518963
20
-0.557321107958472
30
0
41
1
10
46.3487897424856
20
-0.916535497598062
30
0
41
1
10
46.6916062188161
20
-1.09623863309591
30
0
41
1
10
48.4033900042018
20
-1.98868018570164
30
0
41
1
10
49.7666436232763
20
-2.68493276437519
30
0
41
1
10
51.4758958006568
20
-3.50981434389433
30
0
41
1
10
51.8180144653915
20
-3.67249470461724
30
0
41
1
10
52.503097944654
20
-3.9927096724594
30
0
41
1
10
52.8452537224791
20
-4.14989192969199
30
0
41
1
10
53.8688081601432
20
-4.61098059443546
30
0
41
1
10
54.5482843453679
20
-4.90479901700641
30
0
41
1
10
55.2492161155782
20
-5.19267356661453
30
0
41
1
10
55.2722623368047
20
-5.20212177101533
30
0
41
1
10
55.2953066822503
20
-5.21155218299586
30
0
0
SPLINE
5
E9
100
AcDbEntity
8
1
62
256
6
ByLayer
370
13
48
1
60
0
100
AcDbSpline
70
4
71
3
72
22
73
18
40
0
40
0
40
0
40
0
40
0.251857581746948
40
0.251857581746948
40
0.508070807674254
40
0.508070807674254
40
0.572124114156079
40
0.572124114156079
40
0.636177420637904
40
0.636177420637904
40
0.764284033601555
40
0.764284033601555
40
0.82833734008338
40
0.82833734008338
40
0.892390646565206
40
0.892390646565206
40
1
40
1
40
1
40
1
41
1
10
55.2953066818306
20
-5.21155218282402
30
0
41
1
10
56.6278060415811
20
-5.75684942097675
30
0
41
1
10
57.9540336708192
20
-6.2426571626867
30
0
41
1
10
60.6357672344332
20
-7.07854950903479
30
0
41
1
10
61.9913197606853
20
-7.4261004039021
30
0
41
1
10
63.7024734487611
20
-7.75275532598076
30
0
41
1
10
64.0451302625665
20
-7.81260870574289
30
0
41
1
10
64.7290426374377
20
-7.92075212024631
30
0
41
1
10
65.0706813526907
20
-7.96911376005227
30
0
41
1
10
66.0951635504032
20
-8.09684688463022
30
0
41
1
10
66.7775801984695
20
-8.15886976641971
30
0
41
1
10
67.8020789269986
20
-8.2166273019478
30
0
41
1
10
68.1437567837361
20
-8.22998978917826
30
0
41
1
10
68.8277974531084
20
-8.24485311266326
30
0
41
1
10
69.1704359561406
20
-8.24635354768944
30
0
41
1
10
70.0877139797332
20
-8.23437442098597
30
0
41
1
10
70.661575448807
20
-8.2100257175961
30
0
41
1
10
71.2351761241168
20
-8.16918050114018
30
0
0
SPLINE
5
EA
100
AcDbEntity
8
1
62
256
6
ByLayer
370
18
48
1
60
0
100
AcDbSpline
70
4
71
3
72
16
73
12
40
0
40
0
40
0
40
0
40
0.184984189622652
40
0.184984189622652
40
0.504473453024785
40
0.504473453024785
40
0.664218084725853
40
0.664218084725853
40
0.823962716426923
40
0.823962716426923
40
1
40
1
40
1
40
1
41
1
10
142.63228109569
20
-0.0126922523245412
30
0
41
1
10
143.416098087527
20
-0.429346506135971
30
0
41
1
10
144.198218787287
20
-0.845053344877243
30
0
41
1
10
146.331858129498
20
-1.96599073390107
30
0
41
1
10
147.683569938807
20
-2.66256060663449
30
0
41
1
10
149.726903612311
20
-3.65877588047249
30
0
41
1
10
150.412420097977
20
-3.9833182132854
30
0
41
1
10
151.774838272614
20
-4.6036594569199
30
0
41
1
10
152.453266926555
20
-4.90047806929687
30
0
41
1
10
153.876487341381
20
-5.492202887715
30
0
41
1
10
154.620904899416
20
-5.78395347576662
30
0
41
1
10
155.365234179249
20
-6.05507213528895
30
0
0
SPLINE
5
EB
100
AcDbEntity
8
1
62
256
6
ByLayer
370
13
48
1
60
0
100
AcDbSpline
70
4
71
3
72
20
73
16
40
0
40
0
40
0
40
0
40
0.130448444857524
40
0.130448444857524
40
0.275712656634914
40
0.275712656634914
40
0.348344762523611
40
0.348344762523611
40
0.420976868412308
40
0.420976868412308
40
0.711505291967104
40
0.711505291967104
40
0.8567695037445
40
0.8567695037445
40
1
40
1
40
1
40
1
41
1
10
155.365234179077
20
-6.0550721352264
30
0
41
1
10
155.97178471587
20
-6.2760054948636
30
0
41
1
10
156.578276631118
20
-6.48323812786924
30
0
41
1
10
157.861886740567
20
-6.8898069512274
30
0
41
1
10
158.539291391272
20
-7.08549113056955
30
0
41
1
10
159.55884398675
20
-7.34894448012497
30
0
41
1
10
159.899259539125
20
-7.43175893850579
30
0
41
1
10
160.581592351896
20
-7.58695818199976
30
0
41
1
10
160.923882813103
20
-7.65940408103978
30
0
41
1
10
162.632295719199
20
-7.99307438820455
30
0
41
1
10
163.993021798749
20
-8.17000626246335
30
0
41
1
10
166.040568281139
20
-8.29338667268641
30
0
41
1
10
166.725532620022
20
-8.31077358915451
30
0
41
1
10
168.077619845113
20
-8.29789403867127
30
0
41
1
10
168.746071926363
20
-8.2684259929234
30
0
41
1
10
169.413092057758
20
-8.21658482981042
30
0
0
SPLINE
5
EC
100
AcDbEntity
8
1
62
256
6
ByLayer
370
18
48
1
60
0
100
AcDbSpline
70
4
71
3
72
20
73
16
40
0
40
0
40
0
40
0
40
0.006878482289163
40
0.006878482289163
40
0.170652043989352
40
0.170652043989352
40
0.498199167389722
40
0.498199167389722
40
0.661972729089903
40
0.661972729089903
40
0.743859509939986
40
0.743859509939986
40
0.825746290790071
40
0.825746290790071
40
1
40
1
40
1
40
1
41
1
10
240.655909802491
20
-0.0252040629129624
30
0
41
1
10
240.684399592319
20
-0.0404592464450104
30
0
41
1
10
240.712885086692
20
-0.0557120891924399
30
0
41
1
10
241.419493160824
20
-0.434065735907893
30
0
41
1
10
242.095218780463
20
-0.795772475306876
30
0
41
1
10
244.119227324985
20
-1.86918672937264
30
0
41
1
10
245.463946885709
20
-2.56999262000266
30
0
41
1
10
247.48929465786
20
-3.5707593560729
30
0
41
1
10
248.16574557894
20
-3.89602137991048
30
0
41
1
10
249.18446690877
20
-4.36773263828465
30
0
41
1
10
249.524691800995
20
-4.52230968257084
30
0
41
1
10
250.206771275885
20
-4.82553774247842
30
0
41
1
10
250.548507263314
20
-4.97410711148811
30
0
41
1
10
251.615084529884
20
-5.42631718198572
30
0
41
1
10
252.339224086249
20
-5.71675727445589
30
0
41
1
10
253.063437002534
20
-5.98792116605134
30
0
0
SPLINE
5
ED
100
AcDbEntity
8
1
62
256
6
ByLayer
370
13
48
1
60
0
100
AcDbSpline
70
4
71
3
72
18
73
14
40
0
40
0
40
0
40
0
40
0.134949132965066
40
0.134949132965066
40
0.207036705217982
40
0.207036705217982
40
0.279124277470898
40
0.279124277470898
40
0.423299421976717
40
0.423299421976717
40
0.71164971098836
40
0.71164971098836
40
1
40
1
40
1
40
1
41
1
10
253.063437001553
20
-5.98792116568401
30
0
41
1
10
253.700537187819
20
-6.22646781677281
30
0
41
1
10
254.337694147076
20
-6.45009668178039
30
0
41
1
10
255.316896824591
20
-6.76812998201146
30
0
41
1
10
255.658611289306
20
-6.87433231234092
30
0
41
1
10
256.340612942044
20
-7.07628048958699
30
0
41
1
10
256.680724426112
20
-7.1719947081242
30
0
41
1
10
257.698927532283
20
-7.4431035935813
30
0
41
1
10
258.374867690931
20
-7.60248565781566
30
0
41
1
10
260.397813348453
20
-8.01451642895395
30
0
41
1
10
261.739898292043
20
-8.20111142907899
30
0
41
1
10
264.431182638888
20
-8.38962148560324
30
0
41
1
10
265.780521547385
20
-8.39178909424663
30
0
41
1
10
267.142816106728
20
-8.29717619350805
30
0
0
SPLINE
5
EE
100
AcDbEntity
8
1
62
256
6
ByLayer
370
18
48
1
60
0
100
AcDbSpline
70
4
71
3
72
18
73
14
40
0
40
0
40
0
40
0
40
0.0203993843321937
40
0.0203993843321937
40
0.228556607926891
40
0.228556607926891
40
0.6448710551163
40
0.6448710551163
40
0.853028278711004
40
0.853028278711004
40
0.957106890508356
40
0.957106890508356
40
1
40
1
40
1
40
1
41
1
10
265.315000644487
20
-8.26764505477479
30
0
41
1
10
265.248544681391
20
-8.26758681514318
30
0
41
1
10
265.182111672008
20
-8.26730291523458
30
0
41
1
10
264.438035348299
20
-8.26160028877155
30
0
41
1
10
263.762673373805
20
-8.23298982830269
30
0
41
1
10
261.739771522782
20
-8.07875688105869
30
0
41
1
10
260.395426330971
20
-7.8845385022916
30
0
41
1
10
258.370354547768
20
-7.46330019914058
30
0
41
1
10
257.693926020804
20
-7.3012138749398
30
0
41
1
10
256.675328222274
20
-7.02673139360189
30
0
41
1
10
256.33513966626
20
-6.93000753982989
30
0
41
1
10
255.853585851241
20
-6.78616349657463
30
0
41
1
10
255.712962295531
20
-6.74332432925488
30
0
41
1
10
255.5723379978
20
-6.69966942907777
30
0
0
SPLINE
5
EF
100
AcDbEntity
8
1
62
256
6
ByLayer
370
13
48
1
60
0
100
AcDbSpline
70
4
71
3
72
26
73
22
40
0
40
0
40
0
40
0
40
0.0322870563609806
40
0.0322870563609806
40
0.251972213529637
40
0.251972213529637
40
0.306893502821799
40
0.306893502821799
40
0.361814792113961
40
0.361814792113961
40
0.471657370698286
40
0.471657370698286
40
0.691342527866928
40
0.691342527866928
40
0.801185106451249
40
0.801185106451249
40
0.85610639574341
40
0.85610639574341
40
0.91102768503557
40
0.91102768503557
40
1
40
1
40
1
40
1
41
1
10
255.57233895275
20
-6.69966972552899
30
0
41
1
10
255.371743051721
20
-6.63739746222814
30
0
41
1
10
255.171145640439
20
-6.57346533921711
30
0
41
1
10
253.607532601064
20
-6.0625542082837
30
0
41
1
10
252.249068619086
20
-5.54424367455843
30
0
41
1
10
250.544509768155
20
-4.82256993755658
30
0
41
1
10
250.202840943242
20
-4.67434292176594
30
0
41
1
10
249.521128965558
20
-4.37211932548132
30
0
41
1
10
249.181063123798
20
-4.21814548376909
30
0
41
1
10
248.162756372399
20
-3.74853944434088
30
0
41
1
10
247.486491522261
20
-3.42508655653015
30
0
41
1
10
245.461559249322
20
-2.43082242582111
30
0
41
1
10
244.116888959301
20
-1.73585626099882
30
0
41
1
10
242.092892222354
20
-0.673340629688767
30
0
41
1
10
241.417171088398
20
-0.315605043448329
30
0
41
1
10
240.400004705969
20
0.22256408231533
30
0
41
1
10
240.060357786292
20
0.40222451986196
30
0
41
1
10
239.379563146344
20
0.761484423068623
30
0
41
1
10
239.037983839976
20
0.941307199423818
30
0
41
1
10
238.143983127348
20
1.40976130326135
30
0
41
1
10
237.592208895478
20
1.69678149547897
30
0
41
1
10
237.040743290405
20
1.97990640478668
30
0
0
SPLINE
5
F0
100
AcDbEntity
8
1
62
256
6
ByLayer
370
18
48
1
60
0
100
AcDbSpline
70
4
71
3
72
18
73
14
40
0
40
0
40
0
40
0
40
0.0012886740071232
40
0.0012886740071232
40
0.216065122388345
40
0.216065122388345
40
0.645618019150791
40
0.645618019150791
40
0.753006243341405
40
0.753006243341405
40
0.860394467532018
40
0.860394467532018
40
1
40
1
40
1
40
1
41
1
10
167.431173283228
20
-8.20606035009808
30
0
41
1
10
167.427089016622
20
-8.20607284327514
30
0
41
1
10
167.423004646717
20
-8.20608449081669
30
0
41
1
10
166.738182678479
20
-8.20789556210295
30
0
41
1
10
166.053430076384
20
-8.18609184013221
30
0
41
1
10
164.006598729026
20
-8.05052806033675
30
0
41
1
10
162.646174237977
20
-7.86682204927618
30
0
41
1
10
160.938171961985
20
-7.52659659541797
30
0
41
1
10
160.59602452678
20
-7.45295204658916
30
0
41
1
10
159.913977812408
20
-7.29556734598029
30
0
41
1
10
159.573686020697
20
-7.21175963160331
30
0
41
1
10
158.792271991439
20
-7.00771539821099
30
0
41
1
10
158.351545377351
20
-6.88408122095777
30
0
41
1
10
157.911444813014
20
-6.7525606322873
30
0
0
SPLINE
5
F1
100
AcDbEntity
8
1
62
256
6
ByLayer
370
13
48
1
60
0
100
AcDbSpline
70
4
71
3
72
22
73
18
40
0
40
0
40
0
40
0
40
0.0378455254737696
40
0.0378455254737696
40
0.254108382828167
40
0.254108382828167
40
0.362239811505365
40
0.362239811505365
40
0.470371240182564
40
0.470371240182564
40
0.68663409753696
40
0.68663409753696
40
0.902896954891357
40
0.902896954891357
40
0.956962669229956
40
0.956962669229956
40
1
40
1
40
1
40
1
41
1
10
157.911443852307
20
-6.75256034518767
30
0
41
1
10
157.674471024976
20
-6.68174287513807
30
0
41
1
10
157.437679708223
20
-6.60863889741083
30
0
41
1
10
155.848664326913
20
-6.10287850396369
30
0
41
1
10
154.500240786858
20
-5.60026899280891
30
0
41
1
10
152.469132391396
20
-4.75757813948661
30
0
41
1
10
151.790761680827
20
-4.46178768519044
30
0
41
1
10
150.428526707886
20
-3.844329573338
30
0
41
1
10
149.743263089177
20
-3.52174250282019
30
0
41
1
10
147.700681746629
20
-2.5324702534638
30
0
41
1
10
146.349186385782
20
-1.84193505248061
30
0
41
1
10
143.64692953437
20
-0.436749918093142
30
0
41
1
10
142.296488862189
20
0.278512435221216
30
0
41
1
10
140.596957940294
20
1.16459272280818
30
0
41
1
10
140.256469284129
20
1.3413931431532
30
0
41
1
10
139.643580012095
20
1.65755945149337
30
0
41
1
10
139.37129355555
20
1.79728078677917
30
0
41
1
10
139.099068603758
20
1.93607475145896
30
0
0
SPLINE
5
F2
100
AcDbEntity
8
1
62
256
6
ByLayer
370
18
48
1
60
0
100
AcDbSpline
70
4
71
3
72
18
73
14
40
0
40
0
40
0
40
0
40
0.0858191997987148
40
0.0858191997987148
40
0.204359769329193
40
0.204359769329193
40
0.441440908390145
40
0.441440908390145
40
0.559981477920622
40
0.559981477920622
40
0.6785220474511
40
0.6785220474511
40
1
40
1
40
1
40
1
41
1
10
69.262127025879
20
-8.14490422075625
30
0
41
1
10
69.0143278921522
20
-8.14423963249419
30
0
41
1
10
68.766485712881
20
-8.14049000850559
30
0
41
1
10
68.1770529453046
20
-8.1242621498057
30
0
41
1
10
67.8354849815172
20
-8.10900080624393
30
0
41
1
10
66.8112982501616
20
-8.04580084775404
30
0
41
1
10
66.1290627943552
20
-7.98047022922384
30
0
41
1
10
65.1048620553237
20
-7.8483217145608
30
0
41
1
10
64.7633205112527
20
-7.79857796878113
30
0
41
1
10
64.0796106786373
20
-7.68785131613114
30
0
41
1
10
63.7370549567875
20
-7.62679324782974
30
0
41
1
10
62.4671873848535
20
-7.38019489736604
30
0
41
1
10
61.5454345451494
20
-7.16109279381047
30
0
41
1
10
60.6265878777628
20
-6.9068672652823
30
0
0
SPLINE
5
F3
100
AcDbEntity
8
1
62
256
6
ByLayer
370
13
48
1
60
0
100
AcDbSpline
70
4
71
3
72
26
73
22
40
0
40
0
40
0
40
0
40
0.067071026383159
40
0.067071026383159
40
0.275360584656475
40
0.275360584656475
40
0.379505363793135
40
0.379505363793135
40
0.431577753361465
40
0.431577753361465
40
0.483650142929793
40
0.483650142929793
40
0.691939701203111
40
0.691939701203111
40
0.744012090771443
40
0.744012090771443
40
0.796084480339774
40
0.796084480339774
40
0.900229259476436
40
0.900229259476436
40
1
40
1
40
1
40
1
41
1
10
60.6265878751673
20
-6.90686726456414
30
0
41
1
10
60.1901863044729
20
-6.7861241374161
30
0
41
1
10
59.7544402868887
20
-6.65745812477144
30
0
41
1
10
57.9668064470284
20
-6.09836883392356
30
0
41
1
10
56.6177538423666
20
-5.60305184574761
30
0
41
1
10
54.5843282464257
20
-4.77042864968371
30
0
41
1
10
53.9049539235197
20
-4.4778792878048
30
0
41
1
10
52.8816295734881
20
-4.01930646503345
30
0
41
1
10
52.5395494614945
20
-3.86306136036634
30
0
41
1
10
51.8547141530963
20
-3.54495604427274
30
0
41
1
10
51.5127119033985
20
-3.38341608314028
30
0
41
1
10
49.8040141317766
20
-2.56466797468019
30
0
41
1
10
48.4410922913941
20
-1.8747322101654
30
0
41
1
10
46.7298291960787
20
-0.991868070011634
30
0
41
1
10
46.3871407337394
20
-0.814180934658452
30
0
41
1
10
45.7041204166675
20
-0.459087257596195
30
0
41
1
10
45.3633648334999
20
-0.281467629606055
30
0
41
1
10
44.3428230732493
20
0.250558543833137
30
0
41
1
10
43.6647195135793
20
0.604043047032491
30
0
41
1
10
42.3393746644172
20
1.28985352285491
30
0
41
1
10
41.6919734866154
20
1.62234471319093
30
0
41
1
10
41.044562207349
20
1.94974852684354
30
0
0
SPLINE
5
F4
100
AcDbEntity
8
1
62
256
6
ByLayer
370
18
48
1
60
0
100
AcDbSpline
70
4
71
3
72
20
73
16
40
0
40
0
40
0
40
0
40
0.249999999999991
40
0.249999999999991
40
0.374999999999991
40
0.374999999999991
40
0.499999999999991
40
0.499999999999991
40
0.749999999999997
40
0.749999999999997
40
0.812499999999998
40
0.812499999999998
40
0.875
40
0.875
40
1
40
1
40
1
40
1
41
1
10
266.937598288023
20
-8.25978683646554
30
0
41
1
10
266.758297831102
20
-8.23872716161642
30
0
41
1
10
266.592108116462
20
-8.17968861324184
30
0
41
1
10
266.364322144538
20
-8.02885417854461
30
0
41
1
10
266.291927242225
20
-7.96788833161048
30
0
41
1
10
266.15764277791
20
-7.82687039338924
30
0
41
1
10
266.095341936228
20
-7.74660918179725
30
0
41
1
10
265.923072295638
20
-7.47634983376452
30
0
41
1
10
265.827603112205
20
-7.25714443409876
30
0
41
1
10
265.73464009469
20
-6.93001236946321
30
0
41
1
10
265.717336978693
20
-6.86171310818474
30
0
41
1
10
265.68574456641
20
-6.72076265914305
30
0
41
1
10
265.67144044181
20
-6.64810943325972
30
0
41
1
10
265.632981947717
20
-6.4236483977424
30
0
41
1
10
265.613272517378
20
-6.26535228082659
30
0
41
1
10
265.599540430177
20
-6.09833099632871
30
0
0
SPLINE
5
F5
100
AcDbEntity
8
1
62
256
6
ByLayer
370
18
48
1
60
0
100
AcDbSpline
70
4
71
3
72
124
73
120
40
0
40
0
40
0
40
0
40
0.0093796011071357
40
0.0093796011071357
40
0.0247038485870004
40
0.0247038485870004
40
0.0400280960668651
40
0.0400280960668651
40
0.070676591026595
40
0.070676591026595
40
0.0860008385064603
40
0.0860008385064603
40
0.101325085986326
40
0.101325085986326
40
0.116649333466191
40
0.116649333466191
40
0.131973580946056
40
0.131973580946056
40
0.162622075905786
40
0.162622075905786
40
0.177946323385651
40
0.177946323385651
40
0.193270570865516
40
0.193270570865516
40
0.208594818345382
40
0.208594818345382
40
0.223919065825247
40
0.223919065825247
40
0.254567560784978
40
0.254567560784978
40
0.269891808264843
40
0.269891808264843
40
0.285216055744708
40
0.285216055744708
40
0.300540303224574
40
0.300540303224574
40
0.315864550704439
40
0.315864550704439
40
0.34651304566417
40
0.34651304566417
40
0.361837293144036
40
0.361837293144036
40
0.377161540623901
40
0.377161540623901
40
0.392485788103767
40
0.392485788103767
40
0.407810035583633
40
0.407810035583633
40
0.423134283063499
40
0.423134283063499
40
0.438458530543364
40
0.438458530543364
40
0.45378277802323
40
0.45378277802323
40
0.469107025503096
40
0.469107025503096
40
0.499755520462828
40
0.499755520462828
40
0.515079767942694
40
0.515079767942694
40
0.53040401542256
40
0.53040401542256
40
0.545728262902426
40
0.545728262902426
40
0.561052510382292
40
0.561052510382292
40
0.576376757862158
40
0.576376757862158
40
0.591701005342024
40
0.591701005342024
40
0.60702525282189
40
0.60702525282189
40
0.622349500301756
40
0.622349500301756
40
0.637673747781622
40
0.637673747781622
40
0.652997995261488
40
0.652997995261488
40
0.668322242741354
40
0.668322242741354
40
0.68364649022122
40
0.68364649022122
40
0.714294985180952
40
0.714294985180952
40
0.729619232660818
40
0.729619232660818
40
0.744943480140684
40
0.744943480140684
40
0.76026772762055
40
0.76026772762055
40
0.775591975100416
40
0.775591975100416
40
0.790916222580282
40
0.790916222580282
40
0.806240470060148
40
0.806240470060148
40
0.821564717540014
40
0.821564717540014
40
0.83688896501988
40
0.83688896501988
40
0.852213212499746
40
0.852213212499746
40
0.867537459979612
40
0.867537459979612
40
0.882861707459478
40
0.882861707459478
40
0.898185954939344
40
0.898185954939344
40
0.91351020241921
40
0.91351020241921
40
0.928834449899076
40
0.928834449899076
40
0.944158697378942
40
0.944158697378942
40
0.959482944858808
40
0.959482944858808
40
0.99013143981854
40
0.99013143981854
40
1
40
1
40
1
40
1
41
1
10
41.6352959817808
20
8.13028838031474
30
0
41
1
10
41.8265793227059
20
8.13033430035989
30
0
41
1
10
42.0179388327288
20
8.12846686728656
30
0
41
1
10
42.5220423076208
20
8.11818978952704
30
0
41
1
10
42.8342537694656
20
8.10658559436331
30
0
41
1
10
43.4580992982581
20
8.07418286004628
30
0
41
1
10
43.7699894961673
20
8.05361787261572
30
0
41
1
10
44.7057101581565
20
7.9780599669069
30
0
41
1
10
45.3290756969616
20
7.9070214128985
30
0
41
1
10
46.2640896684433
20
7.77252101964532
30
0
41
1
10
46.5759003845232
20
7.72353976984652
30
0
41
1
10
47.2004343546676
20
7.61679315656477
30
0
41
1
10
47.5131700081137
20
7.55790334756588
30
0
41
1
10
48.1386563393006
20
7.43133309562069
30
0
41
1
10
48.4509845251543
20
7.36358360137945
30
0
41
1
10
49.0749674672777
20
7.21946865680195
30
0
41
1
10
49.3866416236663
20
7.1433185113676
30
0
41
1
10
50.3221391475806
20
6.90285867669036
30
0
41
1
10
50.9456301758205
20
6.72410353495633
30
0
41
1
10
51.8808805463558
20
6.43317435252584
30
0
41
1
10
52.1925563287286
20
6.33233067430643
30
0
41
1
10
52.8169644034634
20
6.12327568644611
30
0
41
1
10
53.1297326020821
20
6.01478496960664
30
0
41
1
10
53.7552348565691
20
5.79057418855288
30
0
41
1
10
54.0676112504279
20
5.67497586601678
30
0
41
1
10
54.6917220930421
20
5.43724982185307
30
0
41
1
10
55.0033584911769
20
5.31504571493852
30
0
41
1
10
55.9384760569171
20
4.93977171639216
30
0
41
1
10
56.5621306809811
20
4.67741440978978
30
0
41
1
10
57.4976398945419
20
4.26747213976378
30
0
41
1
10
57.809457863062
20
4.12819960625421
30
0
41
1
10
58.4335651456333
20
3.84392927269047
30
0
41
1
10
58.746342662898
20
3.69928107326629
30
0
41
1
10
59.3718024131391
20
3.4059414249092
30
0
41
1
10
59.6842188043888
20
3.25731073008453
30
0
41
1
10
60.3084724091581
20
2.9564768245329
30
0
41
1
10
60.6203264471798
20
2.80441428376997
30
0
41
1
10
61.5550997654692
20
2.34200770375958
30
0
41
1
10
62.178680244178
20
2.02858303693168
30
0
41
1
10
63.1144585464692
20
1.55181807368456
30
0
41
1
10
63.4264207670957
20
1.39168830920357
30
0
41
1
10
64.0506244283196
20
1.06891627314317
30
0
41
1
10
64.3632140394496
20
0.906446889818625
30
0
41
1
10
64.9885956848892
20
0.581640669468896
30
0
41
1
10
65.3010679403193
20
0.419165614523081
30
0
41
1
10
65.9255011649239
20
0.0938778994086249
30
0
41
1
10
66.2374484358627
20
-0.0689640372288807
30
0
41
1
10
66.8607328082591
20
-0.394943963878887
30
0
41
1
10
67.172168612883
20
-0.557958794651228
30
0
41
1
10
67.7956630217882
20
-0.882089116535525
30
0
41
1
10
68.1075577621391
20
-1.04350423713387
30
0
41
1
10
68.7315497344917
20
-1.36532448671883
30
0
41
1
10
69.0436132480921
20
-1.52574312734603
30
0
41
1
10
69.6680200524894
20
-1.84524139266486
30
0
41
1
10
69.9805105978527
20
-2.00457550263997
30
0
41
1
10
70.9183553318381
20
-2.47688087953873
30
0
41
1
10
71.542922666038
20
-2.78546327594634
30
0
41
1
10
72.4780571300528
20
-3.23784738929234
30
0
41
1
10
72.7894411690721
20
-3.38707684764799
30
0
41
1
10
73.4127497245833
20
-3.68080429595105
30
0
41
1
10
73.7246543388532
20
-3.82535756990779
30
0
41
1
10
74.3487202452876
20
-4.11031665752313
30
0
41
1
10
74.6608585130891
20
-4.2502414978955
30
0
41
1
10
75.2854609510168
20
-4.52524349887088
30
0
41
1
10
75.5981005824939
20
-4.66065510051209
30
0
41
1
10
76.2229512993795
20
-4.92537674760138
30
0
41
1
10
76.5353780003538
20
-5.05450020229196
30
0
41
1
10
77.1598197469169
20
-5.30663152987015
30
0
41
1
10
77.4717843630944
20
-5.42913104246244
30
0
41
1
10
78.0953283469374
20
-5.66762516459934
30
0
41
1
10
78.4069042011708
20
-5.78366447760945
30
0
41
1
10
79.0299812383706
20
-6.00941730631098
30
0
41
1
10
79.3417785354533
20
-6.11890108645355
30
0
41
1
10
79.965803685454
20
-6.32996245879778
30
0
41
1
10
80.2780018518104
20
-6.43141670411151
30
0
41
1
10
80.9027667871503
20
-6.6265583553627
30
0
41
1
10
81.2155540969669
20
-6.72042621676431
30
0
41
1
10
81.8404098819828
20
-6.90074403496209
30
0
41
1
10
82.1526546613046
20
-6.98736082932416
30
0
41
1
10
82.7769981564796
20
-7.15092415345222
30
0
41
1
10
83.0889494306991
20
-7.2274592306498
30
0
41
1
10
84.0244229555543
20
-7.44487834539945
30
0
41
1
10
84.6470597996693
20
-7.57394869479944
30
0
41
1
10
85.5829606040449
20
-7.73850486766304
30
0
41
1
10
85.8951933658951
20
-7.78855966735824
30
0
41
1
10
86.5201074080784
20
-7.87931611306777
30
0
41
1
10
86.8330108246943
20
-7.92005688582231
30
0
41
1
10
87.4579400562189
20
-7.99247871904416
30
0
41
1
10
87.7699227728325
20
-8.02414346002681
30
0
41
1
10
88.3940203565401
20
-8.07710783353937
30
0
41
1
10
88.7059901236059
20
-8.09846675173856
30
0
41
1
10
89.3297248126957
20
-8.13153989943646
30
0
41
1
10
89.6414773807573
20
-8.14325392963116
30
0
41
1
10
90.2648422814439
20
-8.15756640150045
30
0
41
1
10
90.5763427276438
20
-8.16026765277658
30
0
41
1
10
91.2001123971718
20
-8.15549377057357
30
0
41
1
10
91.5123304416942
20
-8.14785517072102
30
0
41
1
10
92.1373142290362
20
-8.12256877597707
30
0
41
1
10
92.4502931366366
20
-8.10494247344454
30
0
41
1
10
93.0753310685047
20
-8.06084439219399
30
0
41
1
10
93.3873688129999
20
-8.03419362340171
30
0
41
1
10
94.0110303742489
20
-7.9698357711778
30
0
41
1
10
94.3229127746068
20
-7.93260284803074
30
0
41
1
10
94.9465752382436
20
-7.84935955655612
30
0
41
1
10
95.25835523633
20
-7.80312213666247
30
0
41
1
10
95.8817966683379
20
-7.70178917920239
30
0
41
1
10
96.1934397642287
20
-7.64670077983226
30
0
41
1
10
96.8168665888023
20
-7.52602879371801
30
0
41
1
10
97.1289790623246
20
-7.46095011083497
30
0
41
1
10
97.753923538697
20
-7.32217153055157
30
0
41
1
10
98.0669389266318
20
-7.24845667717165
30
0
41
1
10
98.6920286443839
20
-7.09330834790882
30
0
41
1
10
99.0041748396573
20
-7.01164924332693
30
0
41
1
10
99.6277439336793
20
-6.83876563352186
30
0
41
1
10
99.9393789807409
20
-6.74788392455611
30
0
41
1
10
100.874669675702
20
-6.46437514143881
30
0
41
1
10
101.498158354644
20
-6.26060576096504
30
0
41
1
10
102.322437350165
20
-5.97026646902174
30
0
41
1
10
102.523245413574
20
-5.89788740173321
30
0
41
1
10
102.724216327602
20
-5.82406588668758
30
0
0
SPLINE
5
F6
100
AcDbEntity
8
1
62
256
6
ByLayer
370
18
48
1
60
0
100
AcDbSpline
70
4
71
3
72
120
73
116
40
0
40
0
40
0
40
0
40
0.0132093867659724
40
0.0132093867659724
40
0.0284980358352212
40
0.0284980358352212
40
0.0437866849044704
40
0.0437866849044704
40
0.0590753339737193
40
0.0590753339737193
40
0.0743639830429685
40
0.0743639830429685
40
0.0896526321122173
40
0.0896526321122173
40
0.120229930250715
40
0.120229930250715
40
0.135518579319963
40
0.135518579319963
40
0.150807228389211
40
0.150807228389211
40
0.16609587745846
40
0.16609587745846
40
0.181384526527708
40
0.181384526527708
40
0.211961824666204
40
0.211961824666204
40
0.227250473735453
40
0.227250473735453
40
0.242539122804701
40
0.242539122804701
40
0.257827771873949
40
0.257827771873949
40
0.273116420943197
40
0.273116420943197
40
0.303693719081694
40
0.303693719081694
40
0.318982368150943
40
0.318982368150943
40
0.334271017220192
40
0.334271017220192
40
0.349559666289441
40
0.349559666289441
40
0.364848315358691
40
0.364848315358691
40
0.395425613497187
40
0.395425613497187
40
0.410714262566435
40
0.410714262566435
40
0.426002911635683
40
0.426002911635683
40
0.44129156070493
40
0.44129156070493
40
0.456580209774178
40
0.456580209774178
40
0.487157507912675
40
0.487157507912675
40
0.502446156981923
40
0.502446156981923
40
0.517734806051171
40
0.517734806051171
40
0.548312104189667
40
0.548312104189667
40
0.563600753258915
40
0.563600753258915
40
0.578889402328162
40
0.578889402328162
40
0.59417805139741
40
0.59417805139741
40
0.609466700466658
40
0.609466700466658
40
0.624755349535906
40
0.624755349535906
40
0.640043998605153
40
0.640043998605153
40
0.655332647674401
40
0.655332647674401
40
0.670621296743649
40
0.670621296743649
40
0.685909945812897
40
0.685909945812897
40
0.701198594882144
40
0.701198594882144
40
0.716487243951392
40
0.716487243951392
40
0.73177589302064
40
0.73177589302064
40
0.747064542089887
40
0.747064542089887
40
0.762353191159136
40
0.762353191159136
40
0.79293048929763
40
0.79293048929763
40
0.808219138366877
40
0.808219138366877
40
0.823507787436125
40
0.823507787436125
40
0.838796436505372
40
0.838796436505372
40
0.854085085574619
40
0.854085085574619
40
0.884662383713115
40
0.884662383713115
40
0.899951032782362
40
0.899951032782362
40
0.915239681851609
40
0.915239681851609
40
0.930528330920857
40
0.930528330920857
40
0.945816979990104
40
0.945816979990104
40
0.976394278128599
40
0.976394278128599
40
0.991682927197847
40
0.991682927197847
40
1
40
1
40
1
40
1
41
1
10
139.662345431579
20
8.18888455737459
30
0
41
1
10
139.931267654335
20
8.1887388257978
30
0
41
1
10
140.200099777422
20
8.18475335200742
30
0
41
1
10
140.78000812652
20
8.16803076438796
30
0
41
1
10
141.091043972387
20
8.15401778640702
30
0
41
1
10
141.7141102886
20
8.11699177528635
30
0
41
1
10
142.025973858378
20
8.09443552472283
30
0
41
1
10
142.650246796118
20
8.03836360680077
30
0
41
1
10
142.962511550944
20
8.00474965570578
30
0
41
1
10
143.584885555657
20
7.92869035930826
30
0
41
1
10
143.895240754843
20
7.88590957558034
30
0
41
1
10
144.515529714415
20
7.79202748677071
30
0
41
1
10
144.82540848868
20
7.74118519477099
30
0
41
1
10
145.753577641171
20
7.57366400434765
30
0
41
1
10
146.370228507965
20
7.44227912911219
30
0
41
1
10
147.294303334264
20
7.2212685840168
30
0
41
1
10
147.60247379492
20
7.14413406688846
30
0
41
1
10
148.218656172396
20
6.98112135249002
30
0
41
1
10
148.526676742952
20
6.89494075023171
30
0
41
1
10
149.142669544213
20
6.7143587977597
30
0
41
1
10
149.450634824769
20
6.61996235821778
30
0
41
1
10
150.066782106996
20
6.42404713062393
30
0
41
1
10
150.375237719194
20
6.32311967098417
30
0
41
1
10
151.301756276503
20
6.00668440660547
30
0
41
1
10
151.920765023465
20
5.78014312482728
30
0
41
1
10
152.851546289174
20
5.41983388468233
30
0
41
1
10
153.162332897954
20
5.29654345781861
30
0
41
1
10
153.785709236546
20
5.04288420460924
30
0
41
1
10
154.098349911657
20
4.91234415621017
30
0
41
1
10
154.722210893663
20
4.64608895933904
30
0
41
1
10
155.03377750201
20
4.51013231109002
30
0
41
1
10
155.656366061155
20
4.23311091167625
30
0
41
1
10
155.967424370822
20
4.0922709136878
30
0
41
1
10
156.901085885763
20
3.66285116489968
30
0
41
1
10
157.523628652717
20
3.36713621350214
30
0
41
1
10
158.457699565352
20
2.91147490340555
30
0
41
1
10
158.769034605755
20
2.75739086338751
30
0
41
1
10
159.392884389021
20
2.44658372008337
30
0
41
1
10
159.705406294853
20
2.28951664115118
30
0
41
1
10
160.329400555614
20
1.97331611476406
30
0
41
1
10
160.64108459066
20
1.81406539265612
30
0
41
1
10
161.263908509161
20
1.49347693951603
30
0
41
1
10
161.574890365147
20
1.33177951027653
30
0
41
1
10
162.50819994823
20
0.845470088268144
30
0
41
1
10
163.130903533325
20
0.519802118467624
30
0
41
1
10
164.065251579747
20
0.0286876827932758
30
0
41
1
10
164.376711963902
20
-0.135560637673365
30
0
41
1
10
165.000268171466
20
-0.464165558604719
30
0
41
1
10
165.312735997249
20
-0.627979549964721
30
0
41
1
10
165.936713346214
20
-0.954088610639673
30
0
41
1
10
166.248493007556
20
-1.11649633326803
30
0
41
1
10
166.871504489243
20
-1.44015951535829
30
0
41
1
10
167.182642171408
20
-1.6013252941998
30
0
41
1
10
168.115660755778
20
-2.08206680438516
30
0
41
1
10
168.738392220397
20
-2.39664088957039
30
0
41
1
10
169.673062001328
20
-2.86092938094757
30
0
41
1
10
169.984695826148
20
-3.01430824984826
30
0
41
1
10
170.608378872826
20
-3.3178260774919
30
0
41
1
10
170.920607473823
20
-3.46778358668888
30
0
41
1
10
171.856398572048
20
-3.90942313348842
30
0
41
1
10
172.479474600001
20
-4.19495834934199
30
0
41
1
10
173.412671402504
20
-4.60749956422265
30
0
41
1
10
173.723589117666
20
-4.74245873717499
30
0
41
1
10
174.346159903664
20
-5.00601661576923
30
0
41
1
10
174.657653874587
20
-5.13492683660729
30
0
41
1
10
175.280909205226
20
-5.38689599994873
30
0
41
1
10
175.592661230178
20
-5.50984513900383
30
0
41
1
10
176.216555761524
20
-5.7493293035736
30
0
41
1
10
176.52860413257
20
-5.86602853350962
30
0
41
1
10
177.152281038491
20
-6.09140348159173
30
0
41
1
10
177.464023997075
20
-6.20049143011042
30
0
41
1
10
178.087107721821
20
-6.41111720838251
30
0
41
1
10
178.398387870202
20
-6.5121868619191
30
0
41
1
10
179.020647501843
20
-6.70667241515025
30
0
41
1
10
179.331511549664
20
-6.8001377902624
30
0
41
1
10
179.953840164056
20
-6.97882265345939
30
0
41
1
10
180.265315111434
20
-7.06453685777367
30
0
41
1
10
180.888604573429
20
-7.22665756658526
30
0
41
1
10
181.200436526297
20
-7.30305190668327
30
0
41
1
10
181.82453867297
20
-7.44743897431934
30
0
41
1
10
182.136662327841
20
-7.51542091879739
30
0
41
1
10
182.759999937394
20
-7.64273108915077
30
0
41
1
10
183.071714663938
20
-7.70198928835009
30
0
41
1
10
183.694775343535
20
-7.81066151930912
30
0
41
1
10
184.006134660067
20
-7.85990866649914
30
0
41
1
10
184.628587707753
20
-7.94911572077856
30
0
41
1
10
184.939679091849
20
-7.98913429594614
30
0
41
1
10
185.561870052285
20
-8.0604266568688
30
0
41
1
10
185.873243251509
20
-8.09192836570026
30
0
41
1
10
186.808232791368
20
-8.16901885089106
30
0
41
1
10
187.433378873117
20
-8.1998729571163
30
0
41
1
10
188.368346715095
20
-8.21883250435363
30
0
41
1
10
188.679782439911
20
-8.2205640305344
30
0
41
1
10
189.302664569435
20
-8.21290225422194
30
0
41
1
10
189.61403312689
20
-8.20391723742893
30
0
41
1
10
190.236599890025
20
-8.17661345685397
30
0
41
1
10
190.547793725551
20
-8.15831336141869
30
0
41
1
10
191.170118833654
20
-8.1124233475349
30
0
41
1
10
191.481249825973
20
-8.08448026431964
30
0
41
1
10
192.416112824361
20
-7.98504433757157
30
0
41
1
10
193.041470852352
20
-7.89861886468069
30
0
41
1
10
193.976660969682
20
-7.74436402316044
30
0
41
1
10
194.287882458376
20
-7.68797714839681
30
0
41
1
10
194.91049434713
20
-7.56493364251523
30
0
41
1
10
195.221825797597
20
-7.49911126393107
30
0
41
1
10
195.844408286848
20
-7.35862304059151
30
0
41
1
10
196.155654123868
20
-7.28399548833991
30
0
41
1
10
196.778124679696
20
-7.12699009154969
30
0
41
1
10
197.089204105953
20
-7.04351968151656
30
0
41
1
10
198.023732512606
20
-6.77997209608569
30
0
41
1
10
198.649247386408
20
-6.58767392360085
30
0
41
1
10
199.584470528121
20
-6.27747302445832
30
0
41
1
10
199.895776830511
20
-6.17003596243038
30
0
41
1
10
200.376208586647
20
-5.99830823774445
30
0
41
1
10
200.545523363927
20
-5.93682439025474
30
0
41
1
10
200.714859960719
20
-5.87438921416682
30
0
0
SPLINE
5
F7
100
AcDbEntity
8
1
62
256
6
ByLayer
370
18
48
1
60
0
100
AcDbSpline
70
4
71
3
72
40
73
36
40
0
40
0
40
0
40
0
40
0.0381242175888679
40
0.0381242175888679
40
0.125567470535329
40
0.125567470535329
40
0.21301072348179
40
0.21301072348179
40
0.256732349955025
40
0.256732349955025
40
0.300453976428258
40
0.300453976428258
40
0.344175602901492
40
0.344175602901492
40
0.387897229374726
40
0.387897229374726
40
0.43161885584796
40
0.43161885584796
40
0.475340482321194
40
0.475340482321194
40
0.519062108794427
40
0.519062108794427
40
0.562783735267661
40
0.562783735267661
40
0.606505361740895
40
0.606505361740895
40
0.650226988214129
40
0.650226988214129
40
0.737670241160596
40
0.737670241160596
40
0.825113494107064
40
0.825113494107064
40
0.912556747053531
40
0.912556747053531
40
1
40
1
40
1
40
1
41
1
10
237.60961011287
20
8.248291944204
30
0
41
1
10
237.8813175611
20
8.24931125501303
30
0
41
1
10
238.152834901877
20
8.24594610015362
30
0
41
1
10
239.045734150883
20
8.2222719803847
30
0
41
1
10
239.667158190581
20
8.18600790645027
30
0
41
1
10
240.909586691574
20
8.07478251179788
30
0
41
1
10
241.529986630029
20
7.99921908328787
30
0
41
1
10
242.463057287645
20
7.85889092277262
30
0
41
1
10
242.774416198446
20
7.80791620901934
30
0
41
1
10
243.397688881712
20
7.69613179333459
30
0
41
1
10
243.708992372618
20
7.63509916614223
30
0
41
1
10
244.330697684013
20
7.50388237610287
30
0
41
1
10
244.641122460859
20
7.43364526471484
30
0
41
1
10
245.262337710471
20
7.28528286413348
30
0
41
1
10
245.572981113128
20
7.20711896244123
30
0
41
1
10
246.19417060834
20
7.04200921257035
30
0
41
1
10
246.504701238582
20
6.95490756038933
30
0
41
1
10
247.125762438872
20
6.77226230433595
30
0
41
1
10
247.436185199694
20
6.67669917076594
30
0
41
1
10
248.057957890564
20
6.47847793234479
30
0
41
1
10
248.369306801632
20
6.3759038923923
30
0
41
1
10
248.99252226384
20
6.16221070714479
30
0
41
1
10
249.303694153805
20
6.05131162585454
30
0
41
1
10
249.92536183809
20
5.82239929838792
30
0
41
1
10
250.235810322025
20
5.70438642915855
30
0
41
1
10
250.856578041579
20
5.46229546143792
30
0
41
1
10
251.167124118872
20
5.33840637798272
30
0
41
1
10
252.098729678035
20
4.95682279032843
30
0
41
1
10
252.719747616303
20
4.68961247743982
30
0
41
1
10
253.96272276675
20
4.13260455777967
30
0
41
1
10
254.586575133996
20
3.84428745612863
30
0
41
1
10
255.829940524518
20
3.25056314198531
30
0
41
1
10
256.450060409369
20
2.94485515537451
30
0
41
1
10
257.691815147744
20
2.3224328558949
30
0
41
1
10
258.312982154614
20
2.00494504261314
30
0
41
1
10
258.934586092696
20
1.68224231376237
30
0
0
SPLINE
5
F8
100
AcDbEntity
8
1
62
256
6
ByLayer
370
13
48
1
60
0
100
AcDbSpline
70
4
71
3
72
8
73
4
40
0
40
0
40
0
40
0
40
1
40
1
40
1
40
1
41
1
10
6.25026388839737
20
-5.02397463794165
30
0
41
1
10
6.20954664578875
20
-5.01398521956608
30
0
41
1
10
6.16980358535872
20
-5.01030521905463
30
0
41
1
10
6.13340677369318
20
-5.01326008226013
30
0
0
SPLINE
5
F9
100
AcDbEntity
8
1
62
256
6
ByLayer
370
18
48
1
60
0
100
AcDbSpline
70
4
71
3
72
124
73
120
40
0
40
0
40
0
40
0
40
0.0012858301990238
40
0.0012858301990238
40
0.0165931977582083
40
0.0165931977582083
40
0.0319005653173927
40
0.0319005653173927
40
0.0472079328765772
40
0.0472079328765772
40
0.0625153004357617
40
0.0625153004357617
40
0.0778226679949462
40
0.0778226679949462
40
0.0931300355541306
40
0.0931300355541306
40
0.108437403113315
40
0.108437403113315
40
0.1237447706725
40
0.1237447706725
40
0.154359505790868
40
0.154359505790868
40
0.169666873350054
40
0.169666873350054
40
0.18497424090924
40
0.18497424090924
40
0.200281608468425
40
0.200281608468425
40
0.215588976027611
40
0.215588976027611
40
0.246203711145984
40
0.246203711145984
40
0.26151107870517
40
0.26151107870517
40
0.276818446264357
40
0.276818446264357
40
0.292125813823544
40
0.292125813823544
40
0.30743318138273
40
0.30743318138273
40
0.322740548941917
40
0.322740548941917
40
0.338047916501103
40
0.338047916501103
40
0.368662651619476
40
0.368662651619476
40
0.383970019178663
40
0.383970019178663
40
0.39927738673785
40
0.39927738673785
40
0.414584754297036
40
0.414584754297036
40
0.429892121856223
40
0.429892121856223
40
0.445199489415409
40
0.445199489415409
40
0.460506856974596
40
0.460506856974596
40
0.475814224533782
40
0.475814224533782
40
0.491121592092969
40
0.491121592092969
40
0.506428959652155
40
0.506428959652155
40
0.521736327211342
40
0.521736327211342
40
0.552351062329713
40
0.552351062329713
40
0.567658429888897
40
0.567658429888897
40
0.582965797448082
40
0.582965797448082
40
0.598273165007266
40
0.598273165007266
40
0.613580532566451
40
0.613580532566451
40
0.628887900125635
40
0.628887900125635
40
0.64419526768482
40
0.64419526768482
40
0.659502635244004
40
0.659502635244004
40
0.674810002803189
40
0.674810002803189
40
0.705424737921558
40
0.705424737921558
40
0.720732105480741
40
0.720732105480741
40
0.736039473039924
40
0.736039473039924
40
0.766654208158291
40
0.766654208158291
40
0.781961575717476
40
0.781961575717476
40
0.79726894327666
40
0.79726894327666
40
0.812576310835845
40
0.812576310835845
40
0.827883678395029
40
0.827883678395029
40
0.858498413513398
40
0.858498413513398
40
0.873805781072583
40
0.873805781072583
40
0.889113148631767
40
0.889113148631767
40
0.904420516190952
40
0.904420516190952
40
0.919727883750136
40
0.919727883750136
40
0.950342618868504
40
0.950342618868504
40
0.965649986427688
40
0.965649986427688
40
0.980957353986871
40
0.980957353986871
40
0.996264721546055
40
0.996264721546055
40
1
40
1
40
1
40
1
41
1
10
249.673222969169
20
-5.9151987870639
30
0
41
1
10
249.647082090251
20
-5.92486337430674
30
0
41
1
10
249.620941487728
20
-5.93450202745669
30
0
41
1
10
249.283607383804
20
-6.05854712679698
30
0
41
1
10
248.972477175942
20
-6.16925393974211
30
0
41
1
10
248.350245966817
20
-6.38225858978689
30
0
41
1
10
248.039138437196
20
-6.48461032038108
30
0
41
1
10
247.417213117043
20
-6.68260640414832
30
0
41
1
10
247.106402806193
20
-6.77813023673139
30
0
41
1
10
246.483964302419
20
-6.96081984522664
30
0
41
1
10
246.172434480198
20
-7.04799807874727
30
0
41
1
10
245.548593001281
20
-7.21337349496378
30
0
41
1
10
245.236230662227
20
-7.29174501489155
30
0
41
1
10
244.612839359361
20
-7.44015218599833
30
0
41
1
10
244.30172122157
20
-7.51027779393806
30
0
41
1
10
243.679420881656
20
-7.64103325819096
30
0
41
1
10
243.368313282135
20
-7.70170119839639
30
0
41
1
10
242.7459983488
20
-7.81268274375356
30
0
41
1
10
242.434808809474
20
-7.86339654708038
30
0
41
1
10
241.501436779299
20
-8.00296154254488
30
0
41
1
10
240.879635719423
20
-8.0781365663922
30
0
41
1
10
239.94383425865
20
-8.16087569514488
30
0
41
1
10
239.631464881781
20
-8.18350818662535
30
0
41
1
10
239.007953717295
20
-8.21898715111311
30
0
41
1
10
238.696690089566
20
-8.23192044211297
30
0
41
1
10
238.074546867361
20
-8.24757612660346
30
0
41
1
10
237.76352392979
20
-8.25029547372338
30
0
41
1
10
237.141230862512
20
-8.24412713642195
30
0
41
1
10
236.829995972642
20
-8.23624756009733
30
0
41
1
10
235.896299434041
20
-8.19976946318383
30
0
41
1
10
235.274400900456
20
-8.15716162636701
30
0
41
1
10
234.33879822383
20
-8.06440293756125
30
0
41
1
10
234.0265473304
20
-8.0287180859566
30
0
41
1
10
233.403133552728
20
-7.94765229691961
30
0
41
1
10
233.09171685931
20
-7.90224750935869
30
0
41
1
10
232.469723201388
20
-7.80090428894732
30
0
41
1
10
232.158873281269
20
-7.74481111932684
30
0
41
1
10
231.536824195567
20
-7.62365149603067
30
0
41
1
10
231.225737582933
20
-7.55944781445015
30
0
41
1
10
230.603385714806
20
-7.42226358397113
30
0
41
1
10
230.292120679861
20
-7.34930566518281
30
0
41
1
10
229.669536402874
20
-7.19399282104075
30
0
41
1
10
229.358247620254
20
-7.11167074066654
30
0
41
1
10
228.422729422721
20
-6.8528007751851
30
0
41
1
10
227.79883105836
20
-6.66475384792923
30
0
41
1
10
226.865424716817
20
-6.35852537050997
30
0
41
1
10
226.554700059957
20
-6.25165802029775
30
0
41
1
10
225.93281748526
20
-6.03083413748178
30
0
41
1
10
225.62178959672
20
-5.9175150652726
30
0
41
1
10
224.999461561686
20
-5.68442156778306
30
0
41
1
10
224.68816727077
20
-5.56462079672181
30
0
41
1
10
224.065318209592
20
-5.31763300330906
30
0
41
1
10
223.753887991944
20
-5.19011203309731
30
0
41
1
10
223.130210910313
20
-4.92935640263619
30
0
41
1
10
222.818257977928
20
-4.79624547058918
30
0
41
1
10
222.195020210791
20
-4.52519799058425
30
0
41
1
10
221.883586662731
20
-4.38728477442487
30
0
41
1
10
221.26113369205
20
-4.1056984419142
30
0
41
1
10
220.950210012355
20
-3.96184721000267
30
0
41
1
10
220.32848983713
20
-3.66983844940341
30
0
41
1
10
220.017548405698
20
-3.52193004009959
30
0
41
1
10
219.395256442913
20
-3.22232992122858
30
0
41
1
10
219.083928217353
20
-3.07072334079316
30
0
41
1
10
218.46083523083
20
-2.76337772722698
30
0
41
1
10
218.148976586525
20
-2.6073478680139
30
0
41
1
10
217.213265334072
20
-2.13404084637119
30
0
41
1
10
216.591167409169
20
-1.81509876263067
30
0
41
1
10
215.661299700044
20
-1.33312297705913
30
0
41
1
10
215.351830254924
20
-1.17184556289024
30
0
41
1
10
214.73411136116
20
-0.847477864496057
30
0
41
1
10
214.425654403217
20
-0.6847916152675
30
0
41
1
10
213.808890601318
20
-0.359741858369176
30
0
41
1
10
213.500644302511
20
-0.197255600711344
30
0
41
1
10
212.884326770238
20
0.12739015929364
30
0
41
1
10
212.576260316998
20
0.289575813668165
30
0
41
1
10
211.960526549876
20
0.614189352251628
30
0
41
1
10
211.652935294827
20
0.776744164773987
30
0
41
1
10
211.037109728801
20
1.10001641743151
30
0
41
1
10
210.729018942689
20
1.26103585424815
30
0
41
1
10
210.112069386837
20
1.5808552804358
30
0
41
1
10
209.803228059478
20
1.7397106204404
30
0
41
1
10
209.185333600846
20
2.05653801549067
30
0
41
1
10
208.876380238955
20
2.21466334119532
30
0
41
1
10
207.947735380601
20
2.6847018082598
30
0
41
1
10
207.326015374747
20
2.99174713894055
30
0
41
1
10
206.389948902709
20
3.44389036499291
30
0
41
1
10
206.078011852557
20
3.59327460314634
30
0
41
1
10
205.455108874064
20
3.88690479615084
30
0
41
1
10
205.14380819987
20
4.03093239115711
30
0
41
1
10
204.209988975965
20
4.45420149792494
30
0
41
1
10
203.587700973656
20
4.72610826218994
30
0
41
1
10
202.654922627066
20
5.11867102369715
30
0
41
1
10
202.343808333034
20
5.24644688543378
30
0
41
1
10
201.720666019574
20
5.49378729770399
30
0
41
1
10
201.408769620267
20
5.6143564629331
30
0
41
1
10
200.784472507554
20
5.84972905582032
30
0
41
1
10
200.472279741117
20
5.96428795191952
30
0
41
1
10
199.849344266305
20
6.18626248744181
30
0
41
1
10
199.538099444199
20
6.29321393283135
30
0
41
1
10
198.604328604685
20
6.60176629438348
30
0
41
1
10
197.981826643944
20
6.79246725982432
30
0
41
1
10
197.048701228502
20
7.05456873278379
30
0
41
1
10
196.737685671451
20
7.13754606034817
30
0
41
1
10
196.114679483043
20
7.29392443343698
30
0
41
1
10
195.80289287306
20
7.36836796835269
30
0
41
1
10
195.178586680945
20
7.50843663547394
30
0
41
1
10
194.866355622819
20
7.57405617190898
30
0
41
1
10
194.243120697426
20
7.69636240228158
30
0
41
1
10
193.932041798113
20
7.75209522751067
30
0
41
1
10
192.998484711186
20
7.90488116818656
30
0
41
1
10
192.3761024312
20
7.9901215805458
30
0
41
1
10
191.442540413675
20
8.08814679763387
30
0
41
1
10
191.1315009537
20
8.11564761644041
30
0
41
1
10
190.508666174043
20
8.16077178734014
30
0
41
1
10
190.196919223247
20
8.17873869984533
30
0
41
1
10
189.572644744012
20
8.2052939771973
30
0
41
1
10
189.260433253135
20
8.21386279019333
30
0
41
1
10
188.872690148189
20
8.21804345198407
30
0
41
1
10
188.796661774029
20
8.21852936772996
30
0
41
1
10
188.720656842923
20
8.21869808627949
30
0
0
SPLINE
5
FA
100
AcDbEntity
8
1
62
256
6
ByLayer
370
18
48
1
60
0
100
AcDbSpline
70
4
71
3
72
114
73
110
40
0
40
0
40
0
40
0
40
0.0163534714392606
40
0.0163534714392606
40
0.0316655330534529
40
0.0316655330534529
40
0.0469775946676451
40
0.0469775946676451
40
0.0622896562818371
40
0.0622896562818371
40
0.0776017178960294
40
0.0776017178960294
40
0.108225841124414
40
0.108225841124414
40
0.123537902738606
40
0.123537902738606
40
0.138849964352798
40
0.138849964352798
40
0.15416202596699
40
0.15416202596699
40
0.169474087581182
40
0.169474087581182
40
0.184786149195374
40
0.184786149195374
40
0.200098210809566
40
0.200098210809566
40
0.215410272423759
40
0.215410272423759
40
0.230722334037951
40
0.230722334037951
40
0.261346457266334
40
0.261346457266334
40
0.291970580494718
40
0.291970580494718
40
0.322594703723101
40
0.322594703723101
40
0.353218826951485
40
0.353218826951485
40
0.368530888565676
40
0.368530888565676
40
0.383842950179868
40
0.383842950179868
40
0.41446707340825
40
0.41446707340825
40
0.429779135022441
40
0.429779135022441
40
0.445091196636632
40
0.445091196636632
40
0.460403258250823
40
0.460403258250823
40
0.475715319865014
40
0.475715319865014
40
0.506339443093397
40
0.506339443093397
40
0.521651504707589
40
0.521651504707589
40
0.53696356632178
40
0.53696356632178
40
0.552275627935972
40
0.552275627935972
40
0.567587689550163
40
0.567587689550163
40
0.598211812778545
40
0.598211812778545
40
0.613523874392736
40
0.613523874392736
40
0.628835936006927
40
0.628835936006927
40
0.644147997621117
40
0.644147997621117
40
0.659460059235308
40
0.659460059235308
40
0.674772120849498
40
0.674772120849498
40
0.690084182463689
40
0.690084182463689
40
0.70539624407788
40
0.70539624407788
40
0.72070830569207
40
0.72070830569207
40
0.751332428920452
40
0.751332428920452
40
0.766644490534643
40
0.766644490534643
40
0.781956552148834
40
0.781956552148834
40
0.797268613763026
40
0.797268613763026
40
0.812580675377217
40
0.812580675377217
40
0.843204798605599
40
0.843204798605599
40
0.85851686021979
40
0.85851686021979
40
0.873828921833981
40
0.873828921833981
40
0.904453045062364
40
0.904453045062364
40
0.919765106676556
40
0.919765106676556
40
0.935077168290747
40
0.935077168290747
40
0.950389229904939
40
0.950389229904939
40
0.96570129151913
40
0.96570129151913
40
0.996325414747512
40
0.996325414747512
40
1
40
1
40
1
40
1
41
1
10
151.670845902399
20
-5.86808927870797
30
0
41
1
10
151.341829867765
20
-5.98871314031547
30
0
41
1
10
151.012882644742
20
-6.10534494195568
30
0
41
1
10
150.375982255187
20
-6.32286436456735
30
0
41
1
10
150.068024092607
20
-6.42364104830418
30
0
41
1
10
149.452377148873
20
-6.61941947099336
30
0
41
1
10
149.144394430192
20
-6.713840576699
30
0
41
1
10
148.527771498944
20
-6.89463231917787
30
0
41
1
10
148.219137408216
20
-6.98099877207099
30
0
41
1
10
147.601050778447
20
-7.14450579071271
30
0
41
1
10
147.291612510498
20
-7.22194608152569
30
0
41
1
10
146.362933797312
20
-7.44395523354564
30
0
41
1
10
145.742061338169
20
-7.57610565711676
30
0
41
1
10
144.805559794086
20
-7.74457848525989
30
0
41
1
10
144.493183977243
20
-7.79561683365512
30
0
41
1
10
143.869781787285
20
-7.88953904821133
30
0
41
1
10
143.558587053981
20
-7.93216148997055
30
0
41
1
10
142.936019633613
20
-8.00770717970636
30
0
41
1
10
142.624767650351
20
-8.040942701153
30
0
41
1
10
142.002129552158
20
-8.09626268834182
30
0
41
1
10
141.690748363964
20
-8.11859382133198
30
0
41
1
10
141.068143359538
20
-8.15514842658439
30
0
41
1
10
140.757054034367
20
-8.16893362390027
30
0
41
1
10
140.13407099746
20
-8.18639770820866
30
0
41
1
10
139.822217884828
20
-8.19006623764176
30
0
41
1
10
139.197607639384
20
-8.18704537519173
30
0
41
1
10
138.885188550934
20
-8.18054392370217
30
0
41
1
10
138.261431987752
20
-8.15859277849739
30
0
41
1
10
137.950073084531
20
-8.14295336072249
30
0
41
1
10
137.016211840493
20
-8.080894940565
30
0
41
1
10
136.393458223313
20
-8.01840212862882
30
0
41
1
10
135.147659514762
20
-7.85920142937889
30
0
41
1
10
134.525323941391
20
-7.76136405906482
30
0
41
1
10
133.275690862843
20
-7.52345142116704
30
0
41
1
10
132.651189814102
20
-7.38867194531883
30
0
41
1
10
131.405767842523
20
-7.08209132438375
30
0
41
1
10
130.782993133948
20
-6.91090247644749
30
0
41
1
10
129.848164296787
20
-6.63238505465117
30
0
41
1
10
129.536458003751
20
-6.53561965087906
30
0
41
1
10
128.913060056506
20
-6.33304264158292
30
0
41
1
10
128.601150359664
20
-6.22734995382083
30
0
41
1
10
127.663673435628
20
-5.89924899411545
30
0
41
1
10
127.039177963802
20
-5.66837500738814
30
0
41
1
10
126.104448630526
20
-5.30125988098666
30
0
41
1
10
125.793212840893
20
-5.17476667488731
30
0
41
1
10
125.17025756726
20
-4.91674979658342
30
0
41
1
10
124.858684152737
20
-4.785281196726
30
0
41
1
10
124.235239670067
20
-4.51688824516654
30
0
41
1
10
123.923379318421
20
-4.37994673120218
30
0
41
1
10
123.299392641251
20
-4.10000466508501
30
0
41
1
10
122.987395642292
20
-3.95670010292977
30
0
41
1
10
122.049865080524
20
-3.52074398143307
30
0
41
1
10
121.425599375216
20
-3.22330553829062
30
0
41
1
10
120.490430227165
20
-2.76539591508975
30
0
41
1
10
120.17905449752
20
-2.6104629965719
30
0
41
1
10
119.556165230917
20
-2.2982107906974
30
0
41
1
10
119.244614535042
20
-2.14094671331938
30
0
41
1
10
118.62111482613
20
-1.82424084385755
30
0
41
1
10
118.309194577579
20
-1.66484075576139
30
0
41
1
10
117.684917463147
20
-1.34355307625683
30
0
41
1
10
117.372545547091
20
-1.18142858475622
30
0
41
1
10
116.435132262546
20
-0.692749622424742
30
0
41
1
10
115.8110230471
20
-0.366317221101298
30
0
41
1
10
114.875551929305
20
0.123016452018561
30
0
41
1
10
114.563895481664
20
0.28618548343519
30
0
41
1
10
113.941040533181
20
0.612932886703845
30
0
41
1
10
113.629536738247
20
0.77592054707273
30
0
41
1
10
113.006026426673
20
1.10041643599021
30
0
41
1
10
112.694028311956
20
1.26194126110164
30
0
41
1
10
112.069456799082
20
1.58333658347325
30
0
41
1
10
111.75676152113
20
1.74325806497444
30
0
41
1
10
111.131827178657
20
2.06233970179809
30
0
41
1
10
110.819750842998
20
2.22065882257948
30
0
41
1
10
110.195706304606
20
2.53365357736396
30
0
41
1
10
109.883809633334
20
2.68851473602194
30
0
41
1
10
109.260103258937
20
2.99352170263524
30
0
41
1
10
108.948326778527
20
3.1442993409008
30
0
41
1
10
108.325185743226
20
3.44315523447059
30
0
41
1
10
108.013855756495
20
3.59118247696924
30
0
41
1
10
107.078716796841
20
4.02711012104805
30
0
41
1
10
106.453544529495
20
4.30680649962022
30
0
41
1
10
105.515722498568
20
4.7133775857169
30
0
41
1
10
105.203744773894
20
4.84664732243431
30
0
41
1
10
104.579856911959
20
5.10618556041936
30
0
41
1
10
104.268005683838
20
5.23247242136915
30
0
41
1
10
103.644332780083
20
5.47796341305116
30
0
41
1
10
103.33254198949
20
5.59765041082034
30
0
41
1
10
102.709159226684
20
5.83061369543873
30
0
41
1
10
102.397718727258
20
5.94403591254505
30
0
41
1
10
101.462616403986
20
6.27250053521203
30
0
41
1
10
100.837484126762
20
6.4762538643464
30
0
41
1
10
99.8995444127
20
6.75962601004568
30
0
41
1
10
99.5874385469531
20
6.85032083977524
30
0
41
1
10
98.9637214877748
20
7.02243165744326
30
0
41
1
10
98.6519462072862
20
7.10357992867966
30
0
41
1
10
97.7165720608059
20
7.33470688397622
30
0
41
1
10
97.0930490869848
20
7.47329301170069
30
0
41
1
10
96.1581273341394
20
7.65314296753846
30
0
41
1
10
95.8461892417019
20
7.70789673962057
30
0
41
1
10
95.2215943627254
20
7.80873785082449
30
0
41
1
10
94.9087227848082
20
7.85476709773579
30
0
41
1
10
94.2834189613476
20
7.93747225989549
30
0
41
1
10
93.9711001236676
20
7.9743818230173
30
0
41
1
10
93.3474402613113
20
8.03783048163524
30
0
41
1
10
93.0358146667059
20
8.0639869813686
30
0
41
1
10
92.1006852132979
20
8.12882849964402
30
0
41
1
10
91.4770998457754
20
8.15410816957959
30
0
41
1
10
90.778637071782
20
8.15860773905564
30
0
41
1
10
90.7038089580383
20
8.15879884342351
30
0
41
1
10
90.6289755567682
20
8.15870698784676
30
0
0
SPLINE
5
FB
100
AcDbEntity
8
1
62
256
6
ByLayer
370
18
48
1
60
0
100
AcDbSpline
70
4
71
3
72
72
73
68
40
0
40
0
40
0
40
0
40
0.0072799827052712
40
0.0072799827052712
40
0.0348555387412355
40
0.0348555387412355
40
0.0624310947772005
40
0.0624310947772005
40
0.0900066508131648
40
0.0900066508131648
40
0.117582206849129
40
0.117582206849129
40
0.145157762885094
40
0.145157762885094
40
0.172733318921058
40
0.172733318921058
40
0.200308874957023
40
0.200308874957023
40
0.227884430992987
40
0.227884430992987
40
0.255459987028952
40
0.255459987028952
40
0.283035543064916
40
0.283035543064916
40
0.310611099100881
40
0.310611099100881
40
0.338186655136845
40
0.338186655136845
40
0.393337767208774
40
0.393337767208774
40
0.420913323244739
40
0.420913323244739
40
0.448488879280704
40
0.448488879280704
40
0.476064435316668
40
0.476064435316668
40
0.503639991352632
40
0.503639991352632
40
0.531215547388596
40
0.531215547388596
40
0.558791103424561
40
0.558791103424561
40
0.586366659460526
40
0.586366659460526
40
0.61394221549649
40
0.61394221549649
40
0.641517771532454
40
0.641517771532454
40
0.669093327568419
40
0.669093327568419
40
0.696668883604384
40
0.696668883604384
40
0.724244439640348
40
0.724244439640348
40
0.751819995676313
40
0.751819995676313
40
0.779395551712277
40
0.779395551712277
40
0.834546663784207
40
0.834546663784207
40
0.862122219820172
40
0.862122219820172
40
0.889697775856137
40
0.889697775856137
40
0.944848887928068
40
0.944848887928068
40
1
40
1
40
1
40
1
41
1
10
53.6618538256497
20
-5.82345421922039
30
0
41
1
10
53.57955173355
20
-5.85339850582287
30
0
41
1
10
53.497251260211
20
-5.88309470090806
30
0
41
1
10
53.1032131711537
20
-6.02406999898633
30
0
41
1
10
52.7915010185056
20
-6.1319877719439
30
0
41
1
10
52.1681923173487
20
-6.34028546675188
30
0
41
1
10
51.8567171811959
20
-6.44087917738921
30
0
41
1
10
51.2330009397168
20
-6.63450730637834
30
0
41
1
10
50.9208589256324
20
-6.72762316516517
30
0
41
1
10
50.2958368260858
20
-6.90560456310104
30
0
41
1
10
49.9829225069376
20
-6.99029211866289
30
0
41
1
10
49.3583779435789
20
-7.15031949908845
30
0
41
1
10
49.046654499287
20
-7.22625499924169
30
0
41
1
10
48.4232408885766
20
-7.3697208234683
30
0
41
1
10
48.111567860919
20
-7.43705471235248
30
0
41
1
10
47.4881582486566
20
-7.56270352805407
30
0
41
1
10
47.1764383900847
20
-7.62113121711968
30
0
41
1
10
46.55289649253
20
-7.72721643599238
30
0
41
1
10
46.2412784324431
20
-7.77601447116956
30
0
41
1
10
45.6176916699491
20
-7.86527615364562
30
0
41
1
10
45.3056106598173
20
-7.90541967845078
30
0
41
1
10
44.6805819278481
20
-7.97567531495841
30
0
41
1
10
44.3676679677805
20
-8.00561617606678
30
0
41
1
10
43.7429906164839
20
-8.05551502389625
30
0
41
1
10
43.4310572959154
20
-8.07584102925551
30
0
41
1
10
42.8077589615354
20
-8.10768539883099
30
0
41
1
10
42.4961765728376
20
-8.11898567165642
30
0
41
1
10
41.5611732009497
20
-8.13720835417604
30
0
41
1
10
40.9372996113543
20
-8.1278560326665
30
0
41
1
10
40.0018931883909
20
-8.08747392403461
30
0
41
1
10
39.6898571224413
20
-8.06934214710139
30
0
41
1
10
39.0648692813196
20
-8.02334473021025
30
0
41
1
10
38.7520228855695
20
-7.99462114855359
30
0
41
1
10
38.1273085777585
20
-7.92793028131459
30
0
41
1
10
37.8151935088149
20
-7.89049582143161
30
0
41
1
10
37.1917767801077
20
-7.80618058761578
30
0
41
1
10
36.8803470450687
20
-7.75934134611251
30
0
41
1
10
36.2571000227766
20
-7.65600272121472
30
0
41
1
10
35.9453521553774
20
-7.59934804344903
30
0
41
1
10
35.321621218624
20
-7.47747555105349
30
0
41
1
10
35.0096705635832
20
-7.41241676089973
30
0
41
1
10
34.3857168531278
20
-7.27334698630264
30
0
41
1
10
34.0738101793837
20
-7.19916075402497
30
0
41
1
10
33.4488149182669
20
-7.04193960333583
30
0
41
1
10
33.1360388057287
20
-6.9586684759075
30
0
41
1
10
32.5113135807761
20
-6.7848328420875
30
0
41
1
10
32.1991669353969
20
-6.69421943737922
30
0
41
1
10
31.5754275418816
20
-6.50481368045936
30
0
41
1
10
31.264001540391
20
-6.4060635345875
30
0
41
1
10
30.6408490094442
20
-6.20082561702233
30
0
41
1
10
30.3291025227126
20
-6.09385868401151
30
0
41
1
10
29.7053439490283
20
-5.87406337341014
30
0
41
1
10
29.393328034986
20
-5.76093771981374
30
0
41
1
10
28.7690780716927
20
-5.52744510133456
30
0
41
1
10
28.4569881121582
20
-5.40685530141496
30
0
41
1
10
27.831941022088
20
-5.15870546358744
30
0
41
1
10
27.5193120696209
20
-5.03149767513031
30
0
41
1
10
26.5830427852184
20
-4.64300830288749
30
0
41
1
10
25.9603226153465
20
-4.37408673466572
30
0
41
1
10
25.0283990417162
20
-3.9534261142262
30
0
41
1
10
24.7178228785346
20
-3.81094148310154
30
0
41
1
10
24.096601262414
20
-3.52239408264813
30
0
41
1
10
23.7859627273825
20
-3.37627983556786
30
0
41
1
10
22.8540056609471
20
-2.93186571216774
30
0
41
1
10
22.2330772855155
20
-2.62639770828167
30
0
41
1
10
20.988687456189
20
-2.00446127501667
30
0
41
1
10
20.3647107379818
20
-1.68886160316097
30
0
41
1
10
19.7386315888643
20
-1.36854610331812
30
0
0
SPLINE
5
FC
100
AcDbEntity
8
1
62
256
6
ByLayer
370
18
48
1
60
0
100
AcDbSpline
70
4
71
3
72
38
73
34
40
0
40
0
40
0
40
0
40
0.0170205874160277
40
0.0170205874160277
40
0.0295835883830831
40
0.0295835883830831
40
0.0358650888666108
40
0.0358650888666108
40
0.0390058391083741
40
0.0390058391083741
40
0.0421465893501375
40
0.0421465893501375
40
0.0484280898336628
40
0.0484280898336628
40
0.054709590317188
40
0.054709590317188
40
0.0609910908007132
40
0.0609910908007132
40
0.0672725912842384
40
0.0672725912842384
40
0.117524595152438
40
0.117524595152438
40
0.21802860288884
40
0.21802860288884
40
0.620044633834452
40
0.620044633834452
40
0.670296637702653
40
0.670296637702653
40
0.720548641570855
40
0.720548641570855
40
0.821052649307256
40
0.821052649307256
40
1
40
1
40
1
40
1
41
1
10
4.51466842899787
20
-8.58572491132475
30
0
41
1
10
4.54441504907916
20
-8.58575363239734
30
0
41
1
10
4.57523303903945
20
-8.58525449451039
30
0
41
1
10
4.63055593140783
20
-8.58351593778386
30
0
41
1
10
4.65456676823288
20
-8.58250576264498
30
0
41
1
10
4.69133017893088
20
-8.58060113906774
30
0
41
1
10
4.70378957757876
20
-8.57990379819574
30
0
41
1
10
4.72237280617199
20
-8.57875543172563
30
0
41
1
10
4.7285740475798
20
-8.57835553572008
30
0
41
1
10
4.74259009990144
20
-8.57757242287596
30
0
41
1
10
4.75060431739543
20
-8.57718987179825
30
0
41
1
10
4.77684440048552
20
-8.57618063251394
30
0
41
1
10
4.79675021334147
20
-8.57562362143415
30
0
41
1
10
4.83894961337904
20
-8.57470208574574
30
0
41
1
10
4.86072489414593
20
-8.57434927958295
30
0
41
1
10
4.90522249850304
20
-8.57381622092578
30
0
41
1
10
4.92808226292442
20
-8.57363694672114
30
0
41
1
10
4.97395679316162
20
-8.57344516331599
30
0
41
1
10
4.99694533009222
20
-8.57344884330541
30
0
41
1
10
5.20375983665286
20
-8.57332260830535
30
0
41
1
10
5.38759650753278
20
-8.57320599429187
30
0
41
1
10
5.93914686030004
20
-8.57296041002112
30
0
41
1
10
6.30686661819051
20
-8.57288659446002
30
0
41
1
10
8.14556391268783
20
-8.57302101926956
30
0
41
1
10
9.61606741306919
20
-8.57487794550605
30
0
41
1
10
11.2671636594851
20
-8.57849548695279
30
0
41
1
10
11.4506085937099
20
-8.57890123601467
30
0
41
1
10
11.8171387977682
20
-8.57993809902155
30
0
41
1
10
12.0002565500785
20
-8.58054564756824
30
0
41
1
10
12.5491751011692
20
-8.58256821097197
30
0
41
1
10
12.9145409360057
20
-8.58419049198571
30
0
41
1
10
13.9288734090586
20
-8.58871892477521
30
0
41
1
10
14.5766167298346
20
-8.59171903728867
30
0
41
1
10
15.2226529321584
20
-8.59239527411006
30
0
0
SPLINE
5
FD
100
AcDbEntity
8
1
62
256
6
ByLayer
370
18
48
1
60
0
100
AcDbSpline
70
4
71
3
72
12
73
8
40
0
40
0
40
0
40
0
40
0.250000000000007
40
0.250000000000007
40
0.500000000000014
40
0.500000000000014
40
1
40
1
40
1
40
1
41
1
10
6.12937478694025
20
-5.36269666980238
30
0
41
1
10
6.10972000970771
20
-5.35423299098915
30
0
41
1
10
6.09193976645412
20
-5.34391816430636
30
0
41
1
10
6.06002296750438
20
-5.31964996182523
30
0
41
1
10
6.04606663397979
20
-5.30571925657822
30
0
41
1
10
6.01227870178425
20
-5.26069592074555
30
0
41
1
10
6.00000023223052
20
-5.22563770554015
30
0
41
1
10
6.00000023223052
20
-5.18988369954533
30
0
0
SPLINE
5
FE
100
AcDbEntity
8
1
62
256
6
ByLayer
370
18
48
1
60
0
100
AcDbSpline
70
4
71
3
72
16
73
12
40
0
40
0
40
0
40
0
40
0.0457463338483163
40
0.0457463338483163
40
0.246388372560585
40
0.246388372560585
40
0.447030411272854
40
0.447030411272854
40
0.647672449985123
40
0.647672449985123
40
1
40
1
40
1
40
1
41
1
10
216.750506901947
20
-8.23413681131072
30
0
41
1
10
216.594805153148
20
-8.23630493901766
30
0
41
1
10
216.43906714166
20
-8.23724241448619
30
0
41
1
10
215.60096910111
20
-8.23562568033864
30
0
41
1
10
214.919893952102
20
-8.21060653030733
30
0
41
1
10
213.558214161025
20
-8.11404119164786
30
0
41
1
10
212.87743893205
20
-8.04241503802587
30
0
41
1
10
211.513729858547
20
-7.85335938862431
30
0
41
1
10
210.82952435795
20
-7.73554059708411
30
0
41
1
10
208.955246589753
20
-7.35326628482176
30
0
41
1
10
207.769422504128
20
-7.04463241774346
30
0
41
1
10
206.58544960197
20
-6.67881855441775
30
0
0
SPLINE
5
FF
100
AcDbEntity
8
1
62
256
6
ByLayer
370
13
48
1
60
0
100
AcDbSpline
70
4
71
3
72
24
73
20
40
0
40
0
40
0
40
0
40
0.0266316693061864
40
0.0266316693061864
40
0.244924620364685
40
0.244924620364685
40
0.354071095893935
40
0.354071095893935
40
0.463217571423184
40
0.463217571423184
40
0.572364046952434
40
0.572364046952434
40
0.626937284717056
40
0.626937284717056
40
0.681510522481679
40
0.681510522481679
40
0.899803473540175
40
0.899803473540175
40
1
40
1
40
1
40
1
41
1
10
206.585449602246
20
-6.67881855450307
30
0
41
1
10
206.420934502967
20
-6.6279880803163
30
0
41
1
10
206.256455145575
20
-6.57605359837248
30
0
41
1
10
204.743948324422
20
-6.088466801891
30
0
41
1
10
203.396912870186
20
-5.58127439970536
30
0
41
1
10
201.363546997241
20
-4.73004044841548
30
0
41
1
10
200.683613525182
20
-4.43111558992396
30
0
41
1
10
199.31682107311
20
-3.80674861617703
30
0
41
1
10
198.635106778741
20
-3.48358082557098
30
0
41
1
10
197.27278205025
20
-2.81942138904134
30
0
41
1
10
196.591969244503
20
-2.478738063105
30
0
41
1
10
195.569599092971
20
-1.95787579070444
30
0
41
1
10
195.228626928515
20
-1.78259441510511
30
0
41
1
10
194.545896514906
20
-1.4294724512431
30
0
41
1
10
194.203890191292
20
-1.25152844329543
30
0
41
1
10
192.499711106875
20
-0.360761188230782
30
0
41
1
10
191.148525926767
20
0.357409823885064
30
0
41
1
10
189.180640143862
20
1.38609004958482
30
0
41
1
10
188.561998826603
20
1.70684014878154
30
0
41
1
10
187.942881064139
20
2.0229605634002
30
0
0
SPLINE
5
100
100
AcDbEntity
8
1
62
256
6
ByLayer
370
18
48
1
60
0
100
AcDbSpline
70
4
71
3
72
16
73
12
40
0
40
0
40
0
40
0
40
0.180772122324226
40
0.180772122324226
40
0.591618600260107
40
0.591618600260107
40
0.797041839228049
40
0.797041839228049
40
0.899753458712022
40
0.899753458712022
40
1
40
1
40
1
40
1
41
1
10
118.243532148194
20
-8.17518470502688
30
0
41
1
10
117.645322822309
20
-8.17322214085917
30
0
41
1
10
117.048998206911
20
-8.15324758899723
30
0
41
1
10
115.10088448766
20
-8.03005560848527
30
0
41
1
10
113.753273796266
20
-7.8531368042089
30
0
41
1
10
111.725164229479
20
-7.45829652778824
30
0
41
1
10
111.048140816848
20
-7.30506031566833
30
0
41
1
10
110.029091789909
20
-7.0439254583373
30
0
41
1
10
109.688810932623
20
-6.951669832205
30
0
41
1
10
109.015028282466
20
-6.75926472699581
30
0
41
1
10
108.681168754494
20
-6.65922692638185
30
0
41
1
10
108.347391523792
20
-6.55469359920616
30
0
0
SPLINE
5
101
100
AcDbEntity
8
1
62
256
6
ByLayer
370
13
48
1
60
0
100
AcDbSpline
70
4
71
3
72
24
73
20
40
0
40
0
40
0
40
0
40
0.0013495796444633
40
0.0013495796444633
40
0.226270853111993
40
0.226270853111993
40
0.282501171478877
40
0.282501171478877
40
0.338731489845761
40
0.338731489845761
40
0.451192126579527
40
0.451192126579527
40
0.676113400047056
40
0.676113400047056
40
0.901034673514586
40
0.901034673514586
40
0.957264991881468
40
0.957264991881468
40
1
40
1
40
1
40
1
41
1
10
108.347392479338
20
-6.55469389846667
30
0
41
1
10
108.339184526289
20
-6.55212330798986
30
0
41
1
10
108.330976623008
20
-6.54954999896555
30
0
41
1
10
106.954848744097
20
-6.11765385353112
30
0
41
1
10
105.593114413582
20
-5.61492053989065
30
0
41
1
10
103.885909112891
20
-4.91229207213127
30
0
41
1
10
103.54422750897
20
-4.76804289426968
30
0
41
1
10
102.860158261465
20
-4.47245750840139
30
0
41
1
10
102.518050315472
20
-4.32126432834795
30
0
41
1
10
101.495020263799
20
-3.8603206321973
30
0
41
1
10
100.815853747907
20
-3.54252335197026
30
0
41
1
10
98.7835609283668
20
-2.56401452226555
30
0
41
1
10
97.4353517643945
20
-1.87869908365513
30
0
41
1
10
94.7324176737895
20
-0.479675877498352
30
0
41
1
10
93.3782150758696
20
0.234964904855104
30
0
41
1
10
91.6694578420394
20
1.12300623717277
30
0
41
1
10
91.3269675068841
20
1.30032492579073
30
0
41
1
10
90.725458686005
20
1.60975513608554
30
0
41
1
10
90.4658927964485
20
1.74263980501644
30
0
41
1
10
90.2064446719833
20
1.87468285441471
30
0
0
SPLINE
5
102
100
AcDbEntity
8
1
62
256
6
ByLayer
370
18
48
1
60
0
100
AcDbSpline
70
4
71
3
72
16
73
12
40
0
40
0
40
0
40
0
40
0.0729807500274971
40
0.0729807500274971
40
0.175481768516872
40
0.175481768516872
40
0.585485842474381
40
0.585485842474381
40
0.99548991643189
40
0.99548991643189
40
1
40
1
40
1
40
1
41
1
10
20.2553992358643
20
-8.1142658057272
30
0
41
1
10
20.0126319973592
20
-8.11358062355737
30
0
41
1
10
19.7695446217333
20
-8.10995004880365
30
0
41
1
10
19.1841387210743
20
-8.09406944003595
30
0
41
1
10
18.8410723982344
20
-8.07888069054275
30
0
41
1
10
17.13150675983
20
-7.97401820166922
30
0
41
1
10
15.775467984536
20
-7.79783557835995
30
0
41
1
10
13.0667092777484
20
-7.27592783344218
30
0
41
1
10
11.7141068439646
20
-6.92990978746923
30
0
41
1
10
10.3387752565599
20
-6.50264827872326
30
0
41
1
10
10.323810148061
20
-6.49799024891698
30
0
41
1
10
10.3088440868234
20
-6.49332298168281
30
0
0
SPLINE
5
103
100
AcDbEntity
8
1
62
256
6
ByLayer
370
13
48
1
60
0
100
AcDbSpline
70
4
71
3
72
10
73
6
40
0
40
0
40
0
40
0
40
0.494438779521124
40
0.494438779521124
40
1
40
1
40
1
40
1
41
1
10
10.3088440927434
20
-6.493322983529
30
0
41
1
10
9.64354048673999
20
-6.28584356257744
30
0
41
1
10
8.97635410519852
20
-6.06010939621197
30
0
41
1
10
7.62060391382971
20
-5.56884891592517
30
0
41
1
10
6.93562502952237
20
-5.30390255186779
30
0
41
1
10
6.25026388839743
20
-5.02397463794168
30
0
0
SPLINE
5
104
100
AcDbEntity
8
1
62
256
6
ByLayer
370
13
48
1
60
0
100
AcDbSpline
70
4
71
3
72
10
73
6
40
0
40
0
40
0
40
0
40
0.187127787588546
40
0.187127787588546
40
1
40
1
40
1
40
1
41
1
10
6.12937478694028
20
-5.36269666980238
30
0
41
1
10
6.12962257562067
20
-5.34861226927404
30
0
41
1
10
6.12987105722317
20
-5.33452731313969
30
0
41
1
10
6.13120263580019
20
-5.25925512372868
30
0
41
1
10
6.13229813220927
20
-5.19805784079298
30
0
41
1
10
6.13340677369317
20
-5.13684938287403
30
0
0
SPLINE
5
105
100
AcDbEntity
8
1
62
256
6
ByLayer
370
18
48
1
60
0
100
AcDbSpline
70
4
71
3
72
26
73
22
40
0
40
0
40
0
40
0
40
0.12499999999999
40
0.12499999999999
40
0.249999999999981
40
0.249999999999981
40
0.31249999999998
40
0.31249999999998
40
0.374999999999979
40
0.374999999999979
40
0.499999999999977
40
0.499999999999977
40
0.562499999999976
40
0.562499999999976
40
0.624999999999975
40
0.624999999999975
40
0.749999999999983
40
0.749999999999983
40
0.874999999999992
40
0.874999999999992
40
1
40
1
40
1
40
1
41
1
10
258.934586092697
20
1.68224231376229
30
0
41
1
10
259.010983671573
20
1.23798261717701
30
0
41
1
10
259.135382892821
20
0.798073600490255
30
0
41
1
10
259.46959227524
20
-0.0740031215220824
30
0
41
1
10
259.672748503647
20
-0.489302169580412
30
0
41
1
10
260.018998936446
20
-1.0872301386799
30
0
41
1
10
260.141540818606
20
-1.28251578624844
30
0
41
1
10
260.39908287726
20
-1.66492059637991
30
0
41
1
10
260.532604775597
20
-1.84988375739792
30
0
41
1
10
260.945516155159
20
-2.38855984060353
30
0
41
1
10
261.237125538621
20
-2.72622455094833
30
0
41
1
10
261.694083386753
20
-3.20705507656501
30
0
41
1
10
261.849689820213
20
-3.36301495332904
30
0
41
1
10
262.167048789889
20
-3.66686312353787
30
0
41
1
10
262.329060217281
20
-3.81493675808196
30
0
41
1
10
262.822289427994
20
-4.24624066039741
30
0
41
1
10
263.157526522775
20
-4.51416887017325
30
0
41
1
10
263.838576137389
20
-5.0177142467092
30
0
41
1
10
264.184413750049
20
-5.25325474748399
30
0
41
1
10
264.885293764009
20
-5.6962124045624
30
0
41
1
10
265.240324874017
20
-5.90366405909586
30
0
41
1
10
265.599540430177
20
-6.09833099632871
30
0
0
SPLINE
5
106
100
AcDbEntity
8
1
62
256
6
ByLayer
370
13
48
1
60
0
100
AcDbSpline
70
4
71
3
72
34
73
30
40
0
40
0
40
0
40
0
40
0.0625
40
0.0625
40
0.125
40
0.125
40
0.25
40
0.25
40
0.312500000000001
40
0.312500000000001
40
0.343750000000001
40
0.343750000000001
40
0.375000000000001
40
0.375000000000001
40
0.500000000000001
40
0.500000000000001
40
0.531250000000001
40
0.531250000000001
40
0.562500000000001
40
0.562500000000001
40
0.625000000000001
40
0.625000000000001
40
0.687500000000001
40
0.687500000000001
40
0.75
40
0.75
40
0.875
40
0.875
40
1
40
1
40
1
40
1
41
1
10
6.2502638883974
20
-5.02397463794168
30
0
41
1
10
6.25028752101024
20
-4.81113588624601
30
0
41
1
10
6.25030900284058
20
-4.5909195795964
30
0
41
1
10
6.25034852667955
20
-4.13594120014784
30
0
41
1
10
6.25036658897307
20
-3.90086333688944
30
0
41
1
10
6.25041669864805
20
-3.17543959663749
30
0
41
1
10
6.25044404381984
20
-2.67544344272633
30
0
41
1
10
6.25048138666065
20
-1.90180545303346
30
0
41
1
10
6.25049320713308
20
-1.63995570375772
30
0
41
1
10
6.25051058448483
20
-1.24107242951214
30
0
41
1
10
6.25051633380514
20
-1.10670745033553
30
0
41
1
10
6.25052771371727
20
-0.838127427671708
30
0
41
1
10
6.2505333435146
20
-0.703948226618621
30
0
41
1
10
6.25056141736891
20
-0.0335957140756307
30
0
41
1
10
6.25058371204437
20
0.500962993397877
30
0
41
1
10
6.25061412825579
20
1.16701204587176
30
0
41
1
10
6.25062033442029
20
1.30011339906642
30
0
41
1
10
6.25063304479984
20
1.56609523234087
30
0
41
1
10
6.25063955904922
20
1.699162066849
30
0
41
1
10
6.2506594446256
20
2.09464748872466
30
0
41
1
10
6.25067320909849
20
2.35435735928849
30
0
41
1
10
6.25070191931098
20
2.86592500215264
30
0
41
1
10
6.2507169341458
20
3.11883363044254
30
0
41
1
10
6.25074771790389
20
3.6095879232129
30
0
41
1
10
6.2507634979404
20
3.84778730545591
30
0
41
1
10
6.25081171420918
20
4.54136817261937
30
0
41
1
10
6.25084510743299
20
4.97594371928767
30
0
41
1
10
6.25091108360184
20
5.78716273938647
30
0
41
1
10
6.2509425369899
20
6.15045198062347
30
0
41
1
10
6.25096980714542
20
6.47257513383627
30
0
0
SPLINE
5
107
100
AcDbEntity
8
1
62
256
6
ByLayer
370
18
48
1
60
0
100
AcDbSpline
70
4
71
3
72
40
73
36
40
0
40
0
40
0
40
0
40
0.250000000000074
40
0.250000000000074
40
0.31250000000009
40
0.31250000000009
40
0.375000000000106
40
0.375000000000106
40
0.500000000000148
40
0.500000000000148
40
0.562500000000174
40
0.562500000000174
40
0.6250000000002
40
0.6250000000002
40
0.687500000000226
40
0.687500000000226
40
0.750000000000252
40
0.750000000000252
40
0.757812500000251
40
0.757812500000251
40
0.761718750000246
40
0.761718750000246
40
0.765625000000241
40
0.765625000000241
40
0.769531250000236
40
0.769531250000236
40
0.773437500000231
40
0.773437500000231
40
0.781250000000221
40
0.781250000000221
40
0.812500000000189
40
0.812500000000189
40
0.875000000000126
40
0.875000000000126
40
1
40
1
40
1
40
1
41
1
10
258.934586092697
20
1.68224231376226
30
0
41
1
10
259.761958296434
20
1.06958594496228
30
0
41
1
10
260.619679610361
20
0.544315714904144
30
0
41
1
10
261.733905860056
20
0.0088760416244327
30
0
41
1
10
261.958512585773
20
-0.0918733477185469
30
0
41
1
10
262.40708177568
20
-0.27808410436225
30
0
41
1
10
262.631640273679
20
-0.363537482308743
30
0
41
1
10
263.306158406851
20
-0.596356894833349
30
0
41
1
10
263.756935815647
20
-0.720876874363682
30
0
41
1
10
264.43492186635
20
-0.856813442312841
30
0
41
1
10
264.661222512808
20
-0.893596603367342
30
0
41
1
10
265.114501505687
20
-0.94823009345231
30
0
41
1
10
265.341528602836
20
-0.965991899144257
30
0
41
1
10
265.789974959462
20
-0.978958417339186
30
0
41
1
10
266.012216896195
20
-0.974749339397476
30
0
41
1
10
266.452497894083
20
-0.943649162986333
30
0
41
1
10
266.670804303614
20
-0.916697591202364
30
0
41
1
10
266.913094664243
20
-0.872449072279153
30
0
41
1
10
266.940569899309
20
-0.869003714434058
30
0
41
1
10
266.977620337765
20
-0.852120539051612
30
0
41
1
10
266.989027367106
20
-0.844795135570195
30
0
41
1
10
267.008975564175
20
-0.825777087917089
30
0
41
1
10
267.017523743971
20
-0.813867297521938
30
0
41
1
10
267.029010950237
20
-0.785794820686874
30
0
41
1
10
267.031878484704
20
-0.769767525286341
30
0
41
1
10
267.03117060978
20
-0.735679683736606
30
0
41
1
10
267.027240751419
20
-0.718469652626311
30
0
41
1
10
267.012829163978
20
-0.667203050549347
30
0
41
1
10
267.003620894518
20
-0.632960330634148
30
0
41
1
10
266.957375465617
20
-0.461779931960649
30
0
41
1
10
266.92157291739
20
-0.324656654338383
30
0
41
1
10
266.817430321158
20
0.0871190644987507
30
0
41
1
10
266.752322652697
20
0.362278197634907
30
0
41
1
10
266.567994787711
20
1.18794194068616
30
0
41
1
10
266.459536530322
20
1.73903587157759
30
0
41
1
10
266.361019156717
20
2.29057867272269
30
0
0
SPLINE
5
108
100
AcDbEntity
8
1
62
256
6
ByLayer
370
18
48
1
60
0
100
AcDbSpline
70
4
71
3
72
8
73
4
40
0
40
0
40
0
40
0
40
1
40
1
40
1
40
1
41
1
10
266.937598288023
20
-8.25978683646557
30
0
41
1
10
266.952317483218
20
-8.26485599388442
30
0
41
1
10
266.967814980068
20
-8.26769590294356
30
0
41
1
10
266.984085072493
20
-8.26832290726193
30
0
0
SPLINE
5
109
100
AcDbEntity
8
1
62
256
6
ByLayer
370
18
48
1
60
0
100
AcDbSpline
70
4
71
3
72
8
73
4
40
0
40
0
40
0
40
0
40
1
40
1
40
1
40
1
41
1
10
267.049097618779
20
-8.26022837994702
30
0
41
1
10
267.082359233233
20
-8.2512550146177
30
0
41
1
10
267.118176336843
20
-8.23496209654917
30
0
41
1
10
267.156514120161
20
-8.21144932860588
30
0
0
SPLINE
5
10A
100
AcDbEntity
8
1
62
256
6
ByLayer
370
18
48
1
60
0
100
AcDbSpline
70
4
71
3
72
12
73
8
40
0
40
0
40
0
40
0
40
0.499999999999973
40
0.499999999999973
40
0.749999999999987
40
0.749999999999987
40
1
40
1
40
1
40
1
41
1
10
266.476349144627
20
2.39699206033578
30
0
41
1
10
266.982792326828
20
2.39141567950381
30
0
41
1
10
267.489134172052
20
2.38685848577569
30
0
41
1
10
268.247684873314
20
2.38554848089942
30
0
41
1
10
268.500311362686
20
2.38644356730936
30
0
41
1
10
269.005333538752
20
2.38960750670805
30
0
41
1
10
269.257743186937
20
2.39179325914134
30
0
41
1
10
269.51001005232
20
2.39482887277046
30
0
0
SPLINE
5
10B
100
AcDbEntity
8
1
62
256
6
ByLayer
370
13
48
1
60
0
100
AcDbSpline
70
4
71
3
72
8
73
4
40
0
40
0
40
0
40
0
40
1
40
1
40
1
40
1
41
1
10
6.13340677369317
20
-5.13684938287403
30
0
41
1
10
6.15545260640158
20
-5.13867798171847
30
0
41
1
10
6.17928282319905
20
-5.14484189408569
30
0
41
1
10
6.20360085409297
20
-5.15480941771088
30
0
0
SPLINE
5
10C
100
AcDbEntity
8
1
62
256
6
ByLayer
370
18
48
1
60
0
100
AcDbSpline
70
4
71
3
72
90
73
86
40
0
40
0
40
0
40
0
40
0.0413461856837882
40
0.0413461856837882
40
0.062019278525682
40
0.062019278525682
40
0.0826923713675758
40
0.0826923713675758
40
0.124038557051363
40
0.124038557051363
40
0.144711649893257
40
0.144711649893257
40
0.165384742735151
40
0.165384742735151
40
0.186057835577045
40
0.186057835577045
40
0.206730928418938
40
0.206730928418938
40
0.227404021260832
40
0.227404021260832
40
0.248077114102726
40
0.248077114102726
40
0.26875020694462
40
0.26875020694462
40
0.289423299786513
40
0.289423299786513
40
0.310096392628407
40
0.310096392628407
40
0.330769485470301
40
0.330769485470301
40
0.372115671154088
40
0.372115671154088
40
0.392788763995982
40
0.392788763995982
40
0.413461856837876
40
0.413461856837876
40
0.434134949679769
40
0.434134949679769
40
0.454808042521663
40
0.454808042521663
40
0.475481135363557
40
0.475481135363557
40
0.49615422820545
40
0.49615422820545
40
0.516827321047344
40
0.516827321047344
40
0.537500413889238
40
0.537500413889238
40
0.558173506731132
40
0.558173506731132
40
0.578846599573025
40
0.578846599573025
40
0.620192785256813
40
0.620192785256813
40
0.640865878098707
40
0.640865878098707
40
0.6615389709406
40
0.6615389709406
40
0.682212063782494
40
0.682212063782494
40
0.702885156624388
40
0.702885156624388
40
0.744231342308176
40
0.744231342308176
40
0.764904435150069
40
0.764904435150069
40
0.785577527991963
40
0.785577527991963
40
0.806250620833857
40
0.806250620833857
40
0.826923713675751
40
0.826923713675751
40
0.868269899359538
40
0.868269899359538
40
0.888942992201431
40
0.888942992201431
40
0.909616085043325
40
0.909616085043325
40
0.930289177885219
40
0.930289177885219
40
0.950962270727113
40
0.950962270727113
40
0.992308456410901
40
0.992308456410901
40
1
40
1
40
1
40
1
41
1
10
19.7386315888643
20
8.51491218400807
30
0
41
1
10
20.3896885228937
20
8.46594035926142
30
0
41
1
10
21.0395793999922
20
8.39533216208429
30
0
41
1
10
22.0107488845582
20
8.25786514382546
30
0
41
1
10
22.3337688754843
20
8.20669904756787
30
0
41
1
10
22.978268700707
20
8.09350570076674
30
0
41
1
10
23.3002349948125
20
8.0317535010723
30
0
41
1
10
24.2664823521932
20
7.83209803844144
30
0
41
1
10
24.9104826160967
20
7.67954936972063
30
0
41
1
10
25.8743376019902
20
7.41973451662074
30
0
41
1
10
26.1956503582384
20
7.32825786066752
30
0
41
1
10
26.8394803223022
20
7.13675409976929
30
0
41
1
10
27.1618015979784
20
7.03655519870023
30
0
41
1
10
27.8069188268416
20
6.82689488781782
30
0
41
1
10
28.1297607826031
20
6.71748702571179
30
0
41
1
10
28.7755593279512
20
6.48876751593787
30
0
41
1
10
29.0988053304995
20
6.36977262290105
30
0
41
1
10
29.7474453880491
20
6.12435380170137
30
0
41
1
10
30.0726203314004
20
5.99767323780901
30
0
41
1
10
30.7243411037547
20
5.73581855116728
30
0
41
1
10
31.0507525449228
20
5.600773661918
30
0
41
1
10
31.7002615664927
20
5.32333848630032
30
0
41
1
10
32.0240930351472
20
5.1810260925848
30
0
41
1
10
32.6715737820854
20
4.89183427527533
30
0
41
1
10
32.994997331969
20
4.74462114259703
30
0
41
1
10
33.6408600578841
20
4.44447186728138
30
0
41
1
10
33.9633474528808
20
4.29161288424481
30
0
41
1
10
34.6069895880834
20
3.97958157305331
30
0
41
1
10
34.9282262674598
20
3.82052627635508
30
0
41
1
10
35.8930444260277
20
3.33904160411575
30
0
41
1
10
36.5367661089643
20
3.010784124899
30
0
41
1
10
37.5011825007833
20
2.50411086022149
30
0
41
1
10
37.822392633973
20
2.33268902509184
30
0
41
1
10
38.4664272416873
20
1.98859589153975
30
0
41
1
10
38.7890272048146
20
1.81553732275364
30
0
41
1
10
39.4350124811841
20
1.4667071090976
30
0
41
1
10
39.7584299751607
20
1.29099487614136
30
0
41
1
10
40.4057865264749
20
0.936278371964534
30
0
41
1
10
40.7295786973242
20
0.756976090220718
30
0
41
1
10
41.3796193314052
20
0.398708975277373
30
0
41
1
10
41.7062064016397
20
0.21908270856116
30
0
41
1
10
42.3575293206471
20
-0.13934234314695
30
0
41
1
10
42.6824263200656
20
-0.318170467562396
30
0
41
1
10
43.3303818370139
20
-0.675667560893601
30
0
41
1
10
43.6532368481214
20
-0.854709081378758
30
0
41
1
10
44.2989726391709
20
-1.20911199336371
30
0
41
1
10
44.6216848168027
20
-1.38480623957059
30
0
41
1
10
45.2664426223213
20
-1.73390043459693
30
0
41
1
10
45.5885020009293
20
-1.90727450667367
30
0
41
1
10
46.2316997673749
20
-2.25217639652394
30
0
41
1
10
46.5525738362529
20
-2.42416453692434
30
0
41
1
10
47.5163998162091
20
-2.93271752229808
30
0
41
1
10
48.1600464748403
20
-3.26287194946335
30
0
41
1
10
49.1253902108193
20
-3.74783967146436
30
0
41
1
10
49.4468602839532
20
-3.90825004497492
30
0
41
1
10
50.0913165595947
20
-4.22296405746249
30
0
41
1
10
50.414269594959
20
-4.37733775796684
30
0
41
1
10
51.0613107964406
20
-4.68064637826694
30
0
41
1
10
51.3853836944863
20
-4.82960546728478
30
0
41
1
10
52.0344348176029
20
-5.12238797833507
30
0
41
1
10
52.3591195007047
20
-5.26668938170056
30
0
41
1
10
53.3364779144359
20
-5.68853849489227
30
0
41
1
10
53.9861176634486
20
-5.95219748098125
30
0
41
1
10
54.9560950579999
20
-6.32454618552225
30
0
41
1
10
55.2783754246267
20
-6.44513277221779
30
0
41
1
10
55.92264864885
20
-6.67696078557259
30
0
41
1
10
56.2447604872462
20
-6.78809298191317
30
0
41
1
10
56.8886751804375
20
-7.00128145646636
30
0
41
1
10
57.2104469484334
20
-7.10337106375292
30
0
41
1
10
57.8534164785745
20
-7.29874447492898
30
0
41
1
10
58.1743334129751
20
-7.39228641143364
30
0
41
1
10
59.1375708999469
20
-7.65820984557493
30
0
41
1
10
59.781400671857
20
-7.81517304846599
30
0
41
1
10
60.7479788138185
20
-8.0216347232828
30
0
41
1
10
61.0701023921221
20
-8.08572559025535
30
0
41
1
10
61.7152515771433
20
-8.20354954689867
30
0
41
1
10
62.0386732240805
20
-8.25705821297507
30
0
41
1
10
62.6870131947439
20
-8.35343760483642
30
0
41
1
10
63.0118902597918
20
-8.39633046647666
30
0
41
1
10
63.6628507425995
20
-8.47146536168106
30
0
41
1
10
63.9888255305121
20
-8.50374125080032
30
0
41
1
10
64.9625759087938
20
-8.58347072073585
30
0
41
1
10
65.6103736800564
20
-8.61375686758328
30
0
41
1
10
66.3759000953852
20
-8.62370709149741
30
0
41
1
10
66.4958618735229
20
-8.62449722169987
30
0
41
1
10
66.6157396758397
20
-8.62452039738832
30
0
0
SPLINE
5
10D
100
AcDbEntity
8
1
62
256
6
ByLayer
370
18
48
1
60
0
100
AcDbSpline
70
4
71
3
72
110
73
106
40
0
40
0
40
0
40
0
40
0.0058115927417643
40
0.0058115927417643
40
0.0370576647191712
40
0.0370576647191712
40
0.0526807007078751
40
0.0526807007078751
40
0.0683037366965791
40
0.0683037366965791
40
0.0839267726852831
40
0.0839267726852831
40
0.0995498086739871
40
0.0995498086739871
40
0.130795880651396
40
0.130795880651396
40
0.146418916640101
40
0.146418916640101
40
0.162041952628806
40
0.162041952628806
40
0.177664988617511
40
0.177664988617511
40
0.193288024606216
40
0.193288024606216
40
0.224534096583626
40
0.224534096583626
40
0.255780168561037
40
0.255780168561037
40
0.287026240538448
40
0.287026240538448
40
0.318272312515859
40
0.318272312515859
40
0.333895348504564
40
0.333895348504564
40
0.349518384493269
40
0.349518384493269
40
0.380764456470678
40
0.380764456470678
40
0.396387492459383
40
0.396387492459383
40
0.412010528448088
40
0.412010528448088
40
0.427633564436793
40
0.427633564436793
40
0.443256600425498
40
0.443256600425498
40
0.474502672402908
40
0.474502672402908
40
0.490125708391614
40
0.490125708391614
40
0.50574874438032
40
0.50574874438032
40
0.521371780369026
40
0.521371780369026
40
0.536994816357732
40
0.536994816357732
40
0.568240888335145
40
0.568240888335145
40
0.583863924323852
40
0.583863924323852
40
0.599486960312558
40
0.599486960312558
40
0.615109996301265
40
0.615109996301265
40
0.630733032289971
40
0.630733032289971
40
0.661979104267384
40
0.661979104267384
40
0.677602140256091
40
0.677602140256091
40
0.693225176244798
40
0.693225176244798
40
0.708848212233506
40
0.708848212233506
40
0.724471248222212
40
0.724471248222212
40
0.755717320199627
40
0.755717320199627
40
0.771340356188335
40
0.771340356188335
40
0.786963392177042
40
0.786963392177042
40
0.802586428165749
40
0.802586428165749
40
0.818209464154456
40
0.818209464154456
40
0.849455536131871
40
0.849455536131871
40
0.865078572120579
40
0.865078572120579
40
0.880701608109286
40
0.880701608109286
40
0.896324644097994
40
0.896324644097994
40
0.911947680086701
40
0.911947680086701
40
0.943193752064118
40
0.943193752064118
40
0.958816788052825
40
0.958816788052825
40
0.974439824041533
40
0.974439824041533
40
0.99006286003024
40
0.99006286003024
40
1
40
1
40
1
40
1
41
1
10
102.673954842752
20
5.842137929693
30
0
41
1
10
102.793299252429
20
5.89118435113878
30
0
41
1
10
102.912657718789
20
5.9397156744017
30
0
41
1
10
103.674184008051
20
6.2454092575534
30
0
41
1
10
104.318167099769
20
6.4864127589845
30
0
41
1
10
105.285256039425
20
6.82486445883472
30
0
41
1
10
105.60751201394
20
6.93413638867904
30
0
41
1
10
106.253683924527
20
7.14332019702121
30
0
41
1
10
106.5776886531
20
7.24316196774902
30
0
41
1
10
107.227260993154
20
7.43364965046902
30
0
41
1
10
107.553331559298
20
7.52445984600152
30
0
41
1
10
108.203949751734
20
7.69622088522172
30
0
41
1
10
108.527977793339
20
7.77737164278668
30
0
41
1
10
109.498719858215
20
8.00453523536964
30
0
41
1
10
110.144792938307
20
8.13399237714202
30
0
41
1
10
111.110666008187
20
8.29723811306707
30
0
41
1
10
111.431830556027
20
8.34657627826138
30
0
41
1
10
112.073914027274
20
8.43434476457722
30
0
41
1
10
112.39512607488
20
8.47267277898777
30
0
41
1
10
113.037670460153
20
8.53849191180515
30
0
41
1
10
113.358964165207
20
8.56599588858182
30
0
41
1
10
114.001375189331
20
8.61021858453404
30
0
41
1
10
114.322296148581
20
8.62696153301764
30
0
41
1
10
115.28550725595
20
8.66058655015951
30
0
41
1
10
115.930125371616
20
8.66086138840205
30
0
41
1
10
117.222187190498
20
8.61714029586412
30
0
41
1
10
117.86884916384
20
8.57264512765644
30
0
41
1
10
119.171695921475
20
8.4392706318618
30
0
41
1
10
119.820769747538
20
8.35091016342199
30
0
41
1
10
121.111192509974
20
8.13086141011487
30
0
41
1
10
121.755743425516
20
8.0008245867653
30
0
41
1
10
122.720437577312
20
7.77585771727479
30
0
41
1
10
123.041571902573
20
7.69579802727463
30
0
41
1
10
123.682947646475
20
7.52538574177578
30
0
41
1
10
124.00375327679
20
7.43552202957412
30
0
41
1
10
124.967120193255
20
7.15273808168593
30
0
41
1
10
125.610144332182
20
6.94630127314949
30
0
41
1
10
126.574212470298
20
6.60738739811842
30
0
41
1
10
126.895998860591
20
6.49009058106023
30
0
41
1
10
127.54119970571
20
6.24784785748679
30
0
41
1
10
127.864454429538
20
6.12271706294479
30
0
41
1
10
128.511966909525
20
5.86395634100708
30
0
41
1
10
128.836247976156
20
5.73036004073208
30
0
41
1
10
129.485523622594
20
5.45396392975991
30
0
41
1
10
129.811109987668
20
5.31168728246601
30
0
41
1
10
130.785214950471
20
4.878209897185
30
0
41
1
10
131.432525310228
20
4.5784516971525
30
0
41
1
10
132.398453926722
20
4.10974032451418
30
0
41
1
10
132.719914425272
20
3.9508295811778
30
0
41
1
10
133.36311760757
20
3.62988893789196
30
0
41
1
10
133.684653489099
20
3.46752475831104
30
0
41
1
10
134.327249836787
20
3.13845890771012
30
0
41
1
10
134.648360229963
20
2.97184297646069
30
0
41
1
10
135.289732019697
20
2.63358562524991
30
0
41
1
10
135.610202073953
20
2.46229404324581
30
0
41
1
10
136.573458713817
20
1.94635131619904
30
0
41
1
10
137.217156142757
20
1.59806399023355
30
0
41
1
10
138.183060878
20
1.06545717171951
30
0
41
1
10
138.505120540217
20
0.886258217002762
30
0
41
1
10
139.151395615913
20
0.528207070150444
30
0
41
1
10
139.475374909265
20
0.348924202199555
30
0
41
1
10
140.124649850236
20
-0.0108751553098898
30
0
41
1
10
140.450529239654
20
-0.191616502772234
30
0
41
1
10
141.100314750954
20
-0.553274654446398
30
0
41
1
10
141.424026984024
20
-0.734187324070575
30
0
41
1
10
142.394801753057
20
-1.27119385520246
30
0
41
1
10
143.04057435156
20
-1.62343741585047
30
0
41
1
10
144.005279441034
20
-2.14674643023014
30
0
41
1
10
144.326039651879
20
-2.32057870551483
30
0
41
1
10
144.968191540678
20
-2.6630490722325
30
0
41
1
10
145.289382112788
20
-2.83206012519756
30
0
41
1
10
145.931619402131
20
-3.16632923467557
30
0
41
1
10
146.252687250297
20
-3.33155037559288
30
0
41
1
10
146.894420437442
20
-3.65864026206691
30
0
41
1
10
147.214852261316
20
-3.82088360178579
30
0
41
1
10
148.178266056245
20
-4.2979989690333
30
0
41
1
10
148.822713260864
20
-4.60444729264782
30
0
41
1
10
149.790883529005
20
-5.04933983990964
30
0
41
1
10
150.113585656792
20
-5.19556463786901
30
0
41
1
10
150.761164541056
20
-5.48040851957492
30
0
41
1
10
151.085959896875
20
-5.6191694270874
30
0
41
1
10
151.737239930529
20
-5.88983855824532
30
0
41
1
10
152.062188200469
20
-6.02111906370288
30
0
41
1
10
152.710141449541
20
-6.27581259713097
30
0
41
1
10
153.032894896584
20
-6.39962166375423
30
0
41
1
10
154.000648857867
20
-6.75642276829026
30
0
41
1
10
154.645043591895
20
-6.97519977270241
30
0
41
1
10
155.608791278893
20
-7.27725073074058
30
0
41
1
10
155.929265405937
20
-7.37382834048566
30
0
41
1
10
156.570566988287
20
-7.55684621045955
30
0
41
1
10
156.891477580414
20
-7.64324509953366
30
0
41
1
10
157.53354074513
20
-7.80620226587902
30
0
41
1
10
157.85466438179
20
-7.88278346535267
30
0
41
1
10
158.496894987369
20
-8.026243283024
30
0
41
1
10
158.817714562954
20
-8.09330465052221
30
0
41
1
10
159.781594640083
20
-8.27867094743726
30
0
41
1
10
160.426983333733
20
-8.38081875471542
30
0
41
1
10
161.397627356404
20
-8.50256346141083
30
0
41
1
10
161.721379138164
20
-8.53793898447276
30
0
41
1
10
162.370482994329
20
-8.59756758178051
30
0
41
1
10
162.696190880301
20
-8.62171209427294
30
0
41
1
10
163.345295145093
20
-8.65861450558413
30
0
41
1
10
163.669205958423
20
-8.67143703389021
30
0
41
1
10
164.197922963403
20
-8.68331440677812
30
0
41
1
10
164.403094608107
20
-8.68567868460804
30
0
41
1
10
164.607995659095
20
-8.68578136991752
30
0
0
SPLINE
5
10E
100
AcDbEntity
8
1
62
256
6
ByLayer
370
18
48
1
60
0
100
AcDbSpline
70
4
71
3
72
114
73
110
40
0
40
0
40
0
40
0
40
0.0006862211189586
40
0.0006862211189586
40
0.0162819919906117
40
0.0162819919906117
40
0.0318777628622644
40
0.0318777628622644
40
0.0474735337339175
40
0.0474735337339175
40
0.0786650754772251
40
0.0786650754772251
40
0.09426084634888
40
0.09426084634888
40
0.109856617220534
40
0.109856617220534
40
0.125452388092189
40
0.125452388092189
40
0.141048158963844
40
0.141048158963844
40
0.172239700707154
40
0.172239700707154
40
0.187835471578809
40
0.187835471578809
40
0.203431242450463
40
0.203431242450463
40
0.234622784193773
40
0.234622784193773
40
0.250218555065429
40
0.250218555065429
40
0.265814325937085
40
0.265814325937085
40
0.297005867680395
40
0.297005867680395
40
0.328197409423705
40
0.328197409423705
40
0.359388951167015
40
0.359388951167015
40
0.374984722038669
40
0.374984722038669
40
0.390580492910324
40
0.390580492910324
40
0.421772034653634
40
0.421772034653634
40
0.43736780552529
40
0.43736780552529
40
0.452963576396946
40
0.452963576396946
40
0.468559347268602
40
0.468559347268602
40
0.484155118140258
40
0.484155118140258
40
0.515346659883569
40
0.515346659883569
40
0.530942430755225
40
0.530942430755225
40
0.546538201626881
40
0.546538201626881
40
0.562133972498537
40
0.562133972498537
40
0.577729743370193
40
0.577729743370193
40
0.608921285113507
40
0.608921285113507
40
0.624517055985164
40
0.624517055985164
40
0.640112826856821
40
0.640112826856821
40
0.655708597728478
40
0.655708597728478
40
0.671304368600135
40
0.671304368600135
40
0.702495910343451
40
0.702495910343451
40
0.718091681215108
40
0.718091681215108
40
0.733687452086765
40
0.733687452086765
40
0.749283222958422
40
0.749283222958422
40
0.764878993830078
40
0.764878993830078
40
0.780474764701735
40
0.780474764701735
40
0.796070535573392
40
0.796070535573392
40
0.811666306445049
40
0.811666306445049
40
0.827262077316706
40
0.827262077316706
40
0.842857848188363
40
0.842857848188363
40
0.85845361906002
40
0.85845361906002
40
0.889645160803334
40
0.889645160803334
40
0.905240931674992
40
0.905240931674992
40
0.92083670254665
40
0.92083670254665
40
0.936432473418307
40
0.936432473418307
40
0.952028244289965
40
0.952028244289965
40
0.967624015161623
40
0.967624015161623
40
0.983219786033281
40
0.983219786033281
40
1
40
1
40
1
40
1
41
1
10
200.670944086917
20
5.88304596140725
30
0
41
1
10
200.685040462077
20
5.88887084817949
30
0
41
1
10
200.699137498571
20
5.89468760119439
30
0
41
1
10
201.033636217898
20
6.03250588969422
30
0
41
1
10
201.354397394291
20
6.16031784776411
30
0
41
1
10
201.99632671695
20
6.40803268127266
30
0
41
1
10
202.317477129854
20
6.5279568287441
30
0
41
1
10
202.959942114601
20
6.76011833773526
30
0
41
1
10
203.280943760311
20
6.87270176333871
30
0
41
1
10
204.246093836095
20
7.19651459822308
30
0
41
1
10
204.892721201041
20
7.39363764383563
30
0
41
1
10
205.865823989833
20
7.66256526296522
30
0
41
1
10
206.190925676898
20
7.74806266700861
30
0
41
1
10
206.839284668796
20
7.90792104961537
30
0
41
1
10
207.163063758269
20
7.98226634388911
30
0
41
1
10
207.8095988937
20
8.12027523263836
30
0
41
1
10
208.13232082392
20
8.18396189341274
30
0
41
1
10
208.776475786225
20
8.30089620420625
30
0
41
1
10
209.097648227618
20
8.35427177040626
30
0
41
1
10
210.060405533219
20
8.49797888280793
30
0
41
1
10
210.702516228104
20
8.57151122170464
30
0
41
1
10
211.664439405883
20
8.64963211001063
30
0
41
1
10
211.984696802952
20
8.67030484754298
30
0
41
1
10
212.625239706426
20
8.70058657210168
30
0
41
1
10
212.945995933601
20
8.71014173565604
30
0
41
1
10
213.909499285982
20
8.72227583093786
30
0
41
1
10
214.553091217876
20
8.70842638171618
30
0
41
1
10
215.519781566112
20
8.65361113742142
30
0
41
1
10
215.84288897959
20
8.62976652698276
30
0
41
1
10
216.49089604321
20
8.57099522463838
30
0
41
1
10
216.816151455215
20
8.53599753409461
30
0
41
1
10
217.791011747652
20
8.41432266072295
30
0
41
1
10
218.436233879645
20
8.31070178659752
30
0
41
1
10
219.725631251018
20
8.06389179788971
30
0
41
1
10
220.368867473598
20
7.92043667324776
30
0
41
1
10
221.650503032576
20
7.59189565245305
30
0
41
1
10
222.291755527619
20
7.40916074118178
30
0
41
1
10
223.253798307811
20
7.1074364294532
30
0
41
1
10
223.574447497711
20
7.00218395823052
30
0
41
1
10
224.215361523121
20
6.78180303588024
30
0
41
1
10
224.536087284308
20
6.6671722163716
30
0
41
1
10
225.50048429384
20
6.31172282571961
30
0
41
1
10
226.145670757872
20
6.05869000079863
30
0
41
1
10
227.114989725113
20
5.65169125180418
30
0
41
1
10
227.438692303335
20
5.51187411286884
30
0
41
1
10
228.088567016919
20
5.22579753100027
30
0
41
1
10
228.413497911746
20
5.07969811360476
30
0
41
1
10
229.061231303607
20
4.78174484603389
30
0
41
1
10
229.38436417413
20
4.62984119669031
30
0
41
1
10
230.028700116807
20
4.31943363594837
30
0
41
1
10
230.350165356808
20
4.16133956528773
30
0
41
1
10
231.314765553672
20
3.68224263627039
30
0
41
1
10
231.957219686774
20
3.35505489285333
30
0
41
1
10
232.918019398828
20
2.84930501427814
30
0
41
1
10
233.237882622916
20
2.67833570374066
30
0
41
1
10
233.878695641527
20
2.33492525966102
30
0
41
1
10
234.199409866434
20
2.16208531925361
30
0
41
1
10
234.841077342409
20
1.81348669651766
30
0
41
1
10
235.162071409818
20
1.63780085194804
30
0
41
1
10
235.804001434759
20
1.28292042893926
30
0
41
1
10
236.124879413703
20
1.1036057522048
30
0
41
1
10
237.090473254216
20
0.565923776475131
30
0
41
1
10
237.737184938909
20
0.206134689754151
30
0
41
1
10
238.709952670018
20
-0.339167427651432
30
0
41
1
10
239.034675135576
20
-0.522266266677832
30
0
41
1
10
239.682574069273
20
-0.884205084920666
30
0
41
1
10
240.006095837606
20
-1.06373607398058
30
0
41
1
10
240.651935416981
20
-1.42067119886852
30
0
41
1
10
240.974275003316
20
-1.5980341153234
30
0
41
1
10
241.617492330712
20
-1.9511057498539
30
0
41
1
10
241.938145649577
20
-2.12720277518346
30
0
41
1
10
242.900672158986
20
-2.64805855048297
30
0
41
1
10
243.54243524879
20
-2.98670532855564
30
0
41
1
10
244.503418335193
20
-3.48496119275239
30
0
41
1
10
244.823190025634
20
-3.64986749556746
30
0
41
1
10
245.463848242378
20
-3.97359362680027
30
0
41
1
10
245.784658039902
20
-4.13255771936417
30
0
41
1
10
246.426909789852
20
-4.44525310515371
30
0
41
1
10
246.748340991975
20
-4.59900090336444
30
0
41
1
10
247.39160034344
20
-4.90157835492678
30
0
41
1
10
247.713116917923
20
-5.05087615127283
30
0
41
1
10
248.357952676696
20
-5.34230817631308
30
0
41
1
10
248.681296961966
20
-5.48442191980189
30
0
41
1
10
249.329546311071
20
-5.76188194050775
30
0
41
1
10
249.654979680426
20
-5.89747909117085
30
0
41
1
10
250.303789962897
20
-6.16077044683186
30
0
41
1
10
250.62690023595
20
-6.28889471311092
30
0
41
1
10
251.272358359706
20
-6.53570643470485
30
0
41
1
10
251.594819802875
20
-6.65428647173272
30
0
41
1
10
252.238956494607
20
-6.88234446577999
30
0
41
1
10
252.560601698959
20
-6.99185610166563
30
0
41
1
10
253.202847459465
20
-7.20209712910383
30
0
41
1
10
253.523164536157
20
-7.30310197137749
30
0
41
1
10
254.483934328125
20
-7.59139567403938
30
0
41
1
10
255.125209108168
20
-7.7632191325404
30
0
41
1
10
256.086588873751
20
-7.99222814497969
30
0
41
1
10
256.406759154173
20
-8.06388357623331
30
0
41
1
10
257.047500843083
20
-8.1969597117824
30
0
41
1
10
257.368494342754
20
-8.25811572615291
30
0
41
1
10
258.011538305649
20
-8.36987778544878
30
0
41
1
10
258.333546536752
20
-8.42050899058722
30
0
41
1
10
258.978310160086
20
-8.51128156575413
30
0
41
1
10
259.300922990759
20
-8.55147629646999
30
0
41
1
10
259.947178846311
20
-8.62097381198737
30
0
41
1
10
260.271587595954
20
-8.65011627127527
30
0
41
1
10
260.921373546813
20
-8.69711947572199
30
0
41
1
10
261.245616920441
20
-8.71492993406554
30
0
41
1
10
261.917135166676
20
-8.74027152176731
30
0
41
1
10
262.264032079768
20
-8.74687049992895
30
0
41
1
10
262.610438421915
20
-8.74699064965199
30
0
0
SPLINE
5
10F
100
AcDbEntity
8
1
62
256
6
ByLayer
370
18
48
1
60
0
100
AcDbSpline
70
4
71
3
72
12
73
8
40
0
40
0
40
0
40
0
40
0.437062895592846
40
0.437062895592846
40
0.874125791185691
40
0.874125791185691
40
1
40
1
40
1
40
1
41
1
10
6.20360085409295
20
-5.15480941771088
30
0
41
1
10
6.88922155283387
20
-5.43583301466396
30
0
41
1
10
7.57444578212234
20
-5.70147981468838
30
0
41
1
10
8.94574731441847
20
-6.19883039872499
30
0
41
1
10
9.62804450532923
20
-6.42915138472239
30
0
41
1
10
10.5042945940834
20
-6.70066991123869
30
0
41
1
10
10.7000620646425
20
-6.75976061106115
30
0
41
1
10
10.8956942940954
20
-6.81720504799165
30
0
0
SPLINE
5
110
100
AcDbEntity
8
1
62
256
6
ByLayer
370
13
48
1
60
0
100
AcDbSpline
70
4
71
3
72
16
73
12
40
0
40
0
40
0
40
0
40
0.306810008731926
40
0.306810008731926
40
0.665233017703647
40
0.665233017703647
40
0.754838769946576
40
0.754838769946576
40
0.844444522189505
40
0.844444522189505
40
1
40
1
40
1
40
1
41
1
10
10.8956948403886
20
-6.81720520840236
30
0
41
1
10
12.0586185522442
20
-7.15868009998519
30
0
41
1
10
13.2167633384782
20
-7.44198207485317
30
0
41
1
10
15.730773018603
20
-7.91885834346417
30
0
41
1
10
17.0869962779524
20
-8.08961690475661
30
0
41
1
10
18.797112935335
20
-8.18598353204027
30
0
41
1
10
19.1403077511502
20
-8.19938536727059
30
0
41
1
10
19.8243927010886
20
-8.21421760889729
30
0
41
1
10
20.1656795197264
20
-8.21569410729933
30
0
41
1
10
21.0978062361287
20
-8.20371499229211
30
0
41
1
10
21.6874656931727
20
-8.17847788414866
30
0
41
1
10
22.2761942584894
20
-8.13593120794127
30
0
0
SPLINE
5
111
100
AcDbEntity
8
1
62
256
6
ByLayer
370
18
48
1
60
0
100
AcDbSpline
70
4
71
3
72
18
73
14
40
0
40
0
40
0
40
0
40
0.196493556518078
40
0.196493556518078
40
0.527290879493905
40
0.527290879493905
40
0.692689540981817
40
0.692689540981817
40
0.775388871725775
40
0.775388871725775
40
0.858088202469731
40
0.858088202469731
40
1
40
1
40
1
40
1
41
1
10
93.6433138257458
20
-0.018495649072662
30
0
41
1
10
94.4502267542972
20
-0.4458491981826
30
0
41
1
10
95.2540193726694
20
-0.871483722293561
30
0
41
1
10
97.4084033337282
20
-1.99812645872521
30
0
41
1
10
98.7566878514513
20
-2.68946192421686
30
0
41
1
10
100.789380677728
20
-3.67490342854145
30
0
41
1
10
101.468720871743
20
-3.99467535785988
30
0
41
1
10
102.492117624926
20
-4.45804349128031
30
0
41
1
10
102.834388736781
20
-4.60996492360019
30
0
41
1
10
103.518651474835
20
-4.90673922985388
30
0
41
1
10
103.860424146231
20
-5.05147737248899
30
0
41
1
10
104.788021889317
20
-5.43418848224104
30
0
41
1
10
105.373341355617
20
-5.66476625122502
30
0
41
1
10
105.95873792594
20
-5.88301035882711
30
0
0
SPLINE
5
112
100
AcDbEntity
8
1
62
256
6
ByLayer
370
13
48
1
60
0
100
AcDbSpline
70
4
71
3
72
22
73
18
40
0
40
0
40
0
40
0
40
0.162169596221224
40
0.162169596221224
40
0.233171950834049
40
0.233171950834049
40
0.304174305446875
40
0.304174305446875
40
0.446179014672521
40
0.446179014672521
40
0.73018843312381
40
0.73018843312381
40
0.872193142349452
40
0.872193142349452
40
0.943195496962273
40
0.943195496962273
40
1
40
1
40
1
40
1
41
1
10
105.958737923221
20
-5.88301035781359
30
0
41
1
10
106.737904566393
20
-6.17349468478568
30
0
41
1
10
107.517207805379
20
-6.44212896469179
30
0
41
1
10
108.640702267972
20
-6.79319781218402
30
0
41
1
10
108.982856570725
20
-6.8952694556761
30
0
41
1
10
109.664931582865
20
-7.08871811951013
30
0
41
1
10
110.005258519117
20
-7.18021892846789
30
0
41
1
10
111.024430540338
20
-7.43879180448133
30
0
41
1
10
111.701505169619
20
-7.5899465745658
30
0
41
1
10
113.729732739221
20
-7.97740449570668
30
0
41
1
10
115.077401911787
20
-8.14795956814314
30
0
41
1
10
117.107020354287
20
-8.26481601547562
30
0
41
1
10
117.784968854567
20
-8.28062944401762
30
0
41
1
10
118.80587619373
20
-8.26889321277196
30
0
41
1
10
119.146818307654
20
-8.25905344422065
30
0
41
1
10
119.762019267285
20
-8.23059559393857
30
0
41
1
10
120.035900778438
20
-8.21412538134922
30
0
41
1
10
120.309488601372
20
-8.19389435489146
30
0
0
SPLINE
5
113
100
AcDbEntity
8
1
62
256
6
ByLayer
370
18
48
1
60
0
100
AcDbSpline
70
4
71
3
72
20
73
16
40
0
40
0
40
0
40
0
40
0.198568380993184
40
0.198568380993184
40
0.288013499823434
40
0.288013499823434
40
0.377458618653684
40
0.377458618653684
40
0.556348856314175
40
0.556348856314175
40
0.735239093974669
40
0.735239093974669
40
0.91412933163516
40
0.91412933163516
40
1
40
1
40
1
40
1
41
1
10
191.594016904783
20
0.0077352810083369
30
0
41
1
10
192.345024785606
20
-0.392917983637034
30
0
41
1
10
193.098176608235
20
-0.794731462683274
30
0
41
1
10
194.196159896432
20
-1.37456247599445
30
0
41
1
10
194.538313380807
20
-1.55432902233684
30
0
41
1
10
195.221199859
20
-1.91084289208931
30
0
41
1
10
195.562251478464
20
-2.08772327431436
30
0
41
1
10
196.584865319614
20
-2.61309864823201
30
0
41
1
10
197.265838302781
20
-2.95643093449721
30
0
41
1
10
198.628576140768
20
-3.62507925040964
30
0
41
1
10
199.310707164869
20
-3.95018605622352
30
0
41
1
10
200.67773383089
20
-4.57732151690863
30
0
41
1
10
201.357685883869
20
-4.87716272519765
30
0
41
1
10
202.360860477771
20
-5.29787495822148
30
0
41
1
10
202.685723951109
20
-5.43074452789725
30
0
41
1
10
203.010225663771
20
-5.55986733355704
30
0
0
SPLINE
5
114
100
AcDbEntity
8
1
62
256
6
ByLayer
370
13
48
1
60
0
100
AcDbSpline
70
4
71
3
72
18
73
14
40
0
40
0
40
0
40
0
40
0.47362617884434
40
0.47362617884434
40
0.608179804797796
40
0.608179804797796
40
0.742733430751254
40
0.742733430751254
40
0.877287056704711
40
0.877287056704711
40
0.944563869681438
40
0.944563869681438
40
1
40
1
40
1
40
1
41
1
10
203.010226591622
20
-5.55986770275891
30
0
41
1
10
205.389799872511
20
-6.5067260704345
30
0
41
1
10
207.749920207347
20
-7.25210972697522
30
0
41
1
10
210.825061794307
20
-7.86672883448324
30
0
41
1
10
211.50955907495
20
-7.98137633302781
30
0
41
1
10
212.873574400983
20
-8.16334593614371
30
0
41
1
10
213.554497209722
20
-8.23106397256464
30
0
41
1
10
214.916555676776
20
-8.31915857153763
30
0
41
1
10
215.597853774027
20
-8.3395996980417
30
0
41
1
10
216.622004722938
20
-8.3342334321465
30
0
41
1
10
216.963963739928
20
-8.32641788771508
30
0
41
1
10
217.585528211806
20
-8.30134019389268
30
0
41
1
10
217.865782737329
20
-8.28597916745497
30
0
41
1
10
218.145601681578
20
-8.26665443564889
30
0
0
SPLINE
5
115
100
AcDbEntity
8
1
62
256
6
ByLayer
370
18
48
1
60
0
100
AcDbSpline
70
4
71
3
72
112
73
108
40
0
40
0
40
0
40
0
40
0.0151364775184775
40
0.0151364775184775
40
0.0307732053960123
40
0.0307732053960123
40
0.046409933273547
40
0.046409933273547
40
0.0620466611510819
40
0.0620466611510819
40
0.0776833890286167
40
0.0776833890286167
40
0.108956844783686
40
0.108956844783686
40
0.124593572661221
40
0.124593572661221
40
0.140230300538757
40
0.140230300538757
40
0.155867028416292
40
0.155867028416292
40
0.171503756293827
40
0.171503756293827
40
0.202777212048897
40
0.202777212048897
40
0.234050667803967
40
0.234050667803967
40
0.265324123559038
40
0.265324123559038
40
0.296597579314108
40
0.296597579314108
40
0.312234307191643
40
0.312234307191643
40
0.327871035069178
40
0.327871035069178
40
0.343507762946713
40
0.343507762946713
40
0.359144490824248
40
0.359144490824248
40
0.374781218701783
40
0.374781218701783
40
0.390417946579318
40
0.390417946579318
40
0.406054674456853
40
0.406054674456853
40
0.421691402334387
40
0.421691402334387
40
0.452964858089455
40
0.452964858089455
40
0.468601585966989
40
0.468601585966989
40
0.484238313844522
40
0.484238313844522
40
0.499875041722056
40
0.499875041722056
40
0.51551176959959
40
0.51551176959959
40
0.546785225354657
40
0.546785225354657
40
0.562421953232191
40
0.562421953232191
40
0.578058681109725
40
0.578058681109725
40
0.593695408987259
40
0.593695408987259
40
0.609332136864793
40
0.609332136864793
40
0.64060559261986
40
0.64060559261986
40
0.656242320497393
40
0.656242320497393
40
0.671879048374927
40
0.671879048374927
40
0.687515776252461
40
0.687515776252461
40
0.703152504129994
40
0.703152504129994
40
0.734425959885061
40
0.734425959885061
40
0.750062687762595
40
0.750062687762595
40
0.765699415640129
40
0.765699415640129
40
0.781336143517663
40
0.781336143517663
40
0.796972871395197
40
0.796972871395197
40
0.828246327150265
40
0.828246327150265
40
0.843883055027799
40
0.843883055027799
40
0.859519782905332
40
0.859519782905332
40
0.875156510782866
40
0.875156510782866
40
0.8907932386604
40
0.8907932386604
40
0.922066694415468
40
0.922066694415468
40
0.937703422293002
40
0.937703422293002
40
0.953340150170536
40
0.953340150170536
40
0.96897687804807
40
0.96897687804807
40
0.984613605925604
40
0.984613605925604
40
1
40
1
40
1
40
1
41
1
10
53.6918430690417
20
5.82890852882727
30
0
41
1
10
54.0061053437281
20
5.95652512302485
30
0
41
1
10
54.3197873038928
20
6.08028444368986
30
0
41
1
10
54.956095058
20
6.32454618552228
30
0
41
1
10
55.2783754246267
20
6.44513277221782
30
0
41
1
10
55.92264864885
20
6.67696078557262
30
0
41
1
10
56.2447604872462
20
6.7880929819132
30
0
41
1
10
56.8886751804375
20
7.00128145646639
30
0
41
1
10
57.2104469484335
20
7.10337106375292
30
0
41
1
10
57.8534164785745
20
7.29874447492901
30
0
41
1
10
58.1743334129752
20
7.39228641143364
30
0
41
1
10
59.1375708999469
20
7.65820984557496
30
0
41
1
10
59.7814006718571
20
7.81517304846599
30
0
41
1
10
60.7479788138185
20
8.02163472328283
30
0
41
1
10
61.0701023921221
20
8.08572559025538
30
0
41
1
10
61.7152515771433
20
8.20354954689867
30
0
41
1
10
62.0386732240805
20
8.25705821297507
30
0
41
1
10
62.6870131947439
20
8.35343760483644
30
0
41
1
10
63.0118902597918
20
8.39633046647668
30
0
41
1
10
63.6628507425995
20
8.47146536168106
30
0
41
1
10
63.9888255305122
20
8.50374125080032
30
0
41
1
10
64.9625759087939
20
8.58347072073585
30
0
41
1
10
65.6103736800565
20
8.61375686758328
30
0
41
1
10
66.9012816312747
20
8.63053594000971
30
0
41
1
10
67.5435378844442
20
8.61665913084565
30
0
41
1
10
68.8299453447543
20
8.54549215194695
30
0
41
1
10
69.4729630125181
20
8.48835700115148
30
0
41
1
10
70.7571365266328
20
8.32980453157253
30
0
41
1
10
71.4011905033776
20
8.22957782600201
30
0
41
1
10
72.3692522625538
20
8.04749484267921
30
0
41
1
10
72.6922041714224
20
7.98144301101928
30
0
41
1
10
73.338514925453
20
7.83824724354844
30
0
41
1
10
73.662414981693
20
7.76150093939191
30
0
41
1
10
74.312251246414
20
7.59819789932732
30
0
41
1
10
74.6385955525365
20
7.5113819480307
30
0
41
1
10
75.2896980990605
20
7.3282037119009
30
0
41
1
10
75.6143504691159
20
7.23188914709198
30
0
41
1
10
76.2616057585163
20
7.02952087144229
30
0
41
1
10
76.5847055000912
20
6.92398987408555
30
0
41
1
10
77.2306241024668
20
6.70528222392738
30
0
41
1
10
77.5532862592615
20
6.59193781316156
30
0
41
1
10
78.1977092293208
20
6.35697147937455
30
0
41
1
10
78.5194947555289
20
6.23538074281231
30
0
41
1
10
79.1618294182202
20
5.98341652922787
30
0
41
1
10
79.482799550438
20
5.85357560137641
30
0
41
1
10
80.4467518773918
20
5.45483097626553
30
0
41
1
10
81.0900342754381
20
5.1758392004005
30
0
41
1
10
82.0539479967092
20
4.73441030151815
30
0
41
1
10
82.3753542680642
20
4.5838120204906
30
0
41
1
10
83.0198168557431
20
4.27800338050801
30
0
41
1
10
83.3426551915083
20
4.12246595307616
30
0
41
1
10
83.9891958194566
20
3.8055238540484
30
0
41
1
10
84.3129479983098
20
3.64420485356885
30
0
41
1
10
84.9609765947282
20
3.3149282735713
30
0
41
1
10
85.2854298158423
20
3.14725231969101
30
0
41
1
10
86.2626815007802
20
2.63968565619516
30
0
41
1
10
86.9124912096749
20
2.29673549239018
30
0
41
1
10
87.881362183557
20
1.77271066955487
30
0
41
1
10
88.2034742566379
20
1.59648964563985
30
0
41
1
10
88.8479271458447
20
1.24449349020756
30
0
41
1
10
89.1700355968789
20
1.06828974415063
30
0
41
1
10
89.8136457933434
20
0.714787001399998
30
0
41
1
10
90.1351890909226
20
0.537564623130322
30
0
41
1
10
90.7773590862438
20
0.181453442118738
30
0
41
1
10
91.097929326961
20
0.002460654036355
30
0
41
1
10
92.0613113901365
20
-0.531401303967613
30
0
41
1
10
92.7048428905665
20
-0.8849090729274
30
0
41
1
10
93.6701924894561
20
-1.41500335265269
30
0
41
1
10
93.9918166196267
20
-1.59198260565213
30
0
41
1
10
94.6370009158927
20
-1.94234924366683
30
0
41
1
10
94.9603702116966
20
-2.11608845319793
30
0
41
1
10
95.6082955438663
20
-2.46135587510003
30
0
41
1
10
95.9328711029321
20
-2.63284811634145
30
0
41
1
10
96.5829753615288
20
-2.97405140565903
30
0
41
1
10
96.908479183626
20
-3.14425873234569
30
0
41
1
10
97.8826011973269
20
-3.64386873913716
30
0
41
1
10
98.5303122748907
20
-3.96474568479809
30
0
41
1
10
99.4976056777292
20
-4.43122583102399
30
0
41
1
10
99.8190572073944
20
-4.58462733623199
30
0
41
1
10
100.462242130715
20
-4.88370716081556
30
0
41
1
10
100.783873167995
20
-5.02957691832913
30
0
41
1
10
101.426877204594
20
-5.3145926464521
30
0
41
1
10
101.748245792961
20
-5.45374375519256
30
0
41
1
10
102.390479440034
20
-5.72563428861005
30
0
41
1
10
102.711034868975
20
-5.85877977990393
30
0
41
1
10
103.674184008051
20
-6.2454092575534
30
0
41
1
10
104.318167099769
20
-6.48641275898453
30
0
41
1
10
105.285256039425
20
-6.82486445883475
30
0
41
1
10
105.607512013941
20
-6.93413638867912
30
0
41
1
10
106.253683924527
20
-7.14332019702121
30
0
41
1
10
106.5776886531
20
-7.24316196774905
30
0
41
1
10
107.227260993154
20
-7.43364965046905
30
0
41
1
10
107.553331559298
20
-7.52445984600161
30
0
41
1
10
108.203949751735
20
-7.69622088522175
30
0
41
1
10
108.527977793339
20
-7.7773716427867
30
0
41
1
10
109.498719858215
20
-8.00453523536964
30
0
41
1
10
110.144792938307
20
-8.13399237714205
30
0
41
1
10
111.110666008187
20
-8.29723811306707
30
0
41
1
10
111.431830556027
20
-8.34657627826138
30
0
41
1
10
112.073914027274
20
-8.43434476457725
30
0
41
1
10
112.39512607488
20
-8.47267277898777
30
0
41
1
10
113.037670460153
20
-8.53849191180515
30
0
41
1
10
113.358964165207
20
-8.56599588858182
30
0
41
1
10
114.001375189332
20
-8.61021858453404
30
0
41
1
10
114.322296148581
20
-8.62696153301764
30
0
41
1
10
114.959296759864
20
-8.64919877292269
30
0
41
1
10
115.275826674519
20
-8.65486803328264
30
0
41
1
10
115.592829478173
20
-8.65517842192483
30
0
0
SPLINE
5
116
100
AcDbEntity
8
1
62
256
6
ByLayer
370
18
48
1
60
0
100
AcDbSpline
70
4
71
3
72
110
73
106
40
0
40
0
40
0
40
0
40
0.0113632748490498
40
0.0113632748490498
40
0.0269726669999479
40
0.0269726669999479
40
0.0581914513017439
40
0.0581914513017439
40
0.0738008434526419
40
0.0738008434526419
40
0.0894102356035395
40
0.0894102356035395
40
0.105019627754438
40
0.105019627754438
40
0.120629019905336
40
0.120629019905336
40
0.151847804207131
40
0.151847804207131
40
0.167457196358028
40
0.167457196358028
40
0.183066588508925
40
0.183066588508925
40
0.198675980659823
40
0.198675980659823
40
0.21428537281072
40
0.21428537281072
40
0.245504157112515
40
0.245504157112515
40
0.276722941414311
40
0.276722941414311
40
0.307941725716106
40
0.307941725716106
40
0.339160510017901
40
0.339160510017901
40
0.354769902168798
40
0.354769902168798
40
0.370379294319695
40
0.370379294319695
40
0.401598078621489
40
0.401598078621489
40
0.417207470772386
40
0.417207470772386
40
0.432816862923284
40
0.432816862923284
40
0.448426255074181
40
0.448426255074181
40
0.464035647225079
40
0.464035647225079
40
0.495254431526875
40
0.495254431526875
40
0.510863823677774
40
0.510863823677774
40
0.526473215828672
40
0.526473215828672
40
0.542082607979571
40
0.542082607979571
40
0.557692000130469
40
0.557692000130469
40
0.588910784432267
40
0.588910784432267
40
0.604520176583164
40
0.604520176583164
40
0.620129568734062
40
0.620129568734062
40
0.63573896088496
40
0.63573896088496
40
0.651348353035858
40
0.651348353035858
40
0.682567137337654
40
0.682567137337654
40
0.698176529488552
40
0.698176529488552
40
0.713785921639449
40
0.713785921639449
40
0.729395313790346
40
0.729395313790346
40
0.745004705941244
40
0.745004705941244
40
0.776223490243039
40
0.776223490243039
40
0.791832882393936
40
0.791832882393936
40
0.807442274544833
40
0.807442274544833
40
0.82305166669573
40
0.82305166669573
40
0.838661058846627
40
0.838661058846627
40
0.869879843148423
40
0.869879843148423
40
0.885489235299321
40
0.885489235299321
40
0.90109862745022
40
0.90109862745022
40
0.916708019601118
40
0.916708019601118
40
0.932317411752016
40
0.932317411752016
40
0.96353619605381
40
0.96353619605381
40
0.979145588204707
40
0.979145588204707
40
0.994754980355604
40
0.994754980355604
40
1
40
1
40
1
40
1
41
1
10
151.677185668346
20
5.86404889190018
30
0
41
1
10
151.913954989254
20
5.96097016957702
30
0
41
1
10
152.150317368955
20
6.05576034276436
30
0
41
1
10
152.710141449541
20
6.27581259713102
30
0
41
1
10
153.032894896584
20
6.39962166375432
30
0
41
1
10
154.000648857867
20
6.75642276829021
30
0
41
1
10
154.645043591895
20
6.97519977270241
30
0
41
1
10
155.608791278893
20
7.27725073074063
30
0
41
1
10
155.929265405937
20
7.37382834048566
30
0
41
1
10
156.570566988287
20
7.55684621045958
30
0
41
1
10
156.891477580414
20
7.64324509953369
30
0
41
1
10
157.53354074513
20
7.80620226587905
30
0
41
1
10
157.85466438179
20
7.8827834653527
30
0
41
1
10
158.496894987369
20
8.026243283024
30
0
41
1
10
158.817714562954
20
8.09330465052224
30
0
41
1
10
159.781594640083
20
8.27867094743726
30
0
41
1
10
160.426983333733
20
8.38081875471542
30
0
41
1
10
161.397627356405
20
8.50256346141086
30
0
41
1
10
161.721379138164
20
8.53793898447276
30
0
41
1
10
162.370482994329
20
8.59756758178051
30
0
41
1
10
162.696190880302
20
8.62171209427294
30
0
41
1
10
163.345295145093
20
8.65861450558413
30
0
41
1
10
163.669205958423
20
8.67143703389021
30
0
41
1
10
164.315536782597
20
8.68595654458377
30
0
41
1
10
164.637763050162
20
8.68764656249343
30
0
41
1
10
165.602899300958
20
8.67591119060512
30
0
41
1
10
166.246162913151
20
8.64597466568335
30
0
41
1
10
167.530269437065
20
8.54262374117079
30
0
41
1
10
168.170269379759
20
8.46859419574241
30
0
41
1
10
169.454488354521
20
8.27901678245576
30
0
41
1
10
170.097572870002
20
8.16327886962554
30
0
41
1
10
171.384211123671
20
7.88781088556132
30
0
41
1
10
172.030655057681
20
7.73013820822291
30
0
41
1
10
173.004123974952
20
7.46280857859111
30
0
41
1
10
173.329730692636
20
7.36829387242764
30
0
41
1
10
173.978551747204
20
7.16943836761817
30
0
41
1
10
174.302366810838
20
7.06567196353564
30
0
41
1
10
175.27284304357
20
6.74256166264286
30
0
41
1
10
175.918009826956
20
6.51092972226425
30
0
41
1
10
176.881367156718
20
6.13718368208859
30
0
41
1
10
177.202242597544
20
6.00881235502465
30
0
41
1
10
177.844335895152
20
5.74571179769043
30
0
41
1
10
178.165389647421
20
5.61077366700536
30
0
41
1
10
178.807191447238
20
5.33370863258557
30
0
41
1
10
179.127972871385
20
5.1916303968037
30
0
41
1
10
179.768879321639
20
4.89966457364977
30
0
41
1
10
180.089385698449
20
4.75032711683593
30
0
41
1
10
181.052900718954
20
4.29514213266444
30
0
41
1
10
181.697104002422
20
3.98103004181266
30
0
41
1
10
182.664256909702
20
3.49018623316468
30
0
41
1
10
182.98700624708
20
3.32362828839823
30
0
41
1
10
183.6347973186
20
2.98733537795405
30
0
41
1
10
183.959779185852
20
2.81713494806715
30
0
41
1
10
184.610550613063
20
2.47248264126892
30
0
41
1
10
184.935090395262
20
2.29880908002431
30
0
41
1
10
185.582030809391
20
1.94793976586513
30
0
41
1
10
185.904573943053
20
1.77100895432795
30
0
41
1
10
186.872125575163
20
1.24070488614547
30
0
41
1
10
187.516112902993
20
0.886069963460727
30
0
41
1
10
188.47860818091
20
0.348938337421942
30
0
41
1
10
188.798842237792
20
0.169003446665471
30
0
41
1
10
189.440173314765
20
-0.188879531369992
30
0
41
1
10
189.761039008888
20
-0.367252715727744
30
0
41
1
10
190.402789964913
20
-0.723561628902701
30
0
41
1
10
190.723710268185
20
-0.901433348289316
30
0
41
1
10
191.365288177083
20
-1.25724880569453
30
0
41
1
10
191.68581287259
20
-1.43543290764725
30
0
41
1
10
192.64995858538
20
-1.96468884753736
30
0
41
1
10
193.295261354562
20
-2.31209421975956
30
0
41
1
10
194.265244945759
20
-2.82825739696008
30
0
41
1
10
194.588704602127
20
-2.99985792053397
30
0
41
1
10
195.238161897141
20
-3.33803540359725
30
0
41
1
10
195.563657324735
20
-3.50472683892855
30
0
41
1
10
196.212194870859
20
-3.83217832504784
30
0
41
1
10
196.535760958747
20
-3.99318393959297
30
0
41
1
10
197.181217793052
20
-4.31023816917178
30
0
41
1
10
197.502844011629
20
-4.466690385379
30
0
41
1
10
198.46781481423
20
-4.92440947758632
30
0
41
1
10
199.110744759773
20
-5.21506011130813
30
0
41
1
10
200.0728220422
20
-5.63220953421583
30
0
41
1
10
200.392834356983
20
-5.76848629668547
30
0
41
1
10
201.033636217899
20
-6.03250588969425
30
0
41
1
10
201.354397394291
20
-6.16031784776411
30
0
41
1
10
201.99632671695
20
-6.40803268127269
30
0
41
1
10
202.317477129854
20
-6.52795682874415
30
0
41
1
10
202.959942114602
20
-6.76011833773529
30
0
41
1
10
203.280943760311
20
-6.87270176333877
30
0
41
1
10
204.246093836095
20
-7.19651459822305
30
0
41
1
10
204.892721201042
20
-7.3936376438356
30
0
41
1
10
205.865823989833
20
-7.66256526296525
30
0
41
1
10
206.190925676898
20
-7.74806266700864
30
0
41
1
10
206.839284668796
20
-7.90792104961542
30
0
41
1
10
207.163063758269
20
-7.98226634388914
30
0
41
1
10
207.8095988937
20
-8.12027523263839
30
0
41
1
10
208.13232082392
20
-8.18396189341277
30
0
41
1
10
208.776475786225
20
-8.30089620420628
30
0
41
1
10
209.097648227618
20
-8.35427177040631
30
0
41
1
10
210.060405533219
20
-8.4979788828079
30
0
41
1
10
210.702516228104
20
-8.57151122170464
30
0
41
1
10
211.664439405883
20
-8.64963211001066
30
0
41
1
10
211.984696802952
20
-8.67030484754298
30
0
41
1
10
212.625239706426
20
-8.70058657210171
30
0
41
1
10
212.945995933601
20
-8.71014173565604
30
0
41
1
10
213.375081522637
20
-8.71554552113179
30
0
41
1
10
213.483034790722
20
-8.71628534387867
30
0
41
1
10
213.591021681651
20
-8.71640232089868
30
0
0
SPLINE
5
117
100
AcDbEntity
8
1
62
256
6
ByLayer
370
18
48
1
60
0
100
AcDbSpline
70
4
71
3
72
36
73
32
40
0
40
0
40
0
40
0
40
0.018114131447744
40
0.018114131447744
40
0.0726633463673119
40
0.0726633463673119
40
0.127212561286878
40
0.127212561286878
40
0.181761776206446
40
0.181761776206446
40
0.236310991126014
40
0.236310991126014
40
0.345409420965155
40
0.345409420965155
40
0.399958635884724
40
0.399958635884724
40
0.454507850804296
40
0.454507850804296
40
0.509057065723867
40
0.509057065723867
40
0.563606280643436
40
0.563606280643436
40
0.618155495563007
40
0.618155495563007
40
0.672704710482577
40
0.672704710482577
40
0.781803140321719
40
0.781803140321719
40
0.890901570160859
40
0.890901570160859
40
1
40
1
40
1
40
1
41
1
10
249.655955069332
20
5.896701005848
30
0
41
1
10
249.763821321693
20
5.94125800615524
30
0
41
1
10
249.871659763119
20
5.98540925235716
30
0
41
1
10
250.303789962897
20
6.16077044683195
30
0
41
1
10
250.62690023595
20
6.28889471311098
30
0
41
1
10
251.272358359706
20
6.53570643470494
30
0
41
1
10
251.594819802876
20
6.65428647173278
30
0
41
1
10
252.238956494607
20
6.88234446578008
30
0
41
1
10
252.560601698959
20
6.99185610166566
30
0
41
1
10
253.202847459465
20
7.20209712910389
30
0
41
1
10
253.523164536157
20
7.30310197137752
30
0
41
1
10
254.483934328125
20
7.59139567403943
30
0
41
1
10
255.125209108168
20
7.76321913254048
30
0
41
1
10
256.086588873751
20
7.99222814497972
30
0
41
1
10
256.406759154173
20
8.06388357623339
30
0
41
1
10
257.047500843083
20
8.19695971178237
30
0
41
1
10
257.368494342754
20
8.25811572615294
30
0
41
1
10
258.011538305649
20
8.36987778544878
30
0
41
1
10
258.333546536752
20
8.42050899058725
30
0
41
1
10
258.978310160086
20
8.51128156575416
30
0
41
1
10
259.300922990759
20
8.55147629646996
30
0
41
1
10
259.947178846311
20
8.62097381198743
30
0
41
1
10
260.271587595954
20
8.65011627127529
30
0
41
1
10
260.921373546814
20
8.69711947572199
30
0
41
1
10
261.245616920442
20
8.71492993406554
30
0
41
1
10
262.216044052468
20
8.75155167057429
30
0
41
1
10
262.859037068906
20
8.75338488558779
30
0
41
1
10
264.14552069863
20
8.71261498668616
30
0
41
1
10
264.78796942027
20
8.67027926850355
30
0
41
1
10
266.069525619774
20
8.54089278343392
30
0
41
1
10
266.711538010518
20
8.45476477944484
30
0
41
1
10
267.354308370117
20
8.34725359846504
30
0
0
SPLINE
5
118
100
AcDbEntity
8
1
62
256
6
ByLayer
370
18
48
1
60
0
100
AcDbSpline
70
4
71
3
72
8
73
4
40
0
40
0
40
0
40
0
40
1
40
1
40
1
40
1
41
1
10
267.14281610674
20
-8.29717619351374
30
0
41
1
10
267.094214979256
20
-8.42687546966897
30
0
41
1
10
267.045479254204
20
-8.5564122117741
30
0
41
1
10
266.996608608721
20
-8.68578602995461
30
0
0
SPLINE
5
119
100
AcDbEntity
8
1
62
256
6
ByLayer
370
18
48
1
60
0
100
AcDbSpline
70
4
71
1
72
4
73
2
40
0
40
0
40
1
40
1
41
1
10
93.6046591911732
20
0.0020900677636462
30
0
41
1
10
93.6046760822565
20
0.0020806935036433
30
0
0
SPLINE
5
11A
100
AcDbEntity
8
1
62
256
6
ByLayer
370
18
48
1
60
0
100
AcDbSpline
70
4
71
3
72
29
73
25
40
0
40
0
40
0
40
0
40
0.01642202214344
40
0.0512421825576217
40
0.0877450811248943
40
0.118142218697467
40
0.155691337602259
40
0.198824420515738
40
0.244507451601659
40
0.322797656705437
40
0.393153348359662
40
0.450533591923659
40
0.501106245260346
40
0.553576987175389
40
0.601187106071894
40
0.646705085684349
40
0.694672236546635
40
0.750764903184534
40
0.807547599874719
40
0.859733900888001
40
0.918590617976309
40
0.95624276269405
40
0.993999087636351
40
1
40
1
40
1
40
1
41
1
10
90.6216340284023
20
8.15868896450627
30
0
41
1
10
90.5322751774061
20
8.1584950711779
30
0
41
1
10
90.2534219363792
20
8.15795024831638
30
0
41
1
10
89.775671274145
20
8.15726232206296
30
0
41
1
10
89.2219232273628
20
8.15716561902954
30
0
41
1
10
88.6532921864797
20
8.15719880288353
30
0
41
1
10
88.0485732783346
20
8.15710831032931
30
0
41
1
10
87.360634867538
20
8.15628088482228
30
0
41
1
10
86.450900536309
20
8.15596587333923
30
0
41
1
10
85.3929652206575
20
8.15636261116481
30
0
41
1
10
84.2713509596286
20
8.15459952566519
30
0
41
1
10
83.3006328357307
20
8.15480355199327
30
0
41
1
10
82.4272796360294
20
8.15514836555539
30
0
41
1
10
81.6071179340999
20
8.15251790292581
30
0
41
1
10
80.8144710745732
20
8.15283294216675
30
0
41
1
10
80.0463481206346
20
8.15320492481555
30
0
41
1
10
79.2320441118771
20
8.15176587211229
30
0
41
1
10
78.3564120841435
20
8.15082300156487
30
0
41
1
10
77.4578021881694
20
8.15120873414043
30
0
41
1
10
76.5441768517643
20
8.14996450900554
30
0
41
1
10
75.7346626220609
20
8.14958372623423
30
0
41
1
10
75.0037490437027
20
8.14926459721272
30
0
41
1
10
74.5605478308539
20
8.1491282684193
30
0
41
1
10
74.3223303798156
20
8.14886223284293
30
0
41
1
10
74.2896610295125
20
8.14882326356653
30
0
0
SPLINE
5
11B
100
AcDbEntity
8
1
62
256
6
ByLayer
370
18
48
1
60
0
100
AcDbSpline
70
4
71
3
72
30
73
26
40
0
40
0
40
0
40
0
40
0.0035687163534936
40
0.0216696036234357
40
0.0475857997321127
40
0.095903402825714
40
0.132628053930417
40
0.169367901280109
40
0.212047776682916
40
0.262716903552512
40
0.310329991253849
40
0.364042654620298
40
0.428568300409665
40
0.501667839461889
40
0.57116868378302
40
0.642063197542376
40
0.702306539225728
40
0.751413469540941
40
0.798152399328134
40
0.84277956420464
40
0.885434329935267
40
0.936720463455931
40
0.969256018732811
40
0.992648125553373
40
1
40
1
40
1
40
1
41
1
10
237.601412245455
20
8.24820570190681
30
0
41
1
10
237.581929844796
20
8.24816285598845
30
0
41
1
10
237.463593338373
20
8.24788420252361
30
0
41
1
10
237.202628201459
20
8.24664362869316
30
0
41
1
10
236.697133813689
20
8.2450678319907
30
0
41
1
10
236.08911768459
20
8.24430235810388
30
0
41
1
10
235.422002021261
20
8.2443784357996
30
0
41
1
10
234.785722968482
20
8.24492647365864
30
0
41
1
10
234.073065996637
20
8.24587271965913
30
0
41
1
10
233.300838418573
20
8.24685404022239
30
0
41
1
10
232.468168711379
20
8.2468630986269
30
0
41
1
10
231.559599166376
20
8.24296344833951
30
0
41
1
10
230.511405979027
20
8.24327680735823
30
0
41
1
10
229.376714436905
20
8.24247497182736
30
0
41
1
10
228.207131869706
20
8.24232275090327
30
0
41
1
10
227.107996227803
20
8.24375848514359
30
0
41
1
10
226.120564140371
20
8.24100509725648
30
0
41
1
10
225.265475197981
20
8.24052625259228
30
0
41
1
10
224.49592384005
20
8.24088615710002
30
0
41
1
10
223.761727707086
20
8.24040967137486
30
0
41
1
10
223.0026151736
20
8.2399574833828
30
0
41
1
10
222.309741467885
20
8.23991862313815
30
0
41
1
10
221.722409089967
20
8.23990232962984
30
0
41
1
10
221.375745503492
20
8.23963588125363
30
0
41
1
10
221.20732391068
20
8.23948068101799
30
0
41
1
10
221.16704904548
20
8.23944315612678
30
0
0
SPLINE
5
11C
100
AcDbEntity
8
1
62
256
6
ByLayer
370
18
48
1
60
0
100
AcDbSpline
70
4
71
3
72
36
73
32
40
0
40
0
40
0
40
0
40
0.0178759745252919
40
0.038197135142451
40
0.0656325359951592
40
0.0944854659400831
40
0.121505130300832
40
0.14678919958417
40
0.183328669251724
40
0.212568077521536
40
0.234112223205651
40
0.265200581942145
40
0.29700892784946
40
0.32723921114505
40
0.354167272654675
40
0.400847376075163
40
0.451739573026027
40
0.496688956238105
40
0.536488451126506
40
0.578242626787584
40
0.614832861609601
40
0.649440888954144
40
0.687508893938147
40
0.733315454764768
40
0.785989275257379
40
0.841789086373213
40
0.894436633670498
40
0.925346415811657
40
0.958669298939774
40
0.994633918821536
40
1
40
1
40
1
40
1
41
1
10
69.2574552222892
20
-8.14454393678375
30
0
41
1
10
69.3661483207498
20
-8.14399548721477
30
0
41
1
10
69.6077459302878
20
-8.14284079293381
30
0
41
1
10
70.0692848056248
20
-8.1379979317999
30
0
41
1
10
70.6248720613052
20
-8.14045297167837
30
0
41
1
10
71.1948515512233
20
-8.14576760322191
30
0
41
1
10
71.7705549987884
20
-8.14680409263954
30
0
41
1
10
72.4047156484843
20
-8.1473502521884
30
0
41
1
10
73.0561201985525
20
-8.14757829139174
30
0
41
1
10
73.6805481693765
20
-8.1479889529503
30
0
41
1
10
74.266042519723
20
-8.14886028465963
30
0
41
1
10
74.8699040099472
20
-8.14925424768458
30
0
41
1
10
75.535866376231
20
-8.14952314689762
30
0
41
1
10
76.1720738672857
20
-8.14965718455827
30
0
41
1
10
76.9146541791696
20
-8.15062294938159
30
0
41
1
10
77.8049787877101
20
-8.15114080548676
30
0
41
1
10
78.8241911808266
20
-8.15088421793064
30
0
41
1
10
79.7941979983224
20
-8.15306546553145
30
0
41
1
10
80.6988472577051
20
-8.15296285598833
30
0
41
1
10
81.5437276637684
20
-8.15241865894933
30
0
41
1
10
82.3514801764912
20
-8.15483224332948
30
0
41
1
10
83.1328714471407
20
-8.15502019237996
30
0
41
1
10
83.9801730391714
20
-8.15443181378581
30
0
41
1
10
84.9566672978694
20
-8.15581084339368
30
0
41
1
10
86.0599649761462
20
-8.15624464273171
30
0
41
1
10
87.2121987054757
20
-8.15597479908027
30
0
41
1
10
88.2087467391699
20
-8.15727263733547
30
0
41
1
10
89.0446673573759
20
-8.15717086025623
30
0
41
1
10
89.7609284870181
20
-8.15713537751361
30
0
41
1
10
90.2956023336812
20
-8.15816023209308
30
0
41
1
10
90.590383378536
20
-8.15859097384953
30
0
41
1
10
90.62864714652
20
-8.15864838960908
30
0
0
SPLINE
5
11D
100
AcDbEntity
8
1
62
256
6
ByLayer
370
18
48
1
60
0
100
AcDbSpline
70
4
71
3
72
26
73
22
40
0
40
0
40
0
40
0
40
0.0161746238410867
40
0.0455800413677124
40
0.0961898996147985
40
0.133556963399358
40
0.173508485849052
40
0.218174671765354
40
0.270414985689004
40
0.321216542268415
40
0.378507264450084
40
0.445543266311292
40
0.523491216850511
40
0.611730124579701
40
0.690883735854712
40
0.757728851548193
40
0.817688732457072
40
0.872563347793823
40
0.926936927414203
40
0.98914385950501
40
1
40
1
40
1
40
1
41
1
10
139.581157049517
20
8.18880498105145
30
0
41
1
10
139.493430910394
20
8.18868836686482
30
0
41
1
10
139.246206215704
20
8.18838089138558
30
0
41
1
10
138.724386712018
20
8.18761747556022
30
0
41
1
10
138.087482075068
20
8.18775307212249
30
0
41
1
10
137.393395829787
20
8.18799322579235
30
0
41
1
10
136.731548673102
20
8.18710215191527
30
0
41
1
10
135.989007930521
20
8.18570834579779
30
0
41
1
10
135.187597185493
20
8.18586243994423
30
0
41
1
10
134.317689179977
20
8.18692283999343
30
0
41
1
10
133.367510549434
20
8.18367531671393
30
0
41
1
10
132.270045841607
20
8.18442997895642
30
0
41
1
10
131.004662344387
20
8.18256412196999
30
0
41
1
10
129.673529627779
20
8.1832017865851
30
0
41
1
10
128.402652588289
20
8.18190075154786
30
0
41
1
10
127.285192197394
20
8.18053970013654
30
0
41
1
10
126.299489259583
20
8.18110060770979
30
0
41
1
10
125.381341407211
20
8.17937230882265
30
0
41
1
10
124.451433290399
20
8.17915699406842
30
0
41
1
10
123.758973085403
20
8.17910859083551
30
0
41
1
10
123.363646469296
20
8.17862511362259
30
0
41
1
10
123.304927699975
20
8.17854731855593
30
0
0
SPLINE
5
11E
100
AcDbEntity
8
1
62
256
6
ByLayer
370
18
48
1
60
0
100
AcDbSpline
70
4
71
3
72
36
73
32
40
0
40
0
40
0
40
0
40
0.0174349172204677
40
0.0373023375724577
40
0.0641425309582101
40
0.0926459029894229
40
0.119579291896168
40
0.144922836672431
40
0.181013983334973
40
0.210604583170487
40
0.231203281435483
40
0.260826756336968
40
0.292397048685887
40
0.323159690816726
40
0.350122084712912
40
0.407066556537563
40
0.46848506686174
40
0.519351178463599
40
0.569162339787413
40
0.600810039851499
40
0.633668149001672
40
0.668464693612866
40
0.705480333412648
40
0.740755490011328
40
0.769374538351663
40
0.798645708993193
40
0.837622633103049
40
0.89115081118481
40
0.940968961373986
40
0.982911043248598
40
1
40
1
40
1
40
1
41
1
10
167.260488074488
20
-8.20573630433495
30
0
41
1
10
167.365430641969
20
-8.20518592396709
30
0
41
1
10
167.599482554346
20
-8.20399544680319
30
0
41
1
10
168.048697924444
20
-8.19903431329712
30
0
41
1
10
168.594593299001
20
-8.20104921484446
30
0
41
1
10
169.156434018176
20
-8.20651154678148
30
0
41
1
10
169.728179022957
20
-8.20760389607318
30
0
41
1
10
170.358105639814
20
-8.20813333721702
30
0
41
1
10
171.008619182111
20
-8.20836332603088
30
0
41
1
10
171.625017238286
20
-8.20860306485702
30
0
41
1
10
172.195249018339
20
-8.20910694820779
30
0
41
1
10
172.77962283266
20
-8.20955804216158
30
0
41
1
10
173.436605378057
20
-8.20958908600264
30
0
41
1
10
174.074555847709
20
-8.20962827506924
30
0
41
1
10
174.893830619775
20
-8.21020068913589
30
0
41
1
10
175.932098544868
20
-8.21124670005281
30
0
41
1
10
177.141179505967
20
-8.21138445494441
30
0
41
1
10
178.299274539083
20
-8.21350627156079
30
0
41
1
10
179.244679891102
20
-8.21280603694467
30
0
41
1
10
180.061423804949
20
-8.21313161489601
30
0
41
1
10
180.770660042839
20
-8.2145091740089
30
0
41
1
10
181.518515743138
20
-8.21387648451889
30
0
41
1
10
182.283585276393
20
-8.21357465593539
30
0
41
1
10
183.004387494467
20
-8.21465389702277
30
0
41
1
10
183.670020865726
20
-8.21559792146266
30
0
41
1
10
184.362073237188
20
-8.21543249572929
30
0
41
1
10
185.232246765663
20
-8.21537008347471
30
0
41
1
10
186.248385691081
20
-8.21848813477322
30
0
41
1
10
187.286612402412
20
-8.21702701929368
30
0
41
1
10
188.06210477353
20
-8.21788578292126
30
0
41
1
10
188.483384302413
20
-8.21853809341832
30
0
41
1
10
188.605347548503
20
-8.21875979732096
30
0
0
SPLINE
5
11F
100
AcDbEntity
8
1
62
256
6
ByLayer
370
18
48
1
60
0
100
AcDbSpline
70
4
71
3
72
35
73
31
40
0
40
0
40
0
40
0
40
0.0196413552581629
40
0.0377123338350273
40
0.0620275391047271
40
0.0882938176480004
40
0.114967916568641
40
0.142083114350169
40
0.182974324644358
40
0.219199015165812
40
0.261531324891782
40
0.304605202584161
40
0.342175598149018
40
0.376309720040007
40
0.412935411717674
40
0.452593498625078
40
0.497379830538164
40
0.548732799935741
40
0.604120208237829
40
0.665506659662218
40
0.717939976522116
40
0.762431748535198
40
0.802047290834162
40
0.845318001657564
40
0.893915182734027
40
0.913560130443718
40
0.938107370516732
40
0.967390056162784
40
0.988911307002849
40
1
40
1
40
1
40
1
41
1
10
118.197265666309
20
-8.17524332565429
30
0
41
1
10
118.302454950282
20
-8.17434368274499
30
0
41
1
10
118.52143867813
20
-8.17263000560513
30
0
41
1
10
118.951149741569
20
-8.16534598828187
30
0
41
1
10
119.452578006616
20
-8.16904242077425
30
0
41
1
10
119.982589486762
20
-8.17452538977918
30
0
41
1
10
120.548047795659
20
-8.17667241639353
30
0
41
1
10
121.217255803325
20
-8.17766977329666
30
0
41
1
10
121.963174541355
20
-8.17690422026968
30
0
41
1
10
122.820721193313
20
-8.17795377607177
30
0
41
1
10
123.690481193254
20
-8.17908773909949
30
0
41
1
10
124.573725375781
20
-8.17918195654343
30
0
41
1
10
125.397114053624
20
-8.17941802220201
30
0
41
1
10
126.174474978568
20
-8.18094121466132
30
0
41
1
10
126.966757656187
20
-8.1807322941807
30
0
41
1
10
127.835489462893
20
-8.18080149199915
30
0
41
1
10
128.809897607979
20
-8.18296781647126
30
0
41
1
10
129.897154825985
20
-8.1826878437879
30
0
41
1
10
131.103543341296
20
-8.18282641134712
30
0
41
1
10
132.317680428983
20
-8.18433458875245
30
0
41
1
10
133.453630686882
20
-8.18391299062125
30
0
41
1
10
134.433367441629
20
-8.18688897552511
30
0
41
1
10
135.347362025856
20
-8.18577520746859
30
0
41
1
10
136.290815095364
20
-8.18585756233216
30
0
41
1
10
137.09096628611
20
-8.18786762355862
30
0
41
1
10
137.756774650212
20
-8.18787656382059
30
0
41
1
10
138.283978131099
20
-8.18768303046025
30
0
41
1
10
138.824698952453
20
-8.18774755678629
30
0
41
1
10
139.268691825369
20
-8.18841251249586
30
0
41
1
10
139.502645677954
20
-8.18870223787383
30
0
41
1
10
139.582198697076
20
-8.18880604715733
30
0
0
SPLINE
5
120
100
AcDbEntity
8
1
62
256
6
ByLayer
370
18
48
1
60
0
100
AcDbSpline
70
4
71
3
72
27
73
23
40
0
40
0
40
0
40
0
40
0.0043761570401555
40
0.0397717721489707
40
0.0738012326318794
40
0.11301770808804
40
0.152976510153622
40
0.202500691166923
40
0.257240134539189
40
0.343550839615455
40
0.415570068708675
40
0.476164926461451
40
0.534877248569341
40
0.586947400269455
40
0.637360344082054
40
0.690379578019296
40
0.752922932933287
40
0.814932564063703
40
0.874216566803103
40
0.941215252098296
40
0.989072183580163
40
1
40
1
40
1
40
1
41
1
10
41.6303549759526
20
8.13016091822252
30
0
41
1
10
41.6064320180292
20
8.13014541943971
30
0
41
1
10
41.388979432936
20
8.12999156360962
30
0
41
1
10
40.9841310159549
20
8.12880582129966
30
0
41
1
10
40.3889105767236
20
8.12846339729981
30
0
41
1
10
39.7684832707188
20
8.12841934166025
30
0
41
1
10
39.0632021440813
20
8.12931802138013
30
0
41
1
10
38.2728372904676
20
8.12652618419827
30
0
41
1
10
37.2284586811992
20
8.12684961819724
30
0
41
1
10
36.0608025187662
20
8.12610020260999
30
0
41
1
10
34.8610612934269
20
8.12448223541358
30
0
41
1
10
33.8125585532515
20
8.12525498058255
30
0
41
1
10
32.8733874223408
20
8.12356556850133
30
0
41
1
10
31.9900072669362
20
8.12313632235177
30
0
41
1
10
31.1378365496727
20
8.12337001663147
30
0
41
1
10
30.2282695748212
20
8.12157643384748
30
0
41
1
10
29.2551466374761
20
8.12084994440585
30
0
41
1
10
28.2476856679285
20
8.12071644530221
30
0
41
1
10
27.2158240206055
20
8.11931681605446
30
0
41
1
10
26.2615280560821
20
8.11942195574341
30
0
41
1
10
25.5722293191822
20
8.11890861903714
30
0
41
1
10
25.2500819154529
20
8.11854986313148
30
0
41
1
10
25.1901963181401
20
8.11848107782913
30
0
0
SPLINE
5
121
100
AcDbEntity
8
1
62
256
6
ByLayer
370
18
48
1
60
0
100
AcDbSpline
70
4
71
1
72
4
73
2
40
0
40
0
40
1
40
1
41
1
10
265.323743515604
20
-8.26765936788794
30
0
41
1
10
266.991199268468
20
-8.26833115662302
30
0
0
SPLINE
5
122
100
AcDbEntity
8
1
62
256
6
ByLayer
370
18
48
1
60
0
100
AcDbSpline
70
4
71
3
72
37
73
33
40
0
40
0
40
0
40
0
40
0.0197456245375177
40
0.0379543105762633
40
0.055664393568929
40
0.0871583279817948
40
0.119297936630587
40
0.151976887538653
40
0.188879553355415
40
0.222073720425671
40
0.280085818981014
40
0.335773858391669
40
0.372116380738881
40
0.410320129893666
40
0.448460247899437
40
0.492979667841266
40
0.554247782934065
40
0.605064336656484
40
0.64575188504271
40
0.675303759647261
40
0.709730697128688
40
0.748481208347337
40
0.784653143111628
40
0.818820767196279
40
0.853630140654235
40
0.888182111182406
40
0.905071741000305
40
0.919173911351627
40
0.941033885930979
40
0.968221217286717
40
0.990468571772171
40
1
40
1
40
1
40
1
41
1
10
20.1941443222023
20
-8.11428603658013
30
0
41
1
10
20.3095608656097
20
-8.11367811319559
30
0
41
1
10
20.5436143930405
20
-8.11235449302754
30
0
41
1
10
20.9269469024346
20
-8.10722798259604
30
0
41
1
10
21.4170897457269
20
-8.10708335223063
30
0
41
1
10
21.9777576121959
20
-8.11422734554105
30
0
41
1
10
22.6588637180292
20
-8.11604406429186
30
0
41
1
10
23.3825255034261
20
-8.11706485973346
30
0
41
1
10
24.1185359810347
20
-8.11709148085001
30
0
41
1
10
25.0369491339885
20
-8.11816168781735
30
0
41
1
10
26.0887045809677
20
-8.11952841947462
30
0
41
1
10
27.1644019385182
20
-8.11931249206029
30
0
41
1
10
28.0977781801879
20
-8.12047299290478
30
0
41
1
10
28.9054406600275
20
-8.12093853624742
30
0
41
1
10
29.7716996995661
20
-8.12087216469837
30
0
41
1
10
30.8032654439038
20
-8.12327894221391
30
0
41
1
10
31.9256804435049
20
-8.123012568365
30
0
41
1
10
33.0206477084139
20
-8.12391206442885
30
0
41
1
10
33.8882850396109
20
-8.12505613902917
30
0
41
1
10
34.6384722080491
20
-8.12485388963793
30
0
41
1
10
35.3747028674738
20
-8.12471692474949
30
0
41
1
10
36.1582838898423
20
-8.12627639105651
30
0
41
1
10
36.9402610776115
20
-8.12684563739222
30
0
41
1
10
37.6936641246303
20
-8.1265021748714
30
0
41
1
10
38.4356387271395
20
-8.1270854342566
30
0
41
1
10
39.0538311589064
20
-8.1290773269138
30
0
41
1
10
39.5236013871069
20
-8.12864123024036
30
0
41
1
10
39.9024061073251
20
-8.12851082543168
30
0
41
1
10
40.3550132106274
20
-8.12844146493458
30
0
41
1
10
40.8660155471383
20
-8.12872258310802
30
0
41
1
10
41.2886037578781
20
-8.12961505547759
30
0
41
1
10
41.5163718875132
20
-8.13000386263988
30
0
41
1
10
41.5846870070708
20
-8.13012407025511
30
0
0
SPLINE
5
123
100
AcDbEntity
8
1
62
256
6
ByLayer
370
18
48
1
60
0
100
AcDbSpline
70
4
71
3
72
35
73
31
40
0
40
0
40
0
40
0
40
0.0205787424221947
40
0.0403722233521304
40
0.0671340497375352
40
0.0955617985579438
40
0.122387226675258
40
0.147603768344654
40
0.183646542587383
40
0.213085119286794
40
0.233649473447896
40
0.263436146861476
40
0.294957462164611
40
0.325505004687594
40
0.352351476294159
40
0.409454648545927
40
0.470581511425468
40
0.52104042480923
40
0.570703739313712
40
0.611328021399329
40
0.654316498561976
40
0.700881494933627
40
0.745657448118012
40
0.783201986494709
40
0.837835418079497
40
0.892623781991449
40
0.929524053777829
40
0.962982251031425
40
0.992649598729021
40
1
40
1
40
1
40
1
41
1
10
216.203209536345
20
-8.23692757801174
30
0
41
1
10
216.326954314731
20
-8.23626941156743
30
0
41
1
10
216.581304444436
20
-8.23495751284713
30
0
41
1
10
217.052642280844
20
-8.22969982287586
30
0
41
1
10
217.599909475782
20
-8.23164451066759
30
0
41
1
10
218.16241072334
20
-8.23706690910549
30
0
41
1
10
218.73476042936
20
-8.23811721095709
30
0
41
1
10
219.365697518602
20
-8.23852653439104
30
0
41
1
10
220.017015504253
20
-8.23869760452718
30
0
41
1
10
220.634700498321
20
-8.23894088746823
30
0
41
1
10
221.20752084482
20
-8.23949209215377
30
0
41
1
10
221.795289361583
20
-8.2399666585284
30
0
41
1
10
222.454718774392
20
-8.23991281606024
30
0
41
1
10
223.093022801433
20
-8.23999186790434
30
0
41
1
10
223.915015467421
20
-8.24055750916048
30
0
41
1
10
224.956515553777
20
-8.24059694076192
30
0
41
1
10
226.167557516573
20
-8.24124855563619
30
0
41
1
10
227.325156505056
20
-8.24351447594844
30
0
41
1
10
228.335605868293
20
-8.24236513552805
30
0
41
1
10
229.292339437952
20
-8.24245201620687
30
0
41
1
10
230.226708274234
20
-8.24315128018134
30
0
41
1
10
231.191147378492
20
-8.24269854938322
30
0
41
1
10
232.116240304204
20
-8.24562194812373
30
0
41
1
10
233.099479234331
20
-8.24733142515706
30
0
41
1
10
234.154558782479
20
-8.24570348300264
30
0
41
1
10
235.204984108264
20
-8.24437551629703
30
0
41
1
10
236.103511832392
20
-8.24434262946735
30
0
41
1
10
236.821343701704
20
-8.2450731050717
30
0
41
1
10
237.327942090358
20
-8.24763867968949
30
0
41
1
10
237.593012476567
20
-8.24810438122452
30
0
41
1
10
237.645628087836
20
-8.24818863218067
30
0
0
SPLINE
5
124
100
AcDbEntity
8
1
62
256
6
ByLayer
370
18
48
1
60
0
100
AcDbSpline
70
4
71
3
72
28
73
24
40
0
40
0
40
0
40
0
40
0.0076635841243876
40
0.0471287082237536
40
0.10105793181864
40
0.148471060594342
40
0.194036747685694
40
0.24280480081666
40
0.289288959978611
40
0.339591522994932
40
0.399407464153851
40
0.469393706689051
40
0.545076534445461
40
0.622072183360146
40
0.692260297160332
40
0.747239715618504
40
0.798322497320793
40
0.846980805896794
40
0.893977935603701
40
0.952439239712907
40
0.980487116997922
40
0.999694116145665
40
1
40
1
40
1
40
1
41
1
10
188.725940726013
20
8.2186378894593
30
0
41
1
10
188.683726268679
20
8.21864940484912
30
0
41
1
10
188.424087294567
20
8.21868355410891
30
0
41
1
10
187.866523531163
20
8.21701506497843
30
0
41
1
10
187.089727264076
20
8.21750392827386
30
0
41
1
10
186.28061422649
20
8.21818643108247
30
0
41
1
10
185.498552285485
20
8.21615899646832
30
0
41
1
10
184.721841447207
20
8.21525051411911
30
0
41
1
10
183.918939047513
20
8.21569881573697
30
0
41
1
10
183.055112026825
20
8.21481863322308
30
0
41
1
10
182.061645036619
20
8.21325738688378
30
0
41
1
10
180.928179203273
20
8.21492546992081
30
0
41
1
10
179.699945992888
20
8.21231925879698
30
0
41
1
10
178.470601802508
20
8.21361933652653
30
0
41
1
10
177.355458152201
20
8.21178429716372
30
0
41
1
10
176.383259672461
20
8.21117347900795
30
0
41
1
10
175.52980694614
20
8.21097442018404
30
0
41
1
10
174.720398826205
20
8.21003093975631
30
0
41
1
10
173.870278944361
20
8.2095484641433
30
0
41
1
10
173.133849341061
20
8.20961276424316
30
0
41
1
10
172.550723533176
20
8.20940582253533
30
0
41
1
10
172.288372984061
20
8.20918534440384
30
0
41
1
10
172.180739357598
20
8.20908961219484
30
0
41
1
10
172.179052093817
20
8.20908811027718
30
0
0
SPLINE
5
125
100
AcDbEntity
8
1
62
256
6
ByLayer
370
18
48
1
60
0
100
AcDbSpline
70
4
71
2
72
6
73
3
40
0
40
0
40
0
40
1
40
1
40
1
41
1
10
44.6009264604752
20
0.0042795671767522
30
0
41
1
10
44.6009171647448
20
0.0042840121255381
30
0
41
1
10
44.6009078690238
20
0.0042887026529286
30
0
0
LINE
5
7B
100
AcDbEntity
8
SK1
62
256
6
ByLayer
370
18
48
1
60
0
100
AcDbLine
10
-48
20
-1.49085
30
0
11
-48
21
-4.5
31
0
39
0
210
0
220
0
230
1
0
LINE
5
7D
100
AcDbEntity
8
SK1
62
256
6
ByLayer
370
18
48
1
60
0
100
AcDbLine
10
-48
20
4.5
30
0
11
-48
21
2.071187
31
0
39
0
210
0
220
0
230
1
0
LINE
5
7E
100
AcDbEntity
8
SK1
62
256
6
ByLayer
370
18
48
1
60
0
100
AcDbLine
10
0
20
-9
30
0
11
0
21
9
31
0
39
0
210
0
220
0
230
1
0
LINE
5
7F
100
AcDbEntity
8
SK1
62
256
6
ByLayer
370
13
48
1
60
0
100
AcDbLine
10
-45.6
20
2.269811
30
0
11
-45.6
21
1.223519
31
0
39
0
210
0
220
0
230
1
0
LINE
5
80
100
AcDbEntity
8
SK1
62
256
6
ByLayer
370
18
48
1
60
0
100
AcDbLine
10
-45.5
20
-1.111591
30
0
11
-45.5
21
2.182121
31
0
39
0
210
0
220
0
230
1
0
LINE
5
81
100
AcDbEntity
8
SK1
62
256
6
ByLayer
370
18
48
1
60
0
100
AcDbLine
10
-48
20
1.989435
30
0
11
-48
21
1.49085
31
0
39
0
210
0
220
0
230
1
0
LINE
5
82
100
AcDbEntity
8
SK1
62
256
6
ByLayer
370
18
48
1
60
0
100
AcDbLine
10
-45.401924
20
9
30
0
11
-45.401924
21
-9
31
0
39
0
210
0
220
0
230
1
0
LINE
5
83
100
AcDbEntity
8
1
62
256
6
ByLayer
370
18
48
1
60
0
100
AcDbLine
10
6
20
-5.189884
30
0
11
6
21
6.610134
31
0
39
0
210
0
220
0
230
1
0
LINE
5
84
100
AcDbEntity
8
1
62
256
6
ByLayer
370
13
48
1
60
0
100
AcDbLine
10
266.476349
20
2.396992
30
0
11
269.954853
21
0.195016
31
0
39
0
210
0
220
0
230
1
0
LINE
5
85
100
AcDbEntity
8
1
62
256
6
ByLayer
370
18
48
1
60
0
100
AcDbLine
10
269.798792
20
-0.398722
30
0
11
266.937598
21
-8.259787
31
0
39
0
210
0
220
0
230
1
0
LINE
5
86
100
AcDbEntity
8
1
62
256
6
ByLayer
370
18
48
1
60
0
100
AcDbLine
10
269.51001
20
2.394829
30
0
11
269.954853
21
0.195016
31
0
39
0
210
0
220
0
230
1
0
LINE
5
87
100
AcDbEntity
8
1
62
256
6
ByLayer
370
18
48
1
60
0
100
AcDbLine
10
0
20
-9
30
0
11
0
21
9
31
0
39
0
210
0
220
0
230
1
0
LINE
5
88
100
AcDbEntity
8
1
62
256
6
ByLayer
370
18
48
1
60
0
100
AcDbLine
10
270
20
0.033257
30
0
11
270
21
-0.033257
31
0
39
0
210
0
220
0
230
1
0
LINE
5
89
100
AcDbEntity
8
1
62
256
6
ByLayer
370
13
48
1
60
0
100
AcDbLine
10
266.361019
20
2.290579
30
0
11
269.984491
21
-0.003166
31
0
39
0
210
0
220
0
230
1
0
LINE
5
8A
100
AcDbEntity
8
1
62
256
6
ByLayer
370
18
48
1
60
0
100
AcDbLine
10
4
20
8.585403
30
0
11
4
21
8.36929
31
0
39
0
210
0
220
0
230
1
0
LINE
5
8B
100
AcDbEntity
8
1
62
256
6
ByLayer
370
18
48
1
60
0
100
AcDbLine
10
265.59954
20
-6.098331
30
0
11
269.798792
21
-0.398722
31
0
39
0
210
0
220
0
230
1
0
LINE
5
8C
100
AcDbEntity
8
1
62
256
6
ByLayer
370
18
48
1
60
0
100
AcDbLine
10
4
20
-8.585403
30
0
11
4
21
8.36929
31
0
39
0
210
0
220
0
230
1
0
LINE
5
8D
100
AcDbEntity
8
1
62
256
6
ByLayer
370
13
48
1
60
0
100
AcDbLine
10
0.537312
20
8.792702
30
0
11
0.537312
21
-8.792702
31
0
39
0
210
0
220
0
230
1
0
LINE
5
8E
100
AcDbEntity
8
1
62
256
6
ByLayer
370
18
48
1
60
0
100
AcDbLine
10
269.984491
20
-0.003166
30
0
11
269.798792
21
-0.398722
31
0
39
0
210
0
220
0
230
1
0
LINE
5
8F
100
AcDbEntity
8
1
62
256
6
ByLayer
370
13
48
1
60
0
100
AcDbLine
10
1.074625
20
-8.585403
30
0
11
1.074625
21
8.585403
31
0
39
0
210
0
220
0
230
1
0
LINE
5
90
100
AcDbEntity
8
1
62
256
6
ByLayer
370
18
48
1
60
0
100
AcDbLine
10
269.51001
20
-2.394829
30
0
11
269.954853
21
-0.195016
31
0
39
0
210
0
220
0
230
1
0
LINE
5
91
100
AcDbEntity
8
80
62
256
6
ByLayer
370
18
48
1
60
0
100
AcDbLine
10
0
20
0
30
0
11
-5
21
0
31
0
39
0
210
0
220
0
230
1
0
LINE
5
92
100
AcDbEntity
8
4
62
256
6
ByLayer
370
18
48
0.05
60
0
100
AcDbLine
10
270
20
0
30
0
11
0
21
0
31
0
39
0
210
0
220
0
230
1
0
LINE
5
94
100
AcDbEntity
8
SK4
62
256
6
ByLayer
370
18
48
0.05
60
0
100
AcDbLine
10
275
20
0
30
0
11
-53
21
0
31
0
39
0
210
0
220
0
230
1
0
LINE
5
96
100
AcDbEntity
8
SK1
62
256
6
ByLayer
370
18
48
1
60
0
100
AcDbLine
10
-48
20
-4.5
30
0
11
-45.401924
21
-9
31
0
39
0
210
0
220
0
230
1
0
LINE
5
97
100
AcDbEntity
8
SK1
62
256
6
ByLayer
370
18
48
1
60
0
100
AcDbLine
10
-45.401924
20
9
30
0
11
-48
21
4.5
31
0
39
0
210
0
220
0
230
1
0
LINE
5
98
100
AcDbEntity
8
SK1
62
256
6
ByLayer
370
18
48
1
60
0
100
AcDbLine
10
-45.401924
20
-9
30
0
11
0
21
-9
31
0
39
0
210
0
220
0
230
1
0
LINE
5
99
100
AcDbEntity
8
SK1
62
256
6
ByLayer
370
18
48
1
60
0
100
AcDbLine
10
0
20
9
30
0
11
-45.401924
21
9
31
0
39
0
210
0
220
0
230
1
0
LINE
5
9A
100
AcDbEntity
8
1
62
256
6
ByLayer
370
18
48
1
60
0
100
AcDbLine
10
265.108647
20
8.748596
30
0
11
262.603342
21
8.74703
31
0
39
0
210
0
220
0
230
1
0
LINE
5
9B
100
AcDbEntity
8
1
62
256
6
ByLayer
370
18
48
1
60
0
100
AcDbLine
10
167.10902
20
8.687347
30
0
11
164.603027
21
8.68578
31
0
39
0
210
0
220
0
230
1
0
LINE
5
9C
100
AcDbEntity
8
1
62
256
6
ByLayer
370
18
48
1
60
0
100
AcDbLine
10
69.108015
20
8.626096
30
0
11
66.605127
21
8.624532
31
0
39
0
210
0
220
0
230
1
0
LINE
5
9D
100
AcDbEntity
8
1
62
256
6
ByLayer
370
18
48
1
60
0
100
AcDbLine
10
66.605127
20
-8.624532
30
0
11
69.107764
21
-8.626096
31
0
39
0
210
0
220
0
230
1
0
LINE
5
9E
100
AcDbEntity
8
1
62
256
6
ByLayer
370
18
48
1
60
0
100
AcDbLine
10
164.603027
20
-8.68578
30
0
11
167.109054
21
-8.687347
31
0
39
0
210
0
220
0
230
1
0
LINE
5
9F
100
AcDbEntity
8
1
62
256
6
ByLayer
370
18
48
1
60
0
100
AcDbLine
10
262.603342
20
-8.74703
30
0
11
265.109209
21
-8.748597
31
0
39
0
210
0
220
0
230
1
0
LINE
5
A0
100
AcDbEntity
8
1
62
256
6
ByLayer
370
18
48
1
60
0
100
AcDbLine
10
4
20
8.585403
30
0
11
1.074625
21
8.585403
31
0
39
0
210
0
220
0
230
1
0
LINE
5
A1
100
AcDbEntity
8
1
62
256
6
ByLayer
370
18
48
1
60
0
100
AcDbLine
10
1.074625
20
-8.585403
30
0
11
4
21
-8.585403
31
0
39
0
210
0
220
0
230
1
0
LINE
5
A2
100
AcDbEntity
8
1
62
256
6
ByLayer
370
18
48
1
60
0
100
AcDbLine
10
4
20
-8.585403
30
0
11
4.522328
21
-8.58573
31
0
39
0
210
0
220
0
230
1
0
LINE
5
A3
100
AcDbEntity
8
1
62
256
6
ByLayer
370
18
48
1
60
0
100
AcDbLine
10
15.237506
20
-8.592427
30
0
11
20.107922
21
-8.595471
31
0
39
0
210
0
220
0
230
1
0
LINE
5
A4
100
AcDbEntity
8
1
62
256
6
ByLayer
370
18
48
1
60
0
100
AcDbLine
10
115.603584
20
-8.655156
30
0
11
118.10888
21
-8.656721
31
0
39
0
210
0
220
0
230
1
0
LINE
5
A5
100
AcDbEntity
8
1
62
256
6
ByLayer
370
18
48
1
60
0
100
AcDbLine
10
213.605175
20
-8.716407
30
0
11
216.108754
21
-8.717971
31
0
39
0
210
0
220
0
230
1
0
LINE
5
A6
100
AcDbEntity
8
1
62
256
6
ByLayer
370
18
48
1
60
0
100
AcDbLine
10
216.109297
20
8.717972
30
0
11
213.605175
21
8.716407
31
0
39
0
210
0
220
0
230
1
0
LINE
5
A7
100
AcDbEntity
8
1
62
256
6
ByLayer
370
18
48
1
60
0
100
AcDbLine
10
118.10807
20
8.656721
30
0
11
115.603584
21
8.655156
31
0
39
0
210
0
220
0
230
1
0
LINE
5
A8
100
AcDbEntity
8
1
62
256
6
ByLayer
370
18
48
1
60
0
100
AcDbLine
10
20.108329
20
8.595471
30
0
11
15.237506
21
8.592427
31
0
39
0
210
0
220
0
230
1
0
LINE
5
A9
100
AcDbEntity
8
1
62
256
6
ByLayer
370
18
48
1
60
0
100
AcDbLine
10
4.522328
20
8.58573
30
0
11
4
21
8.585403
31
0
39
0
210
0
220
0
230
1
0
LINE
5
AA
100
AcDbEntity
8
81
62
256
6
ByLayer
370
18
48
1
60
0
100
AcDbLine
10
270
20
0
30
0
11
275
21
0
31
0
39
0
210
0
220
0
230
1
0
LINE
5
AB
100
AcDbEntity
8
SK2
62
256
6
ByLayer
370
13
48
1
60
0
100
AcDbLine
10
-56.625163
20
-9
30
0
11
-56.625163
21
39.857173
31
0
39
0
210
0
220
0
230
1
0
LINE
5
AD
100
AcDbEntity
8
SK2
62
256
6
ByLayer
370
13
48
1
60
0
100
AcDbLine
10
-49.5875
20
9
30
0
11
-58.625163
21
9
31
0
39
0
210
0
220
0
230
1
0
LINE
5
AE
100
AcDbEntity
8
SK2
62
256
6
ByLayer
370
13
48
1
60
0
100
AcDbLine
10
-49.5875
20
-9
30
0
11
-58.625163
21
-9
31
0
39
0
210
0
220
0
230
1
0
LINE
5
AF
100
AcDbEntity
8
1
62
256
6
ByLayer
370
18
48
1
60
1
100
AcDbLine
10
-56.625163
20
9
30
0
11
-56.164379
21
5.500002
31
0
39
0
210
0
220
0
230
1
0
LINE
5
B0
100
AcDbEntity
8
1
62
256
6
ByLayer
370
18
48
1
60
1
100
AcDbLine
10
-56.164379
20
5.500002
30
0
11
-57.085946
21
5.499998
31
0
39
0
210
0
220
0
230
1
0
LINE
5
B1
100
AcDbEntity
8
1
62
256
6
ByLayer
370
18
48
1
60
1
100
AcDbLine
10
-57.085946
20
5.499998
30
0
11
-56.625163
21
9
31
0
39
0
210
0
220
0
230
1
0
LINE
5
B2
100
AcDbEntity
8
1
62
256
6
ByLayer
370
18
48
1
60
1
100
AcDbLine
10
-56.625163
20
-9
30
0
11
-57.085946
21
-5.500002
31
0
39
0
210
0
220
0
230
1
0
LINE
5
B3
100
AcDbEntity
8
1
62
256
6
ByLayer
370
18
48
1
60
1
100
AcDbLine
10
-57.085946
20
-5.500002
30
0
11
-56.164379
21
-5.499998
31
0
39
0
210
0
220
0
230
1
0
LINE
5
B4
100
AcDbEntity
8
1
62
256
6
ByLayer
370
18
48
1
60
1
100
AcDbLine
10
-56.164379
20
-5.499998
30
0
11
-56.625163
21
-9
31
0
39
0
210
0
220
0
230
1
0
LINE
5
B5
100
AcDbEntity
8
2
62
256
6
ByLayer
370
13
48
1
60
0
100
AcDbLine
10
282.083343
20
-8.75
30
0
11
282.083343
21
38.200259
31
0
39
0
210
0
220
0
230
1
0
LINE
5
B7
100
AcDbEntity
8
2
62
256
6
ByLayer
370
13
48
1
60
0
100
AcDbLine
10
268.7209
20
8.75
30
0
11
284.083343
21
8.75
31
0
39
0
210
0
220
0
230
1
0
LINE
5
B8
100
AcDbEntity
8
2
62
256
6
ByLayer
370
13
48
1
60
0
100
AcDbLine
10
268.7209
20
-8.75
30
0
11
284.083343
21
-8.75
31
0
39
0
210
0
220
0
230
1
0
LINE
5
B9
100
AcDbEntity
8
1
62
256
6
ByLayer
370
18
48
1
60
1
100
AcDbLine
10
282.083343
20
8.75
30
0
11
282.544126
21
5.250002
31
0
39
0
210
0
220
0
230
1
0
LINE
5
BA
100
AcDbEntity
8
1
62
256
6
ByLayer
370
18
48
1
60
1
100
AcDbLine
10
282.544126
20
5.250002
30
0
11
281.622559
21
5.249998
31
0
39
0
210
0
220
0
230
1
0
LINE
5
BB
100
AcDbEntity
8
1
62
256
6
ByLayer
370
18
48
1
60
1
100
AcDbLine
10
281.622559
20
5.249998
30
0
11
282.083343
21
8.75
31
0
39
0
210
0
220
0
230
1
0
LINE
5
BC
100
AcDbEntity
8
1
62
256
6
ByLayer
370
18
48
1
60
1
100
AcDbLine
10
282.083343
20
-8.75
30
0
11
281.622559
21
-5.250002
31
0
39
0
210
0
220
0
230
1
0
LINE
5
BD
100
AcDbEntity
8
1
62
256
6
ByLayer
370
18
48
1
60
1
100
AcDbLine
10
281.622559
20
-5.250002
30
0
11
282.544126
21
-5.249998
31
0
39
0
210
0
220
0
230
1
0
LINE
5
BE
100
AcDbEntity
8
1
62
256
6
ByLayer
370
18
48
1
60
1
100
AcDbLine
10
282.544126
20
-5.249998
30
0
11
282.083343
21
-8.75
31
0
39
0
210
0
220
0
230
1
0
LINE
5
12C
100
AcDbEntity
8
1
62
256
6
ByLayer
370
18
48
1
60
1
100
AcDbLine
10
-56.625163
20
9
30
0
11
-56.164379
21
5.500002
31
0
39
0
210
0
220
0
230
1
0
LINE
5
12D
100
AcDbEntity
8
1
62
256
6
ByLayer
370
18
48
1
60
1
100
AcDbLine
10
-56.164379
20
5.500002
30
0
11
-57.085946
21
5.499998
31
0
39
0
210
0
220
0
230
1
0
LINE
5
12E
100
AcDbEntity
8
1
62
256
6
ByLayer
370
18
48
1
60
1
100
AcDbLine
10
-57.085946
20
5.499998
30
0
11
-56.625163
21
9
31
0
39
0
210
0
220
0
230
1
0
LINE
5
130
100
AcDbEntity
8
1
62
256
6
ByLayer
370
18
48
1
60
1
100
AcDbLine
10
-56.625163
20
-9
30
0
11
-57.085946
21
-5.500002
31
0
39
0
210
0
220
0
230
1
0
LINE
5
131
100
AcDbEntity
8
1
62
256
6
ByLayer
370
18
48
1
60
1
100
AcDbLine
10
-57.085946
20
-5.500002
30
0
11
-56.164379
21
-5.499998
31
0
39
0
210
0
220
0
230
1
0
LINE
5
132
100
AcDbEntity
8
1
62
256
6
ByLayer
370
18
48
1
60
1
100
AcDbLine
10
-56.164379
20
-5.499998
30
0
11
-56.625163
21
-9
31
0
39
0
210
0
220
0
230
1
0
LINE
5
136
100
AcDbEntity
8
1
62
256
6
ByLayer
370
18
48
1
60
1
100
AcDbLine
10
282.083343
20
8.75
30
0
11
282.544126
21
5.250002
31
0
39
0
210
0
220
0
230
1
0
LINE
5
137
100
AcDbEntity
8
1
62
256
6
ByLayer
370
18
48
1
60
1
100
AcDbLine
10
282.544126
20
5.250002
30
0
11
281.622559
21
5.249998
31
0
39
0
210
0
220
0
230
1
0
LINE
5
138
100
AcDbEntity
8
1
62
256
6
ByLayer
370
18
48
1
60
1
100
AcDbLine
10
281.622559
20
5.249998
30
0
11
282.083343
21
8.75
31
0
39
0
210
0
220
0
230
1
0
LINE
5
13A
100
AcDbEntity
8
1
62
256
6
ByLayer
370
18
48
1
60
1
100
AcDbLine
10
282.083343
20
-8.75
30
0
11
281.622559
21
-5.250002
31
0
39
0
210
0
220
0
230
1
0
LINE
5
13B
100
AcDbEntity
8
1
62
256
6
ByLayer
370
18
48
1
60
1
100
AcDbLine
10
281.622559
20
-5.250002
30
0
11
282.544126
21
-5.249998
31
0
39
0
210
0
220
0
230
1
0
LINE
5
13C
100
AcDbEntity
8
1
62
256
6
ByLayer
370
18
48
1
60
1
100
AcDbLine
10
282.544126
20
-5.249998
30
0
11
282.083343
21
-8.75
31
0
39
0
210
0
220
0
230
1
0
MTEXT
5
126
100
AcDbEntity
8
SK6
62
256
6
ByLayer
370
13
48
1
60
0
100
AcDbMText
10
84.15734
20
41.290328
30
0
210
0
220
0
230
1
1
\W0.7109;861.1-1750-210A1-GM GC34
40
3.5
41
0
44
1.084337
50
0
71
7
72
5
7
iso_b_vert
0
MTEXT
5
12A
100
AcDbEntity
8
SK2
62
256
6
ByLayer
370
18
48
1
60
0
100
AcDbMText
10
-58.189796
20
22.409024
30
0
210
0
220
0
230
1
1
%%c
40
3.5
41
0
44
1.084337
50
90
71
7
72
5
7
iso_b_vert
0
MTEXT
5
12B
100
AcDbEntity
8
SK2
62
256
6
ByLayer
370
18
48
1
60
0
100
AcDbMText
10
-58.189796
20
27.63168
30
0
210
0
220
0
230
1
1
\W0.6930;18,000
40
3.5
41
0
44
1.084337
50
90
71
7
72
5
7
iso_b_vert
0
MTEXT
5
134
100
AcDbEntity
8
2
62
256
6
ByLayer
370
18
48
1
60
0
100
AcDbMText
10
280.518709
20
20.75211
30
0
210
0
220
0
230
1
1
%%c
40
3.5
41
0
44
1.084337
50
90
71
7
72
5
7
iso_b_vert
0
MTEXT
5
135
100
AcDbEntity
8
2
62
256
6
ByLayer
370
18
48
1
60
0
100
AcDbMText
10
280.518709
20
25.974766
30
0
210
0
220
0
230
1
1
\W0.6930;17,500
40
3.5
41
0
44
1.084337
50
90
71
7
72
5
7
iso_b_vert
0
HATCH
5
12F
100
AcDbEntity
8
SK2
62
256
6
ByLayer
370
13
48
1
60
0
100
AcDbHatch
10
0
20
0
30
0
210
0
220
0
230
1
2
ANSI31
70
0
71
0
91
1
92
5
93
3
72
1
10
-56.6251625675374
20
9
11
-56.1643788259847
21
5.50000169255318
72
1
10
-56.1643788259847
20
5.50000169255318
11
-57.0859463090902
21
5.49999830744682
72
1
10
-57.0859463090902
20
5.49999830744682
11
-56.6251625675374
21
9
97
0
75
0
76
1
52
0
41
0.0062
77
0
78
1
53
45
43
0
44
0
45
-0.0139193969876572
46
0.0139193969876572
79
0
47
0
98
1
10
0
20
0
0
HATCH
5
133
100
AcDbEntity
8
SK2
62
256
6
ByLayer
370
13
48
1
60
0
100
AcDbHatch
10
0
20
0
30
0
210
0
220
0
230
1
2
ANSI31
70
0
71
0
91
1
92
5
93
3
72
1
10
-56.6251625675374
20
-9
11
-57.0859463090902
21
-5.50000169255318
72
1
10
-57.0859463090902
20
-5.50000169255318
11
-56.1643788259847
21
-5.49999830744682
72
1
10
-56.1643788259847
20
-5.49999830744682
11
-56.6251625675374
21
-9
97
0
75
0
76
1
52
0
41
0.0062
77
0
78
1
53
45
43
0
44
0
45
-0.0139193969876572
46
0.0139193969876572
79
0
47
0
98
1
10
0
20
0
0
HATCH
5
139
100
AcDbEntity
8
2
62
256
6
ByLayer
370
13
48
1
60
0
100
AcDbHatch
10
0
20
0
30
0
210
0
220
0
230
1
2
ANSI31
70
0
71
0
91
1
92
5
93
3
72
1
10
282.083342615295
20
8.75
11
282.544126356848
21
5.25000169255318
72
1
10
282.544126356848
20
5.25000169255318
11
281.622558873742
21
5.24999830744682
72
1
10
281.622558873742
20
5.24999830744682
11
282.083342615295
21
8.75
97
0
75
0
76
1
52
0
41
0.0062
77
0
78
1
53
45
43
0
44
0
45
-0.0139193969876572
46
0.0139193969876572
79
0
47
0
98
1
10
0
20
0
0
HATCH
5
13D
100
AcDbEntity
8
2
62
256
6
ByLayer
370
13
48
1
60
0
100
AcDbHatch
10
0
20
0
30
0
210
0
220
0
230
1
2
ANSI31
70
0
71
0
91
1
92
5
93
3
72
1
10
282.083342615295
20
-8.75
11
281.622558873742
21
-5.25000169255318
72
1
10
281.622558873742
20
-5.25000169255318
11
282.544126356848
21
-5.24999830744682
72
1
10
282.544126356848
20
-5.24999830744682
11
282.083342615295
21
-8.75
97
0
75
0
76
1
52
0
41
0.0062
77
0
78
1
53
45
43
0
44
0
45
-0.0139193969876572
46
0.0139193969876572
79
0
47
0
98
1
10
0
20
0
0
DIMENSION
5
13F
100
AcDbEntity
8
SK2
62
256
6
ByLayer
370
13
48
1
60
0
100
AcDbDimension
2
_U0
10
267.1334
20
-18.963398
30
0
11
133.5667
21
-18.963398
31
0
70
32
71
1
72
1
41
1
210
0
220
0
230
1
3
Standard
100
AcDbAlignedDimension
13
0
23
0
33
0
14
267.1334
24
-8.75
34
0
50
0
100
AcDbRotatedDimension
1001
ACAD
1000
DSTYLE
1002
{
1070
   371
1070
    13
1070
   372
1070
    13
1070
   170
1070
     0
1070
   144
1040
1.0
1070
   277
1070
     2
1070
   278
1070
    44
1070
   146
1040
1.0
1070
   345
1005
16
1070
   347
1005
16
1070
   346
1005
16
1070
   344
1005
0
1070
   343
1005
0
1070
   172
1070
     1
1070
    76
1070
     0
1070
    75
1070
     0
1070
   282
1070
     0
1070
   281
1070
     0
1070
    71
1070
     0
1070
    74
1070
     0
1070
   279
1070
     0
1070
   173
1070
     1
1070
   340
1005
127
1070
   271
1070
     2
1070
   272
1070
     2
1070
    77
1070
     1
1070
    73
1070
     1
1070
   171
1070
     3
1070
   274
1070
     4
1070
   177
1070
    35
1070
   176
1070
    35
1070
   178
1070
    35
1070
    48
1040
-0.1
1070
    41
1040
3.5
1070
   147
1040
1.75
1070
    42
1040
1.5875
1070
    44
1040
2.0
1070
   140
1040
3.5
1002
}
1001
ACAD_DSTYLE_DIM_LINETYPE
1070
   380
1005
16
1001
ACAD_DSTYLE_DIM_EXT1_LINETYPE
1070
   381
1005
16
1001
ACAD_DSTYLE_DIM_EXT2_LINETYPE
1070
   382
1005
16
0
DIMENSION
5
158
100
AcDbEntity
8
SK2
62
256
6
ByLayer
370
13
48
1
60
0
100
AcDbDimension
2
_U1
10
270
20
-37.692985
30
0
11
111
21
-37.692985
31
0
70
32
71
1
72
1
41
1
210
0
220
0
230
1
3
Standard
100
AcDbAlignedDimension
13
-48
23
-9
33
0
14
270
24
0
34
0
50
0
100
AcDbRotatedDimension
1001
ACAD
1000
DSTYLE
1002
{
1070
   371
1070
    13
1070
   372
1070
    13
1070
   170
1070
     0
1070
   144
1040
1.0
1070
   277
1070
     2
1070
   278
1070
    44
1070
   146
1040
1.0
1070
   345
1005
16
1070
   347
1005
16
1070
   346
1005
16
1070
   344
1005
0
1070
   343
1005
0
1070
   172
1070
     1
1070
    76
1070
     0
1070
    75
1070
     0
1070
   282
1070
     0
1070
   281
1070
     0
1070
    71
1070
     0
1070
    74
1070
     0
1070
   279
1070
     0
1070
   173
1070
     1
1070
   340
1005
127
1070
   271
1070
     2
1070
   272
1070
     2
1070
    77
1070
     1
1070
    73
1070
     1
1070
   171
1070
     3
1070
   274
1070
     4
1070
   177
1070
    35
1070
   176
1070
    35
1070
   178
1070
    35
1070
    48
1040
-0.1
1070
    41
1040
3.5
1070
   147
1040
1.75
1070
    42
1040
1.5875
1070
    44
1040
2.0
1070
   140
1040
3.5
1002
}
1001
ACAD_DSTYLE_DIM_LINETYPE
1070
   380
1005
16
1001
ACAD_DSTYLE_DIM_EXT1_LINETYPE
1070
   381
1005
16
1001
ACAD_DSTYLE_DIM_EXT2_LINETYPE
1070
   382
1005
16
0
DIMENSION
5
170
100
AcDbEntity
8
SK2
62
256
6
ByLayer
370
13
48
1
60
0
100
AcDbDimension
2
_U2
10
270
20
20.359119
30
0
11
163.57
21
20.359119
31
0
70
32
71
1
72
1
41
1
210
0
220
0
230
1
3
Standard
100
AcDbAlignedDimension
13
57.14
23
8.75
33
0
14
270
24
0
34
0
50
0
100
AcDbRotatedDimension
1001
ACAD
1000
DSTYLE
1002
{
1070
   371
1070
    13
1070
   372
1070
    13
1070
   170
1070
     0
1070
   144
1040
1.0
1070
   277
1070
     2
1070
   278
1070
    44
1070
   146
1040
1.0
1070
   345
1005
16
1070
   347
1005
16
1070
   346
1005
16
1070
   344
1005
0
1070
   343
1005
0
1070
   172
1070
     1
1070
    76
1070
     0
1070
    75
1070
     0
1070
   282
1070
     0
1070
   281
1070
     0
1070
    71
1070
     0
1070
    74
1070
     0
1070
   279
1070
     0
1070
   173
1070
     1
1070
   340
1005
127
1070
   271
1070
     2
1070
   272
1070
     2
1070
    77
1070
     1
1070
    73
1070
     1
1070
   171
1070
     3
1070
   274
1070
     4
1070
   177
1070
    35
1070
   176
1070
    35
1070
   178
1070
    35
1070
    48
1040
-0.1
1070
    41
1040
3.5
1070
   147
1040
1.75
1070
    42
1040
1.5875
1070
    44
1040
2.0
1070
   140
1040
3.5
1002
}
1001
ACAD_DSTYLE_DIM_LINETYPE
1070
   380
1005
16
1001
ACAD_DSTYLE_DIM_EXT1_LINETYPE
1070
   381
1005
16
1001
ACAD_DSTYLE_DIM_EXT2_LINETYPE
1070
   382
1005
16
0
DIMENSION
5
188
100
AcDbEntity
8
SK2
62
256
6
ByLayer
370
13
48
1
60
0
100
AcDbDimension
2
_U3
10
267.1334
20
-21.552503
30
0
11
287.583333
21
-21.552503
31
0
70
32
71
1
72
1
41
1
210
0
220
0
230
1
3
Standard
100
AcDbAlignedDimension
13
270
23
0
33
0
14
267.1334
24
-8.75
34
0
50
0
100
AcDbRotatedDimension
1001
ACAD
1000
DSTYLE
1002
{
1070
   371
1070
    13
1070
   372
1070
    13
1070
   170
1070
     0
1070
   144
1040
1.0
1070
   277
1070
     2
1070
   278
1070
    44
1070
   146
1040
1.0
1070
   345
1005
16
1070
   347
1005
16
1070
   346
1005
16
1070
   344
1005
0
1070
   343
1005
0
1070
   172
1070
     1
1070
    76
1070
     0
1070
    75
1070
     0
1070
   282
1070
     0
1070
   281
1070
     0
1070
    71
1070
     0
1070
    74
1070
     0
1070
   279
1070
     0
1070
   173
1070
     1
1070
   340
1005
127
1070
   271
1070
     2
1070
   272
1070
     2
1070
    77
1070
     1
1070
    73
1070
     1
1070
   171
1070
     3
1070
   274
1070
     4
1070
   177
1070
    35
1070
   176
1070
    35
1070
   178
1070
    35
1070
    48
1040
-0.1
1070
    41
1040
3.5
1070
   147
1040
1.75
1070
    42
1040
1.5875
1070
    44
1040
2.0
1070
   140
1040
3.5
1002
}
1001
ACAD_DSTYLE_DIM_LINETYPE
1070
   380
1005
16
1001
ACAD_DSTYLE_DIM_EXT1_LINETYPE
1070
   381
1005
16
1001
ACAD_DSTYLE_DIM_EXT2_LINETYPE
1070
   382
1005
16
0
DIMENSION
5
1A2
100
AcDbEntity
8
SK2
62
256
6
ByLayer
370
13
48
1
60
0
100
AcDbDimension
2
_U4
10
267.1334
20
-27.343428
30
0
11
109.5667
21
-27.343428
31
0
70
32
71
1
72
1
41
1
210
0
220
0
230
1
3
Standard
100
AcDbAlignedDimension
13
-48
23
-9
33
0
14
267.1334
24
-8.75
34
0
50
0
100
AcDbRotatedDimension
1001
ACAD
1000
DSTYLE
1002
{
1070
   371
1070
    13
1070
   372
1070
    13
1070
   170
1070
     0
1070
   144
1040
1.0
1070
   277
1070
     2
1070
   278
1070
    44
1070
   146
1040
1.0
1070
   345
1005
16
1070
   347
1005
16
1070
   346
1005
16
1070
   344
1005
0
1070
   343
1005
0
1070
   172
1070
     1
1070
    76
1070
     0
1070
    75
1070
     0
1070
   282
1070
     0
1070
   281
1070
     0
1070
    71
1070
     0
1070
    74
1070
     0
1070
   279
1070
     0
1070
   173
1070
     1
1070
   340
1005
127
1070
   271
1070
     2
1070
   272
1070
     2
1070
    77
1070
     1
1070
    73
1070
     1
1070
   171
1070
     3
1070
   274
1070
     4
1070
   177
1070
    35
1070
   176
1070
    35
1070
   178
1070
    35
1070
    48
1040
-0.1
1070
    41
1040
3.5
1070
   147
1040
1.75
1070
    42
1040
1.5875
1070
    44
1040
2.0
1070
   140
1040
3.5
1002
}
1001
ACAD_DSTYLE_DIM_LINETYPE
1070
   380
1005
16
1001
ACAD_DSTYLE_DIM_EXT1_LINETYPE
1070
   381
1005
16
1001
ACAD_DSTYLE_DIM_EXT2_LINETYPE
1070
   382
1005
16
0
ENDSEC
0
SECTION
2
OBJECTS
0
DICTIONARY
5
22a
330
0
100
AcDbDictionary
280
0
281
1
3
ACAD_GROUP
350
22b
3
ACAD_MLINESTYLE
350
22c
0
DICTIONARY
5
22b
330
0
100
AcDbDictionary
280
0
281
1
0
DICTIONARY
5
22c
330
0
100
AcDbDictionary
280
0
281
1
3
Standard
350
18
0
MLINESTYLE
5
18
330
22c
100
AcDbMlineStyle
2
Standard
70
0
3

62
256
51
90
52
90
71
2
49
-0.5
62
256
6
ByLayer
49
0.5
62
256
6
ByLayer
0
RASTERVARIABLES
5
218
330

100
AcDbRasterVariables
90
0
70
1
71
1
72
1
0
ENDSEC
0
EOF
