0
SECTION
2
HEADER
9
$ACADVER
1
AC1015
9
$DWGCODEPAGE
3
ANSI_1252
9
$HANDSEED
5
1c4
9
$ANGBASE
50
0
9
$ANGDIR
70
0
9
$ATTMODE
70
1
9
$AUNITS
70
0
9
$AUPREC
70
0
9
$CECOLOR
62
256
9
$CELTSCALE
40
1
9
$CELTYPE
6
ByLayer
9
$CELWEIGHT
370
18
9
$CLAYER
8
0
9
$CMLJUST
70
0
9
$CMLSCALE
40
1
9
$CMLSTYLE
2
Standard
9
$DIMSTYLE
2
Standard
9
$TEXTSIZE
40
0.2
9
$TEXTSTYLE
7
Standard
9
$LUNITS
70
2
9
$LUPREC
70
4
9
$EXTNAMES
290
1
9
$INSUNITS
70
4
9
$LTSCALE
40
1
9
$LWDISPLAY
290
1
9
$PDMODE
70
0
9
$PDSIZE
40
0
9
$PLINEGEN
70
0
0
ENDSEC
0
SECTION
2
CLASSES
0
CLASS
1
RASTERVARIABLES
2
AcDbRasterVariables
3
ISM
90
0
280
0
281
0
0
ENDSEC
0
SECTION
2
TABLES
0
TABLE
2
VPORT
5
1ba
100
AcDbSymbolTable
0
VPORT
5
1
100
AcDbSymbolTableRecord
100
AcDbViewportTableRecord
2
*Active
70
0
10
0
20
0
11
1
21
1
12
-1
22
1
13
0
23
0
14
0.5
24
0.5
15
10
25
10
16
0
26
0
36
1
17
0
27
0
37
0
0
ENDTAB
0
TABLE
2
LTYPE
5
1bb
100
AcDbSymbolTable
0
LTYPE
5
14
100
AcDbSymbolTableRecord
100
AcDbLinetypeTableRecord
70
0
2
ByBlock
3

72
65
73
0
40
0
0
LTYPE
5
15
100
AcDbSymbolTableRecord
100
AcDbLinetypeTableRecord
70
0
2
ByLayer
3

72
65
73
0
40
0
0
LTYPE
5
16
100
AcDbSymbolTableRecord
100
AcDbLinetypeTableRecord
70
0
2
CONTINUOUS
3
Solid line
72
65
73
0
40
0
0
LTYPE
5
6A
100
AcDbSymbolTableRecord
100
AcDbLinetypeTableRecord
70
0
2
CENTER
3
____ _ ____ _ ____ _ ____
72
65
73
4
40
47.5
49
22
74
0
49
-8.5
74
0
49
8.5
74
0
49
-8.5
74
0
0
LTYPE
5
6B
100
AcDbSymbolTableRecord
100
AcDbLinetypeTableRecord
70
0
2
DASHED
3
__ __ __ __ __ __ __ __ __
72
65
73
2
40
25.72
49
12.86
74
0
49
-12.86
74
0
0
ENDTAB
0
TABLE
2
LAYER
5
1bc
100
AcDbSymbolTable
0
LAYER
5
10
100
AcDbSymbolTableRecord
100
AcDbLayerTableRecord
2
0
70
0
62
7
6
CONTINUOUS
290
1
370
-3
390
0
0
LAYER
5
6D
100
AcDbSymbolTableRecord
100
AcDbLayerTableRecord
2
81
70
0
62
-3
6
CONTINUOUS
290
1
370
-3
390
0
0
LAYER
5
6F
100
AcDbSymbolTableRecord
100
AcDbLayerTableRecord
2
80
70
0
62
-6
6
CONTINUOUS
290
1
370
-3
390
0
0
LAYER
5
74
100
AcDbSymbolTableRecord
100
AcDbLayerTableRecord
2
2
70
0
62
7
6
CONTINUOUS
290
1
370
-3
390
0
0
LAYER
5
78
100
AcDbSymbolTableRecord
100
AcDbLayerTableRecord
2
1
70
0
62
4
6
CONTINUOUS
290
1
370
-3
390
0
0
LAYER
5
90
100
AcDbSymbolTableRecord
100
AcDbLayerTableRecord
2
4
70
0
62
-2
6
CENTER
290
1
370
-3
390
0
0
LAYER
5
1a6
100
AcDbSymbolTableRecord
100
AcDbLayerTableRecord
2
SK2
70
0
62
7
6
CONTINUOUS
290
1
370
-3
390
0
0
LAYER
5
1a7
100
AcDbSymbolTableRecord
100
AcDbLayerTableRecord
2
SK1
70
0
62
4
6
CONTINUOUS
290
1
370
-3
390
0
0
LAYER
5
1a8
100
AcDbSymbolTableRecord
100
AcDbLayerTableRecord
2
SK4
70
0
62
2
6
CENTER
290
1
370
-3
390
0
0
LAYER
5
1a9
100
AcDbSymbolTableRecord
100
AcDbLayerTableRecord
2
SK6
70
0
62
5
6
CONTINUOUS
290
1
370
-3
390
0
0
ENDTAB
0
TABLE
2
STYLE
5
1bd
100
AcDbSymbolTable
0
STYLE
5
11
100
AcDbSymbolTableRecord
100
AcDbTextStyleTableRecord
2
Standard
3
txt
70
0
71
0
40
0
41
1
42
0
50
0
0
STYLE
5
102
100
AcDbSymbolTableRecord
100
AcDbTextStyleTableRecord
2
iso_b_vert
3
simplex.shx
70
0
71
0
40
0
41
1
42
0
50
0
0
STYLE
5
103
100
AcDbSymbolTableRecord
100
AcDbTextStyleTableRecord
2
DWGDirectTextStyle
3
simplex
70
0
71
0
40
0
41
1
42
0
50
0
0
ENDTAB
0
TABLE
2
DIMSTYLE
5
1be
100
AcDbSymbolTable
100
AcDbDimStyleTable
0
DIMSTYLE
105
27
100
AcDbSymbolTableRecord
100
AcDbDimStyleTableRecord
2
Standard
70
0
3
<>
41
0.18
42
0.0625
44
0.18
140
0.18
147
0.09
73
0
74
0
77
1
271
2
275
0
278
52
280
0
340
11
0
ENDTAB
0
TABLE
2
VIEW
5
1bf
100
AcDbSymbolTable
0
ENDTAB
0
TABLE
2
UCS
5
1c0
100
AcDbSymbolTable
0
ENDTAB
0
TABLE
2
APPID
5
1c1
100
AcDbSymbolTable
0
APPID
5
12
100
AcDbSymbolTableRecord
100
AcDbRegAppTableRecord
2
ACAD
70
0
0
ENDTAB
0
TABLE
2
BLOCK_RECORD
5
1c2
100
AcDbSymbolTable
0
BLOCK_RECORD
5
1F
100
AcDbSymbolTableRecord
100
AcDbBlockTableRecord
2
*Model_Space
340
0
70
0
0
BLOCK_RECORD
5
1B
100
AcDbSymbolTableRecord
100
AcDbBlockTableRecord
2
*Paper_Space
340
0
70
0
0
BLOCK_RECORD
5
23
100
AcDbSymbolTableRecord
100
AcDbBlockTableRecord
2
*Paper_Space0
340
0
70
0
0
BLOCK_RECORD
5
105
100
AcDbSymbolTableRecord
100
AcDbBlockTableRecord
2
DimnDraft3D1
340
0
70
0
0
BLOCK_RECORD
5
10F
100
AcDbSymbolTableRecord
100
AcDbBlockTableRecord
2
DimnDraft3D2
340
0
70
0
0
BLOCK_RECORD
5
119
100
AcDbSymbolTableRecord
100
AcDbBlockTableRecord
2
DimnDraft3D3
340
0
70
0
0
BLOCK_RECORD
5
123
100
AcDbSymbolTableRecord
100
AcDbBlockTableRecord
2
DimnDraft3D4
340
0
70
0
0
BLOCK_RECORD
5
12D
100
AcDbSymbolTableRecord
100
AcDbBlockTableRecord
2
DimnDraft3D5
340
0
70
0
0
BLOCK_RECORD
5
137
100
AcDbSymbolTableRecord
100
AcDbBlockTableRecord
2
DimnDraft3D6
340
0
70
0
0
BLOCK_RECORD
5
142
100
AcDbSymbolTableRecord
100
AcDbBlockTableRecord
2
DimnDraft3D7
340
0
70
0
0
ENDTAB
0
ENDSEC
0
SECTION
2
BLOCKS
0
BLOCK
5
20
100
AcDbEntity
8
0
100
AcDbBlockBegin
2
*Model_Space
70
0
10
0
20
0
30
0
3
*Model_Space
0
ENDBLK
5
21
100
AcDbEntity
8
0
100
AcDbBlockEnd
0
BLOCK
5
1C
100
AcDbEntity
8
0
100
AcDbBlockBegin
2
*Paper_Space
70
0
10
0
20
0
30
0
3
*Paper_Space
0
ENDBLK
5
1D
100
AcDbEntity
8
0
100
AcDbBlockEnd
0
BLOCK
5
24
100
AcDbEntity
8
0
100
AcDbBlockBegin
2
*Paper_Space0
70
0
10
0
20
0
30
0
3
*Paper_Space0
0
ENDBLK
5
25
100
AcDbEntity
8
0
100
AcDbBlockEnd
0
BLOCK
5
10C
100
AcDbEntity
8
0
100
AcDbBlockBegin
2
DimnDraft3D1
70
0
10
0
20
0
30
0
3
DimnDraft3D1
0
MTEXT
5
106
100
AcDbEntity
8
SK2
62
256
6
ByLayer
370
13
48
1
60
0
100
AcDbMText
10
112.167959
20
-16.838398
30
0
210
0
220
0
230
1
1
\W0.7778;240,54
40
3.5
41
0
44
1.084337
50
0
71
7
72
5
7
iso_b_vert
0
LINE
5
107
100
AcDbEntity
8
SK2
62
256
6
ByLayer
370
13
48
1
60
0
100
AcDbLine
10
0
20
-1.5875
30
0
11
0
21
-19.713398
31
0
39
0
210
0
220
0
230
1
0
LINE
5
108
100
AcDbEntity
8
SK2
62
256
6
ByLayer
370
13
48
1
60
0
100
AcDbLine
10
240.5429
20
-9.0875
30
0
11
240.5429
21
-19.713398
31
0
39
0
210
0
220
0
230
1
0
LINE
5
109
100
AcDbEntity
8
SK2
62
256
6
ByLayer
370
13
48
1
60
0
100
AcDbLine
10
0
20
-17.713398
30
0
11
240.5429
21
-17.713398
31
0
39
0
210
0
220
0
230
1
0
SOLID
5
10A
100
AcDbEntity
8
SK2
62
256
6
ByLayer
370
13
48
1
60
0
100
AcDbTrace
10
0
20
-17.713398
30
0
11
3.499998
21
-17.252615
31
0
12
3.500002
22
-18.174182
32
0
13
0
23
-17.713398
33
0
39
0
210
0
220
0
230
1
0
SOLID
5
10B
100
AcDbEntity
8
SK2
62
256
6
ByLayer
370
13
48
1
60
0
100
AcDbTrace
10
240.5429
20
-17.713398
30
0
11
237.042902
21
-18.174182
31
0
12
237.042898
22
-17.252615
32
0
13
240.5429
23
-17.713398
33
0
39
0
210
0
220
0
230
1
0
ENDBLK
5
10D
100
AcDbEntity
8
0
100
AcDbBlockEnd
0
BLOCK
5
116
100
AcDbEntity
8
0
100
AcDbBlockBegin
2
DimnDraft3D2
70
0
10
0
20
0
30
0
3
DimnDraft3D2
0
MTEXT
5
110
100
AcDbEntity
8
SK2
62
256
6
ByLayer
370
13
48
1
60
0
100
AcDbMText
10
91.065121
20
-35.817985
30
0
210
0
220
0
230
1
1
\W0.6930;291,00
40
3.5
41
0
44
1.084337
50
0
71
7
72
5
7
iso_b_vert
0
LINE
5
111
100
AcDbEntity
8
SK2
62
256
6
ByLayer
370
13
48
1
60
0
100
AcDbLine
10
-48
20
-9.5875
30
0
11
-48
21
-38.692985
31
0
39
0
210
0
220
0
230
1
0
LINE
5
112
100
AcDbEntity
8
SK2
62
256
6
ByLayer
370
13
48
1
60
0
100
AcDbLine
10
243
20
-1.5875
30
0
11
243
21
-38.692985
31
0
39
0
210
0
220
0
230
1
0
LINE
5
113
100
AcDbEntity
8
SK2
62
256
6
ByLayer
370
13
48
1
60
0
100
AcDbLine
10
-48
20
-36.692985
30
0
11
243
21
-36.692985
31
0
39
0
210
0
220
0
230
1
0
SOLID
5
114
100
AcDbEntity
8
SK2
62
256
6
ByLayer
370
13
48
1
60
0
100
AcDbTrace
10
-48
20
-36.692985
30
0
11
-44.500002
21
-36.232202
31
0
12
-44.499998
22
-37.153769
32
0
13
-48
23
-36.692985
33
0
39
0
210
0
220
0
230
1
0
SOLID
5
115
100
AcDbEntity
8
SK2
62
256
6
ByLayer
370
13
48
1
60
0
100
AcDbTrace
10
243
20
-36.692985
30
0
11
239.500002
21
-37.153769
31
0
12
239.499998
22
-36.232202
32
0
13
243
23
-36.692985
33
0
39
0
210
0
220
0
230
1
0
ENDBLK
5
117
100
AcDbEntity
8
0
100
AcDbBlockEnd
0
BLOCK
5
120
100
AcDbEntity
8
0
100
AcDbBlockBegin
2
DimnDraft3D3
70
0
10
0
20
0
30
0
3
DimnDraft3D3
0
MTEXT
5
11A
100
AcDbEntity
8
SK2
62
256
6
ByLayer
370
13
48
1
60
0
100
AcDbMText
10
146.271711
20
19.984119
30
0
210
0
220
0
230
1
1
\W0.7145;182,45
40
3.5
41
0
44
1.084337
50
0
71
7
72
5
7
iso_b_vert
0
LINE
5
11B
100
AcDbEntity
8
SK2
62
256
6
ByLayer
370
13
48
1
60
0
100
AcDbLine
10
60.55
20
9.0875
30
0
11
60.55
21
21.109119
31
0
39
0
210
0
220
0
230
1
0
LINE
5
11C
100
AcDbEntity
8
SK2
62
256
6
ByLayer
370
13
48
1
60
0
100
AcDbLine
10
243
20
1.5875
30
0
11
243
21
21.109119
31
0
39
0
210
0
220
0
230
1
0
LINE
5
11D
100
AcDbEntity
8
SK2
62
256
6
ByLayer
370
13
48
1
60
0
100
AcDbLine
10
60.55
20
19.109119
30
0
11
243
21
19.109119
31
0
39
0
210
0
220
0
230
1
0
SOLID
5
11E
100
AcDbEntity
8
SK2
62
256
6
ByLayer
370
13
48
1
60
0
100
AcDbTrace
10
60.55
20
19.109119
30
0
11
64.049998
21
19.569903
31
0
12
64.050002
22
18.648335
32
0
13
60.55
23
19.109119
33
0
39
0
210
0
220
0
230
1
0
SOLID
5
11F
100
AcDbEntity
8
SK2
62
256
6
ByLayer
370
13
48
1
60
0
100
AcDbTrace
10
243
20
19.109119
30
0
11
239.500002
21
18.648335
31
0
12
239.499998
22
19.569903
32
0
13
243
23
19.109119
33
0
39
0
210
0
220
0
230
1
0
ENDBLK
5
121
100
AcDbEntity
8
0
100
AcDbBlockEnd
0
BLOCK
5
12A
100
AcDbEntity
8
0
100
AcDbBlockBegin
2
DimnDraft3D4
70
0
10
0
20
0
30
0
3
DimnDraft3D4
0
MTEXT
5
124
100
AcDbEntity
8
SK2
62
256
6
ByLayer
370
13
48
1
60
0
100
AcDbMText
10
249.656425
20
-19.427503
30
0
210
0
220
0
230
1
1
\W0.7493;2,46
40
3.5
41
0
44
1.084337
50
0
71
7
72
5
7
iso_b_vert
0
LINE
5
125
100
AcDbEntity
8
SK2
62
256
6
ByLayer
370
13
48
1
60
0
100
AcDbLine
10
243
20
-1.5875
30
0
11
243
21
-22.302503
31
0
39
0
210
0
220
0
230
1
0
LINE
5
126
100
AcDbEntity
8
SK2
62
256
6
ByLayer
370
13
48
1
60
0
100
AcDbLine
10
240.5429
20
-9.0875
30
0
11
240.5429
21
-22.302503
31
0
39
0
210
0
220
0
230
1
0
LINE
5
127
100
AcDbEntity
8
SK2
62
256
6
ByLayer
370
13
48
1
60
0
100
AcDbLine
10
231.7929
20
-20.302503
30
0
11
257.181425
21
-20.302503
31
0
39
0
210
0
220
0
230
1
0
SOLID
5
128
100
AcDbEntity
8
SK2
62
256
6
ByLayer
370
13
48
1
60
0
100
AcDbTrace
10
243
20
-20.302503
30
0
11
246.499998
21
-19.841719
31
0
12
246.500002
22
-20.763287
32
0
13
243
23
-20.302503
33
0
39
0
210
0
220
0
230
1
0
SOLID
5
129
100
AcDbEntity
8
SK2
62
256
6
ByLayer
370
13
48
1
60
0
100
AcDbTrace
10
240.5429
20
-20.302503
30
0
11
237.042902
21
-20.763287
31
0
12
237.042898
22
-19.841719
32
0
13
240.5429
23
-20.302503
33
0
39
0
210
0
220
0
230
1
0
ENDBLK
5
12B
100
AcDbEntity
8
0
100
AcDbBlockEnd
0
BLOCK
5
134
100
AcDbEntity
8
0
100
AcDbBlockBegin
2
DimnDraft3D5
70
0
10
0
20
0
30
0
3
DimnDraft3D5
0
MTEXT
5
12E
100
AcDbEntity
8
SK2
62
256
6
ByLayer
370
13
48
1
60
0
100
AcDbMText
10
87.362787
20
-25.468428
30
0
210
0
220
0
230
1
1
\W0.7565;288,54
40
3.5
41
0
44
1.084337
50
0
71
7
72
5
7
iso_b_vert
0
LINE
5
12F
100
AcDbEntity
8
SK2
62
256
6
ByLayer
370
13
48
1
60
0
100
AcDbLine
10
-48
20
-9.5875
30
0
11
-48
21
-28.343428
31
0
39
0
210
0
220
0
230
1
0
LINE
5
130
100
AcDbEntity
8
SK2
62
256
6
ByLayer
370
13
48
1
60
0
100
AcDbLine
10
240.5429
20
-9.0875
30
0
11
240.5429
21
-28.343428
31
0
39
0
210
0
220
0
230
1
0
LINE
5
131
100
AcDbEntity
8
SK2
62
256
6
ByLayer
370
13
48
1
60
0
100
AcDbLine
10
-48
20
-26.343428
30
0
11
240.5429
21
-26.343428
31
0
39
0
210
0
220
0
230
1
0
SOLID
5
132
100
AcDbEntity
8
SK2
62
256
6
ByLayer
370
13
48
1
60
0
100
AcDbTrace
10
-48
20
-26.343428
30
0
11
-44.500002
21
-25.882645
31
0
12
-44.499998
22
-26.804212
32
0
13
-48
23
-26.343428
33
0
39
0
210
0
220
0
230
1
0
SOLID
5
133
100
AcDbEntity
8
SK2
62
256
6
ByLayer
370
13
48
1
60
0
100
AcDbTrace
10
240.5429
20
-26.343428
30
0
11
237.042902
21
-26.804212
31
0
12
237.042898
22
-25.882645
32
0
13
240.5429
23
-26.343428
33
0
39
0
210
0
220
0
230
1
0
ENDBLK
5
135
100
AcDbEntity
8
0
100
AcDbBlockEnd
0
BLOCK
5
13F
100
AcDbEntity
8
0
100
AcDbBlockBegin
2
DimnDraft3D6
70
0
10
0
20
0
30
0
3
DimnDraft3D6
0
MTEXT
5
138
100
AcDbEntity
8
SK2
62
256
6
ByLayer
370
13
48
1
60
0
100
AcDbMText
10
-58.375163
20
27.34918
30
0
210
0
220
0
230
1
1
\W0.6930;16,000
40
3.5
41
0
44
1.084337
50
90
71
7
72
5
7
iso_b_vert
0
MTEXT
5
139
100
AcDbEntity
8
SK2
62
256
6
ByLayer
370
13
48
1
60
0
100
AcDbMText
10
-58.375163
20
22.126524
30
0
210
0
220
0
230
1
1
%%c
40
3.5
41
0
44
1.084337
50
90
71
7
72
5
7
iso_b_vert
0
LINE
5
13A
100
AcDbEntity
8
SK2
62
256
6
ByLayer
370
13
48
1
60
0
100
AcDbLine
10
-49.5875
20
-8
30
0
11
-58.625163
21
-8
31
0
39
0
210
0
220
0
230
1
0
LINE
5
13B
100
AcDbEntity
8
SK2
62
256
6
ByLayer
370
13
48
1
60
0
100
AcDbLine
10
-49.5875
20
8
30
0
11
-58.625163
21
8
31
0
39
0
210
0
220
0
230
1
0
LINE
5
13C
100
AcDbEntity
8
SK2
62
256
6
ByLayer
370
13
48
1
60
0
100
AcDbLine
10
-56.625163
20
-8
30
0
11
-56.625163
21
38.862338
31
0
39
0
210
0
220
0
230
1
0
SOLID
5
13D
100
AcDbEntity
8
SK2
62
256
6
ByLayer
370
13
48
1
60
0
100
AcDbTrace
10
-56.625163
20
-8
30
0
11
-57.085946
21
-4.500002
31
0
12
-56.164379
22
-4.499998
32
0
13
-56.625163
23
-8
33
0
39
0
210
0
220
0
230
1
0
SOLID
5
13E
100
AcDbEntity
8
SK2
62
256
6
ByLayer
370
13
48
1
60
0
100
AcDbTrace
10
-56.625163
20
8
30
0
11
-56.164379
21
4.500002
31
0
12
-57.085946
22
4.499998
32
0
13
-56.625163
23
8
33
0
39
0
210
0
220
0
230
1
0
ENDBLK
5
140
100
AcDbEntity
8
0
100
AcDbBlockEnd
0
BLOCK
5
14A
100
AcDbEntity
8
0
100
AcDbBlockBegin
2
DimnDraft3D7
70
0
10
0
20
0
30
0
3
DimnDraft3D7
0
MTEXT
5
143
100
AcDbEntity
8
2
62
256
6
ByLayer
370
13
48
1
60
0
100
AcDbMText
10
253.333343
20
25.442266
30
0
210
0
220
0
230
1
1
\W0.6930;15,000
40
3.5
41
0
44
1.084337
50
90
71
7
72
5
7
iso_b_vert
0
MTEXT
5
144
100
AcDbEntity
8
2
62
256
6
ByLayer
370
13
48
1
60
0
100
AcDbMText
10
253.333343
20
20.21961
30
0
210
0
220
0
230
1
1
%%c
40
3.5
41
0
44
1.084337
50
90
71
7
72
5
7
iso_b_vert
0
LINE
5
145
100
AcDbEntity
8
2
62
256
6
ByLayer
370
13
48
1
60
0
100
AcDbLine
10
242.1304
20
-7.5
30
0
11
257.083343
21
-7.5
31
0
39
0
210
0
220
0
230
1
0
LINE
5
146
100
AcDbEntity
8
2
62
256
6
ByLayer
370
13
48
1
60
0
100
AcDbLine
10
242.1304
20
7.5
30
0
11
257.083343
21
7.5
31
0
39
0
210
0
220
0
230
1
0
LINE
5
147
100
AcDbEntity
8
2
62
256
6
ByLayer
370
13
48
1
60
0
100
AcDbLine
10
255.083343
20
-7.5
30
0
11
255.083343
21
36.955424
31
0
39
0
210
0
220
0
230
1
0
SOLID
5
148
100
AcDbEntity
8
2
62
256
6
ByLayer
370
13
48
1
60
0
100
AcDbTrace
10
255.083343
20
-7.5
30
0
11
254.622559
21
-4.000002
31
0
12
255.544126
22
-3.999998
32
0
13
255.083343
23
-7.5
33
0
39
0
210
0
220
0
230
1
0
SOLID
5
149
100
AcDbEntity
8
2
62
256
6
ByLayer
370
13
48
1
60
0
100
AcDbTrace
10
255.083343
20
7.5
30
0
11
255.544126
21
4.000002
31
0
12
254.622559
22
3.999998
32
0
13
255.083343
23
7.5
33
0
39
0
210
0
220
0
230
1
0
ENDBLK
5
14B
100
AcDbEntity
8
0
100
AcDbBlockEnd
0
ENDSEC
0
SECTION
2
ENTITIES
0
ELLIPSE
5
A5
100
AcDbEntity
8
1
62
256
6
ByLayer
370
13
48
1
60
0
100
AcDbEllipse
10
9.181933
20
-4.450401
30
0
11
-0.00690394884742
21
-0.0997613927845447
31
0
210
0
220
0
230
1
40
0.579245
41
-2.12845323220663
42
-0.77531906767833
0
ELLIPSE
5
A6
100
AcDbEntity
8
1
62
256
6
ByLayer
370
18
48
1
60
0
100
AcDbEllipse
10
242.986943
20
0.059393
30
0
11
0.0418956952491881
21
0.123278168560468
31
0
210
0
220
0
230
-1
40
0.161566
41
1.729249463101
42
2.08878126224382
0
ELLIPSE
5
A7
100
AcDbEntity
8
1
62
256
6
ByLayer
370
18
48
1
60
0
100
AcDbEllipse
10
243.000726
20
0.001706
30
0
11
2.78186038958156
21
7.49248830468404
31
0
210
0
220
0
230
-1
40
0.131755
41
2.81454788814617
42
2.99456404932497
0
ELLIPSE
5
A8
100
AcDbEntity
8
1
62
256
6
ByLayer
370
13
48
1
60
0
100
AcDbEllipse
10
9.250161
20
-4.466795
30
0
11
0.0366130241402367
21
0.0930563617562306
31
0
210
0
220
0
230
1
40
0.286574
41
0.93891592574745
42
2.49885018018761
0
ELLIPSE
5
A9
100
AcDbEntity
8
1
62
256
6
ByLayer
370
18
48
1
60
0
100
AcDbEllipse
10
243.01755
20
-0.040018
30
0
11
0.0597297818742213
21
0.186751704977664
31
0
210
0
220
0
230
-1
40
0.095759
41
-2.42741609953168
42
-1.56521742953095
0
ELLIPSE
5
AA
100
AcDbEntity
8
1
62
256
6
ByLayer
370
18
48
1
60
0
100
AcDbEllipse
10
243.000726
20
-0.001706
30
0
11
2.781860392307
21
-7.49248831275746
31
0
210
0
220
0
230
-1
40
0.131755
41
-2.99456404940586
42
-2.81454788832554
0
ELLIPSE
5
AB
100
AcDbEntity
8
1
62
256
6
ByLayer
370
18
48
1
60
0
100
AcDbEllipse
10
243.01755
20
0.040018
30
0
11
0.0597297819239844
21
-0.186751705104202
31
0
210
0
220
0
230
-1
40
0.095759
41
1.56521743001753
42
2.42741609947254
0
POINT
5
6C
100
AcDbEntity
8
81
62
256
6
ByLayer
370
18
48
1
60
0
100
AcDbPoint
10
243
20
0
30
0
39
0
210
0
220
0
230
1
50
360
0
POINT
5
6E
100
AcDbEntity
8
80
62
256
6
ByLayer
370
18
48
1
60
0
100
AcDbPoint
10
0
20
0
30
0
39
0
210
0
220
0
230
1
50
360
0
POINT
5
70
100
AcDbEntity
8
SK2
62
256
6
ByLayer
370
18
48
1
60
1
100
AcDbPoint
10
-48
20
-8
30
0
39
0
210
0
220
0
230
1
50
360
0
POINT
5
72
100
AcDbEntity
8
SK2
62
256
6
ByLayer
370
18
48
1
60
1
100
AcDbPoint
10
-48
20
8
30
0
39
0
210
0
220
0
230
1
50
360
0
POINT
5
73
100
AcDbEntity
8
2
62
256
6
ByLayer
370
18
48
1
60
1
100
AcDbPoint
10
240.5429
20
-7.5
30
0
39
0
210
0
220
0
230
1
50
360
0
POINT
5
75
100
AcDbEntity
8
2
62
256
6
ByLayer
370
18
48
1
60
1
100
AcDbPoint
10
240.5429
20
7.5
30
0
39
0
210
0
220
0
230
1
50
360
0
SPLINE
5
AC
100
AcDbEntity
8
1
62
256
6
ByLayer
370
18
48
1
60
0
100
AcDbSpline
70
4
71
2
72
6
73
3
40
0
40
0
40
0
40
1
40
1
40
1
41
1
10
173.70445352543
20
0.0009507093118089
30
0
41
1
10
173.704439934847
20
0.0009566989048437
30
0
41
1
10
173.704426344269
20
0.0009630140638706
30
0
0
SPLINE
5
AD
100
AcDbEntity
8
1
62
256
6
ByLayer
370
18
48
1
60
0
100
AcDbSpline
70
4
71
3
72
26
73
22
40
0
40
0
40
0
40
0
40
0.0294356382736111
40
0.0588590464564581
40
0.0863267494619366
40
0.118310811900715
40
0.178385763741595
40
0.226415626429607
40
0.277797785007916
40
0.3667015670067
40
0.453565718062141
40
0.549596373856694
40
0.618094294704265
40
0.684633866063722
40
0.746012250719797
40
0.809999763316101
40
0.87090845213855
40
0.934684517358383
40
0.962705656905449
40
0.987345007804313
40
1
40
1
40
1
40
1
41
1
10
84.3089648583168
20
6.99034976554631
30
0
41
1
10
84.16440167783
20
6.99023257481528
30
0
41
1
10
83.8745277601007
20
6.98996238516165
30
0
41
1
10
83.4460210469016
20
6.98904062159917
30
0
41
1
10
83.0044763931523
20
6.9888237100073
30
0
41
1
10
82.4109132633095
20
6.9888022322323
30
0
41
1
10
81.7149283974812
20
6.98880489217745
30
0
41
1
10
80.9226944424335
20
6.98771686772599
30
0
41
1
10
79.987230982005
20
6.98795934895787
30
0
41
1
10
78.8588521471842
20
6.98701052877544
30
0
41
1
10
77.5086866140194
20
6.9870475107613
30
0
41
1
10
76.2598834204464
20
6.98454021230441
30
0
41
1
10
75.112042743527
20
6.98454067221746
30
0
41
1
10
74.1363414858658
20
6.98384652561825
30
0
41
1
10
73.1830425121408
20
6.98312758605235
30
0
41
1
10
72.2577214478327
20
6.98372898868328
30
0
41
1
10
71.3204904894952
20
6.98210879714392
30
0
41
1
10
70.5619092642637
20
6.9818491824137
30
0
41
1
10
69.9835204724029
20
6.98163854890984
30
0
41
1
10
69.6590649268375
20
6.98145150114959
30
0
41
1
10
69.4738041934253
20
6.98119208212276
30
0
41
1
10
69.4109401916754
20
6.98110090701132
30
0
0
SPLINE
5
AE
100
AcDbEntity
8
1
62
256
6
ByLayer
370
18
48
1
60
0
100
AcDbSpline
70
4
71
3
72
28
73
24
40
0
40
0
40
0
40
0
40
0.022391745138097
40
0.0686293711029401
40
0.107432786058833
40
0.148549224033936
40
0.176278117550718
40
0.200175074066273
40
0.230063682246851
40
0.265904335069734
40
0.302087219317978
40
0.360626748642094
40
0.411502452866666
40
0.46403582876193
40
0.524026707734506
40
0.590109628097316
40
0.672825059480491
40
0.745493379056014
40
0.810995414631759
40
0.873608638724202
40
0.936145871152556
40
0.980702487381959
40
1
40
1
40
1
40
1
41
1
10
127.921323769067
20
7.01616554843091
30
0
41
1
10
127.811659136894
20
7.01652198308543
30
0
41
1
10
127.47454031952
20
7.01736583385716
30
0
41
1
10
126.937578386826
20
7.01590344551852
30
0
41
1
10
126.309572640869
20
7.01588594351162
30
0
41
1
10
125.773137927192
20
7.01621740125594
30
0
41
1
10
125.311117520377
20
7.01597824149565
30
0
41
1
10
124.905007552405
20
7.01530335162175
30
0
41
1
10
124.458492064317
20
7.01419110442157
30
0
41
1
10
123.950767172543
20
7.01402003482082
30
0
41
1
10
123.300305381586
20
7.01419279233463
30
0
41
1
10
122.574930498968
20
7.01483035595055
30
0
41
1
10
121.768108589438
20
7.01223938996904
30
0
41
1
10
120.954048729614
20
7.0128342454573
30
0
41
1
10
120.064226399824
20
7.01196833668271
30
0
41
1
10
119.024033070242
20
7.01111455255668
30
0
41
1
10
117.920700290395
20
7.01174431742189
30
0
41
1
10
116.820229180763
20
7.00943331543112
30
0
41
1
10
115.819972048081
20
7.00995826631728
30
0
41
1
10
114.869970913666
20
7.00846840359955
30
0
41
1
10
114.025069130756
20
7.00824377620361
30
0
41
1
10
113.394066346364
20
7.00809107129882
30
0
41
1
10
113.077719978817
20
7.00777303267898
30
0
41
1
10
112.982252865825
20
7.00763239531923
30
0
0
SPLINE
5
AF
100
AcDbEntity
8
1
62
256
6
ByLayer
370
18
48
1
60
0
100
AcDbSpline
70
4
71
3
72
31
73
27
40
0
40
0
40
0
40
0
40
0.0461457215863324
40
0.0853891751942835
40
0.113819452395748
40
0.13347320254231
40
0.146059390951858
40
0.16495592422452
40
0.189219964751798
40
0.210301156400133
40
0.239792946551258
40
0.275639398987649
40
0.310127263796947
40
0.339363816370807
40
0.416364514559515
40
0.492027143544276
40
0.574618231191304
40
0.644473850631553
40
0.707898408943322
40
0.771591136503774
40
0.837508997355062
40
0.868918153720162
40
0.90923036021414
40
0.943876644824949
40
0.977461479043402
40
1
40
1
40
1
40
1
41
1
10
65.0315601680049
20
-6.97784541685519
30
0
41
1
10
65.326798178697
20
-6.97779188684819
30
0
41
1
10
65.8732384792658
20
-6.97796649258072
30
0
41
1
10
66.610336916029
20
-6.97789330951025
30
0
41
1
10
67.1649273860218
20
-6.97954542271572
30
0
41
1
10
67.5541100409248
20
-6.97968822879238
30
0
41
1
10
67.8836384880535
20
-6.9798889128493
30
0
41
1
10
68.2425891791763
20
-6.9800400435067
30
0
41
1
10
68.6563575218124
20
-6.98024996983014
30
0
41
1
10
69.1383181345379
20
-6.98064610886624
30
0
41
1
10
69.6948930189598
20
-6.98160885397095
30
0
41
1
10
70.337791650644
20
-6.98174711947462
30
0
41
1
10
70.9790647388874
20
-6.98199120293663
30
0
41
1
10
71.8853800370529
20
-6.98299583942236
30
0
41
1
10
73.0568705190272
20
-6.98317700445278
30
0
41
1
10
74.5719919515933
20
-6.98457994462521
30
0
41
1
10
76.0410923880136
20
-6.98413865984009
30
0
41
1
10
77.4313768502803
20
-6.98714989958088
30
0
41
1
10
78.69994753139
20
-6.98675004461523
30
0
41
1
10
79.9431559905915
20
-6.98811267412313
30
0
41
1
10
80.9801946722442
20
-6.98776621707265
30
0
41
1
10
81.866579928936
20
-6.98886761945388
30
0
41
1
10
82.55183937727
20
-6.98883907060176
30
0
41
1
10
83.2501665987801
20
-6.98866979954019
30
0
41
1
10
83.8360402582389
20
-6.99010491479936
30
0
41
1
10
84.1931027308005
20
-6.99001374491533
30
0
41
1
10
84.3360300124449
20
-6.98992681907711
30
0
0
SPLINE
5
B0
100
AcDbEntity
8
1
62
256
6
ByLayer
370
18
48
1
60
0
100
AcDbSpline
70
4
71
3
72
34
73
30
40
0
40
0
40
0
40
0
40
0.0180352601610446
40
0.0358317395750547
40
0.061470098076818
40
0.0900129079154305
40
0.117727327027203
40
0.144153399866352
40
0.177823552045522
40
0.206126068601735
40
0.23492066792432
40
0.271717439956524
40
0.310517647786808
40
0.34328251622047
40
0.387389695426528
40
0.436886262935098
40
0.480633968426792
40
0.518353715635665
40
0.555282611529263
40
0.600433128643254
40
0.654000583278326
40
0.709508739372003
40
0.765827784053638
40
0.81425515197526
40
0.852365117077113
40
0.889859784716419
40
0.930860058914978
40
0.976864060705311
40
1
40
1
40
1
40
1
41
1
10
152.04360509411
20
-7.03214418379036
30
0
41
1
10
152.133877388289
20
-7.03142095525186
30
0
41
1
10
152.326473694359
20
-7.0300257406349
30
0
41
1
10
152.718639677435
20
-7.02474046346629
30
0
41
1
10
153.194449086972
20
-7.02742334596005
30
0
41
1
10
153.70479431598
20
-7.0323472597963
30
0
41
1
10
154.23950927674
20
-7.03338156896632
30
0
41
1
10
154.809816736628
20
-7.03388991171485
30
0
41
1
10
155.385835596413
20
-7.03398745349909
30
0
41
1
10
155.97702646299
20
-7.03433364462899
30
0
41
1
10
156.588645025328
20
-7.03483339045431
30
0
41
1
10
157.26863381753
20
-7.03509371611781
30
0
41
1
10
157.974451530208
20
-7.03512537295617
30
0
41
1
10
158.727925906996
20
-7.0356916693606
30
0
41
1
10
159.551053553167
20
-7.03655094397746
30
0
41
1
10
160.445737846048
20
-7.03633325448533
30
0
41
1
10
161.298810599411
20
-7.0380530138028
30
0
41
1
10
162.070012661817
20
-7.03826945381851
30
0
41
1
10
162.850358843464
20
-7.03753518538707
30
0
41
1
10
163.733937034052
20
-7.03909473027244
30
0
41
1
10
164.738527960133
20
-7.03869423549494
30
0
41
1
10
165.815873613526
20
-7.03940830661671
30
0
41
1
10
166.859764323322
20
-7.04042623693215
30
0
41
1
10
167.790228198777
20
-7.04001503846396
30
0
41
1
10
168.598347404961
20
-7.042480076799
30
0
41
1
10
169.357054335722
20
-7.04215813402612
30
0
41
1
10
170.168215946143
20
-7.04159939415314
30
0
41
1
10
170.885726214283
20
-7.04342961653893
30
0
41
1
10
171.330867459763
20
-7.04263593115016
30
0
41
1
10
171.479466093716
20
-7.04229160824886
30
0
0
SPLINE
5
B1
100
AcDbEntity
8
1
62
256
6
ByLayer
370
18
48
1
60
0
100
AcDbSpline
70
4
71
3
72
41
73
37
40
0
40
0
40
0
40
0
40
0.04095309546096
40
0.0764592019829013
40
0.10200294429459
40
0.122876815267298
40
0.14306763280269
40
0.162756558087036
40
0.183628161135889
40
0.215386361137221
40
0.249690630516905
40
0.279426927934921
40
0.303454266187749
40
0.330152843236975
40
0.367282322301778
40
0.405048812535716
40
0.438593617855136
40
0.469447396653212
40
0.497872253091719
40
0.523790200761244
40
0.547124968768749
40
0.578480009820892
40
0.613255669968561
40
0.653585625761031
40
0.70059699528728
40
0.75461336034925
40
0.809695772421889
40
0.844169534915671
40
0.87320567420053
40
0.900297872369072
40
0.931324902969677
40
0.949231033621542
40
0.962191192925986
40
0.971759351166582
40
0.988546967432621
40
1
40
1
40
1
40
1
41
1
10
21.4794609913449
20
-6.95055430163944
30
0
41
1
10
21.7390058424739
20
-6.95060587857836
30
0
41
1
10
22.2242980573779
20
-6.95083770713322
30
0
41
1
10
22.8749315893764
20
-6.95052156866532
30
0
41
1
10
23.3966945996102
20
-6.95181399930206
30
0
41
1
10
23.8145279344901
20
-6.95258877026401
30
0
41
1
10
24.201676986607
20
-6.95278107947112
30
0
41
1
10
24.5891475625714
20
-6.95307683549285
30
0
41
1
10
25.0501688404304
20
-6.95338574482096
30
0
41
1
10
25.6045110352935
20
-6.95380223703984
30
0
41
1
10
26.2153549383455
20
-6.95464264831682
30
0
41
1
10
26.776927570342
20
-6.95504631063093
30
0
41
1
10
27.2899896516454
20
-6.95518202608923
30
0
41
1
10
27.8502024987031
20
-6.95537901687911
30
0
41
1
10
28.4980162408671
20
-6.95618953447448
30
0
41
1
10
29.189494884248
20
-6.95658535566508
30
0
41
1
10
29.8409465546508
20
-6.95669561321921
30
0
41
1
10
30.4328427889974
20
-6.95704660400517
30
0
41
1
10
30.9761031683192
20
-6.95778203268495
30
0
41
1
10
31.4714110016715
20
-6.95836740461172
30
0
41
1
10
31.9854029785011
20
-6.9585342856706
30
0
41
1
10
32.5558823791075
20
-6.95863935629348
30
0
41
1
10
33.2347379726793
20
-6.9599928735301
30
0
41
1
10
34.0134087545766
20
-6.96096131379164
30
0
41
1
10
34.9147879424563
20
-6.95976786102105
30
0
41
1
10
35.9102339316483
20
-6.96197152167025
30
0
41
1
10
36.8257306743403
20
-6.96165985388723
30
0
41
1
10
37.5819414249859
20
-6.96171149965758
30
0
41
1
10
38.1596696084969
20
-6.96371795525184
30
0
41
1
10
38.7154216991159
20
-6.96348342510942
30
0
41
1
10
39.2002048950393
20
-6.96340746342065
30
0
41
1
10
39.5948664919775
20
-6.96349416267682
30
0
41
1
10
39.8527071303147
20
-6.96367775781428
30
0
41
1
10
40.1033281453868
20
-6.96399716497885
30
0
41
1
10
40.3444146018645
20
-6.96450856788991
30
0
41
1
10
40.5244855379949
20
-6.96475357285019
30
0
41
1
10
40.5975166461818
20
-6.96484882862015
30
0
0
SPLINE
5
B2
100
AcDbEntity
8
1
62
256
6
ByLayer
370
18
48
1
60
0
100
AcDbSpline
70
4
71
3
72
11
73
7
40
0
40
0
40
0
40
0
40
0.275970388721675
40
0.547693091123746
40
0.825103289546352
40
1
40
1
40
1
40
1
41
1
10
239.152014962557
20
-7.0867243899732
30
0
41
1
10
239.252006373665
20
-7.0863432015926
30
0
41
1
10
239.45788877632
20
-7.08543744842257
30
0
41
1
10
239.794911820235
20
-7.08223971149215
30
0
41
1
10
240.10202495603
20
-7.08150077807255
30
0
41
1
10
240.290668994281
20
-7.08247711359823
30
0
41
1
10
240.363648336454
20
-7.08304836473263
30
0
0
SPLINE
5
B3
100
AcDbEntity
8
1
62
256
6
ByLayer
370
18
48
1
60
0
100
AcDbSpline
70
4
71
3
72
29
73
25
40
0
40
0
40
0
40
0
40
0.0064006087449608
40
0.0331791238715049
40
0.052827333767825
40
0.0711205480744547
40
0.102063579986538
40
0.137254553565884
40
0.164482919816076
40
0.188036558586001
40
0.214073446612735
40
0.281584369266635
40
0.361315010980676
40
0.445829352936435
40
0.530925054651812
40
0.58662784927159
40
0.632070694971885
40
0.678625901509133
40
0.732276520016434
40
0.793156963643352
40
0.846010463286811
40
0.902319316299632
40
0.974513745765478
40
1
40
1
40
1
40
1
41
1
10
214.965438454823
20
7.06993097439656
30
0
41
1
10
214.93396413958
20
7.06998719020945
30
0
41
1
10
214.770595542979
20
7.07021016358846
30
0
41
1
10
214.508480474361
20
7.0698854158496
30
0
41
1
10
214.184837412396
20
7.06876341094525
30
0
41
1
10
213.840962380277
20
7.06734191288086
30
0
41
1
10
213.418825380245
20
7.06627951075131
30
0
41
1
10
212.952225331345
20
7.06574939649798
30
0
41
1
10
212.522499390757
20
7.0655777631018
30
0
41
1
10
212.138540069559
20
7.0656321213105
30
0
41
1
10
211.553236579531
20
7.06591525523194
30
0
41
1
10
210.687153190271
20
7.06736970090302
30
0
41
1
10
209.528779937575
20
7.06693844967108
30
0
41
1
10
208.282506379923
20
7.06423932389814
30
0
41
1
10
207.156343584519
20
7.06438150125763
30
0
41
1
10
206.225458640922
20
7.06405954269721
30
0
41
1
10
205.487214759512
20
7.06438919511109
30
0
41
1
10
204.759228144939
20
7.06485629361964
30
0
41
1
10
203.954081476332
20
7.06271363034216
30
0
41
1
10
203.117441212494
20
7.06299522584249
30
0
41
1
10
202.267547340561
20
7.06259990436229
30
0
41
1
10
201.360994171425
20
7.06162328341239
30
0
41
1
10
200.591639718802
20
7.06181352459689
30
0
41
1
10
200.103008551037
20
7.06161447377784
30
0
41
1
10
199.975566817531
20
7.06154646347426
30
0
0
SPLINE
5
B4
100
AcDbEntity
8
1
62
256
6
ByLayer
370
18
48
1
60
0
100
AcDbSpline
70
4
71
3
72
35
73
31
40
0
40
0
40
0
40
0
40
0.0181017981564385
40
0.0349616972986865
40
0.0521617546944992
40
0.0842447175682397
40
0.117263384025253
40
0.150897992534148
40
0.187339779129332
40
0.220237504603319
40
0.259894477426908
40
0.299530870005327
40
0.334250306126005
40
0.382020030279517
40
0.431970707039332
40
0.487417436378999
40
0.55048550775503
40
0.603207666808729
40
0.650746941139654
40
0.69205857853233
40
0.733594724056409
40
0.781634200799859
40
0.832402017950489
40
0.856283568567356
40
0.8767395952575
40
0.90407549916647
40
0.930373088496167
40
0.957592806076615
40
0.998065059459281
40
1
40
1
40
1
40
1
41
1
10
108.491588477458
20
-7.00475792014899
30
0
41
1
10
108.579299120343
20
-7.00401467340183
30
0
41
1
10
108.76316428424
20
-7.00254542601587
30
0
41
1
10
109.090269474911
20
-6.997135723957
30
0
41
1
10
109.528062024907
20
-6.99814926931913
30
0
41
1
10
110.040281202309
20
-7.0047838260694
30
0
41
1
10
110.670334563221
20
-7.00668474475586
30
0
41
1
10
111.323462090872
20
-7.00597543421142
30
0
41
1
10
111.998305849152
20
-7.00415674026553
30
0
41
1
10
112.699409714852
20
-7.00754896477449
30
0
41
1
10
113.426991169767
20
-7.00812398195268
30
0
41
1
10
114.170614933954
20
-7.0082377208613
30
0
41
1
10
114.965957219418
20
-7.00862534492433
30
0
41
1
10
115.828794297258
20
-7.00995217781144
30
0
41
1
10
116.826557768921
20
-7.00943749913765
30
0
41
1
10
117.924012698377
20
-7.01175395833599
30
0
41
1
10
119.039499641907
20
-7.0110878613782
30
0
41
1
10
120.103491335327
20
-7.01206156560841
30
0
41
1
10
121.025751259961
20
-7.01280135743778
30
0
41
1
10
121.875138335503
20
-7.01231220801643
30
0
41
1
10
122.727781585195
20
-7.0151954432169
30
0
41
1
10
123.642031702133
20
-7.01381398928177
30
0
41
1
10
124.441268724218
20
-7.01410304309641
30
0
41
1
10
125.06081299305
20
-7.01563830664742
30
0
41
1
10
125.527736717641
20
-7.01617828463876
30
0
41
1
10
126.01030582222
20
-7.01608279197706
30
0
41
1
10
126.537312433464
20
-7.01584894840101
30
0
41
1
10
127.148265120248
20
-7.01608455395751
30
0
41
1
10
127.606023446655
20
-7.01804057109393
30
0
41
1
10
127.876088011489
20
-7.0166640122427
30
0
41
1
10
127.888403117942
20
-7.01659915871926
30
0
0
SPLINE
5
B5
100
AcDbEntity
8
1
62
256
6
ByLayer
370
18
48
1
60
0
100
AcDbSpline
70
4
71
3
72
35
73
31
40
0
40
0
40
0
40
0
40
0.0349724815683201
40
0.0658005731982258
40
0.089702146754643
40
0.110454802743919
40
0.128838662640417
40
0.148169186828016
40
0.175323832048718
40
0.203297362557555
40
0.229680315030919
40
0.264946632767782
40
0.297731166724725
40
0.32526763533463
40
0.394983042696934
40
0.47358588509916
40
0.559489908216925
40
0.606987806502571
40
0.649190110270817
40
0.686192188379939
40
0.72520183199007
40
0.769809500296269
40
0.817531562405048
40
0.857474628402033
40
0.882952881755924
40
0.912277836306253
40
0.936241453403942
40
0.959360686911524
40
0.986463730337082
40
1
40
1
40
1
40
1
41
1
10
195.67447972248
20
-7.05937528940055
30
0
41
1
10
195.89465226205
20
-7.05897816274694
30
0
41
1
10
196.311184065902
20
-7.05864368545062
30
0
41
1
10
196.894170594396
20
-7.05701659574595
30
0
41
1
10
197.374923010302
20
-7.05971927072824
30
0
41
1
10
197.775586791377
20
-7.06050943054228
30
0
41
1
10
198.152343707698
20
-7.06069471419448
30
0
41
1
10
198.571506964757
20
-7.06079272086291
30
0
41
1
10
199.052461198164
20
-7.06095103064735
30
0
41
1
10
199.579037275496
20
-7.06127410593049
30
0
41
1
10
200.158004809131
20
-7.06163403301247
30
0
41
1
10
200.768048266183
20
-7.06185183024124
30
0
41
1
10
201.385549365929
20
-7.06174815424609
30
0
41
1
10
202.225588289156
20
-7.06252978943476
30
0
41
1
10
203.361617354124
20
-7.06251526847907
30
0
41
1
10
204.874708364102
20
-7.06527434703057
30
0
41
1
10
206.244262698109
20
-7.06385081230229
30
0
41
1
10
207.378677963173
20
-7.0644517815939
30
0
41
1
10
208.197184288076
20
-7.06477805100448
30
0
41
1
10
208.96084856888
20
-7.06468321821521
30
0
41
1
10
209.740052658959
20
-7.06749063927276
30
0
41
1
10
210.588515036236
20
-7.06729506786979
30
0
41
1
10
211.442993044997
20
-7.06601425767749
30
0
41
1
10
212.173901136238
20
-7.06556432558483
30
0
41
1
10
212.785977178316
20
-7.06562535078223
30
0
41
1
10
213.294783367493
20
-7.06609391137283
30
0
41
1
10
213.788483889801
20
-7.06710286528244
30
0
41
1
10
214.267354731884
20
-7.06919783039757
30
0
41
1
10
214.680521117303
20
-7.07031867634254
30
0
41
1
10
214.937808556767
20
-7.06976536157637
30
0
41
1
10
215.023139901413
20
-7.06948112553113
30
0
0
SPLINE
5
B6
100
AcDbEntity
8
1
62
256
6
ByLayer
370
18
48
1
60
0
100
AcDbSpline
70
4
71
3
72
27
73
23
40
0
40
0
40
0
40
0
40
0.0047374280995605
40
0.0716349796902931
40
0.131952555531227
40
0.174523970164065
40
0.215547861347463
40
0.262640224439246
40
0.325390089605778
40
0.392990231161758
40
0.459267998620904
40
0.522864992483348
40
0.576545026598551
40
0.618073893318599
40
0.659934613788783
40
0.706054530549338
40
0.76000862170314
40
0.814190328440402
40
0.862547730464207
40
0.919549837412111
40
0.963267836522354
40
1
40
1
40
1
40
1
41
1
10
171.472652877479
20
7.04235852152664
30
0
41
1
10
171.449371878594
20
7.04249013635024
30
0
41
1
10
171.097075001827
20
7.04439275493189
30
0
41
1
10
170.43280753936
20
7.04171912421987
30
0
41
1
10
169.580894878807
20
7.04185889099668
30
0
41
1
10
168.859243772473
20
7.04260908357722
30
0
41
1
10
168.203121631961
20
7.04122193663582
30
0
41
1
10
167.445770411231
20
7.03978353833614
30
0
41
1
10
166.554973143828
20
7.04076750424863
30
0
41
1
10
165.567869930096
20
7.03873958337707
30
0
41
1
10
164.576507611813
20
7.03895539889552
30
0
41
1
10
163.655040738959
20
7.03891377775855
30
0
41
1
10
162.857805751026
20
7.03762278638908
30
0
41
1
10
162.169694203665
20
7.03811368091397
30
0
41
1
10
161.519540246622
20
7.03832632184049
30
0
41
1
10
160.807007997714
20
7.03686304964333
30
0
41
1
10
160.032616959301
20
7.03645580805733
30
0
41
1
10
159.246987019113
20
7.03633064166314
30
0
41
1
10
158.446085009694
20
7.03536136435488
30
0
41
1
10
157.697676850999
20
7.0351192552169
30
0
41
1
10
157.007670703577
20
7.03501474911874
30
0
41
1
10
156.603792642279
20
7.03480179399486
30
0
41
1
10
156.419389984214
20
7.03467813419269
30
0
0
SPLINE
5
B7
100
AcDbEntity
8
1
62
256
6
ByLayer
370
18
48
1
60
0
100
AcDbSpline
70
4
71
3
72
28
73
24
40
0
40
0
40
0
40
0
40
0.0292739937581879
40
0.0479634825578391
40
0.0635068810819056
40
0.0759291512152637
40
0.0886729865865109
40
0.110139349347208
40
0.156483104250937
40
0.185391503016929
40
0.210224918733195
40
0.238955097775478
40
0.27079872047969
40
0.36174464104456
40
0.451637767011713
40
0.550834000302578
40
0.618860927631475
40
0.684450768910031
40
0.745292737328279
40
0.809733150431974
40
0.86915704845721
40
0.941044406116358
40
1
40
1
40
1
40
1
41
1
10
40.7876844302408
20
6.96460705137812
30
0
41
1
10
40.6426499859527
20
6.96462208496504
30
0
41
1
10
40.4049235427198
20
6.96453015580818
30
0
41
1
10
40.0905135506962
20
6.9639898538278
30
0
41
1
10
39.8586599886984
20
6.96368332609967
30
0
41
1
10
39.6558406066187
20
6.96353106240321
30
0
41
1
10
39.4237478580492
20
6.96345388487867
30
0
41
1
10
39.022519824639
20
6.96338894955653
30
0
41
1
10
38.5408873491328
20
6.96373840993897
30
0
41
1
10
38.0424469719014
20
6.96327260037106
30
0
41
1
10
37.6317335418943
20
6.96198756770013
30
0
41
1
10
37.2064002920032
20
6.96164640682051
30
0
41
1
10
36.4518278643439
20
6.96190829250278
30
0
41
1
10
35.3926484379567
20
6.96031329219724
30
0
41
1
10
33.9980574024986
20
6.96119639015788
30
0
41
1
10
32.7175933569908
20
6.95851379519155
30
0
41
1
10
31.5581932826665
20
6.95863669447553
30
0
41
1
10
30.5897698943653
20
6.95711451265433
30
0
41
1
10
29.6392667412481
20
6.95660292080535
30
0
41
1
10
28.7194181915052
20
6.95649806216159
30
0
41
1
10
27.7445708890458
20
6.95516066506994
30
0
41
1
10
26.7970164197803
20
6.95523202949272
30
0
41
1
10
26.1454348407886
20
6.9544540225626
30
0
41
1
10
25.8518292539424
20
6.95413155721172
30
0
0
SPLINE
5
B8
100
AcDbEntity
8
1
62
256
6
ByLayer
370
13
48
1
60
0
100
AcDbSpline
70
4
71
3
72
20
73
16
40
0
40
0
40
0
40
0
40
0.128932443051126
40
0.128932443051126
40
0.257864886102251
40
0.257864886102251
40
0.515729772204503
40
0.515729772204503
40
0.644662215255629
40
0.644662215255629
40
0.709128436781191
40
0.709128436781191
40
0.773594658306754
40
0.773594658306754
40
1
40
1
40
1
40
1
41
1
10
9.20487001568242
20
-4.53499327875446
30
0
41
1
10
9.81241633487687
20
-4.77148508071397
30
0
41
1
10
10.4177126085664
20
-4.99378700706308
30
0
41
1
10
11.6234731860637
20
-5.40738472289871
30
0
41
1
10
12.224316848138
20
-5.59882117941424
30
0
41
1
10
14.0240676222888
20
-6.12379631546216
30
0
41
1
10
15.2201677793236
20
-6.40787614988156
30
0
41
1
10
17.0207885130534
20
-6.72326576976442
30
0
41
1
10
17.6220133450284
20
-6.8100079800883
30
0
41
1
10
18.5270850483463
20
-6.91121136013027
30
0
41
1
10
18.8293076899146
20
-6.94011327539752
30
0
41
1
10
19.4350842090385
20
-6.98805376577153
30
0
41
1
10
19.7389868570044
20
-7.00710600744165
30
0
41
1
10
21.1080174729846
20
-7.07009778076258
30
0
41
1
10
22.1695692972741
20
-7.05655256773613
30
0
41
1
10
23.232928457373
20
-6.98133375723916
30
0
0
SPLINE
5
B9
100
AcDbEntity
8
1
62
256
6
ByLayer
370
18
48
1
60
0
100
AcDbSpline
70
4
71
3
72
20
73
16
40
0
40
0
40
0
40
0
40
0.0405603078675163
40
0.0405603078675163
40
0.215385450501342
40
0.215385450501342
40
0.390210593135169
40
0.390210593135169
40
0.477623164452084
40
0.477623164452084
40
0.565035735769001
40
0.565035735769001
40
0.914686021036677
40
0.914686021036677
40
1
40
1
40
1
40
1
41
1
10
86.558201459632
20
0.0244832085485314
30
0
41
1
10
86.6988974318643
20
-0.0474825903097553
30
0
41
1
10
86.8396251521229
20
-0.119474522570641
30
0
41
1
10
87.5862637140616
20
-0.501331129909914
30
0
41
1
10
88.1909992207327
20
-0.810191227247998
30
0
41
1
10
89.4003377160329
20
-1.42094640732469
30
0
41
1
10
90.004731616722
20
-1.72323798429628
30
0
41
1
10
90.9126402205982
20
-2.16870425817956
30
0
41
1
10
91.2154993417989
20
-2.31585661105723
30
0
41
1
10
91.8218949037341
20
-2.60704920556867
30
0
41
1
10
92.124966549637
20
-2.75087053864524
30
0
41
1
10
93.6358030438013
20
-3.45744471891516
30
0
41
1
10
94.8343612557152
20
-3.98495238176318
30
0
41
1
10
96.3233159033789
20
-4.57808734117248
30
0
41
1
10
96.6152485857359
20
-4.69142290180153
30
0
41
1
10
96.9071882073478
20
-4.80158254594559
30
0
0
SPLINE
5
BA
100
AcDbEntity
8
1
62
256
6
ByLayer
370
13
48
1
60
0
100
AcDbSpline
70
4
71
3
72
20
73
16
40
0
40
0
40
0
40
0
40
0.203335555363187
40
0.203335555363187
40
0.337816391439995
40
0.337816391439995
40
0.405056809478401
40
0.405056809478401
40
0.472297227516807
40
0.472297227516807
40
0.741258899670433
40
0.741258899670433
40
0.875739735747245
40
0.875739735747245
40
1
40
1
40
1
40
1
41
1
10
96.9071882079863
20
-4.80158254618652
30
0
41
1
10
97.8117321310378
20
-5.14290050817363
30
0
41
1
10
98.7163426712445
20
-5.45372953108071
30
0
41
1
10
100.225187031351
20
-5.91088728874243
30
0
41
1
10
100.827476222054
20
-6.07720912481332
30
0
41
1
10
101.734937551495
20
-6.30103268486644
30
0
41
1
10
102.038402811471
20
-6.37144557861555
30
0
41
1
10
102.644342228862
20
-6.50278896152773
30
0
41
1
10
102.947024807567
20
-6.5637738317823
30
0
41
1
10
104.459522239168
20
-6.84487063729154
30
0
41
1
10
105.666442725316
20
-6.99362217334999
30
0
41
1
10
107.485207731855
20
-7.09552802387003
30
0
41
1
10
108.090746236659
20
-7.10917077930276
30
0
41
1
10
109.254029312762
20
-7.09634925481762
30
0
41
1
10
109.812253893055
20
-7.0729095427123
30
0
41
1
10
110.370918842526
20
-7.03230533554191
30
0
0
SPLINE
5
BB
100
AcDbEntity
8
1
62
256
6
ByLayer
370
18
48
1
60
0
100
AcDbSpline
70
4
71
3
72
22
73
18
40
0
40
0
40
0
40
0
40
0.151593889380698
40
0.151593889380698
40
0.438703659472098
40
0.438703659472098
40
0.582258544517795
40
0.582258544517795
40
0.654035987040645
40
0.654035987040645
40
0.725813429563493
40
0.725813429563493
40
0.869368314609192
40
0.869368314609192
40
0.94114575713204
40
0.94114575713204
40
1
40
1
40
1
40
1
41
1
10
173.67992389129
20
0.0134616627340449
30
0
41
1
10
174.31263127678
20
-0.312621175042182
30
0
41
1
10
174.943820838778
20
-0.638003061403737
30
0
41
1
10
176.769482106015
20
-1.570850211829
30
0
41
1
10
177.96330034438
20
-2.1701070918738
30
0
41
1
10
179.764551877036
20
-3.02859962567035
30
0
41
1
10
180.366826038106
20
-3.30785080810028
30
0
41
1
10
181.274543715746
20
-3.71339511145791
30
0
41
1
10
181.577440359649
20
-3.84618813176377
30
0
41
1
10
182.182065405607
20
-4.10562380929693
30
0
41
1
10
182.484105071037
20
-4.23240006202326
30
0
41
1
10
183.389861101547
20
-4.6032200711756
30
0
41
1
10
183.993137133331
20
-4.8378879527491
30
0
41
1
10
184.898828292162
20
-5.16864487298818
30
0
41
1
10
185.200868367393
20
-5.27534509146091
30
0
41
1
10
185.751036130321
20
-5.46276303893833
30
0
41
1
10
185.999298237246
20
-5.54475720246148
30
0
41
1
10
186.247428979217
20
-5.62401322664164
30
0
0
SPLINE
5
BC
100
AcDbEntity
8
1
62
256
6
ByLayer
370
13
48
1
60
0
100
AcDbSpline
70
4
71
3
72
18
73
14
40
0
40
0
40
0
40
0
40
0.0144777010807132
40
0.0144777010807132
40
0.336123249309623
40
0.336123249309623
40
0.657768797538532
40
0.657768797538532
40
0.818591571652991
40
0.818591571652991
40
0.979414345767447
40
0.979414345767447
40
1
40
1
40
1
40
1
41
1
10
186.24742898744
20
-5.62401322926837
30
0
41
1
10
186.301913469805
20
-5.64141624597727
30
0
41
1
10
186.356391618374
20
-5.65868724258655
30
0
41
1
10
187.620914301701
20
-6.05652408598567
30
0
41
1
10
188.81956317837
20
-6.36856053647565
30
0
41
1
10
191.210550946862
20
-6.84395058394421
30
0
41
1
10
192.403023566244
20
-7.0074856854329
30
0
41
1
10
194.199347165381
20
-7.13409257421961
30
0
41
1
10
194.799497703903
20
-7.15656602547341
30
0
41
1
10
196.004439872467
20
-7.16085417219952
30
0
41
1
10
196.610588835019
20
-7.14255212854366
30
0
41
1
10
197.29238507498
20
-7.09899429915399
30
0
41
1
10
197.369736395647
20
-7.09372132589075
30
0
41
1
10
197.447073144958
20
-7.08811913627949
30
0
0
SPLINE
5
BD
100
AcDbEntity
8
1
62
256
6
ByLayer
370
18
48
1
60
0
100
AcDbSpline
70
4
71
3
72
56
73
52
40
0
40
0
40
0
40
0
40
0.0625000000000369
40
0.0625000000000369
40
0.125000000000074
40
0.125000000000074
40
0.187500000000111
40
0.187500000000111
40
0.218750000000122
40
0.218750000000122
40
0.250000000000134
40
0.250000000000134
40
0.312500000000142
40
0.312500000000142
40
0.343750000000139
40
0.343750000000139
40
0.375000000000135
40
0.375000000000135
40
0.437500000000143
40
0.437500000000143
40
0.468750000000141
40
0.468750000000141
40
0.500000000000138
40
0.500000000000138
40
0.56250000000012
40
0.56250000000012
40
0.593750000000112
40
0.593750000000112
40
0.625000000000103
40
0.625000000000103
40
0.656250000000094
40
0.656250000000094
40
0.687500000000086
40
0.687500000000086
40
0.718750000000077
40
0.718750000000077
40
0.750000000000069
40
0.750000000000069
40
0.78125000000006
40
0.78125000000006
40
0.812500000000051
40
0.812500000000051
40
0.843750000000043
40
0.843750000000043
40
0.875000000000034
40
0.875000000000034
40
0.937500000000017
40
0.937500000000017
40
0.968750000000009
40
0.968750000000009
40
1
40
1
40
1
40
1
41
1
10
241.865857169297
20
-3.05439473115951
30
0
41
1
10
241.829340513456
20
-3.03578275520144
30
0
41
1
10
241.788902356057
20
-3.02857605950223
30
0
41
1
10
241.70261706535
20
-3.03311137732405
30
0
41
1
10
241.656326134901
20
-3.04494051243262
30
0
41
1
10
241.559380845871
20
-3.08599076364061
30
0
41
1
10
241.509403009526
20
-3.11484288578905
30
0
41
1
10
241.432322834153
20
-3.16981289976894
30
0
41
1
10
241.406274050992
20
-3.19010232783472
30
0
41
1
10
241.353453648167
20
-3.23468004772121
30
0
41
1
10
241.326632844511
20
-3.25903061017795
30
0
41
1
10
241.246395571793
20
-3.33697328030232
30
0
41
1
10
241.192785203744
20
-3.39572312888842
30
0
41
1
10
241.112182372778
20
-3.49454399677313
30
0
41
1
10
241.085283309122
20
-3.52928068631664
30
0
41
1
10
241.031417183202
20
-3.60263768278739
30
0
41
1
10
241.004303641594
20
-3.64148293730418
30
0
41
1
10
240.924088371289
20
-3.76266610315875
30
0
41
1
10
240.872213922934
20
-3.84927810127658
30
0
41
1
10
240.797248369027
20
-3.98953907945267
30
0
41
1
10
240.772576918983
20
-4.03839058255099
30
0
41
1
10
240.725367663772
20
-4.13798202226991
30
0
41
1
10
240.702805710685
20
-4.18871825102826
30
0
41
1
10
240.638531186135
20
-4.34400401514574
30
0
41
1
10
240.599845121389
20
-4.45313634598918
30
0
41
1
10
240.554110884659
20
-4.61319581242213
30
0
41
1
10
240.540712392207
20
-4.66648318868334
30
0
41
1
10
240.518269467494
20
-4.77161356916187
30
0
41
1
10
240.509477172758
20
-4.82221075375918
30
0
41
1
10
240.4966011975
20
-4.91959040911942
30
0
41
1
10
240.49251070661
20
-4.96659176029556
30
0
41
1
10
240.489192760242
20
-5.05573034160193
30
0
41
1
10
240.489970069178
20
-5.09702834117715
30
0
41
1
10
240.495957830532
20
-5.17367178556722
30
0
41
1
10
240.501227710547
20
-5.20923210022383
30
0
41
1
10
240.51576250607
20
-5.27348524941937
30
0
41
1
10
240.524955686333
20
-5.30207803828969
30
0
41
1
10
240.546770955907
20
-5.35297161273269
30
0
41
1
10
240.559481597003
20
-5.37537331361469
30
0
41
1
10
240.587700140019
20
-5.41371565083577
30
0
41
1
10
240.603122397213
20
-5.4296156672481
30
0
41
1
10
240.636282439403
20
-5.45564682998548
30
0
41
1
10
240.654022196094
20
-5.465773064058
30
0
41
1
10
240.691648371452
20
-5.48067737181313
30
0
41
1
10
240.711638705467
20
-5.4854593591115
30
0
41
1
10
240.773933331144
20
-5.49200776040522
30
0
41
1
10
240.818203338452
20
-5.48617762961098
30
0
41
1
10
240.888171796579
20
-5.46417384016593
30
0
41
1
10
240.912095568095
20
-5.45460326834259
30
0
41
1
10
240.961124009075
20
-5.43106833272105
30
0
41
1
10
240.986332618745
20
-5.41702994585074
30
0
41
1
10
241.011755372176
20
-5.40102013266292
30
0
0
SPLINE
5
BE
100
AcDbEntity
8
1
62
256
6
ByLayer
370
13
48
1
60
0
100
AcDbSpline
70
4
71
3
72
8
73
4
40
0
40
0
40
0
40
0
40
1
40
1
40
1
40
1
41
1
10
9.13655540673852
20
-4.51885169518374
30
0
41
1
10
9.15808514250352
20
-4.52027033347909
30
0
41
1
10
9.18123350748789
20
-4.52579259686675
30
0
41
1
10
9.20487001568242
20
-4.53499327875446
30
0
0
SPLINE
5
BF
100
AcDbEntity
8
1
62
256
6
ByLayer
370
18
48
1
60
0
100
AcDbSpline
70
4
71
3
72
41
73
37
40
0
40
0
40
0
40
0
40
0.0089606764761705
40
0.0089606764761705
40
0.0888894638620688
40
0.0888894638620688
40
0.128853857555018
40
0.128853857555018
40
0.168818251247967
40
0.168818251247967
40
0.328675826019764
40
0.328675826019764
40
0.368640219712713
40
0.368640219712713
40
0.408604613405662
40
0.488533400791561
40
0.488533400791561
40
0.568462188177459
40
0.588444385023934
40
0.598435483447171
40
0.598435483447171
40
0.60343103265879
40
0.60343103265879
40
0.608426581870408
40
0.608426581870408
40
0.618417680293646
40
0.618417680293646
40
0.628408778716883
40
0.628408778716883
40
0.648390975563357
40
0.648390975563357
40
0.808248550335154
40
0.808248550335154
40
0.968106125106951
40
0.968106125106951
40
1
40
1
40
1
40
1
41
1
10
21.2171217556301
20
7.27546259111995
30
0
41
1
10
21.2171217556301
20
7.23865309128692
30
0
41
1
10
21.2171217556301
20
7.2018166101081
30
0
41
1
10
21.2171217556301
20
6.83613502846316
30
0
41
1
10
21.2171217556301
20
6.50518548918336
30
0
41
1
10
21.2171217556301
20
6.00565627909234
30
0
41
1
10
21.2171217556301
20
5.83862778400851
30
0
41
1
10
21.2171217556301
20
5.5035339523686
30
0
41
1
10
21.2171217556301
20
5.33502118459609
30
0
41
1
10
21.2171217556301
20
4.49579951832283
30
0
41
1
10
21.2171217556301
20
3.83824366751551
30
0
41
1
10
21.2171217556301
20
3.03234006220109
30
0
41
1
10
21.2171217556301
20
2.87146590701372
30
0
41
1
10
21.2171217556301
20
2.54951190607352
30
0
41
1
10
21.2171217556301
20
2.06665991983093
30
0
41
1
10
21.2171217556301
20
1.58404402879017
30
0
41
1
10
21.2171217556301
20
0.940764385080769
30
0
41
1
10
21.2171217556301
20
0.538866895426111
30
0
41
1
10
21.2171217556301
20
0.0970183705614147
30
0
41
1
10
21.2171217556301
20
-0.023467325799885
30
0
41
1
10
21.2171217556301
20
-0.0837070317094231
30
0
41
1
10
21.2171217556301
20
-0.103842754962983
30
0
41
1
10
21.2171217556301
20
-0.143883561274777
30
0
41
1
10
21.2171217556301
20
-0.162508718896902
30
0
41
1
10
21.2171217556301
20
-0.214371048063896
30
0
41
1
10
21.2171217556301
20
-0.241587850012507
30
0
41
1
10
21.2171217556301
20
-0.26745310881148
30
0
41
1
10
21.2171217556301
20
-0.280267241330478
30
0
41
1
10
21.2171217556301
20
-0.318351287433586
30
0
41
1
10
21.2171217556301
20
-0.343254556824178
30
0
41
1
10
21.2171217556301
20
-0.562993781815379
30
0
41
1
10
21.2171217556301
20
-0.72696969100204
30
0
41
1
10
21.2171217556301
20
-0.988852479180565
30
0
41
1
10
21.2171217556301
20
-1.08660041787417
30
0
41
1
10
21.2171217556301
20
-1.16237628379835
30
0
41
1
10
21.2171217556301
20
-1.17359983949515
30
0
41
1
10
21.2171217556301
20
-1.18343000650188
30
0
0
SPLINE
5
C0
100
AcDbEntity
8
1
62
256
6
ByLayer
370
18
48
1
60
0
100
AcDbSpline
70
4
71
3
72
14
73
10
40
0
40
0
40
0
40
0
40
0.25
40
0.25
40
0.5
40
0.5
40
0.75
40
0.75
40
1
40
1
40
1
40
1
41
1
10
240.529175511621
20
-7.05721216706664
30
0
41
1
10
240.531713405564
20
-7.05593112615907
30
0
41
1
10
240.533579348496
20
-7.05646459707322
30
0
41
1
10
240.535601806136
20
-7.06214761607947
30
0
41
1
10
240.535702462983
20
-7.0674096573359
30
0
41
1
10
240.53330523281
20
-7.08352046076391
30
0
41
1
10
240.530781290742
20
-7.09431399282647
30
0
41
1
10
240.523552419786
20
-7.11889137287724
30
0
41
1
10
240.518886392442
20
-7.13256373428121
30
0
41
1
10
240.51387853501
20
-7.1458336957316
30
0
0
SPLINE
5
C1
100
AcDbEntity
8
1
62
256
6
ByLayer
370
18
48
1
60
0
100
AcDbSpline
70
4
71
3
72
18
73
14
40
0
40
0
40
0
40
0
40
0.229416109951713
40
0.229416109951713
40
0.581280859807297
40
0.581280859807297
40
0.669247047271194
40
0.669247047271194
40
0.75721323473509
40
0.75721323473509
40
0.933145609662882
40
0.933145609662882
40
1
40
1
40
1
40
1
41
1
10
43.0353963878049
20
0.0105182522533482
30
0
41
1
10
43.8185467966208
20
-0.388555066903621
30
0
41
1
10
44.5993441615339
20
-0.786587161452076
30
0
41
1
10
46.5776420920638
20
-1.78073156429977
30
0
41
1
10
47.7748792574891
20
-2.36957839067608
30
0
41
1
10
49.2815013066559
20
-3.06900272062339
30
0
41
1
10
49.5833372899636
20
-3.20703720110882
30
0
41
1
10
50.1882869325804
20
-3.47890939604821
30
0
41
1
10
50.4917163745014
20
-3.61290847953171
30
0
41
1
10
51.4018552104541
20
-4.00687306968968
30
0
41
1
10
52.0072233023957
20
-4.25824076604025
30
0
41
1
10
52.8422593945474
20
-4.58714950073505
30
0
41
1
10
53.0721391550079
20
-4.67585891517402
30
0
41
1
10
53.3020269553777
20
-4.76261660133008
30
0
0
SPLINE
5
C2
100
AcDbEntity
8
1
62
256
6
ByLayer
370
13
48
1
60
0
100
AcDbSpline
70
4
71
3
72
20
73
16
40
0
40
0
40
0
40
0
40
0.0832661441177061
40
0.0832661441177061
40
0.150416314446223
40
0.150416314446223
40
0.21756648477474
40
0.21756648477474
40
0.486167166088812
40
0.486167166088812
40
0.620467506745847
40
0.620467506745847
40
0.754767847402882
40
0.754767847402882
40
1
40
1
40
1
40
1
41
1
10
53.3020269556082
20
-4.76261660141711
30
0
41
1
10
53.6771062557819
20
-4.90416831558051
30
0
41
1
10
54.0522069585043
20
-5.04052445376783
30
0
41
1
10
54.7303647588199
20
-5.2767380375175
30
0
41
1
10
55.0333006224397
20
-5.37855721212702
30
0
41
1
10
55.6398226826243
20
-5.57455136403775
30
0
41
1
10
55.9434768187506
20
-5.66875173287866
30
0
41
1
10
57.4590180076307
20
-6.11824625805161
30
0
41
1
10
58.6665158650198
20
-6.41036136687444
30
0
41
1
10
60.4838116854539
20
-6.73585836363674
30
0
41
1
10
61.0916780105798
20
-6.82558367083681
30
0
41
1
10
62.3003472424454
20
-6.96463468109053
30
0
41
1
10
62.9022751701889
20
-7.01422288220934
30
0
41
1
10
64.5991544320821
20
-7.09818334080254
30
0
41
1
10
65.6908253249664
20
-7.08595395926577
30
0
41
1
10
66.7841329731299
20
-7.00830008495322
30
0
0
SPLINE
5
C3
100
AcDbEntity
8
1
62
256
6
ByLayer
370
18
48
1
60
0
100
AcDbSpline
70
4
71
3
72
20
73
16
40
0
40
0
40
0
40
0
40
0.0245377174517614
40
0.0245377174517614
40
0.199791534423323
40
0.199791534423323
40
0.375045351394887
40
0.375045351394887
40
0.462672259880668
40
0.462672259880668
40
0.550299168366447
40
0.550299168366447
40
0.900806802309582
40
0.900806802309582
40
1
40
1
40
1
40
1
41
1
10
130.150743158067
20
0.0026915796968581
30
0
41
1
10
130.235591890735
20
-0.0408742691226678
30
0
41
1
10
130.320433100532
20
-0.0844394844509111
30
0
41
1
10
131.011004454119
20
-0.439022477872101
30
0
41
1
10
131.61541273426
20
-0.749076442056804
30
0
41
1
10
132.823857361001
20
-1.36271049830879
30
0
41
1
10
133.427765738092
20
-1.66654146072719
30
0
41
1
10
134.33489252367
20
-2.1144586758945
30
0
41
1
10
134.6374750955
20
-2.26246614212272
30
0
41
1
10
135.243269605775
20
-2.55547329700721
30
0
41
1
10
135.546318298219
20
-2.7003750154993
30
0
41
1
10
137.056539304739
20
-3.41233993343087
30
0
41
1
10
138.254478570229
20
-3.94445715452068
30
0
41
1
10
139.788919762348
20
-4.56280924137809
30
0
41
1
10
140.127222470544
20
-4.69518740333893
30
0
41
1
10
140.465549491245
20
-4.8232805399899
30
0
0
SPLINE
5
C4
100
AcDbEntity
8
1
62
256
6
ByLayer
370
13
48
1
60
0
100
AcDbSpline
70
4
71
3
72
22
73
18
40
0
40
0
40
0
40
0
40
0.192483502119641
40
0.192483502119641
40
0.326711638584221
40
0.326711638584221
40
0.393825706816508
40
0.393825706816508
40
0.460939775048795
40
0.460939775048795
40
0.729396047977948
40
0.729396047977948
40
0.863624184442523
40
0.863624184442523
40
0.997852320907098
40
0.997852320907098
40
1
40
1
40
1
40
1
41
1
10
140.465549490812
20
-4.82328053982621
30
0
41
1
10
141.322729886954
20
-5.14781543920588
30
0
41
1
10
142.180066346402
20
-5.44484452578769
30
0
41
1
10
143.640566945118
20
-5.89487807655004
30
0
41
1
10
144.242230101328
20
-6.06416732843917
30
0
41
1
10
145.148617536087
20
-6.29257667793667
30
0
41
1
10
145.451761811402
20
-6.3645452245309
30
0
41
1
10
146.057330101366
20
-6.49908788524277
30
0
41
1
10
146.359811030387
20
-6.56168497014954
30
0
41
1
10
147.871254826807
20
-6.85083985442756
30
0
41
1
10
149.077212128965
20
-7.00611954794556
30
0
41
1
10
150.894213414425
20
-7.11772625095998
30
0
41
1
10
151.499527636521
20
-7.13460065938352
30
0
41
1
10
152.70784403553
20
-7.12757114658609
30
0
41
1
10
153.311423912868
20
-7.10376791538582
30
0
41
1
10
153.925255268075
20
-7.05911867985131
30
0
41
1
10
153.934922152502
20
-7.05841036473382
30
0
41
1
10
153.944589162245
20
-7.05769688266821
30
0
0
SPLINE
5
C5
100
AcDbEntity
8
1
62
256
6
ByLayer
370
18
48
1
60
0
100
AcDbSpline
70
4
71
3
72
20
73
16
40
0
40
0
40
0
40
0
40
0.144144049593409
40
0.144144049593409
40
0.299471704045313
40
0.299471704045313
40
0.454799358497218
40
0.454799358497218
40
0.765454667401016
40
0.765454667401016
40
0.843118494626964
40
0.843118494626964
40
0.920782321852914
40
0.920782321852914
40
1
40
1
40
1
40
1
41
1
10
217.205521930467
20
0.026125699681927
30
0
41
1
10
217.766634261036
20
-0.264146616171928
30
0
41
1
10
218.326679228444
20
-0.55393680034004
30
0
41
1
10
219.489777590979
20
-1.15156780968346
30
0
41
1
10
220.092726884092
20
-1.45920672181163
30
0
41
1
10
221.300321171468
20
-2.06534977480314
30
0
41
1
10
221.906025931458
20
-2.36429040534918
30
0
41
1
10
223.718264007922
20
-3.23625661075585
30
0
41
1
10
224.921406371454
20
-3.78493469288986
30
0
41
1
10
226.429758983535
20
-4.41191920213498
30
0
41
1
10
226.731659006178
20
-4.5343675528525
30
0
41
1
10
227.336173426814
20
-4.77294995778681
30
0
41
1
10
227.638976376164
20
-4.88915554439191
30
0
41
1
10
228.24834347127
20
-5.11583982037931
30
0
41
1
10
228.555268939107
20
-5.22630811752458
30
0
41
1
10
228.861545943538
20
-5.33265647299933
30
0
0
SPLINE
5
C6
100
AcDbEntity
8
1
62
256
6
ByLayer
370
13
48
1
60
0
100
AcDbSpline
70
4
71
3
72
18
73
14
40
0
40
0
40
0
40
0
40
0.0755002437838411
40
0.0755002437838411
40
0.383666829189222
40
0.383666829189222
40
0.691833414594606
40
0.691833414594606
40
0.845916707297304
40
0.845916707297304
40
0.922958353648653
40
0.922958353648653
40
1
40
1
40
1
40
1
41
1
10
228.861545941963
20
-5.33265647245253
30
0
41
1
10
229.155807729698
20
-5.43483279243665
30
0
41
1
10
229.449470934361
20
-5.53320608003273
30
0
41
1
10
230.939300824016
20
-6.01322374697995
30
0
41
1
10
232.128221578685
20
-6.33332892732565
30
0
41
1
10
234.506823779607
20
-6.82834052497245
30
0
41
1
10
235.696378998986
20
-7.00331363362423
30
0
41
1
10
237.493768640461
20
-7.14751134103966
30
0
41
1
10
238.095075610042
20
-7.17591265351709
30
0
41
1
10
239.001912509597
20
-7.18778994179823
30
0
41
1
10
239.304570765725
20
-7.18661059097332
30
0
41
1
10
239.909267871326
20
-7.17394736803959
30
0
41
1
10
240.211550100261
20
-7.16246754896352
30
0
41
1
10
240.513878534994
20
-7.14583369572736
30
0
0
SPLINE
5
C7
100
AcDbEntity
8
1
62
256
6
ByLayer
370
18
48
1
60
0
100
AcDbSpline
70
4
71
3
72
26
73
22
40
0
40
0
40
0
40
0
40
0.125
40
0.125
40
0.250000000000001
40
0.250000000000001
40
0.375000000000001
40
0.375000000000001
40
0.4375
40
0.4375
40
0.499999999999999
40
0.499999999999999
40
0.624999999999999
40
0.624999999999999
40
0.749999999999999
40
0.749999999999999
40
0.875
40
0.875
40
0.9375
40
0.9375
40
1
40
1
40
1
40
1
41
1
10
21.2171217556301
20
-1.18343000650182
30
0
41
1
10
20.6836066485454
20
-0.93864431649385
30
0
41
1
10
20.153774619351
20
-0.687115829849233
30
0
41
1
10
19.1002724500174
20
-0.173129732335383
30
0
41
1
10
18.5766528924404
20
0.0893450237576019
30
0
41
1
10
17.5343850740347
20
0.622805842598495
30
0
41
1
10
17.0157580580765
20
0.893813773772848
30
0
41
1
10
16.2410157242201
20
1.30539479161891
30
0
41
1
10
15.9833001388154
20
1.44343658604765
30
0
41
1
10
15.4688549880147
20
1.72106367302911
30
0
41
1
10
15.2118635290309
20
1.86079514980887
30
0
41
1
10
14.446730850282
20
2.27972328980815
30
0
41
1
10
13.9434485275918
20
2.55911813178213
30
0
41
1
10
12.9511366949348
20
3.11748341052697
30
0
41
1
10
12.4618593849713
20
3.3965602437637
30
0
41
1
10
11.5012298734894
20
3.95392379620495
30
0
41
1
10
11.0297000764996
20
4.23220546571053
30
0
41
1
10
10.3417060247103
20
4.64986877810856
30
0
41
1
10
10.1156346806798
20
4.78913973969077
30
0
41
1
10
9.67209943093482
20
5.06816492827087
30
0
41
1
10
9.45678082386041
20
5.20657131888706
30
0
41
1
10
9.25101076982821
20
5.34311054260917
30
0
0
SPLINE
5
C8
100
AcDbEntity
8
1
62
256
6
ByLayer
370
18
48
1
60
0
100
AcDbSpline
70
4
71
3
72
114
73
110
40
0
40
0
40
0
40
0
40
0.0008120654402161
40
0.0008120654402161
40
0.0164292587258092
40
0.0164292587258092
40
0.0320464520114021
40
0.0320464520114021
40
0.0476636452969951
40
0.0476636452969951
40
0.0632808385825881
40
0.0632808385825881
40
0.0788980318681811
40
0.0788980318681811
40
0.110132418439367
40
0.110132418439367
40
0.125749611724961
40
0.125749611724961
40
0.141366805010555
40
0.141366805010555
40
0.156983998296148
40
0.156983998296148
40
0.172601191581742
40
0.172601191581742
40
0.203835578152929
40
0.203835578152929
40
0.235069964724116
40
0.235069964724116
40
0.250687158009709
40
0.250687158009709
40
0.266304351295302
40
0.266304351295302
40
0.297538737866489
40
0.297538737866489
40
0.328773124437675
40
0.328773124437675
40
0.360007511008862
40
0.360007511008862
40
0.375624704294455
40
0.375624704294455
40
0.391241897580048
40
0.391241897580048
40
0.406859090865641
40
0.406859090865641
40
0.422476284151235
40
0.422476284151235
40
0.453710670722421
40
0.453710670722421
40
0.469327864008014
40
0.469327864008014
40
0.484945057293606
40
0.484945057293606
40
0.500562250579199
40
0.500562250579199
40
0.516179443864791
40
0.516179443864791
40
0.547413830435976
40
0.547413830435976
40
0.563031023721568
40
0.563031023721568
40
0.578648217007161
40
0.578648217007161
40
0.594265410292753
40
0.594265410292753
40
0.609882603578345
40
0.609882603578345
40
0.625499796863938
40
0.625499796863938
40
0.64111699014953
40
0.64111699014953
40
0.656734183435123
40
0.656734183435123
40
0.672351376720715
40
0.672351376720715
40
0.687968570006308
40
0.687968570006308
40
0.7035857632919
40
0.7035857632919
40
0.734820149863085
40
0.734820149863085
40
0.750437343148678
40
0.750437343148678
40
0.766054536434271
40
0.766054536434271
40
0.781671729719863
40
0.781671729719863
40
0.797288923005456
40
0.797288923005456
40
0.828523309576643
40
0.828523309576643
40
0.844140502862236
40
0.844140502862236
40
0.859757696147829
40
0.859757696147829
40
0.875374889433422
40
0.875374889433422
40
0.890992082719015
40
0.890992082719015
40
0.922226469290199
40
0.922226469290199
40
0.937843662575792
40
0.937843662575792
40
0.953460855861384
40
0.953460855861384
40
0.969078049146976
40
0.969078049146976
40
0.984695242432569
40
0.984695242432569
40
1
40
1
40
1
40
1
41
1
10
51.2304595290572
20
5.02403774956107
30
0
41
1
10
51.2453673023084
20
5.02984338369859
30
0
41
1
10
51.2602740156661
20
5.03563967143387
30
0
41
1
10
51.5618337406276
20
5.15271740888809
30
0
41
1
10
51.8482397318926
20
5.26066487224637
30
0
41
1
10
52.4203859903901
20
5.47009026938829
30
0
41
1
10
52.705868462492
20
5.57187750547445
30
0
41
1
10
53.2771785962711
20
5.76763672017904
30
0
41
1
10
53.56311014967
20
5.8615100506012
30
0
41
1
10
54.1352798443137
20
6.04162774054967
30
0
41
1
10
54.4214905957164
20
6.12790155608036
30
0
41
1
10
54.9939975725009
20
6.29299934350058
30
0
41
1
10
55.2800606311383
20
6.37204067613732
30
0
41
1
10
56.1395913033392
20
6.59658387525033
30
0
41
1
10
56.7130769782653
20
6.72837892459486
30
0
41
1
10
57.5711116013169
20
6.90060055699823
30
0
41
1
10
57.8566508769553
20
6.9538641656068
30
0
41
1
10
58.4277627649382
20
7.05136169334276
30
0
41
1
10
58.713643167931
20
7.09543284859734
30
0
41
1
10
59.2858532120075
20
7.17445761332402
30
0
41
1
10
59.5721484616797
20
7.20942792225915
30
0
41
1
10
60.1449300479135
20
7.27030547971123
30
0
41
1
10
60.4314401138389
20
7.29626474303271
30
0
41
1
10
61.2906256666501
20
7.35997723806997
30
0
41
1
10
61.8634381941999
20
7.3832445048796
30
0
41
1
10
63.0072679225596
20
7.39249250746329
30
0
41
1
10
63.577610355897
20
7.37814451320344
30
0
41
1
10
64.4360146546508
20
7.32862968214357
30
0
41
1
10
64.7224081774046
20
7.30747195197074
30
0
41
1
10
65.2954911209788
20
7.25573865473874
30
0
41
1
10
65.5823224819078
20
7.22510547128425
30
0
41
1
10
66.4408224594969
20
7.11908626460675
30
0
41
1
10
67.0132194069421
20
7.03064228734397
30
0
41
1
10
68.1568913269178
20
6.81835311149985
30
0
41
1
10
68.7272427524103
20
6.6935998365077
30
0
41
1
10
69.8719469063548
20
6.41209372488566
30
0
41
1
10
70.4464972651572
20
6.2547237026468
30
0
41
1
10
71.3044964457339
20
5.99356863328921
30
0
41
1
10
71.590332697624
20
5.90277052019701
30
0
41
1
10
72.1623153875008
20
5.71452861048112
30
0
41
1
10
72.4483268078835
20
5.61694000991989
30
0
41
1
10
73.0201138848062
20
5.41451743754905
30
0
41
1
10
73.3059116883353
20
5.3097116853624
30
0
41
1
10
73.8770154685967
20
5.09240227250567
30
0
41
1
10
74.1626815259055
20
4.98036435066683
30
0
41
1
10
75.0213690807353
20
4.63606502001545
30
0
41
1
10
75.5960966505226
20
4.39450576107936
30
0
41
1
10
76.4537472694084
20
4.01408869983663
30
0
41
1
10
76.7393288656089
20
3.88458363476073
30
0
41
1
10
77.3110367464125
20
3.62207326680752
30
0
41
1
10
77.5969827752762
20
3.48878809876564
30
0
41
1
10
78.1687505439568
20
3.21766987155937
30
0
41
1
10
78.4546143527226
20
3.07990807336697
30
0
41
1
10
79.0259292207732
20
2.79927357643476
30
0
41
1
10
79.3115531275496
20
2.65668421577448
30
0
41
1
10
80.1704359707403
20
2.22584662437458
30
0
41
1
10
80.7449709556966
20
1.93310095505177
30
0
41
1
10
81.6024121627191
20
1.48556397006041
30
0
41
1
10
81.8877762815688
20
1.33494510491516
30
0
41
1
10
82.4592330956429
20
1.03385283795967
30
0
41
1
10
82.7451250922389
20
0.883011140105481
30
0
41
1
10
83.316902946492
20
0.580122293533947
30
0
41
1
10
83.6028226796044
20
0.428138576760517
30
0
41
1
10
84.1744180415185
20
0.122500229309736
30
0
41
1
10
84.4600534049092
20
-0.0312357411560527
30
0
41
1
10
85.0327992284954
20
-0.337129571773204
30
0
41
1
10
85.3198093370432
20
-0.489701803704463
30
0
41
1
10
85.892762760779
20
-0.793672476488837
30
0
41
1
10
86.1789516952418
20
-0.945137907574491
30
0
41
1
10
86.7504774015607
20
-1.24753577700011
30
0
41
1
10
87.0356940281809
20
-1.39868299600772
30
0
41
1
10
87.6069288915662
20
-1.69737089224202
30
0
41
1
10
87.892775113344
20
-1.84523781996472
30
0
41
1
10
88.4645925936141
20
-2.13864246391054
30
0
41
1
10
88.7505810485467
20
-2.28414860855383
30
0
41
1
10
89.3224779090851
20
-2.57317307016385
30
0
41
1
10
89.6082030096021
20
-2.71700954767445
30
0
41
1
10
90.4676059430926
20
-3.14132799586292
30
0
41
1
10
91.0407921947501
20
-3.41473557687576
30
0
41
1
10
91.8979606763028
20
-3.8126831481095
30
0
41
1
10
92.1831091423013
20
-3.94366164921493
30
0
41
1
10
92.754155946253
20
-4.19922363041826
30
0
41
1
10
93.0399662858353
20
-4.32396879788973
30
0
41
1
10
93.6118572156163
20
-4.56790488665271
30
0
41
1
10
93.8979324025287
20
-4.68710278904953
30
0
41
1
10
94.4701563698988
20
-4.92017410565796
30
0
41
1
10
94.7562244811887
20
-5.03445777024626
30
0
41
1
10
95.6152829289765
20
-5.3659753274564
30
0
41
1
10
96.1878227080625
20
-5.57182080673923
30
0
41
1
10
97.0448993404144
20
-5.8600632406401
30
0
41
1
10
97.3300573319561
20
-5.95296105558506
30
0
41
1
10
97.9009494208125
20
-6.13047008289249
30
0
41
1
10
98.1867365865403
20
-6.21505319286217
30
0
41
1
10
98.7587320872961
20
-6.37623280307756
30
0
41
1
10
99.0449167187326
20
-6.45285151773567
30
0
41
1
10
99.6174960159457
20
-6.59822564583013
30
0
41
1
10
99.9038403810173
20
-6.66721893654494
30
0
41
1
10
100.76206782823
20
-6.86043263637779
30
0
41
1
10
101.334300995262
20
-6.97082723283364
30
0
41
1
10
102.191306511174
20
-7.11025839468775
30
0
41
1
10
102.476547873012
20
-7.15243855373618
30
0
41
1
10
103.04731246954
20
-7.22751352306437
30
0
41
1
10
103.333087722992
20
-7.26031793689975
30
0
41
1
10
103.905210391016
20
-7.31665887924984
30
0
41
1
10
104.191524820567
20
-7.34020639543797
30
0
41
1
10
104.764479360302
20
-7.37802683095816
30
0
41
1
10
105.050805618369
20
-7.39230225282159
30
0
41
1
10
105.616723538099
20
-7.41107827441067
30
0
41
1
10
105.896899870786
20
-7.41578942336679
30
0
41
1
10
106.177039821813
20
-7.4159608730526
30
0
0
SPLINE
5
C9
100
AcDbEntity
8
1
62
256
6
ByLayer
370
18
48
1
60
0
100
AcDbSpline
70
4
71
3
72
110
73
106
40
0
40
0
40
0
40
0
40
0.0077993571982904
40
0.0077993571982904
40
0.0233980224531597
40
0.0233980224531597
40
0.0545953529628966
40
0.0545953529628966
40
0.070194018217765
40
0.070194018217765
40
0.085792683472633
40
0.085792683472633
40
0.101391348727501
40
0.101391348727501
40
0.11699001398237
40
0.11699001398237
40
0.148187344492107
40
0.148187344492107
40
0.163786009746975
40
0.163786009746975
40
0.179384675001842
40
0.179384675001842
40
0.19498334025671
40
0.19498334025671
40
0.210582005511578
40
0.210582005511578
40
0.241779336021313
40
0.241779336021313
40
0.272976666531048
40
0.272976666531048
40
0.304173997040783
40
0.304173997040783
40
0.335371327550517
40
0.335371327550517
40
0.350969992805385
40
0.350969992805385
40
0.366568658060252
40
0.366568658060252
40
0.397765988569986
40
0.397765988569986
40
0.413364653824852
40
0.413364653824852
40
0.428963319079719
40
0.428963319079719
40
0.444561984334585
40
0.444561984334585
40
0.460160649589452
40
0.460160649589452
40
0.491357980099184
40
0.491357980099184
40
0.50695664535405
40
0.50695664535405
40
0.522555310608916
40
0.522555310608916
40
0.538153975863782
40
0.538153975863782
40
0.553752641118648
40
0.553752641118648
40
0.584949971628379
40
0.584949971628379
40
0.600548636883245
40
0.600548636883245
40
0.61614730213811
40
0.61614730213811
40
0.631745967392975
40
0.631745967392975
40
0.64734463264784
40
0.64734463264784
40
0.67854196315757
40
0.67854196315757
40
0.694140628412435
40
0.694140628412435
40
0.7097392936673
40
0.7097392936673
40
0.725337958922166
40
0.725337958922166
40
0.740936624177031
40
0.740936624177031
40
0.772133954686759
40
0.772133954686759
40
0.787732619941625
40
0.787732619941625
40
0.80333128519649
40
0.80333128519649
40
0.818929950451355
40
0.818929950451355
40
0.83452861570622
40
0.83452861570622
40
0.86572594621595
40
0.86572594621595
40
0.881324611470814
40
0.881324611470814
40
0.896923276725679
40
0.896923276725679
40
0.912521941980543
40
0.912521941980543
40
0.928120607235407
40
0.928120607235407
40
0.959317937745137
40
0.959317937745137
40
0.974916603000002
40
0.974916603000002
40
0.990515268254867
40
0.990515268254867
40
1
40
1
40
1
40
1
41
1
10
138.345806856396
20
5.0671742308746
30
0
41
1
10
138.488869916913
20
5.12327103642264
30
0
41
1
10
138.631975245806
20
5.17862224644855
30
0
41
1
10
139.061383235224
20
5.34247246565428
30
0
41
1
10
139.347197539552
20
5.44895646720698
30
0
41
1
10
140.204360372039
20
5.75606388152198
30
0
41
1
10
140.775976796827
20
5.94493612546449
30
0
41
1
10
141.632170082742
20
6.20643297091013
30
0
41
1
10
141.917118102689
20
6.29017095588114
30
0
41
1
10
142.487734618464
20
6.44907385070761
30
0
41
1
10
142.773471033254
20
6.52420276144679
30
0
41
1
10
143.345542920309
20
6.66612687255628
30
0
41
1
10
143.632018951218
20
6.7329781237311
30
0
41
1
10
144.204597618985
20
6.85826453144762
30
0
41
1
10
144.490142676959
20
6.91679640819859
30
0
41
1
10
145.34660313796
20
7.07852840779074
30
0
41
1
10
145.918007848102
20
7.1676601286693
30
0
41
1
10
146.774283246976
20
7.2745024518413
30
0
41
1
10
147.059377359469
20
7.30567278686729
30
0
41
1
10
147.62996298091
20
7.35859659361384
30
0
41
1
10
147.915737492142
20
7.38028300138893
30
0
41
1
10
148.4880416957
20
7.4142598700297
30
0
41
1
10
148.774735858727
20
7.42655744258599
30
0
41
1
10
149.346958725156
20
7.44167604565934
30
0
41
1
10
149.632472228579
20
7.44450857240273
30
0
41
1
10
150.488298686963
20
7.43866315241826
30
0
41
1
10
151.059513745943
20
7.41586906455044
30
0
41
1
10
152.201377144028
20
7.33281563043224
30
0
41
1
10
152.771367007332
20
7.27204396275994
30
0
41
1
10
153.916495638244
20
7.11436437527155
30
0
41
1
10
154.489032200093
20
7.01744476647204
30
0
41
1
10
155.629545246365
20
6.78705153972922
30
0
41
1
10
156.200512250435
20
6.65524158180031
30
0
41
1
10
157.057083143258
20
6.43226219601237
30
0
41
1
10
157.342570578054
20
6.35365181276816
30
0
41
1
10
157.913414081307
20
6.18763453559154
30
0
41
1
10
158.199319996323
20
6.10066249777816
30
0
41
1
10
159.05830874619
20
5.82890546520102
30
0
41
1
10
159.630152320392
20
5.6335212578874
30
0
41
1
10
160.485311636311
20
5.31734239770262
30
0
41
1
10
160.770347875082
20
5.20860411918008
30
0
41
1
10
161.341076967505
20
4.98544749719085
30
0
41
1
10
161.626628670164
20
4.87084945160501
30
0
41
1
10
162.197825968879
20
4.63522227139018
30
0
41
1
10
162.483498534776
20
4.51423280768935
30
0
41
1
10
163.054676173158
20
4.26529995563013
30
0
41
1
10
163.340747988222
20
4.13775132698888
30
0
41
1
10
164.198942809517
20
3.74953713355973
30
0
41
1
10
164.770595650818
20
3.48225335657892
30
0
41
1
10
165.625714425897
20
3.06586975734797
30
0
41
1
10
165.910581942343
20
2.92484898377469
30
0
41
1
10
166.481224165625
20
2.64053624005612
30
0
41
1
10
166.766811160052
20
2.49693057889044
30
0
41
1
10
167.338202351397
20
2.20627470299931
30
0
41
1
10
167.624047275802
20
2.05929753706766
30
0
41
1
10
168.195684568018
20
1.76133720303321
30
0
41
1
10
168.481565687279
20
1.61057549220615
30
0
41
1
10
169.338991952043
20
1.15859149874586
30
0
41
1
10
169.910412560543
20
0.855664454937028
30
0
41
1
10
170.765631841777
20
0.395865359569427
30
0
41
1
10
171.050379450728
20
0.241680327671219
30
0
41
1
10
171.620960598159
20
-0.0652799530653851
30
0
41
1
10
171.906594609279
20
-0.218426081331927
30
0
41
1
10
172.478213807676
20
-0.524677710365182
30
0
41
1
10
172.764231286775
20
-0.677729937317707
30
0
41
1
10
173.336386689235
20
-0.984209740519248
30
0
41
1
10
173.621740421169
20
-1.13743519977868
30
0
41
1
10
174.478446471494
20
-1.59184076429116
30
0
41
1
10
175.049658196887
20
-1.88928369861463
30
0
41
1
10
175.905024622459
20
-2.33007206423889
30
0
41
1
10
176.189740997867
20
-2.47637829437556
30
0
41
1
10
176.760296040523
20
-2.76431675345341
30
0
41
1
10
177.045986280337
20
-2.9062215306372
30
0
41
1
10
177.617868102899
20
-3.18647934264129
30
0
41
1
10
177.90429972355
20
-3.32492652894848
30
0
41
1
10
178.476128552138
20
-3.5979155791409
30
0
41
1
10
178.761279366447
20
-3.73279704413798
30
0
41
1
10
179.617322335126
20
-4.12790385343038
30
0
41
1
10
180.18835860875
20
-4.37947527385793
30
0
41
1
10
181.04390838715
20
-4.74151128185463
30
0
41
1
10
181.328686184938
20
-4.85994498969768
30
0
41
1
10
181.899252534898
20
-5.08967146018958
30
0
41
1
10
182.185009998639
20
-5.20103187791057
30
0
41
1
10
182.757188443756
20
-5.41717460255541
30
0
41
1
10
183.043642184277
20
-5.52198599288192
30
0
41
1
10
183.615170048236
20
-5.7245695847179
30
0
41
1
10
183.900209589436
20
-5.82272587891768
30
0
41
1
10
184.755645433376
20
-6.10479232017616
30
0
41
1
10
185.326542345876
20
-6.27630778764853
30
0
41
1
10
186.182310388775
20
-6.51055095093682
30
0
41
1
10
186.467240469727
20
-6.58496166600892
30
0
41
1
10
187.037855661004
20
-6.72507403800816
30
0
41
1
10
187.323694904959
20
-6.79067108789968
30
0
41
1
10
187.896200017498
20
-6.91320345663294
30
0
41
1
10
188.182288932734
20
-6.97004089187737
30
0
41
1
10
188.753539953884
20
-7.07490129576871
30
0
41
1
10
189.038558653861
20
-7.12305087821741
30
0
41
1
10
189.893442745376
20
-7.25358567954763
30
0
41
1
10
190.464238480737
20
-7.32168822933286
30
0
41
1
10
191.320260607091
20
-7.39639073378862
30
0
41
1
10
191.605425694659
20
-7.41671536247574
30
0
41
1
10
192.17613856184
20
-7.44786687094594
30
0
41
1
10
192.462291196336
20
-7.45864145619663
30
0
41
1
10
192.922306005337
20
-7.46831480618985
30
0
41
1
10
193.096145398538
20
-7.47022336594443
30
0
41
1
10
193.269873394084
20
-7.47037747945743
30
0
0
SPLINE
5
CA
100
AcDbEntity
8
1
62
256
6
ByLayer
370
18
48
1
60
0
100
AcDbSpline
70
4
71
3
72
30
73
26
40
0
40
0
40
0
40
0
40
0.0451578905743301
40
0.0451578905743301
40
0.101325073481719
40
0.101325073481719
40
0.157492256389109
40
0.157492256389109
40
0.213659439296499
40
0.213659439296499
40
0.325993805111277
40
0.325993805111277
40
0.382160988018672
40
0.382160988018672
40
0.438328170926066
40
0.438328170926066
40
0.550662536740854
40
0.550662536740854
40
0.66299690255564
40
0.66299690255564
40
0.775331268370427
40
0.775331268370427
40
0.887665634185215
40
0.887665634185215
40
1
40
1
40
1
40
1
41
1
10
225.44393639971
20
5.10423314731696
30
0
41
1
10
225.67315141259
20
5.195144706554
30
0
41
1
10
225.902285347161
20
5.28428345071879
30
0
41
1
10
226.417142349665
20
5.47904635389224
30
0
41
1
10
226.70330488481
20
5.58334085156187
30
0
41
1
10
227.274825048027
20
5.78424563800715
30
0
41
1
10
227.560337948343
20
5.88096052111743
30
0
41
1
10
228.130702304419
20
6.06711058498286
30
0
41
1
10
228.415320066215
20
6.15678547581948
30
0
41
1
10
229.269382897661
20
6.41345923926949
30
0
41
1
10
229.839878680039
20
6.56743403615752
30
0
41
1
10
230.695817151028
20
6.77424600842917
30
0
41
1
10
230.980992448181
20
6.83925802927987
30
0
41
1
10
231.551977757777
20
6.96056689254183
30
0
41
1
10
231.837831600977
20
7.01656690264221
30
0
41
1
10
232.694461746662
20
7.17072311859462
30
0
41
1
10
233.264622554444
20
7.25546790755624
30
0
41
1
10
234.402950116565
20
7.38853136651221
30
0
41
1
10
234.97345115401
20
7.43598399273873
30
0
41
1
10
236.115339154929
20
7.49359296564018
30
0
41
1
10
236.686357644752
20
7.50347716574774
30
0
41
1
10
237.828488999857
20
7.48488351470414
30
0
41
1
10
238.399443257236
20
7.45674181866247
30
0
41
1
10
239.539764563236
20
7.36190233359324
30
0
41
1
10
240.112243461283
20
7.29577139162075
30
0
41
1
10
240.683441810064
20
7.21139340875374
30
0
0
SPLINE
5
CB
100
AcDbEntity
8
1
62
256
6
ByLayer
370
18
48
1
60
0
100
AcDbSpline
70
4
71
3
72
65
73
61
40
0
40
0
40
0
40
0
40
0.0624999999999989
40
0.0624999999999989
40
0.093749999999998
40
0.093749999999998
40
0.124999999999997
40
0.124999999999997
40
0.140624999999997
40
0.140624999999997
40
0.156249999999997
40
0.156249999999997
40
0.187499999999996
40
0.187499999999996
40
0.203124999999996
40
0.203124999999996
40
0.218749999999996
40
0.234374999999996
40
0.234374999999996
40
0.249999999999996
40
0.249999999999996
40
0.281249999999996
40
0.281249999999996
40
0.296874999999996
40
0.296874999999996
40
0.312499999999995
40
0.312499999999995
40
0.320312499999995
40
0.320312499999995
40
0.322265624999996
40
0.322265624999996
40
0.324218749999996
40
0.324218749999996
40
0.326171874999996
40
0.326171874999996
40
0.328124999999997
40
0.328124999999997
40
0.332031249999997
40
0.332031249999997
40
0.335937499999997
40
0.335937499999997
40
0.343749999999997
40
0.343749999999997
40
0.374999999999997
40
0.374999999999997
40
0.499999999999996
40
0.499999999999996
40
0.562499999999996
40
0.562499999999996
40
0.593749999999996
40
0.593749999999996
40
0.624999999999996
40
0.624999999999996
40
0.687499999999996
40
0.687499999999996
40
0.749999999999996
40
0.749999999999996
40
0.874999999999998
40
0.874999999999998
40
1
40
1
40
1
40
1
41
1
10
9.0000002901605
20
5.45992064076998
30
0
41
1
10
8.69739098975893
20
5.65301726672652
30
0
41
1
10
8.4089425552271
20
5.84316794557787
30
0
41
1
10
8.00894113479188
20
6.12311577221132
30
0
41
1
10
7.88112996033004
20
6.21559571405999
30
0
41
1
10
7.64492489458902
20
6.39473682885529
30
0
41
1
10
7.53586900066662
20
6.48183965173587
30
0
41
1
10
7.38960062422353
20
6.60806204513977
30
0
41
1
10
7.34359481269229
20
6.64954221438001
30
0
41
1
10
7.25906533448432
20
6.7300969180566
30
0
41
1
10
7.22064776630009
20
6.76905410470934
30
0
41
1
10
7.11794087271045
20
6.88171222832895
30
0
41
1
10
7.06609461821071
20
6.95122680137942
30
0
41
1
10
7.0187606055967
20
7.0457056543722
30
0
41
1
10
7.0082528392586
20
7.07534417017683
30
0
41
1
10
6.99839990762689
20
7.12972364741248
30
0
41
1
10
6.99950454378899
20
7.17958170353768
30
0
41
1
10
7.02251431481969
20
7.22056058180604
30
0
41
1
10
7.05653378984897
20
7.257157618642
30
0
41
1
10
7.07924494387058
20
7.27334421170903
30
0
41
1
10
7.16241890608197
20
7.31467198952126
30
0
41
1
10
7.23740866032719
20
7.33275865272552
30
0
41
1
10
7.37449289508822
20
7.34841820022686
30
0
41
1
10
7.4244569224993
20
7.351715571874
30
0
41
1
10
7.53116946976681
20
7.35479424054671
30
0
41
1
10
7.58791305285064
20
7.35458912719477
30
0
41
1
10
7.67752240480036
20
7.3519862897991
30
0
41
1
10
7.70811205878249
20
7.35073651552128
30
0
41
1
10
7.74719939528387
20
7.34872815625332
30
0
41
1
10
7.7550572276557
20
7.3483042742609
30
0
41
1
10
7.77085105455859
20
7.34741297769335
30
0
41
1
10
7.77830113574495
20
7.34692555866252
30
0
41
1
10
7.79685458340208
20
7.34605192514289
30
0
41
1
10
7.80776385818629
20
7.34565152071247
30
0
41
1
10
7.8303774323133
20
7.34495897280402
30
0
41
1
10
7.84221655171666
20
7.34465983512325
30
0
41
1
10
7.87886578265599
20
7.34387443635441
30
0
41
1
10
7.90508581274679
20
7.34350024057397
30
0
41
1
10
7.95720515622102
20
7.34302148887321
30
0
41
1
10
7.98340485201084
20
7.34292209809087
30
0
41
1
10
8.06226533658776
20
7.34289859577859
30
0
41
1
10
8.11486785506023
20
7.34291283597491
30
0
41
1
10
8.37782207890046
20
7.34292313818506
30
0
41
1
10
8.5881967888657
20
7.34296458846032
30
0
41
1
10
9.64006225542056
20
7.34334457392927
30
0
41
1
10
10.4815513688048
20
7.34421962649603
30
0
41
1
10
11.7432243941336
20
7.34630032929132
30
0
41
1
10
12.1637134289032
20
7.34711830222054
30
0
41
1
10
12.7943426964765
20
7.34848707760116
30
0
41
1
10
13.0045368695098
20
7.34896343092379
30
0
41
1
10
13.4248938145416
20
7.34994710112005
30
0
41
1
10
13.6350616028462
20
7.35044858263055
30
0
41
1
10
14.2653485438428
20
7.3522401366464
30
0
41
1
10
14.685764319046
20
7.353858149063
30
0
41
1
10
15.5212492983322
20
7.35704344946228
30
0
41
1
10
15.9367645766411
20
7.35860755199121
30
0
41
1
10
17.1769708978894
20
7.36117593023033
30
0
41
1
10
17.9953463397539
20
7.36019629866379
30
0
41
1
10
19.6169533784497
20
7.33782290953744
30
0
41
1
10
20.420168807329
20
7.31630653232716
30
0
41
1
10
21.2171217556301
20
7.27546259110426
30
0
0
SPLINE
5
CC
100
AcDbEntity
8
1
62
256
6
ByLayer
370
18
48
1
60
0
100
AcDbSpline
70
4
71
3
72
18
73
14
40
0
40
0
40
0
40
0
40
0.232638952534214
40
0.232638952534214
40
0.36053246044518
40
0.36053246044518
40
0.488425968356147
40
0.488425968356147
40
0.74421298417807
40
0.74421298417807
40
0.872106492089035
40
0.872106492089035
40
1
40
1
40
1
40
1
41
1
10
240.362379733384
20
-7.08310295906026
30
0
41
1
10
240.241705278969
20
-7.07258714325704
30
0
41
1
10
240.127638505901
20
-7.04233709442923
30
0
41
1
10
239.961780824691
20
-6.9628515263247
30
0
41
1
10
239.904880274213
20
-6.92810857942189
30
0
41
1
10
239.796605993711
20
-6.84583149294187
30
0
41
1
10
239.745454554283
20
-6.79853519298518
30
0
41
1
10
239.600928717112
20
-6.63823205209385
30
0
41
1
10
239.516430361837
20
-6.50691912043698
30
0
41
1
10
239.408247871035
20
-6.2716608857358
30
0
41
1
10
239.375293697357
20
-6.18683425636067
30
0
41
1
10
239.315903977999
20
-6.00373687586585
30
0
41
1
10
239.289436554359
20
-5.90518656076091
30
0
41
1
10
239.266727239587
20
-5.80097961011398
30
0
0
SPLINE
5
CD
100
AcDbEntity
8
1
62
256
6
ByLayer
370
13
48
1
60
0
100
AcDbSpline
70
4
71
3
72
8
73
4
40
0
40
0
40
0
40
0
40
1
40
1
40
1
40
1
41
1
10
9.25026886303039
20
-4.40336346326274
30
0
41
1
10
9.21072090311148
20
-4.39414894904996
30
0
41
1
10
9.17212954206371
20
-4.39101767646474
30
0
41
1
10
9.13655540673849
20
-4.39421457365336
30
0
0
SPLINE
5
CE
100
AcDbEntity
8
1
62
256
6
ByLayer
370
18
48
1
60
0
100
AcDbSpline
70
4
71
3
72
12
73
8
40
0
40
0
40
0
40
0
40
0.250000000000002
40
0.250000000000002
40
0.500000000000003
40
0.500000000000003
40
1
40
1
40
1
40
1
41
1
10
9.13277274816539
20
-4.70718538735488
30
0
41
1
10
9.11266773243034
20
-4.69897575442727
30
0
41
1
10
9.0944529516326
20
-4.68886856162294
30
0
41
1
10
9.06170187170187
20
-4.66491151613724
30
0
41
1
10
9.04738206810845
20
-4.65110873067871
30
0
41
1
10
9.01264847038485
20
-4.60628971534038
30
0
41
1
10
9.00000029016024
20
-4.57117977753066
30
0
41
1
10
9.00000029016024
20
-4.53533942997294
30
0
0
SPLINE
5
CF
100
AcDbEntity
8
1
62
256
6
ByLayer
370
18
48
1
60
0
100
AcDbSpline
70
4
71
3
72
8
73
4
40
0
40
0
40
0
40
0
40
1
40
1
40
1
40
1
41
1
10
240.513878535009
20
-7.14583369573401
30
0
41
1
10
240.473848880916
20
-7.25190539883383
30
0
41
1
10
240.433722906583
20
-7.35784067066905
30
0
41
1
10
240.393500433338
20
-7.46363925816121
30
0
0
SPLINE
5
D0
100
AcDbEntity
8
1
62
256
6
ByLayer
370
18
48
1
60
0
100
AcDbSpline
70
4
71
3
72
34
73
30
40
0
40
0
40
0
40
0
40
0.0624999999999959
40
0.0624999999999959
40
0.124999999999992
40
0.124999999999992
40
0.187499999999988
40
0.187499999999988
40
0.249999999999984
40
0.249999999999984
40
0.31249999999998
40
0.31249999999998
40
0.374999999999975
40
0.374999999999975
40
0.437499999999971
40
0.437499999999971
40
0.499999999999967
40
0.499999999999967
40
0.562499999999962
40
0.562499999999962
40
0.624999999999958
40
0.624999999999958
40
0.749999999999966
40
0.749999999999966
40
0.812499999999971
40
0.812499999999971
40
0.874999999999975
40
0.874999999999975
40
1
40
1
40
1
40
1
41
1
10
241.865857169297
20
-3.05439473115899
30
0
41
1
10
241.871600895362
20
-3.06713239260523
30
0
41
1
10
241.875083275753
20
-3.08533285004862
30
0
41
1
10
241.87737379599
20
-3.13302545855666
30
0
41
1
10
241.876141819829
20
-3.16287558962088
30
0
41
1
10
241.868629837387
20
-3.23348062876099
30
0
41
1
10
241.86244003848
20
-3.27377177124276
30
0
41
1
10
241.845156356293
20
-3.36440605324401
30
0
41
1
10
241.833883184089
20
-3.41541756660183
30
0
41
1
10
241.807175395685
20
-3.52374203695302
30
0
41
1
10
241.791747457955
20
-3.5812051572409
30
0
41
1
10
241.756844815263
20
-3.70257191535742
30
0
41
1
10
241.737400990338
20
-3.76627662281447
30
0
41
1
10
241.69617231387
20
-3.89482102389221
30
0
41
1
10
241.674175459618
20
-3.96038606426887
30
0
41
1
10
241.627727048799
20
-4.09339452082588
30
0
41
1
10
241.603813313862
20
-4.15930849410447
30
0
41
1
10
241.554745386506
20
-4.29007457717168
30
0
41
1
10
241.5294359104
20
-4.3553075900295
30
0
41
1
10
241.478341800949
20
-4.48291075865993
30
0
41
1
10
241.452760391205
20
-4.54480148458171
30
0
41
1
10
241.37592117556
20
-4.72519042870022
30
0
41
1
10
241.324189506564
20
-4.83912973841657
30
0
41
1
10
241.250262700463
20
-4.99166936832543
30
0
41
1
10
241.226075913382
20
-5.03981671653065
30
0
41
1
10
241.178618056993
20
-5.13068484726688
30
0
41
1
10
241.155395843136
20
-5.17328013556647
30
0
41
1
10
241.089011150383
20
-5.28941351575713
30
0
41
1
10
241.048392837175
20
-5.35286190073214
30
0
41
1
10
241.011755372176
20
-5.40102013266349
30
0
0
SPLINE
5
D1
100
AcDbEntity
8
1
62
256
6
ByLayer
370
13
48
1
60
0
100
AcDbSpline
70
4
71
3
72
10
73
6
40
0
40
0
40
0
40
0
40
0.5
40
0.5
40
1
40
1
40
1
40
1
41
1
10
9.00000029016053
20
-4.43145380622906
30
0
41
1
10
9.00000029016053
20
-4.44876050198639
30
0
41
1
10
9.01195184507387
20
-4.46644609826245
30
0
41
1
10
9.05784383738484
20
-4.49680568855771
30
0
41
1
10
9.09231903771163
20
-4.51009421578766
30
0
41
1
10
9.13655540673852
20
-4.51885169518374
30
0
0
SPLINE
5
D2
100
AcDbEntity
8
1
62
256
6
ByLayer
370
18
48
1
60
0
100
AcDbSpline
70
4
71
3
72
92
73
88
40
0
40
0
40
0
40
0
40
0.0414696639095895
40
0.0414696639095895
40
0.0622044958643843
40
0.0622044958643843
40
0.0829393278191791
40
0.0829393278191791
40
0.124408991728769
40
0.124408991728769
40
0.145143823683565
40
0.145143823683565
40
0.16587865563836
40
0.16587865563836
40
0.186613487593156
40
0.186613487593156
40
0.207348319547951
40
0.207348319547951
40
0.228083151502747
40
0.228083151502747
40
0.248817983457543
40
0.248817983457543
40
0.269552815412338
40
0.269552815412338
40
0.290287647367134
40
0.290287647367134
40
0.311022479321929
40
0.311022479321929
40
0.331757311276725
40
0.331757311276725
40
0.373226975186317
40
0.373226975186317
40
0.393961807141112
40
0.393961807141112
40
0.414696639095908
40
0.414696639095908
40
0.435431471050703
40
0.435431471050703
40
0.456166303005499
40
0.456166303005499
40
0.497635966915091
40
0.497635966915091
40
0.518370798869886
40
0.518370798869886
40
0.539105630824682
40
0.539105630824682
40
0.559840462779478
40
0.559840462779478
40
0.580575294734273
40
0.580575294734273
40
0.601310126689069
40
0.601310126689069
40
0.622044958643864
40
0.622044958643864
40
0.64277979059866
40
0.64277979059866
40
0.663514622553455
40
0.663514622553455
40
0.684249454508251
40
0.684249454508251
40
0.704984286463046
40
0.704984286463046
40
0.725719118417842
40
0.725719118417842
40
0.746453950372637
40
0.746453950372637
40
0.767188782327433
40
0.767188782327433
40
0.787923614282228
40
0.787923614282228
40
0.808658446237024
40
0.808658446237024
40
0.829393278191819
40
0.829393278191819
40
0.87086294210141
40
0.87086294210141
40
0.891597774056205
40
0.891597774056205
40
0.912332606011
40
0.912332606011
40
0.933067437965795
40
0.933067437965795
40
0.953802269920591
40
0.953802269920591
40
0.995271933830181
40
0.995271933830181
40
1
40
1
40
1
40
1
41
1
10
21.2171217556301
20
7.27546259110426
30
0
41
1
10
21.7900903161995
20
7.22868194618158
30
0
41
1
10
22.3634298368372
20
7.16374147557633
30
0
41
1
10
23.2222674369364
20
7.03934428021429
30
0
41
1
10
23.5082915522785
20
6.99331665945965
30
0
41
1
10
24.0797153454096
20
6.89192071126726
30
0
41
1
10
24.3655290925027
20
6.83679980880837
30
0
41
1
10
25.2242575797268
20
6.65901128846897
30
0
41
1
10
25.7984810870255
20
6.52351344127993
30
0
41
1
10
26.6580599838479
20
6.29362939893213
30
0
41
1
10
26.9442762537745
20
6.21296028293182
30
0
41
1
10
27.5169966816972
20
6.04459014682953
30
0
41
1
10
27.8033398347467
20
5.95673739943808
30
0
41
1
10
28.3757001613163
20
5.77341844299679
30
0
41
1
10
28.6617539950836
20
5.67799531582705
30
0
41
1
10
29.2332449689066
20
5.47907859528101
30
0
41
1
10
29.5189583188336
20
5.3759035950342
30
0
41
1
10
30.0914677482989
20
5.16365405769938
30
0
41
1
10
30.3780827841071
20
5.05436131016648
30
0
41
1
10
30.9517258419491
20
4.82901285729537
30
0
41
1
10
31.2389472161077
20
4.71294989195826
30
0
41
1
10
31.811746668159
20
4.47424871972146
30
0
41
1
10
32.0976969864993
20
4.35179049276002
30
0
41
1
10
32.670086841184
20
4.10283961130773
30
0
41
1
10
32.9563324352715
20
3.97606247983131
30
0
41
1
10
33.5286045682217
20
3.7174324940849
30
0
41
1
10
33.8146707552997
20
3.58564385945613
30
0
41
1
10
34.3863164367927
20
3.31648489721073
30
0
41
1
10
34.6719649385006
20
3.17921059571347
30
0
41
1
10
35.5307988547343
20
2.7634328795601
30
0
41
1
10
36.1059092457858
20
2.47916262532849
30
0
41
1
10
36.9648227302159
20
2.04211832836106
30
0
41
1
10
37.2505512591168
20
1.89455513147769
30
0
41
1
10
37.8226306199962
20
1.59892472115482
30
0
41
1
10
38.108786491765
20
1.4505060080167
30
0
41
1
10
38.6809950853299
20
1.1518554154222
30
0
41
1
10
38.9670759621558
20
1.00167572156241
30
0
41
1
10
39.5389103058719
20
0.699063363317066
30
0
41
1
10
39.8245568105012
20
0.546422231729935
30
0
41
1
10
40.6834988317582
20
0.0898105888034308
30
0
41
1
10
41.2586188227617
20
-0.214592647810832
30
0
41
1
10
42.1172750867516
20
-0.670899022394565
30
0
41
1
10
42.4028513476889
20
-0.823357748530668
30
0
41
1
10
42.974646371364
20
-1.12536056422636
30
0
41
1
10
43.2607186281446
20
-1.27518716987754
30
0
41
1
10
43.8328888268251
20
-1.57311191156018
30
0
41
1
10
44.118996252603
20
-1.72119211511256
30
0
41
1
10
44.6910354651098
20
-2.01597643966431
30
0
41
1
10
44.9767501281696
20
-2.16307086395449
30
0
41
1
10
45.5494771566638
20
-2.45317769846125
30
0
41
1
10
45.8366171838935
20
-2.59649674436963
30
0
41
1
10
46.410297802617
20
-2.87932513527102
30
0
41
1
10
46.6968381023637
20
-3.01884153337642
30
0
41
1
10
47.2691208945521
20
-3.29441058119855
30
0
41
1
10
47.5546148436173
20
-3.43086873395165
30
0
41
1
10
48.126152102716
20
-3.69801757857482
30
0
41
1
10
48.4121478706605
20
-3.82880819501429
30
0
41
1
10
48.9843042769575
20
-4.08534897306552
30
0
41
1
10
49.2704527695754
20
-4.21111740209139
30
0
41
1
10
49.8427135968521
20
-4.45788285379143
30
0
41
1
10
50.1285660261786
20
-4.57925976739597
30
0
41
1
10
50.7014203750759
20
-4.81537982533166
30
0
41
1
10
50.9885252803408
20
-4.93013577136233
30
0
41
1
10
51.5618337406276
20
-5.15271740888809
30
0
41
1
10
51.8482397318926
20
-5.26066487224631
30
0
41
1
10
52.42038599039
20
-5.47009026938829
30
0
41
1
10
52.705868462492
20
-5.57187750547445
30
0
41
1
10
53.277178596271
20
-5.76763672017901
30
0
41
1
10
53.5631101496699
20
-5.86151005060117
30
0
41
1
10
54.1352798443136
20
-6.04162774054964
30
0
41
1
10
54.4214905957163
20
-6.12790155608033
30
0
41
1
10
54.9939975725009
20
-6.29299934350055
30
0
41
1
10
55.2800606311383
20
-6.37204067613732
30
0
41
1
10
56.1395913033392
20
-6.5965838752503
30
0
41
1
10
56.7130769782652
20
-6.72837892459484
30
0
41
1
10
57.5711116013169
20
-6.9006005569982
30
0
41
1
10
57.8566508769553
20
-6.95386416560677
30
0
41
1
10
58.4277627649381
20
-7.05136169334276
30
0
41
1
10
58.713643167931
20
-7.09543284859734
30
0
41
1
10
59.2858532120075
20
-7.17445761332402
30
0
41
1
10
59.5721484616797
20
-7.20942792225915
30
0
41
1
10
60.1449300479135
20
-7.2703054797112
30
0
41
1
10
60.4314401138388
20
-7.29626474303271
30
0
41
1
10
61.29062566665
20
-7.35997723806997
30
0
41
1
10
61.8634381941999
20
-7.3832445048796
30
0
41
1
10
62.5005585861419
20
-7.38839570080037
30
0
41
1
10
62.5657436740584
20
-7.38867628066424
30
0
41
1
10
62.6309135085625
20
-7.38871070534637
30
0
0
SPLINE
5
D3
100
AcDbEntity
8
1
62
256
6
ByLayer
370
18
48
1
60
0
100
AcDbSpline
70
4
71
3
72
110
73
106
40
0
40
0
40
0
40
0
40
0.0048074295481349
40
0.0048074295481349
40
0.036018371094777
40
0.036018371094777
40
0.0516238418680983
40
0.0516238418680983
40
0.0672293126414195
40
0.0672293126414195
40
0.0828347834147407
40
0.0828347834147407
40
0.0984402541880617
40
0.0984402541880617
40
0.129651195734704
40
0.129651195734704
40
0.145256666508025
40
0.145256666508025
40
0.160862137281346
40
0.160862137281346
40
0.176467608054667
40
0.176467608054667
40
0.192073078827989
40
0.192073078827989
40
0.223284020374632
40
0.223284020374632
40
0.254494961921276
40
0.254494961921276
40
0.28570590346792
40
0.28570590346792
40
0.316916845014563
40
0.316916845014563
40
0.348127786561207
40
0.348127786561207
40
0.363733257334529
40
0.363733257334529
40
0.379338728107851
40
0.379338728107851
40
0.410549669654495
40
0.410549669654495
40
0.426155140427818
40
0.426155140427818
40
0.441760611201141
40
0.441760611201141
40
0.457366081974464
40
0.457366081974464
40
0.472971552747787
40
0.472971552747787
40
0.48857702352111
40
0.48857702352111
40
0.504182494294433
40
0.504182494294433
40
0.519787965067756
40
0.519787965067756
40
0.535393435841079
40
0.535393435841079
40
0.566604377387724
40
0.566604377387724
40
0.582209848161046
40
0.582209848161046
40
0.597815318934368
40
0.597815318934368
40
0.613420789707691
40
0.613420789707691
40
0.629026260481013
40
0.629026260481013
40
0.660237202027659
40
0.660237202027659
40
0.675842672800981
40
0.675842672800981
40
0.691448143574304
40
0.691448143574304
40
0.707053614347626
40
0.707053614347626
40
0.722659085120949
40
0.722659085120949
40
0.753870026667593
40
0.753870026667593
40
0.769475497440915
40
0.769475497440915
40
0.785080968214236
40
0.785080968214236
40
0.800686438987558
40
0.800686438987558
40
0.81629190976088
40
0.81629190976088
40
0.847502851307523
40
0.847502851307523
40
0.863108322080845
40
0.863108322080845
40
0.878713792854167
40
0.878713792854167
40
0.894319263627488
40
0.894319263627488
40
0.90992473440081
40
0.90992473440081
40
0.941135675947453
40
0.941135675947453
40
0.956741146720776
40
0.956741146720776
40
0.972346617494098
40
0.972346617494098
40
0.987952088267421
40
0.987952088267421
40
1
40
1
40
1
40
1
41
1
10
94.778006749549
20
5.04180519941045
30
0
41
1
10
94.8661763172759
20
5.07652012118444
30
0
41
1
10
94.9543632977784
20
5.1109211315385
30
0
41
1
10
95.6152829289764
20
5.36597532745628
30
0
41
1
10
96.1878227080625
20
5.57182080673914
30
0
41
1
10
97.0448993404143
20
5.8600632406401
30
0
41
1
10
97.3300573319561
20
5.95296105558506
30
0
41
1
10
97.9009494208125
20
6.13047008289243
30
0
41
1
10
98.1867365865402
20
6.21505319286214
30
0
41
1
10
98.7587320872961
20
6.37623280307753
30
0
41
1
10
99.0449167187326
20
6.45285151773564
30
0
41
1
10
99.6174960159456
20
6.5982256458301
30
0
41
1
10
99.9038403810173
20
6.66721893654491
30
0
41
1
10
100.76206782823
20
6.86043263637777
30
0
41
1
10
101.334300995262
20
6.97082723283361
30
0
41
1
10
102.191306511174
20
7.11025839468775
30
0
41
1
10
102.476547873012
20
7.15243855373618
30
0
41
1
10
103.04731246954
20
7.22751352306435
30
0
41
1
10
103.333087722992
20
7.26031793689972
30
0
41
1
10
103.905210391016
20
7.31665887924984
30
0
41
1
10
104.191524820567
20
7.34020639543797
30
0
41
1
10
104.764479360302
20
7.37802683095816
30
0
41
1
10
105.050805618369
20
7.39230225282159
30
0
41
1
10
105.908259558925
20
7.42075085488599
30
0
41
1
10
106.480213695302
20
7.42063262342867
30
0
41
1
10
107.622841145559
20
7.38294743139474
30
0
41
1
10
108.192892780549
20
7.34496219973983
30
0
41
1
10
109.337443582323
20
7.2322285503156
30
0
41
1
10
109.91148005364
20
7.15725390199432
30
0
41
1
10
111.053942015131
20
6.97015150431187
30
0
41
1
10
111.625571626622
20
6.85942019072524
30
0
41
1
10
112.768217116054
20
6.60332261332817
30
0
41
1
10
113.338359126892
20
6.45696824460862
30
0
41
1
10
114.197040464671
20
6.2145015340499
30
0
41
1
10
114.483895268031
20
6.12965637439936
30
0
41
1
10
115.056718663656
20
5.95220216293535
30
0
41
1
10
115.342703408518
20
5.85958318670399
30
0
41
1
10
116.199145986989
20
5.56966963405273
30
0
41
1
10
116.770396616298
20
5.36309742250654
30
0
41
1
10
117.627442509179
20
5.03334361507331
30
0
41
1
10
117.913097450327
20
4.92002656706728
30
0
41
1
10
118.484077263921
20
4.68608304638835
30
0
41
1
10
118.769778094841
20
4.56598138346777
30
0
41
1
10
119.342437484639
20
4.32080995442163
30
0
41
1
10
119.629265378029
20
4.19550133283124
30
0
41
1
10
120.201737398629
20
3.93983986720954
30
0
41
1
10
120.487645824008
20
3.80944427231941
30
0
41
1
10
121.058452534512
20
3.54290638760764
30
0
41
1
10
121.34364736264
20
3.40723674020634
30
0
41
1
10
121.914725120339
20
3.13298386379978
30
0
41
1
10
122.200430371688
20
2.99411295575783
30
0
41
1
10
122.771867696794
20
2.71237232191956
30
0
41
1
10
123.057641473003
20
2.56957557163869
30
0
41
1
10
123.628928965823
20
2.27940560747993
30
0
41
1
10
123.914631574663
20
2.13235474142237
30
0
41
1
10
124.7739689438
20
1.68904041868052
30
0
41
1
10
125.346561584296
20
1.39048021224949
30
0
41
1
10
126.202693631936
20
0.935447125172686
30
0
41
1
10
126.487705954231
20
0.782652400144343
30
0
41
1
10
127.05861676506
20
0.477847800848707
30
0
41
1
10
127.344313390071
20
0.325464064350541
30
0
41
1
10
127.915856590498
20
0.0201147088710343
30
0
41
1
10
128.201737217147
20
-0.132786929669948
30
0
41
1
10
128.773412635978
20
-0.439630810266863
30
0
41
1
10
129.059387108871
20
-0.593755238699885
30
0
41
1
10
129.918113636011
20
-1.05193847587051
30
0
41
1
10
130.490258090601
20
-1.35311205919209
30
0
41
1
10
131.34638522054
20
-1.80142381817925
30
0
41
1
10
131.631292865964
20
-1.950487231274
30
0
41
1
10
132.202074963144
20
-2.24441764489743
30
0
41
1
10
132.487776080546
20
-2.38960771342022
30
0
41
1
10
133.05946636927
20
-2.67704609072763
30
0
41
1
10
133.345472407954
20
-2.81926413277182
30
0
41
1
10
133.917570931267
20
-3.10107592329595
30
0
41
1
10
134.203617403627
20
-3.24103875282924
30
0
41
1
10
135.061535922459
20
-3.65163236542779
30
0
41
1
10
135.633400125591
20
-3.91453294926413
30
0
41
1
10
136.489544213746
20
-4.29525042642098
30
0
41
1
10
136.774429799555
20
-4.42018579813399
30
0
41
1
10
137.345112162023
20
-4.66320534050851
30
0
41
1
10
137.630824934805
20
-4.78143878540348
30
0
41
1
10
138.202692030277
20
-5.01183496754996
30
0
41
1
10
138.488839850576
20
-5.12400573613095
30
0
41
1
10
139.061383235224
20
-5.34247246565425
30
0
41
1
10
139.347197539552
20
-5.44895646720695
30
0
41
1
10
140.204360372039
20
-5.75606388152192
30
0
41
1
10
140.775976796827
20
-5.94493612546449
30
0
41
1
10
141.632170082742
20
-6.2064329709101
30
0
41
1
10
141.917118102689
20
-6.29017095588111
30
0
41
1
10
142.487734618464
20
-6.44907385070761
30
0
41
1
10
142.773471033254
20
-6.52420276144676
30
0
41
1
10
143.345542920309
20
-6.66612687255625
30
0
41
1
10
143.632018951218
20
-6.73297812373107
30
0
41
1
10
144.204597618984
20
-6.85826453144762
30
0
41
1
10
144.490142676959
20
-6.91679640819859
30
0
41
1
10
145.34660313796
20
-7.07852840779074
30
0
41
1
10
145.918007848102
20
-7.16766012866927
30
0
41
1
10
146.774283246976
20
-7.27450245184127
30
0
41
1
10
147.059377359469
20
-7.30567278686729
30
0
41
1
10
147.62996298091
20
-7.35859659361384
30
0
41
1
10
147.915737492142
20
-7.38028300138893
30
0
41
1
10
148.4880416957
20
-7.4142598700297
30
0
41
1
10
148.774735858727
20
-7.42655744258599
30
0
41
1
10
149.281734270817
20
-7.43995276143971
30
0
41
1
10
149.502264864216
20
-7.44297146824474
30
0
41
1
10
149.722604687888
20
-7.44314791247254
30
0
0
SPLINE
5
D4
100
AcDbEntity
8
1
62
256
6
ByLayer
370
18
48
1
60
0
100
AcDbSpline
70
4
71
3
72
106
73
102
40
0
40
0
40
0
40
0
40
0.0106588728167209
40
0.0106588728167209
40
0.0262419875753636
40
0.0262419875753636
40
0.0418251023340067
40
0.0418251023340067
40
0.0729913318512917
40
0.0729913318512917
40
0.088574446609934
40
0.088574446609934
40
0.104157561368576
40
0.104157561368576
40
0.119740676127218
40
0.119740676127218
40
0.13532379088586
40
0.13532379088586
40
0.166490020403145
40
0.166490020403145
40
0.182073135161788
40
0.182073135161788
40
0.197656249920431
40
0.197656249920431
40
0.228822479437715
40
0.228822479437715
40
0.259988708955
40
0.259988708955
40
0.275571823713642
40
0.275571823713642
40
0.291154938472284
40
0.291154938472284
40
0.322321167989568
40
0.322321167989568
40
0.353487397506853
40
0.353487397506853
40
0.369070512265495
40
0.369070512265495
40
0.384653627024138
40
0.384653627024138
40
0.415819856541424
40
0.415819856541424
40
0.431402971300068
40
0.431402971300068
40
0.446986086058711
40
0.446986086058711
40
0.462569200817354
40
0.462569200817354
40
0.478152315575998
40
0.478152315575998
40
0.509318545093285
40
0.509318545093285
40
0.524901659851928
40
0.524901659851928
40
0.540484774610571
40
0.540484774610571
40
0.556067889369214
40
0.556067889369214
40
0.571651004127858
40
0.571651004127858
40
0.602817233645142
40
0.602817233645142
40
0.618400348403785
40
0.618400348403785
40
0.633983463162429
40
0.633983463162429
40
0.649566577921072
40
0.649566577921072
40
0.665149692679716
40
0.665149692679716
40
0.696315922197
40
0.696315922197
40
0.711899036955642
40
0.711899036955642
40
0.727482151714284
40
0.727482151714284
40
0.743065266472926
40
0.743065266472926
40
0.758648381231568
40
0.758648381231568
40
0.789814610748852
40
0.789814610748852
40
0.805397725507495
40
0.805397725507495
40
0.820980840266139
40
0.820980840266139
40
0.836563955024782
40
0.836563955024782
40
0.852147069783425
40
0.852147069783425
40
0.883313299300712
40
0.883313299300712
40
0.898896414059356
40
0.898896414059356
40
0.914479528817999
40
0.914479528817999
40
0.945645758335288
40
0.945645758335288
40
0.976811987852577
40
0.976811987852577
40
1
40
1
40
1
40
1
41
1
10
181.884554166898
20
5.08265550089163
30
0
41
1
10
182.079883561132
20
5.15972249621768
30
0
41
1
10
182.275413783163
20
5.23518227359918
30
0
41
1
10
182.757188443756
20
5.41717460255538
30
0
41
1
10
183.043642184277
20
5.52198599288195
30
0
41
1
10
183.615170048236
20
5.72456958471787
30
0
41
1
10
183.900209589436
20
5.82272587891771
30
0
41
1
10
184.755645433376
20
6.10479232017616
30
0
41
1
10
185.326542345876
20
6.27630778764851
30
0
41
1
10
186.182310388775
20
6.51055095093682
30
0
41
1
10
186.467240469727
20
6.58496166600889
30
0
41
1
10
187.037855661003
20
6.72507403800813
30
0
41
1
10
187.323694904959
20
6.79067108789965
30
0
41
1
10
187.896200017498
20
6.91320345663294
30
0
41
1
10
188.182288932734
20
6.97004089187737
30
0
41
1
10
188.753539953884
20
7.07490129576871
30
0
41
1
10
189.038558653861
20
7.12305087821741
30
0
41
1
10
189.893442745376
20
7.2535856795476
30
0
41
1
10
190.464238480737
20
7.32168822933286
30
0
41
1
10
191.320260607091
20
7.39639073378862
30
0
41
1
10
191.605425694659
20
7.41671536247574
30
0
41
1
10
192.17613856184
20
7.44786687094594
30
0
41
1
10
192.462291196336
20
7.45864145619663
30
0
41
1
10
193.320502349063
20
7.47668821618345
30
0
41
1
10
193.891506787284
20
7.46979485874766
30
0
41
1
10
195.030789917514
20
7.41778595313019
30
0
41
1
10
195.601467730867
20
7.37310051346535
30
0
41
1
10
196.457795561079
20
7.27808163112499
30
0
41
1
10
196.743217987661
20
7.24168388098329
30
0
41
1
10
197.314166579907
20
7.15930401024241
30
0
41
1
10
197.60028200406
20
7.11353654365141
30
0
41
1
10
198.457764317295
20
6.96337425209614
30
0
41
1
10
199.028737470489
20
6.84588317551274
30
0
41
1
10
200.167784711501
20
6.57469523475092
30
0
41
1
10
200.738279439501
20
6.42295808828945
30
0
41
1
10
201.594982375785
20
6.17099817186821
30
0
41
1
10
201.880658291445
20
6.08288563855803
30
0
41
1
10
202.452008222732
20
5.89798555863416
30
0
41
1
10
202.737654811189
20
5.80177856778639
30
0
41
1
10
203.594437882515
20
5.50374729831256
30
0
41
1
10
204.165327782085
20
5.29178209587076
30
0
41
1
10
205.019639388592
20
4.95171644291889
30
0
41
1
10
205.304386130837
20
4.83506853468902
30
0
41
1
10
205.874851121698
20
4.59669249550586
30
0
41
1
10
206.160397707833
20
4.47473270618428
30
0
41
1
10
206.731819297667
20
4.22482074246327
30
0
41
1
10
207.017940228895
20
4.09683625082039
30
0
41
1
10
207.58920645538
20
3.83476763404485
30
0
41
1
10
207.874384489423
20
3.70111205797181
30
0
41
1
10
208.730512914888
20
3.29554591548973
30
0
41
1
10
209.301275595954
20
3.01784169774319
30
0
41
1
10
210.155796148314
20
2.58746552878631
30
0
41
1
10
210.440442536161
20
2.44181151415023
30
0
41
1
10
211.010932920013
20
2.14891541086678
30
0
41
1
10
211.296574170504
20
2.00132683778307
30
0
41
1
10
211.868319082918
20
1.70327946711603
30
0
41
1
10
212.154599364236
20
1.55280581946113
30
0
41
1
10
212.725596423065
20
1.24945022453483
30
0
41
1
10
213.010487537673
20
1.09641874202833
30
0
41
1
10
213.866011488235
20
0.638213126834358
30
0
41
1
10
214.436653267362
20
0.332381724855111
30
0
41
1
10
215.291471954977
20
-0.129849768053134
30
0
41
1
10
215.576102578244
20
-0.28473141617684
30
0
41
1
10
216.146655357846
20
-0.592541196285879
30
0
41
1
10
216.43240270266
20
-0.745793966772055
30
0
41
1
10
217.004508831334
20
-1.05161239912482
30
0
41
1
10
217.290528799548
20
-1.20395732696235
30
0
41
1
10
217.861289370944
20
-1.5074339093843
30
0
41
1
10
218.145990926853
20
-1.65898078872871
30
0
41
1
10
219.000968956226
20
-2.10774725421413
30
0
41
1
10
219.571523673925
20
-2.4002529361976
30
0
41
1
10
220.426678092153
20
-2.83173428914853
30
0
41
1
10
220.711393051151
20
-2.97471681400279
30
0
41
1
10
221.282048097094
20
-3.25570120655485
30
0
41
1
10
221.568099502473
20
-3.39393334805806
30
0
41
1
10
222.140084286896
20
-3.6657926445713
30
0
41
1
10
222.425763575954
20
-3.79931984544081
30
0
41
1
10
222.996313568897
20
-4.0618573230318
30
0
41
1
10
223.280924415117
20
-4.1912581470323
30
0
41
1
10
224.135415198098
20
-4.56970763736842
30
0
41
1
10
224.705919800909
20
-4.80921623105667
30
0
41
1
10
225.561447015433
20
-5.15154248215416
30
0
41
1
10
225.846344492094
20
-5.26312184024079
30
0
41
1
10
226.417142349665
20
-5.47904635389233
30
0
41
1
10
226.70330488481
20
-5.5833408515619
30
0
41
1
10
227.274825048027
20
-5.78424563800718
30
0
41
1
10
227.560337948343
20
-5.8809605211174
30
0
41
1
10
228.130702304419
20
-6.06711058498291
30
0
41
1
10
228.415320066215
20
-6.15678547581948
30
0
41
1
10
229.269382897661
20
-6.41345923926949
30
0
41
1
10
229.839878680039
20
-6.56743403615761
30
0
41
1
10
230.695817151028
20
-6.77424600842915
30
0
41
1
10
230.980992448181
20
-6.83925802927996
30
0
41
1
10
231.551977757777
20
-6.96056689254178
30
0
41
1
10
231.837831600977
20
-7.01656690264221
30
0
41
1
10
232.694461746662
20
-7.17072311859468
30
0
41
1
10
233.264622554444
20
-7.25546790755627
30
0
41
1
10
234.402950116565
20
-7.38853136651218
30
0
41
1
10
234.97345115401
20
-7.43598399273873
30
0
41
1
10
235.969183671502
20
-7.48621932892854
30
0
41
1
10
236.394013422279
20
-7.49717681427285
30
0
41
1
10
236.818873162656
20
-7.49755355007036
30
0
0
SPLINE
5
D5
100
AcDbEntity
8
1
62
256
6
ByLayer
370
18
48
1
60
0
100
AcDbSpline
70
4
71
3
72
14
73
10
40
0
40
0
40
0
40
0
40
0.249999999999998
40
0.249999999999998
40
0.499999999999998
40
0.499999999999998
40
0.749999999999999
40
0.749999999999999
40
1
40
1
40
1
40
1
41
1
10
239.970424413935
20
1.89982460349467
30
0
41
1
10
239.969679515692
20
1.91424305236669
30
0
41
1
10
239.972274996275
20
1.92885681472862
30
0
41
1
10
239.985275925468
20
1.95457890471113
30
0
41
1
10
239.995789308153
20
1.96561671718459
30
0
41
1
10
240.020263382076
20
1.9814982298642
30
0
41
1
10
240.034174648004
20
1.98666109998859
30
0
41
1
10
240.062402005061
20
1.99288102782776
30
0
41
1
10
240.076856529667
20
1.99401630350289
30
0
41
1
10
240.091366465825
20
1.99374594016618
30
0
0
SPLINE
5
D6
100
AcDbEntity
8
1
62
256
6
ByLayer
370
18
48
1
60
0
100
AcDbSpline
70
4
71
3
72
30
73
26
40
0
40
0
40
0
40
0
40
0.062499999999991
40
0.062499999999991
40
0.0937499999999872
40
0.0937499999999872
40
0.124999999999983
40
0.124999999999983
40
0.187499999999979
40
0.187499999999979
40
0.249999999999974
40
0.249999999999974
40
0.374999999999971
40
0.374999999999971
40
0.437499999999974
40
0.437499999999974
40
0.499999999999977
40
0.499999999999977
40
0.624999999999983
40
0.624999999999983
40
0.749999999999989
40
0.749999999999989
40
0.874999999999994
40
0.874999999999994
40
1
40
1
40
1
40
1
41
1
10
232.832002418934
20
1.91168813351834
30
0
41
1
10
232.816772393101
20
1.68604855640825
30
0
41
1
10
232.818381873637
20
1.4573685106671
30
0
41
1
10
232.846374953033
20
1.10973003368446
30
0
41
1
10
232.860056236809
20
0.992587795548303
30
0
41
1
10
232.89573196731
20
0.759076924812689
30
0
41
1
10
232.91758246267
20
0.643374644114232
30
0
41
1
10
232.994379637368
20
0.299219344811917
30
0
41
1
10
233.06053270391
20
0.0737075539533691
30
0
41
1
10
233.219690881754
20
-0.370268441628724
30
0
41
1
10
233.313481507422
20
-0.590050183519736
30
0
41
1
10
233.623377492309
20
-1.22295543784725
30
0
41
1
10
233.868481170893
20
-1.61468263214965
30
0
41
1
10
234.279122397758
20
-2.16854956516229
30
0
41
1
10
234.423662525105
20
-2.34777467744019
30
0
41
1
10
234.720339157091
20
-2.68993787804206
30
0
41
1
10
234.873093337886
20
-2.85375277669945
30
0
41
1
10
235.342689528453
20
-3.32654693793157
30
0
41
1
10
235.670665005708
20
-3.61720508106632
30
0
41
1
10
236.350830405113
20
-4.15867432617276
30
0
41
1
10
236.704687498912
20
-4.40977258334414
30
0
41
1
10
237.420332440109
20
-4.86930851670013
30
0
41
1
10
237.783468417584
20
-5.07893195981086
30
0
41
1
10
238.518655625981
20
-5.46437941049001
30
0
41
1
10
238.890696895169
20
-5.64024118490187
30
0
41
1
10
239.266727239587
20
-5.80097961011398
30
0
0
SPLINE
5
D7
100
AcDbEntity
8
1
62
256
6
ByLayer
370
18
48
1
60
0
100
AcDbSpline
70
4
71
3
72
40
73
36
40
0
40
0
40
0
40
0
40
0.0175475234588552
40
0.0175475234588552
40
0.0343547996828201
40
0.0343547996828201
40
0.0385566187388112
40
0.0385566187388112
40
0.0427584377948024
40
0.0427584377948024
40
0.0469602568507936
40
0.0469602568507936
40
0.0511620759067848
40
0.0511620759067848
40
0.0595657140187652
40
0.0595657140187652
40
0.0679693521307455
40
0.0679693521307455
40
0.0847766283547063
40
0.0847766283547063
40
0.152005733250552
40
0.152005733250552
40
0.420922152833933
40
0.420922152833933
40
0.555380362625626
40
0.555380362625626
40
0.622609467521471
40
0.622609467521471
40
0.689838572417315
40
0.689838572417315
40
0.824296782209003
40
0.824296782209003
40
0.95875499200069
40
0.95875499200069
40
1
40
1
40
1
40
1
41
1
10
7.55660152530578
20
-7.35428999043447
30
0
41
1
10
7.58609835313277
20
-7.3542485866808
30
0
41
1
10
7.61646727417457
20
-7.35375972721087
30
0
41
1
10
7.6775224048001
20
-7.35198628979913
30
0
41
1
10
7.70811205878226
20
-7.35073651552131
30
0
41
1
10
7.74719939528362
20
-7.34872815625334
30
0
41
1
10
7.75505722765541
20
-7.34830427426093
30
0
41
1
10
7.77085105455831
20
-7.34741297769335
30
0
41
1
10
7.77830113574467
20
-7.34692555866252
30
0
41
1
10
7.79685458340174
20
-7.34605192514289
30
0
41
1
10
7.80776385818592
20
-7.34565152071249
30
0
41
1
10
7.83037743231287
20
-7.34495897280402
30
0
41
1
10
7.84221655171623
20
-7.34465983512328
30
0
41
1
10
7.87886578265557
20
-7.34387443635441
30
0
41
1
10
7.90508581274628
20
-7.34350024057397
30
0
41
1
10
7.95720515622054
20
-7.34302148887321
30
0
41
1
10
7.98340485201035
20
-7.3429220980909
30
0
41
1
10
8.06226533658725
20
-7.34289859577859
30
0
41
1
10
8.11486785505971
20
-7.34291283597489
30
0
41
1
10
8.37782207889992
20
-7.34292313818506
30
0
41
1
10
8.58819678886516
20
-7.34296458846032
30
0
41
1
10
9.64006225541982
20
-7.34334457392927
30
0
41
1
10
10.481551368804
20
-7.34421962649603
30
0
41
1
10
11.7432243941326
20
-7.34630032929132
30
0
41
1
10
12.1637134289021
20
-7.34711830222054
30
0
41
1
10
12.7943426964754
20
-7.34848707760113
30
0
41
1
10
13.0045368695087
20
-7.34896343092379
30
0
41
1
10
13.4248938145404
20
-7.34994710112002
30
0
41
1
10
13.6350616028449
20
-7.35044858263055
30
0
41
1
10
14.2653485438414
20
-7.3522401366464
30
0
41
1
10
14.6857643190445
20
-7.353858149063
30
0
41
1
10
15.5212492983306
20
-7.35704344946228
30
0
41
1
10
15.9367645766395
20
-7.35860755199121
30
0
41
1
10
16.4769776329381
20
-7.35972629444117
30
0
41
1
10
16.6035903050965
20
-7.35992558738002
30
0
41
1
10
16.7300077916805
20
-7.36003444238995
30
0
0
SPLINE
5
D8
100
AcDbEntity
8
1
62
256
6
ByLayer
370
13
48
1
60
0
100
AcDbSpline
70
4
71
3
72
10
73
6
40
0
40
0
40
0
40
0
40
0.5
40
0.5
40
1
40
1
40
1
40
1
41
1
10
9.00000029016053
20
-4.43145380622906
30
0
41
1
10
9.00000029016053
20
-4.42454798072853
30
0
41
1
10
9.01193215768427
20
-4.41719686538102
30
0
41
1
10
9.05782783704453
20
-4.40413908876744
30
0
41
1
10
9.09232944948101
20
-4.39818897351225
30
0
41
1
10
9.13655540673852
20
-4.39421457365339
30
0
0
SPLINE
5
D9
100
AcDbEntity
8
1
62
256
6
ByLayer
370
18
48
1
60
0
100
AcDbSpline
70
4
71
3
72
8
73
4
40
0
40
0
40
0
40
0
40
1
40
1
40
1
40
1
41
1
10
240.393500433338
20
7.46363925816124
30
0
41
1
10
239.93847323794
20
7.48753493639614
30
0
41
1
10
239.483379975149
20
7.49929025724074
30
0
41
1
10
239.02883940476
20
7.49896089921367
30
0
0
SPLINE
5
DA
100
AcDbEntity
8
1
62
256
6
ByLayer
370
18
48
1
60
0
100
AcDbSpline
70
4
71
3
72
64
73
60
40
0
40
0
40
0
40
0
40
0.0593054135498854
40
0.0593054135498854
40
0.0968880982891493
40
0.0968880982891493
40
0.134470783028413
40
0.134470783028413
40
0.172053467767677
40
0.172053467767677
40
0.190844810137309
40
0.190844810137309
40
0.209636152506941
40
0.209636152506941
40
0.247218837246206
40
0.247218837246206
40
0.266010179615839
40
0.266010179615839
40
0.284801521985472
40
0.284801521985472
40
0.359966891464003
40
0.359966891464003
40
0.397549576203267
40
0.397549576203267
40
0.435132260942532
40
0.435132260942532
40
0.472714945681797
40
0.472714945681797
40
0.491506288051429
40
0.491506288051429
40
0.510297630421061
40
0.510297630421061
40
0.547880315160326
40
0.547880315160326
40
0.585462999899591
40
0.585462999899591
40
0.660628369378119
40
0.660628369378119
40
0.67941971174775
40
0.67941971174775
40
0.698211054117382
40
0.698211054117382
40
0.735793738856647
40
0.735793738856647
40
0.773376423595912
40
0.773376423595912
40
0.792167765965544
40
0.792167765965544
40
0.810959108335176
40
0.810959108335176
40
0.886124477813705
40
0.886124477813705
40
0.961289847292235
40
0.961289847292235
40
0.980081189661867
40
0.980081189661867
40
0.998872532031499
40
0.998872532031499
40
1
40
1
40
1
40
1
41
1
10
199.95562764164
20
-7.0885759209869
30
0
41
1
10
199.006892914827
20
-7.25027999296313
30
0
41
1
10
198.06006593081
20
-7.36176859012886
30
0
41
1
10
196.509195711159
20
-7.4588592521375
30
0
41
1
10
195.905953837022
20
-7.4755409611044
30
0
41
1
10
194.702920408397
20
-7.46651854261796
30
0
41
1
10
194.102319905048
20
-7.44092509588322
30
0
41
1
10
192.900789553717
20
-7.34801428714835
30
0
41
1
10
192.299775888826
20
-7.28071864667365
30
0
41
1
10
191.396245672554
20
-7.14891648459925
30
0
41
1
10
191.094748599519
20
-7.0998248072047
30
0
41
1
10
190.492792548698
20
-6.99188581387628
30
0
41
1
10
190.192078539742
20
-6.93300571332566
30
0
41
1
10
189.290457992096
20
-6.74187648307685
30
0
41
1
10
188.689964970166
20
-6.59520314595466
30
0
41
1
10
187.788300674771
20
-6.34786168097759
30
0
41
1
10
187.487588288284
20
-6.26086555284274
30
0
41
1
10
186.885631256188
20
-6.07795447788493
30
0
41
1
10
186.584141355618
20
-5.98194538162539
30
0
41
1
10
185.077971279511
20
-5.4815062500179
30
0
41
1
10
183.878444139647
20
-5.01645860041694
30
0
41
1
10
182.073623947901
20
-4.24051418820397
30
0
41
1
10
181.470228378564
20
-3.96829722685527
30
0
41
1
10
180.266560333619
20
-3.40460505634346
30
0
41
1
10
179.66575690732
20
-3.11283227788709
30
0
41
1
10
178.463972363389
20
-2.51326505229474
30
0
41
1
10
177.862900027978
20
-2.20563050167689
30
0
41
1
10
176.959441166477
20
-1.73513576933672
30
0
41
1
10
176.657796751024
20
-1.57668635699366
30
0
41
1
10
176.05547507533
20
-1.25842043165093
30
0
41
1
10
175.754603557443
20
-1.09849740243902
30
0
41
1
10
174.85257999212
20
-0.616875706693577
30
0
41
1
10
174.251908008538
20
-0.29352992692128
30
0
41
1
10
173.049531154455
20
0.353235458024415
30
0
41
1
10
172.447543643133
20
0.676917193559433
30
0
41
1
10
170.638981375023
20
1.64114469490829
30
0
41
1
10
169.43897888238
20
2.26903285535093
30
0
41
1
10
167.934910198466
20
3.01526815037562
30
0
41
1
10
167.633900811513
20
3.16259745594172
30
0
41
1
10
167.031179047868
20
3.45286880887133
30
0
41
1
10
166.729569130434
20
3.59575430252698
30
0
41
1
10
165.82630303128
20
4.01568160790504
30
0
41
1
10
165.225256874087
20
4.28453709939092
30
0
41
1
10
164.023182035385
20
4.79668288181031
30
0
41
1
10
163.422082310079
20
5.03986753859701
30
0
41
1
10
162.518646736139
20
5.38284052810104
30
0
41
1
10
162.216954475121
20
5.49362874943415
30
0
41
1
10
161.61424192062
20
5.70697477918918
30
0
41
1
10
161.313214906407
20
5.80954832099866
30
0
41
1
10
159.809047517769
20
6.30122857730308
30
0
41
1
10
158.608798786433
20
6.62672019311705
30
0
41
1
10
156.196337074138
20
7.12388222204822
30
0
41
1
10
154.99562193112
20
7.2929345609605
30
0
41
1
10
153.491377856549
20
7.40011915006787
30
0
41
1
10
153.190355661478
20
7.41636002481863
30
0
41
1
10
152.587701789493
20
7.43833999364819
30
0
41
1
10
152.285924211974
20
7.44406809249267
30
0
41
1
10
151.966590152477
20
7.44453334486582
30
0
41
1
10
151.948515911734
20
7.44454069309475
30
0
41
1
10
151.9304427234
20
7.44452906153899
30
0
0
SPLINE
5
DB
100
AcDbEntity
8
1
62
256
6
ByLayer
370
18
48
1
60
0
100
AcDbSpline
70
4
71
3
72
66
73
62
40
0
40
0
40
0
40
0
40
0.0138408319059175
40
0.0138408319059175
40
0.0514517690630464
40
0.0514517690630464
40
0.0890627062201753
40
0.0890627062201753
40
0.126673643377304
40
0.126673643377304
40
0.164284580534433
40
0.164284580534433
40
0.183090049112997
40
0.183090049112997
40
0.20189551769156
40
0.20189551769156
40
0.277117392005821
40
0.277117392005821
40
0.295922860584386
40
0.295922860584386
40
0.314728329162951
40
0.314728329162951
40
0.352339266320082
40
0.352339266320082
40
0.389950203477213
40
0.389950203477213
40
0.427561140634343
40
0.427561140634343
40
0.465172077791475
40
0.465172077791475
40
0.48397754637004
40
0.48397754637004
40
0.502783014948604
40
0.502783014948604
40
0.578004889262866
40
0.578004889262866
40
0.615615826419997
40
0.615615826419997
40
0.653226763577129
40
0.653226763577129
40
0.69083770073426
40
0.69083770073426
40
0.709643169312825
40
0.709643169312825
40
0.72844863789139
40
0.72844863789139
40
0.766059575048522
40
0.766059575048522
40
0.784865043627087
40
0.784865043627087
40
0.803670512205652
40
0.803670512205652
40
0.878892386519914
40
0.878892386519914
40
0.916503323677044
40
0.916503323677044
40
0.954114260834174
40
0.954114260834174
40
0.991725197991305
40
0.991725197991305
40
1
40
1
40
1
40
1
41
1
10
112.908500884513
20
-7.0279321644434
30
0
41
1
10
112.68667534785
20
-7.06589149379133
30
0
41
1
10
112.464993725727
20
-7.10111956550779
30
0
41
1
10
111.641273960754
20
-7.22186299474734
30
0
41
1
10
111.039826911641
20
-7.28982122079776
30
0
41
1
10
109.836054645339
20
-7.38430630192647
30
0
41
1
10
109.233587754848
20
-7.41084175338764
30
0
41
1
10
108.026230168362
20
-7.42169573588896
30
0
41
1
10
107.424028987903
20
-7.4060105968949
30
0
41
1
10
106.220392708475
20
-7.33298802652536
30
0
41
1
10
105.61888740869
20
-7.27566397710848
30
0
41
1
10
104.715441441666
20
-7.15897705431757
30
0
41
1
10
104.414103564468
20
-7.11495999154576
30
0
41
1
10
103.810729453972
20
-7.01679535605575
30
0
41
1
10
103.508704846282
20
-6.96263913604358
30
0
41
1
10
102.001230881989
20
-6.66791075633316
30
0
41
1
10
100.799930193924
20
-6.35461978780845
30
0
41
1
10
99.29271526554
20
-5.87641613401846
30
0
41
1
10
98.9907394909201
20
-5.77636440626492
30
0
41
1
10
98.3872643544243
20
-5.56842962784654
30
0
41
1
10
98.0858474065816
20
-5.460579397906
30
0
41
1
10
97.1822131290398
20
-5.12587881196677
30
0
41
1
10
96.5805956960057
20
-4.88789248294981
30
0
41
1
10
95.3765892786658
20
-4.3856034757757
30
0
41
1
10
94.7743097101824
20
-4.12113939424762
30
0
41
1
10
93.5667702193506
20
-3.56906478396306
30
0
41
1
10
92.9639365998613
20
-3.28261947686059
30
0
41
1
10
91.7598320876924
20
-2.69343547698708
30
0
41
1
10
91.158211253066
20
-2.39066003840162
30
0
41
1
10
90.2547027117894
20
-1.92726731838224
30
0
41
1
10
89.953359686494
20
-1.77125414969359
30
0
41
1
10
89.3500282349609
20
-1.45666062199152
30
0
41
1
10
89.0478522615184
20
-1.29798613773821
30
0
41
1
10
87.5394431295299
20
-0.502049096472774
30
0
41
1
10
86.337858144461
20
0.145273245496128
30
0
41
1
10
84.5291888523268
20
1.10576221019315
30
0
41
1
10
83.9246987051336
20
1.42444708563085
30
0
41
1
10
82.7192870236898
20
2.04992395526023
30
0
41
1
10
82.1174558251553
20
2.3572185954763
30
0
41
1
10
80.9131999256698
20
2.95676813990795
30
0
41
1
10
80.3108912062888
20
3.24922578396161
30
0
41
1
10
79.4053285547495
20
3.67370656875585
30
0
41
1
10
79.1032294308295
20
3.81277415316137
30
0
41
1
10
78.5000824999296
20
4.08481662803891
30
0
41
1
10
78.1987901345861
20
4.2179089107548
30
0
41
1
10
77.2953257068303
20
4.60776395237392
30
0
41
1
10
76.6935046886572
20
4.85501395763757
30
0
41
1
10
75.789945601645
20
5.20465140590852
30
0
41
1
10
75.488607687945
20
5.31763797828614
30
0
41
1
10
74.8853279306223
20
5.53606764517207
30
0
41
1
10
74.5831278385822
20
5.64158938575855
30
0
41
1
10
73.0737963847255
20
6.14807041137141
30
0
41
1
10
71.8717773470559
20
6.48617432635584
30
0
41
1
10
70.0631025535231
20
6.87940652330426
30
0
41
1
10
69.4583906051302
20
6.99156176638468
30
0
41
1
10
68.2523759970639
20
7.17497047278363
30
0
41
1
10
67.6503215192937
20
7.24638433972405
30
0
41
1
10
66.445799119275
20
7.34788997764733
30
0
41
1
10
65.8434591115735
20
7.37801548062845
30
0
41
1
10
65.10701200331
20
7.38913751879309
30
0
41
1
10
64.9741154364434
20
7.3901245601368
30
0
41
1
10
64.8412135700146
20
7.39009385906959
30
0
0
SPLINE
5
DC
100
AcDbEntity
8
1
62
256
6
ByLayer
370
18
48
1
60
0
100
AcDbSpline
70
4
71
3
72
24
73
20
40
0
40
0
40
0
40
0
40
0.0295466750616106
40
0.0295466750616106
40
0.137374822276988
40
0.137374822276988
40
0.245202969492365
40
0.245202969492365
40
0.35303111670774
40
0.35303111670774
40
0.568687411138494
40
0.568687411138494
40
0.676515558353871
40
0.676515558353871
40
0.784343705569248
40
0.784343705569248
40
0.892171852784623
40
0.892171852784623
40
1
40
1
40
1
40
1
41
1
10
25.9290411775413
20
-6.95553560854131
30
0
41
1
10
25.7633941835182
20
-6.98439913471361
30
0
41
1
10
25.597724615736
20
-7.01177810961303
30
0
41
1
10
24.8281147651626
20
-7.13195580475698
30
0
41
1
10
24.2253107361353
20
-7.20603614800561
30
0
41
1
10
23.0198824349437
20
-7.31295666073763
30
0
41
1
10
22.4173303625009
20
-7.34582022052865
30
0
41
1
10
21.2101890768499
20
-7.36971172266917
30
0
41
1
10
20.6049309216608
20
-7.36065475674155
30
0
41
1
10
18.7944880943553
20
-7.27092564870654
30
0
41
1
10
17.5911861984743
20
-7.12787312604905
30
0
41
1
10
15.7780664858777
20
-6.79374341880316
30
0
41
1
10
15.1735053105757
20
-6.66260193986813
30
0
41
1
10
13.965928349101
20
-6.36358994584944
30
0
41
1
10
13.3622922016633
20
-6.1955912003759
30
0
41
1
10
12.1530411377253
20
-5.82471100428785
30
0
41
1
10
11.5487987498343
20
-5.6222344885314
30
0
41
1
10
10.3411924216625
20
-5.18697432804402
30
0
41
1
10
9.73743782779113
20
-4.95409284633342
30
0
41
1
10
9.13277274816534
20
-4.70718538735483
30
0
0
SPLINE
5
DD
100
AcDbEntity
8
1
62
256
6
ByLayer
370
18
48
1
60
0
100
AcDbSpline
70
4
71
3
72
58
73
54
40
0
40
0
40
0
40
0
40
0.0401573982149364
40
0.0401573982149364
40
0.0803147964298727
40
0.0803147964298727
40
0.120472194644809
40
0.120472194644809
40
0.140550893752277
40
0.140550893752277
40
0.160629592859745
40
0.160629592859745
40
0.200786991074682
40
0.200786991074682
40
0.220865690182151
40
0.220865690182151
40
0.240944389289621
40
0.240944389289621
40
0.321259185719497
40
0.321259185719497
40
0.361416583934434
40
0.361416583934434
40
0.401573982149372
40
0.401573982149372
40
0.44173138036431
40
0.44173138036431
40
0.461810079471779
40
0.461810079471779
40
0.481888778579248
40
0.481888778579248
40
0.522046176794183
40
0.522046176794183
40
0.562203575009118
40
0.562203575009118
40
0.642518371438984
40
0.642518371438984
40
0.682675769653919
40
0.682675769653919
40
0.722833167868854
40
0.722833167868854
40
0.762990566083789
40
0.762990566083789
40
0.783069265191257
40
0.783069265191257
40
0.803147964298724
40
0.803147964298724
40
0.883462760728591
40
0.883462760728591
40
0.963777557158458
40
0.963777557158458
40
0.983856256265925
40
0.983856256265925
40
1
40
1
40
1
40
1
41
1
10
240.393500433338
20
-7.46363925816124
30
0
41
1
10
239.791776514109
20
-7.49523869069085
30
0
41
1
10
239.189173120701
20
-7.50562377701812
30
0
41
1
10
237.987143676059
20
-7.48408355739406
30
0
41
1
10
237.387013362641
20
-7.45221078587443
30
0
41
1
10
236.186262033755
20
-7.34678196638632
30
0
41
1
10
235.585631614474
20
-7.27322772760084
30
0
41
1
10
234.682581207349
20
-7.13209105208949
30
0
41
1
10
234.38138251949
20
-7.07992824043214
30
0
41
1
10
233.779994173572
20
-6.96587823901598
30
0
41
1
10
233.479562569764
20
-6.90395943049333
30
0
41
1
10
232.578647108222
20
-6.70387866488227
30
0
41
1
10
231.97855358231
20
-6.55138241201857
30
0
41
1
10
231.077505939555
20
-6.29543216586296
30
0
41
1
10
230.777002773586
20
-6.20558391083657
30
0
41
1
10
230.17540245505
20
-6.01707800003283
30
0
41
1
10
229.874057293816
20
-5.9183232060787
30
0
41
1
10
228.369260430112
20
-5.40464629214034
30
0
41
1
10
227.170628547907
20
-4.92991196779093
30
0
41
1
10
225.366967678524
20
-4.14074310866272
30
0
41
1
10
224.763974653054
20
-3.86446994042501
30
0
41
1
10
223.561387589581
20
-3.29337681601999
30
0
41
1
10
222.961046776468
20
-2.99825935357197
30
0
41
1
10
221.760063386368
20
-2.39268092959657
30
0
41
1
10
221.159378626955
20
-2.08229385917545
30
0
41
1
10
220.256433810054
20
-1.60812860100003
30
0
41
1
10
219.95502608059
20
-1.4485994382799
30
0
41
1
10
219.353279452237
20
-1.1283515962391
30
0
41
1
10
219.052691489267
20
-0.967511142579696
30
0
41
1
10
218.151362145734
20
-0.483624495220738
30
0
41
1
10
217.551087245906
20
-0.159153710429308
30
0
41
1
10
216.349514276532
20
0.489369163676571
30
0
41
1
10
215.747701667929
20
0.813748541890902
30
0
41
1
10
213.940754208541
20
1.7778961788654
30
0
41
1
10
212.741908663055
20
2.40477307784414
30
0
41
1
10
210.938103925151
20
3.2960866015419
30
0
41
1
10
210.334981793888
20
3.58554632939297
30
0
41
1
10
209.131629485678
20
4.14101510921839
30
0
41
1
10
208.531069855881
20
4.40739237668717
30
0
41
1
10
207.32989832345
20
4.91402193407524
30
0
41
1
10
206.729154341733
20
5.15408707417268
30
0
41
1
10
205.826245056364
20
5.49205891430631
30
0
41
1
10
205.524742918911
20
5.60111062278631
30
0
41
1
10
204.9225919668
20
5.81074612137999
30
0
41
1
10
204.621812773097
20
5.91137808324731
30
0
41
1
10
203.118944091642
20
6.39319563308507
30
0
41
1
10
201.919271547474
20
6.70985748558081
30
0
41
1
10
199.508456109274
20
7.18770470019069
30
0
41
1
10
198.308942466339
20
7.34639021106742
30
0
41
1
10
196.805778226252
20
7.44024097283148
30
0
41
1
10
196.504956049036
20
7.45378589071703
30
0
41
1
10
195.961647805465
20
7.46870319480757
30
0
41
1
10
195.719265132709
20
7.47193342832961
30
0
41
1
10
195.477112656722
20
7.47174442866361
30
0
0
SPLINE
5
DE
100
AcDbEntity
8
1
62
256
6
ByLayer
370
18
48
1
60
0
100
AcDbSpline
70
4
71
3
72
62
73
58
40
0
40
0
40
0
40
0
40
0.0180356121191715
40
0.0180356121191715
40
0.0556098108768943
40
0.0556098108768943
40
0.0931840096346173
40
0.0931840096346173
40
0.13075820839234
40
0.13075820839234
40
0.168332407150063
40
0.168332407150063
40
0.205906605907786
40
0.205906605907786
40
0.281055003423231
40
0.281055003423231
40
0.299842102802092
40
0.299842102802092
40
0.318629202180953
40
0.318629202180953
40
0.356203400938674
40
0.356203400938674
40
0.393777599696396
40
0.393777599696396
40
0.431351798454117
40
0.431351798454117
40
0.468925997211839
40
0.468925997211839
40
0.487713096590699
40
0.487713096590699
40
0.50650019596956
40
0.50650019596956
40
0.581648593485
40
0.581648593485
40
0.619222792242719
40
0.619222792242719
40
0.656796991000439
40
0.656796991000439
40
0.694371189758159
40
0.694371189758159
40
0.731945388515878
40
0.731945388515878
40
0.769519587273597
40
0.769519587273597
40
0.788306686652457
40
0.788306686652457
40
0.807093786031317
40
0.807093786031317
40
0.882242183546757
40
0.882242183546757
40
0.919816382304476
40
0.919816382304476
40
0.957390581062196
40
0.957390581062196
40
0.994964779819915
40
0.994964779819915
40
1
40
1
40
1
40
1
41
1
10
156.454894871761
20
-7.05434936709801
30
0
41
1
10
156.165697808148
20
-7.10398547563179
30
0
41
1
10
155.876765003362
20
-7.14895802730132
30
0
41
1
10
154.986356670495
20
-7.27312763222042
30
0
41
1
10
154.38537972152
20
-7.33660870289816
30
0
41
1
10
153.182374386292
20
-7.4219429857028
30
0
41
1
10
152.580059511358
20
-7.44381902271013
30
0
41
1
10
151.373810515436
20
-7.44521520805702
30
0
41
1
10
150.772128538699
20
-7.42477426680864
30
0
41
1
10
149.569453461705
20
-7.34221685446477
30
0
41
1
10
148.968377413029
20
-7.280118014735
30
0
41
1
10
147.764514225921
20
-7.11502912560337
30
0
41
1
10
147.160746129222
20
-7.01178869396264
30
0
41
1
10
145.353400642265
20
-6.64419998528396
30
0
41
1
10
144.152989874574
20
-6.3219434922386
30
0
41
1
10
142.646625110988
20
-5.83310357719165
30
0
41
1
10
142.344805131566
20
-5.73094621900003
30
0
41
1
10
141.74188287346
20
-5.5189647463616
30
0
41
1
10
141.44073008883
20
-5.40913276475396
30
0
41
1
10
140.537830689906
20
-5.06864391578515
30
0
41
1
10
139.936661489405
20
-4.82696482526561
30
0
41
1
10
138.733538965876
20
-4.31751827481014
30
0
41
1
10
138.13163517819
20
-4.04967333800926
30
0
41
1
10
136.924657131794
20
-3.49136430620902
30
0
41
1
10
136.322587037576
20
-3.20217704656417
30
0
41
1
10
135.119460555879
20
-2.60774904180147
30
0
41
1
10
134.518258933354
20
-2.30262173354572
30
0
41
1
10
133.615306416872
20
-1.83605336135557
30
0
41
1
10
133.314141366876
20
-1.67903147400995
30
0
41
1
10
132.711146271079
20
-1.3625276124651
30
0
41
1
10
132.409208195453
20
-1.2029972325887
30
0
41
1
10
130.902196236177
20
-0.403163229528758
30
0
41
1
10
129.701463489611
20
0.246065588283358
30
0
41
1
10
127.893876525263
20
1.20807017816145
30
0
41
1
10
127.289865444377
20
1.52687385370507
30
0
41
1
10
126.085452139565
20
2.15198275136331
30
0
41
1
10
125.484087611611
20
2.45885628349606
30
0
41
1
10
124.280670085269
20
3.05706188614758
30
0
41
1
10
123.6787389761
20
3.3486046609811
30
0
41
1
10
122.471923020185
20
3.91217604412191
30
0
41
1
10
121.869121602832
20
4.18339238129582
30
0
41
1
10
120.665525915957
20
4.69978272895253
30
0
41
1
10
120.064173188978
20
4.94509514918963
30
0
41
1
10
119.16114671829
20
5.29137872134129
30
0
41
1
10
118.859980954412
20
5.4032047873911
30
0
41
1
10
118.257032060889
20
5.61922633141171
30
0
41
1
10
117.955007631616
20
5.72349158506344
30
0
41
1
10
116.44706848666
20
6.22332262685742
30
0
41
1
10
115.245938902893
20
6.55532730693406
30
0
41
1
10
113.438411223313
20
6.93861130853594
30
0
41
1
10
112.834157201309
20
7.04726732964517
30
0
41
1
10
111.62909865793
20
7.22338163228233
30
0
41
1
10
111.027492908325
20
7.29106812522903
30
0
41
1
10
109.823874625888
20
7.38497778684064
30
0
41
1
10
109.221904547138
20
7.41120803451292
30
0
41
1
10
108.53773536029
20
7.41705955667749
30
0
41
1
10
108.456859090235
20
7.41737196232688
30
0
41
1
10
108.375973763564
20
7.41730572952875
30
0
0
SPLINE
5
DF
100
AcDbEntity
8
1
62
256
6
ByLayer
370
18
48
1
60
0
100
AcDbSpline
70
4
71
3
72
64
73
60
40
0
40
0
40
0
40
0
40
0.0124720507384234
40
0.0124720507384234
40
0.0500377828751468
40
0.0500377828751468
40
0.0876035150118708
40
0.0876035150118708
40
0.125169247148595
40
0.125169247148595
40
0.200300711422042
40
0.200300711422042
40
0.219083577490404
40
0.219083577490404
40
0.237866443558766
40
0.237866443558766
40
0.275432175695491
40
0.275432175695491
40
0.294215041763852
40
0.294215041763852
40
0.312997907832214
40
0.312997907832214
40
0.350563639968938
40
0.350563639968938
40
0.388129372105662
40
0.388129372105662
40
0.425695104242385
40
0.425695104242385
40
0.500826568515832
40
0.500826568515832
40
0.519609434584194
40
0.519609434584194
40
0.538392300652556
40
0.538392300652556
40
0.575958032789279
40
0.575958032789279
40
0.613523764926002
40
0.613523764926002
40
0.651089497062725
40
0.651089497062725
40
0.688655229199448
40
0.688655229199448
40
0.726220961336172
40
0.726220961336172
40
0.801352425609619
40
0.801352425609619
40
0.82013529167798
40
0.82013529167798
40
0.838918157746342
40
0.838918157746342
40
0.876483889883065
40
0.876483889883065
40
0.914049622019789
40
0.914049622019789
40
0.951615354156512
40
0.951615354156512
40
0.989181086293235
40
0.989181086293235
40
1
40
1
40
1
40
1
41
1
10
69.4416378049097
20
-6.98779405069803
30
0
41
1
10
69.241096818718
20
-7.02259760387574
30
0
41
1
10
69.0404987180956
20
-7.05522264269146
30
0
41
1
10
68.2366039145325
20
-7.17702481536583
30
0
41
1
10
67.6342717240132
20
-7.24809987604786
30
0
41
1
10
66.4296680491811
20
-7.34887650821344
30
0
41
1
10
65.827525156174
20
-7.37861109761204
30
0
41
1
10
64.6211101379457
20
-7.39611153106523
30
0
41
1
10
64.016322098832
20
-7.38379285885293
30
0
41
1
10
62.2074752985202
20
-7.28423260418552
30
0
41
1
10
61.0049875425194
20
-7.13456358929301
30
0
41
1
10
59.4948204700021
20
-6.84792877979163
30
0
41
1
10
59.1926155870605
20
-6.78563204359966
30
0
41
1
10
58.5892480545234
20
-6.65168197495981
30
0
41
1
10
58.2878431999783
20
-6.57999014205154
30
0
41
1
10
57.3839868821283
20
-6.3512251604752
30
0
41
1
10
56.7818946119938
20
-6.18046522677508
30
0
41
1
10
55.8778534655943
20
-5.89858579758086
30
0
41
1
10
55.5763503314923
20
-5.80034213223405
30
0
41
1
10
54.9727548196497
20
-5.59557137775187
30
0
41
1
10
54.6704135373023
20
-5.48894610149409
30
0
41
1
10
53.7645251013089
20
-5.15799464501566
30
0
41
1
10
53.1619433341377
20
-4.92250374924461
30
0
41
1
10
51.9570160796359
20
-4.42541248982445
30
0
41
1
10
51.3547797704468
20
-4.16365415887429
30
0
41
1
10
50.1483777580715
20
-3.6172675577177
30
0
41
1
10
49.5433820856555
20
-3.33229627606551
30
0
41
1
10
47.7335290823659
20
-2.45381597597344
30
0
41
1
10
46.5308115035726
20
-1.83560467638668
30
0
41
1
10
45.0208459681395
20
-1.04264544521879
30
0
41
1
10
44.7184340156452
20
-0.88296763725333
30
0
41
1
10
44.1147072609662
20
-0.563123784675952
30
0
41
1
10
43.8131460664148
20
-0.402841332166986
30
0
41
1
10
42.9088905000015
20
0.0781835042840839
30
0
41
1
10
42.3065943081118
20
0.399047271175277
30
0
41
1
10
41.1010601087903
20
1.03731743948484
30
0
41
1
10
40.4972381530716
20
1.35488196115892
30
0
41
1
10
39.2886236304203
20
1.98100910506736
30
0
41
1
10
38.685705878433
20
2.28852544739141
30
0
41
1
10
37.4803983939495
20
2.88851424710879
30
0
41
1
10
36.8780842863655
20
3.18111682105959
30
0
41
1
10
35.6716530411611
20
3.74721117946726
30
0
41
1
10
35.0665402576744
20
4.02106171540731
30
0
41
1
10
33.2556604758386
20
4.80409422697662
30
0
41
1
10
32.0526628698479
20
5.27546422561866
30
0
41
1
10
30.5428341355714
20
5.78553911432499
30
0
41
1
10
30.2403389165952
20
5.88368082491078
30
0
41
1
10
29.6362411416593
20
6.07115763232216
30
0
41
1
10
29.3345160006569
20
6.16053773460268
30
0
41
1
10
28.4298415432067
20
6.41517703599436
30
0
41
1
10
27.827368272771
20
6.56691731504176
30
0
41
1
10
26.6216578976838
20
6.83260282021351
30
0
41
1
10
26.0182578391177
20
6.94651686637479
30
0
41
1
10
24.8088277919771
20
7.13454807920144
30
0
41
1
10
24.2056286556126
20
7.20822646767752
30
0
41
1
10
22.999884200759
20
7.31427107919299
30
0
41
1
10
22.3974109600236
20
7.34666011736613
30
0
41
1
10
21.6204171125681
20
7.36145474040563
30
0
41
1
10
21.4466133504667
20
7.36302967922896
30
0
41
1
10
21.2727169340574
20
7.36286669754412
30
0
0
SPLINE
5
E0
100
AcDbEntity
8
1
62
256
6
ByLayer
370
13
48
1
60
0
100
AcDbSpline
70
4
71
3
72
33
73
29
40
0
40
0
40
0
40
0
40
0.125
40
0.125
40
0.1875
40
0.1875
40
0.25
40
0.3125
40
0.3125
40
0.375
40
0.375
40
0.5
40
0.5
40
0.5625
40
0.5625
40
0.625
40
0.625
40
0.6875
40
0.6875
40
0.75
40
0.75
40
0.875
40
0.875
40
0.90625
40
0.90625
40
0.9375
40
0.9375
40
1
40
1
40
1
40
1
41
1
10
9.25026886303036
20
-4.40336346326274
30
0
41
1
10
9.25031970504705
20
-4.05048545055357
30
0
41
1
10
9.25036285837115
20
-3.67348912161324
30
0
41
1
10
9.25042037047294
20
-3.07228984805963
30
0
41
1
10
9.25043836930092
20
-2.86527303780309
30
0
41
1
10
9.25047202608783
20
-2.44678223408386
30
0
41
1
10
9.25050351843095
20
-2.02218520872066
30
0
41
1
10
9.25053217613754
20
-1.58560929293921
30
0
41
1
10
9.25056008200866
20
-1.14298881430946
30
0
41
1
10
9.25057369526633
20
-0.918030920605531
30
0
41
1
10
9.25061408141275
20
-0.237810848368099
30
0
41
1
10
9.25063990253864
20
0.212995124006284
30
0
41
1
10
9.25067988273904
20
0.885336041681768
30
0
41
1
10
9.25069340166704
20
1.10880031722988
30
0
41
1
10
9.25072114276742
20
1.55439746040292
30
0
41
1
10
9.25073537749523
20
1.77664540047024
30
0
41
1
10
9.25076428893649
20
2.21274746045333
30
0
41
1
10
9.25077906561611
20
2.42813329530083
30
0
41
1
10
9.25080898984629
20
2.84920800297729
30
0
41
1
10
9.25082406430056
20
3.05392482378312
30
0
41
1
10
9.25086944486205
20
3.6511348695827
30
0
41
1
10
9.25089997792426
20
4.0268471705912
30
0
41
1
10
9.25093690227976
20
4.46772774080722
30
0
41
1
10
9.25094423730428
20
4.55466267604527
30
0
41
1
10
9.2509585677233
20
4.72390812578115
30
0
41
1
10
9.25096557444837
20
4.80635720050751
30
0
41
1
10
9.25098603016656
20
5.04730058485458
30
0
41
1
10
9.25099891839835
20
5.19940602536948
30
0
41
1
10
9.25101077859446
20
5.34311053678314
30
0
0
SPLINE
5
E1
100
AcDbEntity
8
1
62
256
6
ByLayer
370
18
48
1
60
0
100
AcDbSpline
70
4
71
3
72
16
73
12
40
0
40
0
40
0
40
0
40
0.0585399835560274
40
0.0585399835560274
40
0.243793024317359
40
0.243793024317359
40
0.614299105840027
40
0.614299105840027
40
0.984805187362695
40
0.984805187362695
40
1
40
1
40
1
40
1
41
1
10
195.992372318747
20
-7.05812526109017
30
0
41
1
10
195.801553159475
20
-7.06007136544096
30
0
41
1
10
195.610992992676
20
-7.06000626274437
30
0
41
1
10
194.818319805506
20
-7.05141283438482
30
0
41
1
10
194.218236702301
20
-7.02485557976749
30
0
41
1
10
192.421992393965
20
-6.8869935453952
30
0
41
1
10
191.229394390988
20
-6.71721700079704
30
0
41
1
10
188.838122622193
20
-6.23231798515266
30
0
41
1
10
187.63935977367
20
-5.91691666067842
30
0
41
1
10
186.379762102355
20
-5.51883548671682
30
0
41
1
10
186.330132698436
20
-5.50304431718556
30
0
41
1
10
186.280499671067
20
-5.48714670902041
30
0
0
SPLINE
5
E2
100
AcDbEntity
8
1
62
256
6
ByLayer
370
13
48
1
60
0
100
AcDbSpline
70
4
71
3
72
26
73
22
40
0
40
0
40
0
40
0
40
0.0468375823911612
40
0.0468375823911612
40
0.102866409034361
40
0.102866409034361
40
0.214924062320765
40
0.214924062320765
40
0.270952888963967
40
0.270952888963967
40
0.326981715607169
40
0.326981715607169
40
0.439039368893572
40
0.439039368893572
40
0.66315467546638
40
0.66315467546638
40
0.887269982039188
40
0.887269982039188
40
0.99932763532559
40
0.99932763532559
40
1
40
1
40
1
40
1
41
1
10
186.280498717889
20
-5.48714640371466
30
0
41
1
10
186.02757258203
20
-5.40613339369546
30
0
41
1
10
185.774552351421
20
-5.32235633860793
30
0
41
1
10
185.219676174485
20
-5.1329290042556
30
0
41
1
10
184.917693957091
20
-5.02613413307779
30
0
41
1
10
184.012165731511
20
-4.69538374730215
30
0
41
1
10
183.408975145963
20
-4.46111372967343
30
0
41
1
10
182.503330549895
20
-4.09151613409361
30
0
41
1
10
182.201328224516
20
-3.96524805803619
30
0
41
1
10
181.596783751085
20
-3.70702980523305
30
0
41
1
10
181.293913112561
20
-3.57493731085256
30
0
41
1
10
180.386503000238
20
-3.17189634507054
30
0
41
1
10
179.784348881636
20
-2.89467824287121
30
0
41
1
10
177.983312913249
20
-2.04325959061598
30
0
41
1
10
176.789425986638
20
-1.45006120588454
30
0
41
1
10
174.399552215676
20
-0.243791364751928
30
0
41
1
10
173.203412267711
20
0.369040666773913
30
0
41
1
10
171.395551052915
20
1.2790851458596
30
0
41
1
10
170.789213128222
20
1.5813642762545
30
0
41
1
10
170.180979650574
20
1.87910925295398
30
0
41
1
10
170.177351951447
20
1.88088490386156
30
0
41
1
10
170.173724288607
20
1.88266034105359
30
0
0
SPLINE
5
E3
100
AcDbEntity
8
1
62
256
6
ByLayer
370
18
48
1
60
0
100
AcDbSpline
70
4
71
3
72
18
73
14
40
0
40
0
40
0
40
0
40
0.175050802539049
40
0.175050802539049
40
0.571089872278627
40
0.571089872278627
40
0.670099639713522
40
0.670099639713522
40
0.769109407148417
40
0.769109407148417
40
0.967128942018196
40
0.967128942018196
40
1
40
1
40
1
40
1
41
1
10
108.510823420848
20
-7.00462859272076
30
0
41
1
10
107.976220812656
20
-7.00255526746372
30
0
41
1
10
107.440897092075
20
-6.9848271155432
30
0
41
1
10
105.692935862073
20
-6.87602147797324
30
0
41
1
10
104.48617493896
20
-6.72107501553276
30
0
41
1
10
102.973897426622
20
-6.43407075259668
30
0
41
1
10
102.671260077869
20
-6.37199919167361
30
0
41
1
10
102.065425347206
20
-6.23867702550695
30
0
41
1
10
101.762053080927
20
-6.16738103484147
30
0
41
1
10
100.854838415389
20
-5.94118013339204
30
0
41
1
10
100.252624956568
20
-5.77367749019814
30
0
41
1
10
99.5523151024068
20
-5.56052534660466
30
0
41
1
10
99.4526563725876
20
-5.529760266442
30
0
41
1
10
99.3530349501224
20
-5.49858265825108
30
0
0
SPLINE
5
E4
100
AcDbEntity
8
1
62
256
6
ByLayer
370
13
48
1
60
0
100
AcDbSpline
70
4
71
3
72
24
73
20
40
0
40
0
40
0
40
0
40
0.202965961710125
40
0.202965961710125
40
0.424302775697382
40
0.424302775697382
40
0.479636979194197
40
0.479636979194197
40
0.534971182691011
40
0.534971182691011
40
0.645639589684639
40
0.645639589684639
40
0.756307996678269
40
0.756307996678269
40
0.811642200175084
40
0.811642200175084
40
0.866976403671901
40
0.866976403671901
40
1
40
1
40
1
40
1
41
1
10
99.3530349501194
20
-5.49858265825011
30
0
41
1
10
98.2523915225437
20
-5.15412432093967
30
0
41
1
10
97.1563019820731
20
-4.75931113753626
30
0
41
1
10
94.8616287000531
20
-3.84800230174042
30
0
41
1
10
93.6629596388407
20
-3.32346725557551
30
0
41
1
10
92.1522342087764
20
-2.62257757002411
30
0
41
1
10
91.849181835261
20
-2.47999034185654
30
0
41
1
10
91.2429479006882
20
-2.19152042775397
30
0
41
1
10
90.9401571577546
20
-2.04581726422077
30
0
41
1
10
90.0324423616364
20
-1.60492561652646
30
0
41
1
10
89.4281569696303
20
-1.30599671510592
30
0
41
1
10
88.2190061943569
20
-0.702632832857205
30
0
41
1
10
87.6143604423019
20
-0.397781460922488
30
0
41
1
10
86.7054660084775
20
0.0606669235993422
30
0
41
1
10
86.4019580691068
20
0.2137712304513
30
0
41
1
10
85.7968968595313
20
0.518463670310808
30
0
41
1
10
85.4950233328097
20
0.670214942449888
30
0
41
1
10
84.4692686843853
20
1.18395365097229
30
0
41
1
10
83.7478665698759
20
1.54180421628544
30
0
41
1
10
83.0276877643786
20
1.89125581439799
30
0
0
SPLINE
5
E5
100
AcDbEntity
8
1
62
256
6
ByLayer
370
18
48
1
60
0
100
AcDbSpline
70
4
71
3
72
16
73
12
40
0
40
0
40
0
40
0
40
0.224171189329266
40
0.224171189329266
40
0.339483554770315
40
0.339483554770315
40
0.454795920211361
40
0.454795920211361
40
0.685420651093452
40
0.685420651093452
40
1
40
1
40
1
40
1
41
1
10
21.8436255969668
20
-6.94872768383274
30
0
41
1
10
21.2553589929782
20
-6.95565677831783
30
0
41
1
10
20.6668447555986
20
-6.94383117157508
30
0
41
1
10
19.7737578504575
20
-6.89732230106313
30
0
41
1
10
19.4699469442248
20
-6.87651116709199
30
0
41
1
10
18.8643737199821
20
-6.82523865517842
30
0
41
1
10
18.5622577420563
20
-6.7947613935938
30
0
41
1
10
17.6575439415677
20
-6.68910791356041
30
0
41
1
10
17.056603379288
20
-6.59977251978279
30
0
41
1
10
15.6385263568899
20
-6.34600982424402
30
0
41
1
10
14.8224915283365
20
-6.16595630534798
30
0
41
1
10
14.006080637244
20
-5.95491595023017
30
0
0
SPLINE
5
E6
100
AcDbEntity
8
1
62
256
6
ByLayer
370
13
48
1
60
0
100
AcDbSpline
70
4
71
3
72
8
73
4
40
0
40
0
40
0
40
0
40
1
40
1
40
1
40
1
41
1
10
14.006079674169
20
-5.95491570127746
30
0
41
1
10
12.4283789683002
20
-5.54708361672886
30
0
41
1
10
10.8492738557146
20
-5.02353141035789
30
0
41
1
10
9.25026886302888
20
-4.40336346326217
30
0
0
SPLINE
5
E7
100
AcDbEntity
8
1
62
256
6
ByLayer
370
18
48
1
60
0
100
AcDbSpline
70
4
71
3
72
18
73
14
40
0
40
0
40
0
40
0
40
0.250000000000008
40
0.250000000000008
40
0.500000000000016
40
0.500000000000016
40
0.750000000000024
40
0.750000000000024
40
0.81250000000002
40
0.81250000000002
40
0.875000000000017
40
0.875000000000017
40
1
40
1
40
1
40
1
41
1
10
240.683441810055
20
7.21139340878082
30
0
41
1
10
240.835046557873
20
6.77363627153466
30
0
41
1
10
240.989458292704
20
6.33595819186934
30
0
41
1
10
241.302660485063
20
5.46072535737852
30
0
41
1
10
241.461476184339
20
5.02317131347598
30
0
41
1
10
241.782635115274
20
4.14816257710191
30
0
41
1
10
241.944911554839
20
3.71091316079395
30
0
41
1
10
242.149144311189
20
3.16569819860138
30
0
41
1
10
242.190066472563
20
3.05670538169321
30
0
41
1
10
242.272053887815
20
2.83881470532285
30
0
41
1
10
242.313153595426
20
2.72993970966073
30
0
41
1
10
242.436156205057
20
2.4031179539034
30
0
41
1
10
242.517768947272
20
2.18497864120693
30
0
41
1
10
242.598905721295
20
1.96652347182851
30
0
0
SPLINE
5
E8
100
AcDbEntity
8
1
62
256
6
ByLayer
370
18
48
1
60
0
100
AcDbSpline
70
4
71
3
72
12
73
8
40
0
40
0
40
0
40
0
40
0.500000000000033
40
0.500000000000033
40
0.750000000000016
40
0.750000000000016
40
1
40
1
40
1
40
1
41
1
10
240.091366465825
20
1.99374594016607
30
0
41
1
10
240.50973953016
20
1.98595040361522
30
0
41
1
10
240.9280365949
20
1.97879336671326
30
0
41
1
10
241.555037985377
20
1.9717897494196
30
0
41
1
10
241.763945833455
20
1.97029802260053
30
0
41
1
10
242.181566536347
20
1.96786009980289
30
0
41
1
10
242.39029805562
20
1.96694952892227
30
0
41
1
10
242.598905721295
20
1.96652347182862
30
0
0
SPLINE
5
E9
100
AcDbEntity
8
1
62
256
6
ByLayer
370
18
48
1
60
0
100
AcDbSpline
70
4
71
3
72
44
73
40
40
0
40
0
40
0
40
0
40
0.125000000000005
40
0.125000000000005
40
0.250000000000011
40
0.250000000000011
40
0.312500000000007
40
0.312500000000007
40
0.375000000000004
40
0.375000000000004
40
0.499999999999998
40
0.499999999999998
40
0.624999999999992
40
0.624999999999992
40
0.687499999999983
40
0.687499999999983
40
0.749999999999974
40
0.749999999999974
40
0.781249999999969
40
0.781249999999969
40
0.789062499999971
40
0.789062499999971
40
0.796874999999973
40
0.796874999999973
40
0.804687499999974
40
0.804687499999974
40
0.808593749999972
40
0.808593749999972
40
0.810546874999972
40
0.810546874999972
40
0.812499999999972
40
0.812499999999972
40
0.820312499999973
40
0.820312499999973
40
0.828124999999974
40
0.843749999999976
40
0.874999999999981
40
0.874999999999981
40
1
40
1
40
1
40
1
41
1
10
232.832002418934
20
1.91168813351834
30
0
41
1
10
233.175784977314
20
1.65254544453583
30
0
41
1
10
233.526499727378
20
1.41108592488854
30
0
41
1
10
234.243034631208
20
0.966698914677295
30
0
41
1
10
234.608751844129
20
0.763508834664009
30
0
41
1
10
235.168798932623
20
0.487985512854323
30
0
41
1
10
235.357918797295
20
0.400821431242576
30
0
41
1
10
235.737147179556
20
0.237976670778835
30
0
41
1
10
235.927191230205
20
0.162263235655757
30
0
41
1
10
236.498654650875
20
-0.0471965491411481
30
0
41
1
10
236.881472992251
20
-0.162363222613436
30
0
41
1
10
237.650863209498
20
-0.342846045235689
30
0
41
1
10
238.037429521524
20
-0.408236087555764
30
0
41
1
10
238.620483437498
20
-0.463763020862956
30
0
41
1
10
238.815690293987
20
-0.475157960199823
30
0
41
1
10
239.203530153575
20
-0.481215102415689
30
0
41
1
10
239.396672804557
20
-0.476168941309538
30
0
41
1
10
239.684704737805
20
-0.456106464286876
30
0
41
1
10
239.780415998405
20
-0.447320920503955
30
0
41
1
10
239.899454416662
20
-0.433659369524349
30
0
41
1
10
239.923231918837
20
-0.430793176205043
30
0
41
1
10
239.970726143554
20
-0.424791174949405
30
0
41
1
10
239.994663192932
20
-0.42263272295321
30
0
41
1
10
240.040081891656
20
-0.407423819396342
30
0
41
1
10
240.062680840526
20
-0.394820389359836
30
0
41
1
10
240.087288194356
20
-0.364151123755136
30
0
41
1
10
240.093720486598
20
-0.352089099201749
30
0
41
1
10
240.099327955856
20
-0.331341741316066
30
0
41
1
10
240.100468133862
20
-0.324156853436307
30
0
41
1
10
240.101288581483
20
-0.309248153424022
30
0
41
1
10
240.100769755979
20
-0.301557162964116
30
0
41
1
10
240.098396270459
20
-0.263461001335941
30
0
41
1
10
240.096045406652
20
-0.232955331586567
30
0
41
1
10
240.091923859049
20
-0.171980876716106
30
0
41
1
10
240.085785220527
20
-0.0805219860774855
30
0
41
1
10
240.071758163326
20
0.132862573628842
30
0
41
1
10
240.060212126143
20
0.315734534490389
30
0
41
1
10
240.022667114127
20
0.925235898311314
30
0
41
1
10
239.995595585309
20
1.4126047034477
30
0
41
1
10
239.970424413935
20
1.89982460349464
30
0
0
SPLINE
5
EA
100
AcDbEntity
8
1
62
256
6
ByLayer
370
13
48
1
60
0
100
AcDbSpline
70
4
71
3
72
10
73
6
40
0
40
0
40
0
40
0
40
0.0589269031698162
40
0.0589269031698162
40
1
40
1
40
1
40
1
41
1
10
9.13277274816539
20
-4.70718538735483
30
0
41
1
10
9.1328460638764
20
-4.70348691142806
30
0
41
1
10
9.13291943753754
20
-4.69978838745501
30
0
41
1
10
9.13416558518372
20
-4.63702296301889
30
0
41
1
10
9.1353530874029
20
-4.57794381461969
30
0
41
1
10
9.13655540673852
20
-4.51885169518374
30
0
0
SPLINE
5
EB
100
AcDbEntity
8
1
62
256
6
ByLayer
370
18
48
1
60
0
100
AcDbSpline
70
4
71
3
72
20
73
16
40
0
40
0
40
0
40
0
40
0.125
40
0.125
40
0.25
40
0.25
40
0.375
40
0.375
40
0.5
40
0.5
40
0.625
40
0.625
40
0.75
40
0.75
40
1
40
1
40
1
40
1
41
1
10
9.25101077859654
20
5.34311053678533
30
0
41
1
10
9.23677209170484
20
5.35255865236431
30
0
41
1
10
9.22186757388462
20
5.3622969003315
30
0
41
1
10
9.19001562690804
20
5.38263607126049
30
0
41
1
10
9.17305851783189
20
5.39323819257095
30
0
41
1
10
9.13802295012169
20
5.41442736741979
30
0
41
1
10
9.1198629074548
20
5.42503704769013
30
0
41
1
10
9.08659559837949
20
5.44357474956342
30
0
41
1
10
9.07168748784784
20
5.4513975209766
30
0
41
1
10
9.04738405049983
20
5.46338266009414
30
0
41
1
10
9.03764069752322
20
5.46774234178014
30
0
41
1
10
9.02231122602169
20
5.47395002158302
30
0
41
1
10
9.01648769363729
20
5.47589913364726
30
0
41
1
10
9.003337705972
20
5.47925007786128
30
0
41
1
10
9.00000029016115
20
5.47834229683258
30
0
41
1
10
9.0000002901605
20
5.47556492129007
30
0
0
SPLINE
5
EC
100
AcDbEntity
8
1
62
256
6
ByLayer
370
18
48
1
60
0
100
AcDbSpline
70
4
71
3
72
106
73
102
40
0
40
0
40
0
40
0
40
0.00557891335029
40
0.00557891335029
40
0.0362330786928573
40
0.0362330786928573
40
0.0668872440354246
40
0.0668872440354246
40
0.0822143267067086
40
0.0822143267067086
40
0.0975414093779925
40
0.0975414093779925
40
0.112868492049276
40
0.112868492049276
40
0.128195574720561
40
0.128195574720561
40
0.158849740063129
40
0.158849740063129
40
0.174176822734414
40
0.174176822734414
40
0.189503905405698
40
0.189503905405698
40
0.204830988076983
40
0.204830988076983
40
0.220158070748267
40
0.220158070748267
40
0.250812236090836
40
0.250812236090836
40
0.26613931876212
40
0.26613931876212
40
0.281466401433405
40
0.281466401433405
40
0.296793484104689
40
0.296793484104689
40
0.312120566775973
40
0.312120566775973
40
0.342774732118542
40
0.342774732118542
40
0.358101814789826
40
0.358101814789826
40
0.373428897461111
40
0.373428897461111
40
0.388755980132395
40
0.388755980132395
40
0.404083062803679
40
0.404083062803679
40
0.419410145474963
40
0.419410145474963
40
0.434737228146247
40
0.434737228146247
40
0.450064310817532
40
0.450064310817532
40
0.465391393488816
40
0.465391393488816
40
0.496045558831385
40
0.496045558831385
40
0.526699724173954
40
0.526699724173954
40
0.557353889516523
40
0.557353889516523
40
0.588008054859092
40
0.588008054859092
40
0.618662220201661
40
0.618662220201661
40
0.64931638554423
40
0.64931638554423
40
0.664643468215515
40
0.664643468215515
40
0.679970550886799
40
0.679970550886799
40
0.695297633558083
40
0.695297633558083
40
0.710624716229367
40
0.710624716229367
40
0.741278881571934
40
0.741278881571934
40
0.756605964243218
40
0.756605964243218
40
0.771933046914502
40
0.771933046914502
40
0.802587212257069
40
0.802587212257069
40
0.833241377599636
40
0.833241377599636
40
0.863895542942204
40
0.863895542942204
40
0.879222625613487
40
0.879222625613487
40
0.894549708284771
40
0.894549708284771
40
0.925203873627339
40
0.925203873627339
40
0.940530956298623
40
0.940530956298623
40
0.955858038969908
40
0.955858038969908
40
0.971185121641192
40
0.971185121641192
40
0.986512204312476
40
0.986512204312476
40
1
40
1
40
1
40
1
41
1
10
40.7833528631813
20
6.96473423269228
30
0
41
1
10
40.8838410314549
20
6.96424277591089
30
0
41
1
10
40.9843486780037
20
6.96316466932626
30
0
41
1
10
41.6372237031718
20
6.95221808495336
30
0
41
1
10
42.190245519618
20
6.92587314754718
30
0
41
1
10
43.2946096682535
20
6.84328923059206
30
0
41
1
10
43.8460935069716
20
6.78451291340323
30
0
41
1
10
44.672685619965
20
6.67256563863285
30
0
41
1
10
44.948179204721
20
6.63142133106928
30
0
41
1
10
45.4997844868985
20
6.54197160923971
30
0
41
1
10
45.7757750457098
20
6.49344648266504
30
0
41
1
10
46.3280736993206
20
6.38799137516281
30
0
41
1
10
46.6043891399734
20
6.33117213560945
30
0
41
1
10
47.1573802688479
20
6.21002616235464
30
0
41
1
10
47.4334577905851
20
6.14593465125969
30
0
41
1
10
48.2617266634731
20
5.94360458310209
30
0
41
1
10
48.8133124174173
20
5.7931774393152
30
0
41
1
10
49.6400469526479
20
5.54824702335301
30
0
41
1
10
49.9154339726618
20
5.46332693231037
30
0
41
1
10
50.4667585662463
20
5.28721805161876
30
0
41
1
10
50.7426432516754
20
5.19591595215178
30
0
41
1
10
51.2947894862975
20
5.00705169199063
30
0
41
1
10
51.571041978918
20
4.90947952408368
30
0
41
1
10
52.1239160035045
20
4.70840946578872
30
0
41
1
10
52.4002719549219
20
4.60497328835538
30
0
41
1
10
53.2283081293685
20
4.28706986479128
30
0
41
1
10
53.7800301905372
20
4.0649103685025
30
0
41
1
10
54.6068800123172
20
3.71814278996089
30
0
41
1
10
54.8823806508924
20
3.60040355504555
30
0
41
1
10
55.4333387706973
20
3.36006915342816
30
0
41
1
10
55.7090550051596
20
3.23778538235459
30
0
41
1
10
56.2609602670902
20
2.98944479543911
30
0
41
1
10
56.537135497717
20
2.8634535423256
30
0
41
1
10
57.0898329193296
20
2.60812427989853
30
0
41
1
10
57.366410327311
20
2.47862262654698
30
0
41
1
10
58.194446752034
20
2.08558644164484
30
0
41
1
10
58.7459519501182
20
1.81911111357576
30
0
41
1
10
59.5728702901368
20
1.41430266515306
30
0
41
1
10
59.848391791913
20
1.2783643130432
30
0
41
1
10
60.3992945757242
20
1.00438775442336
30
0
41
1
10
60.6747237429578
20
0.866455593251743
30
0
41
1
10
61.226324840538
20
0.590497021117386
30
0
41
1
10
61.5023762417558
20
0.452240561358963
30
0
41
1
10
62.0548521226771
20
0.175023550666424
30
0
41
1
10
62.3314712533154
20
0.0359324463728683
30
0
41
1
10
62.8835703723051
20
-0.242346231725463
30
0
41
1
10
63.1591749659664
20
-0.38160055788299
30
0
41
1
10
63.7105783865019
20
-0.658386982861117
30
0
41
1
10
63.9862558391429
20
-0.79617047968776
30
0
41
1
10
64.5374407330675
20
-1.07070769457724
30
0
41
1
10
64.8129277256494
20
-1.20747563640597
30
0
41
1
10
65.3637526693874
20
-1.4798240796452
30
0
41
1
10
65.6390040872419
20
-1.61557910508679
30
0
41
1
10
66.4657305332375
20
-2.01883385711432
30
0
41
1
10
67.0184981231819
20
-2.28327610638024
30
0
41
1
10
68.1232101163068
20
-2.80147976667598
30
0
41
1
10
68.6740495203697
20
-3.05434462629575
30
0
41
1
10
69.7765087344592
20
-3.54416155634465
30
0
41
1
10
70.32721725529
20
-3.78027947480786
30
0
41
1
10
71.4288228516374
20
-4.23607127206887
30
0
41
1
10
71.9810803243778
20
-4.45448029032352
30
0
41
1
10
73.0863085519973
20
-4.86844361617653
30
0
41
1
10
73.6371908877488
20
-5.0645698053211
30
0
41
1
10
74.739579793082
20
-5.43178724457451
30
0
41
1
10
75.290511603996
20
-5.60161125987139
30
0
41
1
10
76.1168242718917
20
-5.83790622460651
30
0
41
1
10
76.3922844619246
20
-5.91387658506633
30
0
41
1
10
76.9439961678542
20
-6.05847481449501
30
0
41
1
10
77.2201531856344
20
-6.12634704616343
30
0
41
1
10
77.7730081326882
20
-6.25512659622203
30
0
41
1
10
78.0491472763776
20
-6.31585010870731
30
0
41
1
10
78.6007885105851
20
-6.43029382900392
30
0
41
1
10
78.8762475645493
20
-6.48397975048741
30
0
41
1
10
79.7029336701391
20
-6.63237300520203
30
0
41
1
10
80.2539961360234
20
-6.71477144755951
30
0
41
1
10
81.0804457887749
20
-6.815578676846
30
0
41
1
10
81.3558268990729
20
-6.84550281982004
30
0
41
1
10
81.9072883644654
20
-6.89679801656536
30
0
41
1
10
82.1833627760758
20
-6.91810930793187
30
0
41
1
10
83.0124563059499
20
-6.96965457692369
30
0
41
1
10
83.5645463889979
20
-6.9880217749967
30
0
41
1
10
84.6664916071518
20
-6.99254171324696
30
0
41
1
10
85.2176333637857
20
-6.97674334503299
30
0
41
1
10
86.3197150777578
20
-6.91414050510755
30
0
41
1
10
86.8705023982268
20
-6.86628092615209
30
0
41
1
10
87.6992848844707
20
-6.76959678395673
30
0
41
1
10
87.9758556489112
20
-6.7332554745503
30
0
41
1
10
88.5279965476171
20
-6.65307240110465
30
0
41
1
10
88.803786041997
20
-6.60944734971153
30
0
41
1
10
89.6303092995912
20
-6.46531284619925
30
0
41
1
10
90.1811460282732
20
-6.35270710465346
30
0
41
1
10
91.007798154122
20
-6.1640937183538
30
0
41
1
10
91.2833422152755
20
-6.09784276510823
30
0
41
1
10
91.8345104035002
20
-5.95711730088121
30
0
41
1
10
92.1101514387851
20
-5.88258949240728
30
0
41
1
10
92.6624047941052
20
-5.72702181138968
30
0
41
1
10
92.9390203639529
20
-5.64585767577472
30
0
41
1
10
93.4913754293648
20
-5.47736883291245
30
0
41
1
10
93.7672725846225
20
-5.39003130116271
30
0
41
1
10
94.2854394531961
20
-5.21955613728284
30
0
41
1
10
94.5277132759022
20
-5.13700357258691
30
0
41
1
10
94.7700751121897
20
-5.0523208983559
30
0
0
SPLINE
5
ED
100
AcDbEntity
8
1
62
256
6
ByLayer
370
18
48
1
60
0
100
AcDbSpline
70
4
71
3
72
108
73
104
40
0
40
0
40
0
40
0
40
0.0005509208336298
40
0.0005509208336298
40
0.0158545408655301
40
0.0158545408655301
40
0.0464617809293312
40
0.0464617809293312
40
0.0770690209931323
40
0.0770690209931323
40
0.0923726410250335
40
0.0923726410250335
40
0.107676261056935
40
0.107676261056935
40
0.138283501120737
40
0.138283501120737
40
0.168890741184539
40
0.168890741184539
40
0.199497981248341
40
0.199497981248341
40
0.214801601280243
40
0.214801601280243
40
0.230105221312144
40
0.230105221312144
40
0.245408841344045
40
0.245408841344045
40
0.260712461375946
40
0.260712461375946
40
0.291319701439747
40
0.291319701439747
40
0.321926941503548
40
0.321926941503548
40
0.337230561535448
40
0.337230561535448
40
0.352534181567348
40
0.352534181567348
40
0.383141421631148
40
0.383141421631148
40
0.398445041663048
40
0.398445041663048
40
0.413748661694948
40
0.413748661694948
40
0.444355901758746
40
0.444355901758746
40
0.459659521790646
40
0.459659521790646
40
0.474963141822546
40
0.474963141822546
40
0.490266761854446
40
0.490266761854446
40
0.505570381886346
40
0.505570381886346
40
0.536177621950144
40
0.536177621950144
40
0.551481241982043
40
0.551481241982043
40
0.566784862013941
40
0.566784862013941
40
0.582088482045839
40
0.582088482045839
40
0.597392102077738
40
0.597392102077738
40
0.627999342141535
40
0.627999342141535
40
0.643302962173434
40
0.643302962173434
40
0.658606582205333
40
0.658606582205333
40
0.673910202237231
40
0.673910202237231
40
0.68921382226913
40
0.68921382226913
40
0.719821062332927
40
0.719821062332927
40
0.735124682364827
40
0.735124682364827
40
0.750428302396726
40
0.750428302396726
40
0.781035542460525
40
0.781035542460525
40
0.796339162492424
40
0.796339162492424
40
0.811642782524324
40
0.811642782524324
40
0.842250022588123
40
0.842250022588123
40
0.872857262651923
40
0.872857262651923
40
0.888160882683823
40
0.888160882683823
40
0.903464502715723
40
0.903464502715723
40
0.918768122747623
40
0.918768122747623
40
0.934071742779523
40
0.934071742779523
40
0.964678982843322
40
0.964678982843322
40
0.979982602875222
40
0.979982602875222
40
0.995286222907122
40
0.995286222907122
40
1
40
1
40
1
40
1
41
1
10
127.910663709128
20
7.01659500547248
30
0
41
1
10
127.920593714469
20
7.01653339813569
30
0
41
1
10
127.930523925881
20
7.01646601083797
30
0
41
1
10
128.216304066877
20
7.01435996049207
30
0
41
1
10
128.492418173155
20
7.0079725832752
30
0
41
1
10
129.31983115288
20
6.97667515518512
30
0
41
1
10
129.871187702295
20
6.94040501815039
30
0
41
1
10
130.972359592149
20
6.83374872778043
30
0
41
1
10
131.522205743413
20
6.76352800162044
30
0
41
1
10
132.348734857951
20
6.63637138848213
30
0
41
1
10
132.624410212468
20
6.58981677685185
30
0
41
1
10
133.176088223365
20
6.48807701979615
30
0
41
1
10
133.452288003288
20
6.43289975535401
30
0
41
1
10
134.279919312739
20
6.25674360953772
30
0
41
1
10
134.831235275252
20
6.12632412811439
30
0
41
1
10
135.932743549783
20
5.83414696127153
30
0
41
1
10
136.48259734065
20
5.6732266224551
30
0
41
1
10
137.584418745866
20
5.32784274447718
30
0
41
1
10
138.136438596431
20
5.14156472500829
30
0
41
1
10
138.964523957635
20
4.84354295113363
30
0
41
1
10
139.24015781849
20
4.74150818510662
30
0
41
1
10
139.791424397677
20
4.53225996812063
30
0
41
1
10
140.066939989389
20
4.42482040600868
30
0
41
1
10
140.617746907844
20
4.20465786856326
30
0
41
1
10
140.893031934269
20
4.09195953349069
30
0
41
1
10
141.443453519922
20
3.86208564199436
30
0
41
1
10
141.718488804758
20
3.74473606380343
30
0
41
1
10
142.544439515371
20
3.38652778342325
30
0
41
1
10
143.096080191304
20
3.13911870710126
30
0
41
1
10
144.200720870113
20
2.62877916916886
30
0
41
1
10
144.751489450794
20
2.36684206637287
30
0
41
1
10
145.577778795449
20
1.96785382613581
30
0
41
1
10
145.853123078263
20
1.83368993357703
30
0
41
1
10
146.403640513067
20
1.56321195152546
30
0
41
1
10
146.678798507809
20
1.42685925241074
30
0
41
1
10
147.504262778058
20
1.01450271013528
30
0
41
1
10
148.055676914761
20
0.737335790535695
30
0
41
1
10
148.884054740958
20
0.318703198924141
30
0
41
1
10
149.160067098774
20
0.178749375779745
30
0
41
1
10
149.711130096619
20
-0.10133078626194
30
0
41
1
10
149.986444541704
20
-0.241246230339868
30
0
41
1
10
150.812548311232
20
-0.659143731690051
30
0
41
1
10
151.36306834365
20
-0.936231629911077
30
0
41
1
10
152.188476329496
20
-1.3494528169407
30
0
41
1
10
152.463593539947
20
-1.48666820232538
30
0
41
1
10
153.014633828194
20
-1.75850374336113
30
0
41
1
10
153.29043374722
20
-1.89337316452043
30
0
41
1
10
153.842480839373
20
-2.16128166111821
30
0
41
1
10
154.118657575745
20
-2.29430709142619
30
0
41
1
10
154.669833644452
20
-2.55719850143251
30
0
41
1
10
154.944982890209
20
-2.68728371710611
30
0
41
1
10
155.770764927516
20
-3.07116477553331
30
0
41
1
10
156.321262005297
20
-3.32002096592132
30
0
41
1
10
157.146569454967
20
-3.68147763571324
30
0
41
1
10
157.42154432463
20
-3.80013604441152
30
0
41
1
10
157.972145406512
20
-4.03249348892106
30
0
41
1
10
158.247776018304
20
-4.14621652871537
30
0
41
1
10
158.799540079762
20
-4.36912664222285
30
0
41
1
10
159.075779110958
20
-4.47829292287671
30
0
41
1
10
159.627124279518
20
-4.6907511598871
30
0
41
1
10
159.902396452812
20
-4.79422262645153
30
0
41
1
10
160.727770069941
20
-5.09605200744284
30
0
41
1
10
161.278272238579
20
-5.28567862611357
30
0
41
1
10
162.103513943164
20
-5.54969614885169
30
0
41
1
10
162.378551963847
20
-5.63435615529914
30
0
41
1
10
162.928770400211
20
-5.79768817812433
30
0
41
1
10
163.204153850225
20
-5.8762442166273
30
0
41
1
10
163.755597878008
20
-6.02612963425202
30
0
41
1
10
164.031819811065
20
-6.09742271630134
30
0
41
1
10
164.583367391849
20
-6.23241446156004
30
0
41
1
10
164.858793172678
20
-6.29615244301689
30
0
41
1
10
165.684330817412
20
-6.47671802194435
30
0
41
1
10
166.234494366453
20
-6.58291411747908
30
0
41
1
10
167.059814878958
20
-6.71633623015032
30
0
41
1
10
167.334901589977
20
-6.75687462570232
30
0
41
1
10
167.885134062046
20
-6.83072668434949
30
0
41
1
10
168.160262789608
20
-6.86404689693995
30
0
41
1
10
168.986988006147
20
-6.95147102725602
30
0
41
1
10
169.539556069639
20
-6.99120632199828
30
0
41
1
10
170.365480270039
20
-7.02801713674614
30
0
41
1
10
170.640438025126
20
-7.03640433121205
30
0
41
1
10
171.190593188948
20
-7.04437191522379
30
0
41
1
10
171.465703255394
20
-7.04401224592033
30
0
41
1
10
172.291070539292
20
-7.03032034087772
30
0
41
1
10
172.841036366644
20
-7.00487433450795
30
0
41
1
10
173.942656575443
20
-6.92107035970506
30
0
41
1
10
174.495421377785
20
-6.86154812706573
30
0
41
1
10
175.32178413046
20
-6.75049621005266
30
0
41
1
10
175.596987414075
20
-6.71033556206712
30
0
41
1
10
176.146925607939
20
-6.61995444935457
30
0
41
1
10
176.421966369424
20
-6.57029545499543
30
0
41
1
10
176.972174495488
20
-6.46402998362515
30
0
41
1
10
177.247320708415
20
-6.40698897673403
30
0
41
1
10
177.797660961947
20
-6.28592406893529
30
0
41
1
10
178.072843041058
20
-6.22215969092815
30
0
41
1
10
178.898710057825
20
-6.01732829060117
30
0
41
1
10
179.451326081368
20
-5.8651133712051
30
0
41
1
10
180.278075371732
20
-5.6191818474652
30
0
41
1
10
180.553392343929
20
-5.5340433643791
30
0
41
1
10
181.103525604239
20
-5.3564170453715
30
0
41
1
10
181.378412364194
20
-5.26405836580844
30
0
41
1
10
181.738236071405
20
-5.13978374088921
30
0
41
1
10
181.822974904006
20
-5.11026630765966
30
0
41
1
10
181.907719602985
20
-5.08048808316121
30
0
0
SPLINE
5
EE
100
AcDbEntity
8
1
62
256
6
ByLayer
370
18
48
1
60
0
100
AcDbSpline
70
4
71
3
72
36
73
32
40
0
40
0
40
0
40
0
40
0.0301104859771154
40
0.0301104859771154
40
0.0762957009305898
40
0.0762957009305898
40
0.168666130837531
40
0.168666130837531
40
0.261036560744472
40
0.261036560744472
40
0.353406990651413
40
0.353406990651413
40
0.445777420558353
40
0.445777420558353
40
0.538147850465294
40
0.538147850465294
40
0.584333065418764
40
0.584333065418764
40
0.630518280372235
40
0.630518280372235
40
0.722888710279176
40
0.722888710279176
40
0.769073925232646
40
0.769073925232646
40
0.815259140186117
40
0.815259140186117
40
0.861444355139587
40
0.861444355139587
40
0.907629570093058
40
0.907629570093058
40
1
40
1
40
1
40
1
41
1
10
214.970339771185
20
7.07000489904016
30
0
41
1
10
215.14984744031
20
7.0693090049574
30
0
41
1
10
215.329237363899
20
7.06677274630513
30
0
41
1
10
215.783726557707
20
7.05587252712655
30
0
41
1
10
216.058765566532
20
7.04514074962216
30
0
41
1
10
216.883516456224
20
7.00038643697306
30
0
41
1
10
217.43251407475
20
6.95309807143462
30
0
41
1
10
218.53124234944
20
6.82705824399449
30
0
41
1
10
219.081622378255
20
6.74964849112942
30
0
41
1
10
220.183739575901
20
6.56006860911498
30
0
41
1
10
220.733789343756
20
6.44863657632914
30
0
41
1
10
221.83350778394
20
6.19868226561351
30
0
41
1
10
222.382866797506
20
6.05842663844561
30
0
41
1
10
223.481248868842
20
5.74932827698171
30
0
41
1
10
224.031279604114
20
5.58218493438415
30
0
41
1
10
224.857763738306
20
5.31024343994045
30
0
41
1
10
225.133417712482
20
5.21596242041653
30
0
41
1
10
225.68367985059
20
5.02180390558627
30
0
41
1
10
225.958545932155
20
4.92196524583508
30
0
41
1
10
226.783304004728
20
4.61461135696936
30
0
41
1
10
227.332826277038
20
4.39828203309753
30
0
41
1
10
228.156771287906
20
4.05832155166871
30
0
41
1
10
228.431331215042
20
3.94236700611694
30
0
41
1
10
228.981228577938
20
3.70656402259669
30
0
41
1
10
229.256449672252
20
3.58646885209802
30
0
41
1
10
229.807383717832
20
3.34171402708958
30
0
41
1
10
230.083170714416
20
3.21703047788503
30
0
41
1
10
230.633684544628
20
2.96418001709131
30
0
41
1
10
230.908518334113
20
2.83579989151684
30
0
41
1
10
231.733077890539
20
2.4468860438717
30
0
41
1
10
232.28263027237
20
2.18181704868556
30
0
41
1
10
232.832002418934
20
1.91168813351837
30
0
0
SPLINE
5
EF
100
AcDbEntity
8
1
62
256
6
ByLayer
370
18
48
1
60
0
100
AcDbSpline
70
4
71
3
72
8
73
4
40
0
40
0
40
0
40
0
40
1
40
1
40
1
40
1
41
1
10
240.398597647582
20
-7.08565713554927
30
0
41
1
10
240.436791615414
20
-7.09144385366031
30
0
41
1
10
240.480354977094
20
-7.08185508094462
30
0
41
1
10
240.529175511621
20
-7.05721216706641
30
0
0
SPLINE
5
F0
100
AcDbEntity
8
1
62
256
6
ByLayer
370
18
48
1
60
0
100
AcDbSpline
70
4
71
3
72
14
73
10
40
0
40
0
40
0
40
0
40
0.0623624182897229
40
0.0623624182897229
40
0.298543137975699
40
0.298543137975699
40
0.770904577347652
40
0.770904577347652
40
1
40
1
40
1
40
1
41
1
10
239.194234644236
20
-7.08666192196762
30
0
41
1
10
239.034520280964
20
-7.08623735523099
30
0
41
1
10
238.874818419695
20
-7.0843986883346
30
0
41
1
10
238.11091064163
20
-7.06884474451863
30
0
41
1
10
237.509743564858
20
-7.03639353481495
30
0
41
1
10
235.712557387039
20
-6.88103191161167
30
0
41
1
10
234.522860878858
20
-6.69994849232529
30
0
41
1
10
232.756440358388
20
-6.32543456013943
30
0
41
1
10
232.179602028187
20
-6.18637476791443
30
0
41
1
10
231.601930255458
20
-6.03140845683694
30
0
0
SPLINE
5
F1
100
AcDbEntity
8
1
62
256
6
ByLayer
370
13
48
1
60
0
100
AcDbSpline
70
4
71
3
72
28
73
24
40
0
40
0
40
0
40
0
40
0.103956431484208
40
0.103956431484208
40
0.204885004442536
40
0.204885004442536
40
0.255349290921699
40
0.255349290921699
40
0.305813577400863
40
0.305813577400863
40
0.507670723317532
40
0.507670723317532
40
0.608599296275864
40
0.608599296275864
40
0.709527869234194
40
0.709527869234194
40
0.810456442192525
40
0.810456442192525
40
0.860920728671691
40
0.860920728671691
40
0.911385015150856
40
0.911385015150856
40
1
40
1
40
1
40
1
41
1
10
231.601931221351
20
-6.03140871594752
30
0
41
1
10
230.98852750062
20
-5.86685696603135
30
0
41
1
10
230.374184043782
20
-5.68437003869994
30
0
41
1
10
229.159398118837
20
-5.29133897161839
30
0
41
1
10
228.55897942402
20
-5.08182784137907
30
0
41
1
10
227.653958475246
20
-4.74515774288724
30
0
41
1
10
227.351195420435
20
-4.62906914542609
30
0
41
1
10
226.746841219332
20
-4.39095734483303
30
0
41
1
10
226.445008792796
20
-4.26884257832285
30
0
41
1
10
224.93694201701
20
-3.64402515964798
30
0
41
1
10
223.733880122281
20
-3.0986471325844
30
0
41
1
10
221.921831656152
20
-2.23395077602581
30
0
41
1
10
221.316291882084
20
-1.93787979206255
30
0
41
1
10
220.108941988267
20
-1.33812568330754
30
0
41
1
10
219.506076639255
20
-1.03401756206415
30
0
41
1
10
218.299684295436
20
-0.421774353330306
30
0
41
1
10
217.696238988571
20
-0.113474591028762
30
0
41
1
10
216.789113573465
20
0.349131903187498
30
0
41
1
10
216.486468731352
20
0.503313602751774
30
0
41
1
10
215.883201176997
20
0.809744299792328
30
0
41
1
10
215.582215197313
20
0.962183894164809
30
0
41
1
10
214.754068086389
20
1.37932869190823
30
0
41
1
10
214.227982326433
20
1.64187680450104
30
0
41
1
10
213.702761728984
20
1.89988587242743
30
0
0
SPLINE
5
F2
100
AcDbEntity
8
1
62
256
6
ByLayer
370
18
48
1
60
0
100
AcDbSpline
70
4
71
3
72
18
73
14
40
0
40
0
40
0
40
0
40
0.194641500911066
40
0.194641500911066
40
0.588652559357944
40
0.588652559357944
40
0.687155323969663
40
0.687155323969663
40
0.785658088581383
40
0.785658088581383
40
0.982663617804829
40
0.982663617804829
40
1
40
1
40
1
40
1
41
1
10
152.103217465299
20
-7.03213710082264
30
0
41
1
10
151.506358120664
20
-7.03077062260977
30
0
41
1
10
150.908338635616
20
-7.00976206352837
30
0
41
1
10
149.099104554248
20
-6.88722656409297
30
0
41
1
10
147.893300448106
20
-6.72565649789945
30
0
41
1
10
146.382055743518
20
-6.43050253498768
30
0
41
1
10
146.079616022725
20
-6.36680052441503
30
0
41
1
10
145.474140726402
20
-6.23024543078196
30
0
41
1
10
145.171103364239
20
-6.15738164329056
30
0
41
1
10
144.264958367388
20
-5.92656940012034
30
0
41
1
10
143.663383709464
20
-5.7560594898747
30
0
41
1
10
143.01058802454
20
-5.55398091521096
30
0
41
1
10
142.957800066309
20
-5.53751926964603
30
0
41
1
10
142.905022837051
20
-5.52094149494118
30
0
0
SPLINE
5
F3
100
AcDbEntity
8
1
62
256
6
ByLayer
370
13
48
1
60
0
100
AcDbSpline
70
4
71
3
72
24
73
20
40
0
40
0
40
0
40
0
40
0.211130749297341
40
0.211130749297341
40
0.431978752030518
40
0.431978752030518
40
0.487190752713814
40
0.487190752713814
40
0.54240275339711
40
0.54240275339711
40
0.652826754763707
40
0.652826754763707
40
0.763250756130303
40
0.763250756130303
40
0.818462756813601
40
0.818462756813601
40
0.873674757496899
40
0.873674757496899
40
1
40
1
40
1
40
1
41
1
10
142.905022839986
20
-5.5209414958631
30
0
41
1
10
141.758310363442
20
-5.1607493950354
30
0
41
1
10
140.616662823919
20
-4.74573501185449
30
0
41
1
10
138.277092103106
20
-3.80576528491102
30
0
41
1
10
137.079025262425
20
-3.27661713663559
30
0
41
1
10
135.568881189436
20
-2.57035212360742
30
0
41
1
10
135.265857844143
20
-2.42669260841007
30
0
41
1
10
134.6602254082
20
-2.13641794946156
30
0
41
1
10
134.357710622742
20
-1.98986641560828
30
0
41
1
10
133.450774374383
20
-1.54654758332492
30
0
41
1
10
132.846970700974
20
-1.24609979796284
30
0
41
1
10
131.638696932388
20
-0.639917082604768
30
0
41
1
10
131.034370704091
20
-0.333901598305715
30
0
41
1
10
130.125878426355
20
0.126126088036898
30
0
41
1
10
129.822736811319
20
0.279580131186435
30
0
41
1
10
129.217545114892
20
0.58535826830726
30
0
41
1
10
128.915251392013
20
0.73781883776951
30
0
41
1
10
127.92182403338
20
1.23675553430491
30
0
41
1
10
127.231313352263
20
1.58010982124165
30
0
41
1
10
126.539998908494
20
1.91656003586368
30
0
0
SPLINE
5
F4
100
AcDbEntity
8
1
62
256
6
ByLayer
370
18
48
1
60
0
100
AcDbSpline
70
4
71
3
72
16
73
12
40
0
40
0
40
0
40
0
40
0.198369505015578
40
0.198369505015578
40
0.384104487552326
40
0.384104487552326
40
0.569839470089072
40
0.569839470089072
40
0.941309435162563
40
0.941309435162563
40
1
40
1
40
1
40
1
41
1
10
65.452944164966
20
-6.97520682121203
30
0
41
1
10
64.8135722325538
20
-6.98414513931397
30
0
41
1
10
64.1738512762329
20
-6.9708555657545
30
0
41
1
10
62.9320605711051
20
-6.90173198644874
30
0
41
1
10
62.3301306076343
20
-6.84871785937693
30
0
41
1
10
61.1215526044857
20
-6.70351375648485
30
0
41
1
10
60.5138591528671
20
-6.61104485947459
30
0
41
1
10
58.6969722445232
20
-6.27845696846146
30
0
41
1
10
57.4896060627521
20
-5.98314188606156
30
0
41
1
10
56.0858896002941
20
-5.56481463347592
30
0
41
1
10
55.8941561672898
20
-5.50606183438214
30
0
41
1
10
55.7024449779013
20
-5.44576110603296
30
0
0
SPLINE
5
F5
100
AcDbEntity
8
1
62
256
6
ByLayer
370
13
48
1
60
0
100
AcDbSpline
70
4
71
3
72
28
73
24
40
0
40
0
40
0
40
0
40
0.02048640651218
40
0.02048640651218
40
0.0761532371903181
40
0.0761532371903181
40
0.187486898546593
40
0.187486898546593
40
0.298820559902868
40
0.298820559902868
40
0.354487390581006
40
0.354487390581006
40
0.410154221259144
40
0.410154221259144
40
0.632821543971694
40
0.632821543971694
40
0.855488866684245
40
0.855488866684245
40
0.911155697362382
40
0.911155697362382
40
0.966822528040518
40
0.966822528040518
40
1
40
1
40
1
40
1
41
1
10
55.7024449781055
20
-5.44576110609722
30
0
41
1
10
55.59080694501
20
-5.41064654273515
30
0
41
1
10
55.479176454753
20
-5.37500707458105
30
0
41
1
10
55.0644173032879
20
-5.24066936780835
30
0
41
1
10
54.7615469082181
20
-5.13875193380323
30
0
41
1
10
53.8534857801131
20
-4.82238381173656
30
0
41
1
10
53.2488945383404
20
-4.59730349293156
30
0
41
1
10
52.0388925339451
20
-4.12217949666666
30
0
41
1
10
51.4336230488119
20
-3.87198642166243
30
0
41
1
10
50.5236682376006
20
-3.4803804223524
30
0
41
1
10
50.2203427703113
20
-3.34728478055376
30
0
41
1
10
49.6155299138111
20
-3.07736937348338
30
0
41
1
10
49.3137478890823
20
-2.94039439049143
30
0
41
1
10
47.8073325944519
20
-2.24667630620596
30
0
41
1
10
46.6100355725946
20
-1.66374412488631
30
0
41
1
10
44.2148329438592
20
-0.474443249403691
30
0
41
1
10
43.0171687431425
20
0.132331680258943
30
0
41
1
10
41.5097164476653
20
0.885239469188264
30
0
41
1
10
41.207704894886
20
1.0355361430955
30
0
41
1
10
40.6023859771672
20
1.33503552590244
30
0
41
1
10
40.2987199704497
20
1.48441959181548
30
0
41
1
10
39.8146914614576
20
1.72066900514048
30
0
41
1
10
39.6340538355278
20
1.80842055785226
30
0
41
1
10
39.4535019338303
20
1.89564417981305
30
0
0
SPLINE
5
F6
100
AcDbEntity
8
1
62
256
6
ByLayer
370
18
48
1
60
0
100
AcDbSpline
70
4
71
3
72
18
73
14
40
0
40
0
40
0
40
0
40
0.249999999999995
40
0.249999999999995
40
0.499999999999989
40
0.499999999999989
40
0.749999999999984
40
0.749999999999984
40
0.812499999999988
40
0.812499999999988
40
0.874999999999992
40
0.874999999999992
40
1
40
1
40
1
40
1
41
1
10
240.683441810057
20
-7.21139340877394
30
0
41
1
10
240.835047567301
20
-6.77363335682136
30
0
41
1
10
240.989460287155
20
-6.33595253998951
30
0
41
1
10
241.302664395708
20
-5.4607145076709
30
0
41
1
10
241.461481026277
20
-5.02315800471325
30
0
41
1
10
241.782641766368
20
-4.14814457270026
30
0
41
1
10
241.944918811098
20
-3.71089369732383
30
0
41
1
10
242.149149514231
20
-3.1656843317694
30
0
41
1
10
242.19007116176
20
-3.05669290388121
30
0
41
1
10
242.272057352006
20
-2.83880551460007
30
0
41
1
10
242.313156297901
20
-2.72993253754348
30
0
41
1
10
242.436157018934
20
-2.40311577452295
30
0
41
1
10
242.517769035261
20
-2.18497840430277
30
0
41
1
10
242.598905721295
20
-1.96652347182854
30
0
0
SPLINE
5
F7
100
AcDbEntity
8
1
62
256
6
ByLayer
370
18
48
1
60
0
100
AcDbSpline
70
4
71
3
72
104
73
100
40
0
40
0
40
0
40
0
40
0.0007342043270664
40
0.0007342043270664
40
0.0160303374946681
40
0.0160303374946681
40
0.0466226038298715
40
0.0466226038298715
40
0.077214870165075
40
0.077214870165075
40
0.0925110033326754
40
0.0925110033326754
40
0.107807136500276
40
0.107807136500276
40
0.138399402835477
40
0.138399402835477
40
0.168991669170678
40
0.168991669170678
40
0.184287802338278
40
0.184287802338278
40
0.199583935505879
40
0.199583935505879
40
0.214880068673479
40
0.214880068673479
40
0.23017620184108
40
0.23017620184108
40
0.260768468176281
40
0.260768468176281
40
0.276064601343882
40
0.276064601343882
40
0.291360734511484
40
0.291360734511484
40
0.306656867679086
40
0.306656867679086
40
0.321953000846687
40
0.321953000846687
40
0.352545267181888
40
0.352545267181888
40
0.383137533517089
40
0.383137533517089
40
0.398433666684691
40
0.398433666684691
40
0.413729799852293
40
0.413729799852293
40
0.429025933019895
40
0.429025933019895
40
0.444322066187496
40
0.444322066187496
40
0.474914332522698
40
0.474914332522698
40
0.4902104656903
40
0.4902104656903
40
0.505506598857902
40
0.505506598857902
40
0.520802732025504
40
0.520802732025504
40
0.536098865193105
40
0.536098865193105
40
0.566691131528309
40
0.566691131528309
40
0.597283397863512
40
0.597283397863512
40
0.627875664198715
40
0.627875664198715
40
0.658467930533919
40
0.658467930533919
40
0.689060196869122
40
0.689060196869122
40
0.719652463204325
40
0.719652463204325
40
0.734948596371927
40
0.734948596371927
40
0.750244729539528
40
0.750244729539528
40
0.76554086270713
40
0.76554086270713
40
0.780836995874732
40
0.780836995874732
40
0.811429262209935
40
0.811429262209935
40
0.826725395377537
40
0.826725395377537
40
0.842021528545139
40
0.842021528545139
40
0.872613794880341
40
0.872613794880341
40
0.887909928047942
40
0.887909928047942
40
0.903206061215542
40
0.903206061215542
40
0.918502194383143
40
0.918502194383143
40
0.933798327550745
40
0.933798327550745
40
0.964390593885948
40
0.964390593885948
40
0.994982860221151
40
0.994982860221151
40
1
40
1
40
1
40
1
41
1
10
225.442449653102
20
-5.1069070561756
30
0
41
1
10
225.429239660074
20
-5.11157936099175
30
0
41
1
10
225.416030276967
20
-5.11624488164654
30
0
41
1
10
225.127634949555
20
-5.21796135265916
30
0
41
1
10
224.852565259579
20
-5.31199431387506
30
0
41
1
10
224.027509882779
20
-5.58334345814907
30
0
41
1
10
223.477772050569
20
-5.750370295473
30
0
41
1
10
222.378781158765
20
-6.05951235018114
30
0
41
1
10
221.828497586067
20
-6.19993634885896
30
0
41
1
10
221.001349314387
20
-6.38776434120157
30
0
41
1
10
220.72547726135
20
-6.44684589307536
30
0
41
1
10
220.174989727527
20
-6.55755107455894
30
0
41
1
10
219.899921193646
20
-6.60896688110287
30
0
41
1
10
219.074793879266
20
-6.75066482520748
30
0
41
1
10
218.524728485302
20
-6.82792624482497
30
0
41
1
10
217.425550766656
20
-6.95377460497724
30
0
41
1
10
216.875715430645
20
-7.00099877032301
30
0
41
1
10
216.04876059205
20
-7.04558674651898
30
0
41
1
10
215.772720002555
20
-7.0562491950472
30
0
41
1
10
215.221778717677
20
-7.0692325403038
30
0
41
1
10
214.946777302314
20
-7.07154997334396
30
0
41
1
10
214.39669136703
20
-7.06735624357586
30
0
41
1
10
214.121676001891
20
-7.06013033732717
30
0
41
1
10
213.571630007235
20
-7.03822133220959
30
0
41
1
10
213.296624511314
20
-7.0235974901193
30
0
41
1
10
212.471814984683
20
-6.96787116025894
30
0
41
1
10
211.922287142326
20
-6.914796215092
30
0
41
1
10
211.095693498318
20
-6.81139471711174
30
0
41
1
10
210.819673266102
20
-6.77293012184882
30
0
41
1
10
210.268493524708
20
-6.68759618415112
30
0
41
1
10
209.993376534316
20
-6.64064588461238
30
0
41
1
10
209.443420095483
20
-6.53808219766341
30
0
41
1
10
209.168483691383
20
-6.48235720562712
30
0
41
1
10
208.618598846155
20
-6.36515303282391
30
0
41
1
10
208.343653499531
20
-6.30319386685056
30
0
41
1
10
207.518901764402
20
-6.10601716952573
30
0
41
1
10
206.969566230187
20
-5.95897990957681
30
0
41
1
10
205.867993522064
20
-5.63860092981255
30
0
41
1
10
205.315705183092
20
-5.46562330984585
30
0
41
1
10
204.490762510369
20
-5.18488593290579
30
0
41
1
10
204.215929804043
20
-5.0876290244276
30
0
41
1
10
203.6661698885
20
-4.88891980154366
30
0
41
1
10
203.391284544347
20
-4.78709891701263
30
0
41
1
10
202.84148355322
20
-4.57781561749835
30
0
41
1
10
202.566569406441
20
-4.47036890555194
30
0
41
1
10
202.0167863073
20
-4.24939270182364
30
0
41
1
10
201.741908402856
20
-4.13593939017505
30
0
41
1
10
200.916151355344
20
-3.7897911221329
30
0
41
1
10
200.363899293303
20
-3.55015410264235
30
0
41
1
10
199.538385415587
20
-3.17817679807683
30
0
41
1
10
199.263636542968
20
-3.05186354900607
30
0
41
1
10
198.713990298977
20
-2.79666375358002
30
0
41
1
10
198.439164322747
20
-2.66769351428044
30
0
41
1
10
197.889435469969
20
-2.4069465353613
30
0
41
1
10
197.614552112796
20
-2.27517255914941
30
0
41
1
10
197.064629202893
20
-2.00815000669621
30
0
41
1
10
196.7897539051
20
-1.87292722822392
30
0
41
1
10
195.964414502758
20
-1.46483720087605
30
0
41
1
10
195.412260256743
20
-1.18908727873884
30
0
41
1
10
194.311046625616
20
-0.633748359867013
30
0
41
1
10
193.761901874835
20
-0.353176362724213
30
0
41
1
10
192.662598490781
20
0.205995038184426
30
0
41
1
10
192.112561649533
20
0.484836689515674
30
0
41
1
10
191.01264561398
20
1.04285875583767
30
0
41
1
10
190.460759660577
20
1.32028702437191
30
0
41
1
10
189.359179806107
20
1.86427060263972
30
0
41
1
10
188.80981933966
20
2.13383933750245
30
0
41
1
10
187.710650177696
20
2.65983401855621
30
0
41
1
10
187.160658677973
20
2.91580537056589
30
0
41
1
10
186.335562520237
20
3.29135092923039
30
0
41
1
10
186.060584753174
20
3.41519110310045
30
0
41
1
10
185.509638698842
20
3.65785573209558
30
0
41
1
10
185.233716770614
20
3.7767328277651
30
0
41
1
10
184.682702405142
20
4.00949518262928
30
0
41
1
10
184.407400204212
20
4.12362458417206
30
0
41
1
10
183.857312134798
20
4.34731867361634
30
0
41
1
10
183.582647776025
20
4.45702892572885
30
0
41
1
10
182.758335536288
20
4.77676626825087
30
0
41
1
10
182.208358218422
20
4.97735256549041
30
0
41
1
10
181.382978800104
20
5.26251187368195
30
0
41
1
10
181.107914296468
20
5.35496372570665
30
0
41
1
10
180.557115262288
20
5.53287708683501
30
0
41
1
10
180.281168662895
20
5.61823758753064
30
0
41
1
10
179.454349139041
20
5.86426191668585
30
0
41
1
10
178.903965679255
20
6.01589970123496
30
0
41
1
10
178.079612632395
20
6.22054217986155
30
0
41
1
10
177.804759612712
20
6.2843035945389
30
0
41
1
10
177.2548255324
20
6.4053954062276
30
0
41
1
10
176.979747768703
20
6.46249825698285
30
0
41
1
10
176.429369765719
20
6.56893278108095
30
0
41
1
10
176.154104224211
20
6.6186930351659
30
0
41
1
10
175.603378313872
20
6.7093648679456
30
0
41
1
10
175.327419346797
20
6.7496911606668
30
0
41
1
10
174.500191678608
20
6.86100119359992
30
0
41
1
10
173.949290323068
20
6.92041320398445
30
0
41
1
10
172.849329951022
20
7.00439386235291
30
0
41
1
10
172.299622137189
20
7.03000959409997
30
0
41
1
10
171.658741906112
20
7.04083619613533
30
0
41
1
10
171.568430892439
20
7.04190912461257
30
0
41
1
10
171.478105329047
20
7.04252416805645
30
0
0
SPLINE
5
F8
100
AcDbEntity
8
1
62
256
6
ByLayer
370
18
48
1
60
0
100
AcDbSpline
70
4
71
3
72
106
73
102
40
0
40
0
40
0
40
0
40
0.0239376361647063
40
0.0239376361647063
40
0.0545486609388548
40
0.0545486609388548
40
0.0698541733259292
40
0.0698541733259292
40
0.0851596857130034
40
0.0851596857130034
40
0.115770710487152
40
0.115770710487152
40
0.131076222874226
40
0.131076222874226
40
0.1463817352613
40
0.1463817352613
40
0.176992760035447
40
0.176992760035447
40
0.207603784809594
40
0.207603784809594
40
0.222909297196668
40
0.222909297196668
40
0.238214809583741
40
0.238214809583741
40
0.253520321970815
40
0.253520321970815
40
0.268825834357889
40
0.268825834357889
40
0.284131346744962
40
0.284131346744962
40
0.299436859132036
40
0.299436859132036
40
0.330047883906183
40
0.330047883906183
40
0.360658908680331
40
0.360658908680331
40
0.375964421067404
40
0.375964421067404
40
0.391269933454478
40
0.391269933454478
40
0.421880958228626
40
0.421880958228626
40
0.4371864706157
40
0.4371864706157
40
0.452491983002774
40
0.452491983002774
40
0.467797495389849
40
0.467797495389849
40
0.483103007776923
40
0.483103007776923
40
0.513714032551073
40
0.513714032551073
40
0.529019544938148
40
0.529019544938148
40
0.544325057325223
40
0.544325057325223
40
0.559630569712298
40
0.559630569712298
40
0.574936082099373
40
0.574936082099373
40
0.605547106873522
40
0.605547106873522
40
0.620852619260598
40
0.620852619260598
40
0.636158131647674
40
0.636158131647674
40
0.666769156421825
40
0.666769156421825
40
0.697380181195976
40
0.697380181195976
40
0.712685693583051
40
0.712685693583051
40
0.727991205970128
40
0.727991205970128
40
0.758602230744278
40
0.758602230744278
40
0.773907743131354
40
0.773907743131354
40
0.78921325551843
40
0.78921325551843
40
0.804518767905506
40
0.804518767905506
40
0.819824280292581
40
0.819824280292581
40
0.850435305066731
40
0.850435305066731
40
0.865740817453807
40
0.865740817453807
40
0.881046329840883
40
0.881046329840883
40
0.896351842227958
40
0.896351842227958
40
0.911657354615034
40
0.911657354615034
40
0.92696286700211
40
0.92696286700211
40
0.942268379389185
40
0.942268379389185
40
0.972879404163337
40
0.972879404163337
40
1
40
1
40
1
40
1
41
1
10
138.340295767466
20
-5.06654661008022
30
0
41
1
10
137.909830983775
20
-5.21738142152054
30
0
41
1
10
137.479434982826
20
-5.36056630117329
30
0
41
1
10
136.498750273736
20
-5.66839269827733
30
0
41
1
10
135.948865244836
20
-5.82958867747749
30
0
41
1
10
135.121705879564
20
-6.04941139410701
30
0
41
1
10
134.84544938109
20
-6.1190246610827
30
0
41
1
10
134.293623849634
20
-6.2503479179629
30
0
41
1
10
134.018104499122
20
-6.31233961823659
30
0
41
1
10
133.19226609056
20
-6.48849297185626
30
0
41
1
10
132.64195405317
20
-6.59089624980999
30
0
41
1
10
131.816248138767
20
-6.71846494395948
30
0
41
1
10
131.541012197828
20
-6.75709844046773
30
0
41
1
10
130.990734118644
20
-6.82725809655003
30
0
41
1
10
130.715424184753
20
-6.85844086389369
30
0
41
1
10
129.888438296259
20
-6.93910354637424
30
0
41
1
10
129.335398675036
20
-6.97576430594916
30
0
41
1
10
128.233720829354
20
-7.01807056186436
30
0
41
1
10
127.68359905411
20
-7.02264409166986
30
0
41
1
10
126.857729907195
20
-7.00346338583097
30
0
41
1
10
126.582419782962
20
-6.99312706198296
30
0
41
1
10
126.031870037647
20
-6.96465539519974
30
0
41
1
10
125.756710886773
20
-6.94631187007568
30
0
41
1
10
125.205531370403
20
-6.90079560048156
30
0
41
1
10
124.929490596098
20
-6.87351293842264
30
0
41
1
10
124.377058713575
20
-6.81092083823538
30
0
41
1
10
124.10108362125
20
-6.77608076306475
30
0
41
1
10
123.549747296115
20
-6.69863612991426
30
0
41
1
10
123.274507705996
20
-6.65592308597758
30
0
41
1
10
122.723986881991
20
-6.56275861397486
30
0
41
1
10
122.448704069058
20
-6.51159872138098
30
0
41
1
10
121.622616532458
20
-6.34692778650907
30
0
41
1
10
121.071994220257
20
-6.22380816682875
30
0
41
1
10
119.969755344531
20
-5.94543411730851
30
0
41
1
10
119.416578087518
20
-5.79136782301043
30
0
41
1
10
118.58913450536
20
-5.54225531974737
30
0
41
1
10
118.313650047855
20
-5.45577629243942
30
0
41
1
10
117.763102942529
20
-5.27569695262375
30
0
41
1
10
117.487833690325
20
-5.18227587812314
30
0
41
1
10
116.661781009975
20
-4.89411343760221
30
0
41
1
10
116.110773329279
20
-4.69174542492354
30
0
41
1
10
115.284239751615
20
-4.36910789884419
30
0
41
1
10
115.008412412312
20
-4.25830008069408
30
0
41
1
10
114.456067147978
20
-4.03283504057364
30
0
41
1
10
114.179777367479
20
-3.91801160435205
30
0
41
1
10
113.627937668947
20
-3.6841024262543
30
0
41
1
10
113.35224630824
20
-3.56496868462062
30
0
41
1
10
112.801444644534
20
-3.32184033297594
30
0
41
1
10
112.526286511546
20
-3.19795828037812
30
0
41
1
10
111.700346056716
20
-2.82237374173124
30
0
41
1
10
111.14944775696
20
-2.56613287175753
30
0
41
1
10
110.322478475444
20
-2.17088677810162
30
0
41
1
10
110.046835814371
20
-2.03722214851342
30
0
41
1
10
109.494725487878
20
-1.76830987393913
30
0
41
1
10
109.218359823532
20
-1.63289283297922
30
0
41
1
10
108.666396101931
20
-1.36083472462499
30
0
41
1
10
108.390617659531
20
-1.22407914388325
30
0
41
1
10
107.839515482848
20
-0.949049308783344
30
0
41
1
10
107.564316089356
20
-0.810539015545231
30
0
41
1
10
106.73851895342
20
-0.394525383516452
30
0
41
1
10
106.187658569415
20
-0.116664563377384
30
0
41
1
10
105.360591252433
20
0.30053612167012
30
0
41
1
10
105.084904540017
20
0.439915788859963
30
0
41
1
10
104.533071013594
20
0.718323133617531
30
0
41
1
10
104.256713039404
20
0.857191716915537
30
0
41
1
10
103.428713496177
20
1.27083059222369
30
0
41
1
10
102.877426539492
20
1.54274755394692
30
0
41
1
10
101.776574441566
20
2.08122153399006
30
0
41
1
10
101.225968058671
20
2.34560973668104
30
0
41
1
10
100.398840261786
20
2.73168120826838
30
0
41
1
10
100.123017921305
20
2.85911743735346
30
0
41
1
10
99.5713693904205
20
3.11170138850545
30
0
41
1
10
99.2951260915344
20
3.23649616844043
30
0
41
1
10
98.4671315769266
20
3.60326000373226
30
0
41
1
10
97.9157093656522
20
3.83767738474325
30
0
41
1
10
97.0898024196461
20
4.17750788784912
30
0
41
1
10
96.8147307896747
20
4.28867243469361
30
0
41
1
10
96.2641190357008
20
4.50496233600771
30
0
41
1
10
95.9886593058973
20
4.61015874155166
30
0
41
1
10
95.4373822694444
20
4.81487970929817
30
0
41
1
10
95.1615992848562
20
4.91461921529412
30
0
41
1
10
94.6098306193389
20
5.10889919190515
30
0
41
1
10
94.3337316007197
20
5.20354146028728
30
0
41
1
10
93.5056661175763
20
5.47634246163406
30
0
41
1
10
92.9541707111539
20
5.64455956929086
30
0
41
1
10
92.1278671255047
20
5.8777292624107
30
0
41
1
10
91.8527328058439
20
5.95227513078262
30
0
41
1
10
91.3021949390948
20
6.09320648817663
30
0
41
1
10
91.0267648070702
20
6.15960574304947
30
0
41
1
10
90.4755557228053
20
6.28568281385827
30
0
41
1
10
90.1997914165228
20
6.34542725016001
30
0
41
1
10
89.6479905383954
20
6.45764504931466
30
0
41
1
10
89.3718662335917
20
6.51020423370119
30
0
41
1
10
88.8197812863876
20
6.60682526160733
30
0
41
1
10
88.5439346720691
20
6.65060573062524
30
0
41
1
10
87.9924257795957
20
6.73099251474886
30
0
41
1
10
87.716774559019
20
6.76737278876837
30
0
41
1
10
86.8902282464606
20
6.86432946042433
30
0
41
1
10
86.3401673123337
20
6.91257083851241
30
0
41
1
10
85.300924323676
20
6.97235944033733
30
0
41
1
10
84.8119846052739
20
6.98832587960615
30
0
41
1
10
84.3226929881781
20
6.99029120608895
30
0
0
SPLINE
5
F9
100
AcDbEntity
8
1
62
256
6
ByLayer
370
18
48
1
60
0
100
AcDbSpline
70
4
71
3
72
62
73
58
40
0
40
0
40
0
40
0
40
0.0077181209272304
40
0.0077181209272304
40
0.0352815064570291
40
0.0352815064570291
40
0.0628448919868277
40
0.0628448919868277
40
0.117971663046426
40
0.117971663046426
40
0.145535048576225
40
0.145535048576225
40
0.173098434106024
40
0.173098434106024
40
0.200661819635824
40
0.200661819635824
40
0.228225205165623
40
0.228225205165623
40
0.283351976225223
40
0.283351976225223
40
0.338478747284822
40
0.338478747284822
40
0.393605518344421
40
0.393605518344421
40
0.42116890387422
40
0.42116890387422
40
0.448732289404019
40
0.448732289404019
40
0.476295674933819
40
0.476295674933819
40
0.503859060463619
40
0.503859060463619
40
0.558985831523218
40
0.558985831523218
40
0.586549217053017
40
0.586549217053017
40
0.614112602582815
40
0.614112602582815
40
0.641675988112614
40
0.641675988112614
40
0.669239373642412
40
0.669239373642412
40
0.724366144702011
40
0.724366144702011
40
0.751929530231809
40
0.751929530231809
40
0.779492915761608
40
0.779492915761608
40
0.834619686821205
40
0.834619686821205
40
0.862183072351004
40
0.862183072351004
40
0.889746457880802
40
0.889746457880802
40
0.944873228940402
40
0.944873228940402
40
1
40
1
40
1
40
1
41
1
10
51.2615346535044
20
-5.01763591654685
30
0
41
1
10
51.1843330514212
20
-5.04454452809458
30
0
41
1
10
51.107126731586
20
-5.07121780793111
30
0
41
1
10
50.754163710458
20
-5.19205631404901
30
0
41
1
10
50.4783891233672
20
-5.28341560813831
30
0
41
1
10
49.9268301454127
20
-5.45977041087411
30
0
41
1
10
49.651111921209
20
-5.54488560170509
30
0
41
1
10
48.8228052637976
20
-5.7905269572359
30
0
41
1
10
48.2689760433287
20
-5.94170312420357
30
0
41
1
10
47.4410291742884
20
-6.14414908152122
30
0
41
1
10
47.1654520519292
20
-6.20817730470478
30
0
41
1
10
46.6141959476959
20
-6.32910168792259
30
0
41
1
10
46.3385550327788
20
-6.38588144693728
30
0
41
1
10
45.7871316892776
20
-6.49138247964191
30
0
41
1
10
45.5113440484775
20
-6.5399907588241
30
0
41
1
10
44.9597141277433
20
-6.6296527621721
30
0
41
1
10
44.6839989524524
20
-6.67092826815372
30
0
41
1
10
43.8561474197889
20
-6.7833555397163
30
0
41
1
10
43.3023908124691
20
-6.84255205907056
30
0
41
1
10
42.1980471130217
20
-6.92544287265775
30
0
41
1
10
41.6472797456827
20
-6.9518090414563
30
0
41
1
10
40.5446726157151
20
-6.97077224334507
30
0
41
1
10
39.9928917644071
20
-6.96197030857473
30
0
41
1
10
39.1653250733283
20
-6.9262904307341
30
0
41
1
10
38.8892278374622
20
-6.91038496368975
30
0
41
1
10
38.3362448387015
20
-6.87036352304563
30
0
41
1
10
38.0597777780697
20
-6.84575994026611
30
0
41
1
10
37.5074595202069
20
-6.78818933299587
30
0
41
1
10
37.2314937100707
20
-6.75595062550022
30
0
41
1
10
36.6802058169555
20
-6.68353239331694
30
0
41
1
10
36.4047628206306
20
-6.64337636709323
30
0
41
1
10
35.5779623760676
20
-6.51069742273657
30
0
41
1
10
35.0262761566484
20
-6.40593025231635
30
0
41
1
10
34.1985575288622
20
-6.22787384782103
30
0
41
1
10
33.9227012296334
20
-6.16466588149726
30
0
41
1
10
33.3699497549994
20
-6.03032177507762
30
0
41
1
10
33.093311214264
20
-5.95914865519123
30
0
41
1
10
32.5407679466337
20
-5.81059399711972
30
0
41
1
10
32.2646819180031
20
-5.73323032395257
30
0
41
1
10
31.7129886338328
20
-5.5717239517295
30
0
41
1
10
31.4375024710186
20
-5.48734785067697
30
0
41
1
10
30.6106890108692
20
-5.22448637517934
30
0
41
1
10
30.0590516593441
20
-5.03724358643285
30
0
41
1
10
29.2310573956284
20
-4.73891013845991
30
0
41
1
10
28.9550957546459
20
-4.6362524140429
30
0
41
1
10
28.4024892052376
20
-4.42504136715019
30
0
41
1
10
28.1257689131257
20
-4.31660231082049
30
0
41
1
10
27.2963601113034
20
-3.98506363563141
30
0
41
1
10
26.7438931096334
20
-3.7553820506698
30
0
41
1
10
25.915652333309
20
-3.39535898710577
30
0
41
1
10
25.6394048505007
20
-3.27328497987085
30
0
41
1
10
25.0864746085724
20
-3.02590319662247
30
0
41
1
10
24.8096507828812
20
-2.90047561247087
30
0
41
1
10
23.9798685786334
20
-2.5192519931428
30
0
41
1
10
23.4279307389213
20
-2.25758739426257
30
0
41
1
10
22.3235237323536
20
-1.72589950544506
30
0
41
1
10
21.7707081559686
20
-1.45649138064999
30
0
41
1
10
21.2171217556301
20
-1.18343000650185
30
0
0
SPLINE
5
FA
100
AcDbEntity
8
SK1
62
256
6
ByLayer
370
18
48
1
60
0
100
AcDbSpline
70
4
71
4
72
13
73
8
40
0
40
0
40
0
40
0
40
0
40
0.0301505215420707
40
0.0301505215420707
40
0.0301505215420707
40
1
40
1
40
1
40
1
40
1
41
1.01655534083552
10
-48.0000008761515
20
3.40874857426674
30
0
41
1.01658315959036
10
-48.0000008643972
20
3.40570412034112
30
0
41
1.01660207154813
10
-48.000000852648
20
3.40263735359525
30
0
41
1.0166117137858
10
-48.0000008409051
20
3.39954889236965
30
0
41
1.0166117137858
10
-48.0000004516894
20
3.29641563309972
30
0
41
1.00663478557157
10
-48.0000000129648
20
3.15599894772818
30
0
41
0.999079604358833
10
-47.999999555863
20
2.9771376392026
30
0
41
0.996072669144742
10
-47.9999991238488
20
2.77721564734635
30
0
0
SPLINE
5
FB
100
AcDbEntity
8
SK1
62
256
6
ByLayer
370
18
48
1
60
0
100
AcDbSpline
70
4
71
3
72
14
73
10
40
0
40
0
40
0
40
0
40
0.124999999999999
40
0.124999999999999
40
0.249999999999998
40
0.249999999999998
40
0.499999999999998
40
0.499999999999998
40
1
40
1
40
1
40
1
41
1
10
-46
20
4.56548765453297
30
0
41
1
10
-46
20
4.57429870166436
30
0
41
1
10
-46.0017055870951
20
4.58123690002969
30
0
41
1
10
-46.0068924291627
20
4.59161404037096
30
0
41
1
10
-46.0102440228913
20
4.59505962012432
30
0
41
1
10
-46.0215656644541
20
4.60248657112911
30
0
41
1
10
-46.030416522685
20
4.60338504639884
30
0
41
1
10
-46.0585951172059
20
4.60007043087992
30
0
41
1
10
-46.0788864676936
20
4.58995302277822
30
0
41
1
10
-46.1
20
4.57428992411531
30
0
0
SPLINE
5
FC
100
AcDbEntity
8
SK1
62
256
6
ByLayer
370
18
48
1
60
0
100
AcDbSpline
70
4
71
3
72
14
73
10
40
0
40
0
40
0
40
0
40
0.5
40
0.5
40
0.749999999999997
40
0.749999999999997
40
0.874999999999998
40
0.874999999999998
40
1
40
1
40
1
40
1
41
1
10
-46.1
20
1.8521267993263
30
0
41
1
10
-46.078998416482
20
1.86770684864948
30
0
41
1
10
-46.0586701890239
20
1.8886708196807
30
0
41
1
10
-46.0304433385198
20
1.93057798672521
30
0
41
1
10
-46.0214721393577
20
1.94630294116908
30
0
41
1
10
-46.0103047485395
20
1.97309709161712
30
0
41
1
10
-46.006895500949
20
1.98275892013936
30
0
41
1
10
-46.0017213166879
20
2.00336892109041
30
0
41
1
10
-46
20
2.01432807018392
30
0
41
1
10
-46
20
2.02480207139658
30
0
0
SPLINE
5
FD
100
AcDbEntity
8
SK1
62
256
6
ByLayer
370
18
48
1
60
0
100
AcDbSpline
70
4
71
3
72
14
73
10
40
0
40
0
40
0
40
0
40
0.25
40
0.25
40
0.5
40
0.5
40
0.75
40
0.75
40
1
40
1
40
1
40
1
41
1
10
-47.5801441046728
20
3.46565161872547
30
0
41
1
10
-47.6072100893359
20
3.48828736497453
30
0
41
1
10
-47.6369732551092
20
3.50404394806029
30
0
41
1
10
-47.6998986387514
20
3.52131051986837
30
0
41
1
10
-47.733166453251
20
3.52303125873436
30
0
41
1
10
-47.8036032769403
20
3.51310722553293
30
0
41
1
10
-47.8410177791615
20
3.50129013933432
30
0
41
1
10
-47.9183104856357
20
3.46471962772174
30
0
41
1
10
-47.9583393445183
20
3.44002043492327
30
0
41
1
10
-48
20
3.40874834401609
30
0
0
SPLINE
5
FE
100
AcDbEntity
8
SK1
62
256
6
ByLayer
370
18
48
1
60
0
100
AcDbSpline
70
4
71
3
72
10
73
6
40
0
40
0
40
0
40
0
40
0.5
40
0.5
40
1
40
1
40
1
40
1
41
1
10
-48
20
0.422077388478442
30
0
41
1
10
-47.6895343201871
20
0.661797401372127
30
0
41
1
10
-47.3739776699283
20
0.900464388619156
30
0
41
1
10
-46.7394127639494
20
1.3768743452668
30
0
41
1
10
-46.4201669830522
20
1.61461054807197
30
0
41
1
10
-46.1
20
1.85212679932633
30
0
0
SPLINE
5
FF
100
AcDbEntity
8
SK1
62
256
6
ByLayer
370
18
48
1
60
0
100
AcDbSpline
70
4
71
3
72
32
73
28
40
0
40
0
40
0
40
0
40
0.125
40
0.125
40
0.250000000000001
40
0.250000000000001
40
0.375000000000001
40
0.375000000000001
40
0.437500000000002
40
0.437500000000002
40
0.500000000000002
40
0.500000000000002
40
0.531250000000002
40
0.531250000000002
40
0.562500000000002
40
0.562500000000002
40
0.625000000000002
40
0.625000000000002
40
0.656250000000002
40
0.656250000000002
40
0.687500000000002
40
0.687500000000002
40
0.750000000000001
40
0.750000000000001
40
0.875000000000001
40
0.875000000000001
40
1
40
1
40
1
40
1
41
1
10
-48
20
2.77721572174022
30
0
41
1
10
-47.8941732928491
20
2.79278763964092
30
0
41
1
10
-47.7893480299729
20
2.80954309856944
30
0
41
1
10
-47.5825736776145
20
2.84645317633044
30
0
41
1
10
-47.4803142683127
20
2.86664892312064
30
0
41
1
10
-47.2831961875047
20
2.91185027499023
30
0
41
1
10
-47.1879367629876
20
2.9367613360582
30
0
41
1
10
-47.054897667435
20
2.98102490887953
30
0
41
1
10
-47.0127780872821
20
2.99678501455028
30
0
41
1
10
-46.9354492806882
20
3.0312813217642
30
0
41
1
10
-46.9001793250497
20
3.05011048904456
30
0
41
1
10
-46.8579953792011
20
3.08050666821924
30
0
41
1
10
-46.8456396342812
20
3.09104013716842
30
0
41
1
10
-46.825291006783
20
3.11313388300573
30
0
41
1
10
-46.8173332830088
20
3.12477540194115
30
0
41
1
10
-46.8026130054893
20
3.15981651430141
30
0
41
1
10
-46.8050837520916
20
3.18425580088922
30
0
41
1
10
-46.8264372121612
20
3.21870087280317
30
0
41
1
10
-46.8364944927868
20
3.23002934964433
30
0
41
1
10
-46.8607765461715
20
3.25149984949277
30
0
41
1
10
-46.8749876049741
20
3.26171092026209
30
0
41
1
10
-46.9225608962252
20
3.29109318326789
30
0
41
1
10
-46.9609092457189
20
3.30899307114694
30
0
41
1
10
-47.0839511262149
20
3.35736480918988
30
0
41
1
10
-47.179086371278
20
3.38392186946092
30
0
41
1
10
-47.3748249667086
20
3.42952645730733
30
0
41
1
10
-47.4763598379404
20
3.4487018653488
30
0
41
1
10
-47.5801441046728
20
3.46565161872547
30
0
0
SPLINE
5
100
100
AcDbEntity
8
SK1
62
256
6
ByLayer
370
18
48
1
60
0
100
AcDbSpline
70
4
71
3
72
8
73
4
40
0
40
0
40
0
40
0
40
1
40
1
40
1
40
1
41
1
10
-46.1
20
4.57428992411531
30
0
41
1
10
-46.5969990545522
20
4.20559059356964
30
0
41
1
10
-47.0921930057328
20
3.83646145361723
30
0
41
1
10
-47.5801441046728
20
3.46565161872547
30
0
0
LINE
5
76
100
AcDbEntity
8
81
62
256
6
ByLayer
370
18
48
1
60
0
100
AcDbLine
10
243
20
0
30
0
11
248
21
0
31
0
39
0
210
0
220
0
230
1
0
LINE
5
77
100
AcDbEntity
8
1
62
256
6
ByLayer
370
18
48
1
60
0
100
AcDbLine
10
7.555963
20
7.354295
30
0
11
1
21
7.350198
31
0
39
0
210
0
220
0
230
1
0
LINE
5
79
100
AcDbEntity
8
1
62
256
6
ByLayer
370
18
48
1
60
0
100
AcDbLine
10
21.280103
20
7.362873
30
0
11
16.709358
21
7.360016
31
0
39
0
210
0
220
0
230
1
0
LINE
5
7A
100
AcDbEntity
8
1
62
256
6
ByLayer
370
18
48
1
60
0
100
AcDbLine
10
64.830937
20
7.390092
30
0
11
62.629753
21
7.388716
31
0
39
0
210
0
220
0
230
1
0
LINE
5
7B
100
AcDbEntity
8
1
62
256
6
ByLayer
370
18
48
1
60
0
100
AcDbLine
10
108.380604
20
7.41731
30
0
11
106.179257
21
7.415935
31
0
39
0
210
0
220
0
230
1
0
LINE
5
7C
100
AcDbEntity
8
1
62
256
6
ByLayer
370
18
48
1
60
0
100
AcDbLine
10
151.931439
20
7.44453
30
0
11
149.726605
21
7.443152
31
0
39
0
210
0
220
0
230
1
0
LINE
5
7D
100
AcDbEntity
8
1
62
256
6
ByLayer
370
18
48
1
60
0
100
AcDbLine
10
195.481809
20
7.471749
30
0
11
193.273541
21
7.470369
31
0
39
0
210
0
220
0
230
1
0
LINE
5
7E
100
AcDbEntity
8
1
62
256
6
ByLayer
370
18
48
1
60
0
100
AcDbLine
10
239.031668
20
7.498967
30
0
11
236.824812
21
7.497588
31
0
39
0
210
0
220
0
230
1
0
LINE
5
7F
100
AcDbEntity
8
1
62
256
6
ByLayer
370
18
48
1
60
0
100
AcDbLine
10
236.824812
20
-7.497588
30
0
11
239.032121
21
-7.498968
31
0
39
0
210
0
220
0
230
1
0
LINE
5
80
100
AcDbEntity
8
1
62
256
6
ByLayer
370
18
48
1
60
0
100
AcDbLine
10
193.273541
20
-7.470369
30
0
11
195.481607
21
-7.471749
31
0
39
0
210
0
220
0
230
1
0
LINE
5
81
100
AcDbEntity
8
1
62
256
6
ByLayer
370
18
48
1
60
0
100
AcDbLine
10
149.726605
20
-7.443152
30
0
11
151.931268
21
-7.44453
31
0
39
0
210
0
220
0
230
1
0
LINE
5
82
100
AcDbEntity
8
1
62
256
6
ByLayer
370
18
48
1
60
0
100
AcDbLine
10
106.179257
20
-7.415935
30
0
11
108.381298
21
-7.417311
31
0
39
0
210
0
220
0
230
1
0
LINE
5
83
100
AcDbEntity
8
1
62
256
6
ByLayer
370
18
48
1
60
0
100
AcDbLine
10
62.629753
20
-7.388716
30
0
11
64.830241
21
-7.390091
31
0
39
0
210
0
220
0
230
1
0
LINE
5
84
100
AcDbEntity
8
1
62
256
6
ByLayer
370
18
48
1
60
0
100
AcDbLine
10
16.709358
20
-7.360016
30
0
11
21.280237
21
-7.362873
31
0
39
0
210
0
220
0
230
1
0
LINE
5
85
100
AcDbEntity
8
1
62
256
6
ByLayer
370
18
48
1
60
0
100
AcDbLine
10
1
20
-7.350198
30
0
11
7.555963
21
-7.354295
31
0
39
0
210
0
220
0
230
1
0
LINE
5
86
100
AcDbEntity
8
1
62
256
6
ByLayer
370
18
48
1
60
0
100
AcDbLine
10
0
20
-8
30
0
11
1
21
-7.350198
31
0
39
0
210
0
220
0
230
1
0
LINE
5
87
100
AcDbEntity
8
1
62
256
6
ByLayer
370
18
48
1
60
0
100
AcDbLine
10
1
20
7.350198
30
0
11
0
21
8
31
0
39
0
210
0
220
0
230
1
0
LINE
5
88
100
AcDbEntity
8
SK1
62
256
6
ByLayer
370
18
48
1
60
0
100
AcDbLine
10
-45.979274
20
8
30
0
11
-48
21
4.5
31
0
39
0
210
0
220
0
230
1
0
LINE
5
8A
100
AcDbEntity
8
SK1
62
256
6
ByLayer
370
18
48
1
60
0
100
AcDbLine
10
-48
20
-4.5
30
0
11
-45.979274
21
-8
31
0
39
0
210
0
220
0
230
1
0
LINE
5
8B
100
AcDbEntity
8
SK1
62
256
6
ByLayer
370
18
48
1
60
0
100
AcDbLine
10
0
20
8
30
0
11
-45.979274
21
8
31
0
39
0
210
0
220
0
230
1
0
LINE
5
8C
100
AcDbEntity
8
SK1
62
256
6
ByLayer
370
18
48
1
60
0
100
AcDbLine
10
-45.979274
20
-8
30
0
11
0
21
-8
31
0
39
0
210
0
220
0
230
1
0
LINE
5
8D
100
AcDbEntity
8
SK4
62
256
6
ByLayer
370
18
48
0.05
60
0
100
AcDbLine
10
248
20
0
30
0
11
-53
21
0
31
0
39
0
210
0
220
0
230
1
0
LINE
5
8F
100
AcDbEntity
8
4
62
256
6
ByLayer
370
18
48
0.05
60
0
100
AcDbLine
10
243
20
0
30
0
11
0
21
0
31
0
39
0
210
0
220
0
230
1
0
LINE
5
91
100
AcDbEntity
8
80
62
256
6
ByLayer
370
18
48
1
60
0
100
AcDbLine
10
0
20
0
30
0
11
-5
21
0
31
0
39
0
210
0
220
0
230
1
0
LINE
5
92
100
AcDbEntity
8
1
62
256
6
ByLayer
370
18
48
1
60
0
100
AcDbLine
10
0
20
-8
30
0
11
0
21
8
31
0
39
0
210
0
220
0
230
1
0
LINE
5
93
100
AcDbEntity
8
1
62
256
6
ByLayer
370
18
48
1
60
0
100
AcDbLine
10
239.266727
20
-5.80098
30
0
11
242.936266
21
-0.113472
31
0
39
0
210
0
220
0
230
1
0
LINE
5
94
100
AcDbEntity
8
1
62
256
6
ByLayer
370
13
48
1
60
0
100
AcDbLine
10
239.970424
20
1.899825
30
0
11
242.983504
21
-0.007527
31
0
39
0
210
0
220
0
230
1
0
LINE
5
95
100
AcDbEntity
8
1
62
256
6
ByLayer
370
13
48
1
60
0
100
AcDbLine
10
240.091366
20
1.993746
30
0
11
242.960702
21
0.177388
31
0
39
0
210
0
220
0
230
1
0
LINE
5
96
100
AcDbEntity
8
1
62
256
6
ByLayer
370
18
48
1
60
0
100
AcDbLine
10
242.983504
20
-0.007527
30
0
11
242.936266
21
-0.113472
31
0
39
0
210
0
220
0
230
1
0
LINE
5
97
100
AcDbEntity
8
1
62
256
6
ByLayer
370
18
48
1
60
0
100
AcDbLine
10
242.598906
20
-1.966523
30
0
11
242.960702
21
-0.177388
31
0
39
0
210
0
220
0
230
1
0
LINE
5
98
100
AcDbEntity
8
1
62
256
6
ByLayer
370
18
48
1
60
0
100
AcDbLine
10
242.936266
20
-0.113472
30
0
11
241.865857
21
-3.054395
31
0
39
0
210
0
220
0
230
1
0
LINE
5
99
100
AcDbEntity
8
1
62
256
6
ByLayer
370
18
48
1
60
0
100
AcDbLine
10
1
20
7.350198
30
0
11
1
21
-7.350198
31
0
39
0
210
0
220
0
230
1
0
LINE
5
9A
100
AcDbEntity
8
1
62
256
6
ByLayer
370
18
48
1
60
0
100
AcDbLine
10
242.598906
20
1.966523
30
0
11
242.960702
21
0.177388
31
0
39
0
210
0
220
0
230
1
0
LINE
5
9B
100
AcDbEntity
8
1
62
256
6
ByLayer
370
18
48
1
60
0
100
AcDbLine
10
9
20
-4.535339
30
0
11
9
21
5.459921
31
0
39
0
210
0
220
0
230
1
0
LINE
5
9C
100
AcDbEntity
8
1
62
256
6
ByLayer
370
18
48
1
60
0
100
AcDbLine
10
243
20
0.033257
30
0
11
243
21
-0.033257
31
0
39
0
210
0
220
0
230
1
0
LINE
5
9D
100
AcDbEntity
8
1
62
256
6
ByLayer
370
18
48
1
60
0
100
AcDbLine
10
241.011755
20
-5.40102
30
0
11
240.398598
21
-7.085657
31
0
39
0
210
0
220
0
230
1
0
LINE
5
9E
100
AcDbEntity
8
SK1
62
256
6
ByLayer
370
18
48
1
60
0
100
AcDbLine
10
-48
20
4.5
30
0
11
-48
21
3.408748
31
0
39
0
210
0
220
0
230
1
0
LINE
5
9F
100
AcDbEntity
8
SK1
62
256
6
ByLayer
370
18
48
1
60
0
100
AcDbLine
10
-48
20
2.777216
30
0
11
-48
21
0.422086
31
0
39
0
210
0
220
0
230
1
0
LINE
5
A0
100
AcDbEntity
8
SK1
62
256
6
ByLayer
370
18
48
1
60
0
100
AcDbLine
10
0
20
-8
30
0
11
0
21
8
31
0
39
0
210
0
220
0
230
1
0
LINE
5
A1
100
AcDbEntity
8
SK1
62
256
6
ByLayer
370
18
48
1
60
0
100
AcDbLine
10
-45.979274
20
8
30
0
11
-45.979274
21
-8
31
0
39
0
210
0
220
0
230
1
0
LINE
5
A2
100
AcDbEntity
8
SK1
62
256
6
ByLayer
370
18
48
1
60
0
100
AcDbLine
10
-46
20
2.024802
30
0
11
-46
21
4.565488
31
0
39
0
210
0
220
0
230
1
0
LINE
5
A3
100
AcDbEntity
8
SK1
62
256
6
ByLayer
370
18
48
1
60
0
100
AcDbLine
10
-48
20
0.422077
30
0
11
-48
21
-4.5
31
0
39
0
210
0
220
0
230
1
0
LINE
5
A4
100
AcDbEntity
8
SK1
62
256
6
ByLayer
370
13
48
1
60
0
100
AcDbLine
10
-46.1
20
4.57429
30
0
11
-46.1
21
1.8521
31
0
39
0
210
0
220
0
230
1
0
MTEXT
5
101
100
AcDbEntity
8
SK6
62
256
6
ByLayer
370
13
48
1
60
0
100
AcDbMText
10
99.629169
20
39.882694
30
0
210
0
220
0
230
1
1
\W0.7109;861.1-1500-180A1-GM GC34
40
3.5
41
0
44
1.084337
50
0
71
8
72
5
7
iso_b_vert
0
DIMENSION
5
10E
100
AcDbEntity
8
SK2
62
256
6
ByLayer
370
13
48
1
60
0
100
AcDbDimension
2
DimnDraft3D1
10
240.5429
20
-17.713398
30
0
11
118.292959
21
-17.713398
31
0
70
32
71
5
72
1
41
1
210
0
220
0
230
1
3
Standard
100
AcDbAlignedDimension
13
0
23
-1.5875
33
0
14
240.5429
24
-9.0875
34
0
50
0
100
AcDbRotatedDimension
1001
ACAD
1000
DSTYLE
1002
{
1070
   279
1070
     0
1070
   172
1070
     1
1070
   173
1070
     1
1070
   340
1005
102
1070
   271
1070
     2
1070
   272
1070
     2
1070
    77
1070
     1
1070
    73
1070
     0
1070
   171
1070
     3
1070
   274
1070
     4
1070
   177
1070
    35
1070
   176
1070
    35
1070
   178
1070
    35
1070
    48
1040
-0.005
1070
    41
1041
3.5
1070
   147
1041
1.75
1070
    42
1041
1.5875
1070
    44
1041
2.0
1070
   140
1041
3.5
1070
   343
1005
0
1070
   344
1005
0
1002
}
0
DIMENSION
5
118
100
AcDbEntity
8
SK2
62
256
6
ByLayer
370
13
48
1
60
0
100
AcDbDimension
2
DimnDraft3D2
10
243
20
-36.692985
30
0
11
96.3842
21
-36.692985
31
0
70
32
71
5
72
1
41
1
210
0
220
0
230
1
3
Standard
100
AcDbAlignedDimension
13
-48
23
-9.5875
33
0
14
243
24
-1.5875
34
0
50
0
100
AcDbRotatedDimension
1001
ACAD
1000
DSTYLE
1002
{
1070
   279
1070
     0
1070
   172
1070
     1
1070
   173
1070
     1
1070
   340
1005
102
1070
   271
1070
     2
1070
   272
1070
     2
1070
    77
1070
     1
1070
    73
1070
     0
1070
   171
1070
     3
1070
   274
1070
     4
1070
   177
1070
    35
1070
   176
1070
    35
1070
   178
1070
    35
1070
    48
1040
-0.005
1070
    41
1041
3.5
1070
   147
1041
1.75
1070
    42
1041
1.5875
1070
    44
1041
2.0
1070
   140
1041
3.5
1070
   343
1005
0
1070
   344
1005
0
1002
}
0
DIMENSION
5
122
100
AcDbEntity
8
SK2
62
256
6
ByLayer
370
13
48
1
60
0
100
AcDbDimension
2
DimnDraft3D3
10
243
20
19.109119
30
0
11
151.775
21
19.109119
31
0
70
32
71
5
72
1
41
1
210
0
220
0
230
1
3
Standard
100
AcDbAlignedDimension
13
60.55
23
9.0875
33
0
14
243
24
1.5875
34
0
50
0
100
AcDbRotatedDimension
1001
ACAD
1000
DSTYLE
1002
{
1070
   279
1070
     0
1070
   172
1070
     1
1070
   173
1070
     1
1070
   340
1005
102
1070
   271
1070
     2
1070
   272
1070
     2
1070
    77
1070
     1
1070
    73
1070
     0
1070
   171
1070
     3
1070
   274
1070
     4
1070
   177
1070
    35
1070
   176
1070
    35
1070
   178
1070
    35
1070
    48
1040
-0.005
1070
    41
1041
3.5
1070
   147
1041
1.75
1070
    42
1041
1.5875
1070
    44
1041
2.0
1070
   140
1041
3.5
1070
   343
1005
0
1070
   344
1005
0
1002
}
0
DIMENSION
5
12C
100
AcDbEntity
8
SK2
62
256
6
ByLayer
370
13
48
1
60
0
100
AcDbDimension
2
DimnDraft3D4
10
240.5429
20
-20.302503
30
0
11
252.981425
21
-20.302503
31
0
70
32
71
5
72
1
41
1
210
0
220
0
230
1
3
Standard
100
AcDbAlignedDimension
13
243
23
-1.5875
33
0
14
240.5429
24
-9.0875
34
0
50
0
100
AcDbRotatedDimension
1001
ACAD
1000
DSTYLE
1002
{
1070
   279
1070
     0
1070
   172
1070
     1
1070
   173
1070
     1
1070
   340
1005
102
1070
   271
1070
     2
1070
   272
1070
     2
1070
    77
1070
     1
1070
    73
1070
     0
1070
   171
1070
     3
1070
   274
1070
     4
1070
   177
1070
    35
1070
   176
1070
    35
1070
   178
1070
    35
1070
    48
1040
-0.005
1070
    41
1041
3.5
1070
   147
1041
1.75
1070
    42
1041
1.5875
1070
    44
1041
2.0
1070
   140
1041
3.5
1070
   343
1005
0
1070
   344
1005
0
1002
}
0
DIMENSION
5
136
100
AcDbEntity
8
SK2
62
256
6
ByLayer
370
13
48
1
60
0
100
AcDbDimension
2
DimnDraft3D5
10
240.5429
20
-26.343428
30
0
11
93.303576
21
-26.343428
31
0
70
32
71
5
72
1
41
1
210
0
220
0
230
1
3
Standard
100
AcDbAlignedDimension
13
-48
23
-9.5875
33
0
14
240.5429
24
-9.0875
34
0
50
0
100
AcDbRotatedDimension
1001
ACAD
1000
DSTYLE
1002
{
1070
   279
1070
     0
1070
   172
1070
     1
1070
   173
1070
     1
1070
   340
1005
102
1070
   271
1070
     2
1070
   272
1070
     2
1070
    77
1070
     1
1070
    73
1070
     0
1070
   171
1070
     3
1070
   274
1070
     4
1070
   177
1070
    35
1070
   176
1070
    35
1070
   178
1070
    35
1070
    48
1040
-0.005
1070
    41
1041
3.5
1070
   147
1041
1.75
1070
    42
1041
1.5875
1070
    44
1041
2.0
1070
   140
1041
3.5
1070
   343
1005
0
1070
   344
1005
0
1002
}
0
DIMENSION
5
141
100
AcDbEntity
8
SK2
62
256
6
ByLayer
370
13
48
1
60
0
100
AcDbDimension
2
DimnDraft3D6
10
-58.625163
20
8
30
0
11
-59.250163
21
26.47418
31
0
70
33
71
5
72
1
41
1
210
0
220
0
230
1
3
Standard
100
AcDbAlignedDimension
13
-49.5875
23
-8
33
0
14
-49.5875
24
8
34
0
1001
ACAD
1000
DSTYLE
1002
{
1070
   279
1070
     0
1070
    74
1070
     0
1070
   173
1070
     1
1070
   340
1005
102
1070
   271
1070
     3
1070
   272
1070
     2
1070
    77
1070
     1
1070
    73
1070
     0
1070
   171
1070
     3
1070
   274
1070
     4
1070
   177
1070
    35
1070
   176
1070
    35
1070
   178
1070
    35
1070
    48
1040
-0.005
1070
    41
1041
3.5
1070
   147
1041
1.75
1070
    42
1041
1.5875
1070
    44
1041
2.0
1070
   140
1041
3.5
1070
   343
1005
0
1070
   344
1005
0
1002
}
0
DIMENSION
5
14C
100
AcDbEntity
8
2
62
256
6
ByLayer
370
13
48
1
60
0
100
AcDbDimension
2
DimnDraft3D7
10
257.083343
20
7.5
30
0
11
252.458343
21
24.567266
31
0
70
33
71
5
72
1
41
1
210
0
220
0
230
1
3
Standard
100
AcDbAlignedDimension
13
242.1304
23
-7.5
33
0
14
242.1304
24
7.5
34
0
1001
ACAD
1000
DSTYLE
1002
{
1070
   279
1070
     0
1070
    74
1070
     0
1070
   173
1070
     1
1070
   340
1005
102
1070
   271
1070
     3
1070
   272
1070
     2
1070
    77
1070
     1
1070
    73
1070
     0
1070
   171
1070
     3
1070
   274
1070
     4
1070
   177
1070
    35
1070
   176
1070
    35
1070
   178
1070
    35
1070
    48
1040
-0.005
1070
    41
1041
3.5
1070
   147
1041
1.75
1070
    42
1041
1.5875
1070
    44
1041
2.0
1070
   140
1041
3.5
1070
   343
1005
0
1070
   344
1005
0
1002
}
0
ENDSEC
0
SECTION
2
OBJECTS
0
DICTIONARY
5
1b7
330
0
100
AcDbDictionary
280
0
281
1
3
ACAD_GROUP
350
1b8
3
ACAD_MLINESTYLE
350
1b9
0
DICTIONARY
5
1b8
330
0
100
AcDbDictionary
280
0
281
1
0
DICTIONARY
5
1b9
330
0
100
AcDbDictionary
280
0
281
1
3
Standard
350
18
0
MLINESTYLE
5
18
330
1b9
100
AcDbMlineStyle
2
Standard
70
0
3

62
256
51
90
52
90
71
2
49
-0.5
62
256
6
ByLayer
49
0.5
62
256
6
ByLayer
0
RASTERVARIABLES
5
1a5
330

100
AcDbRasterVariables
90
0
70
1
71
1
72
1
0
ENDSEC
0
EOF
