  0
SECTION
  2
HEADER
  9
$ACADVER
  1
AC1015
  9
$ACADMAINTVER
 70
    20
  9
$DWGCODEPAGE
  3
ANSI_1252
  9
$INSBASE
 10
0.0
 20
0.0
 30
0.0
  9
$EXTMIN
 10
-56.50840862551092
 20
-42.22152255478556
 30
-0.0000000349181948
  9
$EXTMAX
 10
194.9279692289901
 20
28.00395591010286
 30
0.0000000814935747
  9
$LIMMIN
 10
0.0
 20
0.0
  9
$LIMMAX
 10
12.0
 20
9.0
  9
$ORTHOMODE
 70
     0
  9
$REGENMODE
 70
     1
  9
$FILLMODE
 70
     1
  9
$QTEXTMODE
 70
     0
  9
$MIRRTEXT
 70
     1
  9
$LTSCALE
 40
1.0
  9
$ATTMODE
 70
     1
  9
$TEXTSIZE
 40
3.0
  9
$TRACEWID
 40
10.0
  9
$TEXTSTYLE
  7
SANDVIK_STYLE
  9
$CLAYER
  8
SK2
  9
$CELTYPE
  6
ByLayer
  9
$CECOLOR
 62
   256
  9
$CELTSCALE
 40
1.0
  9
$DISPSILH
 70
     0
  9
$DIMSCALE
 40
0.0
  9
$DIMASZ
 40
4.57
  9
$DIMEXO
 40
0.0
  9
$DIMDLI
 40
0.38
  9
$DIMRND
 40
0.0
  9
$DIMDLE
 40
0.0
  9
$DIMEXE
 40
5.0
  9
$DIMTP
 40
0.0
  9
$DIMTM
 40
0.0
  9
$DIMTXT
 40
4.5
  9
$DIMCEN
 40
0.09
  9
$DIMTSZ
 40
0.0
  9
$DIMTOL
 70
     0
  9
$DIMLIM
 70
     0
  9
$DIMTIH
 70
     0
  9
$DIMTOH
 70
     0
  9
$DIMSE1
 70
     0
  9
$DIMSE2
 70
     0
  9
$DIMTAD
 70
     1
  9
$DIMZIN
 70
     8
  9
$DIMBLK
  1

  9
$DIMASO
 70
     1
  9
$DIMSHO
 70
     1
  9
$DIMPOST
  1
 
  9
$DIMAPOST
  1
 
  9
$DIMALT
 70
     0
  9
$DIMALTD
 70
     2
  9
$DIMALTF
 40
25.4
  9
$DIMLFAC
 40
1.0
  9
$DIMTOFL
 70
     0
  9
$DIMTVP
 40
0.0
  9
$DIMTIX
 70
     0
  9
$DIMSOXD
 70
     0
  9
$DIMSAH
 70
     0
  9
$DIMBLK1
  1

  9
$DIMBLK2
  1

  9
$DIMSTYLE
  2
SANDVIK_DIM
  9
$DIMCLRD
 70
   256
  9
$DIMCLRE
 70
   256
  9
$DIMCLRT
 70
   256
  9
$DIMTFAC
 40
1.0
  9
$DIMGAP
 40
2.299999999999998
  9
$DIMJUST
 70
     0
  9
$DIMSD1
 70
     0
  9
$DIMSD2
 70
     0
  9
$DIMTOLJ
 70
     1
  9
$DIMTZIN
 70
     0
  9
$DIMALTZ
 70
     0
  9
$DIMALTTZ
 70
     0
  9
$DIMUPT
 70
     0
  9
$DIMDEC
 70
     2
  9
$DIMTDEC
 70
     2
  9
$DIMALTU
 70
     2
  9
$DIMALTTD
 70
     2
  9
$DIMTXSTY
  7
SANDVIK_STYLE
  9
$DIMAUNIT
 70
     0
  9
$DIMADEC
 70
     0
  9
$DIMALTRND
 40
0.0
  9
$DIMAZIN
 70
     0
  9
$DIMDSEP
 70
    46
  9
$DIMATFIT
 70
     3
  9
$DIMFRAC
 70
     0
  9
$DIMLDRBLK
  1

  9
$DIMLUNIT
 70
     2
  9
$DIMLWD
 70
    -2
  9
$DIMLWE
 70
    -2
  9
$DIMTMOVE
 70
     2
  9
$LUNITS
 70
     2
  9
$LUPREC
 70
     2
  9
$SKETCHINC
 40
0.0
  9
$FILLETRAD
 40
0.0
  9
$AUNITS
 70
     0
  9
$AUPREC
 70
     2
  9
$MENU
  1
acad
  9
$ELEVATION
 40
0.0
  9
$PELEVATION
 40
0.0
  9
$THICKNESS
 40
0.0
  9
$LIMCHECK
 70
     0
  9
$CHAMFERA
 40
0.0
  9
$CHAMFERB
 40
0.0
  9
$CHAMFERC
 40
0.0
  9
$CHAMFERD
 40
0.0
  9
$SKPOLY
 70
     0
  9
$TDCREATE
 40
2455817.646292060
  9
$TDUCREATE
 40
2455817.562958727
  9
$TDUPDATE
 40
2456818.536624502
  9
$TDUUPDATE
 40
2456818.453291169
  9
$TDINDWG
 40
0.0907844097
  9
$TDUSRTIMER
 40
0.0907843519
  9
$USRTIMER
 70
     1
  9
$ANGBASE
 50
0.0
  9
$ANGDIR
 70
     0
  9
$PDMODE
 70
     0
  9
$PDSIZE
 40
0.0
  9
$PLINEWID
 40
0.0
  9
$SPLFRAME
 70
     0
  9
$SPLINETYPE
 70
     6
  9
$SPLINESEGS
 70
     8
  9
$HANDSEED
  5
320E
  9
$SURFTAB1
 70
     6
  9
$SURFTAB2
 70
     6
  9
$SURFTYPE
 70
     6
  9
$SURFU
 70
     6
  9
$SURFV
 70
     6
  9
$UCSBASE
  2

  9
$UCSNAME
  2

  9
$UCSORG
 10
0.0
 20
0.0
 30
0.0
  9
$UCSXDIR
 10
1.0
 20
0.0
 30
0.0
  9
$UCSYDIR
 10
0.0
 20
1.0
 30
0.0
  9
$UCSORTHOREF
  2

  9
$UCSORTHOVIEW
 70
     0
  9
$UCSORGTOP
 10
0.0
 20
0.0
 30
0.0
  9
$UCSORGBOTTOM
 10
0.0
 20
0.0
 30
0.0
  9
$UCSORGLEFT
 10
0.0
 20
0.0
 30
0.0
  9
$UCSORGRIGHT
 10
0.0
 20
0.0
 30
0.0
  9
$UCSORGFRONT
 10
0.0
 20
0.0
 30
0.0
  9
$UCSORGBACK
 10
0.0
 20
0.0
 30
0.0
  9
$PUCSBASE
  2

  9
$PUCSNAME
  2

  9
$PUCSORG
 10
0.0
 20
0.0
 30
0.0
  9
$PUCSXDIR
 10
1.0
 20
0.0
 30
0.0
  9
$PUCSYDIR
 10
0.0
 20
1.0
 30
0.0
  9
$PUCSORTHOREF
  2

  9
$PUCSORTHOVIEW
 70
     0
  9
$PUCSORGTOP
 10
0.0
 20
0.0
 30
0.0
  9
$PUCSORGBOTTOM
 10
0.0
 20
0.0
 30
0.0
  9
$PUCSORGLEFT
 10
0.0
 20
0.0
 30
0.0
  9
$PUCSORGRIGHT
 10
0.0
 20
0.0
 30
0.0
  9
$PUCSORGFRONT
 10
0.0
 20
0.0
 30
0.0
  9
$PUCSORGBACK
 10
0.0
 20
0.0
 30
0.0
  9
$USERI1
 70
     0
  9
$USERI2
 70
     0
  9
$USERI3
 70
     0
  9
$USERI4
 70
     0
  9
$USERI5
 70
     0
  9
$USERR1
 40
0.0
  9
$USERR2
 40
0.0
  9
$USERR3
 40
0.0
  9
$USERR4
 40
0.0
  9
$USERR5
 40
0.0
  9
$WORLDVIEW
 70
     1
  9
$SHADEDGE
 70
     3
  9
$SHADEDIF
 70
    70
  9
$TILEMODE
 70
     1
  9
$MAXACTVP
 70
    16
  9
$PINSBASE
 10
0.0
 20
0.0
 30
0.0
  9
$PLIMCHECK
 70
     0
  9
$PEXTMIN
 10
1.000000000000000E+20
 20
1.000000000000000E+20
 30
1.000000000000000E+20
  9
$PEXTMAX
 10
-1.000000000000000E+20
 20
-1.000000000000000E+20
 30
-1.000000000000000E+20
  9
$PLIMMIN
 10
0.0
 20
0.0
  9
$PLIMMAX
 10
12.0
 20
9.0
  9
$UNITMODE
 70
     0
  9
$VISRETAIN
 70
     0
  9
$PLINEGEN
 70
     0
  9
$PSLTSCALE
 70
     1
  9
$TREEDEPTH
 70
  3020
  9
$CMLSTYLE
  2
Standard
  9
$CMLJUST
 70
     0
  9
$CMLSCALE
 40
1.0
  9
$PROXYGRAPHICS
 70
     1
  9
$MEASUREMENT
 70
     0
  9
$CELWEIGHT
370
    -1
  9
$ENDCAPS
280
     0
  9
$JOINSTYLE
280
     0
  9
$LWDISPLAY
290
     0
  9
$INSUNITS
 70
     0
  9
$HYPERLINKBASE
  1

  9
$STYLESHEET
  1

  9
$XEDIT
290
     1
  9
$CEPSNTYPE
380
     0
  9
$PSTYLEMODE
290
     1
  9
$FINGERPRINTGUID
  2
{BC6BEBD7-5C89-4B2E-99DC-E3119A1637E9}
  9
$VERSIONGUID
  2
{53706C9B-B3A5-4BA5-AB6C-71EFD6868AE3}
  9
$EXTNAMES
290
     1
  9
$PSVPSCALE
 40
0.0
  9
$OLESTARTUP
290
     0
  0
ENDSEC
  0
SECTION
  2
CLASSES
  0
CLASS
  1
ACDBDICTIONARYWDFLT
  2
AcDbDictionaryWithDefault
  3
ObjectDBX Classes
 90
        0
280
     0
281
     0
  0
CLASS
  1
MATERIAL
  2
AcDbMaterial
  3
ObjectDBX Classes
 90
     1153
280
     0
281
     0
  0
CLASS
  1
VISUALSTYLE
  2
AcDbVisualStyle
  3
ObjectDBX Classes
 90
     4095
280
     0
281
     0
  0
CLASS
  1
TABLESTYLE
  2
AcDbTableStyle
  3
ObjectDBX Classes
 90
     4095
280
     0
281
     0
  0
CLASS
  1
SCALE
  2
AcDbScale
  3
ObjectDBX Classes
 90
     1153
280
     0
281
     0
  0
CLASS
  1
MLEADERSTYLE
  2
AcDbMLeaderStyle
  3
ACDB_MLEADERSTYLE_CLASS
 90
     4095
280
     0
281
     0
  0
CLASS
  1
ACDBSECTIONVIEWSTYLE
  2
AcDbSectionViewStyle
  3
ObjectDBX Classes
 90
     1025
280
     0
281
     0
  0
CLASS
  1
ACDBDETAILVIEWSTYLE
  2
AcDbDetailViewStyle
  3
ObjectDBX Classes
 90
     1025
280
     0
281
     0
  0
CLASS
  1
EXACXREFPANELOBJECT
  2
ExAcXREFPanelObject
  3
EXAC_ESW
 90
     1025
280
     0
281
     0
  0
CLASS
  1
NPOCOLLECTION
  2
AcDbImpNonPersistentObjectsCollection
  3
ObjectDBX Classes
 90
     1153
280
     0
281
     0
  0
CLASS
  1
DICTIONARYVAR
  2
AcDbDictionaryVar
  3
ObjectDBX Classes
 90
        0
280
     0
281
     0
  0
CLASS
  1
CELLSTYLEMAP
  2
AcDbCellStyleMap
  3
ObjectDBX Classes
 90
     1152
280
     0
281
     0
  0
CLASS
  1
ACDBPLACEHOLDER
  2
AcDbPlaceHolder
  3
ObjectDBX Classes
 90
        0
280
     0
281
     0
  0
CLASS
  1
LAYOUT
  2
AcDbLayout
  3
ObjectDBX Classes
 90
        0
280
     0
281
     0
  0
ENDSEC
  0
SECTION
  2
TABLES
  0
TABLE
  2
VPORT
  5
BDF
330
0
100
AcDbSymbolTable
 70
     1
  0
VPORT
  5
3120
330
BDF
100
AcDbSymbolTableRecord
100
AcDbViewportTableRecord
  2
*Active
 70
     0
 10
0.0
 20
0.0
 11
1.0
 21
1.0
 12
69.2097803017396
 22
-7.108783322341352
 13
0.0
 23
0.0
 14
1.0
 24
1.0
 15
0.0
 25
0.0
 16
0.0
 26
0.0
 36
1.0
 17
0.0
 27
0.0
 37
0.0
 40
127.4023412729747
 41
2.2
 42
50.0
 43
0.0
 44
0.0
 50
0.0
 51
0.0
 71
     0
 72
   100
 73
     1
 74
     1
 75
     0
 76
     0
 77
     0
 78
     0
281
     0
 65
     1
110
0.0
120
0.0
130
0.0
111
1.0
121
0.0
131
0.0
112
0.0
122
1.0
132
0.0
 79
     0
146
0.0
1001
ACAD_NAV_VCDISPLAY
1070
     3
  0
ENDTAB
  0
TABLE
  2
LTYPE
  5
BDC
330
0
100
AcDbSymbolTable
 70
     4
  0
LTYPE
  5
BEA
330
BDC
100
AcDbSymbolTableRecord
100
AcDbLinetypeTableRecord
  2
ByBlock
 70
     0
  3

 72
    65
 73
     0
 40
0.0
  0
LTYPE
  5
BEB
330
BDC
100
AcDbSymbolTableRecord
100
AcDbLinetypeTableRecord
  2
ByLayer
 70
     0
  3

 72
    65
 73
     0
 40
0.0
  0
LTYPE
  5
BEC
330
BDC
100
AcDbSymbolTableRecord
100
AcDbLinetypeTableRecord
  2
CONTINUOUS
 70
     0
  3
Solid line
 72
    65
 73
     0
 40
0.0
  0
LTYPE
  5
BFE
330
BDC
100
AcDbSymbolTableRecord
100
AcDbLinetypeTableRecord
  2
CENTER
 70
     0
  3
____ _ ____ _ ____ _ ____ _ ____ _ ____ _ ____
 72
    65
 73
     4
 40
5.059897
 49
3.162434999999998
 74
     0
 49
-0.6324870000000003
 74
     0
 49
0.6324870000000003
 74
     0
 49
-0.6324870000000003
 74
     0
  0
LTYPE
  5
BFF
330
BDC
100
AcDbSymbolTableRecord
100
AcDbLinetypeTableRecord
  2
DASHED
 70
     0
  3
__ __ __ __ __ __ __ __ __ __ __ __ __ __ __ __
 72
    65
 73
     2
 40
7.589844999999997
 49
5.059897
 74
     0
 49
-2.529948
 74
     0
  0
LTYPE
  5
316C
330
BDC
100
AcDbSymbolTableRecord
100
AcDbLinetypeTableRecord
  2
PHANTOM2
 70
     0
  3
Phantom (.5x) ___ _ _ ___ _ _ ___ _ _ ___ _ _
 72
    65
 73
     6
 40
1.25
 49
0.625
 74
     0
 49
-0.125
 74
     0
 49
0.125
 74
     0
 49
-0.125
 74
     0
 49
0.125
 74
     0
 49
-0.125
 74
     0
  0
ENDTAB
  0
TABLE
  2
LAYER
  5
BD9
330
0
100
AcDbSymbolTable
 70
    40
  0
LAYER
  5
BE7
102
{ACAD_XDICTIONARY
360
3174
102
}
330
BD9
100
AcDbSymbolTableRecord
100
AcDbLayerTableRecord
  2
0
 70
     0
 62
     7
  6
CONTINUOUS
370
    -3
390
BE6
  0
LAYER
  5
BFB
102
{ACAD_XDICTIONARY
360
3176
102
}
330
BD9
100
AcDbSymbolTableRecord
100
AcDbLayerTableRecord
  2
3
 70
     0
 62
     1
  6
DASHED
370
    -3
390
BE6
  0
LAYER
  5
C00
102
{ACAD_XDICTIONARY
360
3178
102
}
330
BD9
100
AcDbSymbolTableRecord
100
AcDbLayerTableRecord
  2
1
 70
     0
 62
     4
  6
CONTINUOUS
370
    -3
390
BE6
  0
LAYER
  5
C01
102
{ACAD_XDICTIONARY
360
317A
102
}
330
BD9
100
AcDbSymbolTableRecord
100
AcDbLayerTableRecord
  2
61
 70
     0
 62
     5
  6
CONTINUOUS
370
    -3
390
BE6
  0
LAYER
  5
C02
102
{ACAD_XDICTIONARY
360
317C
102
}
330
BD9
100
AcDbSymbolTableRecord
100
AcDbLayerTableRecord
  2
62
 70
     0
 62
    -5
  6
CONTINUOUS
370
    -3
390
BE6
  0
LAYER
  5
C03
102
{ACAD_XDICTIONARY
360
317E
102
}
330
BD9
100
AcDbSymbolTableRecord
100
AcDbLayerTableRecord
  2
63
 70
     0
 62
    -5
  6
CONTINUOUS
370
    -3
390
BE6
  0
LAYER
  5
C04
102
{ACAD_XDICTIONARY
360
3180
102
}
330
BD9
100
AcDbSymbolTableRecord
100
AcDbLayerTableRecord
  2
64
 70
     0
 62
    -5
  6
CONTINUOUS
370
    -3
390
BE6
  0
LAYER
  5
C05
102
{ACAD_XDICTIONARY
360
3182
102
}
330
BD9
100
AcDbSymbolTableRecord
100
AcDbLayerTableRecord
  2
65
 70
     0
 62
    -5
  6
CONTINUOUS
370
    -3
390
BE6
  0
LAYER
  5
C06
102
{ACAD_XDICTIONARY
360
3184
102
}
330
BD9
100
AcDbSymbolTableRecord
100
AcDbLayerTableRecord
  2
66
 70
     0
 62
    -5
  6
CONTINUOUS
370
    -3
390
BE6
  0
LAYER
  5
C07
102
{ACAD_XDICTIONARY
360
3186
102
}
330
BD9
100
AcDbSymbolTableRecord
100
AcDbLayerTableRecord
  2
67
 70
     0
 62
    -5
  6
CONTINUOUS
370
    -3
390
BE6
  0
LAYER
  5
C08
102
{ACAD_XDICTIONARY
360
3188
102
}
330
BD9
100
AcDbSymbolTableRecord
100
AcDbLayerTableRecord
  2
68
 70
     0
 62
    -5
  6
CONTINUOUS
370
    -3
390
BE6
  0
LAYER
  5
C09
102
{ACAD_XDICTIONARY
360
318A
102
}
330
BD9
100
AcDbSymbolTableRecord
100
AcDbLayerTableRecord
  2
69
 70
     0
 62
    -5
  6
CONTINUOUS
370
    -3
390
BE6
  0
LAYER
  5
C0A
102
{ACAD_XDICTIONARY
360
318C
102
}
330
BD9
100
AcDbSymbolTableRecord
100
AcDbLayerTableRecord
  2
70
 70
     0
 62
     5
  6
CONTINUOUS
370
    -3
390
BE6
  0
LAYER
  5
C0B
102
{ACAD_XDICTIONARY
360
318E
102
}
330
BD9
100
AcDbSymbolTableRecord
100
AcDbLayerTableRecord
  2
2
 70
     0
 62
     7
  6
CONTINUOUS
370
    -3
390
BE6
  0
LAYER
  5
C0C
102
{ACAD_XDICTIONARY
360
3190
102
}
330
BD9
100
AcDbSymbolTableRecord
100
AcDbLayerTableRecord
  2
4
 70
     0
 62
    -2
  6
CENTER
370
    -3
390
BE6
  0
LAYER
  5
C0D
102
{ACAD_XDICTIONARY
360
3192
102
}
330
BD9
100
AcDbSymbolTableRecord
100
AcDbLayerTableRecord
  2
5
 70
     0
 62
    -7
  6
CONTINUOUS
370
    -3
390
BE6
  0
LAYER
  5
C0E
102
{ACAD_XDICTIONARY
360
3194
102
}
330
BD9
100
AcDbSymbolTableRecord
100
AcDbLayerTableRecord
  2
SK1
 70
     0
 62
     4
  6
CONTINUOUS
370
    -3
390
BE6
  0
LAYER
  5
C0F
102
{ACAD_XDICTIONARY
360
3196
102
}
330
BD9
100
AcDbSymbolTableRecord
100
AcDbLayerTableRecord
  2
6
 70
     0
 62
     5
  6
CONTINUOUS
370
    -3
390
BE6
  0
LAYER
  5
C10
102
{ACAD_XDICTIONARY
360
3198
102
}
330
BD9
100
AcDbSymbolTableRecord
100
AcDbLayerTableRecord
  2
SK2
 70
     0
 62
     7
  6
CONTINUOUS
370
    -3
390
BE6
  0
LAYER
  5
C11
102
{ACAD_XDICTIONARY
360
319A
102
}
330
BD9
100
AcDbSymbolTableRecord
100
AcDbLayerTableRecord
  2
SK3
 70
     0
 62
     1
  6
DASHED
370
    -3
390
BE6
  0
LAYER
  5
C12
102
{ACAD_XDICTIONARY
360
319C
102
}
330
BD9
100
AcDbSymbolTableRecord
100
AcDbLayerTableRecord
  2
SK4
 70
     0
 62
     2
  6
CENTER
370
    -3
390
BE6
  0
LAYER
  5
C13
102
{ACAD_XDICTIONARY
360
319E
102
}
330
BD9
100
AcDbSymbolTableRecord
100
AcDbLayerTableRecord
  2
CUT
 70
     0
 62
     1
  6
CONTINUOUS
370
    -3
390
BE6
  0
LAYER
  5
C14
102
{ACAD_XDICTIONARY
360
31A0
102
}
330
BD9
100
AcDbSymbolTableRecord
100
AcDbLayerTableRecord
  2
SK6
 70
     0
 62
     5
  6
CONTINUOUS
370
    -3
390
BE6
  0
LAYER
  5
C15
102
{ACAD_XDICTIONARY
360
31A2
102
}
330
BD9
100
AcDbSymbolTableRecord
100
AcDbLayerTableRecord
  2
80
 70
     0
 62
    -2
  6
CENTER
370
    -3
390
BE6
  0
LAYER
  5
C16
102
{ACAD_XDICTIONARY
360
31A4
102
}
330
BD9
100
AcDbSymbolTableRecord
100
AcDbLayerTableRecord
  2
81
 70
     0
 62
    -2
  6
CENTER
370
    -3
390
BE6
  0
LAYER
  5
C17
102
{ACAD_XDICTIONARY
360
31A6
102
}
330
BD9
100
AcDbSymbolTableRecord
100
AcDbLayerTableRecord
  2
82
 70
     0
 62
    -2
  6
CENTER
370
    -3
390
BE6
  0
LAYER
  5
C18
102
{ACAD_XDICTIONARY
360
31A8
102
}
330
BD9
100
AcDbSymbolTableRecord
100
AcDbLayerTableRecord
  2
NOCUT
 70
     0
 62
     7
  6
CONTINUOUS
370
    -3
390
BE6
  0
LAYER
  5
C19
102
{ACAD_XDICTIONARY
360
31AA
102
}
330
BD9
100
AcDbSymbolTableRecord
100
AcDbLayerTableRecord
  2
50
 70
     0
 62
    -7
  6
CONTINUOUS
370
    -3
390
BE6
  0
LAYER
  5
C1A
102
{ACAD_XDICTIONARY
360
31AC
102
}
330
BD9
100
AcDbSymbolTableRecord
100
AcDbLayerTableRecord
  2
51
 70
     0
 62
     7
  6
CONTINUOUS
370
    -3
390
BE6
  0
LAYER
  5
C1B
102
{ACAD_XDICTIONARY
360
31AE
102
}
330
BD9
100
AcDbSymbolTableRecord
100
AcDbLayerTableRecord
  2
52
 70
     0
 62
    -7
  6
CONTINUOUS
370
    -3
390
BE6
  0
LAYER
  5
C1C
102
{ACAD_XDICTIONARY
360
31B0
102
}
330
BD9
100
AcDbSymbolTableRecord
100
AcDbLayerTableRecord
  2
53
 70
     0
 62
    -7
  6
CONTINUOUS
370
    -3
390
BE6
  0
LAYER
  5
C1D
102
{ACAD_XDICTIONARY
360
31B2
102
}
330
BD9
100
AcDbSymbolTableRecord
100
AcDbLayerTableRecord
  2
54
 70
     0
 62
    -7
  6
CONTINUOUS
370
    -3
390
BE6
  0
LAYER
  5
C1E
102
{ACAD_XDICTIONARY
360
31B4
102
}
330
BD9
100
AcDbSymbolTableRecord
100
AcDbLayerTableRecord
  2
55
 70
     0
 62
    -7
  6
CONTINUOUS
370
    -3
390
BE6
  0
LAYER
  5
C1F
102
{ACAD_XDICTIONARY
360
31B6
102
}
330
BD9
100
AcDbSymbolTableRecord
100
AcDbLayerTableRecord
  2
56
 70
     0
 62
    -7
  6
CONTINUOUS
370
    -3
390
BE6
  0
LAYER
  5
C20
102
{ACAD_XDICTIONARY
360
31B8
102
}
330
BD9
100
AcDbSymbolTableRecord
100
AcDbLayerTableRecord
  2
57
 70
     0
 62
    -7
  6
CONTINUOUS
370
    -3
390
BE6
  0
LAYER
  5
C21
102
{ACAD_XDICTIONARY
360
31BA
102
}
330
BD9
100
AcDbSymbolTableRecord
100
AcDbLayerTableRecord
  2
58
 70
     0
 62
    -7
  6
CONTINUOUS
370
    -3
390
BE6
  0
LAYER
  5
C22
102
{ACAD_XDICTIONARY
360
31BC
102
}
330
BD9
100
AcDbSymbolTableRecord
100
AcDbLayerTableRecord
  2
2L
 70
     0
 62
     7
  6
CONTINUOUS
370
    -3
390
BE6
  0
LAYER
  5
C23
102
{ACAD_XDICTIONARY
360
31BE
102
}
330
BD9
100
AcDbSymbolTableRecord
100
AcDbLayerTableRecord
  2
59
 70
     0
 62
    -7
  6
CONTINUOUS
370
    -3
390
BE6
  0
LAYER
  5
C24
330
BD9
100
AcDbSymbolTableRecord
100
AcDbLayerTableRecord
  2
DEFPOINTS
 70
     0
 62
     7
  6
CONTINUOUS
290
     0
370
    -3
390
BE6
  0
LAYER
  5
C42
102
{ACAD_XDICTIONARY
360
31C0
102
}
330
BD9
100
AcDbSymbolTableRecord
100
AcDbLayerTableRecord
  2
TFR-TRI
 70
     0
 62
     7
  6
CONTINUOUS
370
    -3
390
BE6
  0
ENDTAB
  0
TABLE
  2
STYLE
  5
BDA
330
0
100
AcDbSymbolTable
 70
     2
  0
STYLE
  5
BE8
330
BDA
100
AcDbSymbolTableRecord
100
AcDbTextStyleTableRecord
  2
STANDARD
 70
     0
 40
0.0
 41
1.0
 50
0.0
 71
     0
 42
4.5
  3
simplex.shx
  4

  0
STYLE
  5
BFC
330
BDA
100
AcDbSymbolTableRecord
100
AcDbTextStyleTableRecord
  2
SANDVIK_STYLE
 70
     0
 40
3.0
 41
1.0
 50
0.0
 71
     0
 42
3.0
  3
simplex.shx
  4

  0
ENDTAB
  0
TABLE
  2
VIEW
  5
BDD
330
0
100
AcDbSymbolTable
 70
     0
  0
ENDTAB
  0
TABLE
  2
UCS
  5
BDE
330
0
100
AcDbSymbolTable
 70
     0
  0
ENDTAB
  0
TABLE
  2
APPID
  5
BE0
330
0
100
AcDbSymbolTable
 70
     4
  0
APPID
  5
BE9
330
BE0
100
AcDbSymbolTableRecord
100
AcDbRegAppTableRecord
  2
ACAD
 70
     0
  0
APPID
  5
31C4
330
BE0
100
AcDbSymbolTableRecord
100
AcDbRegAppTableRecord
  2
DCO15
 70
     0
  0
APPID
  5
31D0
330
BE0
100
AcDbSymbolTableRecord
100
AcDbRegAppTableRecord
  2
ACAD_NAV_VCDISPLAY
 70
     0
  0
APPID
  5
320D
330
BE0
100
AcDbSymbolTableRecord
100
AcDbRegAppTableRecord
  2
ACAD_MLEADERVER
 70
     0
  0
ENDTAB
  0
TABLE
  2
DIMSTYLE
  5
BE1
330
0
100
AcDbSymbolTable
 70
     2
100
AcDbDimStyleTable
 71
     1
340
C26
  0
DIMSTYLE
105
C25
330
BE1
100
AcDbSymbolTableRecord
100
AcDbDimStyleTableRecord
  2
STANDARD
 70
     0
  3
 
  4
 
 41
3.0
 42
2.5
 43
10.0
 44
2.5
 46
1.25
 73
     0
 74
     0
140
3.0
141
-3.0
143
0.039
145
1.5
146
0.75
147
1.5
271
     2
272
     2
279
     2
340
BFC
  0
DIMSTYLE
105
C26
102
{ACAD_REACTORS
330
307F
330
308C
330
309A
330
30A8
330
30B5
330
30C2
330
30CF
102
}
330
BE1
100
AcDbSymbolTableRecord
100
AcDbDimStyleTableRecord
  2
SANDVIK_DIM
 70
     0
  3
 
  4
 
 40
0.0
 41
4.57
 42
0.0
 44
5.0
 73
     0
 74
     0
 77
     1
 78
     8
140
4.5
147
2.299999999999998
176
   256
177
   256
178
   256
271
     2
272
     2
279
     2
340
BFC
  0
ENDTAB
  0
TABLE
  2
BLOCK_RECORD
  5
BD8
330
0
100
AcDbSymbolTable
 70
     9
  0
BLOCK_RECORD
  5
BF7
330
BD8
100
AcDbSymbolTableRecord
100
AcDbBlockTableRecord
  2
*Model_Space
340
BFA
  0
BLOCK_RECORD
  5
BF3
330
BD8
100
AcDbSymbolTableRecord
100
AcDbBlockTableRecord
  2
*Paper_Space
340
BF6
  0
BLOCK_RECORD
  5
C28
330
BD8
100
AcDbSymbolTableRecord
100
AcDbBlockTableRecord
  2
$MODEL_SPACE
340
0
  0
BLOCK_RECORD
  5
C2A
330
BD8
100
AcDbSymbolTableRecord
100
AcDbBlockTableRecord
  2
$PAPER_SPACE
340
0
  0
BLOCK_RECORD
  5
3080
330
BD8
100
AcDbSymbolTableRecord
100
AcDbBlockTableRecord
  2
*D2
340
0
  0
BLOCK_RECORD
  5
308D
330
BD8
100
AcDbSymbolTableRecord
100
AcDbBlockTableRecord
  2
*D3
340
0
  0
BLOCK_RECORD
  5
309B
330
BD8
100
AcDbSymbolTableRecord
100
AcDbBlockTableRecord
  2
*D4
340
0
  0
BLOCK_RECORD
  5
30A9
330
BD8
100
AcDbSymbolTableRecord
100
AcDbBlockTableRecord
  2
*D5
340
0
  0
BLOCK_RECORD
  5
30B6
330
BD8
100
AcDbSymbolTableRecord
100
AcDbBlockTableRecord
  2
*D6
340
0
  0
BLOCK_RECORD
  5
30C3
330
BD8
100
AcDbSymbolTableRecord
100
AcDbBlockTableRecord
  2
*D7
340
0
  0
BLOCK_RECORD
  5
30D0
330
BD8
100
AcDbSymbolTableRecord
100
AcDbBlockTableRecord
  2
*D8
340
0
  0
ENDTAB
  0
ENDSEC
  0
SECTION
  2
BLOCKS
  0
BLOCK
  5
BF8
330
BF7
100
AcDbEntity
  8
0
100
AcDbBlockBegin
  2
*Model_Space
 70
     0
 10
0.0
 20
0.0
 30
0.0
  3
*Model_Space
  1

  0
ENDBLK
  5
BF9
330
BF7
100
AcDbEntity
  8
0
100
AcDbBlockEnd
  0
BLOCK
  5
BF4
330
BF3
100
AcDbEntity
 67
     1
  8
0
100
AcDbBlockBegin
  2
*Paper_Space
 70
     0
 10
0.0
 20
0.0
 30
0.0
  3
*Paper_Space
  1

  0
ENDBLK
  5
BF5
330
BF3
100
AcDbEntity
 67
     1
  8
0
100
AcDbBlockEnd
  0
BLOCK
  5
C29
330
C28
100
AcDbEntity
  8
0
100
AcDbBlockBegin
  2
$MODEL_SPACE
 70
     0
 10
0.0
 20
0.0
 30
0.0
  3
$MODEL_SPACE
  1

  0
ENDBLK
  5
AEF
330
C28
100
AcDbEntity
  8
0
100
AcDbBlockEnd
  0
BLOCK
  5
C2B
330
C2A
100
AcDbEntity
  8
0
100
AcDbBlockBegin
  2
$PAPER_SPACE
 70
     0
 10
0.0
 20
0.0
 30
0.0
  3
$PAPER_SPACE
  1

  0
ENDBLK
  5
AEB
330
C2A
100
AcDbEntity
  8
0
100
AcDbBlockEnd
  0
BLOCK
  5
308A
330
3080
100
AcDbEntity
  8
0
100
AcDbBlockBegin
  2
*D2
 70
     1
 10
0.0
 20
0.0
 30
0.0
  3
*D2
  1

  0
LINE
  5
3081
330
3080
100
AcDbEntity
  8
SK2
370
    -2
100
AcDbLine
 10
181.50874
 20
5.357811999999999
 30
0.0
 11
181.50874
 21
20.95148424293404
 31
0.0
  0
LINE
  5
3082
330
3080
100
AcDbEntity
  8
SK2
370
    -2
100
AcDbLine
 10
52.92123999999998
 20
5.357812000000015
 30
0.0
 11
52.92123999999998
 21
20.95148424293404
 31
0.0
  0
LINE
  5
3083
330
3080
100
AcDbEntity
  8
SK2
370
    -2
100
AcDbLine
 10
176.93874
 20
15.95148424293404
 30
0.0
 11
57.49123999999998
 21
15.95148424293404
 31
0.0
  0
SOLID
  5
3084
330
3080
100
AcDbEntity
  8
SK2
100
AcDbTrace
 10
176.93874
 20
16.71315090960071
 30
0.0
 11
176.93874
 21
15.18981757626737
 31
0.0
 12
181.50874
 22
15.95148424293404
 32
0.0
 13
181.50874
 23
15.95148424293404
 33
0.0
  0
SOLID
  5
3085
330
3080
100
AcDbEntity
  8
SK2
100
AcDbTrace
 10
57.49123999999998
 20
16.71315090960071
 30
0.0
 11
57.49123999999998
 21
15.18981757626737
 31
0.0
 12
52.92123999999998
 22
15.95148424293404
 32
0.0
 13
52.92123999999998
 23
15.95148424293404
 33
0.0
  0
MTEXT
  5
3086
330
3080
100
AcDbEntity
  8
SK2
100
AcDbMText
 10
117.21499
 20
19.75148424293404
 30
0.0
 40
3.0
 41
0.0
 71
     5
 72
     1
  1
\A1;128.59 
  7
SANDVIK_STYLE
 73
     1
 44
1.0
1001
ACAD
1000
MTEXTBEGIN
1070
    73
1070
     1
1070
    44
1040
1.0
1070
    74
1070
     0
1000
MTEXTEND
  0
POINT
  5
3087
330
3080
100
AcDbEntity
  8
DEFPOINTS
 62
     0
100
AcDbPoint
 10
181.50874
 20
5.357811999999999
 30
0.0
  0
POINT
  5
3088
330
3080
100
AcDbEntity
  8
DEFPOINTS
 62
     0
100
AcDbPoint
 10
52.92123999999998
 20
5.357812000000015
 30
0.0
  0
POINT
  5
3089
330
3080
100
AcDbEntity
  8
DEFPOINTS
 62
     0
100
AcDbPoint
 10
52.92123999999998
 20
15.95148424293404
 30
0.0
  0
ENDBLK
  5
308B
330
3080
100
AcDbEntity
  8
0
100
AcDbBlockEnd
  0
BLOCK
  5
3098
330
308D
100
AcDbEntity
  8
0
100
AcDbBlockBegin
  2
*D3
 70
     1
 10
0.0
 20
0.0
 30
0.0
  3
*D3
  1

  0
LINE
  5
310C
330
308D
100
AcDbEntity
  8
2
370
    -2
100
AcDbLine
 10
181.50874
 20
5.357811999999999
 30
0.0
 11
194.9096495148389
 21
5.357811999999993
 31
0.0
  0
LINE
  5
310D
330
308D
100
AcDbEntity
  8
2
370
    -2
100
AcDbLine
 10
181.50874
 20
-5.357813
 30
0.0
 11
194.9096495148389
 21
-5.357813000000004
 31
0.0
  0
LINE
  5
310E
330
308D
100
AcDbEntity
  8
2
370
    -2
100
AcDbLine
 10
189.9096495148389
 20
9.927811999999995
 30
0.0
 11
189.9096495148389
 21
14.49781199999999
 31
0.0
  0
LINE
  5
310F
330
308D
100
AcDbEntity
  8
2
370
    -2
100
AcDbLine
 10
189.9096495148389
 20
-9.927813000000003
 30
0.0
 11
189.9096495148389
 21
-14.497813
 31
0.0
  0
MTEXT
  5
3110
330
308D
100
AcDbEntity
  8
2
100
AcDbMText
 10
189.7532946665426
 20
-25.22452074785747
 30
0.0
 40
3.0
 41
0.0
 71
     5
 72
     1
  1
\A1;%%c 10.72 
  7
SANDVIK_STYLE
 11
0.0000000000000001
 21
1.0
 31
0.0
 73
     1
 44
1.0
1001
ACAD
1000
MTEXTBEGIN
1070
    73
1070
     1
1070
    44
1040
1.0
1070
    74
1070
     0
1000
MTEXTEND
  0
SOLID
  5
3111
330
308D
100
AcDbEntity
  8
2
100
AcDbTrace
 10
189.1479828481723
 20
9.927811999999995
 30
0.0
 11
190.6713161815055
 21
9.927811999999995
 31
0.0
 12
189.9096495148389
 22
5.357811999999995
 32
0.0
 13
189.9096495148389
 23
5.357811999999995
 33
0.0
  0
SOLID
  5
3112
330
308D
100
AcDbEntity
  8
2
100
AcDbTrace
 10
189.1479828481723
 20
-9.927813000000003
 30
0.0
 11
190.6713161815055
 21
-9.927813000000003
 31
0.0
 12
189.9096495148389
 22
-5.357813000000001
 32
0.0
 13
189.9096495148389
 23
-5.357813000000001
 33
0.0
  0
POINT
  5
3113
330
308D
100
AcDbEntity
  8
DEFPOINTS
 62
     0
100
AcDbPoint
 10
181.50874
 20
5.357811999999999
 30
0.0
  0
POINT
  5
3114
330
308D
100
AcDbEntity
  8
DEFPOINTS
 62
     0
100
AcDbPoint
 10
181.50874
 20
-5.357813
 30
0.0
  0
POINT
  5
3115
330
308D
100
AcDbEntity
  8
DEFPOINTS
 62
     0
100
AcDbPoint
 10
189.9096495148389
 20
-5.357813000000001
 30
0.0
  0
ENDBLK
  5
3099
330
308D
100
AcDbEntity
  8
0
100
AcDbBlockEnd
  0
BLOCK
  5
30A6
330
309B
100
AcDbEntity
  8
0
100
AcDbBlockBegin
  2
*D4
 70
     1
 10
0.0
 20
0.0
 30
0.0
  3
*D4
  1

  0
LINE
  5
3116
330
309B
100
AcDbEntity
  8
SK2
370
    -2
100
AcDbLine
 10
-43.700963
 20
5.999998999999997
 30
0.0
 11
-56.48956041301858
 21
5.999999000000002
 31
0.0
  0
LINE
  5
3117
330
309B
100
AcDbEntity
  8
SK2
370
    -2
100
AcDbLine
 10
-43.700963
 20
-5.999998999999997
 30
0.0
 11
-56.48956041301858
 21
-5.999998999999995
 31
0.0
  0
LINE
  5
3118
330
309B
100
AcDbEntity
  8
SK2
370
    -2
100
AcDbLine
 10
-51.48956041301858
 20
10.569999
 30
0.0
 11
-51.48956041301858
 21
15.139999
 31
0.0
  0
LINE
  5
3119
330
309B
100
AcDbEntity
  8
SK2
370
    -2
100
AcDbLine
 10
-51.48956041301858
 20
-10.569999
 30
0.0
 11
-51.48956041301858
 21
-15.139999
 31
0.0
  0
MTEXT
  5
311A
330
309B
100
AcDbEntity
  8
SK2
100
AcDbMText
 10
-51.39408805328855
 20
-22.34902968425365
 30
0.0
 40
3.0
 41
0.0
 71
     5
 72
     1
  1
\A1;%%c 12 
  7
SANDVIK_STYLE
 11
0.0000000000000001
 21
1.0
 31
0.0
 73
     1
 44
1.0
1001
ACAD
1000
MTEXTBEGIN
1070
    73
1070
     1
1070
    44
1040
1.0
1070
    74
1070
     0
1000
MTEXTEND
  0
SOLID
  5
311B
330
309B
100
AcDbEntity
  8
SK2
100
AcDbTrace
 10
-52.25122707968525
 20
10.569999
 30
0.0
 11
-50.72789374635191
 21
10.569999
 31
0.0
 12
-51.48956041301858
 22
5.999999
 32
0.0
 13
-51.48956041301858
 23
5.999999
 33
0.0
  0
SOLID
  5
311C
330
309B
100
AcDbEntity
  8
SK2
100
AcDbTrace
 10
-52.25122707968525
 20
-10.56999899999999
 30
0.0
 11
-50.72789374635191
 21
-10.569999
 31
0.0
 12
-51.48956041301858
 22
-5.999998999999996
 32
0.0
 13
-51.48956041301858
 23
-5.999998999999996
 33
0.0
  0
POINT
  5
311D
330
309B
100
AcDbEntity
  8
DEFPOINTS
 62
     0
100
AcDbPoint
 10
-43.700963
 20
5.999998999999997
 30
0.0
  0
POINT
  5
311E
330
309B
100
AcDbEntity
  8
DEFPOINTS
 62
     0
100
AcDbPoint
 10
-43.700963
 20
-5.999998999999997
 30
0.0
  0
POINT
  5
311F
330
309B
100
AcDbEntity
  8
DEFPOINTS
 62
     0
100
AcDbPoint
 10
-51.48956041301858
 20
-5.999998999999996
 30
0.0
  0
ENDBLK
  5
30A7
330
309B
100
AcDbEntity
  8
0
100
AcDbBlockEnd
  0
BLOCK
  5
30B3
330
30A9
100
AcDbEntity
  8
0
100
AcDbBlockBegin
  2
*D5
 70
     1
 10
0.0
 20
0.0
 30
0.0
  3
*D5
  1

  0
LINE
  5
30E5
330
30A9
100
AcDbEntity
  8
2
370
    -2
100
AcDbLine
 10
182.9999519999999
 20
0.000001000000001
 30
0.0
 11
182.9999519999999
 21
-22.76442049579003
 31
0.0
  0
LINE
  5
30E6
330
30A9
100
AcDbEntity
  8
2
370
    -2
100
AcDbLine
 10
6.998863999999997
 20
2.801708999999998
 30
0.0
 11
6.998863999999994
 21
-22.76442049579003
 31
0.0
  0
LINE
  5
30E7
330
30A9
100
AcDbEntity
  8
2
370
    -2
100
AcDbLine
 10
178.4299519999999
 20
-17.76442049579003
 30
0.0
 11
11.568864
 21
-17.76442049579003
 31
0.0
  0
SOLID
  5
30E8
330
30A9
100
AcDbEntity
  8
2
100
AcDbTrace
 10
178.4299519999999
 20
-17.00275382912337
 30
0.0
 11
178.4299519999999
 21
-18.5260871624567
 31
0.0
 12
182.9999519999999
 22
-17.76442049579003
 32
0.0
 13
182.9999519999999
 23
-17.76442049579003
 33
0.0
  0
SOLID
  5
30E9
330
30A9
100
AcDbEntity
  8
2
100
AcDbTrace
 10
11.568864
 20
-17.00275382912337
 30
0.0
 11
11.568864
 21
-18.5260871624567
 31
0.0
 12
6.998863999999996
 22
-17.76442049579003
 32
0.0
 13
6.998863999999996
 23
-17.76442049579003
 33
0.0
  0
MTEXT
  5
30EA
330
30A9
100
AcDbEntity
  8
2
100
AcDbMText
 10
94.99940799999995
 20
-13.96442049579003
 30
0.0
 40
3.0
 41
0.0
 71
     5
 72
     1
  1
\A1;176 
  7
SANDVIK_STYLE
 73
     1
 44
1.0
1001
ACAD
1000
MTEXTBEGIN
1070
    73
1070
     1
1070
    44
1040
1.0
1070
    74
1070
     0
1000
MTEXTEND
  0
POINT
  5
30EB
330
30A9
100
AcDbEntity
  8
DEFPOINTS
 62
     0
100
AcDbPoint
 10
182.9999519999999
 20
0.000001000000001
 30
0.0
  0
POINT
  5
30EC
330
30A9
100
AcDbEntity
  8
DEFPOINTS
 62
     0
100
AcDbPoint
 10
6.998863999999997
 20
2.801708999999998
 30
0.0
  0
POINT
  5
30ED
330
30A9
100
AcDbEntity
  8
DEFPOINTS
 62
     0
100
AcDbPoint
 10
6.998863999999996
 20
-17.76442049579003
 30
0.0
  0
ENDBLK
  5
30B4
330
30A9
100
AcDbEntity
  8
0
100
AcDbBlockEnd
  0
BLOCK
  5
30C0
330
30B6
100
AcDbEntity
  8
0
100
AcDbBlockBegin
  2
*D6
 70
     1
 10
0.0
 20
0.0
 30
0.0
  3
*D6
  1

  0
LINE
  5
30DC
330
30B6
100
AcDbEntity
  8
2
370
    -2
100
AcDbLine
 10
182.9999519999999
 20
0.000001000000001
 30
0.0
 11
182.9999519999999
 21
-30.66553940983806
 31
0.0
  0
LINE
  5
30DD
330
30B6
100
AcDbEntity
  8
2
370
    -2
100
AcDbLine
 10
0.0
 20
-5.999998999999997
 30
0.0
 11
-0.0000000000000015
 21
-30.66553940983806
 31
0.0
  0
LINE
  5
30DE
330
30B6
100
AcDbEntity
  8
2
370
    -2
100
AcDbLine
 10
178.4299519999999
 20
-25.66553940983806
 30
0.0
 11
4.569999999999998
 21
-25.66553940983806
 31
0.0
  0
SOLID
  5
30DF
330
30B6
100
AcDbEntity
  8
2
100
AcDbTrace
 10
178.4299519999999
 20
-24.9038727431714
 30
0.0
 11
178.4299519999999
 21
-26.42720607650473
 31
0.0
 12
182.9999519999999
 22
-25.66553940983806
 32
0.0
 13
182.9999519999999
 23
-25.66553940983806
 33
0.0
  0
SOLID
  5
30E0
330
30B6
100
AcDbEntity
  8
2
100
AcDbTrace
 10
4.569999999999998
 20
-24.9038727431714
 30
0.0
 11
4.569999999999998
 21
-26.42720607650473
 31
0.0
 12
-0.0000000000000012
 22
-25.66553940983806
 32
0.0
 13
-0.0000000000000012
 23
-25.66553940983806
 33
0.0
  0
MTEXT
  5
30E1
330
30B6
100
AcDbEntity
  8
2
100
AcDbMText
 10
91.49997599999997
 20
-21.86553940983806
 30
0.0
 40
3.0
 41
0.0
 71
     5
 72
     1
  1
\A1;183 
  7
SANDVIK_STYLE
 73
     1
 44
1.0
1001
ACAD
1000
MTEXTBEGIN
1070
    73
1070
     1
1070
    44
1040
1.0
1070
    74
1070
     0
1000
MTEXTEND
  0
POINT
  5
30E2
330
30B6
100
AcDbEntity
  8
DEFPOINTS
 62
     0
100
AcDbPoint
 10
182.9999519999999
 20
0.000001000000001
 30
0.0
  0
POINT
  5
30E3
330
30B6
100
AcDbEntity
  8
DEFPOINTS
 62
     0
100
AcDbPoint
 10
0.0
 20
-5.999998999999997
 30
0.0
  0
POINT
  5
30E4
330
30B6
100
AcDbEntity
  8
DEFPOINTS
 62
     0
100
AcDbPoint
 10
-0.0000000000000012
 20
-25.66553940983806
 30
0.0
  0
ENDBLK
  5
30C1
330
30B6
100
AcDbEntity
  8
0
100
AcDbBlockEnd
  0
BLOCK
  5
30CD
330
30C3
100
AcDbEntity
  8
0
100
AcDbBlockBegin
  2
*D7
 70
     1
 10
0.0
 20
0.0
 30
0.0
  3
*D7
  1

  0
LINE
  5
30C4
330
30C3
100
AcDbEntity
  8
SK2
370
    -2
100
AcDbLine
 10
-45.00000299999999
 20
-5.25
 30
0.0
 11
-45.00000299999999
 21
-30.66553940983806
 31
0.0
  0
LINE
  5
30C5
330
30C3
100
AcDbEntity
  8
SK2
370
    -2
100
AcDbLine
 10
0.0
 20
-5.999998999999997
 30
0.0
 11
-0.0000000000000015
 21
-30.66553940983806
 31
0.0
  0
LINE
  5
30C6
330
30C3
100
AcDbEntity
  8
SK2
370
    -2
100
AcDbLine
 10
-40.430003
 20
-25.66553940983806
 30
0.0
 11
-4.570000000000001
 21
-25.66553940983806
 31
0.0
  0
SOLID
  5
30C7
330
30C3
100
AcDbEntity
  8
SK2
100
AcDbTrace
 10
-40.430003
 20
-24.9038727431714
 30
0.0
 11
-40.430003
 21
-26.42720607650473
 31
0.0
 12
-45.00000299999999
 22
-25.66553940983806
 32
0.0
 13
-45.00000299999999
 23
-25.66553940983806
 33
0.0
  0
SOLID
  5
30C8
330
30C3
100
AcDbEntity
  8
SK2
100
AcDbTrace
 10
-4.570000000000001
 20
-24.9038727431714
 30
0.0
 11
-4.570000000000001
 21
-26.42720607650473
 31
0.0
 12
-0.0000000000000012
 22
-25.66553940983806
 32
0.0
 13
-0.0000000000000012
 23
-25.66553940983806
 33
0.0
  0
MTEXT
  5
30C9
330
30C3
100
AcDbEntity
  8
SK2
100
AcDbMText
 10
-22.5000015
 20
-21.86553940983806
 30
0.0
 40
3.0
 41
0.0
 71
     5
 72
     1
  1
\A1;45 
  7
SANDVIK_STYLE
 73
     1
 44
1.0
1001
ACAD
1000
MTEXTBEGIN
1070
    73
1070
     1
1070
    44
1040
1.0
1070
    74
1070
     0
1000
MTEXTEND
  0
POINT
  5
30CA
330
30C3
100
AcDbEntity
  8
DEFPOINTS
 62
     0
100
AcDbPoint
 10
-45.00000299999999
 20
-5.25
 30
0.0
  0
POINT
  5
30CB
330
30C3
100
AcDbEntity
  8
DEFPOINTS
 62
     0
100
AcDbPoint
 10
0.0
 20
-5.999998999999997
 30
0.0
  0
POINT
  5
30CC
330
30C3
100
AcDbEntity
  8
DEFPOINTS
 62
     0
100
AcDbPoint
 10
-0.0000000000000012
 20
-25.66553940983806
 30
0.0
  0
ENDBLK
  5
30CE
330
30C3
100
AcDbEntity
  8
0
100
AcDbBlockEnd
  0
BLOCK
  5
30DA
330
30D0
100
AcDbEntity
  8
0
100
AcDbBlockBegin
  2
*D8
 70
     1
 10
0.0
 20
0.0
 30
0.0
  3
*D8
  1

  0
LINE
  5
30D1
330
30D0
100
AcDbEntity
  8
SK2
370
    -2
100
AcDbLine
 10
-45.00000299999999
 20
-5.25
 30
0.0
 11
-45.00000299999999
 21
-42.21848697088967
 31
0.0
  0
LINE
  5
30D2
330
30D0
100
AcDbEntity
  8
SK2
370
    -2
100
AcDbLine
 10
182.9999519999999
 20
0.000001000000001
 30
0.0
 11
182.9999519999999
 21
-42.21848697088967
 31
0.0
  0
LINE
  5
30D3
330
30D0
100
AcDbEntity
  8
SK2
370
    -2
100
AcDbLine
 10
-40.430003
 20
-37.21848697088967
 30
0.0
 11
178.4299519999999
 21
-37.21848697088967
 31
0.0
  0
SOLID
  5
30D4
330
30D0
100
AcDbEntity
  8
SK2
100
AcDbTrace
 10
-40.430003
 20
-36.456820304223
 30
0.0
 11
-40.430003
 21
-37.98015363755634
 31
0.0
 12
-45.00000299999999
 22
-37.21848697088967
 32
0.0
 13
-45.00000299999999
 23
-37.21848697088967
 33
0.0
  0
SOLID
  5
30D5
330
30D0
100
AcDbEntity
  8
SK2
100
AcDbTrace
 10
178.4299519999999
 20
-36.456820304223
 30
0.0
 11
178.4299519999999
 21
-37.98015363755634
 31
0.0
 12
182.9999519999999
 22
-37.21848697088967
 32
0.0
 13
182.9999519999999
 23
-37.21848697088967
 33
0.0
  0
MTEXT
  5
30D6
330
30D0
100
AcDbEntity
  8
SK2
100
AcDbMText
 10
68.99997449999998
 20
-33.41848697088968
 30
0.0
 40
3.0
 41
0.0
 71
     5
 72
     1
  1
\A1;228 
  7
SANDVIK_STYLE
 73
     1
 44
1.0
1001
ACAD
1000
MTEXTBEGIN
1070
    73
1070
     1
1070
    44
1040
1.0
1070
    74
1070
     0
1000
MTEXTEND
  0
POINT
  5
30D7
330
30D0
100
AcDbEntity
  8
DEFPOINTS
 62
     0
100
AcDbPoint
 10
-45.00000299999999
 20
-5.25
 30
0.0
  0
POINT
  5
30D8
330
30D0
100
AcDbEntity
  8
DEFPOINTS
 62
     0
100
AcDbPoint
 10
182.9999519999999
 20
0.000001000000001
 30
0.0
  0
POINT
  5
30D9
330
30D0
100
AcDbEntity
  8
DEFPOINTS
 62
     0
100
AcDbPoint
 10
182.9999519999999
 20
-37.21848697088967
 30
0.0
  0
ENDBLK
  5
30DB
330
30D0
100
AcDbEntity
  8
0
100
AcDbBlockEnd
  0
ENDSEC
  0
SECTION
  2
ENTITIES
  0
TEXT
  5
62
330
BF7
100
AcDbEntity
  8
SK6
100
AcDbText
 10
-18.5
 20
25.0
 30
0.0
 40
3.0
  1
861.1-1072-129A1-GM
 41
0.7705220054495913
  7
SANDVIK_STYLE
 72
     5
 11
21.897368
 21
25.0
 31
0.0
100
AcDbText
  0
LINE
  5
2D23
330
BF7
100
AcDbEntity
  8
1
100
AcDbLine
 10
0.4999990000000027
 20
-5.357813009371891
 30
0.0
 11
0.4999990000000027
 21
5.357811999999999
 31
0.0
  0
LINE
  5
2D24
330
BF7
100
AcDbEntity
  8
SK1
100
AcDbLine
 10
0.0
 20
5.999998999999997
 30
0.0
 11
0.0
 21
-5.999998999999997
 31
0.0
  0
ARC
  5
2D25
330
BF7
100
AcDbEntity
  8
1
100
AcDbCircle
 10
0.4999990000000027
 20
5.857810999999993
 30
0.0
 40
0.4999999906281083
100
AcDbArc
 50
180.0
 51
270.0
  0
ARC
  5
2D26
330
BF7
100
AcDbEntity
  8
1
100
AcDbCircle
 10
0.4999990000000027
 20
-5.857813
 30
0.0
 40
0.4999999906281083
100
AcDbArc
 50
90.0
 51
180.0
  0
LINE
  5
2D27
330
BF7
100
AcDbEntity
  8
1
100
AcDbLine
 10
10.69069899999999
 20
-4.773050000000001
 30
0.0
 11
10.69069899999999
 21
-5.029678999999998
 31
0.0
  0
LINE
  5
2D28
330
BF7
100
AcDbEntity
  8
1
100
AcDbLine
 10
21.38300200000001
 20
-5.029678999999998
 30
0.0
 11
10.69069899999999
 21
-5.029678999999998
 31
0.0
  0
LINE
  5
2D29
330
BF7
100
AcDbEntity
  8
1
100
AcDbLine
 10
12.788227
 20
-5.074741999999999
 30
0.0
 11
10.69069899999999
 21
-5.029678999999998
 31
0.0
  0
LINE
  5
2D2A
330
BF7
100
AcDbEntity
  8
1
100
AcDbLine
 10
13.210403
 20
-5.029451999999999
 30
0.0
 11
12.788227
 21
-5.074741999999999
 31
0.0
  0
LINE
  5
2D2B
330
BF7
100
AcDbEntity
  8
1
100
AcDbLine
 10
50.543795
 20
2.320285000000001
 30
0.0
 11
48.02763299999998
 21
3.456537999999998
 31
0.0
  0
LINE
  5
2D2C
330
BF7
100
AcDbEntity
  8
1
100
AcDbLine
 10
52.641317
 20
1.220364
 30
0.0
 11
50.543795
 21
2.320285000000001
 31
0.0
  0
LINE
  5
2D2D
330
BF7
100
AcDbEntity
  8
1
100
AcDbLine
 10
54.738851
 20
0.0555160000000008
 30
0.0
 11
52.641317
 21
1.220364
 31
0.0
  0
LINE
  5
2D2E
330
BF7
100
AcDbEntity
  8
1
100
AcDbLine
 10
56.83638499999999
 20
-1.112290999999999
 30
0.0
 11
54.738851
 21
0.0555160000000008
 31
0.0
  0
LINE
  5
2D2F
330
BF7
100
AcDbEntity
  8
1
100
AcDbLine
 10
58.93391999999998
 20
-2.220901
 30
0.0
 11
56.83638499999999
 21
-1.112290999999999
 31
0.0
  0
LINE
  5
2D30
330
BF7
100
AcDbEntity
  8
1
100
AcDbLine
 10
61.03144199999999
 20
-3.211304999999998
 30
0.0
 11
58.93391999999998
 21
-2.220901
 31
0.0
  0
LINE
  5
2D31
330
BF7
100
AcDbEntity
  8
1
100
AcDbLine
 10
63.12897600000001
 20
-4.030799
 30
0.0
 11
61.03144199999999
 21
-3.211304999999998
 31
0.0
  0
LINE
  5
2D32
330
BF7
100
AcDbEntity
  8
1
100
AcDbLine
 10
65.22650999999997
 20
-4.635787999999998
 30
0.0
 11
63.12897600000001
 21
-4.030799
 31
0.0
  0
LINE
  5
2D33
330
BF7
100
AcDbEntity
  8
1
100
AcDbLine
 10
67.324044
 20
-4.994013999999999
 30
0.0
 11
65.22650999999997
 21
-4.635787999999998
 31
0.0
  0
LINE
  5
2D34
330
BF7
100
AcDbEntity
  8
1
100
AcDbLine
 10
69.08915
 20
-5.071807999999999
 30
0.0
 11
67.324044
 21
-4.994013999999999
 31
0.0
  0
LINE
  5
2D35
330
BF7
100
AcDbEntity
  8
1
100
AcDbLine
 10
107.177135
 20
2.501435999999994
 30
0.0
 11
104.86893
 21
3.527591000000004
 31
0.0
  0
LINE
  5
2D36
330
BF7
100
AcDbEntity
  8
1
100
AcDbLine
 10
109.274669
 20
1.419029
 30
0.0
 11
107.177135
 21
2.501435999999994
 31
0.0
  0
LINE
  5
2D37
330
BF7
100
AcDbEntity
  8
1
100
AcDbLine
 10
111.372191
 20
0.2611239999999988
 30
0.0
 11
109.274669
 21
1.419029
 31
0.0
  0
LINE
  5
2D38
330
BF7
100
AcDbEntity
  8
1
100
AcDbLine
 10
113.469725
 20
-0.9106890000000014
 30
0.0
 11
111.372191
 21
0.2611239999999988
 31
0.0
  0
LINE
  5
2D39
330
BF7
100
AcDbEntity
  8
1
100
AcDbLine
 10
115.567247
 20
-2.034031000000001
 30
0.0
 11
113.469725
 21
-0.9106890000000014
 31
0.0
  0
LINE
  5
2D3A
330
BF7
100
AcDbEntity
  8
1
100
AcDbLine
 10
117.664794
 20
-3.049126999999998
 30
0.0
 11
115.567247
 21
-2.034031000000001
 31
0.0
  0
LINE
  5
2D3B
330
BF7
100
AcDbEntity
  8
1
100
AcDbLine
 10
119.762316
 20
-3.901925000000001
 30
0.0
 11
117.664794
 21
-3.049126999999998
 31
0.0
  0
LINE
  5
2D3C
330
BF7
100
AcDbEntity
  8
1
100
AcDbLine
 10
121.859862
 20
-4.547055
 30
0.0
 11
119.762316
 21
-3.901925000000001
 31
0.0
  0
LINE
  5
2D3D
330
BF7
100
AcDbEntity
  8
1
100
AcDbLine
 10
123.957384
 20
-4.950193999999998
 30
0.0
 11
121.859862
 21
-4.547055
 31
0.0
  0
LINE
  5
2D3E
330
BF7
100
AcDbEntity
  8
1
100
AcDbLine
 10
126.0549059999999
 20
-5.089878999999998
 30
0.0
 11
123.957384
 21
-4.950193999999998
 31
0.0
  0
LINE
  5
2D3F
330
BF7
100
AcDbEntity
  8
1
100
AcDbLine
 10
126.103765
 20
-5.086822000000001
 30
0.0
 11
126.0549059999999
 21
-5.089878999999998
 31
0.0
  0
LINE
  5
2D40
330
BF7
100
AcDbEntity
  8
1
100
AcDbLine
 10
163.810474
 20
2.678493999999997
 30
0.0
 11
161.606224
 21
3.636139000000003
 31
0.0
  0
LINE
  5
2D41
330
BF7
100
AcDbEntity
  8
1
100
AcDbLine
 10
165.907996
 20
1.615388999999999
 30
0.0
 11
163.810474
 21
2.678493999999997
 31
0.0
  0
LINE
  5
2D42
330
BF7
100
AcDbEntity
  8
1
100
AcDbLine
 10
168.005543
 20
0.4663040000000011
 30
0.0
 11
165.907996
 21
1.615388999999999
 31
0.0
  0
LINE
  5
2D43
330
BF7
100
AcDbEntity
  8
1
100
AcDbLine
 10
170.103065
 20
-0.7075969999999998
 30
0.0
 11
168.005543
 21
0.4663040000000011
 31
0.0
  0
LINE
  5
2D44
330
BF7
100
AcDbEntity
  8
1
100
AcDbLine
 10
172.200611
 20
-1.843852999999999
 30
0.0
 11
170.103065
 21
-0.7075969999999998
 31
0.0
  0
LINE
  5
2D45
330
BF7
100
AcDbEntity
  8
1
100
AcDbLine
 10
174.2981329999999
 20
-2.881956000000002
 30
0.0
 11
172.200611
 21
-1.843852999999999
 31
0.0
  0
LINE
  5
2D46
330
BF7
100
AcDbEntity
  8
1
100
AcDbLine
 10
176.644817
 20
-3.859252000000001
 30
0.0
 11
174.2981329999999
 21
-2.881956000000002
 31
0.0
  0
LINE
  5
2D47
330
BF7
100
AcDbEntity
  8
1
100
AcDbLine
 10
178.9914999999999
 20
-4.579772000000001
 30
0.0
 11
176.644817
 21
-3.859252000000001
 31
0.0
  0
LINE
  5
2D48
330
BF7
100
AcDbEntity
  8
1
100
AcDbLine
 10
181.3381829999999
 20
-4.995547000000001
 30
0.0
 11
178.9914999999999
 21
-4.579772000000001
 31
0.0
  0
LINE
  5
2D49
330
BF7
100
AcDbEntity
  8
1
100
AcDbLine
 10
10.43190899999999
 20
-5.101009999999997
 30
0.0
 11
10.24783599999999
 21
-5.294401
 31
0.0
  0
LINE
  5
2D4A
330
BF7
100
AcDbEntity
  8
1
100
AcDbLine
 10
10.69069899999999
 20
-5.029678999999998
 30
0.0
 11
10.43190899999999
 21
-5.101009999999997
 31
0.0
  0
LINE
  5
2D4B
330
BF7
100
AcDbEntity
  8
1
100
AcDbLine
 10
23.27588599999999
 20
1.685516000000003
 30
0.0
 11
19.47633599999999
 21
3.479523000000003
 31
0.0
  0
LINE
  5
2D4C
330
BF7
100
AcDbEntity
  8
1
100
AcDbLine
 10
25.37342
 20
0.540066999999997
 30
0.0
 11
23.27588599999999
 21
1.685516000000003
 31
0.0
  0
LINE
  5
2D4D
330
BF7
100
AcDbEntity
  8
1
100
AcDbLine
 10
27.47094199999999
 20
-0.6341159999999988
 30
0.0
 11
25.37342
 21
0.540066999999997
 31
0.0
  0
LINE
  5
2D4E
330
BF7
100
AcDbEntity
  8
1
100
AcDbLine
 10
29.568477
 20
-1.774552999999996
 30
0.0
 11
27.47094199999999
 21
-0.6341159999999988
 31
0.0
  0
LINE
  5
2D4F
330
BF7
100
AcDbEntity
  8
1
100
AcDbLine
 10
31.66601099999998
 20
-2.820538000000001
 30
0.0
 11
29.568477
 21
-1.774552999999996
 31
0.0
  0
LINE
  5
2D50
330
BF7
100
AcDbEntity
  8
1
100
AcDbLine
 10
33.763545
 20
-3.716415999999998
 30
0.0
 11
31.66601099999998
 21
-2.820538000000001
 31
0.0
  0
LINE
  5
2D51
330
BF7
100
AcDbEntity
  8
1
100
AcDbLine
 10
35.86106699999999
 20
-4.414511
 30
0.0
 11
33.763545
 21
-3.716415999999998
 31
0.0
  0
LINE
  5
2D52
330
BF7
100
AcDbEntity
  8
1
100
AcDbLine
 10
37.958601
 20
-4.877631
 30
0.0
 11
35.86106699999999
 21
-4.414511
 31
0.0
  0
LINE
  5
2D53
330
BF7
100
AcDbEntity
  8
1
100
AcDbLine
 10
40.05613599999999
 20
-5.081179999999998
 30
0.0
 11
37.958601
 21
-4.877631
 31
0.0
  0
LINE
  5
2D54
330
BF7
100
AcDbEntity
  8
1
100
AcDbLine
 10
40.61517400000001
 20
-5.063347
 30
0.0
 11
40.05613599999999
 21
-5.081179999999998
 31
0.0
  0
LINE
  5
2D55
330
BF7
100
AcDbEntity
  8
1
100
AcDbLine
 10
79.90922600000001
 20
1.878193999999999
 30
0.0
 11
76.68825
 21
3.383153000000003
 31
0.0
  0
LINE
  5
2D56
330
BF7
100
AcDbEntity
  8
1
100
AcDbLine
 10
82.00675999999997
 20
0.7441280000000035
 30
0.0
 11
79.90922600000001
 21
1.878193999999999
 31
0.0
  0
LINE
  5
2D57
330
BF7
100
AcDbEntity
  8
1
100
AcDbLine
 10
84.10429399999998
 20
-0.429538000000001
 30
0.0
 11
82.00675999999997
 21
0.7441280000000035
 31
0.0
  0
LINE
  5
2D58
330
BF7
100
AcDbEntity
  8
1
100
AcDbLine
 10
86.201816
 20
-1.580342999999999
 30
0.0
 11
84.10429399999998
 21
-0.429538000000001
 31
0.0
  0
LINE
  5
2D59
330
BF7
100
AcDbEntity
  8
1
100
AcDbLine
 10
88.29935099999998
 20
-2.647044000000001
 30
0.0
 11
86.201816
 21
-1.580342999999999
 31
0.0
  0
LINE
  5
2D5A
330
BF7
100
AcDbEntity
  8
1
100
AcDbLine
 10
90.39688499999998
 20
-3.572863000000001
 30
0.0
 11
88.29935099999998
 21
-2.647044000000001
 31
0.0
  0
LINE
  5
2D5B
330
BF7
100
AcDbEntity
  8
1
100
AcDbLine
 10
92.49441899999998
 20
-4.308531000000002
 30
0.0
 11
90.39688499999998
 21
-3.572863000000001
 31
0.0
  0
LINE
  5
2D5C
330
BF7
100
AcDbEntity
  8
1
100
AcDbLine
 10
94.59194099999995
 20
-4.814872999999998
 30
0.0
 11
92.49441899999998
 21
-4.308531000000002
 31
0.0
  0
LINE
  5
2D5D
330
BF7
100
AcDbEntity
  8
1
100
AcDbLine
 10
96.68947500000001
 20
-5.064979999999998
 30
0.0
 11
94.59194099999995
 21
-4.814872999999998
 31
0.0
  0
LINE
  5
2D5E
330
BF7
100
AcDbEntity
  8
1
100
AcDbLine
 10
97.608448
 20
-5.056445
 30
0.0
 11
96.68947500000001
 21
-5.064979999999998
 31
0.0
  0
LINE
  5
2D5F
330
BF7
100
AcDbEntity
  8
1
100
AcDbLine
 10
136.542565
 20
2.067804999999995
 30
0.0
 11
133.524218
 21
3.450399999999998
 31
0.0
  0
LINE
  5
2D60
330
BF7
100
AcDbEntity
  8
1
100
AcDbLine
 10
138.640112
 20
0.9469710000000011
 30
0.0
 11
136.542565
 21
2.067804999999995
 31
0.0
  0
LINE
  5
2D61
330
BF7
100
AcDbEntity
  8
1
100
AcDbLine
 10
140.737634
 20
-0.2242570000000015
 30
0.0
 11
138.640112
 21
0.9469710000000011
 31
0.0
  0
LINE
  5
2D62
330
BF7
100
AcDbEntity
  8
1
100
AcDbLine
 10
142.835156
 20
-1.383558000000004
 30
0.0
 11
140.737634
 21
-0.2242570000000015
 31
0.0
  0
LINE
  5
2D63
330
BF7
100
AcDbEntity
  8
1
100
AcDbLine
 10
144.932702
 20
-2.469214999999997
 30
0.0
 11
142.835156
 21
-1.383558000000004
 31
0.0
  0
LINE
  5
2D64
330
BF7
100
AcDbEntity
  8
1
100
AcDbLine
 10
147.030225
 20
-3.423474999999998
 30
0.0
 11
144.932702
 21
-2.469214999999997
 31
0.0
  0
LINE
  5
2D65
330
BF7
100
AcDbEntity
  8
1
100
AcDbLine
 10
149.127747
 20
-4.195505
 30
0.0
 11
147.030225
 21
-3.423474999999998
 31
0.0
  0
LINE
  5
2D66
330
BF7
100
AcDbEntity
  8
1
100
AcDbLine
 10
151.2252929999999
 20
-4.744244999999998
 30
0.0
 11
149.127747
 21
-4.195505
 31
0.0
  0
LINE
  5
2D67
330
BF7
100
AcDbEntity
  8
1
100
AcDbLine
 10
153.322815
 20
-5.040505999999999
 30
0.0
 11
151.2252929999999
 21
-4.744244999999998
 31
0.0
  0
LINE
  5
2D68
330
BF7
100
AcDbEntity
  8
1
100
AcDbLine
 10
154.585723
 20
-5.057357999999999
 30
0.0
 11
153.322815
 21
-5.040505999999999
 31
0.0
  0
LINE
  5
2D69
330
BF7
100
AcDbEntity
  8
SK1
100
AcDbLine
 10
-44.293602
 20
-5.351294000000001
 30
0.0
 11
-43.700963
 21
-5.650401999999998
 31
0.0
  0
LINE
  5
2D6A
330
BF7
100
AcDbEntity
  8
SK1
100
AcDbLine
 10
-45.00000299999999
 20
-4.993634999999996
 30
0.0
 11
-44.293602
 21
-5.351294000000001
 31
0.0
  0
LINE
  5
2D6B
330
BF7
100
AcDbEntity
  8
1
100
AcDbLine
 10
182.970472
 20
0.1504109999999983
 30
0.0
 11
180.893879
 21
2.080352999999997
 31
0.0
  0
LINE
  5
2D6C
330
BF7
100
AcDbEntity
  8
1
100
AcDbLine
 10
16.16048899999998
 20
-0.4654459999999965
 30
0.0
 11
20.13980100000001
 21
-3.068164000000001
 31
0.0
  0
LINE
  5
2D6D
330
BF7
100
AcDbEntity
  8
1
100
AcDbLine
 10
12.18441199999999
 20
2.106450999999995
 30
0.0
 11
16.16048899999998
 21
-0.4654459999999965
 31
0.0
  0
LINE
  5
2D6E
330
BF7
100
AcDbEntity
  8
1
100
AcDbLine
 10
8.22755599999999
 20
4.637179999999997
 30
0.0
 11
12.18441199999999
 21
2.106450999999995
 31
0.0
  0
LINE
  5
2D6F
330
BF7
100
AcDbEntity
  8
1
100
AcDbLine
 10
162.752254
 20
-0.9129929999999999
 30
0.0
 11
169.799789
 21
-1.477333
 31
0.0
  0
LINE
  5
2D70
330
BF7
100
AcDbEntity
  8
1
100
AcDbLine
 10
158.278254
 20
-0.2315240000000003
 30
0.0
 11
162.752254
 21
-0.9129929999999999
 31
0.0
  0
LINE
  5
2D71
330
BF7
100
AcDbEntity
  8
1
100
AcDbLine
 10
153.80314
 20
0.5052160000000008
 30
0.0
 11
158.278254
 21
-0.2315240000000003
 31
0.0
  0
LINE
  5
2D72
330
BF7
100
AcDbEntity
  8
1
100
AcDbLine
 10
149.381801
 20
1.114154000000001
 30
0.0
 11
153.80314
 21
0.5052160000000008
 31
0.0
  0
LINE
  5
2D73
330
BF7
100
AcDbEntity
  8
1
100
AcDbLine
 10
108.649428
 20
-1.246757000000001
 30
0.0
 11
112.810948
 21
-1.487976000000003
 31
0.0
  0
LINE
  5
2D74
330
BF7
100
AcDbEntity
  8
1
100
AcDbLine
 10
104.175222
 20
-0.6900959999999971
 30
0.0
 11
108.649428
 21
-1.246757000000001
 31
0.0
  0
LINE
  5
2D75
330
BF7
100
AcDbEntity
  8
1
100
AcDbLine
 10
99.70035000000001
 20
0.0311780000000006
 30
0.0
 11
104.175222
 21
-0.6900959999999971
 31
0.0
  0
LINE
  5
2D76
330
BF7
100
AcDbEntity
  8
1
100
AcDbLine
 10
95.22561099999995
 20
0.7449210000000015
 30
0.0
 11
99.70035000000001
 21
0.0311780000000006
 31
0.0
  0
LINE
  5
2D77
330
BF7
100
AcDbEntity
  8
1
100
AcDbLine
 10
92.436913
 20
1.079023999999995
 30
0.0
 11
95.22561099999995
 21
0.7449210000000015
 31
0.0
  0
LINE
  5
2D78
330
BF7
100
AcDbEntity
  8
1
100
AcDbLine
 10
48.987228
 20
-0.9442469999999971
 30
0.0
 11
55.80538
 21
-1.478368999999999
 31
0.0
  0
LINE
  5
2D79
330
BF7
100
AcDbEntity
  8
1
100
AcDbLine
 10
45.190633
 20
-0.3809310000000003
 30
0.0
 11
48.987228
 21
-0.9442469999999971
 31
0.0
  0
LINE
  5
2D7A
330
BF7
100
AcDbEntity
  8
1
100
AcDbLine
 10
41.04832299999999
 20
0.304941000000003
 30
0.0
 11
45.190633
 21
-0.3809310000000003
 31
0.0
  0
LINE
  5
2D7B
330
BF7
100
AcDbEntity
  8
1
100
AcDbLine
 10
36.906376
 20
0.9282859999999963
 30
0.0
 11
41.04832299999999
 21
0.304941000000003
 31
0.0
  0
LINE
  5
2D7C
330
BF7
100
AcDbEntity
  8
1
100
AcDbLine
 10
35.42704599999999
 20
1.082969999999998
 30
0.0
 11
36.906376
 21
0.9282859999999963
 31
0.0
  0
LINE
  5
2D7D
330
BF7
100
AcDbEntity
  8
1
100
AcDbLine
 10
16.19855600000001
 20
-0.302071999999999
 30
0.0
 11
20.13980100000001
 21
-3.068164000000001
 31
0.0
  0
LINE
  5
2D7E
330
BF7
100
AcDbEntity
  8
1
100
AcDbLine
 10
180.824503
 20
2.004698
 30
0.0
 11
180.8297359999999
 21
1.982275999999997
 31
0.0
  0
LINE
  5
2D7F
330
BF7
100
AcDbEntity
  8
1
100
AcDbLine
 10
180.8260539999999
 20
2.029784000000002
 30
0.0
 11
180.824503
 21
2.004698
 31
0.0
  0
LINE
  5
2D80
330
BF7
100
AcDbEntity
  8
1
100
AcDbLine
 10
180.8332479999999
 20
2.046940000000001
 30
0.0
 11
180.8260539999999
 21
2.029784000000002
 31
0.0
  0
LINE
  5
2D81
330
BF7
100
AcDbEntity
  8
1
100
AcDbLine
 10
180.848194
 20
2.063350999999999
 30
0.0
 11
180.8332479999999
 21
2.046940000000001
 31
0.0
  0
LINE
  5
2D82
330
BF7
100
AcDbEntity
  8
1
100
AcDbLine
 10
180.8679599999999
 20
2.074254999999996
 30
0.0
 11
180.848194
 21
2.063350999999999
 31
0.0
  0
LINE
  5
2D83
330
BF7
100
AcDbEntity
  8
1
100
AcDbLine
 10
180.893879
 20
2.080352999999997
 30
0.0
 11
180.8679599999999
 21
2.074254999999996
 31
0.0
  0
LINE
  5
2D84
330
BF7
100
AcDbEntity
  8
1
100
AcDbLine
 10
177.875943
 20
1.114068999999999
 30
0.0
 11
181.291093
 21
0.6610510000000005
 31
0.0
  0
LINE
  5
2D85
330
BF7
100
AcDbEntity
  8
1
100
AcDbLine
 10
135.904741
 20
-1.117089999999997
 30
0.0
 11
141.297047
 21
-1.469239
 31
0.0
  0
LINE
  5
2D86
330
BF7
100
AcDbEntity
  8
1
100
AcDbLine
 10
131.430038
 20
-0.4988769999999967
 30
0.0
 11
135.904741
 21
-1.117089999999997
 31
0.0
  0
LINE
  5
2D87
330
BF7
100
AcDbEntity
  8
1
100
AcDbLine
 10
127.63308
 20
0.125829999999997
 30
0.0
 11
131.430038
 21
-0.4988769999999967
 31
0.0
  0
LINE
  5
2D88
330
BF7
100
AcDbEntity
  8
1
100
AcDbLine
 10
123.836001
 20
0.7287340000000029
 30
0.0
 11
127.63308
 21
0.125829999999997
 31
0.0
  0
LINE
  5
2D89
330
BF7
100
AcDbEntity
  8
1
100
AcDbLine
 10
120.918326
 20
1.095392999999996
 30
0.0
 11
123.836001
 21
0.7287340000000029
 31
0.0
  0
LINE
  5
2D8A
330
BF7
100
AcDbEntity
  8
1
100
AcDbLine
 10
79.36031299999998
 20
-1.167208000000002
 30
0.0
 11
84.29071699999999
 21
-1.471379999999999
 31
0.0
  0
LINE
  5
2D8B
330
BF7
100
AcDbEntity
  8
1
100
AcDbLine
 10
75.56402099999998
 20
-0.6735969999999975
 30
0.0
 11
79.36031299999998
 21
-1.167208000000002
 31
0.0
  0
LINE
  5
2D8C
330
BF7
100
AcDbEntity
  8
1
100
AcDbLine
 10
71.767511
 20
-0.063638000000001
 30
0.0
 11
75.56402099999998
 21
-0.6735969999999975
 31
0.0
  0
LINE
  5
2D8D
330
BF7
100
AcDbEntity
  8
1
100
AcDbLine
 10
67.97040800000001
 20
0.5573660000000018
 30
0.0
 11
71.767511
 21
-0.063638000000001
 31
0.0
  0
LINE
  5
2D8E
330
BF7
100
AcDbEntity
  8
1
100
AcDbLine
 10
64.17388599999999
 20
1.082028000000001
 30
0.0
 11
67.97040800000001
 21
0.5573660000000018
 31
0.0
  0
LINE
  5
2D8F
330
BF7
100
AcDbEntity
  8
1
100
AcDbLine
 10
63.89211999999999
 20
1.107098999999998
 30
0.0
 11
64.17388599999999
 21
1.082028000000001
 31
0.0
  0
LINE
  5
2D90
330
BF7
100
AcDbEntity
  8
1
100
AcDbLine
 10
20.339243
 20
-0.9247440000000004
 30
0.0
 11
27.327128
 21
-1.466669000000003
 31
0.0
  0
LINE
  5
2D91
330
BF7
100
AcDbEntity
  8
1
100
AcDbLine
 10
16.19855600000001
 20
-0.302071999999999
 30
0.0
 11
20.339243
 21
-0.9247440000000004
 31
0.0
  0
LINE
  5
2D92
330
BF7
100
AcDbEntity
  8
1
100
AcDbLine
 10
16.638149
 20
0.085916000000001
 30
0.0
 11
16.19855600000001
 21
-0.302071999999999
 31
0.0
  0
LINE
  5
2D93
330
BF7
100
AcDbEntity
  8
1
100
AcDbLine
 10
16.964207
 20
0.3657749999999993
 30
0.0
 11
16.638149
 21
0.085916000000001
 31
0.0
  0
LINE
  5
2D94
330
BF7
100
AcDbEntity
  8
1
100
AcDbLine
 10
17.369003
 20
0.699054000000004
 30
0.0
 11
16.964207
 21
0.3657749999999993
 31
0.0
  0
LINE
  5
2D95
330
BF7
100
AcDbEntity
  8
1
100
AcDbLine
 10
17.72498899999998
 20
0.9757720000000027
 30
0.0
 11
17.369003
 21
0.699054000000004
 31
0.0
  0
LINE
  5
2D96
330
BF7
100
AcDbEntity
  8
1
100
AcDbLine
 10
18.24294499999998
 20
1.342141000000001
 30
0.0
 11
17.72498899999998
 21
0.9757720000000027
 31
0.0
  0
LINE
  5
2D97
330
BF7
100
AcDbEntity
  8
1
100
AcDbLine
 10
18.73966799999999
 20
1.641490000000001
 30
0.0
 11
18.24294499999998
 21
1.342141000000001
 31
0.0
  0
LINE
  5
2D98
330
BF7
100
AcDbEntity
  8
1
100
AcDbLine
 10
19.22147
 20
1.869530999999997
 30
0.0
 11
18.73966799999999
 21
1.641490000000001
 31
0.0
  0
LINE
  5
2D99
330
BF7
100
AcDbEntity
  8
1
100
AcDbLine
 10
19.61066599999998
 20
1.999547000000003
 30
0.0
 11
19.22147
 21
1.869530999999997
 31
0.0
  0
LINE
  5
2D9A
330
BF7
100
AcDbEntity
  8
1
100
AcDbLine
 10
19.97479099999999
 20
2.071872000000002
 30
0.0
 11
19.61066599999998
 21
1.999547000000003
 31
0.0
  0
LINE
  5
2D9B
330
BF7
100
AcDbEntity
  8
1
100
AcDbLine
 10
20.370673
 20
2.093246000000004
 30
0.0
 11
19.97479099999999
 21
2.071872000000002
 31
0.0
  0
LINE
  5
2D9C
330
BF7
100
AcDbEntity
  8
1
100
AcDbLine
 10
20.75673300000001
 20
2.058071
 30
0.0
 11
20.370673
 21
2.093246000000004
 31
0.0
  0
LINE
  5
2D9D
330
BF7
100
AcDbEntity
  8
1
100
AcDbLine
 10
21.16218300000001
 20
1.967175999999997
 30
0.0
 11
20.75673300000001
 21
2.058071
 31
0.0
  0
LINE
  5
2D9E
330
BF7
100
AcDbEntity
  8
1
100
AcDbLine
 10
21.57892099999999
 20
1.826253
 30
0.0
 11
21.16218300000001
 21
1.967175999999997
 31
0.0
  0
LINE
  5
2D9F
330
BF7
100
AcDbEntity
  8
1
100
AcDbLine
 10
21.66338699999998
 20
1.792791999999997
 30
0.0
 11
21.57892099999999
 21
1.826253
 31
0.0
  0
LINE
  5
2DA0
330
BF7
100
AcDbEntity
  8
1
100
AcDbLine
 10
182.5840369999999
 20
2.347234000000002
 30
0.0
 11
180.893879
 21
2.080352999999997
 31
0.0
  0
LINE
  5
2DA1
330
BF7
100
AcDbEntity
  8
SK1
100
AcDbLine
 10
-45.00000299999999
 20
-5.185519999999999
 30
0.0
 11
-45.00000299999999
 21
-4.993634999999996
 31
0.0
  0
LINE
  5
2DA2
330
BF7
100
AcDbEntity
  8
SK1
100
AcDbLine
 10
-45.00000299999999
 20
-5.25
 30
0.0
 11
-45.00000299999999
 21
-5.185519999999999
 31
0.0
  0
LINE
  5
2DA3
330
BF7
100
AcDbEntity
  8
SK1
100
AcDbLine
 10
-45.00000299999999
 20
-3.750579999999998
 30
0.0
 11
-45.00000299999999
 21
-4.993634999999996
 31
0.0
  0
LINE
  5
2DA4
330
BF7
100
AcDbEntity
  8
SK1
100
AcDbLine
 10
-43.700963
 20
-5.911975
 30
0.0
 11
-43.700963
 21
-5.999998999999997
 31
0.0
  0
LINE
  5
2DA5
330
BF7
100
AcDbEntity
  8
SK1
100
AcDbLine
 10
-43.700963
 20
-5.650401999999998
 30
0.0
 11
-43.700963
 21
-5.911975
 31
0.0
  0
LINE
  5
2DA6
330
BF7
100
AcDbEntity
  8
SK1
100
AcDbLine
 10
-43.700963
 20
-3.586733999999995
 30
0.0
 11
-43.700963
 21
-4.407416999999997
 31
0.0
  0
LINE
  5
2DA7
330
BF7
100
AcDbEntity
  8
SK1
100
AcDbLine
 10
-43.700963
 20
-2.644579
 30
0.0
 11
-43.700963
 21
-3.586733999999995
 31
0.0
  0
LINE
  5
2DA8
330
BF7
100
AcDbEntity
  8
SK1
100
AcDbLine
 10
-43.700963
 20
-1.612859999999996
 30
0.0
 11
-43.700963
 21
-2.644579
 31
0.0
  0
LINE
  5
2DA9
330
BF7
100
AcDbEntity
  8
SK1
100
AcDbLine
 10
-43.700963
 20
-0.5265159999999974
 30
0.0
 11
-43.700963
 21
-1.612859999999996
 31
0.0
  0
LINE
  5
2DAA
330
BF7
100
AcDbEntity
  8
SK1
100
AcDbLine
 10
-43.700963
 20
0.5776590000000006
 30
0.0
 11
-43.700963
 21
-0.5265159999999974
 31
0.0
  0
LINE
  5
2DAB
330
BF7
100
AcDbEntity
  8
SK1
100
AcDbLine
 10
-43.700963
 20
1.662267999999996
 30
0.0
 11
-43.700963
 21
0.5776590000000006
 31
0.0
  0
LINE
  5
2DAC
330
BF7
100
AcDbEntity
  8
SK1
100
AcDbLine
 10
-43.700963
 20
2.690584000000004
 30
0.0
 11
-43.700963
 21
1.662267999999996
 31
0.0
  0
LINE
  5
2DAD
330
BF7
100
AcDbEntity
  8
SK1
100
AcDbLine
 10
-43.700963
 20
3.627776
 30
0.0
 11
-43.700963
 21
2.690584000000004
 31
0.0
  0
LINE
  5
2DAE
330
BF7
100
AcDbEntity
  8
SK1
100
AcDbLine
 10
-43.700963
 20
4.442102999999998
 30
0.0
 11
-43.700963
 21
3.627776
 31
0.0
  0
LINE
  5
2DAF
330
BF7
100
AcDbEntity
  8
SK1
100
AcDbLine
 10
-43.700963
 20
5.105988999999997
 30
0.0
 11
-43.700963
 21
4.442102999999998
 31
0.0
  0
LINE
  5
2DB0
330
BF7
100
AcDbEntity
  8
SK1
100
AcDbLine
 10
-43.700963
 20
5.596949999999996
 30
0.0
 11
-43.700963
 21
5.105988999999997
 31
0.0
  0
LINE
  5
2DB1
330
BF7
100
AcDbEntity
  8
SK1
100
AcDbLine
 10
-43.700963
 20
5.898354999999997
 30
0.0
 11
-43.700963
 21
5.596949999999996
 31
0.0
  0
LINE
  5
2DB2
330
BF7
100
AcDbEntity
  8
SK1
100
AcDbLine
 10
-43.700963
 20
5.999998999999997
 30
0.0
 11
-43.700963
 21
5.898354999999997
 31
0.0
  0
LINE
  5
2DB3
330
BF7
100
AcDbEntity
  8
SK1
100
AcDbLine
 10
-43.700963
 20
-4.407416999999997
 30
0.0
 11
-45.00000299999999
 21
-3.750649999999999
 31
0.0
  0
LINE
  5
2DB4
330
BF7
100
AcDbEntity
  8
SK1
100
AcDbLine
 10
-45.00000299999999
 20
5.148219
 30
0.0
 11
-45.00000299999999
 21
5.249999999999995
 31
0.0
  0
LINE
  5
2DB5
330
BF7
100
AcDbEntity
  8
SK1
100
AcDbLine
 10
-45.00000299999999
 20
4.846856999999995
 30
0.0
 11
-45.00000299999999
 21
5.148219
 31
0.0
  0
LINE
  5
2DB6
330
BF7
100
AcDbEntity
  8
SK1
100
AcDbLine
 10
-45.00000299999999
 20
4.357594000000001
 30
0.0
 11
-45.00000299999999
 21
4.846856999999995
 31
0.0
  0
LINE
  5
2DB7
330
BF7
100
AcDbEntity
  8
SK1
100
AcDbLine
 10
-45.00000299999999
 20
3.699400999999998
 30
0.0
 11
-45.00000299999999
 21
4.357594000000001
 31
0.0
  0
LINE
  5
2DB8
330
BF7
100
AcDbEntity
  8
SK1
100
AcDbLine
 10
-45.00000299999999
 20
2.897790000000004
 30
0.0
 11
-45.00000299999999
 21
3.699400999999998
 31
0.0
  0
LINE
  5
2DB9
330
BF7
100
AcDbEntity
  8
SK1
100
AcDbLine
 10
-45.00000299999999
 20
1.983843999999996
 30
0.0
 11
-45.00000299999999
 21
2.897790000000004
 31
0.0
  0
LINE
  5
2DBA
330
BF7
100
AcDbEntity
  8
SK1
100
AcDbLine
 10
-45.00000299999999
 20
0.9929859999999983
 30
0.0
 11
-45.00000299999999
 21
1.983843999999996
 31
0.0
  0
LINE
  5
2DBB
330
BF7
100
AcDbEntity
  8
SK1
100
AcDbLine
 10
-45.00000299999999
 20
-0.0363659999999975
 30
0.0
 11
-45.00000299999999
 21
0.9929859999999983
 31
0.0
  0
LINE
  5
2DBC
330
BF7
100
AcDbEntity
  8
SK1
100
AcDbLine
 10
-45.00000299999999
 20
-1.064307000000003
 30
0.0
 11
-45.00000299999999
 21
-0.0363659999999975
 31
0.0
  0
LINE
  5
2DBD
330
BF7
100
AcDbEntity
  8
SK1
100
AcDbLine
 10
-45.00000299999999
 20
-2.050986999999999
 30
0.0
 11
-45.00000299999999
 21
-1.064307000000003
 31
0.0
  0
LINE
  5
2DBE
330
BF7
100
AcDbEntity
  8
SK1
100
AcDbLine
 10
-45.00000299999999
 20
-2.958159999999999
 30
0.0
 11
-45.00000299999999
 21
-2.050986999999999
 31
0.0
  0
LINE
  5
2DBF
330
BF7
100
AcDbEntity
  8
SK1
100
AcDbLine
 10
-45.00000299999999
 20
-3.750649999999999
 30
0.0
 11
-45.00000299999999
 21
-2.958159999999999
 31
0.0
  0
LINE
  5
2DC0
330
BF7
100
AcDbEntity
  8
1
100
AcDbLine
 10
182.999104
 20
0.0294699999999999
 30
0.0
 11
182.970472
 21
0.1504109999999983
 31
0.0
  0
LINE
  5
2DC1
330
BF7
100
AcDbEntity
  8
1
100
AcDbLine
 10
182.970472
 20
0.1504109999999983
 30
0.0
 11
182.5840369999999
 21
2.347234000000002
 31
0.0
  0
LINE
  5
2DC2
330
BF7
100
AcDbEntity
  8
1
100
AcDbLine
 10
181.931267
 20
4.151374999999998
 30
0.0
 11
181.50874
 21
5.357811999999999
 31
0.0
  0
LINE
  5
2DC3
330
BF7
100
AcDbEntity
  8
1
100
AcDbLine
 10
182.390493
 20
2.877669999999998
 30
0.0
 11
181.931267
 21
4.151374999999998
 31
0.0
  0
LINE
  5
2DC4
330
BF7
100
AcDbEntity
  8
1
100
AcDbLine
 10
182.5840369999999
 20
2.347234000000002
 30
0.0
 11
182.390493
 21
2.877669999999998
 31
0.0
  0
LINE
  5
2DC5
330
BF7
100
AcDbEntity
  8
1
100
AcDbLine
 10
180.47857
 20
0.0009679999999967
 30
0.0
 11
179.9777289999999
 21
0.2103520000000003
 31
0.0
  0
LINE
  5
2DC6
330
BF7
100
AcDbEntity
  8
1
100
AcDbLine
 10
180.943246
 20
-0.0783450000000023
 30
0.0
 11
180.47857
 21
0.0009679999999967
 31
0.0
  0
LINE
  5
2DC7
330
BF7
100
AcDbEntity
  8
1
100
AcDbLine
 10
181.18577
 20
-0.0148560000000018
 30
0.0
 11
180.943246
 21
-0.0783450000000023
 31
0.0
  0
LINE
  5
2DC8
330
BF7
100
AcDbEntity
  8
1
100
AcDbLine
 10
181.3094299999999
 20
0.1245590000000014
 30
0.0
 11
181.18577
 21
-0.0148560000000018
 31
0.0
  0
LINE
  5
2DC9
330
BF7
100
AcDbEntity
  8
1
100
AcDbLine
 10
181.347969
 20
0.3675970000000035
 30
0.0
 11
181.3094299999999
 21
0.1245590000000014
 31
0.0
  0
LINE
  5
2DCA
330
BF7
100
AcDbEntity
  8
1
100
AcDbLine
 10
181.291093
 20
0.6610510000000005
 30
0.0
 11
181.347969
 21
0.3675970000000035
 31
0.0
  0
LINE
  5
2DCB
330
BF7
100
AcDbEntity
  8
1
100
AcDbLine
 10
180.8297359999999
 20
1.982275999999997
 30
0.0
 11
181.291093
 21
0.6610510000000005
 31
0.0
  0
LINE
  5
2DCC
330
BF7
100
AcDbEntity
  8
1
100
AcDbLine
 10
182.974881
 20
-0.0113890000000012
 30
0.0
 11
180.8297359999999
 21
1.982275999999997
 31
0.0
  0
LINE
  5
2DCD
330
BF7
100
AcDbEntity
  8
1
100
AcDbLine
 10
179.743683
 20
-1.178359999999996
 30
0.0
 11
180.308837
 21
-1.696078999999996
 31
0.0
  0
LINE
  5
2DCE
330
BF7
100
AcDbEntity
  8
1
100
AcDbLine
 10
178.848607
 20
-0.2460310000000021
 30
0.0
 11
179.743683
 21
-1.178359999999996
 31
0.0
  0
LINE
  5
2DCF
330
BF7
100
AcDbEntity
  8
1
100
AcDbLine
 10
178.161851
 20
0.6045499999999997
 30
0.0
 11
178.848607
 21
-0.2460310000000021
 31
0.0
  0
LINE
  5
2DD0
330
BF7
100
AcDbEntity
  8
1
100
AcDbLine
 10
177.973515
 20
0.8691290000000009
 30
0.0
 11
178.161851
 21
0.6045499999999997
 31
0.0
  0
LINE
  5
2DD1
330
BF7
100
AcDbEntity
  8
1
100
AcDbLine
 10
181.176153
 20
-4.765344000000001
 30
0.0
 11
181.0628119999999
 21
-4.396297999999998
 31
0.0
  0
LINE
  5
2DD2
330
BF7
100
AcDbEntity
  8
1
100
AcDbLine
 10
181.3381829999999
 20
-4.995547000000001
 30
0.0
 11
181.176153
 21
-4.765344000000001
 31
0.0
  0
LINE
  5
2DD3
330
BF7
100
AcDbEntity
  8
1
100
AcDbLine
 10
182.9999519999999
 20
-0.0229219999999977
 30
0.0
 11
182.9999519999999
 21
0.0229239999999997
 31
0.0
  0
LINE
  5
2DD4
330
BF7
100
AcDbEntity
  8
1
100
AcDbLine
 10
182.999104
 20
-0.0294709999999974
 30
0.0
 11
182.970472
 21
-0.1504119999999993
 31
0.0
  0
LINE
  5
2DD5
330
BF7
100
AcDbEntity
  8
1
100
AcDbLine
 10
182.970472
 20
-0.1504119999999993
 30
0.0
 11
182.5840369999999
 21
-2.347232
 31
0.0
  0
LINE
  5
2DD6
330
BF7
100
AcDbEntity
  8
1
100
AcDbLine
 10
181.931267
 20
-4.151375999999999
 30
0.0
 11
181.50874
 21
-5.357813
 31
0.0
  0
LINE
  5
2DD7
330
BF7
100
AcDbEntity
  8
1
100
AcDbLine
 10
182.390493
 20
-2.877670999999995
 30
0.0
 11
181.931267
 21
-4.151375999999999
 31
0.0
  0
LINE
  5
2DD8
330
BF7
100
AcDbEntity
  8
1
100
AcDbLine
 10
182.5840369999999
 20
-2.347232
 30
0.0
 11
182.390493
 21
-2.877670999999995
 31
0.0
  0
LINE
  5
2DD9
330
BF7
100
AcDbEntity
  8
1
100
AcDbLine
 10
181.343197
 20
-5.001841999999999
 30
0.0
 11
181.3381829999999
 21
-4.995547000000001
 31
0.0
  0
LINE
  5
2DDA
330
BF7
100
AcDbEntity
  8
1
100
AcDbLine
 10
181.3509249999999
 20
-5.032640999999998
 30
0.0
 11
181.343197
 21
-5.001841999999999
 31
0.0
  0
LINE
  5
2DDB
330
BF7
100
AcDbEntity
  8
1
100
AcDbLine
 10
181.350271
 20
-5.080697999999998
 30
0.0
 11
181.3509249999999
 21
-5.032640999999998
 31
0.0
  0
LINE
  5
2DDC
330
BF7
100
AcDbEntity
  8
1
100
AcDbLine
 10
181.333871
 20
-5.185802999999999
 30
0.0
 11
181.350271
 21
-5.080697999999998
 31
0.0
  0
LINE
  5
2DDD
330
BF7
100
AcDbEntity
  8
1
100
AcDbLine
 10
181.3065479999999
 20
-5.296642999999998
 30
0.0
 11
181.333871
 21
-5.185802999999999
 31
0.0
  0
LINE
  5
2DDE
330
BF7
100
AcDbEntity
  8
1
100
AcDbLine
 10
181.3057479999999
 20
-5.299537999999998
 30
0.0
 11
181.3065479999999
 21
-5.296642999999998
 31
0.0
  0
LINE
  5
2DDF
330
BF7
100
AcDbEntity
  8
1
100
AcDbLine
 10
182.0339979999999
 20
-2.071183
 30
0.0
 11
182.052505
 21
-2.009813
 31
0.0
  0
LINE
  5
2DE0
330
BF7
100
AcDbEntity
  8
1
100
AcDbLine
 10
181.970872
 20
-2.212383999999996
 30
0.0
 11
182.0339979999999
 21
-2.071183
 31
0.0
  0
LINE
  5
2DE1
330
BF7
100
AcDbEntity
  8
1
100
AcDbLine
 10
181.879042
 20
-2.332385999999999
 30
0.0
 11
181.970872
 21
-2.212383999999996
 31
0.0
  0
LINE
  5
2DE2
330
BF7
100
AcDbEntity
  8
1
100
AcDbLine
 10
181.7287119999999
 20
-2.413062
 30
0.0
 11
181.879042
 21
-2.332385999999999
 31
0.0
  0
LINE
  5
2DE3
330
BF7
100
AcDbEntity
  8
1
100
AcDbLine
 10
181.59294
 20
-2.384856999999999
 30
0.0
 11
181.7287119999999
 21
-2.413062
 31
0.0
  0
LINE
  5
2DE4
330
BF7
100
AcDbEntity
  8
1
100
AcDbLine
 10
181.493649
 20
-2.284035999999999
 30
0.0
 11
181.59294
 21
-2.384856999999999
 31
0.0
  0
LINE
  5
2DE5
330
BF7
100
AcDbEntity
  8
1
100
AcDbLine
 10
181.431734
 20
-2.148315999999996
 30
0.0
 11
181.493649
 21
-2.284035999999999
 31
0.0
  0
LINE
  5
2DE6
330
BF7
100
AcDbEntity
  8
1
100
AcDbLine
 10
181.400631
 20
-1.999726999999995
 30
0.0
 11
181.431734
 21
-2.148315999999996
 31
0.0
  0
LINE
  5
2DE7
330
BF7
100
AcDbEntity
  8
1
100
AcDbLine
 10
181.394575
 20
-1.845999999999999
 30
0.0
 11
181.400631
 21
-1.999726999999995
 31
0.0
  0
LINE
  5
2DE8
330
BF7
100
AcDbEntity
  8
1
100
AcDbLine
 10
181.412815
 20
-1.684151999999996
 30
0.0
 11
181.394575
 21
-1.845999999999999
 31
0.0
  0
LINE
  5
2DE9
330
BF7
100
AcDbEntity
  8
1
100
AcDbLine
 10
181.4613829999999
 20
-1.514348999999999
 30
0.0
 11
181.412815
 21
-1.684151999999996
 31
0.0
  0
LINE
  5
2DEA
330
BF7
100
AcDbEntity
  8
1
100
AcDbLine
 10
181.531316
 20
-1.378195999999999
 30
0.0
 11
181.4613829999999
 21
-1.514348999999999
 31
0.0
  0
LINE
  5
2DEB
330
BF7
100
AcDbEntity
  8
1
100
AcDbLine
 10
181.629953
 20
-1.269278999999996
 30
0.0
 11
181.531316
 21
-1.378195999999999
 31
0.0
  0
LINE
  5
2DEC
330
BF7
100
AcDbEntity
  8
1
100
AcDbLine
 10
181.7827539999999
 20
-1.213710999999998
 30
0.0
 11
181.629953
 21
-1.269278999999996
 31
0.0
  0
LINE
  5
2DED
330
BF7
100
AcDbEntity
  8
1
100
AcDbLine
 10
181.9135599999999
 20
-1.264495000000003
 30
0.0
 11
181.7827539999999
 21
-1.213710999999998
 31
0.0
  0
LINE
  5
2DEE
330
BF7
100
AcDbEntity
  8
1
100
AcDbLine
 10
182.002944
 20
-1.374904999999997
 30
0.0
 11
181.9135599999999
 21
-1.264495000000003
 31
0.0
  0
LINE
  5
2DEF
330
BF7
100
AcDbEntity
  8
1
100
AcDbLine
 10
182.064907
 20
-1.543192999999997
 30
0.0
 11
182.002944
 21
-1.374904999999997
 31
0.0
  0
LINE
  5
2DF0
330
BF7
100
AcDbEntity
  8
1
100
AcDbLine
 10
182.085134
 20
-1.690597999999996
 30
0.0
 11
182.064907
 21
-1.543192999999997
 31
0.0
  0
LINE
  5
2DF1
330
BF7
100
AcDbEntity
  8
1
100
AcDbLine
 10
182.0814519999999
 20
-1.849366999999999
 30
0.0
 11
182.085134
 21
-1.690597999999996
 31
0.0
  0
LINE
  5
2DF2
330
BF7
100
AcDbEntity
  8
1
100
AcDbLine
 10
182.052505
 20
-2.009813
 30
0.0
 11
182.0814519999999
 21
-1.849366999999999
 31
0.0
  0
LINE
  5
2DF3
330
BF7
100
AcDbEntity
  8
1
100
AcDbLine
 10
180.308837
 20
-1.696078999999996
 30
0.0
 11
182.974881
 21
-0.0113890000000012
 31
0.0
  0
LINE
  5
2DF4
330
BF7
100
AcDbEntity
  8
1
100
AcDbLine
 10
182.974881
 20
-0.0113890000000012
 30
0.0
 11
182.999104
 21
0.0294699999999999
 31
0.0
  0
LINE
  5
2DF5
330
BF7
100
AcDbEntity
  8
1
100
AcDbLine
 10
182.999104
 20
0.0294699999999999
 30
0.0
 11
182.9999519999999
 21
0.0229239999999997
 31
0.0
  0
LINE
  5
2DF6
330
BF7
100
AcDbEntity
  8
1
100
AcDbLine
 10
182.9999519999999
 20
0.0229239999999997
 30
0.0
 11
181.0628119999999
 21
-4.396297999999998
 31
0.0
  0
LINE
  5
2DF7
330
BF7
100
AcDbEntity
  8
1
100
AcDbLine
 10
180.322887
 20
-1.961054999999998
 30
0.0
 11
180.308837
 21
-1.696078999999996
 31
0.0
  0
LINE
  5
2DF8
330
BF7
100
AcDbEntity
  8
1
100
AcDbLine
 10
180.382743
 20
-2.518888
 30
0.0
 11
180.322887
 21
-1.961054999999998
 31
0.0
  0
LINE
  5
2DF9
330
BF7
100
AcDbEntity
  8
1
100
AcDbLine
 10
180.5361489999999
 20
-3.249971999999998
 30
0.0
 11
180.382743
 21
-2.518888
 31
0.0
  0
LINE
  5
2DFA
330
BF7
100
AcDbEntity
  8
1
100
AcDbLine
 10
180.752003
 20
-3.853298999999998
 30
0.0
 11
180.5361489999999
 21
-3.249971999999998
 31
0.0
  0
LINE
  5
2DFB
330
BF7
100
AcDbEntity
  8
1
100
AcDbLine
 10
181.0317819999999
 20
-4.352956999999999
 30
0.0
 11
180.752003
 21
-3.853298999999998
 31
0.0
  0
LINE
  5
2DFC
330
BF7
100
AcDbEntity
  8
1
100
AcDbLine
 10
181.0628119999999
 20
-4.396297999999998
 30
0.0
 11
181.0317819999999
 21
-4.352956999999999
 31
0.0
  0
LINE
  5
2DFD
330
BF7
100
AcDbEntity
  8
1
100
AcDbLine
 10
182.999104
 20
-0.0294709999999974
 30
0.0
 11
182.9999519999999
 21
-0.0229219999999977
 31
0.0
  0
LINE
  5
2DFE
330
BF7
100
AcDbEntity
  8
SK1
100
AcDbLine
 10
-43.700963
 20
-5.132609000000002
 30
0.0
 11
-43.700963
 21
-5.650401999999998
 31
0.0
  0
LINE
  5
2DFF
330
BF7
100
AcDbEntity
  8
SK1
100
AcDbLine
 10
-43.700963
 20
-4.407416999999997
 30
0.0
 11
-43.700963
 21
-5.132609000000002
 31
0.0
  0
LINE
  5
2E00
330
BF7
100
AcDbEntity
  8
1
100
AcDbLine
 10
14.43319699999999
 20
-2.454051000000002
 30
0.0
 11
11.657215
 21
-1.964095000000003
 31
0.0
  0
LINE
  5
2E01
330
BF7
100
AcDbEntity
  8
1
100
AcDbLine
 10
17.24837099999999
 20
-2.821389000000003
 30
0.0
 11
14.43319699999999
 21
-2.454051000000002
 31
0.0
  0
LINE
  5
2E02
330
BF7
100
AcDbEntity
  8
1
100
AcDbLine
 10
20.13980100000001
 20
-3.068164000000001
 30
0.0
 11
17.24837099999999
 21
-2.821389000000003
 31
0.0
  0
LINE
  5
2E03
330
BF7
100
AcDbEntity
  8
1
100
AcDbLine
 10
138.505115
 20
-3.324489000000002
 30
0.0
 11
143.518811
 21
-2.679276000000001
 31
0.0
  0
LINE
  5
2E04
330
BF7
100
AcDbEntity
  8
1
100
AcDbLine
 10
135.842511
 20
-3.25713
 30
0.0
 11
138.505115
 21
-3.324489000000002
 31
0.0
  0
LINE
  5
2E05
330
BF7
100
AcDbEntity
  8
1
100
AcDbLine
 10
133.179786
 20
-2.911235999999998
 30
0.0
 11
135.842511
 21
-3.25713
 31
0.0
  0
LINE
  5
2E06
330
BF7
100
AcDbEntity
  8
1
100
AcDbLine
 10
130.516867
 20
-2.316328999999999
 30
0.0
 11
133.179786
 21
-2.911235999999998
 31
0.0
  0
LINE
  5
2E07
330
BF7
100
AcDbEntity
  8
1
100
AcDbLine
 10
127.805502
 20
-1.507382000000003
 30
0.0
 11
130.516867
 21
-2.316328999999999
 31
0.0
  0
LINE
  5
2E08
330
BF7
100
AcDbEntity
  8
1
100
AcDbLine
 10
125.094476
 20
-0.5648769999999958
 30
0.0
 11
127.805502
 21
-1.507382000000003
 31
0.0
  0
LINE
  5
2E09
330
BF7
100
AcDbEntity
  8
1
100
AcDbLine
 10
124.665529
 20
-0.4078279999999987
 30
0.0
 11
125.094476
 21
-0.5648769999999958
 31
0.0
  0
LINE
  5
2E0A
330
BF7
100
AcDbEntity
  8
1
100
AcDbLine
 10
82.105046
 20
-3.300326
 30
0.0
 11
86.507006
 21
-2.669610999999999
 31
0.0
  0
LINE
  5
2E0B
330
BF7
100
AcDbEntity
  8
1
100
AcDbLine
 10
79.39444400000002
 20
-3.294739999999996
 30
0.0
 11
82.105046
 21
-3.300326
 31
0.0
  0
LINE
  5
2E0C
330
BF7
100
AcDbEntity
  8
1
100
AcDbLine
 10
76.68363499999998
 20
-2.997128999999997
 30
0.0
 11
79.39444400000002
 21
-3.294739999999996
 31
0.0
  0
LINE
  5
2E0D
330
BF7
100
AcDbEntity
  8
1
100
AcDbLine
 10
73.97230600000002
 20
-2.433808999999996
 30
0.0
 11
76.68363499999998
 21
-2.997128999999997
 31
0.0
  0
LINE
  5
2E0E
330
BF7
100
AcDbEntity
  8
1
100
AcDbLine
 10
71.26108599999998
 20
-1.654769
 30
0.0
 11
73.97230600000002
 21
-2.433808999999996
 31
0.0
  0
LINE
  5
2E0F
330
BF7
100
AcDbEntity
  8
1
100
AcDbLine
 10
68.55019299999999
 20
-0.7291740000000006
 30
0.0
 11
71.26108599999998
 21
-1.654769
 31
0.0
  0
LINE
  5
2E10
330
BF7
100
AcDbEntity
  8
1
100
AcDbLine
 10
67.62620600000001
 20
-0.391691999999999
 30
0.0
 11
68.55019299999999
 21
-0.7291740000000006
 31
0.0
  0
LINE
  5
2E11
330
BF7
100
AcDbEntity
  8
1
100
AcDbLine
 10
25.56023000000001
 20
-3.272233000000003
 30
0.0
 11
29.50015500000001
 21
-2.668137000000001
 31
0.0
  0
LINE
  5
2E12
330
BF7
100
AcDbEntity
  8
1
100
AcDbLine
 10
22.850633
 20
-3.316383000000001
 30
0.0
 11
25.56023000000001
 21
-3.272233000000003
 31
0.0
  0
LINE
  5
2E13
330
BF7
100
AcDbEntity
  8
1
100
AcDbLine
 10
20.13980100000001
 20
-3.068164000000001
 30
0.0
 11
22.850633
 21
-3.316383000000001
 31
0.0
  0
LINE
  5
2E14
330
BF7
100
AcDbEntity
  8
1
100
AcDbLine
 10
178.069221
 20
0.8531450000000011
 30
0.0
 11
177.973515
 21
0.8691290000000009
 31
0.0
  0
LINE
  5
2E15
330
BF7
100
AcDbEntity
  8
1
100
AcDbLine
 10
178.450205
 20
0.7731049999999975
 30
0.0
 11
178.069221
 21
0.8531450000000011
 31
0.0
  0
LINE
  5
2E16
330
BF7
100
AcDbEntity
  8
1
100
AcDbLine
 10
178.8351869999999
 20
0.6677030000000032
 30
0.0
 11
178.450205
 21
0.7731049999999975
 31
0.0
  0
LINE
  5
2E17
330
BF7
100
AcDbEntity
  8
1
100
AcDbLine
 10
179.225691
 20
0.5368790000000026
 30
0.0
 11
178.8351869999999
 21
0.6677030000000032
 31
0.0
  0
LINE
  5
2E18
330
BF7
100
AcDbEntity
  8
1
100
AcDbLine
 10
179.600717
 20
0.3877600000000036
 30
0.0
 11
179.225691
 21
0.5368790000000026
 31
0.0
  0
LINE
  5
2E19
330
BF7
100
AcDbEntity
  8
1
100
AcDbLine
 10
179.9777289999999
 20
0.2103520000000003
 30
0.0
 11
179.600717
 21
0.3877600000000036
 31
0.0
  0
LINE
  5
2E1A
330
BF7
100
AcDbEntity
  8
1
100
AcDbLine
 10
23.58237199999999
 20
-5.070015999999998
 30
0.0
 11
21.38300200000001
 21
-5.029678999999998
 31
0.0
  0
LINE
  5
2E1B
330
BF7
100
AcDbEntity
  8
1
100
AcDbLine
 10
25.751667
 20
-4.819306
 30
0.0
 11
23.58237199999999
 21
-5.070015999999998
 31
0.0
  0
LINE
  5
2E1C
330
BF7
100
AcDbEntity
  8
1
100
AcDbLine
 10
27.35406499999999
 20
-4.456306000000001
 30
0.0
 11
25.751667
 21
-4.819306
 31
0.0
  0
LINE
  5
2E1D
330
BF7
100
AcDbEntity
  8
1
100
AcDbLine
 10
28.95646199999999
 20
-3.95514
 30
0.0
 11
27.35406499999999
 21
-4.456306000000001
 31
0.0
  0
LINE
  5
2E1E
330
BF7
100
AcDbEntity
  8
1
100
AcDbLine
 10
30.51371899999999
 20
-3.349580999999999
 30
0.0
 11
28.95646199999999
 21
-3.95514
 31
0.0
  0
LINE
  5
2E1F
330
BF7
100
AcDbEntity
  8
1
100
AcDbLine
 10
30.703727
 20
-3.263724999999999
 30
0.0
 11
30.51371899999999
 21
-3.349580999999999
 31
0.0
  0
LINE
  5
2E20
330
BF7
100
AcDbEntity
  8
1
100
AcDbLine
 10
54.235587
 20
4.822194999999997
 30
0.0
 11
51.28055899999999
 21
5.079436999999995
 31
0.0
  0
LINE
  5
2E21
330
BF7
100
AcDbEntity
  8
1
100
AcDbLine
 10
55.79284399999998
 20
4.472799999999995
 30
0.0
 11
54.235587
 21
4.822194999999997
 31
0.0
  0
LINE
  5
2E22
330
BF7
100
AcDbEntity
  8
1
100
AcDbLine
 10
57.35008899999998
 20
3.992433999999999
 30
0.0
 11
55.79284399999998
 21
4.472799999999995
 31
0.0
  0
LINE
  5
2E23
330
BF7
100
AcDbEntity
  8
1
100
AcDbLine
 10
58.95239
 20
3.375414000000001
 30
0.0
 11
57.35008899999998
 21
3.992433999999999
 31
0.0
  0
LINE
  5
2E24
330
BF7
100
AcDbEntity
  8
1
100
AcDbLine
 10
60.55468999999998
 20
2.653755999999996
 30
0.0
 11
58.95239
 21
3.375414000000001
 31
0.0
  0
LINE
  5
2E25
330
BF7
100
AcDbEntity
  8
1
100
AcDbLine
 10
62.11183799999999
 20
1.872779999999997
 30
0.0
 11
60.55468999999998
 21
2.653755999999996
 31
0.0
  0
LINE
  5
2E26
330
BF7
100
AcDbEntity
  8
1
100
AcDbLine
 10
63.668987
 20
1.036944999999998
 30
0.0
 11
62.11183799999999
 21
1.872779999999997
 31
0.0
  0
LINE
  5
2E27
330
BF7
100
AcDbEntity
  8
1
100
AcDbLine
 10
65.27144399999999
 20
0.1451330000000013
 30
0.0
 11
63.668987
 21
1.036944999999998
 31
0.0
  0
LINE
  5
2E28
330
BF7
100
AcDbEntity
  8
1
100
AcDbLine
 10
66.873927
 20
-0.7511539999999997
 30
0.0
 11
65.27144399999999
 21
0.1451330000000013
 31
0.0
  0
LINE
  5
2E29
330
BF7
100
AcDbEntity
  8
1
100
AcDbLine
 10
68.43123199999999
 20
-1.599978999999996
 30
0.0
 11
66.873927
 21
-0.7511539999999997
 31
0.0
  0
LINE
  5
2E2A
330
BF7
100
AcDbEntity
  8
1
100
AcDbLine
 10
69.98853799999999
 20
-2.401936999999999
 30
0.0
 11
68.43123199999999
 21
-1.599978999999996
 31
0.0
  0
LINE
  5
2E2B
330
BF7
100
AcDbEntity
  8
1
100
AcDbLine
 10
71.59110500000001
 20
-3.152978999999998
 30
0.0
 11
69.98853799999999
 21
-2.401936999999999
 31
0.0
  0
LINE
  5
2E2C
330
BF7
100
AcDbEntity
  8
1
100
AcDbLine
 10
73.19365900000002
 20
-3.806276
 30
0.0
 11
71.59110500000001
 21
-3.152978999999998
 31
0.0
  0
LINE
  5
2E2D
330
BF7
100
AcDbEntity
  8
1
100
AcDbLine
 10
74.75103799999998
 20
-4.327403999999996
 30
0.0
 11
73.19365900000002
 21
-3.806276
 31
0.0
  0
LINE
  5
2E2E
330
BF7
100
AcDbEntity
  8
1
100
AcDbLine
 10
76.308428
 20
-4.721727000000001
 30
0.0
 11
74.75103799999998
 21
-4.327403999999996
 31
0.0
  0
LINE
  5
2E2F
330
BF7
100
AcDbEntity
  8
1
100
AcDbLine
 10
77.91097099999999
 20
-4.981937999999998
 30
0.0
 11
76.308428
 21
-4.721727000000001
 31
0.0
  0
LINE
  5
2E30
330
BF7
100
AcDbEntity
  8
1
100
AcDbLine
 10
79.513501
 20
-5.087704999999998
 30
0.0
 11
77.91097099999999
 21
-4.981937999999998
 31
0.0
  0
LINE
  5
2E31
330
BF7
100
AcDbEntity
  8
1
100
AcDbLine
 10
81.07086699999998
 20
-5.038219999999999
 30
0.0
 11
79.513501
 21
-5.087704999999998
 31
0.0
  0
LINE
  5
2E32
330
BF7
100
AcDbEntity
  8
1
100
AcDbLine
 10
82.62822099999999
 20
-4.841130999999999
 30
0.0
 11
81.07086699999998
 21
-5.038219999999999
 31
0.0
  0
LINE
  5
2E33
330
BF7
100
AcDbEntity
  8
1
100
AcDbLine
 10
84.23093399999999
 20
-4.489262
 30
0.0
 11
82.62822099999999
 21
-4.841130999999999
 31
0.0
  0
LINE
  5
2E34
330
BF7
100
AcDbEntity
  8
1
100
AcDbLine
 10
85.83365800000001
 20
-3.998166999999998
 30
0.0
 11
84.23093399999999
 21
-4.489262
 31
0.0
  0
LINE
  5
2E35
330
BF7
100
AcDbEntity
  8
1
100
AcDbLine
 10
87.39119399999998
 20
-3.401050000000001
 30
0.0
 11
85.83365800000001
 21
-3.998166999999998
 31
0.0
  0
LINE
  5
2E36
330
BF7
100
AcDbEntity
  8
1
100
AcDbLine
 10
87.71453899999999
 20
-3.256402999999998
 30
0.0
 11
87.39119399999998
 21
-3.401050000000001
 31
0.0
  0
LINE
  5
2E37
330
BF7
100
AcDbEntity
  8
1
100
AcDbLine
 10
111.112396
 20
4.843873999999996
 30
0.0
 11
108.279126
 21
5.075686000000001
 31
0.0
  0
LINE
  5
2E38
330
BF7
100
AcDbEntity
  8
1
100
AcDbLine
 10
112.669931
 20
4.505328999999998
 30
0.0
 11
111.112396
 21
4.843873999999996
 31
0.0
  0
LINE
  5
2E39
330
BF7
100
AcDbEntity
  8
1
100
AcDbLine
 10
114.227479
 20
4.034752000000001
 30
0.0
 11
112.669931
 21
4.505328999999998
 31
0.0
  0
LINE
  5
2E3A
330
BF7
100
AcDbEntity
  8
1
100
AcDbLine
 10
115.830167
 20
3.426409999999999
 30
0.0
 11
114.227479
 21
4.034752000000001
 31
0.0
  0
LINE
  5
2E3B
330
BF7
100
AcDbEntity
  8
1
100
AcDbLine
 10
117.432831
 20
2.711839999999998
 30
0.0
 11
115.830167
 21
3.426409999999999
 31
0.0
  0
LINE
  5
2E3C
330
BF7
100
AcDbEntity
  8
1
100
AcDbLine
 10
118.990318
 20
1.935987999999997
 30
0.0
 11
117.432831
 21
2.711839999999998
 31
0.0
  0
LINE
  5
2E3D
330
BF7
100
AcDbEntity
  8
1
100
AcDbLine
 10
120.54783
 20
1.103419999999998
 30
0.0
 11
118.990318
 21
1.935987999999997
 31
0.0
  0
LINE
  5
2E3E
330
BF7
100
AcDbEntity
  8
1
100
AcDbLine
 10
122.15013
 20
0.2131919999999958
 30
0.0
 11
120.54783
 21
1.103419999999998
 31
0.0
  0
LINE
  5
2E3F
330
BF7
100
AcDbEntity
  8
1
100
AcDbLine
 10
123.752431
 20
-0.6836620000000018
 30
0.0
 11
122.15013
 21
0.2131919999999958
 31
0.0
  0
LINE
  5
2E40
330
BF7
100
AcDbEntity
  8
1
100
AcDbLine
 10
125.309603
 20
-1.535059999999996
 30
0.0
 11
123.752431
 21
-0.6836620000000018
 31
0.0
  0
LINE
  5
2E41
330
BF7
100
AcDbEntity
  8
1
100
AcDbLine
 10
126.866751
 20
-2.341514999999997
 30
0.0
 11
125.309603
 21
-1.535059999999996
 31
0.0
  0
LINE
  5
2E42
330
BF7
100
AcDbEntity
  8
1
100
AcDbLine
 10
128.469245
 20
-3.099076000000002
 30
0.0
 11
126.866751
 21
-2.341514999999997
 31
0.0
  0
LINE
  5
2E43
330
BF7
100
AcDbEntity
  8
1
100
AcDbLine
 10
130.071764
 20
-3.760518000000001
 30
0.0
 11
128.469245
 21
-3.099076000000002
 31
0.0
  0
LINE
  5
2E44
330
BF7
100
AcDbEntity
  8
1
100
AcDbLine
 10
131.6291059999999
 20
-4.290959999999998
 30
0.0
 11
130.071764
 21
-3.760518000000001
 31
0.0
  0
LINE
  5
2E45
330
BF7
100
AcDbEntity
  8
1
100
AcDbLine
 10
133.186423
 20
-4.695717999999998
 30
0.0
 11
131.6291059999999
 21
-4.290959999999998
 31
0.0
  0
LINE
  5
2E46
330
BF7
100
AcDbEntity
  8
1
100
AcDbLine
 10
134.789087
 20
-4.967490999999998
 30
0.0
 11
133.186423
 21
-4.695717999999998
 31
0.0
  0
LINE
  5
2E47
330
BF7
100
AcDbEntity
  8
1
100
AcDbLine
 10
136.391727
 20
-5.085236999999998
 30
0.0
 11
134.789087
 21
-4.967490999999998
 31
0.0
  0
LINE
  5
2E48
330
BF7
100
AcDbEntity
  8
1
100
AcDbLine
 10
137.9492139999999
 20
-5.047450000000001
 30
0.0
 11
136.391727
 21
-5.085236999999998
 31
0.0
  0
LINE
  5
2E49
330
BF7
100
AcDbEntity
  8
1
100
AcDbLine
 10
139.5066769999999
 20
-4.861765999999998
 30
0.0
 11
137.9492139999999
 21
-5.047450000000001
 31
0.0
  0
LINE
  5
2E4A
330
BF7
100
AcDbEntity
  8
1
100
AcDbLine
 10
141.109002
 20
-4.521079
 30
0.0
 11
139.5066769999999
 21
-4.861765999999998
 31
0.0
  0
LINE
  5
2E4B
330
BF7
100
AcDbEntity
  8
1
100
AcDbLine
 10
142.711351
 20
-4.040258000000001
 30
0.0
 11
141.109002
 21
-4.521079
 31
0.0
  0
LINE
  5
2E4C
330
BF7
100
AcDbEntity
  8
1
100
AcDbLine
 10
144.2685469999999
 20
-3.451931
 30
0.0
 11
142.711351
 21
-4.040258000000001
 31
0.0
  0
LINE
  5
2E4D
330
BF7
100
AcDbEntity
  8
1
100
AcDbLine
 10
144.698439
 20
-3.261610999999998
 30
0.0
 11
144.2685469999999
 21
-3.451931
 31
0.0
  0
LINE
  5
2E4E
330
BF7
100
AcDbEntity
  8
1
100
AcDbLine
 10
167.990113
 20
4.864516000000004
 30
0.0
 11
165.27773
 21
5.072929999999995
 31
0.0
  0
LINE
  5
2E4F
330
BF7
100
AcDbEntity
  8
1
100
AcDbLine
 10
169.5472849999999
 20
4.536921999999999
 30
0.0
 11
167.990113
 21
4.864516000000004
 31
0.0
  0
LINE
  5
2E50
330
BF7
100
AcDbEntity
  8
1
100
AcDbLine
 10
171.104482
 20
4.076451999999998
 30
0.0
 11
169.5472849999999
 21
4.536921999999999
 31
0.0
  0
LINE
  5
2E51
330
BF7
100
AcDbEntity
  8
1
100
AcDbLine
 10
172.697093
 20
3.481273000000004
 30
0.0
 11
171.104482
 21
4.076451999999998
 31
0.0
  0
LINE
  5
2E52
330
BF7
100
AcDbEntity
  8
1
100
AcDbLine
 10
174.289679
 20
2.779472000000001
 30
0.0
 11
172.697093
 21
3.481273000000004
 31
0.0
  0
LINE
  5
2E53
330
BF7
100
AcDbEntity
  8
1
100
AcDbLine
 10
175.8379129999999
 20
2.014796
 30
0.0
 11
174.289679
 21
2.779472000000001
 31
0.0
  0
LINE
  5
2E54
330
BF7
100
AcDbEntity
  8
1
100
AcDbLine
 10
177.386147
 20
1.191790000000001
 30
0.0
 11
175.8379129999999
 21
2.014796
 31
0.0
  0
LINE
  5
2E55
330
BF7
100
AcDbEntity
  8
1
100
AcDbLine
 10
177.973515
 20
0.8691290000000009
 30
0.0
 11
177.386147
 21
1.191790000000001
 31
0.0
  0
LINE
  5
2E56
330
BF7
100
AcDbEntity
  8
1
100
AcDbLine
 10
18.69634499999999
 20
-4.81039
 30
0.0
 11
18.22448599999998
 21
-4.773050000000001
 31
0.0
  0
LINE
  5
2E57
330
BF7
100
AcDbEntity
  8
1
100
AcDbLine
 10
19.290676
 20
-4.857631999999997
 30
0.0
 11
18.69634499999999
 21
-4.81039
 31
0.0
  0
LINE
  5
2E58
330
BF7
100
AcDbEntity
  8
1
100
AcDbLine
 10
20.341351
 20
-4.942425999999996
 30
0.0
 11
19.290676
 21
-4.857631999999997
 31
0.0
  0
LINE
  5
2E59
330
BF7
100
AcDbEntity
  8
1
100
AcDbLine
 10
21.38300200000001
 20
-5.029678999999998
 30
0.0
 11
20.341351
 21
-4.942425999999996
 31
0.0
  0
LINE
  5
2E5A
330
BF7
100
AcDbEntity
  8
1
100
AcDbLine
 10
168.2936309999999
 20
-3.254293
 30
0.0
 11
172.00525
 21
-2.670128999999999
 31
0.0
  0
LINE
  5
2E5B
330
BF7
100
AcDbEntity
  8
1
100
AcDbLine
 10
165.373121
 20
-3.317074000000001
 30
0.0
 11
168.2936309999999
 21
-3.254293
 31
0.0
  0
LINE
  5
2E5C
330
BF7
100
AcDbEntity
  8
1
100
AcDbLine
 10
162.710905
 20
-3.076871999999998
 30
0.0
 11
165.373121
 21
-3.317074000000001
 31
0.0
  0
LINE
  5
2E5D
330
BF7
100
AcDbEntity
  8
1
100
AcDbLine
 10
160.048252
 20
-2.573522999999998
 30
0.0
 11
162.710905
 21
-3.076871999999998
 31
0.0
  0
LINE
  5
2E5E
330
BF7
100
AcDbEntity
  8
1
100
AcDbLine
 10
157.385213
 20
-1.849924
 30
0.0
 11
160.048252
 21
-2.573522999999998
 31
0.0
  0
LINE
  5
2E5F
330
BF7
100
AcDbEntity
  8
1
100
AcDbLine
 10
154.7226329999999
 20
-0.9681709999999979
 30
0.0
 11
157.385213
 21
-1.849924
 31
0.0
  0
LINE
  5
2E60
330
BF7
100
AcDbEntity
  8
1
100
AcDbLine
 10
153.116554
 20
-0.3861690000000024
 30
0.0
 11
154.7226329999999
 21
-0.9681709999999979
 31
0.0
  0
LINE
  5
2E61
330
BF7
100
AcDbEntity
  8
1
100
AcDbLine
 10
111.636443
 20
-3.224748999999998
 30
0.0
 11
115.012896
 21
-2.673183999999999
 31
0.0
  0
LINE
  5
2E62
330
BF7
100
AcDbEntity
  8
1
100
AcDbLine
 10
108.974154
 20
-3.332454999999998
 30
0.0
 11
111.636443
 21
-3.224748999999998
 31
0.0
  0
LINE
  5
2E63
330
BF7
100
AcDbEntity
  8
1
100
AcDbLine
 10
106.311478
 20
-3.155186
 30
0.0
 11
108.974154
 21
-3.332454999999998
 31
0.0
  0
LINE
  5
2E64
330
BF7
100
AcDbEntity
  8
1
100
AcDbLine
 10
103.60033
 20
-2.697691999999998
 30
0.0
 11
106.311478
 21
-3.155186
 31
0.0
  0
LINE
  5
2E65
330
BF7
100
AcDbEntity
  8
1
100
AcDbLine
 10
100.88928
 20
-2.001063000000002
 30
0.0
 11
103.60033
 21
-2.697691999999998
 31
0.0
  0
LINE
  5
2E66
330
BF7
100
AcDbEntity
  8
1
100
AcDbLine
 10
98.17815600000002
 20
-1.127070000000002
 30
0.0
 11
100.88928
 21
-2.001063000000002
 31
0.0
  0
LINE
  5
2E67
330
BF7
100
AcDbEntity
  8
1
100
AcDbLine
 10
96.139618
 20
-0.394764999999996
 30
0.0
 11
98.17815600000002
 21
-1.127070000000002
 31
0.0
  0
LINE
  5
2E68
330
BF7
100
AcDbEntity
  8
1
100
AcDbLine
 10
55.18878699999998
 20
-3.167145999999998
 30
0.0
 11
58.02858499999998
 21
-2.686742999999998
 31
0.0
  0
LINE
  5
2E69
330
BF7
100
AcDbEntity
  8
1
100
AcDbLine
 10
52.47774899999999
 20
-3.334133000000001
 30
0.0
 11
55.18878699999998
 21
-3.167145999999998
 31
0.0
  0
LINE
  5
2E6A
330
BF7
100
AcDbEntity
  8
1
100
AcDbLine
 10
49.76681899999999
 20
-3.205564000000001
 30
0.0
 11
52.47774899999999
 21
-3.334133000000001
 31
0.0
  0
LINE
  5
2E6B
330
BF7
100
AcDbEntity
  8
1
100
AcDbLine
 10
47.05567199999999
 20
-2.792768999999998
 30
0.0
 11
49.76681899999999
 21
-3.205564000000001
 31
0.0
  0
LINE
  5
2E6C
330
BF7
100
AcDbEntity
  8
1
100
AcDbLine
 10
44.34418499999998
 20
-2.132317
 30
0.0
 11
47.05567199999999
 21
-2.792768999999998
 31
0.0
  0
LINE
  5
2E6D
330
BF7
100
AcDbEntity
  8
1
100
AcDbLine
 10
41.68147199999999
 20
-1.299384999999997
 30
0.0
 11
44.34418499999998
 21
-2.132317
 31
0.0
  0
LINE
  5
2E6E
330
BF7
100
AcDbEntity
  8
1
100
AcDbLine
 10
39.23273599999998
 20
-0.4311940000000014
 30
0.0
 11
41.68147199999999
 21
-1.299384999999997
 31
0.0
  0
LINE
  5
2E6F
330
BF7
100
AcDbEntity
  8
1
100
AcDbLine
 10
25.751667
 20
4.819306
 30
0.0
 11
22.770684
 21
5.055129000000004
 31
0.0
  0
LINE
  5
2E70
330
BF7
100
AcDbEntity
  8
1
100
AcDbLine
 10
27.35406499999999
 20
4.456306999999998
 30
0.0
 11
25.751667
 21
4.819306
 31
0.0
  0
LINE
  5
2E71
330
BF7
100
AcDbEntity
  8
1
100
AcDbLine
 10
28.95646199999999
 20
3.955138999999998
 30
0.0
 11
27.35406499999999
 21
4.456306999999998
 31
0.0
  0
LINE
  5
2E72
330
BF7
100
AcDbEntity
  8
1
100
AcDbLine
 10
30.51371899999999
 20
3.349582999999998
 30
0.0
 11
28.95646199999999
 21
3.955138999999998
 31
0.0
  0
LINE
  5
2E73
330
BF7
100
AcDbEntity
  8
1
100
AcDbLine
 10
32.071001
 20
2.645931
 30
0.0
 11
30.51371899999999
 21
3.349582999999998
 31
0.0
  0
LINE
  5
2E74
330
BF7
100
AcDbEntity
  8
1
100
AcDbLine
 10
33.673616
 20
1.840521000000002
 30
0.0
 11
32.071001
 21
2.645931
 31
0.0
  0
LINE
  5
2E75
330
BF7
100
AcDbEntity
  8
1
100
AcDbLine
 10
35.276207
 20
0.978000999999999
 30
0.0
 11
33.673616
 21
1.840521000000002
 31
0.0
  0
LINE
  5
2E76
330
BF7
100
AcDbEntity
  8
1
100
AcDbLine
 10
36.83363400000001
 20
0.1102549999999987
 30
0.0
 11
35.276207
 21
0.978000999999999
 31
0.0
  0
LINE
  5
2E77
330
BF7
100
AcDbEntity
  8
1
100
AcDbLine
 10
38.39107299999999
 20
-0.7606950000000019
 30
0.0
 11
36.83363400000001
 21
0.1102549999999987
 31
0.0
  0
LINE
  5
2E78
330
BF7
100
AcDbEntity
  8
1
100
AcDbLine
 10
39.993409
 20
-1.633058999999999
 30
0.0
 11
38.39107299999999
 21
-0.7606950000000019
 31
0.0
  0
LINE
  5
2E79
330
BF7
100
AcDbEntity
  8
1
100
AcDbLine
 10
41.595746
 20
-2.454789999999999
 30
0.0
 11
39.993409
 21
-1.633058999999999
 31
0.0
  0
LINE
  5
2E7A
330
BF7
100
AcDbEntity
  8
1
100
AcDbLine
 10
43.152931
 20
-3.180142
 30
0.0
 11
41.595746
 21
-2.454789999999999
 31
0.0
  0
LINE
  5
2E7B
330
BF7
100
AcDbEntity
  8
1
100
AcDbLine
 10
44.71011499999998
 20
-3.812397999999998
 30
0.0
 11
43.152931
 21
-3.180142
 31
0.0
  0
LINE
  5
2E7C
330
BF7
100
AcDbEntity
  8
1
100
AcDbLine
 10
46.31286399999996
 20
-4.345544999999996
 30
0.0
 11
44.71011499999998
 21
-3.812397999999998
 31
0.0
  0
LINE
  5
2E7D
330
BF7
100
AcDbEntity
  8
1
100
AcDbLine
 10
47.91562399999999
 20
-4.743860999999998
 30
0.0
 11
46.31286399999996
 21
-4.345544999999996
 31
0.0
  0
LINE
  5
2E7E
330
BF7
100
AcDbEntity
  8
1
100
AcDbLine
 10
49.473208
 20
-4.989007999999998
 30
0.0
 11
47.91562399999999
 21
-4.743860999999998
 31
0.0
  0
LINE
  5
2E7F
330
BF7
100
AcDbEntity
  8
1
100
AcDbLine
 10
51.03078
 20
-5.087990999999997
 30
0.0
 11
49.473208
 21
-4.989007999999998
 31
0.0
  0
LINE
  5
2E80
330
BF7
100
AcDbEntity
  8
1
100
AcDbLine
 10
52.63319
 20
-5.033111999999999
 30
0.0
 11
51.03078
 21
-5.087990999999997
 31
0.0
  0
LINE
  5
2E81
330
BF7
100
AcDbEntity
  8
1
100
AcDbLine
 10
54.235587
 20
-4.822194999999999
 30
0.0
 11
52.63319
 21
-5.033111999999999
 31
0.0
  0
LINE
  5
2E82
330
BF7
100
AcDbEntity
  8
1
100
AcDbLine
 10
55.79284399999998
 20
-4.472798999999998
 30
0.0
 11
54.235587
 21
-4.822194999999999
 31
0.0
  0
LINE
  5
2E83
330
BF7
100
AcDbEntity
  8
1
100
AcDbLine
 10
57.35008899999998
 20
-3.992435
 30
0.0
 11
55.79284399999998
 21
-4.472798999999998
 31
0.0
  0
LINE
  5
2E84
330
BF7
100
AcDbEntity
  8
1
100
AcDbLine
 10
58.95239
 20
-3.375414999999995
 30
0.0
 11
57.35008899999998
 21
-3.992435
 31
0.0
  0
LINE
  5
2E85
330
BF7
100
AcDbEntity
  8
1
100
AcDbLine
 10
59.210368
 20
-3.259221999999997
 30
0.0
 11
58.95239
 21
-3.375414999999995
 31
0.0
  0
LINE
  5
2E86
330
BF7
100
AcDbEntity
  8
1
100
AcDbLine
 10
82.62822099999999
 20
4.841130999999999
 30
0.0
 11
79.78233200000002
 21
5.079162
 31
0.0
  0
LINE
  5
2E87
330
BF7
100
AcDbEntity
  8
1
100
AcDbLine
 10
84.23093399999999
 20
4.489260000000005
 30
0.0
 11
82.62822099999999
 21
4.841130999999999
 31
0.0
  0
LINE
  5
2E88
330
BF7
100
AcDbEntity
  8
1
100
AcDbLine
 10
85.83365800000001
 20
3.998165000000002
 30
0.0
 11
84.23093399999999
 21
4.489260000000005
 31
0.0
  0
LINE
  5
2E89
330
BF7
100
AcDbEntity
  8
1
100
AcDbLine
 10
87.39119399999998
 20
3.401047999999998
 30
0.0
 11
85.83365800000001
 21
3.998165000000002
 31
0.0
  0
LINE
  5
2E8A
330
BF7
100
AcDbEntity
  8
1
100
AcDbLine
 10
88.94873
 20
2.704285000000001
 30
0.0
 11
87.39119399999998
 21
3.401047999999998
 31
0.0
  0
LINE
  5
2E8B
330
BF7
100
AcDbEntity
  8
1
100
AcDbLine
 10
90.55117499999999
 20
1.904354999999998
 30
0.0
 11
88.94873
 21
2.704285000000001
 31
0.0
  0
LINE
  5
2E8C
330
BF7
100
AcDbEntity
  8
1
100
AcDbLine
 10
92.153621
 20
1.045390000000001
 30
0.0
 11
90.55117499999999
 21
1.904354999999998
 31
0.0
  0
LINE
  5
2E8D
330
BF7
100
AcDbEntity
  8
1
100
AcDbLine
 10
93.710927
 20
0.1791030000000013
 30
0.0
 11
92.153621
 21
1.045390000000001
 31
0.0
  0
LINE
  5
2E8E
330
BF7
100
AcDbEntity
  8
1
100
AcDbLine
 10
95.26822000000001
 20
-0.6924370000000018
 30
0.0
 11
93.710927
 21
0.1791030000000013
 31
0.0
  0
LINE
  5
2E8F
330
BF7
100
AcDbEntity
  8
1
100
AcDbLine
 10
96.87065400000001
 20
-1.567668
 30
0.0
 11
95.26822000000001
 21
-0.6924370000000018
 31
0.0
  0
LINE
  5
2E90
330
BF7
100
AcDbEntity
  8
1
100
AcDbLine
 10
98.47307499999999
 20
-2.394307
 30
0.0
 11
96.87065400000001
 21
-1.567668
 31
0.0
  0
LINE
  5
2E91
330
BF7
100
AcDbEntity
  8
1
100
AcDbLine
 10
100.030357
 20
-3.126211999999997
 30
0.0
 11
98.47307499999999
 21
-2.394307
 31
0.0
  0
LINE
  5
2E92
330
BF7
100
AcDbEntity
  8
1
100
AcDbLine
 10
101.587638
 20
-3.766530999999999
 30
0.0
 11
100.030357
 21
-3.126211999999997
 31
0.0
  0
LINE
  5
2E93
330
BF7
100
AcDbEntity
  8
1
100
AcDbLine
 10
103.190035
 20
-4.309228
 30
0.0
 11
101.587638
 21
-3.766530999999999
 31
0.0
  0
LINE
  5
2E94
330
BF7
100
AcDbEntity
  8
1
100
AcDbLine
 10
104.792421
 20
-4.718342999999999
 30
0.0
 11
103.190035
 21
-4.309228
 31
0.0
  0
LINE
  5
2E95
330
BF7
100
AcDbEntity
  8
1
100
AcDbLine
 10
106.3496409999999
 20
-4.974828999999998
 30
0.0
 11
104.792421
 21
-4.718342999999999
 31
0.0
  0
LINE
  5
2E96
330
BF7
100
AcDbEntity
  8
1
100
AcDbLine
 10
107.906886
 20
-5.085594
 30
0.0
 11
106.3496409999999
 21
-4.974828999999998
 31
0.0
  0
LINE
  5
2E97
330
BF7
100
AcDbEntity
  8
1
100
AcDbLine
 10
109.509647
 20
-5.042930999999998
 30
0.0
 11
107.906886
 21
-5.085594
 31
0.0
  0
LINE
  5
2E98
330
BF7
100
AcDbEntity
  8
1
100
AcDbLine
 10
111.112396
 20
-4.843875999999998
 30
0.0
 11
109.509647
 21
-5.042930999999998
 31
0.0
  0
LINE
  5
2E99
330
BF7
100
AcDbEntity
  8
1
100
AcDbLine
 10
112.669931
 20
-4.505328000000002
 30
0.0
 11
111.112396
 21
-4.843875999999998
 31
0.0
  0
LINE
  5
2E9A
330
BF7
100
AcDbEntity
  8
1
100
AcDbLine
 10
114.227479
 20
-4.034750000000001
 30
0.0
 11
112.669931
 21
-4.505328000000002
 31
0.0
  0
LINE
  5
2E9B
330
BF7
100
AcDbEntity
  8
1
100
AcDbLine
 10
115.830167
 20
-3.426411999999998
 30
0.0
 11
114.227479
 21
-4.034750000000001
 31
0.0
  0
LINE
  5
2E9C
330
BF7
100
AcDbEntity
  8
1
100
AcDbLine
 10
116.208947
 20
-3.257526999999995
 30
0.0
 11
115.830167
 21
-3.426411999999998
 31
0.0
  0
LINE
  5
2E9D
330
BF7
100
AcDbEntity
  8
1
100
AcDbLine
 10
139.5066769999999
 20
4.861765999999998
 30
0.0
 11
136.7784519999999
 21
5.075855
 31
0.0
  0
LINE
  5
2E9E
330
BF7
100
AcDbEntity
  8
1
100
AcDbLine
 10
141.109002
 20
4.521079999999994
 30
0.0
 11
139.5066769999999
 21
4.861765999999998
 31
0.0
  0
LINE
  5
2E9F
330
BF7
100
AcDbEntity
  8
1
100
AcDbLine
 10
142.711351
 20
4.040259000000001
 30
0.0
 11
141.109002
 21
4.521079999999994
 31
0.0
  0
LINE
  5
2EA0
330
BF7
100
AcDbEntity
  8
1
100
AcDbLine
 10
144.2685469999999
 20
3.451932000000001
 30
0.0
 11
142.711351
 21
4.040259000000001
 31
0.0
  0
LINE
  5
2EA1
330
BF7
100
AcDbEntity
  8
1
100
AcDbLine
 10
145.825768
 20
2.762511999999996
 30
0.0
 11
144.2685469999999
 21
3.451932000000001
 31
0.0
  0
LINE
  5
2EA2
330
BF7
100
AcDbEntity
  8
1
100
AcDbLine
 10
147.428287
 20
1.968131999999999
 30
0.0
 11
145.825768
 21
2.762511999999996
 31
0.0
  0
LINE
  5
2EA3
330
BF7
100
AcDbEntity
  8
1
100
AcDbLine
 10
149.030805
 20
1.112716000000002
 30
0.0
 11
147.428287
 21
1.968131999999999
 31
0.0
  0
LINE
  5
2EA4
330
BF7
100
AcDbEntity
  8
1
100
AcDbLine
 10
150.588171
 20
0.2478699999999989
 30
0.0
 11
149.030805
 21
1.112716000000002
 31
0.0
  0
LINE
  5
2EA5
330
BF7
100
AcDbEntity
  8
1
100
AcDbLine
 10
152.145561
 20
-0.624206000000001
 30
0.0
 11
150.588171
 21
0.2478699999999989
 31
0.0
  0
LINE
  5
2EA6
330
BF7
100
AcDbEntity
  8
1
100
AcDbLine
 10
153.748225
 20
-1.502185999999998
 30
0.0
 11
152.145561
 21
-0.624206000000001
 31
0.0
  0
LINE
  5
2EA7
330
BF7
100
AcDbEntity
  8
1
100
AcDbLine
 10
155.350913
 20
-2.333588000000001
 30
0.0
 11
153.748225
 21
-1.502185999999998
 31
0.0
  0
LINE
  5
2EA8
330
BF7
100
AcDbEntity
  8
1
100
AcDbLine
 10
156.908401
 20
-3.071914999999997
 30
0.0
 11
155.350913
 21
-2.333588000000001
 31
0.0
  0
LINE
  5
2EA9
330
BF7
100
AcDbEntity
  8
1
100
AcDbLine
 10
158.465912
 20
-3.720234999999998
 30
0.0
 11
156.908401
 21
-3.071914999999997
 31
0.0
  0
LINE
  5
2EAA
330
BF7
100
AcDbEntity
  8
1
100
AcDbLine
 10
160.068382
 20
-4.272507999999998
 30
0.0
 11
158.465912
 21
-3.720234999999998
 31
0.0
  0
LINE
  5
2EAB
330
BF7
100
AcDbEntity
  8
1
100
AcDbLine
 10
161.670828
 20
-4.692332
 30
0.0
 11
160.068382
 21
-4.272507999999998
 31
0.0
  0
LINE
  5
2EAC
330
BF7
100
AcDbEntity
  8
1
100
AcDbLine
 10
163.228146
 20
-4.959972
 30
0.0
 11
161.670828
 21
-4.692332
 31
0.0
  0
LINE
  5
2EAD
330
BF7
100
AcDbEntity
  8
1
100
AcDbLine
 10
164.785463
 20
-5.082335999999997
 30
0.0
 11
163.228146
 21
-4.959972
 31
0.0
  0
LINE
  5
2EAE
330
BF7
100
AcDbEntity
  8
1
100
AcDbLine
 10
166.387812
 20
-5.051718000000001
 30
0.0
 11
164.785463
 21
-5.082335999999997
 31
0.0
  0
LINE
  5
2EAF
330
BF7
100
AcDbEntity
  8
1
100
AcDbLine
 10
167.990113
 20
-4.864513999999998
 30
0.0
 11
166.387812
 21
-5.051718000000001
 31
0.0
  0
LINE
  5
2EB0
330
BF7
100
AcDbEntity
  8
1
100
AcDbLine
 10
169.5472849999999
 20
-4.536923999999999
 30
0.0
 11
167.990113
 21
-4.864513999999998
 31
0.0
  0
LINE
  5
2EB1
330
BF7
100
AcDbEntity
  8
1
100
AcDbLine
 10
171.104482
 20
-4.076453999999998
 30
0.0
 11
169.5472849999999
 21
-4.536923999999999
 31
0.0
  0
LINE
  5
2EB2
330
BF7
100
AcDbEntity
  8
1
100
AcDbLine
 10
172.697093
 20
-3.481273999999998
 30
0.0
 11
171.104482
 21
-4.076453999999998
 31
0.0
  0
LINE
  5
2EB3
330
BF7
100
AcDbEntity
  8
1
100
AcDbLine
 10
173.202609
 20
-3.258504999999998
 30
0.0
 11
172.697093
 21
-3.481273999999998
 31
0.0
  0
LINE
  5
2EB4
330
BF7
100
AcDbEntity
  8
1
100
AcDbLine
 10
155.282676
 20
-5.315733000000001
 30
0.0
 11
157.005245
 21
-5.090075999999998
 31
0.0
  0
LINE
  5
2EB5
330
BF7
100
AcDbEntity
  8
1
100
AcDbLine
 10
153.801492
 20
-5.353974
 30
0.0
 11
155.282676
 21
-5.315733000000001
 31
0.0
  0
LINE
  5
2EB6
330
BF7
100
AcDbEntity
  8
1
100
AcDbLine
 10
152.3100139999999
 20
-5.248587
 30
0.0
 11
153.801492
 21
-5.353974
 31
0.0
  0
LINE
  5
2EB7
330
BF7
100
AcDbEntity
  8
1
100
AcDbLine
 10
150.82883
 20
-5.00383
 30
0.0
 11
152.3100139999999
 21
-5.248587
 31
0.0
  0
LINE
  5
2EB8
330
BF7
100
AcDbEntity
  8
1
100
AcDbLine
 10
149.347646
 20
-4.625971999999999
 30
0.0
 11
150.82883
 21
-5.00383
 31
0.0
  0
LINE
  5
2EB9
330
BF7
100
AcDbEntity
  8
1
100
AcDbLine
 10
147.866462
 20
-4.125075999999999
 30
0.0
 11
149.347646
 21
-4.625971999999999
 31
0.0
  0
LINE
  5
2EBA
330
BF7
100
AcDbEntity
  8
1
100
AcDbLine
 10
146.374984
 20
-3.509858000000001
 30
0.0
 11
147.866462
 21
-4.125075999999999
 31
0.0
  0
LINE
  5
2EBB
330
BF7
100
AcDbEntity
  8
1
100
AcDbLine
 10
144.8938
 20
-2.805174
 30
0.0
 11
146.374984
 21
-3.509858000000001
 31
0.0
  0
LINE
  5
2EBC
330
BF7
100
AcDbEntity
  8
1
100
AcDbLine
 10
143.412616
 20
-2.025864000000002
 30
0.0
 11
144.8938
 21
-2.805174
 31
0.0
  0
LINE
  5
2EBD
330
BF7
100
AcDbEntity
  8
1
100
AcDbLine
 10
141.931432
 20
-1.192678999999998
 30
0.0
 11
143.412616
 21
-2.025864000000002
 31
0.0
  0
LINE
  5
2EBE
330
BF7
100
AcDbEntity
  8
1
100
AcDbLine
 10
140.439978
 20
-0.3217050000000015
 30
0.0
 11
141.931432
 21
-1.192678999999998
 31
0.0
  0
LINE
  5
2EBF
330
BF7
100
AcDbEntity
  8
1
100
AcDbLine
 10
138.958794
 20
0.551907
 30
0.0
 11
140.439978
 21
-0.3217050000000015
 31
0.0
  0
LINE
  5
2EC0
330
BF7
100
AcDbEntity
  8
1
100
AcDbLine
 10
137.467315
 20
1.416700999999999
 30
0.0
 11
138.958794
 21
0.551907
 31
0.0
  0
LINE
  5
2EC1
330
BF7
100
AcDbEntity
  8
1
100
AcDbLine
 10
135.986131
 20
2.237762
 30
0.0
 11
137.467315
 21
1.416700999999999
 31
0.0
  0
LINE
  5
2EC2
330
BF7
100
AcDbEntity
  8
1
100
AcDbLine
 10
134.5049479999999
 20
2.999306999999998
 30
0.0
 11
135.986131
 21
2.237762
 31
0.0
  0
LINE
  5
2EC3
330
BF7
100
AcDbEntity
  8
1
100
AcDbLine
 10
133.013469
 20
3.685487999999995
 30
0.0
 11
134.5049479999999
 21
2.999306999999998
 31
0.0
  0
LINE
  5
2EC4
330
BF7
100
AcDbEntity
  8
1
100
AcDbLine
 10
131.532285
 20
4.268603999999998
 30
0.0
 11
133.013469
 21
3.685487999999995
 31
0.0
  0
LINE
  5
2EC5
330
BF7
100
AcDbEntity
  8
1
100
AcDbLine
 10
130.0408309999999
 20
4.741009999999998
 30
0.0
 11
131.532285
 21
4.268603999999998
 31
0.0
  0
LINE
  5
2EC6
330
BF7
100
AcDbEntity
  8
1
100
AcDbLine
 10
128.5596469999999
 20
5.083642999999998
 30
0.0
 11
130.0408309999999
 21
4.741009999999998
 31
0.0
  0
LINE
  5
2EC7
330
BF7
100
AcDbEntity
  8
1
100
AcDbLine
 10
127.078463
 20
5.291058000000003
 30
0.0
 11
128.5596469999999
 21
5.083642999999998
 31
0.0
  0
LINE
  5
2EC8
330
BF7
100
AcDbEntity
  8
1
100
AcDbLine
 10
125.64311
 20
5.355196000000002
 30
0.0
 11
127.078463
 21
5.291058000000003
 31
0.0
  0
LINE
  5
2EC9
330
BF7
100
AcDbEntity
  8
1
100
AcDbLine
 10
97.36220600000001
 20
-5.356276999999998
 30
0.0
 11
99.95519200000002
 21
-5.089955999999999
 31
0.0
  0
LINE
  5
2ECA
330
BF7
100
AcDbEntity
  8
1
100
AcDbLine
 10
95.870739
 20
-5.305048999999999
 30
0.0
 11
97.36220600000001
 21
-5.356276999999998
 31
0.0
  0
LINE
  5
2ECB
330
BF7
100
AcDbEntity
  8
1
100
AcDbLine
 10
94.38955500000002
 20
-5.112572999999996
 30
0.0
 11
95.870739
 21
-5.305048999999999
 31
0.0
  0
LINE
  5
2ECC
330
BF7
100
AcDbEntity
  8
1
100
AcDbLine
 10
92.89807700000002
 20
-4.781371
 30
0.0
 11
94.38955500000002
 21
-5.112572999999996
 31
0.0
  0
LINE
  5
2ECD
330
BF7
100
AcDbEntity
  8
1
100
AcDbLine
 10
91.41690500000001
 20
-4.324806000000001
 30
0.0
 11
92.89807700000002
 21
-4.781371
 31
0.0
  0
LINE
  5
2ECE
330
BF7
100
AcDbEntity
  8
1
100
AcDbLine
 10
89.925426
 20
-3.748872999999998
 30
0.0
 11
91.41690500000001
 21
-4.324806000000001
 31
0.0
  0
LINE
  5
2ECF
330
BF7
100
AcDbEntity
  8
1
100
AcDbLine
 10
88.44424199999997
 20
-3.076808000000002
 30
0.0
 11
89.925426
 21
-3.748872999999998
 31
0.0
  0
LINE
  5
2ED0
330
BF7
100
AcDbEntity
  8
1
100
AcDbLine
 10
86.95277600000002
 20
-2.317433999999997
 30
0.0
 11
88.44424199999997
 21
-3.076808000000002
 31
0.0
  0
LINE
  5
2ED1
330
BF7
100
AcDbEntity
  8
1
100
AcDbLine
 10
85.47159200000001
 20
-1.501389999999996
 30
0.0
 11
86.95277600000002
 21
-2.317433999999997
 31
0.0
  0
LINE
  5
2ED2
330
BF7
100
AcDbEntity
  8
1
100
AcDbLine
 10
83.99040800000001
 20
-0.6454159999999975
 30
0.0
 11
85.47159200000001
 21
-1.501389999999996
 31
0.0
  0
LINE
  5
2ED3
330
BF7
100
AcDbEntity
  8
1
100
AcDbLine
 10
82.49894199999998
 20
0.2337999999999987
 30
0.0
 11
83.99040800000001
 21
-0.6454159999999975
 31
0.0
  0
LINE
  5
2ED4
330
BF7
100
AcDbEntity
  8
1
100
AcDbLine
 10
81.017758
 20
1.100765000000001
 30
0.0
 11
82.49894199999998
 21
0.2337999999999987
 31
0.0
  0
LINE
  5
2ED5
330
BF7
100
AcDbEntity
  8
1
100
AcDbLine
 10
79.526291
 20
1.944115
 30
0.0
 11
81.017758
 21
1.100765000000001
 31
0.0
  0
LINE
  5
2ED6
330
BF7
100
AcDbEntity
  8
1
100
AcDbLine
 10
78.04509499999998
 20
2.729808000000001
 30
0.0
 11
79.526291
 21
1.944115
 31
0.0
  0
LINE
  5
2ED7
330
BF7
100
AcDbEntity
  8
1
100
AcDbLine
 10
76.56391199999998
 20
3.442896999999998
 30
0.0
 11
78.04509499999998
 21
2.729808000000001
 31
0.0
  0
LINE
  5
2ED8
330
BF7
100
AcDbEntity
  8
1
100
AcDbLine
 10
75.07243299999998
 20
4.068355999999996
 30
0.0
 11
76.56391199999998
 21
3.442896999999998
 31
0.0
  0
LINE
  5
2ED9
330
BF7
100
AcDbEntity
  8
1
100
AcDbLine
 10
73.59124899999997
 20
4.580951000000001
 30
0.0
 11
75.07243299999998
 21
4.068355999999996
 31
0.0
  0
LINE
  5
2EDA
330
BF7
100
AcDbEntity
  8
1
100
AcDbLine
 10
72.110053
 20
4.971697999999999
 30
0.0
 11
73.59124899999997
 21
4.580951000000001
 31
0.0
  0
LINE
  5
2EDB
330
BF7
100
AcDbEntity
  8
1
100
AcDbLine
 10
70.62885699999998
 20
5.230202999999998
 30
0.0
 11
72.110053
 21
4.971697999999999
 31
0.0
  0
LINE
  5
2EDC
330
BF7
100
AcDbEntity
  8
1
100
AcDbLine
 10
69.14767300000001
 20
5.349587999999999
 30
0.0
 11
70.62885699999998
 21
5.230202999999998
 31
0.0
  0
LINE
  5
2EDD
330
BF7
100
AcDbEntity
  8
1
100
AcDbLine
 10
68.64648100000001
 20
5.341666999999996
 30
0.0
 11
69.14767300000001
 21
5.349587999999999
 31
0.0
  0
LINE
  5
2EDE
330
BF7
100
AcDbEntity
  8
1
100
AcDbLine
 10
40.18277499999999
 20
-5.357765999999998
 30
0.0
 11
42.99346799999999
 21
-5.089528999999997
 31
0.0
  0
LINE
  5
2EDF
330
BF7
100
AcDbEntity
  8
1
100
AcDbLine
 10
38.701591
 20
-5.290141999999998
 30
0.0
 11
40.18277499999999
 21
-5.357765999999998
 31
0.0
  0
LINE
  5
2EE0
330
BF7
100
AcDbEntity
  8
1
100
AcDbLine
 10
37.21011299999999
 20
-5.079877999999999
 30
0.0
 11
38.701591
 21
-5.290141999999998
 31
0.0
  0
LINE
  5
2EE1
330
BF7
100
AcDbEntity
  8
1
100
AcDbLine
 10
35.728917
 20
-4.735457
 30
0.0
 11
37.21011299999999
 21
-5.079877999999999
 31
0.0
  0
LINE
  5
2EE2
330
BF7
100
AcDbEntity
  8
1
100
AcDbLine
 10
34.23743799999999
 20
-4.261398999999999
 30
0.0
 11
35.728917
 21
-4.735457
 31
0.0
  0
LINE
  5
2EE3
330
BF7
100
AcDbEntity
  8
1
100
AcDbLine
 10
32.75624199999999
 20
-3.676835
 30
0.0
 11
34.23743799999999
 21
-4.261398999999999
 31
0.0
  0
LINE
  5
2EE4
330
BF7
100
AcDbEntity
  8
1
100
AcDbLine
 10
31.26476299999999
 20
-2.989434999999999
 30
0.0
 11
32.75624199999999
 21
-3.676835
 31
0.0
  0
LINE
  5
2EE5
330
BF7
100
AcDbEntity
  8
1
100
AcDbLine
 10
29.78356799999999
 20
-2.226929999999998
 30
0.0
 11
31.26476299999999
 21
-2.989434999999999
 31
0.0
  0
LINE
  5
2EE6
330
BF7
100
AcDbEntity
  8
1
100
AcDbLine
 10
28.29208899999999
 20
-1.399333999999995
 30
0.0
 11
29.78356799999999
 21
-2.226929999999998
 31
0.0
  0
LINE
  5
2EE7
330
BF7
100
AcDbEntity
  8
1
100
AcDbLine
 10
26.810893
 20
-0.5400479999999988
 30
0.0
 11
28.29208899999999
 21
-1.399333999999995
 31
0.0
  0
LINE
  5
2EE8
330
BF7
100
AcDbEntity
  8
1
100
AcDbLine
 10
25.319414
 20
0.3396710000000027
 30
0.0
 11
26.810893
 21
-0.5400479999999988
 31
0.0
  0
LINE
  5
2EE9
330
BF7
100
AcDbEntity
  8
1
100
AcDbLine
 10
23.838218
 20
1.204312999999998
 30
0.0
 11
25.319414
 21
0.3396710000000027
 31
0.0
  0
LINE
  5
2EEA
330
BF7
100
AcDbEntity
  8
1
100
AcDbLine
 10
22.346728
 20
2.042550000000002
 30
0.0
 11
23.838218
 21
1.204312999999998
 31
0.0
  0
LINE
  5
2EEB
330
BF7
100
AcDbEntity
  8
1
100
AcDbLine
 10
20.86550700000001
 20
2.820536
 30
0.0
 11
22.346728
 21
2.042550000000002
 31
0.0
  0
LINE
  5
2EEC
330
BF7
100
AcDbEntity
  8
1
100
AcDbLine
 10
19.370577
 20
3.529588999999996
 30
0.0
 11
20.86550700000001
 21
2.820536
 31
0.0
  0
LINE
  5
2EED
330
BF7
100
AcDbEntity
  8
1
100
AcDbLine
 10
17.886002
 20
4.139135999999997
 30
0.0
 11
19.370577
 21
3.529588999999996
 31
0.0
  0
LINE
  5
2EEE
330
BF7
100
AcDbEntity
  8
1
100
AcDbLine
 10
15.78639599999999
 20
4.809132
 30
0.0
 11
17.886002
 21
4.139135999999997
 31
0.0
  0
LINE
  5
2EEF
330
BF7
100
AcDbEntity
  8
1
100
AcDbLine
 10
13.657287
 20
5.226532999999998
 30
0.0
 11
15.78639599999999
 21
4.809132
 31
0.0
  0
LINE
  5
2EF0
330
BF7
100
AcDbEntity
  8
1
100
AcDbLine
 10
11.64549099999999
 20
5.352085999999995
 30
0.0
 11
13.657287
 21
5.226532999999998
 31
0.0
  0
LINE
  5
2EF1
330
BF7
100
AcDbEntity
  8
1
100
AcDbLine
 10
179.5831549999999
 20
5.237584999999998
 30
0.0
 11
181.50874
 21
5.357811999999999
 31
0.0
  0
LINE
  5
2EF2
330
BF7
100
AcDbEntity
  8
1
100
AcDbLine
 10
178.042769
 20
4.971264999999998
 30
0.0
 11
179.5831549999999
 21
5.237584999999998
 31
0.0
  0
LINE
  5
2EF3
330
BF7
100
AcDbEntity
  8
1
100
AcDbLine
 10
176.502384
 20
4.562492999999999
 30
0.0
 11
178.042769
 21
4.971264999999998
 31
0.0
  0
LINE
  5
2EF4
330
BF7
100
AcDbEntity
  8
1
100
AcDbLine
 10
175.0053579999999
 20
4.038993999999997
 30
0.0
 11
176.502384
 21
4.562492999999999
 31
0.0
  0
LINE
  5
2EF5
330
BF7
100
AcDbEntity
  8
1
100
AcDbLine
 10
173.508404
 20
3.406074999999996
 30
0.0
 11
175.0053579999999
 21
4.038993999999997
 31
0.0
  0
LINE
  5
2EF6
330
BF7
100
AcDbEntity
  8
1
100
AcDbLine
 10
173.201398
 20
3.256943999999999
 30
0.0
 11
173.508404
 21
3.406074999999996
 31
0.0
  0
LINE
  5
2EF7
330
BF7
100
AcDbEntity
  8
1
100
AcDbLine
 10
150.707253
 20
-5.186102999999999
 30
0.0
 11
153.008469
 21
-5.338409000000002
 31
0.0
  0
LINE
  5
2EF8
330
BF7
100
AcDbEntity
  8
1
100
AcDbLine
 10
149.2103479999999
 20
-4.895011
 30
0.0
 11
150.707253
 21
-5.186102999999999
 31
0.0
  0
LINE
  5
2EF9
330
BF7
100
AcDbEntity
  8
1
100
AcDbLine
 10
147.670132
 20
-4.456280999999999
 30
0.0
 11
149.2103479999999
 21
-4.895011
 31
0.0
  0
LINE
  5
2EFA
330
BF7
100
AcDbEntity
  8
1
100
AcDbLine
 10
146.129844
 20
-3.889915999999998
 30
0.0
 11
147.670132
 21
-4.456280999999999
 31
0.0
  0
LINE
  5
2EFB
330
BF7
100
AcDbEntity
  8
1
100
AcDbLine
 10
144.632915
 20
-3.231858999999996
 30
0.0
 11
146.129844
 21
-3.889915999999998
 31
0.0
  0
LINE
  5
2EFC
330
BF7
100
AcDbEntity
  8
1
100
AcDbLine
 10
143.136058
 20
-2.486252999999996
 30
0.0
 11
144.632915
 21
-3.231858999999996
 31
0.0
  0
LINE
  5
2EFD
330
BF7
100
AcDbEntity
  8
1
100
AcDbLine
 10
141.59577
 20
-1.648329
 30
0.0
 11
143.136058
 21
-2.486252999999996
 31
0.0
  0
LINE
  5
2EFE
330
BF7
100
AcDbEntity
  8
1
100
AcDbLine
 10
140.055457
 20
-0.7631930000000012
 30
0.0
 11
141.59577
 21
-1.648329
 31
0.0
  0
LINE
  5
2EFF
330
BF7
100
AcDbEntity
  8
1
100
AcDbLine
 10
138.558503
 20
0.1182239999999979
 30
0.0
 11
140.055457
 21
-0.7631930000000012
 31
0.0
  0
LINE
  5
2F00
330
BF7
100
AcDbEntity
  8
1
100
AcDbLine
 10
137.0615499999999
 20
0.9964470000000034
 30
0.0
 11
138.558503
 21
0.1182239999999979
 31
0.0
  0
LINE
  5
2F01
330
BF7
100
AcDbEntity
  8
1
100
AcDbLine
 10
135.521165
 20
1.871641999999996
 30
0.0
 11
137.0615499999999
 21
0.9964470000000034
 31
0.0
  0
LINE
  5
2F02
330
BF7
100
AcDbEntity
  8
1
100
AcDbLine
 10
133.980755
 20
2.693152000000001
 30
0.0
 11
135.521165
 21
1.871641999999996
 31
0.0
  0
LINE
  5
2F03
330
BF7
100
AcDbEntity
  8
1
100
AcDbLine
 10
132.483705
 20
3.417162999999998
 30
0.0
 11
133.980755
 21
2.693152000000001
 31
0.0
  0
LINE
  5
2F04
330
BF7
100
AcDbEntity
  8
1
100
AcDbLine
 10
130.986727
 20
4.048743999999994
 30
0.0
 11
132.483705
 21
3.417162999999998
 31
0.0
  0
LINE
  5
2F05
330
BF7
100
AcDbEntity
  8
1
100
AcDbLine
 10
129.446511
 20
4.583348999999993
 30
0.0
 11
130.986727
 21
4.048743999999994
 31
0.0
  0
LINE
  5
2F06
330
BF7
100
AcDbEntity
  8
1
100
AcDbLine
 10
127.906198
 20
4.986528999999999
 30
0.0
 11
129.446511
 21
4.583348999999993
 31
0.0
  0
LINE
  5
2F07
330
BF7
100
AcDbEntity
  8
1
100
AcDbLine
 10
126.4091729999999
 20
5.240438000000001
 30
0.0
 11
127.906198
 21
4.986528999999999
 31
0.0
  0
LINE
  5
2F08
330
BF7
100
AcDbEntity
  8
1
100
AcDbLine
 10
124.912098
 20
5.352503999999998
 30
0.0
 11
126.4091729999999
 21
5.240438000000001
 31
0.0
  0
LINE
  5
2F09
330
BF7
100
AcDbEntity
  8
1
100
AcDbLine
 10
123.371713
 20
5.315526999999998
 30
0.0
 11
124.912098
 21
5.352503999999998
 31
0.0
  0
LINE
  5
2F0A
330
BF7
100
AcDbEntity
  8
1
100
AcDbLine
 10
121.8314
 20
5.126160999999998
 30
0.0
 11
123.371713
 21
5.315526999999998
 31
0.0
  0
LINE
  5
2F0B
330
BF7
100
AcDbEntity
  8
1
100
AcDbLine
 10
120.334422
 20
4.800287999999998
 30
0.0
 11
121.8314
 21
5.126160999999998
 31
0.0
  0
LINE
  5
2F0C
330
BF7
100
AcDbEntity
  8
1
100
AcDbLine
 10
118.837372
 20
4.344494999999998
 30
0.0
 11
120.334422
 21
4.800287999999998
 31
0.0
  0
LINE
  5
2F0D
330
BF7
100
AcDbEntity
  8
1
100
AcDbLine
 10
117.297011
 20
3.752016999999998
 30
0.0
 11
118.837372
 21
4.344494999999998
 31
0.0
  0
LINE
  5
2F0E
330
BF7
100
AcDbEntity
  8
1
100
AcDbLine
 10
116.20667
 20
3.256488999999998
 30
0.0
 11
117.297011
 21
3.752016999999998
 31
0.0
  0
LINE
  5
2F0F
330
BF7
100
AcDbEntity
  8
1
100
AcDbLine
 10
92.99931800000001
 20
-5.065419000000002
 30
0.0
 11
96.008764
 21
-5.356242999999999
 31
0.0
  0
LINE
  5
2F10
330
BF7
100
AcDbEntity
  8
1
100
AcDbLine
 10
91.45892000000001
 20
-4.698002999999999
 30
0.0
 11
92.99931800000001
 21
-5.065419000000002
 31
0.0
  0
LINE
  5
2F11
330
BF7
100
AcDbEntity
  8
1
100
AcDbLine
 10
89.96186999999997
 20
-4.210989999999998
 30
0.0
 11
91.45892000000001
 21
-4.698002999999999
 31
0.0
  0
LINE
  5
2F12
330
BF7
100
AcDbEntity
  8
1
100
AcDbLine
 10
88.46492899999999
 20
-3.609866999999996
 30
0.0
 11
89.96186999999997
 21
-4.210989999999998
 31
0.0
  0
LINE
  5
2F13
330
BF7
100
AcDbEntity
  8
1
100
AcDbLine
 10
86.92468899999999
 20
-2.888542000000001
 30
0.0
 11
88.46492899999999
 21
-3.609866999999996
 31
0.0
  0
LINE
  5
2F14
330
BF7
100
AcDbEntity
  8
1
100
AcDbLine
 10
85.38437599999998
 20
-2.084502999999996
 30
0.0
 11
86.92468899999999
 21
-2.888542000000001
 31
0.0
  0
LINE
  5
2F15
330
BF7
100
AcDbEntity
  8
1
100
AcDbLine
 10
83.887289
 20
-1.245564000000001
 30
0.0
 11
85.38437599999998
 21
-2.084502999999996
 31
0.0
  0
LINE
  5
2F16
330
BF7
100
AcDbEntity
  8
1
100
AcDbLine
 10
82.390191
 20
-0.3729459999999989
 30
0.0
 11
83.887289
 21
-1.245564000000001
 31
0.0
  0
LINE
  5
2F17
330
BF7
100
AcDbEntity
  8
1
100
AcDbLine
 10
80.84978099999998
 20
0.5356470000000009
 30
0.0
 11
82.390191
 21
-0.3729459999999989
 31
0.0
  0
LINE
  5
2F18
330
BF7
100
AcDbEntity
  8
1
100
AcDbLine
 10
79.30947999999998
 20
1.429044999999997
 30
0.0
 11
80.84978099999998
 21
0.5356470000000009
 31
0.0
  0
LINE
  5
2F19
330
BF7
100
AcDbEntity
  8
1
100
AcDbLine
 10
77.81251499999997
 20
2.257830999999999
 30
0.0
 11
79.30947999999998
 21
1.429044999999997
 31
0.0
  0
LINE
  5
2F1A
330
BF7
100
AcDbEntity
  8
1
100
AcDbLine
 10
76.315453
 20
3.025332000000001
 30
0.0
 11
77.81251499999997
 21
2.257830999999999
 31
0.0
  0
LINE
  5
2F1B
330
BF7
100
AcDbEntity
  8
1
100
AcDbLine
 10
74.77505499999998
 20
3.728772000000001
 30
0.0
 11
76.315453
 21
3.025332000000001
 31
0.0
  0
LINE
  5
2F1C
330
BF7
100
AcDbEntity
  8
1
100
AcDbLine
 10
73.234718
 20
4.325435000000001
 30
0.0
 11
74.77505499999998
 21
3.728772000000001
 31
0.0
  0
LINE
  5
2F1D
330
BF7
100
AcDbEntity
  8
1
100
AcDbLine
 10
71.73784999999998
 20
4.785843999999999
 30
0.0
 11
73.234718
 21
4.325435000000001
 31
0.0
  0
LINE
  5
2F1E
330
BF7
100
AcDbEntity
  8
1
100
AcDbLine
 10
70.240957
 20
5.116655999999995
 30
0.0
 11
71.73784999999998
 21
4.785843999999999
 31
0.0
  0
LINE
  5
2F1F
330
BF7
100
AcDbEntity
  8
1
100
AcDbLine
 10
68.70059600000001
 20
5.311360000000004
 30
0.0
 11
70.240957
 21
5.116655999999995
 31
0.0
  0
LINE
  5
2F20
330
BF7
100
AcDbEntity
  8
1
100
AcDbLine
 10
67.16020999999999
 20
5.353862999999999
 30
0.0
 11
68.70059600000001
 21
5.311360000000004
 31
0.0
  0
LINE
  5
2F21
330
BF7
100
AcDbEntity
  8
1
100
AcDbLine
 10
65.66328099999998
 20
5.247116999999998
 30
0.0
 11
67.16020999999999
 21
5.353862999999999
 31
0.0
  0
LINE
  5
2F22
330
BF7
100
AcDbEntity
  8
1
100
AcDbLine
 10
64.16640099999999
 20
4.998289000000003
 30
0.0
 11
65.66328099999998
 21
5.247116999999998
 31
0.0
  0
LINE
  5
2F23
330
BF7
100
AcDbEntity
  8
1
100
AcDbLine
 10
62.626051
 20
4.600063999999998
 30
0.0
 11
64.16640099999999
 21
4.998289000000003
 31
0.0
  0
LINE
  5
2F24
330
BF7
100
AcDbEntity
  8
1
100
AcDbLine
 10
61.08564099999998
 20
4.070044999999995
 30
0.0
 11
62.626051
 21
4.600063999999998
 31
0.0
  0
LINE
  5
2F25
330
BF7
100
AcDbEntity
  8
1
100
AcDbLine
 10
59.58861599999998
 20
3.442300999999995
 30
0.0
 11
61.08564099999998
 21
4.070044999999995
 31
0.0
  0
LINE
  5
2F26
330
BF7
100
AcDbEntity
  8
1
100
AcDbLine
 10
59.209448
 20
3.259680999999995
 30
0.0
 11
59.58861599999998
 21
3.442300999999995
 31
0.0
  0
LINE
  5
2F27
330
BF7
100
AcDbEntity
  8
1
100
AcDbLine
 10
36.78673699999999
 20
-5.197921
 30
0.0
 11
39.00909399999999
 21
-5.338612999999997
 31
0.0
  0
LINE
  5
2F28
330
BF7
100
AcDbEntity
  8
1
100
AcDbLine
 10
35.28971199999999
 20
-4.913687999999996
 30
0.0
 11
36.78673699999999
 21
-5.197921
 31
0.0
  0
LINE
  5
2F29
330
BF7
100
AcDbEntity
  8
1
100
AcDbLine
 10
33.792722
 20
-4.496379999999998
 30
0.0
 11
35.28971199999999
 21
-4.913687999999996
 31
0.0
  0
LINE
  5
2F2A
330
BF7
100
AcDbEntity
  8
1
100
AcDbLine
 10
32.251852
 20
-3.938897999999998
 30
0.0
 11
33.792722
 21
-4.496379999999998
 31
0.0
  0
LINE
  5
2F2B
330
BF7
100
AcDbEntity
  8
1
100
AcDbLine
 10
30.71093300000001
 20
-3.268484999999998
 30
0.0
 11
32.251852
 21
-3.938897999999998
 31
0.0
  0
LINE
  5
2F2C
330
BF7
100
AcDbEntity
  8
1
100
AcDbLine
 10
29.21342299999999
 20
-2.52643
 30
0.0
 11
30.71093300000001
 21
-3.268484999999998
 31
0.0
  0
LINE
  5
2F2D
330
BF7
100
AcDbEntity
  8
1
100
AcDbLine
 10
27.715901
 20
-1.715948
 30
0.0
 11
29.21342299999999
 21
-2.52643
 31
0.0
  0
LINE
  5
2F2E
330
BF7
100
AcDbEntity
  8
1
100
AcDbLine
 10
26.18134099999999
 20
-0.8368589999999969
 30
0.0
 11
27.715901
 21
-1.715948
 31
0.0
  0
LINE
  5
2F2F
330
BF7
100
AcDbEntity
  8
1
100
AcDbLine
 10
24.64688999999999
 20
0.0662350000000025
 30
0.0
 11
26.18134099999999
 21
-0.8368589999999969
 31
0.0
  0
LINE
  5
2F30
330
BF7
100
AcDbEntity
  8
1
100
AcDbLine
 10
23.15536299999999
 20
0.9425260000000006
 30
0.0
 11
24.64688999999999
 21
0.0662350000000025
 31
0.0
  0
LINE
  5
2F31
330
BF7
100
AcDbEntity
  8
1
100
AcDbLine
 10
21.66341199999999
 20
1.792788999999999
 30
0.0
 11
23.15536299999999
 21
0.9425260000000006
 31
0.0
  0
LINE
  5
2F32
330
BF7
100
AcDbEntity
  8
1
100
AcDbLine
 10
19.27044999999999
 20
2.990553999999998
 30
0.0
 11
21.66336299999999
 21
1.792818999999996
 31
0.0
  0
LINE
  5
2F33
330
BF7
100
AcDbEntity
  8
1
100
AcDbLine
 10
16.825299
 20
3.865626999999998
 30
0.0
 11
19.27044999999999
 21
2.990553999999998
 31
0.0
  0
LINE
  5
2F34
330
BF7
100
AcDbEntity
  8
1
100
AcDbLine
 10
15.43141599999998
 20
4.203475999999998
 30
0.0
 11
16.825299
 21
3.865626999999998
 31
0.0
  0
LINE
  5
2F35
330
BF7
100
AcDbEntity
  8
1
100
AcDbLine
 10
14.003681
 20
4.445378999999999
 30
0.0
 11
15.43141599999998
 21
4.203475999999998
 31
0.0
  0
LINE
  5
2F36
330
BF7
100
AcDbEntity
  8
1
100
AcDbLine
 10
12.586628
 20
4.597989
 30
0.0
 11
14.003681
 21
4.445378999999999
 31
0.0
  0
LINE
  5
2F37
330
BF7
100
AcDbEntity
  8
1
100
AcDbLine
 10
11.150633
 20
4.678765000000002
 30
0.0
 11
12.586628
 21
4.597989
 31
0.0
  0
LINE
  5
2F38
330
BF7
100
AcDbEntity
  8
1
100
AcDbLine
 10
9.679543999999991
 20
4.693354000000002
 30
0.0
 11
11.150633
 21
4.678765000000002
 31
0.0
  0
LINE
  5
2F39
330
BF7
100
AcDbEntity
  8
1
100
AcDbLine
 10
8.22755599999999
 20
4.637179999999997
 30
0.0
 11
9.679543999999991
 21
4.693354000000002
 31
0.0
  0
LINE
  5
2F3A
330
BF7
100
AcDbEntity
  8
1
100
AcDbLine
 10
8.217532999999987
 20
4.632095999999999
 30
0.0
 11
8.22755599999999
 21
4.637179999999997
 31
0.0
  0
LINE
  5
2F3B
330
BF7
100
AcDbEntity
  8
1
100
AcDbLine
 10
7.767251999999999
 20
4.356125999999998
 30
0.0
 11
8.217532999999987
 21
4.632095999999999
 31
0.0
  0
LINE
  5
2F3C
330
BF7
100
AcDbEntity
  8
1
100
AcDbLine
 10
7.389488999999997
 20
4.005050999999998
 30
0.0
 11
7.767251999999999
 21
4.356125999999998
 31
0.0
  0
LINE
  5
2F3D
330
BF7
100
AcDbEntity
  8
1
100
AcDbLine
 10
7.085758999999995
 20
3.480691999999993
 30
0.0
 11
7.389488999999997
 21
4.005050999999998
 31
0.0
  0
LINE
  5
2F3E
330
BF7
100
AcDbEntity
  8
1
100
AcDbLine
 10
6.998863999999997
 20
2.801708999999998
 30
0.0
 11
7.085758999999995
 21
3.480691999999993
 31
0.0
  0
LINE
  5
2F3F
330
BF7
100
AcDbEntity
  8
1
100
AcDbLine
 10
7.177171999999997
 20
2.070224999999996
 30
0.0
 11
6.998863999999997
 21
2.801708999999998
 31
0.0
  0
LINE
  5
2F40
330
BF7
100
AcDbEntity
  8
1
100
AcDbLine
 10
7.654565000000005
 20
1.223631999999998
 30
0.0
 11
7.177171999999997
 21
2.070224999999996
 31
0.0
  0
LINE
  5
2F41
330
BF7
100
AcDbEntity
  8
1
100
AcDbLine
 10
8.205130999999994
 20
0.5579710000000021
 30
0.0
 11
7.654565000000005
 21
1.223631999999998
 31
0.0
  0
LINE
  5
2F42
330
BF7
100
AcDbEntity
  8
1
100
AcDbLine
 10
8.833308000000002
 20
-0.0478419999999993
 30
0.0
 11
8.205130999999994
 21
0.5579710000000021
 31
0.0
  0
LINE
  5
2F43
330
BF7
100
AcDbEntity
  8
1
100
AcDbLine
 10
10.195901
 20
-1.089399
 30
0.0
 11
8.833308000000002
 21
-0.0478419999999993
 31
0.0
  0
LINE
  5
2F44
330
BF7
100
AcDbEntity
  8
1
100
AcDbLine
 10
11.657106
 20
-1.963992
 30
0.0
 11
10.195901
 21
-1.089399
 31
0.0
  0
LINE
  5
2F45
330
BF7
100
AcDbEntity
  8
1
100
AcDbLine
 10
13.01741599999999
 20
-2.686583000000001
 30
0.0
 11
11.657324
 21
-1.964115999999996
 31
0.0
  0
LINE
  5
2F46
330
BF7
100
AcDbEntity
  8
1
100
AcDbLine
 10
14.369647
 20
-3.345245000000001
 30
0.0
 11
13.01741599999999
 21
-2.686583000000001
 31
0.0
  0
LINE
  5
2F47
330
BF7
100
AcDbEntity
  8
1
100
AcDbLine
 10
15.699471
 20
-3.920643
 30
0.0
 11
14.369647
 21
-3.345245000000001
 31
0.0
  0
LINE
  5
2F48
330
BF7
100
AcDbEntity
  8
1
100
AcDbLine
 10
17.02200400000001
 20
-4.409497
 30
0.0
 11
15.699471
 21
-3.920643
 31
0.0
  0
LINE
  5
2F49
330
BF7
100
AcDbEntity
  8
1
100
AcDbLine
 10
18.22448599999998
 20
-4.773050000000001
 30
0.0
 11
17.02200400000001
 21
-4.409497
 31
0.0
  0
LINE
  5
2F4A
330
BF7
100
AcDbEntity
  8
1
100
AcDbLine
 10
18.22448599999998
 20
-4.773050000000001
 30
0.0
 11
10.69069899999999
 21
-4.773050000000001
 31
0.0
  0
LINE
  5
2F4B
330
BF7
100
AcDbEntity
  8
1
100
AcDbLine
 10
10.26118299999999
 20
-5.193353
 30
0.0
 11
10.24783599999999
 21
-5.294401
 31
0.0
  0
LINE
  5
2F4C
330
BF7
100
AcDbEntity
  8
1
100
AcDbLine
 10
10.38693199999999
 20
-4.928900000000001
 30
0.0
 11
10.26118299999999
 21
-5.193353
 31
0.0
  0
LINE
  5
2F4D
330
BF7
100
AcDbEntity
  8
1
100
AcDbLine
 10
10.491462
 20
-4.834169999999999
 30
0.0
 11
10.38693199999999
 21
-4.928900000000001
 31
0.0
  0
LINE
  5
2F4E
330
BF7
100
AcDbEntity
  8
1
100
AcDbLine
 10
10.569873
 20
-4.794715
 30
0.0
 11
10.491462
 21
-4.834169999999999
 31
0.0
  0
LINE
  5
2F4F
330
BF7
100
AcDbEntity
  8
1
100
AcDbLine
 10
10.63223599999999
 20
-4.778044000000001
 30
0.0
 11
10.569873
 21
-4.794715
 31
0.0
  0
LINE
  5
2F50
330
BF7
100
AcDbEntity
  8
1
100
AcDbLine
 10
10.69069899999999
 20
-4.773050000000001
 30
0.0
 11
10.63223599999999
 21
-4.778044000000001
 31
0.0
  0
LINE
  5
2F51
330
BF7
100
AcDbEntity
  8
1
100
AcDbLine
 10
181.125066
 20
-5.282794000000001
 30
0.0
 11
181.3057479999999
 21
-5.299537999999998
 31
0.0
  0
LINE
  5
2F52
330
BF7
100
AcDbEntity
  8
1
100
AcDbLine
 10
179.665175
 20
-5.071381000000001
 30
0.0
 11
181.125066
 21
-5.282794000000001
 31
0.0
  0
LINE
  5
2F53
330
BF7
100
AcDbEntity
  8
1
100
AcDbLine
 10
178.233334
 20
-4.736681999999998
 30
0.0
 11
179.665175
 21
-5.071381000000001
 31
0.0
  0
LINE
  5
2F54
330
BF7
100
AcDbEntity
  8
1
100
AcDbLine
 10
176.8106249999999
 20
-4.287465999999998
 30
0.0
 11
178.233334
 21
-4.736681999999998
 31
0.0
  0
LINE
  5
2F55
330
BF7
100
AcDbEntity
  8
1
100
AcDbLine
 10
175.329442
 20
-3.708162000000001
 30
0.0
 11
176.8106249999999
 21
-4.287465999999998
 31
0.0
  0
LINE
  5
2F56
330
BF7
100
AcDbEntity
  8
1
100
AcDbLine
 10
173.848258
 20
-3.030229999999998
 30
0.0
 11
175.329442
 21
-3.708162000000001
 31
0.0
  0
LINE
  5
2F57
330
BF7
100
AcDbEntity
  8
1
100
AcDbLine
 10
172.367074
 20
-2.271695
 30
0.0
 11
173.848258
 21
-3.030229999999998
 31
0.0
  0
LINE
  5
2F58
330
BF7
100
AcDbEntity
  8
1
100
AcDbLine
 10
170.875595
 20
-1.446887
 30
0.0
 11
172.367074
 21
-2.271695
 31
0.0
  0
LINE
  5
2F59
330
BF7
100
AcDbEntity
  8
1
100
AcDbLine
 10
169.394411
 20
-0.5890969999999989
 30
0.0
 11
170.875595
 21
-1.446887
 31
0.0
  0
LINE
  5
2F5A
330
BF7
100
AcDbEntity
  8
1
100
AcDbLine
 10
167.913228
 20
0.284357
 30
0.0
 11
169.394411
 21
-0.5890969999999989
 31
0.0
  0
LINE
  5
2F5B
330
BF7
100
AcDbEntity
  8
1
100
AcDbLine
 10
166.421773
 20
1.156182000000001
 30
0.0
 11
167.913228
 21
0.284357
 31
0.0
  0
LINE
  5
2F5C
330
BF7
100
AcDbEntity
  8
1
100
AcDbLine
 10
164.940589
 20
1.991192999999999
 30
0.0
 11
166.421773
 21
1.156182000000001
 31
0.0
  0
LINE
  5
2F5D
330
BF7
100
AcDbEntity
  8
1
100
AcDbLine
 10
163.449111
 20
2.778429999999995
 30
0.0
 11
164.940589
 21
1.991192999999999
 31
0.0
  0
LINE
  5
2F5E
330
BF7
100
AcDbEntity
  8
1
100
AcDbLine
 10
161.9679269999999
 20
3.486132999999998
 30
0.0
 11
163.449111
 21
2.778429999999995
 31
0.0
  0
LINE
  5
2F5F
330
BF7
100
AcDbEntity
  8
1
100
AcDbLine
 10
160.486743
 20
4.101102
 30
0.0
 11
161.9679269999999
 21
3.486132999999998
 31
0.0
  0
LINE
  5
2F60
330
BF7
100
AcDbEntity
  8
1
100
AcDbLine
 10
158.9952639999999
 20
4.610085999999999
 30
0.0
 11
160.486743
 21
4.101102
 31
0.0
  0
LINE
  5
2F61
330
BF7
100
AcDbEntity
  8
1
100
AcDbLine
 10
157.514105
 20
4.992548000000001
 30
0.0
 11
158.9952639999999
 21
4.610085999999999
 31
0.0
  0
LINE
  5
2F62
330
BF7
100
AcDbEntity
  8
1
100
AcDbLine
 10
156.7741309999999
 20
5.134366999999993
 30
0.0
 11
157.514105
 21
4.992548000000001
 31
0.0
  0
LINE
  5
2F63
330
BF7
100
AcDbEntity
  8
1
100
AcDbLine
 10
155.282676
 20
5.315732999999998
 30
0.0
 11
156.7741309999999
 21
5.134366999999993
 31
0.0
  0
LINE
  5
2F64
330
BF7
100
AcDbEntity
  8
1
100
AcDbLine
 10
154.142751
 20
5.345161
 30
0.0
 11
155.282676
 21
5.315732999999998
 31
0.0
  0
LINE
  5
2F65
330
BF7
100
AcDbEntity
  8
1
100
AcDbLine
 10
125.586984
 20
-5.357702999999999
 30
0.0
 11
128.513647
 21
-5.090082999999999
 31
0.0
  0
LINE
  5
2F66
330
BF7
100
AcDbEntity
  8
1
100
AcDbLine
 10
124.105801
 20
-5.280885999999997
 30
0.0
 11
125.586984
 21
-5.357702999999999
 31
0.0
  0
LINE
  5
2F67
330
BF7
100
AcDbEntity
  8
1
100
AcDbLine
 10
122.614322
 20
-5.061614999999998
 30
0.0
 11
124.105801
 21
-5.280885999999997
 31
0.0
  0
LINE
  5
2F68
330
BF7
100
AcDbEntity
  8
1
100
AcDbLine
 10
121.133138
 20
-4.708739999999997
 30
0.0
 11
122.614322
 21
-5.061614999999998
 31
0.0
  0
LINE
  5
2F69
330
BF7
100
AcDbEntity
  8
1
100
AcDbLine
 10
119.641684
 20
-4.226887000000001
 30
0.0
 11
121.133138
 21
-4.708739999999997
 31
0.0
  0
LINE
  5
2F6A
330
BF7
100
AcDbEntity
  8
1
100
AcDbLine
 10
118.1605
 20
-3.635503999999996
 30
0.0
 11
119.641684
 21
-4.226887000000001
 31
0.0
  0
LINE
  5
2F6B
330
BF7
100
AcDbEntity
  8
1
100
AcDbLine
 10
116.669021
 20
-2.942342
 30
0.0
 11
118.1605
 21
-3.635503999999996
 31
0.0
  0
LINE
  5
2F6C
330
BF7
100
AcDbEntity
  8
1
100
AcDbLine
 10
115.187837
 20
-2.175391999999997
 30
0.0
 11
116.669021
 21
-2.942342
 31
0.0
  0
LINE
  5
2F6D
330
BF7
100
AcDbEntity
  8
1
100
AcDbLine
 10
113.696383
 20
-1.344691999999997
 30
0.0
 11
115.187837
 21
-2.175391999999997
 31
0.0
  0
LINE
  5
2F6E
330
BF7
100
AcDbEntity
  8
1
100
AcDbLine
 10
112.215187
 20
-0.4837799999999996
 30
0.0
 11
113.696383
 21
-1.344691999999997
 31
0.0
  0
LINE
  5
2F6F
330
BF7
100
AcDbEntity
  8
1
100
AcDbLine
 10
110.72372
 20
0.3960569999999989
 30
0.0
 11
112.215187
 21
-0.4837799999999996
 31
0.0
  0
LINE
  5
2F70
330
BF7
100
AcDbEntity
  8
1
100
AcDbLine
 10
109.242537
 20
1.259309000000001
 30
0.0
 11
110.72372
 21
0.3960569999999989
 31
0.0
  0
LINE
  5
2F71
330
BF7
100
AcDbEntity
  8
1
100
AcDbLine
 10
107.75107
 20
2.094660000000001
 30
0.0
 11
109.242537
 21
1.259309000000001
 31
0.0
  0
LINE
  5
2F72
330
BF7
100
AcDbEntity
  8
1
100
AcDbLine
 10
106.269886
 20
2.868395000000003
 30
0.0
 11
107.75107
 21
2.094660000000001
 31
0.0
  0
LINE
  5
2F73
330
BF7
100
AcDbEntity
  8
1
100
AcDbLine
 10
104.77842
 20
3.570360000000003
 30
0.0
 11
106.269886
 21
2.868395000000003
 31
0.0
  0
LINE
  5
2F74
330
BF7
100
AcDbEntity
  8
1
100
AcDbLine
 10
103.297224
 20
4.172231
 30
0.0
 11
104.77842
 21
3.570360000000003
 31
0.0
  0
LINE
  5
2F75
330
BF7
100
AcDbEntity
  8
1
100
AcDbLine
 10
101.805757
 20
4.666112
 30
0.0
 11
103.297224
 21
4.172231
 31
0.0
  0
LINE
  5
2F76
330
BF7
100
AcDbEntity
  8
1
100
AcDbLine
 10
100.324573
 20
5.032070999999998
 30
0.0
 11
101.805757
 21
4.666112
 31
0.0
  0
LINE
  5
2F77
330
BF7
100
AcDbEntity
  8
1
100
AcDbLine
 10
98.84338900000001
 20
5.264185000000001
 30
0.0
 11
100.324573
 21
5.032070999999998
 31
0.0
  0
LINE
  5
2F78
330
BF7
100
AcDbEntity
  8
1
100
AcDbLine
 10
97.36220600000001
 20
5.356277000000002
 30
0.0
 11
98.84338900000001
 21
5.264185000000001
 31
0.0
  0
LINE
  5
2F79
330
BF7
100
AcDbEntity
  8
1
100
AcDbLine
 10
97.143457
 20
5.348760999999998
 30
0.0
 11
97.36220600000001
 21
5.356277000000002
 31
0.0
  0
LINE
  5
2F7A
330
BF7
100
AcDbEntity
  8
1
100
AcDbLine
 10
69.14767300000001
 20
-5.349587999999997
 30
0.0
 11
71.434162
 21
-5.089656000000001
 31
0.0
  0
LINE
  5
2F7B
330
BF7
100
AcDbEntity
  8
1
100
AcDbLine
 10
67.65619499999998
 20
-5.326022
 30
0.0
 11
69.14767300000001
 21
-5.349587999999997
 31
0.0
  0
LINE
  5
2F7C
330
BF7
100
AcDbEntity
  8
1
100
AcDbLine
 10
66.175011
 20
-5.160454999999998
 30
0.0
 11
67.65619499999998
 21
-5.326022
 31
0.0
  0
LINE
  5
2F7D
330
BF7
100
AcDbEntity
  8
1
100
AcDbLine
 10
64.683532
 20
-4.855057999999998
 30
0.0
 11
66.175011
 21
-5.160454999999998
 31
0.0
  0
LINE
  5
2F7E
330
BF7
100
AcDbEntity
  8
1
100
AcDbLine
 10
63.20233599999999
 20
-4.422159999999998
 30
0.0
 11
64.683532
 21
-4.855057999999998
 31
0.0
  0
LINE
  5
2F7F
330
BF7
100
AcDbEntity
  8
1
100
AcDbLine
 10
61.71085800000001
 20
-3.867433999999999
 30
0.0
 11
63.20233599999999
 21
-4.422159999999998
 31
0.0
  0
LINE
  5
2F80
330
BF7
100
AcDbEntity
  8
1
100
AcDbLine
 10
60.22967399999999
 20
-3.213267999999998
 30
0.0
 11
61.71085800000001
 21
-3.867433999999999
 31
0.0
  0
LINE
  5
2F81
330
BF7
100
AcDbEntity
  8
1
100
AcDbLine
 10
58.73819499999999
 20
-2.468243000000001
 30
0.0
 11
60.22967399999999
 21
-3.213267999999998
 31
0.0
  0
LINE
  5
2F82
330
BF7
100
AcDbEntity
  8
1
100
AcDbLine
 10
57.25699899999999
 20
-1.662429999999999
 30
0.0
 11
58.73819499999999
 21
-2.468243000000001
 31
0.0
  0
LINE
  5
2F83
330
BF7
100
AcDbEntity
  8
1
100
AcDbLine
 10
55.77581499999998
 20
-0.8123969999999971
 30
0.0
 11
57.25699899999999
 21
-1.662429999999999
 31
0.0
  0
LINE
  5
2F84
330
BF7
100
AcDbEntity
  8
1
100
AcDbLine
 10
54.28433699999998
 20
0.0653199999999998
 30
0.0
 11
55.77581499999998
 21
-0.8123969999999971
 31
0.0
  0
LINE
  5
2F85
330
BF7
100
AcDbEntity
  8
1
100
AcDbLine
 10
52.803141
 20
0.9352949999999999
 30
0.0
 11
54.28433699999998
 21
0.0653199999999998
 31
0.0
  0
LINE
  5
2F86
330
BF7
100
AcDbEntity
  8
1
100
AcDbLine
 10
51.311662
 20
1.786121
 30
0.0
 11
52.803141
 21
0.9352949999999999
 31
0.0
  0
LINE
  5
2F87
330
BF7
100
AcDbEntity
  8
1
100
AcDbLine
 10
49.83047800000001
 20
2.583462999999997
 30
0.0
 11
51.311662
 21
1.786121
 31
0.0
  0
LINE
  5
2F88
330
BF7
100
AcDbEntity
  8
1
100
AcDbLine
 10
48.34927
 20
3.312076000000001
 30
0.0
 11
49.83047800000001
 21
2.583462999999997
 31
0.0
  0
LINE
  5
2F89
330
BF7
100
AcDbEntity
  8
1
100
AcDbLine
 10
47.60931999999998
 20
3.644202000000003
 30
0.0
 11
48.34927
 21
3.312076000000001
 31
0.0
  0
LINE
  5
2F8A
330
BF7
100
AcDbEntity
  8
1
100
AcDbLine
 10
46.11784199999998
 20
4.237875999999995
 30
0.0
 11
47.60931999999998
 21
3.644202000000003
 31
0.0
  0
LINE
  5
2F8B
330
BF7
100
AcDbEntity
  8
1
100
AcDbLine
 10
44.636646
 20
4.714383000000001
 30
0.0
 11
46.11784199999998
 21
4.237875999999995
 31
0.0
  0
LINE
  5
2F8C
330
BF7
100
AcDbEntity
  8
1
100
AcDbLine
 10
43.145167
 20
5.067468
 30
0.0
 11
44.636646
 21
4.714383000000001
 31
0.0
  0
LINE
  5
2F8D
330
BF7
100
AcDbEntity
  8
1
100
AcDbLine
 10
41.66397099999999
 20
5.282877000000001
 30
0.0
 11
43.145167
 21
5.067468
 31
0.0
  0
LINE
  5
2F8E
330
BF7
100
AcDbEntity
  8
1
100
AcDbLine
 10
40.18277499999999
 20
5.357766000000001
 30
0.0
 11
41.66397099999999
 21
5.282877000000001
 31
0.0
  0
LINE
  5
2F8F
330
BF7
100
AcDbEntity
  8
1
100
AcDbLine
 10
40.14698499999997
 20
5.356131000000001
 30
0.0
 11
40.18277499999999
 21
5.357766000000001
 31
0.0
  0
LINE
  5
2F90
330
BF7
100
AcDbEntity
  8
1
100
AcDbLine
 10
11.557682
 20
-5.357565000000001
 30
0.0
 11
14.66392399999999
 21
-5.029187
 31
0.0
  0
LINE
  5
2F91
330
BF7
100
AcDbEntity
  8
1
100
AcDbLine
 10
10.50969
 20
-5.315915999999996
 30
0.0
 11
11.557682
 21
-5.357565000000001
 31
0.0
  0
LINE
  5
2F92
330
BF7
100
AcDbEntity
  8
1
100
AcDbLine
 10
10.24783599999999
 20
-5.294401
 30
0.0
 11
10.50969
 21
-5.315915999999996
 31
0.0
  0
LINE
  5
2F93
330
BF7
100
AcDbEntity
  8
1
100
AcDbLine
 10
181.50874
 20
-5.357813
 30
0.0
 11
181.3057479999999
 21
-5.299537999999998
 31
0.0
  0
LINE
  5
2F94
330
BF7
100
AcDbEntity
  8
1
100
AcDbLine
 10
179.5831549999999
 20
-5.237584
 30
0.0
 11
181.50874
 21
-5.357813
 31
0.0
  0
LINE
  5
2F95
330
BF7
100
AcDbEntity
  8
1
100
AcDbLine
 10
178.042769
 20
-4.971264999999998
 30
0.0
 11
179.5831549999999
 21
-5.237584
 31
0.0
  0
LINE
  5
2F96
330
BF7
100
AcDbEntity
  8
1
100
AcDbLine
 10
176.502384
 20
-4.562491999999997
 30
0.0
 11
178.042769
 21
-4.971264999999998
 31
0.0
  0
LINE
  5
2F97
330
BF7
100
AcDbEntity
  8
1
100
AcDbLine
 10
175.0053579999999
 20
-4.038991999999999
 30
0.0
 11
176.502384
 21
-4.562491999999997
 31
0.0
  0
LINE
  5
2F98
330
BF7
100
AcDbEntity
  8
1
100
AcDbLine
 10
173.508404
 20
-3.406072999999998
 30
0.0
 11
175.0053579999999
 21
-4.038991999999999
 31
0.0
  0
LINE
  5
2F99
330
BF7
100
AcDbEntity
  8
1
100
AcDbLine
 10
171.968188
 20
-2.657933000000002
 30
0.0
 11
173.508404
 21
-3.406072999999998
 31
0.0
  0
LINE
  5
2F9A
330
BF7
100
AcDbEntity
  8
1
100
AcDbLine
 10
170.4279239999999
 20
-1.833688000000002
 30
0.0
 11
171.968188
 21
-2.657933000000002
 31
0.0
  0
LINE
  5
2F9B
330
BF7
100
AcDbEntity
  8
1
100
AcDbLine
 10
168.9308979999999
 20
-0.9819959999999987
 30
0.0
 11
170.4279239999999
 21
-1.833688000000002
 31
0.0
  0
LINE
  5
2F9C
330
BF7
100
AcDbEntity
  8
1
100
AcDbLine
 10
167.433896
 20
-0.1037250000000007
 30
0.0
 11
168.9308979999999
 21
-0.9819959999999987
 31
0.0
  0
LINE
  5
2F9D
330
BF7
100
AcDbEntity
  8
1
100
AcDbLine
 10
165.893535
 20
0.8030090000000027
 30
0.0
 11
167.433896
 21
-0.1037250000000007
 31
0.0
  0
LINE
  5
2F9E
330
BF7
100
AcDbEntity
  8
1
100
AcDbLine
 10
164.353222
 20
1.686803
 30
0.0
 11
165.893535
 21
0.8030090000000027
 31
0.0
  0
LINE
  5
2F9F
330
BF7
100
AcDbEntity
  8
1
100
AcDbLine
 10
162.856269
 20
2.499131999999999
 30
0.0
 11
164.353222
 21
1.686803
 31
0.0
  0
LINE
  5
2FA0
330
BF7
100
AcDbEntity
  8
1
100
AcDbLine
 10
161.359267
 20
3.243739000000001
 30
0.0
 11
162.856269
 21
2.499131999999999
 31
0.0
  0
LINE
  5
2FA1
330
BF7
100
AcDbEntity
  8
1
100
AcDbLine
 10
159.8189789999999
 20
3.917443999999998
 30
0.0
 11
161.359267
 21
3.243739000000001
 31
0.0
  0
LINE
  5
2FA2
330
BF7
100
AcDbEntity
  8
1
100
AcDbLine
 10
158.27869
 20
4.478905000000001
 30
0.0
 11
159.8189789999999
 21
3.917443999999998
 31
0.0
  0
LINE
  5
2FA3
330
BF7
100
AcDbEntity
  8
1
100
AcDbLine
 10
156.781785
 20
4.900808000000001
 30
0.0
 11
158.27869
 21
4.478905000000001
 31
0.0
  0
LINE
  5
2FA4
330
BF7
100
AcDbEntity
  8
1
100
AcDbLine
 10
155.284905
 20
5.190035000000004
 30
0.0
 11
156.781785
 21
4.900808000000001
 31
0.0
  0
LINE
  5
2FA5
330
BF7
100
AcDbEntity
  8
1
100
AcDbLine
 10
153.744543
 20
5.339914000000002
 30
0.0
 11
155.284905
 21
5.190035000000004
 31
0.0
  0
LINE
  5
2FA6
330
BF7
100
AcDbEntity
  8
1
100
AcDbLine
 10
152.204182
 20
5.336765000000003
 30
0.0
 11
153.744543
 21
5.339914000000002
 31
0.0
  0
LINE
  5
2FA7
330
BF7
100
AcDbEntity
  8
1
100
AcDbLine
 10
150.707253
 20
5.186102
 30
0.0
 11
152.204182
 21
5.336765000000003
 31
0.0
  0
LINE
  5
2FA8
330
BF7
100
AcDbEntity
  8
1
100
AcDbLine
 10
149.2103479999999
 20
4.895010000000001
 30
0.0
 11
150.707253
 21
5.186102
 31
0.0
  0
LINE
  5
2FA9
330
BF7
100
AcDbEntity
  8
1
100
AcDbLine
 10
147.670132
 20
4.456283000000001
 30
0.0
 11
149.2103479999999
 21
4.895010000000001
 31
0.0
  0
LINE
  5
2FAA
330
BF7
100
AcDbEntity
  8
1
100
AcDbLine
 10
146.129844
 20
3.889914
 30
0.0
 11
147.670132
 21
4.456283000000001
 31
0.0
  0
LINE
  5
2FAB
330
BF7
100
AcDbEntity
  8
1
100
AcDbLine
 10
144.69902
 20
3.260912999999998
 30
0.0
 11
146.129844
 21
3.889914
 31
0.0
  0
LINE
  5
2FAC
330
BF7
100
AcDbEntity
  8
1
100
AcDbLine
 10
121.8314
 20
-5.126160999999998
 30
0.0
 11
124.508538
 21
-5.342815999999999
 31
0.0
  0
LINE
  5
2FAD
330
BF7
100
AcDbEntity
  8
1
100
AcDbLine
 10
120.334422
 20
-4.800288999999998
 30
0.0
 11
121.8314
 21
-5.126160999999998
 31
0.0
  0
LINE
  5
2FAE
330
BF7
100
AcDbEntity
  8
1
100
AcDbLine
 10
118.837372
 20
-4.344494
 30
0.0
 11
120.334422
 21
-4.800288999999998
 31
0.0
  0
LINE
  5
2FAF
330
BF7
100
AcDbEntity
  8
1
100
AcDbLine
 10
117.297011
 20
-3.752019
 30
0.0
 11
118.837372
 21
-4.344494
 31
0.0
  0
LINE
  5
2FB0
330
BF7
100
AcDbEntity
  8
1
100
AcDbLine
 10
115.756674
 20
-3.051985999999998
 30
0.0
 11
117.297011
 21
-3.752019
 31
0.0
  0
LINE
  5
2FB1
330
BF7
100
AcDbEntity
  8
1
100
AcDbLine
 10
114.259769
 20
-2.287072999999999
 30
0.0
 11
115.756674
 21
-3.051985999999998
 31
0.0
  0
LINE
  5
2FB2
330
BF7
100
AcDbEntity
  8
1
100
AcDbLine
 10
112.762864
 20
-1.460250000000002
 30
0.0
 11
114.259769
 21
-2.287072999999999
 31
0.0
  0
LINE
  5
2FB3
330
BF7
100
AcDbEntity
  8
1
100
AcDbLine
 10
111.222515
 20
-0.5681560000000019
 30
0.0
 11
112.762864
 21
-1.460250000000002
 31
0.0
  0
LINE
  5
2FB4
330
BF7
100
AcDbEntity
  8
1
100
AcDbLine
 10
109.682154
 20
0.3401980000000044
 30
0.0
 11
111.222515
 21
-0.5681560000000019
 31
0.0
  0
LINE
  5
2FB5
330
BF7
100
AcDbEntity
  8
1
100
AcDbLine
 10
108.185237
 20
1.213809000000001
 30
0.0
 11
109.682154
 21
0.3401980000000044
 31
0.0
  0
LINE
  5
2FB6
330
BF7
100
AcDbEntity
  8
1
100
AcDbLine
 10
106.688344
 20
2.054604
 30
0.0
 11
108.185237
 21
1.213809000000001
 31
0.0
  0
LINE
  5
2FB7
330
BF7
100
AcDbEntity
  8
1
100
AcDbLine
 10
105.148104
 20
2.861050000000001
 30
0.0
 11
106.688344
 21
2.054604
 31
0.0
  0
LINE
  5
2FB8
330
BF7
100
AcDbEntity
  8
1
100
AcDbLine
 10
103.607815
 20
3.585460000000001
 30
0.0
 11
105.148104
 21
2.861050000000001
 31
0.0
  0
LINE
  5
2FB9
330
BF7
100
AcDbEntity
  8
1
100
AcDbLine
 10
102.110935
 20
4.190476999999996
 30
0.0
 11
103.607815
 21
3.585460000000001
 31
0.0
  0
LINE
  5
2FBA
330
BF7
100
AcDbEntity
  8
1
100
AcDbLine
 10
100.614066
 20
4.682081
 30
0.0
 11
102.110935
 21
4.190476999999996
 31
0.0
  0
LINE
  5
2FBB
330
BF7
100
AcDbEntity
  8
1
100
AcDbLine
 10
99.07376499999999
 20
5.054623000000002
 30
0.0
 11
100.614066
 21
4.682081
 31
0.0
  0
LINE
  5
2FBC
330
BF7
100
AcDbEntity
  8
1
100
AcDbLine
 10
97.53344
 20
5.282308000000004
 30
0.0
 11
99.07376499999999
 21
5.054623000000002
 31
0.0
  0
LINE
  5
2FBD
330
BF7
100
AcDbEntity
  8
1
100
AcDbLine
 10
96.03653600000001
 20
5.357538999999999
 30
0.0
 11
97.53344
 21
5.282308000000004
 31
0.0
  0
LINE
  5
2FBE
330
BF7
100
AcDbEntity
  8
1
100
AcDbLine
 10
94.539655
 20
5.287718
 30
0.0
 11
96.03653600000001
 21
5.357538999999999
 31
0.0
  0
LINE
  5
2FBF
330
BF7
100
AcDbEntity
  8
1
100
AcDbLine
 10
92.99931800000001
 20
5.065417999999996
 30
0.0
 11
94.539655
 21
5.287718
 31
0.0
  0
LINE
  5
2FC0
330
BF7
100
AcDbEntity
  8
1
100
AcDbLine
 10
91.45892000000001
 20
4.698001999999998
 30
0.0
 11
92.99931800000001
 21
5.065417999999996
 31
0.0
  0
LINE
  5
2FC1
330
BF7
100
AcDbEntity
  8
1
100
AcDbLine
 10
89.96186999999997
 20
4.210989000000001
 30
0.0
 11
91.45892000000001
 21
4.698001999999998
 31
0.0
  0
LINE
  5
2FC2
330
BF7
100
AcDbEntity
  8
1
100
AcDbLine
 10
88.46492899999999
 20
3.609867999999995
 30
0.0
 11
89.96186999999997
 21
4.210989000000001
 31
0.0
  0
LINE
  5
2FC3
330
BF7
100
AcDbEntity
  8
1
100
AcDbLine
 10
87.714309
 20
3.258337
 30
0.0
 11
88.46492899999999
 21
3.609867999999995
 31
0.0
  0
LINE
  5
2FC4
330
BF7
100
AcDbEntity
  8
1
100
AcDbLine
 10
65.66328099999998
 20
-5.247119000000001
 30
0.0
 11
67.50888100000001
 21
-5.344243999999998
 31
0.0
  0
LINE
  5
2FC5
330
BF7
100
AcDbEntity
  8
1
100
AcDbLine
 10
64.16640099999999
 20
-4.998290999999998
 30
0.0
 11
65.66328099999998
 21
-5.247119000000001
 31
0.0
  0
LINE
  5
2FC6
330
BF7
100
AcDbEntity
  8
1
100
AcDbLine
 10
62.626051
 20
-4.600064999999999
 30
0.0
 11
64.16640099999999
 21
-4.998290999999998
 31
0.0
  0
LINE
  5
2FC7
330
BF7
100
AcDbEntity
  8
1
100
AcDbLine
 10
61.08564099999998
 20
-4.070047000000001
 30
0.0
 11
62.626051
 21
-4.600064999999999
 31
0.0
  0
LINE
  5
2FC8
330
BF7
100
AcDbEntity
  8
1
100
AcDbLine
 10
59.58861599999998
 20
-3.442301999999997
 30
0.0
 11
61.08564099999998
 21
-4.070047000000001
 31
0.0
  0
LINE
  5
2FC9
330
BF7
100
AcDbEntity
  8
1
100
AcDbLine
 10
58.091626
 20
-2.721321999999997
 30
0.0
 11
59.58861599999998
 21
-3.442301999999997
 31
0.0
  0
LINE
  5
2FCA
330
BF7
100
AcDbEntity
  8
1
100
AcDbLine
 10
56.55126499999997
 20
-1.902112999999999
 30
0.0
 11
58.091626
 21
-2.721321999999997
 31
0.0
  0
LINE
  5
2FCB
330
BF7
100
AcDbEntity
  8
1
100
AcDbLine
 10
55.01090300000001
 20
-1.028380999999998
 30
0.0
 11
56.55126499999997
 21
-1.902112999999999
 31
0.0
  0
LINE
  5
2FCC
330
BF7
100
AcDbEntity
  8
1
100
AcDbLine
 10
53.51391399999998
 20
-0.1506849999999993
 30
0.0
 11
55.01090300000001
 21
-1.028380999999998
 31
0.0
  0
LINE
  5
2FCD
330
BF7
100
AcDbEntity
  8
1
100
AcDbLine
 10
52.01688799999998
 20
0.7310350000000021
 30
0.0
 11
53.51391399999998
 21
-0.1506849999999993
 31
0.0
  0
LINE
  5
2FCE
330
BF7
100
AcDbEntity
  8
1
100
AcDbLine
 10
50.476466
 20
1.617323999999995
 30
0.0
 11
52.01688799999998
 21
0.7310350000000021
 31
0.0
  0
LINE
  5
2FCF
330
BF7
100
AcDbEntity
  8
1
100
AcDbLine
 10
48.93610500000001
 20
2.457358999999999
 30
0.0
 11
50.476466
 21
1.617323999999995
 31
0.0
  0
LINE
  5
2FD0
330
BF7
100
AcDbEntity
  8
1
100
AcDbLine
 10
47.43918799999998
 20
3.205977999999998
 30
0.0
 11
48.93610500000001
 21
2.457358999999999
 31
0.0
  0
LINE
  5
2FD1
330
BF7
100
AcDbEntity
  8
1
100
AcDbLine
 10
45.942198
 20
3.867710999999995
 30
0.0
 11
47.43918799999998
 21
3.205977999999998
 31
0.0
  0
LINE
  5
2FD2
330
BF7
100
AcDbEntity
  8
1
100
AcDbLine
 10
44.40178799999999
 20
4.438326999999996
 30
0.0
 11
45.942198
 21
3.867710999999995
 31
0.0
  0
LINE
  5
2FD3
330
BF7
100
AcDbEntity
  8
1
100
AcDbLine
 10
42.86141499999998
 20
4.881792999999998
 30
0.0
 11
44.40178799999999
 21
4.438326999999996
 31
0.0
  0
LINE
  5
2FD4
330
BF7
100
AcDbEntity
  8
1
100
AcDbLine
 10
41.36453399999999
 20
5.177904999999999
 30
0.0
 11
42.86141499999998
 21
4.881792999999998
 31
0.0
  0
LINE
  5
2FD5
330
BF7
100
AcDbEntity
  8
1
100
AcDbLine
 10
39.86764200000001
 20
5.333817999999997
 30
0.0
 11
41.36453399999999
 21
5.177904999999999
 31
0.0
  0
LINE
  5
2FD6
330
BF7
100
AcDbEntity
  8
1
100
AcDbLine
 10
38.327208
 20
5.342420999999998
 30
0.0
 11
39.86764200000001
 21
5.333817999999997
 31
0.0
  0
LINE
  5
2FD7
330
BF7
100
AcDbEntity
  8
1
100
AcDbLine
 10
36.78673699999999
 20
5.197919999999998
 30
0.0
 11
38.327208
 21
5.342420999999998
 31
0.0
  0
LINE
  5
2FD8
330
BF7
100
AcDbEntity
  8
1
100
AcDbLine
 10
35.28971199999999
 20
4.913685999999994
 30
0.0
 11
36.78673699999999
 21
5.197919999999998
 31
0.0
  0
LINE
  5
2FD9
330
BF7
100
AcDbEntity
  8
1
100
AcDbLine
 10
33.792722
 20
4.496379000000001
 30
0.0
 11
35.28971199999999
 21
4.913685999999994
 31
0.0
  0
LINE
  5
2FDA
330
BF7
100
AcDbEntity
  8
1
100
AcDbLine
 10
32.251852
 20
3.938899999999999
 30
0.0
 11
33.792722
 21
4.496379000000001
 31
0.0
  0
LINE
  5
2FDB
330
BF7
100
AcDbEntity
  8
1
100
AcDbLine
 10
30.71093300000001
 20
3.268485999999998
 30
0.0
 11
32.251852
 21
3.938899999999999
 31
0.0
  0
LINE
  5
2FDC
330
BF7
100
AcDbEntity
  8
1
100
AcDbLine
 10
30.70463499999998
 20
3.265364000000001
 30
0.0
 11
30.71093300000001
 21
3.268485999999998
 31
0.0
  0
LINE
  5
2FDD
330
BF7
100
AcDbEntity
  8
1
100
AcDbLine
 10
51.35442799999999
 20
1.762636999999998
 30
0.0
 11
51.62049699999998
 21
1.612666999999997
 31
0.0
  0
LINE
  5
2FDE
330
BF7
100
AcDbEntity
  8
1
100
AcDbLine
 10
51.086506
 20
1.911037999999996
 30
0.0
 11
51.35442799999999
 21
1.762636999999998
 31
0.0
  0
LINE
  5
2FDF
330
BF7
100
AcDbEntity
  8
1
100
AcDbLine
 10
50.67435800000001
 20
2.134358999999999
 30
0.0
 11
51.086506
 21
1.911037999999996
 31
0.0
  0
LINE
  5
2FE0
330
BF7
100
AcDbEntity
  8
1
100
AcDbLine
 10
50.25887999999999
 20
2.353159000000001
 30
0.0
 11
50.67435800000001
 21
2.134358999999999
 31
0.0
  0
LINE
  5
2FE1
330
BF7
100
AcDbEntity
  8
1
100
AcDbLine
 10
50.25094700000001
 20
2.357274
 30
0.0
 11
50.25887999999999
 21
2.353159000000001
 31
0.0
  0
LINE
  5
2FE2
330
BF7
100
AcDbEntity
  8
1
100
AcDbLine
 10
51.66534699999998
 20
1.587607999999999
 30
0.0
 11
51.71019599999998
 21
1.562546
 31
0.0
  0
LINE
  5
2FE3
330
BF7
100
AcDbEntity
  8
1
100
AcDbLine
 10
51.62049699999998
 20
1.612666999999997
 30
0.0
 11
51.66534699999998
 21
1.587607999999999
 31
0.0
  0
LINE
  5
2FE4
330
BF7
100
AcDbEntity
  8
1
100
AcDbLine
 10
108.097221
 20
1.903090000000002
 30
0.0
 11
108.511985
 21
1.671914
 31
0.0
  0
LINE
  5
2FE5
330
BF7
100
AcDbEntity
  8
1
100
AcDbLine
 10
108.611168
 20
1.617187999999997
 30
0.0
 11
108.710338
 21
1.562463999999997
 31
0.0
  0
LINE
  5
2FE6
330
BF7
100
AcDbEntity
  8
1
100
AcDbLine
 10
108.511985
 20
1.671914
 30
0.0
 11
108.611168
 21
1.617187999999997
 31
0.0
  0
LINE
  5
2FE7
330
BF7
100
AcDbEntity
  8
1
100
AcDbLine
 10
165.293523
 20
1.794323999999999
 30
0.0
 11
165.506301
 21
1.674935999999997
 31
0.0
  0
LINE
  5
2FE8
330
BF7
100
AcDbEntity
  8
1
100
AcDbLine
 10
165.60833
 20
1.618708
 30
0.0
 11
165.710334
 21
1.562477000000001
 31
0.0
  0
LINE
  5
2FE9
330
BF7
100
AcDbEntity
  8
1
100
AcDbLine
 10
165.506301
 20
1.674935999999997
 30
0.0
 11
165.60833
 21
1.618708
 31
0.0
  0
LINE
  5
2FEA
330
BF7
100
AcDbEntity
  8
1
100
AcDbLine
 10
22.72279499999999
 20
1.833568999999999
 30
0.0
 11
22.996191
 21
1.680507999999998
 31
0.0
  0
LINE
  5
2FEB
330
BF7
100
AcDbEntity
  8
1
100
AcDbLine
 10
23.10327
 20
1.621491000000002
 30
0.0
 11
23.21033799999999
 21
1.562477000000001
 31
0.0
  0
LINE
  5
2FEC
330
BF7
100
AcDbEntity
  8
1
100
AcDbLine
 10
22.996191
 20
1.680507999999998
 30
0.0
 11
23.10327
 21
1.621491000000002
 31
0.0
  0
LINE
  5
2FED
330
BF7
100
AcDbEntity
  8
1
100
AcDbLine
 10
79.49120399999998
 20
1.960698999999998
 30
0.0
 11
80.007742
 21
1.673259
 31
0.0
  0
LINE
  5
2FEE
330
BF7
100
AcDbEntity
  8
1
100
AcDbLine
 10
78.974351
 20
2.23835
 30
0.0
 11
79.49120399999998
 21
1.960698999999998
 31
0.0
  0
LINE
  5
2FEF
330
BF7
100
AcDbEntity
  8
1
100
AcDbLine
 10
78.91049800000002
 20
2.271969000000002
 30
0.0
 11
78.974351
 21
2.23835
 31
0.0
  0
LINE
  5
2FF0
330
BF7
100
AcDbEntity
  8
1
100
AcDbLine
 10
80.10905599999999
 20
1.617856999999999
 30
0.0
 11
80.21035799999998
 21
1.562457999999999
 31
0.0
  0
LINE
  5
2FF1
330
BF7
100
AcDbEntity
  8
1
100
AcDbLine
 10
80.007742
 20
1.673259
 30
0.0
 11
80.10905599999999
 21
1.617856999999999
 31
0.0
  0
LINE
  5
2FF2
330
BF7
100
AcDbEntity
  8
1
100
AcDbLine
 10
136.752364
 20
1.816893999999996
 30
0.0
 11
137.029139
 21
1.661600999999999
 31
0.0
  0
LINE
  5
2FF3
330
BF7
100
AcDbEntity
  8
1
100
AcDbLine
 10
137.119686
 20
1.612065000000001
 30
0.0
 11
137.2102329999999
 21
1.562530999999999
 31
0.0
  0
LINE
  5
2FF4
330
BF7
100
AcDbEntity
  8
1
100
AcDbLine
 10
137.029139
 20
1.661600999999999
 30
0.0
 11
137.119686
 21
1.612065000000001
 31
0.0
  0
LINE
  5
2FF5
330
BF7
100
AcDbEntity
  8
1
100
AcDbLine
 10
175.180638
 20
2.352054000000006
 30
0.0
 11
174.8862999999999
 21
2.497218
 31
0.0
  0
LINE
  5
2FF6
330
BF7
100
AcDbEntity
  8
1
100
AcDbLine
 10
175.475896
 20
2.208766999999997
 30
0.0
 11
175.180638
 21
2.352054000000006
 31
0.0
  0
LINE
  5
2FF7
330
BF7
100
AcDbEntity
  8
1
100
AcDbLine
 10
176.037126
 20
1.942991999999995
 30
0.0
 11
175.475896
 21
2.208766999999997
 31
0.0
  0
LINE
  5
2FF8
330
BF7
100
AcDbEntity
  8
1
100
AcDbLine
 10
176.601021
 20
1.682803000000003
 30
0.0
 11
176.037126
 21
1.942991999999995
 31
0.0
  0
LINE
  5
2FF9
330
BF7
100
AcDbEntity
  8
1
100
AcDbLine
 10
177.043823
 20
1.482021999999999
 30
0.0
 11
176.601021
 21
1.682803000000003
 31
0.0
  0
LINE
  5
2FFA
330
BF7
100
AcDbEntity
  8
1
100
AcDbLine
 10
177.487861
 20
1.283926000000001
 30
0.0
 11
177.043823
 21
1.482021999999999
 31
0.0
  0
LINE
  5
2FFB
330
BF7
100
AcDbEntity
  8
1
100
AcDbLine
 10
177.811824
 20
1.141672000000002
 30
0.0
 11
177.487861
 21
1.283926000000001
 31
0.0
  0
LINE
  5
2FFC
330
BF7
100
AcDbEntity
  8
1
100
AcDbLine
 10
178.136441
 20
1.000973999999998
 30
0.0
 11
177.811824
 21
1.141672000000002
 31
0.0
  0
LINE
  5
2FFD
330
BF7
100
AcDbEntity
  8
1
100
AcDbLine
 10
178.472467
 20
0.8572260000000007
 30
0.0
 11
178.136441
 21
1.000973999999998
 31
0.0
  0
LINE
  5
2FFE
330
BF7
100
AcDbEntity
  8
1
100
AcDbLine
 10
178.809195
 20
0.7153080000000003
 30
0.0
 11
178.472467
 21
0.8572260000000007
 31
0.0
  0
LINE
  5
2FFF
330
BF7
100
AcDbEntity
  8
1
100
AcDbLine
 10
179.143114
 20
0.5768989999999974
 30
0.0
 11
178.809195
 21
0.7153080000000003
 31
0.0
  0
LINE
  5
3000
330
BF7
100
AcDbEntity
  8
1
100
AcDbLine
 10
179.477783
 20
0.4404429999999985
 30
0.0
 11
179.143114
 21
0.5768989999999974
 31
0.0
  0
LINE
  5
3001
330
BF7
100
AcDbEntity
  8
1
100
AcDbLine
 10
118.230263
 20
2.328373000000002
 30
0.0
 11
117.88743
 21
2.497329999999994
 31
0.0
  0
LINE
  5
3002
330
BF7
100
AcDbEntity
  8
1
100
AcDbLine
 10
118.574258
 20
2.161898000000004
 30
0.0
 11
118.230263
 21
2.328373000000002
 31
0.0
  0
LINE
  5
3003
330
BF7
100
AcDbEntity
  8
1
100
AcDbLine
 10
119.175917
 20
1.878245999999999
 30
0.0
 11
118.574258
 21
2.161898000000004
 31
0.0
  0
LINE
  5
3004
330
BF7
100
AcDbEntity
  8
1
100
AcDbLine
 10
119.780532
 20
1.600951999999999
 30
0.0
 11
119.175917
 21
1.878245999999999
 31
0.0
  0
LINE
  5
3005
330
BF7
100
AcDbEntity
  8
1
100
AcDbLine
 10
120.255042
 20
1.387420999999999
 30
0.0
 11
119.780532
 21
1.600951999999999
 31
0.0
  0
LINE
  5
3006
330
BF7
100
AcDbEntity
  8
1
100
AcDbLine
 10
120.73091
 20
1.177023000000001
 30
0.0
 11
120.255042
 21
1.387420999999999
 31
0.0
  0
LINE
  5
3007
330
BF7
100
AcDbEntity
  8
1
100
AcDbLine
 10
121.087283
 20
1.022135999999995
 30
0.0
 11
120.73091
 21
1.177023000000001
 31
0.0
  0
LINE
  5
3008
330
BF7
100
AcDbEntity
  8
1
100
AcDbLine
 10
121.444456
 20
0.8691899999999995
 30
0.0
 11
121.087283
 21
1.022135999999995
 31
0.0
  0
LINE
  5
3009
330
BF7
100
AcDbEntity
  8
1
100
AcDbLine
 10
121.911966
 20
0.672374999999999
 30
0.0
 11
121.444456
 21
0.8691899999999995
 31
0.0
  0
LINE
  5
300A
330
BF7
100
AcDbEntity
  8
1
100
AcDbLine
 10
122.3808329999999
 20
0.4788549999999995
 30
0.0
 11
121.911966
 21
0.672374999999999
 31
0.0
  0
LINE
  5
300B
330
BF7
100
AcDbEntity
  8
1
100
AcDbLine
 10
122.961757
 20
0.2444669999999967
 30
0.0
 11
122.3808329999999
 21
0.4788549999999995
 31
0.0
  0
LINE
  5
300C
330
BF7
100
AcDbEntity
  8
1
100
AcDbLine
 10
123.544691
 20
0.0152959999999993
 30
0.0
 11
122.961757
 21
0.2444669999999967
 31
0.0
  0
LINE
  5
300D
330
BF7
100
AcDbEntity
  8
1
100
AcDbLine
 10
124.241887
 20
-0.2508669999999995
 30
0.0
 11
123.544691
 21
0.0152959999999993
 31
0.0
  0
LINE
  5
300E
330
BF7
100
AcDbEntity
  8
1
100
AcDbLine
 10
124.941893
 20
-0.5095260000000012
 30
0.0
 11
124.241887
 21
-0.2508669999999995
 31
0.0
  0
LINE
  5
300F
330
BF7
100
AcDbEntity
  8
1
100
AcDbLine
 10
61.05005699999999
 20
2.414610999999997
 30
0.0
 11
60.878677
 21
2.499273999999996
 31
0.0
  0
LINE
  5
3010
330
BF7
100
AcDbEntity
  8
1
100
AcDbLine
 10
61.22177699999999
 20
2.330656
 30
0.0
 11
61.05005699999999
 21
2.414610999999997
 31
0.0
  0
LINE
  5
3011
330
BF7
100
AcDbEntity
  8
1
100
AcDbLine
 10
61.69205999999999
 20
2.105382000000002
 30
0.0
 11
61.22177699999999
 21
2.330656
 31
0.0
  0
LINE
  5
3012
330
BF7
100
AcDbEntity
  8
1
100
AcDbLine
 10
62.16435500000002
 20
1.884313999999999
 30
0.0
 11
61.69205999999999
 21
2.105382000000002
 31
0.0
  0
LINE
  5
3013
330
BF7
100
AcDbEntity
  8
1
100
AcDbLine
 10
62.55311499999997
 20
1.704891999999996
 30
0.0
 11
62.16435500000002
 21
1.884313999999999
 31
0.0
  0
LINE
  5
3014
330
BF7
100
AcDbEntity
  8
1
100
AcDbLine
 10
62.94277100000001
 20
1.527477
 30
0.0
 11
62.55311499999997
 21
1.704891999999996
 31
0.0
  0
LINE
  5
3015
330
BF7
100
AcDbEntity
  8
1
100
AcDbLine
 10
63.248373
 20
1.390276
 30
0.0
 11
62.94277100000001
 21
1.527477
 31
0.0
  0
LINE
  5
3016
330
BF7
100
AcDbEntity
  8
1
100
AcDbLine
 10
63.55460400000001
 20
1.254483
 30
0.0
 11
63.248373
 21
1.390276
 31
0.0
  0
LINE
  5
3017
330
BF7
100
AcDbEntity
  8
1
100
AcDbLine
 10
63.77738599999999
 20
1.156720999999999
 30
0.0
 11
63.55460400000001
 21
1.254483
 31
0.0
  0
LINE
  5
3018
330
BF7
100
AcDbEntity
  8
1
100
AcDbLine
 10
64.000483
 20
1.059685000000001
 30
0.0
 11
63.77738599999999
 21
1.156720999999999
 31
0.0
  0
LINE
  5
3019
330
BF7
100
AcDbEntity
  8
1
100
AcDbLine
 10
64.20135499999999
 20
0.9730710000000007
 30
0.0
 11
64.000483
 21
1.059685000000001
 31
0.0
  0
LINE
  5
301A
330
BF7
100
AcDbEntity
  8
1
100
AcDbLine
 10
64.40248100000001
 20
0.8870639999999987
 30
0.0
 11
64.20135499999999
 21
0.9730710000000007
 31
0.0
  0
LINE
  5
301B
330
BF7
100
AcDbEntity
  8
1
100
AcDbLine
 10
64.659127
 20
0.7783489999999988
 30
0.0
 11
64.40248100000001
 21
0.8870639999999987
 31
0.0
  0
LINE
  5
301C
330
BF7
100
AcDbEntity
  8
1
100
AcDbLine
 10
64.916173
 20
0.6706280000000007
 30
0.0
 11
64.659127
 21
0.7783489999999988
 31
0.0
  0
LINE
  5
301D
330
BF7
100
AcDbEntity
  8
1
100
AcDbLine
 10
65.19004199999999
 20
0.557141999999999
 30
0.0
 11
64.916173
 21
0.6706280000000007
 31
0.0
  0
LINE
  5
301E
330
BF7
100
AcDbEntity
  8
1
100
AcDbLine
 10
65.46435900000002
 20
0.4447999999999972
 30
0.0
 11
65.19004199999999
 21
0.557141999999999
 31
0.0
  0
LINE
  5
301F
330
BF7
100
AcDbEntity
  8
1
100
AcDbLine
 10
65.771281
 20
0.3206859999999985
 30
0.0
 11
65.46435900000002
 21
0.4447999999999972
 31
0.0
  0
LINE
  5
3020
330
BF7
100
AcDbEntity
  8
1
100
AcDbLine
 10
66.07873499999998
 20
0.1980160000000026
 30
0.0
 11
65.771281
 21
0.3206859999999985
 31
0.0
  0
LINE
  5
3021
330
BF7
100
AcDbEntity
  8
1
100
AcDbLine
 10
66.488097
 20
0.0372910000000033
 30
0.0
 11
66.07873499999998
 21
0.1980160000000026
 31
0.0
  0
LINE
  5
3022
330
BF7
100
AcDbEntity
  8
1
100
AcDbLine
 10
66.89841599999998
 20
-0.1208300000000015
 30
0.0
 11
66.488097
 21
0.0372910000000033
 31
0.0
  0
LINE
  5
3023
330
BF7
100
AcDbEntity
  8
1
100
AcDbLine
 10
67.42018699999999
 20
-0.3175839999999965
 30
0.0
 11
66.89841599999998
 21
-0.1208300000000015
 31
0.0
  0
LINE
  5
3024
330
BF7
100
AcDbEntity
  8
1
100
AcDbLine
 10
67.94351999999999
 20
-0.5101140000000015
 30
0.0
 11
67.42018699999999
 21
-0.3175839999999965
 31
0.0
  0
LINE
  5
3025
330
BF7
100
AcDbEntity
  8
1
100
AcDbLine
 10
146.87786
 20
2.258207000000002
 30
0.0
 11
146.393636
 21
2.496294999999999
 31
0.0
  0
LINE
  5
3026
330
BF7
100
AcDbEntity
  8
1
100
AcDbLine
 10
147.36424
 20
2.024744999999998
 30
0.0
 11
146.87786
 21
2.258207000000002
 31
0.0
  0
LINE
  5
3027
330
BF7
100
AcDbEntity
  8
1
100
AcDbLine
 10
148.114485
 20
1.675901999999999
 30
0.0
 11
147.36424
 21
2.024744999999998
 31
0.0
  0
LINE
  5
3028
330
BF7
100
AcDbEntity
  8
1
100
AcDbLine
 10
148.869042
 20
1.336593999999998
 30
0.0
 11
148.114485
 21
1.675901999999999
 31
0.0
  0
LINE
  5
3029
330
BF7
100
AcDbEntity
  8
1
100
AcDbLine
 10
149.49599
 20
1.061802
 30
0.0
 11
148.869042
 21
1.336593999999998
 31
0.0
  0
LINE
  5
302A
330
BF7
100
AcDbEntity
  8
1
100
AcDbLine
 10
150.1252389999999
 20
0.7926470000000024
 30
0.0
 11
149.49599
 21
1.061802
 31
0.0
  0
LINE
  5
302B
330
BF7
100
AcDbEntity
  8
1
100
AcDbLine
 10
150.512885
 20
0.6303989999999971
 30
0.0
 11
150.1252389999999
 21
0.7926470000000024
 31
0.0
  0
LINE
  5
302C
330
BF7
100
AcDbEntity
  8
1
100
AcDbLine
 10
150.9014269999999
 20
0.4704679999999968
 30
0.0
 11
150.512885
 21
0.6303989999999971
 31
0.0
  0
LINE
  5
302D
330
BF7
100
AcDbEntity
  8
1
100
AcDbLine
 10
151.282581
 20
0.3161590000000025
 30
0.0
 11
150.9014269999999
 21
0.4704679999999968
 31
0.0
  0
LINE
  5
302E
330
BF7
100
AcDbEntity
  8
1
100
AcDbLine
 10
151.664607
 20
0.1640669999999957
 30
0.0
 11
151.282581
 21
0.3161590000000025
 31
0.0
  0
LINE
  5
302F
330
BF7
100
AcDbEntity
  8
1
100
AcDbLine
 10
152.087159
 20
-0.0011510000000037
 30
0.0
 11
151.664607
 21
0.1640669999999957
 31
0.0
  0
LINE
  5
3030
330
BF7
100
AcDbEntity
  8
1
100
AcDbLine
 10
152.5107519999999
 20
-0.1635929999999988
 30
0.0
 11
152.087159
 21
-0.0011510000000037
 31
0.0
  0
LINE
  5
3031
330
BF7
100
AcDbEntity
  8
1
100
AcDbLine
 10
152.9754769999999
 20
-0.3381459999999983
 30
0.0
 11
152.5107519999999
 21
-0.1635929999999988
 31
0.0
  0
LINE
  5
3032
330
BF7
100
AcDbEntity
  8
1
100
AcDbLine
 10
153.441413
 20
-0.5093510000000025
 30
0.0
 11
152.9754769999999
 21
-0.3381459999999983
 31
0.0
  0
LINE
  5
3033
330
BF7
100
AcDbEntity
  8
1
100
AcDbLine
 10
89.59677599999997
 20
2.392165000000002
 30
0.0
 11
89.388649
 21
2.494923000000003
 31
0.0
  0
LINE
  5
3034
330
BF7
100
AcDbEntity
  8
1
100
AcDbLine
 10
89.80540000000003
 20
2.290411999999999
 30
0.0
 11
89.59677599999997
 21
2.392165000000002
 31
0.0
  0
LINE
  5
3035
330
BF7
100
AcDbEntity
  8
1
100
AcDbLine
 10
90.31269700000001
 20
2.048341999999994
 30
0.0
 11
89.80540000000003
 21
2.290411999999999
 31
0.0
  0
LINE
  5
3036
330
BF7
100
AcDbEntity
  8
1
100
AcDbLine
 10
90.82224600000001
 20
1.811061999999999
 30
0.0
 11
90.31269700000001
 21
2.048341999999994
 31
0.0
  0
LINE
  5
3037
330
BF7
100
AcDbEntity
  8
1
100
AcDbLine
 10
91.24318700000001
 20
1.618068999999997
 30
0.0
 11
90.82224600000001
 21
1.811061999999999
 31
0.0
  0
LINE
  5
3038
330
BF7
100
AcDbEntity
  8
1
100
AcDbLine
 10
91.665194
 20
1.427461999999998
 30
0.0
 11
91.24318700000001
 21
1.618068999999997
 31
0.0
  0
LINE
  5
3039
330
BF7
100
AcDbEntity
  8
1
100
AcDbLine
 10
91.99796199999999
 20
1.279441999999995
 30
0.0
 11
91.665194
 21
1.427461999999998
 31
0.0
  0
LINE
  5
303A
330
BF7
100
AcDbEntity
  8
1
100
AcDbLine
 10
92.33145699999999
 20
1.133105999999997
 30
0.0
 11
91.99796199999999
 21
1.279441999999995
 31
0.0
  0
LINE
  5
303B
330
BF7
100
AcDbEntity
  8
1
100
AcDbLine
 10
92.65455900000002
 20
0.993185999999998
 30
0.0
 11
92.33145699999999
 21
1.133105999999997
 31
0.0
  0
LINE
  5
303C
330
BF7
100
AcDbEntity
  8
1
100
AcDbLine
 10
92.978292
 20
0.854822000000002
 30
0.0
 11
92.65455900000002
 21
0.993185999999998
 31
0.0
  0
LINE
  5
303D
330
BF7
100
AcDbEntity
  8
1
100
AcDbLine
 10
93.42537
 20
0.6667859999999985
 30
0.0
 11
92.978292
 21
0.854822000000002
 31
0.0
  0
LINE
  5
303E
330
BF7
100
AcDbEntity
  8
1
100
AcDbLine
 10
93.87365900000002
 20
0.4817889999999993
 30
0.0
 11
93.42537
 21
0.6667859999999985
 31
0.0
  0
LINE
  5
303F
330
BF7
100
AcDbEntity
  8
1
100
AcDbLine
 10
94.449108
 20
0.2495179999999983
 30
0.0
 11
93.87365900000002
 21
0.4817889999999993
 31
0.0
  0
LINE
  5
3040
330
BF7
100
AcDbEntity
  8
1
100
AcDbLine
 10
95.02652000000001
 20
0.0223510000000005
 30
0.0
 11
94.449108
 21
0.2495179999999983
 31
0.0
  0
LINE
  5
3041
330
BF7
100
AcDbEntity
  8
1
100
AcDbLine
 10
95.73351399999999
 20
-0.2477209999999985
 30
0.0
 11
95.02652000000001
 21
0.0223510000000005
 31
0.0
  0
LINE
  5
3042
330
BF7
100
AcDbEntity
  8
1
100
AcDbLine
 10
96.44339099999998
 20
-0.5100769999999955
 30
0.0
 11
95.73351399999999
 21
-0.2477209999999985
 31
0.0
  0
LINE
  5
3043
330
BF7
100
AcDbEntity
  8
1
100
AcDbLine
 10
32.56791799999999
 20
2.406035999999996
 30
0.0
 11
32.380684
 21
2.498510999999997
 31
0.0
  0
LINE
  5
3044
330
BF7
100
AcDbEntity
  8
1
100
AcDbLine
 10
32.75555199999999
 20
2.314386999999999
 30
0.0
 11
32.56791799999999
 21
2.406035999999996
 31
0.0
  0
LINE
  5
3045
330
BF7
100
AcDbEntity
  8
1
100
AcDbLine
 10
33.255873
 20
2.075151
 30
0.0
 11
32.75555199999999
 21
2.314386999999999
 31
0.0
  0
LINE
  5
3046
330
BF7
100
AcDbEntity
  8
1
100
AcDbLine
 10
33.75840999999998
 20
1.840621000000002
 30
0.0
 11
33.255873
 21
2.075151
 31
0.0
  0
LINE
  5
3047
330
BF7
100
AcDbEntity
  8
1
100
AcDbLine
 10
34.19080800000001
 20
1.641941000000002
 30
0.0
 11
33.75840999999998
 21
1.840621000000002
 31
0.0
  0
LINE
  5
3048
330
BF7
100
AcDbEntity
  8
1
100
AcDbLine
 10
34.62430900000001
 20
1.445774999999996
 30
0.0
 11
34.19080800000001
 21
1.641941000000002
 31
0.0
  0
LINE
  5
3049
330
BF7
100
AcDbEntity
  8
1
100
AcDbLine
 10
34.987223
 20
1.284183999999998
 30
0.0
 11
34.62430900000001
 21
1.445774999999996
 31
0.0
  0
LINE
  5
304A
330
BF7
100
AcDbEntity
  8
1
100
AcDbLine
 10
35.35099699999999
 20
1.124593999999998
 30
0.0
 11
34.987223
 21
1.284183999999998
 31
0.0
  0
LINE
  5
304B
330
BF7
100
AcDbEntity
  8
1
100
AcDbLine
 10
35.64348100000001
 20
0.9979520000000016
 30
0.0
 11
35.35099699999999
 21
1.124593999999998
 31
0.0
  0
LINE
  5
304C
330
BF7
100
AcDbEntity
  8
1
100
AcDbLine
 10
35.93648599999999
 20
0.872581
 30
0.0
 11
35.64348100000001
 21
0.9979520000000016
 31
0.0
  0
LINE
  5
304D
330
BF7
100
AcDbEntity
  8
1
100
AcDbLine
 10
36.15768200000001
 20
0.7789489999999974
 30
0.0
 11
35.93648599999999
 21
0.872581
 31
0.0
  0
LINE
  5
304E
330
BF7
100
AcDbEntity
  8
1
100
AcDbLine
 10
36.37916799999999
 20
0.6860549999999961
 30
0.0
 11
36.15768200000001
 21
0.7789489999999974
 31
0.0
  0
LINE
  5
304F
330
BF7
100
AcDbEntity
  8
1
100
AcDbLine
 10
36.52838300000001
 20
0.6239590000000029
 30
0.0
 11
36.37916799999999
 21
0.6860549999999961
 31
0.0
  0
LINE
  5
3050
330
BF7
100
AcDbEntity
  8
1
100
AcDbLine
 10
36.67774399999999
 20
0.5622009999999982
 30
0.0
 11
36.52838300000001
 21
0.6239590000000029
 31
0.0
  0
LINE
  5
3051
330
BF7
100
AcDbEntity
  8
1
100
AcDbLine
 10
36.80754499999999
 20
0.508849999999999
 30
0.0
 11
36.67774399999999
 21
0.5622009999999982
 31
0.0
  0
LINE
  5
3052
330
BF7
100
AcDbEntity
  8
1
100
AcDbLine
 10
36.93744299999999
 20
0.4557520000000004
 30
0.0
 11
36.80754499999999
 21
0.508849999999999
 31
0.0
  0
LINE
  5
3053
330
BF7
100
AcDbEntity
  8
1
100
AcDbLine
 10
37.13881099999999
 20
0.3740379999999988
 30
0.0
 11
36.93744299999999
 21
0.4557520000000004
 31
0.0
  0
LINE
  5
3054
330
BF7
100
AcDbEntity
  8
1
100
AcDbLine
 10
37.34042200000001
 20
0.2929410000000025
 30
0.0
 11
37.13881099999999
 21
0.3740379999999988
 31
0.0
  0
LINE
  5
3055
330
BF7
100
AcDbEntity
  8
1
100
AcDbLine
 10
37.61551399999999
 20
0.1834489999999995
 30
0.0
 11
37.34042200000001
 21
0.2929410000000025
 31
0.0
  0
LINE
  5
3056
330
BF7
100
AcDbEntity
  8
1
100
AcDbLine
 10
37.89104299999998
 20
0.0751220000000004
 30
0.0
 11
37.61551399999999
 21
0.1834489999999995
 31
0.0
  0
LINE
  5
3057
330
BF7
100
AcDbEntity
  8
1
100
AcDbLine
 10
38.24069400000001
 20
-0.0604109999999985
 30
0.0
 11
37.89104299999998
 21
0.0751220000000004
 31
0.0
  0
LINE
  5
3058
330
BF7
100
AcDbEntity
  8
1
100
AcDbLine
 10
38.59104799999999
 20
-0.1940419999999996
 30
0.0
 11
38.24069400000001
 21
-0.0604109999999985
 31
0.0
  0
LINE
  5
3059
330
BF7
100
AcDbEntity
  8
1
100
AcDbLine
 10
39.016374
 20
-0.3533429999999988
 30
0.0
 11
38.59104799999999
 21
-0.1940419999999996
 31
0.0
  0
LINE
  5
305A
330
BF7
100
AcDbEntity
  8
1
100
AcDbLine
 10
39.44274
 20
-0.509834999999999
 30
0.0
 11
39.016374
 21
-0.3533429999999988
 31
0.0
  0
LINE
  5
305B
330
BF7
100
AcDbEntity
  8
1
100
AcDbLine
 10
22.76858899999999
 20
5.089907999999996
 30
0.0
 11
14.354192
 21
5.089907999999996
 31
0.0
  0
LINE
  5
305C
330
BF7
100
AcDbEntity
  8
1
100
AcDbLine
 10
79.77997000000002
 20
5.089904999999998
 30
0.0
 11
71.43279299999997
 21
5.089904999999998
 31
0.0
  0
LINE
  5
305D
330
BF7
100
AcDbEntity
  8
1
100
AcDbLine
 10
136.780317
 20
5.089914000000002
 30
0.0
 11
128.5150269999999
 21
5.089914000000002
 31
0.0
  0
LINE
  5
305E
330
BF7
100
AcDbEntity
  8
1
100
AcDbLine
 10
159.933943
 20
-5.089910999999999
 30
0.0
 11
165.279982
 21
-5.089910999999999
 31
0.0
  0
LINE
  5
305F
330
BF7
100
AcDbEntity
  8
1
100
AcDbLine
 10
154.587878
 20
-5.089910999999999
 30
0.0
 11
159.933943
 21
-5.089910999999999
 31
0.0
  0
LINE
  5
3060
330
BF7
100
AcDbEntity
  8
1
100
AcDbLine
 10
102.933668
 20
-5.0899
 30
0.0
 11
108.279659
 21
-5.0899
 31
0.0
  0
LINE
  5
3061
330
BF7
100
AcDbEntity
  8
1
100
AcDbLine
 10
97.587676
 20
-5.0899
 30
0.0
 11
102.933668
 21
-5.0899
 31
0.0
  0
LINE
  5
3062
330
BF7
100
AcDbEntity
  8
1
100
AcDbLine
 10
45.93338100000001
 20
-5.089909000000001
 30
0.0
 11
51.27938400000001
 21
-5.089909000000001
 31
0.0
  0
LINE
  5
3063
330
BF7
100
AcDbEntity
  8
1
100
AcDbLine
 10
40.58736499999999
 20
-5.089909000000001
 30
0.0
 11
45.93338100000001
 21
-5.089909000000001
 31
0.0
  0
LINE
  5
3064
330
BF7
100
AcDbEntity
  8
1
100
AcDbLine
 10
51.27938400000001
 20
5.089910999999997
 30
0.0
 11
42.99090099999999
 21
5.089910999999997
 31
0.0
  0
LINE
  5
3065
330
BF7
100
AcDbEntity
  8
1
100
AcDbLine
 10
108.279659
 20
5.089898999999999
 30
0.0
 11
99.95561599999998
 21
5.089898999999999
 31
0.0
  0
LINE
  5
3066
330
BF7
100
AcDbEntity
  8
1
100
AcDbLine
 10
165.279982
 20
5.089910999999997
 30
0.0
 11
157.006142
 21
5.089910999999997
 31
0.0
  0
LINE
  5
3067
330
BF7
100
AcDbEntity
  8
1
100
AcDbLine
 10
131.434302
 20
-5.089912
 30
0.0
 11
136.780317
 21
-5.089912
 31
0.0
  0
LINE
  5
3068
330
BF7
100
AcDbEntity
  8
1
100
AcDbLine
 10
126.088262
 20
-5.089912
 30
0.0
 11
131.434302
 21
-5.089912
 31
0.0
  0
LINE
  5
3069
330
BF7
100
AcDbEntity
  8
1
100
AcDbLine
 10
74.43393000000002
 20
-5.089905
 30
0.0
 11
79.77997000000002
 21
-5.089905
 31
0.0
  0
LINE
  5
306A
330
BF7
100
AcDbEntity
  8
1
100
AcDbLine
 10
69.08789
 20
-5.089905
 30
0.0
 11
74.43393000000002
 21
-5.089905
 31
0.0
  0
LINE
  5
306B
330
BF7
100
AcDbEntity
  8
1
100
AcDbLine
 10
17.42208899999998
 20
-5.089909000000001
 30
0.0
 11
22.76858899999999
 21
-5.089909000000001
 31
0.0
  0
LINE
  5
306C
330
BF7
100
AcDbEntity
  8
1
100
AcDbLine
 10
12.07558900000001
 20
-5.089909000000001
 30
0.0
 11
17.42208899999998
 21
-5.089909000000001
 31
0.0
  0
LINE
  5
306D
330
BF7
100
AcDbEntity
  8
SK1
100
AcDbLine
 10
-45.00000299999999
 20
-5.25
 30
0.0
 11
-43.700963
 21
-5.999998999999997
 31
0.0
  0
LINE
  5
306E
330
BF7
100
AcDbEntity
  8
1
100
AcDbLine
 10
0.4999990000000027
 20
-5.357813
 30
0.0
 11
11.64459499999999
 21
-5.357813
 31
0.0
  0
LINE
  5
306F
330
BF7
100
AcDbEntity
  8
1
100
AcDbLine
 10
39.00863400000002
 20
-5.357813
 30
0.0
 11
40.14501099999999
 21
-5.357813
 31
0.0
  0
LINE
  5
3070
330
BF7
100
AcDbEntity
  8
1
100
AcDbLine
 10
67.50820199999999
 20
-5.357813
 30
0.0
 11
68.64518499999999
 21
-5.357813
 31
0.0
  0
LINE
  5
3071
330
BF7
100
AcDbEntity
  8
1
100
AcDbLine
 10
96.00870300000003
 20
-5.357813
 30
0.0
 11
97.14522500000001
 21
-5.357813
 31
0.0
  0
LINE
  5
3072
330
BF7
100
AcDbEntity
  8
1
100
AcDbLine
 10
124.508586
 20
-5.357813
 30
0.0
 11
125.64483
 21
-5.357813
 31
0.0
  0
LINE
  5
3073
330
BF7
100
AcDbEntity
  8
1
100
AcDbLine
 10
153.008663
 20
-5.357813
 30
0.0
 11
154.144616
 21
-5.357813
 31
0.0
  0
LINE
  5
3074
330
BF7
100
AcDbEntity
  8
1
100
AcDbLine
 10
154.144616
 20
5.357811999999999
 30
0.0
 11
153.008663
 21
5.357811999999999
 31
0.0
  0
LINE
  5
3075
330
BF7
100
AcDbEntity
  8
1
100
AcDbLine
 10
125.64483
 20
5.357811999999999
 30
0.0
 11
124.508586
 21
5.357811999999999
 31
0.0
  0
LINE
  5
3076
330
BF7
100
AcDbEntity
  8
1
100
AcDbLine
 10
97.14522500000001
 20
5.357811999999999
 30
0.0
 11
96.00870300000003
 21
5.357811999999999
 31
0.0
  0
LINE
  5
3077
330
BF7
100
AcDbEntity
  8
1
100
AcDbLine
 10
68.64518499999999
 20
5.357811999999999
 30
0.0
 11
67.50820199999999
 21
5.357811999999999
 31
0.0
  0
LINE
  5
3078
330
BF7
100
AcDbEntity
  8
1
100
AcDbLine
 10
40.14501099999999
 20
5.357811999999999
 30
0.0
 11
39.00863400000002
 21
5.357811999999999
 31
0.0
  0
LINE
  5
3079
330
BF7
100
AcDbEntity
  8
1
100
AcDbLine
 10
11.64459499999999
 20
5.357811999999999
 30
0.0
 11
0.4999990000000027
 21
5.357811999999999
 31
0.0
  0
LINE
  5
307A
330
BF7
100
AcDbEntity
  8
SK1
100
AcDbLine
 10
-43.700963
 20
5.999998999999997
 30
0.0
 11
-45.00000299999999
 21
5.249999999999995
 31
0.0
  0
LINE
  5
307B
330
BF7
100
AcDbEntity
  8
SK1
100
AcDbLine
 10
0.0
 20
5.999998999999997
 30
0.0
 11
-43.700963
 21
5.999998999999997
 31
0.0
  0
LINE
  5
307C
330
BF7
100
AcDbEntity
  8
SK1
100
AcDbLine
 10
-43.700963
 20
-5.999998999999997
 30
0.0
 11
0.0
 21
-5.999998999999997
 31
0.0
  0
LINE
  5
307D
330
BF7
100
AcDbEntity
  8
SK4
100
AcDbLine
 10
189.9096495148389
 20
0.0
 30
0.0
 11
-51.48956041301858
 21
0.0000000000000063
 31
0.0
  0
LINE
  5
307E
330
BF7
100
AcDbEntity
  8
1
100
AcDbLine
 10
-0.0000009906281058
 20
5.857810999999993
 30
0.0
 11
-0.0000009906281058
 21
-5.857813
 31
0.0
  0
DIMENSION
  5
307F
330
BF7
100
AcDbEntity
  8
SK2
100
AcDbDimension
  2
*D2
 10
52.92123999999998
 20
15.95148424293404
 30
0.0
 11
117.21499
 21
19.75148424293404
 31
0.0
 70
    32
 71
     5
 42
128.5875
  3
SANDVIK_DIM
100
AcDbAlignedDimension
 13
181.50874
 23
5.357811999999999
 33
0.0
 14
52.92123999999998
 24
5.357812000000015
 34
0.0
100
AcDbRotatedDimension
1001
ACAD
1000
DSTYLE
1002
{
1070
    40
1040
1.0
1002
}
  0
DIMENSION
  5
308C
330
BF7
100
AcDbEntity
  8
2
100
AcDbDimension
  2
*D3
 10
189.9096495148389
 20
-5.357813000000001
 30
0.0
 11
189.7532946665426
 21
-25.22452074785747
 31
0.0
 70
   160
  1
%%c <>
 71
     5
 42
10.715625
  3
SANDVIK_DIM
100
AcDbAlignedDimension
 13
181.50874
 23
5.357811999999999
 33
0.0
 14
181.50874
 24
-5.357813
 34
0.0
 50
90.0
100
AcDbRotatedDimension
1001
ACAD
1000
DSTYLE
1002
{
1070
    40
1040
1.0
1002
}
  0
DIMENSION
  5
309A
330
BF7
100
AcDbEntity
  8
SK2
100
AcDbDimension
  2
*D4
 10
-51.48956041301858
 20
-5.999998999999996
 30
0.0
 11
-51.39408805328855
 21
-22.34902968425365
 31
0.0
 70
   160
  1
%%c <>
 71
     5
 42
11.999998
  3
SANDVIK_DIM
100
AcDbAlignedDimension
 13
-43.700963
 23
5.999998999999997
 33
0.0
 14
-43.700963
 24
-5.999998999999997
 34
0.0
 50
90.0
100
AcDbRotatedDimension
1001
ACAD
1000
DSTYLE
1002
{
1070
    40
1040
1.0
1002
}
  0
DIMENSION
  5
30A8
330
BF7
100
AcDbEntity
  8
2
100
AcDbDimension
  2
*D5
 10
6.998863999999996
 20
-17.76442049579003
 30
0.0
 11
94.99940799999995
 21
-13.96442049579003
 31
0.0
 70
    32
 71
     5
 42
176.0010879999999
  3
SANDVIK_DIM
100
AcDbAlignedDimension
 13
182.9999519999999
 23
0.000001000000001
 33
0.0
 14
6.998863999999997
 24
2.801708999999998
 34
0.0
100
AcDbRotatedDimension
1001
ACAD
1000
DSTYLE
1002
{
1070
    40
1040
1.0
1002
}
  0
DIMENSION
  5
30B5
330
BF7
100
AcDbEntity
  8
2
100
AcDbDimension
  2
*D6
 10
-0.0000000000000012
 20
-25.66553940983806
 30
0.0
 11
91.49997599999997
 21
-21.86553940983806
 31
0.0
 70
    32
 71
     5
 42
182.9999519999999
  3
SANDVIK_DIM
100
AcDbAlignedDimension
 13
182.9999519999999
 23
0.000001000000001
 33
0.0
 14
0.0
 24
-5.999998999999997
 34
0.0
100
AcDbRotatedDimension
1001
ACAD
1000
DSTYLE
1002
{
1070
    40
1040
1.0
1002
}
  0
DIMENSION
  5
30C2
330
BF7
100
AcDbEntity
  8
SK2
100
AcDbDimension
  2
*D7
 10
-0.0000000000000012
 20
-25.66553940983806
 30
0.0
 11
-22.5000015
 21
-21.86553940983806
 31
0.0
 70
    32
 71
     5
 42
45.00000299999999
  3
SANDVIK_DIM
100
AcDbAlignedDimension
 13
-45.00000299999999
 23
-5.25
 33
0.0
 14
0.0
 24
-5.999998999999997
 34
0.0
100
AcDbRotatedDimension
1001
ACAD
1000
DSTYLE
1002
{
1070
    40
1040
1.0
1002
}
  0
DIMENSION
  5
30CF
330
BF7
100
AcDbEntity
  8
SK2
100
AcDbDimension
  2
*D8
 10
182.9999519999999
 20
-37.21848697088967
 30
0.0
 11
68.99997449999998
 21
-33.41848697088968
 31
0.0
 70
    32
 71
     5
 42
227.9999549999999
  3
SANDVIK_DIM
100
AcDbAlignedDimension
 13
-45.00000299999999
 23
-5.25
 33
0.0
 14
182.9999519999999
 24
0.000001000000001
 34
0.0
100
AcDbRotatedDimension
1001
ACAD
1000
DSTYLE
1002
{
1070
    40
1040
1.0
1002
}
  0
ENDSEC
  0
SECTION
  2
OBJECTS
  0
DICTIONARY
  5
BE3
330
0
100
AcDbDictionary
281
     1
  3
ACAD_CIP_PREVIOUS_PRODUCT_INFO
350
3171
  3
ACAD_COLOR
350
BF2
  3
ACAD_DETAILVIEWSTYLE
350
316E
  3
ACAD_GROUP
350
BE4
  3
ACAD_LAYOUT
350
BF0
  3
ACAD_MATERIAL
350
BF1
  3
ACAD_MLEADERSTYLE
350
3169
  3
ACAD_MLINESTYLE
350
BED
  3
ACAD_PLOTSETTINGS
350
BEF
  3
ACAD_PLOTSTYLENAME
350
BE5
  3
ACAD_SCALELIST
350
3157
  3
ACAD_SECTIONVIEWSTYLE
350
316B
  3
ACAD_TABLESTYLE
350
3155
  3
ACAD_VISUALSTYLE
350
313C
  3
ACDB_RECOMPOSE_DATA
350
31D3
  3
AcDbVariableDictionary
350
31C6
  3
ASE_INDEX_DICTIONARY
350
31C3
  3
DWGPROPS
350
31D4
  0
DICTIONARY
  5
3174
330
BE7
100
AcDbDictionary
280
     1
281
     1
  3
ADSK_XREC_LAYER_RECONCILED
360
3175
  0
DICTIONARY
  5
3176
330
BFB
100
AcDbDictionary
280
     1
281
     1
  3
ADSK_XREC_LAYER_RECONCILED
360
3177
  0
DICTIONARY
  5
3178
330
C00
100
AcDbDictionary
280
     1
281
     1
  3
ADSK_XREC_LAYER_RECONCILED
360
3179
  0
DICTIONARY
  5
317A
330
C01
100
AcDbDictionary
280
     1
281
     1
  3
ADSK_XREC_LAYER_RECONCILED
360
317B
  0
DICTIONARY
  5
317C
330
C02
100
AcDbDictionary
280
     1
281
     1
  3
ADSK_XREC_LAYER_RECONCILED
360
317D
  0
DICTIONARY
  5
317E
330
C03
100
AcDbDictionary
280
     1
281
     1
  3
ADSK_XREC_LAYER_RECONCILED
360
317F
  0
DICTIONARY
  5
3180
330
C04
100
AcDbDictionary
280
     1
281
     1
  3
ADSK_XREC_LAYER_RECONCILED
360
3181
  0
DICTIONARY
  5
3182
330
C05
100
AcDbDictionary
280
     1
281
     1
  3
ADSK_XREC_LAYER_RECONCILED
360
3183
  0
DICTIONARY
  5
3184
330
C06
100
AcDbDictionary
280
     1
281
     1
  3
ADSK_XREC_LAYER_RECONCILED
360
3185
  0
DICTIONARY
  5
3186
330
C07
100
AcDbDictionary
280
     1
281
     1
  3
ADSK_XREC_LAYER_RECONCILED
360
3187
  0
DICTIONARY
  5
3188
330
C08
100
AcDbDictionary
280
     1
281
     1
  3
ADSK_XREC_LAYER_RECONCILED
360
3189
  0
DICTIONARY
  5
318A
330
C09
100
AcDbDictionary
280
     1
281
     1
  3
ADSK_XREC_LAYER_RECONCILED
360
318B
  0
DICTIONARY
  5
318C
330
C0A
100
AcDbDictionary
280
     1
281
     1
  3
ADSK_XREC_LAYER_RECONCILED
360
318D
  0
DICTIONARY
  5
318E
330
C0B
100
AcDbDictionary
280
     1
281
     1
  3
ADSK_XREC_LAYER_RECONCILED
360
318F
  0
DICTIONARY
  5
3190
330
C0C
100
AcDbDictionary
280
     1
281
     1
  3
ADSK_XREC_LAYER_RECONCILED
360
3191
  0
DICTIONARY
  5
3192
330
C0D
100
AcDbDictionary
280
     1
281
     1
  3
ADSK_XREC_LAYER_RECONCILED
360
3193
  0
DICTIONARY
  5
3194
330
C0E
100
AcDbDictionary
280
     1
281
     1
  3
ADSK_XREC_LAYER_RECONCILED
360
3195
  0
DICTIONARY
  5
3196
330
C0F
100
AcDbDictionary
280
     1
281
     1
  3
ADSK_XREC_LAYER_RECONCILED
360
3197
  0
DICTIONARY
  5
3198
330
C10
100
AcDbDictionary
280
     1
281
     1
  3
ADSK_XREC_LAYER_RECONCILED
360
3199
  0
DICTIONARY
  5
319A
330
C11
100
AcDbDictionary
280
     1
281
     1
  3
ADSK_XREC_LAYER_RECONCILED
360
319B
  0
DICTIONARY
  5
319C
330
C12
100
AcDbDictionary
280
     1
281
     1
  3
ADSK_XREC_LAYER_RECONCILED
360
319D
  0
DICTIONARY
  5
319E
330
C13
100
AcDbDictionary
280
     1
281
     1
  3
ADSK_XREC_LAYER_RECONCILED
360
319F
  0
DICTIONARY
  5
31A0
330
C14
100
AcDbDictionary
280
     1
281
     1
  3
ADSK_XREC_LAYER_RECONCILED
360
31A1
  0
DICTIONARY
  5
31A2
330
C15
100
AcDbDictionary
280
     1
281
     1
  3
ADSK_XREC_LAYER_RECONCILED
360
31A3
  0
DICTIONARY
  5
31A4
330
C16
100
AcDbDictionary
280
     1
281
     1
  3
ADSK_XREC_LAYER_RECONCILED
360
31A5
  0
DICTIONARY
  5
31A6
330
C17
100
AcDbDictionary
280
     1
281
     1
  3
ADSK_XREC_LAYER_RECONCILED
360
31A7
  0
DICTIONARY
  5
31A8
330
C18
100
AcDbDictionary
280
     1
281
     1
  3
ADSK_XREC_LAYER_RECONCILED
360
31A9
  0
DICTIONARY
  5
31AA
330
C19
100
AcDbDictionary
280
     1
281
     1
  3
ADSK_XREC_LAYER_RECONCILED
360
31AB
  0
DICTIONARY
  5
31AC
330
C1A
100
AcDbDictionary
280
     1
281
     1
  3
ADSK_XREC_LAYER_RECONCILED
360
31AD
  0
DICTIONARY
  5
31AE
330
C1B
100
AcDbDictionary
280
     1
281
     1
  3
ADSK_XREC_LAYER_RECONCILED
360
31AF
  0
DICTIONARY
  5
31B0
330
C1C
100
AcDbDictionary
280
     1
281
     1
  3
ADSK_XREC_LAYER_RECONCILED
360
31B1
  0
DICTIONARY
  5
31B2
330
C1D
100
AcDbDictionary
280
     1
281
     1
  3
ADSK_XREC_LAYER_RECONCILED
360
31B3
  0
DICTIONARY
  5
31B4
330
C1E
100
AcDbDictionary
280
     1
281
     1
  3
ADSK_XREC_LAYER_RECONCILED
360
31B5
  0
DICTIONARY
  5
31B6
330
C1F
100
AcDbDictionary
280
     1
281
     1
  3
ADSK_XREC_LAYER_RECONCILED
360
31B7
  0
DICTIONARY
  5
31B8
330
C20
100
AcDbDictionary
280
     1
281
     1
  3
ADSK_XREC_LAYER_RECONCILED
360
31B9
  0
DICTIONARY
  5
31BA
330
C21
100
AcDbDictionary
280
     1
281
     1
  3
ADSK_XREC_LAYER_RECONCILED
360
31BB
  0
DICTIONARY
  5
31BC
330
C22
100
AcDbDictionary
280
     1
281
     1
  3
ADSK_XREC_LAYER_RECONCILED
360
31BD
  0
DICTIONARY
  5
31BE
330
C23
100
AcDbDictionary
280
     1
281
     1
  3
ADSK_XREC_LAYER_RECONCILED
360
31BF
  0
DICTIONARY
  5
31C0
330
C42
100
AcDbDictionary
280
     1
281
     1
  3
ADSK_XREC_LAYER_RECONCILED
360
31C1
  0
XRECORD
  5
3171
102
{ACAD_REACTORS
330
BE3
102
}
330
BE3
100
AcDbXrecord
280
     1
300
AMECH_PP
300
2013
300
PDSU_F_S
  0
DICTIONARY
  5
BF2
102
{ACAD_REACTORS
330
BE3
102
}
330
BE3
100
AcDbDictionary
281
     1
  0
DICTIONARY
  5
316E
102
{ACAD_REACTORS
330
BE3
102
}
330
BE3
100
AcDbDictionary
281
     1
  3
Imperial24
350
316F
  0
DICTIONARY
  5
BE4
102
{ACAD_REACTORS
330
BE3
102
}
330
BE3
100
AcDbDictionary
281
     1
  0
DICTIONARY
  5
BF0
102
{ACAD_REACTORS
330
BE3
102
}
330
BE3
100
AcDbDictionary
281
     1
  3
Layout1
350
BF6
  3
Model
350
BFA
  0
DICTIONARY
  5
BF1
102
{ACAD_REACTORS
330
BE3
102
}
330
BE3
100
AcDbDictionary
281
     1
  3
ByBlock
350
312C
  3
ByLayer
350
3124
  3
Global
350
3134
  0
DICTIONARY
  5
3169
102
{ACAD_REACTORS
330
BE3
102
}
330
BE3
100
AcDbDictionary
281
     1
  3
Standard
350
316A
  0
DICTIONARY
  5
BED
102
{ACAD_REACTORS
330
BE3
102
}
330
BE3
100
AcDbDictionary
281
     1
  3
Standard
350
BEE
  0
DICTIONARY
  5
BEF
102
{ACAD_REACTORS
330
BE3
102
}
330
BE3
100
AcDbDictionary
281
     1
  0
ACDBDICTIONARYWDFLT
  5
BE5
102
{ACAD_REACTORS
330
BE3
102
}
330
BE3
100
AcDbDictionary
281
     1
  3
Normal
350
BE6
100
AcDbDictionaryWithDefault
340
BE6
  0
DICTIONARY
  5
3157
102
{ACAD_REACTORS
330
BE3
102
}
330
BE3
100
AcDbDictionary
281
     1
  3
A0
350
3158
  3
A1
350
3159
  3
A2
350
315A
  3
A3
350
315B
  3
A4
350
315C
  3
A5
350
315D
  3
A6
350
315E
  3
A7
350
315F
  3
A8
350
3160
  3
A9
350
3161
  3
B0
350
3162
  3
B1
350
3163
  3
B2
350
3164
  3
B3
350
3165
  3
B4
350
3166
  3
B5
350
3167
  3
B6
350
3168
  0
DICTIONARY
  5
316B
102
{ACAD_REACTORS
330
BE3
102
}
330
BE3
100
AcDbDictionary
281
     1
  3
Imperial24
350
316D
  0
DICTIONARY
  5
3155
102
{ACAD_REACTORS
330
BE3
102
}
330
BE3
100
AcDbDictionary
281
     1
  3
Standard
350
3156
  0
DICTIONARY
  5
313C
102
{ACAD_REACTORS
330
BE3
102
}
330
BE3
100
AcDbDictionary
281
     1
  3
2dWireframe
350
3142
  3
Basic
350
3141
  3
Brighten
350
3148
  3
ColorChange
350
314C
  3
Conceptual
350
3145
  3
Dim
350
3147
  3
EdgeColorOff
350
3154
  3
Facepattern
350
314B
  3
Flat
350
313D
  3
FlatWithEdges
350
313E
  3
Gouraud
350
313F
  3
GouraudWithEdges
350
3140
  3
Hidden
350
3144
  3
JitterOff
350
3152
  3
Linepattern
350
314A
  3
OverhangOff
350
3153
  3
Realistic
350
3146
  3
Shaded
350
3151
  3
Shaded with edges
350
3150
  3
Shades of Gray
350
314D
  3
Sketchy
350
314E
  3
Thicken
350
3149
  3
Wireframe
350
3143
  3
X-Ray
350
314F
  0
XRECORD
  5
31D3
102
{ACAD_REACTORS
330
BE3
102
}
330
BE3
100
AcDbXrecord
280
     1
 90
        1
330
3156
  0
DICTIONARY
  5
31C6
102
{ACAD_REACTORS
330
BE3
102
}
330
BE3
100
AcDbDictionary
281
     1
  3
CANNOSCALE
350
31CB
  3
CMLEADERSTYLE
350
31C8
  3
CTABLESTYLE
350
31C7
  3
CVIEWDETAILSTYLE
350
31C9
  3
CVIEWSECTIONSTYLE
350
31CA
  3
DIMASSOC
350
31CF
  3
INDEXCTL
350
31CD
  3
SORTENTS
350
31CC
  3
XCLIPFRAME
350
31CE
  0
DICTIONARY
  5
31C3
102
{ACAD_REACTORS
330
BE3
102
}
330
BE3
100
AcDbDictionary
281
     1
  3
ASEBlockHierarchyIndexRecord
350
31C5
1001
DCO15
1040
1815724060.357
  0
XRECORD
  5
31D4
102
{ACAD_REACTORS
330
BE3
102
}
330
BE3
100
AcDbXrecord
280
     1
  1
DWGPROPS COOKIE
  2

  3

  4

  6

  7

  8
Micke
  9

300
=
301
=
302
=
303
=
304
=
305
=
306
=
307
=
308
=
309
=
 40
0.0907836921296296
 41
2455817.64629206
 42
2456818.536624502
  1

 90
        0
  0
XRECORD
  5
3175
102
{ACAD_REACTORS
330
3174
102
}
330
3174
100
AcDbXrecord
280
     1
290
     1
  0
XRECORD
  5
3177
102
{ACAD_REACTORS
330
3176
102
}
330
3176
100
AcDbXrecord
280
     1
290
     1
  0
XRECORD
  5
3179
102
{ACAD_REACTORS
330
3178
102
}
330
3178
100
AcDbXrecord
280
     1
290
     1
  0
XRECORD
  5
317B
102
{ACAD_REACTORS
330
317A
102
}
330
317A
100
AcDbXrecord
280
     1
290
     1
  0
XRECORD
  5
317D
102
{ACAD_REACTORS
330
317C
102
}
330
317C
100
AcDbXrecord
280
     1
290
     1
  0
XRECORD
  5
317F
102
{ACAD_REACTORS
330
317E
102
}
330
317E
100
AcDbXrecord
280
     1
290
     1
  0
XRECORD
  5
3181
102
{ACAD_REACTORS
330
3180
102
}
330
3180
100
AcDbXrecord
280
     1
290
     1
  0
XRECORD
  5
3183
102
{ACAD_REACTORS
330
3182
102
}
330
3182
100
AcDbXrecord
280
     1
290
     1
  0
XRECORD
  5
3185
102
{ACAD_REACTORS
330
3184
102
}
330
3184
100
AcDbXrecord
280
     1
290
     1
  0
XRECORD
  5
3187
102
{ACAD_REACTORS
330
3186
102
}
330
3186
100
AcDbXrecord
280
     1
290
     1
  0
XRECORD
  5
3189
102
{ACAD_REACTORS
330
3188
102
}
330
3188
100
AcDbXrecord
280
     1
290
     1
  0
XRECORD
  5
318B
102
{ACAD_REACTORS
330
318A
102
}
330
318A
100
AcDbXrecord
280
     1
290
     1
  0
XRECORD
  5
318D
102
{ACAD_REACTORS
330
318C
102
}
330
318C
100
AcDbXrecord
280
     1
290
     1
  0
XRECORD
  5
318F
102
{ACAD_REACTORS
330
318E
102
}
330
318E
100
AcDbXrecord
280
     1
290
     1
  0
XRECORD
  5
3191
102
{ACAD_REACTORS
330
3190
102
}
330
3190
100
AcDbXrecord
280
     1
290
     1
  0
XRECORD
  5
3193
102
{ACAD_REACTORS
330
3192
102
}
330
3192
100
AcDbXrecord
280
     1
290
     1
  0
XRECORD
  5
3195
102
{ACAD_REACTORS
330
3194
102
}
330
3194
100
AcDbXrecord
280
     1
290
     1
  0
XRECORD
  5
3197
102
{ACAD_REACTORS
330
3196
102
}
330
3196
100
AcDbXrecord
280
     1
290
     1
  0
XRECORD
  5
3199
102
{ACAD_REACTORS
330
3198
102
}
330
3198
100
AcDbXrecord
280
     1
290
     1
  0
XRECORD
  5
319B
102
{ACAD_REACTORS
330
319A
102
}
330
319A
100
AcDbXrecord
280
     1
290
     1
  0
XRECORD
  5
319D
102
{ACAD_REACTORS
330
319C
102
}
330
319C
100
AcDbXrecord
280
     1
290
     1
  0
XRECORD
  5
319F
102
{ACAD_REACTORS
330
319E
102
}
330
319E
100
AcDbXrecord
280
     1
290
     1
  0
XRECORD
  5
31A1
102
{ACAD_REACTORS
330
31A0
102
}
330
31A0
100
AcDbXrecord
280
     1
290
     1
  0
XRECORD
  5
31A3
102
{ACAD_REACTORS
330
31A2
102
}
330
31A2
100
AcDbXrecord
280
     1
290
     1
  0
XRECORD
  5
31A5
102
{ACAD_REACTORS
330
31A4
102
}
330
31A4
100
AcDbXrecord
280
     1
290
     1
  0
XRECORD
  5
31A7
102
{ACAD_REACTORS
330
31A6
102
}
330
31A6
100
AcDbXrecord
280
     1
290
     1
  0
XRECORD
  5
31A9
102
{ACAD_REACTORS
330
31A8
102
}
330
31A8
100
AcDbXrecord
280
     1
290
     1
  0
XRECORD
  5
31AB
102
{ACAD_REACTORS
330
31AA
102
}
330
31AA
100
AcDbXrecord
280
     1
290
     1
  0
XRECORD
  5
31AD
102
{ACAD_REACTORS
330
31AC
102
}
330
31AC
100
AcDbXrecord
280
     1
290
     1
  0
XRECORD
  5
31AF
102
{ACAD_REACTORS
330
31AE
102
}
330
31AE
100
AcDbXrecord
280
     1
290
     1
  0
XRECORD
  5
31B1
102
{ACAD_REACTORS
330
31B0
102
}
330
31B0
100
AcDbXrecord
280
     1
290
     1
  0
XRECORD
  5
31B3
102
{ACAD_REACTORS
330
31B2
102
}
330
31B2
100
AcDbXrecord
280
     1
290
     1
  0
XRECORD
  5
31B5
102
{ACAD_REACTORS
330
31B4
102
}
330
31B4
100
AcDbXrecord
280
     1
290
     1
  0
XRECORD
  5
31B7
102
{ACAD_REACTORS
330
31B6
102
}
330
31B6
100
AcDbXrecord
280
     1
290
     1
  0
XRECORD
  5
31B9
102
{ACAD_REACTORS
330
31B8
102
}
330
31B8
100
AcDbXrecord
280
     1
290
     1
  0
XRECORD
  5
31BB
102
{ACAD_REACTORS
330
31BA
102
}
330
31BA
100
AcDbXrecord
280
     1
290
     1
  0
XRECORD
  5
31BD
102
{ACAD_REACTORS
330
31BC
102
}
330
31BC
100
AcDbXrecord
280
     1
290
     1
  0
XRECORD
  5
31BF
102
{ACAD_REACTORS
330
31BE
102
}
330
31BE
100
AcDbXrecord
280
     1
290
     1
  0
XRECORD
  5
31C1
102
{ACAD_REACTORS
330
31C0
102
}
330
31C0
100
AcDbXrecord
280
     1
290
     1
  0
ACDBDETAILVIEWSTYLE
  5
316F
102
{ACAD_REACTORS
330
316E
102
}
330
316E
100
AcDbModelDocViewStyle
 70
     0
  3
Imperial24
290
     0
100
AcDbDetailViewStyle
 70
     0
 71
     0
 90
        3
 71
     1
340
BE8
 40
0.24
340
0
 40
0.24
300

 40
0.36
280
     3
 71
     2
340
BEC
 90
       25
 71
     3
340
BE8
 40
0.24
 90
        1
 40
0.75
 90
        1
300
%<\AcVar ViewType \f "%tc1">% %<\AcVar ViewDetailId>%\PSCALE %<\AcVar ViewScale \f "%sn">%
 71
     4
340
BEC
 90
       25
340
BEC
 90
       25
280
     0
  0
LAYOUT
  5
BF6
102
{ACAD_XDICTIONARY
360
31D5
102
}
102
{ACAD_REACTORS
330
BF0
102
}
330
BF0
100
AcDbPlotSettings
  1

  2
\\GBCFS501\GBCPR502
  4

  6

 40
0.0
 41
0.0
 42
0.0
 43
0.0
 44
0.0
 45
0.0
 46
0.0
 47
0.0
 48
0.0
 49
0.0
140
0.0
141
0.0
142
1.0
143
1.0
 70
   688
 72
     0
 73
     0
 74
     5
  7

 75
    16
147
1.0
148
0.0
149
0.0
100
AcDbLayout
  1
Layout1
 70
     1
 71
     1
 10
0.0
 20
0.0
 11
12.0
 21
9.0
 12
0.0
 22
0.0
 32
0.0
 14
1.000000000000000E+20
 24
1.000000000000000E+20
 34
1.000000000000000E+20
 15
-1.000000000000000E+20
 25
-1.000000000000000E+20
 35
-1.000000000000000E+20
146
0.0
 13
0.0
 23
0.0
 33
0.0
 16
1.0
 26
0.0
 36
0.0
 17
0.0
 27
1.0
 37
0.0
 76
     0
330
BF3
  0
LAYOUT
  5
BFA
102
{ACAD_XDICTIONARY
360
31D7
102
}
102
{ACAD_REACTORS
330
BF0
102
}
330
BF0
100
AcDbPlotSettings
  1

  2
\\GBCFS501\GBCPR502
  4

  6

 40
0.0
 41
0.0
 42
0.0
 43
0.0
 44
0.0
 45
0.0
 46
0.0
 47
0.0
 48
0.0
 49
0.0
140
0.0
141
0.0
142
1.0
143
1.0
 70
  1712
 72
     0
 73
     0
 74
     0
  7

 75
     0
147
1.0
148
0.0
149
0.0
100
AcDbLayout
  1
Model
 70
     1
 71
     0
 10
0.0
 20
0.0
 11
12.0
 21
9.0
 12
0.0
 22
0.0
 32
0.0
 14
0.0
 24
0.0
 34
0.0
 15
0.0
 25
0.0
 35
0.0
146
0.0
 13
0.0
 23
0.0
 33
0.0
 16
1.0
 26
0.0
 36
0.0
 17
0.0
 27
1.0
 37
0.0
 76
     0
330
BF7
331
3120
  0
MATERIAL
  5
312C
102
{ACAD_XDICTIONARY
360
312D
102
}
102
{ACAD_REACTORS
330
BF1
102
}
330
BF1
100
AcDbMaterial
  1
ByBlock
 72
     0
 43
0.0208333333333333
 43
0.0
 43
0.0
 43
0.0
 43
0.0
 43
0.0208333333333333
 43
0.0
 43
0.0
 43
0.0
 43
0.0
 43
1.0
 43
0.0
 43
0.0
 43
0.0
 43
0.0
 43
1.0
 77
     0
 47
0.0208333333333333
 47
0.0
 47
0.0
 47
0.0
 47
0.0
 47
0.0208333333333333
 47
0.0
 47
0.0
 47
0.0
 47
0.0
 47
1.0
 47
0.0
 47
0.0
 47
0.0
 47
0.0
 47
1.0
171
     0
 49
0.0208333333333333
 49
0.0
 49
0.0
 49
0.0
 49
0.0
 49
0.0208333333333333
 49
0.0
 49
0.0
 49
0.0
 49
0.0
 49
1.0
 49
0.0
 49
0.0
 49
0.0
 49
0.0
 49
1.0
175
     0
142
0.0208333333333333
142
0.0
142
0.0
142
0.0
142
0.0
142
0.0208333333333333
142
0.0
142
0.0
142
0.0
142
0.0
142
1.0
142
0.0
142
0.0
142
0.0
142
0.0
142
1.0
179
     0
144
0.0208333333333333
144
0.0
144
0.0
144
0.0
144
0.0
144
0.0208333333333333
144
0.0
144
0.0
144
0.0
144
0.0
144
1.0
144
0.0
144
0.0
144
0.0
144
0.0
144
1.0
147
0.0208333333333333
147
0.0
147
0.0
147
0.0
147
0.0
147
0.0208333333333333
147
0.0
147
0.0
147
0.0
147
0.0
147
1.0
147
0.0
147
0.0
147
0.0
147
0.0
147
1.0
  0
MATERIAL
  5
3124
102
{ACAD_XDICTIONARY
360
3125
102
}
102
{ACAD_REACTORS
330
BF1
102
}
330
BF1
100
AcDbMaterial
  1
ByLayer
 72
     0
 43
0.0208333333333333
 43
0.0
 43
0.0
 43
0.0
 43
0.0
 43
0.0208333333333333
 43
0.0
 43
0.0
 43
0.0
 43
0.0
 43
1.0
 43
0.0
 43
0.0
 43
0.0
 43
0.0
 43
1.0
 77
     0
 47
0.0208333333333333
 47
0.0
 47
0.0
 47
0.0
 47
0.0
 47
0.0208333333333333
 47
0.0
 47
0.0
 47
0.0
 47
0.0
 47
1.0
 47
0.0
 47
0.0
 47
0.0
 47
0.0
 47
1.0
171
     0
 49
0.0208333333333333
 49
0.0
 49
0.0
 49
0.0
 49
0.0
 49
0.0208333333333333
 49
0.0
 49
0.0
 49
0.0
 49
0.0
 49
1.0
 49
0.0
 49
0.0
 49
0.0
 49
0.0
 49
1.0
175
     0
142
0.0208333333333333
142
0.0
142
0.0
142
0.0
142
0.0
142
0.0208333333333333
142
0.0
142
0.0
142
0.0
142
0.0
142
1.0
142
0.0
142
0.0
142
0.0
142
0.0
142
1.0
179
     0
144
0.0208333333333333
144
0.0
144
0.0
144
0.0
144
0.0
144
0.0208333333333333
144
0.0
144
0.0
144
0.0
144
0.0
144
1.0
144
0.0
144
0.0
144
0.0
144
0.0
144
1.0
147
0.0208333333333333
147
0.0
147
0.0
147
0.0
147
0.0
147
0.0208333333333333
147
0.0
147
0.0
147
0.0
147
0.0
147
1.0
147
0.0
147
0.0
147
0.0
147
0.0
147
1.0
  0
MATERIAL
  5
3134
102
{ACAD_XDICTIONARY
360
3135
102
}
102
{ACAD_REACTORS
330
BF1
102
}
330
BF1
100
AcDbMaterial
  1
Global
 72
     0
 43
0.0208333333333333
 43
0.0
 43
0.0
 43
0.0
 43
0.0
 43
0.0208333333333333
 43
0.0
 43
0.0
 43
0.0
 43
0.0
 43
1.0
 43
0.0
 43
0.0
 43
0.0
 43
0.0
 43
1.0
 77
     0
 47
0.0208333333333333
 47
0.0
 47
0.0
 47
0.0
 47
0.0
 47
0.0208333333333333
 47
0.0
 47
0.0
 47
0.0
 47
0.0
 47
1.0
 47
0.0
 47
0.0
 47
0.0
 47
0.0
 47
1.0
171
     0
 49
0.0208333333333333
 49
0.0
 49
0.0
 49
0.0
 49
0.0
 49
0.0208333333333333
 49
0.0
 49
0.0
 49
0.0
 49
0.0
 49
1.0
 49
0.0
 49
0.0
 49
0.0
 49
0.0
 49
1.0
175
     0
142
0.0208333333333333
142
0.0
142
0.0
142
0.0
142
0.0
142
0.0208333333333333
142
0.0
142
0.0
142
0.0
142
0.0
142
1.0
142
0.0
142
0.0
142
0.0
142
0.0
142
1.0
179
     0
144
0.0208333333333333
144
0.0
144
0.0
144
0.0
144
0.0
144
0.0208333333333333
144
0.0
144
0.0
144
0.0
144
0.0
144
1.0
144
0.0
144
0.0
144
0.0
144
0.0
144
1.0
147
0.0208333333333333
147
0.0
147
0.0
147
0.0
147
0.0
147
0.0208333333333333
147
0.0
147
0.0
147
0.0
147
0.0
147
1.0
147
0.0
147
0.0
147
0.0
147
0.0
147
1.0
  0
MLEADERSTYLE
  5
316A
102
{ACAD_REACTORS
330
3169
102
}
330
3169
100
AcDbMLeaderStyle
170
     2
171
     1
172
     0
 90
        2
 40
0.0
 41
0.0
173
     1
 91
-1056964608
340
BEA
 92
       -2
290
     1
 42
0.09
291
     1
 43
0.36
  3
Standard
 44
0.18
300

342
BE8
174
     1
178
     6
175
     1
176
     0
 93
-1056964608
 45
0.18
292
     0
297
     0
 46
0.18
 94
-1056964608
 47
1.0
 49
1.0
140
1.0
293
     1
141
0.0
294
     1
177
     0
142
1.0
295
     0
296
     0
143
0.125
1001
ACAD_MLEADERVER
1070
     2
  0
MLINESTYLE
  5
BEE
102
{ACAD_REACTORS
330
BED
102
}
330
BED
100
AcDbMlineStyle
  2
STANDARD
 70
     0
  3

 62
   256
 51
90.0
 52
90.0
 71
     2
 49
0.5
 62
   256
  6
BYLAYER
 49
-0.5
 62
   256
  6
BYLAYER
  0
ACDBPLACEHOLDER
  5
BE6
102
{ACAD_REACTORS
330
BE5
102
}
330
BE5
  0
SCALE
  5
3158
102
{ACAD_REACTORS
330
3157
102
}
330
3157
100
AcDbScale
 70
     0
300
1:1
140
1.0
141
1.0
290
     1
  0
SCALE
  5
3159
102
{ACAD_REACTORS
330
3157
102
}
330
3157
100
AcDbScale
 70
     0
300
1/128" = 1'-0"
140
0.0078125
141
12.0
290
     0
  0
SCALE
  5
315A
102
{ACAD_REACTORS
330
3157
102
}
330
3157
100
AcDbScale
 70
     0
300
1/64" = 1'-0"
140
0.015625
141
12.0
290
     0
  0
SCALE
  5
315B
102
{ACAD_REACTORS
330
3157
102
}
330
3157
100
AcDbScale
 70
     0
300
1/32" = 1'-0"
140
0.03125
141
12.0
290
     0
  0
SCALE
  5
315C
102
{ACAD_REACTORS
330
3157
102
}
330
3157
100
AcDbScale
 70
     0
300
1/16" = 1'-0"
140
0.0625
141
12.0
290
     0
  0
SCALE
  5
315D
102
{ACAD_REACTORS
330
3157
102
}
330
3157
100
AcDbScale
 70
     0
300
3/32" = 1'-0"
140
0.09375
141
12.0
290
     0
  0
SCALE
  5
315E
102
{ACAD_REACTORS
330
3157
102
}
330
3157
100
AcDbScale
 70
     0
300
1/8" = 1'-0"
140
0.125
141
12.0
290
     0
  0
SCALE
  5
315F
102
{ACAD_REACTORS
330
3157
102
}
330
3157
100
AcDbScale
 70
     0
300
3/16" = 1'-0"
140
0.1875
141
12.0
290
     0
  0
SCALE
  5
3160
102
{ACAD_REACTORS
330
3157
102
}
330
3157
100
AcDbScale
 70
     0
300
1/4" = 1'-0"
140
0.25
141
12.0
290
     0
  0
SCALE
  5
3161
102
{ACAD_REACTORS
330
3157
102
}
330
3157
100
AcDbScale
 70
     0
300
3/8" = 1'-0"
140
0.375
141
12.0
290
     0
  0
SCALE
  5
3162
102
{ACAD_REACTORS
330
3157
102
}
330
3157
100
AcDbScale
 70
     0
300
1/2" = 1'-0"
140
0.5
141
12.0
290
     0
  0
SCALE
  5
3163
102
{ACAD_REACTORS
330
3157
102
}
330
3157
100
AcDbScale
 70
     0
300
3/4" = 1'-0"
140
0.75
141
12.0
290
     0
  0
SCALE
  5
3164
102
{ACAD_REACTORS
330
3157
102
}
330
3157
100
AcDbScale
 70
     0
300
1" = 1'-0"
140
1.0
141
12.0
290
     0
  0
SCALE
  5
3165
102
{ACAD_REACTORS
330
3157
102
}
330
3157
100
AcDbScale
 70
     0
300
1-1/2" = 1'-0"
140
1.5
141
12.0
290
     0
  0
SCALE
  5
3166
102
{ACAD_REACTORS
330
3157
102
}
330
3157
100
AcDbScale
 70
     0
300
3" = 1'-0"
140
3.0
141
12.0
290
     0
  0
SCALE
  5
3167
102
{ACAD_REACTORS
330
3157
102
}
330
3157
100
AcDbScale
 70
     0
300
6" = 1'-0"
140
6.0
141
12.0
290
     0
  0
SCALE
  5
3168
102
{ACAD_REACTORS
330
3157
102
}
330
3157
100
AcDbScale
 70
     0
300
1'-0" = 1'-0"
140
12.0
141
12.0
290
     0
  0
ACDBSECTIONVIEWSTYLE
  5
316D
102
{ACAD_REACTORS
330
316B
102
}
330
316B
100
AcDbModelDocViewStyle
 70
     0
  3
Imperial24
290
     0
100
AcDbSectionViewStyle
 70
     0
 71
     0
 90
       78
 71
     1
340
BE8
 40
0.24
340
0
340
0
 40
0.24
300
I, O, Q, S, X, Z
 40
0.48
 90
        3
 40
0.18
 90
        1
 71
     2
340
316C
 90
       25
340
BEC
 90
       50
 40
0.24
 40
0.0
 40
0.24
 71
     3
340
BE8
 40
0.24
 90
        1
 40
0.75
 90
        1
300
%<\AcVar ViewType \f "%tc1">% %<\AcVar ViewSectionStartId>%-%<\AcVar ViewSectionEndId>%\PSCALE %<\AcVar ViewScale \f "%sn">%
 71
     4
300
ANSI31
 40
1.0
 90
        0
290
     0
290
     0
 90
        6
 40
0.0
 40
1.570796326794896
 40
0.2617993877991494
 40
1.308996938995747
 40
-0.2617993877991494
 40
1.832595714594046
  0
TABLESTYLE
  5
3156
102
{ACAD_XDICTIONARY
360
31D1
102
}
102
{ACAD_REACTORS
330
3155
102
}
330
3155
100
AcDbTableStyle
  3
Standard
 70
     0
 71
     0
 40
0.06
 41
0.06
280
     0
281
     0
  7
STANDARD
140
0.18
170
     2
 62
     0
 63
     7
283
     0
274
    -2
284
     1
 64
     0
275
    -2
285
     1
 65
     0
276
    -2
286
     1
 66
     0
277
    -2
287
     1
 67
     0
278
    -2
288
     1
 68
     0
279
    -2
289
     1
 69
     0
  7
STANDARD
140
0.25
170
     5
 62
     0
 63
     7
283
     0
274
    -2
284
     1
 64
     0
275
    -2
285
     1
 65
     0
276
    -2
286
     1
 66
     0
277
    -2
287
     1
 67
     0
278
    -2
288
     1
 68
     0
279
    -2
289
     1
 69
     0
  7
STANDARD
140
0.18
170
     5
 62
     0
 63
     7
283
     0
274
    -2
284
     1
 64
     0
275
    -2
285
     1
 65
     0
276
    -2
286
     1
 66
     0
277
    -2
287
     1
 67
     0
278
    -2
288
     1
 68
     0
279
    -2
289
     1
 69
     0
  0
VISUALSTYLE
  5
3142
102
{ACAD_XDICTIONARY
360
31E6
102
}
102
{ACAD_REACTORS
330
313C
102
}
330
313C
100
AcDbVisualStyle
  2
2dWireframe
 70
     4
 71
     0
 72
     2
 73
     0
 90
        0
 40
-0.6
 41
-30.0
 62
     5
 63
     7
 74
     1
 91
        4
 64
     7
 65
   257
 75
     1
175
     1
 42
1.0
 92
        0
 66
   257
 43
1.0
 76
     1
 77
     6
 78
     2
 67
     7
 79
     5
170
     0
171
     0
290
     0
174
     0
 93
        1
 44
0.0
173
     0
291
     0
 45
0.0
1001
ACAD
1000
AcDbSavedByObjectVersion
1070
     0
  0
VISUALSTYLE
  5
3141
102
{ACAD_XDICTIONARY
360
31E4
102
}
102
{ACAD_REACTORS
330
313C
102
}
330
313C
100
AcDbVisualStyle
  2
Basic
 70
     7
 71
     1
 72
     0
 73
     1
 90
        0
 40
-0.6
 41
-30.0
 62
     5
 63
     7
 74
     0
 91
        4
 64
     7
 65
   257
 75
     1
175
     1
 42
1.0
 92
        8
 66
     7
 43
1.0
 76
     1
 77
     6
 78
     2
 67
     7
 79
     5
170
     0
171
     0
290
     0
174
     0
 93
        1
 44
0.0
173
     0
291
     1
 45
0.0
1001
ACAD
1000
AcDbSavedByObjectVersion
1070
     0
  0
VISUALSTYLE
  5
3148
102
{ACAD_XDICTIONARY
360
31F2
102
}
102
{ACAD_REACTORS
330
313C
102
}
330
313C
100
AcDbVisualStyle
  2
Brighten
 70
    12
 71
     2
 72
     2
 73
     0
 90
        0
 40
-0.6
 41
-30.0
 62
     5
 63
     7
 74
     1
 91
        4
 64
     7
 65
   257
 75
     1
175
     1
 42
1.0
 92
        8
 66
     7
 43
1.0
 76
     1
 77
     6
 78
     2
 67
     7
 79
     5
170
     0
171
     0
290
     0
174
     0
 93
        1
 44
50.0
173
     0
291
     1
 45
0.0
1001
ACAD
1000
AcDbSavedByObjectVersion
1070
     0
  0
VISUALSTYLE
  5
314C
102
{ACAD_XDICTIONARY
360
31FA
102
}
102
{ACAD_REACTORS
330
313C
102
}
330
313C
100
AcDbVisualStyle
  2
ColorChange
 70
    16
 71
     2
 72
     2
 73
     3
 90
        0
 40
-0.6
 41
-30.0
 62
     5
 63
     8
 74
     1
 91
        4
 64
     7
 65
   257
 75
     1
175
     1
 42
1.0
 92
        8
 66
     8
 43
1.0
 76
     1
 77
     6
 78
     2
 67
     7
 79
     5
170
     0
171
     0
290
     0
174
     0
 93
        1
 44
0.0
173
     0
291
     1
 45
0.0
1001
ACAD
1000
AcDbSavedByObjectVersion
1070
     0
  0
VISUALSTYLE
  5
3145
102
{ACAD_XDICTIONARY
360
31EC
102
}
102
{ACAD_REACTORS
330
313C
102
}
330
313C
100
AcDbVisualStyle
  2
Conceptual
 70
     9
 71
     3
 72
     2
 73
     0
 90
        0
 40
-0.6
 41
-30.0
 62
     5
 63
     7
 74
     2
 91
        2
 64
     7
 65
   257
 75
     1
175
     1
 42
179.0
 92
        8
 66
     7
 43
1.0
 76
     1
 77
     6
 78
     2
 67
     7
 79
     3
170
     0
171
     0
290
     0
174
     0
 93
        1
 44
0.0
173
     0
291
     0
 45
0.0
1001
ACAD
1000
AcDbSavedByObjectVersion
1070
     0
  0
VISUALSTYLE
  5
3147
102
{ACAD_XDICTIONARY
360
31F0
102
}
102
{ACAD_REACTORS
330
313C
102
}
330
313C
100
AcDbVisualStyle
  2
Dim
 70
    11
 71
     2
 72
     2
 73
     0
 90
        0
 40
-0.6
 41
-30.0
 62
     5
 63
     7
 74
     1
 91
        4
 64
     7
 65
   257
 75
     1
175
     1
 42
1.0
 92
        8
 66
     7
 43
1.0
 76
     1
 77
     6
 78
     2
 67
     7
 79
     5
170
     0
171
     0
290
     0
174
     0
 93
        1
 44
-50.0
173
     0
291
     1
 45
0.0
1001
ACAD
1000
AcDbSavedByObjectVersion
1070
     0
  0
VISUALSTYLE
  5
3154
102
{ACAD_XDICTIONARY
360
320A
102
}
102
{ACAD_REACTORS
330
313C
102
}
330
313C
100
AcDbVisualStyle
  2
EdgeColorOff
 70
    22
 71
     2
 72
     2
 73
     0
 90
        0
 40
-0.6
 41
-30.0
 62
     5
 63
     7
 74
     1
 91
        4
 64
     7
 65
   257
 75
     1
175
     1
 42
1.0
 92
        8
 66
     7
 43
1.0
 76
     1
 77
     6
 78
     2
 67
     7
 79
     5
170
     0
171
     0
290
     0
174
     0
 93
        1
 44
0.0
173
     0
291
     1
 45
0.0
1001
ACAD
1000
AcDbSavedByObjectVersion
1070
     0
  0
VISUALSTYLE
  5
314B
102
{ACAD_XDICTIONARY
360
31F8
102
}
102
{ACAD_REACTORS
330
313C
102
}
330
313C
100
AcDbVisualStyle
  2
Facepattern
 70
    15
 71
     2
 72
     2
 73
     0
 90
        0
 40
-0.6
 41
-30.0
 62
     5
 63
     7
 74
     1
 91
        4
 64
     7
 65
   257
 75
     1
175
     1
 42
1.0
 92
        8
 66
     7
 43
1.0
 76
     1
 77
     6
 78
     2
 67
     7
 79
     5
170
     0
171
     0
290
     0
174
     0
 93
        1
 44
0.0
173
     0
291
     1
 45
0.0
1001
ACAD
1000
AcDbSavedByObjectVersion
1070
     0
  0
VISUALSTYLE
  5
313D
102
{ACAD_XDICTIONARY
360
31DC
102
}
102
{ACAD_REACTORS
330
313C
102
}
330
313C
100
AcDbVisualStyle
  2
Flat
 70
     0
 71
     2
 72
     1
 73
     1
 90
        2
 40
-0.6
 41
30.0
 62
     5
 63
     7
 74
     0
 91
        0
 64
     7
 65
   257
 75
     1
175
     1
 42
1.0
 92
        8
 66
     7
 43
1.0
 76
     1
 77
     6
 78
     2
 67
     7
 79
     5
170
     0
171
     0
290
     0
174
     0
 93
       13
 44
0.0
173
     0
291
     1
 45
0.0
1001
ACAD
1000
AcDbSavedByObjectVersion
1070
     0
  0
VISUALSTYLE
  5
313E
102
{ACAD_XDICTIONARY
360
31DE
102
}
102
{ACAD_REACTORS
330
313C
102
}
330
313C
100
AcDbVisualStyle
  2
FlatWithEdges
 70
     1
 71
     2
 72
     1
 73
     1
 90
        2
 40
-0.6
 41
30.0
 62
     5
 63
     7
 74
     1
 91
        0
 64
     7
 65
   257
 75
     1
175
     1
 42
1.0
 92
        0
 66
   257
 43
1.0
 76
     1
 77
     6
 78
     2
 67
     7
 79
     5
170
     0
171
     0
290
     0
174
     0
 93
       13
 44
0.0
173
     0
291
     1
 45
0.0
1001
ACAD
1000
AcDbSavedByObjectVersion
1070
     0
  0
VISUALSTYLE
  5
313F
102
{ACAD_XDICTIONARY
360
31E0
102
}
102
{ACAD_REACTORS
330
313C
102
}
330
313C
100
AcDbVisualStyle
  2
Gouraud
 70
     2
 71
     2
 72
     2
 73
     1
 90
        2
 40
-0.6
 41
30.0
 62
     5
 63
     7
 74
     0
 91
        0
 64
     7
 65
   257
 75
     1
175
     1
 42
1.0
 92
        0
 66
     7
 43
1.0
 76
     1
 77
     6
 78
     2
 67
     7
 79
     5
170
     0
171
     0
290
     0
174
     0
 93
       13
 44
0.0
173
     0
291
     1
 45
0.0
1001
ACAD
1000
AcDbSavedByObjectVersion
1070
     0
  0
VISUALSTYLE
  5
3140
102
{ACAD_XDICTIONARY
360
31E2
102
}
102
{ACAD_REACTORS
330
313C
102
}
330
313C
100
AcDbVisualStyle
  2
GouraudWithEdges
 70
     3
 71
     2
 72
     2
 73
     1
 90
        2
 40
-0.6
 41
30.0
 62
     5
 63
     7
 74
     1
 91
        0
 64
     7
 65
   257
 75
     1
175
     1
 42
1.0
 92
        0
 66
   257
 43
1.0
 76
     1
 77
     6
 78
     2
 67
     7
 79
     5
170
     0
171
     0
290
     0
174
     0
 93
       13
 44
0.0
173
     0
291
     1
 45
0.0
1001
ACAD
1000
AcDbSavedByObjectVersion
1070
     0
  0
VISUALSTYLE
  5
3144
102
{ACAD_XDICTIONARY
360
31EA
102
}
102
{ACAD_REACTORS
330
313C
102
}
330
313C
100
AcDbVisualStyle
  2
Hidden
 70
     6
 71
     1
 72
     2
 73
     2
 90
        0
 40
-0.6
 41
-30.0
 62
     5
 63
     7
 74
     2
 91
        2
 64
     7
 65
   257
 75
     2
175
     1
 42
40.0
 92
        0
 66
   257
 43
1.0
 76
     1
 77
     6
 78
     2
 67
     7
 79
     3
170
     0
171
     0
290
     0
174
     0
 93
        1
 44
0.0
173
     0
291
     0
 45
0.0
1001
ACAD
1000
AcDbSavedByObjectVersion
1070
     0
  0
VISUALSTYLE
  5
3152
102
{ACAD_XDICTIONARY
360
3206
102
}
102
{ACAD_REACTORS
330
313C
102
}
330
313C
100
AcDbVisualStyle
  2
JitterOff
 70
    20
 71
     2
 72
     2
 73
     0
 90
        0
 40
-0.6
 41
-30.0
 62
     5
 63
     7
 74
     1
 91
        4
 64
     7
 65
   257
 75
     1
175
     1
 42
1.0
 92
       10
 66
     7
 43
1.0
 76
     1
 77
     6
 78
     2
 67
     7
 79
     5
170
     0
171
     0
290
     0
174
     0
 93
        1
 44
0.0
173
     0
291
     1
 45
0.0
1001
ACAD
1000
AcDbSavedByObjectVersion
1070
     0
  0
VISUALSTYLE
  5
314A
102
{ACAD_XDICTIONARY
360
31F6
102
}
102
{ACAD_REACTORS
330
313C
102
}
330
313C
100
AcDbVisualStyle
  2
Linepattern
 70
    14
 71
     2
 72
     2
 73
     0
 90
        0
 40
-0.6
 41
-30.0
 62
     5
 63
     7
 74
     1
 91
        4
 64
     7
 65
   257
 75
     7
175
     7
 42
1.0
 92
        8
 66
     7
 43
1.0
 76
     1
 77
     6
 78
     2
 67
     7
 79
     5
170
     0
171
     0
290
     0
174
     0
 93
        1
 44
0.0
173
     0
291
     1
 45
0.0
1001
ACAD
1000
AcDbSavedByObjectVersion
1070
     0
  0
VISUALSTYLE
  5
3153
102
{ACAD_XDICTIONARY
360
3208
102
}
102
{ACAD_REACTORS
330
313C
102
}
330
313C
100
AcDbVisualStyle
  2
OverhangOff
 70
    21
 71
     2
 72
     2
 73
     0
 90
        0
 40
-0.6
 41
-30.0
 62
     5
 63
     7
 74
     1
 91
        4
 64
     7
 65
   257
 75
     1
175
     1
 42
1.0
 92
        9
 66
     7
 43
1.0
 76
     1
 77
     6
 78
     2
 67
     7
 79
     5
170
     0
171
     0
290
     0
174
     0
 93
        1
 44
0.0
173
     0
291
     1
 45
0.0
1001
ACAD
1000
AcDbSavedByObjectVersion
1070
     0
  0
VISUALSTYLE
  5
3146
102
{ACAD_XDICTIONARY
360
31EE
102
}
102
{ACAD_REACTORS
330
313C
102
}
330
313C
100
AcDbVisualStyle
  2
Realistic
 70
     8
 71
     2
 72
     3
 73
     0
 90
        2
 40
-0.6
 41
30.0
 62
     5
 63
     7
 74
     0
 91
        0
 64
     7
 65
   257
 75
     1
175
     1
 42
1.0
 92
        8
 66
   257
 43
1.0
 76
     1
 77
     6
 78
     2
 67
     7
 79
     3
170
     0
171
     0
290
     0
174
     0
 93
       13
 44
0.0
173
     0
291
     0
 45
0.0
1001
ACAD
1000
AcDbSavedByObjectVersion
1070
     0
  0
VISUALSTYLE
  5
3151
102
{ACAD_XDICTIONARY
360
3204
102
}
102
{ACAD_REACTORS
330
313C
102
}
330
313C
100
AcDbVisualStyle
  2
Shaded
 70
    27
 71
     2
 72
     2
 73
     1
 90
        2
 40
-0.6
 41
30.0
 62
     5
 63
     7
 74
     0
 91
        4
 64
     7
 65
   257
 75
     1
175
     1
 42
1.0
 92
        8
 66
   257
 43
1.0
 76
     1
 77
     6
 78
     2
 67
     8
 79
     3
170
     0
171
     0
290
     0
174
     0
 93
        5
 44
0.0
173
     0
291
     0
 45
0.0
1001
ACAD
1000
AcDbSavedByObjectVersion
1070
     0
  0
VISUALSTYLE
  5
3150
102
{ACAD_XDICTIONARY
360
3202
102
}
102
{ACAD_REACTORS
330
313C
102
}
330
313C
100
AcDbVisualStyle
  2
Shaded with edges
 70
    26
 71
     2
 72
     2
 73
     1
 90
        2
 40
-0.6
 41
30.0
 62
     5
 63
     7
 74
     1
 91
       10
 64
     7
 65
   257
 75
     2
175
     1
 42
1.0
 92
        8
 66
   257
 43
1.0
 76
     1
 77
     6
 78
     2
 67
     7
 79
     3
170
     0
171
     0
290
     0
174
     0
 93
        5
 44
0.0
173
     0
291
     0
 45
0.0
1001
ACAD
1000
AcDbSavedByObjectVersion
1070
     0
  0
VISUALSTYLE
  5
314D
102
{ACAD_XDICTIONARY
360
31FC
102
}
102
{ACAD_REACTORS
330
313C
102
}
330
313C
100
AcDbVisualStyle
  2
Shades of Gray
 70
    23
 71
     2
 72
     2
 73
     3
 90
        0
 40
-0.6
 41
-30.0
 62
     5
 63
     7
 74
     2
 91
        2
 64
     7
 65
     7
 75
     1
175
     1
 42
40.0
 92
        8
 66
     7
 43
1.0
 76
     1
 77
     6
 78
     2
 67
     7
 79
     3
170
     0
171
     0
290
     0
174
     0
 93
        1
 44
0.0
173
     0
291
     0
 45
0.0
1001
ACAD
1000
AcDbSavedByObjectVersion
1070
     0
  0
VISUALSTYLE
  5
314E
102
{ACAD_XDICTIONARY
360
31FE
102
}
102
{ACAD_REACTORS
330
313C
102
}
330
313C
100
AcDbVisualStyle
  2
Sketchy
 70
    24
 71
     1
 72
     2
 73
     2
 90
        0
 40
-0.6
 41
-30.0
 62
     5
 63
     7
 74
     2
 91
        2
 64
     7
 65
     7
 75
     1
175
     1
 42
40.0
 92
       11
 66
     7
 43
1.0
 76
     1
 77
     6
 78
     2
 67
     7
 79
     6
170
     0
171
     0
290
     0
174
     0
 93
        1
 44
0.0
173
     0
291
     0
 45
0.0
1001
ACAD
1000
AcDbSavedByObjectVersion
1070
     0
  0
VISUALSTYLE
  5
3149
102
{ACAD_XDICTIONARY
360
31F4
102
}
102
{ACAD_REACTORS
330
313C
102
}
330
313C
100
AcDbVisualStyle
  2
Thicken
 70
    13
 71
     2
 72
     2
 73
     0
 90
        0
 40
-0.6
 41
-30.0
 62
     5
 63
     7
 74
     1
 91
        4
 64
     7
 65
   257
 75
     1
175
     1
 42
1.0
 92
       12
 66
     7
 43
1.0
 76
     1
 77
     6
 78
     2
 67
     7
 79
     5
170
     0
171
     0
290
     0
174
     0
 93
        1
 44
0.0
173
     0
291
     1
 45
0.0
1001
ACAD
1000
AcDbSavedByObjectVersion
1070
     0
  0
VISUALSTYLE
  5
3143
102
{ACAD_XDICTIONARY
360
31E8
102
}
102
{ACAD_REACTORS
330
313C
102
}
330
313C
100
AcDbVisualStyle
  2
Wireframe
 70
     5
 71
     0
 72
     2
 73
     0
 90
        0
 40
-0.6
 41
-30.0
 62
     5
 63
     7
 74
     1
 91
        4
 64
     7
 65
   257
 75
     1
175
     1
 42
1.0
 92
        0
 66
   257
 43
1.0
 76
     1
 77
     6
 78
     2
 67
     7
 79
     3
170
     0
171
     0
290
     0
174
     0
 93
        1
 44
0.0
173
     0
291
     0
 45
0.0
1001
ACAD
1000
AcDbSavedByObjectVersion
1070
     0
  0
VISUALSTYLE
  5
314F
102
{ACAD_XDICTIONARY
360
3200
102
}
102
{ACAD_REACTORS
330
313C
102
}
330
313C
100
AcDbVisualStyle
  2
X-Ray
 70
    25
 71
     2
 72
     2
 73
     1
 90
        1
 40
0.5
 41
-30.0
 62
     5
 63
     7
 74
     1
 91
        0
 64
     7
 65
   257
 75
     1
175
     1
 42
1.0
 92
        8
 66
     7
 43
1.0
 76
     1
 77
     6
 78
     2
 67
     7
 79
     3
170
     0
171
     0
290
     0
174
     0
 93
       13
 44
0.0
173
     0
291
     0
 45
0.0
1001
ACAD
1000
AcDbSavedByObjectVersion
1070
     0
  0
DICTIONARYVAR
  5
31CB
102
{ACAD_REACTORS
330
31C6
102
}
330
31C6
100
DictionaryVariables
280
     0
  1
1:1
  0
DICTIONARYVAR
  5
31C8
102
{ACAD_REACTORS
330
31C6
102
}
330
31C6
100
DictionaryVariables
280
     0
  1
STANDARD
  0
DICTIONARYVAR
  5
31C7
102
{ACAD_REACTORS
330
31C6
102
}
330
31C6
100
DictionaryVariables
280
     0
  1
STANDARD
  0
DICTIONARYVAR
  5
31C9
102
{ACAD_REACTORS
330
31C6
102
}
330
31C6
100
DictionaryVariables
280
     0
  1
Imperial24
  0
DICTIONARYVAR
  5
31CA
102
{ACAD_REACTORS
330
31C6
102
}
330
31C6
100
DictionaryVariables
280
     0
  1
Imperial24
  0
DICTIONARYVAR
  5
31CF
102
{ACAD_REACTORS
330
31C6
102
}
330
31C6
100
DictionaryVariables
280
     0
  1
1
  0
DICTIONARYVAR
  5
31CD
102
{ACAD_REACTORS
330
31C6
102
}
330
31C6
100
DictionaryVariables
280
     0
  1
0
  0
DICTIONARYVAR
  5
31CC
102
{ACAD_REACTORS
330
31C6
102
}
330
31C6
100
DictionaryVariables
280
     0
  1
127
  0
DICTIONARYVAR
  5
31CE
102
{ACAD_REACTORS
330
31C6
102
}
330
31C6
100
DictionaryVariables
280
     0
  1
0
  0
XRECORD
  5
31C5
102
{ACAD_REACTORS
330
31C3
102
}
330
31C3
100
AcDbXrecord
280
     1
  0
DICTIONARY
  5
31D5
330
BF6
100
AcDbDictionary
280
     1
281
     1
  3
ACAD_XREC_ROUNDTRIP
360
31D6
  0
DICTIONARY
  5
31D7
330
BFA
100
AcDbDictionary
280
     1
281
     1
  3
ACAD_XREC_ROUNDTRIP
360
31D8
  0
DICTIONARY
  5
312D
330
312C
100
AcDbDictionary
280
     1
281
     1
  3
ACAD_XREC_ROUNDTRIP
360
31DA
  3
BUMPTILE
360
312F
  3
DIFFUSETILE
360
312E
  3
OPACITYTILE
360
3132
  3
REFLECTIONTILE
360
3131
  3
REFRACTIONTILE
360
3133
  3
SPECULARTILE
360
3130
  0
DICTIONARY
  5
3125
330
3124
100
AcDbDictionary
280
     1
281
     1
  3
ACAD_XREC_ROUNDTRIP
360
31D9
  3
BUMPTILE
360
3127
  3
DIFFUSETILE
360
3126
  3
OPACITYTILE
360
312A
  3
REFLECTIONTILE
360
3129
  3
REFRACTIONTILE
360
312B
  3
SPECULARTILE
360
3128
  0
DICTIONARY
  5
3135
330
3134
100
AcDbDictionary
280
     1
281
     1
  3
ACAD_XREC_ROUNDTRIP
360
31DB
  3
BUMPTILE
360
3137
  3
DIFFUSETILE
360
3136
  3
OPACITYTILE
360
313A
  3
REFLECTIONTILE
360
3139
  3
REFRACTIONTILE
360
313B
  3
SPECULARTILE
360
3138
  0
DICTIONARY
  5
31D1
330
3156
100
AcDbDictionary
280
     1
281
     1
  3
ACAD_ROUNDTRIP_2008_TABLESTYLE_CELLSTYLEMAP
360
31D2
  3
ACAD_XREC_ROUNDTRIP
360
320C
  0
DICTIONARY
  5
31E6
330
3142
100
AcDbDictionary
280
     1
281
     1
  3
ACAD_XREC_ROUNDTRIP
360
31E7
  0
DICTIONARY
  5
31E4
330
3141
100
AcDbDictionary
280
     1
281
     1
  3
ACAD_XREC_ROUNDTRIP
360
31E5
  0
DICTIONARY
  5
31F2
330
3148
100
AcDbDictionary
280
     1
281
     1
  3
ACAD_XREC_ROUNDTRIP
360
31F3
  0
DICTIONARY
  5
31FA
330
314C
100
AcDbDictionary
280
     1
281
     1
  3
ACAD_XREC_ROUNDTRIP
360
31FB
  0
DICTIONARY
  5
31EC
330
3145
100
AcDbDictionary
280
     1
281
     1
  3
ACAD_XREC_ROUNDTRIP
360
31ED
  0
DICTIONARY
  5
31F0
330
3147
100
AcDbDictionary
280
     1
281
     1
  3
ACAD_XREC_ROUNDTRIP
360
31F1
  0
DICTIONARY
  5
320A
330
3154
100
AcDbDictionary
280
     1
281
     1
  3
ACAD_XREC_ROUNDTRIP
360
320B
  0
DICTIONARY
  5
31F8
330
314B
100
AcDbDictionary
280
     1
281
     1
  3
ACAD_XREC_ROUNDTRIP
360
31F9
  0
DICTIONARY
  5
31DC
330
313D
100
AcDbDictionary
280
     1
281
     1
  3
ACAD_XREC_ROUNDTRIP
360
31DD
  0
DICTIONARY
  5
31DE
330
313E
100
AcDbDictionary
280
     1
281
     1
  3
ACAD_XREC_ROUNDTRIP
360
31DF
  0
DICTIONARY
  5
31E0
330
313F
100
AcDbDictionary
280
     1
281
     1
  3
ACAD_XREC_ROUNDTRIP
360
31E1
  0
DICTIONARY
  5
31E2
330
3140
100
AcDbDictionary
280
     1
281
     1
  3
ACAD_XREC_ROUNDTRIP
360
31E3
  0
DICTIONARY
  5
31EA
330
3144
100
AcDbDictionary
280
     1
281
     1
  3
ACAD_XREC_ROUNDTRIP
360
31EB
  0
DICTIONARY
  5
3206
330
3152
100
AcDbDictionary
280
     1
281
     1
  3
ACAD_XREC_ROUNDTRIP
360
3207
  0
DICTIONARY
  5
31F6
330
314A
100
AcDbDictionary
280
     1
281
     1
  3
ACAD_XREC_ROUNDTRIP
360
31F7
  0
DICTIONARY
  5
3208
330
3153
100
AcDbDictionary
280
     1
281
     1
  3
ACAD_XREC_ROUNDTRIP
360
3209
  0
DICTIONARY
  5
31EE
330
3146
100
AcDbDictionary
280
     1
281
     1
  3
ACAD_XREC_ROUNDTRIP
360
31EF
  0
DICTIONARY
  5
3204
330
3151
100
AcDbDictionary
280
     1
281
     1
  3
ACAD_XREC_ROUNDTRIP
360
3205
  0
DICTIONARY
  5
3202
330
3150
100
AcDbDictionary
280
     1
281
     1
  3
ACAD_XREC_ROUNDTRIP
360
3203
  0
DICTIONARY
  5
31FC
330
314D
100
AcDbDictionary
280
     1
281
     1
  3
ACAD_XREC_ROUNDTRIP
360
31FD
  0
DICTIONARY
  5
31FE
330
314E
100
AcDbDictionary
280
     1
281
     1
  3
ACAD_XREC_ROUNDTRIP
360
31FF
  0
DICTIONARY
  5
31F4
330
3149
100
AcDbDictionary
280
     1
281
     1
  3
ACAD_XREC_ROUNDTRIP
360
31F5
  0
DICTIONARY
  5
31E8
330
3143
100
AcDbDictionary
280
     1
281
     1
  3
ACAD_XREC_ROUNDTRIP
360
31E9
  0
DICTIONARY
  5
3200
330
314F
100
AcDbDictionary
280
     1
281
     1
  3
ACAD_XREC_ROUNDTRIP
360
3201
  0
XRECORD
  5
31D6
102
{ACAD_REACTORS
330
31D5
102
}
330
31D5
100
AcDbXrecord
280
     1
102
SHADEPLOT
 70
     0
102
SHADEPLOTRESLEVEL
 70
     2
102
SHADEPLOTCUSTOMDPI
 70
   300
  0
XRECORD
  5
31D8
102
{ACAD_REACTORS
330
31D7
102
}
330
31D7
100
AcDbXrecord
280
     1
102
SHADEPLOT
 70
     0
102
SHADEPLOTRESLEVEL
 70
     2
102
SHADEPLOTCUSTOMDPI
 70
   300
  0
XRECORD
  5
31DA
102
{ACAD_REACTORS
330
312D
102
}
330
312D
100
AcDbXrecord
280
     1
102
MATERIAL
148
0.0
149
0.0
149
0.0
 93
        0
 94
      127
282
     0
 72
     0
 77
     0
171
     0
175
     0
179
     0
273
     0
  0
XRECORD
  5
312F
102
{ACAD_REACTORS
330
312D
102
}
330
312D
100
AcDbXrecord
280
     1
270
     1
271
     1
  0
XRECORD
  5
312E
102
{ACAD_REACTORS
330
312D
102
}
330
312D
100
AcDbXrecord
280
     1
270
     1
271
     1
  0
XRECORD
  5
3132
102
{ACAD_REACTORS
330
312D
102
}
330
312D
100
AcDbXrecord
280
     1
270
     1
271
     1
  0
XRECORD
  5
3131
102
{ACAD_REACTORS
330
312D
102
}
330
312D
100
AcDbXrecord
280
     1
270
     1
271
     1
  0
XRECORD
  5
3133
102
{ACAD_REACTORS
330
312D
102
}
330
312D
100
AcDbXrecord
280
     1
270
     1
271
     1
  0
XRECORD
  5
3130
102
{ACAD_REACTORS
330
312D
102
}
330
312D
100
AcDbXrecord
280
     1
270
     1
271
     1
  0
XRECORD
  5
31D9
102
{ACAD_REACTORS
330
3125
102
}
330
3125
100
AcDbXrecord
280
     1
102
MATERIAL
148
0.0
149
0.0
149
0.0
 93
        0
 94
      127
282
     0
 72
     0
 77
     0
171
     0
175
     0
179
     0
273
     0
  0
XRECORD
  5
3127
102
{ACAD_REACTORS
330
3125
102
}
330
3125
100
AcDbXrecord
280
     1
270
     1
271
     1
  0
XRECORD
  5
3126
102
{ACAD_REACTORS
330
3125
102
}
330
3125
100
AcDbXrecord
280
     1
270
     1
271
     1
  0
XRECORD
  5
312A
102
{ACAD_REACTORS
330
3125
102
}
330
3125
100
AcDbXrecord
280
     1
270
     1
271
     1
  0
XRECORD
  5
3129
102
{ACAD_REACTORS
330
3125
102
}
330
3125
100
AcDbXrecord
280
     1
270
     1
271
     1
  0
XRECORD
  5
312B
102
{ACAD_REACTORS
330
3125
102
}
330
3125
100
AcDbXrecord
280
     1
270
     1
271
     1
  0
XRECORD
  5
3128
102
{ACAD_REACTORS
330
3125
102
}
330
3125
100
AcDbXrecord
280
     1
270
     1
271
     1
  0
XRECORD
  5
31DB
102
{ACAD_REACTORS
330
3135
102
}
330
3135
100
AcDbXrecord
280
     1
102
MATERIAL
148
0.0
149
0.0
149
0.0
 93
        0
 94
      127
282
     0
 72
     0
 77
     0
171
     0
175
     0
179
     0
273
     0
  0
XRECORD
  5
3137
102
{ACAD_REACTORS
330
3135
102
}
330
3135
100
AcDbXrecord
280
     1
270
     1
271
     1
  0
XRECORD
  5
3136
102
{ACAD_REACTORS
330
3135
102
}
330
3135
100
AcDbXrecord
280
     1
270
     1
271
     1
  0
XRECORD
  5
313A
102
{ACAD_REACTORS
330
3135
102
}
330
3135
100
AcDbXrecord
280
     1
270
     1
271
     1
  0
XRECORD
  5
3139
102
{ACAD_REACTORS
330
3135
102
}
330
3135
100
AcDbXrecord
280
     1
270
     1
271
     1
  0
XRECORD
  5
313B
102
{ACAD_REACTORS
330
3135
102
}
330
3135
100
AcDbXrecord
280
     1
270
     1
271
     1
  0
XRECORD
  5
3138
102
{ACAD_REACTORS
330
3135
102
}
330
3135
100
AcDbXrecord
280
     1
270
     1
271
     1
  0
CELLSTYLEMAP
  5
31D2
102
{ACAD_REACTORS
330
31D1
102
}
330
31D1
100
AcDbCellStyleMap
 90
        3
300
CELLSTYLE
  1
TABLEFORMAT_BEGIN
 90
        5
170
     1
 91
        0
 92
    32768
 62
   257
 93
        1
300
CONTENTFORMAT
  1
CONTENTFORMAT_BEGIN
 90
        0
 91
        0
 92
      512
 93
        0
300

 40
0.0
140
1.0
 94
        5
 62
     0
340
BE8
144
0.25
309
CONTENTFORMAT_END
171
     0
 94
        0
309
TABLEFORMAT_END
  1
CELLSTYLE_BEGIN
 90
        1
 91
        1
300
_TITLE
309
CELLSTYLE_END
300
CELLSTYLE
  1
TABLEFORMAT_BEGIN
 90
        5
170
     1
 91
        0
 92
        0
 62
   257
 93
        1
300
CONTENTFORMAT
  1
CONTENTFORMAT_BEGIN
 90
        0
 91
        0
 92
      512
 93
        0
300

 40
0.0
140
1.0
 94
        5
 62
     0
340
BE8
144
0.18
309
CONTENTFORMAT_END
171
     0
 94
        0
309
TABLEFORMAT_END
  1
CELLSTYLE_BEGIN
 90
        2
 91
        1
300
_HEADER
309
CELLSTYLE_END
300
CELLSTYLE
  1
TABLEFORMAT_BEGIN
 90
        5
170
     1
 91
        0
 92
        0
 62
   257
 93
        1
300
CONTENTFORMAT
  1
CONTENTFORMAT_BEGIN
 90
        0
 91
        0
 92
      512
 93
        0
300

 40
0.0
140
1.0
 94
        2
 62
     0
340
BE8
144
0.18
309
CONTENTFORMAT_END
171
     0
 94
        0
309
TABLEFORMAT_END
  1
CELLSTYLE_BEGIN
 90
        3
 91
        2
300
_DATA
309
CELLSTYLE_END
  0
XRECORD
  5
320C
102
{ACAD_REACTORS
330
31D1
102
}
330
31D1
100
AcDbXrecord
280
     1
102
ACAD_ROUNDTRIP_PRE2007_TABLESTYLE
 90
      512
 91
        0
  1

 92
      512
 93
        0
  2

 94
      512
 95
        0
  3

  0
XRECORD
  5
31E7
102
{ACAD_REACTORS
330
31E6
102
}
330
31E6
100
AcDbXrecord
280
     1
102
RTVSPost2010Prop28
280
     1
102
RTVSPost2010PropOp28
 70
     1
102
RTVSPost2010Prop29
280
     1
102
RTVSPost2010PropOp29
 70
     1
102
RTVSPost2010Prop30
280
     0
102
RTVSPost2010PropOp30
 70
     1
102
RTVSPost2010Prop31
280
     0
102
RTVSPost2010PropOp31
 70
     1
102
RTVSPost2010Prop32
280
     0
102
RTVSPost2010PropOp32
 70
     1
102
RTVSPost2010Prop33
280
     0
102
RTVSPost2010PropOp33
 70
     1
102
RTVSPost2010Prop34
280
     0
102
RTVSPost2010PropOp34
 70
     1
102
RTVSPost2010Prop35
280
     0
102
RTVSPost2010PropOp35
 70
     1
102
RTVSPost2010Prop36
280
     0
102
RTVSPost2010PropOp36
 70
     1
102
RTVSPost2010Prop37
 90
       50
102
RTVSPost2010PropOp37
 70
     1
102
RTVSPost2010Prop38
140
0.0
102
RTVSPost2010PropOp38
 70
     1
102
RTVSPost2010Prop39
140
1.0
102
RTVSPost2010PropOp39
 70
     1
102
RTVSPost2010Prop40
 90
        0
102
RTVSPost2010PropOp40
 70
     1
102
RTVSPost2010Prop41ColorIndex
 90
       18
102
RTVSPost2010Prop41ColorRGB
 90
        0
102
RTVSPost2010PropOp41
 70
     1
102
RTVSPost2010Prop42
 90
       50
102
RTVSPost2010PropOp42
 70
     1
102
RTVSPost2010Prop43
 90
        3
102
RTVSPost2010PropOp43
 70
     1
102
RTVSPost2010Prop44ColorIndex
 90
        5
102
RTVSPost2010Prop44ColorRGB
 90
      255
102
RTVSPost2010PropOp44
 70
     1
102
RTVSPost2010Prop45
280
     0
102
RTVSPost2010PropOp45
 70
     1
102
RTVSPost2010Prop46
 90
       50
102
RTVSPost2010PropOp46
 70
     1
102
RTVSPost2010Prop47
 90
       50
102
RTVSPost2010PropOp47
 70
     1
102
RTVSPost2010Prop48
 90
       50
102
RTVSPost2010PropOp48
 70
     1
102
RTVSPost2010Prop49
280
     0
102
RTVSPost2010PropOp49
 70
     1
102
RTVSPost2010Prop50
 90
       50
102
RTVSPost2010PropOp50
 70
     1
102
RTVSPost2010Prop51ColorIndex
 90
      256
102
RTVSPost2010Prop51ColorRGB
 90
-16777216
102
RTVSPost2010PropOp51
 70
     0
102
RTVSPost2010Prop52
140
1.0
102
RTVSPost2010PropOp52
 70
     0
102
RTVSPost2010Prop53
 90
        2
102
RTVSPost2010PropOp53
 70
     1
102
RTVSPost2010Prop54
  1
strokes_ogs.tif
102
RTVSPost2010PropOp54
 70
     1
102
RTVSPost2010Prop55
280
     0
102
RTVSPost2010PropOp55
 70
     1
102
RTVSPost2010Prop56
140
1.0
102
RTVSPost2010PropOp56
 70
     1
102
RTVSPost2010Prop57
140
1.0
102
RTVSPost2010PropOp57
 70
     1
102
RTVSPropertyOp0
 70
     1
102
RTVSPropertyOp1
 70
     1
102
RTVSPropertyOp2
 70
     1
102
RTVSPropertyOp3
 70
     1
102
RTVSPropertyOp4
 70
     1
102
RTVSPropertyOp5
 70
     1
102
RTVSPropertyOp6
 70
     1
102
RTVSPropertyOp7
 70
     1
102
RTVSPropertyOp8
 70
     1
102
RTVSPropertyOp9
 70
     1
102
RTVSPropertyOp10
 70
     1
102
RTVSPropertyOp11
 70
     1
102
RTVSPropertyOp12
 70
     1
102
RTVSPropertyOp13
 70
     1
102
RTVSPropertyOp14
 70
     1
102
RTVSPropertyOp15
 70
     1
102
RTVSPropertyOp16
 70
     1
102
RTVSPropertyOp17
 70
     1
102
RTVSPropertyOp18
 70
     1
102
RTVSPropertyOp19
 70
     1
102
RTVSPropertyOp20
 70
     1
102
RTVSPropertyOp21
 70
     1
102
RTVSPropertyOp22
 70
     1
102
RTVSPropertyOp23
 70
     1
102
RTVSPropertyOp24
 70
     1
102
RTVSPropertyOp25
 70
     1
102
RTVSPropertyOp26
 70
     1
102
RTVSPropertyOp27
 70
     1
102
RTVSPropertyOp28
 70
     1
102
RTVSPropertyOp29
 70
     1
102
RTVSPropertyOp30
 70
     1
102
RTVSPropertyOp31
 70
     1
102
RTVSPropertyOp32
 70
     1
102
RTVSPropertyOp33
 70
     1
102
RTVSPropertyOp34
 70
     1
102
RTVSPropertyOp35
 70
     1
102
RTVSPropertyOp36
 70
     1
102
RTVSPropertyOp37
 70
     1
102
RTVSPropertyOp38
 70
     1
102
RTVSPropertyOp39
 70
     1
102
RTVSPropertyOp40
 70
     1
102
RTVSPropertyOp41
 70
     1
102
RTVSPropertyOp42
 70
     1
102
RTVSPropertyOp43
 70
     1
102
RTVSPropertyOp44
 70
     1
102
RTVSPropertyOp45
 70
     1
102
RTVSPropertyOp46
 70
     1
102
RTVSPropertyOp47
 70
     1
102
RTVSPropertyOp48
 70
     1
102
RTVSPropertyOp49
 70
     1
102
RTVSPropertyOp50
 70
     1
102
RTVSPropertyOp51
 70
     0
102
RTVSPropertyOp52
 70
     0
102
RTVSPropertyOp53
 70
     1
102
RTVSPropertyOp54
 70
     1
102
RTVSPropertyOp55
 70
     1
102
RTVSPropertyOp56
 70
     1
102
RTVSPropertyOp57
 70
     1
102
RTVSPropertyOp58
 70
     1
102
RTVSPropertyOp59
 70
     1
102
RTVSPropertyOp60
 70
     1
102
RTVSPropertyOp61
 70
     1
102
RTVSPropertyOp62
 70
     1
  0
XRECORD
  5
31E5
102
{ACAD_REACTORS
330
31E4
102
}
330
31E4
100
AcDbXrecord
280
     1
102
RTVSPost2010Prop28
280
     0
102
RTVSPost2010PropOp28
 70
     1
102
RTVSPost2010Prop29
280
     1
102
RTVSPost2010PropOp29
 70
     1
102
RTVSPost2010Prop30
280
     1
102
RTVSPost2010PropOp30
 70
     1
102
RTVSPost2010Prop31
280
     0
102
RTVSPost2010PropOp31
 70
     1
102
RTVSPost2010Prop32
280
     0
102
RTVSPost2010PropOp32
 70
     1
102
RTVSPost2010Prop33
280
     0
102
RTVSPost2010PropOp33
 70
     1
102
RTVSPost2010Prop34
280
     0
102
RTVSPost2010PropOp34
 70
     1
102
RTVSPost2010Prop35
280
     0
102
RTVSPost2010PropOp35
 70
     1
102
RTVSPost2010Prop36
280
     0
102
RTVSPost2010PropOp36
 70
     1
102
RTVSPost2010Prop37
 90
       50
102
RTVSPost2010PropOp37
 70
     1
102
RTVSPost2010Prop38
140
0.0
102
RTVSPost2010PropOp38
 70
     1
102
RTVSPost2010Prop39
140
1.0
102
RTVSPost2010PropOp39
 70
     1
102
RTVSPost2010Prop40
 90
        0
102
RTVSPost2010PropOp40
 70
     1
102
RTVSPost2010Prop41ColorIndex
 90
       18
102
RTVSPost2010Prop41ColorRGB
 90
        0
102
RTVSPost2010PropOp41
 70
     1
102
RTVSPost2010Prop42
 90
       50
102
RTVSPost2010PropOp42
 70
     1
102
RTVSPost2010Prop43
 90
        3
102
RTVSPost2010PropOp43
 70
     1
102
RTVSPost2010Prop44ColorIndex
 90
        5
102
RTVSPost2010Prop44ColorRGB
 90
      255
102
RTVSPost2010PropOp44
 70
     1
102
RTVSPost2010Prop45
280
     0
102
RTVSPost2010PropOp45
 70
     1
102
RTVSPost2010Prop46
 90
       50
102
RTVSPost2010PropOp46
 70
     1
102
RTVSPost2010Prop47
 90
       50
102
RTVSPost2010PropOp47
 70
     1
102
RTVSPost2010Prop48
 90
       50
102
RTVSPost2010PropOp48
 70
     1
102
RTVSPost2010Prop49
280
     0
102
RTVSPost2010PropOp49
 70
     1
102
RTVSPost2010Prop50
 90
       50
102
RTVSPost2010PropOp50
 70
     1
102
RTVSPost2010Prop51ColorIndex
 90
      256
102
RTVSPost2010Prop51ColorRGB
 90
-16777216
102
RTVSPost2010PropOp51
 70
     0
102
RTVSPost2010Prop52
140
1.0
102
RTVSPost2010PropOp52
 70
     0
102
RTVSPost2010Prop53
 90
        2
102
RTVSPost2010PropOp53
 70
     1
102
RTVSPost2010Prop54
  1
strokes_ogs.tif
102
RTVSPost2010PropOp54
 70
     1
102
RTVSPost2010Prop55
280
     0
102
RTVSPost2010PropOp55
 70
     1
102
RTVSPost2010Prop56
140
1.0
102
RTVSPost2010PropOp56
 70
     1
102
RTVSPost2010Prop57
140
1.0
102
RTVSPost2010PropOp57
 70
     1
102
RTVSPropertyOp0
 70
     1
102
RTVSPropertyOp1
 70
     1
102
RTVSPropertyOp2
 70
     1
102
RTVSPropertyOp3
 70
     1
102
RTVSPropertyOp4
 70
     1
102
RTVSPropertyOp5
 70
     1
102
RTVSPropertyOp6
 70
     1
102
RTVSPropertyOp7
 70
     1
102
RTVSPropertyOp8
 70
     1
102
RTVSPropertyOp9
 70
     1
102
RTVSPropertyOp10
 70
     1
102
RTVSPropertyOp11
 70
     1
102
RTVSPropertyOp12
 70
     1
102
RTVSPropertyOp13
 70
     1
102
RTVSPropertyOp14
 70
     1
102
RTVSPropertyOp15
 70
     1
102
RTVSPropertyOp16
 70
     1
102
RTVSPropertyOp17
 70
     1
102
RTVSPropertyOp18
 70
     1
102
RTVSPropertyOp19
 70
     1
102
RTVSPropertyOp20
 70
     1
102
RTVSPropertyOp21
 70
     1
102
RTVSPropertyOp22
 70
     1
102
RTVSPropertyOp23
 70
     1
102
RTVSPropertyOp24
 70
     1
102
RTVSPropertyOp25
 70
     1
102
RTVSPropertyOp26
 70
     1
102
RTVSPropertyOp27
 70
     1
102
RTVSPropertyOp28
 70
     1
102
RTVSPropertyOp29
 70
     1
102
RTVSPropertyOp30
 70
     1
102
RTVSPropertyOp31
 70
     1
102
RTVSPropertyOp32
 70
     1
102
RTVSPropertyOp33
 70
     1
102
RTVSPropertyOp34
 70
     1
102
RTVSPropertyOp35
 70
     1
102
RTVSPropertyOp36
 70
     1
102
RTVSPropertyOp37
 70
     1
102
RTVSPropertyOp38
 70
     1
102
RTVSPropertyOp39
 70
     1
102
RTVSPropertyOp40
 70
     1
102
RTVSPropertyOp41
 70
     1
102
RTVSPropertyOp42
 70
     1
102
RTVSPropertyOp43
 70
     1
102
RTVSPropertyOp44
 70
     1
102
RTVSPropertyOp45
 70
     1
102
RTVSPropertyOp46
 70
     1
102
RTVSPropertyOp47
 70
     1
102
RTVSPropertyOp48
 70
     1
102
RTVSPropertyOp49
 70
     1
102
RTVSPropertyOp50
 70
     1
102
RTVSPropertyOp51
 70
     0
102
RTVSPropertyOp52
 70
     0
102
RTVSPropertyOp53
 70
     1
102
RTVSPropertyOp54
 70
     1
102
RTVSPropertyOp55
 70
     1
102
RTVSPropertyOp56
 70
     1
102
RTVSPropertyOp57
 70
     1
102
RTVSPropertyOp58
 70
     1
102
RTVSPropertyOp59
 70
     1
102
RTVSPropertyOp60
 70
     1
102
RTVSPropertyOp61
 70
     1
102
RTVSPropertyOp62
 70
     1
  0
XRECORD
  5
31F3
102
{ACAD_REACTORS
330
31F2
102
}
330
31F2
100
AcDbXrecord
280
     1
102
RTVSPost2010Prop28
280
     0
102
RTVSPost2010PropOp28
 70
     1
102
RTVSPost2010Prop29
280
     1
102
RTVSPost2010PropOp29
 70
     1
102
RTVSPost2010Prop30
280
     1
102
RTVSPost2010PropOp30
 70
     1
102
RTVSPost2010Prop31
280
     0
102
RTVSPost2010PropOp31
 70
     1
102
RTVSPost2010Prop32
280
     0
102
RTVSPost2010PropOp32
 70
     1
102
RTVSPost2010Prop33
280
     0
102
RTVSPost2010PropOp33
 70
     1
102
RTVSPost2010Prop34
280
     0
102
RTVSPost2010PropOp34
 70
     1
102
RTVSPost2010Prop35
280
     0
102
RTVSPost2010PropOp35
 70
     1
102
RTVSPost2010Prop36
280
     0
102
RTVSPost2010PropOp36
 70
     1
102
RTVSPost2010Prop37
 90
       50
102
RTVSPost2010PropOp37
 70
     1
102
RTVSPost2010Prop38
140
0.0
102
RTVSPost2010PropOp38
 70
     1
102
RTVSPost2010Prop39
140
1.0
102
RTVSPost2010PropOp39
 70
     1
102
RTVSPost2010Prop40
 90
        0
102
RTVSPost2010PropOp40
 70
     1
102
RTVSPost2010Prop41ColorIndex
 90
       18
102
RTVSPost2010Prop41ColorRGB
 90
        0
102
RTVSPost2010PropOp41
 70
     1
102
RTVSPost2010Prop42
 90
       50
102
RTVSPost2010PropOp42
 70
     1
102
RTVSPost2010Prop43
 90
        3
102
RTVSPost2010PropOp43
 70
     1
102
RTVSPost2010Prop44ColorIndex
 90
        5
102
RTVSPost2010Prop44ColorRGB
 90
      255
102
RTVSPost2010PropOp44
 70
     1
102
RTVSPost2010Prop45
280
     0
102
RTVSPost2010PropOp45
 70
     1
102
RTVSPost2010Prop46
 90
       50
102
RTVSPost2010PropOp46
 70
     1
102
RTVSPost2010Prop47
 90
       50
102
RTVSPost2010PropOp47
 70
     1
102
RTVSPost2010Prop48
 90
       50
102
RTVSPost2010PropOp48
 70
     1
102
RTVSPost2010Prop49
280
     0
102
RTVSPost2010PropOp49
 70
     1
102
RTVSPost2010Prop50
 90
       50
102
RTVSPost2010PropOp50
 70
     1
102
RTVSPost2010Prop51ColorIndex
 90
      256
102
RTVSPost2010Prop51ColorRGB
 90
-16777216
102
RTVSPost2010PropOp51
 70
     0
102
RTVSPost2010Prop52
140
1.0
102
RTVSPost2010PropOp52
 70
     0
102
RTVSPost2010Prop53
 90
        2
102
RTVSPost2010PropOp53
 70
     1
102
RTVSPost2010Prop54
  1
strokes_ogs.tif
102
RTVSPost2010PropOp54
 70
     1
102
RTVSPost2010Prop55
280
     0
102
RTVSPost2010PropOp55
 70
     1
102
RTVSPost2010Prop56
140
1.0
102
RTVSPost2010PropOp56
 70
     1
102
RTVSPost2010Prop57
140
1.0
102
RTVSPost2010PropOp57
 70
     1
102
RTVSPropertyOp0
 70
     1
102
RTVSPropertyOp1
 70
     1
102
RTVSPropertyOp2
 70
     1
102
RTVSPropertyOp3
 70
     1
102
RTVSPropertyOp4
 70
     1
102
RTVSPropertyOp5
 70
     1
102
RTVSPropertyOp6
 70
     1
102
RTVSPropertyOp7
 70
     1
102
RTVSPropertyOp8
 70
     1
102
RTVSPropertyOp9
 70
     1
102
RTVSPropertyOp10
 70
     1
102
RTVSPropertyOp11
 70
     1
102
RTVSPropertyOp12
 70
     1
102
RTVSPropertyOp13
 70
     1
102
RTVSPropertyOp14
 70
     1
102
RTVSPropertyOp15
 70
     1
102
RTVSPropertyOp16
 70
     1
102
RTVSPropertyOp17
 70
     1
102
RTVSPropertyOp18
 70
     1
102
RTVSPropertyOp19
 70
     1
102
RTVSPropertyOp20
 70
     1
102
RTVSPropertyOp21
 70
     1
102
RTVSPropertyOp22
 70
     1
102
RTVSPropertyOp23
 70
     1
102
RTVSPropertyOp24
 70
     1
102
RTVSPropertyOp25
 70
     1
102
RTVSPropertyOp26
 70
     1
102
RTVSPropertyOp27
 70
     1
102
RTVSPropertyOp28
 70
     1
102
RTVSPropertyOp29
 70
     1
102
RTVSPropertyOp30
 70
     1
102
RTVSPropertyOp31
 70
     1
102
RTVSPropertyOp32
 70
     1
102
RTVSPropertyOp33
 70
     1
102
RTVSPropertyOp34
 70
     1
102
RTVSPropertyOp35
 70
     1
102
RTVSPropertyOp36
 70
     1
102
RTVSPropertyOp37
 70
     1
102
RTVSPropertyOp38
 70
     1
102
RTVSPropertyOp39
 70
     1
102
RTVSPropertyOp40
 70
     1
102
RTVSPropertyOp41
 70
     1
102
RTVSPropertyOp42
 70
     1
102
RTVSPropertyOp43
 70
     1
102
RTVSPropertyOp44
 70
     1
102
RTVSPropertyOp45
 70
     1
102
RTVSPropertyOp46
 70
     1
102
RTVSPropertyOp47
 70
     1
102
RTVSPropertyOp48
 70
     1
102
RTVSPropertyOp49
 70
     1
102
RTVSPropertyOp50
 70
     1
102
RTVSPropertyOp51
 70
     0
102
RTVSPropertyOp52
 70
     0
102
RTVSPropertyOp53
 70
     1
102
RTVSPropertyOp54
 70
     1
102
RTVSPropertyOp55
 70
     1
102
RTVSPropertyOp56
 70
     1
102
RTVSPropertyOp57
 70
     1
102
RTVSPropertyOp58
 70
     1
102
RTVSPropertyOp59
 70
     1
102
RTVSPropertyOp60
 70
     1
102
RTVSPropertyOp61
 70
     1
102
RTVSPropertyOp62
 70
     1
  0
XRECORD
  5
31FB
102
{ACAD_REACTORS
330
31FA
102
}
330
31FA
100
AcDbXrecord
280
     1
102
RTVSPost2010Prop28
280
     0
102
RTVSPost2010PropOp28
 70
     1
102
RTVSPost2010Prop29
280
     1
102
RTVSPost2010PropOp29
 70
     1
102
RTVSPost2010Prop30
280
     1
102
RTVSPost2010PropOp30
 70
     1
102
RTVSPost2010Prop31
280
     0
102
RTVSPost2010PropOp31
 70
     1
102
RTVSPost2010Prop32
280
     0
102
RTVSPost2010PropOp32
 70
     1
102
RTVSPost2010Prop33
280
     0
102
RTVSPost2010PropOp33
 70
     1
102
RTVSPost2010Prop34
280
     0
102
RTVSPost2010PropOp34
 70
     1
102
RTVSPost2010Prop35
280
     0
102
RTVSPost2010PropOp35
 70
     1
102
RTVSPost2010Prop36
280
     0
102
RTVSPost2010PropOp36
 70
     1
102
RTVSPost2010Prop37
 90
       50
102
RTVSPost2010PropOp37
 70
     1
102
RTVSPost2010Prop38
140
0.0
102
RTVSPost2010PropOp38
 70
     1
102
RTVSPost2010Prop39
140
1.0
102
RTVSPost2010PropOp39
 70
     1
102
RTVSPost2010Prop40
 90
        0
102
RTVSPost2010PropOp40
 70
     1
102
RTVSPost2010Prop41ColorIndex
 90
       18
102
RTVSPost2010Prop41ColorRGB
 90
        0
102
RTVSPost2010PropOp41
 70
     1
102
RTVSPost2010Prop42
 90
       50
102
RTVSPost2010PropOp42
 70
     1
102
RTVSPost2010Prop43
 90
        3
102
RTVSPost2010PropOp43
 70
     1
102
RTVSPost2010Prop44ColorIndex
 90
        5
102
RTVSPost2010Prop44ColorRGB
 90
      255
102
RTVSPost2010PropOp44
 70
     1
102
RTVSPost2010Prop45
280
     0
102
RTVSPost2010PropOp45
 70
     1
102
RTVSPost2010Prop46
 90
       50
102
RTVSPost2010PropOp46
 70
     1
102
RTVSPost2010Prop47
 90
       50
102
RTVSPost2010PropOp47
 70
     1
102
RTVSPost2010Prop48
 90
       50
102
RTVSPost2010PropOp48
 70
     1
102
RTVSPost2010Prop49
280
     0
102
RTVSPost2010PropOp49
 70
     1
102
RTVSPost2010Prop50
 90
       50
102
RTVSPost2010PropOp50
 70
     1
102
RTVSPost2010Prop51ColorIndex
 90
      256
102
RTVSPost2010Prop51ColorRGB
 90
-16777216
102
RTVSPost2010PropOp51
 70
     0
102
RTVSPost2010Prop52
140
1.0
102
RTVSPost2010PropOp52
 70
     0
102
RTVSPost2010Prop53
 90
        2
102
RTVSPost2010PropOp53
 70
     1
102
RTVSPost2010Prop54
  1
strokes_ogs.tif
102
RTVSPost2010PropOp54
 70
     1
102
RTVSPost2010Prop55
280
     0
102
RTVSPost2010PropOp55
 70
     1
102
RTVSPost2010Prop56
140
1.0
102
RTVSPost2010PropOp56
 70
     1
102
RTVSPost2010Prop57
140
1.0
102
RTVSPost2010PropOp57
 70
     1
102
RTVSPropertyOp0
 70
     1
102
RTVSPropertyOp1
 70
     1
102
RTVSPropertyOp2
 70
     1
102
RTVSPropertyOp3
 70
     1
102
RTVSPropertyOp4
 70
     1
102
RTVSPropertyOp5
 70
     1
102
RTVSPropertyOp6
 70
     1
102
RTVSPropertyOp7
 70
     1
102
RTVSPropertyOp8
 70
     1
102
RTVSPropertyOp9
 70
     1
102
RTVSPropertyOp10
 70
     1
102
RTVSPropertyOp11
 70
     1
102
RTVSPropertyOp12
 70
     1
102
RTVSPropertyOp13
 70
     1
102
RTVSPropertyOp14
 70
     1
102
RTVSPropertyOp15
 70
     1
102
RTVSPropertyOp16
 70
     1
102
RTVSPropertyOp17
 70
     1
102
RTVSPropertyOp18
 70
     1
102
RTVSPropertyOp19
 70
     1
102
RTVSPropertyOp20
 70
     1
102
RTVSPropertyOp21
 70
     1
102
RTVSPropertyOp22
 70
     1
102
RTVSPropertyOp23
 70
     1
102
RTVSPropertyOp24
 70
     1
102
RTVSPropertyOp25
 70
     1
102
RTVSPropertyOp26
 70
     1
102
RTVSPropertyOp27
 70
     1
102
RTVSPropertyOp28
 70
     1
102
RTVSPropertyOp29
 70
     1
102
RTVSPropertyOp30
 70
     1
102
RTVSPropertyOp31
 70
     1
102
RTVSPropertyOp32
 70
     1
102
RTVSPropertyOp33
 70
     1
102
RTVSPropertyOp34
 70
     1
102
RTVSPropertyOp35
 70
     1
102
RTVSPropertyOp36
 70
     1
102
RTVSPropertyOp37
 70
     1
102
RTVSPropertyOp38
 70
     1
102
RTVSPropertyOp39
 70
     1
102
RTVSPropertyOp40
 70
     1
102
RTVSPropertyOp41
 70
     1
102
RTVSPropertyOp42
 70
     1
102
RTVSPropertyOp43
 70
     1
102
RTVSPropertyOp44
 70
     1
102
RTVSPropertyOp45
 70
     1
102
RTVSPropertyOp46
 70
     1
102
RTVSPropertyOp47
 70
     1
102
RTVSPropertyOp48
 70
     1
102
RTVSPropertyOp49
 70
     1
102
RTVSPropertyOp50
 70
     1
102
RTVSPropertyOp51
 70
     0
102
RTVSPropertyOp52
 70
     0
102
RTVSPropertyOp53
 70
     1
102
RTVSPropertyOp54
 70
     1
102
RTVSPropertyOp55
 70
     1
102
RTVSPropertyOp56
 70
     1
102
RTVSPropertyOp57
 70
     1
102
RTVSPropertyOp58
 70
     1
102
RTVSPropertyOp59
 70
     1
102
RTVSPropertyOp60
 70
     1
102
RTVSPropertyOp61
 70
     1
102
RTVSPropertyOp62
 70
     1
  0
XRECORD
  5
31ED
102
{ACAD_REACTORS
330
31EC
102
}
330
31EC
100
AcDbXrecord
280
     1
102
RTVSPost2010Prop28
280
     0
102
RTVSPost2010PropOp28
 70
     1
102
RTVSPost2010Prop29
280
     1
102
RTVSPost2010PropOp29
 70
     1
102
RTVSPost2010Prop30
280
     1
102
RTVSPost2010PropOp30
 70
     1
102
RTVSPost2010Prop31
280
     0
102
RTVSPost2010PropOp31
 70
     1
102
RTVSPost2010Prop32
280
     0
102
RTVSPost2010PropOp32
 70
     1
102
RTVSPost2010Prop33
280
     0
102
RTVSPost2010PropOp33
 70
     1
102
RTVSPost2010Prop34
280
     0
102
RTVSPost2010PropOp34
 70
     1
102
RTVSPost2010Prop35
280
     0
102
RTVSPost2010PropOp35
 70
     1
102
RTVSPost2010Prop36
280
     0
102
RTVSPost2010PropOp36
 70
     1
102
RTVSPost2010Prop37
 90
       50
102
RTVSPost2010PropOp37
 70
     1
102
RTVSPost2010Prop38
140
0.0
102
RTVSPost2010PropOp38
 70
     1
102
RTVSPost2010Prop39
140
1.0
102
RTVSPost2010PropOp39
 70
     1
102
RTVSPost2010Prop40
 90
        0
102
RTVSPost2010PropOp40
 70
     1
102
RTVSPost2010Prop41ColorIndex
 90
       18
102
RTVSPost2010Prop41ColorRGB
 90
        0
102
RTVSPost2010PropOp41
 70
     1
102
RTVSPost2010Prop42
 90
       50
102
RTVSPost2010PropOp42
 70
     1
102
RTVSPost2010Prop43
 90
        3
102
RTVSPost2010PropOp43
 70
     1
102
RTVSPost2010Prop44ColorIndex
 90
        5
102
RTVSPost2010Prop44ColorRGB
 90
      255
102
RTVSPost2010PropOp44
 70
     1
102
RTVSPost2010Prop45
280
     0
102
RTVSPost2010PropOp45
 70
     1
102
RTVSPost2010Prop46
 90
       50
102
RTVSPost2010PropOp46
 70
     1
102
RTVSPost2010Prop47
 90
       50
102
RTVSPost2010PropOp47
 70
     1
102
RTVSPost2010Prop48
 90
       50
102
RTVSPost2010PropOp48
 70
     1
102
RTVSPost2010Prop49
280
     0
102
RTVSPost2010PropOp49
 70
     1
102
RTVSPost2010Prop50
 90
       50
102
RTVSPost2010PropOp50
 70
     1
102
RTVSPost2010Prop51ColorIndex
 90
      256
102
RTVSPost2010Prop51ColorRGB
 90
-16777216
102
RTVSPost2010PropOp51
 70
     0
102
RTVSPost2010Prop52
140
1.0
102
RTVSPost2010PropOp52
 70
     0
102
RTVSPost2010Prop53
 90
        2
102
RTVSPost2010PropOp53
 70
     1
102
RTVSPost2010Prop54
  1
strokes_ogs.tif
102
RTVSPost2010PropOp54
 70
     1
102
RTVSPost2010Prop55
280
     0
102
RTVSPost2010PropOp55
 70
     1
102
RTVSPost2010Prop56
140
1.0
102
RTVSPost2010PropOp56
 70
     1
102
RTVSPost2010Prop57
140
1.0
102
RTVSPost2010PropOp57
 70
     1
102
RTVSPropertyOp0
 70
     1
102
RTVSPropertyOp1
 70
     1
102
RTVSPropertyOp2
 70
     1
102
RTVSPropertyOp3
 70
     1
102
RTVSPropertyOp4
 70
     1
102
RTVSPropertyOp5
 70
     1
102
RTVSPropertyOp6
 70
     1
102
RTVSPropertyOp7
 70
     1
102
RTVSPropertyOp8
 70
     1
102
RTVSPropertyOp9
 70
     1
102
RTVSPropertyOp10
 70
     1
102
RTVSPropertyOp11
 70
     1
102
RTVSPropertyOp12
 70
     1
102
RTVSPropertyOp13
 70
     1
102
RTVSPropertyOp14
 70
     1
102
RTVSPropertyOp15
 70
     1
102
RTVSPropertyOp16
 70
     1
102
RTVSPropertyOp17
 70
     1
102
RTVSPropertyOp18
 70
     1
102
RTVSPropertyOp19
 70
     1
102
RTVSPropertyOp20
 70
     1
102
RTVSPropertyOp21
 70
     1
102
RTVSPropertyOp22
 70
     1
102
RTVSPropertyOp23
 70
     1
102
RTVSPropertyOp24
 70
     1
102
RTVSPropertyOp25
 70
     1
102
RTVSPropertyOp26
 70
     1
102
RTVSPropertyOp27
 70
     1
102
RTVSPropertyOp28
 70
     1
102
RTVSPropertyOp29
 70
     1
102
RTVSPropertyOp30
 70
     1
102
RTVSPropertyOp31
 70
     1
102
RTVSPropertyOp32
 70
     1
102
RTVSPropertyOp33
 70
     1
102
RTVSPropertyOp34
 70
     1
102
RTVSPropertyOp35
 70
     1
102
RTVSPropertyOp36
 70
     1
102
RTVSPropertyOp37
 70
     1
102
RTVSPropertyOp38
 70
     1
102
RTVSPropertyOp39
 70
     1
102
RTVSPropertyOp40
 70
     1
102
RTVSPropertyOp41
 70
     1
102
RTVSPropertyOp42
 70
     1
102
RTVSPropertyOp43
 70
     1
102
RTVSPropertyOp44
 70
     1
102
RTVSPropertyOp45
 70
     1
102
RTVSPropertyOp46
 70
     1
102
RTVSPropertyOp47
 70
     1
102
RTVSPropertyOp48
 70
     1
102
RTVSPropertyOp49
 70
     1
102
RTVSPropertyOp50
 70
     1
102
RTVSPropertyOp51
 70
     0
102
RTVSPropertyOp52
 70
     0
102
RTVSPropertyOp53
 70
     1
102
RTVSPropertyOp54
 70
     1
102
RTVSPropertyOp55
 70
     1
102
RTVSPropertyOp56
 70
     1
102
RTVSPropertyOp57
 70
     1
102
RTVSPropertyOp58
 70
     1
102
RTVSPropertyOp59
 70
     1
102
RTVSPropertyOp60
 70
     1
102
RTVSPropertyOp61
 70
     1
102
RTVSPropertyOp62
 70
     1
  0
XRECORD
  5
31F1
102
{ACAD_REACTORS
330
31F0
102
}
330
31F0
100
AcDbXrecord
280
     1
102
RTVSPost2010Prop28
280
     0
102
RTVSPost2010PropOp28
 70
     1
102
RTVSPost2010Prop29
280
     1
102
RTVSPost2010PropOp29
 70
     1
102
RTVSPost2010Prop30
280
     1
102
RTVSPost2010PropOp30
 70
     1
102
RTVSPost2010Prop31
280
     0
102
RTVSPost2010PropOp31
 70
     1
102
RTVSPost2010Prop32
280
     0
102
RTVSPost2010PropOp32
 70
     1
102
RTVSPost2010Prop33
280
     0
102
RTVSPost2010PropOp33
 70
     1
102
RTVSPost2010Prop34
280
     0
102
RTVSPost2010PropOp34
 70
     1
102
RTVSPost2010Prop35
280
     0
102
RTVSPost2010PropOp35
 70
     1
102
RTVSPost2010Prop36
280
     0
102
RTVSPost2010PropOp36
 70
     1
102
RTVSPost2010Prop37
 90
       50
102
RTVSPost2010PropOp37
 70
     1
102
RTVSPost2010Prop38
140
0.0
102
RTVSPost2010PropOp38
 70
     1
102
RTVSPost2010Prop39
140
1.0
102
RTVSPost2010PropOp39
 70
     1
102
RTVSPost2010Prop40
 90
        0
102
RTVSPost2010PropOp40
 70
     1
102
RTVSPost2010Prop41ColorIndex
 90
       18
102
RTVSPost2010Prop41ColorRGB
 90
        0
102
RTVSPost2010PropOp41
 70
     1
102
RTVSPost2010Prop42
 90
       50
102
RTVSPost2010PropOp42
 70
     1
102
RTVSPost2010Prop43
 90
        3
102
RTVSPost2010PropOp43
 70
     1
102
RTVSPost2010Prop44ColorIndex
 90
        5
102
RTVSPost2010Prop44ColorRGB
 90
      255
102
RTVSPost2010PropOp44
 70
     1
102
RTVSPost2010Prop45
280
     0
102
RTVSPost2010PropOp45
 70
     1
102
RTVSPost2010Prop46
 90
       50
102
RTVSPost2010PropOp46
 70
     1
102
RTVSPost2010Prop47
 90
       50
102
RTVSPost2010PropOp47
 70
     1
102
RTVSPost2010Prop48
 90
       50
102
RTVSPost2010PropOp48
 70
     1
102
RTVSPost2010Prop49
280
     0
102
RTVSPost2010PropOp49
 70
     1
102
RTVSPost2010Prop50
 90
       50
102
RTVSPost2010PropOp50
 70
     1
102
RTVSPost2010Prop51ColorIndex
 90
      256
102
RTVSPost2010Prop51ColorRGB
 90
-16777216
102
RTVSPost2010PropOp51
 70
     0
102
RTVSPost2010Prop52
140
1.0
102
RTVSPost2010PropOp52
 70
     0
102
RTVSPost2010Prop53
 90
        2
102
RTVSPost2010PropOp53
 70
     1
102
RTVSPost2010Prop54
  1
strokes_ogs.tif
102
RTVSPost2010PropOp54
 70
     1
102
RTVSPost2010Prop55
280
     0
102
RTVSPost2010PropOp55
 70
     1
102
RTVSPost2010Prop56
140
1.0
102
RTVSPost2010PropOp56
 70
     1
102
RTVSPost2010Prop57
140
1.0
102
RTVSPost2010PropOp57
 70
     1
102
RTVSPropertyOp0
 70
     1
102
RTVSPropertyOp1
 70
     1
102
RTVSPropertyOp2
 70
     1
102
RTVSPropertyOp3
 70
     1
102
RTVSPropertyOp4
 70
     1
102
RTVSPropertyOp5
 70
     1
102
RTVSPropertyOp6
 70
     1
102
RTVSPropertyOp7
 70
     1
102
RTVSPropertyOp8
 70
     1
102
RTVSPropertyOp9
 70
     1
102
RTVSPropertyOp10
 70
     1
102
RTVSPropertyOp11
 70
     1
102
RTVSPropertyOp12
 70
     1
102
RTVSPropertyOp13
 70
     1
102
RTVSPropertyOp14
 70
     1
102
RTVSPropertyOp15
 70
     1
102
RTVSPropertyOp16
 70
     1
102
RTVSPropertyOp17
 70
     1
102
RTVSPropertyOp18
 70
     1
102
RTVSPropertyOp19
 70
     1
102
RTVSPropertyOp20
 70
     1
102
RTVSPropertyOp21
 70
     1
102
RTVSPropertyOp22
 70
     1
102
RTVSPropertyOp23
 70
     1
102
RTVSPropertyOp24
 70
     1
102
RTVSPropertyOp25
 70
     1
102
RTVSPropertyOp26
 70
     1
102
RTVSPropertyOp27
 70
     1
102
RTVSPropertyOp28
 70
     1
102
RTVSPropertyOp29
 70
     1
102
RTVSPropertyOp30
 70
     1
102
RTVSPropertyOp31
 70
     1
102
RTVSPropertyOp32
 70
     1
102
RTVSPropertyOp33
 70
     1
102
RTVSPropertyOp34
 70
     1
102
RTVSPropertyOp35
 70
     1
102
RTVSPropertyOp36
 70
     1
102
RTVSPropertyOp37
 70
     1
102
RTVSPropertyOp38
 70
     1
102
RTVSPropertyOp39
 70
     1
102
RTVSPropertyOp40
 70
     1
102
RTVSPropertyOp41
 70
     1
102
RTVSPropertyOp42
 70
     1
102
RTVSPropertyOp43
 70
     1
102
RTVSPropertyOp44
 70
     1
102
RTVSPropertyOp45
 70
     1
102
RTVSPropertyOp46
 70
     1
102
RTVSPropertyOp47
 70
     1
102
RTVSPropertyOp48
 70
     1
102
RTVSPropertyOp49
 70
     1
102
RTVSPropertyOp50
 70
     1
102
RTVSPropertyOp51
 70
     0
102
RTVSPropertyOp52
 70
     0
102
RTVSPropertyOp53
 70
     1
102
RTVSPropertyOp54
 70
     1
102
RTVSPropertyOp55
 70
     1
102
RTVSPropertyOp56
 70
     1
102
RTVSPropertyOp57
 70
     1
102
RTVSPropertyOp58
 70
     1
102
RTVSPropertyOp59
 70
     1
102
RTVSPropertyOp60
 70
     1
102
RTVSPropertyOp61
 70
     1
102
RTVSPropertyOp62
 70
     1
  0
XRECORD
  5
320B
102
{ACAD_REACTORS
330
320A
102
}
330
320A
100
AcDbXrecord
280
     1
102
RTVSPost2010Prop28
280
     0
102
RTVSPost2010PropOp28
 70
     1
102
RTVSPost2010Prop29
280
     1
102
RTVSPost2010PropOp29
 70
     1
102
RTVSPost2010Prop30
280
     1
102
RTVSPost2010PropOp30
 70
     1
102
RTVSPost2010Prop31
280
     0
102
RTVSPost2010PropOp31
 70
     1
102
RTVSPost2010Prop32
280
     0
102
RTVSPost2010PropOp32
 70
     1
102
RTVSPost2010Prop33
280
     0
102
RTVSPost2010PropOp33
 70
     1
102
RTVSPost2010Prop34
280
     0
102
RTVSPost2010PropOp34
 70
     1
102
RTVSPost2010Prop35
280
     0
102
RTVSPost2010PropOp35
 70
     1
102
RTVSPost2010Prop36
280
     0
102
RTVSPost2010PropOp36
 70
     1
102
RTVSPost2010Prop37
 90
       50
102
RTVSPost2010PropOp37
 70
     0
102
RTVSPost2010Prop38
140
0.0
102
RTVSPost2010PropOp38
 70
     0
102
RTVSPost2010Prop39
140
1.0
102
RTVSPost2010PropOp39
 70
     0
102
RTVSPost2010Prop40
 90
        0
102
RTVSPost2010PropOp40
 70
     0
102
RTVSPost2010Prop41ColorIndex
 90
       18
102
RTVSPost2010Prop41ColorRGB
 90
        0
102
RTVSPost2010PropOp41
 70
     0
102
RTVSPost2010Prop42
 90
       50
102
RTVSPost2010PropOp42
 70
     0
102
RTVSPost2010Prop43
 90
        3
102
RTVSPost2010PropOp43
 70
     0
102
RTVSPost2010Prop44ColorIndex
 90
        5
102
RTVSPost2010Prop44ColorRGB
 90
      255
102
RTVSPost2010PropOp44
 70
     0
102
RTVSPost2010Prop45
280
     0
102
RTVSPost2010PropOp45
 70
     1
102
RTVSPost2010Prop46
 90
       50
102
RTVSPost2010PropOp46
 70
     0
102
RTVSPost2010Prop47
 90
       50
102
RTVSPost2010PropOp47
 70
     0
102
RTVSPost2010Prop48
 90
       50
102
RTVSPost2010PropOp48
 70
     0
102
RTVSPost2010Prop49
280
     0
102
RTVSPost2010PropOp49
 70
     1
102
RTVSPost2010Prop50
 90
       50
102
RTVSPost2010PropOp50
 70
     0
102
RTVSPost2010Prop51ColorIndex
 90
      256
102
RTVSPost2010Prop51ColorRGB
 90
-16777216
102
RTVSPost2010PropOp51
 70
     0
102
RTVSPost2010Prop52
140
1.0
102
RTVSPost2010PropOp52
 70
     0
102
RTVSPost2010Prop53
 90
        2
102
RTVSPost2010PropOp53
 70
     0
102
RTVSPost2010Prop54
  1
strokes_ogs.tif
102
RTVSPost2010PropOp54
 70
     0
102
RTVSPost2010Prop55
280
     0
102
RTVSPost2010PropOp55
 70
     1
102
RTVSPost2010Prop56
140
1.0
102
RTVSPost2010PropOp56
 70
     0
102
RTVSPost2010Prop57
140
1.0
102
RTVSPost2010PropOp57
 70
     0
102
RTVSPropertyOp0
 70
     0
102
RTVSPropertyOp1
 70
     0
102
RTVSPropertyOp2
 70
     0
102
RTVSPropertyOp3
 70
     0
102
RTVSPropertyOp4
 70
     0
102
RTVSPropertyOp5
 70
     0
102
RTVSPropertyOp6
 70
     0
102
RTVSPropertyOp7
 70
     0
102
RTVSPropertyOp8
 70
     0
102
RTVSPropertyOp9
 70
     0
102
RTVSPropertyOp10
 70
     0
102
RTVSPropertyOp11
 70
     0
102
RTVSPropertyOp12
 70
     0
102
RTVSPropertyOp13
 70
     0
102
RTVSPropertyOp14
 70
     2
102
RTVSPropertyOp15
 70
     0
102
RTVSPropertyOp16
 70
     0
102
RTVSPropertyOp17
 70
     0
102
RTVSPropertyOp18
 70
     0
102
RTVSPropertyOp19
 70
     0
102
RTVSPropertyOp20
 70
     0
102
RTVSPropertyOp21
 70
     0
102
RTVSPropertyOp22
 70
     0
102
RTVSPropertyOp23
 70
     0
102
RTVSPropertyOp24
 70
     0
102
RTVSPropertyOp25
 70
     0
102
RTVSPropertyOp26
 70
     0
102
RTVSPropertyOp27
 70
     0
102
RTVSPropertyOp28
 70
     1
102
RTVSPropertyOp29
 70
     1
102
RTVSPropertyOp30
 70
     1
102
RTVSPropertyOp31
 70
     1
102
RTVSPropertyOp32
 70
     1
102
RTVSPropertyOp33
 70
     1
102
RTVSPropertyOp34
 70
     1
102
RTVSPropertyOp35
 70
     1
102
RTVSPropertyOp36
 70
     1
102
RTVSPropertyOp37
 70
     0
102
RTVSPropertyOp38
 70
     0
102
RTVSPropertyOp39
 70
     0
102
RTVSPropertyOp40
 70
     0
102
RTVSPropertyOp41
 70
     0
102
RTVSPropertyOp42
 70
     0
102
RTVSPropertyOp43
 70
     0
102
RTVSPropertyOp44
 70
     0
102
RTVSPropertyOp45
 70
     1
102
RTVSPropertyOp46
 70
     0
102
RTVSPropertyOp47
 70
     0
102
RTVSPropertyOp48
 70
     0
102
RTVSPropertyOp49
 70
     1
102
RTVSPropertyOp50
 70
     0
102
RTVSPropertyOp51
 70
     0
102
RTVSPropertyOp52
 70
     0
102
RTVSPropertyOp53
 70
     0
102
RTVSPropertyOp54
 70
     0
102
RTVSPropertyOp55
 70
     1
102
RTVSPropertyOp56
 70
     0
102
RTVSPropertyOp57
 70
     0
102
RTVSPropertyOp58
 70
     0
102
RTVSPropertyOp59
 70
     0
102
RTVSPropertyOp60
 70
     0
102
RTVSPropertyOp61
 70
     0
102
RTVSPropertyOp62
 70
     0
  0
XRECORD
  5
31F9
102
{ACAD_REACTORS
330
31F8
102
}
330
31F8
100
AcDbXrecord
280
     1
102
RTVSPost2010Prop28
280
     0
102
RTVSPost2010PropOp28
 70
     1
102
RTVSPost2010Prop29
280
     1
102
RTVSPost2010PropOp29
 70
     1
102
RTVSPost2010Prop30
280
     1
102
RTVSPost2010PropOp30
 70
     1
102
RTVSPost2010Prop31
280
     0
102
RTVSPost2010PropOp31
 70
     1
102
RTVSPost2010Prop32
280
     0
102
RTVSPost2010PropOp32
 70
     1
102
RTVSPost2010Prop33
280
     0
102
RTVSPost2010PropOp33
 70
     1
102
RTVSPost2010Prop34
280
     0
102
RTVSPost2010PropOp34
 70
     1
102
RTVSPost2010Prop35
280
     0
102
RTVSPost2010PropOp35
 70
     1
102
RTVSPost2010Prop36
280
     0
102
RTVSPost2010PropOp36
 70
     1
102
RTVSPost2010Prop37
 90
       50
102
RTVSPost2010PropOp37
 70
     1
102
RTVSPost2010Prop38
140
0.0
102
RTVSPost2010PropOp38
 70
     1
102
RTVSPost2010Prop39
140
1.0
102
RTVSPost2010PropOp39
 70
     1
102
RTVSPost2010Prop40
 90
        0
102
RTVSPost2010PropOp40
 70
     1
102
RTVSPost2010Prop41ColorIndex
 90
       18
102
RTVSPost2010Prop41ColorRGB
 90
        0
102
RTVSPost2010PropOp41
 70
     1
102
RTVSPost2010Prop42
 90
       50
102
RTVSPost2010PropOp42
 70
     1
102
RTVSPost2010Prop43
 90
        3
102
RTVSPost2010PropOp43
 70
     1
102
RTVSPost2010Prop44ColorIndex
 90
        5
102
RTVSPost2010Prop44ColorRGB
 90
      255
102
RTVSPost2010PropOp44
 70
     1
102
RTVSPost2010Prop45
280
     0
102
RTVSPost2010PropOp45
 70
     1
102
RTVSPost2010Prop46
 90
       50
102
RTVSPost2010PropOp46
 70
     1
102
RTVSPost2010Prop47
 90
       50
102
RTVSPost2010PropOp47
 70
     1
102
RTVSPost2010Prop48
 90
       50
102
RTVSPost2010PropOp48
 70
     1
102
RTVSPost2010Prop49
280
     0
102
RTVSPost2010PropOp49
 70
     1
102
RTVSPost2010Prop50
 90
       50
102
RTVSPost2010PropOp50
 70
     1
102
RTVSPost2010Prop51ColorIndex
 90
      256
102
RTVSPost2010Prop51ColorRGB
 90
-16777216
102
RTVSPost2010PropOp51
 70
     0
102
RTVSPost2010Prop52
140
1.0
102
RTVSPost2010PropOp52
 70
     0
102
RTVSPost2010Prop53
 90
        2
102
RTVSPost2010PropOp53
 70
     1
102
RTVSPost2010Prop54
  1
strokes_ogs.tif
102
RTVSPost2010PropOp54
 70
     1
102
RTVSPost2010Prop55
280
     0
102
RTVSPost2010PropOp55
 70
     1
102
RTVSPost2010Prop56
140
1.0
102
RTVSPost2010PropOp56
 70
     1
102
RTVSPost2010Prop57
140
1.0
102
RTVSPost2010PropOp57
 70
     1
102
RTVSPropertyOp0
 70
     1
102
RTVSPropertyOp1
 70
     1
102
RTVSPropertyOp2
 70
     1
102
RTVSPropertyOp3
 70
     1
102
RTVSPropertyOp4
 70
     1
102
RTVSPropertyOp5
 70
     1
102
RTVSPropertyOp6
 70
     1
102
RTVSPropertyOp7
 70
     1
102
RTVSPropertyOp8
 70
     1
102
RTVSPropertyOp9
 70
     1
102
RTVSPropertyOp10
 70
     1
102
RTVSPropertyOp11
 70
     1
102
RTVSPropertyOp12
 70
     1
102
RTVSPropertyOp13
 70
     1
102
RTVSPropertyOp14
 70
     1
102
RTVSPropertyOp15
 70
     1
102
RTVSPropertyOp16
 70
     1
102
RTVSPropertyOp17
 70
     1
102
RTVSPropertyOp18
 70
     1
102
RTVSPropertyOp19
 70
     1
102
RTVSPropertyOp20
 70
     1
102
RTVSPropertyOp21
 70
     1
102
RTVSPropertyOp22
 70
     1
102
RTVSPropertyOp23
 70
     1
102
RTVSPropertyOp24
 70
     1
102
RTVSPropertyOp25
 70
     1
102
RTVSPropertyOp26
 70
     1
102
RTVSPropertyOp27
 70
     1
102
RTVSPropertyOp28
 70
     1
102
RTVSPropertyOp29
 70
     1
102
RTVSPropertyOp30
 70
     1
102
RTVSPropertyOp31
 70
     1
102
RTVSPropertyOp32
 70
     1
102
RTVSPropertyOp33
 70
     1
102
RTVSPropertyOp34
 70
     1
102
RTVSPropertyOp35
 70
     1
102
RTVSPropertyOp36
 70
     1
102
RTVSPropertyOp37
 70
     1
102
RTVSPropertyOp38
 70
     1
102
RTVSPropertyOp39
 70
     1
102
RTVSPropertyOp40
 70
     1
102
RTVSPropertyOp41
 70
     1
102
RTVSPropertyOp42
 70
     1
102
RTVSPropertyOp43
 70
     1
102
RTVSPropertyOp44
 70
     1
102
RTVSPropertyOp45
 70
     1
102
RTVSPropertyOp46
 70
     1
102
RTVSPropertyOp47
 70
     1
102
RTVSPropertyOp48
 70
     1
102
RTVSPropertyOp49
 70
     1
102
RTVSPropertyOp50
 70
     1
102
RTVSPropertyOp51
 70
     0
102
RTVSPropertyOp52
 70
     0
102
RTVSPropertyOp53
 70
     1
102
RTVSPropertyOp54
 70
     1
102
RTVSPropertyOp55
 70
     1
102
RTVSPropertyOp56
 70
     1
102
RTVSPropertyOp57
 70
     1
102
RTVSPropertyOp58
 70
     1
102
RTVSPropertyOp59
 70
     1
102
RTVSPropertyOp60
 70
     1
102
RTVSPropertyOp61
 70
     1
102
RTVSPropertyOp62
 70
     1
  0
XRECORD
  5
31DD
102
{ACAD_REACTORS
330
31DC
102
}
330
31DC
100
AcDbXrecord
280
     1
102
RTVSPost2010Prop28
280
     0
102
RTVSPost2010PropOp28
 70
     1
102
RTVSPost2010Prop29
280
     1
102
RTVSPost2010PropOp29
 70
     1
102
RTVSPost2010Prop30
280
     1
102
RTVSPost2010PropOp30
 70
     1
102
RTVSPost2010Prop31
280
     0
102
RTVSPost2010PropOp31
 70
     1
102
RTVSPost2010Prop32
280
     0
102
RTVSPost2010PropOp32
 70
     1
102
RTVSPost2010Prop33
280
     0
102
RTVSPost2010PropOp33
 70
     1
102
RTVSPost2010Prop34
280
     0
102
RTVSPost2010PropOp34
 70
     1
102
RTVSPost2010Prop35
280
     0
102
RTVSPost2010PropOp35
 70
     1
102
RTVSPost2010Prop36
280
     0
102
RTVSPost2010PropOp36
 70
     1
102
RTVSPost2010Prop37
 90
       50
102
RTVSPost2010PropOp37
 70
     1
102
RTVSPost2010Prop38
140
0.0
102
RTVSPost2010PropOp38
 70
     1
102
RTVSPost2010Prop39
140
1.0
102
RTVSPost2010PropOp39
 70
     1
102
RTVSPost2010Prop40
 90
        0
102
RTVSPost2010PropOp40
 70
     1
102
RTVSPost2010Prop41ColorIndex
 90
       18
102
RTVSPost2010Prop41ColorRGB
 90
        0
102
RTVSPost2010PropOp41
 70
     1
102
RTVSPost2010Prop42
 90
       50
102
RTVSPost2010PropOp42
 70
     1
102
RTVSPost2010Prop43
 90
        3
102
RTVSPost2010PropOp43
 70
     1
102
RTVSPost2010Prop44ColorIndex
 90
        5
102
RTVSPost2010Prop44ColorRGB
 90
      255
102
RTVSPost2010PropOp44
 70
     1
102
RTVSPost2010Prop45
280
     0
102
RTVSPost2010PropOp45
 70
     1
102
RTVSPost2010Prop46
 90
       50
102
RTVSPost2010PropOp46
 70
     1
102
RTVSPost2010Prop47
 90
       50
102
RTVSPost2010PropOp47
 70
     1
102
RTVSPost2010Prop48
 90
       50
102
RTVSPost2010PropOp48
 70
     1
102
RTVSPost2010Prop49
280
     0
102
RTVSPost2010PropOp49
 70
     1
102
RTVSPost2010Prop50
 90
       50
102
RTVSPost2010PropOp50
 70
     1
102
RTVSPost2010Prop51ColorIndex
 90
      256
102
RTVSPost2010Prop51ColorRGB
 90
-16777216
102
RTVSPost2010PropOp51
 70
     0
102
RTVSPost2010Prop52
140
1.0
102
RTVSPost2010PropOp52
 70
     0
102
RTVSPost2010Prop53
 90
        2
102
RTVSPost2010PropOp53
 70
     1
102
RTVSPost2010Prop54
  1
strokes_ogs.tif
102
RTVSPost2010PropOp54
 70
     1
102
RTVSPost2010Prop55
280
     0
102
RTVSPost2010PropOp55
 70
     1
102
RTVSPost2010Prop56
140
1.0
102
RTVSPost2010PropOp56
 70
     1
102
RTVSPost2010Prop57
140
1.0
102
RTVSPost2010PropOp57
 70
     1
102
RTVSPropertyOp0
 70
     1
102
RTVSPropertyOp1
 70
     1
102
RTVSPropertyOp2
 70
     1
102
RTVSPropertyOp3
 70
     1
102
RTVSPropertyOp4
 70
     1
102
RTVSPropertyOp5
 70
     1
102
RTVSPropertyOp6
 70
     1
102
RTVSPropertyOp7
 70
     1
102
RTVSPropertyOp8
 70
     1
102
RTVSPropertyOp9
 70
     1
102
RTVSPropertyOp10
 70
     1
102
RTVSPropertyOp11
 70
     1
102
RTVSPropertyOp12
 70
     1
102
RTVSPropertyOp13
 70
     1
102
RTVSPropertyOp14
 70
     1
102
RTVSPropertyOp15
 70
     1
102
RTVSPropertyOp16
 70
     1
102
RTVSPropertyOp17
 70
     1
102
RTVSPropertyOp18
 70
     1
102
RTVSPropertyOp19
 70
     1
102
RTVSPropertyOp20
 70
     1
102
RTVSPropertyOp21
 70
     1
102
RTVSPropertyOp22
 70
     1
102
RTVSPropertyOp23
 70
     1
102
RTVSPropertyOp24
 70
     1
102
RTVSPropertyOp25
 70
     1
102
RTVSPropertyOp26
 70
     1
102
RTVSPropertyOp27
 70
     1
102
RTVSPropertyOp28
 70
     1
102
RTVSPropertyOp29
 70
     1
102
RTVSPropertyOp30
 70
     1
102
RTVSPropertyOp31
 70
     1
102
RTVSPropertyOp32
 70
     1
102
RTVSPropertyOp33
 70
     1
102
RTVSPropertyOp34
 70
     1
102
RTVSPropertyOp35
 70
     1
102
RTVSPropertyOp36
 70
     1
102
RTVSPropertyOp37
 70
     1
102
RTVSPropertyOp38
 70
     1
102
RTVSPropertyOp39
 70
     1
102
RTVSPropertyOp40
 70
     1
102
RTVSPropertyOp41
 70
     1
102
RTVSPropertyOp42
 70
     1
102
RTVSPropertyOp43
 70
     1
102
RTVSPropertyOp44
 70
     1
102
RTVSPropertyOp45
 70
     1
102
RTVSPropertyOp46
 70
     1
102
RTVSPropertyOp47
 70
     1
102
RTVSPropertyOp48
 70
     1
102
RTVSPropertyOp49
 70
     1
102
RTVSPropertyOp50
 70
     1
102
RTVSPropertyOp51
 70
     0
102
RTVSPropertyOp52
 70
     0
102
RTVSPropertyOp53
 70
     1
102
RTVSPropertyOp54
 70
     1
102
RTVSPropertyOp55
 70
     1
102
RTVSPropertyOp56
 70
     1
102
RTVSPropertyOp57
 70
     1
102
RTVSPropertyOp58
 70
     1
102
RTVSPropertyOp59
 70
     1
102
RTVSPropertyOp60
 70
     1
102
RTVSPropertyOp61
 70
     1
102
RTVSPropertyOp62
 70
     1
  0
XRECORD
  5
31DF
102
{ACAD_REACTORS
330
31DE
102
}
330
31DE
100
AcDbXrecord
280
     1
102
RTVSPost2010Prop28
280
     0
102
RTVSPost2010PropOp28
 70
     1
102
RTVSPost2010Prop29
280
     1
102
RTVSPost2010PropOp29
 70
     1
102
RTVSPost2010Prop30
280
     1
102
RTVSPost2010PropOp30
 70
     1
102
RTVSPost2010Prop31
280
     0
102
RTVSPost2010PropOp31
 70
     1
102
RTVSPost2010Prop32
280
     0
102
RTVSPost2010PropOp32
 70
     1
102
RTVSPost2010Prop33
280
     0
102
RTVSPost2010PropOp33
 70
     1
102
RTVSPost2010Prop34
280
     0
102
RTVSPost2010PropOp34
 70
     1
102
RTVSPost2010Prop35
280
     0
102
RTVSPost2010PropOp35
 70
     1
102
RTVSPost2010Prop36
280
     0
102
RTVSPost2010PropOp36
 70
     1
102
RTVSPost2010Prop37
 90
       50
102
RTVSPost2010PropOp37
 70
     1
102
RTVSPost2010Prop38
140
0.0
102
RTVSPost2010PropOp38
 70
     1
102
RTVSPost2010Prop39
140
1.0
102
RTVSPost2010PropOp39
 70
     1
102
RTVSPost2010Prop40
 90
        0
102
RTVSPost2010PropOp40
 70
     1
102
RTVSPost2010Prop41ColorIndex
 90
       18
102
RTVSPost2010Prop41ColorRGB
 90
        0
102
RTVSPost2010PropOp41
 70
     1
102
RTVSPost2010Prop42
 90
       50
102
RTVSPost2010PropOp42
 70
     1
102
RTVSPost2010Prop43
 90
        3
102
RTVSPost2010PropOp43
 70
     1
102
RTVSPost2010Prop44ColorIndex
 90
        5
102
RTVSPost2010Prop44ColorRGB
 90
      255
102
RTVSPost2010PropOp44
 70
     1
102
RTVSPost2010Prop45
280
     0
102
RTVSPost2010PropOp45
 70
     1
102
RTVSPost2010Prop46
 90
       50
102
RTVSPost2010PropOp46
 70
     1
102
RTVSPost2010Prop47
 90
       50
102
RTVSPost2010PropOp47
 70
     1
102
RTVSPost2010Prop48
 90
       50
102
RTVSPost2010PropOp48
 70
     1
102
RTVSPost2010Prop49
280
     0
102
RTVSPost2010PropOp49
 70
     1
102
RTVSPost2010Prop50
 90
       50
102
RTVSPost2010PropOp50
 70
     1
102
RTVSPost2010Prop51ColorIndex
 90
      256
102
RTVSPost2010Prop51ColorRGB
 90
-16777216
102
RTVSPost2010PropOp51
 70
     0
102
RTVSPost2010Prop52
140
1.0
102
RTVSPost2010PropOp52
 70
     0
102
RTVSPost2010Prop53
 90
        2
102
RTVSPost2010PropOp53
 70
     1
102
RTVSPost2010Prop54
  1
strokes_ogs.tif
102
RTVSPost2010PropOp54
 70
     1
102
RTVSPost2010Prop55
280
     0
102
RTVSPost2010PropOp55
 70
     1
102
RTVSPost2010Prop56
140
1.0
102
RTVSPost2010PropOp56
 70
     1
102
RTVSPost2010Prop57
140
1.0
102
RTVSPost2010PropOp57
 70
     1
102
RTVSPropertyOp0
 70
     1
102
RTVSPropertyOp1
 70
     1
102
RTVSPropertyOp2
 70
     1
102
RTVSPropertyOp3
 70
     1
102
RTVSPropertyOp4
 70
     1
102
RTVSPropertyOp5
 70
     1
102
RTVSPropertyOp6
 70
     1
102
RTVSPropertyOp7
 70
     1
102
RTVSPropertyOp8
 70
     1
102
RTVSPropertyOp9
 70
     1
102
RTVSPropertyOp10
 70
     1
102
RTVSPropertyOp11
 70
     1
102
RTVSPropertyOp12
 70
     1
102
RTVSPropertyOp13
 70
     1
102
RTVSPropertyOp14
 70
     1
102
RTVSPropertyOp15
 70
     1
102
RTVSPropertyOp16
 70
     1
102
RTVSPropertyOp17
 70
     1
102
RTVSPropertyOp18
 70
     1
102
RTVSPropertyOp19
 70
     1
102
RTVSPropertyOp20
 70
     1
102
RTVSPropertyOp21
 70
     1
102
RTVSPropertyOp22
 70
     1
102
RTVSPropertyOp23
 70
     1
102
RTVSPropertyOp24
 70
     1
102
RTVSPropertyOp25
 70
     1
102
RTVSPropertyOp26
 70
     1
102
RTVSPropertyOp27
 70
     1
102
RTVSPropertyOp28
 70
     1
102
RTVSPropertyOp29
 70
     1
102
RTVSPropertyOp30
 70
     1
102
RTVSPropertyOp31
 70
     1
102
RTVSPropertyOp32
 70
     1
102
RTVSPropertyOp33
 70
     1
102
RTVSPropertyOp34
 70
     1
102
RTVSPropertyOp35
 70
     1
102
RTVSPropertyOp36
 70
     1
102
RTVSPropertyOp37
 70
     1
102
RTVSPropertyOp38
 70
     1
102
RTVSPropertyOp39
 70
     1
102
RTVSPropertyOp40
 70
     1
102
RTVSPropertyOp41
 70
     1
102
RTVSPropertyOp42
 70
     1
102
RTVSPropertyOp43
 70
     1
102
RTVSPropertyOp44
 70
     1
102
RTVSPropertyOp45
 70
     1
102
RTVSPropertyOp46
 70
     1
102
RTVSPropertyOp47
 70
     1
102
RTVSPropertyOp48
 70
     1
102
RTVSPropertyOp49
 70
     1
102
RTVSPropertyOp50
 70
     1
102
RTVSPropertyOp51
 70
     0
102
RTVSPropertyOp52
 70
     0
102
RTVSPropertyOp53
 70
     1
102
RTVSPropertyOp54
 70
     1
102
RTVSPropertyOp55
 70
     1
102
RTVSPropertyOp56
 70
     1
102
RTVSPropertyOp57
 70
     1
102
RTVSPropertyOp58
 70
     1
102
RTVSPropertyOp59
 70
     1
102
RTVSPropertyOp60
 70
     1
102
RTVSPropertyOp61
 70
     1
102
RTVSPropertyOp62
 70
     1
  0
XRECORD
  5
31E1
102
{ACAD_REACTORS
330
31E0
102
}
330
31E0
100
AcDbXrecord
280
     1
102
RTVSPost2010Prop28
280
     0
102
RTVSPost2010PropOp28
 70
     1
102
RTVSPost2010Prop29
280
     1
102
RTVSPost2010PropOp29
 70
     1
102
RTVSPost2010Prop30
280
     1
102
RTVSPost2010PropOp30
 70
     1
102
RTVSPost2010Prop31
280
     0
102
RTVSPost2010PropOp31
 70
     1
102
RTVSPost2010Prop32
280
     0
102
RTVSPost2010PropOp32
 70
     1
102
RTVSPost2010Prop33
280
     0
102
RTVSPost2010PropOp33
 70
     1
102
RTVSPost2010Prop34
280
     0
102
RTVSPost2010PropOp34
 70
     1
102
RTVSPost2010Prop35
280
     0
102
RTVSPost2010PropOp35
 70
     1
102
RTVSPost2010Prop36
280
     0
102
RTVSPost2010PropOp36
 70
     1
102
RTVSPost2010Prop37
 90
       50
102
RTVSPost2010PropOp37
 70
     1
102
RTVSPost2010Prop38
140
0.0
102
RTVSPost2010PropOp38
 70
     1
102
RTVSPost2010Prop39
140
1.0
102
RTVSPost2010PropOp39
 70
     1
102
RTVSPost2010Prop40
 90
        0
102
RTVSPost2010PropOp40
 70
     1
102
RTVSPost2010Prop41ColorIndex
 90
       18
102
RTVSPost2010Prop41ColorRGB
 90
        0
102
RTVSPost2010PropOp41
 70
     1
102
RTVSPost2010Prop42
 90
       50
102
RTVSPost2010PropOp42
 70
     1
102
RTVSPost2010Prop43
 90
        3
102
RTVSPost2010PropOp43
 70
     1
102
RTVSPost2010Prop44ColorIndex
 90
        5
102
RTVSPost2010Prop44ColorRGB
 90
      255
102
RTVSPost2010PropOp44
 70
     1
102
RTVSPost2010Prop45
280
     0
102
RTVSPost2010PropOp45
 70
     1
102
RTVSPost2010Prop46
 90
       50
102
RTVSPost2010PropOp46
 70
     1
102
RTVSPost2010Prop47
 90
       50
102
RTVSPost2010PropOp47
 70
     1
102
RTVSPost2010Prop48
 90
       50
102
RTVSPost2010PropOp48
 70
     1
102
RTVSPost2010Prop49
280
     0
102
RTVSPost2010PropOp49
 70
     1
102
RTVSPost2010Prop50
 90
       50
102
RTVSPost2010PropOp50
 70
     1
102
RTVSPost2010Prop51ColorIndex
 90
      256
102
RTVSPost2010Prop51ColorRGB
 90
-16777216
102
RTVSPost2010PropOp51
 70
     0
102
RTVSPost2010Prop52
140
1.0
102
RTVSPost2010PropOp52
 70
     0
102
RTVSPost2010Prop53
 90
        2
102
RTVSPost2010PropOp53
 70
     1
102
RTVSPost2010Prop54
  1
strokes_ogs.tif
102
RTVSPost2010PropOp54
 70
     1
102
RTVSPost2010Prop55
280
     0
102
RTVSPost2010PropOp55
 70
     1
102
RTVSPost2010Prop56
140
1.0
102
RTVSPost2010PropOp56
 70
     1
102
RTVSPost2010Prop57
140
1.0
102
RTVSPost2010PropOp57
 70
     1
102
RTVSPropertyOp0
 70
     1
102
RTVSPropertyOp1
 70
     1
102
RTVSPropertyOp2
 70
     1
102
RTVSPropertyOp3
 70
     1
102
RTVSPropertyOp4
 70
     1
102
RTVSPropertyOp5
 70
     1
102
RTVSPropertyOp6
 70
     1
102
RTVSPropertyOp7
 70
     1
102
RTVSPropertyOp8
 70
     1
102
RTVSPropertyOp9
 70
     1
102
RTVSPropertyOp10
 70
     1
102
RTVSPropertyOp11
 70
     1
102
RTVSPropertyOp12
 70
     1
102
RTVSPropertyOp13
 70
     1
102
RTVSPropertyOp14
 70
     1
102
RTVSPropertyOp15
 70
     1
102
RTVSPropertyOp16
 70
     1
102
RTVSPropertyOp17
 70
     1
102
RTVSPropertyOp18
 70
     1
102
RTVSPropertyOp19
 70
     1
102
RTVSPropertyOp20
 70
     1
102
RTVSPropertyOp21
 70
     1
102
RTVSPropertyOp22
 70
     1
102
RTVSPropertyOp23
 70
     1
102
RTVSPropertyOp24
 70
     1
102
RTVSPropertyOp25
 70
     1
102
RTVSPropertyOp26
 70
     1
102
RTVSPropertyOp27
 70
     1
102
RTVSPropertyOp28
 70
     1
102
RTVSPropertyOp29
 70
     1
102
RTVSPropertyOp30
 70
     1
102
RTVSPropertyOp31
 70
     1
102
RTVSPropertyOp32
 70
     1
102
RTVSPropertyOp33
 70
     1
102
RTVSPropertyOp34
 70
     1
102
RTVSPropertyOp35
 70
     1
102
RTVSPropertyOp36
 70
     1
102
RTVSPropertyOp37
 70
     1
102
RTVSPropertyOp38
 70
     1
102
RTVSPropertyOp39
 70
     1
102
RTVSPropertyOp40
 70
     1
102
RTVSPropertyOp41
 70
     1
102
RTVSPropertyOp42
 70
     1
102
RTVSPropertyOp43
 70
     1
102
RTVSPropertyOp44
 70
     1
102
RTVSPropertyOp45
 70
     1
102
RTVSPropertyOp46
 70
     1
102
RTVSPropertyOp47
 70
     1
102
RTVSPropertyOp48
 70
     1
102
RTVSPropertyOp49
 70
     1
102
RTVSPropertyOp50
 70
     1
102
RTVSPropertyOp51
 70
     0
102
RTVSPropertyOp52
 70
     0
102
RTVSPropertyOp53
 70
     1
102
RTVSPropertyOp54
 70
     1
102
RTVSPropertyOp55
 70
     1
102
RTVSPropertyOp56
 70
     1
102
RTVSPropertyOp57
 70
     1
102
RTVSPropertyOp58
 70
     1
102
RTVSPropertyOp59
 70
     1
102
RTVSPropertyOp60
 70
     1
102
RTVSPropertyOp61
 70
     1
102
RTVSPropertyOp62
 70
     1
  0
XRECORD
  5
31E3
102
{ACAD_REACTORS
330
31E2
102
}
330
31E2
100
AcDbXrecord
280
     1
102
RTVSPost2010Prop28
280
     0
102
RTVSPost2010PropOp28
 70
     1
102
RTVSPost2010Prop29
280
     1
102
RTVSPost2010PropOp29
 70
     1
102
RTVSPost2010Prop30
280
     1
102
RTVSPost2010PropOp30
 70
     1
102
RTVSPost2010Prop31
280
     0
102
RTVSPost2010PropOp31
 70
     1
102
RTVSPost2010Prop32
280
     0
102
RTVSPost2010PropOp32
 70
     1
102
RTVSPost2010Prop33
280
     0
102
RTVSPost2010PropOp33
 70
     1
102
RTVSPost2010Prop34
280
     0
102
RTVSPost2010PropOp34
 70
     1
102
RTVSPost2010Prop35
280
     0
102
RTVSPost2010PropOp35
 70
     1
102
RTVSPost2010Prop36
280
     0
102
RTVSPost2010PropOp36
 70
     1
102
RTVSPost2010Prop37
 90
       50
102
RTVSPost2010PropOp37
 70
     1
102
RTVSPost2010Prop38
140
0.0
102
RTVSPost2010PropOp38
 70
     1
102
RTVSPost2010Prop39
140
1.0
102
RTVSPost2010PropOp39
 70
     1
102
RTVSPost2010Prop40
 90
        0
102
RTVSPost2010PropOp40
 70
     1
102
RTVSPost2010Prop41ColorIndex
 90
       18
102
RTVSPost2010Prop41ColorRGB
 90
        0
102
RTVSPost2010PropOp41
 70
     1
102
RTVSPost2010Prop42
 90
       50
102
RTVSPost2010PropOp42
 70
     1
102
RTVSPost2010Prop43
 90
        3
102
RTVSPost2010PropOp43
 70
     1
102
RTVSPost2010Prop44ColorIndex
 90
        5
102
RTVSPost2010Prop44ColorRGB
 90
      255
102
RTVSPost2010PropOp44
 70
     1
102
RTVSPost2010Prop45
280
     0
102
RTVSPost2010PropOp45
 70
     1
102
RTVSPost2010Prop46
 90
       50
102
RTVSPost2010PropOp46
 70
     1
102
RTVSPost2010Prop47
 90
       50
102
RTVSPost2010PropOp47
 70
     1
102
RTVSPost2010Prop48
 90
       50
102
RTVSPost2010PropOp48
 70
     1
102
RTVSPost2010Prop49
280
     0
102
RTVSPost2010PropOp49
 70
     1
102
RTVSPost2010Prop50
 90
       50
102
RTVSPost2010PropOp50
 70
     1
102
RTVSPost2010Prop51ColorIndex
 90
      256
102
RTVSPost2010Prop51ColorRGB
 90
-16777216
102
RTVSPost2010PropOp51
 70
     0
102
RTVSPost2010Prop52
140
1.0
102
RTVSPost2010PropOp52
 70
     0
102
RTVSPost2010Prop53
 90
        2
102
RTVSPost2010PropOp53
 70
     1
102
RTVSPost2010Prop54
  1
strokes_ogs.tif
102
RTVSPost2010PropOp54
 70
     1
102
RTVSPost2010Prop55
280
     0
102
RTVSPost2010PropOp55
 70
     1
102
RTVSPost2010Prop56
140
1.0
102
RTVSPost2010PropOp56
 70
     1
102
RTVSPost2010Prop57
140
1.0
102
RTVSPost2010PropOp57
 70
     1
102
RTVSPropertyOp0
 70
     1
102
RTVSPropertyOp1
 70
     1
102
RTVSPropertyOp2
 70
     1
102
RTVSPropertyOp3
 70
     1
102
RTVSPropertyOp4
 70
     1
102
RTVSPropertyOp5
 70
     1
102
RTVSPropertyOp6
 70
     1
102
RTVSPropertyOp7
 70
     1
102
RTVSPropertyOp8
 70
     1
102
RTVSPropertyOp9
 70
     1
102
RTVSPropertyOp10
 70
     1
102
RTVSPropertyOp11
 70
     1
102
RTVSPropertyOp12
 70
     1
102
RTVSPropertyOp13
 70
     1
102
RTVSPropertyOp14
 70
     1
102
RTVSPropertyOp15
 70
     1
102
RTVSPropertyOp16
 70
     1
102
RTVSPropertyOp17
 70
     1
102
RTVSPropertyOp18
 70
     1
102
RTVSPropertyOp19
 70
     1
102
RTVSPropertyOp20
 70
     1
102
RTVSPropertyOp21
 70
     1
102
RTVSPropertyOp22
 70
     1
102
RTVSPropertyOp23
 70
     1
102
RTVSPropertyOp24
 70
     1
102
RTVSPropertyOp25
 70
     1
102
RTVSPropertyOp26
 70
     1
102
RTVSPropertyOp27
 70
     1
102
RTVSPropertyOp28
 70
     1
102
RTVSPropertyOp29
 70
     1
102
RTVSPropertyOp30
 70
     1
102
RTVSPropertyOp31
 70
     1
102
RTVSPropertyOp32
 70
     1
102
RTVSPropertyOp33
 70
     1
102
RTVSPropertyOp34
 70
     1
102
RTVSPropertyOp35
 70
     1
102
RTVSPropertyOp36
 70
     1
102
RTVSPropertyOp37
 70
     1
102
RTVSPropertyOp38
 70
     1
102
RTVSPropertyOp39
 70
     1
102
RTVSPropertyOp40
 70
     1
102
RTVSPropertyOp41
 70
     1
102
RTVSPropertyOp42
 70
     1
102
RTVSPropertyOp43
 70
     1
102
RTVSPropertyOp44
 70
     1
102
RTVSPropertyOp45
 70
     1
102
RTVSPropertyOp46
 70
     1
102
RTVSPropertyOp47
 70
     1
102
RTVSPropertyOp48
 70
     1
102
RTVSPropertyOp49
 70
     1
102
RTVSPropertyOp50
 70
     1
102
RTVSPropertyOp51
 70
     0
102
RTVSPropertyOp52
 70
     0
102
RTVSPropertyOp53
 70
     1
102
RTVSPropertyOp54
 70
     1
102
RTVSPropertyOp55
 70
     1
102
RTVSPropertyOp56
 70
     1
102
RTVSPropertyOp57
 70
     1
102
RTVSPropertyOp58
 70
     1
102
RTVSPropertyOp59
 70
     1
102
RTVSPropertyOp60
 70
     1
102
RTVSPropertyOp61
 70
     1
102
RTVSPropertyOp62
 70
     1
  0
XRECORD
  5
31EB
102
{ACAD_REACTORS
330
31EA
102
}
330
31EA
100
AcDbXrecord
280
     1
102
RTVSPost2010Prop28
280
     0
102
RTVSPost2010PropOp28
 70
     1
102
RTVSPost2010Prop29
280
     1
102
RTVSPost2010PropOp29
 70
     1
102
RTVSPost2010Prop30
280
     1
102
RTVSPost2010PropOp30
 70
     1
102
RTVSPost2010Prop31
280
     0
102
RTVSPost2010PropOp31
 70
     1
102
RTVSPost2010Prop32
280
     0
102
RTVSPost2010PropOp32
 70
     1
102
RTVSPost2010Prop33
280
     0
102
RTVSPost2010PropOp33
 70
     1
102
RTVSPost2010Prop34
280
     0
102
RTVSPost2010PropOp34
 70
     1
102
RTVSPost2010Prop35
280
     0
102
RTVSPost2010PropOp35
 70
     1
102
RTVSPost2010Prop36
280
     0
102
RTVSPost2010PropOp36
 70
     1
102
RTVSPost2010Prop37
 90
       50
102
RTVSPost2010PropOp37
 70
     1
102
RTVSPost2010Prop38
140
0.0
102
RTVSPost2010PropOp38
 70
     1
102
RTVSPost2010Prop39
140
1.0
102
RTVSPost2010PropOp39
 70
     1
102
RTVSPost2010Prop40
 90
        0
102
RTVSPost2010PropOp40
 70
     1
102
RTVSPost2010Prop41ColorIndex
 90
       18
102
RTVSPost2010Prop41ColorRGB
 90
        0
102
RTVSPost2010PropOp41
 70
     1
102
RTVSPost2010Prop42
 90
       50
102
RTVSPost2010PropOp42
 70
     1
102
RTVSPost2010Prop43
 90
        3
102
RTVSPost2010PropOp43
 70
     1
102
RTVSPost2010Prop44ColorIndex
 90
        5
102
RTVSPost2010Prop44ColorRGB
 90
      255
102
RTVSPost2010PropOp44
 70
     1
102
RTVSPost2010Prop45
280
     0
102
RTVSPost2010PropOp45
 70
     1
102
RTVSPost2010Prop46
 90
       50
102
RTVSPost2010PropOp46
 70
     1
102
RTVSPost2010Prop47
 90
       50
102
RTVSPost2010PropOp47
 70
     1
102
RTVSPost2010Prop48
 90
       50
102
RTVSPost2010PropOp48
 70
     1
102
RTVSPost2010Prop49
280
     0
102
RTVSPost2010PropOp49
 70
     1
102
RTVSPost2010Prop50
 90
       50
102
RTVSPost2010PropOp50
 70
     1
102
RTVSPost2010Prop51ColorIndex
 90
      256
102
RTVSPost2010Prop51ColorRGB
 90
-16777216
102
RTVSPost2010PropOp51
 70
     0
102
RTVSPost2010Prop52
140
1.0
102
RTVSPost2010PropOp52
 70
     0
102
RTVSPost2010Prop53
 90
        2
102
RTVSPost2010PropOp53
 70
     1
102
RTVSPost2010Prop54
  1
strokes_ogs.tif
102
RTVSPost2010PropOp54
 70
     1
102
RTVSPost2010Prop55
280
     0
102
RTVSPost2010PropOp55
 70
     1
102
RTVSPost2010Prop56
140
1.0
102
RTVSPost2010PropOp56
 70
     1
102
RTVSPost2010Prop57
140
1.0
102
RTVSPost2010PropOp57
 70
     1
102
RTVSPropertyOp0
 70
     1
102
RTVSPropertyOp1
 70
     1
102
RTVSPropertyOp2
 70
     1
102
RTVSPropertyOp3
 70
     1
102
RTVSPropertyOp4
 70
     1
102
RTVSPropertyOp5
 70
     1
102
RTVSPropertyOp6
 70
     1
102
RTVSPropertyOp7
 70
     1
102
RTVSPropertyOp8
 70
     1
102
RTVSPropertyOp9
 70
     1
102
RTVSPropertyOp10
 70
     1
102
RTVSPropertyOp11
 70
     1
102
RTVSPropertyOp12
 70
     1
102
RTVSPropertyOp13
 70
     1
102
RTVSPropertyOp14
 70
     1
102
RTVSPropertyOp15
 70
     1
102
RTVSPropertyOp16
 70
     1
102
RTVSPropertyOp17
 70
     1
102
RTVSPropertyOp18
 70
     1
102
RTVSPropertyOp19
 70
     1
102
RTVSPropertyOp20
 70
     1
102
RTVSPropertyOp21
 70
     1
102
RTVSPropertyOp22
 70
     1
102
RTVSPropertyOp23
 70
     1
102
RTVSPropertyOp24
 70
     1
102
RTVSPropertyOp25
 70
     1
102
RTVSPropertyOp26
 70
     1
102
RTVSPropertyOp27
 70
     1
102
RTVSPropertyOp28
 70
     1
102
RTVSPropertyOp29
 70
     1
102
RTVSPropertyOp30
 70
     1
102
RTVSPropertyOp31
 70
     1
102
RTVSPropertyOp32
 70
     1
102
RTVSPropertyOp33
 70
     1
102
RTVSPropertyOp34
 70
     1
102
RTVSPropertyOp35
 70
     1
102
RTVSPropertyOp36
 70
     1
102
RTVSPropertyOp37
 70
     1
102
RTVSPropertyOp38
 70
     1
102
RTVSPropertyOp39
 70
     1
102
RTVSPropertyOp40
 70
     1
102
RTVSPropertyOp41
 70
     1
102
RTVSPropertyOp42
 70
     1
102
RTVSPropertyOp43
 70
     1
102
RTVSPropertyOp44
 70
     1
102
RTVSPropertyOp45
 70
     1
102
RTVSPropertyOp46
 70
     1
102
RTVSPropertyOp47
 70
     1
102
RTVSPropertyOp48
 70
     1
102
RTVSPropertyOp49
 70
     1
102
RTVSPropertyOp50
 70
     1
102
RTVSPropertyOp51
 70
     0
102
RTVSPropertyOp52
 70
     0
102
RTVSPropertyOp53
 70
     1
102
RTVSPropertyOp54
 70
     1
102
RTVSPropertyOp55
 70
     1
102
RTVSPropertyOp56
 70
     1
102
RTVSPropertyOp57
 70
     1
102
RTVSPropertyOp58
 70
     1
102
RTVSPropertyOp59
 70
     1
102
RTVSPropertyOp60
 70
     1
102
RTVSPropertyOp61
 70
     1
102
RTVSPropertyOp62
 70
     1
  0
XRECORD
  5
3207
102
{ACAD_REACTORS
330
3206
102
}
330
3206
100
AcDbXrecord
280
     1
102
RTVSPost2010Prop28
280
     0
102
RTVSPost2010PropOp28
 70
     1
102
RTVSPost2010Prop29
280
     1
102
RTVSPost2010PropOp29
 70
     1
102
RTVSPost2010Prop30
280
     1
102
RTVSPost2010PropOp30
 70
     1
102
RTVSPost2010Prop31
280
     0
102
RTVSPost2010PropOp31
 70
     1
102
RTVSPost2010Prop32
280
     0
102
RTVSPost2010PropOp32
 70
     1
102
RTVSPost2010Prop33
280
     0
102
RTVSPost2010PropOp33
 70
     1
102
RTVSPost2010Prop34
280
     0
102
RTVSPost2010PropOp34
 70
     1
102
RTVSPost2010Prop35
280
     0
102
RTVSPost2010PropOp35
 70
     1
102
RTVSPost2010Prop36
280
     0
102
RTVSPost2010PropOp36
 70
     1
102
RTVSPost2010Prop37
 90
       50
102
RTVSPost2010PropOp37
 70
     0
102
RTVSPost2010Prop38
140
0.0
102
RTVSPost2010PropOp38
 70
     0
102
RTVSPost2010Prop39
140
1.0
102
RTVSPost2010PropOp39
 70
     0
102
RTVSPost2010Prop40
 90
        0
102
RTVSPost2010PropOp40
 70
     0
102
RTVSPost2010Prop41ColorIndex
 90
       18
102
RTVSPost2010Prop41ColorRGB
 90
        0
102
RTVSPost2010PropOp41
 70
     0
102
RTVSPost2010Prop42
 90
       50
102
RTVSPost2010PropOp42
 70
     0
102
RTVSPost2010Prop43
 90
        3
102
RTVSPost2010PropOp43
 70
     0
102
RTVSPost2010Prop44ColorIndex
 90
        5
102
RTVSPost2010Prop44ColorRGB
 90
      255
102
RTVSPost2010PropOp44
 70
     0
102
RTVSPost2010Prop45
280
     0
102
RTVSPost2010PropOp45
 70
     1
102
RTVSPost2010Prop46
 90
       50
102
RTVSPost2010PropOp46
 70
     0
102
RTVSPost2010Prop47
 90
       50
102
RTVSPost2010PropOp47
 70
     0
102
RTVSPost2010Prop48
 90
       50
102
RTVSPost2010PropOp48
 70
     0
102
RTVSPost2010Prop49
280
     0
102
RTVSPost2010PropOp49
 70
     1
102
RTVSPost2010Prop50
 90
       50
102
RTVSPost2010PropOp50
 70
     0
102
RTVSPost2010Prop51ColorIndex
 90
      256
102
RTVSPost2010Prop51ColorRGB
 90
-16777216
102
RTVSPost2010PropOp51
 70
     0
102
RTVSPost2010Prop52
140
1.0
102
RTVSPost2010PropOp52
 70
     0
102
RTVSPost2010Prop53
 90
        2
102
RTVSPost2010PropOp53
 70
     0
102
RTVSPost2010Prop54
  1
strokes_ogs.tif
102
RTVSPost2010PropOp54
 70
     0
102
RTVSPost2010Prop55
280
     0
102
RTVSPost2010PropOp55
 70
     1
102
RTVSPost2010Prop56
140
1.0
102
RTVSPost2010PropOp56
 70
     0
102
RTVSPost2010Prop57
140
1.0
102
RTVSPost2010PropOp57
 70
     0
102
RTVSPropertyOp0
 70
     0
102
RTVSPropertyOp1
 70
     0
102
RTVSPropertyOp2
 70
     0
102
RTVSPropertyOp3
 70
     0
102
RTVSPropertyOp4
 70
     0
102
RTVSPropertyOp5
 70
     0
102
RTVSPropertyOp6
 70
     0
102
RTVSPropertyOp7
 70
     0
102
RTVSPropertyOp8
 70
     0
102
RTVSPropertyOp9
 70
     0
102
RTVSPropertyOp10
 70
     0
102
RTVSPropertyOp11
 70
     0
102
RTVSPropertyOp12
 70
     0
102
RTVSPropertyOp13
 70
     0
102
RTVSPropertyOp14
 70
     2
102
RTVSPropertyOp15
 70
     0
102
RTVSPropertyOp16
 70
     0
102
RTVSPropertyOp17
 70
     0
102
RTVSPropertyOp18
 70
     0
102
RTVSPropertyOp19
 70
     0
102
RTVSPropertyOp20
 70
     0
102
RTVSPropertyOp21
 70
     0
102
RTVSPropertyOp22
 70
     0
102
RTVSPropertyOp23
 70
     0
102
RTVSPropertyOp24
 70
     0
102
RTVSPropertyOp25
 70
     0
102
RTVSPropertyOp26
 70
     0
102
RTVSPropertyOp27
 70
     0
102
RTVSPropertyOp28
 70
     1
102
RTVSPropertyOp29
 70
     1
102
RTVSPropertyOp30
 70
     1
102
RTVSPropertyOp31
 70
     1
102
RTVSPropertyOp32
 70
     1
102
RTVSPropertyOp33
 70
     1
102
RTVSPropertyOp34
 70
     1
102
RTVSPropertyOp35
 70
     1
102
RTVSPropertyOp36
 70
     1
102
RTVSPropertyOp37
 70
     0
102
RTVSPropertyOp38
 70
     0
102
RTVSPropertyOp39
 70
     0
102
RTVSPropertyOp40
 70
     0
102
RTVSPropertyOp41
 70
     0
102
RTVSPropertyOp42
 70
     0
102
RTVSPropertyOp43
 70
     0
102
RTVSPropertyOp44
 70
     0
102
RTVSPropertyOp45
 70
     1
102
RTVSPropertyOp46
 70
     0
102
RTVSPropertyOp47
 70
     0
102
RTVSPropertyOp48
 70
     0
102
RTVSPropertyOp49
 70
     1
102
RTVSPropertyOp50
 70
     0
102
RTVSPropertyOp51
 70
     0
102
RTVSPropertyOp52
 70
     0
102
RTVSPropertyOp53
 70
     0
102
RTVSPropertyOp54
 70
     0
102
RTVSPropertyOp55
 70
     1
102
RTVSPropertyOp56
 70
     0
102
RTVSPropertyOp57
 70
     0
102
RTVSPropertyOp58
 70
     0
102
RTVSPropertyOp59
 70
     0
102
RTVSPropertyOp60
 70
     0
102
RTVSPropertyOp61
 70
     0
102
RTVSPropertyOp62
 70
     0
  0
XRECORD
  5
31F7
102
{ACAD_REACTORS
330
31F6
102
}
330
31F6
100
AcDbXrecord
280
     1
102
RTVSPost2010Prop28
280
     0
102
RTVSPost2010PropOp28
 70
     1
102
RTVSPost2010Prop29
280
     1
102
RTVSPost2010PropOp29
 70
     1
102
RTVSPost2010Prop30
280
     1
102
RTVSPost2010PropOp30
 70
     1
102
RTVSPost2010Prop31
280
     0
102
RTVSPost2010PropOp31
 70
     1
102
RTVSPost2010Prop32
280
     0
102
RTVSPost2010PropOp32
 70
     1
102
RTVSPost2010Prop33
280
     0
102
RTVSPost2010PropOp33
 70
     1
102
RTVSPost2010Prop34
280
     0
102
RTVSPost2010PropOp34
 70
     1
102
RTVSPost2010Prop35
280
     0
102
RTVSPost2010PropOp35
 70
     1
102
RTVSPost2010Prop36
280
     0
102
RTVSPost2010PropOp36
 70
     1
102
RTVSPost2010Prop37
 90
       50
102
RTVSPost2010PropOp37
 70
     1
102
RTVSPost2010Prop38
140
0.0
102
RTVSPost2010PropOp38
 70
     1
102
RTVSPost2010Prop39
140
1.0
102
RTVSPost2010PropOp39
 70
     1
102
RTVSPost2010Prop40
 90
        0
102
RTVSPost2010PropOp40
 70
     1
102
RTVSPost2010Prop41ColorIndex
 90
       18
102
RTVSPost2010Prop41ColorRGB
 90
        0
102
RTVSPost2010PropOp41
 70
     1
102
RTVSPost2010Prop42
 90
       50
102
RTVSPost2010PropOp42
 70
     1
102
RTVSPost2010Prop43
 90
        3
102
RTVSPost2010PropOp43
 70
     1
102
RTVSPost2010Prop44ColorIndex
 90
        5
102
RTVSPost2010Prop44ColorRGB
 90
      255
102
RTVSPost2010PropOp44
 70
     1
102
RTVSPost2010Prop45
280
     0
102
RTVSPost2010PropOp45
 70
     1
102
RTVSPost2010Prop46
 90
       50
102
RTVSPost2010PropOp46
 70
     1
102
RTVSPost2010Prop47
 90
       50
102
RTVSPost2010PropOp47
 70
     1
102
RTVSPost2010Prop48
 90
       50
102
RTVSPost2010PropOp48
 70
     1
102
RTVSPost2010Prop49
280
     0
102
RTVSPost2010PropOp49
 70
     1
102
RTVSPost2010Prop50
 90
       50
102
RTVSPost2010PropOp50
 70
     1
102
RTVSPost2010Prop51ColorIndex
 90
      256
102
RTVSPost2010Prop51ColorRGB
 90
-16777216
102
RTVSPost2010PropOp51
 70
     0
102
RTVSPost2010Prop52
140
1.0
102
RTVSPost2010PropOp52
 70
     0
102
RTVSPost2010Prop53
 90
        2
102
RTVSPost2010PropOp53
 70
     1
102
RTVSPost2010Prop54
  1
strokes_ogs.tif
102
RTVSPost2010PropOp54
 70
     1
102
RTVSPost2010Prop55
280
     0
102
RTVSPost2010PropOp55
 70
     1
102
RTVSPost2010Prop56
140
1.0
102
RTVSPost2010PropOp56
 70
     1
102
RTVSPost2010Prop57
140
1.0
102
RTVSPost2010PropOp57
 70
     1
102
RTVSPropertyOp0
 70
     1
102
RTVSPropertyOp1
 70
     1
102
RTVSPropertyOp2
 70
     1
102
RTVSPropertyOp3
 70
     1
102
RTVSPropertyOp4
 70
     1
102
RTVSPropertyOp5
 70
     1
102
RTVSPropertyOp6
 70
     1
102
RTVSPropertyOp7
 70
     1
102
RTVSPropertyOp8
 70
     1
102
RTVSPropertyOp9
 70
     1
102
RTVSPropertyOp10
 70
     1
102
RTVSPropertyOp11
 70
     1
102
RTVSPropertyOp12
 70
     1
102
RTVSPropertyOp13
 70
     1
102
RTVSPropertyOp14
 70
     1
102
RTVSPropertyOp15
 70
     1
102
RTVSPropertyOp16
 70
     1
102
RTVSPropertyOp17
 70
     1
102
RTVSPropertyOp18
 70
     1
102
RTVSPropertyOp19
 70
     1
102
RTVSPropertyOp20
 70
     1
102
RTVSPropertyOp21
 70
     1
102
RTVSPropertyOp22
 70
     1
102
RTVSPropertyOp23
 70
     1
102
RTVSPropertyOp24
 70
     1
102
RTVSPropertyOp25
 70
     1
102
RTVSPropertyOp26
 70
     1
102
RTVSPropertyOp27
 70
     1
102
RTVSPropertyOp28
 70
     1
102
RTVSPropertyOp29
 70
     1
102
RTVSPropertyOp30
 70
     1
102
RTVSPropertyOp31
 70
     1
102
RTVSPropertyOp32
 70
     1
102
RTVSPropertyOp33
 70
     1
102
RTVSPropertyOp34
 70
     1
102
RTVSPropertyOp35
 70
     1
102
RTVSPropertyOp36
 70
     1
102
RTVSPropertyOp37
 70
     1
102
RTVSPropertyOp38
 70
     1
102
RTVSPropertyOp39
 70
     1
102
RTVSPropertyOp40
 70
     1
102
RTVSPropertyOp41
 70
     1
102
RTVSPropertyOp42
 70
     1
102
RTVSPropertyOp43
 70
     1
102
RTVSPropertyOp44
 70
     1
102
RTVSPropertyOp45
 70
     1
102
RTVSPropertyOp46
 70
     1
102
RTVSPropertyOp47
 70
     1
102
RTVSPropertyOp48
 70
     1
102
RTVSPropertyOp49
 70
     1
102
RTVSPropertyOp50
 70
     1
102
RTVSPropertyOp51
 70
     0
102
RTVSPropertyOp52
 70
     0
102
RTVSPropertyOp53
 70
     1
102
RTVSPropertyOp54
 70
     1
102
RTVSPropertyOp55
 70
     1
102
RTVSPropertyOp56
 70
     1
102
RTVSPropertyOp57
 70
     1
102
RTVSPropertyOp58
 70
     1
102
RTVSPropertyOp59
 70
     1
102
RTVSPropertyOp60
 70
     1
102
RTVSPropertyOp61
 70
     1
102
RTVSPropertyOp62
 70
     1
  0
XRECORD
  5
3209
102
{ACAD_REACTORS
330
3208
102
}
330
3208
100
AcDbXrecord
280
     1
102
RTVSPost2010Prop28
280
     0
102
RTVSPost2010PropOp28
 70
     1
102
RTVSPost2010Prop29
280
     1
102
RTVSPost2010PropOp29
 70
     1
102
RTVSPost2010Prop30
280
     1
102
RTVSPost2010PropOp30
 70
     1
102
RTVSPost2010Prop31
280
     0
102
RTVSPost2010PropOp31
 70
     1
102
RTVSPost2010Prop32
280
     0
102
RTVSPost2010PropOp32
 70
     1
102
RTVSPost2010Prop33
280
     0
102
RTVSPost2010PropOp33
 70
     1
102
RTVSPost2010Prop34
280
     0
102
RTVSPost2010PropOp34
 70
     1
102
RTVSPost2010Prop35
280
     0
102
RTVSPost2010PropOp35
 70
     1
102
RTVSPost2010Prop36
280
     0
102
RTVSPost2010PropOp36
 70
     1
102
RTVSPost2010Prop37
 90
       50
102
RTVSPost2010PropOp37
 70
     0
102
RTVSPost2010Prop38
140
0.0
102
RTVSPost2010PropOp38
 70
     0
102
RTVSPost2010Prop39
140
1.0
102
RTVSPost2010PropOp39
 70
     0
102
RTVSPost2010Prop40
 90
        0
102
RTVSPost2010PropOp40
 70
     0
102
RTVSPost2010Prop41ColorIndex
 90
       18
102
RTVSPost2010Prop41ColorRGB
 90
        0
102
RTVSPost2010PropOp41
 70
     0
102
RTVSPost2010Prop42
 90
       50
102
RTVSPost2010PropOp42
 70
     0
102
RTVSPost2010Prop43
 90
        3
102
RTVSPost2010PropOp43
 70
     0
102
RTVSPost2010Prop44ColorIndex
 90
        5
102
RTVSPost2010Prop44ColorRGB
 90
      255
102
RTVSPost2010PropOp44
 70
     0
102
RTVSPost2010Prop45
280
     0
102
RTVSPost2010PropOp45
 70
     1
102
RTVSPost2010Prop46
 90
       50
102
RTVSPost2010PropOp46
 70
     0
102
RTVSPost2010Prop47
 90
       50
102
RTVSPost2010PropOp47
 70
     0
102
RTVSPost2010Prop48
 90
       50
102
RTVSPost2010PropOp48
 70
     0
102
RTVSPost2010Prop49
280
     0
102
RTVSPost2010PropOp49
 70
     1
102
RTVSPost2010Prop50
 90
       50
102
RTVSPost2010PropOp50
 70
     0
102
RTVSPost2010Prop51ColorIndex
 90
      256
102
RTVSPost2010Prop51ColorRGB
 90
-16777216
102
RTVSPost2010PropOp51
 70
     0
102
RTVSPost2010Prop52
140
1.0
102
RTVSPost2010PropOp52
 70
     0
102
RTVSPost2010Prop53
 90
        2
102
RTVSPost2010PropOp53
 70
     0
102
RTVSPost2010Prop54
  1
strokes_ogs.tif
102
RTVSPost2010PropOp54
 70
     0
102
RTVSPost2010Prop55
280
     0
102
RTVSPost2010PropOp55
 70
     1
102
RTVSPost2010Prop56
140
1.0
102
RTVSPost2010PropOp56
 70
     0
102
RTVSPost2010Prop57
140
1.0
102
RTVSPost2010PropOp57
 70
     0
102
RTVSPropertyOp0
 70
     0
102
RTVSPropertyOp1
 70
     0
102
RTVSPropertyOp2
 70
     0
102
RTVSPropertyOp3
 70
     0
102
RTVSPropertyOp4
 70
     0
102
RTVSPropertyOp5
 70
     0
102
RTVSPropertyOp6
 70
     0
102
RTVSPropertyOp7
 70
     0
102
RTVSPropertyOp8
 70
     0
102
RTVSPropertyOp9
 70
     0
102
RTVSPropertyOp10
 70
     0
102
RTVSPropertyOp11
 70
     0
102
RTVSPropertyOp12
 70
     0
102
RTVSPropertyOp13
 70
     0
102
RTVSPropertyOp14
 70
     2
102
RTVSPropertyOp15
 70
     0
102
RTVSPropertyOp16
 70
     0
102
RTVSPropertyOp17
 70
     0
102
RTVSPropertyOp18
 70
     0
102
RTVSPropertyOp19
 70
     0
102
RTVSPropertyOp20
 70
     0
102
RTVSPropertyOp21
 70
     0
102
RTVSPropertyOp22
 70
     0
102
RTVSPropertyOp23
 70
     0
102
RTVSPropertyOp24
 70
     0
102
RTVSPropertyOp25
 70
     0
102
RTVSPropertyOp26
 70
     0
102
RTVSPropertyOp27
 70
     0
102
RTVSPropertyOp28
 70
     1
102
RTVSPropertyOp29
 70
     1
102
RTVSPropertyOp30
 70
     1
102
RTVSPropertyOp31
 70
     1
102
RTVSPropertyOp32
 70
     1
102
RTVSPropertyOp33
 70
     1
102
RTVSPropertyOp34
 70
     1
102
RTVSPropertyOp35
 70
     1
102
RTVSPropertyOp36
 70
     1
102
RTVSPropertyOp37
 70
     0
102
RTVSPropertyOp38
 70
     0
102
RTVSPropertyOp39
 70
     0
102
RTVSPropertyOp40
 70
     0
102
RTVSPropertyOp41
 70
     0
102
RTVSPropertyOp42
 70
     0
102
RTVSPropertyOp43
 70
     0
102
RTVSPropertyOp44
 70
     0
102
RTVSPropertyOp45
 70
     1
102
RTVSPropertyOp46
 70
     0
102
RTVSPropertyOp47
 70
     0
102
RTVSPropertyOp48
 70
     0
102
RTVSPropertyOp49
 70
     1
102
RTVSPropertyOp50
 70
     0
102
RTVSPropertyOp51
 70
     0
102
RTVSPropertyOp52
 70
     0
102
RTVSPropertyOp53
 70
     0
102
RTVSPropertyOp54
 70
     0
102
RTVSPropertyOp55
 70
     1
102
RTVSPropertyOp56
 70
     0
102
RTVSPropertyOp57
 70
     0
102
RTVSPropertyOp58
 70
     0
102
RTVSPropertyOp59
 70
     0
102
RTVSPropertyOp60
 70
     0
102
RTVSPropertyOp61
 70
     0
102
RTVSPropertyOp62
 70
     0
  0
XRECORD
  5
31EF
102
{ACAD_REACTORS
330
31EE
102
}
330
31EE
100
AcDbXrecord
280
     1
102
RTVSPost2010Prop28
280
     0
102
RTVSPost2010PropOp28
 70
     1
102
RTVSPost2010Prop29
280
     1
102
RTVSPost2010PropOp29
 70
     1
102
RTVSPost2010Prop30
280
     1
102
RTVSPost2010PropOp30
 70
     1
102
RTVSPost2010Prop31
280
     0
102
RTVSPost2010PropOp31
 70
     1
102
RTVSPost2010Prop32
280
     0
102
RTVSPost2010PropOp32
 70
     1
102
RTVSPost2010Prop33
280
     0
102
RTVSPost2010PropOp33
 70
     1
102
RTVSPost2010Prop34
280
     0
102
RTVSPost2010PropOp34
 70
     1
102
RTVSPost2010Prop35
280
     0
102
RTVSPost2010PropOp35
 70
     1
102
RTVSPost2010Prop36
280
     0
102
RTVSPost2010PropOp36
 70
     1
102
RTVSPost2010Prop37
 90
       50
102
RTVSPost2010PropOp37
 70
     1
102
RTVSPost2010Prop38
140
0.0
102
RTVSPost2010PropOp38
 70
     1
102
RTVSPost2010Prop39
140
1.0
102
RTVSPost2010PropOp39
 70
     1
102
RTVSPost2010Prop40
 90
        0
102
RTVSPost2010PropOp40
 70
     1
102
RTVSPost2010Prop41ColorIndex
 90
       18
102
RTVSPost2010Prop41ColorRGB
 90
        0
102
RTVSPost2010PropOp41
 70
     1
102
RTVSPost2010Prop42
 90
       50
102
RTVSPost2010PropOp42
 70
     1
102
RTVSPost2010Prop43
 90
        3
102
RTVSPost2010PropOp43
 70
     1
102
RTVSPost2010Prop44ColorIndex
 90
        5
102
RTVSPost2010Prop44ColorRGB
 90
      255
102
RTVSPost2010PropOp44
 70
     1
102
RTVSPost2010Prop45
280
     0
102
RTVSPost2010PropOp45
 70
     1
102
RTVSPost2010Prop46
 90
       50
102
RTVSPost2010PropOp46
 70
     1
102
RTVSPost2010Prop47
 90
       50
102
RTVSPost2010PropOp47
 70
     1
102
RTVSPost2010Prop48
 90
       50
102
RTVSPost2010PropOp48
 70
     1
102
RTVSPost2010Prop49
280
     0
102
RTVSPost2010PropOp49
 70
     1
102
RTVSPost2010Prop50
 90
       50
102
RTVSPost2010PropOp50
 70
     1
102
RTVSPost2010Prop51ColorIndex
 90
      256
102
RTVSPost2010Prop51ColorRGB
 90
-16777216
102
RTVSPost2010PropOp51
 70
     0
102
RTVSPost2010Prop52
140
1.0
102
RTVSPost2010PropOp52
 70
     0
102
RTVSPost2010Prop53
 90
        2
102
RTVSPost2010PropOp53
 70
     1
102
RTVSPost2010Prop54
  1
strokes_ogs.tif
102
RTVSPost2010PropOp54
 70
     1
102
RTVSPost2010Prop55
280
     0
102
RTVSPost2010PropOp55
 70
     1
102
RTVSPost2010Prop56
140
1.0
102
RTVSPost2010PropOp56
 70
     1
102
RTVSPost2010Prop57
140
1.0
102
RTVSPost2010PropOp57
 70
     1
102
RTVSPropertyOp0
 70
     1
102
RTVSPropertyOp1
 70
     1
102
RTVSPropertyOp2
 70
     1
102
RTVSPropertyOp3
 70
     1
102
RTVSPropertyOp4
 70
     1
102
RTVSPropertyOp5
 70
     1
102
RTVSPropertyOp6
 70
     1
102
RTVSPropertyOp7
 70
     1
102
RTVSPropertyOp8
 70
     1
102
RTVSPropertyOp9
 70
     1
102
RTVSPropertyOp10
 70
     1
102
RTVSPropertyOp11
 70
     1
102
RTVSPropertyOp12
 70
     1
102
RTVSPropertyOp13
 70
     1
102
RTVSPropertyOp14
 70
     1
102
RTVSPropertyOp15
 70
     1
102
RTVSPropertyOp16
 70
     1
102
RTVSPropertyOp17
 70
     1
102
RTVSPropertyOp18
 70
     1
102
RTVSPropertyOp19
 70
     1
102
RTVSPropertyOp20
 70
     1
102
RTVSPropertyOp21
 70
     1
102
RTVSPropertyOp22
 70
     1
102
RTVSPropertyOp23
 70
     1
102
RTVSPropertyOp24
 70
     1
102
RTVSPropertyOp25
 70
     1
102
RTVSPropertyOp26
 70
     1
102
RTVSPropertyOp27
 70
     1
102
RTVSPropertyOp28
 70
     1
102
RTVSPropertyOp29
 70
     1
102
RTVSPropertyOp30
 70
     1
102
RTVSPropertyOp31
 70
     1
102
RTVSPropertyOp32
 70
     1
102
RTVSPropertyOp33
 70
     1
102
RTVSPropertyOp34
 70
     1
102
RTVSPropertyOp35
 70
     1
102
RTVSPropertyOp36
 70
     1
102
RTVSPropertyOp37
 70
     1
102
RTVSPropertyOp38
 70
     1
102
RTVSPropertyOp39
 70
     1
102
RTVSPropertyOp40
 70
     1
102
RTVSPropertyOp41
 70
     1
102
RTVSPropertyOp42
 70
     1
102
RTVSPropertyOp43
 70
     1
102
RTVSPropertyOp44
 70
     1
102
RTVSPropertyOp45
 70
     1
102
RTVSPropertyOp46
 70
     1
102
RTVSPropertyOp47
 70
     1
102
RTVSPropertyOp48
 70
     1
102
RTVSPropertyOp49
 70
     1
102
RTVSPropertyOp50
 70
     1
102
RTVSPropertyOp51
 70
     0
102
RTVSPropertyOp52
 70
     0
102
RTVSPropertyOp53
 70
     1
102
RTVSPropertyOp54
 70
     1
102
RTVSPropertyOp55
 70
     1
102
RTVSPropertyOp56
 70
     1
102
RTVSPropertyOp57
 70
     1
102
RTVSPropertyOp58
 70
     1
102
RTVSPropertyOp59
 70
     1
102
RTVSPropertyOp60
 70
     1
102
RTVSPropertyOp61
 70
     1
102
RTVSPropertyOp62
 70
     1
  0
XRECORD
  5
3205
102
{ACAD_REACTORS
330
3204
102
}
330
3204
100
AcDbXrecord
280
     1
102
RTVSPost2010Prop28
280
     0
102
RTVSPost2010PropOp28
 70
     1
102
RTVSPost2010Prop29
280
     1
102
RTVSPost2010PropOp29
 70
     1
102
RTVSPost2010Prop30
280
     1
102
RTVSPost2010PropOp30
 70
     1
102
RTVSPost2010Prop31
280
     0
102
RTVSPost2010PropOp31
 70
     1
102
RTVSPost2010Prop32
280
     0
102
RTVSPost2010PropOp32
 70
     1
102
RTVSPost2010Prop33
280
     0
102
RTVSPost2010PropOp33
 70
     1
102
RTVSPost2010Prop34
280
     0
102
RTVSPost2010PropOp34
 70
     1
102
RTVSPost2010Prop35
280
     0
102
RTVSPost2010PropOp35
 70
     1
102
RTVSPost2010Prop36
280
     0
102
RTVSPost2010PropOp36
 70
     1
102
RTVSPost2010Prop37
 90
       50
102
RTVSPost2010PropOp37
 70
     1
102
RTVSPost2010Prop38
140
0.0
102
RTVSPost2010PropOp38
 70
     1
102
RTVSPost2010Prop39
140
1.0
102
RTVSPost2010PropOp39
 70
     1
102
RTVSPost2010Prop40
 90
        0
102
RTVSPost2010PropOp40
 70
     1
102
RTVSPost2010Prop41ColorIndex
 90
       18
102
RTVSPost2010Prop41ColorRGB
 90
        0
102
RTVSPost2010PropOp41
 70
     1
102
RTVSPost2010Prop42
 90
       50
102
RTVSPost2010PropOp42
 70
     1
102
RTVSPost2010Prop43
 90
        3
102
RTVSPost2010PropOp43
 70
     1
102
RTVSPost2010Prop44ColorIndex
 90
        5
102
RTVSPost2010Prop44ColorRGB
 90
      255
102
RTVSPost2010PropOp44
 70
     1
102
RTVSPost2010Prop45
280
     0
102
RTVSPost2010PropOp45
 70
     1
102
RTVSPost2010Prop46
 90
       50
102
RTVSPost2010PropOp46
 70
     1
102
RTVSPost2010Prop47
 90
       50
102
RTVSPost2010PropOp47
 70
     1
102
RTVSPost2010Prop48
 90
       50
102
RTVSPost2010PropOp48
 70
     1
102
RTVSPost2010Prop49
280
     0
102
RTVSPost2010PropOp49
 70
     1
102
RTVSPost2010Prop50
 90
       50
102
RTVSPost2010PropOp50
 70
     1
102
RTVSPost2010Prop51ColorIndex
 90
      256
102
RTVSPost2010Prop51ColorRGB
 90
-16777216
102
RTVSPost2010PropOp51
 70
     0
102
RTVSPost2010Prop52
140
1.0
102
RTVSPost2010PropOp52
 70
     0
102
RTVSPost2010Prop53
 90
        2
102
RTVSPost2010PropOp53
 70
     1
102
RTVSPost2010Prop54
  1
strokes_ogs.tif
102
RTVSPost2010PropOp54
 70
     1
102
RTVSPost2010Prop55
280
     0
102
RTVSPost2010PropOp55
 70
     1
102
RTVSPost2010Prop56
140
1.0
102
RTVSPost2010PropOp56
 70
     1
102
RTVSPost2010Prop57
140
1.0
102
RTVSPost2010PropOp57
 70
     1
102
RTVSPropertyOp0
 70
     1
102
RTVSPropertyOp1
 70
     1
102
RTVSPropertyOp2
 70
     1
102
RTVSPropertyOp3
 70
     1
102
RTVSPropertyOp4
 70
     1
102
RTVSPropertyOp5
 70
     1
102
RTVSPropertyOp6
 70
     1
102
RTVSPropertyOp7
 70
     1
102
RTVSPropertyOp8
 70
     1
102
RTVSPropertyOp9
 70
     1
102
RTVSPropertyOp10
 70
     1
102
RTVSPropertyOp11
 70
     1
102
RTVSPropertyOp12
 70
     1
102
RTVSPropertyOp13
 70
     1
102
RTVSPropertyOp14
 70
     1
102
RTVSPropertyOp15
 70
     1
102
RTVSPropertyOp16
 70
     1
102
RTVSPropertyOp17
 70
     1
102
RTVSPropertyOp18
 70
     1
102
RTVSPropertyOp19
 70
     1
102
RTVSPropertyOp20
 70
     1
102
RTVSPropertyOp21
 70
     1
102
RTVSPropertyOp22
 70
     1
102
RTVSPropertyOp23
 70
     1
102
RTVSPropertyOp24
 70
     1
102
RTVSPropertyOp25
 70
     1
102
RTVSPropertyOp26
 70
     1
102
RTVSPropertyOp27
 70
     1
102
RTVSPropertyOp28
 70
     1
102
RTVSPropertyOp29
 70
     1
102
RTVSPropertyOp30
 70
     1
102
RTVSPropertyOp31
 70
     1
102
RTVSPropertyOp32
 70
     1
102
RTVSPropertyOp33
 70
     1
102
RTVSPropertyOp34
 70
     1
102
RTVSPropertyOp35
 70
     1
102
RTVSPropertyOp36
 70
     1
102
RTVSPropertyOp37
 70
     1
102
RTVSPropertyOp38
 70
     1
102
RTVSPropertyOp39
 70
     1
102
RTVSPropertyOp40
 70
     1
102
RTVSPropertyOp41
 70
     1
102
RTVSPropertyOp42
 70
     1
102
RTVSPropertyOp43
 70
     1
102
RTVSPropertyOp44
 70
     1
102
RTVSPropertyOp45
 70
     1
102
RTVSPropertyOp46
 70
     1
102
RTVSPropertyOp47
 70
     1
102
RTVSPropertyOp48
 70
     1
102
RTVSPropertyOp49
 70
     1
102
RTVSPropertyOp50
 70
     1
102
RTVSPropertyOp51
 70
     0
102
RTVSPropertyOp52
 70
     0
102
RTVSPropertyOp53
 70
     1
102
RTVSPropertyOp54
 70
     1
102
RTVSPropertyOp55
 70
     1
102
RTVSPropertyOp56
 70
     1
102
RTVSPropertyOp57
 70
     1
102
RTVSPropertyOp58
 70
     1
102
RTVSPropertyOp59
 70
     1
102
RTVSPropertyOp60
 70
     1
102
RTVSPropertyOp61
 70
     1
102
RTVSPropertyOp62
 70
     1
  0
XRECORD
  5
3203
102
{ACAD_REACTORS
330
3202
102
}
330
3202
100
AcDbXrecord
280
     1
102
RTVSPost2010Prop28
280
     0
102
RTVSPost2010PropOp28
 70
     1
102
RTVSPost2010Prop29
280
     1
102
RTVSPost2010PropOp29
 70
     1
102
RTVSPost2010Prop30
280
     1
102
RTVSPost2010PropOp30
 70
     1
102
RTVSPost2010Prop31
280
     0
102
RTVSPost2010PropOp31
 70
     1
102
RTVSPost2010Prop32
280
     0
102
RTVSPost2010PropOp32
 70
     1
102
RTVSPost2010Prop33
280
     0
102
RTVSPost2010PropOp33
 70
     1
102
RTVSPost2010Prop34
280
     0
102
RTVSPost2010PropOp34
 70
     1
102
RTVSPost2010Prop35
280
     0
102
RTVSPost2010PropOp35
 70
     1
102
RTVSPost2010Prop36
280
     0
102
RTVSPost2010PropOp36
 70
     1
102
RTVSPost2010Prop37
 90
       50
102
RTVSPost2010PropOp37
 70
     1
102
RTVSPost2010Prop38
140
0.0
102
RTVSPost2010PropOp38
 70
     1
102
RTVSPost2010Prop39
140
1.0
102
RTVSPost2010PropOp39
 70
     1
102
RTVSPost2010Prop40
 90
        0
102
RTVSPost2010PropOp40
 70
     1
102
RTVSPost2010Prop41ColorIndex
 90
       18
102
RTVSPost2010Prop41ColorRGB
 90
        0
102
RTVSPost2010PropOp41
 70
     1
102
RTVSPost2010Prop42
 90
       50
102
RTVSPost2010PropOp42
 70
     1
102
RTVSPost2010Prop43
 90
        3
102
RTVSPost2010PropOp43
 70
     1
102
RTVSPost2010Prop44ColorIndex
 90
        5
102
RTVSPost2010Prop44ColorRGB
 90
      255
102
RTVSPost2010PropOp44
 70
     1
102
RTVSPost2010Prop45
280
     0
102
RTVSPost2010PropOp45
 70
     1
102
RTVSPost2010Prop46
 90
       50
102
RTVSPost2010PropOp46
 70
     1
102
RTVSPost2010Prop47
 90
       50
102
RTVSPost2010PropOp47
 70
     1
102
RTVSPost2010Prop48
 90
       50
102
RTVSPost2010PropOp48
 70
     1
102
RTVSPost2010Prop49
280
     0
102
RTVSPost2010PropOp49
 70
     1
102
RTVSPost2010Prop50
 90
       50
102
RTVSPost2010PropOp50
 70
     1
102
RTVSPost2010Prop51ColorIndex
 90
      256
102
RTVSPost2010Prop51ColorRGB
 90
-16777216
102
RTVSPost2010PropOp51
 70
     0
102
RTVSPost2010Prop52
140
1.0
102
RTVSPost2010PropOp52
 70
     0
102
RTVSPost2010Prop53
 90
        2
102
RTVSPost2010PropOp53
 70
     1
102
RTVSPost2010Prop54
  1
strokes_ogs.tif
102
RTVSPost2010PropOp54
 70
     1
102
RTVSPost2010Prop55
280
     0
102
RTVSPost2010PropOp55
 70
     1
102
RTVSPost2010Prop56
140
1.0
102
RTVSPost2010PropOp56
 70
     1
102
RTVSPost2010Prop57
140
1.0
102
RTVSPost2010PropOp57
 70
     1
102
RTVSPropertyOp0
 70
     1
102
RTVSPropertyOp1
 70
     1
102
RTVSPropertyOp2
 70
     1
102
RTVSPropertyOp3
 70
     1
102
RTVSPropertyOp4
 70
     1
102
RTVSPropertyOp5
 70
     1
102
RTVSPropertyOp6
 70
     1
102
RTVSPropertyOp7
 70
     1
102
RTVSPropertyOp8
 70
     1
102
RTVSPropertyOp9
 70
     1
102
RTVSPropertyOp10
 70
     1
102
RTVSPropertyOp11
 70
     1
102
RTVSPropertyOp12
 70
     1
102
RTVSPropertyOp13
 70
     1
102
RTVSPropertyOp14
 70
     1
102
RTVSPropertyOp15
 70
     1
102
RTVSPropertyOp16
 70
     1
102
RTVSPropertyOp17
 70
     1
102
RTVSPropertyOp18
 70
     1
102
RTVSPropertyOp19
 70
     1
102
RTVSPropertyOp20
 70
     1
102
RTVSPropertyOp21
 70
     1
102
RTVSPropertyOp22
 70
     1
102
RTVSPropertyOp23
 70
     1
102
RTVSPropertyOp24
 70
     1
102
RTVSPropertyOp25
 70
     1
102
RTVSPropertyOp26
 70
     1
102
RTVSPropertyOp27
 70
     1
102
RTVSPropertyOp28
 70
     1
102
RTVSPropertyOp29
 70
     1
102
RTVSPropertyOp30
 70
     1
102
RTVSPropertyOp31
 70
     1
102
RTVSPropertyOp32
 70
     1
102
RTVSPropertyOp33
 70
     1
102
RTVSPropertyOp34
 70
     1
102
RTVSPropertyOp35
 70
     1
102
RTVSPropertyOp36
 70
     1
102
RTVSPropertyOp37
 70
     1
102
RTVSPropertyOp38
 70
     1
102
RTVSPropertyOp39
 70
     1
102
RTVSPropertyOp40
 70
     1
102
RTVSPropertyOp41
 70
     1
102
RTVSPropertyOp42
 70
     1
102
RTVSPropertyOp43
 70
     1
102
RTVSPropertyOp44
 70
     1
102
RTVSPropertyOp45
 70
     1
102
RTVSPropertyOp46
 70
     1
102
RTVSPropertyOp47
 70
     1
102
RTVSPropertyOp48
 70
     1
102
RTVSPropertyOp49
 70
     1
102
RTVSPropertyOp50
 70
     1
102
RTVSPropertyOp51
 70
     0
102
RTVSPropertyOp52
 70
     0
102
RTVSPropertyOp53
 70
     1
102
RTVSPropertyOp54
 70
     1
102
RTVSPropertyOp55
 70
     1
102
RTVSPropertyOp56
 70
     1
102
RTVSPropertyOp57
 70
     1
102
RTVSPropertyOp58
 70
     1
102
RTVSPropertyOp59
 70
     1
102
RTVSPropertyOp60
 70
     1
102
RTVSPropertyOp61
 70
     1
102
RTVSPropertyOp62
 70
     1
  0
XRECORD
  5
31FD
102
{ACAD_REACTORS
330
31FC
102
}
330
31FC
100
AcDbXrecord
280
     1
102
RTVSPost2010Prop28
280
     0
102
RTVSPost2010PropOp28
 70
     1
102
RTVSPost2010Prop29
280
     1
102
RTVSPost2010PropOp29
 70
     1
102
RTVSPost2010Prop30
280
     1
102
RTVSPost2010PropOp30
 70
     1
102
RTVSPost2010Prop31
280
     0
102
RTVSPost2010PropOp31
 70
     1
102
RTVSPost2010Prop32
280
     0
102
RTVSPost2010PropOp32
 70
     1
102
RTVSPost2010Prop33
280
     0
102
RTVSPost2010PropOp33
 70
     1
102
RTVSPost2010Prop34
280
     0
102
RTVSPost2010PropOp34
 70
     1
102
RTVSPost2010Prop35
280
     0
102
RTVSPost2010PropOp35
 70
     1
102
RTVSPost2010Prop36
280
     0
102
RTVSPost2010PropOp36
 70
     1
102
RTVSPost2010Prop37
 90
       50
102
RTVSPost2010PropOp37
 70
     1
102
RTVSPost2010Prop38
140
0.0
102
RTVSPost2010PropOp38
 70
     1
102
RTVSPost2010Prop39
140
1.0
102
RTVSPost2010PropOp39
 70
     1
102
RTVSPost2010Prop40
 90
        0
102
RTVSPost2010PropOp40
 70
     1
102
RTVSPost2010Prop41ColorIndex
 90
       18
102
RTVSPost2010Prop41ColorRGB
 90
        0
102
RTVSPost2010PropOp41
 70
     1
102
RTVSPost2010Prop42
 90
       50
102
RTVSPost2010PropOp42
 70
     1
102
RTVSPost2010Prop43
 90
        3
102
RTVSPost2010PropOp43
 70
     1
102
RTVSPost2010Prop44ColorIndex
 90
        5
102
RTVSPost2010Prop44ColorRGB
 90
      255
102
RTVSPost2010PropOp44
 70
     1
102
RTVSPost2010Prop45
280
     0
102
RTVSPost2010PropOp45
 70
     1
102
RTVSPost2010Prop46
 90
       50
102
RTVSPost2010PropOp46
 70
     1
102
RTVSPost2010Prop47
 90
       50
102
RTVSPost2010PropOp47
 70
     1
102
RTVSPost2010Prop48
 90
       50
102
RTVSPost2010PropOp48
 70
     1
102
RTVSPost2010Prop49
280
     0
102
RTVSPost2010PropOp49
 70
     1
102
RTVSPost2010Prop50
 90
       50
102
RTVSPost2010PropOp50
 70
     1
102
RTVSPost2010Prop51ColorIndex
 90
      256
102
RTVSPost2010Prop51ColorRGB
 90
-16777216
102
RTVSPost2010PropOp51
 70
     0
102
RTVSPost2010Prop52
140
1.0
102
RTVSPost2010PropOp52
 70
     0
102
RTVSPost2010Prop53
 90
        2
102
RTVSPost2010PropOp53
 70
     1
102
RTVSPost2010Prop54
  1
strokes_ogs.tif
102
RTVSPost2010PropOp54
 70
     1
102
RTVSPost2010Prop55
280
     0
102
RTVSPost2010PropOp55
 70
     1
102
RTVSPost2010Prop56
140
1.0
102
RTVSPost2010PropOp56
 70
     1
102
RTVSPost2010Prop57
140
1.0
102
RTVSPost2010PropOp57
 70
     1
102
RTVSPropertyOp0
 70
     1
102
RTVSPropertyOp1
 70
     1
102
RTVSPropertyOp2
 70
     1
102
RTVSPropertyOp3
 70
     1
102
RTVSPropertyOp4
 70
     1
102
RTVSPropertyOp5
 70
     1
102
RTVSPropertyOp6
 70
     1
102
RTVSPropertyOp7
 70
     1
102
RTVSPropertyOp8
 70
     1
102
RTVSPropertyOp9
 70
     1
102
RTVSPropertyOp10
 70
     1
102
RTVSPropertyOp11
 70
     1
102
RTVSPropertyOp12
 70
     1
102
RTVSPropertyOp13
 70
     1
102
RTVSPropertyOp14
 70
     1
102
RTVSPropertyOp15
 70
     1
102
RTVSPropertyOp16
 70
     1
102
RTVSPropertyOp17
 70
     1
102
RTVSPropertyOp18
 70
     1
102
RTVSPropertyOp19
 70
     1
102
RTVSPropertyOp20
 70
     1
102
RTVSPropertyOp21
 70
     1
102
RTVSPropertyOp22
 70
     1
102
RTVSPropertyOp23
 70
     1
102
RTVSPropertyOp24
 70
     1
102
RTVSPropertyOp25
 70
     1
102
RTVSPropertyOp26
 70
     1
102
RTVSPropertyOp27
 70
     1
102
RTVSPropertyOp28
 70
     1
102
RTVSPropertyOp29
 70
     1
102
RTVSPropertyOp30
 70
     1
102
RTVSPropertyOp31
 70
     1
102
RTVSPropertyOp32
 70
     1
102
RTVSPropertyOp33
 70
     1
102
RTVSPropertyOp34
 70
     1
102
RTVSPropertyOp35
 70
     1
102
RTVSPropertyOp36
 70
     1
102
RTVSPropertyOp37
 70
     1
102
RTVSPropertyOp38
 70
     1
102
RTVSPropertyOp39
 70
     1
102
RTVSPropertyOp40
 70
     1
102
RTVSPropertyOp41
 70
     1
102
RTVSPropertyOp42
 70
     1
102
RTVSPropertyOp43
 70
     1
102
RTVSPropertyOp44
 70
     1
102
RTVSPropertyOp45
 70
     1
102
RTVSPropertyOp46
 70
     1
102
RTVSPropertyOp47
 70
     1
102
RTVSPropertyOp48
 70
     1
102
RTVSPropertyOp49
 70
     1
102
RTVSPropertyOp50
 70
     1
102
RTVSPropertyOp51
 70
     0
102
RTVSPropertyOp52
 70
     0
102
RTVSPropertyOp53
 70
     1
102
RTVSPropertyOp54
 70
     1
102
RTVSPropertyOp55
 70
     1
102
RTVSPropertyOp56
 70
     1
102
RTVSPropertyOp57
 70
     1
102
RTVSPropertyOp58
 70
     1
102
RTVSPropertyOp59
 70
     1
102
RTVSPropertyOp60
 70
     1
102
RTVSPropertyOp61
 70
     1
102
RTVSPropertyOp62
 70
     1
  0
XRECORD
  5
31FF
102
{ACAD_REACTORS
330
31FE
102
}
330
31FE
100
AcDbXrecord
280
     1
102
RTVSPost2010Prop28
280
     0
102
RTVSPost2010PropOp28
 70
     1
102
RTVSPost2010Prop29
280
     1
102
RTVSPost2010PropOp29
 70
     1
102
RTVSPost2010Prop30
280
     1
102
RTVSPost2010PropOp30
 70
     1
102
RTVSPost2010Prop31
280
     0
102
RTVSPost2010PropOp31
 70
     1
102
RTVSPost2010Prop32
280
     0
102
RTVSPost2010PropOp32
 70
     1
102
RTVSPost2010Prop33
280
     0
102
RTVSPost2010PropOp33
 70
     1
102
RTVSPost2010Prop34
280
     0
102
RTVSPost2010PropOp34
 70
     1
102
RTVSPost2010Prop35
280
     0
102
RTVSPost2010PropOp35
 70
     1
102
RTVSPost2010Prop36
280
     0
102
RTVSPost2010PropOp36
 70
     1
102
RTVSPost2010Prop37
 90
       50
102
RTVSPost2010PropOp37
 70
     1
102
RTVSPost2010Prop38
140
0.0
102
RTVSPost2010PropOp38
 70
     1
102
RTVSPost2010Prop39
140
1.0
102
RTVSPost2010PropOp39
 70
     1
102
RTVSPost2010Prop40
 90
        0
102
RTVSPost2010PropOp40
 70
     1
102
RTVSPost2010Prop41ColorIndex
 90
       18
102
RTVSPost2010Prop41ColorRGB
 90
        0
102
RTVSPost2010PropOp41
 70
     1
102
RTVSPost2010Prop42
 90
       50
102
RTVSPost2010PropOp42
 70
     1
102
RTVSPost2010Prop43
 90
        3
102
RTVSPost2010PropOp43
 70
     1
102
RTVSPost2010Prop44ColorIndex
 90
        5
102
RTVSPost2010Prop44ColorRGB
 90
      255
102
RTVSPost2010PropOp44
 70
     1
102
RTVSPost2010Prop45
280
     0
102
RTVSPost2010PropOp45
 70
     1
102
RTVSPost2010Prop46
 90
       50
102
RTVSPost2010PropOp46
 70
     1
102
RTVSPost2010Prop47
 90
       50
102
RTVSPost2010PropOp47
 70
     1
102
RTVSPost2010Prop48
 90
       50
102
RTVSPost2010PropOp48
 70
     1
102
RTVSPost2010Prop49
280
     0
102
RTVSPost2010PropOp49
 70
     1
102
RTVSPost2010Prop50
 90
       50
102
RTVSPost2010PropOp50
 70
     1
102
RTVSPost2010Prop51ColorIndex
 90
      256
102
RTVSPost2010Prop51ColorRGB
 90
-16777216
102
RTVSPost2010PropOp51
 70
     0
102
RTVSPost2010Prop52
140
1.0
102
RTVSPost2010PropOp52
 70
     0
102
RTVSPost2010Prop53
 90
        2
102
RTVSPost2010PropOp53
 70
     1
102
RTVSPost2010Prop54
  1
strokes_ogs.tif
102
RTVSPost2010PropOp54
 70
     1
102
RTVSPost2010Prop55
280
     0
102
RTVSPost2010PropOp55
 70
     1
102
RTVSPost2010Prop56
140
1.0
102
RTVSPost2010PropOp56
 70
     1
102
RTVSPost2010Prop57
140
1.0
102
RTVSPost2010PropOp57
 70
     1
102
RTVSPropertyOp0
 70
     1
102
RTVSPropertyOp1
 70
     1
102
RTVSPropertyOp2
 70
     1
102
RTVSPropertyOp3
 70
     1
102
RTVSPropertyOp4
 70
     1
102
RTVSPropertyOp5
 70
     1
102
RTVSPropertyOp6
 70
     1
102
RTVSPropertyOp7
 70
     1
102
RTVSPropertyOp8
 70
     1
102
RTVSPropertyOp9
 70
     1
102
RTVSPropertyOp10
 70
     1
102
RTVSPropertyOp11
 70
     1
102
RTVSPropertyOp12
 70
     1
102
RTVSPropertyOp13
 70
     1
102
RTVSPropertyOp14
 70
     1
102
RTVSPropertyOp15
 70
     1
102
RTVSPropertyOp16
 70
     1
102
RTVSPropertyOp17
 70
     1
102
RTVSPropertyOp18
 70
     1
102
RTVSPropertyOp19
 70
     1
102
RTVSPropertyOp20
 70
     1
102
RTVSPropertyOp21
 70
     1
102
RTVSPropertyOp22
 70
     1
102
RTVSPropertyOp23
 70
     1
102
RTVSPropertyOp24
 70
     1
102
RTVSPropertyOp25
 70
     1
102
RTVSPropertyOp26
 70
     1
102
RTVSPropertyOp27
 70
     1
102
RTVSPropertyOp28
 70
     1
102
RTVSPropertyOp29
 70
     1
102
RTVSPropertyOp30
 70
     1
102
RTVSPropertyOp31
 70
     1
102
RTVSPropertyOp32
 70
     1
102
RTVSPropertyOp33
 70
     1
102
RTVSPropertyOp34
 70
     1
102
RTVSPropertyOp35
 70
     1
102
RTVSPropertyOp36
 70
     1
102
RTVSPropertyOp37
 70
     1
102
RTVSPropertyOp38
 70
     1
102
RTVSPropertyOp39
 70
     1
102
RTVSPropertyOp40
 70
     1
102
RTVSPropertyOp41
 70
     1
102
RTVSPropertyOp42
 70
     1
102
RTVSPropertyOp43
 70
     1
102
RTVSPropertyOp44
 70
     1
102
RTVSPropertyOp45
 70
     1
102
RTVSPropertyOp46
 70
     1
102
RTVSPropertyOp47
 70
     1
102
RTVSPropertyOp48
 70
     1
102
RTVSPropertyOp49
 70
     1
102
RTVSPropertyOp50
 70
     1
102
RTVSPropertyOp51
 70
     0
102
RTVSPropertyOp52
 70
     0
102
RTVSPropertyOp53
 70
     1
102
RTVSPropertyOp54
 70
     1
102
RTVSPropertyOp55
 70
     1
102
RTVSPropertyOp56
 70
     1
102
RTVSPropertyOp57
 70
     1
102
RTVSPropertyOp58
 70
     1
102
RTVSPropertyOp59
 70
     1
102
RTVSPropertyOp60
 70
     1
102
RTVSPropertyOp61
 70
     1
102
RTVSPropertyOp62
 70
     1
  0
XRECORD
  5
31F5
102
{ACAD_REACTORS
330
31F4
102
}
330
31F4
100
AcDbXrecord
280
     1
102
RTVSPost2010Prop28
280
     0
102
RTVSPost2010PropOp28
 70
     1
102
RTVSPost2010Prop29
280
     1
102
RTVSPost2010PropOp29
 70
     1
102
RTVSPost2010Prop30
280
     1
102
RTVSPost2010PropOp30
 70
     1
102
RTVSPost2010Prop31
280
     0
102
RTVSPost2010PropOp31
 70
     1
102
RTVSPost2010Prop32
280
     0
102
RTVSPost2010PropOp32
 70
     1
102
RTVSPost2010Prop33
280
     0
102
RTVSPost2010PropOp33
 70
     1
102
RTVSPost2010Prop34
280
     0
102
RTVSPost2010PropOp34
 70
     1
102
RTVSPost2010Prop35
280
     0
102
RTVSPost2010PropOp35
 70
     1
102
RTVSPost2010Prop36
280
     0
102
RTVSPost2010PropOp36
 70
     1
102
RTVSPost2010Prop37
 90
       50
102
RTVSPost2010PropOp37
 70
     1
102
RTVSPost2010Prop38
140
0.0
102
RTVSPost2010PropOp38
 70
     1
102
RTVSPost2010Prop39
140
1.0
102
RTVSPost2010PropOp39
 70
     1
102
RTVSPost2010Prop40
 90
        0
102
RTVSPost2010PropOp40
 70
     1
102
RTVSPost2010Prop41ColorIndex
 90
       18
102
RTVSPost2010Prop41ColorRGB
 90
        0
102
RTVSPost2010PropOp41
 70
     1
102
RTVSPost2010Prop42
 90
       50
102
RTVSPost2010PropOp42
 70
     1
102
RTVSPost2010Prop43
 90
        3
102
RTVSPost2010PropOp43
 70
     1
102
RTVSPost2010Prop44ColorIndex
 90
        5
102
RTVSPost2010Prop44ColorRGB
 90
      255
102
RTVSPost2010PropOp44
 70
     1
102
RTVSPost2010Prop45
280
     0
102
RTVSPost2010PropOp45
 70
     1
102
RTVSPost2010Prop46
 90
       50
102
RTVSPost2010PropOp46
 70
     1
102
RTVSPost2010Prop47
 90
       50
102
RTVSPost2010PropOp47
 70
     1
102
RTVSPost2010Prop48
 90
       50
102
RTVSPost2010PropOp48
 70
     1
102
RTVSPost2010Prop49
280
     0
102
RTVSPost2010PropOp49
 70
     1
102
RTVSPost2010Prop50
 90
       50
102
RTVSPost2010PropOp50
 70
     1
102
RTVSPost2010Prop51ColorIndex
 90
      256
102
RTVSPost2010Prop51ColorRGB
 90
-16777216
102
RTVSPost2010PropOp51
 70
     0
102
RTVSPost2010Prop52
140
1.0
102
RTVSPost2010PropOp52
 70
     0
102
RTVSPost2010Prop53
 90
        2
102
RTVSPost2010PropOp53
 70
     1
102
RTVSPost2010Prop54
  1
strokes_ogs.tif
102
RTVSPost2010PropOp54
 70
     1
102
RTVSPost2010Prop55
280
     0
102
RTVSPost2010PropOp55
 70
     1
102
RTVSPost2010Prop56
140
1.0
102
RTVSPost2010PropOp56
 70
     1
102
RTVSPost2010Prop57
140
1.0
102
RTVSPost2010PropOp57
 70
     1
102
RTVSPropertyOp0
 70
     1
102
RTVSPropertyOp1
 70
     1
102
RTVSPropertyOp2
 70
     1
102
RTVSPropertyOp3
 70
     1
102
RTVSPropertyOp4
 70
     1
102
RTVSPropertyOp5
 70
     1
102
RTVSPropertyOp6
 70
     1
102
RTVSPropertyOp7
 70
     1
102
RTVSPropertyOp8
 70
     1
102
RTVSPropertyOp9
 70
     1
102
RTVSPropertyOp10
 70
     1
102
RTVSPropertyOp11
 70
     1
102
RTVSPropertyOp12
 70
     1
102
RTVSPropertyOp13
 70
     1
102
RTVSPropertyOp14
 70
     1
102
RTVSPropertyOp15
 70
     1
102
RTVSPropertyOp16
 70
     1
102
RTVSPropertyOp17
 70
     1
102
RTVSPropertyOp18
 70
     1
102
RTVSPropertyOp19
 70
     1
102
RTVSPropertyOp20
 70
     1
102
RTVSPropertyOp21
 70
     1
102
RTVSPropertyOp22
 70
     1
102
RTVSPropertyOp23
 70
     1
102
RTVSPropertyOp24
 70
     1
102
RTVSPropertyOp25
 70
     1
102
RTVSPropertyOp26
 70
     1
102
RTVSPropertyOp27
 70
     1
102
RTVSPropertyOp28
 70
     1
102
RTVSPropertyOp29
 70
     1
102
RTVSPropertyOp30
 70
     1
102
RTVSPropertyOp31
 70
     1
102
RTVSPropertyOp32
 70
     1
102
RTVSPropertyOp33
 70
     1
102
RTVSPropertyOp34
 70
     1
102
RTVSPropertyOp35
 70
     1
102
RTVSPropertyOp36
 70
     1
102
RTVSPropertyOp37
 70
     1
102
RTVSPropertyOp38
 70
     1
102
RTVSPropertyOp39
 70
     1
102
RTVSPropertyOp40
 70
     1
102
RTVSPropertyOp41
 70
     1
102
RTVSPropertyOp42
 70
     1
102
RTVSPropertyOp43
 70
     1
102
RTVSPropertyOp44
 70
     1
102
RTVSPropertyOp45
 70
     1
102
RTVSPropertyOp46
 70
     1
102
RTVSPropertyOp47
 70
     1
102
RTVSPropertyOp48
 70
     1
102
RTVSPropertyOp49
 70
     1
102
RTVSPropertyOp50
 70
     1
102
RTVSPropertyOp51
 70
     0
102
RTVSPropertyOp52
 70
     0
102
RTVSPropertyOp53
 70
     1
102
RTVSPropertyOp54
 70
     1
102
RTVSPropertyOp55
 70
     1
102
RTVSPropertyOp56
 70
     1
102
RTVSPropertyOp57
 70
     1
102
RTVSPropertyOp58
 70
     1
102
RTVSPropertyOp59
 70
     1
102
RTVSPropertyOp60
 70
     1
102
RTVSPropertyOp61
 70
     1
102
RTVSPropertyOp62
 70
     1
  0
XRECORD
  5
31E9
102
{ACAD_REACTORS
330
31E8
102
}
330
31E8
100
AcDbXrecord
280
     1
102
RTVSPost2010Prop28
280
     0
102
RTVSPost2010PropOp28
 70
     1
102
RTVSPost2010Prop29
280
     1
102
RTVSPost2010PropOp29
 70
     1
102
RTVSPost2010Prop30
280
     1
102
RTVSPost2010PropOp30
 70
     1
102
RTVSPost2010Prop31
280
     0
102
RTVSPost2010PropOp31
 70
     1
102
RTVSPost2010Prop32
280
     0
102
RTVSPost2010PropOp32
 70
     1
102
RTVSPost2010Prop33
280
     0
102
RTVSPost2010PropOp33
 70
     1
102
RTVSPost2010Prop34
280
     0
102
RTVSPost2010PropOp34
 70
     1
102
RTVSPost2010Prop35
280
     0
102
RTVSPost2010PropOp35
 70
     1
102
RTVSPost2010Prop36
280
     0
102
RTVSPost2010PropOp36
 70
     1
102
RTVSPost2010Prop37
 90
       50
102
RTVSPost2010PropOp37
 70
     1
102
RTVSPost2010Prop38
140
0.0
102
RTVSPost2010PropOp38
 70
     1
102
RTVSPost2010Prop39
140
1.0
102
RTVSPost2010PropOp39
 70
     1
102
RTVSPost2010Prop40
 90
        0
102
RTVSPost2010PropOp40
 70
     1
102
RTVSPost2010Prop41ColorIndex
 90
       18
102
RTVSPost2010Prop41ColorRGB
 90
        0
102
RTVSPost2010PropOp41
 70
     1
102
RTVSPost2010Prop42
 90
       50
102
RTVSPost2010PropOp42
 70
     1
102
RTVSPost2010Prop43
 90
        3
102
RTVSPost2010PropOp43
 70
     1
102
RTVSPost2010Prop44ColorIndex
 90
        5
102
RTVSPost2010Prop44ColorRGB
 90
      255
102
RTVSPost2010PropOp44
 70
     1
102
RTVSPost2010Prop45
280
     0
102
RTVSPost2010PropOp45
 70
     1
102
RTVSPost2010Prop46
 90
       50
102
RTVSPost2010PropOp46
 70
     1
102
RTVSPost2010Prop47
 90
       50
102
RTVSPost2010PropOp47
 70
     1
102
RTVSPost2010Prop48
 90
       50
102
RTVSPost2010PropOp48
 70
     1
102
RTVSPost2010Prop49
280
     0
102
RTVSPost2010PropOp49
 70
     1
102
RTVSPost2010Prop50
 90
       50
102
RTVSPost2010PropOp50
 70
     1
102
RTVSPost2010Prop51ColorIndex
 90
      256
102
RTVSPost2010Prop51ColorRGB
 90
-16777216
102
RTVSPost2010PropOp51
 70
     0
102
RTVSPost2010Prop52
140
1.0
102
RTVSPost2010PropOp52
 70
     0
102
RTVSPost2010Prop53
 90
        2
102
RTVSPost2010PropOp53
 70
     1
102
RTVSPost2010Prop54
  1
strokes_ogs.tif
102
RTVSPost2010PropOp54
 70
     1
102
RTVSPost2010Prop55
280
     0
102
RTVSPost2010PropOp55
 70
     1
102
RTVSPost2010Prop56
140
1.0
102
RTVSPost2010PropOp56
 70
     1
102
RTVSPost2010Prop57
140
1.0
102
RTVSPost2010PropOp57
 70
     1
102
RTVSPropertyOp0
 70
     1
102
RTVSPropertyOp1
 70
     1
102
RTVSPropertyOp2
 70
     1
102
RTVSPropertyOp3
 70
     1
102
RTVSPropertyOp4
 70
     1
102
RTVSPropertyOp5
 70
     1
102
RTVSPropertyOp6
 70
     1
102
RTVSPropertyOp7
 70
     1
102
RTVSPropertyOp8
 70
     1
102
RTVSPropertyOp9
 70
     1
102
RTVSPropertyOp10
 70
     1
102
RTVSPropertyOp11
 70
     1
102
RTVSPropertyOp12
 70
     1
102
RTVSPropertyOp13
 70
     1
102
RTVSPropertyOp14
 70
     1
102
RTVSPropertyOp15
 70
     1
102
RTVSPropertyOp16
 70
     1
102
RTVSPropertyOp17
 70
     1
102
RTVSPropertyOp18
 70
     1
102
RTVSPropertyOp19
 70
     1
102
RTVSPropertyOp20
 70
     1
102
RTVSPropertyOp21
 70
     1
102
RTVSPropertyOp22
 70
     1
102
RTVSPropertyOp23
 70
     1
102
RTVSPropertyOp24
 70
     1
102
RTVSPropertyOp25
 70
     1
102
RTVSPropertyOp26
 70
     1
102
RTVSPropertyOp27
 70
     1
102
RTVSPropertyOp28
 70
     1
102
RTVSPropertyOp29
 70
     1
102
RTVSPropertyOp30
 70
     1
102
RTVSPropertyOp31
 70
     1
102
RTVSPropertyOp32
 70
     1
102
RTVSPropertyOp33
 70
     1
102
RTVSPropertyOp34
 70
     1
102
RTVSPropertyOp35
 70
     1
102
RTVSPropertyOp36
 70
     1
102
RTVSPropertyOp37
 70
     1
102
RTVSPropertyOp38
 70
     1
102
RTVSPropertyOp39
 70
     1
102
RTVSPropertyOp40
 70
     1
102
RTVSPropertyOp41
 70
     1
102
RTVSPropertyOp42
 70
     1
102
RTVSPropertyOp43
 70
     1
102
RTVSPropertyOp44
 70
     1
102
RTVSPropertyOp45
 70
     1
102
RTVSPropertyOp46
 70
     1
102
RTVSPropertyOp47
 70
     1
102
RTVSPropertyOp48
 70
     1
102
RTVSPropertyOp49
 70
     1
102
RTVSPropertyOp50
 70
     1
102
RTVSPropertyOp51
 70
     0
102
RTVSPropertyOp52
 70
     0
102
RTVSPropertyOp53
 70
     1
102
RTVSPropertyOp54
 70
     1
102
RTVSPropertyOp55
 70
     1
102
RTVSPropertyOp56
 70
     1
102
RTVSPropertyOp57
 70
     1
102
RTVSPropertyOp58
 70
     1
102
RTVSPropertyOp59
 70
     1
102
RTVSPropertyOp60
 70
     1
102
RTVSPropertyOp61
 70
     1
102
RTVSPropertyOp62
 70
     1
  0
XRECORD
  5
3201
102
{ACAD_REACTORS
330
3200
102
}
330
3200
100
AcDbXrecord
280
     1
102
RTVSPost2010Prop28
280
     0
102
RTVSPost2010PropOp28
 70
     1
102
RTVSPost2010Prop29
280
     1
102
RTVSPost2010PropOp29
 70
     1
102
RTVSPost2010Prop30
280
     1
102
RTVSPost2010PropOp30
 70
     1
102
RTVSPost2010Prop31
280
     0
102
RTVSPost2010PropOp31
 70
     1
102
RTVSPost2010Prop32
280
     0
102
RTVSPost2010PropOp32
 70
     1
102
RTVSPost2010Prop33
280
     0
102
RTVSPost2010PropOp33
 70
     1
102
RTVSPost2010Prop34
280
     0
102
RTVSPost2010PropOp34
 70
     1
102
RTVSPost2010Prop35
280
     0
102
RTVSPost2010PropOp35
 70
     1
102
RTVSPost2010Prop36
280
     0
102
RTVSPost2010PropOp36
 70
     1
102
RTVSPost2010Prop37
 90
       50
102
RTVSPost2010PropOp37
 70
     1
102
RTVSPost2010Prop38
140
0.0
102
RTVSPost2010PropOp38
 70
     1
102
RTVSPost2010Prop39
140
1.0
102
RTVSPost2010PropOp39
 70
     1
102
RTVSPost2010Prop40
 90
        0
102
RTVSPost2010PropOp40
 70
     1
102
RTVSPost2010Prop41ColorIndex
 90
       18
102
RTVSPost2010Prop41ColorRGB
 90
        0
102
RTVSPost2010PropOp41
 70
     1
102
RTVSPost2010Prop42
 90
       50
102
RTVSPost2010PropOp42
 70
     1
102
RTVSPost2010Prop43
 90
        3
102
RTVSPost2010PropOp43
 70
     1
102
RTVSPost2010Prop44ColorIndex
 90
        5
102
RTVSPost2010Prop44ColorRGB
 90
      255
102
RTVSPost2010PropOp44
 70
     1
102
RTVSPost2010Prop45
280
     0
102
RTVSPost2010PropOp45
 70
     1
102
RTVSPost2010Prop46
 90
       50
102
RTVSPost2010PropOp46
 70
     1
102
RTVSPost2010Prop47
 90
       50
102
RTVSPost2010PropOp47
 70
     1
102
RTVSPost2010Prop48
 90
       50
102
RTVSPost2010PropOp48
 70
     1
102
RTVSPost2010Prop49
280
     0
102
RTVSPost2010PropOp49
 70
     1
102
RTVSPost2010Prop50
 90
       50
102
RTVSPost2010PropOp50
 70
     1
102
RTVSPost2010Prop51ColorIndex
 90
      256
102
RTVSPost2010Prop51ColorRGB
 90
-16777216
102
RTVSPost2010PropOp51
 70
     0
102
RTVSPost2010Prop52
140
1.0
102
RTVSPost2010PropOp52
 70
     0
102
RTVSPost2010Prop53
 90
        2
102
RTVSPost2010PropOp53
 70
     1
102
RTVSPost2010Prop54
  1
strokes_ogs.tif
102
RTVSPost2010PropOp54
 70
     1
102
RTVSPost2010Prop55
280
     0
102
RTVSPost2010PropOp55
 70
     1
102
RTVSPost2010Prop56
140
1.0
102
RTVSPost2010PropOp56
 70
     1
102
RTVSPost2010Prop57
140
1.0
102
RTVSPost2010PropOp57
 70
     1
102
RTVSPropertyOp0
 70
     1
102
RTVSPropertyOp1
 70
     1
102
RTVSPropertyOp2
 70
     1
102
RTVSPropertyOp3
 70
     1
102
RTVSPropertyOp4
 70
     1
102
RTVSPropertyOp5
 70
     1
102
RTVSPropertyOp6
 70
     1
102
RTVSPropertyOp7
 70
     1
102
RTVSPropertyOp8
 70
     1
102
RTVSPropertyOp9
 70
     1
102
RTVSPropertyOp10
 70
     1
102
RTVSPropertyOp11
 70
     1
102
RTVSPropertyOp12
 70
     1
102
RTVSPropertyOp13
 70
     1
102
RTVSPropertyOp14
 70
     1
102
RTVSPropertyOp15
 70
     1
102
RTVSPropertyOp16
 70
     1
102
RTVSPropertyOp17
 70
     1
102
RTVSPropertyOp18
 70
     1
102
RTVSPropertyOp19
 70
     1
102
RTVSPropertyOp20
 70
     1
102
RTVSPropertyOp21
 70
     1
102
RTVSPropertyOp22
 70
     1
102
RTVSPropertyOp23
 70
     1
102
RTVSPropertyOp24
 70
     1
102
RTVSPropertyOp25
 70
     1
102
RTVSPropertyOp26
 70
     1
102
RTVSPropertyOp27
 70
     1
102
RTVSPropertyOp28
 70
     1
102
RTVSPropertyOp29
 70
     1
102
RTVSPropertyOp30
 70
     1
102
RTVSPropertyOp31
 70
     1
102
RTVSPropertyOp32
 70
     1
102
RTVSPropertyOp33
 70
     1
102
RTVSPropertyOp34
 70
     1
102
RTVSPropertyOp35
 70
     1
102
RTVSPropertyOp36
 70
     1
102
RTVSPropertyOp37
 70
     1
102
RTVSPropertyOp38
 70
     1
102
RTVSPropertyOp39
 70
     1
102
RTVSPropertyOp40
 70
     1
102
RTVSPropertyOp41
 70
     1
102
RTVSPropertyOp42
 70
     1
102
RTVSPropertyOp43
 70
     1
102
RTVSPropertyOp44
 70
     1
102
RTVSPropertyOp45
 70
     1
102
RTVSPropertyOp46
 70
     1
102
RTVSPropertyOp47
 70
     1
102
RTVSPropertyOp48
 70
     1
102
RTVSPropertyOp49
 70
     1
102
RTVSPropertyOp50
 70
     1
102
RTVSPropertyOp51
 70
     0
102
RTVSPropertyOp52
 70
     0
102
RTVSPropertyOp53
 70
     1
102
RTVSPropertyOp54
 70
     1
102
RTVSPropertyOp55
 70
     1
102
RTVSPropertyOp56
 70
     1
102
RTVSPropertyOp57
 70
     1
102
RTVSPropertyOp58
 70
     1
102
RTVSPropertyOp59
 70
     1
102
RTVSPropertyOp60
 70
     1
102
RTVSPropertyOp61
 70
     1
102
RTVSPropertyOp62
 70
     1
  0
ENDSEC
  0
EOF
