0
SECTION
2
HEADER
9
$ACADVER
1
AC1015
9
$DWGCODEPAGE
3
ANSI_1252
9
$HANDSEED
5
1a3
9
$ANGBASE
50
0
9
$ANGDIR
70
0
9
$ATTMODE
70
1
9
$AUNITS
70
0
9
$AUPREC
70
0
9
$CECOLOR
62
256
9
$CELTSCALE
40
1
9
$CELTYPE
6
ByLayer
9
$CELWEIGHT
370
18
9
$CLAYER
8
0
9
$CMLJUST
70
0
9
$CMLSCALE
40
1
9
$CMLSTYLE
2
Standard
9
$DIMSTYLE
2
Standard
9
$TEXTSIZE
40
0.2
9
$TEXTSTYLE
7
Standard
9
$LUNITS
70
2
9
$LUPREC
70
4
9
$EXTNAMES
290
1
9
$INSUNITS
70
4
9
$LTSCALE
40
1
9
$LWDISPLAY
290
1
9
$PDMODE
70
0
9
$PDSIZE
40
0
9
$PLINEGEN
70
0
0
ENDSEC
0
SECTION
2
CLASSES
0
CLASS
1
RASTERVARIABLES
2
AcDbRasterVariables
3
ISM
90
0
280
0
281
0
0
ENDSEC
0
SECTION
2
TABLES
0
TABLE
2
VPORT
5
199
100
AcDbSymbolTable
0
VPORT
5
1
100
AcDbSymbolTableRecord
100
AcDbViewportTableRecord
2
*Active
70
0
10
0
20
0
11
1
21
1
12
-1
22
1
13
0
23
0
14
0.5
24
0.5
15
10
25
10
16
0
26
0
36
1
17
0
27
0
37
0
0
ENDTAB
0
TABLE
2
LTYPE
5
19a
100
AcDbSymbolTable
0
LTYPE
5
14
100
AcDbSymbolTableRecord
100
AcDbLinetypeTableRecord
70
0
2
ByBlock
3

72
65
73
0
40
0
0
LTYPE
5
15
100
AcDbSymbolTableRecord
100
AcDbLinetypeTableRecord
70
0
2
ByLayer
3

72
65
73
0
40
0
0
LTYPE
5
16
100
AcDbSymbolTableRecord
100
AcDbLinetypeTableRecord
70
0
2
CONTINUOUS
3
Solid line
72
65
73
0
40
0
0
LTYPE
5
6A
100
AcDbSymbolTableRecord
100
AcDbLinetypeTableRecord
70
0
2
CENTER
3
____ _ ____ _ ____ _ ____
72
65
73
4
40
47.5
49
22
74
0
49
-8.5
74
0
49
8.5
74
0
49
-8.5
74
0
0
LTYPE
5
6B
100
AcDbSymbolTableRecord
100
AcDbLinetypeTableRecord
70
0
2
DASHED
3
__ __ __ __ __ __ __ __ __
72
65
73
2
40
25.72
49
12.86
74
0
49
-12.86
74
0
0
ENDTAB
0
TABLE
2
LAYER
5
19b
100
AcDbSymbolTable
0
LAYER
5
10
100
AcDbSymbolTableRecord
100
AcDbLayerTableRecord
2
0
70
0
62
7
6
CONTINUOUS
290
1
370
-3
390
0
0
LAYER
5
6D
100
AcDbSymbolTableRecord
100
AcDbLayerTableRecord
2
81
70
0
62
-3
6
CONTINUOUS
290
1
370
-3
390
0
0
LAYER
5
6F
100
AcDbSymbolTableRecord
100
AcDbLayerTableRecord
2
80
70
0
62
-6
6
CONTINUOUS
290
1
370
-3
390
0
0
LAYER
5
74
100
AcDbSymbolTableRecord
100
AcDbLayerTableRecord
2
2
70
0
62
7
6
CONTINUOUS
290
1
370
-3
390
0
0
LAYER
5
78
100
AcDbSymbolTableRecord
100
AcDbLayerTableRecord
2
1
70
0
62
4
6
CONTINUOUS
290
1
370
-3
390
0
0
LAYER
5
88
100
AcDbSymbolTableRecord
100
AcDbLayerTableRecord
2
4
70
0
62
-2
6
CENTER
290
1
370
-3
390
0
0
LAYER
5
185
100
AcDbSymbolTableRecord
100
AcDbLayerTableRecord
2
SK2
70
0
62
7
6
CONTINUOUS
290
1
370
-3
390
0
0
LAYER
5
186
100
AcDbSymbolTableRecord
100
AcDbLayerTableRecord
2
SK1
70
0
62
4
6
CONTINUOUS
290
1
370
-3
390
0
0
LAYER
5
187
100
AcDbSymbolTableRecord
100
AcDbLayerTableRecord
2
SK4
70
0
62
2
6
CENTER
290
1
370
-3
390
0
0
LAYER
5
188
100
AcDbSymbolTableRecord
100
AcDbLayerTableRecord
2
SK6
70
0
62
5
6
CONTINUOUS
290
1
370
-3
390
0
0
ENDTAB
0
TABLE
2
STYLE
5
19c
100
AcDbSymbolTable
0
STYLE
5
11
100
AcDbSymbolTableRecord
100
AcDbTextStyleTableRecord
2
Standard
3
txt
70
0
71
0
40
0
41
1
42
0
50
0
0
STYLE
5
E1
100
AcDbSymbolTableRecord
100
AcDbTextStyleTableRecord
2
iso_b_vert
3
simplex.shx
70
0
71
0
40
0
41
1
42
0
50
0
0
STYLE
5
E2
100
AcDbSymbolTableRecord
100
AcDbTextStyleTableRecord
2
DWGDirectTextStyle
3
simplex
70
0
71
0
40
0
41
1
42
0
50
0
0
ENDTAB
0
TABLE
2
DIMSTYLE
5
19d
100
AcDbSymbolTable
100
AcDbDimStyleTable
0
DIMSTYLE
105
27
100
AcDbSymbolTableRecord
100
AcDbDimStyleTableRecord
2
Standard
70
0
3
<>
41
0.18
42
0.0625
44
0.18
140
0.18
147
0.09
73
0
74
0
77
1
271
2
275
0
278
52
280
0
340
11
0
ENDTAB
0
TABLE
2
VIEW
5
19e
100
AcDbSymbolTable
0
ENDTAB
0
TABLE
2
UCS
5
19f
100
AcDbSymbolTable
0
ENDTAB
0
TABLE
2
APPID
5
1a0
100
AcDbSymbolTable
0
APPID
5
12
100
AcDbSymbolTableRecord
100
AcDbRegAppTableRecord
2
ACAD
70
0
0
ENDTAB
0
TABLE
2
BLOCK_RECORD
5
1a1
100
AcDbSymbolTable
0
BLOCK_RECORD
5
1F
100
AcDbSymbolTableRecord
100
AcDbBlockTableRecord
2
*Model_Space
340
0
70
0
0
BLOCK_RECORD
5
1B
100
AcDbSymbolTableRecord
100
AcDbBlockTableRecord
2
*Paper_Space
340
0
70
0
0
BLOCK_RECORD
5
23
100
AcDbSymbolTableRecord
100
AcDbBlockTableRecord
2
*Paper_Space0
340
0
70
0
0
BLOCK_RECORD
5
E4
100
AcDbSymbolTableRecord
100
AcDbBlockTableRecord
2
DimnDraft3D1
340
0
70
0
0
BLOCK_RECORD
5
EE
100
AcDbSymbolTableRecord
100
AcDbBlockTableRecord
2
DimnDraft3D2
340
0
70
0
0
BLOCK_RECORD
5
F8
100
AcDbSymbolTableRecord
100
AcDbBlockTableRecord
2
DimnDraft3D3
340
0
70
0
0
BLOCK_RECORD
5
102
100
AcDbSymbolTableRecord
100
AcDbBlockTableRecord
2
DimnDraft3D4
340
0
70
0
0
BLOCK_RECORD
5
10C
100
AcDbSymbolTableRecord
100
AcDbBlockTableRecord
2
DimnDraft3D5
340
0
70
0
0
BLOCK_RECORD
5
116
100
AcDbSymbolTableRecord
100
AcDbBlockTableRecord
2
DimnDraft3D6
340
0
70
0
0
BLOCK_RECORD
5
121
100
AcDbSymbolTableRecord
100
AcDbBlockTableRecord
2
DimnDraft3D7
340
0
70
0
0
ENDTAB
0
ENDSEC
0
SECTION
2
BLOCKS
0
BLOCK
5
20
100
AcDbEntity
8
0
100
AcDbBlockBegin
2
*Model_Space
70
0
10
0
20
0
30
0
3
*Model_Space
0
ENDBLK
5
21
100
AcDbEntity
8
0
100
AcDbBlockEnd
0
BLOCK
5
1C
100
AcDbEntity
8
0
100
AcDbBlockBegin
2
*Paper_Space
70
0
10
0
20
0
30
0
3
*Paper_Space
0
ENDBLK
5
1D
100
AcDbEntity
8
0
100
AcDbBlockEnd
0
BLOCK
5
24
100
AcDbEntity
8
0
100
AcDbBlockBegin
2
*Paper_Space0
70
0
10
0
20
0
30
0
3
*Paper_Space0
0
ENDBLK
5
25
100
AcDbEntity
8
0
100
AcDbBlockEnd
0
BLOCK
5
EB
100
AcDbEntity
8
0
100
AcDbBlockBegin
2
DimnDraft3D1
70
0
10
0
20
0
30
0
3
DimnDraft3D1
0
MTEXT
5
E5
100
AcDbEntity
8
SK2
62
256
6
ByLayer
370
13
48
1
60
0
100
AcDbMText
10
22.035075
20
-14.588398
30
0
210
0
220
0
230
1
1
\W0.7317;55,73
40
3.5
41
0
44
1.084337
50
0
71
7
72
5
7
iso_b_vert
0
LINE
5
E6
100
AcDbEntity
8
SK2
62
256
6
ByLayer
370
13
48
1
60
0
100
AcDbLine
10
0
20
-1.5875
30
0
11
0
21
-17.463398
31
0
39
0
210
0
220
0
230
1
0
LINE
5
E7
100
AcDbEntity
8
SK2
62
256
6
ByLayer
370
13
48
1
60
0
100
AcDbLine
10
55.7337
20
-6.8375
30
0
11
55.7337
21
-17.463398
31
0
39
0
210
0
220
0
230
1
0
LINE
5
E8
100
AcDbEntity
8
SK2
62
256
6
ByLayer
370
13
48
1
60
0
100
AcDbLine
10
0
20
-15.463398
30
0
11
55.7337
21
-15.463398
31
0
39
0
210
0
220
0
230
1
0
SOLID
5
E9
100
AcDbEntity
8
SK2
62
256
6
ByLayer
370
13
48
1
60
0
100
AcDbTrace
10
0
20
-15.463398
30
0
11
3.499998
21
-15.002615
31
0
12
3.500002
22
-15.924182
32
0
13
0
23
-15.463398
33
0
39
0
210
0
220
0
230
1
0
SOLID
5
EA
100
AcDbEntity
8
SK2
62
256
6
ByLayer
370
13
48
1
60
0
100
AcDbTrace
10
55.7337
20
-15.463398
30
0
11
52.233702
21
-15.924182
31
0
12
52.233698
22
-15.002615
32
0
13
55.7337
23
-15.463398
33
0
39
0
210
0
220
0
230
1
0
ENDBLK
5
EC
100
AcDbEntity
8
0
100
AcDbBlockEnd
0
BLOCK
5
F5
100
AcDbEntity
8
0
100
AcDbBlockBegin
2
DimnDraft3D2
70
0
10
0
20
0
30
0
3
DimnDraft3D2
0
MTEXT
5
EF
100
AcDbEntity
8
SK2
62
256
6
ByLayer
370
13
48
1
60
0
100
AcDbMText
10
0.755921
20
-33.817985
30
0
210
0
220
0
230
1
1
\W0.6930;102,00
40
3.5
41
0
44
1.084337
50
0
71
7
72
5
7
iso_b_vert
0
LINE
5
F0
100
AcDbEntity
8
SK2
62
256
6
ByLayer
370
13
48
1
60
0
100
AcDbLine
10
-45
20
-7.5875
30
0
11
-45
21
-36.692985
31
0
39
0
210
0
220
0
230
1
0
LINE
5
F1
100
AcDbEntity
8
SK2
62
256
6
ByLayer
370
13
48
1
60
0
100
AcDbLine
10
57
20
-1.5875
30
0
11
57
21
-36.692985
31
0
39
0
210
0
220
0
230
1
0
LINE
5
F2
100
AcDbEntity
8
SK2
62
256
6
ByLayer
370
13
48
1
60
0
100
AcDbLine
10
-45
20
-34.692985
30
0
11
57
21
-34.692985
31
0
39
0
210
0
220
0
230
1
0
SOLID
5
F3
100
AcDbEntity
8
SK2
62
256
6
ByLayer
370
13
48
1
60
0
100
AcDbTrace
10
-45
20
-34.692985
30
0
11
-41.500002
21
-34.232202
31
0
12
-41.499998
22
-35.153769
32
0
13
-45
23
-34.692985
33
0
39
0
210
0
220
0
230
1
0
SOLID
5
F4
100
AcDbEntity
8
SK2
62
256
6
ByLayer
370
13
48
1
60
0
100
AcDbTrace
10
57
20
-34.692985
30
0
11
53.500002
21
-35.153769
31
0
12
53.499998
22
-34.232202
32
0
13
57
23
-34.692985
33
0
39
0
210
0
220
0
230
1
0
ENDBLK
5
F6
100
AcDbEntity
8
0
100
AcDbBlockEnd
0
BLOCK
5
FF
100
AcDbEntity
8
0
100
AcDbBlockBegin
2
DimnDraft3D3
70
0
10
0
20
0
30
0
3
DimnDraft3D3
0
MTEXT
5
F9
100
AcDbEntity
8
SK2
62
256
6
ByLayer
370
13
48
1
60
0
100
AcDbMText
10
36.421316
20
17.734119
30
0
210
0
220
0
230
1
1
\W0.7317;32,26
40
3.5
41
0
44
1.084337
50
0
71
7
72
5
7
iso_b_vert
0
LINE
5
FA
100
AcDbEntity
8
SK2
62
256
6
ByLayer
370
13
48
1
60
0
100
AcDbLine
10
24.74
20
6.8375
30
0
11
24.74
21
18.859119
31
0
39
0
210
0
220
0
230
1
0
LINE
5
FB
100
AcDbEntity
8
SK2
62
256
6
ByLayer
370
13
48
1
60
0
100
AcDbLine
10
57
20
1.5875
30
0
11
57
21
18.859119
31
0
39
0
210
0
220
0
230
1
0
LINE
5
FC
100
AcDbEntity
8
SK2
62
256
6
ByLayer
370
13
48
1
60
0
100
AcDbLine
10
24.74
20
16.859119
30
0
11
57
21
16.859119
31
0
39
0
210
0
220
0
230
1
0
SOLID
5
FD
100
AcDbEntity
8
SK2
62
256
6
ByLayer
370
13
48
1
60
0
100
AcDbTrace
10
24.74
20
16.859119
30
0
11
28.239998
21
17.319903
31
0
12
28.240002
22
16.398335
32
0
13
24.74
23
16.859119
33
0
39
0
210
0
220
0
230
1
0
SOLID
5
FE
100
AcDbEntity
8
SK2
62
256
6
ByLayer
370
13
48
1
60
0
100
AcDbTrace
10
57
20
16.859119
30
0
11
53.500002
21
16.398335
31
0
12
53.499998
22
17.319903
32
0
13
57
23
16.859119
33
0
39
0
210
0
220
0
230
1
0
ENDBLK
5
100
100
AcDbEntity
8
0
100
AcDbBlockEnd
0
BLOCK
5
109
100
AcDbEntity
8
0
100
AcDbBlockBegin
2
DimnDraft3D4
70
0
10
0
20
0
30
0
3
DimnDraft3D4
0
MTEXT
5
103
100
AcDbEntity
8
SK2
62
256
6
ByLayer
370
13
48
1
60
0
100
AcDbMText
10
64.278136
20
-17.177503
30
0
210
0
220
0
230
1
1
\W0.6367;1,27
40
3.5
41
0
44
1.084337
50
0
71
7
72
5
7
iso_b_vert
0
LINE
5
104
100
AcDbEntity
8
SK2
62
256
6
ByLayer
370
13
48
1
60
0
100
AcDbLine
10
57
20
-1.5875
30
0
11
57
21
-20.052503
31
0
39
0
210
0
220
0
230
1
0
LINE
5
105
100
AcDbEntity
8
SK2
62
256
6
ByLayer
370
13
48
1
60
0
100
AcDbLine
10
55.7337
20
-6.8375
30
0
11
55.7337
21
-20.052503
31
0
39
0
210
0
220
0
230
1
0
LINE
5
106
100
AcDbEntity
8
SK2
62
256
6
ByLayer
370
13
48
1
60
0
100
AcDbLine
10
46.9837
20
-18.052503
30
0
11
70.559715
21
-18.052503
31
0
39
0
210
0
220
0
230
1
0
SOLID
5
107
100
AcDbEntity
8
SK2
62
256
6
ByLayer
370
13
48
1
60
0
100
AcDbTrace
10
57
20
-18.052503
30
0
11
60.499998
21
-17.591719
31
0
12
60.500002
22
-18.513287
32
0
13
57
23
-18.052503
33
0
39
0
210
0
220
0
230
1
0
SOLID
5
108
100
AcDbEntity
8
SK2
62
256
6
ByLayer
370
13
48
1
60
0
100
AcDbTrace
10
55.7337
20
-18.052503
30
0
11
52.233702
21
-18.513287
31
0
12
52.233698
22
-17.591719
32
0
13
55.7337
23
-18.052503
33
0
39
0
210
0
220
0
230
1
0
ENDBLK
5
10A
100
AcDbEntity
8
0
100
AcDbBlockEnd
0
BLOCK
5
113
100
AcDbEntity
8
0
100
AcDbBlockBegin
2
DimnDraft3D5
70
0
10
0
20
0
30
0
3
DimnDraft3D5
0
MTEXT
5
10D
100
AcDbEntity
8
SK2
62
256
6
ByLayer
370
13
48
1
60
0
100
AcDbMText
10
-2.324703
20
-23.468428
30
0
210
0
220
0
230
1
1
\W0.6930;100,73
40
3.5
41
0
44
1.084337
50
0
71
7
72
5
7
iso_b_vert
0
LINE
5
10E
100
AcDbEntity
8
SK2
62
256
6
ByLayer
370
13
48
1
60
0
100
AcDbLine
10
-45
20
-7.5875
30
0
11
-45
21
-26.343428
31
0
39
0
210
0
220
0
230
1
0
LINE
5
10F
100
AcDbEntity
8
SK2
62
256
6
ByLayer
370
13
48
1
60
0
100
AcDbLine
10
55.7337
20
-6.8375
30
0
11
55.7337
21
-26.343428
31
0
39
0
210
0
220
0
230
1
0
LINE
5
110
100
AcDbEntity
8
SK2
62
256
6
ByLayer
370
13
48
1
60
0
100
AcDbLine
10
-45
20
-24.343428
30
0
11
55.7337
21
-24.343428
31
0
39
0
210
0
220
0
230
1
0
SOLID
5
111
100
AcDbEntity
8
SK2
62
256
6
ByLayer
370
13
48
1
60
0
100
AcDbTrace
10
-45
20
-24.343428
30
0
11
-41.500002
21
-23.882645
31
0
12
-41.499998
22
-24.804212
32
0
13
-45
23
-24.343428
33
0
39
0
210
0
220
0
230
1
0
SOLID
5
112
100
AcDbEntity
8
SK2
62
256
6
ByLayer
370
13
48
1
60
0
100
AcDbTrace
10
55.7337
20
-24.343428
30
0
11
52.233702
21
-24.804212
31
0
12
52.233698
22
-23.882645
32
0
13
55.7337
23
-24.343428
33
0
39
0
210
0
220
0
230
1
0
ENDBLK
5
114
100
AcDbEntity
8
0
100
AcDbBlockEnd
0
BLOCK
5
11E
100
AcDbEntity
8
0
100
AcDbBlockBegin
2
DimnDraft3D6
70
0
10
0
20
0
30
0
3
DimnDraft3D6
0
MTEXT
5
117
100
AcDbEntity
8
SK2
62
256
6
ByLayer
370
13
48
1
60
0
100
AcDbMText
10
-55.375163
20
25.34918
30
0
210
0
220
0
230
1
1
\W0.6930;12,000
40
3.5
41
0
44
1.084337
50
90
71
7
72
5
7
iso_b_vert
0
MTEXT
5
118
100
AcDbEntity
8
SK2
62
256
6
ByLayer
370
13
48
1
60
0
100
AcDbMText
10
-55.375163
20
20.126524
30
0
210
0
220
0
230
1
1
%%c
40
3.5
41
0
44
1.084337
50
90
71
7
72
5
7
iso_b_vert
0
LINE
5
119
100
AcDbEntity
8
SK2
62
256
6
ByLayer
370
13
48
1
60
0
100
AcDbLine
10
-46.5875
20
-6
30
0
11
-55.625163
21
-6
31
0
39
0
210
0
220
0
230
1
0
LINE
5
11A
100
AcDbEntity
8
SK2
62
256
6
ByLayer
370
13
48
1
60
0
100
AcDbLine
10
-46.5875
20
6
30
0
11
-55.625163
21
6
31
0
39
0
210
0
220
0
230
1
0
LINE
5
11B
100
AcDbEntity
8
SK2
62
256
6
ByLayer
370
13
48
1
60
0
100
AcDbLine
10
-53.625163
20
-6
30
0
11
-53.625163
21
36.862338
31
0
39
0
210
0
220
0
230
1
0
SOLID
5
11C
100
AcDbEntity
8
SK2
62
256
6
ByLayer
370
13
48
1
60
0
100
AcDbTrace
10
-53.625163
20
-6
30
0
11
-54.085946
21
-2.500002
31
0
12
-53.164379
22
-2.499998
32
0
13
-53.625163
23
-6
33
0
39
0
210
0
220
0
230
1
0
SOLID
5
11D
100
AcDbEntity
8
SK2
62
256
6
ByLayer
370
13
48
1
60
0
100
AcDbTrace
10
-53.625163
20
6
30
0
11
-53.164379
21
2.500002
31
0
12
-54.085946
22
2.499998
32
0
13
-53.625163
23
6
33
0
39
0
210
0
220
0
230
1
0
ENDBLK
5
11F
100
AcDbEntity
8
0
100
AcDbBlockEnd
0
BLOCK
5
129
100
AcDbEntity
8
0
100
AcDbBlockBegin
2
DimnDraft3D7
70
0
10
0
20
0
30
0
3
DimnDraft3D7
0
MTEXT
5
122
100
AcDbEntity
8
2
62
256
6
ByLayer
370
13
48
1
60
0
100
AcDbMText
10
67.333343
20
23.192266
30
0
210
0
220
0
230
1
1
\W0.6930;10,500
40
3.5
41
0
44
1.084337
50
90
71
7
72
5
7
iso_b_vert
0
MTEXT
5
123
100
AcDbEntity
8
2
62
256
6
ByLayer
370
13
48
1
60
0
100
AcDbMText
10
67.333343
20
17.96961
30
0
210
0
220
0
230
1
1
%%c
40
3.5
41
0
44
1.084337
50
90
71
7
72
5
7
iso_b_vert
0
LINE
5
124
100
AcDbEntity
8
2
62
256
6
ByLayer
370
13
48
1
60
0
100
AcDbLine
10
57.3212
20
-5.25
30
0
11
71.083343
21
-5.25
31
0
39
0
210
0
220
0
230
1
0
LINE
5
125
100
AcDbEntity
8
2
62
256
6
ByLayer
370
13
48
1
60
0
100
AcDbLine
10
57.3212
20
5.25
30
0
11
71.083343
21
5.25
31
0
39
0
210
0
220
0
230
1
0
LINE
5
126
100
AcDbEntity
8
2
62
256
6
ByLayer
370
13
48
1
60
0
100
AcDbLine
10
69.083343
20
-5.25
30
0
11
69.083343
21
34.705424
31
0
39
0
210
0
220
0
230
1
0
SOLID
5
127
100
AcDbEntity
8
2
62
256
6
ByLayer
370
13
48
1
60
0
100
AcDbTrace
10
69.083343
20
-5.25
30
0
11
68.622559
21
-1.750002
31
0
12
69.544126
22
-1.749998
32
0
13
69.083343
23
-5.25
33
0
39
0
210
0
220
0
230
1
0
SOLID
5
128
100
AcDbEntity
8
2
62
256
6
ByLayer
370
13
48
1
60
0
100
AcDbTrace
10
69.083343
20
5.25
30
0
11
69.544126
21
1.750002
31
0
12
68.622559
22
1.749998
32
0
13
69.083343
23
5.25
33
0
39
0
210
0
220
0
230
1
0
ENDBLK
5
12A
100
AcDbEntity
8
0
100
AcDbBlockEnd
0
ENDSEC
0
SECTION
2
ENTITIES
0
ARC
5
9A
100
AcDbEntity
8
1
62
256
6
ByLayer
370
18
48
1
60
0
100
AcDbCircle
39
0
10
0
20
5.2
30
0
40
0.799999999999997
210
0
220
0
230
1
100
AcDbArc
50
30.676777
51
90
0
ARC
5
9B
100
AcDbEntity
8
1
62
256
6
ByLayer
370
18
48
1
60
0
100
AcDbCircle
39
0
10
-1.376095
20
6.016311
30
0
40
0.800000000000003
210
0
220
0
230
-1
100
AcDbArc
50
270
51
329.323223
0
ARC
5
9C
100
AcDbEntity
8
1
62
256
6
ByLayer
370
18
48
1
60
0
100
AcDbCircle
39
0
10
-1.376095
20
-6.016311
30
0
40
0.800000000000003
210
0
220
0
230
-1
100
AcDbArc
50
30.676777
51
90
0
ARC
5
9D
100
AcDbEntity
8
1
62
256
6
ByLayer
370
18
48
1
60
0
100
AcDbCircle
39
0
10
0
20
-5.2
30
0
40
0.799999999999997
210
0
220
0
230
1
100
AcDbArc
50
270
51
329.323223
0
ELLIPSE
5
9E
100
AcDbEntity
8
1
62
256
6
ByLayer
370
18
48
1
60
0
100
AcDbEllipse
10
4.25
20
-5.205844
30
0
11
-0.25
21
3.06151588455594E-17
31
0
210
0
220
0
230
1
40
0.999999
41
-1.56956187976423
42
-0.000195638023159303
0
ELLIPSE
5
9F
100
AcDbEntity
8
1
62
256
6
ByLayer
370
18
48
1
60
0
100
AcDbEllipse
10
4.25
20
5.205844
30
0
11
-0.25
21
3.06151588455594E-17
31
0
210
0
220
0
230
1
40
0.999999
41
0.000195638023191277
42
1.57740310575107
0
ELLIPSE
5
A0
100
AcDbEntity
8
1
62
256
6
ByLayer
370
13
48
1
60
0
100
AcDbEllipse
10
4.184253
20
1.045877
30
0
11
-0.0494741066929957
21
-0.0869040434440773
31
0
210
0
220
0
230
1
40
0.312402
41
-1.18330113069884
42
-0.739846645576615
0
POINT
5
6C
100
AcDbEntity
8
81
62
256
6
ByLayer
370
18
48
1
60
0
100
AcDbPoint
10
57
20
0
30
0
39
0
210
0
220
0
230
1
50
360
0
POINT
5
6E
100
AcDbEntity
8
80
62
256
6
ByLayer
370
18
48
1
60
0
100
AcDbPoint
10
0
20
0
30
0
39
0
210
0
220
0
230
1
50
360
0
POINT
5
70
100
AcDbEntity
8
SK2
62
256
6
ByLayer
370
18
48
1
60
1
100
AcDbPoint
10
-45
20
-6
30
0
39
0
210
0
220
0
230
1
50
360
0
POINT
5
72
100
AcDbEntity
8
SK2
62
256
6
ByLayer
370
18
48
1
60
1
100
AcDbPoint
10
-45
20
6
30
0
39
0
210
0
220
0
230
1
50
360
0
POINT
5
73
100
AcDbEntity
8
2
62
256
6
ByLayer
370
18
48
1
60
1
100
AcDbPoint
10
55.7337
20
-5.25
30
0
39
0
210
0
220
0
230
1
50
360
0
POINT
5
75
100
AcDbEntity
8
2
62
256
6
ByLayer
370
18
48
1
60
1
100
AcDbPoint
10
55.7337
20
5.25
30
0
39
0
210
0
220
0
230
1
50
360
0
SPLINE
5
A1
100
AcDbEntity
8
1
62
256
6
ByLayer
370
18
48
1
60
0
100
AcDbSpline
70
4
71
3
72
10
73
6
40
0
40
0
40
0
40
0
40
0.360351141494599
40
0.783713923422095
40
1
40
1
40
1
40
1
41
1
10
4.25063622926575
20
-4.95542958438042
30
0
41
1
10
4.49602790855818
20
-4.95603506444817
30
0
41
1
10
5.03032537890735
20
-4.95707838792649
30
0
41
1
10
5.71518767783761
20
-4.95630850945892
30
0
41
1
10
6.15274881053097
20
-4.95671686574028
30
0
41
1
10
6.3007413234368
20
-4.95686696917946
30
0
0
SPLINE
5
A2
100
AcDbEntity
8
1
62
256
6
ByLayer
370
18
48
1
60
0
100
AcDbSpline
70
4
71
2
72
6
73
3
40
0
40
0
40
0
40
1
40
1
40
1
41
1
10
55.2773771871477
20
-4.98709746744993
30
0
41
1
10
55.4610699009182
20
-4.98738007446801
30
0
41
1
10
55.6427841107567
20
-4.9859771705018
30
0
0
SPLINE
5
A3
100
AcDbEntity
8
1
62
256
6
ByLayer
370
18
48
1
60
0
100
AcDbSpline
70
4
71
3
72
33
73
29
40
0
40
0
40
0
40
0
40
0.0622076462978698
40
0.116194481465214
40
0.157737960180235
40
0.192334788779576
40
0.220876317665183
40
0.272665062830214
40
0.329656510383527
40
0.363884123993399
40
0.40172586641613
40
0.439165196241819
40
0.470493530305917
40
0.495672913535265
40
0.517709086290763
40
0.549396077176555
40
0.620829264378188
40
0.666615894916177
40
0.709997050956904
40
0.763007799930988
40
0.828034595516762
40
0.860640130618804
40
0.891032967900577
40
0.914576382226351
40
0.931346718771454
40
0.953035319888207
40
0.987449628026538
40
1
40
1
40
1
40
1
41
1
10
22.6647157715418
20
-4.96675939151467
30
0
41
1
10
22.9701023590704
20
-4.96683265014517
30
0
41
1
10
23.5405956284055
20
-4.96711492609211
30
0
41
1
10
24.3163821404022
20
-4.9672389392889
30
0
41
1
10
24.9548615927585
20
-4.96850807141092
30
0
41
1
10
25.4689090631771
20
-4.96846071147075
30
0
41
1
10
26.0338438683161
20
-4.96830797018762
30
0
41
1
10
26.7087473211671
20
-4.96798696320045
30
0
41
1
10
27.4116224518779
20
-4.96842223873187
30
0
41
1
10
28.0459472683163
20
-4.97050509927186
30
0
41
1
10
28.5841814207361
20
-4.96991464912526
30
0
41
1
10
29.1081625291948
20
-4.96961200757289
30
0
41
1
10
29.5698979381232
20
-4.96934383413551
30
0
41
1
10
29.9559263430042
20
-4.96935826631798
30
0
41
1
10
30.3437295952337
20
-4.96955675425085
30
0
41
1
10
30.9588672103227
20
-4.97186898779478
30
0
41
1
10
31.6907428023106
20
-4.97194600739854
30
0
41
1
10
32.4800907171999
20
-4.97089836283317
30
0
41
1
10
33.178893130747
20
-4.97016144182618
30
0
41
1
10
33.9722607221914
20
-4.97172112719886
30
0
41
1
10
34.7126595390115
20
-4.97267744958666
30
0
41
1
10
35.341911414203
20
-4.97342187377384
30
0
41
1
10
35.7672308703587
20
-4.97460972810148
30
0
41
1
10
36.1148087574183
20
-4.9743466496607
30
0
41
1
10
36.4190624426695
20
-4.97386152005043
30
0
41
1
10
36.7769760912088
20
-4.97320108795577
30
0
41
1
10
37.1144193680018
20
-4.97254664019172
30
0
41
1
10
37.3452435750996
20
-4.97254581664433
30
0
41
1
10
37.406930507991
20
-4.97256345549729
30
0
0
SPLINE
5
A4
100
AcDbEntity
8
1
62
256
6
ByLayer
370
18
48
1
60
0
100
AcDbSpline
70
4
71
3
72
31
73
27
40
0
40
0
40
0
40
0
40
0.0242938064892865
40
0.0582035407245535
40
0.0956362015576043
40
0.137723923809551
40
0.178482944974128
40
0.214951602676582
40
0.248536076643267
40
0.28555672663435
40
0.338069306005721
40
0.396287523339746
40
0.447265761218047
40
0.486965335148593
40
0.520960652595102
40
0.567670161600095
40
0.625220913452001
40
0.670435024482612
40
0.70282951547722
40
0.735368322373296
40
0.770537325876173
40
0.809470549186294
40
0.851172670134181
40
0.900624357472304
40
0.95685005226714
40
1
40
1
40
1
40
1
41
1
10
37.4830482455656
20
4.97272798782134
30
0
41
1
10
37.3871374755466
20
4.97271356339022
30
0
41
1
10
37.1573515277845
20
4.97276126754502
30
0
41
1
10
36.7797733048304
20
4.97334719459542
30
0
41
1
10
36.3319478786662
20
4.97405453019212
30
0
41
1
10
35.8570796131884
20
4.97474585944155
30
0
41
1
10
35.38602502356
20
4.97360005409845
30
0
41
1
10
34.9485650381479
20
4.97280955002338
30
0
41
1
10
34.5259078800673
20
4.97266797629544
30
0
41
1
10
34.0398321927719
20
4.97197278288618
30
0
41
1
10
33.4564962353085
20
4.9701069173382
30
0
41
1
10
32.8180828599934
20
4.97060916336818
30
0
41
1
10
32.2302525417254
20
4.97118046635086
30
0
41
1
10
31.7380506471495
20
4.97169746965665
30
0
41
1
10
31.2626833305985
20
4.97246178273767
30
0
41
1
10
30.7168492043508
20
4.97078661855997
30
0
41
1
10
30.1267249942209
20
4.96918392382213
30
0
41
1
10
29.5931020208582
20
4.96936536338302
30
0
41
1
10
29.1582401285629
20
4.96957489225261
30
0
41
1
10
28.7630270438045
20
4.96985641860286
30
0
41
1
10
28.3420054942551
20
4.97016239583937
30
0
41
1
10
27.8848099173983
20
4.97017813910316
30
0
41
1
10
27.3712421266272
20
4.96836229537493
30
0
41
1
10
26.7893801904626
20
4.96804390927397
30
0
41
1
10
26.2017994463325
20
4.96819937073752
30
0
41
1
10
25.8094596397121
20
4.96835997729181
30
0
41
1
10
25.6391003934925
20
4.9683952499185
30
0
0
SPLINE
5
A5
100
AcDbEntity
8
1
62
256
6
ByLayer
370
18
48
1
60
0
100
AcDbSpline
70
4
71
3
72
10
73
6
40
0
40
0
40
0
40
0
40
0.218859263854938
40
0.640832008316584
40
1
40
1
40
1
40
1
41
1
10
6.30750301848894
20
4.95687189270413
30
0
41
1
10
6.15725644297447
20
4.95671907195035
30
0
41
1
10
5.71744293727895
20
4.95630784454258
30
0
41
1
10
5.03032561409447
20
4.95707781887754
30
0
41
1
10
4.49602790856639
20
4.95603506444806
30
0
41
1
10
4.25063622926575
20
4.95542958438065
30
0
0
SPLINE
5
A6
100
AcDbEntity
8
1
62
256
6
ByLayer
370
18
48
1
60
0
100
AcDbSpline
70
4
71
3
72
8
73
4
40
0
40
0
40
0
40
0
40
1
40
1
40
1
40
1
41
1
10
55.7060349801924
20
-5.07775836710809
30
0
41
1
10
55.6902346368331
20
-5.13254769687922
30
0
41
1
10
55.6743882836663
20
-5.18730178317927
30
0
41
1
10
55.6584977878318
20
-5.24201675772574
30
0
0
SPLINE
5
A7
100
AcDbEntity
8
1
62
256
6
ByLayer
370
18
48
1
60
0
100
AcDbSpline
70
4
71
3
72
76
73
72
40
0
40
0
40
0
40
0
40
0.033120280647412
40
0.033120280647412
40
0.0662405612948241
40
0.0662405612948241
40
0.0993608419422361
40
0.0993608419422361
40
0.132481122589648
40
0.132481122589648
40
0.16560140323706
40
0.16560140323706
40
0.182161543560766
40
0.182161543560766
40
0.198721683884472
40
0.198721683884472
40
0.231841964531883
40
0.231841964531883
40
0.264962245179295
40
0.264962245179295
40
0.298082525826706
40
0.298082525826706
40
0.331202806474117
40
0.331202806474117
40
0.364323087121528
40
0.364323087121528
40
0.39744336776894
40
0.39744336776894
40
0.430563648416351
40
0.430563648416351
40
0.463683929063762
40
0.463683929063762
40
0.496804209711173
40
0.496804209711173
40
0.529924490358585
40
0.529924490358585
40
0.563044771005996
40
0.563044771005996
40
0.579604911329701
40
0.579604911329701
40
0.596165051653407
40
0.596165051653407
40
0.629285332300818
40
0.629285332300818
40
0.66240561294823
40
0.66240561294823
40
0.695525893595641
40
0.695525893595641
40
0.728646174243052
40
0.728646174243052
40
0.761766454890463
40
0.761766454890463
40
0.778326595214169
40
0.778326595214169
40
0.794886735537874
40
0.794886735537874
40
0.828007016185286
40
0.828007016185286
40
0.861127296832697
40
0.861127296832697
40
0.894247577480108
40
0.894247577480108
40
0.927367858127519
40
0.927367858127519
40
0.960488138774931
40
0.960488138774931
40
0.977048279098637
40
0.977048279098637
40
0.993608419422343
40
0.993608419422343
40
1
40
1
40
1
40
1
41
1
10
12.5616158690086
20
3.66264421285464
30
0
41
1
10
13.0165937794815
20
3.82742927549029
30
0
41
1
10
13.470741810968
20
3.97863663262655
30
0
41
1
10
14.3756531562343
20
4.25794072452325
30
0
41
1
10
14.8255859879448
20
4.38678593138795
30
0
41
1
10
15.725994624974
20
4.61661378743901
30
0
41
1
10
16.1758628576328
20
4.71849640580615
30
0
41
1
10
17.0739471672908
20
4.89677712990382
30
0
41
1
10
17.5238233974108
20
4.97182144089189
30
0
41
1
10
18.4250000940601
20
5.0941727520366
30
0
41
1
10
18.8754607404686
20
5.1417210969482
30
0
41
1
10
19.5548743909906
20
5.19054110794292
30
0
41
1
10
19.781854988362
20
5.20314599145078
30
0
41
1
10
20.236647118214
20
5.2209895663334
30
0
41
1
10
20.4646867027168
20
5.22622744589802
30
0
41
1
10
21.146189904662
20
5.23053122543254
30
0
41
1
10
21.5992480629063
20
5.21832634404794
30
0
41
1
10
22.5025604465537
20
5.16486278022359
30
0
41
1
10
22.9520028594054
20
5.12315752155521
30
0
41
1
10
23.8517157972784
20
5.01206611349565
30
0
41
1
10
24.3013580911611
20
4.9426161537626
30
0
41
1
10
25.1994210785468
20
4.77500697819903
30
0
41
1
10
25.649491649688
20
4.67807613644055
30
0
41
1
10
26.5513153697191
20
4.4578400285836
30
0
41
1
10
27.0022823330796
20
4.33350129229112
30
0
41
1
10
27.9095723800228
20
4.06177358494051
30
0
41
1
10
28.3665120868284
20
3.91330415992354
30
0
41
1
10
29.2731835829022
20
3.59413512769598
30
0
41
1
10
29.7254346560944
20
3.42562427887907
30
0
41
1
10
30.6273433214759
20
3.07059902110109
30
0
41
1
10
31.0762409074182
20
2.88272852192168
30
0
41
1
10
31.9751933407948
20
2.49527603915448
30
0
41
1
10
32.424556962596
20
2.29460629077184
30
0
41
1
10
33.3224403065704
20
1.87803450024686
30
0
41
1
10
33.7725946004475
20
1.6651872886693
30
0
41
1
10
34.6748103279951
20
1.22944848284229
30
0
41
1
10
35.1261344805267
20
1.00496402002997
30
0
41
1
10
35.8073846268235
20
0.666198083131746
30
0
41
1
10
36.0354011686869
20
0.552513081512927
30
0
41
1
10
36.4905801724573
20
0.324434574888215
30
0
41
1
10
36.7174281046598
20
0.209895099894965
30
0
41
1
10
37.3963940001185
20
-0.133824859072916
30
0
41
1
10
37.8481066817392
20
-0.360650539070036
30
0
41
1
10
38.7491109417549
20
-0.811108354568375
30
0
41
1
10
39.197686303471
20
-1.03613305273515
30
0
41
1
10
40.0962627202401
20
-1.47522193153213
30
0
41
1
10
40.5455196326703
20
-1.69082432773161
30
0
41
1
10
41.4435098733779
20
-2.11488962531604
30
0
41
1
10
41.8938613530084
20
-2.32027820598637
30
0
41
1
10
42.7966575963383
20
-2.71895274475611
30
0
41
1
10
43.2484093379056
20
-2.91343017531142
30
0
41
1
10
43.9305086541653
20
-3.19066484299984
30
0
41
1
10
44.158660336732
20
-3.28097343504919
30
0
41
1
10
44.6130731445176
20
-3.45644955532515
30
0
41
1
10
44.8395546423181
20
-3.54195298198823
30
0
41
1
10
45.5175778637674
20
-3.79052291665042
30
0
41
1
10
45.9688080031434
20
-3.94407454020771
30
0
41
1
10
46.8690257706168
20
-4.22862748452275
30
0
41
1
10
47.3173368417209
20
-4.36026542923315
30
0
41
1
10
48.2156446423953
20
-4.59624140618121
30
0
41
1
10
48.6648512108459
20
-4.70162622719073
30
0
41
1
10
49.5630544690077
20
-4.88697743830056
30
0
41
1
10
50.0136511771885
20
-4.96563272755685
30
0
41
1
10
50.917130665384
20
-5.09544968271669
30
0
41
1
10
51.3693618145674
20
-5.14675976186118
30
0
41
1
10
52.0523837308277
20
-5.20098822218284
30
0
41
1
10
52.2800984468174
20
-5.21531844802703
30
0
41
1
10
52.7344108285652
20
-5.23652393378427
30
0
41
1
10
52.961026111301
20
-5.24341934851353
30
0
41
1
10
53.2747665295779
20
-5.24774209985347
30
0
41
1
10
53.3621403780319
20
-5.24838646894193
30
0
41
1
10
53.4495147475092
20
-5.24847330655015
30
0
0
SPLINE
5
A8
100
AcDbEntity
8
1
62
256
6
ByLayer
370
13
48
1
60
0
100
AcDbSpline
70
4
71
3
72
8
73
4
40
0
40
0
40
0
40
0
40
1
40
1
40
1
40
1
41
1
10
4.25025426879819
20
0.991638864973169
30
0
41
1
10
4.21214163963757
20
1.00231047871765
30
0
41
1
10
4.17496396112895
20
1.01433345131707
30
0
41
1
10
4.14042222018418
20
1.02734879369976
30
0
0
SPLINE
5
A9
100
AcDbEntity
8
1
62
256
6
ByLayer
370
18
48
1
60
0
100
AcDbSpline
70
4
71
3
72
8
73
4
40
0
40
0
40
0
40
0
40
1
40
1
40
1
40
1
41
1
10
55.9028151738589
20
5.10519708922078
30
0
41
1
10
55.8146936103308
20
5.17867146155632
30
0
41
1
10
55.7333482442255
20
5.22463525416899
30
0
41
1
10
55.6584977878319
20
5.24201675772574
30
0
0
SPLINE
5
AA
100
AcDbEntity
8
1
62
256
6
ByLayer
370
18
48
1
60
0
100
AcDbSpline
70
4
71
3
72
8
73
4
40
0
40
0
40
0
40
0
40
1
40
1
40
1
40
1
41
1
10
56.9992745596646
20
-0.310444863464681
30
0
41
1
10
56.9978781937226
20
-0.609225213198357
30
0
41
1
10
56.9944661875682
20
-0.907960875376205
30
0
41
1
10
56.9890403486843
20
-1.20665189007067
30
0
0
SPLINE
5
AB
100
AcDbEntity
8
1
62
256
6
ByLayer
370
18
48
1
60
0
100
AcDbSpline
70
4
71
3
72
10
73
6
40
0
40
0
40
0
40
0
40
0.5
40
0.5
40
1
40
1
40
1
40
1
41
1
10
55.2394363304224
20
1.2241342315771
30
0
41
1
10
55.5286237591379
20
1.21264560283822
30
0
41
1
10
55.8178199219504
20
1.20103898475747
30
0
41
1
10
56.3962320155703
20
1.17755870178439
30
0
41
1
10
56.6854496086539
20
1.16566258112181
30
0
41
1
10
56.974579083513
20
1.15495685386449
30
0
0
SPLINE
5
AC
100
AcDbEntity
8
1
62
256
6
ByLayer
370
18
48
1
60
0
100
AcDbSpline
70
4
71
3
72
16
73
12
40
0
40
0
40
0
40
0
40
0.337381959210871
40
0.337381959210871
40
0.506072938816306
40
0.506072938816306
40
0.674763918421742
40
0.674763918421742
40
0.843454898027177
40
0.843454898027177
40
1
40
1
40
1
40
1
41
1
10
12.5616158690086
20
3.65480304830569
30
0
41
1
10
11.8316525164336
20
3.90020302454801
30
0
41
1
10
11.1156480322062
20
4.13173755878151
30
0
41
1
10
10.0482328121815
20
4.4212059894474
30
0
41
1
10
9.69410320758135
20
4.50909084686592
30
0
41
1
10
8.9922848946195
20
4.66327108155946
30
0
41
1
10
8.64391469099039
20
4.72957767960534
30
0
41
1
10
7.95093335124403
20
4.8385146302644
30
0
41
1
10
7.60630248861631
20
4.88136208806728
30
0
41
1
10
6.94504715545068
20
4.93710346362269
30
0
41
1
10
6.6280975426337
20
4.95310508337889
30
0
41
1
10
6.31265011634332
20
4.95674389265488
30
0
0
SPLINE
5
AD
100
AcDbEntity
8
1
62
256
6
ByLayer
370
18
48
1
60
0
100
AcDbSpline
70
4
71
3
72
14
73
10
40
0
40
0
40
0
40
0
40
0.1036820571861
40
0.1036820571861
40
0.335377542924915
40
0.335377542924915
40
0.79876851440254
40
0.79876851440254
40
1
40
1
40
1
40
1
41
1
10
22.6704656567969
20
-4.96678558641835
30
0
41
1
10
22.4296348427859
20
-4.96664625570673
30
0
41
1
10
22.1883187461251
20
-4.9625093050029
30
0
41
1
10
21.4058460855861
20
-4.93608648412388
30
0
41
1
10
20.8680790767179
20
-4.89785359154092
30
0
41
1
10
19.2600960160819
20
-4.72551570444145
30
0
41
1
10
18.1951808928687
20
-4.53403471650927
30
0
41
1
10
16.6644100082671
20
-4.16171677036184
30
0
41
1
10
16.2005483001945
20
-4.03605532272096
30
0
41
1
10
15.7354894330126
20
-3.89837424532232
30
0
0
SPLINE
5
AE
100
AcDbEntity
8
1
62
256
6
ByLayer
370
13
48
1
60
0
100
AcDbSpline
70
4
71
3
72
16
73
12
40
0
40
0
40
0
40
0
40
0.158660258560675
40
0.158660258560675
40
0.43910683904045
40
0.43910683904045
40
0.719553419520224
40
0.719553419520224
40
0.859776709760112
40
0.859776709760112
40
1
40
1
40
1
40
1
41
1
10
15.7354894328616
20
-3.89837424527761
30
0
41
1
10
15.1296220500691
20
-3.71900668578869
30
0
41
1
10
14.5217228195329
20
-3.5192391164679
30
0
41
1
10
12.8286916781424
20
-2.9154922543924
30
0
41
1
10
11.7586202463331
20
-2.47980971617221
30
0
41
1
10
9.62324298002517
20
-1.54876639272442
30
0
41
1
10
8.55825416040804
20
-1.05189719112673
30
0
41
1
10
6.95015724420298
20
-0.289523695447087
30
0
41
1
10
6.41240960069103
20
-0.0324535968255759
30
0
41
1
10
5.33127475800617
20
0.482871104314768
30
0
41
1
10
4.79092612564438
20
0.739262796394968
30
0
41
1
10
4.25025426879819
20
0.99163886497314
30
0
0
SPLINE
5
AF
100
AcDbEntity
8
1
62
256
6
ByLayer
370
18
48
1
60
0
100
AcDbSpline
70
4
71
3
72
8
73
4
40
0
40
0
40
0
40
0
40
1
40
1
40
1
40
1
41
1
10
55.5876842072485
20
-2.98510760124228
30
0
41
1
10
55.4698280167917
20
-3.24749303288084
30
0
41
1
10
55.3531175438081
20
-3.51085944249834
30
0
41
1
10
55.2375575023527
20
-3.77521086632908
30
0
0
SPLINE
5
B0
100
AcDbEntity
8
1
62
256
6
ByLayer
370
18
48
1
60
0
100
AcDbSpline
70
4
71
3
72
8
73
4
40
0
40
0
40
0
40
0
40
1
40
1
40
1
40
1
41
1
10
55.6584977878319
20
5.24201675772574
30
0
41
1
10
55.4690316520119
20
5.24713218195487
30
0
41
1
10
55.2795371179909
20
5.24962092895808
30
0
41
1
10
55.0900090543311
20
5.24948858132987
30
0
0
SPLINE
5
B1
100
AcDbEntity
8
1
62
256
6
ByLayer
370
18
48
1
60
0
100
AcDbSpline
70
4
71
3
72
34
73
30
40
0
40
0
40
0
40
0
40
0.102332612744127
40
0.102332612744127
40
0.177138228348784
40
0.177138228348784
40
0.251943843953441
40
0.251943843953441
40
0.326749459558098
40
0.326749459558098
40
0.401555075162756
40
0.401555075162756
40
0.438957882965084
40
0.438957882965084
40
0.476360690767413
40
0.476360690767413
40
0.551166306372069
40
0.551166306372069
40
0.625971921976726
40
0.625971921976726
40
0.663374729779053
40
0.663374729779053
40
0.700777537581381
40
0.700777537581381
40
0.775583153186036
40
0.775583153186036
40
0.850388768790691
40
0.850388768790691
40
1
40
1
40
1
40
1
41
1
10
25.6666942665488
20
-4.98114470393941
30
0
41
1
10
24.9332077217159
20
-5.09344280913169
30
0
41
1
10
24.2001938332256
20
-5.16840839345653
30
0
41
1
10
22.9266795367824
20
-5.23065951731513
30
0
41
1
10
22.3898478144771
20
-5.23594382000343
30
0
41
1
10
21.31736204546
20
-5.20481949748432
30
0
41
1
10
20.7814504425478
20
-5.1684090320002
30
0
41
1
10
19.7075572813624
20
-5.05450306749705
30
0
41
1
10
19.1691706345697
20
-4.97676573288814
30
0
41
1
10
18.0957743962191
20
-4.78271035842414
30
0
41
1
10
17.5597770031576
20
-4.66641279000126
30
0
41
1
10
16.7552058457325
20
-4.46452924564193
30
0
41
1
10
16.4869169177323
20
-4.39266010551853
30
0
41
1
10
15.9497722662149
20
-4.24011812381187
30
0
41
1
10
15.6806568727951
20
-4.15936314846905
30
0
41
1
10
14.8743161671138
20
-3.90516873635514
30
0
41
1
10
14.3380378794215
20
-3.71982977159652
30
0
41
1
10
13.2654079431543
20
-3.32130468780267
30
0
41
1
10
12.7292045999105
20
-3.10789650449988
30
0
41
1
10
11.9230268656044
20
-2.769604587082
30
0
41
1
10
11.6538188910874
20
-2.65380182305609
30
0
41
1
10
11.116423300226
20
-2.41764617274771
30
0
41
1
10
10.8480024980948
20
-2.29719880867194
30
0
41
1
10
10.0431186317291
20
-1.92959495389374
30
0
41
1
10
9.50719244493749
20
-1.67587896290885
30
0
41
1
10
8.43376786093327
20
-1.15655421316976
30
0
41
1
10
7.89521285771798
20
-0.890488767881578
30
0
41
1
10
6.28365864354186
20
-0.0869765150793
30
0
41
1
10
5.21376067800861
20
0.456524651912247
30
0
41
1
10
4.13783118295808
20
0.986811475363794
30
0
0
SPLINE
5
B2
100
AcDbEntity
8
1
62
256
6
ByLayer
370
18
48
1
60
0
100
AcDbSpline
70
4
71
3
72
18
73
14
40
0
40
0
40
0
40
0
40
0.250000000000002
40
0.250000000000002
40
0.500000000000004
40
0.500000000000004
40
0.625000000000003
40
0.625000000000003
40
0.750000000000002
40
0.750000000000002
40
0.875000000000001
40
0.875000000000001
40
1
40
1
40
1
40
1
41
1
10
3.99999956438819
20
-5.02034075945704
30
0
41
1
10
3.77085113443525
20
-4.97056772379256
30
0
41
1
10
3.54664173482567
20
-4.91002486942915
30
0
41
1
10
3.11359353049255
20
-4.75949540786115
30
0
41
1
10
2.90341303485559
20
-4.66889614485279
30
0
41
1
10
2.61873222044093
20
-4.50382791681872
30
0
41
1
10
2.52867989879434
20
-4.44381598707702
30
0
41
1
10
2.36184444134446
20
-4.31076270344911
30
0
41
1
10
2.28450192927227
20
-4.23705572772766
30
0
41
1
10
2.15305796081449
20
-4.07602105857964
30
0
41
1
10
2.09853502985715
20
-3.98870827377695
30
0
41
1
10
2.02121054898714
20
-3.79581129947087
30
0
41
1
10
2.00004466801084
20
-3.69373150089047
30
0
41
1
10
1.99999865316153
20
-3.58554972936696
30
0
0
SPLINE
5
B3
100
AcDbEntity
8
1
62
256
6
ByLayer
370
13
48
1
60
0
100
AcDbSpline
70
4
71
3
72
10
73
6
40
0
40
0
40
0
40
0
40
0.26319480030173
40
0.26319480030173
40
1
40
1
40
1
40
1
41
1
10
4.25067524290128
20
-4.95583162972702
30
0
41
1
10
4.25068573980124
20
-4.95588012838309
30
0
41
1
10
4.25069630537703
20
-4.95142394719275
30
0
41
1
10
4.25073582108459
20
-4.91757148423002
30
0
41
1
10
4.25076400597499
20
-4.85833125089781
30
0
41
1
10
4.25078844595541
20
-4.76496863118089
30
0
0
SPLINE
5
B4
100
AcDbEntity
8
1
62
256
6
ByLayer
370
18
48
1
60
0
100
AcDbSpline
70
4
71
3
72
32
73
28
40
0
40
0
40
0
40
0
40
0.0042546392637037
40
0.0042546392637037
40
0.0947769447851852
40
0.0947769447851852
40
0.185299250306667
40
0.185299250306667
40
0.275821555828149
40
0.275821555828149
40
0.366343861349631
40
0.366343861349631
40
0.456866166871112
40
0.456866166871112
40
0.547388472392594
40
0.547388472392594
40
0.637910777914076
40
0.637910777914076
40
0.728433083435558
40
0.728433083435558
40
0.773694236196297
40
0.773694236196297
40
0.818955388957036
40
0.818955388957036
40
0.909477694478518
40
0.909477694478518
40
1
40
1
40
1
40
1
41
1
10
37.4790774643264
20
4.97262056262127
30
0
41
1
10
37.4977004954177
20
4.97263339749591
30
0
41
1
10
37.5163238715927
20
4.97262372542815
30
0
41
1
10
37.931191194289
20
4.97190905228703
30
0
41
1
10
38.3272814425567
20
4.96123255659506
30
0
41
1
10
39.1193462386719
20
4.92044999383654
30
0
41
1
10
39.5156581536231
20
4.886592177604
30
0
41
1
10
40.310002560376
20
4.79802508478559
30
0
41
1
10
40.706880865999
20
4.74292769526522
30
0
41
1
10
41.4994929571161
20
4.61430370481128
30
0
41
1
10
41.8959284750366
20
4.54207337620488
30
0
41
1
10
42.6881849514428
20
4.37432733960009
30
0
41
1
10
43.0840608000558
20
4.27943854853507
30
0
41
1
10
43.8777956265537
20
4.07248141012775
30
0
41
1
10
44.2755795886455
20
3.95955581128524
30
0
41
1
10
45.0688368894576
20
3.71898381945871
30
0
41
1
10
45.4649088852541
20
3.59037920484062
30
0
41
1
10
46.2573224326966
20
3.3168747032822
30
0
41
1
10
46.6533561900363
20
3.17221090960191
30
0
41
1
10
47.2479935790814
20
2.9455550531404
30
0
41
1
10
47.4463898804676
20
2.86853496386868
30
0
41
1
10
47.8436300589748
20
2.71189167470988
30
0
41
1
10
48.042469369771
20
2.63222990068988
30
0
41
1
10
48.6377601655242
20
2.38840851662545
30
0
41
1
10
49.0333603452895
20
2.21889022850911
30
0
41
1
10
49.8248233626644
20
1.87231430644476
30
0
41
1
10
50.2206295821389
20
1.69524136868389
30
0
41
1
10
50.6164584105487
20
1.51485866122914
30
0
0
SPLINE
5
B5
100
AcDbEntity
8
1
62
256
6
ByLayer
370
18
48
1
60
0
100
AcDbSpline
70
4
71
3
72
12
73
8
40
0
40
0
40
0
40
0
40
0.25
40
0.25
40
0.5
40
0.5
40
1
40
1
40
1
40
1
41
1
10
55.9028151738556
20
5.10519708923525
30
0
41
1
10
55.9821010003188
20
4.77746639600167
30
0
41
1
10
56.0647646555714
20
4.45058476932869
30
0
41
1
10
56.235788664338
20
3.79826474134794
30
0
41
1
10
56.3241581715447
20
3.47282860276479
30
0
41
1
10
56.5968161705165
20
2.49844731670845
30
0
41
1
10
56.7887509123856
20
1.85105269064863
30
0
41
1
10
56.9890403486844
20
1.20665189007062
30
0
0
SPLINE
5
B6
100
AcDbEntity
8
1
62
256
6
ByLayer
370
18
48
1
60
0
100
AcDbSpline
70
4
71
3
72
12
73
8
40
0
40
0
40
0
40
0
40
0.25
40
0.25
40
0.5
40
0.5
40
1
40
1
40
1
40
1
41
1
10
4.13783118295802
20
0.986811475363794
30
0
41
1
10
4.11706101558963
20
0.997048341373159
30
0
41
1
10
4.09820110047255
20
1.00983132865844
30
0
41
1
10
4.06420550567304
20
1.04033863352862
30
0
41
1
10
4.04934552791212
20
1.05795022980754
30
0
41
1
10
4.01319472365185
20
1.11522899875732
30
0
41
1
10
3.99999956439211
20
1.1600582001216
30
0
41
1
10
3.99999956439211
20
1.20528241597691
30
0
0
SPLINE
5
B7
100
AcDbEntity
8
1
62
256
6
ByLayer
370
18
48
1
60
0
100
AcDbSpline
70
4
71
3
72
14
73
10
40
0
40
0
40
0
40
0
40
0.25
40
0.25
40
0.5
40
0.5
40
0.75
40
0.75
40
1
40
1
40
1
40
1
41
1
10
3.99999956439211
20
-5.00669549314028
30
0
41
1
10
3.99999956439208
20
-4.97286615906478
30
0
41
1
10
4.00480847540888
20
-4.93825094503475
30
0
41
1
10
4.02806582716713
20
-4.87057873322041
30
0
41
1
10
4.04682919345083
20
-4.83797029646857
30
0
41
1
10
4.09870739048415
20
-4.78712772256952
30
0
41
1
10
4.12999276652184
20
-4.7710026008881
30
0
41
1
10
4.1923969982798
20
-4.7569968653392
30
0
41
1
10
4.22242996910725
20
-4.7585056927912
30
0
41
1
10
4.25078844595541
20
-4.76496863113337
30
0
0
SPLINE
5
B8
100
AcDbEntity
8
1
62
256
6
ByLayer
370
18
48
1
60
0
100
AcDbSpline
70
4
71
3
72
8
73
4
40
0
40
0
40
0
40
0
40
1
40
1
40
1
40
1
41
1
10
56.9992745596646
20
0.310444863477159
30
0
41
1
10
56.9983212199621
20
0.24433212261701
30
0
41
1
10
56.9972581671521
20
0.178228262490023
30
0
41
1
10
56.9960854189429
20
0.11213328166275
30
0
0
SPLINE
5
B9
100
AcDbEntity
8
1
62
256
6
ByLayer
370
18
48
1
60
0
100
AcDbSpline
70
4
71
3
72
8
73
4
40
0
40
0
40
0
40
0
40
1
40
1
40
1
40
1
41
1
10
56.9960854189429
20
0.11213328166275
30
0
41
1
10
56.9957783641333
20
0.09482796276302
30
0
41
1
10
56.9972484455574
20
0.0742857485117554
30
0
41
1
10
56.9999796133533
20
0.0520423078067154
30
0
0
SPLINE
5
BA
100
AcDbEntity
8
1
62
256
6
ByLayer
370
18
48
1
60
0
100
AcDbSpline
70
4
71
3
72
18
73
14
40
0
40
0
40
0
40
0
40
0.136060231280208
40
0.136060231280208
40
0.272120462560416
40
0.272120462560416
40
0.544240925120833
40
0.544240925120833
40
0.680301156401041
40
0.680301156401041
40
0.816361387681249
40
0.816361387681249
40
1
40
1
40
1
40
1
41
1
10
55.2375575023527
20
-3.7752108663291
30
0
41
1
10
55.2399214332943
20
-3.87843346529607
30
0
41
1
10
55.2445231694287
20
-3.97583303373042
30
0
41
1
10
55.2582597965808
20
-4.15893277081372
30
0
41
1
10
55.2673592361008
20
-4.24396611307253
30
0
41
1
10
55.3010024023707
20
-4.47812109115435
30
0
41
1
10
55.3318934852433
20
-4.60741163345301
30
0
41
1
10
55.3914167685891
20
-4.76136609601627
30
0
41
1
10
55.4136065515957
20
-4.80612170563111
30
0
41
1
10
55.4617157307376
20
-4.88044903159843
30
0
41
1
10
55.4876703056408
20
-4.91024243996972
30
0
41
1
10
55.5531140854638
20
-4.96352940957232
30
0
41
1
10
55.5941397788612
20
-4.98125506691594
30
0
41
1
10
55.6387796406431
20
-4.98604857351933
30
0
0
SPLINE
5
BB
100
AcDbEntity
8
1
62
256
6
ByLayer
370
18
48
1
60
0
100
AcDbSpline
70
4
71
3
72
20
73
16
40
0
40
0
40
0
40
0
40
0.125
40
0.125
40
0.25
40
0.25
40
0.374999999999999
40
0.374999999999999
40
0.499999999999999
40
0.499999999999999
40
0.749999999999999
40
0.749999999999999
40
0.874999999999999
40
0.874999999999999
40
1
40
1
40
1
40
1
41
1
10
4.25078844681815
20
-4.76496863132999
30
0
41
1
10
4.5666536329295
20
-4.836954769085
30
0
41
1
10
4.89235922301791
20
-4.88492279778714
30
0
41
1
10
5.55568565580495
20
-4.94609040801924
30
0
41
1
10
5.89354668605799
20
-4.95914105884071
30
0
41
1
10
6.57797732124644
20
-4.95562958021975
30
0
41
1
10
6.92129212819319
20
-4.93916487876425
30
0
41
1
10
7.60984280607107
20
-4.88100431331947
30
0
41
1
10
7.95512869650344
20
-4.83794920431146
30
0
41
1
10
8.99487139860338
20
-4.67421721716818
30
0
41
1
10
9.69302273343177
20
-4.51748062796432
30
0
41
1
10
10.7570432176007
20
-4.22901293502343
30
0
41
1
10
11.1152140558674
20
-4.1228066555243
30
0
41
1
10
11.8347183596864
20
-3.89705284642264
30
0
41
1
10
12.1965336931502
20
-3.77753682249599
30
0
41
1
10
12.5616158690086
20
-3.65480304830567
30
0
0
SPLINE
5
BC
100
AcDbEntity
8
1
62
256
6
ByLayer
370
18
48
1
60
0
100
AcDbSpline
70
4
71
3
72
42
73
38
40
0
40
0
40
0
40
0
40
0.0625000000000013
40
0.0625000000000013
40
0.125000000000003
40
0.125000000000003
40
0.187500000000004
40
0.187500000000004
40
0.218750000000005
40
0.218750000000005
40
0.250000000000005
40
0.250000000000005
40
0.312500000000005
40
0.312500000000005
40
0.375000000000004
40
0.375000000000004
40
0.437500000000004
40
0.437500000000004
40
0.500000000000003
40
0.500000000000003
40
0.562500000000003
40
0.562500000000003
40
0.625000000000002
40
0.625000000000002
40
0.687500000000002
40
0.687500000000002
40
0.750000000000001
40
0.750000000000001
40
0.812500000000001
40
0.812500000000001
40
0.875000000000001
40
0.875000000000001
40
0.906250000000001
40
0.906250000000001
40
0.9375
40
0.9375
40
1
40
1
40
1
40
1
41
1
10
56.1329590802087
20
-1.7955723874166
30
0
41
1
10
56.1462448268864
20
-1.81028862697178
30
0
41
1
10
56.1572124269775
20
-1.8324444049513
30
0
41
1
10
56.1737821232021
20
-1.89378799232259
30
0
41
1
10
56.1790348840063
20
-1.93187926324089
30
0
41
1
10
56.1829672352715
20
-2.02263706333332
30
0
41
1
10
56.1815350274142
20
-2.07654346814215
30
0
41
1
10
56.1740386822918
20
-2.16457585321862
30
0
41
1
10
56.1706708760061
20
-2.19522175855891
30
0
41
1
10
56.162147980352
20
-2.25920062815322
30
0
41
1
10
56.1569318686238
20
-2.29284970986222
30
0
41
1
10
56.1389885083202
20
-2.39492903829381
30
0
41
1
10
56.1239274465414
20
-2.46516223388761
30
0
41
1
10
56.0882546220466
20
-2.60780635660816
30
0
41
1
10
56.0683457928799
20
-2.67751655453967
30
0
41
1
10
56.0247902368603
20
-2.81398956478685
30
0
41
1
10
56.0017915404887
20
-2.87864410467151
30
0
41
1
10
55.9543663280169
20
-2.99957508163098
30
0
41
1
10
55.9296856371698
20
-3.05631627544798
30
0
41
1
10
55.8814027861312
20
-3.15648821881606
30
0
41
1
10
55.8577035388298
20
-3.20033643563792
30
0
41
1
10
55.8111247719197
20
-3.27640583983427
30
0
41
1
10
55.7881982914516
20
-3.30852997530403
30
0
41
1
10
55.7451847387625
20
-3.35828915162233
30
0
41
1
10
55.7247514429894
20
-3.37646615646457
30
0
41
1
10
55.6864999446408
20
-3.3984715346692
30
0
41
1
10
55.6692052446356
20
-3.40204180962064
30
0
41
1
10
55.638229964168
20
-3.39424931250267
30
0
41
1
10
55.6244220312941
20
-3.38254210982615
30
0
41
1
10
55.6020084971257
20
-3.3437657138399
30
0
41
1
10
55.5932426919095
20
-3.31690114858543
30
0
41
1
10
55.5841316936998
20
-3.26411809955087
30
0
41
1
10
55.5817919422154
20
-3.24437406238081
30
0
41
1
10
55.578696478061
20
-3.2017601552505
30
0
41
1
10
55.5779114857997
20
-3.1787545686222
30
0
41
1
10
55.5779074591579
20
-3.10449903042962
30
0
41
1
10
55.5811636806252
20
-3.04688429729833
30
0
41
1
10
55.5876842072485
20
-2.98510760124225
30
0
0
SPLINE
5
BD
100
AcDbEntity
8
1
62
256
6
ByLayer
370
18
48
1
60
0
100
AcDbSpline
70
4
71
3
72
8
73
4
40
0
40
0
40
0
40
0
40
1
40
1
40
1
40
1
41
1
10
56.9890403486844
20
1.20665189007059
30
0
41
1
10
56.984237798232
20
1.18941058973442
30
0
41
1
10
56.9794173599665
20
1.17217891283246
30
0
41
1
10
56.9745790835126
20
1.1549568538646
30
0
0
SPLINE
5
BE
100
AcDbEntity
8
1
62
256
6
ByLayer
370
18
48
1
60
0
100
AcDbSpline
70
4
71
3
72
34
73
30
40
0
40
0
40
0
40
0
40
0.124999999999996
40
0.124999999999996
40
0.18749999999999
40
0.18749999999999
40
0.249999999999983
40
0.249999999999983
40
0.312499999999977
40
0.312499999999977
40
0.343749999999976
40
0.343749999999976
40
0.374999999999976
40
0.374999999999976
40
0.406249999999976
40
0.406249999999976
40
0.437499999999976
40
0.437499999999976
40
0.499999999999976
40
0.499999999999976
40
0.562499999999975
40
0.562499999999975
40
0.624999999999974
40
0.624999999999974
40
0.749999999999983
40
0.749999999999983
40
0.874999999999991
40
0.874999999999991
40
1
40
1
40
1
40
1
41
1
10
55.5876842072485
20
-2.98510760124228
30
0
41
1
10
55.4830119056692
20
-2.91564511839479
30
0
41
1
10
55.3791699343373
20
-2.83957607032335
30
0
41
1
10
55.2299901926467
20
-2.71420013657283
30
0
41
1
10
55.1812117958912
20
-2.67040570882048
30
0
41
1
10
55.086241763585
20
-2.57735392566207
30
0
41
1
10
55.0396771791508
20
-2.52770674396498
30
0
41
1
10
54.9528347844227
20
-2.42265277321209
30
0
41
1
10
54.9123811977271
20
-2.3673751123018
30
0
41
1
10
54.8596798755572
20
-2.27706283970562
30
0
41
1
10
54.8435068054703
20
-2.24564389165391
30
0
41
1
10
54.8163300771872
20
-2.18168436876275
30
0
41
1
10
54.8050814310705
20
-2.14843086966283
30
0
41
1
10
54.7902802428226
20
-2.08285335075829
30
0
41
1
10
54.7865995842492
20
-2.05010003107714
30
0
41
1
10
54.7884717347932
20
-1.98691164039332
30
0
41
1
10
54.7939115798064
20
-1.95777253159244
30
0
41
1
10
54.8225531331454
20
-1.87707216076731
30
0
41
1
10
54.8566840363781
20
-1.83622514643909
30
0
41
1
10
54.9356268484842
20
-1.77401003635146
30
0
41
1
10
54.9809563218511
20
-1.75185312179622
30
0
41
1
10
55.0757850820104
20
-1.71843779679645
30
0
41
1
10
55.125100586319
20
-1.70728889681914
30
0
41
1
10
55.2765789334639
20
-1.68416904843966
30
0
41
1
10
55.3827642638896
20
-1.68249214433487
30
0
41
1
10
55.5950052366399
20
-1.69391592950183
30
0
41
1
10
55.7018876096824
20
-1.70720345901174
30
0
41
1
10
55.9166850312181
20
-1.74404667814497
30
0
41
1
10
56.0246094146736
20
-1.76769518771681
30
0
41
1
10
56.1329590802087
20
-1.7955723874166
30
0
0
SPLINE
5
BF
100
AcDbEntity
8
1
62
256
6
ByLayer
370
18
48
1
60
0
100
AcDbSpline
70
4
71
3
72
10
73
6
40
0
40
0
40
0
40
0
40
0.72642535718464
40
0.72642535718464
40
1
40
1
40
1
40
1
41
1
10
3.99999956439211
20
-5.00669549314028
30
0
41
1
10
3.99999956439211
20
-5.10248940260041
30
0
41
1
10
3.99999956439206
20
-5.16384606210349
30
0
41
1
10
3.99999956439206
20
-5.20069635727162
30
0
41
1
10
3.99999956439208
20
-5.205795426771
30
0
41
1
10
3.99999956439214
20
-5.20583449314026
30
0
0
SPLINE
5
C0
100
AcDbEntity
8
1
62
256
6
ByLayer
370
18
48
1
60
0
100
AcDbSpline
70
4
71
3
72
8
73
4
40
0
40
0
40
0
40
0
40
1
40
1
40
1
40
1
41
1
10
56.9999796133515
20
0.0520423078102397
30
0
41
1
10
57.0000067954402
20
0.0173475755621837
30
0
41
1
10
57.0000067952134
20
-0.0173478649255117
30
0
41
1
10
56.9999796133515
20
-0.0520423078224326
30
0
0
SPLINE
5
C1
100
AcDbEntity
8
1
62
256
6
ByLayer
370
18
48
1
60
0
100
AcDbSpline
70
4
71
3
72
14
73
10
40
0
40
0
40
0
40
0
40
0.25
40
0.25
40
0.5
40
0.5
40
0.75
40
0.75
40
1
40
1
40
1
40
1
41
1
10
55.0995713424594
20
1.1201392287665
30
0
41
1
10
55.0972848793221
20
1.13621633868959
30
0
41
1
10
55.0994493193991
20
1.1528556360656
30
0
41
1
10
55.1143507259754
20
1.18222304934048
30
0
41
1
10
55.1269741189265
20
1.19452105770182
30
0
41
1
10
55.1558410024794
20
1.21186370881381
30
0
41
1
10
55.1722632807625
20
1.21740383621889
30
0
41
1
10
55.2053916330864
20
1.22382478042317
30
0
41
1
10
55.2224959947523
20
1.22480722496462
30
0
41
1
10
55.2394363304224
20
1.22413423157727
30
0
0
SPLINE
5
C2
100
AcDbEntity
8
1
62
256
6
ByLayer
370
18
48
1
60
0
100
AcDbSpline
70
4
71
3
72
8
73
4
40
0
40
0
40
0
40
0
40
1
40
1
40
1
40
1
41
1
10
56.9676199900863
20
-0.0623803104073204
30
0
41
1
10
56.6836949980895
20
-0.635226575189307
30
0
41
1
10
56.4054558007358
20
-1.21294109018857
30
0
41
1
10
56.1329590802087
20
-1.79557238741663
30
0
0
SPLINE
5
C3
100
AcDbEntity
8
1
62
256
6
ByLayer
370
18
48
1
60
0
100
AcDbSpline
70
4
71
3
72
18
73
14
40
0
40
0
40
0
40
0
40
0.110130319805683
40
0.110130319805683
40
0.214026375992976
40
0.214026375992976
40
0.31792243218027
40
0.31792243218027
40
0.525714544554857
40
0.525714544554857
40
0.941298769304034
40
0.941298769304034
40
1
40
1
40
1
40
1
41
1
10
38.7693409001806
20
-0.0018106154421105
30
0
41
1
10
39.0536511073853
20
-0.140652026997316
30
0
41
1
10
39.3384903415641
20
-0.279749973702565
30
0
41
1
10
39.8934308496683
20
-0.549834836069294
30
0
41
1
10
40.1638294855395
20
-0.68105450218107
30
0
41
1
10
40.7043209039594
20
-0.941778917292964
30
0
41
1
10
40.9738236993098
20
-1.07099976832458
30
0
41
1
10
41.7805662663673
20
-1.45430799332857
30
0
41
1
10
42.3161317605826
20
-1.70383690695257
30
0
41
1
10
43.9195509442692
20
-2.4278582120501
30
0
41
1
10
44.9841435924279
20
-2.8777922673448
30
0
41
1
10
46.2048974100679
20
-3.33437730777223
30
0
41
1
10
46.3560918543066
20
-3.38988919594056
30
0
41
1
10
46.507418612454
20
-3.44435359866969
30
0
0
SPLINE
5
C4
100
AcDbEntity
8
1
62
256
6
ByLayer
370
13
48
1
60
0
100
AcDbSpline
70
4
71
3
72
14
73
10
40
0
40
0
40
0
40
0
40
0.125491941021121
40
0.125491941021121
40
0.212942746919009
40
0.212942746919009
40
0.300393552816898
40
0.300393552816898
40
1
40
1
40
1
40
1
41
1
10
46.5074186124043
20
-3.44435359865187
30
0
41
1
10
46.8917621692131
20
-3.58268367669447
30
0
41
1
10
47.2769592451385
20
-3.71425672628283
30
0
41
1
10
47.9328071456528
20
-3.92469353929045
30
0
41
1
10
48.2032084281627
20
-4.00755431256721
30
0
41
1
10
48.7435820388907
20
-4.16491570165098
30
0
41
1
10
49.0130283256944
20
-4.23930017396859
30
0
41
1
10
51.4332148144496
20
-4.8684301970948
30
0
41
1
10
53.5491955526099
20
-5.13970256601533
30
0
41
1
10
55.7060349801855
20
-5.07775836710587
30
0
0
SPLINE
5
C5
100
AcDbEntity
8
1
62
256
6
ByLayer
370
18
48
1
60
0
100
AcDbSpline
70
4
71
3
72
12
73
8
40
0
40
0
40
0
40
0
40
0.875172405206344
40
0.875172405206344
40
0.984568955857138
40
0.984568955857138
40
1
40
1
40
1
40
1
41
1
10
55.7058431602177
20
-4.98396514387647
30
0
41
1
10
53.5510859030508
20
-5.02178266696464
30
0
41
1
10
51.4357435634849
20
-4.73391048310208
30
0
41
1
10
49.017346540211
20
-4.09643413653836
30
0
41
1
10
48.7481112963542
20
-4.02127901532702
30
0
41
1
10
48.4400678734723
20
-3.93080260994728
30
0
41
1
10
48.4019877615095
20
-3.91953931955032
30
0
41
1
10
48.3639101958579
20
-3.90819877482855
30
0
0
SPLINE
5
C6
100
AcDbEntity
8
1
62
256
6
ByLayer
370
13
48
1
60
0
100
AcDbSpline
70
4
71
3
72
22
73
18
40
0
40
0
40
0
40
0
40
0.0512773222771176
40
0.0512773222771176
40
0.170673481783502
40
0.170673481783502
40
0.409465800796271
40
0.409465800796271
40
0.528861960302655
40
0.528861960302655
40
0.588560040055848
40
0.588560040055848
40
0.64825811980904
40
0.64825811980904
40
0.887050438821812
40
0.887050438821812
40
1
40
1
40
1
40
1
41
1
10
48.3639104292536
20
-3.9081988443402
30
0
41
1
10
48.1320415478345
20
-3.83914192590529
30
0
41
1
10
47.9002670849222
20
-3.7672203717691
30
0
41
1
10
47.1311508212585
20
-3.51938622139306
30
0
41
1
10
46.5955501324684
20
-3.33191129773053
30
0
41
1
10
44.9924729238147
20
-2.73361742666216
30
0
41
1
10
43.9285173304888
20
-2.28722738307451
30
0
41
1
10
42.3261622753961
20
-1.57178455517902
30
0
41
1
10
41.7909439465523
20
-1.32568489288471
30
0
41
1
10
40.9848128163363
20
-0.948351033686038
30
0
41
1
10
40.7155326114802
20
-0.821253732166525
30
0
41
1
10
40.175528009414
20
-0.565039438607698
30
0
41
1
10
39.9055525284928
20
-0.436278043475511
30
0
41
1
10
38.5602247640538
20
0.206703176432654
30
0
41
1
10
37.4936420642275
20
0.721203677961057
30
0
41
1
10
35.922876010666
20
1.45017859927086
30
0
41
1
10
35.418531132096
20
1.67986103881461
30
0
41
1
10
34.9132668857758
20
1.90316500749552
30
0
0
SPLINE
5
C7
100
AcDbEntity
8
1
62
256
6
ByLayer
370
18
48
1
60
0
100
AcDbSpline
70
4
71
3
72
10
73
6
40
0
40
0
40
0
40
0
40
0.5
40
0.5
40
1
40
1
40
1
40
1
41
1
10
56.9999796133492
20
0.0520423078058911
30
0
41
1
10
56.9974343230347
20
0.033356455237282
30
0
41
1
10
56.9934023446589
20
0.0127921193778775
30
0
41
1
10
56.9822021455056
20
-0.0278127817593088
30
0
41
1
10
56.975038703194
20
-0.0474123357202814
30
0
41
1
10
56.9676199900863
20
-0.0623803104072636
30
0
0
SPLINE
5
C8
100
AcDbEntity
8
1
62
256
6
ByLayer
370
18
48
1
60
0
100
AcDbSpline
70
4
71
3
72
8
73
4
40
0
40
0
40
0
40
0
40
1
40
1
40
1
40
1
41
1
10
55.9028151738589
20
-5.10519708922081
30
0
41
1
10
55.8146936103308
20
-5.17867146155635
30
0
41
1
10
55.7333482442255
20
-5.22463525416899
30
0
41
1
10
55.6584977878319
20
-5.24201675772574
30
0
0
SPLINE
5
C9
100
AcDbEntity
8
1
62
256
6
ByLayer
370
18
48
1
60
0
100
AcDbSpline
70
4
71
3
72
8
73
4
40
0
40
0
40
0
40
0
40
1
40
1
40
1
40
1
41
1
10
56.9745790835126
20
1.15495685386452
30
0
41
1
10
56.9846519337104
20
0.873335499582964
30
0
41
1
10
56.9928837871313
20
0.591831500999945
30
0
41
1
10
56.9992745596646
20
0.310444863477159
30
0
0
SPLINE
5
CA
100
AcDbEntity
8
1
62
256
6
ByLayer
370
18
48
1
60
0
100
AcDbSpline
70
4
71
3
72
24
73
20
40
0
40
0
40
0
40
0
40
0.0625000000000002
40
0.0625000000000002
40
0.125000000000001
40
0.125000000000001
40
0.250000000000001
40
0.250000000000001
40
0.312500000000001
40
0.312500000000001
40
0.375000000000001
40
0.375000000000001
40
0.500000000000002
40
0.500000000000002
40
0.625000000000002
40
0.625000000000002
40
0.750000000000003
40
0.750000000000003
40
1
40
1
40
1
40
1
41
1
10
50.6164584105487
20
1.5148586612292
30
0
41
1
10
50.641455508745
20
1.36621206838353
30
0
41
1
10
50.6754018136619
20
1.21766190166903
30
0
41
1
10
50.7597950304967
20
0.920739359383447
30
0
41
1
10
50.8103579650704
20
0.772087015146326
30
0
41
1
10
50.9847937651831
20
0.328126495198205
30
0
41
1
10
51.1266788694248
20
0.0449625709468364
30
0
41
1
10
51.3698663193775
20
-0.364588626605439
30
0
41
1
10
51.4565702919752
20
-0.499107852003391
30
0
41
1
10
51.6366390263789
20
-0.75939648831195
30
0
41
1
10
51.7300501620673
20
-0.88540178980702
30
0
41
1
10
52.0189131255764
20
-1.25284016194905
30
0
41
1
10
52.2229570420878
20
-1.48374162571508
30
0
41
1
10
52.6496575066387
20
-1.92273043606065
30
0
41
1
10
52.8733041454342
20
-2.13142060404343
30
0
41
1
10
53.3266880940903
20
-2.5205986296121
30
0
41
1
10
53.5575269085712
20
-2.70231686004246
30
0
41
1
10
54.260564471483
20
-3.21481655769583
30
0
41
1
10
54.7430988410392
20
-3.51354553701682
30
0
41
1
10
55.2375575023527
20
-3.7752108663291
30
0
0
SPLINE
5
CB
100
AcDbEntity
8
1
62
256
6
ByLayer
370
18
48
1
60
0
100
AcDbSpline
70
4
71
3
72
12
73
8
40
0
40
0
40
0
40
0
40
0.25
40
0.25
40
0.5
40
0.5
40
1
40
1
40
1
40
1
41
1
10
55.9028151738553
20
-5.10519708923661
30
0
41
1
10
55.9821299299598
20
-4.77734681433455
30
0
41
1
10
56.0648151559855
20
-4.45038629042062
30
0
41
1
10
56.2358672555635
20
-3.79797084315714
30
0
41
1
10
56.32424331027
20
-3.47251832390538
30
0
41
1
10
56.5968991256858
20
-2.49816292083179
30
0
41
1
10
56.7887443742546
20
-1.85107372609036
30
0
41
1
10
56.9890403486843
20
-1.20665189007065
30
0
0
SPLINE
5
CC
100
AcDbEntity
8
1
62
256
6
ByLayer
370
18
48
1
60
0
100
AcDbSpline
70
4
71
3
72
14
73
10
40
0
40
0
40
0
40
0
40
0.25
40
0.25
40
0.5
40
0.5
40
0.75
40
0.75
40
1
40
1
40
1
40
1
41
1
10
55.705842826459
20
-4.98396514973419
30
0
41
1
10
55.709066593823
20
-4.98345110888104
30
0
41
1
10
55.711780969817
20
-4.98471361307401
30
0
41
1
10
55.7159587328994
20
-4.9915883600583
30
0
41
1
10
55.7173750246525
20
-4.99720223880158
30
0
41
1
10
55.7180796665614
20
-5.01381893376058
30
0
41
1
10
55.7172974544515
20
-5.02473853113608
30
0
41
1
10
55.7132681940315
20
-5.04982006713885
30
0
41
1
10
55.710004277378
20
-5.06399441733083
30
0
41
1
10
55.7060349801931
20
-5.07775836710564
30
0
0
SPLINE
5
CD
100
AcDbEntity
8
1
62
256
6
ByLayer
370
18
48
1
60
0
100
AcDbSpline
70
4
71
3
72
8
73
4
40
0
40
0
40
0
40
0
40
1
40
1
40
1
40
1
41
1
10
56.9992745596644
20
-0.310444863465193
30
0
41
1
10
56.9983212273007
20
-0.244332631540658
30
0
41
1
10
56.9972581761795
20
-0.178228771261388
30
0
41
1
10
56.9960854189429
20
-0.112133281662779
30
0
0
SPLINE
5
CE
100
AcDbEntity
8
1
62
256
6
ByLayer
370
18
48
1
60
0
100
AcDbSpline
70
4
71
3
72
22
73
18
40
0
40
0
40
0
40
0
40
0.164284783468485
40
0.164284783468485
40
0.328569566936971
40
0.328569566936971
40
0.492854350405456
40
0.492854350405456
40
0.657139133873942
40
0.657139133873942
40
0.821423917342427
40
0.821423917342427
40
0.90356630907667
40
0.90356630907667
40
0.985708700810913
40
0.985708700810913
40
1
40
1
40
1
40
1
41
1
10
12.5616158690086
20
-3.66264421285464
30
0
41
1
10
13.016593779481
20
-3.82742927549012
30
0
41
1
10
13.4707418109671
20
-3.97863663262626
30
0
41
1
10
14.3756531562324
20
-4.25794072452271
30
0
41
1
10
14.8255859879426
20
-4.38678593138732
30
0
41
1
10
15.7259946249708
20
-4.61661378743824
30
0
41
1
10
16.1758628576291
20
-4.71849640580535
30
0
41
1
10
17.0739471672862
20
-4.89677712990303
30
0
41
1
10
17.5238233974058
20
-4.97182144089109
30
0
41
1
10
18.4250000940541
20
-5.09417275203592
30
0
41
1
10
18.8754607404622
20
-5.14172109694758
30
0
41
1
10
19.5548743909835
20
-5.19054110794247
30
0
41
1
10
19.7818549883547
20
-5.20314599145041
30
0
41
1
10
20.2366471182062
20
-5.22098956633317
30
0
41
1
10
20.4646867027087
20
-5.22622744589788
30
0
41
1
10
20.731377537782
20
-5.22791163249425
30
0
41
1
10
20.7708909729146
20
-5.22804715387304
30
0
41
1
10
20.8103946600266
20
-5.22806896341203
30
0
0
SPLINE
5
CF
100
AcDbEntity
8
1
62
256
6
ByLayer
370
18
48
1
60
0
100
AcDbSpline
70
4
71
3
72
24
73
20
40
0
40
0
40
0
40
0
40
0.114540974330178
40
0.114540974330178
40
0.241035120854437
40
0.241035120854437
40
0.367529267378696
40
0.367529267378696
40
0.494023413902955
40
0.494023413902955
40
0.620517560427214
40
0.620517560427214
40
0.683764633689345
40
0.683764633689345
40
0.747011706951476
40
0.747011706951476
40
0.873505853475738
40
0.873505853475738
40
1
40
1
40
1
40
1
41
1
10
45.1936818257399
20
3.67146223903643
30
0
41
1
10
45.6028466047796
20
3.81944221865439
30
0
41
1
10
46.0113414257322
20
3.95751907670353
30
0
41
1
10
46.8690257705821
20
4.22862748451234
30
0
41
1
10
47.3173368416859
20
4.36026542922326
30
0
41
1
10
48.2156446423594
20
4.59624140617245
30
0
41
1
10
48.6648512108096
20
4.70162622718249
30
0
41
1
10
49.5630544689704
20
4.8869774382936
30
0
41
1
10
50.0136511771507
20
4.96563272755063
30
0
41
1
10
50.917130665345
20
5.09544968271189
30
0
41
1
10
51.3693618145278
20
5.14675976185717
30
0
41
1
10
52.0523837307872
20
5.20098822218009
30
0
41
1
10
52.2800984467772
20
5.21531844802473
30
0
41
1
10
52.7344108285261
20
5.23652393378285
30
0
41
1
10
52.9610261112627
20
5.24341934851259
30
0
41
1
10
53.6401366721976
20
5.25277621143695
30
0
41
1
10
54.0929741728216
20
5.24399253934658
30
0
41
1
10
54.9979818257783
20
5.19690978797621
30
0
41
1
10
55.4495291835858
20
5.1582082464372
30
0
41
1
10
55.902815173859
20
5.10519708922061
30
0
0
SPLINE
5
D0
100
AcDbEntity
8
1
62
256
6
ByLayer
370
18
48
1
60
0
100
AcDbSpline
70
4
71
3
72
52
73
48
40
0
40
0
40
0
40
0
40
0.048459003794963
40
0.048459003794963
40
0.096918007589926
40
0.096918007589926
40
0.145377011384889
40
0.145377011384889
40
0.193836015179852
40
0.193836015179852
40
0.242295018974815
40
0.242295018974815
40
0.266524520872296
40
0.266524520872296
40
0.290754022769778
40
0.290754022769778
40
0.387672030359704
40
0.387672030359704
40
0.411901532257186
40
0.411901532257186
40
0.436131034154667
40
0.436131034154667
40
0.484590037949631
40
0.484590037949631
40
0.533049041744594
40
0.533049041744594
40
0.581508045539558
40
0.581508045539558
40
0.629967049334521
40
0.629967049334521
40
0.678426053129485
40
0.678426053129485
40
0.726885056924448
40
0.726885056924448
40
0.775344060719412
40
0.775344060719412
40
0.823803064514375
40
0.823803064514375
40
0.848032566411857
40
0.848032566411857
40
0.87226206830934
40
0.87226206830934
40
0.969180075899268
40
0.969180075899268
40
0.993409577796751
40
0.993409577796751
40
1
40
1
40
1
40
1
41
1
10
55.6584977878319
20
-5.24201675772574
30
0
41
1
10
55.121606507624
20
-5.25651236482352
30
0
41
1
10
54.5850021591294
20
-5.24993011087031
30
0
41
1
10
53.5099941572306
20
-5.19482826793023
30
0
41
1
10
52.9735613602522
20
-5.14638471334945
30
0
41
1
10
51.9019186704928
20
-5.00909380897596
30
0
41
1
10
51.3664102253564
20
-4.92025474119873
30
0
41
1
10
50.2934750385672
20
-4.70369940855733
30
0
41
1
10
49.7553817734903
20
-4.57582564488015
30
0
41
1
10
48.682766555925
20
-4.28537158759909
30
0
41
1
10
48.1472879812184
20
-4.12268223954024
30
0
41
1
10
47.3433400602794
20
-3.85487693486371
30
0
41
1
10
47.0752379986907
20
-3.76164543657131
30
0
41
1
10
46.5384798816353
20
-3.56765444448868
30
0
41
1
10
46.2695647637228
20
-3.46679191155587
30
0
41
1
10
44.9266115152575
20
-2.94620007824392
30
0
41
1
10
43.8574580002134
20
-2.47816790871261
30
0
41
1
10
42.5147155680322
20
-1.85072445093681
30
0
41
1
10
42.2456947151837
20
-1.7230413233431
30
0
41
1
10
41.708723218418
20
-1.46494307710304
30
0
41
1
10
41.4405644479495
20
-1.33439582485158
30
0
41
1
10
40.6364509809649
20
-0.939465756666607
30
0
41
1
10
40.100849525751
20
-0.671814576898953
30
0
41
1
10
39.0280969163697
20
-0.132714987134307
30
0
41
1
10
38.4899973877009
20
0.139379632702372
30
0
41
1
10
37.4164832982552
20
0.678944370479599
30
0
41
1
10
36.880704648631
20
0.946376496802969
30
0
41
1
10
35.8086928028055
20
1.47183108525499
30
0
41
1
10
35.2724433564489
20
1.72982064358945
30
0
41
1
10
34.1969080950076
20
2.23136442569373
30
0
41
1
10
33.6605692574487
20
2.47343311666691
30
0
41
1
10
32.5884941310759
20
2.93557550128264
30
0
41
1
10
32.0526649015644
20
3.15561959224525
30
0
41
1
10
30.9789288796856
20
3.56953239572795
30
0
41
1
10
30.4407569075014
20
3.76361817136851
30
0
41
1
10
29.3678415942566
20
4.11873412988717
30
0
41
1
10
28.8320800748784
20
4.28015795913129
30
0
41
1
10
28.0275945869676
20
4.49593600457854
30
0
41
1
10
27.7593311444787
20
4.56351113507318
30
0
41
1
10
27.2222716666062
20
4.68956657349293
30
0
41
1
10
26.9532138739266
20
4.74806995738157
30
0
41
1
10
25.6099682461658
20
5.01587439253046
30
0
41
1
10
24.5401949140411
20
5.15174367362638
30
0
41
1
10
23.1966420759377
20
5.2174746060812
30
0
41
1
10
22.9275356000764
20
5.22539909949577
30
0
41
1
10
22.5859221958462
20
5.22879555072871
30
0
41
1
10
22.5128938401621
20
5.22913417386255
30
0
41
1
10
22.439883046187
20
5.22908577153987
30
0
0
SPLINE
5
D1
100
AcDbEntity
8
1
62
256
6
ByLayer
370
18
48
1
60
0
100
AcDbSpline
70
4
71
3
72
8
73
4
40
0
40
0
40
0
40
0
40
1
40
1
40
1
40
1
41
1
10
56.9890403486844
20
1.20665189007062
30
0
41
1
10
56.9944661842351
20
0.907961058860622
30
0
41
1
10
56.9978781928645
20
0.609225396797029
30
0
41
1
10
56.9992745596646
20
0.310444863477159
30
0
0
SPLINE
5
D2
100
AcDbEntity
8
1
62
256
6
ByLayer
370
18
48
1
60
0
100
AcDbSpline
70
4
71
3
72
8
73
4
40
0
40
0
40
0
40
0
40
1
40
1
40
1
40
1
41
1
10
3.99999956439208
20
-5.0203407594561
30
0
41
1
10
3.99999956439208
20
-5.01578946013222
30
0
41
1
10
3.99999956439211
20
-5.01124103904206
30
0
41
1
10
3.99999956439211
20
-5.00669549314028
30
0
0
SPLINE
5
D3
100
AcDbEntity
8
1
62
256
6
ByLayer
370
13
48
1
60
0
100
AcDbSpline
70
4
71
3
72
28
73
24
40
0
40
0
40
0
40
0
40
0.148757877665957
40
0.148757877665957
40
0.223136816498936
40
0.223136816498936
40
0.297515755331915
40
0.371894694164893
40
0.371894694164893
40
0.446273632997872
40
0.446273632997872
40
0.595031510663829
40
0.595031510663829
40
0.669410449496808
40
0.669410449496808
40
0.743789388329787
40
0.743789388329787
40
0.818168327162766
40
0.818168327162766
40
0.892547265995745
40
0.966926204828723
40
0.966926204828723
40
1
40
1
40
1
40
1
41
1
10
4.25025426879819
20
0.991638864973169
30
0
41
1
10
4.25028984942259
20
1.32773567686863
30
0
41
1
10
4.25031723232175
20
1.65291948165259
30
0
41
1
10
4.25035100118862
20
2.12440884136817
30
0
41
1
10
4.25036095395365
20
2.27776334745892
30
0
41
1
10
4.25037895215354
20
2.57362975413162
30
0
41
1
10
4.25039512102086
20
2.85975326215518
30
0
41
1
10
4.25040931558613
20
3.12657403636331
30
0
41
1
10
4.25042329707071
20
3.38352603061418
30
0
41
1
10
4.25043020404019
20
3.50736002019804
30
0
41
1
10
4.2504512104492
20
3.85552368639972
30
0
41
1
10
4.25046580192952
20
4.05966501554209
30
0
41
1
10
4.25049170214547
20
4.32412869330571
30
0
41
1
10
4.25050103508741
20
4.4055724622927
30
0
41
1
10
4.25052113830605
20
4.55210987644111
30
0
41
1
10
4.25053188773398
20
4.61718282530867
30
0
41
1
10
4.25055491140637
20
4.73094702530071
30
0
41
1
10
4.25056718932356
20
4.77952599154369
30
0
41
1
10
4.2505927983625
20
4.8588225831993
30
0
41
1
10
4.25061955449684
20
4.92078357688246
30
0
41
1
10
4.25064813917959
20
4.94849061252157
30
0
41
1
10
4.25066917885403
20
4.95588763360868
30
0
41
1
10
4.25067571766465
20
4.95641140761799
30
0
41
1
10
4.2506822629006
20
4.95519447716418
30
0
0
SPLINE
5
D4
100
AcDbEntity
8
1
62
256
6
ByLayer
370
18
48
1
60
0
100
AcDbSpline
70
4
71
3
72
8
73
4
40
0
40
0
40
0
40
0
40
1
40
1
40
1
40
1
41
1
10
56.9960854189429
20
-0.112133281662636
30
0
41
1
10
56.9957783641334
20
-0.0948279627670274
30
0
41
1
10
56.9972484455568
20
-0.0742857485215609
30
0
41
1
10
56.9999796133515
20
-0.0520423078224894
30
0
0
SPLINE
5
D5
100
AcDbEntity
8
1
62
256
6
ByLayer
370
18
48
1
60
0
100
AcDbSpline
70
4
71
3
72
68
73
64
40
0
40
0
40
0
40
0
40
0.0160869944845764
40
0.0160869944845764
40
0.052528216911075
40
0.052528216911075
40
0.0889694393375737
40
0.0889694393375737
40
0.125410661764072
40
0.125410661764072
40
0.161851884190571
40
0.161851884190571
40
0.19829310661707
40
0.19829310661707
40
0.234734329043568
40
0.234734329043568
40
0.271175551470067
40
0.271175551470067
40
0.289396162683316
40
0.289396162683316
40
0.307616773896565
40
0.307616773896565
40
0.344057996323061
40
0.344057996323061
40
0.380499218749558
40
0.380499218749558
40
0.416940441176054
40
0.416940441176054
40
0.435161052389303
40
0.435161052389303
40
0.453381663602551
40
0.453381663602551
40
0.489822886029048
40
0.489822886029048
40
0.526264108455544
40
0.526264108455544
40
0.544484719668793
40
0.544484719668793
40
0.562705330882041
40
0.562705330882041
40
0.599146553308537
40
0.599146553308537
40
0.635587775735034
40
0.635587775735034
40
0.672028998161531
40
0.672028998161531
40
0.708470220588027
40
0.708470220588027
40
0.744911443014524
40
0.744911443014524
40
0.78135266544102
40
0.78135266544102
40
0.817793887867517
40
0.817793887867517
40
0.854235110294014
40
0.854235110294014
40
0.89067633272051
40
0.89067633272051
40
0.927117555147007
40
0.927117555147007
40
0.963558777573503
40
0.963558777573503
40
1
40
1
40
1
40
1
41
1
10
45.1967835551033
20
-3.67526008235734
30
0
41
1
10
45.0218573191905
20
-3.73158255518598
30
0
41
1
10
44.8468747474175
20
-3.78630112626328
30
0
41
1
10
44.2751340165306
20
-3.95968501737011
30
0
41
1
10
43.8773346906132
20
-4.07260731552617
30
0
41
1
10
43.0837554869626
20
-4.27951242814672
30
0
41
1
10
42.6879520574146
20
-4.37437979713451
30
0
41
1
10
41.8958298083588
20
-4.54209111935998
30
0
41
1
10
41.4994560234105
20
-4.61430938011711
30
0
41
1
10
40.7069595553787
20
-4.7429152438902
30
0
41
1
10
40.3101759552666
20
-4.79800298672904
30
0
41
1
10
39.5157925812459
20
-4.88657995327398
30
0
41
1
10
39.1194879562122
20
-4.92043893598245
30
0
41
1
10
38.3275072074158
20
-4.96122469143208
30
0
41
1
10
37.9314839361381
20
-4.97190191720856
30
0
41
1
10
37.1391819787065
20
-4.97328003502113
30
0
41
1
10
36.7432675186046
20
-4.96382919391044
30
0
41
1
10
36.1480188565776
20
-4.93305654409011
30
0
41
1
10
35.9492898249761
20
-4.92000511431263
30
0
41
1
10
35.5523645415783
20
-4.88786967265659
30
0
41
1
10
35.3540503372862
20
-4.86859079338905
30
0
41
1
10
34.7596757713343
20
-4.80396577347665
30
0
41
1
10
34.3640902262621
20
-4.75097180252916
30
0
41
1
10
33.5720054057277
20
-4.6228382659057
30
0
41
1
10
33.1758330636463
20
-4.54940303618227
30
0
41
1
10
32.3832627829971
20
-4.38333906468603
30
0
41
1
10
31.9858428231399
20
-4.29067304013293
30
0
41
1
10
31.3908907006983
20
-4.13815726092707
30
0
41
1
10
31.192744104324
20
-4.08493067383273
30
0
41
1
10
30.7967540802715
20
-3.97287274119205
30
0
41
1
10
30.5988823212289
20
-3.91431687501594
30
0
41
1
10
30.0051285231543
20
-3.73368272847051
30
0
41
1
10
29.6091656737932
20
-3.60646042923852
30
0
41
1
10
28.816979409406
20
-3.33612477586064
30
0
41
1
10
28.4206611415652
20
-3.19307429011047
30
0
41
1
10
27.8251639781531
20
-2.96770340992776
30
0
41
1
10
27.6267955020688
20
-2.89055152483789
30
0
41
1
10
27.2303026769957
20
-2.7338840802972
30
0
41
1
10
27.0322183206321
20
-2.65418846547743
30
0
41
1
10
26.4384267870316
20
-2.41087719418354
30
0
41
1
10
26.0428404199709
20
-2.24363660213083
30
0
41
1
10
25.2509508132393
20
-1.90060042132995
30
0
41
1
10
24.8550943433902
20
-1.72413413342898
30
0
41
1
10
24.0613762344086
20
-1.36235151419711
30
0
41
1
10
23.6639893073193
20
-1.1789516190417
30
0
41
1
10
22.8711031919776
20
-0.808215834588395
30
0
41
1
10
22.4754687424227
20
-0.62013337051954
30
0
41
1
10
21.6835708683638
20
-0.243171857582297
30
0
41
1
10
21.2872838677786
20
-0.054307585745363
30
0
41
1
10
20.4943458794198
20
0.324778915394631
30
0
41
1
10
20.0969907192455
20
0.514908734198826
30
0
41
1
10
19.303278717879
20
0.888724269158274
30
0
41
1
10
18.9069299015069
20
1.07420033356243
30
0
41
1
10
18.1150432637652
20
1.44131759513053
30
0
41
1
10
17.7189980905319
20
1.62178356206601
30
0
41
1
10
16.9259163614384
20
1.97442891461389
30
0
41
1
10
16.5286367558302
20
2.14685857748495
30
0
41
1
10
15.7344030015371
20
2.48120649048522
30
0
41
1
10
15.3376261399777
20
2.64314834221889
30
0
41
1
10
14.545028038852
20
2.95611587901581
30
0
41
1
10
14.1492024912056
20
3.1069472597778
30
0
41
1
10
13.3562660221185
20
3.39196796237982
30
0
41
1
10
12.9591216839311
20
3.5265662329785
30
0
41
1
10
12.5616158690086
20
3.65480304830572
30
0
0
SPLINE
5
D6
100
AcDbEntity
8
1
62
256
6
ByLayer
370
18
48
1
60
0
100
AcDbSpline
70
4
71
3
72
44
73
40
40
0
40
0
40
0
40
0
40
0.0156250000000043
40
0.0156250000000043
40
0.0312500000000086
40
0.0312500000000086
40
0.0468750000000129
40
0.0468750000000129
40
0.0625000000000172
40
0.0625000000000172
40
0.0937500000000257
40
0.0937500000000257
40
0.125000000000034
40
0.125000000000034
40
0.187500000000053
40
0.187500000000053
40
0.218750000000062
40
0.218750000000062
40
0.226562500000064
40
0.226562500000064
40
0.230468750000064
40
0.230468750000064
40
0.234375000000065
40
0.234375000000065
40
0.238281250000066
40
0.238281250000066
40
0.242187500000066
40
0.242187500000066
40
0.250000000000066
40
0.250000000000066
40
0.375000000000054
40
0.375000000000054
40
0.437500000000049
40
0.437500000000049
40
0.500000000000043
40
0.500000000000043
40
0.750000000000021
40
0.750000000000021
40
1
40
1
40
1
40
1
41
1
10
1.99999857833564
20
-3.58519788637395
30
0
41
1
10
1.99999857833561
20
-3.53943674889388
30
0
41
1
10
2.00388077294522
20
-3.49231896619054
30
0
41
1
10
2.01928859339389
20
-3.39854858894643
30
0
41
1
10
2.03077293456499
20
-3.35161548543613
30
0
41
1
10
2.06100001854261
20
-3.25771869757793
30
0
41
1
10
2.07975469863922
20
-3.21075705330287
30
0
41
1
10
2.12432467048311
20
-3.11687406975378
30
0
41
1
10
2.15016545175769
20
-3.0700131291182
30
0
41
1
10
2.23542992604172
20
-2.9331007577494
30
0
41
1
10
2.30309353568242
20
-2.84540898129862
30
0
41
1
10
2.45544016988362
20
-2.6760003518755
30
0
41
1
10
2.54030613366609
20
-2.5943032531944
30
0
41
1
10
2.80756842837744
20
-2.36358560533606
30
0
41
1
10
3.0047920994364
20
-2.22562530893308
30
0
41
1
10
3.31865011661293
20
-2.03464089274377
30
0
41
1
10
3.42606588524103
20
-1.97391336254134
30
0
41
1
10
3.56262211609769
20
-1.90144794213452
30
0
41
1
10
3.59006482861918
20
-1.88711871768984
30
0
41
1
10
3.63136693449272
20
-1.86588738560778
30
0
41
1
10
3.64498988552219
20
-1.85851279375291
30
0
41
1
10
3.67303814396425
20
-1.84537135066819
30
0
41
1
10
3.68787686849711
20
-1.84043972999953
30
0
41
1
10
3.71889242393016
20
-1.83327760438317
30
0
41
1
10
3.73486095995275
20
-1.83104147006387
30
0
41
1
10
3.76633601201888
20
-1.82875920925269
30
0
41
1
10
3.7820370689202
20
-1.82888693571871
30
0
41
1
10
3.82911570301167
20
-1.83012397874691
30
0
41
1
10
3.86049072254514
20
-1.8313221465888
30
0
41
1
10
4.393929617618
20
-1.84947710385848
30
0
41
1
10
4.89514860108278
20
-1.88503710245837
30
0
41
1
10
5.64305297814329
20
-1.96412649668602
30
0
41
1
10
5.89183059888626
20
-1.99477320401488
30
0
41
1
10
6.38835735522866
20
-2.0642776698707
30
0
41
1
10
6.63619702466184
20
-2.10317082067107
30
0
41
1
10
7.86710435463004
20
-2.3159705526742
30
0
41
1
10
8.82975305796913
20
-2.54618769342508
30
0
41
1
10
10.7189023846714
20
-3.07340866938688
30
0
41
1
10
11.6454010535811
20
-3.36990669073694
30
0
41
1
10
12.5616158690086
20
-3.66264421285464
30
0
0
SPLINE
5
D7
100
AcDbEntity
8
1
62
256
6
ByLayer
370
13
48
1
60
0
100
AcDbSpline
70
4
71
3
72
10
73
6
40
0
40
0
40
0
40
0
40
0.5
40
0.5
40
1
40
1
40
1
40
1
41
1
10
3.99999956439208
20
1.20297080686188
30
0
41
1
10
3.99999956439208
20
1.16792442852869
30
0
41
1
10
4.0123102608421
20
1.13210425355589
30
0
41
1
10
4.0596153694531
20
1.07094534760708
30
0
41
1
10
4.09512725904486
20
1.04441595393322
30
0
41
1
10
4.14042222018418
20
1.02734879369979
30
0
0
SPLINE
5
D8
100
AcDbEntity
8
1
62
256
6
ByLayer
370
18
48
1
60
0
100
AcDbSpline
70
4
71
3
72
36
73
32
40
0
40
0
40
0
40
0
40
0.250000000000018
40
0.250000000000018
40
0.31250000000002
40
0.31250000000002
40
0.375000000000021
40
0.375000000000021
40
0.500000000000023
40
0.500000000000023
40
0.562500000000024
40
0.562500000000024
40
0.625000000000025
40
0.625000000000025
40
0.687500000000027
40
0.687500000000027
40
0.750000000000028
40
0.750000000000028
40
0.812500000000029
40
0.812500000000029
40
0.843750000000028
40
0.843750000000028
40
0.851562500000026
40
0.851562500000026
40
0.859375000000025
40
0.859375000000025
40
0.867187500000023
40
0.867187500000023
40
0.875000000000022
40
0.875000000000022
40
1
40
1
40
1
40
1
41
1
10
50.6164584105487
20
1.5148586612292
30
0
41
1
10
51.0382455258166
20
1.18709678196896
30
0
41
1
10
51.4742014128955
20
0.901586003969697
30
0
41
1
10
52.0398524586079
20
0.606443123083807
30
0
41
1
10
52.1537444478721
20
0.550677605263246
30
0
41
1
10
52.3809978197468
20
0.446866936115612
30
0
41
1
10
52.4946548713272
20
0.398663333681156
30
0
41
1
10
52.8357214325575
20
0.265683080895514
30
0
41
1
10
53.0632257641972
20
0.192465731521367
30
0
41
1
10
53.4047033691113
20
0.109593873026739
30
0
41
1
10
53.5185662847188
20
0.0864861819270288
30
0
41
1
10
53.746373364534
20
0.0501754328526829
30
0
41
1
10
53.859903166868
20
0.0370668004708818
30
0
41
1
10
54.0840332697913
20
0.0219135634208101
30
0
41
1
10
54.1949413397688
20
0.019796503255094
30
0
41
1
10
54.4142302711198
20
0.0274877620665563
30
0
41
1
10
54.5228515120979
20
0.0373476531615893
30
0
41
1
10
54.7356818003254
20
0.0702069773848848
30
0
41
1
10
54.8400155847183
20
0.0932194037018235
30
0
41
1
10
54.9922178232591
20
0.138385929132397
30
0
41
1
10
55.0422222090151
20
0.155204971748304
30
0
41
1
10
55.1037228205354
20
0.178481178770312
30
0
41
1
10
55.1159604436804
20
0.18327236342634
30
0
41
1
10
55.1404257064147
20
0.192876448183256
30
0
41
1
10
55.1523711541295
20
0.198763686053894
30
0
41
1
10
55.1698169207698
20
0.219349805557869
30
0
41
1
10
55.1752187426956
20
0.233564990500355
30
0
41
1
10
55.1759354630686
20
0.266735933762845
30
0
41
1
10
55.1747990716194
20
0.283771359159942
30
0
41
1
10
55.1655950803673
20
0.570363129152611
30
0
41
1
10
55.1386767922439
20
0.845171920301766
30
0
41
1
10
55.0995713424593
20
1.1201392287665
30
0
0
SPLINE
5
D9
100
AcDbEntity
8
1
62
256
6
ByLayer
370
18
48
1
60
0
100
AcDbSpline
70
4
71
3
72
16
73
12
40
0
40
0
40
0
40
0
40
0.165502557192411
40
0.165502557192411
40
0.570401850773699
40
0.570401850773699
40
0.772851497564343
40
0.772851497564343
40
0.975301144354987
40
0.975301144354987
40
1
40
1
40
1
40
1
41
1
10
6.12594226431031
20
-0.0051195901564256
30
0
41
1
10
6.56751691818738
20
-0.21998846026662
30
0
41
1
10
7.0072760765338
20
-0.433893140141379
30
0
41
1
10
8.51883090244425
20
-1.16324751835199
30
0
41
1
10
9.58449985602385
20
-1.66780067358371
30
0
41
1
10
11.1872229062547
20
-2.37461716452182
30
0
41
1
10
11.7220313926081
20
-2.60214205541965
30
0
41
1
10
12.7950995109774
20
-3.03653633058227
30
0
41
1
10
13.3337937287595
20
-3.24327264832706
30
0
41
1
10
13.9410660464768
20
-3.460442163587
30
0
41
1
10
14.0070513759769
20
-3.4838333705857
30
0
41
1
10
14.0729929897029
20
-3.50699948206
30
0
0
SPLINE
5
DA
100
AcDbEntity
8
1
62
256
6
ByLayer
370
13
48
1
60
0
100
AcDbSpline
70
4
71
3
72
16
73
12
40
0
40
0
40
0
40
0
40
0.294474612094888
40
0.294474612094888
40
0.608078999632787
40
0.608078999632787
40
0.764881193401736
40
0.764881193401736
40
0.921683387170685
40
0.921683387170685
40
1
40
1
40
1
40
1
41
1
10
14.0729920464013
20
-3.50699915066642
30
0
41
1
10
15.0880608699063
20
-3.8636055213791
30
0
41
1
10
16.0927708774896
20
-4.16687365373647
30
0
41
1
10
18.1637282397701
20
-4.66409357414028
30
0
41
1
10
19.2293654152138
20
-4.85029564467507
30
0
41
1
10
20.8388636716075
20
-5.01152179262346
30
0
41
1
10
21.3773223953731
20
-5.0455722154189
30
0
41
1
10
22.4596031035587
20
-5.07270809077141
30
0
41
1
10
22.9977267015044
20
-5.06570220766278
30
0
41
1
10
23.8018361176868
20
-5.02500258920676
30
0
41
1
10
24.0692478655982
20
-5.00645391214448
30
0
41
1
10
24.3363681965741
20
-4.98299902433411
30
0
0
SPLINE
5
DB
100
AcDbEntity
8
SK1
62
256
6
ByLayer
370
18
48
1
60
0
100
AcDbSpline
70
4
71
3
72
10
73
6
40
0
40
0
40
0
40
0
40
0.5
40
0.5
40
1
40
1
40
1
40
1
41
1
10
-43.7
20
-3.23760311111218
30
0
41
1
10
-43.9167181795309
20
-2.95723243388849
30
0
41
1
10
-44.1326828049689
20
-2.676557924988
30
0
41
1
10
-44.561629289364
20
-2.11400626102005
30
0
41
1
10
-44.7747105375614
20
-1.83216917951844
30
0
41
1
10
-44.9844172336543
20
-1.54897148457965
30
0
0
SPLINE
5
DC
100
AcDbEntity
8
SK1
62
256
6
ByLayer
370
18
48
1
60
0
100
AcDbSpline
70
4
71
3
72
14
73
10
40
0
40
0
40
0
40
0
40
0.125000000000001
40
0.125000000000001
40
0.250000000000001
40
0.250000000000001
40
0.500000000000003
40
0.500000000000003
40
1
40
1
40
1
40
1
41
1
10
-43.6
20
-3.4504037482489
30
0
41
1
10
-43.6
20
-3.44158665590214
30
0
41
1
10
-43.6017220508865
20
-3.43116451908628
30
0
41
1
10
-43.6068954324577
20
-3.41030208303877
30
0
41
1
10
-43.610237321167
20
-3.40004449418376
30
0
41
1
10
-43.6215324998379
20
-3.36956369520593
30
0
41
1
10
-43.6303471072619
20
-3.3506389608724
30
0
41
1
10
-43.658490206513
20
-3.29641137509989
30
0
41
1
10
-43.678793979422
20
-3.26503757167995
30
0
41
1
10
-43.7
20
-3.23760311111218
30
0
0
SPLINE
5
DD
100
AcDbEntity
8
SK1
62
256
6
ByLayer
370
18
48
1
60
0
100
AcDbSpline
70
4
71
3
72
14
73
10
40
0
40
0
40
0
40
0
40
0.499999999999997
40
0.499999999999997
40
0.749999999999996
40
0.749999999999996
40
0.874999999999998
40
0.874999999999998
40
1
40
1
40
1
40
1
41
1
10
-43.7
20
-4.9486962086296
30
0
41
1
10
-43.6789021434844
20
-4.97599073616794
30
0
41
1
10
-43.6585587767126
20
-4.99917687843089
30
0
41
1
10
-43.6303722414292
20
-5.02435640803463
30
0
41
1
10
-43.6214260646625
20
-5.03103801779548
30
0
41
1
10
-43.6102968606991
20
-5.03540083933211
30
0
41
1
10
-43.6069058574072
20
-5.03592465543079
30
0
41
1
10
-43.6017309986994
20
-5.03346019273496
30
0
41
1
10
-43.6
20
-5.03038875011589
30
0
41
1
10
-43.6
20
-5.02460939796489
30
0
0
SPLINE
5
DE
100
AcDbEntity
8
SK1
62
256
6
ByLayer
370
18
48
1
60
0
100
AcDbSpline
70
4
71
3
72
10
73
6
40
0
40
0
40
0
40
0
40
0.5
40
0.5
40
1
40
1
40
1
40
1
41
1
10
-45
20
-3.2390092197239
30
0
41
1
10
-44.7879329923325
20
-3.52571338791776
30
0
41
1
10
-44.5722200840336
20
-3.81114159659106
30
0
41
1
10
-44.1380243767707
20
-4.38071146418898
30
0
41
1
10
-43.9193951017124
20
-4.66486236792542
30
0
41
1
10
-43.7
20
-4.94869620862951
30
0
0
SPLINE
5
DF
100
AcDbEntity
8
SK1
62
256
6
ByLayer
370
18
48
1
60
0
100
AcDbSpline
70
4
71
3
72
8
73
4
40
0
40
0
40
0
40
0
40
1
40
1
40
1
40
1
41
1
10
-44.9844172336553
20
-1.54897148458386
30
0
41
1
10
-44.9895616385404
20
-1.53835368032463
30
0
41
1
10
-44.9947555218102
20
-1.52783819123636
30
0
41
1
10
-45
20
-1.51742528236562
30
0
0
LINE
5
76
100
AcDbEntity
8
81
62
256
6
ByLayer
370
18
48
1
60
0
100
AcDbLine
10
57
20
0
30
0
11
62
21
0
31
0
39
0
210
0
220
0
230
1
0
LINE
5
77
100
AcDbEntity
8
1
62
256
6
ByLayer
370
18
48
1
60
0
100
AcDbLine
10
22.440812
20
5.229086
30
0
11
20.809423
21
5.228067
31
0
39
0
210
0
220
0
230
1
0
LINE
5
79
100
AcDbEntity
8
1
62
256
6
ByLayer
370
18
48
1
60
0
100
AcDbLine
10
53.456885
20
-5.248472
30
0
11
55.09121
21
-5.249493
31
0
39
0
210
0
220
0
230
1
0
LINE
5
7A
100
AcDbEntity
8
1
62
256
6
ByLayer
370
18
48
1
60
0
100
AcDbLine
10
2
20
-5.216311
30
0
11
4
21
-5.217561
31
0
39
0
210
0
220
0
230
1
0
LINE
5
7B
100
AcDbEntity
8
1
62
256
6
ByLayer
370
18
48
1
60
0
100
AcDbLine
10
4
20
5.217561
30
0
11
2
21
5.216311
31
0
39
0
210
0
220
0
230
1
0
LINE
5
7C
100
AcDbEntity
8
1
62
256
6
ByLayer
370
18
48
1
60
0
100
AcDbLine
10
55.091143
20
5.249493
30
0
11
53.456885
21
5.248472
31
0
39
0
210
0
220
0
230
1
0
LINE
5
7D
100
AcDbEntity
8
1
62
256
6
ByLayer
370
18
48
1
60
0
100
AcDbLine
10
20.809423
20
-5.228067
30
0
11
22.440506
21
-5.229086
31
0
39
0
210
0
220
0
230
1
0
LINE
5
7E
100
AcDbEntity
8
1
62
256
6
ByLayer
370
18
48
1
60
0
100
AcDbLine
10
1.376095
20
-5.216311
30
0
11
2
21
-5.216311
31
0
39
0
210
0
220
0
230
1
0
LINE
5
7F
100
AcDbEntity
8
1
62
256
6
ByLayer
370
18
48
1
60
0
100
AcDbLine
10
2
20
5.216311
30
0
11
1.376095
21
5.216311
31
0
39
0
210
0
220
0
230
1
0
LINE
5
80
100
AcDbEntity
8
SK1
62
256
6
ByLayer
370
18
48
1
60
0
100
AcDbLine
10
0
20
6
30
0
11
-43.556624
21
6
31
0
39
0
210
0
220
0
230
1
0
LINE
5
82
100
AcDbEntity
8
SK1
62
256
6
ByLayer
370
18
48
1
60
0
100
AcDbLine
10
-43.556624
20
-6
30
0
11
0
21
-6
31
0
39
0
210
0
220
0
230
1
0
LINE
5
83
100
AcDbEntity
8
SK1
62
256
6
ByLayer
370
18
48
1
60
0
100
AcDbLine
10
-43.556624
20
6
30
0
11
-45
21
3.5
31
0
39
0
210
0
220
0
230
1
0
LINE
5
84
100
AcDbEntity
8
SK1
62
256
6
ByLayer
370
18
48
1
60
0
100
AcDbLine
10
-45
20
-3.5
30
0
11
-43.556624
21
-6
31
0
39
0
210
0
220
0
230
1
0
LINE
5
85
100
AcDbEntity
8
SK4
62
256
6
ByLayer
370
18
48
0.05
60
0
100
AcDbLine
10
62
20
0
30
0
11
-50
21
0
31
0
39
0
210
0
220
0
230
1
0
LINE
5
87
100
AcDbEntity
8
4
62
256
6
ByLayer
370
18
48
0.05
60
0
100
AcDbLine
10
57
20
0
30
0
11
0
21
0
31
0
39
0
210
0
220
0
230
1
0
LINE
5
89
100
AcDbEntity
8
80
62
256
6
ByLayer
370
18
48
1
60
0
100
AcDbLine
10
0
20
0
30
0
11
-5
21
0
31
0
39
0
210
0
220
0
230
1
0
LINE
5
8A
100
AcDbEntity
8
1
62
256
6
ByLayer
370
18
48
1
60
0
100
AcDbLine
10
0
20
-6
30
0
11
0
21
6
31
0
39
0
210
0
220
0
230
1
0
LINE
5
8B
100
AcDbEntity
8
1
62
256
6
ByLayer
370
18
48
1
60
0
100
AcDbLine
10
4
20
1.205282
30
0
11
4
21
5.217561
31
0
39
0
210
0
220
0
230
1
0
LINE
5
8C
100
AcDbEntity
8
1
62
256
6
ByLayer
370
13
48
1
60
0
100
AcDbLine
10
1.376095
20
-5.216311
30
0
11
1.376095
21
5.216311
31
0
39
0
210
0
220
0
230
1
0
LINE
5
8D
100
AcDbEntity
8
1
62
256
6
ByLayer
370
18
48
1
60
0
100
AcDbLine
10
2
20
-3.58555
30
0
11
2
21
-3.585198
31
0
39
0
210
0
220
0
230
1
0
LINE
5
8E
100
AcDbEntity
8
1
62
256
6
ByLayer
370
13
48
1
60
0
100
AcDbLine
10
55.239436
20
1.224134
30
0
11
56.996085
21
0.112133
31
0
39
0
210
0
220
0
230
1
0
LINE
5
8F
100
AcDbEntity
8
1
62
256
6
ByLayer
370
18
48
1
60
0
100
AcDbLine
10
2
20
-5.216311
30
0
11
2
21
-3.58555
31
0
39
0
210
0
220
0
230
1
0
LINE
5
90
100
AcDbEntity
8
1
62
256
6
ByLayer
370
13
48
1
60
0
100
AcDbLine
10
0.688047
20
5.608155
30
0
11
0.688047
21
-5.608155
31
0
39
0
210
0
220
0
230
1
0
LINE
5
91
100
AcDbEntity
8
1
62
256
6
ByLayer
370
18
48
1
60
0
100
AcDbLine
10
2
20
-3.585198
30
0
11
2
21
5.216311
31
0
39
0
210
0
220
0
230
1
0
LINE
5
92
100
AcDbEntity
8
1
62
256
6
ByLayer
370
13
48
1
60
0
100
AcDbLine
10
55.099571
20
1.120139
30
0
11
56.96762
21
-0.06238
31
0
39
0
210
0
220
0
230
1
0
LINE
5
93
100
AcDbEntity
8
SK1
62
256
6
ByLayer
370
18
48
1
60
0
100
AcDbLine
10
0
20
-6
30
0
11
0
21
6
31
0
39
0
210
0
220
0
230
1
0
LINE
5
94
100
AcDbEntity
8
SK1
62
256
6
ByLayer
370
18
48
1
60
0
100
AcDbLine
10
-43.6
20
-5.024609
30
0
11
-43.6
21
-3.450404
31
0
39
0
210
0
220
0
230
1
0
LINE
5
95
100
AcDbEntity
8
SK1
62
256
6
ByLayer
370
18
48
1
60
0
100
AcDbLine
10
-43.556624
20
6
30
0
11
-43.556624
21
-6
31
0
39
0
210
0
220
0
230
1
0
LINE
5
96
100
AcDbEntity
8
SK1
62
256
6
ByLayer
370
13
48
1
60
0
100
AcDbLine
10
-43.7
20
-3.237504
30
0
11
-43.7
21
-4.948696
31
0
39
0
210
0
220
0
230
1
0
LINE
5
97
100
AcDbEntity
8
SK1
62
256
6
ByLayer
370
18
48
1
60
0
100
AcDbLine
10
-45
20
-1.517359
30
0
11
-45
21
-3.239009
31
0
39
0
210
0
220
0
230
1
0
LINE
5
98
100
AcDbEntity
8
SK1
62
256
6
ByLayer
370
18
48
1
60
0
100
AcDbLine
10
-45
20
-3.5
30
0
11
-45
21
-3.239009
31
0
39
0
210
0
220
0
230
1
0
LINE
5
99
100
AcDbEntity
8
SK1
62
256
6
ByLayer
370
18
48
1
60
0
100
AcDbLine
10
-45
20
3.5
30
0
11
-45
21
-1.517425
31
0
39
0
210
0
220
0
230
1
0
MTEXT
5
E0
100
AcDbEntity
8
SK6
62
256
6
ByLayer
370
13
48
1
60
0
100
AcDbMText
10
8.129169
20
37.632694
30
0
210
0
220
0
230
1
1
\W0.7207;861.1-1050-032A1-GP GC34
40
3.5
41
0
44
1.084337
50
0
71
8
72
5
7
iso_b_vert
0
DIMENSION
5
ED
100
AcDbEntity
8
SK2
62
256
6
ByLayer
370
13
48
1
60
0
100
AcDbDimension
2
DimnDraft3D1
10
55.7337
20
-15.463398
30
0
11
26.483759
21
-15.463398
31
0
70
32
71
5
72
1
41
1
210
0
220
0
230
1
3
Standard
100
AcDbAlignedDimension
13
0
23
-1.5875
33
0
14
55.7337
24
-6.8375
34
0
50
0
100
AcDbRotatedDimension
1001
ACAD
1000
DSTYLE
1002
{
1070
   279
1070
     0
1070
   172
1070
     1
1070
   173
1070
     1
1070
   340
1005
E1
1070
   271
1070
     2
1070
   272
1070
     2
1070
    77
1070
     1
1070
    73
1070
     0
1070
   171
1070
     3
1070
   274
1070
     4
1070
   177
1070
    35
1070
   176
1070
    35
1070
   178
1070
    35
1070
    48
1040
-0.005
1070
    41
1041
3.5
1070
   147
1041
1.75
1070
    42
1041
1.5875
1070
    44
1041
2.0
1070
   140
1041
3.5
1070
   343
1005
0
1070
   344
1005
0
1002
}
0
DIMENSION
5
F7
100
AcDbEntity
8
SK2
62
256
6
ByLayer
370
13
48
1
60
0
100
AcDbDimension
2
DimnDraft3D2
10
57
20
-34.692985
30
0
11
6.075
21
-34.692985
31
0
70
32
71
5
72
1
41
1
210
0
220
0
230
1
3
Standard
100
AcDbAlignedDimension
13
-45
23
-7.5875
33
0
14
57
24
-1.5875
34
0
50
0
100
AcDbRotatedDimension
1001
ACAD
1000
DSTYLE
1002
{
1070
   279
1070
     0
1070
   172
1070
     1
1070
   173
1070
     1
1070
   340
1005
E1
1070
   271
1070
     2
1070
   272
1070
     2
1070
    77
1070
     1
1070
    73
1070
     0
1070
   171
1070
     3
1070
   274
1070
     4
1070
   177
1070
    35
1070
   176
1070
    35
1070
   178
1070
    35
1070
    48
1040
-0.005
1070
    41
1041
3.5
1070
   147
1041
1.75
1070
    42
1041
1.5875
1070
    44
1041
2.0
1070
   140
1041
3.5
1070
   343
1005
0
1070
   344
1005
0
1002
}
0
DIMENSION
5
101
100
AcDbEntity
8
SK2
62
256
6
ByLayer
370
13
48
1
60
0
100
AcDbDimension
2
DimnDraft3D3
10
57
20
16.859119
30
0
11
40.87
21
16.859119
31
0
70
32
71
5
72
1
41
1
210
0
220
0
230
1
3
Standard
100
AcDbAlignedDimension
13
24.74
23
6.8375
33
0
14
57
24
1.5875
34
0
50
0
100
AcDbRotatedDimension
1001
ACAD
1000
DSTYLE
1002
{
1070
   279
1070
     0
1070
   172
1070
     1
1070
   173
1070
     1
1070
   340
1005
E1
1070
   271
1070
     2
1070
   272
1070
     2
1070
    77
1070
     1
1070
    73
1070
     0
1070
   171
1070
     3
1070
   274
1070
     4
1070
   177
1070
    35
1070
   176
1070
    35
1070
   178
1070
    35
1070
    48
1040
-0.005
1070
    41
1041
3.5
1070
   147
1041
1.75
1070
    42
1041
1.5875
1070
    44
1041
2.0
1070
   140
1041
3.5
1070
   343
1005
0
1070
   344
1005
0
1002
}
0
DIMENSION
5
10B
100
AcDbEntity
8
SK2
62
256
6
ByLayer
370
13
48
1
60
0
100
AcDbDimension
2
DimnDraft3D4
10
55.7337
20
-18.052503
30
0
11
66.981425
21
-18.052503
31
0
70
32
71
5
72
1
41
1
210
0
220
0
230
1
3
Standard
100
AcDbAlignedDimension
13
57
23
-1.5875
33
0
14
55.7337
24
-6.8375
34
0
50
0
100
AcDbRotatedDimension
1001
ACAD
1000
DSTYLE
1002
{
1070
   279
1070
     0
1070
   172
1070
     1
1070
   173
1070
     1
1070
   340
1005
E1
1070
   271
1070
     2
1070
   272
1070
     2
1070
    77
1070
     1
1070
    73
1070
     0
1070
   171
1070
     3
1070
   274
1070
     4
1070
   177
1070
    35
1070
   176
1070
    35
1070
   178
1070
    35
1070
    48
1040
-0.005
1070
    41
1041
3.5
1070
   147
1041
1.75
1070
    42
1041
1.5875
1070
    44
1041
2.0
1070
   140
1041
3.5
1070
   343
1005
0
1070
   344
1005
0
1002
}
0
DIMENSION
5
115
100
AcDbEntity
8
SK2
62
256
6
ByLayer
370
13
48
1
60
0
100
AcDbDimension
2
DimnDraft3D5
10
55.7337
20
-24.343428
30
0
11
2.994376
21
-24.343428
31
0
70
32
71
5
72
1
41
1
210
0
220
0
230
1
3
Standard
100
AcDbAlignedDimension
13
-45
23
-7.5875
33
0
14
55.7337
24
-6.8375
34
0
50
0
100
AcDbRotatedDimension
1001
ACAD
1000
DSTYLE
1002
{
1070
   279
1070
     0
1070
   172
1070
     1
1070
   173
1070
     1
1070
   340
1005
E1
1070
   271
1070
     2
1070
   272
1070
     2
1070
    77
1070
     1
1070
    73
1070
     0
1070
   171
1070
     3
1070
   274
1070
     4
1070
   177
1070
    35
1070
   176
1070
    35
1070
   178
1070
    35
1070
    48
1040
-0.005
1070
    41
1041
3.5
1070
   147
1041
1.75
1070
    42
1041
1.5875
1070
    44
1041
2.0
1070
   140
1041
3.5
1070
   343
1005
0
1070
   344
1005
0
1002
}
0
DIMENSION
5
120
100
AcDbEntity
8
SK2
62
256
6
ByLayer
370
13
48
1
60
0
100
AcDbDimension
2
DimnDraft3D6
10
-55.625163
20
6
30
0
11
-56.250163
21
24.47418
31
0
70
33
71
5
72
1
41
1
210
0
220
0
230
1
3
Standard
100
AcDbAlignedDimension
13
-46.5875
23
-6
33
0
14
-46.5875
24
6
34
0
1001
ACAD
1000
DSTYLE
1002
{
1070
   279
1070
     0
1070
    74
1070
     0
1070
   173
1070
     1
1070
   340
1005
E1
1070
   271
1070
     3
1070
   272
1070
     2
1070
    77
1070
     1
1070
    73
1070
     0
1070
   171
1070
     3
1070
   274
1070
     4
1070
   177
1070
    35
1070
   176
1070
    35
1070
   178
1070
    35
1070
    48
1040
-0.005
1070
    41
1041
3.5
1070
   147
1041
1.75
1070
    42
1041
1.5875
1070
    44
1041
2.0
1070
   140
1041
3.5
1070
   343
1005
0
1070
   344
1005
0
1002
}
0
DIMENSION
5
12B
100
AcDbEntity
8
2
62
256
6
ByLayer
370
13
48
1
60
0
100
AcDbDimension
2
DimnDraft3D7
10
71.083343
20
5.25
30
0
11
66.458343
21
22.317266
31
0
70
33
71
5
72
1
41
1
210
0
220
0
230
1
3
Standard
100
AcDbAlignedDimension
13
57.3212
23
-5.25
33
0
14
57.3212
24
5.25
34
0
1001
ACAD
1000
DSTYLE
1002
{
1070
   279
1070
     0
1070
    74
1070
     0
1070
   173
1070
     1
1070
   340
1005
E1
1070
   271
1070
     3
1070
   272
1070
     2
1070
    77
1070
     1
1070
    73
1070
     0
1070
   171
1070
     3
1070
   274
1070
     4
1070
   177
1070
    35
1070
   176
1070
    35
1070
   178
1070
    35
1070
    48
1040
-0.005
1070
    41
1041
3.5
1070
   147
1041
1.75
1070
    42
1041
1.5875
1070
    44
1041
2.0
1070
   140
1041
3.5
1070
   343
1005
0
1070
   344
1005
0
1002
}
0
ENDSEC
0
SECTION
2
OBJECTS
0
DICTIONARY
5
196
330
0
100
AcDbDictionary
280
0
281
1
3
ACAD_GROUP
350
197
3
ACAD_MLINESTYLE
350
198
0
DICTIONARY
5
197
330
0
100
AcDbDictionary
280
0
281
1
0
DICTIONARY
5
198
330
0
100
AcDbDictionary
280
0
281
1
3
Standard
350
18
0
MLINESTYLE
5
18
330
198
100
AcDbMlineStyle
2
Standard
70
0
3

62
256
51
90
52
90
71
2
49
-0.5
62
256
6
ByLayer
49
0.5
62
256
6
ByLayer
0
RASTERVARIABLES
5
184
330

100
AcDbRasterVariables
90
0
70
1
71
1
72
1
0
ENDSEC
0
EOF
