  0
SECTION
  2
HEADER
  9
$ACADVER
  1
AC1015
  9
$ACADMAINTVER
 70
    20
  9
$DWGCODEPAGE
  3
ANSI_1252
  9
$INSBASE
 10
0.0
 20
0.0
 30
0.0
  9
$EXTMIN
 10
-56.02026476087445
 20
-37.04135026008504
 30
-0.0000000349181948
  9
$EXTMAX
 10
193.8878978126176
 20
28.00379796800752
 30
0.0000000814935747
  9
$LIMMIN
 10
0.0
 20
0.0
  9
$LIMMAX
 10
12.0
 20
9.0
  9
$ORTHOMODE
 70
     0
  9
$REGENMODE
 70
     1
  9
$FILLMODE
 70
     1
  9
$QTEXTMODE
 70
     0
  9
$MIRRTEXT
 70
     1
  9
$LTSCALE
 40
1.0
  9
$ATTMODE
 70
     1
  9
$TEXTSIZE
 40
3.0
  9
$TRACEWID
 40
10.0
  9
$TEXTSTYLE
  7
SANDVIK_STYLE
  9
$CLAYER
  8
SK2
  9
$CELTYPE
  6
ByLayer
  9
$CECOLOR
 62
   256
  9
$CELTSCALE
 40
1.0
  9
$DISPSILH
 70
     0
  9
$DIMSCALE
 40
0.0
  9
$DIMASZ
 40
4.57
  9
$DIMEXO
 40
0.0
  9
$DIMDLI
 40
0.38
  9
$DIMRND
 40
0.0
  9
$DIMDLE
 40
0.0
  9
$DIMEXE
 40
5.0
  9
$DIMTP
 40
0.0
  9
$DIMTM
 40
0.0
  9
$DIMTXT
 40
4.5
  9
$DIMCEN
 40
0.09
  9
$DIMTSZ
 40
0.0
  9
$DIMTOL
 70
     0
  9
$DIMLIM
 70
     0
  9
$DIMTIH
 70
     0
  9
$DIMTOH
 70
     0
  9
$DIMSE1
 70
     0
  9
$DIMSE2
 70
     0
  9
$DIMTAD
 70
     1
  9
$DIMZIN
 70
     8
  9
$DIMBLK
  1

  9
$DIMASO
 70
     1
  9
$DIMSHO
 70
     1
  9
$DIMPOST
  1
 
  9
$DIMAPOST
  1
 
  9
$DIMALT
 70
     0
  9
$DIMALTD
 70
     2
  9
$DIMALTF
 40
25.4
  9
$DIMLFAC
 40
1.0
  9
$DIMTOFL
 70
     0
  9
$DIMTVP
 40
0.0
  9
$DIMTIX
 70
     0
  9
$DIMSOXD
 70
     0
  9
$DIMSAH
 70
     0
  9
$DIMBLK1
  1

  9
$DIMBLK2
  1

  9
$DIMSTYLE
  2
SANDVIK_DIM
  9
$DIMCLRD
 70
   256
  9
$DIMCLRE
 70
   256
  9
$DIMCLRT
 70
   256
  9
$DIMTFAC
 40
1.0
  9
$DIMGAP
 40
2.299999999999998
  9
$DIMJUST
 70
     0
  9
$DIMSD1
 70
     0
  9
$DIMSD2
 70
     0
  9
$DIMTOLJ
 70
     1
  9
$DIMTZIN
 70
     0
  9
$DIMALTZ
 70
     0
  9
$DIMALTTZ
 70
     0
  9
$DIMUPT
 70
     0
  9
$DIMDEC
 70
     2
  9
$DIMTDEC
 70
     2
  9
$DIMALTU
 70
     2
  9
$DIMALTTD
 70
     2
  9
$DIMTXSTY
  7
SANDVIK_STYLE
  9
$DIMAUNIT
 70
     0
  9
$DIMADEC
 70
     0
  9
$DIMALTRND
 40
0.0
  9
$DIMAZIN
 70
     0
  9
$DIMDSEP
 70
    46
  9
$DIMATFIT
 70
     3
  9
$DIMFRAC
 70
     0
  9
$DIMLDRBLK
  1

  9
$DIMLUNIT
 70
     2
  9
$DIMLWD
 70
    -2
  9
$DIMLWE
 70
    -2
  9
$DIMTMOVE
 70
     2
  9
$LUNITS
 70
     2
  9
$LUPREC
 70
     2
  9
$SKETCHINC
 40
0.0
  9
$FILLETRAD
 40
0.0
  9
$AUNITS
 70
     0
  9
$AUPREC
 70
     2
  9
$MENU
  1
acad
  9
$ELEVATION
 40
0.0
  9
$PELEVATION
 40
0.0
  9
$THICKNESS
 40
0.0
  9
$LIMCHECK
 70
     0
  9
$CHAMFERA
 40
0.0
  9
$CHAMFERB
 40
0.0
  9
$CHAMFERC
 40
0.0
  9
$CHAMFERD
 40
0.0
  9
$SKPOLY
 70
     0
  9
$TDCREATE
 40
2455817.646292060
  9
$TDUCREATE
 40
2455817.562958727
  9
$TDUPDATE
 40
2456818.537012222
  9
$TDUUPDATE
 40
2456818.453678889
  9
$TDINDWG
 40
0.0910614468
  9
$TDUSRTIMER
 40
0.0910614468
  9
$USRTIMER
 70
     1
  9
$ANGBASE
 50
0.0
  9
$ANGDIR
 70
     0
  9
$PDMODE
 70
     0
  9
$PDSIZE
 40
0.0
  9
$PLINEWID
 40
0.0
  9
$SPLFRAME
 70
     0
  9
$SPLINETYPE
 70
     6
  9
$SPLINESEGS
 70
     8
  9
$HANDSEED
  5
319F
  9
$SURFTAB1
 70
     6
  9
$SURFTAB2
 70
     6
  9
$SURFTYPE
 70
     6
  9
$SURFU
 70
     6
  9
$SURFV
 70
     6
  9
$UCSBASE
  2

  9
$UCSNAME
  2

  9
$UCSORG
 10
0.0
 20
0.0
 30
0.0
  9
$UCSXDIR
 10
1.0
 20
0.0
 30
0.0
  9
$UCSYDIR
 10
0.0
 20
1.0
 30
0.0
  9
$UCSORTHOREF
  2

  9
$UCSORTHOVIEW
 70
     0
  9
$UCSORGTOP
 10
0.0
 20
0.0
 30
0.0
  9
$UCSORGBOTTOM
 10
0.0
 20
0.0
 30
0.0
  9
$UCSORGLEFT
 10
0.0
 20
0.0
 30
0.0
  9
$UCSORGRIGHT
 10
0.0
 20
0.0
 30
0.0
  9
$UCSORGFRONT
 10
0.0
 20
0.0
 30
0.0
  9
$UCSORGBACK
 10
0.0
 20
0.0
 30
0.0
  9
$PUCSBASE
  2

  9
$PUCSNAME
  2

  9
$PUCSORG
 10
0.0
 20
0.0
 30
0.0
  9
$PUCSXDIR
 10
1.0
 20
0.0
 30
0.0
  9
$PUCSYDIR
 10
0.0
 20
1.0
 30
0.0
  9
$PUCSORTHOREF
  2

  9
$PUCSORTHOVIEW
 70
     0
  9
$PUCSORGTOP
 10
0.0
 20
0.0
 30
0.0
  9
$PUCSORGBOTTOM
 10
0.0
 20
0.0
 30
0.0
  9
$PUCSORGLEFT
 10
0.0
 20
0.0
 30
0.0
  9
$PUCSORGRIGHT
 10
0.0
 20
0.0
 30
0.0
  9
$PUCSORGFRONT
 10
0.0
 20
0.0
 30
0.0
  9
$PUCSORGBACK
 10
0.0
 20
0.0
 30
0.0
  9
$USERI1
 70
     0
  9
$USERI2
 70
     0
  9
$USERI3
 70
     0
  9
$USERI4
 70
     0
  9
$USERI5
 70
     0
  9
$USERR1
 40
0.0
  9
$USERR2
 40
0.0
  9
$USERR3
 40
0.0
  9
$USERR4
 40
0.0
  9
$USERR5
 40
0.0
  9
$WORLDVIEW
 70
     1
  9
$SHADEDGE
 70
     3
  9
$SHADEDIF
 70
    70
  9
$TILEMODE
 70
     1
  9
$MAXACTVP
 70
    16
  9
$PINSBASE
 10
0.0
 20
0.0
 30
0.0
  9
$PLIMCHECK
 70
     0
  9
$PEXTMIN
 10
1.000000000000000E+20
 20
1.000000000000000E+20
 30
1.000000000000000E+20
  9
$PEXTMAX
 10
-1.000000000000000E+20
 20
-1.000000000000000E+20
 30
-1.000000000000000E+20
  9
$PLIMMIN
 10
0.0
 20
0.0
  9
$PLIMMAX
 10
12.0
 20
9.0
  9
$UNITMODE
 70
     0
  9
$VISRETAIN
 70
     0
  9
$PLINEGEN
 70
     0
  9
$PSLTSCALE
 70
     1
  9
$TREEDEPTH
 70
  3020
  9
$CMLSTYLE
  2
Standard
  9
$CMLJUST
 70
     0
  9
$CMLSCALE
 40
1.0
  9
$PROXYGRAPHICS
 70
     1
  9
$MEASUREMENT
 70
     0
  9
$CELWEIGHT
370
    -1
  9
$ENDCAPS
280
     0
  9
$JOINSTYLE
280
     0
  9
$LWDISPLAY
290
     0
  9
$INSUNITS
 70
     0
  9
$HYPERLINKBASE
  1

  9
$STYLESHEET
  1

  9
$XEDIT
290
     1
  9
$CEPSNTYPE
380
     0
  9
$PSTYLEMODE
290
     1
  9
$FINGERPRINTGUID
  2
{BC6BEBD7-5C89-4B2E-99DC-E3119A1637E9}
  9
$VERSIONGUID
  2
{9E5F6EAD-D6B0-45DA-AD08-B38CDF16964A}
  9
$EXTNAMES
290
     1
  9
$PSVPSCALE
 40
0.0
  9
$OLESTARTUP
290
     0
  0
ENDSEC
  0
SECTION
  2
CLASSES
  0
CLASS
  1
ACDBDICTIONARYWDFLT
  2
AcDbDictionaryWithDefault
  3
ObjectDBX Classes
 90
        0
280
     0
281
     0
  0
CLASS
  1
MATERIAL
  2
AcDbMaterial
  3
ObjectDBX Classes
 90
     1153
280
     0
281
     0
  0
CLASS
  1
VISUALSTYLE
  2
AcDbVisualStyle
  3
ObjectDBX Classes
 90
     4095
280
     0
281
     0
  0
CLASS
  1
TABLESTYLE
  2
AcDbTableStyle
  3
ObjectDBX Classes
 90
     4095
280
     0
281
     0
  0
CLASS
  1
SCALE
  2
AcDbScale
  3
ObjectDBX Classes
 90
     1153
280
     0
281
     0
  0
CLASS
  1
MLEADERSTYLE
  2
AcDbMLeaderStyle
  3
ACDB_MLEADERSTYLE_CLASS
 90
     4095
280
     0
281
     0
  0
CLASS
  1
ACDBSECTIONVIEWSTYLE
  2
AcDbSectionViewStyle
  3
ObjectDBX Classes
 90
     1025
280
     0
281
     0
  0
CLASS
  1
ACDBDETAILVIEWSTYLE
  2
AcDbDetailViewStyle
  3
ObjectDBX Classes
 90
     1025
280
     0
281
     0
  0
CLASS
  1
EXACXREFPANELOBJECT
  2
ExAcXREFPanelObject
  3
EXAC_ESW
 90
     1025
280
     0
281
     0
  0
CLASS
  1
NPOCOLLECTION
  2
AcDbImpNonPersistentObjectsCollection
  3
ObjectDBX Classes
 90
     1153
280
     0
281
     0
  0
CLASS
  1
DICTIONARYVAR
  2
AcDbDictionaryVar
  3
ObjectDBX Classes
 90
        0
280
     0
281
     0
  0
CLASS
  1
CELLSTYLEMAP
  2
AcDbCellStyleMap
  3
ObjectDBX Classes
 90
     1152
280
     0
281
     0
  0
CLASS
  1
ACDBPLACEHOLDER
  2
AcDbPlaceHolder
  3
ObjectDBX Classes
 90
        0
280
     0
281
     0
  0
CLASS
  1
LAYOUT
  2
AcDbLayout
  3
ObjectDBX Classes
 90
        0
280
     0
281
     0
  0
ENDSEC
  0
SECTION
  2
TABLES
  0
TABLE
  2
VPORT
  5
BDF
330
0
100
AcDbSymbolTable
 70
     1
  0
VPORT
  5
30B1
330
BDF
100
AcDbSymbolTableRecord
100
AcDbViewportTableRecord
  2
*Active
 70
     0
 10
0.0
 20
0.0
 11
1.0
 21
1.0
 12
68.9338165258716
 22
-4.51877614603876
 13
0.0
 23
0.0
 14
1.0
 24
1.0
 15
0.0
 25
0.0
 16
0.0
 26
0.0
 36
1.0
 17
0.0
 27
0.0
 37
0.0
 40
126.6279974551429
 41
2.2
 42
50.0
 43
0.0
 44
0.0
 50
0.0
 51
0.0
 71
     0
 72
   100
 73
     1
 74
     1
 75
     0
 76
     0
 77
     0
 78
     0
281
     0
 65
     1
110
0.0
120
0.0
130
0.0
111
1.0
121
0.0
131
0.0
112
0.0
122
1.0
132
0.0
 79
     0
146
0.0
1001
ACAD_NAV_VCDISPLAY
1070
     3
  0
ENDTAB
  0
TABLE
  2
LTYPE
  5
BDC
330
0
100
AcDbSymbolTable
 70
     4
  0
LTYPE
  5
BEA
330
BDC
100
AcDbSymbolTableRecord
100
AcDbLinetypeTableRecord
  2
ByBlock
 70
     0
  3

 72
    65
 73
     0
 40
0.0
  0
LTYPE
  5
BEB
330
BDC
100
AcDbSymbolTableRecord
100
AcDbLinetypeTableRecord
  2
ByLayer
 70
     0
  3

 72
    65
 73
     0
 40
0.0
  0
LTYPE
  5
BEC
330
BDC
100
AcDbSymbolTableRecord
100
AcDbLinetypeTableRecord
  2
CONTINUOUS
 70
     0
  3
Solid line
 72
    65
 73
     0
 40
0.0
  0
LTYPE
  5
BFE
330
BDC
100
AcDbSymbolTableRecord
100
AcDbLinetypeTableRecord
  2
CENTER
 70
     0
  3
____ _ ____ _ ____ _ ____ _ ____ _ ____ _ ____
 72
    65
 73
     4
 40
5.059897
 49
3.162434999999998
 74
     0
 49
-0.6324870000000003
 74
     0
 49
0.6324870000000003
 74
     0
 49
-0.6324870000000003
 74
     0
  0
LTYPE
  5
BFF
330
BDC
100
AcDbSymbolTableRecord
100
AcDbLinetypeTableRecord
  2
DASHED
 70
     0
  3
__ __ __ __ __ __ __ __ __ __ __ __ __ __ __ __
 72
    65
 73
     2
 40
7.589844999999997
 49
5.059897
 74
     0
 49
-2.529948
 74
     0
  0
LTYPE
  5
30FD
330
BDC
100
AcDbSymbolTableRecord
100
AcDbLinetypeTableRecord
  2
PHANTOM2
 70
     0
  3
Phantom (.5x) ___ _ _ ___ _ _ ___ _ _ ___ _ _
 72
    65
 73
     6
 40
1.25
 49
0.625
 74
     0
 49
-0.125
 74
     0
 49
0.125
 74
     0
 49
-0.125
 74
     0
 49
0.125
 74
     0
 49
-0.125
 74
     0
  0
ENDTAB
  0
TABLE
  2
LAYER
  5
BD9
330
0
100
AcDbSymbolTable
 70
    40
  0
LAYER
  5
BE7
102
{ACAD_XDICTIONARY
360
3105
102
}
330
BD9
100
AcDbSymbolTableRecord
100
AcDbLayerTableRecord
  2
0
 70
     0
 62
     7
  6
CONTINUOUS
370
    -3
390
BE6
  0
LAYER
  5
BFB
102
{ACAD_XDICTIONARY
360
3107
102
}
330
BD9
100
AcDbSymbolTableRecord
100
AcDbLayerTableRecord
  2
3
 70
     0
 62
     1
  6
DASHED
370
    -3
390
BE6
  0
LAYER
  5
C00
102
{ACAD_XDICTIONARY
360
3109
102
}
330
BD9
100
AcDbSymbolTableRecord
100
AcDbLayerTableRecord
  2
1
 70
     0
 62
     4
  6
CONTINUOUS
370
    -3
390
BE6
  0
LAYER
  5
C01
102
{ACAD_XDICTIONARY
360
310B
102
}
330
BD9
100
AcDbSymbolTableRecord
100
AcDbLayerTableRecord
  2
61
 70
     0
 62
     5
  6
CONTINUOUS
370
    -3
390
BE6
  0
LAYER
  5
C02
102
{ACAD_XDICTIONARY
360
310D
102
}
330
BD9
100
AcDbSymbolTableRecord
100
AcDbLayerTableRecord
  2
62
 70
     0
 62
    -5
  6
CONTINUOUS
370
    -3
390
BE6
  0
LAYER
  5
C03
102
{ACAD_XDICTIONARY
360
310F
102
}
330
BD9
100
AcDbSymbolTableRecord
100
AcDbLayerTableRecord
  2
63
 70
     0
 62
    -5
  6
CONTINUOUS
370
    -3
390
BE6
  0
LAYER
  5
C04
102
{ACAD_XDICTIONARY
360
3111
102
}
330
BD9
100
AcDbSymbolTableRecord
100
AcDbLayerTableRecord
  2
64
 70
     0
 62
    -5
  6
CONTINUOUS
370
    -3
390
BE6
  0
LAYER
  5
C05
102
{ACAD_XDICTIONARY
360
3113
102
}
330
BD9
100
AcDbSymbolTableRecord
100
AcDbLayerTableRecord
  2
65
 70
     0
 62
    -5
  6
CONTINUOUS
370
    -3
390
BE6
  0
LAYER
  5
C06
102
{ACAD_XDICTIONARY
360
3115
102
}
330
BD9
100
AcDbSymbolTableRecord
100
AcDbLayerTableRecord
  2
66
 70
     0
 62
    -5
  6
CONTINUOUS
370
    -3
390
BE6
  0
LAYER
  5
C07
102
{ACAD_XDICTIONARY
360
3117
102
}
330
BD9
100
AcDbSymbolTableRecord
100
AcDbLayerTableRecord
  2
67
 70
     0
 62
    -5
  6
CONTINUOUS
370
    -3
390
BE6
  0
LAYER
  5
C08
102
{ACAD_XDICTIONARY
360
3119
102
}
330
BD9
100
AcDbSymbolTableRecord
100
AcDbLayerTableRecord
  2
68
 70
     0
 62
    -5
  6
CONTINUOUS
370
    -3
390
BE6
  0
LAYER
  5
C09
102
{ACAD_XDICTIONARY
360
311B
102
}
330
BD9
100
AcDbSymbolTableRecord
100
AcDbLayerTableRecord
  2
69
 70
     0
 62
    -5
  6
CONTINUOUS
370
    -3
390
BE6
  0
LAYER
  5
C0A
102
{ACAD_XDICTIONARY
360
311D
102
}
330
BD9
100
AcDbSymbolTableRecord
100
AcDbLayerTableRecord
  2
70
 70
     0
 62
     5
  6
CONTINUOUS
370
    -3
390
BE6
  0
LAYER
  5
C0B
102
{ACAD_XDICTIONARY
360
311F
102
}
330
BD9
100
AcDbSymbolTableRecord
100
AcDbLayerTableRecord
  2
2
 70
     0
 62
     7
  6
CONTINUOUS
370
    -3
390
BE6
  0
LAYER
  5
C0C
102
{ACAD_XDICTIONARY
360
3121
102
}
330
BD9
100
AcDbSymbolTableRecord
100
AcDbLayerTableRecord
  2
4
 70
     0
 62
    -2
  6
CENTER
370
    -3
390
BE6
  0
LAYER
  5
C0D
102
{ACAD_XDICTIONARY
360
3123
102
}
330
BD9
100
AcDbSymbolTableRecord
100
AcDbLayerTableRecord
  2
5
 70
     0
 62
    -7
  6
CONTINUOUS
370
    -3
390
BE6
  0
LAYER
  5
C0E
102
{ACAD_XDICTIONARY
360
3125
102
}
330
BD9
100
AcDbSymbolTableRecord
100
AcDbLayerTableRecord
  2
SK1
 70
     0
 62
     4
  6
CONTINUOUS
370
    -3
390
BE6
  0
LAYER
  5
C0F
102
{ACAD_XDICTIONARY
360
3127
102
}
330
BD9
100
AcDbSymbolTableRecord
100
AcDbLayerTableRecord
  2
6
 70
     0
 62
     5
  6
CONTINUOUS
370
    -3
390
BE6
  0
LAYER
  5
C10
102
{ACAD_XDICTIONARY
360
3129
102
}
330
BD9
100
AcDbSymbolTableRecord
100
AcDbLayerTableRecord
  2
SK2
 70
     0
 62
     7
  6
CONTINUOUS
370
    -3
390
BE6
  0
LAYER
  5
C11
102
{ACAD_XDICTIONARY
360
312B
102
}
330
BD9
100
AcDbSymbolTableRecord
100
AcDbLayerTableRecord
  2
SK3
 70
     0
 62
     1
  6
DASHED
370
    -3
390
BE6
  0
LAYER
  5
C12
102
{ACAD_XDICTIONARY
360
312D
102
}
330
BD9
100
AcDbSymbolTableRecord
100
AcDbLayerTableRecord
  2
SK4
 70
     0
 62
     2
  6
CENTER
370
    -3
390
BE6
  0
LAYER
  5
C13
102
{ACAD_XDICTIONARY
360
312F
102
}
330
BD9
100
AcDbSymbolTableRecord
100
AcDbLayerTableRecord
  2
CUT
 70
     0
 62
     1
  6
CONTINUOUS
370
    -3
390
BE6
  0
LAYER
  5
C14
102
{ACAD_XDICTIONARY
360
3131
102
}
330
BD9
100
AcDbSymbolTableRecord
100
AcDbLayerTableRecord
  2
SK6
 70
     0
 62
     5
  6
CONTINUOUS
370
    -3
390
BE6
  0
LAYER
  5
C15
102
{ACAD_XDICTIONARY
360
3133
102
}
330
BD9
100
AcDbSymbolTableRecord
100
AcDbLayerTableRecord
  2
80
 70
     0
 62
    -2
  6
CENTER
370
    -3
390
BE6
  0
LAYER
  5
C16
102
{ACAD_XDICTIONARY
360
3135
102
}
330
BD9
100
AcDbSymbolTableRecord
100
AcDbLayerTableRecord
  2
81
 70
     0
 62
    -2
  6
CENTER
370
    -3
390
BE6
  0
LAYER
  5
C17
102
{ACAD_XDICTIONARY
360
3137
102
}
330
BD9
100
AcDbSymbolTableRecord
100
AcDbLayerTableRecord
  2
82
 70
     0
 62
    -2
  6
CENTER
370
    -3
390
BE6
  0
LAYER
  5
C18
102
{ACAD_XDICTIONARY
360
3139
102
}
330
BD9
100
AcDbSymbolTableRecord
100
AcDbLayerTableRecord
  2
NOCUT
 70
     0
 62
     7
  6
CONTINUOUS
370
    -3
390
BE6
  0
LAYER
  5
C19
102
{ACAD_XDICTIONARY
360
313B
102
}
330
BD9
100
AcDbSymbolTableRecord
100
AcDbLayerTableRecord
  2
50
 70
     0
 62
    -7
  6
CONTINUOUS
370
    -3
390
BE6
  0
LAYER
  5
C1A
102
{ACAD_XDICTIONARY
360
313D
102
}
330
BD9
100
AcDbSymbolTableRecord
100
AcDbLayerTableRecord
  2
51
 70
     0
 62
     7
  6
CONTINUOUS
370
    -3
390
BE6
  0
LAYER
  5
C1B
102
{ACAD_XDICTIONARY
360
313F
102
}
330
BD9
100
AcDbSymbolTableRecord
100
AcDbLayerTableRecord
  2
52
 70
     0
 62
    -7
  6
CONTINUOUS
370
    -3
390
BE6
  0
LAYER
  5
C1C
102
{ACAD_XDICTIONARY
360
3141
102
}
330
BD9
100
AcDbSymbolTableRecord
100
AcDbLayerTableRecord
  2
53
 70
     0
 62
    -7
  6
CONTINUOUS
370
    -3
390
BE6
  0
LAYER
  5
C1D
102
{ACAD_XDICTIONARY
360
3143
102
}
330
BD9
100
AcDbSymbolTableRecord
100
AcDbLayerTableRecord
  2
54
 70
     0
 62
    -7
  6
CONTINUOUS
370
    -3
390
BE6
  0
LAYER
  5
C1E
102
{ACAD_XDICTIONARY
360
3145
102
}
330
BD9
100
AcDbSymbolTableRecord
100
AcDbLayerTableRecord
  2
55
 70
     0
 62
    -7
  6
CONTINUOUS
370
    -3
390
BE6
  0
LAYER
  5
C1F
102
{ACAD_XDICTIONARY
360
3147
102
}
330
BD9
100
AcDbSymbolTableRecord
100
AcDbLayerTableRecord
  2
56
 70
     0
 62
    -7
  6
CONTINUOUS
370
    -3
390
BE6
  0
LAYER
  5
C20
102
{ACAD_XDICTIONARY
360
3149
102
}
330
BD9
100
AcDbSymbolTableRecord
100
AcDbLayerTableRecord
  2
57
 70
     0
 62
    -7
  6
CONTINUOUS
370
    -3
390
BE6
  0
LAYER
  5
C21
102
{ACAD_XDICTIONARY
360
314B
102
}
330
BD9
100
AcDbSymbolTableRecord
100
AcDbLayerTableRecord
  2
58
 70
     0
 62
    -7
  6
CONTINUOUS
370
    -3
390
BE6
  0
LAYER
  5
C22
102
{ACAD_XDICTIONARY
360
314D
102
}
330
BD9
100
AcDbSymbolTableRecord
100
AcDbLayerTableRecord
  2
2L
 70
     0
 62
     7
  6
CONTINUOUS
370
    -3
390
BE6
  0
LAYER
  5
C23
102
{ACAD_XDICTIONARY
360
314F
102
}
330
BD9
100
AcDbSymbolTableRecord
100
AcDbLayerTableRecord
  2
59
 70
     0
 62
    -7
  6
CONTINUOUS
370
    -3
390
BE6
  0
LAYER
  5
C24
330
BD9
100
AcDbSymbolTableRecord
100
AcDbLayerTableRecord
  2
DEFPOINTS
 70
     0
 62
     7
  6
CONTINUOUS
290
     0
370
    -3
390
BE6
  0
LAYER
  5
C42
102
{ACAD_XDICTIONARY
360
3151
102
}
330
BD9
100
AcDbSymbolTableRecord
100
AcDbLayerTableRecord
  2
TFR-TRI
 70
     0
 62
     7
  6
CONTINUOUS
370
    -3
390
BE6
  0
ENDTAB
  0
TABLE
  2
STYLE
  5
BDA
330
0
100
AcDbSymbolTable
 70
     2
  0
STYLE
  5
BE8
330
BDA
100
AcDbSymbolTableRecord
100
AcDbTextStyleTableRecord
  2
STANDARD
 70
     0
 40
0.0
 41
1.0
 50
0.0
 71
     0
 42
4.5
  3
simplex.shx
  4

  0
STYLE
  5
BFC
330
BDA
100
AcDbSymbolTableRecord
100
AcDbTextStyleTableRecord
  2
SANDVIK_STYLE
 70
     0
 40
3.0
 41
1.0
 50
0.0
 71
     0
 42
3.0
  3
simplex.shx
  4

  0
ENDTAB
  0
TABLE
  2
VIEW
  5
BDD
330
0
100
AcDbSymbolTable
 70
     0
  0
ENDTAB
  0
TABLE
  2
UCS
  5
BDE
330
0
100
AcDbSymbolTable
 70
     0
  0
ENDTAB
  0
TABLE
  2
APPID
  5
BE0
330
0
100
AcDbSymbolTable
 70
     4
  0
APPID
  5
BE9
330
BE0
100
AcDbSymbolTableRecord
100
AcDbRegAppTableRecord
  2
ACAD
 70
     0
  0
APPID
  5
3155
330
BE0
100
AcDbSymbolTableRecord
100
AcDbRegAppTableRecord
  2
DCO15
 70
     0
  0
APPID
  5
3161
330
BE0
100
AcDbSymbolTableRecord
100
AcDbRegAppTableRecord
  2
ACAD_NAV_VCDISPLAY
 70
     0
  0
APPID
  5
319E
330
BE0
100
AcDbSymbolTableRecord
100
AcDbRegAppTableRecord
  2
ACAD_MLEADERVER
 70
     0
  0
ENDTAB
  0
TABLE
  2
DIMSTYLE
  5
BE1
330
0
100
AcDbSymbolTable
 70
     2
100
AcDbDimStyleTable
 71
     1
340
C26
  0
DIMSTYLE
105
C25
330
BE1
100
AcDbSymbolTableRecord
100
AcDbDimStyleTableRecord
  2
STANDARD
 70
     0
  3
 
  4
 
 41
3.0
 42
2.5
 43
10.0
 44
2.5
 46
1.25
 73
     0
 74
     0
140
3.0
141
-3.0
143
0.039
145
1.5
146
0.75
147
1.5
271
     2
272
     2
279
     2
340
BFC
  0
DIMSTYLE
105
C26
102
{ACAD_REACTORS
330
3007
330
3014
330
3022
330
3038
330
3045
330
3052
330
305F
102
}
330
BE1
100
AcDbSymbolTableRecord
100
AcDbDimStyleTableRecord
  2
SANDVIK_DIM
 70
     0
  3
 
  4
 
 40
0.0
 41
4.57
 42
0.0
 44
5.0
 73
     0
 74
     0
 77
     1
 78
     8
140
4.5
147
2.299999999999998
176
   256
177
   256
178
   256
271
     2
272
     2
279
     2
340
BFC
  0
ENDTAB
  0
TABLE
  2
BLOCK_RECORD
  5
BD8
330
0
100
AcDbSymbolTable
 70
     9
  0
BLOCK_RECORD
  5
BF7
330
BD8
100
AcDbSymbolTableRecord
100
AcDbBlockTableRecord
  2
*Model_Space
340
BFA
  0
BLOCK_RECORD
  5
BF3
330
BD8
100
AcDbSymbolTableRecord
100
AcDbBlockTableRecord
  2
*Paper_Space
340
BF6
  0
BLOCK_RECORD
  5
C28
330
BD8
100
AcDbSymbolTableRecord
100
AcDbBlockTableRecord
  2
$MODEL_SPACE
340
0
  0
BLOCK_RECORD
  5
C2A
330
BD8
100
AcDbSymbolTableRecord
100
AcDbBlockTableRecord
  2
$PAPER_SPACE
340
0
  0
BLOCK_RECORD
  5
3008
330
BD8
100
AcDbSymbolTableRecord
100
AcDbBlockTableRecord
  2
*D2
340
0
  0
BLOCK_RECORD
  5
3015
330
BD8
100
AcDbSymbolTableRecord
100
AcDbBlockTableRecord
  2
*D3
340
0
  0
BLOCK_RECORD
  5
3023
330
BD8
100
AcDbSymbolTableRecord
100
AcDbBlockTableRecord
  2
*D4
340
0
  0
BLOCK_RECORD
  5
3039
330
BD8
100
AcDbSymbolTableRecord
100
AcDbBlockTableRecord
  2
*D5
340
0
  0
BLOCK_RECORD
  5
3046
330
BD8
100
AcDbSymbolTableRecord
100
AcDbBlockTableRecord
  2
*D6
340
0
  0
BLOCK_RECORD
  5
3053
330
BD8
100
AcDbSymbolTableRecord
100
AcDbBlockTableRecord
  2
*D7
340
0
  0
BLOCK_RECORD
  5
3060
330
BD8
100
AcDbSymbolTableRecord
100
AcDbBlockTableRecord
  2
*D8
340
0
  0
ENDTAB
  0
ENDSEC
  0
SECTION
  2
BLOCKS
  0
BLOCK
  5
BF8
330
BF7
100
AcDbEntity
  8
0
100
AcDbBlockBegin
  2
*Model_Space
 70
     0
 10
0.0
 20
0.0
 30
0.0
  3
*Model_Space
  1

  0
ENDBLK
  5
BF9
330
BF7
100
AcDbEntity
  8
0
100
AcDbBlockEnd
  0
BLOCK
  5
BF4
330
BF3
100
AcDbEntity
 67
     1
  8
0
100
AcDbBlockBegin
  2
*Paper_Space
 70
     0
 10
0.0
 20
0.0
 30
0.0
  3
*Paper_Space
  1

  0
ENDBLK
  5
BF5
330
BF3
100
AcDbEntity
 67
     1
  8
0
100
AcDbBlockEnd
  0
BLOCK
  5
C29
330
C28
100
AcDbEntity
  8
0
100
AcDbBlockBegin
  2
$MODEL_SPACE
 70
     0
 10
0.0
 20
0.0
 30
0.0
  3
$MODEL_SPACE
  1

  0
ENDBLK
  5
AEF
330
C28
100
AcDbEntity
  8
0
100
AcDbBlockEnd
  0
BLOCK
  5
C2B
330
C2A
100
AcDbEntity
  8
0
100
AcDbBlockBegin
  2
$PAPER_SPACE
 70
     0
 10
0.0
 20
0.0
 30
0.0
  3
$PAPER_SPACE
  1

  0
ENDBLK
  5
AEB
330
C2A
100
AcDbEntity
  8
0
100
AcDbBlockEnd
  0
BLOCK
  5
3012
330
3008
100
AcDbEntity
  8
0
100
AcDbBlockBegin
  2
*D2
 70
     1
 10
0.0
 20
0.0
 30
0.0
  3
*D2
  1

  0
LINE
  5
3009
330
3008
100
AcDbEntity
  8
SK2
370
    -2
100
AcDbLine
 10
181.59839
 20
5.099998999999995
 30
0.0
 11
181.59839
 21
20.76729605855519
 31
0.0
  0
LINE
  5
300A
330
3008
100
AcDbEntity
  8
SK2
370
    -2
100
AcDbLine
 10
59.19838999999999
 20
5.099999000000009
 30
0.0
 11
59.19838999999999
 21
20.76729605855519
 31
0.0
  0
LINE
  5
300B
330
3008
100
AcDbEntity
  8
SK2
370
    -2
100
AcDbLine
 10
177.02839
 20
15.76729605855519
 30
0.0
 11
63.76838999999999
 21
15.76729605855519
 31
0.0
  0
SOLID
  5
300C
330
3008
100
AcDbEntity
  8
SK2
100
AcDbTrace
 10
177.02839
 20
16.52896272522185
 30
0.0
 11
177.02839
 21
15.00562939188852
 31
0.0
 12
181.59839
 22
15.76729605855519
 32
0.0
 13
181.59839
 23
15.76729605855519
 33
0.0
  0
SOLID
  5
300D
330
3008
100
AcDbEntity
  8
SK2
100
AcDbTrace
 10
63.76838999999999
 20
16.52896272522185
 30
0.0
 11
63.76838999999999
 21
15.00562939188852
 31
0.0
 12
59.19838999999999
 22
15.76729605855519
 32
0.0
 13
59.19838999999999
 23
15.76729605855519
 33
0.0
  0
MTEXT
  5
300E
330
3008
100
AcDbEntity
  8
SK2
100
AcDbMText
 10
120.39839
 20
19.56729605855518
 30
0.0
 40
3.0
 41
0.0
 71
     5
 72
     1
  1
\A1;122.4 
  7
SANDVIK_STYLE
 73
     1
 44
1.0
1001
ACAD
1000
MTEXTBEGIN
1070
    73
1070
     1
1070
    44
1040
1.0
1070
    74
1070
     0
1000
MTEXTEND
  0
POINT
  5
300F
330
3008
100
AcDbEntity
  8
DEFPOINTS
 62
     0
100
AcDbPoint
 10
181.59839
 20
5.099998999999995
 30
0.0
  0
POINT
  5
3010
330
3008
100
AcDbEntity
  8
DEFPOINTS
 62
     0
100
AcDbPoint
 10
59.19838999999999
 20
5.099999000000009
 30
0.0
  0
POINT
  5
3011
330
3008
100
AcDbEntity
  8
DEFPOINTS
 62
     0
100
AcDbPoint
 10
59.19838999999999
 20
15.76729605855519
 30
0.0
  0
ENDBLK
  5
3013
330
3008
100
AcDbEntity
  8
0
100
AcDbBlockEnd
  0
BLOCK
  5
3020
330
3015
100
AcDbEntity
  8
0
100
AcDbBlockBegin
  2
*D3
 70
     1
 10
0.0
 20
0.0
 30
0.0
  3
*D3
  1

  0
LINE
  5
30A7
330
3015
100
AcDbEntity
  8
2
370
    -2
100
AcDbLine
 10
181.59839
 20
5.099998999999995
 30
0.0
 11
193.871890921375
 21
5.099998999999993
 31
0.0
  0
LINE
  5
30A8
330
3015
100
AcDbEntity
  8
2
370
    -2
100
AcDbLine
 10
181.59839
 20
-5.099998999999999
 30
0.0
 11
193.871890921375
 21
-5.099999000000003
 31
0.0
  0
LINE
  5
30A9
330
3015
100
AcDbEntity
  8
2
370
    -2
100
AcDbLine
 10
188.871890921375
 20
9.669998999999991
 30
0.0
 11
188.871890921375
 21
14.23999899999999
 31
0.0
  0
LINE
  5
30AA
330
3015
100
AcDbEntity
  8
2
370
    -2
100
AcDbLine
 10
188.871890921375
 20
-9.669999000000004
 30
0.0
 11
188.871890921375
 21
-14.239999
 31
0.0
  0
MTEXT
  5
30AB
330
3015
100
AcDbEntity
  8
2
100
AcDbMText
 10
189.6045216376719
 20
-23.36552807373397
 30
0.0
 40
3.0
 41
0.0
 71
     5
 72
     1
  1
\A1;%%c 10.2 
  7
SANDVIK_STYLE
 11
0.0000000000000001
 21
1.0
 31
0.0
 73
     1
 44
1.0
1001
ACAD
1000
MTEXTBEGIN
1070
    73
1070
     1
1070
    44
1040
1.0
1070
    74
1070
     0
1000
MTEXTEND
  0
SOLID
  5
30AC
330
3015
100
AcDbEntity
  8
2
100
AcDbTrace
 10
188.1102242547083
 20
9.669998999999991
 30
0.0
 11
189.6335575880416
 21
9.669998999999991
 31
0.0
 12
188.871890921375
 22
5.099998999999994
 32
0.0
 13
188.871890921375
 23
5.099998999999994
 33
0.0
  0
SOLID
  5
30AD
330
3015
100
AcDbEntity
  8
2
100
AcDbTrace
 10
188.1102242547083
 20
-9.669999000000004
 30
0.0
 11
189.6335575880416
 21
-9.669999000000004
 31
0.0
 12
188.871890921375
 22
-5.099999000000003
 32
0.0
 13
188.871890921375
 23
-5.099999000000003
 33
0.0
  0
POINT
  5
30AE
330
3015
100
AcDbEntity
  8
DEFPOINTS
 62
     0
100
AcDbPoint
 10
181.59839
 20
5.099998999999995
 30
0.0
  0
POINT
  5
30AF
330
3015
100
AcDbEntity
  8
DEFPOINTS
 62
     0
100
AcDbPoint
 10
181.59839
 20
-5.099998999999999
 30
0.0
  0
POINT
  5
30B0
330
3015
100
AcDbEntity
  8
DEFPOINTS
 62
     0
100
AcDbPoint
 10
188.871890921375
 20
-5.099999000000003
 30
0.0
  0
ENDBLK
  5
3021
330
3015
100
AcDbEntity
  8
0
100
AcDbBlockEnd
  0
BLOCK
  5
302D
330
3023
100
AcDbEntity
  8
0
100
AcDbBlockBegin
  2
*D4
 70
     1
 10
0.0
 20
0.0
 30
0.0
  3
*D4
  1

  0
LINE
  5
3080
330
3023
100
AcDbEntity
  8
2
370
    -2
100
AcDbLine
 10
182.9999519999999
 20
-0.0000005000000023
 30
0.0
 11
182.9999519999999
 21
-18.30838162858021
 31
0.0
  0
LINE
  5
3081
330
3023
100
AcDbEntity
  8
2
370
    -2
100
AcDbLine
 10
7.000071999999991
 20
2.934736
 30
0.0
 11
7.000071999999991
 21
-18.30838162858021
 31
0.0
  0
LINE
  5
3082
330
3023
100
AcDbEntity
  8
2
370
    -2
100
AcDbLine
 10
178.4299519999999
 20
-13.30838162858021
 30
0.0
 11
11.57007199999999
 21
-13.30838162858021
 31
0.0
  0
SOLID
  5
3083
330
3023
100
AcDbEntity
  8
2
100
AcDbTrace
 10
178.4299519999999
 20
-12.54671496191354
 30
0.0
 11
178.4299519999999
 21
-14.07004829524687
 31
0.0
 12
182.9999519999999
 22
-13.30838162858021
 32
0.0
 13
182.9999519999999
 23
-13.30838162858021
 33
0.0
  0
SOLID
  5
3084
330
3023
100
AcDbEntity
  8
2
100
AcDbTrace
 10
11.57007199999999
 20
-12.54671496191354
 30
0.0
 11
11.57007199999999
 21
-14.07004829524687
 31
0.0
 12
7.000071999999991
 22
-13.30838162858021
 32
0.0
 13
7.000071999999991
 23
-13.30838162858021
 33
0.0
  0
MTEXT
  5
3085
330
3023
100
AcDbEntity
  8
2
100
AcDbMText
 10
95.00001199999998
 20
-9.508381628580206
 30
0.0
 40
3.0
 41
0.0
 71
     5
 72
     1
  1
\A1;176 
  7
SANDVIK_STYLE
 73
     1
 44
1.0
1001
ACAD
1000
MTEXTBEGIN
1070
    73
1070
     1
1070
    44
1040
1.0
1070
    74
1070
     0
1000
MTEXTEND
  0
POINT
  5
3086
330
3023
100
AcDbEntity
  8
DEFPOINTS
 62
     0
100
AcDbPoint
 10
182.9999519999999
 20
-0.0000005000000023
 30
0.0
  0
POINT
  5
3087
330
3023
100
AcDbEntity
  8
DEFPOINTS
 62
     0
100
AcDbPoint
 10
7.000071999999991
 20
2.934736
 30
0.0
  0
POINT
  5
3088
330
3023
100
AcDbEntity
  8
DEFPOINTS
 62
     0
100
AcDbPoint
 10
7.000071999999991
 20
-13.30838162858021
 30
0.0
  0
ENDBLK
  5
302E
330
3023
100
AcDbEntity
  8
0
100
AcDbBlockEnd
  0
BLOCK
  5
3043
330
3039
100
AcDbEntity
  8
0
100
AcDbBlockBegin
  2
*D5
 70
     1
 10
0.0
 20
0.0
 30
0.0
  3
*D5
  1

  0
LINE
  5
3077
330
3039
100
AcDbEntity
  8
2
370
    -2
100
AcDbLine
 10
182.9999519999999
 20
-0.0000005000000023
 30
0.0
 11
182.9999519999999
 21
-26.49487495104319
 31
0.0
  0
LINE
  5
3078
330
3039
100
AcDbEntity
  8
2
370
    -2
100
AcDbLine
 10
0.0
 20
-6.000001000000001
 30
0.0
 11
-0.0000000000000013
 21
-26.49487495104319
 31
0.0
  0
LINE
  5
3079
330
3039
100
AcDbEntity
  8
2
370
    -2
100
AcDbLine
 10
178.4299519999999
 20
-21.49487495104319
 30
0.0
 11
4.569999999999998
 21
-21.49487495104319
 31
0.0
  0
SOLID
  5
307A
330
3039
100
AcDbEntity
  8
2
100
AcDbTrace
 10
178.4299519999999
 20
-20.73320828437652
 30
0.0
 11
178.4299519999999
 21
-22.25654161770985
 31
0.0
 12
182.9999519999999
 22
-21.49487495104319
 32
0.0
 13
182.9999519999999
 23
-21.49487495104319
 33
0.0
  0
SOLID
  5
307B
330
3039
100
AcDbEntity
  8
2
100
AcDbTrace
 10
4.569999999999998
 20
-20.73320828437652
 30
0.0
 11
4.569999999999998
 21
-22.25654161770985
 31
0.0
 12
-0.0000000000000009
 22
-21.49487495104319
 32
0.0
 13
-0.0000000000000009
 23
-21.49487495104319
 33
0.0
  0
MTEXT
  5
307C
330
3039
100
AcDbEntity
  8
2
100
AcDbMText
 10
91.49997599999997
 20
-17.69487495104319
 30
0.0
 40
3.0
 41
0.0
 71
     5
 72
     1
  1
\A1;183 
  7
SANDVIK_STYLE
 73
     1
 44
1.0
1001
ACAD
1000
MTEXTBEGIN
1070
    73
1070
     1
1070
    44
1040
1.0
1070
    74
1070
     0
1000
MTEXTEND
  0
POINT
  5
307D
330
3039
100
AcDbEntity
  8
DEFPOINTS
 62
     0
100
AcDbPoint
 10
182.9999519999999
 20
-0.0000005000000023
 30
0.0
  0
POINT
  5
307E
330
3039
100
AcDbEntity
  8
DEFPOINTS
 62
     0
100
AcDbPoint
 10
0.0
 20
-6.000001000000001
 30
0.0
  0
POINT
  5
307F
330
3039
100
AcDbEntity
  8
DEFPOINTS
 62
     0
100
AcDbPoint
 10
-0.0000000000000009
 20
-21.49487495104319
 30
0.0
  0
ENDBLK
  5
3044
330
3039
100
AcDbEntity
  8
0
100
AcDbBlockEnd
  0
BLOCK
  5
3050
330
3046
100
AcDbEntity
  8
0
100
AcDbBlockBegin
  2
*D6
 70
     1
 10
0.0
 20
0.0
 30
0.0
  3
*D6
  1

  0
LINE
  5
3047
330
3046
100
AcDbEntity
  8
SK2
370
    -2
100
AcDbLine
 10
-45.00000299999999
 20
-5.249999000000001
 30
0.0
 11
-45.00000299999999
 21
-26.49487495104319
 31
0.0
  0
LINE
  5
3048
330
3046
100
AcDbEntity
  8
SK2
370
    -2
100
AcDbLine
 10
0.0
 20
-6.000001000000001
 30
0.0
 11
-0.0000000000000013
 21
-26.49487495104319
 31
0.0
  0
LINE
  5
3049
330
3046
100
AcDbEntity
  8
SK2
370
    -2
100
AcDbLine
 10
-40.430003
 20
-21.49487495104319
 30
0.0
 11
-4.570000000000001
 21
-21.49487495104319
 31
0.0
  0
SOLID
  5
304A
330
3046
100
AcDbEntity
  8
SK2
100
AcDbTrace
 10
-40.430003
 20
-20.73320828437652
 30
0.0
 11
-40.430003
 21
-22.25654161770985
 31
0.0
 12
-45.00000299999999
 22
-21.49487495104319
 32
0.0
 13
-45.00000299999999
 23
-21.49487495104319
 33
0.0
  0
SOLID
  5
304B
330
3046
100
AcDbEntity
  8
SK2
100
AcDbTrace
 10
-4.570000000000001
 20
-20.73320828437652
 30
0.0
 11
-4.570000000000001
 21
-22.25654161770985
 31
0.0
 12
-0.0000000000000009
 22
-21.49487495104319
 32
0.0
 13
-0.0000000000000009
 23
-21.49487495104319
 33
0.0
  0
MTEXT
  5
304C
330
3046
100
AcDbEntity
  8
SK2
100
AcDbMText
 10
-22.5000015
 20
-17.69487495104319
 30
0.0
 40
3.0
 41
0.0
 71
     5
 72
     1
  1
\A1;45 
  7
SANDVIK_STYLE
 73
     1
 44
1.0
1001
ACAD
1000
MTEXTBEGIN
1070
    73
1070
     1
1070
    44
1040
1.0
1070
    74
1070
     0
1000
MTEXTEND
  0
POINT
  5
304D
330
3046
100
AcDbEntity
  8
DEFPOINTS
 62
     0
100
AcDbPoint
 10
-45.00000299999999
 20
-5.249999000000001
 30
0.0
  0
POINT
  5
304E
330
3046
100
AcDbEntity
  8
DEFPOINTS
 62
     0
100
AcDbPoint
 10
0.0
 20
-6.000001000000001
 30
0.0
  0
POINT
  5
304F
330
3046
100
AcDbEntity
  8
DEFPOINTS
 62
     0
100
AcDbPoint
 10
-0.0000000000000009
 20
-21.49487495104319
 30
0.0
  0
ENDBLK
  5
3051
330
3046
100
AcDbEntity
  8
0
100
AcDbBlockEnd
  0
BLOCK
  5
305D
330
3053
100
AcDbEntity
  8
0
100
AcDbBlockBegin
  2
*D7
 70
     1
 10
0.0
 20
0.0
 30
0.0
  3
*D7
  1

  0
LINE
  5
3054
330
3053
100
AcDbEntity
  8
SK2
370
    -2
100
AcDbLine
 10
-45.00000299999999
 20
-5.249999000000001
 30
0.0
 11
-45.00000299999999
 21
-37.04122113040109
 31
0.0
  0
LINE
  5
3055
330
3053
100
AcDbEntity
  8
SK2
370
    -2
100
AcDbLine
 10
182.9999519999999
 20
-0.0000005000000023
 30
0.0
 11
182.9999519999999
 21
-37.04122113040109
 31
0.0
  0
LINE
  5
3056
330
3053
100
AcDbEntity
  8
SK2
370
    -2
100
AcDbLine
 10
-40.430003
 20
-32.04122113040109
 30
0.0
 11
178.4299519999999
 21
-32.04122113040109
 31
0.0
  0
SOLID
  5
3057
330
3053
100
AcDbEntity
  8
SK2
100
AcDbTrace
 10
-40.430003
 20
-31.27955446373442
 30
0.0
 11
-40.430003
 21
-32.80288779706776
 31
0.0
 12
-45.00000299999999
 22
-32.04122113040109
 32
0.0
 13
-45.00000299999999
 23
-32.04122113040109
 33
0.0
  0
SOLID
  5
3058
330
3053
100
AcDbEntity
  8
SK2
100
AcDbTrace
 10
178.4299519999999
 20
-31.27955446373442
 30
0.0
 11
178.4299519999999
 21
-32.80288779706776
 31
0.0
 12
182.9999519999999
 22
-32.04122113040109
 32
0.0
 13
182.9999519999999
 23
-32.04122113040109
 33
0.0
  0
MTEXT
  5
3059
330
3053
100
AcDbEntity
  8
SK2
100
AcDbMText
 10
68.99997449999998
 20
-28.24122113040109
 30
0.0
 40
3.0
 41
0.0
 71
     5
 72
     1
  1
\A1;228 
  7
SANDVIK_STYLE
 73
     1
 44
1.0
1001
ACAD
1000
MTEXTBEGIN
1070
    73
1070
     1
1070
    44
1040
1.0
1070
    74
1070
     0
1000
MTEXTEND
  0
POINT
  5
305A
330
3053
100
AcDbEntity
  8
DEFPOINTS
 62
     0
100
AcDbPoint
 10
-45.00000299999999
 20
-5.249999000000001
 30
0.0
  0
POINT
  5
305B
330
3053
100
AcDbEntity
  8
DEFPOINTS
 62
     0
100
AcDbPoint
 10
182.9999519999999
 20
-0.0000005000000023
 30
0.0
  0
POINT
  5
305C
330
3053
100
AcDbEntity
  8
DEFPOINTS
 62
     0
100
AcDbPoint
 10
182.9999519999999
 20
-32.04122113040109
 30
0.0
  0
ENDBLK
  5
305E
330
3053
100
AcDbEntity
  8
0
100
AcDbBlockEnd
  0
BLOCK
  5
306B
330
3060
100
AcDbEntity
  8
0
100
AcDbBlockBegin
  2
*D8
 70
     1
 10
0.0
 20
0.0
 30
0.0
  3
*D8
  1

  0
LINE
  5
309D
330
3060
100
AcDbEntity
  8
SK2
370
    -2
100
AcDbLine
 10
-43.700963
 20
6.000000999999997
 30
0.0
 11
-56.01552838528346
 21
6.000001000000001
 31
0.0
  0
LINE
  5
309E
330
3060
100
AcDbEntity
  8
SK2
370
    -2
100
AcDbLine
 10
-43.700963
 20
-6.000001000000001
 30
0.0
 11
-56.01552838528346
 21
-6.000000999999997
 31
0.0
  0
LINE
  5
309F
330
3060
100
AcDbEntity
  8
SK2
370
    -2
100
AcDbLine
 10
-51.01552838528346
 20
10.570001
 30
0.0
 11
-51.01552838528346
 21
15.140001
 31
0.0
  0
LINE
  5
30A0
330
3060
100
AcDbEntity
  8
SK2
370
    -2
100
AcDbLine
 10
-51.01552838528346
 20
-10.570001
 30
0.0
 11
-51.01552838528346
 21
-15.140001
 31
0.0
  0
MTEXT
  5
30A1
330
3060
100
AcDbEntity
  8
SK2
100
AcDbMText
 10
-51.2723238873059
 20
-21.59802887079803
 30
0.0
 40
3.0
 41
0.0
 71
     5
 72
     1
  1
\A1;%%c 12 
  7
SANDVIK_STYLE
 11
0.0000000000000001
 21
1.0
 31
0.0
 73
     1
 44
1.0
1001
ACAD
1000
MTEXTBEGIN
1070
    73
1070
     1
1070
    44
1040
1.0
1070
    74
1070
     0
1000
MTEXTEND
  0
SOLID
  5
30A2
330
3060
100
AcDbEntity
  8
SK2
100
AcDbTrace
 10
-51.77719505195013
 20
10.570001
 30
0.0
 11
-50.25386171861679
 21
10.570001
 31
0.0
 12
-51.01552838528346
 22
6.000001
 32
0.0
 13
-51.01552838528346
 23
6.000001
 33
0.0
  0
SOLID
  5
30A3
330
3060
100
AcDbEntity
  8
SK2
100
AcDbTrace
 10
-51.77719505195013
 20
-10.570001
 30
0.0
 11
-50.25386171861679
 21
-10.570001
 31
0.0
 12
-51.01552838528346
 22
-6.000000999999997
 32
0.0
 13
-51.01552838528346
 23
-6.000000999999997
 33
0.0
  0
POINT
  5
30A4
330
3060
100
AcDbEntity
  8
DEFPOINTS
 62
     0
100
AcDbPoint
 10
-43.700963
 20
6.000000999999997
 30
0.0
  0
POINT
  5
30A5
330
3060
100
AcDbEntity
  8
DEFPOINTS
 62
     0
100
AcDbPoint
 10
-43.700963
 20
-6.000001000000001
 30
0.0
  0
POINT
  5
30A6
330
3060
100
AcDbEntity
  8
DEFPOINTS
 62
     0
100
AcDbPoint
 10
-51.01552838528346
 20
-6.000000999999997
 30
0.0
  0
ENDBLK
  5
306C
330
3060
100
AcDbEntity
  8
0
100
AcDbBlockEnd
  0
ENDSEC
  0
SECTION
  2
ENTITIES
  0
TEXT
  5
62
330
BF7
100
AcDbEntity
  8
SK6
100
AcDbText
 10
-18.5
 20
25.0
 30
0.0
 40
3.0
  1
861.1-1020-122A1-GM
 41
0.7705220054495913
  7
SANDVIK_STYLE
 72
     5
 11
21.897368
 21
25.0
 31
0.0
100
AcDbText
  0
LINE
  5
2CE7
330
BF7
100
AcDbEntity
  8
1
100
AcDbLine
 10
0.4999990000000027
 20
-5.100001009371893
 30
0.0
 11
0.4999990000000027
 21
5.099998999999995
 31
0.0
  0
LINE
  5
2CE8
330
BF7
100
AcDbEntity
  8
SK1
100
AcDbLine
 10
0.0
 20
6.000000999999997
 30
0.0
 11
0.0
 21
-6.000001000000001
 31
0.0
  0
ARC
  5
2CE9
330
BF7
100
AcDbEntity
  8
1
100
AcDbCircle
 10
0.4999990000000027
 20
5.599997999999998
 30
0.0
 40
0.4999999906281083
100
AcDbArc
 50
180.0
 51
270.0
  0
ARC
  5
2CEA
330
BF7
100
AcDbEntity
  8
1
100
AcDbCircle
 10
0.4999990000000027
 20
-5.600001000000002
 30
0.0
 40
0.4999999906281083
100
AcDbArc
 50
90.0
 51
180.0
  0
LINE
  5
2CEB
330
BF7
100
AcDbEntity
  8
1
100
AcDbLine
 10
10.721698
 20
-4.522043
 30
0.0
 11
10.721698
 21
-4.780675000000002
 31
0.0
  0
LINE
  5
2CEC
330
BF7
100
AcDbEntity
  8
1
100
AcDbLine
 10
21.64785999999998
 20
-4.780675000000002
 30
0.0
 11
10.721698
 21
-4.780675000000002
 31
0.0
  0
LINE
  5
2CED
330
BF7
100
AcDbEntity
  8
1
100
AcDbLine
 10
13.23834499999999
 20
-4.813376999999999
 30
0.0
 11
10.721698
 21
-4.780675000000002
 31
0.0
  0
LINE
  5
2CEE
330
BF7
100
AcDbEntity
  8
1
100
AcDbLine
 10
13.36499599999999
 20
-4.796501000000001
 30
0.0
 11
13.23834499999999
 21
-4.813376999999999
 31
0.0
  0
LINE
  5
2CEF
330
BF7
100
AcDbEntity
  8
1
100
AcDbLine
 10
50.98809899999999
 20
2.050075999999996
 30
0.0
 11
48.13069099999999
 21
3.293264999999998
 31
0.0
  0
LINE
  5
2CF0
330
BF7
100
AcDbEntity
  8
1
100
AcDbLine
 10
53.50474499999999
 20
0.769442999999999
 30
0.0
 11
50.98809899999999
 21
2.050075999999996
 31
0.0
  0
LINE
  5
2CF1
330
BF7
100
AcDbEntity
  8
1
100
AcDbLine
 10
56.02139099999998
 20
-0.5700250000000047
 30
0.0
 11
53.50474499999999
 21
0.769442999999999
 31
0.0
  0
LINE
  5
2CF2
330
BF7
100
AcDbEntity
  8
1
100
AcDbLine
 10
58.53805000000001
 20
-1.865904000000004
 30
0.0
 11
56.02139099999998
 21
-0.5700250000000047
 31
0.0
  0
LINE
  5
2CF3
330
BF7
100
AcDbEntity
  8
1
100
AcDbLine
 10
61.05469599999999
 20
-3.019115999999999
 30
0.0
 11
58.53805000000001
 21
-1.865904000000004
 31
0.0
  0
LINE
  5
2CF4
330
BF7
100
AcDbEntity
  8
1
100
AcDbLine
 10
63.571342
 20
-3.941473000000002
 30
0.0
 11
61.05469599999999
 21
-3.019115999999999
 31
0.0
  0
LINE
  5
2CF5
330
BF7
100
AcDbEntity
  8
1
100
AcDbLine
 10
66.088001
 20
-4.562423000000001
 30
0.0
 11
63.571342
 21
-3.941473000000002
 31
0.0
  0
LINE
  5
2CF6
330
BF7
100
AcDbEntity
  8
1
100
AcDbLine
 10
68.60464699999998
 20
-4.834500000000002
 30
0.0
 11
66.088001
 21
-4.562423000000001
 31
0.0
  0
LINE
  5
2CF7
330
BF7
100
AcDbEntity
  8
1
100
AcDbLine
 10
69.20509499999998
 20
-4.811213000000002
 30
0.0
 11
68.60464699999998
 21
-4.834500000000002
 31
0.0
  0
LINE
  5
2CF8
330
BF7
100
AcDbEntity
  8
1
100
AcDbLine
 10
108.871048
 20
1.613779999999997
 30
0.0
 11
104.995037
 21
3.329890999999995
 31
0.0
  0
LINE
  5
2CF9
330
BF7
100
AcDbEntity
  8
1
100
AcDbLine
 10
111.387694
 20
0.300967
 30
0.0
 11
108.871048
 21
1.613779999999997
 31
0.0
  0
LINE
  5
2CFA
330
BF7
100
AcDbEntity
  8
1
100
AcDbLine
 10
113.90434
 20
-1.034874000000002
 30
0.0
 11
111.387694
 21
0.300967
 31
0.0
  0
LINE
  5
2CFB
330
BF7
100
AcDbEntity
  8
1
100
AcDbLine
 10
116.420998
 20
-2.291580000000002
 30
0.0
 11
113.90434
 21
-1.034874000000002
 31
0.0
  0
LINE
  5
2CFC
330
BF7
100
AcDbEntity
  8
1
100
AcDbLine
 10
118.937657
 20
-3.373055000000004
 30
0.0
 11
116.420998
 21
-2.291580000000002
 31
0.0
  0
LINE
  5
2CFD
330
BF7
100
AcDbEntity
  8
1
100
AcDbLine
 10
121.454291
 20
-4.196595999999998
 30
0.0
 11
118.937657
 21
-3.373055000000004
 31
0.0
  0
LINE
  5
2CFE
330
BF7
100
AcDbEntity
  8
1
100
AcDbLine
 10
123.970949
 20
-4.699253000000001
 30
0.0
 11
121.454291
 21
-4.196595999999998
 31
0.0
  0
LINE
  5
2CFF
330
BF7
100
AcDbEntity
  8
1
100
AcDbLine
 10
126.237478
 20
-4.828344000000001
 30
0.0
 11
123.970949
 21
-4.699253000000001
 31
0.0
  0
LINE
  5
2D00
330
BF7
100
AcDbEntity
  8
1
100
AcDbLine
 10
166.753996
 20
1.162220999999998
 30
0.0
 11
162.1874629999999
 21
3.269129999999995
 31
0.0
  0
LINE
  5
2D01
330
BF7
100
AcDbEntity
  8
1
100
AcDbLine
 10
169.270655
 20
-0.1703620000000043
 30
0.0
 11
166.753996
 21
1.162220999999998
 31
0.0
  0
LINE
  5
2D02
330
BF7
100
AcDbEntity
  8
1
100
AcDbLine
 10
171.787289
 20
-1.489927
 30
0.0
 11
169.270655
 21
-0.1703620000000043
 31
0.0
  0
LINE
  5
2D03
330
BF7
100
AcDbEntity
  8
1
100
AcDbLine
 10
174.303947
 20
-2.695552999999999
 30
0.0
 11
171.787289
 21
-1.489927
 31
0.0
  0
LINE
  5
2D04
330
BF7
100
AcDbEntity
  8
1
100
AcDbLine
 10
176.6789229999999
 20
-3.645661000000004
 30
0.0
 11
174.303947
 21
-2.695552999999999
 31
0.0
  0
LINE
  5
2D05
330
BF7
100
AcDbEntity
  8
1
100
AcDbLine
 10
179.053899
 20
-4.347350000000001
 30
0.0
 11
176.6789229999999
 21
-3.645661000000004
 31
0.0
  0
LINE
  5
2D06
330
BF7
100
AcDbEntity
  8
1
100
AcDbLine
 10
181.4288749999999
 20
-4.752787000000001
 30
0.0
 11
179.053899
 21
-4.347350000000001
 31
0.0
  0
LINE
  5
2D07
330
BF7
100
AcDbEntity
  8
1
100
AcDbLine
 10
10.469207
 20
-4.848201000000003
 30
0.0
 11
10.285836
 21
-5.032291
 31
0.0
  0
LINE
  5
2D08
330
BF7
100
AcDbEntity
  8
1
100
AcDbLine
 10
10.721698
 20
-4.780675000000002
 30
0.0
 11
10.469207
 21
-4.848201000000003
 31
0.0
  0
LINE
  5
2D09
330
BF7
100
AcDbEntity
  8
1
100
AcDbLine
 10
23.304942
 20
1.647035999999999
 30
0.0
 11
19.23574999999999
 21
3.429312999999993
 31
0.0
  0
LINE
  5
2D0A
330
BF7
100
AcDbEntity
  8
1
100
AcDbLine
 10
25.8216
 20
0.3361909999999995
 30
0.0
 11
23.304942
 21
1.647035999999999
 31
0.0
  0
LINE
  5
2D0B
330
BF7
100
AcDbEntity
  8
1
100
AcDbLine
 10
28.338246
 20
-1.000359000000002
 30
0.0
 11
25.8216
 21
0.3361909999999995
 31
0.0
  0
LINE
  5
2D0C
330
BF7
100
AcDbEntity
  8
1
100
AcDbLine
 10
30.85489299999999
 20
-2.260411000000003
 30
0.0
 11
28.338246
 21
-1.000359000000002
 31
0.0
  0
LINE
  5
2D0D
330
BF7
100
AcDbEntity
  8
1
100
AcDbLine
 10
33.371551
 20
-3.347611000000004
 30
0.0
 11
30.85489299999999
 21
-2.260411000000003
 31
0.0
  0
LINE
  5
2D0E
330
BF7
100
AcDbEntity
  8
1
100
AcDbLine
 10
35.88819699999999
 20
-4.178859000000001
 30
0.0
 11
33.371551
 21
-3.347611000000004
 31
0.0
  0
LINE
  5
2D0F
330
BF7
100
AcDbEntity
  8
1
100
AcDbLine
 10
38.40484399999997
 20
-4.690560000000001
 30
0.0
 11
35.88819699999999
 21
-4.178859000000001
 31
0.0
  0
LINE
  5
2D10
330
BF7
100
AcDbEntity
  8
1
100
AcDbLine
 10
40.73157899999999
 20
-4.832023999999999
 30
0.0
 11
38.40484399999997
 21
-4.690560000000001
 31
0.0
  0
LINE
  5
2D11
330
BF7
100
AcDbEntity
  8
1
100
AcDbLine
 10
81.18788999999997
 20
1.196463999999995
 30
0.0
 11
76.67089399999998
 21
3.274076999999998
 31
0.0
  0
LINE
  5
2D12
330
BF7
100
AcDbEntity
  8
1
100
AcDbLine
 10
83.704549
 20
-0.135074000000003
 30
0.0
 11
81.18788999999997
 21
1.196463999999995
 31
0.0
  0
LINE
  5
2D13
330
BF7
100
AcDbEntity
  8
1
100
AcDbLine
 10
86.22119500000001
 20
-1.456287000000003
 30
0.0
 11
83.704549
 21
-0.135074000000003
 31
0.0
  0
LINE
  5
2D14
330
BF7
100
AcDbEntity
  8
1
100
AcDbLine
 10
88.73784099999998
 20
-2.666145
 30
0.0
 11
86.22119500000001
 21
-1.456287000000003
 31
0.0
  0
LINE
  5
2D15
330
BF7
100
AcDbEntity
  8
1
100
AcDbLine
 10
91.25449999999998
 20
-3.672137000000001
 30
0.0
 11
88.73784099999998
 21
-2.666145
 31
0.0
  0
LINE
  5
2D16
330
BF7
100
AcDbEntity
  8
1
100
AcDbLine
 10
93.771146
 20
-4.397323000000002
 30
0.0
 11
91.25449999999998
 21
-3.672137000000001
 31
0.0
  0
LINE
  5
2D17
330
BF7
100
AcDbEntity
  8
1
100
AcDbLine
 10
96.28779199999998
 20
-4.786279000000003
 30
0.0
 11
93.771146
 21
-4.397323000000002
 31
0.0
  0
LINE
  5
2D18
330
BF7
100
AcDbEntity
  8
1
100
AcDbLine
 10
97.723957
 20
-4.799373000000001
 30
0.0
 11
96.28779199999998
 21
-4.786279000000003
 31
0.0
  0
LINE
  5
2D19
330
BF7
100
AcDbEntity
  8
1
100
AcDbLine
 10
136.554193
 20
2.018036999999999
 30
0.0
 11
133.647272
 21
3.284987
 31
0.0
  0
LINE
  5
2D1A
330
BF7
100
AcDbEntity
  8
1
100
AcDbLine
 10
139.070851
 20
0.7345669999999985
 30
0.0
 11
136.554193
 21
2.018036999999999
 31
0.0
  0
LINE
  5
2D1B
330
BF7
100
AcDbEntity
  8
1
100
AcDbLine
 10
141.5874849999999
 20
-0.6050639999999988
 30
0.0
 11
139.070851
 21
0.7345669999999985
 31
0.0
  0
LINE
  5
2D1C
330
BF7
100
AcDbEntity
  8
1
100
AcDbLine
 10
144.104144
 20
-1.898448
 30
0.0
 11
141.5874849999999
 21
-0.6050639999999988
 31
0.0
  0
LINE
  5
2D1D
330
BF7
100
AcDbEntity
  8
1
100
AcDbLine
 10
146.6208019999999
 20
-3.046658
 30
0.0
 11
144.104144
 21
-1.898448
 31
0.0
  0
LINE
  5
2D1E
330
BF7
100
AcDbEntity
  8
1
100
AcDbLine
 10
149.137436
 20
-3.961882000000001
 30
0.0
 11
146.6208019999999
 21
-3.046658
 31
0.0
  0
LINE
  5
2D1F
330
BF7
100
AcDbEntity
  8
1
100
AcDbLine
 10
151.654094
 20
-4.574161000000002
 30
0.0
 11
149.137436
 21
-3.961882000000001
 31
0.0
  0
LINE
  5
2D20
330
BF7
100
AcDbEntity
  8
1
100
AcDbLine
 10
154.170753
 20
-4.836692000000001
 30
0.0
 11
151.654094
 21
-4.574161000000002
 31
0.0
  0
LINE
  5
2D21
330
BF7
100
AcDbEntity
  8
1
100
AcDbLine
 10
154.702988
 20
-4.813995999999998
 30
0.0
 11
154.170753
 21
-4.836692000000001
 31
0.0
  0
LINE
  5
2D22
330
BF7
100
AcDbEntity
  8
SK1
100
AcDbLine
 10
-44.293599
 20
-5.327830000000001
 30
0.0
 11
-43.700963
 21
-5.624642000000001
 31
0.0
  0
LINE
  5
2D23
330
BF7
100
AcDbEntity
  8
SK1
100
AcDbLine
 10
-45.00000299999999
 20
-4.972915
 30
0.0
 11
-44.293599
 21
-5.327830000000001
 31
0.0
  0
LINE
  5
2D24
330
BF7
100
AcDbEntity
  8
1
100
AcDbLine
 10
182.970472
 20
0.1509579999999957
 30
0.0
 11
180.894097
 21
2.087249999999996
 31
0.0
  0
LINE
  5
2D25
330
BF7
100
AcDbEntity
  8
1
100
AcDbLine
 10
15.79022399999999
 20
-0.442925000000006
 30
0.0
 11
19.63105
 21
-2.959772
 31
0.0
  0
LINE
  5
2D26
330
BF7
100
AcDbEntity
  8
1
100
AcDbLine
 10
11.951965
 20
2.064018999999993
 30
0.0
 11
15.79022399999999
 21
-0.442925000000006
 31
0.0
  0
LINE
  5
2D27
330
BF7
100
AcDbEntity
  8
1
100
AcDbLine
 10
8.130679999999998
 20
4.551663999999995
 30
0.0
 11
11.951965
 21
2.064018999999993
 31
0.0
  0
LINE
  5
2D28
330
BF7
100
AcDbEntity
  8
1
100
AcDbLine
 10
162.698381
 20
-0.8903420000000037
 30
0.0
 11
170.0350219999999
 21
-1.484650000000004
 31
0.0
  0
LINE
  5
2D29
330
BF7
100
AcDbEntity
  8
1
100
AcDbLine
 10
158.2104769999999
 20
-0.2013400000000018
 30
0.0
 11
162.698381
 21
-0.8903420000000037
 31
0.0
  0
LINE
  5
2D2A
330
BF7
100
AcDbEntity
  8
1
100
AcDbLine
 10
153.722258
 20
0.5359089999999968
 30
0.0
 11
158.2104769999999
 21
-0.2013400000000018
 31
0.0
  0
LINE
  5
2D2B
330
BF7
100
AcDbEntity
  8
1
100
AcDbLine
 10
149.482061
 20
1.111070999999999
 30
0.0
 11
153.722258
 21
0.5359089999999968
 31
0.0
  0
LINE
  5
2D2C
330
BF7
100
AcDbEntity
  8
1
100
AcDbLine
 10
108.435827
 20
-1.214753000000001
 30
0.0
 11
113.026269
 21
-1.480108
 31
0.0
  0
LINE
  5
2D2D
330
BF7
100
AcDbEntity
  8
1
100
AcDbLine
 10
103.948649
 20
-0.6388410000000029
 30
0.0
 11
108.435827
 21
-1.214753000000001
 31
0.0
  0
LINE
  5
2D2E
330
BF7
100
AcDbEntity
  8
1
100
AcDbLine
 10
99.46057600000001
 20
0.0903689999999955
 30
0.0
 11
103.948649
 21
-0.6388410000000029
 31
0.0
  0
LINE
  5
2D2F
330
BF7
100
AcDbEntity
  8
1
100
AcDbLine
 10
94.972805
 20
0.7977659999999993
 30
0.0
 11
99.46057600000001
 21
0.0903689999999955
 31
0.0
  0
LINE
  5
2D30
330
BF7
100
AcDbEntity
  8
1
100
AcDbLine
 10
92.55876800000001
 20
1.075380999999999
 30
0.0
 11
94.972805
 21
0.7977659999999993
 31
0.0
  0
LINE
  5
2D31
330
BF7
100
AcDbEntity
  8
1
100
AcDbLine
 10
48.59872199999998
 20
-0.8770560000000029
 30
0.0
 11
56.06539299999997
 21
-1.497815000000002
 31
0.0
  0
LINE
  5
2D32
330
BF7
100
AcDbEntity
  8
1
100
AcDbLine
 10
44.79081499999998
 20
-0.2971560000000046
 30
0.0
 11
48.59872199999998
 21
-0.8770560000000029
 31
0.0
  0
LINE
  5
2D33
330
BF7
100
AcDbEntity
  8
1
100
AcDbLine
 10
40.63651399999999
 20
0.390547999999999
 30
0.0
 11
44.79081499999998
 21
-0.2971560000000046
 31
0.0
  0
LINE
  5
2D34
330
BF7
100
AcDbEntity
  8
1
100
AcDbLine
 10
36.482529
 20
0.9977269999999975
 30
0.0
 11
40.63651399999999
 21
0.390547999999999
 31
0.0
  0
LINE
  5
2D35
330
BF7
100
AcDbEntity
  8
1
100
AcDbLine
 10
35.55736699999999
 20
1.087156
 30
0.0
 11
36.482529
 21
0.9977269999999975
 31
0.0
  0
LINE
  5
2D36
330
BF7
100
AcDbEntity
  8
1
100
AcDbLine
 10
15.71361699999998
 20
-0.2033139999999989
 30
0.0
 11
19.63105
 21
-2.959772
 31
0.0
  0
LINE
  5
2D37
330
BF7
100
AcDbEntity
  8
1
100
AcDbLine
 10
180.824794
 20
2.011950999999995
 30
0.0
 11
180.8300749999999
 21
1.989501999999997
 31
0.0
  0
LINE
  5
2D38
330
BF7
100
AcDbEntity
  8
1
100
AcDbLine
 10
180.8263199999999
 20
2.03688
 30
0.0
 11
180.824794
 21
2.011950999999995
 31
0.0
  0
LINE
  5
2D39
330
BF7
100
AcDbEntity
  8
1
100
AcDbLine
 10
180.833539
 20
2.05393
 30
0.0
 11
180.8263199999999
 21
2.03688
 31
0.0
  0
LINE
  5
2D3A
330
BF7
100
AcDbEntity
  8
1
100
AcDbLine
 10
180.84846
 20
2.070265999999995
 30
0.0
 11
180.833539
 21
2.05393
 31
0.0
  0
LINE
  5
2D3B
330
BF7
100
AcDbEntity
  8
1
100
AcDbLine
 10
180.8682019999999
 20
2.081135999999999
 30
0.0
 11
180.84846
 21
2.070265999999995
 31
0.0
  0
LINE
  5
2D3C
330
BF7
100
AcDbEntity
  8
1
100
AcDbLine
 10
180.894097
 20
2.087249999999996
 30
0.0
 11
180.8682019999999
 21
2.081135999999999
 31
0.0
  0
LINE
  5
2D3D
330
BF7
100
AcDbEntity
  8
1
100
AcDbLine
 10
177.982259
 20
1.112738999999997
 30
0.0
 11
181.291045
 21
0.6782449999999969
 31
0.0
  0
LINE
  5
2D3E
330
BF7
100
AcDbEntity
  8
1
100
AcDbLine
 10
135.77144
 20
-1.088665000000001
 30
0.0
 11
141.541727
 21
-1.464547000000003
 31
0.0
  0
LINE
  5
2D3F
330
BF7
100
AcDbEntity
  8
1
100
AcDbLine
 10
131.283536
 20
-0.4574590000000002
 30
0.0
 11
135.77144
 21
-1.088665000000001
 31
0.0
  0
LINE
  5
2D40
330
BF7
100
AcDbEntity
  8
1
100
AcDbLine
 10
127.475459
 20
0.1711149999999968
 30
0.0
 11
131.283536
 21
-0.4574590000000002
 31
0.0
  0
LINE
  5
2D41
330
BF7
100
AcDbEntity
  8
1
100
AcDbLine
 10
123.667576
 20
0.7698549999999999
 30
0.0
 11
127.475459
 21
0.1711149999999968
 31
0.0
  0
LINE
  5
2D42
330
BF7
100
AcDbEntity
  8
1
100
AcDbLine
 10
121.033265
 20
1.091646999999997
 30
0.0
 11
123.667576
 21
0.7698549999999999
 31
0.0
  0
LINE
  5
2D43
330
BF7
100
AcDbEntity
  8
1
100
AcDbLine
 10
79.06152999999997
 20
-1.121948000000003
 30
0.0
 11
84.50762500000001
 21
-1.468977000000001
 31
0.0
  0
LINE
  5
2D44
330
BF7
100
AcDbEntity
  8
1
100
AcDbLine
 10
75.25363499999997
 20
-0.6092490000000055
 30
0.0
 11
79.06152999999997
 21
-1.121948000000003
 31
0.0
  0
LINE
  5
2D45
330
BF7
100
AcDbEntity
  8
1
100
AcDbLine
 10
71.44561900000002
 20
0.0092879999999944
 30
0.0
 11
75.25363499999997
 21
-0.6092490000000055
 31
0.0
  0
LINE
  5
2D46
330
BF7
100
AcDbEntity
  8
1
100
AcDbLine
 10
67.63716699999999
 20
0.6262529999999984
 30
0.0
 11
71.44561900000002
 21
0.0092879999999944
 31
0.0
  0
LINE
  5
2D47
330
BF7
100
AcDbEntity
  8
1
100
AcDbLine
 10
64.00513400000001
 20
1.110894999999995
 30
0.0
 11
67.63716699999999
 21
0.6262529999999984
 31
0.0
  0
LINE
  5
2D48
330
BF7
100
AcDbEntity
  8
1
100
AcDbLine
 10
19.86645300000001
 20
-0.8450839999999999
 30
0.0
 11
27.529381
 21
-1.481679000000003
 31
0.0
  0
LINE
  5
2D49
330
BF7
100
AcDbEntity
  8
1
100
AcDbLine
 10
15.713581
 20
-0.203281000000004
 30
0.0
 11
19.86645300000001
 21
-0.8450839999999999
 31
0.0
  0
LINE
  5
2D4A
330
BF7
100
AcDbEntity
  8
1
100
AcDbLine
 10
16.20772499999999
 20
0.236895999999998
 30
0.0
 11
15.71361699999998
 21
-0.2033139999999989
 31
0.0
  0
LINE
  5
2D4B
330
BF7
100
AcDbEntity
  8
1
100
AcDbLine
 10
16.63370400000001
 20
0.606501999999999
 30
0.0
 11
16.20772499999999
 21
0.236895999999998
 31
0.0
  0
LINE
  5
2D4C
330
BF7
100
AcDbEntity
  8
1
100
AcDbLine
 10
17.06651499999999
 20
0.9663449999999967
 30
0.0
 11
16.63370400000001
 21
0.606501999999999
 31
0.0
  0
LINE
  5
2D4D
330
BF7
100
AcDbEntity
  8
1
100
AcDbLine
 10
17.44193999999999
 20
1.260213999999997
 30
0.0
 11
17.06651499999999
 21
0.9663449999999967
 31
0.0
  0
LINE
  5
2D4E
330
BF7
100
AcDbEntity
  8
1
100
AcDbLine
 10
17.78786099999999
 20
1.511726999999995
 30
0.0
 11
17.44193999999999
 21
1.260213999999997
 31
0.0
  0
LINE
  5
2D4F
330
BF7
100
AcDbEntity
  8
1
100
AcDbLine
 10
18.10498100000001
 20
1.722449
 30
0.0
 11
17.78786099999999
 21
1.511726999999995
 31
0.0
  0
LINE
  5
2D50
330
BF7
100
AcDbEntity
  8
1
100
AcDbLine
 10
18.394558
 20
1.894637999999995
 30
0.0
 11
18.10498100000001
 21
1.722449
 31
0.0
  0
LINE
  5
2D51
330
BF7
100
AcDbEntity
  8
1
100
AcDbLine
 10
18.842629
 20
2.114963999999992
 30
0.0
 11
18.394558
 21
1.894637999999995
 31
0.0
  0
LINE
  5
2D52
330
BF7
100
AcDbEntity
  8
1
100
AcDbLine
 10
19.283349
 20
2.267752999999999
 30
0.0
 11
18.842629
 21
2.114963999999992
 31
0.0
  0
LINE
  5
2D53
330
BF7
100
AcDbEntity
  8
1
100
AcDbLine
 10
19.72515800000001
 20
2.348815999999998
 30
0.0
 11
19.283349
 21
2.267752999999999
 31
0.0
  0
LINE
  5
2D54
330
BF7
100
AcDbEntity
  8
1
100
AcDbLine
 10
20.075791
 20
2.359568000000002
 30
0.0
 11
19.72515800000001
 21
2.348815999999998
 31
0.0
  0
LINE
  5
2D55
330
BF7
100
AcDbEntity
  8
1
100
AcDbLine
 10
20.422657
 20
2.325624999999995
 30
0.0
 11
20.075791
 21
2.359568000000002
 31
0.0
  0
LINE
  5
2D56
330
BF7
100
AcDbEntity
  8
1
100
AcDbLine
 10
20.63385999999999
 20
2.285002999999996
 30
0.0
 11
20.422657
 21
2.325624999999995
 31
0.0
  0
LINE
  5
2D57
330
BF7
100
AcDbEntity
  8
1
100
AcDbLine
 10
182.5840619999999
 20
2.357647999999997
 30
0.0
 11
180.894097
 21
2.087249999999996
 31
0.0
  0
LINE
  5
2D58
330
BF7
100
AcDbEntity
  8
SK1
100
AcDbLine
 10
-45.00000299999999
 20
-5.180282
 30
0.0
 11
-45.00000299999999
 21
-4.972915
 31
0.0
  0
LINE
  5
2D59
330
BF7
100
AcDbEntity
  8
SK1
100
AcDbLine
 10
-45.00000299999999
 20
-5.249999000000001
 30
0.0
 11
-45.00000299999999
 21
-5.180282
 31
0.0
  0
LINE
  5
2D5A
330
BF7
100
AcDbEntity
  8
SK1
100
AcDbLine
 10
-45.00000299999999
 20
-3.704148000000003
 30
0.0
 11
-45.00000299999999
 21
-4.972915
 31
0.0
  0
LINE
  5
2D5B
330
BF7
100
AcDbEntity
  8
SK1
100
AcDbLine
 10
-43.700963
 20
-5.905433000000002
 30
0.0
 11
-43.700963
 21
-6.000001000000001
 31
0.0
  0
LINE
  5
2D5C
330
BF7
100
AcDbEntity
  8
SK1
100
AcDbLine
 10
-43.700963
 20
-5.624642000000001
 30
0.0
 11
-43.700963
 21
-5.905433000000002
 31
0.0
  0
LINE
  5
2D5D
330
BF7
100
AcDbEntity
  8
SK1
100
AcDbLine
 10
-43.700963
 20
-3.456276999999999
 30
0.0
 11
-43.700963
 21
-4.356001000000001
 31
0.0
  0
LINE
  5
2D5E
330
BF7
100
AcDbEntity
  8
SK1
100
AcDbLine
 10
-43.700963
 20
-2.420675000000005
 30
0.0
 11
-43.700963
 21
-3.456276999999999
 31
0.0
  0
LINE
  5
2D5F
330
BF7
100
AcDbEntity
  8
SK1
100
AcDbLine
 10
-43.700963
 20
-1.289903000000002
 30
0.0
 11
-43.700963
 21
-2.420675000000005
 31
0.0
  0
LINE
  5
2D60
330
BF7
100
AcDbEntity
  8
SK1
100
AcDbLine
 10
-43.700963
 20
-0.1084189999999978
 30
0.0
 11
-43.700963
 21
-1.289903000000002
 31
0.0
  0
LINE
  5
2D61
330
BF7
100
AcDbEntity
  8
SK1
100
AcDbLine
 10
-43.700963
 20
1.077323999999999
 30
0.0
 11
-43.700963
 21
-0.1084189999999978
 31
0.0
  0
LINE
  5
2D62
330
BF7
100
AcDbEntity
  8
SK1
100
AcDbLine
 10
-43.700963
 20
2.220716999999999
 30
0.0
 11
-43.700963
 21
1.077323999999999
 31
0.0
  0
LINE
  5
2D63
330
BF7
100
AcDbEntity
  8
SK1
100
AcDbLine
 10
-43.700963
 20
3.276799999999993
 30
0.0
 11
-43.700963
 21
2.220716999999999
 31
0.0
  0
LINE
  5
2D64
330
BF7
100
AcDbEntity
  8
SK1
100
AcDbLine
 10
-43.700963
 20
4.204062
 30
0.0
 11
-43.700963
 21
3.276799999999993
 31
0.0
  0
LINE
  5
2D65
330
BF7
100
AcDbEntity
  8
SK1
100
AcDbLine
 10
-43.700963
 20
4.966043999999995
 30
0.0
 11
-43.700963
 21
4.204062
 31
0.0
  0
LINE
  5
2D66
330
BF7
100
AcDbEntity
  8
SK1
100
AcDbLine
 10
-43.700963
 20
5.532787999999996
 30
0.0
 11
-43.700963
 21
4.966043999999995
 31
0.0
  0
LINE
  5
2D67
330
BF7
100
AcDbEntity
  8
SK1
100
AcDbLine
 10
-43.700963
 20
5.882018000000002
 30
0.0
 11
-43.700963
 21
5.532787999999996
 31
0.0
  0
LINE
  5
2D68
330
BF7
100
AcDbEntity
  8
SK1
100
AcDbLine
 10
-43.700963
 20
6.000000999999997
 30
0.0
 11
-43.700963
 21
5.882018000000002
 31
0.0
  0
LINE
  5
2D69
330
BF7
100
AcDbEntity
  8
SK1
100
AcDbLine
 10
-43.700963
 20
-4.356001000000001
 30
0.0
 11
-45.00000299999999
 21
-3.704276
 31
0.0
  0
LINE
  5
2D6A
330
BF7
100
AcDbEntity
  8
SK1
100
AcDbLine
 10
-45.00000299999999
 20
5.130201999999997
 30
0.0
 11
-45.00000299999999
 21
5.249999000000001
 31
0.0
  0
LINE
  5
2D6B
330
BF7
100
AcDbEntity
  8
SK1
100
AcDbLine
 10
-45.00000299999999
 20
4.776359999999995
 30
0.0
 11
-45.00000299999999
 21
5.130201999999997
 31
0.0
  0
LINE
  5
2D6C
330
BF7
100
AcDbEntity
  8
SK1
100
AcDbLine
 10
-45.00000299999999
 20
4.204610999999998
 30
0.0
 11
-45.00000299999999
 21
4.776359999999995
 31
0.0
  0
LINE
  5
2D6D
330
BF7
100
AcDbEntity
  8
SK1
100
AcDbLine
 10
-45.00000299999999
 20
3.441046
 30
0.0
 11
-45.00000299999999
 21
4.204610999999998
 31
0.0
  0
LINE
  5
2D6E
330
BF7
100
AcDbEntity
  8
SK1
100
AcDbLine
 10
-45.00000299999999
 20
2.520493
 30
0.0
 11
-45.00000299999999
 21
3.441046
 31
0.0
  0
LINE
  5
2D6F
330
BF7
100
AcDbEntity
  8
SK1
100
AcDbLine
 10
-45.00000299999999
 20
1.484951999999995
 30
0.0
 11
-45.00000299999999
 21
2.520493
 31
0.0
  0
LINE
  5
2D70
330
BF7
100
AcDbEntity
  8
SK1
100
AcDbLine
 10
-45.00000299999999
 20
0.3816670000000002
 30
0.0
 11
-45.00000299999999
 21
1.484951999999995
 31
0.0
  0
LINE
  5
2D71
330
BF7
100
AcDbEntity
  8
SK1
100
AcDbLine
 10
-45.00000299999999
 20
-0.7390310000000043
 30
0.0
 11
-45.00000299999999
 21
0.3816670000000002
 31
0.0
  0
LINE
  5
2D72
330
BF7
100
AcDbEntity
  8
SK1
100
AcDbLine
 10
-45.00000299999999
 20
-1.826013999999999
 30
0.0
 11
-45.00000299999999
 21
-0.7390310000000043
 31
0.0
  0
LINE
  5
2D73
330
BF7
100
AcDbEntity
  8
SK1
100
AcDbLine
 10
-45.00000299999999
 20
-2.829692000000001
 30
0.0
 11
-45.00000299999999
 21
-1.826013999999999
 31
0.0
  0
LINE
  5
2D74
330
BF7
100
AcDbEntity
  8
SK1
100
AcDbLine
 10
-45.00000299999999
 20
-3.704276
 30
0.0
 11
-45.00000299999999
 21
-2.829692000000001
 31
0.0
  0
LINE
  5
2D75
330
BF7
100
AcDbEntity
  8
1
100
AcDbLine
 10
182.999104
 20
0.0297990000000006
 30
0.0
 11
182.970472
 21
0.1509579999999957
 31
0.0
  0
LINE
  5
2D76
330
BF7
100
AcDbEntity
  8
1
100
AcDbLine
 10
182.970472
 20
0.1509579999999957
 30
0.0
 11
182.5840619999999
 21
2.357647999999997
 31
0.0
  0
LINE
  5
2D77
330
BF7
100
AcDbEntity
  8
1
100
AcDbLine
 10
181.9945389999999
 20
3.977876999999999
 30
0.0
 11
181.59839
 21
5.099998999999995
 31
0.0
  0
LINE
  5
2D78
330
BF7
100
AcDbEntity
  8
1
100
AcDbLine
 10
182.433199
 20
2.769202999999996
 30
0.0
 11
181.9945389999999
 21
3.977876999999999
 31
0.0
  0
LINE
  5
2D79
330
BF7
100
AcDbEntity
  8
1
100
AcDbLine
 10
182.5840619999999
 20
2.357647999999997
 30
0.0
 11
182.433199
 21
2.769202999999996
 31
0.0
  0
LINE
  5
2D7A
330
BF7
100
AcDbEntity
  8
1
100
AcDbLine
 10
180.4777949999999
 20
0.0377499999999955
 30
0.0
 11
179.998318
 21
0.2410599999999974
 31
0.0
  0
LINE
  5
2D7B
330
BF7
100
AcDbEntity
  8
1
100
AcDbLine
 10
180.942641
 20
-0.0475069999999995
 30
0.0
 11
180.4777949999999
 21
0.0377499999999955
 31
0.0
  0
LINE
  5
2D7C
330
BF7
100
AcDbEntity
  8
1
100
AcDbLine
 10
181.185382
 20
0.0116620000000012
 30
0.0
 11
180.942641
 21
-0.0475069999999995
 31
0.0
  0
LINE
  5
2D7D
330
BF7
100
AcDbEntity
  8
1
100
AcDbLine
 10
181.3092119999999
 20
0.1476599999999983
 30
0.0
 11
181.185382
 21
0.0116620000000012
 31
0.0
  0
LINE
  5
2D7E
330
BF7
100
AcDbEntity
  8
1
100
AcDbLine
 10
181.347897
 20
0.3873110000000004
 30
0.0
 11
181.3092119999999
 21
0.1476599999999983
 31
0.0
  0
LINE
  5
2D7F
330
BF7
100
AcDbEntity
  8
1
100
AcDbLine
 10
181.291045
 20
0.6782449999999969
 30
0.0
 11
181.347897
 21
0.3873110000000004
 31
0.0
  0
LINE
  5
2D80
330
BF7
100
AcDbEntity
  8
1
100
AcDbLine
 10
180.8300749999999
 20
1.989501999999997
 30
0.0
 11
181.291045
 21
0.6782449999999969
 31
0.0
  0
LINE
  5
2D81
330
BF7
100
AcDbEntity
  8
1
100
AcDbLine
 10
182.974881
 20
-0.0106060000000028
 30
0.0
 11
180.8300749999999
 21
1.989501999999997
 31
0.0
  0
LINE
  5
2D82
330
BF7
100
AcDbEntity
  8
1
100
AcDbLine
 10
179.8952
 20
-1.056581000000003
 30
0.0
 11
180.438723
 21
-1.556581000000004
 31
0.0
  0
LINE
  5
2D83
330
BF7
100
AcDbEntity
  8
1
100
AcDbLine
 10
179.038251
 20
-0.1609050000000032
 30
0.0
 11
179.8952
 21
-1.056581000000003
 31
0.0
  0
LINE
  5
2D84
330
BF7
100
AcDbEntity
  8
1
100
AcDbLine
 10
178.3872249999999
 20
0.6470909999999998
 30
0.0
 11
179.038251
 21
-0.1609050000000032
 31
0.0
  0
LINE
  5
2D85
330
BF7
100
AcDbEntity
  8
1
100
AcDbLine
 10
178.221368
 20
0.8797769999999971
 30
0.0
 11
178.3872249999999
 21
0.6470909999999998
 31
0.0
  0
LINE
  5
2D86
330
BF7
100
AcDbEntity
  8
1
100
AcDbLine
 10
181.2679599999999
 20
-4.523266000000003
 30
0.0
 11
181.155878
 21
-4.153022000000002
 31
0.0
  0
LINE
  5
2D87
330
BF7
100
AcDbEntity
  8
1
100
AcDbLine
 10
181.4288749999999
 20
-4.752787000000001
 30
0.0
 11
181.2679599999999
 21
-4.523266000000003
 31
0.0
  0
LINE
  5
2D88
330
BF7
100
AcDbEntity
  8
1
100
AcDbLine
 10
182.9999519999999
 20
-0.0232080000000004
 30
0.0
 11
182.9999519999999
 21
0.0232069999999958
 31
0.0
  0
LINE
  5
2D89
330
BF7
100
AcDbEntity
  8
1
100
AcDbLine
 10
182.999104
 20
-0.0298000000000052
 30
0.0
 11
182.970472
 21
-0.1509590000000003
 31
0.0
  0
LINE
  5
2D8A
330
BF7
100
AcDbEntity
  8
1
100
AcDbLine
 10
182.970472
 20
-0.1509590000000003
 30
0.0
 11
182.5840619999999
 21
-2.357649000000002
 31
0.0
  0
LINE
  5
2D8B
330
BF7
100
AcDbEntity
  8
1
100
AcDbLine
 10
181.9945389999999
 20
-3.977875
 30
0.0
 11
181.59839
 21
-5.099998999999999
 31
0.0
  0
LINE
  5
2D8C
330
BF7
100
AcDbEntity
  8
1
100
AcDbLine
 10
182.433199
 20
-2.769204000000001
 30
0.0
 11
181.9945389999999
 21
-3.977875
 31
0.0
  0
LINE
  5
2D8D
330
BF7
100
AcDbEntity
  8
1
100
AcDbLine
 10
182.5840619999999
 20
-2.357649000000002
 30
0.0
 11
182.433199
 21
-2.769204000000001
 31
0.0
  0
LINE
  5
2D8E
330
BF7
100
AcDbEntity
  8
1
100
AcDbLine
 10
181.434737
 20
-4.760939000000004
 30
0.0
 11
181.4288749999999
 21
-4.752787000000001
 31
0.0
  0
LINE
  5
2D8F
330
BF7
100
AcDbEntity
  8
1
100
AcDbLine
 10
181.4411319999999
 20
-4.793153
 30
0.0
 11
181.434737
 21
-4.760939000000004
 31
0.0
  0
LINE
  5
2D90
330
BF7
100
AcDbEntity
  8
1
100
AcDbLine
 10
181.439509
 20
-4.841038000000001
 30
0.0
 11
181.4411319999999
 21
-4.793153
 31
0.0
  0
LINE
  5
2D91
330
BF7
100
AcDbEntity
  8
1
100
AcDbLine
 10
181.423861
 20
-4.938334000000001
 30
0.0
 11
181.439509
 21
-4.841038000000001
 31
0.0
  0
LINE
  5
2D92
330
BF7
100
AcDbEntity
  8
1
100
AcDbLine
 10
181.399226
 20
-5.040052999999999
 30
0.0
 11
181.423861
 21
-4.938334000000001
 31
0.0
  0
LINE
  5
2D93
330
BF7
100
AcDbEntity
  8
1
100
AcDbLine
 10
181.3986449999999
 20
-5.042201000000002
 30
0.0
 11
181.399226
 21
-5.040052999999999
 31
0.0
  0
LINE
  5
2D94
330
BF7
100
AcDbEntity
  8
1
100
AcDbLine
 10
182.0998859999999
 20
-1.971775000000004
 30
0.0
 11
182.110641
 21
-1.937325999999997
 31
0.0
  0
LINE
  5
2D95
330
BF7
100
AcDbEntity
  8
1
100
AcDbLine
 10
182.037196
 20
-2.114014
 30
0.0
 11
182.0998859999999
 21
-1.971775000000004
 31
0.0
  0
LINE
  5
2D96
330
BF7
100
AcDbEntity
  8
1
100
AcDbLine
 10
181.945511
 20
-2.234849000000004
 30
0.0
 11
182.037196
 21
-2.114014
 31
0.0
  0
LINE
  5
2D97
330
BF7
100
AcDbEntity
  8
1
100
AcDbLine
 10
181.7969729999999
 20
-2.315457999999999
 30
0.0
 11
181.945511
 21
-2.234849000000004
 31
0.0
  0
LINE
  5
2D98
330
BF7
100
AcDbEntity
  8
1
100
AcDbLine
 10
181.6620979999999
 20
-2.288598000000003
 30
0.0
 11
181.7969729999999
 21
-2.315457999999999
 31
0.0
  0
LINE
  5
2D99
330
BF7
100
AcDbEntity
  8
1
100
AcDbLine
 10
181.562612
 20
-2.189264
 30
0.0
 11
181.6620979999999
 21
-2.288598000000003
 31
0.0
  0
LINE
  5
2D9A
330
BF7
100
AcDbEntity
  8
1
100
AcDbLine
 10
181.4999219999999
 20
-2.054391000000002
 30
0.0
 11
181.562612
 21
-2.189264
 31
0.0
  0
LINE
  5
2D9B
330
BF7
100
AcDbEntity
  8
1
100
AcDbLine
 10
181.4678749999999
 20
-1.905820999999999
 30
0.0
 11
181.4999219999999
 21
-2.054391000000002
 31
0.0
  0
LINE
  5
2D9C
330
BF7
100
AcDbEntity
  8
1
100
AcDbLine
 10
181.460971
 20
-1.751357999999999
 30
0.0
 11
181.4678749999999
 21
-1.905820999999999
 31
0.0
  0
LINE
  5
2D9D
330
BF7
100
AcDbEntity
  8
1
100
AcDbLine
 10
181.4786539999999
 20
-1.588219999999999
 30
0.0
 11
181.460971
 21
-1.751357999999999
 31
0.0
  0
LINE
  5
2D9E
330
BF7
100
AcDbEntity
  8
1
100
AcDbLine
 10
181.526956
 20
-1.417156999999999
 30
0.0
 11
181.4786539999999
 21
-1.588219999999999
 31
0.0
  0
LINE
  5
2D9F
330
BF7
100
AcDbEntity
  8
1
100
AcDbLine
 10
181.597009
 20
-1.280162000000004
 30
0.0
 11
181.526956
 21
-1.417156999999999
 31
0.0
  0
LINE
  5
2DA0
330
BF7
100
AcDbEntity
  8
1
100
AcDbLine
 10
181.696059
 20
-1.170951999999998
 30
0.0
 11
181.597009
 21
-1.280162000000004
 31
0.0
  0
LINE
  5
2DA1
330
BF7
100
AcDbEntity
  8
1
100
AcDbLine
 10
181.84697
 20
-1.116512999999996
 30
0.0
 11
181.696059
 21
-1.170951999999998
 31
0.0
  0
LINE
  5
2DA2
330
BF7
100
AcDbEntity
  8
1
100
AcDbLine
 10
181.974966
 20
-1.165329000000002
 30
0.0
 11
181.84697
 21
-1.116512999999996
 31
0.0
  0
LINE
  5
2DA3
330
BF7
100
AcDbEntity
  8
1
100
AcDbLine
 10
182.078666
 20
-1.300504000000002
 30
0.0
 11
181.974966
 21
-1.165329000000002
 31
0.0
  0
LINE
  5
2DA4
330
BF7
100
AcDbEntity
  8
1
100
AcDbLine
 10
182.1339919999999
 20
-1.470037000000004
 30
0.0
 11
182.078666
 21
-1.300504000000002
 31
0.0
  0
LINE
  5
2DA5
330
BF7
100
AcDbEntity
  8
1
100
AcDbLine
 10
182.150488
 20
-1.619098
 30
0.0
 11
182.1339919999999
 21
-1.470037000000004
 31
0.0
  0
LINE
  5
2DA6
330
BF7
100
AcDbEntity
  8
1
100
AcDbLine
 10
182.143028
 20
-1.779118000000003
 30
0.0
 11
182.150488
 21
-1.619098
 31
0.0
  0
LINE
  5
2DA7
330
BF7
100
AcDbEntity
  8
1
100
AcDbLine
 10
182.110641
 20
-1.937325999999997
 30
0.0
 11
182.143028
 21
-1.779118000000003
 31
0.0
  0
LINE
  5
2DA8
330
BF7
100
AcDbEntity
  8
1
100
AcDbLine
 10
180.438723
 20
-1.556581000000004
 30
0.0
 11
182.974881
 21
-0.0106060000000028
 31
0.0
  0
LINE
  5
2DA9
330
BF7
100
AcDbEntity
  8
1
100
AcDbLine
 10
182.974881
 20
-0.0106060000000028
 30
0.0
 11
182.999104
 21
0.0297990000000006
 31
0.0
  0
LINE
  5
2DAA
330
BF7
100
AcDbEntity
  8
1
100
AcDbLine
 10
182.999104
 20
0.0297990000000006
 30
0.0
 11
182.9999519999999
 21
0.0232069999999958
 31
0.0
  0
LINE
  5
2DAB
330
BF7
100
AcDbEntity
  8
1
100
AcDbLine
 10
182.9999519999999
 20
0.0232069999999958
 30
0.0
 11
181.155878
 21
-4.153022000000002
 31
0.0
  0
LINE
  5
2DAC
330
BF7
100
AcDbEntity
  8
1
100
AcDbLine
 10
180.452045
 20
-1.809666000000003
 30
0.0
 11
180.438723
 21
-1.556581000000004
 31
0.0
  0
LINE
  5
2DAD
330
BF7
100
AcDbEntity
  8
1
100
AcDbLine
 10
180.508922
 20
-2.343651
 30
0.0
 11
180.452045
 21
-1.809666000000003
 31
0.0
  0
LINE
  5
2DAE
330
BF7
100
AcDbEntity
  8
1
100
AcDbLine
 10
180.6548429999999
 20
-3.045594999999998
 30
0.0
 11
180.508922
 21
-2.343651
 31
0.0
  0
LINE
  5
2DAF
330
BF7
100
AcDbEntity
  8
1
100
AcDbLine
 10
180.860184
 20
-3.627012000000004
 30
0.0
 11
180.6548429999999
 21
-3.045594999999998
 31
0.0
  0
LINE
  5
2DB0
330
BF7
100
AcDbEntity
  8
1
100
AcDbLine
 10
181.126374
 20
-4.110943000000001
 30
0.0
 11
180.860184
 21
-3.627012000000004
 31
0.0
  0
LINE
  5
2DB1
330
BF7
100
AcDbEntity
  8
1
100
AcDbLine
 10
181.155878
 20
-4.153022000000002
 30
0.0
 11
181.126374
 21
-4.110943000000001
 31
0.0
  0
LINE
  5
2DB2
330
BF7
100
AcDbEntity
  8
1
100
AcDbLine
 10
182.999104
 20
-0.0298000000000052
 30
0.0
 11
182.9999519999999
 21
-0.0232080000000004
 31
0.0
  0
LINE
  5
2DB3
330
BF7
100
AcDbEntity
  8
SK1
100
AcDbLine
 10
-43.700963
 20
-5.093226000000001
 30
0.0
 11
-43.700963
 21
-5.624642000000001
 31
0.0
  0
LINE
  5
2DB4
330
BF7
100
AcDbEntity
  8
SK1
100
AcDbLine
 10
-43.700963
 20
-4.356001000000001
 30
0.0
 11
-43.700963
 21
-5.093226000000001
 31
0.0
  0
LINE
  5
2DB5
330
BF7
100
AcDbEntity
  8
1
100
AcDbLine
 10
14.43296599999999
 20
-2.295037999999998
 30
0.0
 11
11.89718399999999
 21
-1.797500000000002
 31
0.0
  0
LINE
  5
2DB6
330
BF7
100
AcDbEntity
  8
1
100
AcDbLine
 10
16.998108
 20
-2.681452
 30
0.0
 11
14.43296599999999
 21
-2.295037999999998
 31
0.0
  0
LINE
  5
2DB7
330
BF7
100
AcDbEntity
  8
1
100
AcDbLine
 10
19.63105
 20
-2.959772
 30
0.0
 11
16.998108
 21
-2.681452
 31
0.0
  0
LINE
  5
2DB8
330
BF7
100
AcDbEntity
  8
1
100
AcDbLine
 10
140.961772
 20
-3.134170000000001
 30
0.0
 11
143.791905
 21
-2.641904000000002
 31
0.0
  0
LINE
  5
2DB9
330
BF7
100
AcDbEntity
  8
1
100
AcDbLine
 10
138.292459
 20
-3.317552999999999
 30
0.0
 11
140.961772
 21
-3.134170000000001
 31
0.0
  0
LINE
  5
2DBA
330
BF7
100
AcDbEntity
  8
1
100
AcDbLine
 10
135.623145
 20
-3.215781999999999
 30
0.0
 11
138.292459
 21
-3.317552999999999
 31
0.0
  0
LINE
  5
2DBB
330
BF7
100
AcDbEntity
  8
1
100
AcDbLine
 10
132.953758
 20
-2.837631999999998
 30
0.0
 11
135.623145
 21
-3.215781999999999
 31
0.0
  0
LINE
  5
2DBC
330
BF7
100
AcDbEntity
  8
1
100
AcDbLine
 10
130.284227
 20
-2.215555000000001
 30
0.0
 11
132.953758
 21
-2.837631999999998
 31
0.0
  0
LINE
  5
2DBD
330
BF7
100
AcDbEntity
  8
1
100
AcDbLine
 10
127.566418
 20
-1.38696
 30
0.0
 11
130.284227
 21
-2.215555000000001
 31
0.0
  0
LINE
  5
2DBE
330
BF7
100
AcDbEntity
  8
1
100
AcDbLine
 10
124.8488999999999
 20
-0.4348860000000025
 30
0.0
 11
127.566418
 21
-1.38696
 31
0.0
  0
LINE
  5
2DBF
330
BF7
100
AcDbEntity
  8
1
100
AcDbLine
 10
124.778482
 20
-0.4092160000000007
 30
0.0
 11
124.8488999999999
 21
-0.4348860000000025
 31
0.0
  0
LINE
  5
2DC0
330
BF7
100
AcDbEntity
  8
1
100
AcDbLine
 10
81.75197899999998
 20
-3.306383
 30
0.0
 11
86.779252
 21
-2.636687000000004
 31
0.0
  0
LINE
  5
2DC1
330
BF7
100
AcDbEntity
  8
1
100
AcDbLine
 10
79.03404899999998
 20
-3.250127999999999
 30
0.0
 11
81.75197899999998
 21
-3.306383
 31
0.0
  0
LINE
  5
2DC2
330
BF7
100
AcDbEntity
  8
1
100
AcDbLine
 10
76.31610699999999
 20
-2.904375999999998
 30
0.0
 11
79.03404899999998
 21
-3.250127999999999
 31
0.0
  0
LINE
  5
2DC3
330
BF7
100
AcDbEntity
  8
1
100
AcDbLine
 10
73.59804399999998
 20
-2.299789
 30
0.0
 11
76.31610699999999
 21
-2.904375999999998
 31
0.0
  0
LINE
  5
2DC4
330
BF7
100
AcDbEntity
  8
1
100
AcDbLine
 10
70.87974999999999
 20
-1.490287999999999
 30
0.0
 11
73.59804399999998
 21
-2.299789
 31
0.0
  0
LINE
  5
2DC5
330
BF7
100
AcDbEntity
  8
1
100
AcDbLine
 10
68.16217199999998
 20
-0.5482970000000016
 30
0.0
 11
70.87974999999999
 21
-1.490287999999999
 31
0.0
  0
LINE
  5
2DC6
330
BF7
100
AcDbEntity
  8
1
100
AcDbLine
 10
67.760779
 20
-0.4019340000000007
 30
0.0
 11
68.16217199999998
 21
-0.5482970000000016
 31
0.0
  0
LINE
  5
2DC7
330
BF7
100
AcDbEntity
  8
1
100
AcDbLine
 10
25.06517800000001
 20
-3.293775000000002
 30
0.0
 11
29.769094
 21
-2.627004000000003
 31
0.0
  0
LINE
  5
2DC8
330
BF7
100
AcDbEntity
  8
1
100
AcDbLine
 10
22.348399
 20
-3.271756000000002
 30
0.0
 11
25.06517800000001
 21
-3.293775000000002
 31
0.0
  0
LINE
  5
2DC9
330
BF7
100
AcDbEntity
  8
1
100
AcDbLine
 10
19.63105
 20
-2.959772
 30
0.0
 11
22.348399
 21
-3.271756000000002
 31
0.0
  0
LINE
  5
2DCA
330
BF7
100
AcDbEntity
  8
1
100
AcDbLine
 10
178.565073
 20
0.7949019999999969
 30
0.0
 11
178.221368
 21
0.8797769999999971
 31
0.0
  0
LINE
  5
2DCB
330
BF7
100
AcDbEntity
  8
1
100
AcDbLine
 10
179.1949999999999
 20
0.5923279999999985
 30
0.0
 11
178.565073
 21
0.7949019999999969
 31
0.0
  0
LINE
  5
2DCC
330
BF7
100
AcDbEntity
  8
1
100
AcDbLine
 10
179.595484
 20
0.4318089999999978
 30
0.0
 11
179.1949999999999
 21
0.5923279999999985
 31
0.0
  0
LINE
  5
2DCD
330
BF7
100
AcDbEntity
  8
1
100
AcDbLine
 10
179.998318
 20
0.2410599999999974
 30
0.0
 11
179.595484
 21
0.4318089999999978
 31
0.0
  0
LINE
  5
2DCE
330
BF7
100
AcDbEntity
  8
1
100
AcDbLine
 10
24.06666899999999
 20
-4.819060000000003
 30
0.0
 11
21.64785999999998
 21
-4.780675000000002
 31
0.0
  0
LINE
  5
2DCF
330
BF7
100
AcDbEntity
  8
1
100
AcDbLine
 10
26.44855999999999
 20
-4.524020000000002
 30
0.0
 11
24.06666899999999
 21
-4.819060000000003
 31
0.0
  0
LINE
  5
2DD0
330
BF7
100
AcDbEntity
  8
1
100
AcDbLine
 10
28.11498
 20
-4.130851000000003
 30
0.0
 11
26.44855999999999
 21
-4.524020000000002
 31
0.0
  0
LINE
  5
2DD1
330
BF7
100
AcDbEntity
  8
1
100
AcDbLine
 10
29.78140000000001
 20
-3.599234000000001
 30
0.0
 11
28.11498
 21
-4.130851000000003
 31
0.0
  0
LINE
  5
2DD2
330
BF7
100
AcDbEntity
  8
1
100
AcDbLine
 10
30.92395300000001
 20
-3.152443999999998
 30
0.0
 11
29.78140000000001
 21
-3.599234000000001
 31
0.0
  0
LINE
  5
2DD3
330
BF7
100
AcDbEntity
  8
1
100
AcDbLine
 10
54.401057
 20
4.620041
 30
0.0
 11
51.62816399999998
 21
4.828103999999996
 31
0.0
  0
LINE
  5
2DD4
330
BF7
100
AcDbEntity
  8
1
100
AcDbLine
 10
56.06723399999999
 20
4.276344999999999
 30
0.0
 11
54.401057
 21
4.620041
 31
0.0
  0
LINE
  5
2DD5
330
BF7
100
AcDbEntity
  8
1
100
AcDbLine
 10
57.68647900000001
 20
3.803823000000001
 30
0.0
 11
56.06723399999999
 21
4.276344999999999
 31
0.0
  0
LINE
  5
2DD6
330
BF7
100
AcDbEntity
  8
1
100
AcDbLine
 10
59.30573599999998
 20
3.210902999999993
 30
0.0
 11
57.68647900000001
 21
3.803823000000001
 31
0.0
  0
LINE
  5
2DD7
330
BF7
100
AcDbEntity
  8
1
100
AcDbLine
 10
60.97198599999997
 20
2.494098000000001
 30
0.0
 11
59.30573599999998
 21
3.210902999999993
 31
0.0
  0
LINE
  5
2DD8
330
BF7
100
AcDbEntity
  8
1
100
AcDbLine
 10
62.638199
 20
1.693677999999998
 30
0.0
 11
60.97198599999997
 21
2.494098000000001
 31
0.0
  0
LINE
  5
2DD9
330
BF7
100
AcDbEntity
  8
1
100
AcDbLine
 10
64.257468
 20
0.8607230000000001
 30
0.0
 11
62.638199
 21
1.693677999999998
 31
0.0
  0
LINE
  5
2DDA
330
BF7
100
AcDbEntity
  8
1
100
AcDbLine
 10
65.87676099999997
 20
0.0005489999999995
 30
0.0
 11
64.257468
 21
0.8607230000000001
 31
0.0
  0
LINE
  5
2DDB
330
BF7
100
AcDbEntity
  8
1
100
AcDbLine
 10
67.54310799999998
 20
-0.8842960000000026
 30
0.0
 11
65.87676099999997
 21
0.0005489999999995
 31
0.0
  0
LINE
  5
2DDC
330
BF7
100
AcDbEntity
  8
1
100
AcDbLine
 10
69.20944299999998
 20
-1.739520999999999
 30
0.0
 11
67.54310799999998
 21
-0.8842960000000026
 31
0.0
  0
LINE
  5
2DDD
330
BF7
100
AcDbEntity
  8
1
100
AcDbLine
 10
70.82879699999998
 20
-2.514670999999998
 30
0.0
 11
69.20944299999998
 21
-1.739520999999999
 31
0.0
  0
LINE
  5
2DDE
330
BF7
100
AcDbEntity
  8
1
100
AcDbLine
 10
72.44816199999998
 20
-3.210198
 30
0.0
 11
70.82879699999998
 21
-2.514670999999998
 31
0.0
  0
LINE
  5
2DDF
330
BF7
100
AcDbEntity
  8
1
100
AcDbLine
 10
74.114558
 20
-3.818757999999998
 30
0.0
 11
72.44816199999998
 21
-3.210198
 31
0.0
  0
LINE
  5
2DE0
330
BF7
100
AcDbEntity
  8
1
100
AcDbLine
 10
75.780965
 20
-4.299328000000001
 30
0.0
 11
74.114558
 21
-3.818757999999998
 31
0.0
  0
LINE
  5
2DE1
330
BF7
100
AcDbEntity
  8
1
100
AcDbLine
 10
77.40040399999998
 20
-4.627364000000002
 30
0.0
 11
75.780965
 21
-4.299328000000001
 31
0.0
  0
LINE
  5
2DE2
330
BF7
100
AcDbEntity
  8
1
100
AcDbLine
 10
79.01983
 20
-4.808898999999999
 30
0.0
 11
77.40040399999998
 21
-4.627364000000002
 31
0.0
  0
LINE
  5
2DE3
330
BF7
100
AcDbEntity
  8
1
100
AcDbLine
 10
80.68604399999998
 20
-4.835482000000001
 30
0.0
 11
79.01983
 21
-4.808898999999999
 31
0.0
  0
LINE
  5
2DE4
330
BF7
100
AcDbEntity
  8
1
100
AcDbLine
 10
82.35225699999999
 20
-4.700059999999999
 30
0.0
 11
80.68604399999998
 21
-4.835482000000001
 31
0.0
  0
LINE
  5
2DE5
330
BF7
100
AcDbEntity
  8
1
100
AcDbLine
 10
83.97153799999998
 20
-4.416302
 30
0.0
 11
82.35225699999999
 21
-4.700059999999999
 31
0.0
  0
LINE
  5
2DE6
330
BF7
100
AcDbEntity
  8
1
100
AcDbLine
 10
85.590819
 20
-3.992742000000002
 30
0.0
 11
83.97153799999998
 21
-4.416302
 31
0.0
  0
LINE
  5
2DE7
330
BF7
100
AcDbEntity
  8
1
100
AcDbLine
 10
87.25709299999998
 20
-3.424099000000004
 30
0.0
 11
85.590819
 21
-3.992742000000002
 31
0.0
  0
LINE
  5
2DE8
330
BF7
100
AcDbEntity
  8
1
100
AcDbLine
 10
87.91864499999999
 20
-3.152774000000003
 30
0.0
 11
87.25709299999998
 21
-3.424099000000004
 31
0.0
  0
LINE
  5
2DE9
330
BF7
100
AcDbEntity
  8
1
100
AcDbLine
 10
110.25615
 20
4.766863999999998
 30
0.0
 11
108.625302
 21
4.844417999999997
 31
0.0
  0
LINE
  5
2DEA
330
BF7
100
AcDbEntity
  8
1
100
AcDbLine
 10
111.875491
 20
4.537841999999996
 30
0.0
 11
110.25615
 21
4.766863999999998
 31
0.0
  0
LINE
  5
2DEB
330
BF7
100
AcDbEntity
  8
1
100
AcDbLine
 10
113.541862
 20
4.151112999999995
 30
0.0
 11
111.875491
 21
4.537841999999996
 31
0.0
  0
LINE
  5
2DEC
330
BF7
100
AcDbEntity
  8
1
100
AcDbLine
 10
115.208209
 20
3.625278999999998
 30
0.0
 11
113.541862
 21
4.151112999999995
 31
0.0
  0
LINE
  5
2DED
330
BF7
100
AcDbEntity
  8
1
100
AcDbLine
 10
116.82766
 20
2.996774999999991
 30
0.0
 11
115.208209
 21
3.625278999999998
 31
0.0
  0
LINE
  5
2DEE
330
BF7
100
AcDbEntity
  8
1
100
AcDbLine
 10
118.447086
 20
2.273390999999996
 30
0.0
 11
116.82766
 21
2.996774999999991
 31
0.0
  0
LINE
  5
2DEF
330
BF7
100
AcDbEntity
  8
1
100
AcDbLine
 10
120.113481
 20
1.453551999999997
 30
0.0
 11
118.447086
 21
2.273390999999996
 31
0.0
  0
LINE
  5
2DF0
330
BF7
100
AcDbEntity
  8
1
100
AcDbLine
 10
121.779828
 20
0.5849909999999987
 30
0.0
 11
120.113481
 21
1.453551999999997
 31
0.0
  0
LINE
  5
2DF1
330
BF7
100
AcDbEntity
  8
1
100
AcDbLine
 10
123.399255
 20
-0.278300999999999
 30
0.0
 11
121.779828
 21
0.5849909999999987
 31
0.0
  0
LINE
  5
2DF2
330
BF7
100
AcDbEntity
  8
1
100
AcDbLine
 10
125.0186809999999
 20
-1.132773000000002
 30
0.0
 11
123.399255
 21
-0.278300999999999
 31
0.0
  0
LINE
  5
2DF3
330
BF7
100
AcDbEntity
  8
1
100
AcDbLine
 10
126.684931
 20
-1.973957999999999
 30
0.0
 11
125.0186809999999
 21
-1.132773000000002
 31
0.0
  0
LINE
  5
2DF4
330
BF7
100
AcDbEntity
  8
1
100
AcDbLine
 10
128.351157
 20
-2.749000999999998
 30
0.0
 11
126.684931
 21
-1.973957999999999
 31
0.0
  0
LINE
  5
2DF5
330
BF7
100
AcDbEntity
  8
1
100
AcDbLine
 10
129.970462
 20
-3.413459000000003
 30
0.0
 11
128.351157
 21
-2.749000999999998
 31
0.0
  0
LINE
  5
2DF6
330
BF7
100
AcDbEntity
  8
1
100
AcDbLine
 10
131.589767
 20
-3.969875000000001
 30
0.0
 11
129.970462
 21
-3.413459000000003
 31
0.0
  0
LINE
  5
2DF7
330
BF7
100
AcDbEntity
  8
1
100
AcDbLine
 10
133.25609
 20
-4.41008
 30
0.0
 11
131.589767
 21
-3.969875000000001
 31
0.0
  0
LINE
  5
2DF8
330
BF7
100
AcDbEntity
  8
1
100
AcDbLine
 10
134.922412
 20
-4.702511000000003
 30
0.0
 11
133.25609
 21
-4.41008
 31
0.0
  0
LINE
  5
2DF9
330
BF7
100
AcDbEntity
  8
1
100
AcDbLine
 10
136.54179
 20
-4.834594000000001
 30
0.0
 11
134.922412
 21
-4.702511000000003
 31
0.0
  0
LINE
  5
2DFA
330
BF7
100
AcDbEntity
  8
1
100
AcDbLine
 10
138.1611679999999
 20
-4.813592000000003
 30
0.0
 11
136.54179
 21
-4.834594000000001
 31
0.0
  0
LINE
  5
2DFB
330
BF7
100
AcDbEntity
  8
1
100
AcDbLine
 10
139.8275149999999
 20
-4.631728000000001
 30
0.0
 11
138.1611679999999
 21
-4.813592000000003
 31
0.0
  0
LINE
  5
2DFC
330
BF7
100
AcDbEntity
  8
1
100
AcDbLine
 10
141.493862
 20
-4.294628000000002
 30
0.0
 11
139.8275149999999
 21
-4.631728000000001
 31
0.0
  0
LINE
  5
2DFD
330
BF7
100
AcDbEntity
  8
1
100
AcDbLine
 10
143.113288
 20
-3.827902000000001
 30
0.0
 11
141.493862
 21
-4.294628000000002
 31
0.0
  0
LINE
  5
2DFE
330
BF7
100
AcDbEntity
  8
1
100
AcDbLine
 10
144.73269
 20
-3.240011000000001
 30
0.0
 11
143.113288
 21
-3.827902000000001
 31
0.0
  0
LINE
  5
2DFF
330
BF7
100
AcDbEntity
  8
1
100
AcDbLine
 10
144.92311
 20
-3.158587999999998
 30
0.0
 11
144.73269
 21
-3.240011000000001
 31
0.0
  0
LINE
  5
2E00
330
BF7
100
AcDbEntity
  8
1
100
AcDbLine
 10
167.778934
 20
4.709424999999995
 30
0.0
 11
165.627321
 21
4.827891999999998
 31
0.0
  0
LINE
  5
2E01
330
BF7
100
AcDbEntity
  8
1
100
AcDbLine
 10
169.397924
 20
4.432330999999996
 30
0.0
 11
167.778934
 21
4.709424999999995
 31
0.0
  0
LINE
  5
2E02
330
BF7
100
AcDbEntity
  8
1
100
AcDbLine
 10
171.016914
 20
4.014962999999993
 30
0.0
 11
169.397924
 21
4.432330999999996
 31
0.0
  0
LINE
  5
2E03
330
BF7
100
AcDbEntity
  8
1
100
AcDbLine
 10
172.671828
 20
3.456166999999999
 30
0.0
 11
171.016914
 21
4.014962999999993
 31
0.0
  0
LINE
  5
2E04
330
BF7
100
AcDbEntity
  8
1
100
AcDbLine
 10
174.3267409999999
 20
2.783109999999999
 30
0.0
 11
172.671828
 21
3.456166999999999
 31
0.0
  0
LINE
  5
2E05
330
BF7
100
AcDbEntity
  8
1
100
AcDbLine
 10
175.9356059999999
 20
2.039671999999999
 30
0.0
 11
174.3267409999999
 21
2.783109999999999
 31
0.0
  0
LINE
  5
2E06
330
BF7
100
AcDbEntity
  8
1
100
AcDbLine
 10
177.5444949999999
 20
1.232486999999999
 30
0.0
 11
175.9356059999999
 21
2.039671999999999
 31
0.0
  0
LINE
  5
2E07
330
BF7
100
AcDbEntity
  8
1
100
AcDbLine
 10
178.221368
 20
0.8797769999999971
 30
0.0
 11
177.5444949999999
 21
1.232486999999999
 31
0.0
  0
LINE
  5
2E08
330
BF7
100
AcDbEntity
  8
1
100
AcDbLine
 10
19.46211699999999
 20
-4.598558
 30
0.0
 11
18.519103
 21
-4.522043
 31
0.0
  0
LINE
  5
2E09
330
BF7
100
AcDbEntity
  8
1
100
AcDbLine
 10
20.010957
 20
-4.643348999999999
 30
0.0
 11
19.46211699999999
 21
-4.598558
 31
0.0
  0
LINE
  5
2E0A
330
BF7
100
AcDbEntity
  8
1
100
AcDbLine
 10
20.558683
 20
-4.688494000000002
 30
0.0
 11
20.010957
 21
-4.643348999999999
 31
0.0
  0
LINE
  5
2E0B
330
BF7
100
AcDbEntity
  8
1
100
AcDbLine
 10
21.10458
 20
-4.734186000000003
 30
0.0
 11
20.558683
 21
-4.688494000000002
 31
0.0
  0
LINE
  5
2E0C
330
BF7
100
AcDbEntity
  8
1
100
AcDbLine
 10
21.64785999999998
 20
-4.780675000000002
 30
0.0
 11
21.10458
 21
-4.734186000000003
 31
0.0
  0
LINE
  5
2E0D
330
BF7
100
AcDbEntity
  8
1
100
AcDbLine
 10
168.181986
 20
-3.257157999999999
 30
0.0
 11
172.2850539999999
 21
-2.614989
 31
0.0
  0
LINE
  5
2E0E
330
BF7
100
AcDbEntity
  8
1
100
AcDbLine
 10
165.227999
 20
-3.292433999999999
 30
0.0
 11
168.181986
 21
-3.257157999999999
 31
0.0
  0
LINE
  5
2E0F
330
BF7
100
AcDbEntity
  8
1
100
AcDbLine
 10
162.5586369999999
 20
-3.026134000000001
 30
0.0
 11
165.227999
 21
-3.292433999999999
 31
0.0
  0
LINE
  5
2E10
330
BF7
100
AcDbEntity
  8
1
100
AcDbLine
 10
159.889299
 20
-2.499710000000002
 30
0.0
 11
162.5586369999999
 21
-3.026134000000001
 31
0.0
  0
LINE
  5
2E11
330
BF7
100
AcDbEntity
  8
1
100
AcDbLine
 10
157.219622
 20
-1.758284999999999
 30
0.0
 11
159.889299
 21
-2.499710000000002
 31
0.0
  0
LINE
  5
2E12
330
BF7
100
AcDbEntity
  8
1
100
AcDbLine
 10
154.550357
 20
-0.865812999999999
 30
0.0
 11
157.219622
 21
-1.758284999999999
 31
0.0
  0
LINE
  5
2E13
330
BF7
100
AcDbEntity
  8
1
100
AcDbLine
 10
153.1708379999999
 20
-0.3659920000000021
 30
0.0
 11
154.550357
 21
-0.865812999999999
 31
0.0
  0
LINE
  5
2E14
330
BF7
100
AcDbEntity
  8
1
100
AcDbLine
 10
111.356349
 20
-3.244384
 30
0.0
 11
115.254233
 21
-2.626277
 31
0.0
  0
LINE
  5
2E15
330
BF7
100
AcDbEntity
  8
1
100
AcDbLine
 10
108.687532
 20
-3.310168000000003
 30
0.0
 11
111.356349
 21
-3.244384
 31
0.0
  0
LINE
  5
2E16
330
BF7
100
AcDbEntity
  8
1
100
AcDbLine
 10
106.018254
 20
-3.091492000000001
 30
0.0
 11
108.687532
 21
-3.310168000000003
 31
0.0
  0
LINE
  5
2E17
330
BF7
100
AcDbEntity
  8
1
100
AcDbLine
 10
103.300264
 20
-2.596098
 30
0.0
 11
106.018254
 21
-3.091492000000001
 31
0.0
  0
LINE
  5
2E18
330
BF7
100
AcDbEntity
  8
1
100
AcDbLine
 10
100.582443
 20
-1.869434
 30
0.0
 11
103.300264
 21
-2.596098
 31
0.0
  0
LINE
  5
2E19
330
BF7
100
AcDbEntity
  8
1
100
AcDbLine
 10
97.86465800000001
 20
-0.9762930000000054
 30
0.0
 11
100.582443
 21
-1.869434
 31
0.0
  0
LINE
  5
2E1A
330
BF7
100
AcDbEntity
  8
1
100
AcDbLine
 10
96.17816900000001
 20
-0.3680939999999992
 30
0.0
 11
97.86465800000001
 21
-0.9762930000000054
 31
0.0
  0
LINE
  5
2E1B
330
BF7
100
AcDbEntity
  8
1
100
AcDbLine
 10
54.76778599999999
 20
-3.208996000000001
 30
0.0
 11
58.26918300000001
 21
-2.628244999999999
 31
0.0
  0
LINE
  5
2E1C
330
BF7
100
AcDbEntity
  8
1
100
AcDbLine
 10
52.05000099999999
 20
-3.318200999999998
 30
0.0
 11
54.76778599999999
 21
-3.208996000000001
 31
0.0
  0
LINE
  5
2E1D
330
BF7
100
AcDbEntity
  8
1
100
AcDbLine
 10
49.33215600000001
 20
-3.131787000000001
 30
0.0
 11
52.05000099999999
 21
-3.318200999999998
 31
0.0
  0
LINE
  5
2E1E
330
BF7
100
AcDbEntity
  8
1
100
AcDbLine
 10
46.61418999999999
 20
-2.666303000000001
 30
0.0
 11
49.33215600000001
 21
-3.131787000000001
 31
0.0
  0
LINE
  5
2E1F
330
BF7
100
AcDbEntity
  8
1
100
AcDbLine
 10
43.89617499999999
 20
-1.963275000000002
 30
0.0
 11
46.61418999999999
 21
-2.666303000000001
 31
0.0
  0
LINE
  5
2E20
330
BF7
100
AcDbEntity
  8
1
100
AcDbLine
 10
41.22689699999999
 20
-1.102230000000002
 30
0.0
 11
43.89617499999999
 21
-1.963275000000002
 31
0.0
  0
LINE
  5
2E21
330
BF7
100
AcDbEntity
  8
1
100
AcDbLine
 10
39.22068499999999
 20
-0.3838900000000009
 30
0.0
 11
41.22689699999999
 21
-1.102230000000002
 31
0.0
  0
LINE
  5
2E22
330
BF7
100
AcDbEntity
  8
1
100
AcDbLine
 10
26.44855999999999
 20
4.524021999999995
 30
0.0
 11
23.10645600000001
 21
4.803823000000001
 31
0.0
  0
LINE
  5
2E23
330
BF7
100
AcDbEntity
  8
1
100
AcDbLine
 10
28.11498
 20
4.130850999999998
 30
0.0
 11
26.44855999999999
 21
4.524021999999995
 31
0.0
  0
LINE
  5
2E24
330
BF7
100
AcDbEntity
  8
1
100
AcDbLine
 10
29.78140000000001
 20
3.599232999999998
 30
0.0
 11
28.11498
 21
4.130850999999998
 31
0.0
  0
LINE
  5
2E25
330
BF7
100
AcDbEntity
  8
1
100
AcDbLine
 10
31.40088599999999
 20
2.965941999999998
 30
0.0
 11
29.78140000000001
 21
3.599232999999998
 31
0.0
  0
LINE
  5
2E26
330
BF7
100
AcDbEntity
  8
1
100
AcDbLine
 10
33.02038499999999
 20
2.238750999999993
 30
0.0
 11
31.40088599999999
 21
2.965941999999998
 31
0.0
  0
LINE
  5
2E27
330
BF7
100
AcDbEntity
  8
1
100
AcDbLine
 10
34.68669600000001
 20
1.416199999999995
 30
0.0
 11
33.02038499999999
 21
2.238750999999993
 31
0.0
  0
LINE
  5
2E28
330
BF7
100
AcDbEntity
  8
1
100
AcDbLine
 10
36.352994
 20
0.5461829999999958
 30
0.0
 11
34.68669600000001
 21
1.416199999999995
 31
0.0
  0
LINE
  5
2E29
330
BF7
100
AcDbEntity
  8
1
100
AcDbLine
 10
37.972372
 20
-0.3172640000000015
 30
0.0
 11
36.352994
 21
0.5461829999999958
 31
0.0
  0
LINE
  5
2E2A
330
BF7
100
AcDbEntity
  8
1
100
AcDbLine
 10
39.59173799999998
 20
-1.170667000000001
 30
0.0
 11
37.972372
 21
-0.3172640000000015
 31
0.0
  0
LINE
  5
2E2B
330
BF7
100
AcDbEntity
  8
1
100
AcDbLine
 10
41.25793999999998
 20
-2.009484
 30
0.0
 11
39.59173799999998
 21
-1.170667000000001
 31
0.0
  0
LINE
  5
2E2C
330
BF7
100
AcDbEntity
  8
1
100
AcDbLine
 10
42.924153
 20
-2.780975999999999
 30
0.0
 11
41.25793999999998
 21
-2.009484
 31
0.0
  0
LINE
  5
2E2D
330
BF7
100
AcDbEntity
  8
1
100
AcDbLine
 10
44.54342200000001
 20
-3.440986000000001
 30
0.0
 11
42.924153
 21
-2.780975999999999
 31
0.0
  0
LINE
  5
2E2E
330
BF7
100
AcDbEntity
  8
1
100
AcDbLine
 10
46.16269099999998
 20
-3.992073000000001
 30
0.0
 11
44.54342200000001
 21
-3.440986000000001
 31
0.0
  0
LINE
  5
2E2F
330
BF7
100
AcDbEntity
  8
1
100
AcDbLine
 10
47.82922000000001
 20
-4.426128000000002
 30
0.0
 11
46.16269099999998
 21
-3.992073000000001
 31
0.0
  0
LINE
  5
2E30
330
BF7
100
AcDbEntity
  8
1
100
AcDbLine
 10
49.495748
 20
-4.711810000000003
 30
0.0
 11
47.82922000000001
 21
-4.426128000000002
 31
0.0
  0
LINE
  5
2E31
330
BF7
100
AcDbEntity
  8
1
100
AcDbLine
 10
51.11531999999998
 20
-4.836973000000003
 30
0.0
 11
49.495748
 21
-4.711810000000003
 31
0.0
  0
LINE
  5
2E32
330
BF7
100
AcDbEntity
  8
1
100
AcDbLine
 10
52.73487899999999
 20
-4.808961000000002
 30
0.0
 11
51.11531999999998
 21
-4.836973000000003
 31
0.0
  0
LINE
  5
2E33
330
BF7
100
AcDbEntity
  8
1
100
AcDbLine
 10
54.401057
 20
-4.620041
 30
0.0
 11
52.73487899999999
 21
-4.808961000000002
 31
0.0
  0
LINE
  5
2E34
330
BF7
100
AcDbEntity
  8
1
100
AcDbLine
 10
56.06723399999999
 20
-4.276346
 30
0.0
 11
54.401057
 21
-4.620041
 31
0.0
  0
LINE
  5
2E35
330
BF7
100
AcDbEntity
  8
1
100
AcDbLine
 10
57.68647900000001
 20
-3.803820999999998
 30
0.0
 11
56.06723399999999
 21
-4.276346
 31
0.0
  0
LINE
  5
2E36
330
BF7
100
AcDbEntity
  8
1
100
AcDbLine
 10
59.30573599999998
 20
-3.210904000000001
 30
0.0
 11
57.68647900000001
 21
-3.803820999999998
 31
0.0
  0
LINE
  5
2E37
330
BF7
100
AcDbEntity
  8
1
100
AcDbLine
 10
59.429856
 20
-3.157510000000001
 30
0.0
 11
59.30573599999998
 21
-3.210904000000001
 31
0.0
  0
LINE
  5
2E38
330
BF7
100
AcDbEntity
  8
1
100
AcDbLine
 10
82.35225699999999
 20
4.700058999999995
 30
0.0
 11
80.12917299999998
 21
4.826599
 31
0.0
  0
LINE
  5
2E39
330
BF7
100
AcDbEntity
  8
1
100
AcDbLine
 10
83.97153799999998
 20
4.416300999999997
 30
0.0
 11
82.35225699999999
 21
4.700058999999995
 31
0.0
  0
LINE
  5
2E3A
330
BF7
100
AcDbEntity
  8
1
100
AcDbLine
 10
85.590819
 20
3.992740999999995
 30
0.0
 11
83.97153799999998
 21
4.416300999999997
 31
0.0
  0
LINE
  5
2E3B
330
BF7
100
AcDbEntity
  8
1
100
AcDbLine
 10
87.25709299999998
 20
3.424098999999998
 30
0.0
 11
85.590819
 21
3.992740999999995
 31
0.0
  0
LINE
  5
2E3C
330
BF7
100
AcDbEntity
  8
1
100
AcDbLine
 10
88.923368
 20
2.740704
 30
0.0
 11
87.25709299999998
 21
3.424098999999998
 31
0.0
  0
LINE
  5
2E3D
330
BF7
100
AcDbEntity
  8
1
100
AcDbLine
 10
90.54272099999998
 20
1.987645999999997
 30
0.0
 11
88.923368
 21
2.740704
 31
0.0
  0
LINE
  5
2E3E
330
BF7
100
AcDbEntity
  8
1
100
AcDbLine
 10
92.16205100000001
 20
1.171664999999997
 30
0.0
 11
90.54272099999998
 21
1.987645999999997
 31
0.0
  0
LINE
  5
2E3F
330
BF7
100
AcDbEntity
  8
1
100
AcDbLine
 10
93.82822799999999
 20
0.2933519999999987
 30
0.0
 11
92.16205100000001
 21
1.171664999999997
 31
0.0
  0
LINE
  5
2E40
330
BF7
100
AcDbEntity
  8
1
100
AcDbLine
 10
95.49440500000001
 20
-0.5947940000000003
 30
0.0
 11
93.82822799999999
 21
0.2933519999999987
 31
0.0
  0
LINE
  5
2E41
330
BF7
100
AcDbEntity
  8
1
100
AcDbLine
 10
97.113638
 20
-1.438952
 30
0.0
 11
95.49440500000001
 21
-0.5947940000000003
 31
0.0
  0
LINE
  5
2E42
330
BF7
100
AcDbEntity
  8
1
100
AcDbLine
 10
98.732871
 20
-2.237574000000002
 30
0.0
 11
97.113638
 21
-1.438952
 31
0.0
  0
LINE
  5
2E43
330
BF7
100
AcDbEntity
  8
1
100
AcDbLine
 10
100.399181
 20
-2.984663999999998
 30
0.0
 11
98.732871
 21
-2.237574000000002
 31
0.0
  0
LINE
  5
2E44
330
BF7
100
AcDbEntity
  8
1
100
AcDbLine
 10
102.065528
 20
-3.631696000000001
 30
0.0
 11
100.399181
 21
-2.984663999999998
 31
0.0
  0
LINE
  5
2E45
330
BF7
100
AcDbEntity
  8
1
100
AcDbLine
 10
103.684918
 20
-4.143151000000003
 30
0.0
 11
102.065528
 21
-3.631696000000001
 31
0.0
  0
LINE
  5
2E46
330
BF7
100
AcDbEntity
  8
1
100
AcDbLine
 10
105.304284
 20
-4.523451000000001
 30
0.0
 11
103.684918
 21
-4.143151000000003
 31
0.0
  0
LINE
  5
2E47
330
BF7
100
AcDbEntity
  8
1
100
AcDbLine
 10
106.970534
 20
-4.764028000000003
 30
0.0
 11
105.304284
 21
-4.523451000000001
 31
0.0
  0
LINE
  5
2E48
330
BF7
100
AcDbEntity
  8
1
100
AcDbLine
 10
108.636808
 20
-4.844976000000001
 30
0.0
 11
106.970534
 21
-4.764028000000003
 31
0.0
  0
LINE
  5
2E49
330
BF7
100
AcDbEntity
  8
1
100
AcDbLine
 10
110.25615
 20
-4.766865000000001
 30
0.0
 11
108.636808
 21
-4.844976000000001
 31
0.0
  0
LINE
  5
2E4A
330
BF7
100
AcDbEntity
  8
1
100
AcDbLine
 10
111.875491
 20
-4.537843000000001
 30
0.0
 11
110.25615
 21
-4.766865000000001
 31
0.0
  0
LINE
  5
2E4B
330
BF7
100
AcDbEntity
  8
1
100
AcDbLine
 10
113.541862
 20
-4.151114000000003
 30
0.0
 11
111.875491
 21
-4.537843000000001
 31
0.0
  0
LINE
  5
2E4C
330
BF7
100
AcDbEntity
  8
1
100
AcDbLine
 10
115.208209
 20
-3.625280000000003
 30
0.0
 11
113.541862
 21
-4.151114000000003
 31
0.0
  0
LINE
  5
2E4D
330
BF7
100
AcDbEntity
  8
1
100
AcDbLine
 10
116.417195
 20
-3.156070999999999
 30
0.0
 11
115.208209
 21
-3.625280000000003
 31
0.0
  0
LINE
  5
2E4E
330
BF7
100
AcDbEntity
  8
1
100
AcDbLine
 10
139.8275149999999
 20
4.631727999999995
 30
0.0
 11
137.126299
 21
4.827013999999998
 31
0.0
  0
LINE
  5
2E4F
330
BF7
100
AcDbEntity
  8
1
100
AcDbLine
 10
141.493862
 20
4.294626999999998
 30
0.0
 11
139.8275149999999
 21
4.631727999999995
 31
0.0
  0
LINE
  5
2E50
330
BF7
100
AcDbEntity
  8
1
100
AcDbLine
 10
143.113288
 20
3.827900999999997
 30
0.0
 11
141.493862
 21
4.294626999999998
 31
0.0
  0
LINE
  5
2E51
330
BF7
100
AcDbEntity
  8
1
100
AcDbLine
 10
144.73269
 20
3.240009999999998
 30
0.0
 11
143.113288
 21
3.827900999999997
 31
0.0
  0
LINE
  5
2E52
330
BF7
100
AcDbEntity
  8
1
100
AcDbLine
 10
146.3989399999999
 20
2.527444999999993
 30
0.0
 11
144.73269
 21
3.240009999999998
 31
0.0
  0
LINE
  5
2E53
330
BF7
100
AcDbEntity
  8
1
100
AcDbLine
 10
148.0651659999999
 20
1.730166999999998
 30
0.0
 11
146.3989399999999
 21
2.527444999999993
 31
0.0
  0
LINE
  5
2E54
330
BF7
100
AcDbEntity
  8
1
100
AcDbLine
 10
149.6844229999999
 20
0.8990800000000014
 30
0.0
 11
148.0651659999999
 21
1.730166999999998
 31
0.0
  0
LINE
  5
2E55
330
BF7
100
AcDbEntity
  8
1
100
AcDbLine
 10
151.3037279999999
 20
0.0395669999999981
 30
0.0
 11
149.6844229999999
 21
0.8990800000000014
 31
0.0
  0
LINE
  5
2E56
330
BF7
100
AcDbEntity
  8
1
100
AcDbLine
 10
152.970148
 20
-0.8459680000000027
 30
0.0
 11
151.3037279999999
 21
0.0395669999999981
 31
0.0
  0
LINE
  5
2E57
330
BF7
100
AcDbEntity
  8
1
100
AcDbLine
 10
154.636567
 20
-1.703180000000003
 30
0.0
 11
152.970148
 21
-0.8459680000000027
 31
0.0
  0
LINE
  5
2E58
330
BF7
100
AcDbEntity
  8
1
100
AcDbLine
 10
156.256018
 20
-2.481400000000003
 30
0.0
 11
154.636567
 21
-1.703180000000003
 31
0.0
  0
LINE
  5
2E59
330
BF7
100
AcDbEntity
  8
1
100
AcDbLine
 10
157.875444
 20
-3.181021000000001
 30
0.0
 11
156.256018
 21
-2.481400000000003
 31
0.0
  0
LINE
  5
2E5A
330
BF7
100
AcDbEntity
  8
1
100
AcDbLine
 10
159.5418399999999
 20
-3.794753
 30
0.0
 11
157.875444
 21
-3.181021000000001
 31
0.0
  0
LINE
  5
2E5B
330
BF7
100
AcDbEntity
  8
1
100
AcDbLine
 10
161.208259
 20
-4.281301999999999
 30
0.0
 11
159.5418399999999
 21
-3.794753
 31
0.0
  0
LINE
  5
2E5C
330
BF7
100
AcDbEntity
  8
1
100
AcDbLine
 10
162.8276849999999
 20
-4.615720999999999
 30
0.0
 11
161.208259
 21
-4.281301999999999
 31
0.0
  0
LINE
  5
2E5D
330
BF7
100
AcDbEntity
  8
1
100
AcDbLine
 10
164.447136
 20
-4.80401
 30
0.0
 11
162.8276849999999
 21
-4.615720999999999
 31
0.0
  0
LINE
  5
2E5E
330
BF7
100
AcDbEntity
  8
1
100
AcDbLine
 10
166.113047
 20
-4.837721000000001
 30
0.0
 11
164.447136
 21
-4.80401
 31
0.0
  0
LINE
  5
2E5F
330
BF7
100
AcDbEntity
  8
1
100
AcDbLine
 10
167.778934
 20
-4.709427000000001
 30
0.0
 11
166.113047
 21
-4.837721000000001
 31
0.0
  0
LINE
  5
2E60
330
BF7
100
AcDbEntity
  8
1
100
AcDbLine
 10
169.397924
 20
-4.432332000000001
 30
0.0
 11
167.778934
 21
-4.709427000000001
 31
0.0
  0
LINE
  5
2E61
330
BF7
100
AcDbEntity
  8
1
100
AcDbLine
 10
171.016914
 20
-4.014964000000001
 30
0.0
 11
169.397924
 21
-4.432332000000001
 31
0.0
  0
LINE
  5
2E62
330
BF7
100
AcDbEntity
  8
1
100
AcDbLine
 10
172.671828
 20
-3.456165000000001
 30
0.0
 11
171.016914
 21
-4.014964000000001
 31
0.0
  0
LINE
  5
2E63
330
BF7
100
AcDbEntity
  8
1
100
AcDbLine
 10
173.409428
 20
-3.156180000000001
 30
0.0
 11
172.671828
 21
-3.456165000000001
 31
0.0
  0
LINE
  5
2E64
330
BF7
100
AcDbEntity
  8
1
100
AcDbLine
 10
154.3438769999999
 20
-5.099810000000001
 30
0.0
 11
157.074258
 21
-4.845047
 31
0.0
  0
LINE
  5
2E65
330
BF7
100
AcDbEntity
  8
1
100
AcDbLine
 10
152.806471
 20
-5.034163000000003
 30
0.0
 11
154.3438769999999
 21
-5.099810000000001
 31
0.0
  0
LINE
  5
2E66
330
BF7
100
AcDbEntity
  8
1
100
AcDbLine
 10
151.269089
 20
-4.824282000000002
 30
0.0
 11
152.806471
 21
-5.034163000000003
 31
0.0
  0
LINE
  5
2E67
330
BF7
100
AcDbEntity
  8
1
100
AcDbLine
 10
149.7316829999999
 20
-4.476176000000001
 30
0.0
 11
151.269089
 21
-4.824282000000002
 31
0.0
  0
LINE
  5
2E68
330
BF7
100
AcDbEntity
  8
1
100
AcDbLine
 10
148.194277
 20
-3.999823999999999
 30
0.0
 11
149.7316829999999
 21
-4.476176000000001
 31
0.0
  0
LINE
  5
2E69
330
BF7
100
AcDbEntity
  8
1
100
AcDbLine
 10
146.646212
 20
-3.404400000000006
 30
0.0
 11
148.194277
 21
-3.999823999999999
 31
0.0
  0
LINE
  5
2E6A
330
BF7
100
AcDbEntity
  8
1
100
AcDbLine
 10
145.1088059999999
 20
-2.71517
 30
0.0
 11
146.646212
 21
-3.404400000000006
 31
0.0
  0
LINE
  5
2E6B
330
BF7
100
AcDbEntity
  8
1
100
AcDbLine
 10
143.5714
 20
-1.948136
 30
0.0
 11
145.1088059999999
 21
-2.71517
 31
0.0
  0
LINE
  5
2E6C
330
BF7
100
AcDbEntity
  8
1
100
AcDbLine
 10
142.033994
 20
-1.125300000000005
 30
0.0
 11
143.5714
 21
-1.948136
 31
0.0
  0
LINE
  5
2E6D
330
BF7
100
AcDbEntity
  8
1
100
AcDbLine
 10
140.485929
 20
-0.2642209999999991
 30
0.0
 11
142.033994
 21
-1.125300000000005
 31
0.0
  0
LINE
  5
2E6E
330
BF7
100
AcDbEntity
  8
1
100
AcDbLine
 10
138.948523
 20
0.5985719999999973
 30
0.0
 11
140.485929
 21
-0.2642209999999991
 31
0.0
  0
LINE
  5
2E6F
330
BF7
100
AcDbEntity
  8
1
100
AcDbLine
 10
137.400459
 20
1.449972999999999
 30
0.0
 11
138.948523
 21
0.5985719999999973
 31
0.0
  0
LINE
  5
2E70
330
BF7
100
AcDbEntity
  8
1
100
AcDbLine
 10
135.863053
 20
2.253866999999999
 30
0.0
 11
137.400459
 21
1.449972999999999
 31
0.0
  0
LINE
  5
2E71
330
BF7
100
AcDbEntity
  8
1
100
AcDbLine
 10
134.325647
 20
2.993186999999998
 30
0.0
 11
135.863053
 21
2.253866999999999
 31
0.0
  0
LINE
  5
2E72
330
BF7
100
AcDbEntity
  8
1
100
AcDbLine
 10
132.777582
 20
3.650943999999995
 30
0.0
 11
134.325647
 21
2.993186999999998
 31
0.0
  0
LINE
  5
2E73
330
BF7
100
AcDbEntity
  8
1
100
AcDbLine
 10
131.240176
 20
4.199235999999999
 30
0.0
 11
132.777582
 21
3.650943999999995
 31
0.0
  0
LINE
  5
2E74
330
BF7
100
AcDbEntity
  8
1
100
AcDbLine
 10
129.70277
 20
4.627213999999995
 30
0.0
 11
131.240176
 21
4.199235999999999
 31
0.0
  0
LINE
  5
2E75
330
BF7
100
AcDbEntity
  8
1
100
AcDbLine
 10
128.165364
 20
4.922617000000001
 30
0.0
 11
129.70277
 21
4.627213999999995
 31
0.0
  0
LINE
  5
2E76
330
BF7
100
AcDbEntity
  8
1
100
AcDbLine
 10
126.617299
 20
5.077546999999995
 30
0.0
 11
128.165364
 21
4.922617000000001
 31
0.0
  0
LINE
  5
2E77
330
BF7
100
AcDbEntity
  8
1
100
AcDbLine
 10
125.763354
 20
5.081927999999996
 30
0.0
 11
126.617299
 21
5.077546999999995
 31
0.0
  0
LINE
  5
2E78
330
BF7
100
AcDbEntity
  8
1
100
AcDbLine
 10
97.32128000000002
 20
-5.099904000000002
 30
0.0
 11
100.080414
 21
-4.844999000000001
 31
0.0
  0
LINE
  5
2E79
330
BF7
100
AcDbEntity
  8
1
100
AcDbLine
 10
95.77321600000001
 20
-5.031134000000001
 30
0.0
 11
97.32128000000002
 21
-5.099904000000002
 31
0.0
  0
LINE
  5
2E7A
330
BF7
100
AcDbEntity
  8
1
100
AcDbLine
 10
94.23580999999996
 20
-4.818182000000002
 30
0.0
 11
95.77321600000001
 21
-5.031134000000001
 31
0.0
  0
LINE
  5
2E7B
330
BF7
100
AcDbEntity
  8
1
100
AcDbLine
 10
92.68773299999999
 20
-4.464285000000002
 30
0.0
 11
94.23580999999996
 21
-4.818182000000002
 31
0.0
  0
LINE
  5
2E7C
330
BF7
100
AcDbEntity
  8
1
100
AcDbLine
 10
91.15033899999998
 20
-3.984449000000001
 30
0.0
 11
92.68773299999999
 21
-4.464285000000002
 31
0.0
  0
LINE
  5
2E7D
330
BF7
100
AcDbEntity
  8
1
100
AcDbLine
 10
89.60226299999998
 20
-3.385968999999998
 30
0.0
 11
91.15033899999998
 21
-3.984449000000001
 31
0.0
  0
LINE
  5
2E7E
330
BF7
100
AcDbEntity
  8
1
100
AcDbLine
 10
88.06485700000001
 20
-2.694220000000001
 30
0.0
 11
89.60226299999998
 21
-3.385968999999998
 31
0.0
  0
LINE
  5
2E7F
330
BF7
100
AcDbEntity
  8
1
100
AcDbLine
 10
86.51678000000002
 20
-1.919728000000002
 30
0.0
 11
88.06485700000001
 21
-2.694220000000001
 31
0.0
  0
LINE
  5
2E80
330
BF7
100
AcDbEntity
  8
1
100
AcDbLine
 10
84.97938599999997
 20
-1.095326
 30
0.0
 11
86.51678000000002
 21
-1.919728000000002
 31
0.0
  0
LINE
  5
2E81
330
BF7
100
AcDbEntity
  8
1
100
AcDbLine
 10
83.43130999999997
 20
-0.2335540000000016
 30
0.0
 11
84.97938599999997
 21
-1.095326
 31
0.0
  0
LINE
  5
2E82
330
BF7
100
AcDbEntity
  8
1
100
AcDbLine
 10
81.89390300000003
 20
0.629056999999996
 30
0.0
 11
83.43130999999997
 21
-0.2335540000000016
 31
0.0
  0
LINE
  5
2E83
330
BF7
100
AcDbEntity
  8
1
100
AcDbLine
 10
80.34582699999999
 20
1.479385999999997
 30
0.0
 11
81.89390300000003
 21
0.629056999999996
 31
0.0
  0
LINE
  5
2E84
330
BF7
100
AcDbEntity
  8
1
100
AcDbLine
 10
78.80843299999998
 20
2.281371999999997
 30
0.0
 11
80.34582699999999
 21
1.479385999999997
 31
0.0
  0
LINE
  5
2E85
330
BF7
100
AcDbEntity
  8
1
100
AcDbLine
 10
77.26035600000002
 20
3.022835999999998
 30
0.0
 11
78.80843299999998
 21
2.281371999999997
 31
0.0
  0
LINE
  5
2E86
330
BF7
100
AcDbEntity
  8
1
100
AcDbLine
 10
75.72295000000003
 20
3.672314999999997
 30
0.0
 11
77.26035600000002
 21
3.022835999999998
 31
0.0
  0
LINE
  5
2E87
330
BF7
100
AcDbEntity
  8
1
100
AcDbLine
 10
74.174874
 20
4.219956000000003
 30
0.0
 11
75.72295000000003
 21
3.672314999999997
 31
0.0
  0
LINE
  5
2E88
330
BF7
100
AcDbEntity
  8
1
100
AcDbLine
 10
72.63747999999998
 20
4.642528999999996
 30
0.0
 11
74.174874
 21
4.219956000000003
 31
0.0
  0
LINE
  5
2E89
330
BF7
100
AcDbEntity
  8
1
100
AcDbLine
 10
71.10007399999997
 20
4.932085999999998
 30
0.0
 11
72.63747999999998
 21
4.642528999999996
 31
0.0
  0
LINE
  5
2E8A
330
BF7
100
AcDbEntity
  8
1
100
AcDbLine
 10
69.55199699999998
 20
5.080856000000004
 30
0.0
 11
71.10007399999997
 21
4.932085999999998
 31
0.0
  0
LINE
  5
2E8B
330
BF7
100
AcDbEntity
  8
1
100
AcDbLine
 10
68.76682200000001
 20
5.081710000000001
 30
0.0
 11
69.55199699999998
 21
5.080856000000004
 31
0.0
  0
LINE
  5
2E8C
330
BF7
100
AcDbEntity
  8
1
100
AcDbLine
 10
40.26666099999999
 20
-5.099998999999999
 30
0.0
 11
43.08924699999997
 21
-4.844894000000002
 31
0.0
  0
LINE
  5
2E8D
330
BF7
100
AcDbEntity
  8
1
100
AcDbLine
 10
38.72926699999998
 20
-5.027028000000001
 30
0.0
 11
40.26666099999999
 21
-5.099998999999999
 31
0.0
  0
LINE
  5
2E8E
330
BF7
100
AcDbEntity
  8
1
100
AcDbLine
 10
37.19185999999999
 20
-4.810025000000003
 30
0.0
 11
38.72926699999998
 21
-5.027028000000001
 31
0.0
  0
LINE
  5
2E8F
330
BF7
100
AcDbEntity
  8
1
100
AcDbLine
 10
35.64378400000001
 20
-4.452283000000001
 30
0.0
 11
37.19185999999999
 21
-4.810025000000003
 31
0.0
  0
LINE
  5
2E90
330
BF7
100
AcDbEntity
  8
1
100
AcDbLine
 10
34.10638999999999
 20
-3.968979
 30
0.0
 11
35.64378400000001
 21
-4.452283000000001
 31
0.0
  0
LINE
  5
2E91
330
BF7
100
AcDbEntity
  8
1
100
AcDbLine
 10
32.55831299999999
 20
-3.367453000000001
 30
0.0
 11
34.10638999999999
 21
-3.968979
 31
0.0
  0
LINE
  5
2E92
330
BF7
100
AcDbEntity
  8
1
100
AcDbLine
 10
31.02090700000001
 20
-2.673218999999999
 30
0.0
 11
32.55831299999999
 21
-3.367453000000001
 31
0.0
  0
LINE
  5
2E93
330
BF7
100
AcDbEntity
  8
1
100
AcDbLine
 10
29.472831
 20
-1.896818999999999
 30
0.0
 11
31.02090700000001
 21
-2.673218999999999
 31
0.0
  0
LINE
  5
2E94
330
BF7
100
AcDbEntity
  8
1
100
AcDbLine
 10
27.93543699999999
 20
-1.071185000000002
 30
0.0
 11
29.472831
 21
-1.896818999999999
 31
0.0
  0
LINE
  5
2E95
330
BF7
100
AcDbEntity
  8
1
100
AcDbLine
 10
26.38735999999999
 20
-0.2088680000000025
 30
0.0
 11
27.93543699999999
 21
-1.071185000000002
 31
0.0
  0
LINE
  5
2E96
330
BF7
100
AcDbEntity
  8
1
100
AcDbLine
 10
24.849954
 20
0.6535680000000001
 30
0.0
 11
26.38735999999999
 21
-0.2088680000000025
 31
0.0
  0
LINE
  5
2E97
330
BF7
100
AcDbEntity
  8
1
100
AcDbLine
 10
23.30188999999998
 20
1.503012999999995
 30
0.0
 11
24.849954
 21
0.6535680000000001
 31
0.0
  0
LINE
  5
2E98
330
BF7
100
AcDbEntity
  8
1
100
AcDbLine
 10
21.76448300000001
 20
2.303443000000001
 30
0.0
 11
23.30188999999998
 21
1.503012999999995
 31
0.0
  0
LINE
  5
2E99
330
BF7
100
AcDbEntity
  8
1
100
AcDbLine
 10
20.21638300000001
 20
3.042704999999997
 30
0.0
 11
21.76448300000001
 21
2.303443000000001
 31
0.0
  0
LINE
  5
2E9A
330
BF7
100
AcDbEntity
  8
1
100
AcDbLine
 10
18.67896499999998
 20
3.689431999999996
 30
0.0
 11
20.21638300000001
 21
3.042704999999997
 31
0.0
  0
LINE
  5
2E9B
330
BF7
100
AcDbEntity
  8
1
100
AcDbLine
 10
17.12808999999998
 20
4.234668999999995
 30
0.0
 11
18.67896499999998
 21
3.689431999999996
 31
0.0
  0
LINE
  5
2E9C
330
BF7
100
AcDbEntity
  8
1
100
AcDbLine
 10
15.58795900000001
 20
4.653981
 30
0.0
 11
17.12808999999998
 21
4.234668999999995
 31
0.0
  0
LINE
  5
2E9D
330
BF7
100
AcDbEntity
  8
1
100
AcDbLine
 10
13.55248499999999
 20
5.001400999999994
 30
0.0
 11
15.58795900000001
 21
4.653981
 31
0.0
  0
LINE
  5
2E9E
330
BF7
100
AcDbEntity
  8
1
100
AcDbLine
 10
11.76683800000001
 20
5.087541999999999
 30
0.0
 11
13.55248499999999
 21
5.001400999999994
 31
0.0
  0
LINE
  5
2E9F
330
BF7
100
AcDbEntity
  8
1
100
AcDbLine
 10
179.97315
 20
5.018377999999998
 30
0.0
 11
181.59839
 21
5.099998999999995
 31
0.0
  0
LINE
  5
2EA0
330
BF7
100
AcDbEntity
  8
1
100
AcDbLine
 10
178.360216
 20
4.778563999999994
 30
0.0
 11
179.97315
 21
5.018377999999998
 31
0.0
  0
LINE
  5
2EA1
330
BF7
100
AcDbEntity
  8
1
100
AcDbLine
 10
176.760192
 20
4.391497000000001
 30
0.0
 11
178.360216
 21
4.778563999999994
 31
0.0
  0
LINE
  5
2EA2
330
BF7
100
AcDbEntity
  8
1
100
AcDbLine
 10
175.160193
 20
3.868644999999993
 30
0.0
 11
176.760192
 21
4.391497000000001
 31
0.0
  0
LINE
  5
2EA3
330
BF7
100
AcDbEntity
  8
1
100
AcDbLine
 10
173.6052489999999
 20
3.244939999999998
 30
0.0
 11
175.160193
 21
3.868644999999993
 31
0.0
  0
LINE
  5
2EA4
330
BF7
100
AcDbEntity
  8
1
100
AcDbLine
 10
173.409307
 20
3.154411000000003
 30
0.0
 11
173.6052489999999
 21
3.244939999999998
 31
0.0
  0
LINE
  5
2EA5
330
BF7
100
AcDbEntity
  8
1
100
AcDbLine
 10
149.922078
 20
-4.790528000000001
 30
0.0
 11
153.097538
 21
-5.098809000000001
 31
0.0
  0
LINE
  5
2EA6
330
BF7
100
AcDbEntity
  8
1
100
AcDbLine
 10
148.367134
 20
-4.421792000000002
 30
0.0
 11
149.922078
 21
-4.790528000000001
 31
0.0
  0
LINE
  5
2EA7
330
BF7
100
AcDbEntity
  8
1
100
AcDbLine
 10
146.8122389999999
 20
-3.923936000000004
 30
0.0
 11
148.367134
 21
-4.421792000000002
 31
0.0
  0
LINE
  5
2EA8
330
BF7
100
AcDbEntity
  8
1
100
AcDbLine
 10
145.2122639999999
 20
-3.291192000000001
 30
0.0
 11
146.8122389999999
 21
-3.923936000000004
 31
0.0
  0
LINE
  5
2EA9
330
BF7
100
AcDbEntity
  8
1
100
AcDbLine
 10
143.612289
 20
-2.556707999999999
 30
0.0
 11
145.2122639999999
 21
-3.291192000000001
 31
0.0
  0
LINE
  5
2EAA
330
BF7
100
AcDbEntity
  8
1
100
AcDbLine
 10
142.057345
 20
-1.766506000000003
 30
0.0
 11
143.612289
 21
-2.556707999999999
 31
0.0
  0
LINE
  5
2EAB
330
BF7
100
AcDbEntity
  8
1
100
AcDbLine
 10
140.5023769999999
 20
-0.9247240000000047
 30
0.0
 11
142.057345
 21
-1.766506000000003
 31
0.0
  0
LINE
  5
2EAC
330
BF7
100
AcDbEntity
  8
1
100
AcDbLine
 10
138.902378
 20
-0.0303329999999988
 30
0.0
 11
140.5023769999999
 21
-0.9247240000000047
 31
0.0
  0
LINE
  5
2EAD
330
BF7
100
AcDbEntity
  8
1
100
AcDbLine
 10
137.30233
 20
0.8649589999999989
 30
0.0
 11
138.902378
 21
-0.0303329999999988
 31
0.0
  0
LINE
  5
2EAE
330
BF7
100
AcDbEntity
  8
1
100
AcDbLine
 10
135.747338
 20
1.709395999999997
 30
0.0
 11
137.30233
 21
0.8649589999999989
 31
0.0
  0
LINE
  5
2EAF
330
BF7
100
AcDbEntity
  8
1
100
AcDbLine
 10
134.192394
 20
2.503990999999999
 30
0.0
 11
135.747338
 21
1.709395999999997
 31
0.0
  0
LINE
  5
2EB0
330
BF7
100
AcDbEntity
  8
1
100
AcDbLine
 10
132.592322
 20
3.244672999999998
 30
0.0
 11
134.192394
 21
2.503990999999999
 31
0.0
  0
LINE
  5
2EB1
330
BF7
100
AcDbEntity
  8
1
100
AcDbLine
 10
130.9922019999999
 20
3.884995999999993
 30
0.0
 11
132.592322
 21
3.244672999999998
 31
0.0
  0
LINE
  5
2EB2
330
BF7
100
AcDbEntity
  8
1
100
AcDbLine
 10
129.4370639999999
 20
4.391381000000001
 30
0.0
 11
130.9922019999999
 21
3.884995999999993
 31
0.0
  0
LINE
  5
2EB3
330
BF7
100
AcDbEntity
  8
1
100
AcDbLine
 10
127.881951
 20
4.769516999999999
 30
0.0
 11
129.4370639999999
 21
4.391381000000001
 31
0.0
  0
LINE
  5
2EB4
330
BF7
100
AcDbEntity
  8
1
100
AcDbLine
 10
126.281879
 20
5.012115999999998
 30
0.0
 11
127.881951
 21
4.769516999999999
 31
0.0
  0
LINE
  5
2EB5
330
BF7
100
AcDbEntity
  8
1
100
AcDbLine
 10
124.68188
 20
5.099783999999998
 30
0.0
 11
126.281879
 21
5.012115999999998
 31
0.0
  0
LINE
  5
2EB6
330
BF7
100
AcDbEntity
  8
1
100
AcDbLine
 10
123.126912
 20
5.032766999999998
 30
0.0
 11
124.68188
 21
5.099783999999998
 31
0.0
  0
LINE
  5
2EB7
330
BF7
100
AcDbEntity
  8
1
100
AcDbLine
 10
121.571847
 20
4.818810999999995
 30
0.0
 11
123.126912
 21
5.032766999999998
 31
0.0
  0
LINE
  5
2EB8
330
BF7
100
AcDbEntity
  8
1
100
AcDbLine
 10
119.97163
 20
4.450837999999997
 30
0.0
 11
121.571847
 21
4.818810999999995
 31
0.0
  0
LINE
  5
2EB9
330
BF7
100
AcDbEntity
  8
1
100
AcDbLine
 10
118.371558
 20
3.945166999999996
 30
0.0
 11
119.97163
 21
4.450837999999997
 31
0.0
  0
LINE
  5
2EBA
330
BF7
100
AcDbEntity
  8
1
100
AcDbLine
 10
116.816711
 20
3.335649999999993
 30
0.0
 11
118.371558
 21
3.945166999999996
 31
0.0
  0
LINE
  5
2EBB
330
BF7
100
AcDbEntity
  8
1
100
AcDbLine
 10
116.417849
 20
3.154344999999998
 30
0.0
 11
116.816711
 21
3.335649999999993
 31
0.0
  0
LINE
  5
2EBC
330
BF7
100
AcDbEntity
  8
1
100
AcDbLine
 10
93.13313999999998
 20
-4.830003000000001
 30
0.0
 11
96.10100600000002
 21
-5.090136000000003
 31
0.0
  0
LINE
  5
2EBD
330
BF7
100
AcDbEntity
  8
1
100
AcDbLine
 10
91.57826900000001
 20
-4.479725000000001
 30
0.0
 11
93.13313999999998
 21
-4.830003000000001
 31
0.0
  0
LINE
  5
2EBE
330
BF7
100
AcDbEntity
  8
1
100
AcDbLine
 10
90.02344599999998
 20
-3.998576999999999
 30
0.0
 11
91.57826900000001
 21
-4.479725000000001
 31
0.0
  0
LINE
  5
2EBF
330
BF7
100
AcDbEntity
  8
1
100
AcDbLine
 10
88.42335000000002
 20
-3.380806000000002
 30
0.0
 11
90.02344599999998
 21
-3.998576999999999
 31
0.0
  0
LINE
  5
2EC0
330
BF7
100
AcDbEntity
  8
1
100
AcDbLine
 10
86.823169
 20
-2.658636000000003
 30
0.0
 11
88.42335000000002
 21
-3.380806000000002
 31
0.0
  0
LINE
  5
2EC1
330
BF7
100
AcDbEntity
  8
1
100
AcDbLine
 10
85.26806799999999
 20
-1.877310000000001
 30
0.0
 11
86.823169
 21
-2.658636000000003
 31
0.0
  0
LINE
  5
2EC2
330
BF7
100
AcDbEntity
  8
1
100
AcDbLine
 10
83.71305099999998
 20
-1.041039
 30
0.0
 11
85.26806799999999
 21
-1.877310000000001
 31
0.0
  0
LINE
  5
2EC3
330
BF7
100
AcDbEntity
  8
1
100
AcDbLine
 10
82.11293100000002
 20
-0.1486210000000021
 30
0.0
 11
83.71305099999998
 21
-1.041039
 31
0.0
  0
LINE
  5
2EC4
330
BF7
100
AcDbEntity
  8
1
100
AcDbLine
 10
80.512774
 20
0.7483259999999952
 30
0.0
 11
82.11293100000002
 21
-0.1486210000000021
 31
0.0
  0
LINE
  5
2EC5
330
BF7
100
AcDbEntity
  8
1
100
AcDbLine
 10
78.957576
 20
1.597689999999995
 30
0.0
 11
80.512774
 21
0.7483259999999952
 31
0.0
  0
LINE
  5
2EC6
330
BF7
100
AcDbEntity
  8
1
100
AcDbLine
 10
77.40236599999999
 20
2.400354
 30
0.0
 11
78.957576
 21
1.597689999999995
 31
0.0
  0
LINE
  5
2EC7
330
BF7
100
AcDbEntity
  8
1
100
AcDbLine
 10
75.80218499999998
 20
3.152603999999995
 30
0.0
 11
77.40236599999999
 21
2.400354
 31
0.0
  0
LINE
  5
2EC8
330
BF7
100
AcDbEntity
  8
1
100
AcDbLine
 10
74.20213699999997
 20
3.807523999999999
 30
0.0
 11
75.80218499999998
 21
3.152603999999995
 31
0.0
  0
LINE
  5
2EC9
330
BF7
100
AcDbEntity
  8
1
100
AcDbLine
 10
72.64706
 20
4.330336000000001
 30
0.0
 11
74.20213699999997
 21
3.807523999999999
 31
0.0
  0
LINE
  5
2ECA
330
BF7
100
AcDbEntity
  8
1
100
AcDbLine
 10
71.09181299999999
 20
4.726511000000002
 30
0.0
 11
72.64706
 21
4.330336000000001
 31
0.0
  0
LINE
  5
2ECB
330
BF7
100
AcDbEntity
  8
1
100
AcDbLine
 10
69.49157200000001
 20
4.988991999999996
 30
0.0
 11
71.09181299999999
 21
4.726511000000002
 31
0.0
  0
LINE
  5
2ECC
330
BF7
100
AcDbEntity
  8
1
100
AcDbLine
 10
67.89151199999999
 20
5.097331000000004
 30
0.0
 11
69.49157200000001
 21
4.988991999999996
 31
0.0
  0
LINE
  5
2ECD
330
BF7
100
AcDbEntity
  8
1
100
AcDbLine
 10
66.336629
 20
5.050452999999997
 30
0.0
 11
67.89151199999999
 21
5.097331000000004
 31
0.0
  0
LINE
  5
2ECE
330
BF7
100
AcDbEntity
  8
1
100
AcDbLine
 10
64.78163699999997
 20
4.856060999999995
 30
0.0
 11
66.336629
 21
5.050452999999997
 31
0.0
  0
LINE
  5
2ECF
330
BF7
100
AcDbEntity
  8
1
100
AcDbLine
 10
63.181528
 20
4.507132999999996
 30
0.0
 11
64.78163699999997
 21
4.856060999999995
 31
0.0
  0
LINE
  5
2ED0
330
BF7
100
AcDbEntity
  8
1
100
AcDbLine
 10
61.58145700000002
 20
4.018904999999995
 30
0.0
 11
63.181528
 21
4.507132999999996
 31
0.0
  0
LINE
  5
2ED1
330
BF7
100
AcDbEntity
  8
1
100
AcDbLine
 10
60.02659799999999
 20
3.424219999999998
 30
0.0
 11
61.58145700000002
 21
4.018904999999995
 31
0.0
  0
LINE
  5
2ED2
330
BF7
100
AcDbEntity
  8
1
100
AcDbLine
 10
59.43126099999999
 20
3.158213999999993
 30
0.0
 11
60.02659799999999
 21
3.424219999999998
 31
0.0
  0
LINE
  5
2ED3
330
BF7
100
AcDbEntity
  8
1
100
AcDbLine
 10
36.342046
 20
-4.866399000000001
 30
0.0
 11
39.09944699999999
 21
-5.084044000000002
 31
0.0
  0
LINE
  5
2ED4
330
BF7
100
AcDbEntity
  8
1
100
AcDbLine
 10
34.78683499999998
 20
-4.534612000000001
 30
0.0
 11
36.342046
 21
-4.866399000000001
 31
0.0
  0
LINE
  5
2ED5
330
BF7
100
AcDbEntity
  8
1
100
AcDbLine
 10
33.23170999999999
 20
-4.070317000000001
 30
0.0
 11
34.78683499999998
 21
-4.534612000000001
 31
0.0
  0
LINE
  5
2ED6
330
BF7
100
AcDbEntity
  8
1
100
AcDbLine
 10
31.63012399999999
 20
-3.466947000000001
 30
0.0
 11
33.23170999999999
 21
-4.070317000000001
 31
0.0
  0
LINE
  5
2ED7
330
BF7
100
AcDbEntity
  8
1
100
AcDbLine
 10
30.02848999999999
 20
-2.756223000000001
 30
0.0
 11
31.63012399999999
 21
-3.466947000000001
 31
0.0
  0
LINE
  5
2ED8
330
BF7
100
AcDbEntity
  8
1
100
AcDbLine
 10
28.47188599999999
 20
-1.983208000000001
 30
0.0
 11
30.02848999999999
 21
-2.756223000000001
 31
0.0
  0
LINE
  5
2ED9
330
BF7
100
AcDbEntity
  8
1
100
AcDbLine
 10
26.915223
 20
-1.152281000000004
 30
0.0
 11
28.47188599999999
 21
-1.983208000000001
 31
0.0
  0
LINE
  5
2EDA
330
BF7
100
AcDbEntity
  8
1
100
AcDbLine
 10
25.32268400000001
 20
-0.2668010000000009
 30
0.0
 11
26.915223
 21
-1.152281000000004
 31
0.0
  0
LINE
  5
2EDB
330
BF7
100
AcDbEntity
  8
1
100
AcDbLine
 10
23.73043699999998
 20
0.6273879999999963
 30
0.0
 11
25.32268400000001
 21
-0.2668010000000009
 31
0.0
  0
LINE
  5
2EDC
330
BF7
100
AcDbEntity
  8
1
100
AcDbLine
 10
22.182639
 20
1.478456999999995
 30
0.0
 11
23.73043699999998
 21
0.6273879999999963
 31
0.0
  0
LINE
  5
2EDD
330
BF7
100
AcDbEntity
  8
1
100
AcDbLine
 10
20.633799
 20
2.285044999999996
 30
0.0
 11
22.182639
 21
1.478456999999995
 31
0.0
  0
LINE
  5
2EDE
330
BF7
100
AcDbEntity
  8
1
100
AcDbLine
 10
19.55303899999998
 20
2.800829
 30
0.0
 11
20.63389599999999
 21
2.284993999999997
 31
0.0
  0
LINE
  5
2EDF
330
BF7
100
AcDbEntity
  8
1
100
AcDbLine
 10
17.057625
 20
3.719698999999998
 30
0.0
 11
19.55303899999998
 21
2.800829
 31
0.0
  0
LINE
  5
2EE0
330
BF7
100
AcDbEntity
  8
1
100
AcDbLine
 10
15.63984499999999
 20
4.073001999999995
 30
0.0
 11
17.057625
 21
3.719698999999998
 31
0.0
  0
LINE
  5
2EE1
330
BF7
100
AcDbEntity
  8
1
100
AcDbLine
 10
14.18674799999999
 20
4.325811999999999
 30
0.0
 11
15.63984499999999
 21
4.073001999999995
 31
0.0
  0
LINE
  5
2EE2
330
BF7
100
AcDbEntity
  8
1
100
AcDbLine
 10
12.742202
 20
4.486272999999997
 30
0.0
 11
14.18674799999999
 21
4.325811999999999
 31
0.0
  0
LINE
  5
2EE3
330
BF7
100
AcDbEntity
  8
1
100
AcDbLine
 10
11.27586799999999
 20
4.574848999999999
 30
0.0
 11
12.742202
 21
4.486272999999997
 31
0.0
  0
LINE
  5
2EE4
330
BF7
100
AcDbEntity
  8
1
100
AcDbLine
 10
9.082886999999999
 20
4.590266999999997
 30
0.0
 11
11.27586799999999
 21
4.574848999999999
 31
0.0
  0
LINE
  5
2EE5
330
BF7
100
AcDbEntity
  8
1
100
AcDbLine
 10
8.130679999999998
 20
4.551663999999995
 30
0.0
 11
9.082886999999999
 21
4.590266999999997
 31
0.0
  0
LINE
  5
2EE6
330
BF7
100
AcDbEntity
  8
1
100
AcDbLine
 10
7.449127000000003
 20
4.112970999999993
 30
0.0
 11
8.130679999999998
 21
4.551663999999995
 31
0.0
  0
LINE
  5
2EE7
330
BF7
100
AcDbEntity
  8
1
100
AcDbLine
 10
7.069250999999994
 20
3.567678999999998
 30
0.0
 11
7.449127000000003
 21
4.112970999999993
 31
0.0
  0
LINE
  5
2EE8
330
BF7
100
AcDbEntity
  8
1
100
AcDbLine
 10
6.980071999999991
 20
2.934736
 30
0.0
 11
7.069250999999994
 21
3.567678999999998
 31
0.0
  0
LINE
  5
2EE9
330
BF7
100
AcDbEntity
  8
1
100
AcDbLine
 10
7.052778999999986
 20
2.545549
 30
0.0
 11
6.980071999999991
 21
2.934736
 31
0.0
  0
LINE
  5
2EEA
330
BF7
100
AcDbEntity
  8
1
100
AcDbLine
 10
7.202297000000001
 20
2.152243999999996
 30
0.0
 11
7.052778999999986
 21
2.545549
 31
0.0
  0
LINE
  5
2EEB
330
BF7
100
AcDbEntity
  8
1
100
AcDbLine
 10
7.666252999999997
 20
1.405207999999998
 30
0.0
 11
7.202297000000001
 21
2.152243999999996
 31
0.0
  0
LINE
  5
2EEC
330
BF7
100
AcDbEntity
  8
1
100
AcDbLine
 10
8.368934999999991
 20
0.6232759999999971
 30
0.0
 11
7.666252999999997
 21
1.405207999999998
 31
0.0
  0
LINE
  5
2EED
330
BF7
100
AcDbEntity
  8
1
100
AcDbLine
 10
9.17428199999999
 20
-0.0760629999999978
 30
0.0
 11
8.368934999999991
 21
0.6232759999999971
 31
0.0
  0
LINE
  5
2EEE
330
BF7
100
AcDbEntity
  8
1
100
AcDbLine
 10
10.02556799999999
 20
-0.6959170000000015
 30
0.0
 11
9.17428199999999
 21
-0.0760629999999978
 31
0.0
  0
LINE
  5
2EEF
330
BF7
100
AcDbEntity
  8
1
100
AcDbLine
 10
10.913444
 20
-1.254731000000002
 30
0.0
 11
10.02556799999999
 21
-0.6959170000000015
 31
0.0
  0
LINE
  5
2EF0
330
BF7
100
AcDbEntity
  8
1
100
AcDbLine
 10
11.897002
 20
-1.797352
 30
0.0
 11
10.913444
 21
-1.254731000000002
 31
0.0
  0
LINE
  5
2EF1
330
BF7
100
AcDbEntity
  8
1
100
AcDbLine
 10
13.15852899999998
 20
-2.441553000000002
 30
0.0
 11
11.89735299999999
 21
-1.797538999999999
 31
0.0
  0
LINE
  5
2EF2
330
BF7
100
AcDbEntity
  8
1
100
AcDbLine
 10
14.413878
 20
-3.035868999999998
 30
0.0
 11
13.15852899999998
 21
-2.441553000000002
 31
0.0
  0
LINE
  5
2EF3
330
BF7
100
AcDbEntity
  8
1
100
AcDbLine
 10
15.652502
 20
-3.565367000000001
 30
0.0
 11
14.413878
 21
-3.035868999999998
 31
0.0
  0
LINE
  5
2EF4
330
BF7
100
AcDbEntity
  8
1
100
AcDbLine
 10
16.885627
 20
-4.026608999999999
 30
0.0
 11
15.652502
 21
-3.565367000000001
 31
0.0
  0
LINE
  5
2EF5
330
BF7
100
AcDbEntity
  8
1
100
AcDbLine
 10
18.519103
 20
-4.522043
 30
0.0
 11
16.885627
 21
-4.026608999999999
 31
0.0
  0
LINE
  5
2EF6
330
BF7
100
AcDbEntity
  8
1
100
AcDbLine
 10
18.519103
 20
-4.522043
 30
0.0
 11
10.721698
 21
-4.522043
 31
0.0
  0
LINE
  5
2EF7
330
BF7
100
AcDbEntity
  8
1
100
AcDbLine
 10
10.29745699999999
 20
-4.940362
 30
0.0
 11
10.285836
 21
-5.032291
 31
0.0
  0
LINE
  5
2EF8
330
BF7
100
AcDbEntity
  8
1
100
AcDbLine
 10
10.419652
 20
-4.679214
 30
0.0
 11
10.29745699999999
 21
-4.940362
 31
0.0
  0
LINE
  5
2EF9
330
BF7
100
AcDbEntity
  8
1
100
AcDbLine
 10
10.523025
 20
-4.583968000000001
 30
0.0
 11
10.419652
 21
-4.679214
 31
0.0
  0
LINE
  5
2EFA
330
BF7
100
AcDbEntity
  8
1
100
AcDbLine
 10
10.60104199999999
 20
-4.544044000000003
 30
0.0
 11
10.523025
 21
-4.583968000000001
 31
0.0
  0
LINE
  5
2EFB
330
BF7
100
AcDbEntity
  8
1
100
AcDbLine
 10
10.66329
 20
-4.527121000000001
 30
0.0
 11
10.60104199999999
 21
-4.544044000000003
 31
0.0
  0
LINE
  5
2EFC
330
BF7
100
AcDbEntity
  8
1
100
AcDbLine
 10
10.721698
 20
-4.522043
 30
0.0
 11
10.66329
 21
-4.527121000000001
 31
0.0
  0
LINE
  5
2EFD
330
BF7
100
AcDbEntity
  8
1
100
AcDbLine
 10
181.1614979999999
 20
-5.020465000000001
 30
0.0
 11
181.3986449999999
 21
-5.042201000000002
 31
0.0
  0
LINE
  5
2EFE
330
BF7
100
AcDbEntity
  8
1
100
AcDbLine
 10
179.64817
 20
-4.801807000000002
 30
0.0
 11
181.1614979999999
 21
-5.020465000000001
 31
0.0
  0
LINE
  5
2EFF
330
BF7
100
AcDbEntity
  8
1
100
AcDbLine
 10
178.1638129999999
 20
-4.457763000000002
 30
0.0
 11
179.64817
 21
-4.801807000000002
 31
0.0
  0
LINE
  5
2F00
330
BF7
100
AcDbEntity
  8
1
100
AcDbLine
 10
176.688855
 20
-3.997935000000001
 30
0.0
 11
178.1638129999999
 21
-4.457763000000002
 31
0.0
  0
LINE
  5
2F01
330
BF7
100
AcDbEntity
  8
1
100
AcDbLine
 10
175.1514729999999
 20
-3.406604000000001
 30
0.0
 11
176.688855
 21
-3.997935000000001
 31
0.0
  0
LINE
  5
2F02
330
BF7
100
AcDbEntity
  8
1
100
AcDbLine
 10
173.6140669999999
 20
-2.717675000000002
 30
0.0
 11
175.1514729999999
 21
-3.406604000000001
 31
0.0
  0
LINE
  5
2F03
330
BF7
100
AcDbEntity
  8
1
100
AcDbLine
 10
172.846042
 20
-2.343012000000004
 30
0.0
 11
173.6140669999999
 21
-2.717675000000002
 31
0.0
  0
LINE
  5
2F04
330
BF7
100
AcDbEntity
  8
1
100
AcDbLine
 10
171.297953
 20
-1.539709
 30
0.0
 11
172.846042
 21
-2.343012000000004
 31
0.0
  0
LINE
  5
2F05
330
BF7
100
AcDbEntity
  8
1
100
AcDbLine
 10
169.760571
 20
-0.6976280000000017
 30
0.0
 11
171.297953
 21
-1.539709
 31
0.0
  0
LINE
  5
2F06
330
BF7
100
AcDbEntity
  8
1
100
AcDbLine
 10
168.223165
 20
0.1644410000000001
 30
0.0
 11
169.760571
 21
-0.6976280000000017
 31
0.0
  0
LINE
  5
2F07
330
BF7
100
AcDbEntity
  8
1
100
AcDbLine
 10
166.675101
 20
1.027678999999998
 30
0.0
 11
168.223165
 21
0.1644410000000001
 31
0.0
  0
LINE
  5
2F08
330
BF7
100
AcDbEntity
  8
1
100
AcDbLine
 10
165.137695
 20
1.855477999999996
 30
0.0
 11
166.675101
 21
1.027678999999998
 31
0.0
  0
LINE
  5
2F09
330
BF7
100
AcDbEntity
  8
1
100
AcDbLine
 10
163.58963
 20
2.635247999999997
 30
0.0
 11
165.137695
 21
1.855477999999996
 31
0.0
  0
LINE
  5
2F0A
330
BF7
100
AcDbEntity
  8
1
100
AcDbLine
 10
162.052224
 20
3.333932999999993
 30
0.0
 11
163.58963
 21
2.635247999999997
 31
0.0
  0
LINE
  5
2F0B
330
BF7
100
AcDbEntity
  8
1
100
AcDbLine
 10
160.514818
 20
3.937093999999993
 30
0.0
 11
162.052224
 21
3.333932999999993
 31
0.0
  0
LINE
  5
2F0C
330
BF7
100
AcDbEntity
  8
1
100
AcDbLine
 10
158.9667539999999
 20
4.430425999999997
 30
0.0
 11
160.514818
 21
3.937093999999993
 31
0.0
  0
LINE
  5
2F0D
330
BF7
100
AcDbEntity
  8
1
100
AcDbLine
 10
157.429372
 20
4.793016000000001
 30
0.0
 11
158.9667539999999
 21
4.430425999999997
 31
0.0
  0
LINE
  5
2F0E
330
BF7
100
AcDbEntity
  8
1
100
AcDbLine
 10
155.8919659999999
 20
5.018274999999995
 30
0.0
 11
157.429372
 21
4.793016000000001
 31
0.0
  0
LINE
  5
2F0F
330
BF7
100
AcDbEntity
  8
1
100
AcDbLine
 10
154.3438769999999
 20
5.099811000000001
 30
0.0
 11
155.8919659999999
 21
5.018274999999995
 31
0.0
  0
LINE
  5
2F10
330
BF7
100
AcDbEntity
  8
1
100
AcDbLine
 10
154.264255
 20
5.096410999999996
 30
0.0
 11
154.3438769999999
 21
5.099811000000001
 31
0.0
  0
LINE
  5
2F11
330
BF7
100
AcDbEntity
  8
1
100
AcDbLine
 10
126.617299
 20
-5.077547000000001
 30
0.0
 11
128.56798
 21
-4.845256000000001
 31
0.0
  0
LINE
  5
2F12
330
BF7
100
AcDbEntity
  8
1
100
AcDbLine
 10
125.079893
 20
-5.085434000000002
 30
0.0
 11
126.617299
 21
-5.077547000000001
 31
0.0
  0
LINE
  5
2F13
330
BF7
100
AcDbEntity
  8
1
100
AcDbLine
 10
123.5318289999999
 20
-4.946156000000001
 30
0.0
 11
125.079893
 21
-5.085434000000002
 31
0.0
  0
LINE
  5
2F14
330
BF7
100
AcDbEntity
  8
1
100
AcDbLine
 10
121.9944229999999
 20
-4.665621000000001
 30
0.0
 11
123.5318289999999
 21
-4.946156000000001
 31
0.0
  0
LINE
  5
2F15
330
BF7
100
AcDbEntity
  8
1
100
AcDbLine
 10
120.446334
 20
-4.248092000000003
 30
0.0
 11
121.9944229999999
 21
-4.665621000000001
 31
0.0
  0
LINE
  5
2F16
330
BF7
100
AcDbEntity
  8
1
100
AcDbLine
 10
118.908952
 20
-3.711273000000001
 30
0.0
 11
120.446334
 21
-4.248092000000003
 31
0.0
  0
LINE
  5
2F17
330
BF7
100
AcDbEntity
  8
1
100
AcDbLine
 10
117.360864
 20
-3.063329000000003
 30
0.0
 11
118.908952
 21
-3.711273000000001
 31
0.0
  0
LINE
  5
2F18
330
BF7
100
AcDbEntity
  8
1
100
AcDbLine
 10
115.823457
 20
-2.331732999999998
 30
0.0
 11
117.360864
 21
-3.063329000000003
 31
0.0
  0
LINE
  5
2F19
330
BF7
100
AcDbEntity
  8
1
100
AcDbLine
 10
114.275393
 20
-1.527612999999997
 30
0.0
 11
115.823457
 21
-2.331732999999998
 31
0.0
  0
LINE
  5
2F1A
330
BF7
100
AcDbEntity
  8
1
100
AcDbLine
 10
112.737987
 20
-0.6850590000000027
 30
0.0
 11
114.275393
 21
-1.527612999999997
 31
0.0
  0
LINE
  5
2F1B
330
BF7
100
AcDbEntity
  8
1
100
AcDbLine
 10
111.18991
 20
0.1831229999999984
 30
0.0
 11
112.737987
 21
-0.6850590000000027
 31
0.0
  0
LINE
  5
2F1C
330
BF7
100
AcDbEntity
  8
1
100
AcDbLine
 10
109.652516
 20
1.040107999999996
 30
0.0
 11
111.18991
 21
0.1831229999999984
 31
0.0
  0
LINE
  5
2F1D
330
BF7
100
AcDbEntity
  8
1
100
AcDbLine
 10
108.10444
 20
1.872872999999998
 30
0.0
 11
109.652516
 21
1.040107999999996
 31
0.0
  0
LINE
  5
2F1E
330
BF7
100
AcDbEntity
  8
1
100
AcDbLine
 10
106.567046
 20
2.646114999999994
 30
0.0
 11
108.10444
 21
1.872872999999998
 31
0.0
  0
LINE
  5
2F1F
330
BF7
100
AcDbEntity
  8
1
100
AcDbLine
 10
105.018969
 20
3.348061999999998
 30
0.0
 11
106.567046
 21
2.646114999999994
 31
0.0
  0
LINE
  5
2F20
330
BF7
100
AcDbEntity
  8
1
100
AcDbLine
 10
103.4815629999999
 20
3.948954999999997
 30
0.0
 11
105.018969
 21
3.348061999999998
 31
0.0
  0
LINE
  5
2F21
330
BF7
100
AcDbEntity
  8
1
100
AcDbLine
 10
101.933487
 20
4.439664999999997
 30
0.0
 11
103.4815629999999
 21
3.948954999999997
 31
0.0
  0
LINE
  5
2F22
330
BF7
100
AcDbEntity
  8
1
100
AcDbLine
 10
100.396093
 20
4.799374999999996
 30
0.0
 11
101.933487
 21
4.439664999999997
 31
0.0
  0
LINE
  5
2F23
330
BF7
100
AcDbEntity
  8
1
100
AcDbLine
 10
98.858686
 20
5.021575999999996
 30
0.0
 11
100.396093
 21
4.799374999999996
 31
0.0
  0
LINE
  5
2F24
330
BF7
100
AcDbEntity
  8
1
100
AcDbLine
 10
97.32128000000002
 20
5.099904999999998
 30
0.0
 11
98.858686
 21
5.021575999999996
 31
0.0
  0
LINE
  5
2F25
330
BF7
100
AcDbEntity
  8
1
100
AcDbLine
 10
97.26508200000001
 20
5.097406999999996
 30
0.0
 11
97.32128000000002
 21
5.099904999999998
 31
0.0
  0
LINE
  5
2F26
330
BF7
100
AcDbEntity
  8
1
100
AcDbLine
 10
69.55199699999998
 20
-5.080857
 30
0.0
 11
71.56344199999998
 21
-4.844814000000003
 31
0.0
  0
LINE
  5
2F27
330
BF7
100
AcDbEntity
  8
1
100
AcDbLine
 10
68.01460300000001
 20
-5.082527999999999
 30
0.0
 11
69.55199699999998
 21
-5.080857
 31
0.0
  0
LINE
  5
2F28
330
BF7
100
AcDbEntity
  8
1
100
AcDbLine
 10
66.477197
 20
-4.93858
 30
0.0
 11
68.01460300000001
 21
-5.082527999999999
 31
0.0
  0
LINE
  5
2F29
330
BF7
100
AcDbEntity
  8
1
100
AcDbLine
 10
64.92912
 20
-4.650676000000004
 30
0.0
 11
66.477197
 21
-4.93858
 31
0.0
  0
LINE
  5
2F2A
330
BF7
100
AcDbEntity
  8
1
100
AcDbLine
 10
63.39172599999999
 20
-4.231021000000001
 30
0.0
 11
64.92912
 21
-4.650676000000004
 31
0.0
  0
LINE
  5
2F2B
330
BF7
100
AcDbEntity
  8
1
100
AcDbLine
 10
61.84365000000001
 20
-3.686002000000001
 30
0.0
 11
63.39172599999999
 21
-4.231021000000001
 31
0.0
  0
LINE
  5
2F2C
330
BF7
100
AcDbEntity
  8
1
100
AcDbLine
 10
60.30624399999999
 20
-3.038724000000001
 30
0.0
 11
61.84365000000001
 21
-3.686002000000001
 31
0.0
  0
LINE
  5
2F2D
330
BF7
100
AcDbEntity
  8
1
100
AcDbLine
 10
58.75816700000001
 20
-2.299028999999999
 30
0.0
 11
60.30624399999999
 21
-3.038724000000001
 31
0.0
  0
LINE
  5
2F2E
330
BF7
100
AcDbEntity
  8
1
100
AcDbLine
 10
57.22077299999998
 20
-1.498289999999999
 30
0.0
 11
58.75816700000001
 21
-2.299028999999999
 31
0.0
  0
LINE
  5
2F2F
330
BF7
100
AcDbEntity
  8
1
100
AcDbLine
 10
55.67269699999997
 20
-0.6486629999999991
 30
0.0
 11
57.22077299999998
 21
-1.498289999999999
 31
0.0
  0
LINE
  5
2F30
330
BF7
100
AcDbEntity
  8
1
100
AcDbLine
 10
54.13529099999998
 20
0.2138050000000007
 30
0.0
 11
55.67269699999997
 21
-0.6486629999999991
 31
0.0
  0
LINE
  5
2F31
330
BF7
100
AcDbEntity
  8
1
100
AcDbLine
 10
52.59789699999999
 20
1.070153999999997
 30
0.0
 11
54.13529099999998
 21
0.2138050000000007
 31
0.0
  0
LINE
  5
2F32
330
BF7
100
AcDbEntity
  8
1
100
AcDbLine
 10
51.06049
 20
1.895837
 30
0.0
 11
52.59789699999999
 21
1.070153999999997
 31
0.0
  0
LINE
  5
2F33
330
BF7
100
AcDbEntity
  8
1
100
AcDbLine
 10
49.52309599999999
 20
2.667203999999998
 30
0.0
 11
51.06049
 21
1.895837
 31
0.0
  0
LINE
  5
2F34
330
BF7
100
AcDbEntity
  8
1
100
AcDbLine
 10
47.97501999999997
 20
3.366658999999998
 30
0.0
 11
49.52309599999999
 21
2.667203999999998
 31
0.0
  0
LINE
  5
2F35
330
BF7
100
AcDbEntity
  8
1
100
AcDbLine
 10
46.43761399999998
 20
3.964544999999993
 30
0.0
 11
47.97501999999997
 21
3.366658999999998
 31
0.0
  0
LINE
  5
2F36
330
BF7
100
AcDbEntity
  8
1
100
AcDbLine
 10
44.88953699999997
 20
4.451769999999996
 30
0.0
 11
46.43761399999998
 21
3.964544999999993
 31
0.0
  0
LINE
  5
2F37
330
BF7
100
AcDbEntity
  8
1
100
AcDbLine
 10
43.35214299999999
 20
4.807673999999997
 30
0.0
 11
44.88953699999997
 21
4.451769999999996
 31
0.0
  0
LINE
  5
2F38
330
BF7
100
AcDbEntity
  8
1
100
AcDbLine
 10
41.80406699999998
 20
5.026849999999996
 30
0.0
 11
43.35214299999999
 21
4.807673999999997
 31
0.0
  0
LINE
  5
2F39
330
BF7
100
AcDbEntity
  8
1
100
AcDbLine
 10
40.26666099999999
 20
5.099998999999995
 30
0.0
 11
41.80406699999998
 21
5.026849999999996
 31
0.0
  0
LINE
  5
2F3A
330
BF7
100
AcDbEntity
  8
1
100
AcDbLine
 10
40.26589799999999
 20
5.099961999999996
 30
0.0
 11
40.26666099999999
 21
5.099998999999995
 31
0.0
  0
LINE
  5
2F3B
330
BF7
100
AcDbEntity
  8
1
100
AcDbLine
 10
11.54102799999999
 20
-5.098436000000003
 30
0.0
 11
14.47043999999999
 21
-4.844721999999999
 31
0.0
  0
LINE
  5
2F3C
330
BF7
100
AcDbEntity
  8
1
100
AcDbLine
 10
10.53678399999999
 20
-5.053274
 30
0.0
 11
11.54102799999999
 21
-5.098436000000003
 31
0.0
  0
LINE
  5
2F3D
330
BF7
100
AcDbEntity
  8
1
100
AcDbLine
 10
10.285836
 20
-5.032291
 30
0.0
 11
10.53678399999999
 21
-5.053274
 31
0.0
  0
LINE
  5
2F3E
330
BF7
100
AcDbEntity
  8
1
100
AcDbLine
 10
181.59839
 20
-5.099998999999999
 30
0.0
 11
181.3986449999999
 21
-5.042201000000002
 31
0.0
  0
LINE
  5
2F3F
330
BF7
100
AcDbEntity
  8
1
100
AcDbLine
 10
179.97315
 20
-5.018377
 30
0.0
 11
181.59839
 21
-5.099998999999999
 31
0.0
  0
LINE
  5
2F40
330
BF7
100
AcDbEntity
  8
1
100
AcDbLine
 10
178.360216
 20
-4.778565
 30
0.0
 11
179.97315
 21
-5.018377
 31
0.0
  0
LINE
  5
2F41
330
BF7
100
AcDbEntity
  8
1
100
AcDbLine
 10
176.760192
 20
-4.391497000000001
 30
0.0
 11
178.360216
 21
-4.778565
 31
0.0
  0
LINE
  5
2F42
330
BF7
100
AcDbEntity
  8
1
100
AcDbLine
 10
175.160193
 20
-3.868646000000001
 30
0.0
 11
176.760192
 21
-4.391497000000001
 31
0.0
  0
LINE
  5
2F43
330
BF7
100
AcDbEntity
  8
1
100
AcDbLine
 10
173.6052489999999
 20
-3.244940999999999
 30
0.0
 11
175.160193
 21
-3.868646000000001
 31
0.0
  0
LINE
  5
2F44
330
BF7
100
AcDbEntity
  8
1
100
AcDbLine
 10
172.050257
 20
-2.526553000000002
 30
0.0
 11
173.6052489999999
 21
-3.244940999999999
 31
0.0
  0
LINE
  5
2F45
330
BF7
100
AcDbEntity
  8
1
100
AcDbLine
 10
170.4503309999999
 20
-1.710084
 30
0.0
 11
172.050257
 21
-2.526553000000002
 31
0.0
  0
LINE
  5
2F46
330
BF7
100
AcDbEntity
  8
1
100
AcDbLine
 10
168.8504519999999
 20
-0.8406660000000021
 30
0.0
 11
170.4503309999999
 21
-1.710084
 31
0.0
  0
LINE
  5
2F47
330
BF7
100
AcDbEntity
  8
1
100
AcDbLine
 10
167.2957019999999
 20
0.0297019999999968
 30
0.0
 11
168.8504519999999
 21
-0.8406660000000021
 31
0.0
  0
LINE
  5
2F48
330
BF7
100
AcDbEntity
  8
1
100
AcDbLine
 10
165.740928
 20
0.8991259999999954
 30
0.0
 11
167.2957019999999
 21
0.0297019999999968
 31
0.0
  0
LINE
  5
2F49
330
BF7
100
AcDbEntity
  8
1
100
AcDbLine
 10
164.1409289999999
 20
1.765681999999993
 30
0.0
 11
165.740928
 21
0.8991259999999954
 31
0.0
  0
LINE
  5
2F4A
330
BF7
100
AcDbEntity
  8
1
100
AcDbLine
 10
162.54093
 20
2.577677999999997
 30
0.0
 11
164.1409289999999
 21
1.765681999999993
 31
0.0
  0
LINE
  5
2F4B
330
BF7
100
AcDbEntity
  8
1
100
AcDbLine
 10
160.986155
 20
3.290362000000001
 30
0.0
 11
162.54093
 21
2.577677999999997
 31
0.0
  0
LINE
  5
2F4C
330
BF7
100
AcDbEntity
  8
1
100
AcDbLine
 10
159.431478
 20
3.907044999999995
 30
0.0
 11
160.986155
 21
3.290362000000001
 31
0.0
  0
LINE
  5
2F4D
330
BF7
100
AcDbEntity
  8
1
100
AcDbLine
 10
157.8316
 20
4.421306000000001
 30
0.0
 11
159.431478
 21
3.907044999999995
 31
0.0
  0
LINE
  5
2F4E
330
BF7
100
AcDbEntity
  8
1
100
AcDbLine
 10
156.2315519999999
 20
4.798820999999995
 30
0.0
 11
157.8316
 21
4.421306000000001
 31
0.0
  0
LINE
  5
2F4F
330
BF7
100
AcDbEntity
  8
1
100
AcDbLine
 10
154.676633
 20
5.022705000000001
 30
0.0
 11
156.2315519999999
 21
4.798820999999995
 31
0.0
  0
LINE
  5
2F50
330
BF7
100
AcDbEntity
  8
1
100
AcDbLine
 10
153.1218579999999
 20
5.099982999999993
 30
0.0
 11
154.676633
 21
5.022705000000001
 31
0.0
  0
LINE
  5
2F51
330
BF7
100
AcDbEntity
  8
1
100
AcDbLine
 10
151.522029
 20
5.022871999999998
 30
0.0
 11
153.1218579999999
 21
5.099982999999993
 31
0.0
  0
LINE
  5
2F52
330
BF7
100
AcDbEntity
  8
1
100
AcDbLine
 10
149.922078
 20
4.790526999999997
 30
0.0
 11
151.522029
 21
5.022871999999998
 31
0.0
  0
LINE
  5
2F53
330
BF7
100
AcDbEntity
  8
1
100
AcDbLine
 10
148.367134
 20
4.421793999999998
 30
0.0
 11
149.922078
 21
4.790526999999997
 31
0.0
  0
LINE
  5
2F54
330
BF7
100
AcDbEntity
  8
1
100
AcDbLine
 10
146.8122389999999
 20
3.923934999999999
 30
0.0
 11
148.367134
 21
4.421793999999998
 31
0.0
  0
LINE
  5
2F55
330
BF7
100
AcDbEntity
  8
1
100
AcDbLine
 10
145.2122639999999
 20
3.291193999999996
 30
0.0
 11
146.8122389999999
 21
3.923934999999999
 31
0.0
  0
LINE
  5
2F56
330
BF7
100
AcDbEntity
  8
1
100
AcDbLine
 10
144.921051
 20
3.157508999999997
 30
0.0
 11
145.2122639999999
 21
3.291193999999996
 31
0.0
  0
LINE
  5
2F57
330
BF7
100
AcDbEntity
  8
1
100
AcDbLine
 10
121.571847
 20
-4.818811000000002
 30
0.0
 11
124.5967829999999
 21
-5.096117999999999
 31
0.0
  0
LINE
  5
2F58
330
BF7
100
AcDbEntity
  8
1
100
AcDbLine
 10
119.97163
 20
-4.450838
 30
0.0
 11
121.571847
 21
-4.818811000000002
 31
0.0
  0
LINE
  5
2F59
330
BF7
100
AcDbEntity
  8
1
100
AcDbLine
 10
118.371558
 20
-3.945167000000001
 30
0.0
 11
119.97163
 21
-4.450838
 31
0.0
  0
LINE
  5
2F5A
330
BF7
100
AcDbEntity
  8
1
100
AcDbLine
 10
116.816711
 20
-3.335650999999998
 30
0.0
 11
118.371558
 21
-3.945167000000001
 31
0.0
  0
LINE
  5
2F5B
330
BF7
100
AcDbEntity
  8
1
100
AcDbLine
 10
115.261767
 20
-2.628829000000003
 30
0.0
 11
116.816711
 21
-3.335650999999998
 31
0.0
  0
LINE
  5
2F5C
330
BF7
100
AcDbEntity
  8
1
100
AcDbLine
 10
113.661647
 20
-1.821430000000002
 30
0.0
 11
115.261767
 21
-2.628829000000003
 31
0.0
  0
LINE
  5
2F5D
330
BF7
100
AcDbEntity
  8
1
100
AcDbLine
 10
112.061575
 20
-0.9577040000000032
 30
0.0
 11
113.661647
 21
-1.821430000000002
 31
0.0
  0
LINE
  5
2F5E
330
BF7
100
AcDbEntity
  8
1
100
AcDbLine
 10
110.506776
 20
-0.0891620000000053
 30
0.0
 11
112.061575
 21
-0.9577040000000032
 31
0.0
  0
LINE
  5
2F5F
330
BF7
100
AcDbEntity
  8
1
100
AcDbLine
 10
108.952014
 20
0.7820689999999964
 30
0.0
 11
110.506776
 21
-0.0891620000000053
 31
0.0
  0
LINE
  5
2F60
330
BF7
100
AcDbEntity
  8
1
100
AcDbLine
 10
107.352112
 20
1.654032999999997
 30
0.0
 11
108.952014
 21
0.7820689999999964
 31
0.0
  0
LINE
  5
2F61
330
BF7
100
AcDbEntity
  8
1
100
AcDbLine
 10
105.752113
 20
2.474734999999995
 30
0.0
 11
107.352112
 21
1.654032999999997
 31
0.0
  0
LINE
  5
2F62
330
BF7
100
AcDbEntity
  8
1
100
AcDbLine
 10
104.197253
 20
3.198796999999999
 30
0.0
 11
105.752113
 21
2.474734999999995
 31
0.0
  0
LINE
  5
2F63
330
BF7
100
AcDbEntity
  8
1
100
AcDbLine
 10
102.642467
 20
3.829579000000001
 30
0.0
 11
104.197253
 21
3.198796999999999
 31
0.0
  0
LINE
  5
2F64
330
BF7
100
AcDbEntity
  8
1
100
AcDbLine
 10
101.042625
 20
4.360889999999996
 30
0.0
 11
102.642467
 21
3.829579000000001
 31
0.0
  0
LINE
  5
2F65
330
BF7
100
AcDbEntity
  8
1
100
AcDbLine
 10
99.44273500000001
 20
4.757365999999996
 30
0.0
 11
101.042625
 21
4.360889999999996
 31
0.0
  0
LINE
  5
2F66
330
BF7
100
AcDbEntity
  8
1
100
AcDbLine
 10
97.88789999999998
 20
5.000827999999998
 30
0.0
 11
99.44273500000001
 21
4.757365999999996
 31
0.0
  0
LINE
  5
2F67
330
BF7
100
AcDbEntity
  8
1
100
AcDbLine
 10
96.33310200000003
 20
5.098290999999996
 30
0.0
 11
97.88789999999998
 21
5.000827999999998
 31
0.0
  0
LINE
  5
2F68
330
BF7
100
AcDbEntity
  8
1
100
AcDbLine
 10
94.73313899999999
 20
5.042058999999993
 30
0.0
 11
96.33310200000003
 21
5.098290999999996
 31
0.0
  0
LINE
  5
2F69
330
BF7
100
AcDbEntity
  8
1
100
AcDbLine
 10
93.13313999999998
 20
4.830001999999999
 30
0.0
 11
94.73313899999999
 21
5.042058999999993
 31
0.0
  0
LINE
  5
2F6A
330
BF7
100
AcDbEntity
  8
1
100
AcDbLine
 10
91.57826900000001
 20
4.479723999999997
 30
0.0
 11
93.13313999999998
 21
4.830001999999999
 31
0.0
  0
LINE
  5
2F6B
330
BF7
100
AcDbEntity
  8
1
100
AcDbLine
 10
90.02344599999998
 20
3.998575999999991
 30
0.0
 11
91.57826900000001
 21
4.479723999999997
 31
0.0
  0
LINE
  5
2F6C
330
BF7
100
AcDbEntity
  8
1
100
AcDbLine
 10
88.42335000000002
 20
3.380805000000001
 30
0.0
 11
90.02344599999998
 21
3.998575999999991
 31
0.0
  0
LINE
  5
2F6D
330
BF7
100
AcDbEntity
  8
1
100
AcDbLine
 10
87.919517
 20
3.153420999999993
 30
0.0
 11
88.42335000000002
 21
3.380805000000001
 31
0.0
  0
LINE
  5
2F6E
330
BF7
100
AcDbEntity
  8
1
100
AcDbLine
 10
64.78163699999997
 20
-4.856061000000003
 30
0.0
 11
67.60015399999999
 21
-5.088548000000002
 31
0.0
  0
LINE
  5
2F6F
330
BF7
100
AcDbEntity
  8
1
100
AcDbLine
 10
63.181528
 20
-4.507132999999998
 30
0.0
 11
64.78163699999997
 21
-4.856061000000003
 31
0.0
  0
LINE
  5
2F70
330
BF7
100
AcDbEntity
  8
1
100
AcDbLine
 10
61.58145700000002
 20
-4.018906000000001
 30
0.0
 11
63.181528
 21
-4.507132999999998
 31
0.0
  0
LINE
  5
2F71
330
BF7
100
AcDbEntity
  8
1
100
AcDbLine
 10
60.02659799999999
 20
-3.424220999999998
 30
0.0
 11
61.58145700000002
 21
-4.018906000000001
 31
0.0
  0
LINE
  5
2F72
330
BF7
100
AcDbEntity
  8
1
100
AcDbLine
 10
58.471763
 20
-2.729489
 30
0.0
 11
60.02659799999999
 21
-3.424220999999998
 31
0.0
  0
LINE
  5
2F73
330
BF7
100
AcDbEntity
  8
1
100
AcDbLine
 10
56.87178799999998
 20
-1.93117
 30
0.0
 11
58.471763
 21
-2.729489
 31
0.0
  0
LINE
  5
2F74
330
BF7
100
AcDbEntity
  8
1
100
AcDbLine
 10
55.27176399999998
 20
-1.073250000000005
 30
0.0
 11
56.87178799999998
 21
-1.93117
 31
0.0
  0
LINE
  5
2F75
330
BF7
100
AcDbEntity
  8
1
100
AcDbLine
 10
53.71685700000002
 20
-0.2071720000000035
 30
0.0
 11
55.27176399999998
 21
-1.073250000000005
 31
0.0
  0
LINE
  5
2F76
330
BF7
100
AcDbEntity
  8
1
100
AcDbLine
 10
52.161998
 20
0.6650279999999995
 30
0.0
 11
53.71685700000002
 21
-0.2071720000000035
 31
0.0
  0
LINE
  5
2F77
330
BF7
100
AcDbEntity
  8
1
100
AcDbLine
 10
50.56204699999999
 20
1.541827999999997
 30
0.0
 11
52.161998
 21
0.6650279999999995
 31
0.0
  0
LINE
  5
2F78
330
BF7
100
AcDbEntity
  8
1
100
AcDbLine
 10
48.96207199999999
 20
2.370931999999996
 30
0.0
 11
50.56204699999999
 21
1.541827999999997
 31
0.0
  0
LINE
  5
2F79
330
BF7
100
AcDbEntity
  8
1
100
AcDbLine
 10
47.407189
 20
3.106155000000001
 30
0.0
 11
48.96207199999999
 21
2.370931999999996
 31
0.0
  0
LINE
  5
2F7A
330
BF7
100
AcDbEntity
  8
1
100
AcDbLine
 10
45.852305
 20
3.750689999999998
 30
0.0
 11
47.407189
 21
3.106155000000001
 31
0.0
  0
LINE
  5
2F7B
330
BF7
100
AcDbEntity
  8
1
100
AcDbLine
 10
44.25231799999997
 20
4.298584999999995
 30
0.0
 11
45.852305
 21
3.750689999999998
 31
0.0
  0
LINE
  5
2F7C
330
BF7
100
AcDbEntity
  8
1
100
AcDbLine
 10
42.65230699999999
 20
4.713611999999996
 30
0.0
 11
44.25231799999997
 21
4.298584999999995
 31
0.0
  0
LINE
  5
2F7D
330
BF7
100
AcDbEntity
  8
1
100
AcDbLine
 10
41.09741199999997
 20
4.976407999999998
 30
0.0
 11
42.65230699999999
 21
4.713611999999996
 31
0.0
  0
LINE
  5
2F7E
330
BF7
100
AcDbEntity
  8
1
100
AcDbLine
 10
39.54252799999999
 20
5.093887999999992
 30
0.0
 11
41.09741199999997
 21
4.976407999999998
 31
0.0
  0
LINE
  5
2F7F
330
BF7
100
AcDbEntity
  8
1
100
AcDbLine
 10
37.94231099999997
 20
5.058331000000001
 30
0.0
 11
39.54252799999999
 21
5.093887999999992
 31
0.0
  0
LINE
  5
2F80
330
BF7
100
AcDbEntity
  8
1
100
AcDbLine
 10
36.342046
 20
4.866397999999995
 30
0.0
 11
37.94231099999997
 21
5.058331000000001
 31
0.0
  0
LINE
  5
2F81
330
BF7
100
AcDbEntity
  8
1
100
AcDbLine
 10
34.78683499999998
 20
4.534610999999998
 30
0.0
 11
36.342046
 21
4.866397999999995
 31
0.0
  0
LINE
  5
2F82
330
BF7
100
AcDbEntity
  8
1
100
AcDbLine
 10
33.23170999999999
 20
4.070315999999998
 30
0.0
 11
34.78683499999998
 21
4.534610999999998
 31
0.0
  0
LINE
  5
2F83
330
BF7
100
AcDbEntity
  8
1
100
AcDbLine
 10
31.63012399999999
 20
3.466946999999997
 30
0.0
 11
33.23170999999999
 21
4.070315999999998
 31
0.0
  0
LINE
  5
2F84
330
BF7
100
AcDbEntity
  8
1
100
AcDbLine
 10
30.922997
 20
3.153163999999995
 30
0.0
 11
31.63012399999999
 21
3.466946999999997
 31
0.0
  0
LINE
  5
2F85
330
BF7
100
AcDbEntity
  8
1
100
AcDbLine
 10
51.514787
 20
1.653554999999999
 30
0.0
 11
51.59840599999999
 21
1.608659999999999
 31
0.0
  0
LINE
  5
2F86
330
BF7
100
AcDbEntity
  8
1
100
AcDbLine
 10
51.68701499999999
 20
1.562886999999999
 30
0.0
 11
51.77562400000001
 21
1.517113999999995
 31
0.0
  0
LINE
  5
2F87
330
BF7
100
AcDbEntity
  8
1
100
AcDbLine
 10
51.59840599999999
 20
1.608659999999999
 30
0.0
 11
51.68701499999999
 21
1.562886999999999
 31
0.0
  0
LINE
  5
2F88
330
BF7
100
AcDbEntity
  8
1
100
AcDbLine
 10
108.227615
 20
1.806549999999994
 30
0.0
 11
108.592031
 21
1.613277999999996
 31
0.0
  0
LINE
  5
2F89
330
BF7
100
AcDbEntity
  8
1
100
AcDbLine
 10
107.862897
 20
1.995255
 30
0.0
 11
108.227615
 21
1.806549999999994
 31
0.0
  0
LINE
  5
2F8A
330
BF7
100
AcDbEntity
  8
1
100
AcDbLine
 10
107.694169
 20
2.080956999999996
 30
0.0
 11
107.862897
 21
1.995255
 31
0.0
  0
LINE
  5
2F8B
330
BF7
100
AcDbEntity
  8
1
100
AcDbLine
 10
108.683898
 20
1.565151999999996
 30
0.0
 11
108.775753
 21
1.517025999999996
 31
0.0
  0
LINE
  5
2F8C
330
BF7
100
AcDbEntity
  8
1
100
AcDbLine
 10
108.592031
 20
1.613277999999996
 30
0.0
 11
108.683898
 21
1.565151999999996
 31
0.0
  0
LINE
  5
2F8D
330
BF7
100
AcDbEntity
  8
1
100
AcDbLine
 10
165.209686
 20
1.815847999999999
 30
0.0
 11
165.58556
 21
1.616593
 31
0.0
  0
LINE
  5
2F8E
330
BF7
100
AcDbEntity
  8
1
100
AcDbLine
 10
164.833595
 20
2.010179999999997
 30
0.0
 11
165.209686
 21
1.815847999999999
 31
0.0
  0
LINE
  5
2F8F
330
BF7
100
AcDbEntity
  8
1
100
AcDbLine
 10
164.647536
 20
2.104433
 30
0.0
 11
164.833595
 21
2.010179999999997
 31
0.0
  0
LINE
  5
2F90
330
BF7
100
AcDbEntity
  8
1
100
AcDbLine
 10
165.680636
 20
1.566819999999995
 30
0.0
 11
165.775737
 21
1.517047999999999
 31
0.0
  0
LINE
  5
2F91
330
BF7
100
AcDbEntity
  8
1
100
AcDbLine
 10
165.58556
 20
1.616593
 30
0.0
 11
165.680636
 21
1.566819999999995
 31
0.0
  0
LINE
  5
2F92
330
BF7
100
AcDbEntity
  8
1
100
AcDbLine
 10
22.79619099999999
 20
1.771558999999995
 30
0.0
 11
23.275741
 21
1.517043999999994
 31
0.0
  0
LINE
  5
2F93
330
BF7
100
AcDbEntity
  8
1
100
AcDbLine
 10
22.31629099999999
 20
2.018987999999995
 30
0.0
 11
22.79619099999999
 21
1.771558999999995
 31
0.0
  0
LINE
  5
2F94
330
BF7
100
AcDbEntity
  8
1
100
AcDbLine
 10
22.207007
 20
2.074331999999997
 30
0.0
 11
22.31629099999999
 21
2.018987999999995
 31
0.0
  0
LINE
  5
2F95
330
BF7
100
AcDbEntity
  8
1
100
AcDbLine
 10
80.03163800000001
 20
1.646069999999997
 30
0.0
 11
80.17562199999998
 21
1.568818999999994
 31
0.0
  0
LINE
  5
2F96
330
BF7
100
AcDbEntity
  8
1
100
AcDbLine
 10
80.22571599999997
 20
1.542918
 30
0.0
 11
80.275797
 21
1.517016999999999
 31
0.0
  0
LINE
  5
2F97
330
BF7
100
AcDbEntity
  8
1
100
AcDbLine
 10
80.17562199999998
 20
1.568818999999994
 30
0.0
 11
80.22571599999997
 21
1.542918
 31
0.0
  0
LINE
  5
2F98
330
BF7
100
AcDbEntity
  8
1
100
AcDbLine
 10
136.7477129999999
 20
1.795969999999995
 30
0.0
 11
137.140058
 21
1.587515999999996
 31
0.0
  0
LINE
  5
2F99
330
BF7
100
AcDbEntity
  8
1
100
AcDbLine
 10
137.207859
 20
1.552307999999995
 30
0.0
 11
137.275636
 21
1.517099
 31
0.0
  0
LINE
  5
2F9A
330
BF7
100
AcDbEntity
  8
1
100
AcDbLine
 10
137.140058
 20
1.587515999999996
 30
0.0
 11
137.207859
 21
1.552307999999995
 31
0.0
  0
LINE
  5
2F9B
330
BF7
100
AcDbEntity
  8
1
100
AcDbLine
 10
175.913442
 20
2.053249
 30
0.0
 11
175.6792989999999
 21
2.166305
 31
0.0
  0
LINE
  5
2F9C
330
BF7
100
AcDbEntity
  8
1
100
AcDbLine
 10
176.148214
 20
1.941473999999999
 30
0.0
 11
175.913442
 21
2.053249
 31
0.0
  0
LINE
  5
2F9D
330
BF7
100
AcDbEntity
  8
1
100
AcDbLine
 10
176.66313
 20
1.701980999999999
 30
0.0
 11
176.148214
 21
1.941473999999999
 31
0.0
  0
LINE
  5
2F9E
330
BF7
100
AcDbEntity
  8
1
100
AcDbLine
 10
177.1803699999999
 20
1.467513999999996
 30
0.0
 11
176.66313
 21
1.701980999999999
 31
0.0
  0
LINE
  5
2F9F
330
BF7
100
AcDbEntity
  8
1
100
AcDbLine
 10
177.599361
 20
1.280739999999997
 30
0.0
 11
177.1803699999999
 21
1.467513999999996
 31
0.0
  0
LINE
  5
2FA0
330
BF7
100
AcDbEntity
  8
1
100
AcDbLine
 10
178.019418
 20
1.096414999999995
 30
0.0
 11
177.599361
 21
1.280739999999997
 31
0.0
  0
LINE
  5
2FA1
330
BF7
100
AcDbEntity
  8
1
100
AcDbLine
 10
178.340716
 20
0.9576339999999987
 30
0.0
 11
178.019418
 21
1.096414999999995
 31
0.0
  0
LINE
  5
2FA2
330
BF7
100
AcDbEntity
  8
1
100
AcDbLine
 10
178.662717
 20
0.8205329999999975
 30
0.0
 11
178.340716
 21
0.9576339999999987
 31
0.0
  0
LINE
  5
2FA3
330
BF7
100
AcDbEntity
  8
1
100
AcDbLine
 10
179.058138
 20
0.6549060000000006
 30
0.0
 11
178.662717
 21
0.8205329999999975
 31
0.0
  0
LINE
  5
2FA4
330
BF7
100
AcDbEntity
  8
1
100
AcDbLine
 10
179.454577
 20
0.4918409999999973
 30
0.0
 11
179.058138
 21
0.6549060000000006
 31
0.0
  0
LINE
  5
2FA5
330
BF7
100
AcDbEntity
  8
1
100
AcDbLine
 10
119.014542
 20
2.006062
 30
0.0
 11
118.67963
 21
2.167537999999993
 31
0.0
  0
LINE
  5
2FA6
330
BF7
100
AcDbEntity
  8
1
100
AcDbLine
 10
119.350568
 20
1.847053999999999
 30
0.0
 11
119.014542
 21
2.006062
 31
0.0
  0
LINE
  5
2FA7
330
BF7
100
AcDbEntity
  8
1
100
AcDbLine
 10
119.928149
 20
1.580948999999999
 30
0.0
 11
119.350568
 21
1.847053999999999
 31
0.0
  0
LINE
  5
2FA8
330
BF7
100
AcDbEntity
  8
1
100
AcDbLine
 10
120.508418
 20
1.320919999999996
 30
0.0
 11
119.928149
 21
1.580948999999999
 31
0.0
  0
LINE
  5
2FA9
330
BF7
100
AcDbEntity
  8
1
100
AcDbLine
 10
120.95093
 20
1.126356000000001
 30
0.0
 11
120.508418
 21
1.320919999999996
 31
0.0
  0
LINE
  5
2FAA
330
BF7
100
AcDbEntity
  8
1
100
AcDbLine
 10
121.394605
 20
0.9346159999999985
 30
0.0
 11
120.95093
 21
1.126356000000001
 31
0.0
  0
LINE
  5
2FAB
330
BF7
100
AcDbEntity
  8
1
100
AcDbLine
 10
121.699189
 20
0.8051239999999991
 30
0.0
 11
121.394605
 21
0.9346159999999985
 31
0.0
  0
LINE
  5
2FAC
330
BF7
100
AcDbEntity
  8
1
100
AcDbLine
 10
122.00433
 20
0.6770980000000009
 30
0.0
 11
121.699189
 21
0.8051239999999991
 31
0.0
  0
LINE
  5
2FAD
330
BF7
100
AcDbEntity
  8
1
100
AcDbLine
 10
122.156331
 20
0.6139589999999977
 30
0.0
 11
122.00433
 21
0.6770980000000009
 31
0.0
  0
LINE
  5
2FAE
330
BF7
100
AcDbEntity
  8
1
100
AcDbLine
 10
122.3084539999999
 20
0.5511850000000003
 30
0.0
 11
122.156331
 21
0.6139589999999977
 31
0.0
  0
LINE
  5
2FAF
330
BF7
100
AcDbEntity
  8
1
100
AcDbLine
 10
122.508103
 20
0.4694369999999993
 30
0.0
 11
122.3084539999999
 21
0.5511850000000003
 31
0.0
  0
LINE
  5
2FB0
330
BF7
100
AcDbEntity
  8
1
100
AcDbLine
 10
122.707993
 20
0.3883189999999956
 30
0.0
 11
122.508103
 21
0.4694369999999993
 31
0.0
  0
LINE
  5
2FB1
330
BF7
100
AcDbEntity
  8
1
100
AcDbLine
 10
122.998213
 20
0.2718409999999984
 30
0.0
 11
122.707993
 21
0.3883189999999956
 31
0.0
  0
LINE
  5
2FB2
330
BF7
100
AcDbEntity
  8
1
100
AcDbLine
 10
123.288942
 20
0.1567019999999957
 30
0.0
 11
122.998213
 21
0.2718409999999984
 31
0.0
  0
LINE
  5
2FB3
330
BF7
100
AcDbEntity
  8
1
100
AcDbLine
 10
123.670847
 20
0.0077889999999954
 30
0.0
 11
123.288942
 21
0.1567019999999957
 31
0.0
  0
LINE
  5
2FB4
330
BF7
100
AcDbEntity
  8
1
100
AcDbLine
 10
124.0536479999999
 20
-0.1387830000000001
 30
0.0
 11
123.670847
 21
0.0077889999999954
 31
0.0
  0
LINE
  5
2FB5
330
BF7
100
AcDbEntity
  8
1
100
AcDbLine
 10
124.528813
 20
-0.3169970000000006
 30
0.0
 11
124.0536479999999
 21
-0.1387830000000001
 31
0.0
  0
LINE
  5
2FB6
330
BF7
100
AcDbEntity
  8
1
100
AcDbLine
 10
125.005334
 20
-0.4915840000000033
 30
0.0
 11
124.528813
 21
-0.3169970000000006
 31
0.0
  0
LINE
  5
2FB7
330
BF7
100
AcDbEntity
  8
1
100
AcDbLine
 10
62.35633699999998
 20
1.847831999999995
 30
0.0
 11
61.7076
 21
2.158819999999997
 31
0.0
  0
LINE
  5
2FB8
330
BF7
100
AcDbEntity
  8
1
100
AcDbLine
 10
63.00864700000001
 20
1.545070999999995
 30
0.0
 11
62.35633699999998
 21
1.847831999999995
 31
0.0
  0
LINE
  5
2FB9
330
BF7
100
AcDbEntity
  8
1
100
AcDbLine
 10
63.94470899999999
 20
1.128023999999999
 30
0.0
 11
63.00864700000001
 21
1.545070999999995
 31
0.0
  0
LINE
  5
2FBA
330
BF7
100
AcDbEntity
  8
1
100
AcDbLine
 10
64.887117
 20
0.7260980000000004
 30
0.0
 11
63.94470899999999
 21
1.128023999999999
 31
0.0
  0
LINE
  5
2FBB
330
BF7
100
AcDbEntity
  8
1
100
AcDbLine
 10
65.71932199999999
 20
0.3839410000000001
 30
0.0
 11
64.887117
 21
0.7260980000000004
 31
0.0
  0
LINE
  5
2FBC
330
BF7
100
AcDbEntity
  8
1
100
AcDbLine
 10
66.555559
 20
0.052468999999995
 30
0.0
 11
65.71932199999999
 21
0.3839410000000001
 31
0.0
  0
LINE
  5
2FBD
330
BF7
100
AcDbEntity
  8
1
100
AcDbLine
 10
67.27997000000001
 20
-0.2241620000000033
 30
0.0
 11
66.555559
 21
0.052468999999995
 31
0.0
  0
LINE
  5
2FBE
330
BF7
100
AcDbEntity
  8
1
100
AcDbLine
 10
68.00749399999999
 20
-0.4923830000000004
 30
0.0
 11
67.27997000000001
 21
-0.2241620000000033
 31
0.0
  0
LINE
  5
2FBF
330
BF7
100
AcDbEntity
  8
1
100
AcDbLine
 10
147.42693
 20
2.046895999999995
 30
0.0
 11
147.203494
 21
2.154756999999996
 31
0.0
  0
LINE
  5
2FC0
330
BF7
100
AcDbEntity
  8
1
100
AcDbLine
 10
147.6509469999999
 20
1.940225999999995
 30
0.0
 11
147.42693
 21
2.046895999999995
 31
0.0
  0
LINE
  5
2FC1
330
BF7
100
AcDbEntity
  8
1
100
AcDbLine
 10
148.166807
 20
1.700296999999999
 30
0.0
 11
147.6509469999999
 21
1.940225999999995
 31
0.0
  0
LINE
  5
2FC2
330
BF7
100
AcDbEntity
  8
1
100
AcDbLine
 10
148.684993
 20
1.465472999999999
 30
0.0
 11
148.166807
 21
1.700296999999999
 31
0.0
  0
LINE
  5
2FC3
330
BF7
100
AcDbEntity
  8
1
100
AcDbLine
 10
149.10442
 20
1.278541999999998
 30
0.0
 11
148.684993
 21
1.465472999999999
 31
0.0
  0
LINE
  5
2FC4
330
BF7
100
AcDbEntity
  8
1
100
AcDbLine
 10
149.524888
 20
1.094077999999998
 30
0.0
 11
149.10442
 21
1.278541999999998
 31
0.0
  0
LINE
  5
2FC5
330
BF7
100
AcDbEntity
  8
1
100
AcDbLine
 10
149.846138
 20
0.9553749999999963
 30
0.0
 11
149.524888
 21
1.094077999999998
 31
0.0
  0
LINE
  5
2FC6
330
BF7
100
AcDbEntity
  8
1
100
AcDbLine
 10
150.168066
 20
0.8183069999999972
 30
0.0
 11
149.846138
 21
0.9553749999999963
 31
0.0
  0
LINE
  5
2FC7
330
BF7
100
AcDbEntity
  8
1
100
AcDbLine
 10
150.602221
 20
0.6364179999999992
 30
0.0
 11
150.168066
 21
0.8183069999999972
 31
0.0
  0
LINE
  5
2FC8
330
BF7
100
AcDbEntity
  8
1
100
AcDbLine
 10
151.037538
 20
0.4574649999999992
 30
0.0
 11
150.602221
 21
0.6364179999999992
 31
0.0
  0
LINE
  5
2FC9
330
BF7
100
AcDbEntity
  8
1
100
AcDbLine
 10
151.591768
 20
0.2346219999999981
 30
0.0
 11
151.037538
 21
0.4574649999999992
 31
0.0
  0
LINE
  5
2FCA
330
BF7
100
AcDbEntity
  8
1
100
AcDbLine
 10
152.147863
 20
0.016690999999998
 30
0.0
 11
151.591768
 21
0.2346219999999981
 31
0.0
  0
LINE
  5
2FCB
330
BF7
100
AcDbEntity
  8
1
100
AcDbLine
 10
152.8251229999999
 20
-0.2410720000000026
 30
0.0
 11
152.147863
 21
0.016690999999998
 31
0.0
  0
LINE
  5
2FCC
330
BF7
100
AcDbEntity
  8
1
100
AcDbLine
 10
153.50512
 20
-0.4915139999999987
 30
0.0
 11
152.8251229999999
 21
-0.2410720000000026
 31
0.0
  0
LINE
  5
2FCD
330
BF7
100
AcDbEntity
  8
1
100
AcDbLine
 10
90.8463
 20
1.852412999999994
 30
0.0
 11
90.19173699999996
 21
2.166235999999996
 31
0.0
  0
LINE
  5
2FCE
330
BF7
100
AcDbEntity
  8
1
100
AcDbLine
 10
91.50449599999999
 20
1.546911999999997
 30
0.0
 11
90.8463
 21
1.852412999999994
 31
0.0
  0
LINE
  5
2FCF
330
BF7
100
AcDbEntity
  8
1
100
AcDbLine
 10
92.439771
 20
1.130164999999998
 30
0.0
 11
91.50449599999999
 21
1.546911999999997
 31
0.0
  0
LINE
  5
2FD0
330
BF7
100
AcDbEntity
  8
1
100
AcDbLine
 10
93.38140499999999
 20
0.7284599999999985
 30
0.0
 11
92.439771
 21
1.130164999999998
 31
0.0
  0
LINE
  5
2FD1
330
BF7
100
AcDbEntity
  8
1
100
AcDbLine
 10
94.21415399999998
 20
0.3859939999999966
 30
0.0
 11
93.38140499999999
 21
0.7284599999999985
 31
0.0
  0
LINE
  5
2FD2
330
BF7
100
AcDbEntity
  8
1
100
AcDbLine
 10
95.050973
 20
0.0542339999999975
 30
0.0
 11
94.21415399999998
 21
0.3859939999999966
 31
0.0
  0
LINE
  5
2FD3
330
BF7
100
AcDbEntity
  8
1
100
AcDbLine
 10
95.77718899999998
 20
-0.2231260000000006
 30
0.0
 11
95.050973
 21
0.0542339999999975
 31
0.0
  0
LINE
  5
2FD4
330
BF7
100
AcDbEntity
  8
1
100
AcDbLine
 10
96.50655300000003
 20
-0.4920350000000015
 30
0.0
 11
95.77718899999998
 21
-0.2231260000000006
 31
0.0
  0
LINE
  5
2FD5
330
BF7
100
AcDbEntity
  8
1
100
AcDbLine
 10
33.750804
 20
1.896490999999996
 30
0.0
 11
33.172096
 21
2.174365999999999
 31
0.0
  0
LINE
  5
2FD6
330
BF7
100
AcDbEntity
  8
1
100
AcDbLine
 10
34.33244199999999
 20
1.625149999999994
 30
0.0
 11
33.750804
 21
1.896490999999996
 31
0.0
  0
LINE
  5
2FD7
330
BF7
100
AcDbEntity
  8
1
100
AcDbLine
 10
35.23770400000001
 20
1.218676999999995
 30
0.0
 11
34.33244199999999
 21
1.625149999999994
 31
0.0
  0
LINE
  5
2FD8
330
BF7
100
AcDbEntity
  8
1
100
AcDbLine
 10
36.14907
 20
0.8263189999999942
 30
0.0
 11
35.23770400000001
 21
1.218676999999995
 31
0.0
  0
LINE
  5
2FD9
330
BF7
100
AcDbEntity
  8
1
100
AcDbLine
 10
37.00956799999999
 20
0.4690310000000011
 30
0.0
 11
36.14907
 21
0.8263189999999942
 31
0.0
  0
LINE
  5
2FDA
330
BF7
100
AcDbEntity
  8
1
100
AcDbLine
 10
37.87445000000001
 20
0.1231219999999986
 30
0.0
 11
37.00956799999999
 21
0.4690310000000011
 31
0.0
  0
LINE
  5
2FDB
330
BF7
100
AcDbEntity
  8
1
100
AcDbLine
 10
38.68824399999999
 20
-0.1896459999999997
 30
0.0
 11
37.87445000000001
 21
0.1231219999999986
 31
0.0
  0
LINE
  5
2FDC
330
BF7
100
AcDbEntity
  8
1
100
AcDbLine
 10
39.506
 20
-0.4918290000000029
 30
0.0
 11
38.68824399999999
 21
-0.1896459999999997
 31
0.0
  0
LINE
  5
2FDD
330
BF7
100
AcDbEntity
  8
1
100
AcDbLine
 10
23.10402099999999
 20
4.844974999999998
 30
0.0
 11
14.46902299999999
 21
4.844974999999998
 31
0.0
  0
LINE
  5
2FDE
330
BF7
100
AcDbEntity
  8
1
100
AcDbLine
 10
80.128532
 20
4.844987999999993
 30
0.0
 11
71.56255700000001
 21
4.844987999999993
 31
0.0
  0
LINE
  5
2FDF
330
BF7
100
AcDbEntity
  8
1
100
AcDbLine
 10
137.128019
 20
4.844993999999992
 30
0.0
 11
128.569385
 21
4.844993999999992
 31
0.0
  0
LINE
  5
2FE0
330
BF7
100
AcDbEntity
  8
1
100
AcDbLine
 10
160.165033
 20
-4.844991000000002
 30
0.0
 11
165.628387
 21
-4.844991000000002
 31
0.0
  0
LINE
  5
2FE1
330
BF7
100
AcDbEntity
  8
1
100
AcDbLine
 10
154.701655
 20
-4.844991000000002
 30
0.0
 11
160.165033
 21
-4.844991000000002
 31
0.0
  0
LINE
  5
2FE2
330
BF7
100
AcDbEntity
  8
1
100
AcDbLine
 10
103.164601
 20
-4.844979000000002
 30
0.0
 11
108.627724
 21
-4.844979000000002
 31
0.0
  0
LINE
  5
2FE3
330
BF7
100
AcDbEntity
  8
1
100
AcDbLine
 10
97.70149000000001
 20
-4.844979000000002
 30
0.0
 11
103.164601
 21
-4.844979000000002
 31
0.0
  0
LINE
  5
2FE4
330
BF7
100
AcDbEntity
  8
1
100
AcDbLine
 10
46.16473799999997
 20
-4.844991000000002
 30
0.0
 11
51.62768000000001
 21
-4.844991000000002
 31
0.0
  0
LINE
  5
2FE5
330
BF7
100
AcDbEntity
  8
1
100
AcDbLine
 10
40.70178400000002
 20
-4.844991000000002
 30
0.0
 11
46.16473799999997
 21
-4.844991000000002
 31
0.0
  0
LINE
  5
2FE6
330
BF7
100
AcDbEntity
  8
1
100
AcDbLine
 10
51.62768000000001
 20
4.844991
 30
0.0
 11
43.08858100000001
 21
4.844991
 31
0.0
  0
LINE
  5
2FE7
330
BF7
100
AcDbEntity
  8
1
100
AcDbLine
 10
108.627724
 20
4.844977999999996
 30
0.0
 11
100.080681
 21
4.844977999999996
 31
0.0
  0
LINE
  5
2FE8
330
BF7
100
AcDbEntity
  8
1
100
AcDbLine
 10
165.628387
 20
4.844991
 30
0.0
 11
157.0746449999999
 21
4.844991
 31
0.0
  0
LINE
  5
2FE9
330
BF7
100
AcDbEntity
  8
1
100
AcDbLine
 10
131.665029
 20
-4.844994000000003
 30
0.0
 11
137.128019
 21
-4.844994000000003
 31
0.0
  0
LINE
  5
2FEA
330
BF7
100
AcDbEntity
  8
1
100
AcDbLine
 10
126.2020389999999
 20
-4.844994000000003
 30
0.0
 11
131.665029
 21
-4.844994000000003
 31
0.0
  0
LINE
  5
2FEB
330
BF7
100
AcDbEntity
  8
1
100
AcDbLine
 10
74.66521399999997
 20
-4.844987999999999
 30
0.0
 11
80.128532
 21
-4.844987999999999
 31
0.0
  0
LINE
  5
2FEC
330
BF7
100
AcDbEntity
  8
1
100
AcDbLine
 10
69.20189699999999
 20
-4.844987999999999
 30
0.0
 11
74.66521399999997
 21
-4.844987999999999
 31
0.0
  0
LINE
  5
2FED
330
BF7
100
AcDbEntity
  8
1
100
AcDbLine
 10
17.64055900000001
 20
-4.844976000000001
 30
0.0
 11
23.10402099999999
 21
-4.844976000000001
 31
0.0
  0
LINE
  5
2FEE
330
BF7
100
AcDbEntity
  8
1
100
AcDbLine
 10
12.17709599999999
 20
-4.844976000000001
 30
0.0
 11
17.64055900000001
 21
-4.844976000000001
 31
0.0
  0
LINE
  5
2FEF
330
BF7
100
AcDbEntity
  8
SK1
100
AcDbLine
 10
-45.00000299999999
 20
-5.249999000000001
 30
0.0
 11
-43.700963
 21
-6.000001000000001
 31
0.0
  0
LINE
  5
2FF0
330
BF7
100
AcDbEntity
  8
1
100
AcDbLine
 10
0.4999990000000027
 20
-5.099998999999999
 30
0.0
 11
11.76509399999999
 21
-5.099998999999999
 31
0.0
  0
LINE
  5
2FF1
330
BF7
100
AcDbEntity
  8
1
100
AcDbLine
 10
39.09880500000003
 20
-5.099998999999999
 30
0.0
 11
40.26572800000001
 21
-5.099998999999999
 31
0.0
  0
LINE
  5
2FF2
330
BF7
100
AcDbEntity
  8
1
100
AcDbLine
 10
67.59853099999999
 20
-5.099998999999999
 30
0.0
 11
68.76570799999999
 21
-5.099998999999999
 31
0.0
  0
LINE
  5
2FF3
330
BF7
100
AcDbEntity
  8
1
100
AcDbLine
 10
96.09871699999999
 20
-5.099998999999999
 30
0.0
 11
97.26583300000001
 21
-5.099998999999999
 31
0.0
  0
LINE
  5
2FF4
330
BF7
100
AcDbEntity
  8
1
100
AcDbLine
 10
124.598697
 20
-5.099998999999999
 30
0.0
 11
125.7656309999999
 21
-5.099998999999999
 31
0.0
  0
LINE
  5
2FF5
330
BF7
100
AcDbEntity
  8
1
100
AcDbLine
 10
153.098265
 20
-5.099998999999999
 30
0.0
 11
154.265878
 21
-5.099998999999999
 31
0.0
  0
LINE
  5
2FF6
330
BF7
100
AcDbEntity
  8
1
100
AcDbLine
 10
154.265878
 20
5.099998999999995
 30
0.0
 11
153.098265
 21
5.099998999999995
 31
0.0
  0
LINE
  5
2FF7
330
BF7
100
AcDbEntity
  8
1
100
AcDbLine
 10
125.7656309999999
 20
5.099998999999995
 30
0.0
 11
124.598697
 21
5.099998999999995
 31
0.0
  0
LINE
  5
2FF8
330
BF7
100
AcDbEntity
  8
1
100
AcDbLine
 10
97.26583300000001
 20
5.099998999999995
 30
0.0
 11
96.09871699999999
 21
5.099998999999995
 31
0.0
  0
LINE
  5
2FF9
330
BF7
100
AcDbEntity
  8
1
100
AcDbLine
 10
68.76570799999999
 20
5.099998999999995
 30
0.0
 11
67.59853099999999
 21
5.099998999999995
 31
0.0
  0
LINE
  5
2FFA
330
BF7
100
AcDbEntity
  8
1
100
AcDbLine
 10
40.26572800000001
 20
5.099998999999995
 30
0.0
 11
39.09880500000003
 21
5.099998999999995
 31
0.0
  0
LINE
  5
2FFB
330
BF7
100
AcDbEntity
  8
1
100
AcDbLine
 10
11.76509399999999
 20
5.099998999999995
 30
0.0
 11
0.4999990000000027
 21
5.099998999999995
 31
0.0
  0
LINE
  5
2FFC
330
BF7
100
AcDbEntity
  8
SK1
100
AcDbLine
 10
-43.700963
 20
6.000000999999997
 30
0.0
 11
-45.00000299999999
 21
5.249999000000001
 31
0.0
  0
LINE
  5
2FFD
330
BF7
100
AcDbEntity
  8
SK1
100
AcDbLine
 10
0.0
 20
6.000000999999997
 30
0.0
 11
-43.700963
 21
6.000000999999997
 31
0.0
  0
LINE
  5
2FFE
330
BF7
100
AcDbEntity
  8
SK1
100
AcDbLine
 10
-43.700963
 20
-6.000001000000001
 30
0.0
 11
0.0
 21
-6.000001000000001
 31
0.0
  0
LINE
  5
3005
330
BF7
100
AcDbEntity
  8
SK4
100
AcDbLine
 10
188.871890921375
 20
-0.0000000000000018
 30
0.0
 11
-51.01552838528346
 21
0.0000000000000045
 31
0.0
  0
LINE
  5
3006
330
BF7
100
AcDbEntity
  8
1
100
AcDbLine
 10
-0.0000009906281058
 20
5.599997999999998
 30
0.0
 11
-0.0000009906281058
 21
-5.600001000000002
 31
0.0
  0
DIMENSION
  5
3007
330
BF7
100
AcDbEntity
  8
SK2
100
AcDbDimension
  2
*D2
 10
59.19838999999999
 20
15.76729605855519
 30
0.0
 11
120.39839
 21
19.56729605855518
 31
0.0
 70
    32
 71
     5
 42
122.4
  3
SANDVIK_DIM
100
AcDbAlignedDimension
 13
181.59839
 23
5.099998999999995
 33
0.0
 14
59.19838999999999
 24
5.099999000000009
 34
0.0
100
AcDbRotatedDimension
1001
ACAD
1000
DSTYLE
1002
{
1070
    40
1040
1.0
1002
}
  0
DIMENSION
  5
3014
330
BF7
100
AcDbEntity
  8
2
100
AcDbDimension
  2
*D3
 10
188.871890921375
 20
-5.099999000000003
 30
0.0
 11
189.6045216376719
 21
-23.36552807373397
 31
0.0
 70
   160
  1
%%c <>
 71
     5
 42
10.19999799999999
  3
SANDVIK_DIM
100
AcDbAlignedDimension
 13
181.59839
 23
5.099998999999995
 33
0.0
 14
181.59839
 24
-5.099998999999999
 34
0.0
 50
90.0
100
AcDbRotatedDimension
1001
ACAD
1000
DSTYLE
1002
{
1070
    40
1040
1.0
1002
}
  0
DIMENSION
  5
3022
330
BF7
100
AcDbEntity
  8
2
100
AcDbDimension
  2
*D4
 10
7.000071999999991
 20
-13.30838162858021
 30
0.0
 11
95.00001199999998
 21
-9.508381628580206
 31
0.0
 70
    32
 71
     5
 42
175.9998799999999
  3
SANDVIK_DIM
100
AcDbAlignedDimension
 13
182.9999519999999
 23
-0.0000005000000023
 33
0.0
 14
7.000071999999991
 24
2.934736
 34
0.0
100
AcDbRotatedDimension
1001
ACAD
1000
DSTYLE
1002
{
1070
    40
1040
1.0
1002
}
  0
DIMENSION
  5
3038
330
BF7
100
AcDbEntity
  8
2
100
AcDbDimension
  2
*D5
 10
-0.0000000000000009
 20
-21.49487495104319
 30
0.0
 11
91.49997599999997
 21
-17.69487495104319
 31
0.0
 70
    32
 71
     5
 42
182.9999519999999
  3
SANDVIK_DIM
100
AcDbAlignedDimension
 13
182.9999519999999
 23
-0.0000005000000023
 33
0.0
 14
0.0
 24
-6.000001000000001
 34
0.0
100
AcDbRotatedDimension
1001
ACAD
1000
DSTYLE
1002
{
1070
    40
1040
1.0
1002
}
  0
DIMENSION
  5
3045
330
BF7
100
AcDbEntity
  8
SK2
100
AcDbDimension
  2
*D6
 10
-0.0000000000000009
 20
-21.49487495104319
 30
0.0
 11
-22.5000015
 21
-17.69487495104319
 31
0.0
 70
    32
 71
     5
 42
45.00000299999999
  3
SANDVIK_DIM
100
AcDbAlignedDimension
 13
-45.00000299999999
 23
-5.249999000000001
 33
0.0
 14
0.0
 24
-6.000001000000001
 34
0.0
100
AcDbRotatedDimension
1001
ACAD
1000
DSTYLE
1002
{
1070
    40
1040
1.0
1002
}
  0
DIMENSION
  5
3052
330
BF7
100
AcDbEntity
  8
SK2
100
AcDbDimension
  2
*D7
 10
182.9999519999999
 20
-32.04122113040109
 30
0.0
 11
68.99997449999998
 21
-28.24122113040109
 31
0.0
 70
    32
 71
     5
 42
227.9999549999999
  3
SANDVIK_DIM
100
AcDbAlignedDimension
 13
-45.00000299999999
 23
-5.249999000000001
 33
0.0
 14
182.9999519999999
 24
-0.0000005000000023
 34
0.0
100
AcDbRotatedDimension
1001
ACAD
1000
DSTYLE
1002
{
1070
    40
1040
1.0
1002
}
  0
DIMENSION
  5
305F
330
BF7
100
AcDbEntity
  8
SK2
100
AcDbDimension
  2
*D8
 10
-51.01552838528346
 20
-6.000000999999997
 30
0.0
 11
-51.2723238873059
 21
-21.59802887079803
 31
0.0
 70
   160
  1
%%c <>
 71
     5
 42
12.000002
  3
SANDVIK_DIM
100
AcDbAlignedDimension
 13
-43.700963
 23
6.000000999999997
 33
0.0
 14
-43.700963
 24
-6.000001000000001
 34
0.0
 50
90.0
100
AcDbRotatedDimension
1001
ACAD
1000
DSTYLE
1002
{
1070
    40
1040
1.0
1002
}
  0
ENDSEC
  0
SECTION
  2
OBJECTS
  0
DICTIONARY
  5
BE3
330
0
100
AcDbDictionary
281
     1
  3
ACAD_CIP_PREVIOUS_PRODUCT_INFO
350
3102
  3
ACAD_COLOR
350
BF2
  3
ACAD_DETAILVIEWSTYLE
350
30FF
  3
ACAD_GROUP
350
BE4
  3
ACAD_LAYOUT
350
BF0
  3
ACAD_MATERIAL
350
BF1
  3
ACAD_MLEADERSTYLE
350
30FA
  3
ACAD_MLINESTYLE
350
BED
  3
ACAD_PLOTSETTINGS
350
BEF
  3
ACAD_PLOTSTYLENAME
350
BE5
  3
ACAD_SCALELIST
350
30E8
  3
ACAD_SECTIONVIEWSTYLE
350
30FC
  3
ACAD_TABLESTYLE
350
30E6
  3
ACAD_VISUALSTYLE
350
30CD
  3
ACDB_RECOMPOSE_DATA
350
3164
  3
AcDbVariableDictionary
350
3157
  3
ASE_INDEX_DICTIONARY
350
3154
  3
DWGPROPS
350
3165
  0
DICTIONARY
  5
3105
330
BE7
100
AcDbDictionary
280
     1
281
     1
  3
ADSK_XREC_LAYER_RECONCILED
360
3106
  0
DICTIONARY
  5
3107
330
BFB
100
AcDbDictionary
280
     1
281
     1
  3
ADSK_XREC_LAYER_RECONCILED
360
3108
  0
DICTIONARY
  5
3109
330
C00
100
AcDbDictionary
280
     1
281
     1
  3
ADSK_XREC_LAYER_RECONCILED
360
310A
  0
DICTIONARY
  5
310B
330
C01
100
AcDbDictionary
280
     1
281
     1
  3
ADSK_XREC_LAYER_RECONCILED
360
310C
  0
DICTIONARY
  5
310D
330
C02
100
AcDbDictionary
280
     1
281
     1
  3
ADSK_XREC_LAYER_RECONCILED
360
310E
  0
DICTIONARY
  5
310F
330
C03
100
AcDbDictionary
280
     1
281
     1
  3
ADSK_XREC_LAYER_RECONCILED
360
3110
  0
DICTIONARY
  5
3111
330
C04
100
AcDbDictionary
280
     1
281
     1
  3
ADSK_XREC_LAYER_RECONCILED
360
3112
  0
DICTIONARY
  5
3113
330
C05
100
AcDbDictionary
280
     1
281
     1
  3
ADSK_XREC_LAYER_RECONCILED
360
3114
  0
DICTIONARY
  5
3115
330
C06
100
AcDbDictionary
280
     1
281
     1
  3
ADSK_XREC_LAYER_RECONCILED
360
3116
  0
DICTIONARY
  5
3117
330
C07
100
AcDbDictionary
280
     1
281
     1
  3
ADSK_XREC_LAYER_RECONCILED
360
3118
  0
DICTIONARY
  5
3119
330
C08
100
AcDbDictionary
280
     1
281
     1
  3
ADSK_XREC_LAYER_RECONCILED
360
311A
  0
DICTIONARY
  5
311B
330
C09
100
AcDbDictionary
280
     1
281
     1
  3
ADSK_XREC_LAYER_RECONCILED
360
311C
  0
DICTIONARY
  5
311D
330
C0A
100
AcDbDictionary
280
     1
281
     1
  3
ADSK_XREC_LAYER_RECONCILED
360
311E
  0
DICTIONARY
  5
311F
330
C0B
100
AcDbDictionary
280
     1
281
     1
  3
ADSK_XREC_LAYER_RECONCILED
360
3120
  0
DICTIONARY
  5
3121
330
C0C
100
AcDbDictionary
280
     1
281
     1
  3
ADSK_XREC_LAYER_RECONCILED
360
3122
  0
DICTIONARY
  5
3123
330
C0D
100
AcDbDictionary
280
     1
281
     1
  3
ADSK_XREC_LAYER_RECONCILED
360
3124
  0
DICTIONARY
  5
3125
330
C0E
100
AcDbDictionary
280
     1
281
     1
  3
ADSK_XREC_LAYER_RECONCILED
360
3126
  0
DICTIONARY
  5
3127
330
C0F
100
AcDbDictionary
280
     1
281
     1
  3
ADSK_XREC_LAYER_RECONCILED
360
3128
  0
DICTIONARY
  5
3129
330
C10
100
AcDbDictionary
280
     1
281
     1
  3
ADSK_XREC_LAYER_RECONCILED
360
312A
  0
DICTIONARY
  5
312B
330
C11
100
AcDbDictionary
280
     1
281
     1
  3
ADSK_XREC_LAYER_RECONCILED
360
312C
  0
DICTIONARY
  5
312D
330
C12
100
AcDbDictionary
280
     1
281
     1
  3
ADSK_XREC_LAYER_RECONCILED
360
312E
  0
DICTIONARY
  5
312F
330
C13
100
AcDbDictionary
280
     1
281
     1
  3
ADSK_XREC_LAYER_RECONCILED
360
3130
  0
DICTIONARY
  5
3131
330
C14
100
AcDbDictionary
280
     1
281
     1
  3
ADSK_XREC_LAYER_RECONCILED
360
3132
  0
DICTIONARY
  5
3133
330
C15
100
AcDbDictionary
280
     1
281
     1
  3
ADSK_XREC_LAYER_RECONCILED
360
3134
  0
DICTIONARY
  5
3135
330
C16
100
AcDbDictionary
280
     1
281
     1
  3
ADSK_XREC_LAYER_RECONCILED
360
3136
  0
DICTIONARY
  5
3137
330
C17
100
AcDbDictionary
280
     1
281
     1
  3
ADSK_XREC_LAYER_RECONCILED
360
3138
  0
DICTIONARY
  5
3139
330
C18
100
AcDbDictionary
280
     1
281
     1
  3
ADSK_XREC_LAYER_RECONCILED
360
313A
  0
DICTIONARY
  5
313B
330
C19
100
AcDbDictionary
280
     1
281
     1
  3
ADSK_XREC_LAYER_RECONCILED
360
313C
  0
DICTIONARY
  5
313D
330
C1A
100
AcDbDictionary
280
     1
281
     1
  3
ADSK_XREC_LAYER_RECONCILED
360
313E
  0
DICTIONARY
  5
313F
330
C1B
100
AcDbDictionary
280
     1
281
     1
  3
ADSK_XREC_LAYER_RECONCILED
360
3140
  0
DICTIONARY
  5
3141
330
C1C
100
AcDbDictionary
280
     1
281
     1
  3
ADSK_XREC_LAYER_RECONCILED
360
3142
  0
DICTIONARY
  5
3143
330
C1D
100
AcDbDictionary
280
     1
281
     1
  3
ADSK_XREC_LAYER_RECONCILED
360
3144
  0
DICTIONARY
  5
3145
330
C1E
100
AcDbDictionary
280
     1
281
     1
  3
ADSK_XREC_LAYER_RECONCILED
360
3146
  0
DICTIONARY
  5
3147
330
C1F
100
AcDbDictionary
280
     1
281
     1
  3
ADSK_XREC_LAYER_RECONCILED
360
3148
  0
DICTIONARY
  5
3149
330
C20
100
AcDbDictionary
280
     1
281
     1
  3
ADSK_XREC_LAYER_RECONCILED
360
314A
  0
DICTIONARY
  5
314B
330
C21
100
AcDbDictionary
280
     1
281
     1
  3
ADSK_XREC_LAYER_RECONCILED
360
314C
  0
DICTIONARY
  5
314D
330
C22
100
AcDbDictionary
280
     1
281
     1
  3
ADSK_XREC_LAYER_RECONCILED
360
314E
  0
DICTIONARY
  5
314F
330
C23
100
AcDbDictionary
280
     1
281
     1
  3
ADSK_XREC_LAYER_RECONCILED
360
3150
  0
DICTIONARY
  5
3151
330
C42
100
AcDbDictionary
280
     1
281
     1
  3
ADSK_XREC_LAYER_RECONCILED
360
3152
  0
XRECORD
  5
3102
102
{ACAD_REACTORS
330
BE3
102
}
330
BE3
100
AcDbXrecord
280
     1
300
AMECH_PP
300
2013
300
PDSU_F_S
  0
DICTIONARY
  5
BF2
102
{ACAD_REACTORS
330
BE3
102
}
330
BE3
100
AcDbDictionary
281
     1
  0
DICTIONARY
  5
30FF
102
{ACAD_REACTORS
330
BE3
102
}
330
BE3
100
AcDbDictionary
281
     1
  3
Imperial24
350
3100
  0
DICTIONARY
  5
BE4
102
{ACAD_REACTORS
330
BE3
102
}
330
BE3
100
AcDbDictionary
281
     1
  0
DICTIONARY
  5
BF0
102
{ACAD_REACTORS
330
BE3
102
}
330
BE3
100
AcDbDictionary
281
     1
  3
Layout1
350
BF6
  3
Model
350
BFA
  0
DICTIONARY
  5
BF1
102
{ACAD_REACTORS
330
BE3
102
}
330
BE3
100
AcDbDictionary
281
     1
  3
ByBlock
350
30BD
  3
ByLayer
350
30B5
  3
Global
350
30C5
  0
DICTIONARY
  5
30FA
102
{ACAD_REACTORS
330
BE3
102
}
330
BE3
100
AcDbDictionary
281
     1
  3
Standard
350
30FB
  0
DICTIONARY
  5
BED
102
{ACAD_REACTORS
330
BE3
102
}
330
BE3
100
AcDbDictionary
281
     1
  3
Standard
350
BEE
  0
DICTIONARY
  5
BEF
102
{ACAD_REACTORS
330
BE3
102
}
330
BE3
100
AcDbDictionary
281
     1
  0
ACDBDICTIONARYWDFLT
  5
BE5
102
{ACAD_REACTORS
330
BE3
102
}
330
BE3
100
AcDbDictionary
281
     1
  3
Normal
350
BE6
100
AcDbDictionaryWithDefault
340
BE6
  0
DICTIONARY
  5
30E8
102
{ACAD_REACTORS
330
BE3
102
}
330
BE3
100
AcDbDictionary
281
     1
  3
A0
350
30E9
  3
A1
350
30EA
  3
A2
350
30EB
  3
A3
350
30EC
  3
A4
350
30ED
  3
A5
350
30EE
  3
A6
350
30EF
  3
A7
350
30F0
  3
A8
350
30F1
  3
A9
350
30F2
  3
B0
350
30F3
  3
B1
350
30F4
  3
B2
350
30F5
  3
B3
350
30F6
  3
B4
350
30F7
  3
B5
350
30F8
  3
B6
350
30F9
  0
DICTIONARY
  5
30FC
102
{ACAD_REACTORS
330
BE3
102
}
330
BE3
100
AcDbDictionary
281
     1
  3
Imperial24
350
30FE
  0
DICTIONARY
  5
30E6
102
{ACAD_REACTORS
330
BE3
102
}
330
BE3
100
AcDbDictionary
281
     1
  3
Standard
350
30E7
  0
DICTIONARY
  5
30CD
102
{ACAD_REACTORS
330
BE3
102
}
330
BE3
100
AcDbDictionary
281
     1
  3
2dWireframe
350
30D3
  3
Basic
350
30D2
  3
Brighten
350
30D9
  3
ColorChange
350
30DD
  3
Conceptual
350
30D6
  3
Dim
350
30D8
  3
EdgeColorOff
350
30E5
  3
Facepattern
350
30DC
  3
Flat
350
30CE
  3
FlatWithEdges
350
30CF
  3
Gouraud
350
30D0
  3
GouraudWithEdges
350
30D1
  3
Hidden
350
30D5
  3
JitterOff
350
30E3
  3
Linepattern
350
30DB
  3
OverhangOff
350
30E4
  3
Realistic
350
30D7
  3
Shaded
350
30E2
  3
Shaded with edges
350
30E1
  3
Shades of Gray
350
30DE
  3
Sketchy
350
30DF
  3
Thicken
350
30DA
  3
Wireframe
350
30D4
  3
X-Ray
350
30E0
  0
XRECORD
  5
3164
102
{ACAD_REACTORS
330
BE3
102
}
330
BE3
100
AcDbXrecord
280
     1
 90
        1
330
30E7
  0
DICTIONARY
  5
3157
102
{ACAD_REACTORS
330
BE3
102
}
330
BE3
100
AcDbDictionary
281
     1
  3
CANNOSCALE
350
315C
  3
CMLEADERSTYLE
350
3159
  3
CTABLESTYLE
350
3158
  3
CVIEWDETAILSTYLE
350
315A
  3
CVIEWSECTIONSTYLE
350
315B
  3
DIMASSOC
350
3160
  3
INDEXCTL
350
315E
  3
SORTENTS
350
315D
  3
XCLIPFRAME
350
315F
  0
DICTIONARY
  5
3154
102
{ACAD_REACTORS
330
BE3
102
}
330
BE3
100
AcDbDictionary
281
     1
  3
ASEBlockHierarchyIndexRecord
350
3156
1001
DCO15
1040
1815724093.856
  0
XRECORD
  5
3165
102
{ACAD_REACTORS
330
BE3
102
}
330
BE3
100
AcDbXrecord
280
     1
  1
DWGPROPS COOKIE
  2

  3

  4

  6

  7

  8
Micke
  9

300
=
301
=
302
=
303
=
304
=
305
=
306
=
307
=
308
=
309
=
 40
0.0910607175925926
 41
2455817.64629206
 42
2456818.537012222
  1

 90
        0
  0
XRECORD
  5
3106
102
{ACAD_REACTORS
330
3105
102
}
330
3105
100
AcDbXrecord
280
     1
290
     1
  0
XRECORD
  5
3108
102
{ACAD_REACTORS
330
3107
102
}
330
3107
100
AcDbXrecord
280
     1
290
     1
  0
XRECORD
  5
310A
102
{ACAD_REACTORS
330
3109
102
}
330
3109
100
AcDbXrecord
280
     1
290
     1
  0
XRECORD
  5
310C
102
{ACAD_REACTORS
330
310B
102
}
330
310B
100
AcDbXrecord
280
     1
290
     1
  0
XRECORD
  5
310E
102
{ACAD_REACTORS
330
310D
102
}
330
310D
100
AcDbXrecord
280
     1
290
     1
  0
XRECORD
  5
3110
102
{ACAD_REACTORS
330
310F
102
}
330
310F
100
AcDbXrecord
280
     1
290
     1
  0
XRECORD
  5
3112
102
{ACAD_REACTORS
330
3111
102
}
330
3111
100
AcDbXrecord
280
     1
290
     1
  0
XRECORD
  5
3114
102
{ACAD_REACTORS
330
3113
102
}
330
3113
100
AcDbXrecord
280
     1
290
     1
  0
XRECORD
  5
3116
102
{ACAD_REACTORS
330
3115
102
}
330
3115
100
AcDbXrecord
280
     1
290
     1
  0
XRECORD
  5
3118
102
{ACAD_REACTORS
330
3117
102
}
330
3117
100
AcDbXrecord
280
     1
290
     1
  0
XRECORD
  5
311A
102
{ACAD_REACTORS
330
3119
102
}
330
3119
100
AcDbXrecord
280
     1
290
     1
  0
XRECORD
  5
311C
102
{ACAD_REACTORS
330
311B
102
}
330
311B
100
AcDbXrecord
280
     1
290
     1
  0
XRECORD
  5
311E
102
{ACAD_REACTORS
330
311D
102
}
330
311D
100
AcDbXrecord
280
     1
290
     1
  0
XRECORD
  5
3120
102
{ACAD_REACTORS
330
311F
102
}
330
311F
100
AcDbXrecord
280
     1
290
     1
  0
XRECORD
  5
3122
102
{ACAD_REACTORS
330
3121
102
}
330
3121
100
AcDbXrecord
280
     1
290
     1
  0
XRECORD
  5
3124
102
{ACAD_REACTORS
330
3123
102
}
330
3123
100
AcDbXrecord
280
     1
290
     1
  0
XRECORD
  5
3126
102
{ACAD_REACTORS
330
3125
102
}
330
3125
100
AcDbXrecord
280
     1
290
     1
  0
XRECORD
  5
3128
102
{ACAD_REACTORS
330
3127
102
}
330
3127
100
AcDbXrecord
280
     1
290
     1
  0
XRECORD
  5
312A
102
{ACAD_REACTORS
330
3129
102
}
330
3129
100
AcDbXrecord
280
     1
290
     1
  0
XRECORD
  5
312C
102
{ACAD_REACTORS
330
312B
102
}
330
312B
100
AcDbXrecord
280
     1
290
     1
  0
XRECORD
  5
312E
102
{ACAD_REACTORS
330
312D
102
}
330
312D
100
AcDbXrecord
280
     1
290
     1
  0
XRECORD
  5
3130
102
{ACAD_REACTORS
330
312F
102
}
330
312F
100
AcDbXrecord
280
     1
290
     1
  0
XRECORD
  5
3132
102
{ACAD_REACTORS
330
3131
102
}
330
3131
100
AcDbXrecord
280
     1
290
     1
  0
XRECORD
  5
3134
102
{ACAD_REACTORS
330
3133
102
}
330
3133
100
AcDbXrecord
280
     1
290
     1
  0
XRECORD
  5
3136
102
{ACAD_REACTORS
330
3135
102
}
330
3135
100
AcDbXrecord
280
     1
290
     1
  0
XRECORD
  5
3138
102
{ACAD_REACTORS
330
3137
102
}
330
3137
100
AcDbXrecord
280
     1
290
     1
  0
XRECORD
  5
313A
102
{ACAD_REACTORS
330
3139
102
}
330
3139
100
AcDbXrecord
280
     1
290
     1
  0
XRECORD
  5
313C
102
{ACAD_REACTORS
330
313B
102
}
330
313B
100
AcDbXrecord
280
     1
290
     1
  0
XRECORD
  5
313E
102
{ACAD_REACTORS
330
313D
102
}
330
313D
100
AcDbXrecord
280
     1
290
     1
  0
XRECORD
  5
3140
102
{ACAD_REACTORS
330
313F
102
}
330
313F
100
AcDbXrecord
280
     1
290
     1
  0
XRECORD
  5
3142
102
{ACAD_REACTORS
330
3141
102
}
330
3141
100
AcDbXrecord
280
     1
290
     1
  0
XRECORD
  5
3144
102
{ACAD_REACTORS
330
3143
102
}
330
3143
100
AcDbXrecord
280
     1
290
     1
  0
XRECORD
  5
3146
102
{ACAD_REACTORS
330
3145
102
}
330
3145
100
AcDbXrecord
280
     1
290
     1
  0
XRECORD
  5
3148
102
{ACAD_REACTORS
330
3147
102
}
330
3147
100
AcDbXrecord
280
     1
290
     1
  0
XRECORD
  5
314A
102
{ACAD_REACTORS
330
3149
102
}
330
3149
100
AcDbXrecord
280
     1
290
     1
  0
XRECORD
  5
314C
102
{ACAD_REACTORS
330
314B
102
}
330
314B
100
AcDbXrecord
280
     1
290
     1
  0
XRECORD
  5
314E
102
{ACAD_REACTORS
330
314D
102
}
330
314D
100
AcDbXrecord
280
     1
290
     1
  0
XRECORD
  5
3150
102
{ACAD_REACTORS
330
314F
102
}
330
314F
100
AcDbXrecord
280
     1
290
     1
  0
XRECORD
  5
3152
102
{ACAD_REACTORS
330
3151
102
}
330
3151
100
AcDbXrecord
280
     1
290
     1
  0
ACDBDETAILVIEWSTYLE
  5
3100
102
{ACAD_REACTORS
330
30FF
102
}
330
30FF
100
AcDbModelDocViewStyle
 70
     0
  3
Imperial24
290
     0
100
AcDbDetailViewStyle
 70
     0
 71
     0
 90
        3
 71
     1
340
BE8
 40
0.24
340
0
 40
0.24
300

 40
0.36
280
     3
 71
     2
340
BEC
 90
       25
 71
     3
340
BE8
 40
0.24
 90
        1
 40
0.75
 90
        1
300
%<\AcVar ViewType \f "%tc1">% %<\AcVar ViewDetailId>%\PSCALE %<\AcVar ViewScale \f "%sn">%
 71
     4
340
BEC
 90
       25
340
BEC
 90
       25
280
     0
  0
LAYOUT
  5
BF6
102
{ACAD_XDICTIONARY
360
3166
102
}
102
{ACAD_REACTORS
330
BF0
102
}
330
BF0
100
AcDbPlotSettings
  1

  2
\\GBCFS501\GBCPR502
  4

  6

 40
0.0
 41
0.0
 42
0.0
 43
0.0
 44
0.0
 45
0.0
 46
0.0
 47
0.0
 48
0.0
 49
0.0
140
0.0
141
0.0
142
1.0
143
1.0
 70
   688
 72
     0
 73
     0
 74
     5
  7

 75
    16
147
1.0
148
0.0
149
0.0
100
AcDbLayout
  1
Layout1
 70
     1
 71
     1
 10
0.0
 20
0.0
 11
12.0
 21
9.0
 12
0.0
 22
0.0
 32
0.0
 14
1.000000000000000E+20
 24
1.000000000000000E+20
 34
1.000000000000000E+20
 15
-1.000000000000000E+20
 25
-1.000000000000000E+20
 35
-1.000000000000000E+20
146
0.0
 13
0.0
 23
0.0
 33
0.0
 16
1.0
 26
0.0
 36
0.0
 17
0.0
 27
1.0
 37
0.0
 76
     0
330
BF3
  0
LAYOUT
  5
BFA
102
{ACAD_XDICTIONARY
360
3168
102
}
102
{ACAD_REACTORS
330
BF0
102
}
330
BF0
100
AcDbPlotSettings
  1

  2
\\GBCFS501\GBCPR502
  4

  6

 40
0.0
 41
0.0
 42
0.0
 43
0.0
 44
0.0
 45
0.0
 46
0.0
 47
0.0
 48
0.0
 49
0.0
140
0.0
141
0.0
142
1.0
143
1.0
 70
  1712
 72
     0
 73
     0
 74
     0
  7

 75
     0
147
1.0
148
0.0
149
0.0
100
AcDbLayout
  1
Model
 70
     1
 71
     0
 10
0.0
 20
0.0
 11
12.0
 21
9.0
 12
0.0
 22
0.0
 32
0.0
 14
0.0
 24
0.0
 34
0.0
 15
0.0
 25
0.0
 35
0.0
146
0.0
 13
0.0
 23
0.0
 33
0.0
 16
1.0
 26
0.0
 36
0.0
 17
0.0
 27
1.0
 37
0.0
 76
     0
330
BF7
331
30B1
  0
MATERIAL
  5
30BD
102
{ACAD_XDICTIONARY
360
30BE
102
}
102
{ACAD_REACTORS
330
BF1
102
}
330
BF1
100
AcDbMaterial
  1
ByBlock
 72
     0
 43
0.0208333333333333
 43
0.0
 43
0.0
 43
0.0
 43
0.0
 43
0.0208333333333333
 43
0.0
 43
0.0
 43
0.0
 43
0.0
 43
1.0
 43
0.0
 43
0.0
 43
0.0
 43
0.0
 43
1.0
 77
     0
 47
0.0208333333333333
 47
0.0
 47
0.0
 47
0.0
 47
0.0
 47
0.0208333333333333
 47
0.0
 47
0.0
 47
0.0
 47
0.0
 47
1.0
 47
0.0
 47
0.0
 47
0.0
 47
0.0
 47
1.0
171
     0
 49
0.0208333333333333
 49
0.0
 49
0.0
 49
0.0
 49
0.0
 49
0.0208333333333333
 49
0.0
 49
0.0
 49
0.0
 49
0.0
 49
1.0
 49
0.0
 49
0.0
 49
0.0
 49
0.0
 49
1.0
175
     0
142
0.0208333333333333
142
0.0
142
0.0
142
0.0
142
0.0
142
0.0208333333333333
142
0.0
142
0.0
142
0.0
142
0.0
142
1.0
142
0.0
142
0.0
142
0.0
142
0.0
142
1.0
179
     0
144
0.0208333333333333
144
0.0
144
0.0
144
0.0
144
0.0
144
0.0208333333333333
144
0.0
144
0.0
144
0.0
144
0.0
144
1.0
144
0.0
144
0.0
144
0.0
144
0.0
144
1.0
147
0.0208333333333333
147
0.0
147
0.0
147
0.0
147
0.0
147
0.0208333333333333
147
0.0
147
0.0
147
0.0
147
0.0
147
1.0
147
0.0
147
0.0
147
0.0
147
0.0
147
1.0
  0
MATERIAL
  5
30B5
102
{ACAD_XDICTIONARY
360
30B6
102
}
102
{ACAD_REACTORS
330
BF1
102
}
330
BF1
100
AcDbMaterial
  1
ByLayer
 72
     0
 43
0.0208333333333333
 43
0.0
 43
0.0
 43
0.0
 43
0.0
 43
0.0208333333333333
 43
0.0
 43
0.0
 43
0.0
 43
0.0
 43
1.0
 43
0.0
 43
0.0
 43
0.0
 43
0.0
 43
1.0
 77
     0
 47
0.0208333333333333
 47
0.0
 47
0.0
 47
0.0
 47
0.0
 47
0.0208333333333333
 47
0.0
 47
0.0
 47
0.0
 47
0.0
 47
1.0
 47
0.0
 47
0.0
 47
0.0
 47
0.0
 47
1.0
171
     0
 49
0.0208333333333333
 49
0.0
 49
0.0
 49
0.0
 49
0.0
 49
0.0208333333333333
 49
0.0
 49
0.0
 49
0.0
 49
0.0
 49
1.0
 49
0.0
 49
0.0
 49
0.0
 49
0.0
 49
1.0
175
     0
142
0.0208333333333333
142
0.0
142
0.0
142
0.0
142
0.0
142
0.0208333333333333
142
0.0
142
0.0
142
0.0
142
0.0
142
1.0
142
0.0
142
0.0
142
0.0
142
0.0
142
1.0
179
     0
144
0.0208333333333333
144
0.0
144
0.0
144
0.0
144
0.0
144
0.0208333333333333
144
0.0
144
0.0
144
0.0
144
0.0
144
1.0
144
0.0
144
0.0
144
0.0
144
0.0
144
1.0
147
0.0208333333333333
147
0.0
147
0.0
147
0.0
147
0.0
147
0.0208333333333333
147
0.0
147
0.0
147
0.0
147
0.0
147
1.0
147
0.0
147
0.0
147
0.0
147
0.0
147
1.0
  0
MATERIAL
  5
30C5
102
{ACAD_XDICTIONARY
360
30C6
102
}
102
{ACAD_REACTORS
330
BF1
102
}
330
BF1
100
AcDbMaterial
  1
Global
 72
     0
 43
0.0208333333333333
 43
0.0
 43
0.0
 43
0.0
 43
0.0
 43
0.0208333333333333
 43
0.0
 43
0.0
 43
0.0
 43
0.0
 43
1.0
 43
0.0
 43
0.0
 43
0.0
 43
0.0
 43
1.0
 77
     0
 47
0.0208333333333333
 47
0.0
 47
0.0
 47
0.0
 47
0.0
 47
0.0208333333333333
 47
0.0
 47
0.0
 47
0.0
 47
0.0
 47
1.0
 47
0.0
 47
0.0
 47
0.0
 47
0.0
 47
1.0
171
     0
 49
0.0208333333333333
 49
0.0
 49
0.0
 49
0.0
 49
0.0
 49
0.0208333333333333
 49
0.0
 49
0.0
 49
0.0
 49
0.0
 49
1.0
 49
0.0
 49
0.0
 49
0.0
 49
0.0
 49
1.0
175
     0
142
0.0208333333333333
142
0.0
142
0.0
142
0.0
142
0.0
142
0.0208333333333333
142
0.0
142
0.0
142
0.0
142
0.0
142
1.0
142
0.0
142
0.0
142
0.0
142
0.0
142
1.0
179
     0
144
0.0208333333333333
144
0.0
144
0.0
144
0.0
144
0.0
144
0.0208333333333333
144
0.0
144
0.0
144
0.0
144
0.0
144
1.0
144
0.0
144
0.0
144
0.0
144
0.0
144
1.0
147
0.0208333333333333
147
0.0
147
0.0
147
0.0
147
0.0
147
0.0208333333333333
147
0.0
147
0.0
147
0.0
147
0.0
147
1.0
147
0.0
147
0.0
147
0.0
147
0.0
147
1.0
  0
MLEADERSTYLE
  5
30FB
102
{ACAD_REACTORS
330
30FA
102
}
330
30FA
100
AcDbMLeaderStyle
170
     2
171
     1
172
     0
 90
        2
 40
0.0
 41
0.0
173
     1
 91
-1056964608
340
BEA
 92
       -2
290
     1
 42
0.09
291
     1
 43
0.36
  3
Standard
 44
0.18
300

342
BE8
174
     1
178
     6
175
     1
176
     0
 93
-1056964608
 45
0.18
292
     0
297
     0
 46
0.18
 94
-1056964608
 47
1.0
 49
1.0
140
1.0
293
     1
141
0.0
294
     1
177
     0
142
1.0
295
     0
296
     0
143
0.125
1001
ACAD_MLEADERVER
1070
     2
  0
MLINESTYLE
  5
BEE
102
{ACAD_REACTORS
330
BED
102
}
330
BED
100
AcDbMlineStyle
  2
STANDARD
 70
     0
  3

 62
   256
 51
90.0
 52
90.0
 71
     2
 49
0.5
 62
   256
  6
BYLAYER
 49
-0.5
 62
   256
  6
BYLAYER
  0
ACDBPLACEHOLDER
  5
BE6
102
{ACAD_REACTORS
330
BE5
102
}
330
BE5
  0
SCALE
  5
30E9
102
{ACAD_REACTORS
330
30E8
102
}
330
30E8
100
AcDbScale
 70
     0
300
1:1
140
1.0
141
1.0
290
     1
  0
SCALE
  5
30EA
102
{ACAD_REACTORS
330
30E8
102
}
330
30E8
100
AcDbScale
 70
     0
300
1/128" = 1'-0"
140
0.0078125
141
12.0
290
     0
  0
SCALE
  5
30EB
102
{ACAD_REACTORS
330
30E8
102
}
330
30E8
100
AcDbScale
 70
     0
300
1/64" = 1'-0"
140
0.015625
141
12.0
290
     0
  0
SCALE
  5
30EC
102
{ACAD_REACTORS
330
30E8
102
}
330
30E8
100
AcDbScale
 70
     0
300
1/32" = 1'-0"
140
0.03125
141
12.0
290
     0
  0
SCALE
  5
30ED
102
{ACAD_REACTORS
330
30E8
102
}
330
30E8
100
AcDbScale
 70
     0
300
1/16" = 1'-0"
140
0.0625
141
12.0
290
     0
  0
SCALE
  5
30EE
102
{ACAD_REACTORS
330
30E8
102
}
330
30E8
100
AcDbScale
 70
     0
300
3/32" = 1'-0"
140
0.09375
141
12.0
290
     0
  0
SCALE
  5
30EF
102
{ACAD_REACTORS
330
30E8
102
}
330
30E8
100
AcDbScale
 70
     0
300
1/8" = 1'-0"
140
0.125
141
12.0
290
     0
  0
SCALE
  5
30F0
102
{ACAD_REACTORS
330
30E8
102
}
330
30E8
100
AcDbScale
 70
     0
300
3/16" = 1'-0"
140
0.1875
141
12.0
290
     0
  0
SCALE
  5
30F1
102
{ACAD_REACTORS
330
30E8
102
}
330
30E8
100
AcDbScale
 70
     0
300
1/4" = 1'-0"
140
0.25
141
12.0
290
     0
  0
SCALE
  5
30F2
102
{ACAD_REACTORS
330
30E8
102
}
330
30E8
100
AcDbScale
 70
     0
300
3/8" = 1'-0"
140
0.375
141
12.0
290
     0
  0
SCALE
  5
30F3
102
{ACAD_REACTORS
330
30E8
102
}
330
30E8
100
AcDbScale
 70
     0
300
1/2" = 1'-0"
140
0.5
141
12.0
290
     0
  0
SCALE
  5
30F4
102
{ACAD_REACTORS
330
30E8
102
}
330
30E8
100
AcDbScale
 70
     0
300
3/4" = 1'-0"
140
0.75
141
12.0
290
     0
  0
SCALE
  5
30F5
102
{ACAD_REACTORS
330
30E8
102
}
330
30E8
100
AcDbScale
 70
     0
300
1" = 1'-0"
140
1.0
141
12.0
290
     0
  0
SCALE
  5
30F6
102
{ACAD_REACTORS
330
30E8
102
}
330
30E8
100
AcDbScale
 70
     0
300
1-1/2" = 1'-0"
140
1.5
141
12.0
290
     0
  0
SCALE
  5
30F7
102
{ACAD_REACTORS
330
30E8
102
}
330
30E8
100
AcDbScale
 70
     0
300
3" = 1'-0"
140
3.0
141
12.0
290
     0
  0
SCALE
  5
30F8
102
{ACAD_REACTORS
330
30E8
102
}
330
30E8
100
AcDbScale
 70
     0
300
6" = 1'-0"
140
6.0
141
12.0
290
     0
  0
SCALE
  5
30F9
102
{ACAD_REACTORS
330
30E8
102
}
330
30E8
100
AcDbScale
 70
     0
300
1'-0" = 1'-0"
140
12.0
141
12.0
290
     0
  0
ACDBSECTIONVIEWSTYLE
  5
30FE
102
{ACAD_REACTORS
330
30FC
102
}
330
30FC
100
AcDbModelDocViewStyle
 70
     0
  3
Imperial24
290
     0
100
AcDbSectionViewStyle
 70
     0
 71
     0
 90
       78
 71
     1
340
BE8
 40
0.24
340
0
340
0
 40
0.24
300
I, O, Q, S, X, Z
 40
0.48
 90
        3
 40
0.18
 90
        1
 71
     2
340
30FD
 90
       25
340
BEC
 90
       50
 40
0.24
 40
0.0
 40
0.24
 71
     3
340
BE8
 40
0.24
 90
        1
 40
0.75
 90
        1
300
%<\AcVar ViewType \f "%tc1">% %<\AcVar ViewSectionStartId>%-%<\AcVar ViewSectionEndId>%\PSCALE %<\AcVar ViewScale \f "%sn">%
 71
     4
300
ANSI31
 40
1.0
 90
        0
290
     0
290
     0
 90
        6
 40
0.0
 40
1.570796326794896
 40
0.2617993877991494
 40
1.308996938995747
 40
-0.2617993877991494
 40
1.832595714594046
  0
TABLESTYLE
  5
30E7
102
{ACAD_XDICTIONARY
360
3162
102
}
102
{ACAD_REACTORS
330
30E6
102
}
330
30E6
100
AcDbTableStyle
  3
Standard
 70
     0
 71
     0
 40
0.06
 41
0.06
280
     0
281
     0
  7
STANDARD
140
0.18
170
     2
 62
     0
 63
     7
283
     0
274
    -2
284
     1
 64
     0
275
    -2
285
     1
 65
     0
276
    -2
286
     1
 66
     0
277
    -2
287
     1
 67
     0
278
    -2
288
     1
 68
     0
279
    -2
289
     1
 69
     0
  7
STANDARD
140
0.25
170
     5
 62
     0
 63
     7
283
     0
274
    -2
284
     1
 64
     0
275
    -2
285
     1
 65
     0
276
    -2
286
     1
 66
     0
277
    -2
287
     1
 67
     0
278
    -2
288
     1
 68
     0
279
    -2
289
     1
 69
     0
  7
STANDARD
140
0.18
170
     5
 62
     0
 63
     7
283
     0
274
    -2
284
     1
 64
     0
275
    -2
285
     1
 65
     0
276
    -2
286
     1
 66
     0
277
    -2
287
     1
 67
     0
278
    -2
288
     1
 68
     0
279
    -2
289
     1
 69
     0
  0
VISUALSTYLE
  5
30D3
102
{ACAD_XDICTIONARY
360
3177
102
}
102
{ACAD_REACTORS
330
30CD
102
}
330
30CD
100
AcDbVisualStyle
  2
2dWireframe
 70
     4
 71
     0
 72
     2
 73
     0
 90
        0
 40
-0.6
 41
-30.0
 62
     5
 63
     7
 74
     1
 91
        4
 64
     7
 65
   257
 75
     1
175
     1
 42
1.0
 92
        0
 66
   257
 43
1.0
 76
     1
 77
     6
 78
     2
 67
     7
 79
     5
170
     0
171
     0
290
     0
174
     0
 93
        1
 44
0.0
173
     0
291
     0
 45
0.0
1001
ACAD
1000
AcDbSavedByObjectVersion
1070
     0
  0
VISUALSTYLE
  5
30D2
102
{ACAD_XDICTIONARY
360
3175
102
}
102
{ACAD_REACTORS
330
30CD
102
}
330
30CD
100
AcDbVisualStyle
  2
Basic
 70
     7
 71
     1
 72
     0
 73
     1
 90
        0
 40
-0.6
 41
-30.0
 62
     5
 63
     7
 74
     0
 91
        4
 64
     7
 65
   257
 75
     1
175
     1
 42
1.0
 92
        8
 66
     7
 43
1.0
 76
     1
 77
     6
 78
     2
 67
     7
 79
     5
170
     0
171
     0
290
     0
174
     0
 93
        1
 44
0.0
173
     0
291
     1
 45
0.0
1001
ACAD
1000
AcDbSavedByObjectVersion
1070
     0
  0
VISUALSTYLE
  5
30D9
102
{ACAD_XDICTIONARY
360
3183
102
}
102
{ACAD_REACTORS
330
30CD
102
}
330
30CD
100
AcDbVisualStyle
  2
Brighten
 70
    12
 71
     2
 72
     2
 73
     0
 90
        0
 40
-0.6
 41
-30.0
 62
     5
 63
     7
 74
     1
 91
        4
 64
     7
 65
   257
 75
     1
175
     1
 42
1.0
 92
        8
 66
     7
 43
1.0
 76
     1
 77
     6
 78
     2
 67
     7
 79
     5
170
     0
171
     0
290
     0
174
     0
 93
        1
 44
50.0
173
     0
291
     1
 45
0.0
1001
ACAD
1000
AcDbSavedByObjectVersion
1070
     0
  0
VISUALSTYLE
  5
30DD
102
{ACAD_XDICTIONARY
360
318B
102
}
102
{ACAD_REACTORS
330
30CD
102
}
330
30CD
100
AcDbVisualStyle
  2
ColorChange
 70
    16
 71
     2
 72
     2
 73
     3
 90
        0
 40
-0.6
 41
-30.0
 62
     5
 63
     8
 74
     1
 91
        4
 64
     7
 65
   257
 75
     1
175
     1
 42
1.0
 92
        8
 66
     8
 43
1.0
 76
     1
 77
     6
 78
     2
 67
     7
 79
     5
170
     0
171
     0
290
     0
174
     0
 93
        1
 44
0.0
173
     0
291
     1
 45
0.0
1001
ACAD
1000
AcDbSavedByObjectVersion
1070
     0
  0
VISUALSTYLE
  5
30D6
102
{ACAD_XDICTIONARY
360
317D
102
}
102
{ACAD_REACTORS
330
30CD
102
}
330
30CD
100
AcDbVisualStyle
  2
Conceptual
 70
     9
 71
     3
 72
     2
 73
     0
 90
        0
 40
-0.6
 41
-30.0
 62
     5
 63
     7
 74
     2
 91
        2
 64
     7
 65
   257
 75
     1
175
     1
 42
179.0
 92
        8
 66
     7
 43
1.0
 76
     1
 77
     6
 78
     2
 67
     7
 79
     3
170
     0
171
     0
290
     0
174
     0
 93
        1
 44
0.0
173
     0
291
     0
 45
0.0
1001
ACAD
1000
AcDbSavedByObjectVersion
1070
     0
  0
VISUALSTYLE
  5
30D8
102
{ACAD_XDICTIONARY
360
3181
102
}
102
{ACAD_REACTORS
330
30CD
102
}
330
30CD
100
AcDbVisualStyle
  2
Dim
 70
    11
 71
     2
 72
     2
 73
     0
 90
        0
 40
-0.6
 41
-30.0
 62
     5
 63
     7
 74
     1
 91
        4
 64
     7
 65
   257
 75
     1
175
     1
 42
1.0
 92
        8
 66
     7
 43
1.0
 76
     1
 77
     6
 78
     2
 67
     7
 79
     5
170
     0
171
     0
290
     0
174
     0
 93
        1
 44
-50.0
173
     0
291
     1
 45
0.0
1001
ACAD
1000
AcDbSavedByObjectVersion
1070
     0
  0
VISUALSTYLE
  5
30E5
102
{ACAD_XDICTIONARY
360
319B
102
}
102
{ACAD_REACTORS
330
30CD
102
}
330
30CD
100
AcDbVisualStyle
  2
EdgeColorOff
 70
    22
 71
     2
 72
     2
 73
     0
 90
        0
 40
-0.6
 41
-30.0
 62
     5
 63
     7
 74
     1
 91
        4
 64
     7
 65
   257
 75
     1
175
     1
 42
1.0
 92
        8
 66
     7
 43
1.0
 76
     1
 77
     6
 78
     2
 67
     7
 79
     5
170
     0
171
     0
290
     0
174
     0
 93
        1
 44
0.0
173
     0
291
     1
 45
0.0
1001
ACAD
1000
AcDbSavedByObjectVersion
1070
     0
  0
VISUALSTYLE
  5
30DC
102
{ACAD_XDICTIONARY
360
3189
102
}
102
{ACAD_REACTORS
330
30CD
102
}
330
30CD
100
AcDbVisualStyle
  2
Facepattern
 70
    15
 71
     2
 72
     2
 73
     0
 90
        0
 40
-0.6
 41
-30.0
 62
     5
 63
     7
 74
     1
 91
        4
 64
     7
 65
   257
 75
     1
175
     1
 42
1.0
 92
        8
 66
     7
 43
1.0
 76
     1
 77
     6
 78
     2
 67
     7
 79
     5
170
     0
171
     0
290
     0
174
     0
 93
        1
 44
0.0
173
     0
291
     1
 45
0.0
1001
ACAD
1000
AcDbSavedByObjectVersion
1070
     0
  0
VISUALSTYLE
  5
30CE
102
{ACAD_XDICTIONARY
360
316D
102
}
102
{ACAD_REACTORS
330
30CD
102
}
330
30CD
100
AcDbVisualStyle
  2
Flat
 70
     0
 71
     2
 72
     1
 73
     1
 90
        2
 40
-0.6
 41
30.0
 62
     5
 63
     7
 74
     0
 91
        0
 64
     7
 65
   257
 75
     1
175
     1
 42
1.0
 92
        8
 66
     7
 43
1.0
 76
     1
 77
     6
 78
     2
 67
     7
 79
     5
170
     0
171
     0
290
     0
174
     0
 93
       13
 44
0.0
173
     0
291
     1
 45
0.0
1001
ACAD
1000
AcDbSavedByObjectVersion
1070
     0
  0
VISUALSTYLE
  5
30CF
102
{ACAD_XDICTIONARY
360
316F
102
}
102
{ACAD_REACTORS
330
30CD
102
}
330
30CD
100
AcDbVisualStyle
  2
FlatWithEdges
 70
     1
 71
     2
 72
     1
 73
     1
 90
        2
 40
-0.6
 41
30.0
 62
     5
 63
     7
 74
     1
 91
        0
 64
     7
 65
   257
 75
     1
175
     1
 42
1.0
 92
        0
 66
   257
 43
1.0
 76
     1
 77
     6
 78
     2
 67
     7
 79
     5
170
     0
171
     0
290
     0
174
     0
 93
       13
 44
0.0
173
     0
291
     1
 45
0.0
1001
ACAD
1000
AcDbSavedByObjectVersion
1070
     0
  0
VISUALSTYLE
  5
30D0
102
{ACAD_XDICTIONARY
360
3171
102
}
102
{ACAD_REACTORS
330
30CD
102
}
330
30CD
100
AcDbVisualStyle
  2
Gouraud
 70
     2
 71
     2
 72
     2
 73
     1
 90
        2
 40
-0.6
 41
30.0
 62
     5
 63
     7
 74
     0
 91
        0
 64
     7
 65
   257
 75
     1
175
     1
 42
1.0
 92
        0
 66
     7
 43
1.0
 76
     1
 77
     6
 78
     2
 67
     7
 79
     5
170
     0
171
     0
290
     0
174
     0
 93
       13
 44
0.0
173
     0
291
     1
 45
0.0
1001
ACAD
1000
AcDbSavedByObjectVersion
1070
     0
  0
VISUALSTYLE
  5
30D1
102
{ACAD_XDICTIONARY
360
3173
102
}
102
{ACAD_REACTORS
330
30CD
102
}
330
30CD
100
AcDbVisualStyle
  2
GouraudWithEdges
 70
     3
 71
     2
 72
     2
 73
     1
 90
        2
 40
-0.6
 41
30.0
 62
     5
 63
     7
 74
     1
 91
        0
 64
     7
 65
   257
 75
     1
175
     1
 42
1.0
 92
        0
 66
   257
 43
1.0
 76
     1
 77
     6
 78
     2
 67
     7
 79
     5
170
     0
171
     0
290
     0
174
     0
 93
       13
 44
0.0
173
     0
291
     1
 45
0.0
1001
ACAD
1000
AcDbSavedByObjectVersion
1070
     0
  0
VISUALSTYLE
  5
30D5
102
{ACAD_XDICTIONARY
360
317B
102
}
102
{ACAD_REACTORS
330
30CD
102
}
330
30CD
100
AcDbVisualStyle
  2
Hidden
 70
     6
 71
     1
 72
     2
 73
     2
 90
        0
 40
-0.6
 41
-30.0
 62
     5
 63
     7
 74
     2
 91
        2
 64
     7
 65
   257
 75
     2
175
     1
 42
40.0
 92
        0
 66
   257
 43
1.0
 76
     1
 77
     6
 78
     2
 67
     7
 79
     3
170
     0
171
     0
290
     0
174
     0
 93
        1
 44
0.0
173
     0
291
     0
 45
0.0
1001
ACAD
1000
AcDbSavedByObjectVersion
1070
     0
  0
VISUALSTYLE
  5
30E3
102
{ACAD_XDICTIONARY
360
3197
102
}
102
{ACAD_REACTORS
330
30CD
102
}
330
30CD
100
AcDbVisualStyle
  2
JitterOff
 70
    20
 71
     2
 72
     2
 73
     0
 90
        0
 40
-0.6
 41
-30.0
 62
     5
 63
     7
 74
     1
 91
        4
 64
     7
 65
   257
 75
     1
175
     1
 42
1.0
 92
       10
 66
     7
 43
1.0
 76
     1
 77
     6
 78
     2
 67
     7
 79
     5
170
     0
171
     0
290
     0
174
     0
 93
        1
 44
0.0
173
     0
291
     1
 45
0.0
1001
ACAD
1000
AcDbSavedByObjectVersion
1070
     0
  0
VISUALSTYLE
  5
30DB
102
{ACAD_XDICTIONARY
360
3187
102
}
102
{ACAD_REACTORS
330
30CD
102
}
330
30CD
100
AcDbVisualStyle
  2
Linepattern
 70
    14
 71
     2
 72
     2
 73
     0
 90
        0
 40
-0.6
 41
-30.0
 62
     5
 63
     7
 74
     1
 91
        4
 64
     7
 65
   257
 75
     7
175
     7
 42
1.0
 92
        8
 66
     7
 43
1.0
 76
     1
 77
     6
 78
     2
 67
     7
 79
     5
170
     0
171
     0
290
     0
174
     0
 93
        1
 44
0.0
173
     0
291
     1
 45
0.0
1001
ACAD
1000
AcDbSavedByObjectVersion
1070
     0
  0
VISUALSTYLE
  5
30E4
102
{ACAD_XDICTIONARY
360
3199
102
}
102
{ACAD_REACTORS
330
30CD
102
}
330
30CD
100
AcDbVisualStyle
  2
OverhangOff
 70
    21
 71
     2
 72
     2
 73
     0
 90
        0
 40
-0.6
 41
-30.0
 62
     5
 63
     7
 74
     1
 91
        4
 64
     7
 65
   257
 75
     1
175
     1
 42
1.0
 92
        9
 66
     7
 43
1.0
 76
     1
 77
     6
 78
     2
 67
     7
 79
     5
170
     0
171
     0
290
     0
174
     0
 93
        1
 44
0.0
173
     0
291
     1
 45
0.0
1001
ACAD
1000
AcDbSavedByObjectVersion
1070
     0
  0
VISUALSTYLE
  5
30D7
102
{ACAD_XDICTIONARY
360
317F
102
}
102
{ACAD_REACTORS
330
30CD
102
}
330
30CD
100
AcDbVisualStyle
  2
Realistic
 70
     8
 71
     2
 72
     3
 73
     0
 90
        2
 40
-0.6
 41
30.0
 62
     5
 63
     7
 74
     0
 91
        0
 64
     7
 65
   257
 75
     1
175
     1
 42
1.0
 92
        8
 66
   257
 43
1.0
 76
     1
 77
     6
 78
     2
 67
     7
 79
     3
170
     0
171
     0
290
     0
174
     0
 93
       13
 44
0.0
173
     0
291
     0
 45
0.0
1001
ACAD
1000
AcDbSavedByObjectVersion
1070
     0
  0
VISUALSTYLE
  5
30E2
102
{ACAD_XDICTIONARY
360
3195
102
}
102
{ACAD_REACTORS
330
30CD
102
}
330
30CD
100
AcDbVisualStyle
  2
Shaded
 70
    27
 71
     2
 72
     2
 73
     1
 90
        2
 40
-0.6
 41
30.0
 62
     5
 63
     7
 74
     0
 91
        4
 64
     7
 65
   257
 75
     1
175
     1
 42
1.0
 92
        8
 66
   257
 43
1.0
 76
     1
 77
     6
 78
     2
 67
     8
 79
     3
170
     0
171
     0
290
     0
174
     0
 93
        5
 44
0.0
173
     0
291
     0
 45
0.0
1001
ACAD
1000
AcDbSavedByObjectVersion
1070
     0
  0
VISUALSTYLE
  5
30E1
102
{ACAD_XDICTIONARY
360
3193
102
}
102
{ACAD_REACTORS
330
30CD
102
}
330
30CD
100
AcDbVisualStyle
  2
Shaded with edges
 70
    26
 71
     2
 72
     2
 73
     1
 90
        2
 40
-0.6
 41
30.0
 62
     5
 63
     7
 74
     1
 91
       10
 64
     7
 65
   257
 75
     2
175
     1
 42
1.0
 92
        8
 66
   257
 43
1.0
 76
     1
 77
     6
 78
     2
 67
     7
 79
     3
170
     0
171
     0
290
     0
174
     0
 93
        5
 44
0.0
173
     0
291
     0
 45
0.0
1001
ACAD
1000
AcDbSavedByObjectVersion
1070
     0
  0
VISUALSTYLE
  5
30DE
102
{ACAD_XDICTIONARY
360
318D
102
}
102
{ACAD_REACTORS
330
30CD
102
}
330
30CD
100
AcDbVisualStyle
  2
Shades of Gray
 70
    23
 71
     2
 72
     2
 73
     3
 90
        0
 40
-0.6
 41
-30.0
 62
     5
 63
     7
 74
     2
 91
        2
 64
     7
 65
     7
 75
     1
175
     1
 42
40.0
 92
        8
 66
     7
 43
1.0
 76
     1
 77
     6
 78
     2
 67
     7
 79
     3
170
     0
171
     0
290
     0
174
     0
 93
        1
 44
0.0
173
     0
291
     0
 45
0.0
1001
ACAD
1000
AcDbSavedByObjectVersion
1070
     0
  0
VISUALSTYLE
  5
30DF
102
{ACAD_XDICTIONARY
360
318F
102
}
102
{ACAD_REACTORS
330
30CD
102
}
330
30CD
100
AcDbVisualStyle
  2
Sketchy
 70
    24
 71
     1
 72
     2
 73
     2
 90
        0
 40
-0.6
 41
-30.0
 62
     5
 63
     7
 74
     2
 91
        2
 64
     7
 65
     7
 75
     1
175
     1
 42
40.0
 92
       11
 66
     7
 43
1.0
 76
     1
 77
     6
 78
     2
 67
     7
 79
     6
170
     0
171
     0
290
     0
174
     0
 93
        1
 44
0.0
173
     0
291
     0
 45
0.0
1001
ACAD
1000
AcDbSavedByObjectVersion
1070
     0
  0
VISUALSTYLE
  5
30DA
102
{ACAD_XDICTIONARY
360
3185
102
}
102
{ACAD_REACTORS
330
30CD
102
}
330
30CD
100
AcDbVisualStyle
  2
Thicken
 70
    13
 71
     2
 72
     2
 73
     0
 90
        0
 40
-0.6
 41
-30.0
 62
     5
 63
     7
 74
     1
 91
        4
 64
     7
 65
   257
 75
     1
175
     1
 42
1.0
 92
       12
 66
     7
 43
1.0
 76
     1
 77
     6
 78
     2
 67
     7
 79
     5
170
     0
171
     0
290
     0
174
     0
 93
        1
 44
0.0
173
     0
291
     1
 45
0.0
1001
ACAD
1000
AcDbSavedByObjectVersion
1070
     0
  0
VISUALSTYLE
  5
30D4
102
{ACAD_XDICTIONARY
360
3179
102
}
102
{ACAD_REACTORS
330
30CD
102
}
330
30CD
100
AcDbVisualStyle
  2
Wireframe
 70
     5
 71
     0
 72
     2
 73
     0
 90
        0
 40
-0.6
 41
-30.0
 62
     5
 63
     7
 74
     1
 91
        4
 64
     7
 65
   257
 75
     1
175
     1
 42
1.0
 92
        0
 66
   257
 43
1.0
 76
     1
 77
     6
 78
     2
 67
     7
 79
     3
170
     0
171
     0
290
     0
174
     0
 93
        1
 44
0.0
173
     0
291
     0
 45
0.0
1001
ACAD
1000
AcDbSavedByObjectVersion
1070
     0
  0
VISUALSTYLE
  5
30E0
102
{ACAD_XDICTIONARY
360
3191
102
}
102
{ACAD_REACTORS
330
30CD
102
}
330
30CD
100
AcDbVisualStyle
  2
X-Ray
 70
    25
 71
     2
 72
     2
 73
     1
 90
        1
 40
0.5
 41
-30.0
 62
     5
 63
     7
 74
     1
 91
        0
 64
     7
 65
   257
 75
     1
175
     1
 42
1.0
 92
        8
 66
     7
 43
1.0
 76
     1
 77
     6
 78
     2
 67
     7
 79
     3
170
     0
171
     0
290
     0
174
     0
 93
       13
 44
0.0
173
     0
291
     0
 45
0.0
1001
ACAD
1000
AcDbSavedByObjectVersion
1070
     0
  0
DICTIONARYVAR
  5
315C
102
{ACAD_REACTORS
330
3157
102
}
330
3157
100
DictionaryVariables
280
     0
  1
1:1
  0
DICTIONARYVAR
  5
3159
102
{ACAD_REACTORS
330
3157
102
}
330
3157
100
DictionaryVariables
280
     0
  1
STANDARD
  0
DICTIONARYVAR
  5
3158
102
{ACAD_REACTORS
330
3157
102
}
330
3157
100
DictionaryVariables
280
     0
  1
STANDARD
  0
DICTIONARYVAR
  5
315A
102
{ACAD_REACTORS
330
3157
102
}
330
3157
100
DictionaryVariables
280
     0
  1
Imperial24
  0
DICTIONARYVAR
  5
315B
102
{ACAD_REACTORS
330
3157
102
}
330
3157
100
DictionaryVariables
280
     0
  1
Imperial24
  0
DICTIONARYVAR
  5
3160
102
{ACAD_REACTORS
330
3157
102
}
330
3157
100
DictionaryVariables
280
     0
  1
1
  0
DICTIONARYVAR
  5
315E
102
{ACAD_REACTORS
330
3157
102
}
330
3157
100
DictionaryVariables
280
     0
  1
0
  0
DICTIONARYVAR
  5
315D
102
{ACAD_REACTORS
330
3157
102
}
330
3157
100
DictionaryVariables
280
     0
  1
127
  0
DICTIONARYVAR
  5
315F
102
{ACAD_REACTORS
330
3157
102
}
330
3157
100
DictionaryVariables
280
     0
  1
0
  0
XRECORD
  5
3156
102
{ACAD_REACTORS
330
3154
102
}
330
3154
100
AcDbXrecord
280
     1
  0
DICTIONARY
  5
3166
330
BF6
100
AcDbDictionary
280
     1
281
     1
  3
ACAD_XREC_ROUNDTRIP
360
3167
  0
DICTIONARY
  5
3168
330
BFA
100
AcDbDictionary
280
     1
281
     1
  3
ACAD_XREC_ROUNDTRIP
360
3169
  0
DICTIONARY
  5
30BE
330
30BD
100
AcDbDictionary
280
     1
281
     1
  3
ACAD_XREC_ROUNDTRIP
360
316B
  3
BUMPTILE
360
30C0
  3
DIFFUSETILE
360
30BF
  3
OPACITYTILE
360
30C3
  3
REFLECTIONTILE
360
30C2
  3
REFRACTIONTILE
360
30C4
  3
SPECULARTILE
360
30C1
  0
DICTIONARY
  5
30B6
330
30B5
100
AcDbDictionary
280
     1
281
     1
  3
ACAD_XREC_ROUNDTRIP
360
316A
  3
BUMPTILE
360
30B8
  3
DIFFUSETILE
360
30B7
  3
OPACITYTILE
360
30BB
  3
REFLECTIONTILE
360
30BA
  3
REFRACTIONTILE
360
30BC
  3
SPECULARTILE
360
30B9
  0
DICTIONARY
  5
30C6
330
30C5
100
AcDbDictionary
280
     1
281
     1
  3
ACAD_XREC_ROUNDTRIP
360
316C
  3
BUMPTILE
360
30C8
  3
DIFFUSETILE
360
30C7
  3
OPACITYTILE
360
30CB
  3
REFLECTIONTILE
360
30CA
  3
REFRACTIONTILE
360
30CC
  3
SPECULARTILE
360
30C9
  0
DICTIONARY
  5
3162
330
30E7
100
AcDbDictionary
280
     1
281
     1
  3
ACAD_ROUNDTRIP_2008_TABLESTYLE_CELLSTYLEMAP
360
3163
  3
ACAD_XREC_ROUNDTRIP
360
319D
  0
DICTIONARY
  5
3177
330
30D3
100
AcDbDictionary
280
     1
281
     1
  3
ACAD_XREC_ROUNDTRIP
360
3178
  0
DICTIONARY
  5
3175
330
30D2
100
AcDbDictionary
280
     1
281
     1
  3
ACAD_XREC_ROUNDTRIP
360
3176
  0
DICTIONARY
  5
3183
330
30D9
100
AcDbDictionary
280
     1
281
     1
  3
ACAD_XREC_ROUNDTRIP
360
3184
  0
DICTIONARY
  5
318B
330
30DD
100
AcDbDictionary
280
     1
281
     1
  3
ACAD_XREC_ROUNDTRIP
360
318C
  0
DICTIONARY
  5
317D
330
30D6
100
AcDbDictionary
280
     1
281
     1
  3
ACAD_XREC_ROUNDTRIP
360
317E
  0
DICTIONARY
  5
3181
330
30D8
100
AcDbDictionary
280
     1
281
     1
  3
ACAD_XREC_ROUNDTRIP
360
3182
  0
DICTIONARY
  5
319B
330
30E5
100
AcDbDictionary
280
     1
281
     1
  3
ACAD_XREC_ROUNDTRIP
360
319C
  0
DICTIONARY
  5
3189
330
30DC
100
AcDbDictionary
280
     1
281
     1
  3
ACAD_XREC_ROUNDTRIP
360
318A
  0
DICTIONARY
  5
316D
330
30CE
100
AcDbDictionary
280
     1
281
     1
  3
ACAD_XREC_ROUNDTRIP
360
316E
  0
DICTIONARY
  5
316F
330
30CF
100
AcDbDictionary
280
     1
281
     1
  3
ACAD_XREC_ROUNDTRIP
360
3170
  0
DICTIONARY
  5
3171
330
30D0
100
AcDbDictionary
280
     1
281
     1
  3
ACAD_XREC_ROUNDTRIP
360
3172
  0
DICTIONARY
  5
3173
330
30D1
100
AcDbDictionary
280
     1
281
     1
  3
ACAD_XREC_ROUNDTRIP
360
3174
  0
DICTIONARY
  5
317B
330
30D5
100
AcDbDictionary
280
     1
281
     1
  3
ACAD_XREC_ROUNDTRIP
360
317C
  0
DICTIONARY
  5
3197
330
30E3
100
AcDbDictionary
280
     1
281
     1
  3
ACAD_XREC_ROUNDTRIP
360
3198
  0
DICTIONARY
  5
3187
330
30DB
100
AcDbDictionary
280
     1
281
     1
  3
ACAD_XREC_ROUNDTRIP
360
3188
  0
DICTIONARY
  5
3199
330
30E4
100
AcDbDictionary
280
     1
281
     1
  3
ACAD_XREC_ROUNDTRIP
360
319A
  0
DICTIONARY
  5
317F
330
30D7
100
AcDbDictionary
280
     1
281
     1
  3
ACAD_XREC_ROUNDTRIP
360
3180
  0
DICTIONARY
  5
3195
330
30E2
100
AcDbDictionary
280
     1
281
     1
  3
ACAD_XREC_ROUNDTRIP
360
3196
  0
DICTIONARY
  5
3193
330
30E1
100
AcDbDictionary
280
     1
281
     1
  3
ACAD_XREC_ROUNDTRIP
360
3194
  0
DICTIONARY
  5
318D
330
30DE
100
AcDbDictionary
280
     1
281
     1
  3
ACAD_XREC_ROUNDTRIP
360
318E
  0
DICTIONARY
  5
318F
330
30DF
100
AcDbDictionary
280
     1
281
     1
  3
ACAD_XREC_ROUNDTRIP
360
3190
  0
DICTIONARY
  5
3185
330
30DA
100
AcDbDictionary
280
     1
281
     1
  3
ACAD_XREC_ROUNDTRIP
360
3186
  0
DICTIONARY
  5
3179
330
30D4
100
AcDbDictionary
280
     1
281
     1
  3
ACAD_XREC_ROUNDTRIP
360
317A
  0
DICTIONARY
  5
3191
330
30E0
100
AcDbDictionary
280
     1
281
     1
  3
ACAD_XREC_ROUNDTRIP
360
3192
  0
XRECORD
  5
3167
102
{ACAD_REACTORS
330
3166
102
}
330
3166
100
AcDbXrecord
280
     1
102
SHADEPLOT
 70
     0
102
SHADEPLOTRESLEVEL
 70
     2
102
SHADEPLOTCUSTOMDPI
 70
   300
  0
XRECORD
  5
3169
102
{ACAD_REACTORS
330
3168
102
}
330
3168
100
AcDbXrecord
280
     1
102
SHADEPLOT
 70
     0
102
SHADEPLOTRESLEVEL
 70
     2
102
SHADEPLOTCUSTOMDPI
 70
   300
  0
XRECORD
  5
316B
102
{ACAD_REACTORS
330
30BE
102
}
330
30BE
100
AcDbXrecord
280
     1
102
MATERIAL
148
0.0
149
0.0
149
0.0
 93
        0
 94
      127
282
     0
 72
     0
 77
     0
171
     0
175
     0
179
     0
273
     0
  0
XRECORD
  5
30C0
102
{ACAD_REACTORS
330
30BE
102
}
330
30BE
100
AcDbXrecord
280
     1
270
     1
271
     1
  0
XRECORD
  5
30BF
102
{ACAD_REACTORS
330
30BE
102
}
330
30BE
100
AcDbXrecord
280
     1
270
     1
271
     1
  0
XRECORD
  5
30C3
102
{ACAD_REACTORS
330
30BE
102
}
330
30BE
100
AcDbXrecord
280
     1
270
     1
271
     1
  0
XRECORD
  5
30C2
102
{ACAD_REACTORS
330
30BE
102
}
330
30BE
100
AcDbXrecord
280
     1
270
     1
271
     1
  0
XRECORD
  5
30C4
102
{ACAD_REACTORS
330
30BE
102
}
330
30BE
100
AcDbXrecord
280
     1
270
     1
271
     1
  0
XRECORD
  5
30C1
102
{ACAD_REACTORS
330
30BE
102
}
330
30BE
100
AcDbXrecord
280
     1
270
     1
271
     1
  0
XRECORD
  5
316A
102
{ACAD_REACTORS
330
30B6
102
}
330
30B6
100
AcDbXrecord
280
     1
102
MATERIAL
148
0.0
149
0.0
149
0.0
 93
        0
 94
      127
282
     0
 72
     0
 77
     0
171
     0
175
     0
179
     0
273
     0
  0
XRECORD
  5
30B8
102
{ACAD_REACTORS
330
30B6
102
}
330
30B6
100
AcDbXrecord
280
     1
270
     1
271
     1
  0
XRECORD
  5
30B7
102
{ACAD_REACTORS
330
30B6
102
}
330
30B6
100
AcDbXrecord
280
     1
270
     1
271
     1
  0
XRECORD
  5
30BB
102
{ACAD_REACTORS
330
30B6
102
}
330
30B6
100
AcDbXrecord
280
     1
270
     1
271
     1
  0
XRECORD
  5
30BA
102
{ACAD_REACTORS
330
30B6
102
}
330
30B6
100
AcDbXrecord
280
     1
270
     1
271
     1
  0
XRECORD
  5
30BC
102
{ACAD_REACTORS
330
30B6
102
}
330
30B6
100
AcDbXrecord
280
     1
270
     1
271
     1
  0
XRECORD
  5
30B9
102
{ACAD_REACTORS
330
30B6
102
}
330
30B6
100
AcDbXrecord
280
     1
270
     1
271
     1
  0
XRECORD
  5
316C
102
{ACAD_REACTORS
330
30C6
102
}
330
30C6
100
AcDbXrecord
280
     1
102
MATERIAL
148
0.0
149
0.0
149
0.0
 93
        0
 94
      127
282
     0
 72
     0
 77
     0
171
     0
175
     0
179
     0
273
     0
  0
XRECORD
  5
30C8
102
{ACAD_REACTORS
330
30C6
102
}
330
30C6
100
AcDbXrecord
280
     1
270
     1
271
     1
  0
XRECORD
  5
30C7
102
{ACAD_REACTORS
330
30C6
102
}
330
30C6
100
AcDbXrecord
280
     1
270
     1
271
     1
  0
XRECORD
  5
30CB
102
{ACAD_REACTORS
330
30C6
102
}
330
30C6
100
AcDbXrecord
280
     1
270
     1
271
     1
  0
XRECORD
  5
30CA
102
{ACAD_REACTORS
330
30C6
102
}
330
30C6
100
AcDbXrecord
280
     1
270
     1
271
     1
  0
XRECORD
  5
30CC
102
{ACAD_REACTORS
330
30C6
102
}
330
30C6
100
AcDbXrecord
280
     1
270
     1
271
     1
  0
XRECORD
  5
30C9
102
{ACAD_REACTORS
330
30C6
102
}
330
30C6
100
AcDbXrecord
280
     1
270
     1
271
     1
  0
CELLSTYLEMAP
  5
3163
102
{ACAD_REACTORS
330
3162
102
}
330
3162
100
AcDbCellStyleMap
 90
        3
300
CELLSTYLE
  1
TABLEFORMAT_BEGIN
 90
        5
170
     1
 91
        0
 92
    32768
 62
   257
 93
        1
300
CONTENTFORMAT
  1
CONTENTFORMAT_BEGIN
 90
        0
 91
        0
 92
      512
 93
        0
300

 40
0.0
140
1.0
 94
        5
 62
     0
340
BE8
144
0.25
309
CONTENTFORMAT_END
171
     0
 94
        0
309
TABLEFORMAT_END
  1
CELLSTYLE_BEGIN
 90
        1
 91
        1
300
_TITLE
309
CELLSTYLE_END
300
CELLSTYLE
  1
TABLEFORMAT_BEGIN
 90
        5
170
     1
 91
        0
 92
        0
 62
   257
 93
        1
300
CONTENTFORMAT
  1
CONTENTFORMAT_BEGIN
 90
        0
 91
        0
 92
      512
 93
        0
300

 40
0.0
140
1.0
 94
        5
 62
     0
340
BE8
144
0.18
309
CONTENTFORMAT_END
171
     0
 94
        0
309
TABLEFORMAT_END
  1
CELLSTYLE_BEGIN
 90
        2
 91
        1
300
_HEADER
309
CELLSTYLE_END
300
CELLSTYLE
  1
TABLEFORMAT_BEGIN
 90
        5
170
     1
 91
        0
 92
        0
 62
   257
 93
        1
300
CONTENTFORMAT
  1
CONTENTFORMAT_BEGIN
 90
        0
 91
        0
 92
      512
 93
        0
300

 40
0.0
140
1.0
 94
        2
 62
     0
340
BE8
144
0.18
309
CONTENTFORMAT_END
171
     0
 94
        0
309
TABLEFORMAT_END
  1
CELLSTYLE_BEGIN
 90
        3
 91
        2
300
_DATA
309
CELLSTYLE_END
  0
XRECORD
  5
319D
102
{ACAD_REACTORS
330
3162
102
}
330
3162
100
AcDbXrecord
280
     1
102
ACAD_ROUNDTRIP_PRE2007_TABLESTYLE
 90
      512
 91
        0
  1

 92
      512
 93
        0
  2

 94
      512
 95
        0
  3

  0
XRECORD
  5
3178
102
{ACAD_REACTORS
330
3177
102
}
330
3177
100
AcDbXrecord
280
     1
102
RTVSPost2010Prop28
280
     1
102
RTVSPost2010PropOp28
 70
     1
102
RTVSPost2010Prop29
280
     1
102
RTVSPost2010PropOp29
 70
     1
102
RTVSPost2010Prop30
280
     0
102
RTVSPost2010PropOp30
 70
     1
102
RTVSPost2010Prop31
280
     0
102
RTVSPost2010PropOp31
 70
     1
102
RTVSPost2010Prop32
280
     0
102
RTVSPost2010PropOp32
 70
     1
102
RTVSPost2010Prop33
280
     0
102
RTVSPost2010PropOp33
 70
     1
102
RTVSPost2010Prop34
280
     0
102
RTVSPost2010PropOp34
 70
     1
102
RTVSPost2010Prop35
280
     0
102
RTVSPost2010PropOp35
 70
     1
102
RTVSPost2010Prop36
280
     0
102
RTVSPost2010PropOp36
 70
     1
102
RTVSPost2010Prop37
 90
       50
102
RTVSPost2010PropOp37
 70
     1
102
RTVSPost2010Prop38
140
0.0
102
RTVSPost2010PropOp38
 70
     1
102
RTVSPost2010Prop39
140
1.0
102
RTVSPost2010PropOp39
 70
     1
102
RTVSPost2010Prop40
 90
        0
102
RTVSPost2010PropOp40
 70
     1
102
RTVSPost2010Prop41ColorIndex
 90
       18
102
RTVSPost2010Prop41ColorRGB
 90
        0
102
RTVSPost2010PropOp41
 70
     1
102
RTVSPost2010Prop42
 90
       50
102
RTVSPost2010PropOp42
 70
     1
102
RTVSPost2010Prop43
 90
        3
102
RTVSPost2010PropOp43
 70
     1
102
RTVSPost2010Prop44ColorIndex
 90
        5
102
RTVSPost2010Prop44ColorRGB
 90
      255
102
RTVSPost2010PropOp44
 70
     1
102
RTVSPost2010Prop45
280
     0
102
RTVSPost2010PropOp45
 70
     1
102
RTVSPost2010Prop46
 90
       50
102
RTVSPost2010PropOp46
 70
     1
102
RTVSPost2010Prop47
 90
       50
102
RTVSPost2010PropOp47
 70
     1
102
RTVSPost2010Prop48
 90
       50
102
RTVSPost2010PropOp48
 70
     1
102
RTVSPost2010Prop49
280
     0
102
RTVSPost2010PropOp49
 70
     1
102
RTVSPost2010Prop50
 90
       50
102
RTVSPost2010PropOp50
 70
     1
102
RTVSPost2010Prop51ColorIndex
 90
      256
102
RTVSPost2010Prop51ColorRGB
 90
-16777216
102
RTVSPost2010PropOp51
 70
     0
102
RTVSPost2010Prop52
140
1.0
102
RTVSPost2010PropOp52
 70
     0
102
RTVSPost2010Prop53
 90
        2
102
RTVSPost2010PropOp53
 70
     1
102
RTVSPost2010Prop54
  1
strokes_ogs.tif
102
RTVSPost2010PropOp54
 70
     1
102
RTVSPost2010Prop55
280
     0
102
RTVSPost2010PropOp55
 70
     1
102
RTVSPost2010Prop56
140
1.0
102
RTVSPost2010PropOp56
 70
     1
102
RTVSPost2010Prop57
140
1.0
102
RTVSPost2010PropOp57
 70
     1
102
RTVSPropertyOp0
 70
     1
102
RTVSPropertyOp1
 70
     1
102
RTVSPropertyOp2
 70
     1
102
RTVSPropertyOp3
 70
     1
102
RTVSPropertyOp4
 70
     1
102
RTVSPropertyOp5
 70
     1
102
RTVSPropertyOp6
 70
     1
102
RTVSPropertyOp7
 70
     1
102
RTVSPropertyOp8
 70
     1
102
RTVSPropertyOp9
 70
     1
102
RTVSPropertyOp10
 70
     1
102
RTVSPropertyOp11
 70
     1
102
RTVSPropertyOp12
 70
     1
102
RTVSPropertyOp13
 70
     1
102
RTVSPropertyOp14
 70
     1
102
RTVSPropertyOp15
 70
     1
102
RTVSPropertyOp16
 70
     1
102
RTVSPropertyOp17
 70
     1
102
RTVSPropertyOp18
 70
     1
102
RTVSPropertyOp19
 70
     1
102
RTVSPropertyOp20
 70
     1
102
RTVSPropertyOp21
 70
     1
102
RTVSPropertyOp22
 70
     1
102
RTVSPropertyOp23
 70
     1
102
RTVSPropertyOp24
 70
     1
102
RTVSPropertyOp25
 70
     1
102
RTVSPropertyOp26
 70
     1
102
RTVSPropertyOp27
 70
     1
102
RTVSPropertyOp28
 70
     1
102
RTVSPropertyOp29
 70
     1
102
RTVSPropertyOp30
 70
     1
102
RTVSPropertyOp31
 70
     1
102
RTVSPropertyOp32
 70
     1
102
RTVSPropertyOp33
 70
     1
102
RTVSPropertyOp34
 70
     1
102
RTVSPropertyOp35
 70
     1
102
RTVSPropertyOp36
 70
     1
102
RTVSPropertyOp37
 70
     1
102
RTVSPropertyOp38
 70
     1
102
RTVSPropertyOp39
 70
     1
102
RTVSPropertyOp40
 70
     1
102
RTVSPropertyOp41
 70
     1
102
RTVSPropertyOp42
 70
     1
102
RTVSPropertyOp43
 70
     1
102
RTVSPropertyOp44
 70
     1
102
RTVSPropertyOp45
 70
     1
102
RTVSPropertyOp46
 70
     1
102
RTVSPropertyOp47
 70
     1
102
RTVSPropertyOp48
 70
     1
102
RTVSPropertyOp49
 70
     1
102
RTVSPropertyOp50
 70
     1
102
RTVSPropertyOp51
 70
     0
102
RTVSPropertyOp52
 70
     0
102
RTVSPropertyOp53
 70
     1
102
RTVSPropertyOp54
 70
     1
102
RTVSPropertyOp55
 70
     1
102
RTVSPropertyOp56
 70
     1
102
RTVSPropertyOp57
 70
     1
102
RTVSPropertyOp58
 70
     1
102
RTVSPropertyOp59
 70
     1
102
RTVSPropertyOp60
 70
     1
102
RTVSPropertyOp61
 70
     1
102
RTVSPropertyOp62
 70
     1
  0
XRECORD
  5
3176
102
{ACAD_REACTORS
330
3175
102
}
330
3175
100
AcDbXrecord
280
     1
102
RTVSPost2010Prop28
280
     0
102
RTVSPost2010PropOp28
 70
     1
102
RTVSPost2010Prop29
280
     1
102
RTVSPost2010PropOp29
 70
     1
102
RTVSPost2010Prop30
280
     1
102
RTVSPost2010PropOp30
 70
     1
102
RTVSPost2010Prop31
280
     0
102
RTVSPost2010PropOp31
 70
     1
102
RTVSPost2010Prop32
280
     0
102
RTVSPost2010PropOp32
 70
     1
102
RTVSPost2010Prop33
280
     0
102
RTVSPost2010PropOp33
 70
     1
102
RTVSPost2010Prop34
280
     0
102
RTVSPost2010PropOp34
 70
     1
102
RTVSPost2010Prop35
280
     0
102
RTVSPost2010PropOp35
 70
     1
102
RTVSPost2010Prop36
280
     0
102
RTVSPost2010PropOp36
 70
     1
102
RTVSPost2010Prop37
 90
       50
102
RTVSPost2010PropOp37
 70
     1
102
RTVSPost2010Prop38
140
0.0
102
RTVSPost2010PropOp38
 70
     1
102
RTVSPost2010Prop39
140
1.0
102
RTVSPost2010PropOp39
 70
     1
102
RTVSPost2010Prop40
 90
        0
102
RTVSPost2010PropOp40
 70
     1
102
RTVSPost2010Prop41ColorIndex
 90
       18
102
RTVSPost2010Prop41ColorRGB
 90
        0
102
RTVSPost2010PropOp41
 70
     1
102
RTVSPost2010Prop42
 90
       50
102
RTVSPost2010PropOp42
 70
     1
102
RTVSPost2010Prop43
 90
        3
102
RTVSPost2010PropOp43
 70
     1
102
RTVSPost2010Prop44ColorIndex
 90
        5
102
RTVSPost2010Prop44ColorRGB
 90
      255
102
RTVSPost2010PropOp44
 70
     1
102
RTVSPost2010Prop45
280
     0
102
RTVSPost2010PropOp45
 70
     1
102
RTVSPost2010Prop46
 90
       50
102
RTVSPost2010PropOp46
 70
     1
102
RTVSPost2010Prop47
 90
       50
102
RTVSPost2010PropOp47
 70
     1
102
RTVSPost2010Prop48
 90
       50
102
RTVSPost2010PropOp48
 70
     1
102
RTVSPost2010Prop49
280
     0
102
RTVSPost2010PropOp49
 70
     1
102
RTVSPost2010Prop50
 90
       50
102
RTVSPost2010PropOp50
 70
     1
102
RTVSPost2010Prop51ColorIndex
 90
      256
102
RTVSPost2010Prop51ColorRGB
 90
-16777216
102
RTVSPost2010PropOp51
 70
     0
102
RTVSPost2010Prop52
140
1.0
102
RTVSPost2010PropOp52
 70
     0
102
RTVSPost2010Prop53
 90
        2
102
RTVSPost2010PropOp53
 70
     1
102
RTVSPost2010Prop54
  1
strokes_ogs.tif
102
RTVSPost2010PropOp54
 70
     1
102
RTVSPost2010Prop55
280
     0
102
RTVSPost2010PropOp55
 70
     1
102
RTVSPost2010Prop56
140
1.0
102
RTVSPost2010PropOp56
 70
     1
102
RTVSPost2010Prop57
140
1.0
102
RTVSPost2010PropOp57
 70
     1
102
RTVSPropertyOp0
 70
     1
102
RTVSPropertyOp1
 70
     1
102
RTVSPropertyOp2
 70
     1
102
RTVSPropertyOp3
 70
     1
102
RTVSPropertyOp4
 70
     1
102
RTVSPropertyOp5
 70
     1
102
RTVSPropertyOp6
 70
     1
102
RTVSPropertyOp7
 70
     1
102
RTVSPropertyOp8
 70
     1
102
RTVSPropertyOp9
 70
     1
102
RTVSPropertyOp10
 70
     1
102
RTVSPropertyOp11
 70
     1
102
RTVSPropertyOp12
 70
     1
102
RTVSPropertyOp13
 70
     1
102
RTVSPropertyOp14
 70
     1
102
RTVSPropertyOp15
 70
     1
102
RTVSPropertyOp16
 70
     1
102
RTVSPropertyOp17
 70
     1
102
RTVSPropertyOp18
 70
     1
102
RTVSPropertyOp19
 70
     1
102
RTVSPropertyOp20
 70
     1
102
RTVSPropertyOp21
 70
     1
102
RTVSPropertyOp22
 70
     1
102
RTVSPropertyOp23
 70
     1
102
RTVSPropertyOp24
 70
     1
102
RTVSPropertyOp25
 70
     1
102
RTVSPropertyOp26
 70
     1
102
RTVSPropertyOp27
 70
     1
102
RTVSPropertyOp28
 70
     1
102
RTVSPropertyOp29
 70
     1
102
RTVSPropertyOp30
 70
     1
102
RTVSPropertyOp31
 70
     1
102
RTVSPropertyOp32
 70
     1
102
RTVSPropertyOp33
 70
     1
102
RTVSPropertyOp34
 70
     1
102
RTVSPropertyOp35
 70
     1
102
RTVSPropertyOp36
 70
     1
102
RTVSPropertyOp37
 70
     1
102
RTVSPropertyOp38
 70
     1
102
RTVSPropertyOp39
 70
     1
102
RTVSPropertyOp40
 70
     1
102
RTVSPropertyOp41
 70
     1
102
RTVSPropertyOp42
 70
     1
102
RTVSPropertyOp43
 70
     1
102
RTVSPropertyOp44
 70
     1
102
RTVSPropertyOp45
 70
     1
102
RTVSPropertyOp46
 70
     1
102
RTVSPropertyOp47
 70
     1
102
RTVSPropertyOp48
 70
     1
102
RTVSPropertyOp49
 70
     1
102
RTVSPropertyOp50
 70
     1
102
RTVSPropertyOp51
 70
     0
102
RTVSPropertyOp52
 70
     0
102
RTVSPropertyOp53
 70
     1
102
RTVSPropertyOp54
 70
     1
102
RTVSPropertyOp55
 70
     1
102
RTVSPropertyOp56
 70
     1
102
RTVSPropertyOp57
 70
     1
102
RTVSPropertyOp58
 70
     1
102
RTVSPropertyOp59
 70
     1
102
RTVSPropertyOp60
 70
     1
102
RTVSPropertyOp61
 70
     1
102
RTVSPropertyOp62
 70
     1
  0
XRECORD
  5
3184
102
{ACAD_REACTORS
330
3183
102
}
330
3183
100
AcDbXrecord
280
     1
102
RTVSPost2010Prop28
280
     0
102
RTVSPost2010PropOp28
 70
     1
102
RTVSPost2010Prop29
280
     1
102
RTVSPost2010PropOp29
 70
     1
102
RTVSPost2010Prop30
280
     1
102
RTVSPost2010PropOp30
 70
     1
102
RTVSPost2010Prop31
280
     0
102
RTVSPost2010PropOp31
 70
     1
102
RTVSPost2010Prop32
280
     0
102
RTVSPost2010PropOp32
 70
     1
102
RTVSPost2010Prop33
280
     0
102
RTVSPost2010PropOp33
 70
     1
102
RTVSPost2010Prop34
280
     0
102
RTVSPost2010PropOp34
 70
     1
102
RTVSPost2010Prop35
280
     0
102
RTVSPost2010PropOp35
 70
     1
102
RTVSPost2010Prop36
280
     0
102
RTVSPost2010PropOp36
 70
     1
102
RTVSPost2010Prop37
 90
       50
102
RTVSPost2010PropOp37
 70
     1
102
RTVSPost2010Prop38
140
0.0
102
RTVSPost2010PropOp38
 70
     1
102
RTVSPost2010Prop39
140
1.0
102
RTVSPost2010PropOp39
 70
     1
102
RTVSPost2010Prop40
 90
        0
102
RTVSPost2010PropOp40
 70
     1
102
RTVSPost2010Prop41ColorIndex
 90
       18
102
RTVSPost2010Prop41ColorRGB
 90
        0
102
RTVSPost2010PropOp41
 70
     1
102
RTVSPost2010Prop42
 90
       50
102
RTVSPost2010PropOp42
 70
     1
102
RTVSPost2010Prop43
 90
        3
102
RTVSPost2010PropOp43
 70
     1
102
RTVSPost2010Prop44ColorIndex
 90
        5
102
RTVSPost2010Prop44ColorRGB
 90
      255
102
RTVSPost2010PropOp44
 70
     1
102
RTVSPost2010Prop45
280
     0
102
RTVSPost2010PropOp45
 70
     1
102
RTVSPost2010Prop46
 90
       50
102
RTVSPost2010PropOp46
 70
     1
102
RTVSPost2010Prop47
 90
       50
102
RTVSPost2010PropOp47
 70
     1
102
RTVSPost2010Prop48
 90
       50
102
RTVSPost2010PropOp48
 70
     1
102
RTVSPost2010Prop49
280
     0
102
RTVSPost2010PropOp49
 70
     1
102
RTVSPost2010Prop50
 90
       50
102
RTVSPost2010PropOp50
 70
     1
102
RTVSPost2010Prop51ColorIndex
 90
      256
102
RTVSPost2010Prop51ColorRGB
 90
-16777216
102
RTVSPost2010PropOp51
 70
     0
102
RTVSPost2010Prop52
140
1.0
102
RTVSPost2010PropOp52
 70
     0
102
RTVSPost2010Prop53
 90
        2
102
RTVSPost2010PropOp53
 70
     1
102
RTVSPost2010Prop54
  1
strokes_ogs.tif
102
RTVSPost2010PropOp54
 70
     1
102
RTVSPost2010Prop55
280
     0
102
RTVSPost2010PropOp55
 70
     1
102
RTVSPost2010Prop56
140
1.0
102
RTVSPost2010PropOp56
 70
     1
102
RTVSPost2010Prop57
140
1.0
102
RTVSPost2010PropOp57
 70
     1
102
RTVSPropertyOp0
 70
     1
102
RTVSPropertyOp1
 70
     1
102
RTVSPropertyOp2
 70
     1
102
RTVSPropertyOp3
 70
     1
102
RTVSPropertyOp4
 70
     1
102
RTVSPropertyOp5
 70
     1
102
RTVSPropertyOp6
 70
     1
102
RTVSPropertyOp7
 70
     1
102
RTVSPropertyOp8
 70
     1
102
RTVSPropertyOp9
 70
     1
102
RTVSPropertyOp10
 70
     1
102
RTVSPropertyOp11
 70
     1
102
RTVSPropertyOp12
 70
     1
102
RTVSPropertyOp13
 70
     1
102
RTVSPropertyOp14
 70
     1
102
RTVSPropertyOp15
 70
     1
102
RTVSPropertyOp16
 70
     1
102
RTVSPropertyOp17
 70
     1
102
RTVSPropertyOp18
 70
     1
102
RTVSPropertyOp19
 70
     1
102
RTVSPropertyOp20
 70
     1
102
RTVSPropertyOp21
 70
     1
102
RTVSPropertyOp22
 70
     1
102
RTVSPropertyOp23
 70
     1
102
RTVSPropertyOp24
 70
     1
102
RTVSPropertyOp25
 70
     1
102
RTVSPropertyOp26
 70
     1
102
RTVSPropertyOp27
 70
     1
102
RTVSPropertyOp28
 70
     1
102
RTVSPropertyOp29
 70
     1
102
RTVSPropertyOp30
 70
     1
102
RTVSPropertyOp31
 70
     1
102
RTVSPropertyOp32
 70
     1
102
RTVSPropertyOp33
 70
     1
102
RTVSPropertyOp34
 70
     1
102
RTVSPropertyOp35
 70
     1
102
RTVSPropertyOp36
 70
     1
102
RTVSPropertyOp37
 70
     1
102
RTVSPropertyOp38
 70
     1
102
RTVSPropertyOp39
 70
     1
102
RTVSPropertyOp40
 70
     1
102
RTVSPropertyOp41
 70
     1
102
RTVSPropertyOp42
 70
     1
102
RTVSPropertyOp43
 70
     1
102
RTVSPropertyOp44
 70
     1
102
RTVSPropertyOp45
 70
     1
102
RTVSPropertyOp46
 70
     1
102
RTVSPropertyOp47
 70
     1
102
RTVSPropertyOp48
 70
     1
102
RTVSPropertyOp49
 70
     1
102
RTVSPropertyOp50
 70
     1
102
RTVSPropertyOp51
 70
     0
102
RTVSPropertyOp52
 70
     0
102
RTVSPropertyOp53
 70
     1
102
RTVSPropertyOp54
 70
     1
102
RTVSPropertyOp55
 70
     1
102
RTVSPropertyOp56
 70
     1
102
RTVSPropertyOp57
 70
     1
102
RTVSPropertyOp58
 70
     1
102
RTVSPropertyOp59
 70
     1
102
RTVSPropertyOp60
 70
     1
102
RTVSPropertyOp61
 70
     1
102
RTVSPropertyOp62
 70
     1
  0
XRECORD
  5
318C
102
{ACAD_REACTORS
330
318B
102
}
330
318B
100
AcDbXrecord
280
     1
102
RTVSPost2010Prop28
280
     0
102
RTVSPost2010PropOp28
 70
     1
102
RTVSPost2010Prop29
280
     1
102
RTVSPost2010PropOp29
 70
     1
102
RTVSPost2010Prop30
280
     1
102
RTVSPost2010PropOp30
 70
     1
102
RTVSPost2010Prop31
280
     0
102
RTVSPost2010PropOp31
 70
     1
102
RTVSPost2010Prop32
280
     0
102
RTVSPost2010PropOp32
 70
     1
102
RTVSPost2010Prop33
280
     0
102
RTVSPost2010PropOp33
 70
     1
102
RTVSPost2010Prop34
280
     0
102
RTVSPost2010PropOp34
 70
     1
102
RTVSPost2010Prop35
280
     0
102
RTVSPost2010PropOp35
 70
     1
102
RTVSPost2010Prop36
280
     0
102
RTVSPost2010PropOp36
 70
     1
102
RTVSPost2010Prop37
 90
       50
102
RTVSPost2010PropOp37
 70
     1
102
RTVSPost2010Prop38
140
0.0
102
RTVSPost2010PropOp38
 70
     1
102
RTVSPost2010Prop39
140
1.0
102
RTVSPost2010PropOp39
 70
     1
102
RTVSPost2010Prop40
 90
        0
102
RTVSPost2010PropOp40
 70
     1
102
RTVSPost2010Prop41ColorIndex
 90
       18
102
RTVSPost2010Prop41ColorRGB
 90
        0
102
RTVSPost2010PropOp41
 70
     1
102
RTVSPost2010Prop42
 90
       50
102
RTVSPost2010PropOp42
 70
     1
102
RTVSPost2010Prop43
 90
        3
102
RTVSPost2010PropOp43
 70
     1
102
RTVSPost2010Prop44ColorIndex
 90
        5
102
RTVSPost2010Prop44ColorRGB
 90
      255
102
RTVSPost2010PropOp44
 70
     1
102
RTVSPost2010Prop45
280
     0
102
RTVSPost2010PropOp45
 70
     1
102
RTVSPost2010Prop46
 90
       50
102
RTVSPost2010PropOp46
 70
     1
102
RTVSPost2010Prop47
 90
       50
102
RTVSPost2010PropOp47
 70
     1
102
RTVSPost2010Prop48
 90
       50
102
RTVSPost2010PropOp48
 70
     1
102
RTVSPost2010Prop49
280
     0
102
RTVSPost2010PropOp49
 70
     1
102
RTVSPost2010Prop50
 90
       50
102
RTVSPost2010PropOp50
 70
     1
102
RTVSPost2010Prop51ColorIndex
 90
      256
102
RTVSPost2010Prop51ColorRGB
 90
-16777216
102
RTVSPost2010PropOp51
 70
     0
102
RTVSPost2010Prop52
140
1.0
102
RTVSPost2010PropOp52
 70
     0
102
RTVSPost2010Prop53
 90
        2
102
RTVSPost2010PropOp53
 70
     1
102
RTVSPost2010Prop54
  1
strokes_ogs.tif
102
RTVSPost2010PropOp54
 70
     1
102
RTVSPost2010Prop55
280
     0
102
RTVSPost2010PropOp55
 70
     1
102
RTVSPost2010Prop56
140
1.0
102
RTVSPost2010PropOp56
 70
     1
102
RTVSPost2010Prop57
140
1.0
102
RTVSPost2010PropOp57
 70
     1
102
RTVSPropertyOp0
 70
     1
102
RTVSPropertyOp1
 70
     1
102
RTVSPropertyOp2
 70
     1
102
RTVSPropertyOp3
 70
     1
102
RTVSPropertyOp4
 70
     1
102
RTVSPropertyOp5
 70
     1
102
RTVSPropertyOp6
 70
     1
102
RTVSPropertyOp7
 70
     1
102
RTVSPropertyOp8
 70
     1
102
RTVSPropertyOp9
 70
     1
102
RTVSPropertyOp10
 70
     1
102
RTVSPropertyOp11
 70
     1
102
RTVSPropertyOp12
 70
     1
102
RTVSPropertyOp13
 70
     1
102
RTVSPropertyOp14
 70
     1
102
RTVSPropertyOp15
 70
     1
102
RTVSPropertyOp16
 70
     1
102
RTVSPropertyOp17
 70
     1
102
RTVSPropertyOp18
 70
     1
102
RTVSPropertyOp19
 70
     1
102
RTVSPropertyOp20
 70
     1
102
RTVSPropertyOp21
 70
     1
102
RTVSPropertyOp22
 70
     1
102
RTVSPropertyOp23
 70
     1
102
RTVSPropertyOp24
 70
     1
102
RTVSPropertyOp25
 70
     1
102
RTVSPropertyOp26
 70
     1
102
RTVSPropertyOp27
 70
     1
102
RTVSPropertyOp28
 70
     1
102
RTVSPropertyOp29
 70
     1
102
RTVSPropertyOp30
 70
     1
102
RTVSPropertyOp31
 70
     1
102
RTVSPropertyOp32
 70
     1
102
RTVSPropertyOp33
 70
     1
102
RTVSPropertyOp34
 70
     1
102
RTVSPropertyOp35
 70
     1
102
RTVSPropertyOp36
 70
     1
102
RTVSPropertyOp37
 70
     1
102
RTVSPropertyOp38
 70
     1
102
RTVSPropertyOp39
 70
     1
102
RTVSPropertyOp40
 70
     1
102
RTVSPropertyOp41
 70
     1
102
RTVSPropertyOp42
 70
     1
102
RTVSPropertyOp43
 70
     1
102
RTVSPropertyOp44
 70
     1
102
RTVSPropertyOp45
 70
     1
102
RTVSPropertyOp46
 70
     1
102
RTVSPropertyOp47
 70
     1
102
RTVSPropertyOp48
 70
     1
102
RTVSPropertyOp49
 70
     1
102
RTVSPropertyOp50
 70
     1
102
RTVSPropertyOp51
 70
     0
102
RTVSPropertyOp52
 70
     0
102
RTVSPropertyOp53
 70
     1
102
RTVSPropertyOp54
 70
     1
102
RTVSPropertyOp55
 70
     1
102
RTVSPropertyOp56
 70
     1
102
RTVSPropertyOp57
 70
     1
102
RTVSPropertyOp58
 70
     1
102
RTVSPropertyOp59
 70
     1
102
RTVSPropertyOp60
 70
     1
102
RTVSPropertyOp61
 70
     1
102
RTVSPropertyOp62
 70
     1
  0
XRECORD
  5
317E
102
{ACAD_REACTORS
330
317D
102
}
330
317D
100
AcDbXrecord
280
     1
102
RTVSPost2010Prop28
280
     0
102
RTVSPost2010PropOp28
 70
     1
102
RTVSPost2010Prop29
280
     1
102
RTVSPost2010PropOp29
 70
     1
102
RTVSPost2010Prop30
280
     1
102
RTVSPost2010PropOp30
 70
     1
102
RTVSPost2010Prop31
280
     0
102
RTVSPost2010PropOp31
 70
     1
102
RTVSPost2010Prop32
280
     0
102
RTVSPost2010PropOp32
 70
     1
102
RTVSPost2010Prop33
280
     0
102
RTVSPost2010PropOp33
 70
     1
102
RTVSPost2010Prop34
280
     0
102
RTVSPost2010PropOp34
 70
     1
102
RTVSPost2010Prop35
280
     0
102
RTVSPost2010PropOp35
 70
     1
102
RTVSPost2010Prop36
280
     0
102
RTVSPost2010PropOp36
 70
     1
102
RTVSPost2010Prop37
 90
       50
102
RTVSPost2010PropOp37
 70
     1
102
RTVSPost2010Prop38
140
0.0
102
RTVSPost2010PropOp38
 70
     1
102
RTVSPost2010Prop39
140
1.0
102
RTVSPost2010PropOp39
 70
     1
102
RTVSPost2010Prop40
 90
        0
102
RTVSPost2010PropOp40
 70
     1
102
RTVSPost2010Prop41ColorIndex
 90
       18
102
RTVSPost2010Prop41ColorRGB
 90
        0
102
RTVSPost2010PropOp41
 70
     1
102
RTVSPost2010Prop42
 90
       50
102
RTVSPost2010PropOp42
 70
     1
102
RTVSPost2010Prop43
 90
        3
102
RTVSPost2010PropOp43
 70
     1
102
RTVSPost2010Prop44ColorIndex
 90
        5
102
RTVSPost2010Prop44ColorRGB
 90
      255
102
RTVSPost2010PropOp44
 70
     1
102
RTVSPost2010Prop45
280
     0
102
RTVSPost2010PropOp45
 70
     1
102
RTVSPost2010Prop46
 90
       50
102
RTVSPost2010PropOp46
 70
     1
102
RTVSPost2010Prop47
 90
       50
102
RTVSPost2010PropOp47
 70
     1
102
RTVSPost2010Prop48
 90
       50
102
RTVSPost2010PropOp48
 70
     1
102
RTVSPost2010Prop49
280
     0
102
RTVSPost2010PropOp49
 70
     1
102
RTVSPost2010Prop50
 90
       50
102
RTVSPost2010PropOp50
 70
     1
102
RTVSPost2010Prop51ColorIndex
 90
      256
102
RTVSPost2010Prop51ColorRGB
 90
-16777216
102
RTVSPost2010PropOp51
 70
     0
102
RTVSPost2010Prop52
140
1.0
102
RTVSPost2010PropOp52
 70
     0
102
RTVSPost2010Prop53
 90
        2
102
RTVSPost2010PropOp53
 70
     1
102
RTVSPost2010Prop54
  1
strokes_ogs.tif
102
RTVSPost2010PropOp54
 70
     1
102
RTVSPost2010Prop55
280
     0
102
RTVSPost2010PropOp55
 70
     1
102
RTVSPost2010Prop56
140
1.0
102
RTVSPost2010PropOp56
 70
     1
102
RTVSPost2010Prop57
140
1.0
102
RTVSPost2010PropOp57
 70
     1
102
RTVSPropertyOp0
 70
     1
102
RTVSPropertyOp1
 70
     1
102
RTVSPropertyOp2
 70
     1
102
RTVSPropertyOp3
 70
     1
102
RTVSPropertyOp4
 70
     1
102
RTVSPropertyOp5
 70
     1
102
RTVSPropertyOp6
 70
     1
102
RTVSPropertyOp7
 70
     1
102
RTVSPropertyOp8
 70
     1
102
RTVSPropertyOp9
 70
     1
102
RTVSPropertyOp10
 70
     1
102
RTVSPropertyOp11
 70
     1
102
RTVSPropertyOp12
 70
     1
102
RTVSPropertyOp13
 70
     1
102
RTVSPropertyOp14
 70
     1
102
RTVSPropertyOp15
 70
     1
102
RTVSPropertyOp16
 70
     1
102
RTVSPropertyOp17
 70
     1
102
RTVSPropertyOp18
 70
     1
102
RTVSPropertyOp19
 70
     1
102
RTVSPropertyOp20
 70
     1
102
RTVSPropertyOp21
 70
     1
102
RTVSPropertyOp22
 70
     1
102
RTVSPropertyOp23
 70
     1
102
RTVSPropertyOp24
 70
     1
102
RTVSPropertyOp25
 70
     1
102
RTVSPropertyOp26
 70
     1
102
RTVSPropertyOp27
 70
     1
102
RTVSPropertyOp28
 70
     1
102
RTVSPropertyOp29
 70
     1
102
RTVSPropertyOp30
 70
     1
102
RTVSPropertyOp31
 70
     1
102
RTVSPropertyOp32
 70
     1
102
RTVSPropertyOp33
 70
     1
102
RTVSPropertyOp34
 70
     1
102
RTVSPropertyOp35
 70
     1
102
RTVSPropertyOp36
 70
     1
102
RTVSPropertyOp37
 70
     1
102
RTVSPropertyOp38
 70
     1
102
RTVSPropertyOp39
 70
     1
102
RTVSPropertyOp40
 70
     1
102
RTVSPropertyOp41
 70
     1
102
RTVSPropertyOp42
 70
     1
102
RTVSPropertyOp43
 70
     1
102
RTVSPropertyOp44
 70
     1
102
RTVSPropertyOp45
 70
     1
102
RTVSPropertyOp46
 70
     1
102
RTVSPropertyOp47
 70
     1
102
RTVSPropertyOp48
 70
     1
102
RTVSPropertyOp49
 70
     1
102
RTVSPropertyOp50
 70
     1
102
RTVSPropertyOp51
 70
     0
102
RTVSPropertyOp52
 70
     0
102
RTVSPropertyOp53
 70
     1
102
RTVSPropertyOp54
 70
     1
102
RTVSPropertyOp55
 70
     1
102
RTVSPropertyOp56
 70
     1
102
RTVSPropertyOp57
 70
     1
102
RTVSPropertyOp58
 70
     1
102
RTVSPropertyOp59
 70
     1
102
RTVSPropertyOp60
 70
     1
102
RTVSPropertyOp61
 70
     1
102
RTVSPropertyOp62
 70
     1
  0
XRECORD
  5
3182
102
{ACAD_REACTORS
330
3181
102
}
330
3181
100
AcDbXrecord
280
     1
102
RTVSPost2010Prop28
280
     0
102
RTVSPost2010PropOp28
 70
     1
102
RTVSPost2010Prop29
280
     1
102
RTVSPost2010PropOp29
 70
     1
102
RTVSPost2010Prop30
280
     1
102
RTVSPost2010PropOp30
 70
     1
102
RTVSPost2010Prop31
280
     0
102
RTVSPost2010PropOp31
 70
     1
102
RTVSPost2010Prop32
280
     0
102
RTVSPost2010PropOp32
 70
     1
102
RTVSPost2010Prop33
280
     0
102
RTVSPost2010PropOp33
 70
     1
102
RTVSPost2010Prop34
280
     0
102
RTVSPost2010PropOp34
 70
     1
102
RTVSPost2010Prop35
280
     0
102
RTVSPost2010PropOp35
 70
     1
102
RTVSPost2010Prop36
280
     0
102
RTVSPost2010PropOp36
 70
     1
102
RTVSPost2010Prop37
 90
       50
102
RTVSPost2010PropOp37
 70
     1
102
RTVSPost2010Prop38
140
0.0
102
RTVSPost2010PropOp38
 70
     1
102
RTVSPost2010Prop39
140
1.0
102
RTVSPost2010PropOp39
 70
     1
102
RTVSPost2010Prop40
 90
        0
102
RTVSPost2010PropOp40
 70
     1
102
RTVSPost2010Prop41ColorIndex
 90
       18
102
RTVSPost2010Prop41ColorRGB
 90
        0
102
RTVSPost2010PropOp41
 70
     1
102
RTVSPost2010Prop42
 90
       50
102
RTVSPost2010PropOp42
 70
     1
102
RTVSPost2010Prop43
 90
        3
102
RTVSPost2010PropOp43
 70
     1
102
RTVSPost2010Prop44ColorIndex
 90
        5
102
RTVSPost2010Prop44ColorRGB
 90
      255
102
RTVSPost2010PropOp44
 70
     1
102
RTVSPost2010Prop45
280
     0
102
RTVSPost2010PropOp45
 70
     1
102
RTVSPost2010Prop46
 90
       50
102
RTVSPost2010PropOp46
 70
     1
102
RTVSPost2010Prop47
 90
       50
102
RTVSPost2010PropOp47
 70
     1
102
RTVSPost2010Prop48
 90
       50
102
RTVSPost2010PropOp48
 70
     1
102
RTVSPost2010Prop49
280
     0
102
RTVSPost2010PropOp49
 70
     1
102
RTVSPost2010Prop50
 90
       50
102
RTVSPost2010PropOp50
 70
     1
102
RTVSPost2010Prop51ColorIndex
 90
      256
102
RTVSPost2010Prop51ColorRGB
 90
-16777216
102
RTVSPost2010PropOp51
 70
     0
102
RTVSPost2010Prop52
140
1.0
102
RTVSPost2010PropOp52
 70
     0
102
RTVSPost2010Prop53
 90
        2
102
RTVSPost2010PropOp53
 70
     1
102
RTVSPost2010Prop54
  1
strokes_ogs.tif
102
RTVSPost2010PropOp54
 70
     1
102
RTVSPost2010Prop55
280
     0
102
RTVSPost2010PropOp55
 70
     1
102
RTVSPost2010Prop56
140
1.0
102
RTVSPost2010PropOp56
 70
     1
102
RTVSPost2010Prop57
140
1.0
102
RTVSPost2010PropOp57
 70
     1
102
RTVSPropertyOp0
 70
     1
102
RTVSPropertyOp1
 70
     1
102
RTVSPropertyOp2
 70
     1
102
RTVSPropertyOp3
 70
     1
102
RTVSPropertyOp4
 70
     1
102
RTVSPropertyOp5
 70
     1
102
RTVSPropertyOp6
 70
     1
102
RTVSPropertyOp7
 70
     1
102
RTVSPropertyOp8
 70
     1
102
RTVSPropertyOp9
 70
     1
102
RTVSPropertyOp10
 70
     1
102
RTVSPropertyOp11
 70
     1
102
RTVSPropertyOp12
 70
     1
102
RTVSPropertyOp13
 70
     1
102
RTVSPropertyOp14
 70
     1
102
RTVSPropertyOp15
 70
     1
102
RTVSPropertyOp16
 70
     1
102
RTVSPropertyOp17
 70
     1
102
RTVSPropertyOp18
 70
     1
102
RTVSPropertyOp19
 70
     1
102
RTVSPropertyOp20
 70
     1
102
RTVSPropertyOp21
 70
     1
102
RTVSPropertyOp22
 70
     1
102
RTVSPropertyOp23
 70
     1
102
RTVSPropertyOp24
 70
     1
102
RTVSPropertyOp25
 70
     1
102
RTVSPropertyOp26
 70
     1
102
RTVSPropertyOp27
 70
     1
102
RTVSPropertyOp28
 70
     1
102
RTVSPropertyOp29
 70
     1
102
RTVSPropertyOp30
 70
     1
102
RTVSPropertyOp31
 70
     1
102
RTVSPropertyOp32
 70
     1
102
RTVSPropertyOp33
 70
     1
102
RTVSPropertyOp34
 70
     1
102
RTVSPropertyOp35
 70
     1
102
RTVSPropertyOp36
 70
     1
102
RTVSPropertyOp37
 70
     1
102
RTVSPropertyOp38
 70
     1
102
RTVSPropertyOp39
 70
     1
102
RTVSPropertyOp40
 70
     1
102
RTVSPropertyOp41
 70
     1
102
RTVSPropertyOp42
 70
     1
102
RTVSPropertyOp43
 70
     1
102
RTVSPropertyOp44
 70
     1
102
RTVSPropertyOp45
 70
     1
102
RTVSPropertyOp46
 70
     1
102
RTVSPropertyOp47
 70
     1
102
RTVSPropertyOp48
 70
     1
102
RTVSPropertyOp49
 70
     1
102
RTVSPropertyOp50
 70
     1
102
RTVSPropertyOp51
 70
     0
102
RTVSPropertyOp52
 70
     0
102
RTVSPropertyOp53
 70
     1
102
RTVSPropertyOp54
 70
     1
102
RTVSPropertyOp55
 70
     1
102
RTVSPropertyOp56
 70
     1
102
RTVSPropertyOp57
 70
     1
102
RTVSPropertyOp58
 70
     1
102
RTVSPropertyOp59
 70
     1
102
RTVSPropertyOp60
 70
     1
102
RTVSPropertyOp61
 70
     1
102
RTVSPropertyOp62
 70
     1
  0
XRECORD
  5
319C
102
{ACAD_REACTORS
330
319B
102
}
330
319B
100
AcDbXrecord
280
     1
102
RTVSPost2010Prop28
280
     0
102
RTVSPost2010PropOp28
 70
     1
102
RTVSPost2010Prop29
280
     1
102
RTVSPost2010PropOp29
 70
     1
102
RTVSPost2010Prop30
280
     1
102
RTVSPost2010PropOp30
 70
     1
102
RTVSPost2010Prop31
280
     0
102
RTVSPost2010PropOp31
 70
     1
102
RTVSPost2010Prop32
280
     0
102
RTVSPost2010PropOp32
 70
     1
102
RTVSPost2010Prop33
280
     0
102
RTVSPost2010PropOp33
 70
     1
102
RTVSPost2010Prop34
280
     0
102
RTVSPost2010PropOp34
 70
     1
102
RTVSPost2010Prop35
280
     0
102
RTVSPost2010PropOp35
 70
     1
102
RTVSPost2010Prop36
280
     0
102
RTVSPost2010PropOp36
 70
     1
102
RTVSPost2010Prop37
 90
       50
102
RTVSPost2010PropOp37
 70
     0
102
RTVSPost2010Prop38
140
0.0
102
RTVSPost2010PropOp38
 70
     0
102
RTVSPost2010Prop39
140
1.0
102
RTVSPost2010PropOp39
 70
     0
102
RTVSPost2010Prop40
 90
        0
102
RTVSPost2010PropOp40
 70
     0
102
RTVSPost2010Prop41ColorIndex
 90
       18
102
RTVSPost2010Prop41ColorRGB
 90
        0
102
RTVSPost2010PropOp41
 70
     0
102
RTVSPost2010Prop42
 90
       50
102
RTVSPost2010PropOp42
 70
     0
102
RTVSPost2010Prop43
 90
        3
102
RTVSPost2010PropOp43
 70
     0
102
RTVSPost2010Prop44ColorIndex
 90
        5
102
RTVSPost2010Prop44ColorRGB
 90
      255
102
RTVSPost2010PropOp44
 70
     0
102
RTVSPost2010Prop45
280
     0
102
RTVSPost2010PropOp45
 70
     1
102
RTVSPost2010Prop46
 90
       50
102
RTVSPost2010PropOp46
 70
     0
102
RTVSPost2010Prop47
 90
       50
102
RTVSPost2010PropOp47
 70
     0
102
RTVSPost2010Prop48
 90
       50
102
RTVSPost2010PropOp48
 70
     0
102
RTVSPost2010Prop49
280
     0
102
RTVSPost2010PropOp49
 70
     1
102
RTVSPost2010Prop50
 90
       50
102
RTVSPost2010PropOp50
 70
     0
102
RTVSPost2010Prop51ColorIndex
 90
      256
102
RTVSPost2010Prop51ColorRGB
 90
-16777216
102
RTVSPost2010PropOp51
 70
     0
102
RTVSPost2010Prop52
140
1.0
102
RTVSPost2010PropOp52
 70
     0
102
RTVSPost2010Prop53
 90
        2
102
RTVSPost2010PropOp53
 70
     0
102
RTVSPost2010Prop54
  1
strokes_ogs.tif
102
RTVSPost2010PropOp54
 70
     0
102
RTVSPost2010Prop55
280
     0
102
RTVSPost2010PropOp55
 70
     1
102
RTVSPost2010Prop56
140
1.0
102
RTVSPost2010PropOp56
 70
     0
102
RTVSPost2010Prop57
140
1.0
102
RTVSPost2010PropOp57
 70
     0
102
RTVSPropertyOp0
 70
     0
102
RTVSPropertyOp1
 70
     0
102
RTVSPropertyOp2
 70
     0
102
RTVSPropertyOp3
 70
     0
102
RTVSPropertyOp4
 70
     0
102
RTVSPropertyOp5
 70
     0
102
RTVSPropertyOp6
 70
     0
102
RTVSPropertyOp7
 70
     0
102
RTVSPropertyOp8
 70
     0
102
RTVSPropertyOp9
 70
     0
102
RTVSPropertyOp10
 70
     0
102
RTVSPropertyOp11
 70
     0
102
RTVSPropertyOp12
 70
     0
102
RTVSPropertyOp13
 70
     0
102
RTVSPropertyOp14
 70
     2
102
RTVSPropertyOp15
 70
     0
102
RTVSPropertyOp16
 70
     0
102
RTVSPropertyOp17
 70
     0
102
RTVSPropertyOp18
 70
     0
102
RTVSPropertyOp19
 70
     0
102
RTVSPropertyOp20
 70
     0
102
RTVSPropertyOp21
 70
     0
102
RTVSPropertyOp22
 70
     0
102
RTVSPropertyOp23
 70
     0
102
RTVSPropertyOp24
 70
     0
102
RTVSPropertyOp25
 70
     0
102
RTVSPropertyOp26
 70
     0
102
RTVSPropertyOp27
 70
     0
102
RTVSPropertyOp28
 70
     1
102
RTVSPropertyOp29
 70
     1
102
RTVSPropertyOp30
 70
     1
102
RTVSPropertyOp31
 70
     1
102
RTVSPropertyOp32
 70
     1
102
RTVSPropertyOp33
 70
     1
102
RTVSPropertyOp34
 70
     1
102
RTVSPropertyOp35
 70
     1
102
RTVSPropertyOp36
 70
     1
102
RTVSPropertyOp37
 70
     0
102
RTVSPropertyOp38
 70
     0
102
RTVSPropertyOp39
 70
     0
102
RTVSPropertyOp40
 70
     0
102
RTVSPropertyOp41
 70
     0
102
RTVSPropertyOp42
 70
     0
102
RTVSPropertyOp43
 70
     0
102
RTVSPropertyOp44
 70
     0
102
RTVSPropertyOp45
 70
     1
102
RTVSPropertyOp46
 70
     0
102
RTVSPropertyOp47
 70
     0
102
RTVSPropertyOp48
 70
     0
102
RTVSPropertyOp49
 70
     1
102
RTVSPropertyOp50
 70
     0
102
RTVSPropertyOp51
 70
     0
102
RTVSPropertyOp52
 70
     0
102
RTVSPropertyOp53
 70
     0
102
RTVSPropertyOp54
 70
     0
102
RTVSPropertyOp55
 70
     1
102
RTVSPropertyOp56
 70
     0
102
RTVSPropertyOp57
 70
     0
102
RTVSPropertyOp58
 70
     0
102
RTVSPropertyOp59
 70
     0
102
RTVSPropertyOp60
 70
     0
102
RTVSPropertyOp61
 70
     0
102
RTVSPropertyOp62
 70
     0
  0
XRECORD
  5
318A
102
{ACAD_REACTORS
330
3189
102
}
330
3189
100
AcDbXrecord
280
     1
102
RTVSPost2010Prop28
280
     0
102
RTVSPost2010PropOp28
 70
     1
102
RTVSPost2010Prop29
280
     1
102
RTVSPost2010PropOp29
 70
     1
102
RTVSPost2010Prop30
280
     1
102
RTVSPost2010PropOp30
 70
     1
102
RTVSPost2010Prop31
280
     0
102
RTVSPost2010PropOp31
 70
     1
102
RTVSPost2010Prop32
280
     0
102
RTVSPost2010PropOp32
 70
     1
102
RTVSPost2010Prop33
280
     0
102
RTVSPost2010PropOp33
 70
     1
102
RTVSPost2010Prop34
280
     0
102
RTVSPost2010PropOp34
 70
     1
102
RTVSPost2010Prop35
280
     0
102
RTVSPost2010PropOp35
 70
     1
102
RTVSPost2010Prop36
280
     0
102
RTVSPost2010PropOp36
 70
     1
102
RTVSPost2010Prop37
 90
       50
102
RTVSPost2010PropOp37
 70
     1
102
RTVSPost2010Prop38
140
0.0
102
RTVSPost2010PropOp38
 70
     1
102
RTVSPost2010Prop39
140
1.0
102
RTVSPost2010PropOp39
 70
     1
102
RTVSPost2010Prop40
 90
        0
102
RTVSPost2010PropOp40
 70
     1
102
RTVSPost2010Prop41ColorIndex
 90
       18
102
RTVSPost2010Prop41ColorRGB
 90
        0
102
RTVSPost2010PropOp41
 70
     1
102
RTVSPost2010Prop42
 90
       50
102
RTVSPost2010PropOp42
 70
     1
102
RTVSPost2010Prop43
 90
        3
102
RTVSPost2010PropOp43
 70
     1
102
RTVSPost2010Prop44ColorIndex
 90
        5
102
RTVSPost2010Prop44ColorRGB
 90
      255
102
RTVSPost2010PropOp44
 70
     1
102
RTVSPost2010Prop45
280
     0
102
RTVSPost2010PropOp45
 70
     1
102
RTVSPost2010Prop46
 90
       50
102
RTVSPost2010PropOp46
 70
     1
102
RTVSPost2010Prop47
 90
       50
102
RTVSPost2010PropOp47
 70
     1
102
RTVSPost2010Prop48
 90
       50
102
RTVSPost2010PropOp48
 70
     1
102
RTVSPost2010Prop49
280
     0
102
RTVSPost2010PropOp49
 70
     1
102
RTVSPost2010Prop50
 90
       50
102
RTVSPost2010PropOp50
 70
     1
102
RTVSPost2010Prop51ColorIndex
 90
      256
102
RTVSPost2010Prop51ColorRGB
 90
-16777216
102
RTVSPost2010PropOp51
 70
     0
102
RTVSPost2010Prop52
140
1.0
102
RTVSPost2010PropOp52
 70
     0
102
RTVSPost2010Prop53
 90
        2
102
RTVSPost2010PropOp53
 70
     1
102
RTVSPost2010Prop54
  1
strokes_ogs.tif
102
RTVSPost2010PropOp54
 70
     1
102
RTVSPost2010Prop55
280
     0
102
RTVSPost2010PropOp55
 70
     1
102
RTVSPost2010Prop56
140
1.0
102
RTVSPost2010PropOp56
 70
     1
102
RTVSPost2010Prop57
140
1.0
102
RTVSPost2010PropOp57
 70
     1
102
RTVSPropertyOp0
 70
     1
102
RTVSPropertyOp1
 70
     1
102
RTVSPropertyOp2
 70
     1
102
RTVSPropertyOp3
 70
     1
102
RTVSPropertyOp4
 70
     1
102
RTVSPropertyOp5
 70
     1
102
RTVSPropertyOp6
 70
     1
102
RTVSPropertyOp7
 70
     1
102
RTVSPropertyOp8
 70
     1
102
RTVSPropertyOp9
 70
     1
102
RTVSPropertyOp10
 70
     1
102
RTVSPropertyOp11
 70
     1
102
RTVSPropertyOp12
 70
     1
102
RTVSPropertyOp13
 70
     1
102
RTVSPropertyOp14
 70
     1
102
RTVSPropertyOp15
 70
     1
102
RTVSPropertyOp16
 70
     1
102
RTVSPropertyOp17
 70
     1
102
RTVSPropertyOp18
 70
     1
102
RTVSPropertyOp19
 70
     1
102
RTVSPropertyOp20
 70
     1
102
RTVSPropertyOp21
 70
     1
102
RTVSPropertyOp22
 70
     1
102
RTVSPropertyOp23
 70
     1
102
RTVSPropertyOp24
 70
     1
102
RTVSPropertyOp25
 70
     1
102
RTVSPropertyOp26
 70
     1
102
RTVSPropertyOp27
 70
     1
102
RTVSPropertyOp28
 70
     1
102
RTVSPropertyOp29
 70
     1
102
RTVSPropertyOp30
 70
     1
102
RTVSPropertyOp31
 70
     1
102
RTVSPropertyOp32
 70
     1
102
RTVSPropertyOp33
 70
     1
102
RTVSPropertyOp34
 70
     1
102
RTVSPropertyOp35
 70
     1
102
RTVSPropertyOp36
 70
     1
102
RTVSPropertyOp37
 70
     1
102
RTVSPropertyOp38
 70
     1
102
RTVSPropertyOp39
 70
     1
102
RTVSPropertyOp40
 70
     1
102
RTVSPropertyOp41
 70
     1
102
RTVSPropertyOp42
 70
     1
102
RTVSPropertyOp43
 70
     1
102
RTVSPropertyOp44
 70
     1
102
RTVSPropertyOp45
 70
     1
102
RTVSPropertyOp46
 70
     1
102
RTVSPropertyOp47
 70
     1
102
RTVSPropertyOp48
 70
     1
102
RTVSPropertyOp49
 70
     1
102
RTVSPropertyOp50
 70
     1
102
RTVSPropertyOp51
 70
     0
102
RTVSPropertyOp52
 70
     0
102
RTVSPropertyOp53
 70
     1
102
RTVSPropertyOp54
 70
     1
102
RTVSPropertyOp55
 70
     1
102
RTVSPropertyOp56
 70
     1
102
RTVSPropertyOp57
 70
     1
102
RTVSPropertyOp58
 70
     1
102
RTVSPropertyOp59
 70
     1
102
RTVSPropertyOp60
 70
     1
102
RTVSPropertyOp61
 70
     1
102
RTVSPropertyOp62
 70
     1
  0
XRECORD
  5
316E
102
{ACAD_REACTORS
330
316D
102
}
330
316D
100
AcDbXrecord
280
     1
102
RTVSPost2010Prop28
280
     0
102
RTVSPost2010PropOp28
 70
     1
102
RTVSPost2010Prop29
280
     1
102
RTVSPost2010PropOp29
 70
     1
102
RTVSPost2010Prop30
280
     1
102
RTVSPost2010PropOp30
 70
     1
102
RTVSPost2010Prop31
280
     0
102
RTVSPost2010PropOp31
 70
     1
102
RTVSPost2010Prop32
280
     0
102
RTVSPost2010PropOp32
 70
     1
102
RTVSPost2010Prop33
280
     0
102
RTVSPost2010PropOp33
 70
     1
102
RTVSPost2010Prop34
280
     0
102
RTVSPost2010PropOp34
 70
     1
102
RTVSPost2010Prop35
280
     0
102
RTVSPost2010PropOp35
 70
     1
102
RTVSPost2010Prop36
280
     0
102
RTVSPost2010PropOp36
 70
     1
102
RTVSPost2010Prop37
 90
       50
102
RTVSPost2010PropOp37
 70
     1
102
RTVSPost2010Prop38
140
0.0
102
RTVSPost2010PropOp38
 70
     1
102
RTVSPost2010Prop39
140
1.0
102
RTVSPost2010PropOp39
 70
     1
102
RTVSPost2010Prop40
 90
        0
102
RTVSPost2010PropOp40
 70
     1
102
RTVSPost2010Prop41ColorIndex
 90
       18
102
RTVSPost2010Prop41ColorRGB
 90
        0
102
RTVSPost2010PropOp41
 70
     1
102
RTVSPost2010Prop42
 90
       50
102
RTVSPost2010PropOp42
 70
     1
102
RTVSPost2010Prop43
 90
        3
102
RTVSPost2010PropOp43
 70
     1
102
RTVSPost2010Prop44ColorIndex
 90
        5
102
RTVSPost2010Prop44ColorRGB
 90
      255
102
RTVSPost2010PropOp44
 70
     1
102
RTVSPost2010Prop45
280
     0
102
RTVSPost2010PropOp45
 70
     1
102
RTVSPost2010Prop46
 90
       50
102
RTVSPost2010PropOp46
 70
     1
102
RTVSPost2010Prop47
 90
       50
102
RTVSPost2010PropOp47
 70
     1
102
RTVSPost2010Prop48
 90
       50
102
RTVSPost2010PropOp48
 70
     1
102
RTVSPost2010Prop49
280
     0
102
RTVSPost2010PropOp49
 70
     1
102
RTVSPost2010Prop50
 90
       50
102
RTVSPost2010PropOp50
 70
     1
102
RTVSPost2010Prop51ColorIndex
 90
      256
102
RTVSPost2010Prop51ColorRGB
 90
-16777216
102
RTVSPost2010PropOp51
 70
     0
102
RTVSPost2010Prop52
140
1.0
102
RTVSPost2010PropOp52
 70
     0
102
RTVSPost2010Prop53
 90
        2
102
RTVSPost2010PropOp53
 70
     1
102
RTVSPost2010Prop54
  1
strokes_ogs.tif
102
RTVSPost2010PropOp54
 70
     1
102
RTVSPost2010Prop55
280
     0
102
RTVSPost2010PropOp55
 70
     1
102
RTVSPost2010Prop56
140
1.0
102
RTVSPost2010PropOp56
 70
     1
102
RTVSPost2010Prop57
140
1.0
102
RTVSPost2010PropOp57
 70
     1
102
RTVSPropertyOp0
 70
     1
102
RTVSPropertyOp1
 70
     1
102
RTVSPropertyOp2
 70
     1
102
RTVSPropertyOp3
 70
     1
102
RTVSPropertyOp4
 70
     1
102
RTVSPropertyOp5
 70
     1
102
RTVSPropertyOp6
 70
     1
102
RTVSPropertyOp7
 70
     1
102
RTVSPropertyOp8
 70
     1
102
RTVSPropertyOp9
 70
     1
102
RTVSPropertyOp10
 70
     1
102
RTVSPropertyOp11
 70
     1
102
RTVSPropertyOp12
 70
     1
102
RTVSPropertyOp13
 70
     1
102
RTVSPropertyOp14
 70
     1
102
RTVSPropertyOp15
 70
     1
102
RTVSPropertyOp16
 70
     1
102
RTVSPropertyOp17
 70
     1
102
RTVSPropertyOp18
 70
     1
102
RTVSPropertyOp19
 70
     1
102
RTVSPropertyOp20
 70
     1
102
RTVSPropertyOp21
 70
     1
102
RTVSPropertyOp22
 70
     1
102
RTVSPropertyOp23
 70
     1
102
RTVSPropertyOp24
 70
     1
102
RTVSPropertyOp25
 70
     1
102
RTVSPropertyOp26
 70
     1
102
RTVSPropertyOp27
 70
     1
102
RTVSPropertyOp28
 70
     1
102
RTVSPropertyOp29
 70
     1
102
RTVSPropertyOp30
 70
     1
102
RTVSPropertyOp31
 70
     1
102
RTVSPropertyOp32
 70
     1
102
RTVSPropertyOp33
 70
     1
102
RTVSPropertyOp34
 70
     1
102
RTVSPropertyOp35
 70
     1
102
RTVSPropertyOp36
 70
     1
102
RTVSPropertyOp37
 70
     1
102
RTVSPropertyOp38
 70
     1
102
RTVSPropertyOp39
 70
     1
102
RTVSPropertyOp40
 70
     1
102
RTVSPropertyOp41
 70
     1
102
RTVSPropertyOp42
 70
     1
102
RTVSPropertyOp43
 70
     1
102
RTVSPropertyOp44
 70
     1
102
RTVSPropertyOp45
 70
     1
102
RTVSPropertyOp46
 70
     1
102
RTVSPropertyOp47
 70
     1
102
RTVSPropertyOp48
 70
     1
102
RTVSPropertyOp49
 70
     1
102
RTVSPropertyOp50
 70
     1
102
RTVSPropertyOp51
 70
     0
102
RTVSPropertyOp52
 70
     0
102
RTVSPropertyOp53
 70
     1
102
RTVSPropertyOp54
 70
     1
102
RTVSPropertyOp55
 70
     1
102
RTVSPropertyOp56
 70
     1
102
RTVSPropertyOp57
 70
     1
102
RTVSPropertyOp58
 70
     1
102
RTVSPropertyOp59
 70
     1
102
RTVSPropertyOp60
 70
     1
102
RTVSPropertyOp61
 70
     1
102
RTVSPropertyOp62
 70
     1
  0
XRECORD
  5
3170
102
{ACAD_REACTORS
330
316F
102
}
330
316F
100
AcDbXrecord
280
     1
102
RTVSPost2010Prop28
280
     0
102
RTVSPost2010PropOp28
 70
     1
102
RTVSPost2010Prop29
280
     1
102
RTVSPost2010PropOp29
 70
     1
102
RTVSPost2010Prop30
280
     1
102
RTVSPost2010PropOp30
 70
     1
102
RTVSPost2010Prop31
280
     0
102
RTVSPost2010PropOp31
 70
     1
102
RTVSPost2010Prop32
280
     0
102
RTVSPost2010PropOp32
 70
     1
102
RTVSPost2010Prop33
280
     0
102
RTVSPost2010PropOp33
 70
     1
102
RTVSPost2010Prop34
280
     0
102
RTVSPost2010PropOp34
 70
     1
102
RTVSPost2010Prop35
280
     0
102
RTVSPost2010PropOp35
 70
     1
102
RTVSPost2010Prop36
280
     0
102
RTVSPost2010PropOp36
 70
     1
102
RTVSPost2010Prop37
 90
       50
102
RTVSPost2010PropOp37
 70
     1
102
RTVSPost2010Prop38
140
0.0
102
RTVSPost2010PropOp38
 70
     1
102
RTVSPost2010Prop39
140
1.0
102
RTVSPost2010PropOp39
 70
     1
102
RTVSPost2010Prop40
 90
        0
102
RTVSPost2010PropOp40
 70
     1
102
RTVSPost2010Prop41ColorIndex
 90
       18
102
RTVSPost2010Prop41ColorRGB
 90
        0
102
RTVSPost2010PropOp41
 70
     1
102
RTVSPost2010Prop42
 90
       50
102
RTVSPost2010PropOp42
 70
     1
102
RTVSPost2010Prop43
 90
        3
102
RTVSPost2010PropOp43
 70
     1
102
RTVSPost2010Prop44ColorIndex
 90
        5
102
RTVSPost2010Prop44ColorRGB
 90
      255
102
RTVSPost2010PropOp44
 70
     1
102
RTVSPost2010Prop45
280
     0
102
RTVSPost2010PropOp45
 70
     1
102
RTVSPost2010Prop46
 90
       50
102
RTVSPost2010PropOp46
 70
     1
102
RTVSPost2010Prop47
 90
       50
102
RTVSPost2010PropOp47
 70
     1
102
RTVSPost2010Prop48
 90
       50
102
RTVSPost2010PropOp48
 70
     1
102
RTVSPost2010Prop49
280
     0
102
RTVSPost2010PropOp49
 70
     1
102
RTVSPost2010Prop50
 90
       50
102
RTVSPost2010PropOp50
 70
     1
102
RTVSPost2010Prop51ColorIndex
 90
      256
102
RTVSPost2010Prop51ColorRGB
 90
-16777216
102
RTVSPost2010PropOp51
 70
     0
102
RTVSPost2010Prop52
140
1.0
102
RTVSPost2010PropOp52
 70
     0
102
RTVSPost2010Prop53
 90
        2
102
RTVSPost2010PropOp53
 70
     1
102
RTVSPost2010Prop54
  1
strokes_ogs.tif
102
RTVSPost2010PropOp54
 70
     1
102
RTVSPost2010Prop55
280
     0
102
RTVSPost2010PropOp55
 70
     1
102
RTVSPost2010Prop56
140
1.0
102
RTVSPost2010PropOp56
 70
     1
102
RTVSPost2010Prop57
140
1.0
102
RTVSPost2010PropOp57
 70
     1
102
RTVSPropertyOp0
 70
     1
102
RTVSPropertyOp1
 70
     1
102
RTVSPropertyOp2
 70
     1
102
RTVSPropertyOp3
 70
     1
102
RTVSPropertyOp4
 70
     1
102
RTVSPropertyOp5
 70
     1
102
RTVSPropertyOp6
 70
     1
102
RTVSPropertyOp7
 70
     1
102
RTVSPropertyOp8
 70
     1
102
RTVSPropertyOp9
 70
     1
102
RTVSPropertyOp10
 70
     1
102
RTVSPropertyOp11
 70
     1
102
RTVSPropertyOp12
 70
     1
102
RTVSPropertyOp13
 70
     1
102
RTVSPropertyOp14
 70
     1
102
RTVSPropertyOp15
 70
     1
102
RTVSPropertyOp16
 70
     1
102
RTVSPropertyOp17
 70
     1
102
RTVSPropertyOp18
 70
     1
102
RTVSPropertyOp19
 70
     1
102
RTVSPropertyOp20
 70
     1
102
RTVSPropertyOp21
 70
     1
102
RTVSPropertyOp22
 70
     1
102
RTVSPropertyOp23
 70
     1
102
RTVSPropertyOp24
 70
     1
102
RTVSPropertyOp25
 70
     1
102
RTVSPropertyOp26
 70
     1
102
RTVSPropertyOp27
 70
     1
102
RTVSPropertyOp28
 70
     1
102
RTVSPropertyOp29
 70
     1
102
RTVSPropertyOp30
 70
     1
102
RTVSPropertyOp31
 70
     1
102
RTVSPropertyOp32
 70
     1
102
RTVSPropertyOp33
 70
     1
102
RTVSPropertyOp34
 70
     1
102
RTVSPropertyOp35
 70
     1
102
RTVSPropertyOp36
 70
     1
102
RTVSPropertyOp37
 70
     1
102
RTVSPropertyOp38
 70
     1
102
RTVSPropertyOp39
 70
     1
102
RTVSPropertyOp40
 70
     1
102
RTVSPropertyOp41
 70
     1
102
RTVSPropertyOp42
 70
     1
102
RTVSPropertyOp43
 70
     1
102
RTVSPropertyOp44
 70
     1
102
RTVSPropertyOp45
 70
     1
102
RTVSPropertyOp46
 70
     1
102
RTVSPropertyOp47
 70
     1
102
RTVSPropertyOp48
 70
     1
102
RTVSPropertyOp49
 70
     1
102
RTVSPropertyOp50
 70
     1
102
RTVSPropertyOp51
 70
     0
102
RTVSPropertyOp52
 70
     0
102
RTVSPropertyOp53
 70
     1
102
RTVSPropertyOp54
 70
     1
102
RTVSPropertyOp55
 70
     1
102
RTVSPropertyOp56
 70
     1
102
RTVSPropertyOp57
 70
     1
102
RTVSPropertyOp58
 70
     1
102
RTVSPropertyOp59
 70
     1
102
RTVSPropertyOp60
 70
     1
102
RTVSPropertyOp61
 70
     1
102
RTVSPropertyOp62
 70
     1
  0
XRECORD
  5
3172
102
{ACAD_REACTORS
330
3171
102
}
330
3171
100
AcDbXrecord
280
     1
102
RTVSPost2010Prop28
280
     0
102
RTVSPost2010PropOp28
 70
     1
102
RTVSPost2010Prop29
280
     1
102
RTVSPost2010PropOp29
 70
     1
102
RTVSPost2010Prop30
280
     1
102
RTVSPost2010PropOp30
 70
     1
102
RTVSPost2010Prop31
280
     0
102
RTVSPost2010PropOp31
 70
     1
102
RTVSPost2010Prop32
280
     0
102
RTVSPost2010PropOp32
 70
     1
102
RTVSPost2010Prop33
280
     0
102
RTVSPost2010PropOp33
 70
     1
102
RTVSPost2010Prop34
280
     0
102
RTVSPost2010PropOp34
 70
     1
102
RTVSPost2010Prop35
280
     0
102
RTVSPost2010PropOp35
 70
     1
102
RTVSPost2010Prop36
280
     0
102
RTVSPost2010PropOp36
 70
     1
102
RTVSPost2010Prop37
 90
       50
102
RTVSPost2010PropOp37
 70
     1
102
RTVSPost2010Prop38
140
0.0
102
RTVSPost2010PropOp38
 70
     1
102
RTVSPost2010Prop39
140
1.0
102
RTVSPost2010PropOp39
 70
     1
102
RTVSPost2010Prop40
 90
        0
102
RTVSPost2010PropOp40
 70
     1
102
RTVSPost2010Prop41ColorIndex
 90
       18
102
RTVSPost2010Prop41ColorRGB
 90
        0
102
RTVSPost2010PropOp41
 70
     1
102
RTVSPost2010Prop42
 90
       50
102
RTVSPost2010PropOp42
 70
     1
102
RTVSPost2010Prop43
 90
        3
102
RTVSPost2010PropOp43
 70
     1
102
RTVSPost2010Prop44ColorIndex
 90
        5
102
RTVSPost2010Prop44ColorRGB
 90
      255
102
RTVSPost2010PropOp44
 70
     1
102
RTVSPost2010Prop45
280
     0
102
RTVSPost2010PropOp45
 70
     1
102
RTVSPost2010Prop46
 90
       50
102
RTVSPost2010PropOp46
 70
     1
102
RTVSPost2010Prop47
 90
       50
102
RTVSPost2010PropOp47
 70
     1
102
RTVSPost2010Prop48
 90
       50
102
RTVSPost2010PropOp48
 70
     1
102
RTVSPost2010Prop49
280
     0
102
RTVSPost2010PropOp49
 70
     1
102
RTVSPost2010Prop50
 90
       50
102
RTVSPost2010PropOp50
 70
     1
102
RTVSPost2010Prop51ColorIndex
 90
      256
102
RTVSPost2010Prop51ColorRGB
 90
-16777216
102
RTVSPost2010PropOp51
 70
     0
102
RTVSPost2010Prop52
140
1.0
102
RTVSPost2010PropOp52
 70
     0
102
RTVSPost2010Prop53
 90
        2
102
RTVSPost2010PropOp53
 70
     1
102
RTVSPost2010Prop54
  1
strokes_ogs.tif
102
RTVSPost2010PropOp54
 70
     1
102
RTVSPost2010Prop55
280
     0
102
RTVSPost2010PropOp55
 70
     1
102
RTVSPost2010Prop56
140
1.0
102
RTVSPost2010PropOp56
 70
     1
102
RTVSPost2010Prop57
140
1.0
102
RTVSPost2010PropOp57
 70
     1
102
RTVSPropertyOp0
 70
     1
102
RTVSPropertyOp1
 70
     1
102
RTVSPropertyOp2
 70
     1
102
RTVSPropertyOp3
 70
     1
102
RTVSPropertyOp4
 70
     1
102
RTVSPropertyOp5
 70
     1
102
RTVSPropertyOp6
 70
     1
102
RTVSPropertyOp7
 70
     1
102
RTVSPropertyOp8
 70
     1
102
RTVSPropertyOp9
 70
     1
102
RTVSPropertyOp10
 70
     1
102
RTVSPropertyOp11
 70
     1
102
RTVSPropertyOp12
 70
     1
102
RTVSPropertyOp13
 70
     1
102
RTVSPropertyOp14
 70
     1
102
RTVSPropertyOp15
 70
     1
102
RTVSPropertyOp16
 70
     1
102
RTVSPropertyOp17
 70
     1
102
RTVSPropertyOp18
 70
     1
102
RTVSPropertyOp19
 70
     1
102
RTVSPropertyOp20
 70
     1
102
RTVSPropertyOp21
 70
     1
102
RTVSPropertyOp22
 70
     1
102
RTVSPropertyOp23
 70
     1
102
RTVSPropertyOp24
 70
     1
102
RTVSPropertyOp25
 70
     1
102
RTVSPropertyOp26
 70
     1
102
RTVSPropertyOp27
 70
     1
102
RTVSPropertyOp28
 70
     1
102
RTVSPropertyOp29
 70
     1
102
RTVSPropertyOp30
 70
     1
102
RTVSPropertyOp31
 70
     1
102
RTVSPropertyOp32
 70
     1
102
RTVSPropertyOp33
 70
     1
102
RTVSPropertyOp34
 70
     1
102
RTVSPropertyOp35
 70
     1
102
RTVSPropertyOp36
 70
     1
102
RTVSPropertyOp37
 70
     1
102
RTVSPropertyOp38
 70
     1
102
RTVSPropertyOp39
 70
     1
102
RTVSPropertyOp40
 70
     1
102
RTVSPropertyOp41
 70
     1
102
RTVSPropertyOp42
 70
     1
102
RTVSPropertyOp43
 70
     1
102
RTVSPropertyOp44
 70
     1
102
RTVSPropertyOp45
 70
     1
102
RTVSPropertyOp46
 70
     1
102
RTVSPropertyOp47
 70
     1
102
RTVSPropertyOp48
 70
     1
102
RTVSPropertyOp49
 70
     1
102
RTVSPropertyOp50
 70
     1
102
RTVSPropertyOp51
 70
     0
102
RTVSPropertyOp52
 70
     0
102
RTVSPropertyOp53
 70
     1
102
RTVSPropertyOp54
 70
     1
102
RTVSPropertyOp55
 70
     1
102
RTVSPropertyOp56
 70
     1
102
RTVSPropertyOp57
 70
     1
102
RTVSPropertyOp58
 70
     1
102
RTVSPropertyOp59
 70
     1
102
RTVSPropertyOp60
 70
     1
102
RTVSPropertyOp61
 70
     1
102
RTVSPropertyOp62
 70
     1
  0
XRECORD
  5
3174
102
{ACAD_REACTORS
330
3173
102
}
330
3173
100
AcDbXrecord
280
     1
102
RTVSPost2010Prop28
280
     0
102
RTVSPost2010PropOp28
 70
     1
102
RTVSPost2010Prop29
280
     1
102
RTVSPost2010PropOp29
 70
     1
102
RTVSPost2010Prop30
280
     1
102
RTVSPost2010PropOp30
 70
     1
102
RTVSPost2010Prop31
280
     0
102
RTVSPost2010PropOp31
 70
     1
102
RTVSPost2010Prop32
280
     0
102
RTVSPost2010PropOp32
 70
     1
102
RTVSPost2010Prop33
280
     0
102
RTVSPost2010PropOp33
 70
     1
102
RTVSPost2010Prop34
280
     0
102
RTVSPost2010PropOp34
 70
     1
102
RTVSPost2010Prop35
280
     0
102
RTVSPost2010PropOp35
 70
     1
102
RTVSPost2010Prop36
280
     0
102
RTVSPost2010PropOp36
 70
     1
102
RTVSPost2010Prop37
 90
       50
102
RTVSPost2010PropOp37
 70
     1
102
RTVSPost2010Prop38
140
0.0
102
RTVSPost2010PropOp38
 70
     1
102
RTVSPost2010Prop39
140
1.0
102
RTVSPost2010PropOp39
 70
     1
102
RTVSPost2010Prop40
 90
        0
102
RTVSPost2010PropOp40
 70
     1
102
RTVSPost2010Prop41ColorIndex
 90
       18
102
RTVSPost2010Prop41ColorRGB
 90
        0
102
RTVSPost2010PropOp41
 70
     1
102
RTVSPost2010Prop42
 90
       50
102
RTVSPost2010PropOp42
 70
     1
102
RTVSPost2010Prop43
 90
        3
102
RTVSPost2010PropOp43
 70
     1
102
RTVSPost2010Prop44ColorIndex
 90
        5
102
RTVSPost2010Prop44ColorRGB
 90
      255
102
RTVSPost2010PropOp44
 70
     1
102
RTVSPost2010Prop45
280
     0
102
RTVSPost2010PropOp45
 70
     1
102
RTVSPost2010Prop46
 90
       50
102
RTVSPost2010PropOp46
 70
     1
102
RTVSPost2010Prop47
 90
       50
102
RTVSPost2010PropOp47
 70
     1
102
RTVSPost2010Prop48
 90
       50
102
RTVSPost2010PropOp48
 70
     1
102
RTVSPost2010Prop49
280
     0
102
RTVSPost2010PropOp49
 70
     1
102
RTVSPost2010Prop50
 90
       50
102
RTVSPost2010PropOp50
 70
     1
102
RTVSPost2010Prop51ColorIndex
 90
      256
102
RTVSPost2010Prop51ColorRGB
 90
-16777216
102
RTVSPost2010PropOp51
 70
     0
102
RTVSPost2010Prop52
140
1.0
102
RTVSPost2010PropOp52
 70
     0
102
RTVSPost2010Prop53
 90
        2
102
RTVSPost2010PropOp53
 70
     1
102
RTVSPost2010Prop54
  1
strokes_ogs.tif
102
RTVSPost2010PropOp54
 70
     1
102
RTVSPost2010Prop55
280
     0
102
RTVSPost2010PropOp55
 70
     1
102
RTVSPost2010Prop56
140
1.0
102
RTVSPost2010PropOp56
 70
     1
102
RTVSPost2010Prop57
140
1.0
102
RTVSPost2010PropOp57
 70
     1
102
RTVSPropertyOp0
 70
     1
102
RTVSPropertyOp1
 70
     1
102
RTVSPropertyOp2
 70
     1
102
RTVSPropertyOp3
 70
     1
102
RTVSPropertyOp4
 70
     1
102
RTVSPropertyOp5
 70
     1
102
RTVSPropertyOp6
 70
     1
102
RTVSPropertyOp7
 70
     1
102
RTVSPropertyOp8
 70
     1
102
RTVSPropertyOp9
 70
     1
102
RTVSPropertyOp10
 70
     1
102
RTVSPropertyOp11
 70
     1
102
RTVSPropertyOp12
 70
     1
102
RTVSPropertyOp13
 70
     1
102
RTVSPropertyOp14
 70
     1
102
RTVSPropertyOp15
 70
     1
102
RTVSPropertyOp16
 70
     1
102
RTVSPropertyOp17
 70
     1
102
RTVSPropertyOp18
 70
     1
102
RTVSPropertyOp19
 70
     1
102
RTVSPropertyOp20
 70
     1
102
RTVSPropertyOp21
 70
     1
102
RTVSPropertyOp22
 70
     1
102
RTVSPropertyOp23
 70
     1
102
RTVSPropertyOp24
 70
     1
102
RTVSPropertyOp25
 70
     1
102
RTVSPropertyOp26
 70
     1
102
RTVSPropertyOp27
 70
     1
102
RTVSPropertyOp28
 70
     1
102
RTVSPropertyOp29
 70
     1
102
RTVSPropertyOp30
 70
     1
102
RTVSPropertyOp31
 70
     1
102
RTVSPropertyOp32
 70
     1
102
RTVSPropertyOp33
 70
     1
102
RTVSPropertyOp34
 70
     1
102
RTVSPropertyOp35
 70
     1
102
RTVSPropertyOp36
 70
     1
102
RTVSPropertyOp37
 70
     1
102
RTVSPropertyOp38
 70
     1
102
RTVSPropertyOp39
 70
     1
102
RTVSPropertyOp40
 70
     1
102
RTVSPropertyOp41
 70
     1
102
RTVSPropertyOp42
 70
     1
102
RTVSPropertyOp43
 70
     1
102
RTVSPropertyOp44
 70
     1
102
RTVSPropertyOp45
 70
     1
102
RTVSPropertyOp46
 70
     1
102
RTVSPropertyOp47
 70
     1
102
RTVSPropertyOp48
 70
     1
102
RTVSPropertyOp49
 70
     1
102
RTVSPropertyOp50
 70
     1
102
RTVSPropertyOp51
 70
     0
102
RTVSPropertyOp52
 70
     0
102
RTVSPropertyOp53
 70
     1
102
RTVSPropertyOp54
 70
     1
102
RTVSPropertyOp55
 70
     1
102
RTVSPropertyOp56
 70
     1
102
RTVSPropertyOp57
 70
     1
102
RTVSPropertyOp58
 70
     1
102
RTVSPropertyOp59
 70
     1
102
RTVSPropertyOp60
 70
     1
102
RTVSPropertyOp61
 70
     1
102
RTVSPropertyOp62
 70
     1
  0
XRECORD
  5
317C
102
{ACAD_REACTORS
330
317B
102
}
330
317B
100
AcDbXrecord
280
     1
102
RTVSPost2010Prop28
280
     0
102
RTVSPost2010PropOp28
 70
     1
102
RTVSPost2010Prop29
280
     1
102
RTVSPost2010PropOp29
 70
     1
102
RTVSPost2010Prop30
280
     1
102
RTVSPost2010PropOp30
 70
     1
102
RTVSPost2010Prop31
280
     0
102
RTVSPost2010PropOp31
 70
     1
102
RTVSPost2010Prop32
280
     0
102
RTVSPost2010PropOp32
 70
     1
102
RTVSPost2010Prop33
280
     0
102
RTVSPost2010PropOp33
 70
     1
102
RTVSPost2010Prop34
280
     0
102
RTVSPost2010PropOp34
 70
     1
102
RTVSPost2010Prop35
280
     0
102
RTVSPost2010PropOp35
 70
     1
102
RTVSPost2010Prop36
280
     0
102
RTVSPost2010PropOp36
 70
     1
102
RTVSPost2010Prop37
 90
       50
102
RTVSPost2010PropOp37
 70
     1
102
RTVSPost2010Prop38
140
0.0
102
RTVSPost2010PropOp38
 70
     1
102
RTVSPost2010Prop39
140
1.0
102
RTVSPost2010PropOp39
 70
     1
102
RTVSPost2010Prop40
 90
        0
102
RTVSPost2010PropOp40
 70
     1
102
RTVSPost2010Prop41ColorIndex
 90
       18
102
RTVSPost2010Prop41ColorRGB
 90
        0
102
RTVSPost2010PropOp41
 70
     1
102
RTVSPost2010Prop42
 90
       50
102
RTVSPost2010PropOp42
 70
     1
102
RTVSPost2010Prop43
 90
        3
102
RTVSPost2010PropOp43
 70
     1
102
RTVSPost2010Prop44ColorIndex
 90
        5
102
RTVSPost2010Prop44ColorRGB
 90
      255
102
RTVSPost2010PropOp44
 70
     1
102
RTVSPost2010Prop45
280
     0
102
RTVSPost2010PropOp45
 70
     1
102
RTVSPost2010Prop46
 90
       50
102
RTVSPost2010PropOp46
 70
     1
102
RTVSPost2010Prop47
 90
       50
102
RTVSPost2010PropOp47
 70
     1
102
RTVSPost2010Prop48
 90
       50
102
RTVSPost2010PropOp48
 70
     1
102
RTVSPost2010Prop49
280
     0
102
RTVSPost2010PropOp49
 70
     1
102
RTVSPost2010Prop50
 90
       50
102
RTVSPost2010PropOp50
 70
     1
102
RTVSPost2010Prop51ColorIndex
 90
      256
102
RTVSPost2010Prop51ColorRGB
 90
-16777216
102
RTVSPost2010PropOp51
 70
     0
102
RTVSPost2010Prop52
140
1.0
102
RTVSPost2010PropOp52
 70
     0
102
RTVSPost2010Prop53
 90
        2
102
RTVSPost2010PropOp53
 70
     1
102
RTVSPost2010Prop54
  1
strokes_ogs.tif
102
RTVSPost2010PropOp54
 70
     1
102
RTVSPost2010Prop55
280
     0
102
RTVSPost2010PropOp55
 70
     1
102
RTVSPost2010Prop56
140
1.0
102
RTVSPost2010PropOp56
 70
     1
102
RTVSPost2010Prop57
140
1.0
102
RTVSPost2010PropOp57
 70
     1
102
RTVSPropertyOp0
 70
     1
102
RTVSPropertyOp1
 70
     1
102
RTVSPropertyOp2
 70
     1
102
RTVSPropertyOp3
 70
     1
102
RTVSPropertyOp4
 70
     1
102
RTVSPropertyOp5
 70
     1
102
RTVSPropertyOp6
 70
     1
102
RTVSPropertyOp7
 70
     1
102
RTVSPropertyOp8
 70
     1
102
RTVSPropertyOp9
 70
     1
102
RTVSPropertyOp10
 70
     1
102
RTVSPropertyOp11
 70
     1
102
RTVSPropertyOp12
 70
     1
102
RTVSPropertyOp13
 70
     1
102
RTVSPropertyOp14
 70
     1
102
RTVSPropertyOp15
 70
     1
102
RTVSPropertyOp16
 70
     1
102
RTVSPropertyOp17
 70
     1
102
RTVSPropertyOp18
 70
     1
102
RTVSPropertyOp19
 70
     1
102
RTVSPropertyOp20
 70
     1
102
RTVSPropertyOp21
 70
     1
102
RTVSPropertyOp22
 70
     1
102
RTVSPropertyOp23
 70
     1
102
RTVSPropertyOp24
 70
     1
102
RTVSPropertyOp25
 70
     1
102
RTVSPropertyOp26
 70
     1
102
RTVSPropertyOp27
 70
     1
102
RTVSPropertyOp28
 70
     1
102
RTVSPropertyOp29
 70
     1
102
RTVSPropertyOp30
 70
     1
102
RTVSPropertyOp31
 70
     1
102
RTVSPropertyOp32
 70
     1
102
RTVSPropertyOp33
 70
     1
102
RTVSPropertyOp34
 70
     1
102
RTVSPropertyOp35
 70
     1
102
RTVSPropertyOp36
 70
     1
102
RTVSPropertyOp37
 70
     1
102
RTVSPropertyOp38
 70
     1
102
RTVSPropertyOp39
 70
     1
102
RTVSPropertyOp40
 70
     1
102
RTVSPropertyOp41
 70
     1
102
RTVSPropertyOp42
 70
     1
102
RTVSPropertyOp43
 70
     1
102
RTVSPropertyOp44
 70
     1
102
RTVSPropertyOp45
 70
     1
102
RTVSPropertyOp46
 70
     1
102
RTVSPropertyOp47
 70
     1
102
RTVSPropertyOp48
 70
     1
102
RTVSPropertyOp49
 70
     1
102
RTVSPropertyOp50
 70
     1
102
RTVSPropertyOp51
 70
     0
102
RTVSPropertyOp52
 70
     0
102
RTVSPropertyOp53
 70
     1
102
RTVSPropertyOp54
 70
     1
102
RTVSPropertyOp55
 70
     1
102
RTVSPropertyOp56
 70
     1
102
RTVSPropertyOp57
 70
     1
102
RTVSPropertyOp58
 70
     1
102
RTVSPropertyOp59
 70
     1
102
RTVSPropertyOp60
 70
     1
102
RTVSPropertyOp61
 70
     1
102
RTVSPropertyOp62
 70
     1
  0
XRECORD
  5
3198
102
{ACAD_REACTORS
330
3197
102
}
330
3197
100
AcDbXrecord
280
     1
102
RTVSPost2010Prop28
280
     0
102
RTVSPost2010PropOp28
 70
     1
102
RTVSPost2010Prop29
280
     1
102
RTVSPost2010PropOp29
 70
     1
102
RTVSPost2010Prop30
280
     1
102
RTVSPost2010PropOp30
 70
     1
102
RTVSPost2010Prop31
280
     0
102
RTVSPost2010PropOp31
 70
     1
102
RTVSPost2010Prop32
280
     0
102
RTVSPost2010PropOp32
 70
     1
102
RTVSPost2010Prop33
280
     0
102
RTVSPost2010PropOp33
 70
     1
102
RTVSPost2010Prop34
280
     0
102
RTVSPost2010PropOp34
 70
     1
102
RTVSPost2010Prop35
280
     0
102
RTVSPost2010PropOp35
 70
     1
102
RTVSPost2010Prop36
280
     0
102
RTVSPost2010PropOp36
 70
     1
102
RTVSPost2010Prop37
 90
       50
102
RTVSPost2010PropOp37
 70
     0
102
RTVSPost2010Prop38
140
0.0
102
RTVSPost2010PropOp38
 70
     0
102
RTVSPost2010Prop39
140
1.0
102
RTVSPost2010PropOp39
 70
     0
102
RTVSPost2010Prop40
 90
        0
102
RTVSPost2010PropOp40
 70
     0
102
RTVSPost2010Prop41ColorIndex
 90
       18
102
RTVSPost2010Prop41ColorRGB
 90
        0
102
RTVSPost2010PropOp41
 70
     0
102
RTVSPost2010Prop42
 90
       50
102
RTVSPost2010PropOp42
 70
     0
102
RTVSPost2010Prop43
 90
        3
102
RTVSPost2010PropOp43
 70
     0
102
RTVSPost2010Prop44ColorIndex
 90
        5
102
RTVSPost2010Prop44ColorRGB
 90
      255
102
RTVSPost2010PropOp44
 70
     0
102
RTVSPost2010Prop45
280
     0
102
RTVSPost2010PropOp45
 70
     1
102
RTVSPost2010Prop46
 90
       50
102
RTVSPost2010PropOp46
 70
     0
102
RTVSPost2010Prop47
 90
       50
102
RTVSPost2010PropOp47
 70
     0
102
RTVSPost2010Prop48
 90
       50
102
RTVSPost2010PropOp48
 70
     0
102
RTVSPost2010Prop49
280
     0
102
RTVSPost2010PropOp49
 70
     1
102
RTVSPost2010Prop50
 90
       50
102
RTVSPost2010PropOp50
 70
     0
102
RTVSPost2010Prop51ColorIndex
 90
      256
102
RTVSPost2010Prop51ColorRGB
 90
-16777216
102
RTVSPost2010PropOp51
 70
     0
102
RTVSPost2010Prop52
140
1.0
102
RTVSPost2010PropOp52
 70
     0
102
RTVSPost2010Prop53
 90
        2
102
RTVSPost2010PropOp53
 70
     0
102
RTVSPost2010Prop54
  1
strokes_ogs.tif
102
RTVSPost2010PropOp54
 70
     0
102
RTVSPost2010Prop55
280
     0
102
RTVSPost2010PropOp55
 70
     1
102
RTVSPost2010Prop56
140
1.0
102
RTVSPost2010PropOp56
 70
     0
102
RTVSPost2010Prop57
140
1.0
102
RTVSPost2010PropOp57
 70
     0
102
RTVSPropertyOp0
 70
     0
102
RTVSPropertyOp1
 70
     0
102
RTVSPropertyOp2
 70
     0
102
RTVSPropertyOp3
 70
     0
102
RTVSPropertyOp4
 70
     0
102
RTVSPropertyOp5
 70
     0
102
RTVSPropertyOp6
 70
     0
102
RTVSPropertyOp7
 70
     0
102
RTVSPropertyOp8
 70
     0
102
RTVSPropertyOp9
 70
     0
102
RTVSPropertyOp10
 70
     0
102
RTVSPropertyOp11
 70
     0
102
RTVSPropertyOp12
 70
     0
102
RTVSPropertyOp13
 70
     0
102
RTVSPropertyOp14
 70
     2
102
RTVSPropertyOp15
 70
     0
102
RTVSPropertyOp16
 70
     0
102
RTVSPropertyOp17
 70
     0
102
RTVSPropertyOp18
 70
     0
102
RTVSPropertyOp19
 70
     0
102
RTVSPropertyOp20
 70
     0
102
RTVSPropertyOp21
 70
     0
102
RTVSPropertyOp22
 70
     0
102
RTVSPropertyOp23
 70
     0
102
RTVSPropertyOp24
 70
     0
102
RTVSPropertyOp25
 70
     0
102
RTVSPropertyOp26
 70
     0
102
RTVSPropertyOp27
 70
     0
102
RTVSPropertyOp28
 70
     1
102
RTVSPropertyOp29
 70
     1
102
RTVSPropertyOp30
 70
     1
102
RTVSPropertyOp31
 70
     1
102
RTVSPropertyOp32
 70
     1
102
RTVSPropertyOp33
 70
     1
102
RTVSPropertyOp34
 70
     1
102
RTVSPropertyOp35
 70
     1
102
RTVSPropertyOp36
 70
     1
102
RTVSPropertyOp37
 70
     0
102
RTVSPropertyOp38
 70
     0
102
RTVSPropertyOp39
 70
     0
102
RTVSPropertyOp40
 70
     0
102
RTVSPropertyOp41
 70
     0
102
RTVSPropertyOp42
 70
     0
102
RTVSPropertyOp43
 70
     0
102
RTVSPropertyOp44
 70
     0
102
RTVSPropertyOp45
 70
     1
102
RTVSPropertyOp46
 70
     0
102
RTVSPropertyOp47
 70
     0
102
RTVSPropertyOp48
 70
     0
102
RTVSPropertyOp49
 70
     1
102
RTVSPropertyOp50
 70
     0
102
RTVSPropertyOp51
 70
     0
102
RTVSPropertyOp52
 70
     0
102
RTVSPropertyOp53
 70
     0
102
RTVSPropertyOp54
 70
     0
102
RTVSPropertyOp55
 70
     1
102
RTVSPropertyOp56
 70
     0
102
RTVSPropertyOp57
 70
     0
102
RTVSPropertyOp58
 70
     0
102
RTVSPropertyOp59
 70
     0
102
RTVSPropertyOp60
 70
     0
102
RTVSPropertyOp61
 70
     0
102
RTVSPropertyOp62
 70
     0
  0
XRECORD
  5
3188
102
{ACAD_REACTORS
330
3187
102
}
330
3187
100
AcDbXrecord
280
     1
102
RTVSPost2010Prop28
280
     0
102
RTVSPost2010PropOp28
 70
     1
102
RTVSPost2010Prop29
280
     1
102
RTVSPost2010PropOp29
 70
     1
102
RTVSPost2010Prop30
280
     1
102
RTVSPost2010PropOp30
 70
     1
102
RTVSPost2010Prop31
280
     0
102
RTVSPost2010PropOp31
 70
     1
102
RTVSPost2010Prop32
280
     0
102
RTVSPost2010PropOp32
 70
     1
102
RTVSPost2010Prop33
280
     0
102
RTVSPost2010PropOp33
 70
     1
102
RTVSPost2010Prop34
280
     0
102
RTVSPost2010PropOp34
 70
     1
102
RTVSPost2010Prop35
280
     0
102
RTVSPost2010PropOp35
 70
     1
102
RTVSPost2010Prop36
280
     0
102
RTVSPost2010PropOp36
 70
     1
102
RTVSPost2010Prop37
 90
       50
102
RTVSPost2010PropOp37
 70
     1
102
RTVSPost2010Prop38
140
0.0
102
RTVSPost2010PropOp38
 70
     1
102
RTVSPost2010Prop39
140
1.0
102
RTVSPost2010PropOp39
 70
     1
102
RTVSPost2010Prop40
 90
        0
102
RTVSPost2010PropOp40
 70
     1
102
RTVSPost2010Prop41ColorIndex
 90
       18
102
RTVSPost2010Prop41ColorRGB
 90
        0
102
RTVSPost2010PropOp41
 70
     1
102
RTVSPost2010Prop42
 90
       50
102
RTVSPost2010PropOp42
 70
     1
102
RTVSPost2010Prop43
 90
        3
102
RTVSPost2010PropOp43
 70
     1
102
RTVSPost2010Prop44ColorIndex
 90
        5
102
RTVSPost2010Prop44ColorRGB
 90
      255
102
RTVSPost2010PropOp44
 70
     1
102
RTVSPost2010Prop45
280
     0
102
RTVSPost2010PropOp45
 70
     1
102
RTVSPost2010Prop46
 90
       50
102
RTVSPost2010PropOp46
 70
     1
102
RTVSPost2010Prop47
 90
       50
102
RTVSPost2010PropOp47
 70
     1
102
RTVSPost2010Prop48
 90
       50
102
RTVSPost2010PropOp48
 70
     1
102
RTVSPost2010Prop49
280
     0
102
RTVSPost2010PropOp49
 70
     1
102
RTVSPost2010Prop50
 90
       50
102
RTVSPost2010PropOp50
 70
     1
102
RTVSPost2010Prop51ColorIndex
 90
      256
102
RTVSPost2010Prop51ColorRGB
 90
-16777216
102
RTVSPost2010PropOp51
 70
     0
102
RTVSPost2010Prop52
140
1.0
102
RTVSPost2010PropOp52
 70
     0
102
RTVSPost2010Prop53
 90
        2
102
RTVSPost2010PropOp53
 70
     1
102
RTVSPost2010Prop54
  1
strokes_ogs.tif
102
RTVSPost2010PropOp54
 70
     1
102
RTVSPost2010Prop55
280
     0
102
RTVSPost2010PropOp55
 70
     1
102
RTVSPost2010Prop56
140
1.0
102
RTVSPost2010PropOp56
 70
     1
102
RTVSPost2010Prop57
140
1.0
102
RTVSPost2010PropOp57
 70
     1
102
RTVSPropertyOp0
 70
     1
102
RTVSPropertyOp1
 70
     1
102
RTVSPropertyOp2
 70
     1
102
RTVSPropertyOp3
 70
     1
102
RTVSPropertyOp4
 70
     1
102
RTVSPropertyOp5
 70
     1
102
RTVSPropertyOp6
 70
     1
102
RTVSPropertyOp7
 70
     1
102
RTVSPropertyOp8
 70
     1
102
RTVSPropertyOp9
 70
     1
102
RTVSPropertyOp10
 70
     1
102
RTVSPropertyOp11
 70
     1
102
RTVSPropertyOp12
 70
     1
102
RTVSPropertyOp13
 70
     1
102
RTVSPropertyOp14
 70
     1
102
RTVSPropertyOp15
 70
     1
102
RTVSPropertyOp16
 70
     1
102
RTVSPropertyOp17
 70
     1
102
RTVSPropertyOp18
 70
     1
102
RTVSPropertyOp19
 70
     1
102
RTVSPropertyOp20
 70
     1
102
RTVSPropertyOp21
 70
     1
102
RTVSPropertyOp22
 70
     1
102
RTVSPropertyOp23
 70
     1
102
RTVSPropertyOp24
 70
     1
102
RTVSPropertyOp25
 70
     1
102
RTVSPropertyOp26
 70
     1
102
RTVSPropertyOp27
 70
     1
102
RTVSPropertyOp28
 70
     1
102
RTVSPropertyOp29
 70
     1
102
RTVSPropertyOp30
 70
     1
102
RTVSPropertyOp31
 70
     1
102
RTVSPropertyOp32
 70
     1
102
RTVSPropertyOp33
 70
     1
102
RTVSPropertyOp34
 70
     1
102
RTVSPropertyOp35
 70
     1
102
RTVSPropertyOp36
 70
     1
102
RTVSPropertyOp37
 70
     1
102
RTVSPropertyOp38
 70
     1
102
RTVSPropertyOp39
 70
     1
102
RTVSPropertyOp40
 70
     1
102
RTVSPropertyOp41
 70
     1
102
RTVSPropertyOp42
 70
     1
102
RTVSPropertyOp43
 70
     1
102
RTVSPropertyOp44
 70
     1
102
RTVSPropertyOp45
 70
     1
102
RTVSPropertyOp46
 70
     1
102
RTVSPropertyOp47
 70
     1
102
RTVSPropertyOp48
 70
     1
102
RTVSPropertyOp49
 70
     1
102
RTVSPropertyOp50
 70
     1
102
RTVSPropertyOp51
 70
     0
102
RTVSPropertyOp52
 70
     0
102
RTVSPropertyOp53
 70
     1
102
RTVSPropertyOp54
 70
     1
102
RTVSPropertyOp55
 70
     1
102
RTVSPropertyOp56
 70
     1
102
RTVSPropertyOp57
 70
     1
102
RTVSPropertyOp58
 70
     1
102
RTVSPropertyOp59
 70
     1
102
RTVSPropertyOp60
 70
     1
102
RTVSPropertyOp61
 70
     1
102
RTVSPropertyOp62
 70
     1
  0
XRECORD
  5
319A
102
{ACAD_REACTORS
330
3199
102
}
330
3199
100
AcDbXrecord
280
     1
102
RTVSPost2010Prop28
280
     0
102
RTVSPost2010PropOp28
 70
     1
102
RTVSPost2010Prop29
280
     1
102
RTVSPost2010PropOp29
 70
     1
102
RTVSPost2010Prop30
280
     1
102
RTVSPost2010PropOp30
 70
     1
102
RTVSPost2010Prop31
280
     0
102
RTVSPost2010PropOp31
 70
     1
102
RTVSPost2010Prop32
280
     0
102
RTVSPost2010PropOp32
 70
     1
102
RTVSPost2010Prop33
280
     0
102
RTVSPost2010PropOp33
 70
     1
102
RTVSPost2010Prop34
280
     0
102
RTVSPost2010PropOp34
 70
     1
102
RTVSPost2010Prop35
280
     0
102
RTVSPost2010PropOp35
 70
     1
102
RTVSPost2010Prop36
280
     0
102
RTVSPost2010PropOp36
 70
     1
102
RTVSPost2010Prop37
 90
       50
102
RTVSPost2010PropOp37
 70
     0
102
RTVSPost2010Prop38
140
0.0
102
RTVSPost2010PropOp38
 70
     0
102
RTVSPost2010Prop39
140
1.0
102
RTVSPost2010PropOp39
 70
     0
102
RTVSPost2010Prop40
 90
        0
102
RTVSPost2010PropOp40
 70
     0
102
RTVSPost2010Prop41ColorIndex
 90
       18
102
RTVSPost2010Prop41ColorRGB
 90
        0
102
RTVSPost2010PropOp41
 70
     0
102
RTVSPost2010Prop42
 90
       50
102
RTVSPost2010PropOp42
 70
     0
102
RTVSPost2010Prop43
 90
        3
102
RTVSPost2010PropOp43
 70
     0
102
RTVSPost2010Prop44ColorIndex
 90
        5
102
RTVSPost2010Prop44ColorRGB
 90
      255
102
RTVSPost2010PropOp44
 70
     0
102
RTVSPost2010Prop45
280
     0
102
RTVSPost2010PropOp45
 70
     1
102
RTVSPost2010Prop46
 90
       50
102
RTVSPost2010PropOp46
 70
     0
102
RTVSPost2010Prop47
 90
       50
102
RTVSPost2010PropOp47
 70
     0
102
RTVSPost2010Prop48
 90
       50
102
RTVSPost2010PropOp48
 70
     0
102
RTVSPost2010Prop49
280
     0
102
RTVSPost2010PropOp49
 70
     1
102
RTVSPost2010Prop50
 90
       50
102
RTVSPost2010PropOp50
 70
     0
102
RTVSPost2010Prop51ColorIndex
 90
      256
102
RTVSPost2010Prop51ColorRGB
 90
-16777216
102
RTVSPost2010PropOp51
 70
     0
102
RTVSPost2010Prop52
140
1.0
102
RTVSPost2010PropOp52
 70
     0
102
RTVSPost2010Prop53
 90
        2
102
RTVSPost2010PropOp53
 70
     0
102
RTVSPost2010Prop54
  1
strokes_ogs.tif
102
RTVSPost2010PropOp54
 70
     0
102
RTVSPost2010Prop55
280
     0
102
RTVSPost2010PropOp55
 70
     1
102
RTVSPost2010Prop56
140
1.0
102
RTVSPost2010PropOp56
 70
     0
102
RTVSPost2010Prop57
140
1.0
102
RTVSPost2010PropOp57
 70
     0
102
RTVSPropertyOp0
 70
     0
102
RTVSPropertyOp1
 70
     0
102
RTVSPropertyOp2
 70
     0
102
RTVSPropertyOp3
 70
     0
102
RTVSPropertyOp4
 70
     0
102
RTVSPropertyOp5
 70
     0
102
RTVSPropertyOp6
 70
     0
102
RTVSPropertyOp7
 70
     0
102
RTVSPropertyOp8
 70
     0
102
RTVSPropertyOp9
 70
     0
102
RTVSPropertyOp10
 70
     0
102
RTVSPropertyOp11
 70
     0
102
RTVSPropertyOp12
 70
     0
102
RTVSPropertyOp13
 70
     0
102
RTVSPropertyOp14
 70
     2
102
RTVSPropertyOp15
 70
     0
102
RTVSPropertyOp16
 70
     0
102
RTVSPropertyOp17
 70
     0
102
RTVSPropertyOp18
 70
     0
102
RTVSPropertyOp19
 70
     0
102
RTVSPropertyOp20
 70
     0
102
RTVSPropertyOp21
 70
     0
102
RTVSPropertyOp22
 70
     0
102
RTVSPropertyOp23
 70
     0
102
RTVSPropertyOp24
 70
     0
102
RTVSPropertyOp25
 70
     0
102
RTVSPropertyOp26
 70
     0
102
RTVSPropertyOp27
 70
     0
102
RTVSPropertyOp28
 70
     1
102
RTVSPropertyOp29
 70
     1
102
RTVSPropertyOp30
 70
     1
102
RTVSPropertyOp31
 70
     1
102
RTVSPropertyOp32
 70
     1
102
RTVSPropertyOp33
 70
     1
102
RTVSPropertyOp34
 70
     1
102
RTVSPropertyOp35
 70
     1
102
RTVSPropertyOp36
 70
     1
102
RTVSPropertyOp37
 70
     0
102
RTVSPropertyOp38
 70
     0
102
RTVSPropertyOp39
 70
     0
102
RTVSPropertyOp40
 70
     0
102
RTVSPropertyOp41
 70
     0
102
RTVSPropertyOp42
 70
     0
102
RTVSPropertyOp43
 70
     0
102
RTVSPropertyOp44
 70
     0
102
RTVSPropertyOp45
 70
     1
102
RTVSPropertyOp46
 70
     0
102
RTVSPropertyOp47
 70
     0
102
RTVSPropertyOp48
 70
     0
102
RTVSPropertyOp49
 70
     1
102
RTVSPropertyOp50
 70
     0
102
RTVSPropertyOp51
 70
     0
102
RTVSPropertyOp52
 70
     0
102
RTVSPropertyOp53
 70
     0
102
RTVSPropertyOp54
 70
     0
102
RTVSPropertyOp55
 70
     1
102
RTVSPropertyOp56
 70
     0
102
RTVSPropertyOp57
 70
     0
102
RTVSPropertyOp58
 70
     0
102
RTVSPropertyOp59
 70
     0
102
RTVSPropertyOp60
 70
     0
102
RTVSPropertyOp61
 70
     0
102
RTVSPropertyOp62
 70
     0
  0
XRECORD
  5
3180
102
{ACAD_REACTORS
330
317F
102
}
330
317F
100
AcDbXrecord
280
     1
102
RTVSPost2010Prop28
280
     0
102
RTVSPost2010PropOp28
 70
     1
102
RTVSPost2010Prop29
280
     1
102
RTVSPost2010PropOp29
 70
     1
102
RTVSPost2010Prop30
280
     1
102
RTVSPost2010PropOp30
 70
     1
102
RTVSPost2010Prop31
280
     0
102
RTVSPost2010PropOp31
 70
     1
102
RTVSPost2010Prop32
280
     0
102
RTVSPost2010PropOp32
 70
     1
102
RTVSPost2010Prop33
280
     0
102
RTVSPost2010PropOp33
 70
     1
102
RTVSPost2010Prop34
280
     0
102
RTVSPost2010PropOp34
 70
     1
102
RTVSPost2010Prop35
280
     0
102
RTVSPost2010PropOp35
 70
     1
102
RTVSPost2010Prop36
280
     0
102
RTVSPost2010PropOp36
 70
     1
102
RTVSPost2010Prop37
 90
       50
102
RTVSPost2010PropOp37
 70
     1
102
RTVSPost2010Prop38
140
0.0
102
RTVSPost2010PropOp38
 70
     1
102
RTVSPost2010Prop39
140
1.0
102
RTVSPost2010PropOp39
 70
     1
102
RTVSPost2010Prop40
 90
        0
102
RTVSPost2010PropOp40
 70
     1
102
RTVSPost2010Prop41ColorIndex
 90
       18
102
RTVSPost2010Prop41ColorRGB
 90
        0
102
RTVSPost2010PropOp41
 70
     1
102
RTVSPost2010Prop42
 90
       50
102
RTVSPost2010PropOp42
 70
     1
102
RTVSPost2010Prop43
 90
        3
102
RTVSPost2010PropOp43
 70
     1
102
RTVSPost2010Prop44ColorIndex
 90
        5
102
RTVSPost2010Prop44ColorRGB
 90
      255
102
RTVSPost2010PropOp44
 70
     1
102
RTVSPost2010Prop45
280
     0
102
RTVSPost2010PropOp45
 70
     1
102
RTVSPost2010Prop46
 90
       50
102
RTVSPost2010PropOp46
 70
     1
102
RTVSPost2010Prop47
 90
       50
102
RTVSPost2010PropOp47
 70
     1
102
RTVSPost2010Prop48
 90
       50
102
RTVSPost2010PropOp48
 70
     1
102
RTVSPost2010Prop49
280
     0
102
RTVSPost2010PropOp49
 70
     1
102
RTVSPost2010Prop50
 90
       50
102
RTVSPost2010PropOp50
 70
     1
102
RTVSPost2010Prop51ColorIndex
 90
      256
102
RTVSPost2010Prop51ColorRGB
 90
-16777216
102
RTVSPost2010PropOp51
 70
     0
102
RTVSPost2010Prop52
140
1.0
102
RTVSPost2010PropOp52
 70
     0
102
RTVSPost2010Prop53
 90
        2
102
RTVSPost2010PropOp53
 70
     1
102
RTVSPost2010Prop54
  1
strokes_ogs.tif
102
RTVSPost2010PropOp54
 70
     1
102
RTVSPost2010Prop55
280
     0
102
RTVSPost2010PropOp55
 70
     1
102
RTVSPost2010Prop56
140
1.0
102
RTVSPost2010PropOp56
 70
     1
102
RTVSPost2010Prop57
140
1.0
102
RTVSPost2010PropOp57
 70
     1
102
RTVSPropertyOp0
 70
     1
102
RTVSPropertyOp1
 70
     1
102
RTVSPropertyOp2
 70
     1
102
RTVSPropertyOp3
 70
     1
102
RTVSPropertyOp4
 70
     1
102
RTVSPropertyOp5
 70
     1
102
RTVSPropertyOp6
 70
     1
102
RTVSPropertyOp7
 70
     1
102
RTVSPropertyOp8
 70
     1
102
RTVSPropertyOp9
 70
     1
102
RTVSPropertyOp10
 70
     1
102
RTVSPropertyOp11
 70
     1
102
RTVSPropertyOp12
 70
     1
102
RTVSPropertyOp13
 70
     1
102
RTVSPropertyOp14
 70
     1
102
RTVSPropertyOp15
 70
     1
102
RTVSPropertyOp16
 70
     1
102
RTVSPropertyOp17
 70
     1
102
RTVSPropertyOp18
 70
     1
102
RTVSPropertyOp19
 70
     1
102
RTVSPropertyOp20
 70
     1
102
RTVSPropertyOp21
 70
     1
102
RTVSPropertyOp22
 70
     1
102
RTVSPropertyOp23
 70
     1
102
RTVSPropertyOp24
 70
     1
102
RTVSPropertyOp25
 70
     1
102
RTVSPropertyOp26
 70
     1
102
RTVSPropertyOp27
 70
     1
102
RTVSPropertyOp28
 70
     1
102
RTVSPropertyOp29
 70
     1
102
RTVSPropertyOp30
 70
     1
102
RTVSPropertyOp31
 70
     1
102
RTVSPropertyOp32
 70
     1
102
RTVSPropertyOp33
 70
     1
102
RTVSPropertyOp34
 70
     1
102
RTVSPropertyOp35
 70
     1
102
RTVSPropertyOp36
 70
     1
102
RTVSPropertyOp37
 70
     1
102
RTVSPropertyOp38
 70
     1
102
RTVSPropertyOp39
 70
     1
102
RTVSPropertyOp40
 70
     1
102
RTVSPropertyOp41
 70
     1
102
RTVSPropertyOp42
 70
     1
102
RTVSPropertyOp43
 70
     1
102
RTVSPropertyOp44
 70
     1
102
RTVSPropertyOp45
 70
     1
102
RTVSPropertyOp46
 70
     1
102
RTVSPropertyOp47
 70
     1
102
RTVSPropertyOp48
 70
     1
102
RTVSPropertyOp49
 70
     1
102
RTVSPropertyOp50
 70
     1
102
RTVSPropertyOp51
 70
     0
102
RTVSPropertyOp52
 70
     0
102
RTVSPropertyOp53
 70
     1
102
RTVSPropertyOp54
 70
     1
102
RTVSPropertyOp55
 70
     1
102
RTVSPropertyOp56
 70
     1
102
RTVSPropertyOp57
 70
     1
102
RTVSPropertyOp58
 70
     1
102
RTVSPropertyOp59
 70
     1
102
RTVSPropertyOp60
 70
     1
102
RTVSPropertyOp61
 70
     1
102
RTVSPropertyOp62
 70
     1
  0
XRECORD
  5
3196
102
{ACAD_REACTORS
330
3195
102
}
330
3195
100
AcDbXrecord
280
     1
102
RTVSPost2010Prop28
280
     0
102
RTVSPost2010PropOp28
 70
     1
102
RTVSPost2010Prop29
280
     1
102
RTVSPost2010PropOp29
 70
     1
102
RTVSPost2010Prop30
280
     1
102
RTVSPost2010PropOp30
 70
     1
102
RTVSPost2010Prop31
280
     0
102
RTVSPost2010PropOp31
 70
     1
102
RTVSPost2010Prop32
280
     0
102
RTVSPost2010PropOp32
 70
     1
102
RTVSPost2010Prop33
280
     0
102
RTVSPost2010PropOp33
 70
     1
102
RTVSPost2010Prop34
280
     0
102
RTVSPost2010PropOp34
 70
     1
102
RTVSPost2010Prop35
280
     0
102
RTVSPost2010PropOp35
 70
     1
102
RTVSPost2010Prop36
280
     0
102
RTVSPost2010PropOp36
 70
     1
102
RTVSPost2010Prop37
 90
       50
102
RTVSPost2010PropOp37
 70
     1
102
RTVSPost2010Prop38
140
0.0
102
RTVSPost2010PropOp38
 70
     1
102
RTVSPost2010Prop39
140
1.0
102
RTVSPost2010PropOp39
 70
     1
102
RTVSPost2010Prop40
 90
        0
102
RTVSPost2010PropOp40
 70
     1
102
RTVSPost2010Prop41ColorIndex
 90
       18
102
RTVSPost2010Prop41ColorRGB
 90
        0
102
RTVSPost2010PropOp41
 70
     1
102
RTVSPost2010Prop42
 90
       50
102
RTVSPost2010PropOp42
 70
     1
102
RTVSPost2010Prop43
 90
        3
102
RTVSPost2010PropOp43
 70
     1
102
RTVSPost2010Prop44ColorIndex
 90
        5
102
RTVSPost2010Prop44ColorRGB
 90
      255
102
RTVSPost2010PropOp44
 70
     1
102
RTVSPost2010Prop45
280
     0
102
RTVSPost2010PropOp45
 70
     1
102
RTVSPost2010Prop46
 90
       50
102
RTVSPost2010PropOp46
 70
     1
102
RTVSPost2010Prop47
 90
       50
102
RTVSPost2010PropOp47
 70
     1
102
RTVSPost2010Prop48
 90
       50
102
RTVSPost2010PropOp48
 70
     1
102
RTVSPost2010Prop49
280
     0
102
RTVSPost2010PropOp49
 70
     1
102
RTVSPost2010Prop50
 90
       50
102
RTVSPost2010PropOp50
 70
     1
102
RTVSPost2010Prop51ColorIndex
 90
      256
102
RTVSPost2010Prop51ColorRGB
 90
-16777216
102
RTVSPost2010PropOp51
 70
     0
102
RTVSPost2010Prop52
140
1.0
102
RTVSPost2010PropOp52
 70
     0
102
RTVSPost2010Prop53
 90
        2
102
RTVSPost2010PropOp53
 70
     1
102
RTVSPost2010Prop54
  1
strokes_ogs.tif
102
RTVSPost2010PropOp54
 70
     1
102
RTVSPost2010Prop55
280
     0
102
RTVSPost2010PropOp55
 70
     1
102
RTVSPost2010Prop56
140
1.0
102
RTVSPost2010PropOp56
 70
     1
102
RTVSPost2010Prop57
140
1.0
102
RTVSPost2010PropOp57
 70
     1
102
RTVSPropertyOp0
 70
     1
102
RTVSPropertyOp1
 70
     1
102
RTVSPropertyOp2
 70
     1
102
RTVSPropertyOp3
 70
     1
102
RTVSPropertyOp4
 70
     1
102
RTVSPropertyOp5
 70
     1
102
RTVSPropertyOp6
 70
     1
102
RTVSPropertyOp7
 70
     1
102
RTVSPropertyOp8
 70
     1
102
RTVSPropertyOp9
 70
     1
102
RTVSPropertyOp10
 70
     1
102
RTVSPropertyOp11
 70
     1
102
RTVSPropertyOp12
 70
     1
102
RTVSPropertyOp13
 70
     1
102
RTVSPropertyOp14
 70
     1
102
RTVSPropertyOp15
 70
     1
102
RTVSPropertyOp16
 70
     1
102
RTVSPropertyOp17
 70
     1
102
RTVSPropertyOp18
 70
     1
102
RTVSPropertyOp19
 70
     1
102
RTVSPropertyOp20
 70
     1
102
RTVSPropertyOp21
 70
     1
102
RTVSPropertyOp22
 70
     1
102
RTVSPropertyOp23
 70
     1
102
RTVSPropertyOp24
 70
     1
102
RTVSPropertyOp25
 70
     1
102
RTVSPropertyOp26
 70
     1
102
RTVSPropertyOp27
 70
     1
102
RTVSPropertyOp28
 70
     1
102
RTVSPropertyOp29
 70
     1
102
RTVSPropertyOp30
 70
     1
102
RTVSPropertyOp31
 70
     1
102
RTVSPropertyOp32
 70
     1
102
RTVSPropertyOp33
 70
     1
102
RTVSPropertyOp34
 70
     1
102
RTVSPropertyOp35
 70
     1
102
RTVSPropertyOp36
 70
     1
102
RTVSPropertyOp37
 70
     1
102
RTVSPropertyOp38
 70
     1
102
RTVSPropertyOp39
 70
     1
102
RTVSPropertyOp40
 70
     1
102
RTVSPropertyOp41
 70
     1
102
RTVSPropertyOp42
 70
     1
102
RTVSPropertyOp43
 70
     1
102
RTVSPropertyOp44
 70
     1
102
RTVSPropertyOp45
 70
     1
102
RTVSPropertyOp46
 70
     1
102
RTVSPropertyOp47
 70
     1
102
RTVSPropertyOp48
 70
     1
102
RTVSPropertyOp49
 70
     1
102
RTVSPropertyOp50
 70
     1
102
RTVSPropertyOp51
 70
     0
102
RTVSPropertyOp52
 70
     0
102
RTVSPropertyOp53
 70
     1
102
RTVSPropertyOp54
 70
     1
102
RTVSPropertyOp55
 70
     1
102
RTVSPropertyOp56
 70
     1
102
RTVSPropertyOp57
 70
     1
102
RTVSPropertyOp58
 70
     1
102
RTVSPropertyOp59
 70
     1
102
RTVSPropertyOp60
 70
     1
102
RTVSPropertyOp61
 70
     1
102
RTVSPropertyOp62
 70
     1
  0
XRECORD
  5
3194
102
{ACAD_REACTORS
330
3193
102
}
330
3193
100
AcDbXrecord
280
     1
102
RTVSPost2010Prop28
280
     0
102
RTVSPost2010PropOp28
 70
     1
102
RTVSPost2010Prop29
280
     1
102
RTVSPost2010PropOp29
 70
     1
102
RTVSPost2010Prop30
280
     1
102
RTVSPost2010PropOp30
 70
     1
102
RTVSPost2010Prop31
280
     0
102
RTVSPost2010PropOp31
 70
     1
102
RTVSPost2010Prop32
280
     0
102
RTVSPost2010PropOp32
 70
     1
102
RTVSPost2010Prop33
280
     0
102
RTVSPost2010PropOp33
 70
     1
102
RTVSPost2010Prop34
280
     0
102
RTVSPost2010PropOp34
 70
     1
102
RTVSPost2010Prop35
280
     0
102
RTVSPost2010PropOp35
 70
     1
102
RTVSPost2010Prop36
280
     0
102
RTVSPost2010PropOp36
 70
     1
102
RTVSPost2010Prop37
 90
       50
102
RTVSPost2010PropOp37
 70
     1
102
RTVSPost2010Prop38
140
0.0
102
RTVSPost2010PropOp38
 70
     1
102
RTVSPost2010Prop39
140
1.0
102
RTVSPost2010PropOp39
 70
     1
102
RTVSPost2010Prop40
 90
        0
102
RTVSPost2010PropOp40
 70
     1
102
RTVSPost2010Prop41ColorIndex
 90
       18
102
RTVSPost2010Prop41ColorRGB
 90
        0
102
RTVSPost2010PropOp41
 70
     1
102
RTVSPost2010Prop42
 90
       50
102
RTVSPost2010PropOp42
 70
     1
102
RTVSPost2010Prop43
 90
        3
102
RTVSPost2010PropOp43
 70
     1
102
RTVSPost2010Prop44ColorIndex
 90
        5
102
RTVSPost2010Prop44ColorRGB
 90
      255
102
RTVSPost2010PropOp44
 70
     1
102
RTVSPost2010Prop45
280
     0
102
RTVSPost2010PropOp45
 70
     1
102
RTVSPost2010Prop46
 90
       50
102
RTVSPost2010PropOp46
 70
     1
102
RTVSPost2010Prop47
 90
       50
102
RTVSPost2010PropOp47
 70
     1
102
RTVSPost2010Prop48
 90
       50
102
RTVSPost2010PropOp48
 70
     1
102
RTVSPost2010Prop49
280
     0
102
RTVSPost2010PropOp49
 70
     1
102
RTVSPost2010Prop50
 90
       50
102
RTVSPost2010PropOp50
 70
     1
102
RTVSPost2010Prop51ColorIndex
 90
      256
102
RTVSPost2010Prop51ColorRGB
 90
-16777216
102
RTVSPost2010PropOp51
 70
     0
102
RTVSPost2010Prop52
140
1.0
102
RTVSPost2010PropOp52
 70
     0
102
RTVSPost2010Prop53
 90
        2
102
RTVSPost2010PropOp53
 70
     1
102
RTVSPost2010Prop54
  1
strokes_ogs.tif
102
RTVSPost2010PropOp54
 70
     1
102
RTVSPost2010Prop55
280
     0
102
RTVSPost2010PropOp55
 70
     1
102
RTVSPost2010Prop56
140
1.0
102
RTVSPost2010PropOp56
 70
     1
102
RTVSPost2010Prop57
140
1.0
102
RTVSPost2010PropOp57
 70
     1
102
RTVSPropertyOp0
 70
     1
102
RTVSPropertyOp1
 70
     1
102
RTVSPropertyOp2
 70
     1
102
RTVSPropertyOp3
 70
     1
102
RTVSPropertyOp4
 70
     1
102
RTVSPropertyOp5
 70
     1
102
RTVSPropertyOp6
 70
     1
102
RTVSPropertyOp7
 70
     1
102
RTVSPropertyOp8
 70
     1
102
RTVSPropertyOp9
 70
     1
102
RTVSPropertyOp10
 70
     1
102
RTVSPropertyOp11
 70
     1
102
RTVSPropertyOp12
 70
     1
102
RTVSPropertyOp13
 70
     1
102
RTVSPropertyOp14
 70
     1
102
RTVSPropertyOp15
 70
     1
102
RTVSPropertyOp16
 70
     1
102
RTVSPropertyOp17
 70
     1
102
RTVSPropertyOp18
 70
     1
102
RTVSPropertyOp19
 70
     1
102
RTVSPropertyOp20
 70
     1
102
RTVSPropertyOp21
 70
     1
102
RTVSPropertyOp22
 70
     1
102
RTVSPropertyOp23
 70
     1
102
RTVSPropertyOp24
 70
     1
102
RTVSPropertyOp25
 70
     1
102
RTVSPropertyOp26
 70
     1
102
RTVSPropertyOp27
 70
     1
102
RTVSPropertyOp28
 70
     1
102
RTVSPropertyOp29
 70
     1
102
RTVSPropertyOp30
 70
     1
102
RTVSPropertyOp31
 70
     1
102
RTVSPropertyOp32
 70
     1
102
RTVSPropertyOp33
 70
     1
102
RTVSPropertyOp34
 70
     1
102
RTVSPropertyOp35
 70
     1
102
RTVSPropertyOp36
 70
     1
102
RTVSPropertyOp37
 70
     1
102
RTVSPropertyOp38
 70
     1
102
RTVSPropertyOp39
 70
     1
102
RTVSPropertyOp40
 70
     1
102
RTVSPropertyOp41
 70
     1
102
RTVSPropertyOp42
 70
     1
102
RTVSPropertyOp43
 70
     1
102
RTVSPropertyOp44
 70
     1
102
RTVSPropertyOp45
 70
     1
102
RTVSPropertyOp46
 70
     1
102
RTVSPropertyOp47
 70
     1
102
RTVSPropertyOp48
 70
     1
102
RTVSPropertyOp49
 70
     1
102
RTVSPropertyOp50
 70
     1
102
RTVSPropertyOp51
 70
     0
102
RTVSPropertyOp52
 70
     0
102
RTVSPropertyOp53
 70
     1
102
RTVSPropertyOp54
 70
     1
102
RTVSPropertyOp55
 70
     1
102
RTVSPropertyOp56
 70
     1
102
RTVSPropertyOp57
 70
     1
102
RTVSPropertyOp58
 70
     1
102
RTVSPropertyOp59
 70
     1
102
RTVSPropertyOp60
 70
     1
102
RTVSPropertyOp61
 70
     1
102
RTVSPropertyOp62
 70
     1
  0
XRECORD
  5
318E
102
{ACAD_REACTORS
330
318D
102
}
330
318D
100
AcDbXrecord
280
     1
102
RTVSPost2010Prop28
280
     0
102
RTVSPost2010PropOp28
 70
     1
102
RTVSPost2010Prop29
280
     1
102
RTVSPost2010PropOp29
 70
     1
102
RTVSPost2010Prop30
280
     1
102
RTVSPost2010PropOp30
 70
     1
102
RTVSPost2010Prop31
280
     0
102
RTVSPost2010PropOp31
 70
     1
102
RTVSPost2010Prop32
280
     0
102
RTVSPost2010PropOp32
 70
     1
102
RTVSPost2010Prop33
280
     0
102
RTVSPost2010PropOp33
 70
     1
102
RTVSPost2010Prop34
280
     0
102
RTVSPost2010PropOp34
 70
     1
102
RTVSPost2010Prop35
280
     0
102
RTVSPost2010PropOp35
 70
     1
102
RTVSPost2010Prop36
280
     0
102
RTVSPost2010PropOp36
 70
     1
102
RTVSPost2010Prop37
 90
       50
102
RTVSPost2010PropOp37
 70
     1
102
RTVSPost2010Prop38
140
0.0
102
RTVSPost2010PropOp38
 70
     1
102
RTVSPost2010Prop39
140
1.0
102
RTVSPost2010PropOp39
 70
     1
102
RTVSPost2010Prop40
 90
        0
102
RTVSPost2010PropOp40
 70
     1
102
RTVSPost2010Prop41ColorIndex
 90
       18
102
RTVSPost2010Prop41ColorRGB
 90
        0
102
RTVSPost2010PropOp41
 70
     1
102
RTVSPost2010Prop42
 90
       50
102
RTVSPost2010PropOp42
 70
     1
102
RTVSPost2010Prop43
 90
        3
102
RTVSPost2010PropOp43
 70
     1
102
RTVSPost2010Prop44ColorIndex
 90
        5
102
RTVSPost2010Prop44ColorRGB
 90
      255
102
RTVSPost2010PropOp44
 70
     1
102
RTVSPost2010Prop45
280
     0
102
RTVSPost2010PropOp45
 70
     1
102
RTVSPost2010Prop46
 90
       50
102
RTVSPost2010PropOp46
 70
     1
102
RTVSPost2010Prop47
 90
       50
102
RTVSPost2010PropOp47
 70
     1
102
RTVSPost2010Prop48
 90
       50
102
RTVSPost2010PropOp48
 70
     1
102
RTVSPost2010Prop49
280
     0
102
RTVSPost2010PropOp49
 70
     1
102
RTVSPost2010Prop50
 90
       50
102
RTVSPost2010PropOp50
 70
     1
102
RTVSPost2010Prop51ColorIndex
 90
      256
102
RTVSPost2010Prop51ColorRGB
 90
-16777216
102
RTVSPost2010PropOp51
 70
     0
102
RTVSPost2010Prop52
140
1.0
102
RTVSPost2010PropOp52
 70
     0
102
RTVSPost2010Prop53
 90
        2
102
RTVSPost2010PropOp53
 70
     1
102
RTVSPost2010Prop54
  1
strokes_ogs.tif
102
RTVSPost2010PropOp54
 70
     1
102
RTVSPost2010Prop55
280
     0
102
RTVSPost2010PropOp55
 70
     1
102
RTVSPost2010Prop56
140
1.0
102
RTVSPost2010PropOp56
 70
     1
102
RTVSPost2010Prop57
140
1.0
102
RTVSPost2010PropOp57
 70
     1
102
RTVSPropertyOp0
 70
     1
102
RTVSPropertyOp1
 70
     1
102
RTVSPropertyOp2
 70
     1
102
RTVSPropertyOp3
 70
     1
102
RTVSPropertyOp4
 70
     1
102
RTVSPropertyOp5
 70
     1
102
RTVSPropertyOp6
 70
     1
102
RTVSPropertyOp7
 70
     1
102
RTVSPropertyOp8
 70
     1
102
RTVSPropertyOp9
 70
     1
102
RTVSPropertyOp10
 70
     1
102
RTVSPropertyOp11
 70
     1
102
RTVSPropertyOp12
 70
     1
102
RTVSPropertyOp13
 70
     1
102
RTVSPropertyOp14
 70
     1
102
RTVSPropertyOp15
 70
     1
102
RTVSPropertyOp16
 70
     1
102
RTVSPropertyOp17
 70
     1
102
RTVSPropertyOp18
 70
     1
102
RTVSPropertyOp19
 70
     1
102
RTVSPropertyOp20
 70
     1
102
RTVSPropertyOp21
 70
     1
102
RTVSPropertyOp22
 70
     1
102
RTVSPropertyOp23
 70
     1
102
RTVSPropertyOp24
 70
     1
102
RTVSPropertyOp25
 70
     1
102
RTVSPropertyOp26
 70
     1
102
RTVSPropertyOp27
 70
     1
102
RTVSPropertyOp28
 70
     1
102
RTVSPropertyOp29
 70
     1
102
RTVSPropertyOp30
 70
     1
102
RTVSPropertyOp31
 70
     1
102
RTVSPropertyOp32
 70
     1
102
RTVSPropertyOp33
 70
     1
102
RTVSPropertyOp34
 70
     1
102
RTVSPropertyOp35
 70
     1
102
RTVSPropertyOp36
 70
     1
102
RTVSPropertyOp37
 70
     1
102
RTVSPropertyOp38
 70
     1
102
RTVSPropertyOp39
 70
     1
102
RTVSPropertyOp40
 70
     1
102
RTVSPropertyOp41
 70
     1
102
RTVSPropertyOp42
 70
     1
102
RTVSPropertyOp43
 70
     1
102
RTVSPropertyOp44
 70
     1
102
RTVSPropertyOp45
 70
     1
102
RTVSPropertyOp46
 70
     1
102
RTVSPropertyOp47
 70
     1
102
RTVSPropertyOp48
 70
     1
102
RTVSPropertyOp49
 70
     1
102
RTVSPropertyOp50
 70
     1
102
RTVSPropertyOp51
 70
     0
102
RTVSPropertyOp52
 70
     0
102
RTVSPropertyOp53
 70
     1
102
RTVSPropertyOp54
 70
     1
102
RTVSPropertyOp55
 70
     1
102
RTVSPropertyOp56
 70
     1
102
RTVSPropertyOp57
 70
     1
102
RTVSPropertyOp58
 70
     1
102
RTVSPropertyOp59
 70
     1
102
RTVSPropertyOp60
 70
     1
102
RTVSPropertyOp61
 70
     1
102
RTVSPropertyOp62
 70
     1
  0
XRECORD
  5
3190
102
{ACAD_REACTORS
330
318F
102
}
330
318F
100
AcDbXrecord
280
     1
102
RTVSPost2010Prop28
280
     0
102
RTVSPost2010PropOp28
 70
     1
102
RTVSPost2010Prop29
280
     1
102
RTVSPost2010PropOp29
 70
     1
102
RTVSPost2010Prop30
280
     1
102
RTVSPost2010PropOp30
 70
     1
102
RTVSPost2010Prop31
280
     0
102
RTVSPost2010PropOp31
 70
     1
102
RTVSPost2010Prop32
280
     0
102
RTVSPost2010PropOp32
 70
     1
102
RTVSPost2010Prop33
280
     0
102
RTVSPost2010PropOp33
 70
     1
102
RTVSPost2010Prop34
280
     0
102
RTVSPost2010PropOp34
 70
     1
102
RTVSPost2010Prop35
280
     0
102
RTVSPost2010PropOp35
 70
     1
102
RTVSPost2010Prop36
280
     0
102
RTVSPost2010PropOp36
 70
     1
102
RTVSPost2010Prop37
 90
       50
102
RTVSPost2010PropOp37
 70
     1
102
RTVSPost2010Prop38
140
0.0
102
RTVSPost2010PropOp38
 70
     1
102
RTVSPost2010Prop39
140
1.0
102
RTVSPost2010PropOp39
 70
     1
102
RTVSPost2010Prop40
 90
        0
102
RTVSPost2010PropOp40
 70
     1
102
RTVSPost2010Prop41ColorIndex
 90
       18
102
RTVSPost2010Prop41ColorRGB
 90
        0
102
RTVSPost2010PropOp41
 70
     1
102
RTVSPost2010Prop42
 90
       50
102
RTVSPost2010PropOp42
 70
     1
102
RTVSPost2010Prop43
 90
        3
102
RTVSPost2010PropOp43
 70
     1
102
RTVSPost2010Prop44ColorIndex
 90
        5
102
RTVSPost2010Prop44ColorRGB
 90
      255
102
RTVSPost2010PropOp44
 70
     1
102
RTVSPost2010Prop45
280
     0
102
RTVSPost2010PropOp45
 70
     1
102
RTVSPost2010Prop46
 90
       50
102
RTVSPost2010PropOp46
 70
     1
102
RTVSPost2010Prop47
 90
       50
102
RTVSPost2010PropOp47
 70
     1
102
RTVSPost2010Prop48
 90
       50
102
RTVSPost2010PropOp48
 70
     1
102
RTVSPost2010Prop49
280
     0
102
RTVSPost2010PropOp49
 70
     1
102
RTVSPost2010Prop50
 90
       50
102
RTVSPost2010PropOp50
 70
     1
102
RTVSPost2010Prop51ColorIndex
 90
      256
102
RTVSPost2010Prop51ColorRGB
 90
-16777216
102
RTVSPost2010PropOp51
 70
     0
102
RTVSPost2010Prop52
140
1.0
102
RTVSPost2010PropOp52
 70
     0
102
RTVSPost2010Prop53
 90
        2
102
RTVSPost2010PropOp53
 70
     1
102
RTVSPost2010Prop54
  1
strokes_ogs.tif
102
RTVSPost2010PropOp54
 70
     1
102
RTVSPost2010Prop55
280
     0
102
RTVSPost2010PropOp55
 70
     1
102
RTVSPost2010Prop56
140
1.0
102
RTVSPost2010PropOp56
 70
     1
102
RTVSPost2010Prop57
140
1.0
102
RTVSPost2010PropOp57
 70
     1
102
RTVSPropertyOp0
 70
     1
102
RTVSPropertyOp1
 70
     1
102
RTVSPropertyOp2
 70
     1
102
RTVSPropertyOp3
 70
     1
102
RTVSPropertyOp4
 70
     1
102
RTVSPropertyOp5
 70
     1
102
RTVSPropertyOp6
 70
     1
102
RTVSPropertyOp7
 70
     1
102
RTVSPropertyOp8
 70
     1
102
RTVSPropertyOp9
 70
     1
102
RTVSPropertyOp10
 70
     1
102
RTVSPropertyOp11
 70
     1
102
RTVSPropertyOp12
 70
     1
102
RTVSPropertyOp13
 70
     1
102
RTVSPropertyOp14
 70
     1
102
RTVSPropertyOp15
 70
     1
102
RTVSPropertyOp16
 70
     1
102
RTVSPropertyOp17
 70
     1
102
RTVSPropertyOp18
 70
     1
102
RTVSPropertyOp19
 70
     1
102
RTVSPropertyOp20
 70
     1
102
RTVSPropertyOp21
 70
     1
102
RTVSPropertyOp22
 70
     1
102
RTVSPropertyOp23
 70
     1
102
RTVSPropertyOp24
 70
     1
102
RTVSPropertyOp25
 70
     1
102
RTVSPropertyOp26
 70
     1
102
RTVSPropertyOp27
 70
     1
102
RTVSPropertyOp28
 70
     1
102
RTVSPropertyOp29
 70
     1
102
RTVSPropertyOp30
 70
     1
102
RTVSPropertyOp31
 70
     1
102
RTVSPropertyOp32
 70
     1
102
RTVSPropertyOp33
 70
     1
102
RTVSPropertyOp34
 70
     1
102
RTVSPropertyOp35
 70
     1
102
RTVSPropertyOp36
 70
     1
102
RTVSPropertyOp37
 70
     1
102
RTVSPropertyOp38
 70
     1
102
RTVSPropertyOp39
 70
     1
102
RTVSPropertyOp40
 70
     1
102
RTVSPropertyOp41
 70
     1
102
RTVSPropertyOp42
 70
     1
102
RTVSPropertyOp43
 70
     1
102
RTVSPropertyOp44
 70
     1
102
RTVSPropertyOp45
 70
     1
102
RTVSPropertyOp46
 70
     1
102
RTVSPropertyOp47
 70
     1
102
RTVSPropertyOp48
 70
     1
102
RTVSPropertyOp49
 70
     1
102
RTVSPropertyOp50
 70
     1
102
RTVSPropertyOp51
 70
     0
102
RTVSPropertyOp52
 70
     0
102
RTVSPropertyOp53
 70
     1
102
RTVSPropertyOp54
 70
     1
102
RTVSPropertyOp55
 70
     1
102
RTVSPropertyOp56
 70
     1
102
RTVSPropertyOp57
 70
     1
102
RTVSPropertyOp58
 70
     1
102
RTVSPropertyOp59
 70
     1
102
RTVSPropertyOp60
 70
     1
102
RTVSPropertyOp61
 70
     1
102
RTVSPropertyOp62
 70
     1
  0
XRECORD
  5
3186
102
{ACAD_REACTORS
330
3185
102
}
330
3185
100
AcDbXrecord
280
     1
102
RTVSPost2010Prop28
280
     0
102
RTVSPost2010PropOp28
 70
     1
102
RTVSPost2010Prop29
280
     1
102
RTVSPost2010PropOp29
 70
     1
102
RTVSPost2010Prop30
280
     1
102
RTVSPost2010PropOp30
 70
     1
102
RTVSPost2010Prop31
280
     0
102
RTVSPost2010PropOp31
 70
     1
102
RTVSPost2010Prop32
280
     0
102
RTVSPost2010PropOp32
 70
     1
102
RTVSPost2010Prop33
280
     0
102
RTVSPost2010PropOp33
 70
     1
102
RTVSPost2010Prop34
280
     0
102
RTVSPost2010PropOp34
 70
     1
102
RTVSPost2010Prop35
280
     0
102
RTVSPost2010PropOp35
 70
     1
102
RTVSPost2010Prop36
280
     0
102
RTVSPost2010PropOp36
 70
     1
102
RTVSPost2010Prop37
 90
       50
102
RTVSPost2010PropOp37
 70
     1
102
RTVSPost2010Prop38
140
0.0
102
RTVSPost2010PropOp38
 70
     1
102
RTVSPost2010Prop39
140
1.0
102
RTVSPost2010PropOp39
 70
     1
102
RTVSPost2010Prop40
 90
        0
102
RTVSPost2010PropOp40
 70
     1
102
RTVSPost2010Prop41ColorIndex
 90
       18
102
RTVSPost2010Prop41ColorRGB
 90
        0
102
RTVSPost2010PropOp41
 70
     1
102
RTVSPost2010Prop42
 90
       50
102
RTVSPost2010PropOp42
 70
     1
102
RTVSPost2010Prop43
 90
        3
102
RTVSPost2010PropOp43
 70
     1
102
RTVSPost2010Prop44ColorIndex
 90
        5
102
RTVSPost2010Prop44ColorRGB
 90
      255
102
RTVSPost2010PropOp44
 70
     1
102
RTVSPost2010Prop45
280
     0
102
RTVSPost2010PropOp45
 70
     1
102
RTVSPost2010Prop46
 90
       50
102
RTVSPost2010PropOp46
 70
     1
102
RTVSPost2010Prop47
 90
       50
102
RTVSPost2010PropOp47
 70
     1
102
RTVSPost2010Prop48
 90
       50
102
RTVSPost2010PropOp48
 70
     1
102
RTVSPost2010Prop49
280
     0
102
RTVSPost2010PropOp49
 70
     1
102
RTVSPost2010Prop50
 90
       50
102
RTVSPost2010PropOp50
 70
     1
102
RTVSPost2010Prop51ColorIndex
 90
      256
102
RTVSPost2010Prop51ColorRGB
 90
-16777216
102
RTVSPost2010PropOp51
 70
     0
102
RTVSPost2010Prop52
140
1.0
102
RTVSPost2010PropOp52
 70
     0
102
RTVSPost2010Prop53
 90
        2
102
RTVSPost2010PropOp53
 70
     1
102
RTVSPost2010Prop54
  1
strokes_ogs.tif
102
RTVSPost2010PropOp54
 70
     1
102
RTVSPost2010Prop55
280
     0
102
RTVSPost2010PropOp55
 70
     1
102
RTVSPost2010Prop56
140
1.0
102
RTVSPost2010PropOp56
 70
     1
102
RTVSPost2010Prop57
140
1.0
102
RTVSPost2010PropOp57
 70
     1
102
RTVSPropertyOp0
 70
     1
102
RTVSPropertyOp1
 70
     1
102
RTVSPropertyOp2
 70
     1
102
RTVSPropertyOp3
 70
     1
102
RTVSPropertyOp4
 70
     1
102
RTVSPropertyOp5
 70
     1
102
RTVSPropertyOp6
 70
     1
102
RTVSPropertyOp7
 70
     1
102
RTVSPropertyOp8
 70
     1
102
RTVSPropertyOp9
 70
     1
102
RTVSPropertyOp10
 70
     1
102
RTVSPropertyOp11
 70
     1
102
RTVSPropertyOp12
 70
     1
102
RTVSPropertyOp13
 70
     1
102
RTVSPropertyOp14
 70
     1
102
RTVSPropertyOp15
 70
     1
102
RTVSPropertyOp16
 70
     1
102
RTVSPropertyOp17
 70
     1
102
RTVSPropertyOp18
 70
     1
102
RTVSPropertyOp19
 70
     1
102
RTVSPropertyOp20
 70
     1
102
RTVSPropertyOp21
 70
     1
102
RTVSPropertyOp22
 70
     1
102
RTVSPropertyOp23
 70
     1
102
RTVSPropertyOp24
 70
     1
102
RTVSPropertyOp25
 70
     1
102
RTVSPropertyOp26
 70
     1
102
RTVSPropertyOp27
 70
     1
102
RTVSPropertyOp28
 70
     1
102
RTVSPropertyOp29
 70
     1
102
RTVSPropertyOp30
 70
     1
102
RTVSPropertyOp31
 70
     1
102
RTVSPropertyOp32
 70
     1
102
RTVSPropertyOp33
 70
     1
102
RTVSPropertyOp34
 70
     1
102
RTVSPropertyOp35
 70
     1
102
RTVSPropertyOp36
 70
     1
102
RTVSPropertyOp37
 70
     1
102
RTVSPropertyOp38
 70
     1
102
RTVSPropertyOp39
 70
     1
102
RTVSPropertyOp40
 70
     1
102
RTVSPropertyOp41
 70
     1
102
RTVSPropertyOp42
 70
     1
102
RTVSPropertyOp43
 70
     1
102
RTVSPropertyOp44
 70
     1
102
RTVSPropertyOp45
 70
     1
102
RTVSPropertyOp46
 70
     1
102
RTVSPropertyOp47
 70
     1
102
RTVSPropertyOp48
 70
     1
102
RTVSPropertyOp49
 70
     1
102
RTVSPropertyOp50
 70
     1
102
RTVSPropertyOp51
 70
     0
102
RTVSPropertyOp52
 70
     0
102
RTVSPropertyOp53
 70
     1
102
RTVSPropertyOp54
 70
     1
102
RTVSPropertyOp55
 70
     1
102
RTVSPropertyOp56
 70
     1
102
RTVSPropertyOp57
 70
     1
102
RTVSPropertyOp58
 70
     1
102
RTVSPropertyOp59
 70
     1
102
RTVSPropertyOp60
 70
     1
102
RTVSPropertyOp61
 70
     1
102
RTVSPropertyOp62
 70
     1
  0
XRECORD
  5
317A
102
{ACAD_REACTORS
330
3179
102
}
330
3179
100
AcDbXrecord
280
     1
102
RTVSPost2010Prop28
280
     0
102
RTVSPost2010PropOp28
 70
     1
102
RTVSPost2010Prop29
280
     1
102
RTVSPost2010PropOp29
 70
     1
102
RTVSPost2010Prop30
280
     1
102
RTVSPost2010PropOp30
 70
     1
102
RTVSPost2010Prop31
280
     0
102
RTVSPost2010PropOp31
 70
     1
102
RTVSPost2010Prop32
280
     0
102
RTVSPost2010PropOp32
 70
     1
102
RTVSPost2010Prop33
280
     0
102
RTVSPost2010PropOp33
 70
     1
102
RTVSPost2010Prop34
280
     0
102
RTVSPost2010PropOp34
 70
     1
102
RTVSPost2010Prop35
280
     0
102
RTVSPost2010PropOp35
 70
     1
102
RTVSPost2010Prop36
280
     0
102
RTVSPost2010PropOp36
 70
     1
102
RTVSPost2010Prop37
 90
       50
102
RTVSPost2010PropOp37
 70
     1
102
RTVSPost2010Prop38
140
0.0
102
RTVSPost2010PropOp38
 70
     1
102
RTVSPost2010Prop39
140
1.0
102
RTVSPost2010PropOp39
 70
     1
102
RTVSPost2010Prop40
 90
        0
102
RTVSPost2010PropOp40
 70
     1
102
RTVSPost2010Prop41ColorIndex
 90
       18
102
RTVSPost2010Prop41ColorRGB
 90
        0
102
RTVSPost2010PropOp41
 70
     1
102
RTVSPost2010Prop42
 90
       50
102
RTVSPost2010PropOp42
 70
     1
102
RTVSPost2010Prop43
 90
        3
102
RTVSPost2010PropOp43
 70
     1
102
RTVSPost2010Prop44ColorIndex
 90
        5
102
RTVSPost2010Prop44ColorRGB
 90
      255
102
RTVSPost2010PropOp44
 70
     1
102
RTVSPost2010Prop45
280
     0
102
RTVSPost2010PropOp45
 70
     1
102
RTVSPost2010Prop46
 90
       50
102
RTVSPost2010PropOp46
 70
     1
102
RTVSPost2010Prop47
 90
       50
102
RTVSPost2010PropOp47
 70
     1
102
RTVSPost2010Prop48
 90
       50
102
RTVSPost2010PropOp48
 70
     1
102
RTVSPost2010Prop49
280
     0
102
RTVSPost2010PropOp49
 70
     1
102
RTVSPost2010Prop50
 90
       50
102
RTVSPost2010PropOp50
 70
     1
102
RTVSPost2010Prop51ColorIndex
 90
      256
102
RTVSPost2010Prop51ColorRGB
 90
-16777216
102
RTVSPost2010PropOp51
 70
     0
102
RTVSPost2010Prop52
140
1.0
102
RTVSPost2010PropOp52
 70
     0
102
RTVSPost2010Prop53
 90
        2
102
RTVSPost2010PropOp53
 70
     1
102
RTVSPost2010Prop54
  1
strokes_ogs.tif
102
RTVSPost2010PropOp54
 70
     1
102
RTVSPost2010Prop55
280
     0
102
RTVSPost2010PropOp55
 70
     1
102
RTVSPost2010Prop56
140
1.0
102
RTVSPost2010PropOp56
 70
     1
102
RTVSPost2010Prop57
140
1.0
102
RTVSPost2010PropOp57
 70
     1
102
RTVSPropertyOp0
 70
     1
102
RTVSPropertyOp1
 70
     1
102
RTVSPropertyOp2
 70
     1
102
RTVSPropertyOp3
 70
     1
102
RTVSPropertyOp4
 70
     1
102
RTVSPropertyOp5
 70
     1
102
RTVSPropertyOp6
 70
     1
102
RTVSPropertyOp7
 70
     1
102
RTVSPropertyOp8
 70
     1
102
RTVSPropertyOp9
 70
     1
102
RTVSPropertyOp10
 70
     1
102
RTVSPropertyOp11
 70
     1
102
RTVSPropertyOp12
 70
     1
102
RTVSPropertyOp13
 70
     1
102
RTVSPropertyOp14
 70
     1
102
RTVSPropertyOp15
 70
     1
102
RTVSPropertyOp16
 70
     1
102
RTVSPropertyOp17
 70
     1
102
RTVSPropertyOp18
 70
     1
102
RTVSPropertyOp19
 70
     1
102
RTVSPropertyOp20
 70
     1
102
RTVSPropertyOp21
 70
     1
102
RTVSPropertyOp22
 70
     1
102
RTVSPropertyOp23
 70
     1
102
RTVSPropertyOp24
 70
     1
102
RTVSPropertyOp25
 70
     1
102
RTVSPropertyOp26
 70
     1
102
RTVSPropertyOp27
 70
     1
102
RTVSPropertyOp28
 70
     1
102
RTVSPropertyOp29
 70
     1
102
RTVSPropertyOp30
 70
     1
102
RTVSPropertyOp31
 70
     1
102
RTVSPropertyOp32
 70
     1
102
RTVSPropertyOp33
 70
     1
102
RTVSPropertyOp34
 70
     1
102
RTVSPropertyOp35
 70
     1
102
RTVSPropertyOp36
 70
     1
102
RTVSPropertyOp37
 70
     1
102
RTVSPropertyOp38
 70
     1
102
RTVSPropertyOp39
 70
     1
102
RTVSPropertyOp40
 70
     1
102
RTVSPropertyOp41
 70
     1
102
RTVSPropertyOp42
 70
     1
102
RTVSPropertyOp43
 70
     1
102
RTVSPropertyOp44
 70
     1
102
RTVSPropertyOp45
 70
     1
102
RTVSPropertyOp46
 70
     1
102
RTVSPropertyOp47
 70
     1
102
RTVSPropertyOp48
 70
     1
102
RTVSPropertyOp49
 70
     1
102
RTVSPropertyOp50
 70
     1
102
RTVSPropertyOp51
 70
     0
102
RTVSPropertyOp52
 70
     0
102
RTVSPropertyOp53
 70
     1
102
RTVSPropertyOp54
 70
     1
102
RTVSPropertyOp55
 70
     1
102
RTVSPropertyOp56
 70
     1
102
RTVSPropertyOp57
 70
     1
102
RTVSPropertyOp58
 70
     1
102
RTVSPropertyOp59
 70
     1
102
RTVSPropertyOp60
 70
     1
102
RTVSPropertyOp61
 70
     1
102
RTVSPropertyOp62
 70
     1
  0
XRECORD
  5
3192
102
{ACAD_REACTORS
330
3191
102
}
330
3191
100
AcDbXrecord
280
     1
102
RTVSPost2010Prop28
280
     0
102
RTVSPost2010PropOp28
 70
     1
102
RTVSPost2010Prop29
280
     1
102
RTVSPost2010PropOp29
 70
     1
102
RTVSPost2010Prop30
280
     1
102
RTVSPost2010PropOp30
 70
     1
102
RTVSPost2010Prop31
280
     0
102
RTVSPost2010PropOp31
 70
     1
102
RTVSPost2010Prop32
280
     0
102
RTVSPost2010PropOp32
 70
     1
102
RTVSPost2010Prop33
280
     0
102
RTVSPost2010PropOp33
 70
     1
102
RTVSPost2010Prop34
280
     0
102
RTVSPost2010PropOp34
 70
     1
102
RTVSPost2010Prop35
280
     0
102
RTVSPost2010PropOp35
 70
     1
102
RTVSPost2010Prop36
280
     0
102
RTVSPost2010PropOp36
 70
     1
102
RTVSPost2010Prop37
 90
       50
102
RTVSPost2010PropOp37
 70
     1
102
RTVSPost2010Prop38
140
0.0
102
RTVSPost2010PropOp38
 70
     1
102
RTVSPost2010Prop39
140
1.0
102
RTVSPost2010PropOp39
 70
     1
102
RTVSPost2010Prop40
 90
        0
102
RTVSPost2010PropOp40
 70
     1
102
RTVSPost2010Prop41ColorIndex
 90
       18
102
RTVSPost2010Prop41ColorRGB
 90
        0
102
RTVSPost2010PropOp41
 70
     1
102
RTVSPost2010Prop42
 90
       50
102
RTVSPost2010PropOp42
 70
     1
102
RTVSPost2010Prop43
 90
        3
102
RTVSPost2010PropOp43
 70
     1
102
RTVSPost2010Prop44ColorIndex
 90
        5
102
RTVSPost2010Prop44ColorRGB
 90
      255
102
RTVSPost2010PropOp44
 70
     1
102
RTVSPost2010Prop45
280
     0
102
RTVSPost2010PropOp45
 70
     1
102
RTVSPost2010Prop46
 90
       50
102
RTVSPost2010PropOp46
 70
     1
102
RTVSPost2010Prop47
 90
       50
102
RTVSPost2010PropOp47
 70
     1
102
RTVSPost2010Prop48
 90
       50
102
RTVSPost2010PropOp48
 70
     1
102
RTVSPost2010Prop49
280
     0
102
RTVSPost2010PropOp49
 70
     1
102
RTVSPost2010Prop50
 90
       50
102
RTVSPost2010PropOp50
 70
     1
102
RTVSPost2010Prop51ColorIndex
 90
      256
102
RTVSPost2010Prop51ColorRGB
 90
-16777216
102
RTVSPost2010PropOp51
 70
     0
102
RTVSPost2010Prop52
140
1.0
102
RTVSPost2010PropOp52
 70
     0
102
RTVSPost2010Prop53
 90
        2
102
RTVSPost2010PropOp53
 70
     1
102
RTVSPost2010Prop54
  1
strokes_ogs.tif
102
RTVSPost2010PropOp54
 70
     1
102
RTVSPost2010Prop55
280
     0
102
RTVSPost2010PropOp55
 70
     1
102
RTVSPost2010Prop56
140
1.0
102
RTVSPost2010PropOp56
 70
     1
102
RTVSPost2010Prop57
140
1.0
102
RTVSPost2010PropOp57
 70
     1
102
RTVSPropertyOp0
 70
     1
102
RTVSPropertyOp1
 70
     1
102
RTVSPropertyOp2
 70
     1
102
RTVSPropertyOp3
 70
     1
102
RTVSPropertyOp4
 70
     1
102
RTVSPropertyOp5
 70
     1
102
RTVSPropertyOp6
 70
     1
102
RTVSPropertyOp7
 70
     1
102
RTVSPropertyOp8
 70
     1
102
RTVSPropertyOp9
 70
     1
102
RTVSPropertyOp10
 70
     1
102
RTVSPropertyOp11
 70
     1
102
RTVSPropertyOp12
 70
     1
102
RTVSPropertyOp13
 70
     1
102
RTVSPropertyOp14
 70
     1
102
RTVSPropertyOp15
 70
     1
102
RTVSPropertyOp16
 70
     1
102
RTVSPropertyOp17
 70
     1
102
RTVSPropertyOp18
 70
     1
102
RTVSPropertyOp19
 70
     1
102
RTVSPropertyOp20
 70
     1
102
RTVSPropertyOp21
 70
     1
102
RTVSPropertyOp22
 70
     1
102
RTVSPropertyOp23
 70
     1
102
RTVSPropertyOp24
 70
     1
102
RTVSPropertyOp25
 70
     1
102
RTVSPropertyOp26
 70
     1
102
RTVSPropertyOp27
 70
     1
102
RTVSPropertyOp28
 70
     1
102
RTVSPropertyOp29
 70
     1
102
RTVSPropertyOp30
 70
     1
102
RTVSPropertyOp31
 70
     1
102
RTVSPropertyOp32
 70
     1
102
RTVSPropertyOp33
 70
     1
102
RTVSPropertyOp34
 70
     1
102
RTVSPropertyOp35
 70
     1
102
RTVSPropertyOp36
 70
     1
102
RTVSPropertyOp37
 70
     1
102
RTVSPropertyOp38
 70
     1
102
RTVSPropertyOp39
 70
     1
102
RTVSPropertyOp40
 70
     1
102
RTVSPropertyOp41
 70
     1
102
RTVSPropertyOp42
 70
     1
102
RTVSPropertyOp43
 70
     1
102
RTVSPropertyOp44
 70
     1
102
RTVSPropertyOp45
 70
     1
102
RTVSPropertyOp46
 70
     1
102
RTVSPropertyOp47
 70
     1
102
RTVSPropertyOp48
 70
     1
102
RTVSPropertyOp49
 70
     1
102
RTVSPropertyOp50
 70
     1
102
RTVSPropertyOp51
 70
     0
102
RTVSPropertyOp52
 70
     0
102
RTVSPropertyOp53
 70
     1
102
RTVSPropertyOp54
 70
     1
102
RTVSPropertyOp55
 70
     1
102
RTVSPropertyOp56
 70
     1
102
RTVSPropertyOp57
 70
     1
102
RTVSPropertyOp58
 70
     1
102
RTVSPropertyOp59
 70
     1
102
RTVSPropertyOp60
 70
     1
102
RTVSPropertyOp61
 70
     1
102
RTVSPropertyOp62
 70
     1
  0
ENDSEC
  0
EOF
