  0
SECTION
  2
HEADER
  9
$ACADVER
  1
AC1015
  9
$ACADMAINTVER
 70
    20
  9
$DWGCODEPAGE
  3
ANSI_1252
  9
$INSBASE
 10
0.0
 20
0.0
 30
0.0
  9
$EXTMIN
 10
-62.46554276241494
 20
-49.15754534748202
 30
-0.0000000349181948
  9
$EXTMAX
 10
173.6075141589957
 20
28.00470953842833
 30
0.0000000814935747
  9
$LIMMIN
 10
0.0
 20
0.0
  9
$LIMMAX
 10
12.0
 20
9.0
  9
$ORTHOMODE
 70
     0
  9
$REGENMODE
 70
     1
  9
$FILLMODE
 70
     1
  9
$QTEXTMODE
 70
     0
  9
$MIRRTEXT
 70
     1
  9
$LTSCALE
 40
1.0
  9
$ATTMODE
 70
     1
  9
$TEXTSIZE
 40
3.0
  9
$TRACEWID
 40
10.0
  9
$TEXTSTYLE
  7
SANDVIK_STYLE
  9
$CLAYER
  8
SK2
  9
$CELTYPE
  6
ByLayer
  9
$CECOLOR
 62
   256
  9
$CELTSCALE
 40
1.0
  9
$DISPSILH
 70
     0
  9
$DIMSCALE
 40
0.0
  9
$DIMASZ
 40
4.57
  9
$DIMEXO
 40
0.0
  9
$DIMDLI
 40
0.38
  9
$DIMRND
 40
0.0
  9
$DIMDLE
 40
0.0
  9
$DIMEXE
 40
5.0
  9
$DIMTP
 40
0.0
  9
$DIMTM
 40
0.0
  9
$DIMTXT
 40
4.5
  9
$DIMCEN
 40
0.09
  9
$DIMTSZ
 40
0.0
  9
$DIMTOL
 70
     0
  9
$DIMLIM
 70
     0
  9
$DIMTIH
 70
     0
  9
$DIMTOH
 70
     0
  9
$DIMSE1
 70
     0
  9
$DIMSE2
 70
     0
  9
$DIMTAD
 70
     1
  9
$DIMZIN
 70
     8
  9
$DIMBLK
  1

  9
$DIMASO
 70
     1
  9
$DIMSHO
 70
     1
  9
$DIMPOST
  1
 
  9
$DIMAPOST
  1
 
  9
$DIMALT
 70
     0
  9
$DIMALTD
 70
     2
  9
$DIMALTF
 40
25.4
  9
$DIMLFAC
 40
1.0
  9
$DIMTOFL
 70
     0
  9
$DIMTVP
 40
0.0
  9
$DIMTIX
 70
     0
  9
$DIMSOXD
 70
     0
  9
$DIMSAH
 70
     0
  9
$DIMBLK1
  1

  9
$DIMBLK2
  1

  9
$DIMSTYLE
  2
SANDVIK_DIM
  9
$DIMCLRD
 70
   256
  9
$DIMCLRE
 70
   256
  9
$DIMCLRT
 70
   256
  9
$DIMTFAC
 40
1.0
  9
$DIMGAP
 40
2.299999999999998
  9
$DIMJUST
 70
     0
  9
$DIMSD1
 70
     0
  9
$DIMSD2
 70
     0
  9
$DIMTOLJ
 70
     1
  9
$DIMTZIN
 70
     0
  9
$DIMALTZ
 70
     0
  9
$DIMALTTZ
 70
     0
  9
$DIMUPT
 70
     0
  9
$DIMDEC
 70
     2
  9
$DIMTDEC
 70
     2
  9
$DIMALTU
 70
     2
  9
$DIMALTTD
 70
     2
  9
$DIMTXSTY
  7
SANDVIK_STYLE
  9
$DIMAUNIT
 70
     0
  9
$DIMADEC
 70
     0
  9
$DIMALTRND
 40
0.0
  9
$DIMAZIN
 70
     0
  9
$DIMDSEP
 70
    46
  9
$DIMATFIT
 70
     3
  9
$DIMFRAC
 70
     0
  9
$DIMLDRBLK
  1

  9
$DIMLUNIT
 70
     2
  9
$DIMLWD
 70
    -2
  9
$DIMLWE
 70
    -2
  9
$DIMTMOVE
 70
     2
  9
$LUNITS
 70
     2
  9
$LUPREC
 70
     2
  9
$SKETCHINC
 40
0.0
  9
$FILLETRAD
 40
0.0
  9
$AUNITS
 70
     0
  9
$AUPREC
 70
     2
  9
$MENU
  1
acad
  9
$ELEVATION
 40
0.0
  9
$PELEVATION
 40
0.0
  9
$THICKNESS
 40
0.0
  9
$LIMCHECK
 70
     0
  9
$CHAMFERA
 40
0.0
  9
$CHAMFERB
 40
0.0
  9
$CHAMFERC
 40
0.0
  9
$CHAMFERD
 40
0.0
  9
$SKPOLY
 70
     0
  9
$TDCREATE
 40
2455817.646292060
  9
$TDUCREATE
 40
2455817.562958727
  9
$TDUPDATE
 40
2456818.536302628
  9
$TDUUPDATE
 40
2456818.452969294
  9
$TDINDWG
 40
0.0969184144
  9
$TDUSRTIMER
 40
0.0969183681
  9
$USRTIMER
 70
     1
  9
$ANGBASE
 50
0.0
  9
$ANGDIR
 70
     0
  9
$PDMODE
 70
     0
  9
$PDSIZE
 40
0.0
  9
$PLINEWID
 40
0.0
  9
$SPLFRAME
 70
     0
  9
$SPLINETYPE
 70
     6
  9
$SPLINESEGS
 70
     8
  9
$HANDSEED
  5
324F
  9
$SURFTAB1
 70
     6
  9
$SURFTAB2
 70
     6
  9
$SURFTYPE
 70
     6
  9
$SURFU
 70
     6
  9
$SURFV
 70
     6
  9
$UCSBASE
  2

  9
$UCSNAME
  2

  9
$UCSORG
 10
0.0
 20
0.0
 30
0.0
  9
$UCSXDIR
 10
1.0
 20
0.0
 30
0.0
  9
$UCSYDIR
 10
0.0
 20
1.0
 30
0.0
  9
$UCSORTHOREF
  2

  9
$UCSORTHOVIEW
 70
     0
  9
$UCSORGTOP
 10
0.0
 20
0.0
 30
0.0
  9
$UCSORGBOTTOM
 10
0.0
 20
0.0
 30
0.0
  9
$UCSORGLEFT
 10
0.0
 20
0.0
 30
0.0
  9
$UCSORGRIGHT
 10
0.0
 20
0.0
 30
0.0
  9
$UCSORGFRONT
 10
0.0
 20
0.0
 30
0.0
  9
$UCSORGBACK
 10
0.0
 20
0.0
 30
0.0
  9
$PUCSBASE
  2

  9
$PUCSNAME
  2

  9
$PUCSORG
 10
0.0
 20
0.0
 30
0.0
  9
$PUCSXDIR
 10
1.0
 20
0.0
 30
0.0
  9
$PUCSYDIR
 10
0.0
 20
1.0
 30
0.0
  9
$PUCSORTHOREF
  2

  9
$PUCSORTHOVIEW
 70
     0
  9
$PUCSORGTOP
 10
0.0
 20
0.0
 30
0.0
  9
$PUCSORGBOTTOM
 10
0.0
 20
0.0
 30
0.0
  9
$PUCSORGLEFT
 10
0.0
 20
0.0
 30
0.0
  9
$PUCSORGRIGHT
 10
0.0
 20
0.0
 30
0.0
  9
$PUCSORGFRONT
 10
0.0
 20
0.0
 30
0.0
  9
$PUCSORGBACK
 10
0.0
 20
0.0
 30
0.0
  9
$USERI1
 70
     0
  9
$USERI2
 70
     0
  9
$USERI3
 70
     0
  9
$USERI4
 70
     0
  9
$USERI5
 70
     0
  9
$USERR1
 40
0.0
  9
$USERR2
 40
0.0
  9
$USERR3
 40
0.0
  9
$USERR4
 40
0.0
  9
$USERR5
 40
0.0
  9
$WORLDVIEW
 70
     1
  9
$SHADEDGE
 70
     3
  9
$SHADEDIF
 70
    70
  9
$TILEMODE
 70
     1
  9
$MAXACTVP
 70
    16
  9
$PINSBASE
 10
0.0
 20
0.0
 30
0.0
  9
$PLIMCHECK
 70
     0
  9
$PEXTMIN
 10
1.000000000000000E+20
 20
1.000000000000000E+20
 30
1.000000000000000E+20
  9
$PEXTMAX
 10
-1.000000000000000E+20
 20
-1.000000000000000E+20
 30
-1.000000000000000E+20
  9
$PLIMMIN
 10
0.0
 20
0.0
  9
$PLIMMAX
 10
12.0
 20
9.0
  9
$UNITMODE
 70
     0
  9
$VISRETAIN
 70
     0
  9
$PLINEGEN
 70
     0
  9
$PSLTSCALE
 70
     1
  9
$TREEDEPTH
 70
  3020
  9
$CMLSTYLE
  2
Standard
  9
$CMLJUST
 70
     0
  9
$CMLSCALE
 40
1.0
  9
$PROXYGRAPHICS
 70
     1
  9
$MEASUREMENT
 70
     0
  9
$CELWEIGHT
370
    -1
  9
$ENDCAPS
280
     0
  9
$JOINSTYLE
280
     0
  9
$LWDISPLAY
290
     0
  9
$INSUNITS
 70
     0
  9
$HYPERLINKBASE
  1

  9
$STYLESHEET
  1

  9
$XEDIT
290
     1
  9
$CEPSNTYPE
380
     0
  9
$PSTYLEMODE
290
     1
  9
$FINGERPRINTGUID
  2
{BC6BEBD7-5C89-4B2E-99DC-E3119A1637E9}
  9
$VERSIONGUID
  2
{E41BA28F-9B36-4D0F-AEB4-413B71F10D95}
  9
$EXTNAMES
290
     1
  9
$PSVPSCALE
 40
0.0
  9
$OLESTARTUP
290
     0
  0
ENDSEC
  0
SECTION
  2
CLASSES
  0
CLASS
  1
ACDBDICTIONARYWDFLT
  2
AcDbDictionaryWithDefault
  3
ObjectDBX Classes
 90
        0
280
     0
281
     0
  0
CLASS
  1
MATERIAL
  2
AcDbMaterial
  3
ObjectDBX Classes
 90
     1153
280
     0
281
     0
  0
CLASS
  1
VISUALSTYLE
  2
AcDbVisualStyle
  3
ObjectDBX Classes
 90
     4095
280
     0
281
     0
  0
CLASS
  1
TABLESTYLE
  2
AcDbTableStyle
  3
ObjectDBX Classes
 90
     4095
280
     0
281
     0
  0
CLASS
  1
SCALE
  2
AcDbScale
  3
ObjectDBX Classes
 90
     1153
280
     0
281
     0
  0
CLASS
  1
MLEADERSTYLE
  2
AcDbMLeaderStyle
  3
ACDB_MLEADERSTYLE_CLASS
 90
     4095
280
     0
281
     0
  0
CLASS
  1
ACDBSECTIONVIEWSTYLE
  2
AcDbSectionViewStyle
  3
ObjectDBX Classes
 90
     1025
280
     0
281
     0
  0
CLASS
  1
ACDBDETAILVIEWSTYLE
  2
AcDbDetailViewStyle
  3
ObjectDBX Classes
 90
     1025
280
     0
281
     0
  0
CLASS
  1
EXACXREFPANELOBJECT
  2
ExAcXREFPanelObject
  3
EXAC_ESW
 90
     1025
280
     0
281
     0
  0
CLASS
  1
NPOCOLLECTION
  2
AcDbImpNonPersistentObjectsCollection
  3
ObjectDBX Classes
 90
     1153
280
     0
281
     0
  0
CLASS
  1
DICTIONARYVAR
  2
AcDbDictionaryVar
  3
ObjectDBX Classes
 90
        0
280
     0
281
     0
  0
CLASS
  1
CELLSTYLEMAP
  2
AcDbCellStyleMap
  3
ObjectDBX Classes
 90
     1152
280
     0
281
     0
  0
CLASS
  1
ACDBPLACEHOLDER
  2
AcDbPlaceHolder
  3
ObjectDBX Classes
 90
        0
280
     0
281
     0
  0
CLASS
  1
LAYOUT
  2
AcDbLayout
  3
ObjectDBX Classes
 90
        0
280
     0
281
     0
  0
ENDSEC
  0
SECTION
  2
TABLES
  0
TABLE
  2
VPORT
  5
BDF
330
0
100
AcDbSymbolTable
 70
     1
  0
VPORT
  5
3161
330
BDF
100
AcDbSymbolTableRecord
100
AcDbViewportTableRecord
  2
*Active
 70
     0
 10
0.0
 20
0.0
 11
1.0
 21
1.0
 12
55.5709856982904
 22
-10.57641790452685
 13
0.0
 23
0.0
 14
1.0
 24
1.0
 15
0.0
 25
0.0
 16
0.0
 26
0.0
 36
1.0
 17
0.0
 27
0.0
 37
0.0
 40
119.617775358903
 41
2.2
 42
50.0
 43
0.0
 44
0.0
 50
0.0
 51
0.0
 71
     0
 72
   100
 73
     1
 74
     1
 75
     0
 76
     0
 77
     0
 78
     0
281
     0
 65
     1
110
0.0
120
0.0
130
0.0
111
1.0
121
0.0
131
0.0
112
0.0
122
1.0
132
0.0
 79
     0
146
0.0
1001
ACAD_NAV_VCDISPLAY
1070
     3
  0
ENDTAB
  0
TABLE
  2
LTYPE
  5
BDC
330
0
100
AcDbSymbolTable
 70
     4
  0
LTYPE
  5
BEA
330
BDC
100
AcDbSymbolTableRecord
100
AcDbLinetypeTableRecord
  2
ByBlock
 70
     0
  3

 72
    65
 73
     0
 40
0.0
  0
LTYPE
  5
BEB
330
BDC
100
AcDbSymbolTableRecord
100
AcDbLinetypeTableRecord
  2
ByLayer
 70
     0
  3

 72
    65
 73
     0
 40
0.0
  0
LTYPE
  5
BEC
330
BDC
100
AcDbSymbolTableRecord
100
AcDbLinetypeTableRecord
  2
CONTINUOUS
 70
     0
  3
Solid line
 72
    65
 73
     0
 40
0.0
  0
LTYPE
  5
BFE
330
BDC
100
AcDbSymbolTableRecord
100
AcDbLinetypeTableRecord
  2
CENTER
 70
     0
  3
____ _ ____ _ ____ _ ____ _ ____ _ ____ _ ____
 72
    65
 73
     4
 40
5.059897
 49
3.162434999999998
 74
     0
 49
-0.6324870000000004
 74
     0
 49
0.6324870000000004
 74
     0
 49
-0.6324870000000004
 74
     0
  0
LTYPE
  5
BFF
330
BDC
100
AcDbSymbolTableRecord
100
AcDbLinetypeTableRecord
  2
DASHED
 70
     0
  3
__ __ __ __ __ __ __ __ __ __ __ __ __ __ __ __
 72
    65
 73
     2
 40
7.589844999999997
 49
5.059897
 74
     0
 49
-2.529948
 74
     0
  0
LTYPE
  5
31AD
330
BDC
100
AcDbSymbolTableRecord
100
AcDbLinetypeTableRecord
  2
PHANTOM2
 70
     0
  3
Phantom (.5x) ___ _ _ ___ _ _ ___ _ _ ___ _ _
 72
    65
 73
     6
 40
1.25
 49
0.625
 74
     0
 49
-0.125
 74
     0
 49
0.125
 74
     0
 49
-0.125
 74
     0
 49
0.125
 74
     0
 49
-0.125
 74
     0
  0
ENDTAB
  0
TABLE
  2
LAYER
  5
BD9
330
0
100
AcDbSymbolTable
 70
    40
  0
LAYER
  5
BE7
102
{ACAD_XDICTIONARY
360
31B5
102
}
330
BD9
100
AcDbSymbolTableRecord
100
AcDbLayerTableRecord
  2
0
 70
     0
 62
     7
  6
CONTINUOUS
370
    -3
390
BE6
  0
LAYER
  5
BFB
102
{ACAD_XDICTIONARY
360
31B7
102
}
330
BD9
100
AcDbSymbolTableRecord
100
AcDbLayerTableRecord
  2
3
 70
     0
 62
     1
  6
DASHED
370
    -3
390
BE6
  0
LAYER
  5
C00
102
{ACAD_XDICTIONARY
360
31B9
102
}
330
BD9
100
AcDbSymbolTableRecord
100
AcDbLayerTableRecord
  2
1
 70
     0
 62
     4
  6
CONTINUOUS
370
    -3
390
BE6
  0
LAYER
  5
C01
102
{ACAD_XDICTIONARY
360
31BB
102
}
330
BD9
100
AcDbSymbolTableRecord
100
AcDbLayerTableRecord
  2
61
 70
     0
 62
     5
  6
CONTINUOUS
370
    -3
390
BE6
  0
LAYER
  5
C02
102
{ACAD_XDICTIONARY
360
31BD
102
}
330
BD9
100
AcDbSymbolTableRecord
100
AcDbLayerTableRecord
  2
62
 70
     0
 62
    -5
  6
CONTINUOUS
370
    -3
390
BE6
  0
LAYER
  5
C03
102
{ACAD_XDICTIONARY
360
31BF
102
}
330
BD9
100
AcDbSymbolTableRecord
100
AcDbLayerTableRecord
  2
63
 70
     0
 62
    -5
  6
CONTINUOUS
370
    -3
390
BE6
  0
LAYER
  5
C04
102
{ACAD_XDICTIONARY
360
31C1
102
}
330
BD9
100
AcDbSymbolTableRecord
100
AcDbLayerTableRecord
  2
64
 70
     0
 62
    -5
  6
CONTINUOUS
370
    -3
390
BE6
  0
LAYER
  5
C05
102
{ACAD_XDICTIONARY
360
31C3
102
}
330
BD9
100
AcDbSymbolTableRecord
100
AcDbLayerTableRecord
  2
65
 70
     0
 62
    -5
  6
CONTINUOUS
370
    -3
390
BE6
  0
LAYER
  5
C06
102
{ACAD_XDICTIONARY
360
31C5
102
}
330
BD9
100
AcDbSymbolTableRecord
100
AcDbLayerTableRecord
  2
66
 70
     0
 62
    -5
  6
CONTINUOUS
370
    -3
390
BE6
  0
LAYER
  5
C07
102
{ACAD_XDICTIONARY
360
31C7
102
}
330
BD9
100
AcDbSymbolTableRecord
100
AcDbLayerTableRecord
  2
67
 70
     0
 62
    -5
  6
CONTINUOUS
370
    -3
390
BE6
  0
LAYER
  5
C08
102
{ACAD_XDICTIONARY
360
31C9
102
}
330
BD9
100
AcDbSymbolTableRecord
100
AcDbLayerTableRecord
  2
68
 70
     0
 62
    -5
  6
CONTINUOUS
370
    -3
390
BE6
  0
LAYER
  5
C09
102
{ACAD_XDICTIONARY
360
31CB
102
}
330
BD9
100
AcDbSymbolTableRecord
100
AcDbLayerTableRecord
  2
69
 70
     0
 62
    -5
  6
CONTINUOUS
370
    -3
390
BE6
  0
LAYER
  5
C0A
102
{ACAD_XDICTIONARY
360
31CD
102
}
330
BD9
100
AcDbSymbolTableRecord
100
AcDbLayerTableRecord
  2
70
 70
     0
 62
     5
  6
CONTINUOUS
370
    -3
390
BE6
  0
LAYER
  5
C0B
102
{ACAD_XDICTIONARY
360
31CF
102
}
330
BD9
100
AcDbSymbolTableRecord
100
AcDbLayerTableRecord
  2
2
 70
     0
 62
     7
  6
CONTINUOUS
370
    -3
390
BE6
  0
LAYER
  5
C0C
102
{ACAD_XDICTIONARY
360
31D1
102
}
330
BD9
100
AcDbSymbolTableRecord
100
AcDbLayerTableRecord
  2
4
 70
     0
 62
    -2
  6
CENTER
370
    -3
390
BE6
  0
LAYER
  5
C0D
102
{ACAD_XDICTIONARY
360
31D3
102
}
330
BD9
100
AcDbSymbolTableRecord
100
AcDbLayerTableRecord
  2
5
 70
     0
 62
    -7
  6
CONTINUOUS
370
    -3
390
BE6
  0
LAYER
  5
C0E
102
{ACAD_XDICTIONARY
360
31D5
102
}
330
BD9
100
AcDbSymbolTableRecord
100
AcDbLayerTableRecord
  2
SK1
 70
     0
 62
     4
  6
CONTINUOUS
370
    -3
390
BE6
  0
LAYER
  5
C0F
102
{ACAD_XDICTIONARY
360
31D7
102
}
330
BD9
100
AcDbSymbolTableRecord
100
AcDbLayerTableRecord
  2
6
 70
     0
 62
     5
  6
CONTINUOUS
370
    -3
390
BE6
  0
LAYER
  5
C10
102
{ACAD_XDICTIONARY
360
31D9
102
}
330
BD9
100
AcDbSymbolTableRecord
100
AcDbLayerTableRecord
  2
SK2
 70
     0
 62
     7
  6
CONTINUOUS
370
    -3
390
BE6
  0
LAYER
  5
C11
102
{ACAD_XDICTIONARY
360
31DB
102
}
330
BD9
100
AcDbSymbolTableRecord
100
AcDbLayerTableRecord
  2
SK3
 70
     0
 62
     1
  6
DASHED
370
    -3
390
BE6
  0
LAYER
  5
C12
102
{ACAD_XDICTIONARY
360
31DD
102
}
330
BD9
100
AcDbSymbolTableRecord
100
AcDbLayerTableRecord
  2
SK4
 70
     0
 62
     2
  6
CENTER
370
    -3
390
BE6
  0
LAYER
  5
C13
102
{ACAD_XDICTIONARY
360
31DF
102
}
330
BD9
100
AcDbSymbolTableRecord
100
AcDbLayerTableRecord
  2
CUT
 70
     0
 62
     1
  6
CONTINUOUS
370
    -3
390
BE6
  0
LAYER
  5
C14
102
{ACAD_XDICTIONARY
360
31E1
102
}
330
BD9
100
AcDbSymbolTableRecord
100
AcDbLayerTableRecord
  2
SK6
 70
     0
 62
     5
  6
CONTINUOUS
370
    -3
390
BE6
  0
LAYER
  5
C15
102
{ACAD_XDICTIONARY
360
31E3
102
}
330
BD9
100
AcDbSymbolTableRecord
100
AcDbLayerTableRecord
  2
80
 70
     0
 62
    -2
  6
CENTER
370
    -3
390
BE6
  0
LAYER
  5
C16
102
{ACAD_XDICTIONARY
360
31E5
102
}
330
BD9
100
AcDbSymbolTableRecord
100
AcDbLayerTableRecord
  2
81
 70
     0
 62
    -2
  6
CENTER
370
    -3
390
BE6
  0
LAYER
  5
C17
102
{ACAD_XDICTIONARY
360
31E7
102
}
330
BD9
100
AcDbSymbolTableRecord
100
AcDbLayerTableRecord
  2
82
 70
     0
 62
    -2
  6
CENTER
370
    -3
390
BE6
  0
LAYER
  5
C18
102
{ACAD_XDICTIONARY
360
31E9
102
}
330
BD9
100
AcDbSymbolTableRecord
100
AcDbLayerTableRecord
  2
NOCUT
 70
     0
 62
     7
  6
CONTINUOUS
370
    -3
390
BE6
  0
LAYER
  5
C19
102
{ACAD_XDICTIONARY
360
31EB
102
}
330
BD9
100
AcDbSymbolTableRecord
100
AcDbLayerTableRecord
  2
50
 70
     0
 62
    -7
  6
CONTINUOUS
370
    -3
390
BE6
  0
LAYER
  5
C1A
102
{ACAD_XDICTIONARY
360
31ED
102
}
330
BD9
100
AcDbSymbolTableRecord
100
AcDbLayerTableRecord
  2
51
 70
     0
 62
     7
  6
CONTINUOUS
370
    -3
390
BE6
  0
LAYER
  5
C1B
102
{ACAD_XDICTIONARY
360
31EF
102
}
330
BD9
100
AcDbSymbolTableRecord
100
AcDbLayerTableRecord
  2
52
 70
     0
 62
    -7
  6
CONTINUOUS
370
    -3
390
BE6
  0
LAYER
  5
C1C
102
{ACAD_XDICTIONARY
360
31F1
102
}
330
BD9
100
AcDbSymbolTableRecord
100
AcDbLayerTableRecord
  2
53
 70
     0
 62
    -7
  6
CONTINUOUS
370
    -3
390
BE6
  0
LAYER
  5
C1D
102
{ACAD_XDICTIONARY
360
31F3
102
}
330
BD9
100
AcDbSymbolTableRecord
100
AcDbLayerTableRecord
  2
54
 70
     0
 62
    -7
  6
CONTINUOUS
370
    -3
390
BE6
  0
LAYER
  5
C1E
102
{ACAD_XDICTIONARY
360
31F5
102
}
330
BD9
100
AcDbSymbolTableRecord
100
AcDbLayerTableRecord
  2
55
 70
     0
 62
    -7
  6
CONTINUOUS
370
    -3
390
BE6
  0
LAYER
  5
C1F
102
{ACAD_XDICTIONARY
360
31F7
102
}
330
BD9
100
AcDbSymbolTableRecord
100
AcDbLayerTableRecord
  2
56
 70
     0
 62
    -7
  6
CONTINUOUS
370
    -3
390
BE6
  0
LAYER
  5
C20
102
{ACAD_XDICTIONARY
360
31F9
102
}
330
BD9
100
AcDbSymbolTableRecord
100
AcDbLayerTableRecord
  2
57
 70
     0
 62
    -7
  6
CONTINUOUS
370
    -3
390
BE6
  0
LAYER
  5
C21
102
{ACAD_XDICTIONARY
360
31FB
102
}
330
BD9
100
AcDbSymbolTableRecord
100
AcDbLayerTableRecord
  2
58
 70
     0
 62
    -7
  6
CONTINUOUS
370
    -3
390
BE6
  0
LAYER
  5
C22
102
{ACAD_XDICTIONARY
360
31FD
102
}
330
BD9
100
AcDbSymbolTableRecord
100
AcDbLayerTableRecord
  2
2L
 70
     0
 62
     7
  6
CONTINUOUS
370
    -3
390
BE6
  0
LAYER
  5
C23
102
{ACAD_XDICTIONARY
360
31FF
102
}
330
BD9
100
AcDbSymbolTableRecord
100
AcDbLayerTableRecord
  2
59
 70
     0
 62
    -7
  6
CONTINUOUS
370
    -3
390
BE6
  0
LAYER
  5
C24
330
BD9
100
AcDbSymbolTableRecord
100
AcDbLayerTableRecord
  2
DEFPOINTS
 70
     0
 62
     7
  6
CONTINUOUS
290
     0
370
    -3
390
BE6
  0
LAYER
  5
C42
102
{ACAD_XDICTIONARY
360
3201
102
}
330
BD9
100
AcDbSymbolTableRecord
100
AcDbLayerTableRecord
  2
TFR-TRI
 70
     0
 62
     7
  6
CONTINUOUS
370
    -3
390
BE6
  0
ENDTAB
  0
TABLE
  2
STYLE
  5
BDA
330
0
100
AcDbSymbolTable
 70
     2
  0
STYLE
  5
BE8
330
BDA
100
AcDbSymbolTableRecord
100
AcDbTextStyleTableRecord
  2
STANDARD
 70
     0
 40
0.0
 41
1.0
 50
0.0
 71
     0
 42
4.5
  3
simplex.shx
  4

  0
STYLE
  5
BFC
330
BDA
100
AcDbSymbolTableRecord
100
AcDbTextStyleTableRecord
  2
SANDVIK_STYLE
 70
     0
 40
3.0
 41
1.0
 50
0.0
 71
     0
 42
3.0
  3
simplex.shx
  4

  0
ENDTAB
  0
TABLE
  2
VIEW
  5
BDD
330
0
100
AcDbSymbolTable
 70
     0
  0
ENDTAB
  0
TABLE
  2
UCS
  5
BDE
330
0
100
AcDbSymbolTable
 70
     0
  0
ENDTAB
  0
TABLE
  2
APPID
  5
BE0
330
0
100
AcDbSymbolTable
 70
     4
  0
APPID
  5
BE9
330
BE0
100
AcDbSymbolTableRecord
100
AcDbRegAppTableRecord
  2
ACAD
 70
     0
  0
APPID
  5
3205
330
BE0
100
AcDbSymbolTableRecord
100
AcDbRegAppTableRecord
  2
DCO15
 70
     0
  0
APPID
  5
3211
330
BE0
100
AcDbSymbolTableRecord
100
AcDbRegAppTableRecord
  2
ACAD_NAV_VCDISPLAY
 70
     0
  0
APPID
  5
324E
330
BE0
100
AcDbSymbolTableRecord
100
AcDbRegAppTableRecord
  2
ACAD_MLEADERVER
 70
     0
  0
ENDTAB
  0
TABLE
  2
DIMSTYLE
  5
BE1
330
0
100
AcDbSymbolTable
 70
     2
100
AcDbDimStyleTable
 71
     1
340
C26
  0
DIMSTYLE
105
C25
330
BE1
100
AcDbSymbolTableRecord
100
AcDbDimStyleTableRecord
  2
STANDARD
 70
     0
  3
 
  4
 
 41
3.0
 42
2.5
 43
10.0
 44
2.5
 46
1.25
 73
     0
 74
     0
140
3.0
141
-3.0
143
0.039
145
1.5
146
0.75
147
1.5
271
     2
272
     2
279
     2
340
BFC
  0
DIMSTYLE
105
C26
102
{ACAD_REACTORS
330
3028
330
3035
330
3042
330
304F
330
3065
330
3072
330
3080
102
}
330
BE1
100
AcDbSymbolTableRecord
100
AcDbDimStyleTableRecord
  2
SANDVIK_DIM
 70
     0
  3
 
  4
 
 40
0.0
 41
4.57
 42
0.0
 44
5.0
 73
     0
 74
     0
 77
     1
 78
     8
140
4.5
147
2.299999999999998
176
   256
177
   256
178
   256
271
     2
272
     2
279
     2
340
BFC
  0
ENDTAB
  0
TABLE
  2
BLOCK_RECORD
  5
BD8
330
0
100
AcDbSymbolTable
 70
     9
  0
BLOCK_RECORD
  5
BF7
330
BD8
100
AcDbSymbolTableRecord
100
AcDbBlockTableRecord
  2
*Model_Space
340
BFA
  0
BLOCK_RECORD
  5
BF3
330
BD8
100
AcDbSymbolTableRecord
100
AcDbBlockTableRecord
  2
*Paper_Space
340
BF6
  0
BLOCK_RECORD
  5
C28
330
BD8
100
AcDbSymbolTableRecord
100
AcDbBlockTableRecord
  2
$MODEL_SPACE
340
0
  0
BLOCK_RECORD
  5
C2A
330
BD8
100
AcDbSymbolTableRecord
100
AcDbBlockTableRecord
  2
$PAPER_SPACE
340
0
  0
BLOCK_RECORD
  5
3029
330
BD8
100
AcDbSymbolTableRecord
100
AcDbBlockTableRecord
  2
*D2
340
0
  0
BLOCK_RECORD
  5
3036
330
BD8
100
AcDbSymbolTableRecord
100
AcDbBlockTableRecord
  2
*D3
340
0
  0
BLOCK_RECORD
  5
3043
330
BD8
100
AcDbSymbolTableRecord
100
AcDbBlockTableRecord
  2
*D4
340
0
  0
BLOCK_RECORD
  5
3050
330
BD8
100
AcDbSymbolTableRecord
100
AcDbBlockTableRecord
  2
*D5
340
0
  0
BLOCK_RECORD
  5
3066
330
BD8
100
AcDbSymbolTableRecord
100
AcDbBlockTableRecord
  2
*D6
340
0
  0
BLOCK_RECORD
  5
3073
330
BD8
100
AcDbSymbolTableRecord
100
AcDbBlockTableRecord
  2
*D7
340
0
  0
BLOCK_RECORD
  5
3081
330
BD8
100
AcDbSymbolTableRecord
100
AcDbBlockTableRecord
  2
*D8
340
0
  0
ENDTAB
  0
ENDSEC
  0
SECTION
  2
BLOCKS
  0
BLOCK
  5
BF8
330
BF7
100
AcDbEntity
  8
0
100
AcDbBlockBegin
  2
*Model_Space
 70
     0
 10
0.0
 20
0.0
 30
0.0
  3
*Model_Space
  1

  0
ENDBLK
  5
BF9
330
BF7
100
AcDbEntity
  8
0
100
AcDbBlockEnd
  0
BLOCK
  5
BF4
330
BF3
100
AcDbEntity
 67
     1
  8
0
100
AcDbBlockBegin
  2
*Paper_Space
 70
     0
 10
0.0
 20
0.0
 30
0.0
  3
*Paper_Space
  1

  0
ENDBLK
  5
BF5
330
BF3
100
AcDbEntity
 67
     1
  8
0
100
AcDbBlockEnd
  0
BLOCK
  5
C29
330
C28
100
AcDbEntity
  8
0
100
AcDbBlockBegin
  2
$MODEL_SPACE
 70
     0
 10
0.0
 20
0.0
 30
0.0
  3
$MODEL_SPACE
  1

  0
ENDBLK
  5
AEF
330
C28
100
AcDbEntity
  8
0
100
AcDbBlockEnd
  0
BLOCK
  5
C2B
330
C2A
100
AcDbEntity
  8
0
100
AcDbBlockBegin
  2
$PAPER_SPACE
 70
     0
 10
0.0
 20
0.0
 30
0.0
  3
$PAPER_SPACE
  1

  0
ENDBLK
  5
AEB
330
C2A
100
AcDbEntity
  8
0
100
AcDbBlockEnd
  0
BLOCK
  5
3033
330
3029
100
AcDbEntity
  8
0
100
AcDbBlockBegin
  2
*D2
 70
     1
 10
0.0
 20
0.0
 30
0.0
  3
*D2
  1

  0
LINE
  5
3116
330
3029
100
AcDbEntity
  8
SK2
370
    -2
100
AcDbLine
 10
151.999961
 20
0.2001600000000057
 30
0.0
 11
151.999961
 21
-49.15283652761747
 31
0.0
  0
LINE
  5
3117
330
3029
100
AcDbEntity
  8
SK2
370
    -2
100
AcDbLine
 10
-39.99999299999999
 20
-4.174838999999998
 30
0.0
 11
-39.99999299999999
 21
-49.15283652761747
 31
0.0
  0
LINE
  5
3118
330
3029
100
AcDbEntity
  8
SK2
370
    -2
100
AcDbLine
 10
147.429961
 20
-44.15283652761746
 30
0.0
 11
-35.42999299999999
 21
-44.15283652761746
 31
0.0
  0
SOLID
  5
3119
330
3029
100
AcDbEntity
  8
SK2
100
AcDbTrace
 10
147.429961
 20
-43.3911698609508
 30
0.0
 11
147.429961
 21
-44.91450319428413
 31
0.0
 12
151.999961
 22
-44.15283652761746
 32
0.0
 13
151.999961
 23
-44.15283652761746
 33
0.0
  0
SOLID
  5
311A
330
3029
100
AcDbEntity
  8
SK2
100
AcDbTrace
 10
-35.42999299999999
 20
-43.3911698609508
 30
0.0
 11
-35.42999299999999
 21
-44.91450319428413
 31
0.0
 12
-39.99999299999999
 22
-44.15283652761746
 32
0.0
 13
-39.99999299999999
 23
-44.15283652761746
 33
0.0
  0
MTEXT
  5
311B
330
3029
100
AcDbEntity
  8
SK2
100
AcDbMText
 10
55.99998400000001
 20
-40.35283652761747
 30
0.0
 40
3.0
 41
0.0
 71
     5
 72
     1
  1
\A1;192 
  7
SANDVIK_STYLE
 73
     1
 44
1.0
1001
ACAD
1000
MTEXTBEGIN
1070
    73
1070
     1
1070
    44
1040
1.0
1070
    74
1070
     0
1000
MTEXTEND
  0
POINT
  5
311C
330
3029
100
AcDbEntity
  8
DEFPOINTS
 62
     0
100
AcDbPoint
 10
151.999961
 20
0.2001600000000057
 30
0.0
  0
POINT
  5
311D
330
3029
100
AcDbEntity
  8
DEFPOINTS
 62
     0
100
AcDbPoint
 10
-39.99999299999999
 20
-4.174838999999998
 30
0.0
  0
POINT
  5
311E
330
3029
100
AcDbEntity
  8
DEFPOINTS
 62
     0
100
AcDbPoint
 10
-39.99999299999999
 20
-44.15283652761746
 30
0.0
  0
ENDBLK
  5
3034
330
3029
100
AcDbEntity
  8
0
100
AcDbBlockEnd
  0
BLOCK
  5
3040
330
3036
100
AcDbEntity
  8
0
100
AcDbBlockBegin
  2
*D3
 70
     1
 10
0.0
 20
0.0
 30
0.0
  3
*D3
  1

  0
LINE
  5
314E
330
3036
100
AcDbEntity
  8
2
370
    -2
100
AcDbLine
 10
151.999961
 20
0.2001600000000057
 30
0.0
 11
151.999961
 21
-35.83775572138661
 31
0.0
  0
LINE
  5
314F
330
3036
100
AcDbEntity
  8
2
370
    -2
100
AcDbLine
 10
0.0
 20
0.5089110000000014
 30
0.0
 11
-0.0000000000000022
 21
-35.83775572138659
 31
0.0
  0
LINE
  5
3150
330
3036
100
AcDbEntity
  8
2
370
    -2
100
AcDbLine
 10
147.429961
 20
-30.8377557213866
 30
0.0
 11
4.569999999999998
 21
-30.8377557213866
 31
0.0
  0
SOLID
  5
3151
330
3036
100
AcDbEntity
  8
2
100
AcDbTrace
 10
147.429961
 20
-30.07608905471994
 30
0.0
 11
147.429961
 21
-31.59942238805327
 31
0.0
 12
151.999961
 22
-30.8377557213866
 32
0.0
 13
151.999961
 23
-30.8377557213866
 33
0.0
  0
SOLID
  5
3152
330
3036
100
AcDbEntity
  8
2
100
AcDbTrace
 10
4.569999999999998
 20
-30.07608905471994
 30
0.0
 11
4.569999999999998
 21
-31.59942238805327
 31
0.0
 12
-0.0000000000000019
 22
-30.8377557213866
 32
0.0
 13
-0.0000000000000019
 23
-30.8377557213866
 33
0.0
  0
MTEXT
  5
3153
330
3036
100
AcDbEntity
  8
2
100
AcDbMText
 10
75.9999805
 20
-27.0377557213866
 30
0.0
 40
3.0
 41
0.0
 71
     5
 72
     1
  1
\A1;152 
  7
SANDVIK_STYLE
 73
     1
 44
1.0
1001
ACAD
1000
MTEXTBEGIN
1070
    73
1070
     1
1070
    44
1040
1.0
1070
    74
1070
     0
1000
MTEXTEND
  0
POINT
  5
3154
330
3036
100
AcDbEntity
  8
DEFPOINTS
 62
     0
100
AcDbPoint
 10
151.999961
 20
0.2001600000000057
 30
0.0
  0
POINT
  5
3155
330
3036
100
AcDbEntity
  8
DEFPOINTS
 62
     0
100
AcDbPoint
 10
0.0
 20
0.5089110000000014
 30
0.0
  0
POINT
  5
3156
330
3036
100
AcDbEntity
  8
DEFPOINTS
 62
     0
100
AcDbPoint
 10
-0.0000000000000019
 20
-30.8377557213866
 30
0.0
  0
ENDBLK
  5
3041
330
3036
100
AcDbEntity
  8
0
100
AcDbBlockEnd
  0
BLOCK
  5
304D
330
3043
100
AcDbEntity
  8
0
100
AcDbBlockBegin
  2
*D4
 70
     1
 10
0.0
 20
0.0
 30
0.0
  3
*D4
  1

  0
LINE
  5
3132
330
3043
100
AcDbEntity
  8
SK2
370
    -2
100
AcDbLine
 10
0.0
 20
-1.497304999999998
 30
0.0
 11
-0.0000000000000021
 21
-35.84590709086058
 31
0.0
  0
LINE
  5
3133
330
3043
100
AcDbEntity
  8
SK2
370
    -2
100
AcDbLine
 10
-39.99999299999999
 20
-4.174838999999998
 30
0.0
 11
-39.99999299999999
 21
-35.84590709086058
 31
0.0
  0
LINE
  5
3134
330
3043
100
AcDbEntity
  8
SK2
370
    -2
100
AcDbLine
 10
-4.570000000000002
 20
-30.84590709086058
 30
0.0
 11
-35.42999299999999
 21
-30.84590709086058
 31
0.0
  0
SOLID
  5
3135
330
3043
100
AcDbEntity
  8
SK2
100
AcDbTrace
 10
-4.570000000000002
 20
-30.08424042419391
 30
0.0
 11
-4.570000000000002
 21
-31.60757375752725
 31
0.0
 12
-0.0000000000000018
 22
-30.84590709086058
 32
0.0
 13
-0.0000000000000018
 23
-30.84590709086058
 33
0.0
  0
SOLID
  5
3136
330
3043
100
AcDbEntity
  8
SK2
100
AcDbTrace
 10
-35.42999299999999
 20
-30.08424042419391
 30
0.0
 11
-35.42999299999999
 21
-31.60757375752725
 31
0.0
 12
-39.99999299999999
 22
-30.84590709086058
 32
0.0
 13
-39.99999299999999
 23
-30.84590709086058
 33
0.0
  0
MTEXT
  5
3137
330
3043
100
AcDbEntity
  8
SK2
100
AcDbMText
 10
-19.99999649999999
 20
-27.04590709086058
 30
0.0
 40
3.0
 41
0.0
 71
     5
 72
     1
  1
\A1;40 
  7
SANDVIK_STYLE
 73
     1
 44
1.0
1001
ACAD
1000
MTEXTBEGIN
1070
    73
1070
     1
1070
    44
1040
1.0
1070
    74
1070
     0
1000
MTEXTEND
  0
POINT
  5
3138
330
3043
100
AcDbEntity
  8
DEFPOINTS
 62
     0
100
AcDbPoint
 10
0.0
 20
-1.497304999999998
 30
0.0
  0
POINT
  5
3139
330
3043
100
AcDbEntity
  8
DEFPOINTS
 62
     0
100
AcDbPoint
 10
-39.99999299999999
 20
-4.174838999999998
 30
0.0
  0
POINT
  5
313A
330
3043
100
AcDbEntity
  8
DEFPOINTS
 62
     0
100
AcDbPoint
 10
-39.99999299999999
 20
-30.84590709086058
 30
0.0
  0
ENDBLK
  5
304E
330
3043
100
AcDbEntity
  8
0
100
AcDbBlockEnd
  0
BLOCK
  5
305A
330
3050
100
AcDbEntity
  8
0
100
AcDbBlockBegin
  2
*D5
 70
     1
 10
0.0
 20
0.0
 30
0.0
  3
*D5
  1

  0
LINE
  5
3145
330
3050
100
AcDbEntity
  8
2
370
    -2
100
AcDbLine
 10
5.971074000000008
 20
3.369402499999998
 30
0.0
 11
5.971074000000005
 21
-22.8187978606933
 31
0.0
  0
LINE
  5
3146
330
3050
100
AcDbEntity
  8
2
370
    -2
100
AcDbLine
 10
151.999961
 20
0.1833820000000052
 30
0.0
 11
151.999961
 21
-22.8187978606933
 31
0.0
  0
LINE
  5
3147
330
3050
100
AcDbEntity
  8
2
370
    -2
100
AcDbLine
 10
10.54107400000001
 20
-17.8187978606933
 30
0.0
 11
147.429961
 21
-17.8187978606933
 31
0.0
  0
SOLID
  5
3148
330
3050
100
AcDbEntity
  8
2
100
AcDbTrace
 10
10.54107400000001
 20
-17.05713119402663
 30
0.0
 11
10.54107400000001
 21
-18.58046452735997
 31
0.0
 12
5.971074000000008
 22
-17.8187978606933
 32
0.0
 13
5.971074000000008
 23
-17.8187978606933
 33
0.0
  0
SOLID
  5
3149
330
3050
100
AcDbEntity
  8
2
100
AcDbTrace
 10
147.429961
 20
-17.05713119402663
 30
0.0
 11
147.429961
 21
-18.58046452735997
 31
0.0
 12
151.999961
 22
-17.8187978606933
 32
0.0
 13
151.999961
 23
-17.8187978606933
 33
0.0
  0
MTEXT
  5
314A
330
3050
100
AcDbEntity
  8
2
100
AcDbMText
 10
78.98551750000001
 20
-14.0187978606933
 30
0.0
 40
3.0
 41
0.0
 71
     5
 72
     1
  1
\A1;146.03 
  7
SANDVIK_STYLE
 73
     1
 44
1.0
1001
ACAD
1000
MTEXTBEGIN
1070
    73
1070
     1
1070
    44
1040
1.0
1070
    74
1070
     0
1000
MTEXTEND
  0
POINT
  5
314B
330
3050
100
AcDbEntity
  8
DEFPOINTS
 62
     0
100
AcDbPoint
 10
5.971074000000008
 20
3.369402499999998
 30
0.0
  0
POINT
  5
314C
330
3050
100
AcDbEntity
  8
DEFPOINTS
 62
     0
100
AcDbPoint
 10
151.999961
 20
0.1833820000000052
 30
0.0
  0
POINT
  5
314D
330
3050
100
AcDbEntity
  8
DEFPOINTS
 62
     0
100
AcDbPoint
 10
151.999961
 20
-17.8187978606933
 30
0.0
  0
ENDBLK
  5
305B
330
3050
100
AcDbEntity
  8
0
100
AcDbBlockEnd
  0
BLOCK
  5
3070
330
3066
100
AcDbEntity
  8
0
100
AcDbBlockBegin
  2
*D6
 70
     1
 10
0.0
 20
0.0
 30
0.0
  3
*D6
  1

  0
LINE
  5
311F
330
3066
100
AcDbEntity
  8
SK2
370
    -2
100
AcDbLine
 10
151.999961
 20
0.2001600000000057
 30
0.0
 11
151.999961
 21
18.25664336777032
 31
0.0
  0
LINE
  5
3120
330
3066
100
AcDbEntity
  8
SK2
370
    -2
100
AcDbLine
 10
51.20479269061675
 20
-0.7867774261343782
 30
0.0
 11
51.20479269061675
 21
18.25664336777032
 31
0.0
  0
LINE
  5
3121
330
3066
100
AcDbEntity
  8
SK2
370
    -2
100
AcDbLine
 10
147.429961
 20
13.25664336777032
 30
0.0
 11
55.77479269061675
 21
13.25664336777032
 31
0.0
  0
SOLID
  5
3122
330
3066
100
AcDbEntity
  8
SK2
100
AcDbTrace
 10
147.429961
 20
14.01831003443699
 30
0.0
 11
147.429961
 21
12.49497670110365
 31
0.0
 12
151.999961
 22
13.25664336777032
 32
0.0
 13
151.999961
 23
13.25664336777032
 33
0.0
  0
SOLID
  5
3123
330
3066
100
AcDbEntity
  8
SK2
100
AcDbTrace
 10
55.77479269061675
 20
14.01831003443699
 30
0.0
 11
55.77479269061675
 21
12.49497670110365
 31
0.0
 12
51.20479269061675
 22
13.25664336777032
 32
0.0
 13
51.20479269061675
 23
13.25664336777032
 33
0.0
  0
MTEXT
  5
3124
330
3066
100
AcDbEntity
  8
SK2
100
AcDbMText
 10
101.6023768453084
 20
17.05664336777032
 30
0.0
 40
3.0
 41
0.0
 71
     5
 72
     1
  1
\A1;100.8 
  7
SANDVIK_STYLE
 73
     1
 44
1.0
1001
ACAD
1000
MTEXTBEGIN
1070
    73
1070
     1
1070
    44
1040
1.0
1070
    74
1070
     0
1000
MTEXTEND
  0
POINT
  5
3125
330
3066
100
AcDbEntity
  8
DEFPOINTS
 62
     0
100
AcDbPoint
 10
151.999961
 20
0.2001600000000057
 30
0.0
  0
POINT
  5
3126
330
3066
100
AcDbEntity
  8
DEFPOINTS
 62
     0
100
AcDbPoint
 10
51.20479269061675
 20
-0.7867774261343782
 30
0.0
  0
POINT
  5
3127
330
3066
100
AcDbEntity
  8
DEFPOINTS
 62
     0
100
AcDbPoint
 10
51.20479269061675
 20
13.25664336777032
 30
0.0
  0
ENDBLK
  5
3071
330
3066
100
AcDbEntity
  8
0
100
AcDbBlockEnd
  0
BLOCK
  5
307E
330
3073
100
AcDbEntity
  8
0
100
AcDbBlockBegin
  2
*D7
 70
     1
 10
0.0
 20
0.0
 30
0.0
  3
*D7
  1

  0
LINE
  5
3157
330
3073
100
AcDbEntity
  8
2
370
    -2
100
AcDbLine
 10
150.578197
 20
-3.999675999999995
 30
0.0
 11
169.0819095005981
 21
-3.999676000000001
 31
0.0
  0
LINE
  5
3158
330
3073
100
AcDbEntity
  8
2
370
    -2
100
AcDbLine
 10
150.578197
 20
4.399998
 30
0.0
 11
169.0819095005981
 21
4.399997999999995
 31
0.0
  0
LINE
  5
3159
330
3073
100
AcDbEntity
  8
2
370
    -2
100
AcDbLine
 10
164.0819095005981
 20
-8.569676000000002
 30
0.0
 11
164.0819095005981
 21
-13.139676
 31
0.0
  0
LINE
  5
315A
330
3073
100
AcDbEntity
  8
2
370
    -2
100
AcDbLine
 10
164.0819095005981
 20
8.969997999999993
 30
0.0
 11
164.0819095005981
 21
13.53999799999999
 31
0.0
  0
MTEXT
  5
315B
330
3073
100
AcDbEntity
  8
2
100
AcDbMText
 10
159.6636766254544
 20
-12.40043466432377
 30
0.0
 40
3.0
 41
0.0
 71
     5
 72
     1
  1
\A1;%%C 8.4 
  7
SANDVIK_STYLE
 11
0.0000000000000001
 21
1.0
 31
0.0
 73
     1
 44
1.0
1001
ACAD
1000
MTEXTBEGIN
1070
    73
1070
     1
1070
    44
1040
1.0
1070
    74
1070
     0
1000
MTEXTEND
  0
SOLID
  5
315C
330
3073
100
AcDbEntity
  8
2
100
AcDbTrace
 10
163.3202428339314
 20
-8.569676000000001
 30
0.0
 11
164.8435761672647
 21
-8.569676000000002
 31
0.0
 12
164.0819095005981
 22
-3.999676
 32
0.0
 13
164.0819095005981
 23
-3.999676
 33
0.0
  0
SOLID
  5
315D
330
3073
100
AcDbEntity
  8
2
100
AcDbTrace
 10
163.3202428339314
 20
8.969997999999996
 30
0.0
 11
164.8435761672647
 21
8.969997999999993
 31
0.0
 12
164.0819095005981
 22
4.399997999999995
 32
0.0
 13
164.0819095005981
 23
4.399997999999995
 33
0.0
  0
POINT
  5
315E
330
3073
100
AcDbEntity
  8
DEFPOINTS
 62
     0
100
AcDbPoint
 10
150.578197
 20
-3.999675999999995
 30
0.0
  0
POINT
  5
315F
330
3073
100
AcDbEntity
  8
DEFPOINTS
 62
     0
100
AcDbPoint
 10
150.578197
 20
4.399998
 30
0.0
  0
POINT
  5
3160
330
3073
100
AcDbEntity
  8
DEFPOINTS
 62
     0
100
AcDbPoint
 10
164.0819095005981
 20
4.399997999999995
 30
0.0
  0
ENDBLK
  5
307F
330
3073
100
AcDbEntity
  8
0
100
AcDbBlockEnd
  0
BLOCK
  5
308C
330
3081
100
AcDbEntity
  8
0
100
AcDbBlockBegin
  2
*D8
 70
     1
 10
0.0
 20
0.0
 30
0.0
  3
*D8
  1

  0
LINE
  5
313B
330
3081
100
AcDbEntity
  8
SK2
370
    -2
100
AcDbLine
 10
-38.917464
 20
5.200161000000004
 30
0.0
 11
-53.56819380948445
 21
5.200161000000006
 31
0.0
  0
LINE
  5
313C
330
3081
100
AcDbEntity
  8
SK2
370
    -2
100
AcDbLine
 10
-38.917464
 20
-4.799841
 30
0.0
 11
-53.56819380948445
 21
-4.799840999999997
 31
0.0
  0
LINE
  5
313D
330
3081
100
AcDbEntity
  8
SK2
370
    -2
100
AcDbLine
 10
-48.56819380948445
 20
9.770161000000005
 30
0.0
 11
-48.56819380948445
 21
14.34016100000001
 31
0.0
  0
LINE
  5
313E
330
3081
100
AcDbEntity
  8
SK2
370
    -2
100
AcDbLine
 10
-48.56819380948445
 20
-9.369840999999995
 30
0.0
 11
-48.56819380948445
 21
-13.939841
 31
0.0
  0
MTEXT
  5
313F
330
3081
100
AcDbEntity
  8
SK2
100
AcDbMText
 10
-52.23773844213575
 20
-14.20299368841028
 30
0.0
 40
3.0
 41
0.0
 71
     5
 72
     1
  1
\A1;%%C 10 
  7
SANDVIK_STYLE
 11
0.0000000000000001
 21
1.0
 31
0.0
 73
     1
 44
1.0
1001
ACAD
1000
MTEXTBEGIN
1070
    73
1070
     1
1070
    44
1040
1.0
1070
    74
1070
     0
1000
MTEXTEND
  0
SOLID
  5
3140
330
3081
100
AcDbEntity
  8
SK2
100
AcDbTrace
 10
-49.32986047615113
 20
9.770161000000005
 30
0.0
 11
-47.80652714281778
 21
9.770161000000005
 31
0.0
 12
-48.56819380948445
 22
5.200161000000005
 32
0.0
 13
-48.56819380948445
 23
5.200161000000005
 33
0.0
  0
SOLID
  5
3141
330
3081
100
AcDbEntity
  8
SK2
100
AcDbTrace
 10
-49.32986047615113
 20
-9.369840999999995
 30
0.0
 11
-47.80652714281778
 21
-9.369840999999995
 31
0.0
 12
-48.56819380948445
 22
-4.799840999999998
 32
0.0
 13
-48.56819380948445
 23
-4.799840999999998
 33
0.0
  0
POINT
  5
3142
330
3081
100
AcDbEntity
  8
DEFPOINTS
 62
     0
100
AcDbPoint
 10
-38.917464
 20
5.200161000000004
 30
0.0
  0
POINT
  5
3143
330
3081
100
AcDbEntity
  8
DEFPOINTS
 62
     0
100
AcDbPoint
 10
-38.917464
 20
-4.799841
 30
0.0
  0
POINT
  5
3144
330
3081
100
AcDbEntity
  8
DEFPOINTS
 62
     0
100
AcDbPoint
 10
-48.56819380948445
 20
-4.799840999999998
 30
0.0
  0
ENDBLK
  5
308D
330
3081
100
AcDbEntity
  8
0
100
AcDbBlockEnd
  0
ENDSEC
  0
SECTION
  2
ENTITIES
  0
TEXT
  5
62
330
BF7
100
AcDbEntity
  8
SK6
100
AcDbText
 10
-18.5
 20
25.0
 30
0.0
 40
3.0
  1
861.1-0840-101A1-GM
 41
0.7705220054495915
  7
SANDVIK_STYLE
 72
     5
 11
21.897368
 21
25.0
 31
0.0
100
AcDbText
  0
LINE
  5
2CF7
330
BF7
100
AcDbEntity
  8
SK1
100
AcDbLine
 10
0.0
 20
5.200161000000004
 30
0.0
 11
0.0
 21
-4.799841
 31
0.0
  0
ARC
  5
2CF8
330
BF7
100
AcDbEntity
  8
1
100
AcDbCircle
 10
0.5000060000000133
 20
4.900160999999998
 30
0.0
 40
0.4999999906281083
100
AcDbArc
 50
180.0
 51
270.0
  0
ARC
  5
2CF9
330
BF7
100
AcDbEntity
  8
1
100
AcDbCircle
 10
0.5000060000000133
 20
-4.499838999999997
 30
0.0
 40
0.4999999906281083
100
AcDbArc
 50
90.0
 51
180.0
  0
LINE
  5
2CFA
330
BF7
100
AcDbEntity
  8
1
100
AcDbLine
 10
21.813154
 20
1.657336000000004
 30
0.0
 11
18.931475
 21
2.943467000000001
 31
0.0
  0
LINE
  5
2CFB
330
BF7
100
AcDbEntity
  8
1
100
AcDbLine
 10
23.89072899999999
 20
0.5590800000000016
 30
0.0
 11
21.813154
 21
1.657336000000004
 31
0.0
  0
LINE
  5
2CFC
330
BF7
100
AcDbEntity
  8
1
100
AcDbLine
 10
25.96829100000002
 20
-0.5678829999999984
 30
0.0
 11
23.89072899999999
 21
0.5590800000000016
 31
0.0
  0
LINE
  5
2CFD
330
BF7
100
AcDbEntity
  8
1
100
AcDbLine
 10
28.04587699999999
 20
-1.633402999999995
 30
0.0
 11
25.96829100000002
 21
-0.5678829999999984
 31
0.0
  0
LINE
  5
2CFE
330
BF7
100
AcDbEntity
  8
1
100
AcDbLine
 10
30.12346299999999
 20
-2.552266999999996
 30
0.0
 11
28.04587699999999
 21
-1.633402999999995
 31
0.0
  0
LINE
  5
2CFF
330
BF7
100
AcDbEntity
  8
1
100
AcDbLine
 10
32.20102600000001
 20
-3.250952999999998
 30
0.0
 11
30.12346299999999
 21
-2.552266999999996
 31
0.0
  0
LINE
  5
2D00
330
BF7
100
AcDbEntity
  8
1
100
AcDbLine
 10
34.27861200000001
 20
-3.673570999999998
 30
0.0
 11
32.20102600000001
 21
-3.250952999999998
 31
0.0
  0
LINE
  5
2D01
330
BF7
100
AcDbEntity
  8
1
100
AcDbLine
 10
36.052898
 20
-3.769877999999998
 30
0.0
 11
34.27861200000001
 21
-3.673570999999998
 31
0.0
  0
LINE
  5
2D02
330
BF7
100
AcDbEntity
  8
1
100
AcDbLine
 10
67.51979900000003
 20
1.804955000000003
 30
0.0
 11
64.73358399999998
 21
3.020600000000004
 31
0.0
  0
LINE
  5
2D03
330
BF7
100
AcDbEntity
  8
1
100
AcDbLine
 10
69.597386
 20
0.7179760000000002
 30
0.0
 11
67.51979900000003
 21
1.804955000000003
 31
0.0
  0
LINE
  5
2D04
330
BF7
100
AcDbEntity
  8
1
100
AcDbLine
 10
71.674948
 20
-0.4104220000000005
 30
0.0
 11
69.597386
 21
0.7179760000000002
 31
0.0
  0
LINE
  5
2D05
330
BF7
100
AcDbEntity
  8
1
100
AcDbLine
 10
73.752534
 20
-1.489976999999995
 30
0.0
 11
71.674948
 21
-0.4104220000000005
 31
0.0
  0
LINE
  5
2D06
330
BF7
100
AcDbEntity
  8
1
100
AcDbLine
 10
75.830096
 20
-2.434332999999996
 30
0.0
 11
73.752534
 21
-1.489976999999995
 31
0.0
  0
LINE
  5
2D07
330
BF7
100
AcDbEntity
  8
1
100
AcDbLine
 10
77.90768300000002
 20
-3.167968999999998
 30
0.0
 11
75.830096
 21
-2.434332999999996
 31
0.0
  0
LINE
  5
2D08
330
BF7
100
AcDbEntity
  8
1
100
AcDbLine
 10
79.98524500000002
 20
-3.632181999999995
 30
0.0
 11
77.90768300000002
 21
-3.167968999999998
 31
0.0
  0
LINE
  5
2D09
330
BF7
100
AcDbEntity
  8
1
100
AcDbLine
 10
82.04924199999998
 20
-3.788802999999997
 30
0.0
 11
79.98524500000002
 21
-3.632181999999995
 31
0.0
  0
LINE
  5
2D0A
330
BF7
100
AcDbEntity
  8
1
100
AcDbLine
 10
113.226457
 20
1.949999
 30
0.0
 11
110.621771
 21
3.066484999999998
 31
0.0
  0
LINE
  5
2D0B
330
BF7
100
AcDbEntity
  8
1
100
AcDbLine
 10
115.304019
 20
0.8760360000000027
 30
0.0
 11
113.226457
 21
1.949999
 31
0.0
  0
LINE
  5
2D0C
330
BF7
100
AcDbEntity
  8
1
100
AcDbLine
 10
117.381605
 20
-0.2519829999999992
 30
0.0
 11
115.304019
 21
0.8760360000000027
 31
0.0
  0
LINE
  5
2D0D
330
BF7
100
AcDbEntity
  8
1
100
AcDbLine
 10
119.459167
 20
-1.343840999999995
 30
0.0
 11
117.381605
 21
-0.2519829999999992
 31
0.0
  0
LINE
  5
2D0E
330
BF7
100
AcDbEntity
  8
1
100
AcDbLine
 10
121.536753
 20
-2.312186999999997
 30
0.0
 11
119.459167
 21
-1.343840999999995
 31
0.0
  0
LINE
  5
2D0F
330
BF7
100
AcDbEntity
  8
1
100
AcDbLine
 10
123.614316
 20
-3.079578999999995
 30
0.0
 11
121.536753
 21
-2.312186999999997
 31
0.0
  0
LINE
  5
2D10
330
BF7
100
AcDbEntity
  8
1
100
AcDbLine
 10
125.691902
 20
-3.584604999999995
 30
0.0
 11
123.614316
 21
-3.079578999999995
 31
0.0
  0
LINE
  5
2D11
330
BF7
100
AcDbEntity
  8
1
100
AcDbLine
 10
127.7694639999999
 20
-3.786896999999998
 30
0.0
 11
125.691902
 21
-3.584604999999995
 31
0.0
  0
LINE
  5
2D12
330
BF7
100
AcDbEntity
  8
1
100
AcDbLine
 10
128.080903
 20
-3.769411999999998
 30
0.0
 11
127.7694639999999
 21
-3.786896999999998
 31
0.0
  0
LINE
  5
2D13
330
BF7
100
AcDbEntity
  8
1
100
AcDbLine
 10
9.347709000000008
 20
-2.655026999999996
 30
0.0
 11
9.347709000000008
 21
-3.290369999999995
 31
0.0
  0
LINE
  5
2D14
330
BF7
100
AcDbEntity
  8
1
100
AcDbLine
 10
17.41092800000001
 20
-3.290369999999995
 30
0.0
 11
9.347709000000008
 21
-3.290369999999995
 31
0.0
  0
LINE
  5
2D15
330
BF7
100
AcDbEntity
  8
1
100
AcDbLine
 10
11.42528300000001
 20
-3.691945999999997
 30
0.0
 11
9.347709000000008
 21
-3.290369999999995
 31
0.0
  0
LINE
  5
2D16
330
BF7
100
AcDbEntity
  8
1
100
AcDbLine
 10
13.05363600000001
 20
-3.762692999999998
 30
0.0
 11
11.42528300000001
 21
-3.691945999999997
 31
0.0
  0
LINE
  5
2D17
330
BF7
100
AcDbEntity
  8
1
100
AcDbLine
 10
44.666471
 20
1.731447000000002
 30
0.0
 11
41.74092299999998
 21
3.016169999999998
 31
0.0
  0
LINE
  5
2D18
330
BF7
100
AcDbEntity
  8
1
100
AcDbLine
 10
46.74405699999996
 20
0.6386140000000005
 30
0.0
 11
44.666471
 21
1.731447000000002
 31
0.0
  0
LINE
  5
2D19
330
BF7
100
AcDbEntity
  8
1
100
AcDbLine
 10
48.82161899999999
 20
-0.4892929999999966
 30
0.0
 11
46.74405699999996
 21
0.6386140000000005
 31
0.0
  0
LINE
  5
2D1A
330
BF7
100
AcDbEntity
  8
1
100
AcDbLine
 10
50.89920599999999
 20
-1.562044999999995
 30
0.0
 11
48.82161899999999
 21
-0.4892929999999966
 31
0.0
  0
LINE
  5
2D1B
330
BF7
100
AcDbEntity
  8
1
100
AcDbLine
 10
52.97676800000002
 20
-2.493857999999995
 30
0.0
 11
50.89920599999999
 21
-1.562044999999995
 31
0.0
  0
LINE
  5
2D1C
330
BF7
100
AcDbEntity
  8
1
100
AcDbLine
 10
55.05435399999999
 20
-3.210146999999998
 30
0.0
 11
52.97676800000002
 21
-2.493857999999995
 31
0.0
  0
LINE
  5
2D1D
330
BF7
100
AcDbEntity
  8
1
100
AcDbLine
 10
57.13191600000001
 20
-3.653658999999997
 30
0.0
 11
55.05435399999999
 21
-3.210146999999998
 31
0.0
  0
LINE
  5
2D1E
330
BF7
100
AcDbEntity
  8
1
100
AcDbLine
 10
59.05217200000001
 20
-3.778637999999998
 30
0.0
 11
57.13191600000001
 21
-3.653658999999997
 31
0.0
  0
LINE
  5
2D1F
330
BF7
100
AcDbEntity
  8
1
100
AcDbLine
 10
90.373128
 20
1.877809999999999
 30
0.0
 11
87.76374300000004
 21
3.012845999999998
 31
0.0
  0
LINE
  5
2D20
330
BF7
100
AcDbEntity
  8
1
100
AcDbLine
 10
92.45069
 20
0.7971290000000018
 30
0.0
 11
90.373128
 21
1.877809999999999
 31
0.0
  0
LINE
  5
2D21
330
BF7
100
AcDbEntity
  8
1
100
AcDbLine
 10
94.528276
 20
-0.3313149999999965
 30
0.0
 11
92.45069
 21
0.7971290000000018
 31
0.0
  0
LINE
  5
2D22
330
BF7
100
AcDbEntity
  8
1
100
AcDbLine
 10
96.605863
 20
-1.417240999999999
 30
0.0
 11
94.528276
 21
-0.3313149999999965
 31
0.0
  0
LINE
  5
2D23
330
BF7
100
AcDbEntity
  8
1
100
AcDbLine
 10
98.683425
 20
-2.373776999999996
 30
0.0
 11
96.605863
 21
-1.417240999999999
 31
0.0
  0
LINE
  5
2D24
330
BF7
100
AcDbEntity
  8
1
100
AcDbLine
 10
100.761011
 20
-3.124426999999997
 30
0.0
 11
98.683425
 21
-2.373776999999996
 31
0.0
  0
LINE
  5
2D25
330
BF7
100
AcDbEntity
  8
1
100
AcDbLine
 10
102.838573
 20
-3.609148999999998
 30
0.0
 11
100.761011
 21
-3.124426999999997
 31
0.0
  0
LINE
  5
2D26
330
BF7
100
AcDbEntity
  8
1
100
AcDbLine
 10
104.91616
 20
-3.789156999999995
 30
0.0
 11
102.838573
 21
-3.609148999999998
 31
0.0
  0
LINE
  5
2D27
330
BF7
100
AcDbEntity
  8
1
100
AcDbLine
 10
105.0838339999999
 20
-3.777930999999998
 30
0.0
 11
104.91616
 21
-3.789156999999995
 31
0.0
  0
LINE
  5
2D28
330
BF7
100
AcDbEntity
  8
1
100
AcDbLine
 10
136.079785
 20
2.021494000000004
 30
0.0
 11
133.559251
 21
3.092216
 31
0.0
  0
LINE
  5
2D29
330
BF7
100
AcDbEntity
  8
1
100
AcDbLine
 10
138.157347
 20
0.9546829999999991
 30
0.0
 11
136.079785
 21
2.021494000000004
 31
0.0
  0
LINE
  5
2D2A
330
BF7
100
AcDbEntity
  8
1
100
AcDbLine
 10
140.234934
 20
-0.1724759999999961
 30
0.0
 11
138.157347
 21
0.9546829999999991
 31
0.0
  0
LINE
  5
2D2B
330
BF7
100
AcDbEntity
  8
1
100
AcDbLine
 10
142.312496
 20
-1.269825999999998
 30
0.0
 11
140.234934
 21
-0.1724759999999961
 31
0.0
  0
LINE
  5
2D2C
330
BF7
100
AcDbEntity
  8
1
100
AcDbLine
 10
144.390082
 20
-2.249583999999996
 30
0.0
 11
142.312496
 21
-1.269825999999998
 31
0.0
  0
LINE
  5
2D2D
330
BF7
100
AcDbEntity
  8
1
100
AcDbLine
 10
146.463381
 20
-3.032036999999998
 30
0.0
 11
144.390082
 21
-2.249583999999996
 31
0.0
  0
LINE
  5
2D2E
330
BF7
100
AcDbEntity
  8
1
100
AcDbLine
 10
148.536704
 20
-3.556988999999997
 30
0.0
 11
146.463381
 21
-3.032036999999998
 31
0.0
  0
LINE
  5
2D2F
330
BF7
100
AcDbEntity
  8
1
100
AcDbLine
 10
150.610027
 20
-3.782631999999995
 30
0.0
 11
148.536704
 21
-3.556988999999997
 31
0.0
  0
LINE
  5
2D30
330
BF7
100
AcDbEntity
  8
1
100
AcDbLine
 10
9.118569000000007
 20
-3.339003999999995
 30
0.0
 11
8.940381999999997
 21
-3.474094999999998
 31
0.0
  0
LINE
  5
2D31
330
BF7
100
AcDbEntity
  8
1
100
AcDbLine
 10
9.347709000000008
 20
-3.290369999999995
 30
0.0
 11
9.118569000000007
 21
-3.339003999999995
 31
0.0
  0
LINE
  5
2D32
330
BF7
100
AcDbEntity
  8
SK1
100
AcDbLine
 10
-39.99999299999999
 20
-1.726517999999996
 30
0.0
 11
-38.917464
 21
-1.841130999999995
 31
0.0
  0
LINE
  5
2D33
330
BF7
100
AcDbEntity
  8
SK1
100
AcDbLine
 10
-38.917464
 20
-0.1205539999999985
 30
0.0
 11
-39.99999299999999
 21
-0.2351659999999995
 31
0.0
  0
LINE
  5
2D34
330
BF7
100
AcDbEntity
  8
1
100
AcDbLine
 10
151.970482
 20
0.3355810000000048
 30
0.0
 11
150.570204
 21
1.513255000000004
 31
0.0
  0
LINE
  5
2D35
330
BF7
100
AcDbEntity
  8
1
100
AcDbLine
 10
13.32315700000001
 20
-0.2605369999999958
 30
0.0
 11
16.53535199999999
 21
-2.499212999999997
 31
0.0
  0
LINE
  5
2D36
330
BF7
100
AcDbEntity
  8
1
100
AcDbLine
 10
10.11101000000002
 20
2.037402999999999
 30
0.0
 11
13.32315700000001
 21
-0.2605369999999958
 31
0.0
  0
LINE
  5
2D37
330
BF7
100
AcDbEntity
  8
1
100
AcDbLine
 10
6.907983999999999
 20
4.388101000000001
 30
0.0
 11
10.11101000000002
 21
2.037402999999999
 31
0.0
  0
LINE
  5
2D38
330
BF7
100
AcDbEntity
  8
1
100
AcDbLine
 10
135.592533
 20
-0.6915039999999985
 30
0.0
 11
139.991538
 21
-0.8523369999999948
 31
0.0
  0
LINE
  5
2D39
330
BF7
100
AcDbEntity
  8
1
100
AcDbLine
 10
131.774428
 20
-0.277317999999994
 30
0.0
 11
135.592533
 21
-0.6915039999999985
 31
0.0
  0
LINE
  5
2D3A
330
BF7
100
AcDbEntity
  8
1
100
AcDbLine
 10
127.9560809999999
 20
0.2637430000000052
 30
0.0
 11
131.774428
 21
-0.277317999999994
 31
0.0
  0
LINE
  5
2D3B
330
BF7
100
AcDbEntity
  8
1
100
AcDbLine
 10
124.138242
 20
0.7878389999999982
 30
0.0
 11
127.9560809999999
 21
0.2637430000000052
 31
0.0
  0
LINE
  5
2D3C
330
BF7
100
AcDbEntity
  8
1
100
AcDbLine
 10
123.418615
 20
0.8576360000000029
 30
0.0
 11
124.138242
 21
0.7878389999999982
 31
0.0
  0
LINE
  5
2D3D
330
BF7
100
AcDbEntity
  8
1
100
AcDbLine
 10
90.12144799999999
 20
-0.7321959999999983
 30
0.0
 11
94.01980500000002
 21
-0.8675949999999977
 31
0.0
  0
LINE
  5
2D3E
330
BF7
100
AcDbEntity
  8
1
100
AcDbLine
 10
86.37942800000002
 20
-0.3549599999999984
 30
0.0
 11
90.12144799999999
 21
-0.7321959999999983
 31
0.0
  0
LINE
  5
2D3F
330
BF7
100
AcDbEntity
  8
1
100
AcDbLine
 10
82.63721499999997
 20
0.1641980000000025
 30
0.0
 11
86.37942800000002
 21
-0.3549599999999984
 31
0.0
  0
LINE
  5
2D40
330
BF7
100
AcDbEntity
  8
1
100
AcDbLine
 10
78.89546200000002
 20
0.6924690000000027
 30
0.0
 11
82.63721499999997
 21
0.1641980000000025
 31
0.0
  0
LINE
  5
2D41
330
BF7
100
AcDbEntity
  8
1
100
AcDbLine
 10
77.43411700000002
 20
0.8495970000000028
 30
0.0
 11
78.89546200000002
 21
0.6924690000000027
 31
0.0
  0
LINE
  5
2D42
330
BF7
100
AcDbEntity
  8
1
100
AcDbLine
 10
40.86515300000002
 20
-0.414660999999999
 30
0.0
 11
48.00500300000002
 21
-0.8550869999999939
 31
0.0
  0
LINE
  5
2D43
330
BF7
100
AcDbEntity
  8
1
100
AcDbLine
 10
37.05501699999999
 20
0.102964
 30
0.0
 11
40.86515300000002
 21
-0.414660999999999
 31
0.0
  0
LINE
  5
2D44
330
BF7
100
AcDbEntity
  8
1
100
AcDbLine
 10
33.01432400000002
 20
0.6768210000000005
 30
0.0
 11
37.05501699999999
 21
0.102964
 31
0.0
  0
LINE
  5
2D45
330
BF7
100
AcDbEntity
  8
1
100
AcDbLine
 10
31.42549199999999
 20
0.8467680000000044
 30
0.0
 11
33.01432400000002
 21
0.6768210000000005
 31
0.0
  0
LINE
  5
2D46
330
BF7
100
AcDbEntity
  8
1
100
AcDbLine
 10
150.49717
 20
1.436949000000002
 30
0.0
 11
150.502088
 21
1.412886000000003
 31
0.0
  0
LINE
  5
2D47
330
BF7
100
AcDbEntity
  8
1
100
AcDbLine
 10
150.4989389999999
 20
1.462976999999996
 30
0.0
 11
150.49717
 21
1.436949000000002
 31
0.0
  0
LINE
  5
2D48
330
BF7
100
AcDbEntity
  8
1
100
AcDbLine
 10
150.506399
 20
1.480987000000002
 30
0.0
 11
150.4989389999999
 21
1.462976999999996
 31
0.0
  0
LINE
  5
2D49
330
BF7
100
AcDbEntity
  8
1
100
AcDbLine
 10
150.5220959999999
 20
1.497963999999999
 30
0.0
 11
150.506399
 21
1.480987000000002
 31
0.0
  0
LINE
  5
2D4A
330
BF7
100
AcDbEntity
  8
1
100
AcDbLine
 10
150.542589
 20
1.508395
 30
0.0
 11
150.5220959999999
 21
1.497963999999999
 31
0.0
  0
LINE
  5
2D4B
330
BF7
100
AcDbEntity
  8
1
100
AcDbLine
 10
150.570204
 20
1.513255000000004
 30
0.0
 11
150.542589
 21
1.508395
 31
0.0
  0
LINE
  5
2D4C
330
BF7
100
AcDbEntity
  8
1
100
AcDbLine
 10
147.047478
 20
0.7988460000000011
 30
0.0
 11
150.865389
 21
0.276844999999998
 31
0.0
  0
LINE
  5
2D4D
330
BF7
100
AcDbEntity
  8
1
100
AcDbLine
 10
146.421789
 20
0.8583259999999981
 30
0.0
 11
147.047478
 21
0.7988460000000011
 31
0.0
  0
LINE
  5
2D4E
330
BF7
100
AcDbEntity
  8
1
100
AcDbLine
 10
112.912498
 20
-0.7166539999999984
 30
0.0
 11
117.009971
 21
-0.8590139999999982
 31
0.0
  0
LINE
  5
2D4F
330
BF7
100
AcDbEntity
  8
1
100
AcDbLine
 10
109.170624
 20
-0.3284899999999986
 30
0.0
 11
112.912498
 21
-0.7166539999999984
 31
0.0
  0
LINE
  5
2D50
330
BF7
100
AcDbEntity
  8
1
100
AcDbLine
 10
105.360416
 20
0.2047170000000023
 30
0.0
 11
109.170624
 21
-0.3284899999999986
 31
0.0
  0
LINE
  5
2D51
330
BF7
100
AcDbEntity
  8
1
100
AcDbLine
 10
101.550813
 20
0.7365770000000005
 30
0.0
 11
105.360416
 21
0.2047170000000023
 31
0.0
  0
LINE
  5
2D52
330
BF7
100
AcDbEntity
  8
1
100
AcDbLine
 10
100.4328339999999
 20
0.8509980000000004
 30
0.0
 11
101.550813
 21
0.7365770000000005
 31
0.0
  0
LINE
  5
2D53
330
BF7
100
AcDbEntity
  8
1
100
AcDbLine
 10
63.72439199999998
 20
-0.3976139999999972
 30
0.0
 11
71.01030800000002
 21
-0.8594289999999984
 31
0.0
  0
LINE
  5
2D54
330
BF7
100
AcDbEntity
  8
1
100
AcDbLine
 10
59.91413500000001
 20
0.1236330000000017
 30
0.0
 11
63.72439199999998
 21
-0.3976139999999972
 31
0.0
  0
LINE
  5
2D55
330
BF7
100
AcDbEntity
  8
1
100
AcDbLine
 10
56.10428999999999
 20
0.6650899999999993
 30
0.0
 11
59.91413500000001
 21
0.1236330000000017
 31
0.0
  0
LINE
  5
2D56
330
BF7
100
AcDbEntity
  8
1
100
AcDbLine
 10
54.44177000000002
 20
0.8476100000000029
 30
0.0
 11
56.10428999999999
 21
0.6650899999999993
 31
0.0
  0
LINE
  5
2D57
330
BF7
100
AcDbEntity
  8
1
100
AcDbLine
 10
20.89205000000001
 20
-0.7150999999999961
 30
0.0
 11
24.975619
 21
-0.8691879999999976
 31
0.0
  0
LINE
  5
2D58
330
BF7
100
AcDbEntity
  8
1
100
AcDbLine
 10
16.85141800000002
 20
-0.2876039999999982
 30
0.0
 11
20.89205000000001
 21
-0.7150999999999961
 31
0.0
  0
LINE
  5
2D59
330
BF7
100
AcDbEntity
  8
1
100
AcDbLine
 10
12.81123300000001
 20
0.2832280000000011
 30
0.0
 11
16.85141800000002
 21
-0.2876039999999982
 31
0.0
  0
LINE
  5
2D5A
330
BF7
100
AcDbEntity
  8
1
100
AcDbLine
 10
151.720909
 20
1.588408
 30
0.0
 11
150.570204
 21
1.513255000000004
 31
0.0
  0
LINE
  5
2D5B
330
BF7
100
AcDbEntity
  8
SK1
100
AcDbLine
 10
-39.99999299999999
 20
-2.547361999999999
 30
0.0
 11
-39.99999299999999
 21
-1.726517999999996
 31
0.0
  0
LINE
  5
2D5C
330
BF7
100
AcDbEntity
  8
SK1
100
AcDbLine
 10
-39.99999299999999
 20
-3.232184999999997
 30
0.0
 11
-39.99999299999999
 21
-2.547361999999999
 31
0.0
  0
LINE
  5
2D5D
330
BF7
100
AcDbEntity
  8
SK1
100
AcDbLine
 10
-39.99999299999999
 20
-3.747088999999999
 30
0.0
 11
-39.99999299999999
 21
-3.232184999999997
 31
0.0
  0
LINE
  5
2D5E
330
BF7
100
AcDbEntity
  8
SK1
100
AcDbLine
 10
-39.99999299999999
 20
-4.066578999999997
 30
0.0
 11
-39.99999299999999
 21
-3.747088999999999
 31
0.0
  0
LINE
  5
2D5F
330
BF7
100
AcDbEntity
  8
SK1
100
AcDbLine
 10
-39.99999299999999
 20
-4.174838999999998
 30
0.0
 11
-39.99999299999999
 21
-4.066578999999997
 31
0.0
  0
LINE
  5
2D60
330
BF7
100
AcDbEntity
  8
SK1
100
AcDbLine
 10
-39.99999299999999
 20
-0.2351659999999995
 30
0.0
 11
-39.99999299999999
 21
-1.726517999999996
 31
0.0
  0
LINE
  5
2D61
330
BF7
100
AcDbEntity
  8
SK1
100
AcDbLine
 10
-38.917464
 20
-4.668116999999996
 30
0.0
 11
-38.917464
 21
-4.799841
 31
0.0
  0
LINE
  5
2D62
330
BF7
100
AcDbEntity
  8
SK1
100
AcDbLine
 10
-38.917464
 20
-4.279883999999999
 30
0.0
 11
-38.917464
 21
-4.668116999999996
 31
0.0
  0
LINE
  5
2D63
330
BF7
100
AcDbEntity
  8
SK1
100
AcDbLine
 10
-38.917464
 20
-3.655594
 30
0.0
 11
-38.917464
 21
-4.279883999999999
 31
0.0
  0
LINE
  5
2D64
330
BF7
100
AcDbEntity
  8
SK1
100
AcDbLine
 10
-38.917464
 20
-2.828142999999997
 30
0.0
 11
-38.917464
 21
-3.655594
 31
0.0
  0
LINE
  5
2D65
330
BF7
100
AcDbEntity
  8
SK1
100
AcDbLine
 10
-38.917464
 20
-1.841130999999995
 30
0.0
 11
-38.917464
 21
-2.828142999999997
 31
0.0
  0
LINE
  5
2D66
330
BF7
100
AcDbEntity
  8
SK1
100
AcDbLine
 10
0.0
 20
0.5089110000000014
 30
0.0
 11
0.0
 21
1.513918000000003
 31
0.0
  0
LINE
  5
2D67
330
BF7
100
AcDbEntity
  8
SK1
100
AcDbLine
 10
0.0
 20
-0.5089110000000014
 30
0.0
 11
0.0
 21
0.5089110000000014
 31
0.0
  0
LINE
  5
2D68
330
BF7
100
AcDbEntity
  8
SK1
100
AcDbLine
 10
0.0
 20
-1.497304999999998
 30
0.0
 11
0.0
 21
-0.5089110000000014
 31
0.0
  0
LINE
  5
2D69
330
BF7
100
AcDbEntity
  8
SK1
100
AcDbLine
 10
0.0
 20
-2.415241999999995
 30
0.0
 11
0.0
 21
-1.497304999999998
 31
0.0
  0
LINE
  5
2D6A
330
BF7
100
AcDbEntity
  8
SK1
100
AcDbLine
 10
0.0
 20
-3.224624999999998
 30
0.0
 11
0.0
 21
-2.415241999999995
 31
0.0
  0
LINE
  5
2D6B
330
BF7
100
AcDbEntity
  8
SK1
100
AcDbLine
 10
0.0
 20
-3.891860999999998
 30
0.0
 11
0.0
 21
-3.224624999999998
 31
0.0
  0
LINE
  5
2D6C
330
BF7
100
AcDbEntity
  8
SK1
100
AcDbLine
 10
0.0
 20
-4.389253999999995
 30
0.0
 11
0.0
 21
-3.891860999999998
 31
0.0
  0
LINE
  5
2D6D
330
BF7
100
AcDbEntity
  8
SK1
100
AcDbLine
 10
0.0
 20
-4.696158999999997
 30
0.0
 11
0.0
 21
-4.389253999999995
 31
0.0
  0
LINE
  5
2D6E
330
BF7
100
AcDbEntity
  8
SK1
100
AcDbLine
 10
0.0
 20
-4.799841
 30
0.0
 11
0.0
 21
-4.696158999999997
 31
0.0
  0
LINE
  5
2D6F
330
BF7
100
AcDbEntity
  8
SK1
100
AcDbLine
 10
0.0
 20
5.082387
 30
0.0
 11
0.0
 21
5.200161000000004
 31
0.0
  0
LINE
  5
2D70
330
BF7
100
AcDbEntity
  8
SK1
100
AcDbLine
 10
0.0
 20
4.734584999999999
 30
0.0
 11
0.0
 21
5.082387
 31
0.0
  0
LINE
  5
2D71
330
BF7
100
AcDbEntity
  8
SK1
100
AcDbLine
 10
0.0
 20
4.173143000000003
 30
0.0
 11
0.0
 21
4.734584999999999
 31
0.0
  0
LINE
  5
2D72
330
BF7
100
AcDbEntity
  8
SK1
100
AcDbLine
 10
0.0
 20
3.424508999999998
 30
0.0
 11
0.0
 21
4.173143000000003
 31
0.0
  0
LINE
  5
2D73
330
BF7
100
AcDbEntity
  8
SK1
100
AcDbLine
 10
0.0
 20
2.523955000000003
 30
0.0
 11
0.0
 21
3.424508999999998
 31
0.0
  0
LINE
  5
2D74
330
BF7
100
AcDbEntity
  8
SK1
100
AcDbLine
 10
0.0
 20
1.513918000000003
 30
0.0
 11
0.0
 21
2.523955000000003
 31
0.0
  0
LINE
  5
2D75
330
BF7
100
AcDbEntity
  8
SK1
100
AcDbLine
 10
-38.917464
 20
1.579133999999999
 30
0.0
 11
-38.917464
 21
0.5208740000000029
 31
0.0
  0
LINE
  5
2D76
330
BF7
100
AcDbEntity
  8
SK1
100
AcDbLine
 10
-38.917464
 20
2.573758000000001
 30
0.0
 11
-38.917464
 21
1.579133999999999
 31
0.0
  0
LINE
  5
2D77
330
BF7
100
AcDbEntity
  8
SK1
100
AcDbLine
 10
-38.917464
 20
3.458855000000001
 30
0.0
 11
-38.917464
 21
2.573758000000001
 31
0.0
  0
LINE
  5
2D78
330
BF7
100
AcDbEntity
  8
SK1
100
AcDbLine
 10
-38.917464
 20
4.193577999999996
 30
0.0
 11
-38.917464
 21
3.458855000000001
 31
0.0
  0
LINE
  5
2D79
330
BF7
100
AcDbEntity
  8
SK1
100
AcDbLine
 10
-38.917464
 20
4.744026000000001
 30
0.0
 11
-38.917464
 21
4.193577999999996
 31
0.0
  0
LINE
  5
2D7A
330
BF7
100
AcDbEntity
  8
SK1
100
AcDbLine
 10
-38.917464
 20
5.084794000000004
 30
0.0
 11
-38.917464
 21
4.744026000000001
 31
0.0
  0
LINE
  5
2D7B
330
BF7
100
AcDbEntity
  8
SK1
100
AcDbLine
 10
-38.917464
 20
5.200161000000004
 30
0.0
 11
-38.917464
 21
5.084794000000004
 31
0.0
  0
LINE
  5
2D7C
330
BF7
100
AcDbEntity
  8
SK1
100
AcDbLine
 10
-38.917464
 20
0.5208740000000029
 30
0.0
 11
-39.99999299999999
 21
0.6354870000000048
 31
0.0
  0
LINE
  5
2D7D
330
BF7
100
AcDbEntity
  8
SK1
100
AcDbLine
 10
-39.99999299999999
 20
4.444281000000006
 30
0.0
 11
-39.99999299999999
 21
4.575159000000001
 31
0.0
  0
LINE
  5
2D7E
330
BF7
100
AcDbEntity
  8
SK1
100
AcDbLine
 10
-39.99999299999999
 20
4.059544999999999
 30
0.0
 11
-39.99999299999999
 21
4.444281000000006
 31
0.0
  0
LINE
  5
2D7F
330
BF7
100
AcDbEntity
  8
SK1
100
AcDbLine
 10
-39.99999299999999
 20
3.443963000000001
 30
0.0
 11
-39.99999299999999
 21
4.059544999999999
 31
0.0
  0
LINE
  5
2D80
330
BF7
100
AcDbEntity
  8
SK1
100
AcDbLine
 10
-39.99999299999999
 20
2.634356000000003
 30
0.0
 11
-39.99999299999999
 21
3.443963000000001
 31
0.0
  0
LINE
  5
2D81
330
BF7
100
AcDbEntity
  8
SK1
100
AcDbLine
 10
-39.99999299999999
 20
1.679154999999999
 30
0.0
 11
-39.99999299999999
 21
2.634356000000003
 31
0.0
  0
LINE
  5
2D82
330
BF7
100
AcDbEntity
  8
SK1
100
AcDbLine
 10
-39.99999299999999
 20
0.6354870000000048
 30
0.0
 11
-39.99999299999999
 21
1.679154999999999
 31
0.0
  0
LINE
  5
2D83
330
BF7
100
AcDbEntity
  8
1
100
AcDbLine
 10
149.282128
 20
-0.5389749999999971
 30
0.0
 11
148.949348
 21
-0.3767309999999959
 31
0.0
  0
LINE
  5
2D84
330
BF7
100
AcDbEntity
  8
1
100
AcDbLine
 10
149.706037
 20
-0.6958969999999987
 30
0.0
 11
149.282128
 21
-0.5389749999999971
 31
0.0
  0
LINE
  5
2D85
330
BF7
100
AcDbEntity
  8
1
100
AcDbLine
 10
150.121297
 20
-0.7782230000000006
 30
0.0
 11
149.706037
 21
-0.6958969999999987
 31
0.0
  0
LINE
  5
2D86
330
BF7
100
AcDbEntity
  8
1
100
AcDbLine
 10
150.5551129999999
 20
-0.7389209999999978
 30
0.0
 11
150.121297
 21
-0.7782230000000006
 31
0.0
  0
LINE
  5
2D87
330
BF7
100
AcDbEntity
  8
1
100
AcDbLine
 10
150.783369
 20
-0.5964719999999986
 30
0.0
 11
150.5551129999999
 21
-0.7389209999999978
 31
0.0
  0
LINE
  5
2D88
330
BF7
100
AcDbEntity
  8
1
100
AcDbLine
 10
150.903105
 20
-0.3865829999999981
 30
0.0
 11
150.783369
 21
-0.5964719999999986
 31
0.0
  0
LINE
  5
2D89
330
BF7
100
AcDbEntity
  8
1
100
AcDbLine
 10
150.932536
 20
-0.0702149999999975
 30
0.0
 11
150.903105
 21
-0.3865829999999981
 31
0.0
  0
LINE
  5
2D8A
330
BF7
100
AcDbEntity
  8
1
100
AcDbLine
 10
150.865389
 20
0.276844999999998
 30
0.0
 11
150.932536
 21
-0.0702149999999975
 31
0.0
  0
LINE
  5
2D8B
330
BF7
100
AcDbEntity
  8
1
100
AcDbLine
 10
150.502088
 20
1.412886000000003
 30
0.0
 11
150.865389
 21
0.276844999999998
 31
0.0
  0
LINE
  5
2D8C
330
BF7
100
AcDbEntity
  8
1
100
AcDbLine
 10
151.97489
 20
0.1742170000000023
 30
0.0
 11
150.502088
 21
1.412886000000003
 31
0.0
  0
LINE
  5
2D8D
330
BF7
100
AcDbEntity
  8
1
100
AcDbLine
 10
149.324543
 20
-1.510948999999999
 30
0.0
 11
149.8921439999999
 21
-1.987938999999995
 31
0.0
  0
LINE
  5
2D8E
330
BF7
100
AcDbEntity
  8
1
100
AcDbLine
 10
148.53106
 20
-0.6909709999999976
 30
0.0
 11
149.324543
 21
-1.510948999999999
 31
0.0
  0
LINE
  5
2D8F
330
BF7
100
AcDbEntity
  8
1
100
AcDbLine
 10
148.047393
 20
-0.0533639999999984
 30
0.0
 11
148.53106
 21
-0.6909709999999976
 31
0.0
  0
LINE
  5
2D90
330
BF7
100
AcDbEntity
  8
1
100
AcDbLine
 10
148.029274
 20
-0.0263279999999995
 30
0.0
 11
148.047393
 21
-0.0533639999999984
 31
0.0
  0
LINE
  5
2D91
330
BF7
100
AcDbEntity
  8
1
100
AcDbLine
 10
13.661133
 20
-1.628194999999996
 30
0.0
 11
10.849592
 21
-0.5701749999999956
 31
0.0
  0
LINE
  5
2D92
330
BF7
100
AcDbEntity
  8
1
100
AcDbLine
 10
16.53535199999999
 20
-2.499212999999997
 30
0.0
 11
13.661133
 21
-1.628194999999996
 31
0.0
  0
LINE
  5
2D93
330
BF7
100
AcDbEntity
  8
1
100
AcDbLine
 10
148.43826
 20
-0.1438290000000002
 30
0.0
 11
148.6948339999999
 21
-0.2607519999999965
 31
0.0
  0
LINE
  5
2D94
330
BF7
100
AcDbEntity
  8
1
100
AcDbLine
 10
114.826722
 20
-3.066577999999998
 30
0.0
 11
119.2878359999999
 21
-2.051673999999996
 31
0.0
  0
LINE
  5
2D95
330
BF7
100
AcDbEntity
  8
1
100
AcDbLine
 10
112.615447
 20
-3.140614999999995
 30
0.0
 11
114.826722
 21
-3.066577999999998
 31
0.0
  0
LINE
  5
2D96
330
BF7
100
AcDbEntity
  8
1
100
AcDbLine
 10
110.404148
 20
-2.912234999999999
 30
0.0
 11
112.615447
 21
-3.140614999999995
 31
0.0
  0
LINE
  5
2D97
330
BF7
100
AcDbEntity
  8
1
100
AcDbLine
 10
108.193091
 20
-2.402190999999997
 30
0.0
 11
110.404148
 21
-2.912234999999999
 31
0.0
  0
LINE
  5
2D98
330
BF7
100
AcDbEntity
  8
1
100
AcDbLine
 10
105.941993
 20
-1.641269999999996
 30
0.0
 11
108.193091
 21
-2.402190999999997
 31
0.0
  0
LINE
  5
2D99
330
BF7
100
AcDbEntity
  8
1
100
AcDbLine
 10
103.9423339999999
 20
-0.8118779999999999
 30
0.0
 11
105.941993
 21
-1.641269999999996
 31
0.0
  0
LINE
  5
2D9A
330
BF7
100
AcDbEntity
  8
1
100
AcDbLine
 10
70.20355000000001
 20
-2.869752999999997
 30
0.0
 11
73.26382900000002
 21
-2.036188999999995
 31
0.0
  0
LINE
  5
2D9B
330
BF7
100
AcDbEntity
  8
1
100
AcDbLine
 10
67.99237200000002
 20
-3.130521999999998
 30
0.0
 11
70.20355000000001
 21
-2.869752999999997
 31
0.0
  0
LINE
  5
2D9C
330
BF7
100
AcDbEntity
  8
1
100
AcDbLine
 10
65.74091099999998
 20
-3.086157999999997
 30
0.0
 11
67.99237200000002
 21
-3.130521999999998
 31
0.0
  0
LINE
  5
2D9D
330
BF7
100
AcDbEntity
  8
1
100
AcDbLine
 10
63.48935300000002
 20
-2.733394999999998
 30
0.0
 11
65.74091099999998
 21
-3.086157999999997
 31
0.0
  0
LINE
  5
2D9E
330
BF7
100
AcDbEntity
  8
1
100
AcDbLine
 10
61.23796399999999
 20
-2.105491999999996
 30
0.0
 11
63.48935300000002
 21
-2.733394999999998
 31
0.0
  0
LINE
  5
2D9F
330
BF7
100
AcDbEntity
  8
1
100
AcDbLine
 10
58.98710799999999
 20
-1.261511999999995
 30
0.0
 11
61.23796399999999
 21
-2.105491999999996
 31
0.0
  0
LINE
  5
2DA0
330
BF7
100
AcDbEntity
  8
1
100
AcDbLine
 10
57.80866800000001
 20
-0.7478929999999942
 30
0.0
 11
58.98710799999999
 21
-1.261511999999995
 31
0.0
  0
LINE
  5
2DA1
330
BF7
100
AcDbEntity
  8
1
100
AcDbLine
 10
23.288658
 20
-3.013124999999998
 30
0.0
 11
27.26678200000001
 21
-2.038489999999999
 31
0.0
  0
LINE
  5
2DA2
330
BF7
100
AcDbEntity
  8
1
100
AcDbLine
 10
21.03741500000001
 20
-3.150319999999997
 30
0.0
 11
23.288658
 21
-3.013124999999998
 31
0.0
  0
LINE
  5
2DA3
330
BF7
100
AcDbEntity
  8
1
100
AcDbLine
 10
18.78606200000001
 20
-2.972977999999997
 30
0.0
 11
21.03741500000001
 21
-3.150319999999997
 31
0.0
  0
LINE
  5
2DA4
330
BF7
100
AcDbEntity
  8
1
100
AcDbLine
 10
16.53535199999999
 20
-2.499212999999997
 30
0.0
 11
18.78606200000001
 21
-2.972977999999997
 31
0.0
  0
LINE
  5
2DA5
330
BF7
100
AcDbEntity
  8
1
100
AcDbLine
 10
148.465487
 20
-0.1707539999999987
 30
0.0
 11
148.029274
 21
-0.0263279999999995
 31
0.0
  0
LINE
  5
2DA6
330
BF7
100
AcDbEntity
  8
1
100
AcDbLine
 10
148.645224
 20
-0.2395929999999957
 30
0.0
 11
148.465487
 21
-0.1707539999999987
 31
0.0
  0
LINE
  5
2DA7
330
BF7
100
AcDbEntity
  8
1
100
AcDbLine
 10
148.825107
 20
-0.316241999999999
 30
0.0
 11
148.645224
 21
-0.2395929999999957
 31
0.0
  0
LINE
  5
2DA8
330
BF7
100
AcDbEntity
  8
1
100
AcDbLine
 10
148.914951
 20
-0.3589109999999991
 30
0.0
 11
148.825107
 21
-0.316241999999999
 31
0.0
  0
LINE
  5
2DA9
330
BF7
100
AcDbEntity
  8
1
100
AcDbLine
 10
148.937358
 20
-0.370353999999999
 30
0.0
 11
148.914951
 21
-0.3589109999999991
 31
0.0
  0
LINE
  5
2DAA
330
BF7
100
AcDbEntity
  8
1
100
AcDbLine
 10
148.948549
 20
-0.3762949999999954
 30
0.0
 11
148.937358
 21
-0.370353999999999
 31
0.0
  0
LINE
  5
2DAB
330
BF7
100
AcDbEntity
  8
1
100
AcDbLine
 10
148.949348
 20
-0.3767309999999959
 30
0.0
 11
148.948549
 21
-0.3762949999999954
 31
0.0
  0
LINE
  5
2DAC
330
BF7
100
AcDbEntity
  8
1
100
AcDbLine
 10
19.051356
 20
-3.632587999999998
 30
0.0
 11
17.41092800000001
 21
-3.290369999999995
 31
0.0
  0
LINE
  5
2DAD
330
BF7
100
AcDbEntity
  8
1
100
AcDbLine
 10
20.67335
 20
-3.782619999999995
 30
0.0
 11
19.051356
 21
-3.632587999999998
 31
0.0
  0
LINE
  5
2DAE
330
BF7
100
AcDbEntity
  8
1
100
AcDbLine
 10
21.99656100000002
 20
-3.760577999999998
 30
0.0
 11
20.67335
 21
-3.782619999999995
 31
0.0
  0
LINE
  5
2DAF
330
BF7
100
AcDbEntity
  8
1
100
AcDbLine
 10
23.319761
 20
-3.610006999999995
 30
0.0
 11
21.99656100000002
 21
-3.760577999999998
 31
0.0
  0
LINE
  5
2DB0
330
BF7
100
AcDbEntity
  8
1
100
AcDbLine
 10
24.605704
 20
-3.344228999999995
 30
0.0
 11
23.319761
 21
-3.610006999999995
 31
0.0
  0
LINE
  5
2DB1
330
BF7
100
AcDbEntity
  8
1
100
AcDbLine
 10
25.89164800000001
 20
-2.969787999999997
 30
0.0
 11
24.605704
 21
-3.344228999999995
 31
0.0
  0
LINE
  5
2DB2
330
BF7
100
AcDbEntity
  8
1
100
AcDbLine
 10
27.21489599999998
 20
-2.482379999999999
 30
0.0
 11
25.89164800000001
 21
-2.969787999999997
 31
0.0
  0
LINE
  5
2DB3
330
BF7
100
AcDbEntity
  8
1
100
AcDbLine
 10
27.728261
 20
-2.259500999999996
 30
0.0
 11
27.21489599999998
 21
-2.482379999999999
 31
0.0
  0
LINE
  5
2DB4
330
BF7
100
AcDbEntity
  8
1
100
AcDbLine
 10
45.47887299999999
 20
4.120733000000001
 30
0.0
 11
44.11473599999999
 21
4.186505
 31
0.0
  0
LINE
  5
2DB5
330
BF7
100
AcDbEntity
  8
1
100
AcDbLine
 10
46.76476799999998
 20
3.931363999999998
 30
0.0
 11
45.47887299999999
 21
4.120733000000001
 31
0.0
  0
LINE
  5
2DB6
330
BF7
100
AcDbEntity
  8
1
100
AcDbLine
 10
48.08787099999999
 20
3.616315
 30
0.0
 11
46.76476799999998
 21
3.931363999999998
 31
0.0
  0
LINE
  5
2DB7
330
BF7
100
AcDbEntity
  8
1
100
AcDbLine
 10
49.41094900000002
 20
3.190412000000001
 30
0.0
 11
48.08787099999999
 21
3.616315
 31
0.0
  0
LINE
  5
2DB8
330
BF7
100
AcDbEntity
  8
1
100
AcDbLine
 10
50.69674700000001
 20
2.682654000000002
 30
0.0
 11
49.41094900000002
 21
3.190412000000001
 31
0.0
  0
LINE
  5
2DB9
330
BF7
100
AcDbEntity
  8
1
100
AcDbLine
 10
51.98254599999998
 20
2.098808999999999
 30
0.0
 11
50.69674700000001
 21
2.682654000000002
 31
0.0
  0
LINE
  5
2DBA
330
BF7
100
AcDbEntity
  8
1
100
AcDbLine
 10
53.30593900000001
 20
1.436943000000002
 30
0.0
 11
51.98254599999998
 21
2.098808999999999
 31
0.0
  0
LINE
  5
2DBB
330
BF7
100
AcDbEntity
  8
1
100
AcDbLine
 10
54.62933199999998
 20
0.7349380000000032
 30
0.0
 11
53.30593900000001
 21
1.436943000000002
 31
0.0
  0
LINE
  5
2DBC
330
BF7
100
AcDbEntity
  8
1
100
AcDbLine
 10
55.91537200000002
 20
0.0356870000000029
 30
0.0
 11
54.62933199999998
 21
0.7349380000000032
 31
0.0
  0
LINE
  5
2DBD
330
BF7
100
AcDbEntity
  8
1
100
AcDbLine
 10
57.201437
 20
-0.6585360000000016
 30
0.0
 11
55.91537200000002
 21
0.0356870000000029
 31
0.0
  0
LINE
  5
2DBE
330
BF7
100
AcDbEntity
  8
1
100
AcDbLine
 10
58.52454
 20
-1.344797999999999
 30
0.0
 11
57.201437
 21
-0.6585360000000016
 31
0.0
  0
LINE
  5
2DBF
330
BF7
100
AcDbEntity
  8
1
100
AcDbLine
 10
59.84764199999998
 20
-1.980935999999995
 30
0.0
 11
58.52454
 21
-1.344797999999999
 31
0.0
  0
LINE
  5
2DC0
330
BF7
100
AcDbEntity
  8
1
100
AcDbLine
 10
61.133465
 20
-2.531013999999998
 30
0.0
 11
59.84764199999998
 21
-1.980935999999995
 31
0.0
  0
LINE
  5
2DC1
330
BF7
100
AcDbEntity
  8
1
100
AcDbLine
 10
62.41928699999998
 20
-2.997380999999997
 30
0.0
 11
61.133465
 21
-2.531013999999998
 31
0.0
  0
LINE
  5
2DC2
330
BF7
100
AcDbEntity
  8
1
100
AcDbLine
 10
63.74246200000001
 20
-3.374086999999998
 30
0.0
 11
62.41928699999998
 21
-2.997380999999997
 31
0.0
  0
LINE
  5
2DC3
330
BF7
100
AcDbEntity
  8
1
100
AcDbLine
 10
65.065637
 20
-3.634776999999995
 30
0.0
 11
63.74246200000001
 21
-3.374086999999998
 31
0.0
  0
LINE
  5
2DC4
330
BF7
100
AcDbEntity
  8
1
100
AcDbLine
 10
66.35155699999998
 20
-3.768008999999998
 30
0.0
 11
65.065637
 21
-3.634776999999995
 31
0.0
  0
LINE
  5
2DC5
330
BF7
100
AcDbEntity
  8
1
100
AcDbLine
 10
67.63745199999999
 20
-3.779606999999995
 30
0.0
 11
66.35155699999998
 21
-3.768008999999998
 31
0.0
  0
LINE
  5
2DC6
330
BF7
100
AcDbEntity
  8
1
100
AcDbLine
 10
68.96060300000002
 20
-3.663264999999998
 30
0.0
 11
67.63745199999999
 21
-3.779606999999995
 31
0.0
  0
LINE
  5
2DC7
330
BF7
100
AcDbEntity
  8
1
100
AcDbLine
 10
70.28375400000001
 20
-3.421544999999998
 30
0.0
 11
68.96060300000002
 21
-3.663264999999998
 31
0.0
  0
LINE
  5
2DC8
330
BF7
100
AcDbEntity
  8
1
100
AcDbLine
 10
71.56964900000001
 20
-3.073064999999998
 30
0.0
 11
70.28375400000001
 21
-3.421544999999998
 31
0.0
  0
LINE
  5
2DC9
330
BF7
100
AcDbEntity
  8
1
100
AcDbLine
 10
72.85549599999997
 20
-2.624244999999997
 30
0.0
 11
71.56964900000001
 21
-3.073064999999998
 31
0.0
  0
LINE
  5
2DCA
330
BF7
100
AcDbEntity
  8
1
100
AcDbLine
 10
73.728262
 20
-2.259642999999996
 30
0.0
 11
72.85549599999997
 21
-2.624244999999997
 31
0.0
  0
LINE
  5
2DCB
330
BF7
100
AcDbEntity
  8
1
100
AcDbLine
 10
92.442769
 20
3.989682000000004
 30
0.0
 11
90.11267899999999
 21
4.179113999999998
 31
0.0
  0
LINE
  5
2DCC
330
BF7
100
AcDbEntity
  8
1
100
AcDbLine
 10
93.72880999999999
 20
3.713444999999998
 30
0.0
 11
92.442769
 21
3.989682000000004
 31
0.0
  0
LINE
  5
2DCD
330
BF7
100
AcDbEntity
  8
1
100
AcDbLine
 10
95.051985
 20
3.316073000000001
 30
0.0
 11
93.72880999999999
 21
3.713444999999998
 31
0.0
  0
LINE
  5
2DCE
330
BF7
100
AcDbEntity
  8
1
100
AcDbLine
 10
96.37515999999999
 20
2.817575000000004
 30
0.0
 11
95.051985
 21
3.316073000000001
 31
0.0
  0
LINE
  5
2DCF
330
BF7
100
AcDbEntity
  8
1
100
AcDbLine
 10
97.66105500000003
 20
2.250945999999999
 30
0.0
 11
96.37515999999999
 21
2.817575000000004
 31
0.0
  0
LINE
  5
2DD0
330
BF7
100
AcDbEntity
  8
1
100
AcDbLine
 10
98.94697499999999
 20
1.621475999999995
 30
0.0
 11
97.66105500000003
 21
2.250945999999999
 31
0.0
  0
LINE
  5
2DD1
330
BF7
100
AcDbEntity
  8
1
100
AcDbLine
 10
100.270053
 20
0.928174000000002
 30
0.0
 11
98.94697499999999
 21
1.621475999999995
 31
0.0
  0
LINE
  5
2DD2
330
BF7
100
AcDbEntity
  8
1
100
AcDbLine
 10
101.593155
 20
0.211224000000005
 30
0.0
 11
100.270053
 21
0.928174000000002
 31
0.0
  0
LINE
  5
2DD3
330
BF7
100
AcDbEntity
  8
1
100
AcDbLine
 10
102.878954
 20
-0.4860959999999963
 30
0.0
 11
101.593155
 21
0.211224000000005
 31
0.0
  0
LINE
  5
2DD4
330
BF7
100
AcDbEntity
  8
1
100
AcDbLine
 10
104.164801
 20
-1.162359999999998
 30
0.0
 11
102.878954
 21
-0.4860959999999963
 31
0.0
  0
LINE
  5
2DD5
330
BF7
100
AcDbEntity
  8
1
100
AcDbLine
 10
105.488048
 20
-1.814128
 30
0.0
 11
104.164801
 21
-1.162359999999998
 31
0.0
  0
LINE
  5
2DD6
330
BF7
100
AcDbEntity
  8
1
100
AcDbLine
 10
106.8112959999999
 20
-2.400546999999999
 30
0.0
 11
105.488048
 21
-1.814128
 31
0.0
  0
LINE
  5
2DD7
330
BF7
100
AcDbEntity
  8
1
100
AcDbLine
 10
108.097215
 20
-2.889152999999998
 30
0.0
 11
106.8112959999999
 21
-2.400546999999999
 31
0.0
  0
LINE
  5
2DD8
330
BF7
100
AcDbEntity
  8
1
100
AcDbLine
 10
109.383135
 20
-3.283028999999995
 30
0.0
 11
108.097215
 21
-2.889152999999998
 31
0.0
  0
LINE
  5
2DD9
330
BF7
100
AcDbEntity
  8
1
100
AcDbLine
 10
110.706237
 20
-3.575857999999995
 30
0.0
 11
109.383135
 21
-3.283028999999995
 31
0.0
  0
LINE
  5
2DDA
330
BF7
100
AcDbEntity
  8
1
100
AcDbLine
 10
112.02934
 20
-3.746158999999998
 30
0.0
 11
110.706237
 21
-3.575857999999995
 31
0.0
  0
LINE
  5
2DDB
330
BF7
100
AcDbEntity
  8
1
100
AcDbLine
 10
113.315162
 20
-3.788072999999997
 30
0.0
 11
112.02934
 21
-3.746158999999998
 31
0.0
  0
LINE
  5
2DDC
330
BF7
100
AcDbEntity
  8
1
100
AcDbLine
 10
114.600937
 20
-3.707757999999998
 30
0.0
 11
113.315162
 21
-3.788072999999997
 31
0.0
  0
LINE
  5
2DDD
330
BF7
100
AcDbEntity
  8
1
100
AcDbLine
 10
115.924233
 20
-3.499116999999998
 30
0.0
 11
114.600937
 21
-3.707757999999998
 31
0.0
  0
LINE
  5
2DDE
330
BF7
100
AcDbEntity
  8
1
100
AcDbLine
 10
117.247529
 20
-3.170426999999995
 30
0.0
 11
115.924233
 21
-3.499116999999998
 31
0.0
  0
LINE
  5
2DDF
330
BF7
100
AcDbEntity
  8
1
100
AcDbLine
 10
118.533521
 20
-2.745265999999998
 30
0.0
 11
117.247529
 21
-3.170426999999995
 31
0.0
  0
LINE
  5
2DE0
330
BF7
100
AcDbEntity
  8
1
100
AcDbLine
 10
119.738462
 20
-2.262261999999997
 30
0.0
 11
118.533521
 21
-2.745265999999998
 31
0.0
  0
LINE
  5
2DE1
330
BF7
100
AcDbEntity
  8
1
100
AcDbLine
 10
138.11951
 20
4.041286000000003
 30
0.0
 11
136.11268
 21
4.173763999999998
 31
0.0
  0
LINE
  5
2DE2
330
BF7
100
AcDbEntity
  8
1
100
AcDbLine
 10
139.405139
 20
3.793382000000004
 30
0.0
 11
138.11951
 21
4.041286000000003
 31
0.0
  0
LINE
  5
2DE3
330
BF7
100
AcDbEntity
  8
1
100
AcDbLine
 10
140.690768
 20
3.435384999999998
 30
0.0
 11
139.405139
 21
3.793382000000004
 31
0.0
  0
LINE
  5
2DE4
330
BF7
100
AcDbEntity
  8
1
100
AcDbLine
 10
142.002946
 20
2.967084999999998
 30
0.0
 11
140.690768
 21
3.435384999999998
 31
0.0
  0
LINE
  5
2DE5
330
BF7
100
AcDbEntity
  8
1
100
AcDbLine
 10
143.315099
 20
2.410466000000003
 30
0.0
 11
142.002946
 21
2.967084999999998
 31
0.0
  0
LINE
  5
2DE6
330
BF7
100
AcDbEntity
  8
1
100
AcDbLine
 10
144.590869
 20
1.800959000000002
 30
0.0
 11
143.315099
 21
2.410466000000003
 31
0.0
  0
LINE
  5
2DE7
330
BF7
100
AcDbEntity
  8
1
100
AcDbLine
 10
145.866639
 20
1.143140999999997
 30
0.0
 11
144.590869
 21
1.800959000000002
 31
0.0
  0
LINE
  5
2DE8
330
BF7
100
AcDbEntity
  8
1
100
AcDbLine
 10
146.950657
 20
0.5608910000000016
 30
0.0
 11
145.866639
 21
1.143140999999997
 31
0.0
  0
LINE
  5
2DE9
330
BF7
100
AcDbEntity
  8
1
100
AcDbLine
 10
148.029274
 20
-0.0263279999999995
 30
0.0
 11
146.950657
 21
0.5608910000000016
 31
0.0
  0
LINE
  5
2DEA
330
BF7
100
AcDbEntity
  8
1
100
AcDbLine
 10
15.81333900000001
 20
-2.874572
 30
0.0
 11
14.97180900000001
 21
-2.655026999999996
 31
0.0
  0
LINE
  5
2DEB
330
BF7
100
AcDbEntity
  8
1
100
AcDbLine
 10
16.71634800000001
 20
-3.108706999999995
 30
0.0
 11
15.81333900000001
 21
-2.874572
 31
0.0
  0
LINE
  5
2DEC
330
BF7
100
AcDbEntity
  8
1
100
AcDbLine
 10
17.41092800000001
 20
-3.290369999999995
 30
0.0
 11
16.71634800000001
 21
-3.108706999999995
 31
0.0
  0
LINE
  5
2DED
330
BF7
100
AcDbEntity
  8
1
100
AcDbLine
 10
139.5002889999999
 20
-2.812420999999995
 30
0.0
 11
142.26606
 21
-2.043625999999995
 31
0.0
  0
LINE
  5
2DEE
330
BF7
100
AcDbEntity
  8
1
100
AcDbLine
 10
137.138345
 20
-3.122120999999995
 30
0.0
 11
139.5002889999999
 21
-2.812420999999995
 31
0.0
  0
LINE
  5
2DEF
330
BF7
100
AcDbEntity
  8
1
100
AcDbLine
 10
134.927094
 20
-3.101521999999998
 30
0.0
 11
137.138345
 21
-3.122120999999995
 31
0.0
  0
LINE
  5
2DF0
330
BF7
100
AcDbEntity
  8
1
100
AcDbLine
 10
132.715867
 20
-2.782044999999995
 30
0.0
 11
134.927094
 21
-3.101521999999998
 31
0.0
  0
LINE
  5
2DF1
330
BF7
100
AcDbEntity
  8
1
100
AcDbLine
 10
130.505004
 20
-2.192683999999998
 30
0.0
 11
132.715867
 21
-2.782044999999995
 31
0.0
  0
LINE
  5
2DF2
330
BF7
100
AcDbEntity
  8
1
100
AcDbLine
 10
128.294141
 20
-1.386679999999999
 30
0.0
 11
130.505004
 21
-2.192683999999998
 31
0.0
  0
LINE
  5
2DF3
330
BF7
100
AcDbEntity
  8
1
100
AcDbLine
 10
126.634746
 20
-0.6733059999999968
 30
0.0
 11
128.294141
 21
-1.386679999999999
 31
0.0
  0
LINE
  5
2DF4
330
BF7
100
AcDbEntity
  8
1
100
AcDbLine
 10
92.51512400000001
 20
-2.982262999999998
 30
0.0
 11
96.25823399999996
 21
-2.039007999999999
 31
0.0
  0
LINE
  5
2DF5
330
BF7
100
AcDbEntity
  8
1
100
AcDbLine
 10
90.303898
 20
-3.150367999999995
 30
0.0
 11
92.51512400000001
 21
-2.982262999999998
 31
0.0
  0
LINE
  5
2DF6
330
BF7
100
AcDbEntity
  8
1
100
AcDbLine
 10
88.092623
 20
-3.015133999999998
 30
0.0
 11
90.303898
 21
-3.150367999999995
 31
0.0
  0
LINE
  5
2DF7
330
BF7
100
AcDbEntity
  8
1
100
AcDbLine
 10
85.84108900000002
 20
-2.578577999999998
 30
0.0
 11
88.092623
 21
-3.015133999999998
 31
0.0
  0
LINE
  5
2DF8
330
BF7
100
AcDbEntity
  8
1
100
AcDbLine
 10
83.58984500000003
 20
-1.881443999999996
 30
0.0
 11
85.84108900000002
 21
-2.578577999999998
 31
0.0
  0
LINE
  5
2DF9
330
BF7
100
AcDbEntity
  8
1
100
AcDbLine
 10
81.33896499999996
 20
-0.9892019999999988
 30
0.0
 11
83.58984500000003
 21
-1.881443999999996
 31
0.0
  0
LINE
  5
2DFA
330
BF7
100
AcDbEntity
  8
1
100
AcDbLine
 10
79.82650899999999
 20
-0.3146860000000018
 30
0.0
 11
81.33896499999996
 21
-0.9892019999999988
 31
0.0
  0
LINE
  5
2DFB
330
BF7
100
AcDbEntity
  8
1
100
AcDbLine
 10
47.89185500000002
 20
-2.729935999999998
 30
0.0
 11
50.27979100000002
 21
-2.047546999999998
 31
0.0
  0
LINE
  5
2DFC
330
BF7
100
AcDbEntity
  8
1
100
AcDbLine
 10
45.64051499999999
 20
-3.084775999999997
 30
0.0
 11
47.89185500000002
 21
-2.729935999999998
 31
0.0
  0
LINE
  5
2DFD
330
BF7
100
AcDbEntity
  8
1
100
AcDbLine
 10
43.38922299999999
 20
-3.131372999999995
 30
0.0
 11
45.64051499999999
 21
-3.084775999999997
 31
0.0
  0
LINE
  5
2DFE
330
BF7
100
AcDbEntity
  8
1
100
AcDbLine
 10
41.13773799999996
 20
-2.865278999999997
 30
0.0
 11
43.38922299999999
 21
-3.131372999999995
 31
0.0
  0
LINE
  5
2DFF
330
BF7
100
AcDbEntity
  8
1
100
AcDbLine
 10
38.88622800000002
 20
-2.311577999999995
 30
0.0
 11
41.13773799999996
 21
-2.865278999999997
 31
0.0
  0
LINE
  5
2E00
330
BF7
100
AcDbEntity
  8
1
100
AcDbLine
 10
36.63525100000001
 20
-1.522420999999995
 30
0.0
 11
38.88622800000002
 21
-2.311577999999995
 31
0.0
  0
LINE
  5
2E01
330
BF7
100
AcDbEntity
  8
1
100
AcDbLine
 10
34.79156499999999
 20
-0.7445099999999984
 30
0.0
 11
36.63525100000001
 21
-1.522420999999995
 31
0.0
  0
LINE
  5
2E02
330
BF7
100
AcDbEntity
  8
1
100
AcDbLine
 10
23.319761
 20
4.010325999999999
 30
0.0
 11
21.11366999999999
 21
4.175605000000004
 31
0.0
  0
LINE
  5
2E03
330
BF7
100
AcDbEntity
  8
1
100
AcDbLine
 10
24.605704
 20
3.744550999999995
 30
0.0
 11
23.319761
 21
4.010325999999999
 31
0.0
  0
LINE
  5
2E04
330
BF7
100
AcDbEntity
  8
1
100
AcDbLine
 10
25.89164800000001
 20
3.370108999999998
 30
0.0
 11
24.605704
 21
3.744550999999995
 31
0.0
  0
LINE
  5
2E05
330
BF7
100
AcDbEntity
  8
1
100
AcDbLine
 10
27.21489599999998
 20
2.882700000000003
 30
0.0
 11
25.89164800000001
 21
3.370108999999998
 31
0.0
  0
LINE
  5
2E06
330
BF7
100
AcDbEntity
  8
1
100
AcDbLine
 10
28.53814399999999
 20
2.308207000000006
 30
0.0
 11
27.21489599999998
 21
2.882700000000003
 31
0.0
  0
LINE
  5
2E07
330
BF7
100
AcDbEntity
  8
1
100
AcDbLine
 10
29.82413599999998
 20
1.683687000000002
 30
0.0
 11
28.53814399999999
 21
2.308207000000006
 31
0.0
  0
LINE
  5
2E08
330
BF7
100
AcDbEntity
  8
1
100
AcDbLine
 10
31.11012800000004
 20
1.013731000000003
 30
0.0
 11
29.82413599999998
 21
1.683687000000002
 31
0.0
  0
LINE
  5
2E09
330
BF7
100
AcDbEntity
  8
1
100
AcDbLine
 10
32.43340000000001
 20
0.2983280000000015
 30
0.0
 11
31.11012800000004
 21
1.013731000000003
 31
0.0
  0
LINE
  5
2E0A
330
BF7
100
AcDbEntity
  8
1
100
AcDbLine
 10
33.75662299999999
 20
-0.4203170000000008
 30
0.0
 11
32.43340000000001
 21
0.2983280000000015
 31
0.0
  0
LINE
  5
2E0B
330
BF7
100
AcDbEntity
  8
1
100
AcDbLine
 10
35.04256699999999
 20
-1.099490999999998
 30
0.0
 11
33.75662299999999
 21
-0.4203170000000008
 31
0.0
  0
LINE
  5
2E0C
330
BF7
100
AcDbEntity
  8
1
100
AcDbLine
 10
36.32853500000003
 20
-1.738780999999999
 30
0.0
 11
35.04256699999999
 21
-1.099490999999998
 31
0.0
  0
LINE
  5
2E0D
330
BF7
100
AcDbEntity
  8
1
100
AcDbLine
 10
37.65171000000001
 20
-2.333853999999995
 30
0.0
 11
36.32853500000003
 21
-1.738780999999999
 31
0.0
  0
LINE
  5
2E0E
330
BF7
100
AcDbEntity
  8
1
100
AcDbLine
 10
38.974885
 20
-2.846705999999997
 30
0.0
 11
37.65171000000001
 21
-2.333853999999995
 31
0.0
  0
LINE
  5
2E0F
330
BF7
100
AcDbEntity
  8
1
100
AcDbLine
 10
40.26078100000001
 20
-3.249774999999998
 30
0.0
 11
38.974885
 21
-2.846705999999997
 31
0.0
  0
LINE
  5
2E10
330
BF7
100
AcDbEntity
  8
1
100
AcDbLine
 10
41.54667600000002
 20
-3.547089999999997
 30
0.0
 11
40.26078100000001
 21
-3.249774999999998
 31
0.0
  0
LINE
  5
2E11
330
BF7
100
AcDbEntity
  8
1
100
AcDbLine
 10
42.86982700000002
 20
-3.732133999999998
 30
0.0
 11
41.54667600000002
 21
-3.547089999999997
 31
0.0
  0
LINE
  5
2E12
330
BF7
100
AcDbEntity
  8
1
100
AcDbLine
 10
44.19300200000001
 20
-3.789581999999995
 30
0.0
 11
42.86982700000002
 21
-3.732133999999998
 31
0.0
  0
LINE
  5
2E13
330
BF7
100
AcDbEntity
  8
1
100
AcDbLine
 10
45.47887299999999
 20
-3.720410999999998
 30
0.0
 11
44.19300200000001
 21
-3.789581999999995
 31
0.0
  0
LINE
  5
2E14
330
BF7
100
AcDbEntity
  8
1
100
AcDbLine
 10
46.76476799999998
 20
-3.531043999999995
 30
0.0
 11
45.47887299999999
 21
-3.720410999999998
 31
0.0
  0
LINE
  5
2E15
330
BF7
100
AcDbEntity
  8
1
100
AcDbLine
 10
48.08787099999999
 20
-3.215994999999995
 30
0.0
 11
46.76476799999998
 21
-3.531043999999995
 31
0.0
  0
LINE
  5
2E16
330
BF7
100
AcDbEntity
  8
1
100
AcDbLine
 10
49.41094900000002
 20
-2.790092999999998
 30
0.0
 11
48.08787099999999
 21
-3.215994999999995
 31
0.0
  0
LINE
  5
2E17
330
BF7
100
AcDbEntity
  8
1
100
AcDbLine
 10
50.69674700000001
 20
-2.282333999999996
 30
0.0
 11
49.41094900000002
 21
-2.790092999999998
 31
0.0
  0
LINE
  5
2E18
330
BF7
100
AcDbEntity
  8
1
100
AcDbLine
 10
50.743571
 20
-2.261077999999995
 30
0.0
 11
50.69674700000001
 21
-2.282333999999996
 31
0.0
  0
LINE
  5
2E19
330
BF7
100
AcDbEntity
  8
1
100
AcDbLine
 10
68.96060300000002
 20
4.063584000000001
 30
0.0
 11
67.11369499999999
 21
4.175201999999996
 31
0.0
  0
LINE
  5
2E1A
330
BF7
100
AcDbEntity
  8
1
100
AcDbLine
 10
70.28375400000001
 20
3.821864999999998
 30
0.0
 11
68.96060300000002
 21
4.063584000000001
 31
0.0
  0
LINE
  5
2E1B
330
BF7
100
AcDbEntity
  8
1
100
AcDbLine
 10
71.56964900000001
 20
3.473386
 30
0.0
 11
70.28375400000001
 21
3.821864999999998
 31
0.0
  0
LINE
  5
2E1C
330
BF7
100
AcDbEntity
  8
1
100
AcDbLine
 10
72.85549599999997
 20
3.024567000000001
 30
0.0
 11
71.56964900000001
 21
3.473386
 31
0.0
  0
LINE
  5
2E1D
330
BF7
100
AcDbEntity
  8
1
100
AcDbLine
 10
74.178719
 20
2.471775000000004
 30
0.0
 11
72.85549599999997
 21
3.024567000000001
 31
0.0
  0
LINE
  5
2E1E
330
BF7
100
AcDbEntity
  8
1
100
AcDbLine
 10
75.50196699999998
 20
1.845295999999999
 30
0.0
 11
74.178719
 21
2.471775000000004
 31
0.0
  0
LINE
  5
2E1F
330
BF7
100
AcDbEntity
  8
1
100
AcDbLine
 10
76.78793500000002
 20
1.184747000000001
 30
0.0
 11
75.50196699999998
 21
1.845295999999999
 31
0.0
  0
LINE
  5
2E20
330
BF7
100
AcDbEntity
  8
1
100
AcDbLine
 10
78.07390300000003
 20
0.4939770000000011
 30
0.0
 11
76.78793500000002
 21
1.184747000000001
 31
0.0
  0
LINE
  5
2E21
330
BF7
100
AcDbEntity
  8
1
100
AcDbLine
 10
79.39698099999998
 20
-0.2260249999999964
 30
0.0
 11
78.07390300000003
 21
0.4939770000000011
 31
0.0
  0
LINE
  5
2E22
330
BF7
100
AcDbEntity
  8
1
100
AcDbLine
 10
80.72005899999998
 20
-0.9321869999999954
 30
0.0
 11
79.39698099999998
 21
-0.2260249999999964
 31
0.0
  0
LINE
  5
2E23
330
BF7
100
AcDbEntity
  8
1
100
AcDbLine
 10
82.00590599999998
 20
-1.583145999999999
 30
0.0
 11
80.72005899999998
 21
-0.9321869999999954
 31
0.0
  0
LINE
  5
2E24
330
BF7
100
AcDbEntity
  8
1
100
AcDbLine
 10
83.29172899999997
 20
-2.179457999999995
 30
0.0
 11
82.00590599999998
 21
-1.583145999999999
 31
0.0
  0
LINE
  5
2E25
330
BF7
100
AcDbEntity
  8
1
100
AcDbLine
 10
84.614977
 20
-2.716244999999997
 30
0.0
 11
83.29172899999997
 21
-2.179457999999995
 31
0.0
  0
LINE
  5
2E26
330
BF7
100
AcDbEntity
  8
1
100
AcDbLine
 10
85.93819999999999
 20
-3.158381999999996
 30
0.0
 11
84.614977
 21
-2.716244999999997
 31
0.0
  0
LINE
  5
2E27
330
BF7
100
AcDbEntity
  8
1
100
AcDbLine
 10
87.22414399999996
 20
-3.482926999999995
 30
0.0
 11
85.93819999999999
 21
-3.158381999999996
 31
0.0
  0
LINE
  5
2E28
330
BF7
100
AcDbEntity
  8
1
100
AcDbLine
 10
88.510112
 20
-3.694544
 30
0.0
 11
87.22414399999996
 21
-3.482926999999995
 31
0.0
  0
LINE
  5
2E29
330
BF7
100
AcDbEntity
  8
1
100
AcDbLine
 10
89.83345699999999
 20
-3.786655999999997
 30
0.0
 11
88.510112
 21
-3.694544
 31
0.0
  0
LINE
  5
2E2A
330
BF7
100
AcDbEntity
  8
1
100
AcDbLine
 10
91.15675300000004
 20
-3.749390999999998
 30
0.0
 11
89.83345699999999
 21
-3.786655999999997
 31
0.0
  0
LINE
  5
2E2B
330
BF7
100
AcDbEntity
  8
1
100
AcDbLine
 10
92.442769
 20
-3.589360999999995
 30
0.0
 11
91.15675300000004
 21
-3.749390999999998
 31
0.0
  0
LINE
  5
2E2C
330
BF7
100
AcDbEntity
  8
1
100
AcDbLine
 10
93.72880999999999
 20
-3.313124999999998
 30
0.0
 11
92.442769
 21
-3.589360999999995
 31
0.0
  0
LINE
  5
2E2D
330
BF7
100
AcDbEntity
  8
1
100
AcDbLine
 10
95.051985
 20
-2.915752999999998
 30
0.0
 11
93.72880999999999
 21
-3.313124999999998
 31
0.0
  0
LINE
  5
2E2E
330
BF7
100
AcDbEntity
  8
1
100
AcDbLine
 10
96.37515999999999
 20
-2.417254999999995
 30
0.0
 11
95.051985
 21
-2.915752999999998
 31
0.0
  0
LINE
  5
2E2F
330
BF7
100
AcDbEntity
  8
1
100
AcDbLine
 10
96.73134000000001
 20
-2.260302999999999
 30
0.0
 11
96.37515999999999
 21
-2.417254999999995
 31
0.0
  0
LINE
  5
2E30
330
BF7
100
AcDbEntity
  8
1
100
AcDbLine
 10
114.600937
 20
4.108079000000001
 30
0.0
 11
113.113721
 21
4.181827000000001
 31
0.0
  0
LINE
  5
2E31
330
BF7
100
AcDbEntity
  8
1
100
AcDbLine
 10
115.924233
 20
3.899438000000003
 30
0.0
 11
114.600937
 21
4.108079000000001
 31
0.0
  0
LINE
  5
2E32
330
BF7
100
AcDbEntity
  8
1
100
AcDbLine
 10
117.247529
 20
3.570744999999998
 30
0.0
 11
115.924233
 21
3.899438000000003
 31
0.0
  0
LINE
  5
2E33
330
BF7
100
AcDbEntity
  8
1
100
AcDbLine
 10
118.533521
 20
3.145586000000001
 30
0.0
 11
117.247529
 21
3.570744999999998
 31
0.0
  0
LINE
  5
2E34
330
BF7
100
AcDbEntity
  8
1
100
AcDbLine
 10
119.8195379999999
 20
2.630089999999999
 30
0.0
 11
118.533521
 21
3.145586000000001
 31
0.0
  0
LINE
  5
2E35
330
BF7
100
AcDbEntity
  8
1
100
AcDbLine
 10
121.142591
 20
2.021575999999999
 30
0.0
 11
119.8195379999999
 21
2.630089999999999
 31
0.0
  0
LINE
  5
2E36
330
BF7
100
AcDbEntity
  8
1
100
AcDbLine
 10
122.46567
 20
1.353966000000002
 30
0.0
 11
121.142591
 21
2.021575999999999
 31
0.0
  0
LINE
  5
2E37
330
BF7
100
AcDbEntity
  8
1
100
AcDbLine
 10
123.751492
 20
0.6688180000000017
 30
0.0
 11
122.46567
 21
1.353966000000002
 31
0.0
  0
LINE
  5
2E38
330
BF7
100
AcDbEntity
  8
1
100
AcDbLine
 10
125.037291
 20
-0.0307089999999981
 30
0.0
 11
123.751492
 21
0.6688180000000017
 31
0.0
  0
LINE
  5
2E39
330
BF7
100
AcDbEntity
  8
1
100
AcDbLine
 10
126.360369
 20
-0.7428509999999982
 30
0.0
 11
125.037291
 21
-0.0307089999999981
 31
0.0
  0
LINE
  5
2E3A
330
BF7
100
AcDbEntity
  8
1
100
AcDbLine
 10
127.683471
 20
-1.424376999999995
 30
0.0
 11
126.360369
 21
-0.7428509999999982
 31
0.0
  0
LINE
  5
2E3B
330
BF7
100
AcDbEntity
  8
1
100
AcDbLine
 10
128.96927
 20
-2.036003999999996
 30
0.0
 11
127.683471
 21
-1.424376999999995
 31
0.0
  0
LINE
  5
2E3C
330
BF7
100
AcDbEntity
  8
1
100
AcDbLine
 10
130.255068
 20
-2.579115999999999
 30
0.0
 11
128.96927
 21
-2.036003999999996
 31
0.0
  0
LINE
  5
2E3D
330
BF7
100
AcDbEntity
  8
1
100
AcDbLine
 10
131.578364
 20
-3.048298999999995
 30
0.0
 11
130.255068
 21
-2.579115999999999
 31
0.0
  0
LINE
  5
2E3E
330
BF7
100
AcDbEntity
  8
1
100
AcDbLine
 10
132.901685
 20
-3.412023999999998
 30
0.0
 11
131.578364
 21
-3.048298999999995
 31
0.0
  0
LINE
  5
2E3F
330
BF7
100
AcDbEntity
  8
1
100
AcDbLine
 10
134.187749
 20
-3.652379999999995
 30
0.0
 11
132.901685
 21
-3.412023999999998
 31
0.0
  0
LINE
  5
2E40
330
BF7
100
AcDbEntity
  8
1
100
AcDbLine
 10
135.4737899999999
 20
-3.774599999999998
 30
0.0
 11
134.187749
 21
-3.652379999999995
 31
0.0
  0
LINE
  5
2E41
330
BF7
100
AcDbEntity
  8
1
100
AcDbLine
 10
136.79665
 20
-3.772203999999995
 30
0.0
 11
135.4737899999999
 21
-3.774599999999998
 31
0.0
  0
LINE
  5
2E42
330
BF7
100
AcDbEntity
  8
1
100
AcDbLine
 10
138.11951
 20
-3.640965999999998
 30
0.0
 11
136.79665
 21
-3.772203999999995
 31
0.0
  0
LINE
  5
2E43
330
BF7
100
AcDbEntity
  8
1
100
AcDbLine
 10
139.405139
 20
-3.393061999999996
 30
0.0
 11
138.11951
 21
-3.640965999999998
 31
0.0
  0
LINE
  5
2E44
330
BF7
100
AcDbEntity
  8
1
100
AcDbLine
 10
140.690768
 20
-3.035063999999998
 30
0.0
 11
139.405139
 21
-3.393061999999996
 31
0.0
  0
LINE
  5
2E45
330
BF7
100
AcDbEntity
  8
1
100
AcDbLine
 10
142.002946
 20
-2.566765999999997
 30
0.0
 11
140.690768
 21
-3.035063999999998
 31
0.0
  0
LINE
  5
2E46
330
BF7
100
AcDbEntity
  8
1
100
AcDbLine
 10
142.725213
 20
-2.260375999999995
 30
0.0
 11
142.002946
 21
-2.566765999999997
 31
0.0
  0
LINE
  5
2E47
330
BF7
100
AcDbEntity
  8
1
100
AcDbLine
 10
128.2042
 20
-3.987500999999998
 30
0.0
 11
129.892905
 21
-3.790040999999998
 31
0.0
  0
LINE
  5
2E48
330
BF7
100
AcDbEntity
  8
1
100
AcDbLine
 10
126.982448
 20
-3.982762999999998
 30
0.0
 11
128.2042
 21
-3.987500999999998
 31
0.0
  0
LINE
  5
2E49
330
BF7
100
AcDbEntity
  8
1
100
AcDbLine
 10
125.7522419999999
 20
-3.860568999999998
 30
0.0
 11
126.982448
 21
-3.982762999999998
 31
0.0
  0
LINE
  5
2E4A
330
BF7
100
AcDbEntity
  8
1
100
AcDbLine
 10
124.530514
 20
-3.625991999999995
 30
0.0
 11
125.7522419999999
 21
-3.860568999999998
 31
0.0
  0
LINE
  5
2E4B
330
BF7
100
AcDbEntity
  8
1
100
AcDbLine
 10
123.3002839999999
 20
-3.282392999999999
 30
0.0
 11
124.530514
 21
-3.625991999999995
 31
0.0
  0
LINE
  5
2E4C
330
BF7
100
AcDbEntity
  8
1
100
AcDbLine
 10
122.078557
 20
-2.844044999999995
 30
0.0
 11
123.3002839999999
 21
-3.282392999999999
 31
0.0
  0
LINE
  5
2E4D
330
BF7
100
AcDbEntity
  8
1
100
AcDbLine
 10
120.848327
 20
-2.317225
 30
0.0
 11
122.078557
 21
-2.844044999999995
 31
0.0
  0
LINE
  5
2E4E
330
BF7
100
AcDbEntity
  8
1
100
AcDbLine
 10
119.626599
 20
-1.723816999999995
 30
0.0
 11
120.848327
 21
-2.317225
 31
0.0
  0
LINE
  5
2E4F
330
BF7
100
AcDbEntity
  8
1
100
AcDbLine
 10
118.396393
 20
-1.072321999999997
 30
0.0
 11
119.626599
 21
-1.723816999999995
 31
0.0
  0
LINE
  5
2E50
330
BF7
100
AcDbEntity
  8
1
100
AcDbLine
 10
117.174641
 20
-0.3897899999999978
 30
0.0
 11
118.396393
 21
-1.072321999999997
 31
0.0
  0
LINE
  5
2E51
330
BF7
100
AcDbEntity
  8
1
100
AcDbLine
 10
115.944435
 20
0.3139850000000024
 30
0.0
 11
117.174641
 21
-0.3897899999999978
 31
0.0
  0
LINE
  5
2E52
330
BF7
100
AcDbEntity
  8
1
100
AcDbLine
 10
114.722683
 20
1.009784999999999
 30
0.0
 11
115.944435
 21
0.3139850000000024
 31
0.0
  0
LINE
  5
2E53
330
BF7
100
AcDbEntity
  8
1
100
AcDbLine
 10
113.492477
 20
1.687654
 30
0.0
 11
114.722683
 21
1.009784999999999
 31
0.0
  0
LINE
  5
2E54
330
BF7
100
AcDbEntity
  8
1
100
AcDbLine
 10
112.270749
 20
2.319407000000003
 30
0.0
 11
113.492477
 21
1.687654
 31
0.0
  0
LINE
  5
2E55
330
BF7
100
AcDbEntity
  8
1
100
AcDbLine
 10
111.040519
 20
2.896017000000004
 30
0.0
 11
112.270749
 21
2.319407000000003
 31
0.0
  0
LINE
  5
2E56
330
BF7
100
AcDbEntity
  8
1
100
AcDbLine
 10
109.8187919999999
 20
3.393526999999998
 30
0.0
 11
111.040519
 21
2.896017000000004
 31
0.0
  0
LINE
  5
2E57
330
BF7
100
AcDbEntity
  8
1
100
AcDbLine
 10
108.588513
 20
3.804826999999998
 30
0.0
 11
109.8187919999999
 21
3.393526999999998
 31
0.0
  0
LINE
  5
2E58
330
BF7
100
AcDbEntity
  8
1
100
AcDbLine
 10
107.366713
 20
4.112812000000004
 30
0.0
 11
108.588513
 21
3.804826999999998
 31
0.0
  0
LINE
  5
2E59
330
BF7
100
AcDbEntity
  8
1
100
AcDbLine
 10
106.127278
 20
4.314123000000003
 30
0.0
 11
107.366713
 21
4.112812000000004
 31
0.0
  0
LINE
  5
2E5A
330
BF7
100
AcDbEntity
  8
1
100
AcDbLine
 10
104.896539
 20
4.397639000000001
 30
0.0
 11
106.127278
 21
4.314123000000003
 31
0.0
  0
LINE
  5
2E5B
330
BF7
100
AcDbEntity
  8
1
100
AcDbLine
 10
104.6421209999999
 20
4.390093000000002
 30
0.0
 11
104.896539
 21
4.397639000000001
 31
0.0
  0
LINE
  5
2E5C
330
BF7
100
AcDbEntity
  8
1
100
AcDbLine
 10
81.52882800000003
 20
-3.999330999999997
 30
0.0
 11
83.96344199999999
 21
-3.789825999999997
 31
0.0
  0
LINE
  5
2E5D
330
BF7
100
AcDbEntity
  8
1
100
AcDbLine
 10
80.30709999999997
 20
-3.930124999999998
 30
0.0
 11
81.52882800000003
 21
-3.999330999999997
 31
0.0
  0
LINE
  5
2E5E
330
BF7
100
AcDbEntity
  8
1
100
AcDbLine
 10
79.07689399999998
 20
-3.744496999999998
 30
0.0
 11
80.30709999999997
 21
-3.930124999999998
 31
0.0
  0
LINE
  5
2E5F
330
BF7
100
AcDbEntity
  8
1
100
AcDbLine
 10
77.855142
 20
-3.450157999999998
 30
0.0
 11
79.07689399999998
 21
-3.744496999999998
 31
0.0
  0
LINE
  5
2E60
330
BF7
100
AcDbEntity
  8
1
100
AcDbLine
 10
76.62493599999997
 20
-3.051321999999998
 30
0.0
 11
77.855142
 21
-3.450157999999998
 31
0.0
  0
LINE
  5
2E61
330
BF7
100
AcDbEntity
  8
1
100
AcDbLine
 10
75.40320899999997
 20
-2.564559999999999
 30
0.0
 11
76.62493599999997
 21
-3.051321999999998
 31
0.0
  0
LINE
  5
2E62
330
BF7
100
AcDbEntity
  8
1
100
AcDbLine
 10
74.172979
 20
-1.996838
 30
0.0
 11
75.40320899999997
 21
-2.564559999999999
 31
0.0
  0
LINE
  5
2E63
330
BF7
100
AcDbEntity
  8
1
100
AcDbLine
 10
72.95125100000001
 20
-1.371739999999999
 30
0.0
 11
74.172979
 21
-1.996838
 31
0.0
  0
LINE
  5
2E64
330
BF7
100
AcDbEntity
  8
1
100
AcDbLine
 10
71.72104500000003
 20
-0.6982099999999996
 30
0.0
 11
72.95125100000001
 21
-1.371739999999999
 31
0.0
  0
LINE
  5
2E65
330
BF7
100
AcDbEntity
  8
1
100
AcDbLine
 10
70.49931699999998
 20
-0.0042359999999988
 30
0.0
 11
71.72104500000003
 21
-0.6982099999999996
 31
0.0
  0
LINE
  5
2E66
330
BF7
100
AcDbEntity
  8
1
100
AcDbLine
 10
69.26908700000002
 20
0.7002449999999989
 30
0.0
 11
70.49931699999998
 21
-0.0042359999999988
 31
0.0
  0
LINE
  5
2E67
330
BF7
100
AcDbEntity
  8
1
100
AcDbLine
 10
68.04735899999997
 20
1.385977
 30
0.0
 11
69.26908700000002
 21
0.7002449999999989
 31
0.0
  0
LINE
  5
2E68
330
BF7
100
AcDbEntity
  8
1
100
AcDbLine
 10
66.81712899999999
 20
2.043131000000002
 30
0.0
 11
68.04735899999997
 21
1.385977
 31
0.0
  0
LINE
  5
2E69
330
BF7
100
AcDbEntity
  8
1
100
AcDbLine
 10
65.59540100000001
 20
2.644415000000002
 30
0.0
 11
66.81712899999999
 21
2.043131000000002
 31
0.0
  0
LINE
  5
2E6A
330
BF7
100
AcDbEntity
  8
1
100
AcDbLine
 10
64.365196
 20
3.181222000000001
 30
0.0
 11
65.59540100000001
 21
2.644415000000002
 31
0.0
  0
LINE
  5
2E6B
330
BF7
100
AcDbEntity
  8
1
100
AcDbLine
 10
63.14344399999999
 20
3.631245999999998
 30
0.0
 11
64.365196
 21
3.181222000000001
 31
0.0
  0
LINE
  5
2E6C
330
BF7
100
AcDbEntity
  8
1
100
AcDbLine
 10
61.91323799999998
 20
3.988047000000001
 30
0.0
 11
63.14344399999999
 21
3.631245999999998
 31
0.0
  0
LINE
  5
2E6D
330
BF7
100
AcDbEntity
  8
1
100
AcDbLine
 10
60.691486
 20
4.236799000000001
 30
0.0
 11
61.91323799999998
 21
3.988047000000001
 31
0.0
  0
LINE
  5
2E6E
330
BF7
100
AcDbEntity
  8
1
100
AcDbLine
 10
59.46120699999998
 20
4.373948000000002
 30
0.0
 11
60.691486
 21
4.236799000000001
 31
0.0
  0
LINE
  5
2E6F
330
BF7
100
AcDbEntity
  8
1
100
AcDbLine
 10
58.64408199999997
 20
4.387213999999994
 30
0.0
 11
59.46120699999998
 21
4.373948000000002
 31
0.0
  0
LINE
  5
2E70
330
BF7
100
AcDbEntity
  8
1
100
AcDbLine
 10
36.083686
 20
-3.992228999999998
 30
0.0
 11
37.89011600000001
 21
-3.789450999999995
 31
0.0
  0
LINE
  5
2E71
330
BF7
100
AcDbEntity
  8
1
100
AcDbLine
 10
34.853456
 20
-3.975447999999995
 30
0.0
 11
36.083686
 21
-3.992228999999998
 31
0.0
  0
LINE
  5
2E72
330
BF7
100
AcDbEntity
  8
1
100
AcDbLine
 10
33.63172800000004
 20
-3.842361999999995
 30
0.0
 11
34.853456
 21
-3.975447999999995
 31
0.0
  0
LINE
  5
2E73
330
BF7
100
AcDbEntity
  8
1
100
AcDbLine
 10
32.40149800000001
 20
-3.594877999999996
 30
0.0
 11
33.63172800000004
 21
-3.842361999999995
 31
0.0
  0
LINE
  5
2E74
330
BF7
100
AcDbEntity
  8
1
100
AcDbLine
 10
31.17977000000002
 20
-3.243274999999997
 30
0.0
 11
32.40149800000001
 21
-3.594877999999996
 31
0.0
  0
LINE
  5
2E75
330
BF7
100
AcDbEntity
  8
1
100
AcDbLine
 10
29.94953999999999
 20
-2.792587999999998
 30
0.0
 11
31.17977000000002
 21
-3.243274999999997
 31
0.0
  0
LINE
  5
2E76
330
BF7
100
AcDbEntity
  8
1
100
AcDbLine
 10
28.727812
 20
-2.261538999999995
 30
0.0
 11
29.94953999999999
 21
-2.792587999999998
 31
0.0
  0
LINE
  5
2E77
330
BF7
100
AcDbEntity
  8
1
100
AcDbLine
 10
27.497582
 20
-1.657732999999995
 30
0.0
 11
28.727812
 21
-2.261538999999995
 31
0.0
  0
LINE
  5
2E78
330
BF7
100
AcDbEntity
  8
1
100
AcDbLine
 10
26.27585400000001
 20
-1.006251999999995
 30
0.0
 11
27.497582
 21
-1.657732999999995
 31
0.0
  0
LINE
  5
2E79
330
BF7
100
AcDbEntity
  8
1
100
AcDbLine
 10
25.04562400000001
 20
-0.3164269999999973
 30
0.0
 11
26.27585400000001
 21
-1.006251999999995
 31
0.0
  0
LINE
  5
2E7A
330
BF7
100
AcDbEntity
  8
1
100
AcDbLine
 10
23.82389699999999
 20
0.3830950000000008
 30
0.0
 11
25.04562400000001
 21
-0.3164269999999973
 31
0.0
  0
LINE
  5
2E7B
330
BF7
100
AcDbEntity
  8
1
100
AcDbLine
 10
22.59367900000001
 20
1.082292000000002
 30
0.0
 11
23.82389699999999
 21
0.3830950000000008
 31
0.0
  0
LINE
  5
2E7C
330
BF7
100
AcDbEntity
  8
1
100
AcDbLine
 10
21.37193900000003
 20
1.752118000000002
 30
0.0
 11
22.59367900000001
 21
1.082292000000002
 31
0.0
  0
LINE
  5
2E7D
330
BF7
100
AcDbEntity
  8
1
100
AcDbLine
 10
20.141672
 20
2.383000000000002
 30
0.0
 11
21.37193900000003
 21
1.752118000000002
 31
0.0
  0
LINE
  5
2E7E
330
BF7
100
AcDbEntity
  8
1
100
AcDbLine
 10
18.91989599999998
 20
2.948711000000001
 30
0.0
 11
20.141672
 21
2.383000000000002
 31
0.0
  0
LINE
  5
2E7F
330
BF7
100
AcDbEntity
  8
1
100
AcDbLine
 10
17.68409499999998
 20
3.443169999999998
 30
0.0
 11
18.91989599999998
 21
2.948711000000001
 31
0.0
  0
LINE
  5
2E80
330
BF7
100
AcDbEntity
  8
1
100
AcDbLine
 10
16.45690400000001
 20
3.842991000000001
 30
0.0
 11
17.68409499999998
 21
3.443169999999998
 31
0.0
  0
LINE
  5
2E81
330
BF7
100
AcDbEntity
  8
1
100
AcDbLine
 10
14.35250300000001
 20
4.286166000000005
 30
0.0
 11
16.45690400000001
 21
3.842991000000001
 31
0.0
  0
LINE
  5
2E82
330
BF7
100
AcDbEntity
  8
1
100
AcDbLine
 10
12.641706
 20
4.376639999999998
 30
0.0
 11
14.35250300000001
 21
4.286166000000005
 31
0.0
  0
LINE
  5
2E83
330
BF7
100
AcDbEntity
  8
1
100
AcDbLine
 10
149.114091
 20
4.389444999999998
 30
0.0
 11
150.728358
 21
4.353598000000001
 31
0.0
  0
LINE
  5
2E84
330
BF7
100
AcDbEntity
  8
1
100
AcDbLine
 10
147.842972
 20
4.274409000000002
 30
0.0
 11
149.114091
 21
4.389444999999998
 31
0.0
  0
LINE
  5
2E85
330
BF7
100
AcDbEntity
  8
1
100
AcDbLine
 10
146.571853
 20
4.037290000000001
 30
0.0
 11
147.842972
 21
4.274409000000002
 31
0.0
  0
LINE
  5
2E86
330
BF7
100
AcDbEntity
  8
1
100
AcDbLine
 10
145.336487
 20
3.695862000000003
 30
0.0
 11
146.571853
 21
4.037290000000001
 31
0.0
  0
LINE
  5
2E87
330
BF7
100
AcDbEntity
  8
1
100
AcDbLine
 10
144.1010979999999
 20
3.255532999999998
 30
0.0
 11
145.336487
 21
3.695862000000003
 31
0.0
  0
LINE
  5
2E88
330
BF7
100
AcDbEntity
  8
1
100
AcDbLine
 10
142.82993
 20
2.711607000000004
 30
0.0
 11
144.1010979999999
 21
3.255532999999998
 31
0.0
  0
LINE
  5
2E89
330
BF7
100
AcDbEntity
  8
1
100
AcDbLine
 10
142.725116
 20
2.660542000000003
 30
0.0
 11
142.82993
 21
2.711607000000004
 31
0.0
  0
LINE
  5
2E8A
330
BF7
100
AcDbEntity
  8
1
100
AcDbLine
 10
125.28558
 20
-3.928249999999998
 30
0.0
 11
126.635401
 21
-3.994635999999995
 31
0.0
  0
LINE
  5
2E8B
330
BF7
100
AcDbEntity
  8
1
100
AcDbLine
 10
124.050384
 20
-3.740358999999997
 30
0.0
 11
125.28558
 21
-3.928249999999998
 31
0.0
  0
LINE
  5
2E8C
330
BF7
100
AcDbEntity
  8
1
100
AcDbLine
 10
122.779289
 20
-3.429844999999995
 30
0.0
 11
124.050384
 21
-3.740358999999997
 31
0.0
  0
LINE
  5
2E8D
330
BF7
100
AcDbEntity
  8
1
100
AcDbLine
 10
121.50817
 20
-3.010612999999998
 30
0.0
 11
122.779289
 21
-3.429844999999995
 31
0.0
  0
LINE
  5
2E8E
330
BF7
100
AcDbEntity
  8
1
100
AcDbLine
 10
120.272901
 20
-2.510219999999996
 30
0.0
 11
121.50817
 21
-3.010612999999998
 31
0.0
  0
LINE
  5
2E8F
330
BF7
100
AcDbEntity
  8
1
100
AcDbLine
 10
119.037681
 20
-1.933048999999995
 30
0.0
 11
120.272901
 21
-2.510219999999996
 31
0.0
  0
LINE
  5
2E90
330
BF7
100
AcDbEntity
  8
1
100
AcDbLine
 10
117.766562
 20
-1.275794999999998
 30
0.0
 11
119.037681
 21
-1.933048999999995
 31
0.0
  0
LINE
  5
2E91
330
BF7
100
AcDbEntity
  8
1
100
AcDbLine
 10
116.495395
 20
-0.5744289999999987
 30
0.0
 11
117.766562
 21
-1.275794999999998
 31
0.0
  0
LINE
  5
2E92
330
BF7
100
AcDbEntity
  8
1
100
AcDbLine
 10
115.259981
 20
0.1296520000000001
 30
0.0
 11
116.495395
 21
-0.5744289999999987
 31
0.0
  0
LINE
  5
2E93
330
BF7
100
AcDbEntity
  8
1
100
AcDbLine
 10
114.024639
 20
0.8358230000000013
 30
0.0
 11
115.259981
 21
0.1296520000000001
 31
0.0
  0
LINE
  5
2E94
330
BF7
100
AcDbEntity
  8
1
100
AcDbLine
 10
112.7535689999999
 20
1.543570999999999
 30
0.0
 11
114.024639
 21
0.8358230000000013
 31
0.0
  0
LINE
  5
2E95
330
BF7
100
AcDbEntity
  8
1
100
AcDbLine
 10
111.482498
 20
2.211050000000001
 30
0.0
 11
112.7535689999999
 21
1.543570999999999
 31
0.0
  0
LINE
  5
2E96
330
BF7
100
AcDbEntity
  8
1
100
AcDbLine
 10
110.247108
 20
2.801536000000001
 30
0.0
 11
111.482498
 21
2.211050000000001
 31
0.0
  0
LINE
  5
2E97
330
BF7
100
AcDbEntity
  8
1
100
AcDbLine
 10
109.01167
 20
3.318319999999998
 30
0.0
 11
110.247108
 21
2.801536000000001
 31
0.0
  0
LINE
  5
2E98
330
BF7
100
AcDbEntity
  8
1
100
AcDbLine
 10
107.74043
 20
3.757316000000001
 30
0.0
 11
109.01167
 21
3.318319999999998
 31
0.0
  0
LINE
  5
2E99
330
BF7
100
AcDbEntity
  8
1
100
AcDbLine
 10
106.469287
 20
4.089820999999998
 30
0.0
 11
107.74043
 21
3.757316000000001
 31
0.0
  0
LINE
  5
2E9A
330
BF7
100
AcDbEntity
  8
1
100
AcDbLine
 10
105.233994
 20
4.300494000000004
 30
0.0
 11
106.469287
 21
4.089820999999998
 31
0.0
  0
LINE
  5
2E9B
330
BF7
100
AcDbEntity
  8
1
100
AcDbLine
 10
103.998604
 20
4.395052999999998
 30
0.0
 11
105.233994
 21
4.300494000000004
 31
0.0
  0
LINE
  5
2E9C
330
BF7
100
AcDbEntity
  8
1
100
AcDbLine
 10
102.727364
 20
4.367538000000006
 30
0.0
 11
103.998604
 21
4.395052999999998
 31
0.0
  0
LINE
  5
2E9D
330
BF7
100
AcDbEntity
  8
1
100
AcDbLine
 10
101.456197
 20
4.215182999999997
 30
0.0
 11
102.727364
 21
4.367538000000006
 31
0.0
  0
LINE
  5
2E9E
330
BF7
100
AcDbEntity
  8
1
100
AcDbLine
 10
100.220904
 20
3.950921000000001
 30
0.0
 11
101.456197
 21
4.215182999999997
 31
0.0
  0
LINE
  5
2E9F
330
BF7
100
AcDbEntity
  8
1
100
AcDbLine
 10
98.98561100000001
 20
3.580492000000003
 30
0.0
 11
100.220904
 21
3.950921000000001
 31
0.0
  0
LINE
  5
2EA0
330
BF7
100
AcDbEntity
  8
1
100
AcDbLine
 10
97.714516
 20
3.098929000000001
 30
0.0
 11
98.98561100000001
 21
3.580492000000003
 31
0.0
  0
LINE
  5
2EA1
330
BF7
100
AcDbEntity
  8
1
100
AcDbLine
 10
96.73165500000003
 20
2.659394000000006
 30
0.0
 11
97.714516
 21
3.098929000000001
 31
0.0
  0
LINE
  5
2EA2
330
BF7
100
AcDbEntity
  8
1
100
AcDbLine
 10
78.934776
 20
-3.886827999999995
 30
0.0
 11
80.637676
 21
-3.985663999999995
 31
0.0
  0
LINE
  5
2EA3
330
BF7
100
AcDbEntity
  8
1
100
AcDbLine
 10
77.663657
 20
-3.657916999999997
 30
0.0
 11
78.934776
 21
-3.886827999999995
 31
0.0
  0
LINE
  5
2EA4
330
BF7
100
AcDbEntity
  8
1
100
AcDbLine
 10
76.392562
 20
-3.313367999999995
 30
0.0
 11
77.663657
 21
-3.657916999999997
 31
0.0
  0
LINE
  5
2EA5
330
BF7
100
AcDbEntity
  8
1
100
AcDbLine
 10
75.15719700000002
 20
-2.876889999999998
 30
0.0
 11
76.392562
 21
-3.313367999999995
 31
0.0
  0
LINE
  5
2EA6
330
BF7
100
AcDbEntity
  8
1
100
AcDbLine
 10
73.92175800000003
 20
-2.353399999999997
 30
0.0
 11
75.15719700000002
 21
-2.876889999999998
 31
0.0
  0
LINE
  5
2EA7
330
BF7
100
AcDbEntity
  8
1
100
AcDbLine
 10
72.65047000000001
 20
-1.738801999999995
 30
0.0
 11
73.92175800000003
 21
-2.353399999999997
 31
0.0
  0
LINE
  5
2EA8
330
BF7
100
AcDbEntity
  8
1
100
AcDbLine
 10
71.379254
 20
-1.066016999999997
 30
0.0
 11
72.65047000000001
 21
-1.738801999999995
 31
0.0
  0
LINE
  5
2EA9
330
BF7
100
AcDbEntity
  8
1
100
AcDbLine
 10
70.14383999999998
 20
-0.3754189999999973
 30
0.0
 11
71.379254
 21
-1.066016999999997
 31
0.0
  0
LINE
  5
2EAA
330
BF7
100
AcDbEntity
  8
1
100
AcDbLine
 10
68.90840199999999
 20
0.3314320000000066
 30
0.0
 11
70.14383999999998
 21
-0.3754189999999973
 31
0.0
  0
LINE
  5
2EAB
330
BF7
100
AcDbEntity
  8
1
100
AcDbLine
 10
67.63723399999998
 20
1.054670999999999
 30
0.0
 11
68.90840199999999
 21
0.3314320000000066
 31
0.0
  0
LINE
  5
2EAC
330
BF7
100
AcDbEntity
  8
1
100
AcDbLine
 10
66.36609100000001
 20
1.752344999999996
 30
0.0
 11
67.63723399999998
 21
1.054670999999999
 31
0.0
  0
LINE
  5
2EAD
330
BF7
100
AcDbEntity
  8
1
100
AcDbLine
 10
65.13072500000001
 20
2.385569999999995
 30
0.0
 11
66.36609100000001
 21
1.752344999999996
 31
0.0
  0
LINE
  5
2EAE
330
BF7
100
AcDbEntity
  8
1
100
AcDbLine
 10
63.89528700000003
 20
2.956866000000001
 30
0.0
 11
65.13072500000001
 21
2.385569999999995
 31
0.0
  0
LINE
  5
2EAF
330
BF7
100
AcDbEntity
  8
1
100
AcDbLine
 10
62.62421699999999
 20
3.462573000000001
 30
0.0
 11
63.89528700000003
 21
2.956866000000001
 31
0.0
  0
LINE
  5
2EB0
330
BF7
100
AcDbEntity
  8
1
100
AcDbLine
 10
61.35326699999999
 20
3.870669000000003
 30
0.0
 11
62.62421699999999
 21
3.462573000000001
 31
0.0
  0
LINE
  5
2EB1
330
BF7
100
AcDbEntity
  8
1
100
AcDbLine
 10
60.11814399999999
 20
4.161204000000001
 30
0.0
 11
61.35326699999999
 21
3.870669000000003
 31
0.0
  0
LINE
  5
2EB2
330
BF7
100
AcDbEntity
  8
1
100
AcDbLine
 10
58.88287500000001
 20
4.339550999999994
 30
0.0
 11
60.11814399999999
 21
4.161204000000001
 31
0.0
  0
LINE
  5
2EB3
330
BF7
100
AcDbEntity
  8
1
100
AcDbLine
 10
57.61170799999999
 20
4.399910000000001
 30
0.0
 11
58.88287500000001
 21
4.339550999999994
 31
0.0
  0
LINE
  5
2EB4
330
BF7
100
AcDbEntity
  8
1
100
AcDbLine
 10
56.34061299999999
 20
4.334519000000002
 30
0.0
 11
57.61170799999999
 21
4.399910000000001
 31
0.0
  0
LINE
  5
2EB5
330
BF7
100
AcDbEntity
  8
1
100
AcDbLine
 10
55.10556200000002
 20
4.151326999999998
 30
0.0
 11
56.34061299999999
 21
4.334519000000002
 31
0.0
  0
LINE
  5
2EB6
330
BF7
100
AcDbEntity
  8
1
100
AcDbLine
 10
53.87053599999997
 20
3.856238000000004
 30
0.0
 11
55.10556200000002
 21
4.151326999999998
 31
0.0
  0
LINE
  5
2EB7
330
BF7
100
AcDbEntity
  8
1
100
AcDbLine
 10
52.59956200000002
 20
3.444097000000001
 30
0.0
 11
53.87053599999997
 21
3.856238000000004
 31
0.0
  0
LINE
  5
2EB8
330
BF7
100
AcDbEntity
  8
1
100
AcDbLine
 10
51.32844300000002
 20
2.934988999999998
 30
0.0
 11
52.59956200000002
 21
3.444097000000001
 31
0.0
  0
LINE
  5
2EB9
330
BF7
100
AcDbEntity
  8
1
100
AcDbLine
 10
50.74221400000002
 20
2.662555000000002
 30
0.0
 11
51.32844300000002
 21
2.934988999999998
 31
0.0
  0
LINE
  5
2EBA
330
BF7
100
AcDbEntity
  8
1
100
AcDbLine
 10
32.55943399999998
 20
-3.831589999999998
 30
0.0
 11
34.63782000000001
 21
-3.986335
 31
0.0
  0
LINE
  5
2EBB
330
BF7
100
AcDbEntity
  8
1
100
AcDbLine
 10
31.29817400000002
 20
-3.570419999999998
 30
0.0
 11
32.55943399999998
 21
-3.831589999999998
 31
0.0
  0
LINE
  5
2EBC
330
BF7
100
AcDbEntity
  8
1
100
AcDbLine
 10
30.07181900000001
 20
-3.209057999999998
 30
0.0
 11
31.29817400000002
 21
-3.570419999999998
 31
0.0
  0
LINE
  5
2EBD
330
BF7
100
AcDbEntity
  8
1
100
AcDbLine
 10
28.84539200000001
 20
-2.752693999999998
 30
0.0
 11
30.07181900000001
 21
-3.209057999999998
 31
0.0
  0
LINE
  5
2EBE
330
BF7
100
AcDbEntity
  8
1
100
AcDbLine
 10
27.60564200000002
 20
-2.207214999999997
 30
0.0
 11
28.84539200000001
 21
-2.752693999999998
 31
0.0
  0
LINE
  5
2EBF
330
BF7
100
AcDbEntity
  8
1
100
AcDbLine
 10
26.37471000000002
 20
-1.597207999999996
 30
0.0
 11
27.60564200000002
 21
-2.207214999999997
 31
0.0
  0
LINE
  5
2EC0
330
BF7
100
AcDbEntity
  8
1
100
AcDbLine
 10
25.10286400000001
 20
-0.9137499999999969
 30
0.0
 11
26.37471000000002
 21
-1.597207999999996
 31
0.0
  0
LINE
  5
2EC1
330
BF7
100
AcDbEntity
  8
1
100
AcDbLine
 10
23.83092099999999
 20
-0.1969999999999956
 30
0.0
 11
25.10286400000001
 21
-0.9137499999999969
 31
0.0
  0
LINE
  5
2EC2
330
BF7
100
AcDbEntity
  8
1
100
AcDbLine
 10
22.59476899999999
 20
0.5110390000000004
 30
0.0
 11
23.83092099999999
 21
-0.1969999999999956
 31
0.0
  0
LINE
  5
2EC3
330
BF7
100
AcDbEntity
  8
1
100
AcDbLine
 10
21.35861600000001
 20
1.210276
 30
0.0
 11
22.59476899999999
 21
0.5110390000000004
 31
0.0
  0
LINE
  5
2EC4
330
BF7
100
AcDbEntity
  8
1
100
AcDbLine
 10
20.09305600000002
 20
1.896456000000004
 30
0.0
 11
21.35861600000001
 21
1.210276
 31
0.0
  0
LINE
  5
2EC5
330
BF7
100
AcDbEntity
  8
1
100
AcDbLine
 10
18.82769000000002
 20
2.532490999999998
 30
0.0
 11
20.09305600000002
 21
1.896456000000004
 31
0.0
  0
LINE
  5
2EC6
330
BF7
100
AcDbEntity
  8
1
100
AcDbLine
 10
17.59762900000001
 20
3.083968000000001
 30
0.0
 11
18.82769000000002
 21
2.532490999999998
 31
0.0
  0
LINE
  5
2EC7
330
BF7
100
AcDbEntity
  8
1
100
AcDbLine
 10
16.366951
 20
3.553800999999998
 30
0.0
 11
17.59762900000001
 21
3.083968000000001
 31
0.0
  0
LINE
  5
2EC8
330
BF7
100
AcDbEntity
  8
1
100
AcDbLine
 10
15.51841999999999
 20
3.817681000000001
 30
0.0
 11
16.36702399999999
 21
3.553776999999998
 31
0.0
  0
LINE
  5
2EC9
330
BF7
100
AcDbEntity
  8
1
100
AcDbLine
 10
14.340101
 20
4.080331000000004
 30
0.0
 11
15.51841999999999
 21
3.817681000000001
 31
0.0
  0
LINE
  5
2ECA
330
BF7
100
AcDbEntity
  8
1
100
AcDbLine
 10
12.41996600000002
 20
4.304815000000001
 30
0.0
 11
14.340101
 21
4.080331000000004
 31
0.0
  0
LINE
  5
2ECB
330
BF7
100
AcDbEntity
  8
1
100
AcDbLine
 10
10.45651999999998
 20
4.379559000000003
 30
0.0
 11
12.41996600000002
 21
4.304815000000001
 31
0.0
  0
LINE
  5
2ECC
330
BF7
100
AcDbEntity
  8
1
100
AcDbLine
 10
8.486412000000001
 20
4.393536
 30
0.0
 11
10.45651999999998
 21
4.379559000000003
 31
0.0
  0
LINE
  5
2ECD
330
BF7
100
AcDbEntity
  8
1
100
AcDbLine
 10
6.907983999999999
 20
4.388101000000001
 30
0.0
 11
8.486412000000001
 21
4.393536
 31
0.0
  0
LINE
  5
2ECE
330
BF7
100
AcDbEntity
  8
1
100
AcDbLine
 10
6.774065000000008
 20
4.374642000000005
 30
0.0
 11
6.907983999999999
 21
4.388101000000001
 31
0.0
  0
LINE
  5
2ECF
330
BF7
100
AcDbEntity
  8
1
100
AcDbLine
 10
6.452840000000008
 20
4.311015999999998
 30
0.0
 11
6.774065000000008
 21
4.374642000000005
 31
0.0
  0
LINE
  5
2ED0
330
BF7
100
AcDbEntity
  8
1
100
AcDbLine
 10
6.188769000000008
 20
4.197896000000001
 30
0.0
 11
6.452840000000008
 21
4.311015999999998
 31
0.0
  0
LINE
  5
2ED1
330
BF7
100
AcDbEntity
  8
1
100
AcDbLine
 10
5.972540000000008
 20
3.964047
 30
0.0
 11
6.188769000000008
 21
4.197896000000001
 31
0.0
  0
LINE
  5
2ED2
330
BF7
100
AcDbEntity
  8
1
100
AcDbLine
 10
5.945725000000008
 20
3.593420999999998
 30
0.0
 11
5.972540000000008
 21
3.964047
 31
0.0
  0
LINE
  5
2ED3
330
BF7
100
AcDbEntity
  8
1
100
AcDbLine
 10
6.136423000000008
 20
3.145383999999998
 30
0.0
 11
5.945725000000008
 21
3.593420999999998
 31
0.0
  0
LINE
  5
2ED4
330
BF7
100
AcDbEntity
  8
1
100
AcDbLine
 10
6.411200000000008
 20
2.758652
 30
0.0
 11
6.136423000000008
 21
3.145383999999998
 31
0.0
  0
LINE
  5
2ED5
330
BF7
100
AcDbEntity
  8
1
100
AcDbLine
 10
6.757096999999986
 20
2.370894000000002
 30
0.0
 11
6.411200000000008
 21
2.758652
 31
0.0
  0
LINE
  5
2ED6
330
BF7
100
AcDbEntity
  8
1
100
AcDbLine
 10
7.564485000000018
 20
1.630378
 30
0.0
 11
6.757096999999986
 21
2.370894000000002
 31
0.0
  0
LINE
  5
2ED7
330
BF7
100
AcDbEntity
  8
1
100
AcDbLine
 10
8.720978999999998
 20
0.7528670000000021
 30
0.0
 11
7.564485000000018
 21
1.630378
 31
0.0
  0
LINE
  5
2ED8
330
BF7
100
AcDbEntity
  8
1
100
AcDbLine
 10
9.954334000000015
 20
-0.0488619999999962
 30
0.0
 11
8.720978999999998
 21
0.7528670000000021
 31
0.0
  0
LINE
  5
2ED9
330
BF7
100
AcDbEntity
  8
1
100
AcDbLine
 10
10.84938600000001
 20
-0.5699839999999981
 30
0.0
 11
9.954334000000015
 21
-0.0488619999999962
 31
0.0
  0
LINE
  5
2EDA
330
BF7
100
AcDbEntity
  8
1
100
AcDbLine
 10
11.766311
 20
-1.079388999999993
 30
0.0
 11
10.85011300000002
 21
-0.5703959999999988
 31
0.0
  0
LINE
  5
2EDB
330
BF7
100
AcDbEntity
  8
1
100
AcDbLine
 10
12.67880400000001
 20
-1.566858999999995
 30
0.0
 11
11.766311
 21
-1.079388999999993
 31
0.0
  0
LINE
  5
2EDC
330
BF7
100
AcDbEntity
  8
1
100
AcDbLine
 10
13.82875799999999
 20
-2.141275999999995
 30
0.0
 11
12.67880400000001
 21
-1.566858999999995
 31
0.0
  0
LINE
  5
2EDD
330
BF7
100
AcDbEntity
  8
1
100
AcDbLine
 10
14.97180900000001
 20
-2.655026999999996
 30
0.0
 11
13.82875799999999
 21
-2.141275999999995
 31
0.0
  0
LINE
  5
2EDE
330
BF7
100
AcDbEntity
  8
1
100
AcDbLine
 10
14.97180900000001
 20
-2.655026999999996
 30
0.0
 11
9.347709000000008
 21
-2.655026999999996
 31
0.0
  0
LINE
  5
2EDF
330
BF7
100
AcDbEntity
  8
1
100
AcDbLine
 10
8.946353000000016
 20
-3.339837999999998
 30
0.0
 11
8.940381999999997
 21
-3.474094999999998
 31
0.0
  0
LINE
  5
2EE0
330
BF7
100
AcDbEntity
  8
1
100
AcDbLine
 10
9.053141000000008
 20
-2.903415999999998
 30
0.0
 11
8.946353000000016
 21
-3.339837999999998
 31
0.0
  0
LINE
  5
2EE1
330
BF7
100
AcDbEntity
  8
1
100
AcDbLine
 10
9.151499999999996
 20
-2.752584999999998
 30
0.0
 11
9.053141000000008
 21
-2.903415999999998
 31
0.0
  0
LINE
  5
2EE2
330
BF7
100
AcDbEntity
  8
1
100
AcDbLine
 10
9.227803999999991
 20
-2.689709999999998
 30
0.0
 11
9.151499999999996
 21
-2.752584999999998
 31
0.0
  0
LINE
  5
2EE3
330
BF7
100
AcDbEntity
  8
1
100
AcDbLine
 10
9.289537000000024
 20
-2.663023999999996
 30
0.0
 11
9.227803999999991
 21
-2.689709999999998
 31
0.0
  0
LINE
  5
2EE4
330
BF7
100
AcDbEntity
  8
1
100
AcDbLine
 10
9.347709000000008
 20
-2.655026999999996
 30
0.0
 11
9.289537000000024
 21
-2.663023999999996
 31
0.0
  0
LINE
  5
2EE5
330
BF7
100
AcDbEntity
  8
1
100
AcDbLine
 10
150.370337
 20
-3.996929999999998
 30
0.0
 11
150.578197
 21
-3.999675999999995
 31
0.0
  0
LINE
  5
2EE6
330
BF7
100
AcDbEntity
  8
1
100
AcDbLine
 10
149.12005
 20
-3.909307999999995
 30
0.0
 11
150.370337
 21
-3.996929999999998
 31
0.0
  0
LINE
  5
2EE7
330
BF7
100
AcDbEntity
  8
1
100
AcDbLine
 10
147.859056
 20
-3.699639999999998
 30
0.0
 11
149.12005
 21
-3.909307999999995
 31
0.0
  0
LINE
  5
2EE8
330
BF7
100
AcDbEntity
  8
1
100
AcDbLine
 10
146.598087
 20
-3.374979999999997
 30
0.0
 11
147.859056
 21
-3.699639999999998
 31
0.0
  0
LINE
  5
2EE9
330
BF7
100
AcDbEntity
  8
1
100
AcDbLine
 10
145.372096
 20
-2.957436999999998
 30
0.0
 11
146.598087
 21
-3.374979999999997
 31
0.0
  0
LINE
  5
2EEA
330
BF7
100
AcDbEntity
  8
1
100
AcDbLine
 10
144.146129
 20
-2.451857999999996
 30
0.0
 11
145.372096
 21
-2.957436999999998
 31
0.0
  0
LINE
  5
2EEB
330
BF7
100
AcDbEntity
  8
1
100
AcDbLine
 10
142.915899
 20
-1.869813999999996
 30
0.0
 11
144.146129
 21
-2.451857999999996
 31
0.0
  0
LINE
  5
2EEC
330
BF7
100
AcDbEntity
  8
1
100
AcDbLine
 10
141.694171
 20
-1.234029999999998
 30
0.0
 11
142.915899
 21
-1.869813999999996
 31
0.0
  0
LINE
  5
2EED
330
BF7
100
AcDbEntity
  8
1
100
AcDbLine
 10
140.463965
 20
-0.5536179999999967
 30
0.0
 11
141.694171
 21
-1.234029999999998
 31
0.0
  0
LINE
  5
2EEE
330
BF7
100
AcDbEntity
  8
1
100
AcDbLine
 10
139.242213
 20
0.1431630000000048
 30
0.0
 11
140.463965
 21
-0.5536179999999967
 31
0.0
  0
LINE
  5
2EEF
330
BF7
100
AcDbEntity
  8
1
100
AcDbLine
 10
138.012007
 20
0.8463420000000033
 30
0.0
 11
139.242213
 21
0.1431630000000048
 31
0.0
  0
LINE
  5
2EF0
330
BF7
100
AcDbEntity
  8
1
100
AcDbLine
 10
136.79028
 20
1.526693000000004
 30
0.0
 11
138.012007
 21
0.8463420000000033
 31
0.0
  0
LINE
  5
2EF1
330
BF7
100
AcDbEntity
  8
1
100
AcDbLine
 10
135.560049
 20
2.174500999999998
 30
0.0
 11
136.79028
 21
1.526693000000004
 31
0.0
  0
LINE
  5
2EF2
330
BF7
100
AcDbEntity
  8
1
100
AcDbLine
 10
134.338322
 20
2.762819000000003
 30
0.0
 11
135.560049
 21
2.174500999999998
 31
0.0
  0
LINE
  5
2EF3
330
BF7
100
AcDbEntity
  8
1
100
AcDbLine
 10
133.108092
 20
3.283257000000006
 30
0.0
 11
134.338322
 21
2.762819000000003
 31
0.0
  0
LINE
  5
2EF4
330
BF7
100
AcDbEntity
  8
1
100
AcDbLine
 10
131.886364
 20
3.714172000000001
 30
0.0
 11
133.108092
 21
3.283257000000006
 31
0.0
  0
LINE
  5
2EF5
330
BF7
100
AcDbEntity
  8
1
100
AcDbLine
 10
130.656158
 20
4.049407000000003
 30
0.0
 11
131.886364
 21
3.714172000000001
 31
0.0
  0
LINE
  5
2EF6
330
BF7
100
AcDbEntity
  8
1
100
AcDbLine
 10
129.434406
 20
4.275032000000006
 30
0.0
 11
130.656158
 21
4.049407000000003
 31
0.0
  0
LINE
  5
2EF7
330
BF7
100
AcDbEntity
  8
1
100
AcDbLine
 10
128.2042
 20
4.387822000000001
 30
0.0
 11
129.434406
 21
4.275032000000006
 31
0.0
  0
LINE
  5
2EF8
330
BF7
100
AcDbEntity
  8
1
100
AcDbLine
 10
127.642243
 20
4.385641999999998
 30
0.0
 11
128.2042
 21
4.387822000000001
 31
0.0
  0
LINE
  5
2EF9
330
BF7
100
AcDbEntity
  8
1
100
AcDbLine
 10
104.896539
 20
-3.997318999999997
 30
0.0
 11
106.890579
 21
-3.789824999999998
 31
0.0
  0
LINE
  5
2EFA
330
BF7
100
AcDbEntity
  8
1
100
AcDbLine
 10
103.635545
 20
-3.959920999999996
 30
0.0
 11
104.896539
 21
-3.997318999999997
 31
0.0
  0
LINE
  5
2EFB
330
BF7
100
AcDbEntity
  8
1
100
AcDbLine
 10
102.374576
 20
-3.799860999999995
 30
0.0
 11
103.635545
 21
-3.959920999999996
 31
0.0
  0
LINE
  5
2EFC
330
BF7
100
AcDbEntity
  8
1
100
AcDbLine
 10
101.1486089999999
 20
-3.530287999999998
 30
0.0
 11
102.374576
 21
-3.799860999999995
 31
0.0
  0
LINE
  5
2EFD
330
BF7
100
AcDbEntity
  8
1
100
AcDbLine
 10
99.92264200000001
 20
-3.156712999999998
 30
0.0
 11
101.1486089999999
 21
-3.530287999999998
 31
0.0
  0
LINE
  5
2EFE
330
BF7
100
AcDbEntity
  8
1
100
AcDbLine
 10
98.692436
 20
-2.687276999999998
 30
0.0
 11
99.92264200000001
 21
-3.156712999999998
 31
0.0
  0
LINE
  5
2EFF
330
BF7
100
AcDbEntity
  8
1
100
AcDbLine
 10
97.47070800000001
 20
-2.140545999999995
 30
0.0
 11
98.692436
 21
-2.687276999999998
 31
0.0
  0
LINE
  5
2F00
330
BF7
100
AcDbEntity
  8
1
100
AcDbLine
 10
96.240502
 20
-1.524337999999995
 30
0.0
 11
97.47070800000001
 21
-2.140545999999995
 31
0.0
  0
LINE
  5
2F01
330
BF7
100
AcDbEntity
  8
1
100
AcDbLine
 10
95.018775
 20
-0.8642699999999976
 30
0.0
 11
96.240502
 21
-1.524337999999995
 31
0.0
  0
LINE
  5
2F02
330
BF7
100
AcDbEntity
  8
1
100
AcDbLine
 10
93.788569
 20
-0.1697729999999993
 30
0.0
 11
95.018775
 21
-0.8642699999999976
 31
0.0
  0
LINE
  5
2F03
330
BF7
100
AcDbEntity
  8
1
100
AcDbLine
 10
92.56681699999999
 20
0.5302880000000059
 30
0.0
 11
93.788569
 21
-0.1697729999999993
 31
0.0
  0
LINE
  5
2F04
330
BF7
100
AcDbEntity
  8
1
100
AcDbLine
 10
91.33661100000001
 20
1.225900000000001
 30
0.0
 11
92.56681699999999
 21
0.5302880000000059
 31
0.0
  0
LINE
  5
2F05
330
BF7
100
AcDbEntity
  8
1
100
AcDbLine
 10
90.11488300000001
 20
1.888160000000002
 30
0.0
 11
91.33661100000001
 21
1.225900000000001
 31
0.0
  0
LINE
  5
2F06
330
BF7
100
AcDbEntity
  8
1
100
AcDbLine
 10
88.88465300000001
 20
2.507588999999998
 30
0.0
 11
90.11488300000001
 21
1.888160000000002
 31
0.0
  0
LINE
  5
2F07
330
BF7
100
AcDbEntity
  8
1
100
AcDbLine
 10
87.66292499999996
 20
3.058463999999998
 30
0.0
 11
88.88465300000001
 21
2.507588999999998
 31
0.0
  0
LINE
  5
2F08
330
BF7
100
AcDbEntity
  8
1
100
AcDbLine
 10
86.43271900000002
 20
3.532881000000001
 30
0.0
 11
87.66292499999996
 21
3.058463999999998
 31
0.0
  0
LINE
  5
2F09
330
BF7
100
AcDbEntity
  8
1
100
AcDbLine
 10
85.21099199999998
 20
3.911137000000003
 30
0.0
 11
86.43271900000002
 21
3.532881000000001
 31
0.0
  0
LINE
  5
2F0A
330
BF7
100
AcDbEntity
  8
1
100
AcDbLine
 10
83.98076200000003
 20
4.187825000000006
 30
0.0
 11
85.21099199999998
 21
3.911137000000003
 31
0.0
  0
LINE
  5
2F0B
330
BF7
100
AcDbEntity
  8
1
100
AcDbLine
 10
82.75903399999998
 20
4.351442000000001
 30
0.0
 11
83.98076200000003
 21
4.187825000000006
 31
0.0
  0
LINE
  5
2F0C
330
BF7
100
AcDbEntity
  8
1
100
AcDbLine
 10
81.641951
 20
4.395216000000001
 30
0.0
 11
82.75903399999998
 21
4.351442000000001
 31
0.0
  0
LINE
  5
2F0D
330
BF7
100
AcDbEntity
  8
1
100
AcDbLine
 10
59.46120699999998
 20
-3.973627999999997
 30
0.0
 11
60.92349700000003
 21
-3.789238999999998
 31
0.0
  0
LINE
  5
2F0E
330
BF7
100
AcDbEntity
  8
1
100
AcDbLine
 10
58.23943100000001
 20
-3.993463999999995
 30
0.0
 11
59.46120699999998
 21
-3.973627999999997
 31
0.0
  0
LINE
  5
2F0F
330
BF7
100
AcDbEntity
  8
1
100
AcDbLine
 10
56.99999599999998
 20
-3.894534999999997
 30
0.0
 11
58.23943100000001
 21
-3.993463999999995
 31
0.0
  0
LINE
  5
2F10
330
BF7
100
AcDbEntity
  8
1
100
AcDbLine
 10
55.76923299999999
 20
-3.680431999999995
 30
0.0
 11
56.99999599999998
 21
-3.894534999999997
 31
0.0
  0
LINE
  5
2F11
330
BF7
100
AcDbEntity
  8
1
100
AcDbLine
 10
54.508263
 20
-3.347481999999995
 30
0.0
 11
55.76923299999999
 21
-3.680431999999995
 31
0.0
  0
LINE
  5
2F12
330
BF7
100
AcDbEntity
  8
1
100
AcDbLine
 10
53.24729399999998
 20
-2.909920999999997
 30
0.0
 11
54.508263
 21
-3.347481999999995
 31
0.0
  0
LINE
  5
2F13
330
BF7
100
AcDbEntity
  8
1
100
AcDbLine
 10
52.02132699999999
 20
-2.395826999999997
 30
0.0
 11
53.24729399999998
 21
-2.909920999999997
 31
0.0
  0
LINE
  5
2F14
330
BF7
100
AcDbEntity
  8
1
100
AcDbLine
 10
50.79536
 20
-1.809352999999995
 30
0.0
 11
52.02132699999999
 21
-2.395826999999997
 31
0.0
  0
LINE
  5
2F15
330
BF7
100
AcDbEntity
  8
1
100
AcDbLine
 10
49.56513000000004
 20
-1.164236999999995
 30
0.0
 11
50.79536
 21
-1.809352999999995
 31
0.0
  0
LINE
  5
2F16
330
BF7
100
AcDbEntity
  8
1
100
AcDbLine
 10
48.34340199999999
 20
-0.4854809999999965
 30
0.0
 11
49.56513000000004
 21
-1.164236999999995
 31
0.0
  0
LINE
  5
2F17
330
BF7
100
AcDbEntity
  8
1
100
AcDbLine
 10
47.11319699999999
 20
0.2171860000000016
 30
0.0
 11
48.34340199999999
 21
-0.4854809999999965
 31
0.0
  0
LINE
  5
2F18
330
BF7
100
AcDbEntity
  8
1
100
AcDbLine
 10
45.891469
 20
0.914576
 30
0.0
 11
47.11319699999999
 21
0.2171860000000016
 31
0.0
  0
LINE
  5
2F19
330
BF7
100
AcDbEntity
  8
1
100
AcDbLine
 10
44.66126299999999
 20
1.596707999999999
 30
0.0
 11
45.891469
 21
0.914576
 31
0.0
  0
LINE
  5
2F1A
330
BF7
100
AcDbEntity
  8
1
100
AcDbLine
 10
43.439535
 20
2.235250000000002
 30
0.0
 11
44.66126299999999
 21
1.596707999999999
 31
0.0
  0
LINE
  5
2F1B
330
BF7
100
AcDbEntity
  8
1
100
AcDbLine
 10
42.209329
 20
2.821048000000001
 30
0.0
 11
43.439535
 21
2.235250000000002
 31
0.0
  0
LINE
  5
2F1C
330
BF7
100
AcDbEntity
  8
1
100
AcDbLine
 10
40.987602
 20
3.329783999999998
 30
0.0
 11
42.209329
 21
2.821048000000001
 31
0.0
  0
LINE
  5
2F1D
330
BF7
100
AcDbEntity
  8
1
100
AcDbLine
 10
39.75737100000001
 20
3.754155000000004
 30
0.0
 11
40.987602
 21
3.329783999999998
 31
0.0
  0
LINE
  5
2F1E
330
BF7
100
AcDbEntity
  8
1
100
AcDbLine
 10
38.53564399999999
 20
4.076543000000004
 30
0.0
 11
39.75737100000001
 21
3.754155000000004
 31
0.0
  0
LINE
  5
2F1F
330
BF7
100
AcDbEntity
  8
1
100
AcDbLine
 10
37.30541400000003
 20
4.292328000000001
 30
0.0
 11
38.53564399999999
 21
4.076543000000004
 31
0.0
  0
LINE
  5
2F20
330
BF7
100
AcDbEntity
  8
1
100
AcDbLine
 10
36.083686
 20
4.392549000000006
 30
0.0
 11
37.30541400000003
 21
4.292328000000001
 31
0.0
  0
LINE
  5
2F21
330
BF7
100
AcDbEntity
  8
1
100
AcDbLine
 10
35.64611600000001
 20
4.386581000000003
 30
0.0
 11
36.083686
 21
4.392549000000006
 31
0.0
  0
LINE
  5
2F22
330
BF7
100
AcDbEntity
  8
1
100
AcDbLine
 10
12.28946300000001
 20
-3.994947999999995
 30
0.0
 11
14.91128700000001
 21
-3.768169
 31
0.0
  0
LINE
  5
2F23
330
BF7
100
AcDbEntity
  8
1
100
AcDbLine
 10
10.22642199999998
 20
-3.773128999999995
 30
0.0
 11
12.28946300000001
 21
-3.994947999999995
 31
0.0
  0
LINE
  5
2F24
330
BF7
100
AcDbEntity
  8
1
100
AcDbLine
 10
9.19744
 20
-3.543253999999997
 30
0.0
 11
10.22642199999998
 21
-3.773128999999995
 31
0.0
  0
LINE
  5
2F25
330
BF7
100
AcDbEntity
  8
1
100
AcDbLine
 10
8.940381999999997
 20
-3.474094999999998
 30
0.0
 11
9.19744
 21
-3.543253999999997
 31
0.0
  0
LINE
  5
2F26
330
BF7
100
AcDbEntity
  8
1
100
AcDbLine
 10
147.842972
 20
-3.874086999999999
 30
0.0
 11
149.636443
 21
-3.977524999999998
 31
0.0
  0
LINE
  5
2F27
330
BF7
100
AcDbEntity
  8
1
100
AcDbLine
 10
146.571853
 20
-3.636969
 30
0.0
 11
147.842972
 21
-3.874086999999999
 31
0.0
  0
LINE
  5
2F28
330
BF7
100
AcDbEntity
  8
1
100
AcDbLine
 10
145.336487
 20
-3.295539999999999
 30
0.0
 11
146.571853
 21
-3.636969
 31
0.0
  0
LINE
  5
2F29
330
BF7
100
AcDbEntity
  8
1
100
AcDbLine
 10
144.1010979999999
 20
-2.855213999999995
 30
0.0
 11
145.336487
 21
-3.295539999999999
 31
0.0
  0
LINE
  5
2F2A
330
BF7
100
AcDbEntity
  8
1
100
AcDbLine
 10
142.82993
 20
-2.311286999999996
 30
0.0
 11
144.1010979999999
 21
-2.855213999999995
 31
0.0
  0
LINE
  5
2F2B
330
BF7
100
AcDbEntity
  8
1
100
AcDbLine
 10
141.5588599999999
 20
-1.692011999999996
 30
0.0
 11
142.82993
 21
-2.311286999999996
 31
0.0
  0
LINE
  5
2F2C
330
BF7
100
AcDbEntity
  8
1
100
AcDbLine
 10
140.3235669999999
 20
-1.035307999999997
 30
0.0
 11
141.5588599999999
 21
-1.692011999999996
 31
0.0
  0
LINE
  5
2F2D
330
BF7
100
AcDbEntity
  8
1
100
AcDbLine
 10
139.088225
 20
-0.3437659999999987
 30
0.0
 11
140.3235669999999
 21
-1.035307999999997
 31
0.0
  0
LINE
  5
2F2E
330
BF7
100
AcDbEntity
  8
1
100
AcDbLine
 10
137.817034
 20
0.3837180000000018
 30
0.0
 11
139.088225
 21
-0.3437659999999987
 31
0.0
  0
LINE
  5
2F2F
330
BF7
100
AcDbEntity
  8
1
100
AcDbLine
 10
136.5459149999999
 20
1.105810000000001
 30
0.0
 11
137.817034
 21
0.3837180000000018
 31
0.0
  0
LINE
  5
2F30
330
BF7
100
AcDbEntity
  8
1
100
AcDbLine
 10
135.31067
 20
1.781676999999999
 30
0.0
 11
136.5459149999999
 21
1.105810000000001
 31
0.0
  0
LINE
  5
2F31
330
BF7
100
AcDbEntity
  8
1
100
AcDbLine
 10
134.075426
 20
2.412752
 30
0.0
 11
135.31067
 21
1.781676999999999
 31
0.0
  0
LINE
  5
2F32
330
BF7
100
AcDbEntity
  8
1
100
AcDbLine
 10
132.804355
 20
2.995988999999998
 30
0.0
 11
134.075426
 21
2.412752
 31
0.0
  0
LINE
  5
2F33
330
BF7
100
AcDbEntity
  8
1
100
AcDbLine
 10
131.53326
 20
3.495456000000004
 30
0.0
 11
132.804355
 21
2.995988999999998
 31
0.0
  0
LINE
  5
2F34
330
BF7
100
AcDbEntity
  8
1
100
AcDbLine
 10
130.298016
 20
3.885748000000003
 30
0.0
 11
131.53326
 21
3.495456000000004
 31
0.0
  0
LINE
  5
2F35
330
BF7
100
AcDbEntity
  8
1
100
AcDbLine
 10
129.06282
 20
4.171759000000001
 30
0.0
 11
130.298016
 21
3.885748000000003
 31
0.0
  0
LINE
  5
2F36
330
BF7
100
AcDbEntity
  8
1
100
AcDbLine
 10
127.791798
 20
4.347814000000003
 30
0.0
 11
129.06282
 21
4.171759000000001
 31
0.0
  0
LINE
  5
2F37
330
BF7
100
AcDbEntity
  8
1
100
AcDbLine
 10
126.520776
 20
4.399628000000001
 30
0.0
 11
127.791798
 21
4.347814000000003
 31
0.0
  0
LINE
  5
2F38
330
BF7
100
AcDbEntity
  8
1
100
AcDbLine
 10
125.28558
 20
4.328569000000004
 30
0.0
 11
126.520776
 21
4.399628000000001
 31
0.0
  0
LINE
  5
2F39
330
BF7
100
AcDbEntity
  8
1
100
AcDbLine
 10
124.050384
 20
4.140678000000001
 30
0.0
 11
125.28558
 21
4.328569000000004
 31
0.0
  0
LINE
  5
2F3A
330
BF7
100
AcDbEntity
  8
1
100
AcDbLine
 10
122.779289
 20
3.830165
 30
0.0
 11
124.050384
 21
4.140678000000001
 31
0.0
  0
LINE
  5
2F3B
330
BF7
100
AcDbEntity
  8
1
100
AcDbLine
 10
121.50817
 20
3.410932000000006
 30
0.0
 11
122.779289
 21
3.830165
 31
0.0
  0
LINE
  5
2F3C
330
BF7
100
AcDbEntity
  8
1
100
AcDbLine
 10
120.272901
 20
2.910541000000001
 30
0.0
 11
121.50817
 21
3.410932000000006
 31
0.0
  0
LINE
  5
2F3D
330
BF7
100
AcDbEntity
  8
1
100
AcDbLine
 10
119.738898
 20
2.66102
 30
0.0
 11
120.272901
 21
2.910541000000001
 31
0.0
  0
LINE
  5
2F3E
330
BF7
100
AcDbEntity
  8
1
100
AcDbLine
 10
101.456197
 20
-3.814860999999995
 30
0.0
 11
103.636587
 21
-3.986896999999999
 31
0.0
  0
LINE
  5
2F3F
330
BF7
100
AcDbEntity
  8
1
100
AcDbLine
 10
100.220904
 20
-3.550600999999995
 30
0.0
 11
101.456197
 21
-3.814860999999995
 31
0.0
  0
LINE
  5
2F40
330
BF7
100
AcDbEntity
  8
1
100
AcDbLine
 10
98.98561100000001
 20
-3.180171999999998
 30
0.0
 11
100.220904
 21
-3.550600999999995
 31
0.0
  0
LINE
  5
2F41
330
BF7
100
AcDbEntity
  8
1
100
AcDbLine
 10
97.714516
 20
-2.698607999999995
 30
0.0
 11
98.98561100000001
 21
-3.180171999999998
 31
0.0
  0
LINE
  5
2F42
330
BF7
100
AcDbEntity
  8
1
100
AcDbLine
 10
96.443445
 20
-2.130190999999999
 30
0.0
 11
97.714516
 21
-2.698607999999995
 31
0.0
  0
LINE
  5
2F43
330
BF7
100
AcDbEntity
  8
1
100
AcDbLine
 10
95.20820100000005
 20
-1.510206999999995
 30
0.0
 11
96.443445
 21
-2.130190999999999
 31
0.0
  0
LINE
  5
2F44
330
BF7
100
AcDbEntity
  8
1
100
AcDbLine
 10
93.97293199999996
 20
-0.8418729999999996
 30
0.0
 11
95.20820100000005
 21
-1.510206999999995
 31
0.0
  0
LINE
  5
2F45
330
BF7
100
AcDbEntity
  8
1
100
AcDbLine
 10
92.70183799999999
 20
-0.1234360000000016
 30
0.0
 11
93.97293199999996
 21
-0.8418729999999996
 31
0.0
  0
LINE
  5
2F46
330
BF7
100
AcDbEntity
  8
1
100
AcDbLine
 10
91.43076699999999
 20
0.6047560000000054
 30
0.0
 11
92.70183799999999
 21
-0.1234360000000016
 31
0.0
  0
LINE
  5
2F47
330
BF7
100
AcDbEntity
  8
1
100
AcDbLine
 10
90.19557099999998
 20
1.301038000000005
 30
0.0
 11
91.43076699999999
 21
0.6047560000000054
 31
0.0
  0
LINE
  5
2F48
330
BF7
100
AcDbEntity
  8
1
100
AcDbLine
 10
88.96039899999998
 20
1.966153000000002
 30
0.0
 11
90.19557099999998
 21
1.301038000000005
 31
0.0
  0
LINE
  5
2F49
330
BF7
100
AcDbEntity
  8
1
100
AcDbLine
 10
87.68928000000006
 20
2.597718000000003
 30
0.0
 11
88.96039899999998
 21
1.966153000000002
 31
0.0
  0
LINE
  5
2F4A
330
BF7
100
AcDbEntity
  8
1
100
AcDbLine
 10
86.418113
 20
3.157413999999998
 30
0.0
 11
87.68928000000006
 21
2.597718000000003
 31
0.0
  0
LINE
  5
2F4B
330
BF7
100
AcDbEntity
  8
1
100
AcDbLine
 10
85.18284399999997
 20
3.616051999999998
 30
0.0
 11
86.418113
 21
3.157413999999998
 31
0.0
  0
LINE
  5
2F4C
330
BF7
100
AcDbEntity
  8
1
100
AcDbLine
 10
83.94762400000002
 20
3.978079000000001
 30
0.0
 11
85.18284399999997
 21
3.616051999999998
 31
0.0
  0
LINE
  5
2F4D
330
BF7
100
AcDbEntity
  8
1
100
AcDbLine
 10
82.676578
 20
4.23808
 30
0.0
 11
83.94762400000002
 21
3.978079000000001
 31
0.0
  0
LINE
  5
2F4E
330
BF7
100
AcDbEntity
  8
1
100
AcDbLine
 10
81.40545800000003
 20
4.377072999999998
 30
0.0
 11
82.676578
 21
4.23808
 31
0.0
  0
LINE
  5
2F4F
330
BF7
100
AcDbEntity
  8
1
100
AcDbLine
 10
80.17011700000002
 20
4.391410000000004
 30
0.0
 11
81.40545800000003
 21
4.377072999999998
 31
0.0
  0
LINE
  5
2F50
330
BF7
100
AcDbEntity
  8
1
100
AcDbLine
 10
78.934776
 20
4.287150000000006
 30
0.0
 11
80.17011700000002
 21
4.391410000000004
 31
0.0
  0
LINE
  5
2F51
330
BF7
100
AcDbEntity
  8
1
100
AcDbLine
 10
77.663657
 20
4.058237000000004
 30
0.0
 11
78.934776
 21
4.287150000000006
 31
0.0
  0
LINE
  5
2F52
330
BF7
100
AcDbEntity
  8
1
100
AcDbLine
 10
76.392562
 20
3.713687000000001
 30
0.0
 11
77.663657
 21
4.058237000000004
 31
0.0
  0
LINE
  5
2F53
330
BF7
100
AcDbEntity
  8
1
100
AcDbLine
 10
75.15719700000002
 20
3.277209999999998
 30
0.0
 11
76.392562
 21
3.713687000000001
 31
0.0
  0
LINE
  5
2F54
330
BF7
100
AcDbEntity
  8
1
100
AcDbLine
 10
73.92175800000003
 20
2.753719999999995
 30
0.0
 11
75.15719700000002
 21
3.277209999999998
 31
0.0
  0
LINE
  5
2F55
330
BF7
100
AcDbEntity
  8
1
100
AcDbLine
 10
73.728577
 20
2.660324000000001
 30
0.0
 11
73.92175800000003
 21
2.753719999999995
 31
0.0
  0
LINE
  5
2F56
330
BF7
100
AcDbEntity
  8
1
100
AcDbLine
 10
56.34061299999999
 20
-3.934199999999997
 30
0.0
 11
57.63876499999998
 21
-3.998305999999999
 31
0.0
  0
LINE
  5
2F57
330
BF7
100
AcDbEntity
  8
1
100
AcDbLine
 10
55.10556200000002
 20
-3.751004999999998
 30
0.0
 11
56.34061299999999
 21
-3.934199999999997
 31
0.0
  0
LINE
  5
2F58
330
BF7
100
AcDbEntity
  8
1
100
AcDbLine
 10
53.87053599999997
 20
-3.455919999999995
 30
0.0
 11
55.10556200000002
 21
-3.751004999999998
 31
0.0
  0
LINE
  5
2F59
330
BF7
100
AcDbEntity
  8
1
100
AcDbLine
 10
52.59956200000002
 20
-3.043775999999997
 30
0.0
 11
53.87053599999997
 21
-3.455919999999995
 31
0.0
  0
LINE
  5
2F5A
330
BF7
100
AcDbEntity
  8
1
100
AcDbLine
 10
51.32844300000002
 20
-2.534666999999998
 30
0.0
 11
52.59956200000002
 21
-3.043775999999997
 31
0.0
  0
LINE
  5
2F5B
330
BF7
100
AcDbEntity
  8
1
100
AcDbLine
 10
50.093223
 20
-1.960623999999999
 30
0.0
 11
51.32844300000002
 21
-2.534666999999998
 31
0.0
  0
LINE
  5
2F5C
330
BF7
100
AcDbEntity
  8
1
100
AcDbLine
 10
48.85819700000002
 20
-1.325182999999998
 30
0.0
 11
50.093223
 21
-1.960623999999999
 31
0.0
  0
LINE
  5
2F5D
330
BF7
100
AcDbEntity
  8
1
100
AcDbLine
 10
47.587344
 20
-0.6260279999999982
 30
0.0
 11
48.85819700000002
 21
-1.325182999999998
 31
0.0
  0
LINE
  5
2F5E
330
BF7
100
AcDbEntity
  8
1
100
AcDbLine
 10
46.31637
 20
0.0976620000000033
 30
0.0
 11
47.587344
 21
-0.6260279999999982
 31
0.0
  0
LINE
  5
2F5F
330
BF7
100
AcDbEntity
  8
1
100
AcDbLine
 10
45.08110199999999
 20
0.8039260000000004
 30
0.0
 11
46.31637
 21
0.0976620000000033
 31
0.0
  0
LINE
  5
2F60
330
BF7
100
AcDbEntity
  8
1
100
AcDbLine
 10
43.84588199999998
 20
1.493192000000004
 30
0.0
 11
45.08110199999999
 21
0.8039260000000004
 31
0.0
  0
LINE
  5
2F61
330
BF7
100
AcDbEntity
  8
1
100
AcDbLine
 10
42.57476200000001
 20
2.164048000000001
 30
0.0
 11
43.84588199999998
 21
1.493192000000004
 31
0.0
  0
LINE
  5
2F62
330
BF7
100
AcDbEntity
  8
1
100
AcDbLine
 10
41.30364300000002
 20
2.776063000000004
 30
0.0
 11
42.57476200000001
 21
2.164048000000001
 31
0.0
  0
LINE
  5
2F63
330
BF7
100
AcDbEntity
  8
1
100
AcDbLine
 10
40.06830199999996
 20
3.296404000000001
 30
0.0
 11
41.30364300000002
 21
2.776063000000004
 31
0.0
  0
LINE
  5
2F64
330
BF7
100
AcDbEntity
  8
1
100
AcDbLine
 10
38.83298500000001
 20
3.729117000000001
 30
0.0
 11
40.06830199999996
 21
3.296404000000001
 31
0.0
  0
LINE
  5
2F65
330
BF7
100
AcDbEntity
  8
1
100
AcDbLine
 10
37.56208400000002
 20
4.069249000000001
 30
0.0
 11
38.83298500000001
 21
3.729117000000001
 31
0.0
  0
LINE
  5
2F66
330
BF7
100
AcDbEntity
  8
1
100
AcDbLine
 10
36.29113399999996
 20
4.293472000000003
 30
0.0
 11
37.56208400000002
 21
4.069249000000001
 31
0.0
  0
LINE
  5
2F67
330
BF7
100
AcDbEntity
  8
1
100
AcDbLine
 10
35.055914
 20
4.393088000000001
 30
0.0
 11
36.29113399999996
 21
4.293472000000003
 31
0.0
  0
LINE
  5
2F68
330
BF7
100
AcDbEntity
  8
1
100
AcDbLine
 10
33.82071800000004
 20
4.374085000000004
 30
0.0
 11
35.055914
 21
4.393088000000001
 31
0.0
  0
LINE
  5
2F69
330
BF7
100
AcDbEntity
  8
1
100
AcDbLine
 10
32.55943399999998
 20
4.231908999999998
 30
0.0
 11
33.82071800000004
 21
4.374085000000004
 31
0.0
  0
LINE
  5
2F6A
330
BF7
100
AcDbEntity
  8
1
100
AcDbLine
 10
31.29817400000002
 20
3.970742000000001
 30
0.0
 11
32.55943399999998
 21
4.231908999999998
 31
0.0
  0
LINE
  5
2F6B
330
BF7
100
AcDbEntity
  8
1
100
AcDbLine
 10
30.07181900000001
 20
3.609377999999998
 30
0.0
 11
31.29817400000002
 21
3.970742000000001
 31
0.0
  0
LINE
  5
2F6C
330
BF7
100
AcDbEntity
  8
1
100
AcDbLine
 10
28.84539200000001
 20
3.153013999999998
 30
0.0
 11
30.07181900000001
 21
3.609377999999998
 31
0.0
  0
LINE
  5
2F6D
330
BF7
100
AcDbEntity
  8
1
100
AcDbLine
 10
27.72663800000001
 20
2.660772000000001
 30
0.0
 11
28.84539200000001
 21
3.153013999999998
 31
0.0
  0
LINE
  5
2F6E
330
BF7
100
AcDbEntity
  8
1
100
AcDbLine
 10
0.5000060000000133
 20
-3.894527999999997
 30
0.0
 11
0.5000060000000133
 21
-3.999838999999997
 31
0.0
  0
LINE
  5
2F6F
330
BF7
100
AcDbEntity
  8
1
100
AcDbLine
 10
0.5000060000000133
 20
-3.583906999999995
 30
0.0
 11
0.5000060000000133
 21
-3.894527999999997
 31
0.0
  0
LINE
  5
2F70
330
BF7
100
AcDbEntity
  8
1
100
AcDbLine
 10
0.5000060000000133
 20
-3.083546999999998
 30
0.0
 11
0.5000060000000133
 21
-3.583906999999995
 31
0.0
  0
LINE
  5
2F71
330
BF7
100
AcDbEntity
  8
1
100
AcDbLine
 10
0.5000060000000133
 20
-2.418537999999998
 30
0.0
 11
0.5000060000000133
 21
-3.083546999999998
 31
0.0
  0
LINE
  5
2F72
330
BF7
100
AcDbEntity
  8
1
100
AcDbLine
 10
0.5000060000000133
 20
-1.622223999999999
 30
0.0
 11
0.5000060000000133
 21
-2.418537999999998
 31
0.0
  0
LINE
  5
2F73
330
BF7
100
AcDbEntity
  8
1
100
AcDbLine
 10
0.5000060000000133
 20
-0.7345359999999987
 30
0.0
 11
0.5000060000000133
 21
-1.622223999999999
 31
0.0
  0
LINE
  5
2F74
330
BF7
100
AcDbEntity
  8
1
100
AcDbLine
 10
0.5000060000000133
 20
0.2000209999999996
 30
0.0
 11
0.5000060000000133
 21
-0.7345359999999987
 31
0.0
  0
LINE
  5
2F75
330
BF7
100
AcDbEntity
  8
1
100
AcDbLine
 10
0.5000060000000133
 20
1.134581000000004
 30
0.0
 11
0.5000060000000133
 21
0.2000209999999996
 31
0.0
  0
LINE
  5
2F76
330
BF7
100
AcDbEntity
  8
1
100
AcDbLine
 10
0.5000060000000133
 20
2.022293000000004
 30
0.0
 11
0.5000060000000133
 21
1.134581000000004
 31
0.0
  0
LINE
  5
2F77
330
BF7
100
AcDbEntity
  8
1
100
AcDbLine
 10
0.5000060000000133
 20
2.818638000000003
 30
0.0
 11
0.5000060000000133
 21
2.022293000000004
 31
0.0
  0
LINE
  5
2F78
330
BF7
100
AcDbEntity
  8
1
100
AcDbLine
 10
0.5000060000000133
 20
3.483689999999998
 30
0.0
 11
0.5000060000000133
 21
2.818638000000003
 31
0.0
  0
LINE
  5
2F79
330
BF7
100
AcDbEntity
  8
1
100
AcDbLine
 10
0.5000060000000133
 20
3.984104000000001
 30
0.0
 11
0.5000060000000133
 21
3.483689999999998
 31
0.0
  0
LINE
  5
2F7A
330
BF7
100
AcDbEntity
  8
1
100
AcDbLine
 10
0.5000060000000133
 20
4.294787000000003
 30
0.0
 11
0.5000060000000133
 21
3.984104000000001
 31
0.0
  0
LINE
  5
2F7B
330
BF7
100
AcDbEntity
  8
1
100
AcDbLine
 10
0.5000060000000133
 20
4.400160999999998
 30
0.0
 11
0.5000060000000133
 21
4.294787000000003
 31
0.0
  0
LINE
  5
2F7C
330
BF7
100
AcDbEntity
  8
1
100
AcDbLine
 10
151.999114
 20
0.1778590000000015
 30
0.0
 11
151.970482
 21
0.0647400000000005
 31
0.0
  0
LINE
  5
2F7D
330
BF7
100
AcDbEntity
  8
1
100
AcDbLine
 10
151.970482
 20
0.0647400000000005
 30
0.0
 11
151.720909
 21
-1.188087999999995
 31
0.0
  0
LINE
  5
2F7E
330
BF7
100
AcDbEntity
  8
1
100
AcDbLine
 10
151.07572
 20
-2.977702999999998
 30
0.0
 11
150.728358
 21
-3.953277999999997
 31
0.0
  0
LINE
  5
2F7F
330
BF7
100
AcDbEntity
  8
1
100
AcDbLine
 10
151.472305
 20
-1.878300999999995
 30
0.0
 11
151.07572
 21
-2.977702999999998
 31
0.0
  0
LINE
  5
2F80
330
BF7
100
AcDbEntity
  8
1
100
AcDbLine
 10
151.720909
 20
-1.188087999999995
 30
0.0
 11
151.472305
 21
-1.878300999999995
 31
0.0
  0
LINE
  5
2F81
330
BF7
100
AcDbEntity
  8
1
100
AcDbLine
 10
150.728358
 20
-3.953277999999997
 30
0.0
 11
150.578197
 21
-3.999675999999995
 31
0.0
  0
LINE
  5
2F82
330
BF7
100
AcDbEntity
  8
1
100
AcDbLine
 10
150.6168579999999
 20
-3.792989999999998
 30
0.0
 11
150.610027
 21
-3.782631999999995
 31
0.0
  0
LINE
  5
2F83
330
BF7
100
AcDbEntity
  8
1
100
AcDbLine
 10
150.6171
 20
-3.827386999999998
 30
0.0
 11
150.6168579999999
 21
-3.792989999999998
 31
0.0
  0
LINE
  5
2F84
330
BF7
100
AcDbEntity
  8
1
100
AcDbLine
 10
150.609058
 20
-3.877618999999998
 30
0.0
 11
150.6171
 21
-3.827386999999998
 31
0.0
  0
LINE
  5
2F85
330
BF7
100
AcDbEntity
  8
1
100
AcDbLine
 10
150.580668
 20
-3.991092999999997
 30
0.0
 11
150.609058
 21
-3.877618999999998
 31
0.0
  0
LINE
  5
2F86
330
BF7
100
AcDbEntity
  8
1
100
AcDbLine
 10
150.578197
 20
-3.999675999999995
 30
0.0
 11
150.580668
 21
-3.991092999999997
 31
0.0
  0
LINE
  5
2F87
330
BF7
100
AcDbEntity
  8
1
100
AcDbLine
 10
150.53554
 20
-3.728975999999995
 30
0.0
 11
150.480771
 21
-3.624814999999998
 31
0.0
  0
LINE
  5
2F88
330
BF7
100
AcDbEntity
  8
1
100
AcDbLine
 10
150.610027
 20
-3.782631999999995
 30
0.0
 11
150.53554
 21
-3.728975999999995
 31
0.0
  0
LINE
  5
2F89
330
BF7
100
AcDbEntity
  8
1
100
AcDbLine
 10
151.3394399999999
 20
-1.472847999999999
 30
0.0
 11
151.358528
 21
-1.405113999999997
 31
0.0
  0
LINE
  5
2F8A
330
BF7
100
AcDbEntity
  8
1
100
AcDbLine
 10
151.271978
 20
-1.673038999999995
 30
0.0
 11
151.3394399999999
 21
-1.472847999999999
 31
0.0
  0
LINE
  5
2F8B
330
BF7
100
AcDbEntity
  8
1
100
AcDbLine
 10
151.188117
 20
-1.871597999999995
 30
0.0
 11
151.271978
 21
-1.673038999999995
 31
0.0
  0
LINE
  5
2F8C
330
BF7
100
AcDbEntity
  8
1
100
AcDbLine
 10
151.1281879999999
 20
-1.987632999999996
 30
0.0
 11
151.188117
 21
-1.871597999999995
 31
0.0
  0
LINE
  5
2F8D
330
BF7
100
AcDbEntity
  8
1
100
AcDbLine
 10
151.1281879999999
 20
-1.987632999999996
 30
0.0
 11
150.480771
 21
-3.624814999999998
 31
0.0
  0
LINE
  5
2F8E
330
BF7
100
AcDbEntity
  8
1
100
AcDbLine
 10
149.902972
 20
-2.169204999999998
 30
0.0
 11
149.8921439999999
 21
-1.987938999999995
 31
0.0
  0
LINE
  5
2F8F
330
BF7
100
AcDbEntity
  8
1
100
AcDbLine
 10
149.949457
 20
-2.541764999999998
 30
0.0
 11
149.902972
 21
-2.169204999999998
 31
0.0
  0
LINE
  5
2F90
330
BF7
100
AcDbEntity
  8
1
100
AcDbLine
 10
150.069168
 20
-3.004043999999998
 30
0.0
 11
149.949457
 21
-2.541764999999998
 31
0.0
  0
LINE
  5
2F91
330
BF7
100
AcDbEntity
  8
1
100
AcDbLine
 10
150.23786
 20
-3.353145999999998
 30
0.0
 11
150.069168
 21
-3.004043999999998
 31
0.0
  0
LINE
  5
2F92
330
BF7
100
AcDbEntity
  8
1
100
AcDbLine
 10
150.456669
 20
-3.605525999999997
 30
0.0
 11
150.23786
 21
-3.353145999999998
 31
0.0
  0
LINE
  5
2F93
330
BF7
100
AcDbEntity
  8
1
100
AcDbLine
 10
150.480771
 20
-3.624814999999998
 30
0.0
 11
150.456669
 21
-3.605525999999997
 31
0.0
  0
LINE
  5
2F94
330
BF7
100
AcDbEntity
  8
1
100
AcDbLine
 10
149.8921439999999
 20
-1.987938999999995
 30
0.0
 11
151.97489
 21
0.1742170000000023
 31
0.0
  0
LINE
  5
2F95
330
BF7
100
AcDbEntity
  8
1
100
AcDbLine
 10
151.97489
 20
0.1742170000000023
 30
0.0
 11
151.999114
 21
0.2224610000000027
 31
0.0
  0
LINE
  5
2F96
330
BF7
100
AcDbEntity
  8
1
100
AcDbLine
 10
151.999961
 20
0.2169380000000061
 30
0.0
 11
151.358528
 21
-1.405113999999997
 31
0.0
  0
LINE
  5
2F97
330
BF7
100
AcDbEntity
  8
1
100
AcDbLine
 10
151.0171
 20
-2.090394999999996
 30
0.0
 11
151.1281879999999
 21
-1.987632999999996
 31
0.0
  0
LINE
  5
2F98
330
BF7
100
AcDbEntity
  8
1
100
AcDbLine
 10
150.880069
 20
-2.137905999999995
 30
0.0
 11
151.0171
 21
-2.090394999999996
 31
0.0
  0
LINE
  5
2F99
330
BF7
100
AcDbEntity
  8
1
100
AcDbLine
 10
150.777943
 20
-2.100498999999999
 30
0.0
 11
150.880069
 21
-2.137905999999995
 31
0.0
  0
LINE
  5
2F9A
330
BF7
100
AcDbEntity
  8
1
100
AcDbLine
 10
150.713024
 20
-2.011126999999996
 30
0.0
 11
150.777943
 21
-2.100498999999999
 31
0.0
  0
LINE
  5
2F9B
330
BF7
100
AcDbEntity
  8
1
100
AcDbLine
 10
150.679306
 20
-1.893500999999995
 30
0.0
 11
150.713024
 21
-2.011126999999996
 31
0.0
  0
LINE
  5
2F9C
330
BF7
100
AcDbEntity
  8
1
100
AcDbLine
 10
150.671094
 20
-1.758398999999995
 30
0.0
 11
150.679306
 21
-1.893500999999995
 31
0.0
  0
LINE
  5
2F9D
330
BF7
100
AcDbEntity
  8
1
100
AcDbLine
 10
150.687106
 20
-1.604689999999995
 30
0.0
 11
150.671094
 21
-1.758398999999995
 31
0.0
  0
LINE
  5
2F9E
330
BF7
100
AcDbEntity
  8
1
100
AcDbLine
 10
150.732791
 20
-1.429612999999995
 30
0.0
 11
150.687106
 21
-1.604689999999995
 31
0.0
  0
LINE
  5
2F9F
330
BF7
100
AcDbEntity
  8
1
100
AcDbLine
 10
150.800301
 20
-1.272569999999997
 30
0.0
 11
150.732791
 21
-1.429612999999995
 31
0.0
  0
LINE
  5
2FA0
330
BF7
100
AcDbEntity
  8
1
100
AcDbLine
 10
150.896056
 20
-1.125592000000001
 30
0.0
 11
150.800301
 21
-1.272569999999997
 31
0.0
  0
LINE
  5
2FA1
330
BF7
100
AcDbEntity
  8
1
100
AcDbLine
 10
151.04796
 20
-0.9958489999999995
 30
0.0
 11
150.896056
 21
-1.125592000000001
 31
0.0
  0
LINE
  5
2FA2
330
BF7
100
AcDbEntity
  8
1
100
AcDbLine
 10
151.18068
 20
-0.9725209999999966
 30
0.0
 11
151.04796
 21
-0.9958489999999995
 31
0.0
  0
LINE
  5
2FA3
330
BF7
100
AcDbEntity
  8
1
100
AcDbLine
 10
151.27268
 20
-1.025064999999997
 30
0.0
 11
151.18068
 21
-0.9725209999999966
 31
0.0
  0
LINE
  5
2FA4
330
BF7
100
AcDbEntity
  8
1
100
AcDbLine
 10
151.33755
 20
-1.144212999999997
 30
0.0
 11
151.27268
 21
-1.025064999999997
 31
0.0
  0
LINE
  5
2FA5
330
BF7
100
AcDbEntity
  8
1
100
AcDbLine
 10
151.359812
 20
-1.266398999999998
 30
0.0
 11
151.33755
 21
-1.144212999999997
 31
0.0
  0
LINE
  5
2FA6
330
BF7
100
AcDbEntity
  8
1
100
AcDbLine
 10
151.358528
 20
-1.405113999999997
 30
0.0
 11
151.359812
 21
-1.266398999999998
 31
0.0
  0
LINE
  5
2FA7
330
BF7
100
AcDbEntity
  8
1
100
AcDbLine
 10
151.999114
 20
0.1778590000000015
 30
0.0
 11
151.999961
 21
0.1833820000000052
 31
0.0
  0
LINE
  5
2FA8
330
BF7
100
AcDbEntity
  8
1
100
AcDbLine
 10
151.999961
 20
0.1833820000000052
 30
0.0
 11
151.999961
 21
0.2169380000000061
 31
0.0
  0
LINE
  5
2FA9
330
BF7
100
AcDbEntity
  8
1
100
AcDbLine
 10
151.999114
 20
0.2224610000000027
 30
0.0
 11
151.999961
 21
0.2169380000000061
 31
0.0
  0
LINE
  5
2FAA
330
BF7
100
AcDbEntity
  8
1
100
AcDbLine
 10
151.999114
 20
0.2224610000000027
 30
0.0
 11
151.970482
 21
0.3355810000000048
 31
0.0
  0
LINE
  5
2FAB
330
BF7
100
AcDbEntity
  8
1
100
AcDbLine
 10
151.970482
 20
0.3355810000000048
 30
0.0
 11
151.720909
 21
1.588408
 31
0.0
  0
LINE
  5
2FAC
330
BF7
100
AcDbEntity
  8
1
100
AcDbLine
 10
151.07572
 20
3.378020999999998
 30
0.0
 11
150.728358
 21
4.353598000000001
 31
0.0
  0
LINE
  5
2FAD
330
BF7
100
AcDbEntity
  8
1
100
AcDbLine
 10
151.472305
 20
2.278620999999999
 30
0.0
 11
151.07572
 21
3.378020999999998
 31
0.0
  0
LINE
  5
2FAE
330
BF7
100
AcDbEntity
  8
1
100
AcDbLine
 10
151.720909
 20
1.588408
 30
0.0
 11
151.472305
 21
2.278620999999999
 31
0.0
  0
LINE
  5
2FAF
330
BF7
100
AcDbEntity
  8
1
100
AcDbLine
 10
150.728358
 20
4.353598000000001
 30
0.0
 11
150.578197
 21
4.399998
 31
0.0
  0
LINE
  5
2FB0
330
BF7
100
AcDbEntity
  8
SK1
100
AcDbLine
 10
-38.917464
 20
-0.6860290000000015
 30
0.0
 11
-38.917464
 21
-1.841130999999995
 31
0.0
  0
LINE
  5
2FB1
330
BF7
100
AcDbEntity
  8
SK1
100
AcDbLine
 10
-38.917464
 20
0.5208740000000029
 30
0.0
 11
-38.917464
 21
-0.6860290000000015
 31
0.0
  0
LINE
  5
2FB2
330
BF7
100
AcDbEntity
  8
1
100
AcDbLine
 10
21.23490699999999
 20
1.825134000000002
 30
0.0
 11
21.33309700000001
 21
1.772801999999996
 31
0.0
  0
LINE
  5
2FB3
330
BF7
100
AcDbEntity
  8
1
100
AcDbLine
 10
67.14208500000001
 20
1.871367000000002
 30
0.0
 11
67.21255100000002
 21
1.833860000000001
 31
0.0
  0
LINE
  5
2FB4
330
BF7
100
AcDbEntity
  8
1
100
AcDbLine
 10
67.27279399999999
 20
1.803350999999999
 30
0.0
 11
67.33301299999999
 21
1.772844000000002
 31
0.0
  0
LINE
  5
2FB5
330
BF7
100
AcDbEntity
  8
1
100
AcDbLine
 10
67.21255100000002
 20
1.833860000000001
 30
0.0
 11
67.27279399999999
 21
1.803350999999999
 31
0.0
  0
LINE
  5
2FB6
330
BF7
100
AcDbEntity
  8
1
100
AcDbLine
 10
113.023635
 20
1.936867000000003
 30
0.0
 11
113.332942
 21
1.772875
 31
0.0
  0
LINE
  5
2FB7
330
BF7
100
AcDbEntity
  8
1
100
AcDbLine
 10
112.710306
 20
2.097775999999999
 30
0.0
 11
113.023635
 21
1.936867000000003
 31
0.0
  0
LINE
  5
2FB8
330
BF7
100
AcDbEntity
  8
1
100
AcDbLine
 10
112.535074
 20
2.185568000000003
 30
0.0
 11
112.710306
 21
2.097775999999999
 31
0.0
  0
LINE
  5
2FB9
330
BF7
100
AcDbEntity
  8
1
100
AcDbLine
 10
43.97281200000001
 20
1.962783
 30
0.0
 11
44.24537299999999
 21
1.81853
 31
0.0
  0
LINE
  5
2FBA
330
BF7
100
AcDbEntity
  8
1
100
AcDbLine
 10
43.69705300000004
 20
2.104419000000003
 30
0.0
 11
43.97281200000001
 21
1.962783
 31
0.0
  0
LINE
  5
2FBB
330
BF7
100
AcDbEntity
  8
1
100
AcDbLine
 10
43.59999100000002
 20
2.153263000000006
 30
0.0
 11
43.69705300000004
 21
2.104419000000003
 31
0.0
  0
LINE
  5
2FBC
330
BF7
100
AcDbEntity
  8
1
100
AcDbLine
 10
44.28914399999999
 20
1.795714
 30
0.0
 11
44.33289100000002
 21
1.772899000000002
 31
0.0
  0
LINE
  5
2FBD
330
BF7
100
AcDbEntity
  8
1
100
AcDbLine
 10
44.24537299999999
 20
1.81853
 30
0.0
 11
44.28914399999999
 21
1.795714
 31
0.0
  0
LINE
  5
2FBE
330
BF7
100
AcDbEntity
  8
1
100
AcDbLine
 10
90.29570999999998
 20
1.791677999999999
 30
0.0
 11
90.33308700000004
 21
1.772795999999999
 31
0.0
  0
LINE
  5
2FBF
330
BF7
100
AcDbEntity
  8
1
100
AcDbLine
 10
90.25833400000001
 20
1.810560000000002
 30
0.0
 11
90.29570999999998
 21
1.791677999999999
 31
0.0
  0
LINE
  5
2FC0
330
BF7
100
AcDbEntity
  8
1
100
AcDbLine
 10
136.061715
 20
1.913543000000004
 30
0.0
 11
136.198261
 21
1.841132999999999
 31
0.0
  0
LINE
  5
2FC1
330
BF7
100
AcDbEntity
  8
1
100
AcDbLine
 10
136.265578
 20
1.807020999999996
 30
0.0
 11
136.332895
 21
1.772908
 31
0.0
  0
LINE
  5
2FC2
330
BF7
100
AcDbEntity
  8
1
100
AcDbLine
 10
136.198261
 20
1.841132999999999
 30
0.0
 11
136.265578
 21
1.807020999999996
 31
0.0
  0
LINE
  5
2FC3
330
BF7
100
AcDbEntity
  8
1
100
AcDbLine
 10
123.1637129999999
 20
0.9907280000000008
 30
0.0
 11
122.7932419999999
 21
1.188027000000001
 31
0.0
  0
LINE
  5
2FC4
330
BF7
100
AcDbEntity
  8
1
100
AcDbLine
 10
123.535808
 20
0.7967960000000005
 30
0.0
 11
123.1637129999999
 21
0.9907280000000008
 31
0.0
  0
LINE
  5
2FC5
330
BF7
100
AcDbEntity
  8
1
100
AcDbLine
 10
124.215296
 20
0.453712000000003
 30
0.0
 11
123.535808
 21
0.7967960000000005
 31
0.0
  0
LINE
  5
2FC6
330
BF7
100
AcDbEntity
  8
1
100
AcDbLine
 10
124.899266
 20
0.1202440000000031
 30
0.0
 11
124.215296
 21
0.453712000000003
 31
0.0
  0
LINE
  5
2FC7
330
BF7
100
AcDbEntity
  8
1
100
AcDbLine
 10
125.504316
 20
-0.1669049999999999
 30
0.0
 11
124.899266
 21
0.1202440000000031
 31
0.0
  0
LINE
  5
2FC8
330
BF7
100
AcDbEntity
  8
1
100
AcDbLine
 10
126.112128
 20
-0.4476629999999953
 30
0.0
 11
125.504316
 21
-0.1669049999999999
 31
0.0
  0
LINE
  5
2FC9
330
BF7
100
AcDbEntity
  8
1
100
AcDbLine
 10
126.6398089999999
 20
-0.6846389999999971
 30
0.0
 11
126.112128
 21
-0.4476629999999953
 31
0.0
  0
LINE
  5
2FCA
330
BF7
100
AcDbEntity
  8
1
100
AcDbLine
 10
127.169694
 20
-0.9164439999999947
 30
0.0
 11
126.6398089999999
 21
-0.6846389999999971
 31
0.0
  0
LINE
  5
2FCB
330
BF7
100
AcDbEntity
  8
1
100
AcDbLine
 10
77.08501000000002
 20
1.031313999999996
 30
0.0
 11
76.75823700000002
 21
1.205537000000001
 31
0.0
  0
LINE
  5
2FCC
330
BF7
100
AcDbEntity
  8
1
100
AcDbLine
 10
77.41306700000001
 20
0.8597009999999976
 30
0.0
 11
77.08501000000002
 21
1.031313999999996
 31
0.0
  0
LINE
  5
2FCD
330
BF7
100
AcDbEntity
  8
1
100
AcDbLine
 10
78.07426700000002
 20
0.5239779999999996
 30
0.0
 11
77.41306700000001
 21
0.8597009999999976
 31
0.0
  0
LINE
  5
2FCE
330
BF7
100
AcDbEntity
  8
1
100
AcDbLine
 10
78.739802
 20
0.1973410000000015
 30
0.0
 11
78.07426700000002
 21
0.5239779999999996
 31
0.0
  0
LINE
  5
2FCF
330
BF7
100
AcDbEntity
  8
1
100
AcDbLine
 10
79.37120800000002
 20
-0.1043300000000009
 30
0.0
 11
78.739802
 21
0.1973410000000015
 31
0.0
  0
LINE
  5
2FD0
330
BF7
100
AcDbEntity
  8
1
100
AcDbLine
 10
80.00559199999996
 20
-0.3990490000000015
 30
0.0
 11
79.37120800000002
 21
-0.1043300000000009
 31
0.0
  0
LINE
  5
2FD1
330
BF7
100
AcDbEntity
  8
1
100
AcDbLine
 10
80.60582200000004
 20
-0.669547999999999
 30
0.0
 11
80.00559199999996
 21
-0.3990490000000015
 31
0.0
  0
LINE
  5
2FD2
330
BF7
100
AcDbEntity
  8
1
100
AcDbLine
 10
81.20886200000002
 20
-0.9333429999999935
 30
0.0
 11
80.60582200000004
 21
-0.669547999999999
 31
0.0
  0
LINE
  5
2FD3
330
BF7
100
AcDbEntity
  8
1
100
AcDbLine
 10
31.15874399999999
 20
0.9932800000000019
 30
0.0
 11
30.790719
 21
1.189282999999998
 31
0.0
  0
LINE
  5
2FD4
330
BF7
100
AcDbEntity
  8
1
100
AcDbLine
 10
31.52836800000003
 20
0.8005899999999995
 30
0.0
 11
31.15874399999999
 21
0.9932800000000019
 31
0.0
  0
LINE
  5
2FD5
330
BF7
100
AcDbEntity
  8
1
100
AcDbLine
 10
32.20541
 20
0.4586019999999992
 30
0.0
 11
31.52836800000003
 21
0.8005899999999995
 31
0.0
  0
LINE
  5
2FD6
330
BF7
100
AcDbEntity
  8
1
100
AcDbLine
 10
32.88698199999999
 20
0.1261340000000004
 30
0.0
 11
32.20541
 21
0.4586019999999992
 31
0.0
  0
LINE
  5
2FD7
330
BF7
100
AcDbEntity
  8
1
100
AcDbLine
 10
33.491523
 20
-0.1609399999999965
 30
0.0
 11
32.88698199999999
 21
0.1261340000000004
 31
0.0
  0
LINE
  5
2FD8
330
BF7
100
AcDbEntity
  8
1
100
AcDbLine
 10
34.09882600000003
 20
-0.4416339999999971
 30
0.0
 11
33.491523
 21
-0.1609399999999965
 31
0.0
  0
LINE
  5
2FD9
330
BF7
100
AcDbEntity
  8
1
100
AcDbLine
 10
34.62793700000001
 20
-0.679388999999997
 30
0.0
 11
34.09882600000003
 21
-0.4416339999999971
 31
0.0
  0
LINE
  5
2FDA
330
BF7
100
AcDbEntity
  8
1
100
AcDbLine
 10
35.15925100000001
 20
-0.9119449999999956
 30
0.0
 11
34.62793700000001
 21
-0.679388999999997
 31
0.0
  0
LINE
  5
2FDB
330
BF7
100
AcDbEntity
  8
1
100
AcDbLine
 10
46.18309299999999
 20
0.1720430000000022
 30
0.0
 11
46.243216
 21
0.1396470000000001
 31
0.0
  0
LINE
  5
2FDC
330
BF7
100
AcDbEntity
  8
1
100
AcDbLine
 10
46.13956400000001
 20
0.1912580000000012
 30
0.0
 11
46.18309299999999
 21
0.1720430000000022
 31
0.0
  0
LINE
  5
2FDD
330
BF7
100
AcDbEntity
  8
1
100
AcDbLine
 10
46.11010899999999
 20
0.1963509999999999
 30
0.0
 11
46.13956400000001
 21
0.1912580000000012
 31
0.0
  0
LINE
  5
2FDE
330
BF7
100
AcDbEntity
  8
1
100
AcDbLine
 10
145.87003
 20
1.142319999999998
 30
0.0
 11
145.767033
 21
1.197413000000004
 31
0.0
  0
LINE
  5
2FDF
330
BF7
100
AcDbEntity
  8
1
100
AcDbLine
 10
145.973222
 20
1.087563000000002
 30
0.0
 11
145.87003
 21
1.142319999999998
 31
0.0
  0
LINE
  5
2FE0
330
BF7
100
AcDbEntity
  8
1
100
AcDbLine
 10
146.366924
 20
0.882677000000001
 30
0.0
 11
145.973222
 21
1.087563000000002
 31
0.0
  0
LINE
  5
2FE1
330
BF7
100
AcDbEntity
  8
1
100
AcDbLine
 10
146.76249
 20
0.6815350000000004
 30
0.0
 11
146.366924
 21
0.882677000000001
 31
0.0
  0
LINE
  5
2FE2
330
BF7
100
AcDbEntity
  8
1
100
AcDbLine
 10
147.076522
 20
0.5238500000000032
 30
0.0
 11
146.76249
 21
0.6815350000000004
 31
0.0
  0
LINE
  5
2FE3
330
BF7
100
AcDbEntity
  8
1
100
AcDbLine
 10
147.391207
 20
0.3676550000000027
 30
0.0
 11
147.076522
 21
0.5238500000000032
 31
0.0
  0
LINE
  5
2FE4
330
BF7
100
AcDbEntity
  8
1
100
AcDbLine
 10
147.716478
 20
0.208514000000001
 30
0.0
 11
147.391207
 21
0.3676550000000027
 31
0.0
  0
LINE
  5
2FE5
330
BF7
100
AcDbEntity
  8
1
100
AcDbLine
 10
148.042693
 20
0.0514110000000017
 30
0.0
 11
147.716478
 21
0.208514000000001
 31
0.0
  0
LINE
  5
2FE6
330
BF7
100
AcDbEntity
  8
1
100
AcDbLine
 10
148.4414339999999
 20
-0.1372009999999975
 30
0.0
 11
148.042693
 21
0.0514110000000017
 31
0.0
  0
LINE
  5
2FE7
330
BF7
100
AcDbEntity
  8
1
100
AcDbLine
 10
148.841554
 20
-0.3227129999999967
 30
0.0
 11
148.4414339999999
 21
-0.1372009999999975
 31
0.0
  0
LINE
  5
2FE8
330
BF7
100
AcDbEntity
  8
1
100
AcDbLine
 10
99.99560300000002
 20
1.077211000000001
 30
0.0
 11
99.80164600000001
 21
1.180778
 31
0.0
  0
LINE
  5
2FE9
330
BF7
100
AcDbEntity
  8
1
100
AcDbLine
 10
100.190067
 20
0.9747250000000027
 30
0.0
 11
99.99560300000002
 21
1.077211000000001
 31
0.0
  0
LINE
  5
2FEA
330
BF7
100
AcDbEntity
  8
1
100
AcDbLine
 10
100.643383
 20
0.7413209999999994
 30
0.0
 11
100.190067
 21
0.9747250000000027
 31
0.0
  0
LINE
  5
2FEB
330
BF7
100
AcDbEntity
  8
1
100
AcDbLine
 10
101.098951
 20
0.5125560000000036
 30
0.0
 11
100.643383
 21
0.7413209999999994
 31
0.0
  0
LINE
  5
2FEC
330
BF7
100
AcDbEntity
  8
1
100
AcDbLine
 10
101.423229
 20
0.3520490000000045
 30
0.0
 11
101.098951
 21
0.5125560000000036
 31
0.0
  0
LINE
  5
2FED
330
BF7
100
AcDbEntity
  8
1
100
AcDbLine
 10
101.748306
 20
0.1932140000000011
 30
0.0
 11
101.423229
 21
0.3520490000000045
 31
0.0
  0
LINE
  5
2FEE
330
BF7
100
AcDbEntity
  8
1
100
AcDbLine
 10
102.066431
 20
0.0400710000000011
 30
0.0
 11
101.748306
 21
0.1932140000000011
 31
0.0
  0
LINE
  5
2FEF
330
BF7
100
AcDbEntity
  8
1
100
AcDbLine
 10
102.385403
 20
-0.1112159999999989
 30
0.0
 11
102.066431
 21
0.0400710000000011
 31
0.0
  0
LINE
  5
2FF0
330
BF7
100
AcDbEntity
  8
1
100
AcDbLine
 10
102.792646
 20
-0.3011629999999954
 30
0.0
 11
102.385403
 21
-0.1112159999999989
 31
0.0
  0
LINE
  5
2FF1
330
BF7
100
AcDbEntity
  8
1
100
AcDbLine
 10
103.201148
 20
-0.4880610000000021
 30
0.0
 11
102.792646
 21
-0.3011629999999954
 31
0.0
  0
LINE
  5
2FF2
330
BF7
100
AcDbEntity
  8
1
100
AcDbLine
 10
103.699616
 20
-0.7110939999999957
 30
0.0
 11
103.201148
 21
-0.4880610000000021
 31
0.0
  0
LINE
  5
2FF3
330
BF7
100
AcDbEntity
  8
1
100
AcDbLine
 10
104.199973
 20
-0.9295039999999975
 30
0.0
 11
103.699616
 21
-0.7110939999999957
 31
0.0
  0
LINE
  5
2FF4
330
BF7
100
AcDbEntity
  8
1
100
AcDbLine
 10
53.99550400000001
 20
1.077244000000002
 30
0.0
 11
53.80217800000003
 21
1.180487
 31
0.0
  0
LINE
  5
2FF5
330
BF7
100
AcDbEntity
  8
1
100
AcDbLine
 10
54.18938799999998
 20
0.9750699999999987
 30
0.0
 11
53.99550400000001
 21
1.077244000000002
 31
0.0
  0
LINE
  5
2FF6
330
BF7
100
AcDbEntity
  8
1
100
AcDbLine
 10
54.64275100000001
 20
0.7416240000000017
 30
0.0
 11
54.18938799999998
 21
0.9750699999999987
 31
0.0
  0
LINE
  5
2FF7
330
BF7
100
AcDbEntity
  8
1
100
AcDbLine
 10
55.09841600000001
 20
0.5128079999999997
 30
0.0
 11
54.64275100000001
 21
0.7416240000000017
 31
0.0
  0
LINE
  5
2FF8
330
BF7
100
AcDbEntity
  8
1
100
AcDbLine
 10
55.42346899999998
 20
0.3519160000000028
 30
0.0
 11
55.09841600000001
 21
0.5128079999999997
 31
0.0
  0
LINE
  5
2FF9
330
BF7
100
AcDbEntity
  8
1
100
AcDbLine
 10
55.74932100000001
 20
0.1927050000000037
 30
0.0
 11
55.42346899999998
 21
0.3519160000000028
 31
0.0
  0
LINE
  5
2FFA
330
BF7
100
AcDbEntity
  8
1
100
AcDbLine
 10
56.06759199999999
 20
0.0394900000000007
 30
0.0
 11
55.74932100000001
 21
0.1927050000000037
 31
0.0
  0
LINE
  5
2FFB
330
BF7
100
AcDbEntity
  8
1
100
AcDbLine
 10
56.38673399999999
 20
-0.1118610000000011
 30
0.0
 11
56.06759199999999
 21
0.0394900000000007
 31
0.0
  0
LINE
  5
2FFC
330
BF7
100
AcDbEntity
  8
1
100
AcDbLine
 10
56.79242600000002
 20
-0.3010809999999964
 30
0.0
 11
56.38673399999999
 21
-0.1118610000000011
 31
0.0
  0
LINE
  5
2FFD
330
BF7
100
AcDbEntity
  8
1
100
AcDbLine
 10
57.19940199999999
 20
-0.4872800000000022
 30
0.0
 11
56.79242600000002
 21
-0.3010809999999964
 31
0.0
  0
LINE
  5
2FFE
330
BF7
100
AcDbEntity
  8
1
100
AcDbLine
 10
57.69467299999998
 20
-0.7089139999999965
 30
0.0
 11
57.19940199999999
 21
-0.4872800000000022
 31
0.0
  0
LINE
  5
2FFF
330
BF7
100
AcDbEntity
  8
1
100
AcDbLine
 10
58.19180800000001
 20
-0.9259879999999968
 30
0.0
 11
57.69467299999998
 21
-0.7089139999999965
 31
0.0
  0
LINE
  5
3000
330
BF7
100
AcDbEntity
  8
1
100
AcDbLine
 10
21.11323400000001
 20
4.190157000000001
 30
0.0
 11
14.90938500000001
 21
4.190157000000001
 31
0.0
  0
LINE
  5
3001
330
BF7
100
AcDbEntity
  8
1
100
AcDbLine
 10
67.11352600000004
 20
4.190144999999995
 30
0.0
 11
60.92071099999998
 21
4.190144999999995
 31
0.0
  0
LINE
  5
3002
330
BF7
100
AcDbEntity
  8
1
100
AcDbLine
 10
113.113963
 20
4.190148000000004
 30
0.0
 11
106.8907
 21
4.190148000000004
 31
0.0
  0
LINE
  5
3003
330
BF7
100
AcDbEntity
  8
1
100
AcDbLine
 10
132.0819189999999
 20
-3.789837999999998
 30
0.0
 11
136.113552
 21
-3.789837999999998
 31
0.0
  0
LINE
  5
3004
330
BF7
100
AcDbEntity
  8
1
100
AcDbLine
 10
128.050261
 20
-3.789837999999998
 30
0.0
 11
132.0819189999999
 21
-3.789837999999998
 31
0.0
  0
LINE
  5
3005
330
BF7
100
AcDbEntity
  8
1
100
AcDbLine
 10
86.08169900000001
 20
-3.789839999999998
 30
0.0
 11
90.11318799999996
 21
-3.789839999999998
 31
0.0
  0
LINE
  5
3006
330
BF7
100
AcDbEntity
  8
1
100
AcDbLine
 10
82.05023499999999
 20
-3.789839999999998
 30
0.0
 11
86.08169900000001
 21
-3.789839999999998
 31
0.0
  0
LINE
  5
3007
330
BF7
100
AcDbEntity
  8
1
100
AcDbLine
 10
40.08203700000001
 20
-3.789816999999995
 30
0.0
 11
44.11376699999999
 21
-3.789816999999995
 31
0.0
  0
LINE
  5
3008
330
BF7
100
AcDbEntity
  8
1
100
AcDbLine
 10
36.05030600000001
 20
-3.789816999999995
 30
0.0
 11
40.08203700000001
 21
-3.789816999999995
 31
0.0
  0
LINE
  5
3009
330
BF7
100
AcDbEntity
  8
1
100
AcDbLine
 10
44.11376699999999
 20
4.190136000000006
 30
0.0
 11
37.88815400000002
 21
4.190136000000006
 31
0.0
  0
LINE
  5
300A
330
BF7
100
AcDbEntity
  8
1
100
AcDbLine
 10
90.11318799999996
 20
4.190160000000001
 30
0.0
 11
83.963418
 21
4.190160000000001
 31
0.0
  0
LINE
  5
300B
330
BF7
100
AcDbEntity
  8
1
100
AcDbLine
 10
136.113552
 20
4.190157000000001
 30
0.0
 11
129.894116
 21
4.190157000000001
 31
0.0
  0
LINE
  5
300C
330
BF7
100
AcDbEntity
  8
1
100
AcDbLine
 10
109.082136
 20
-3.789827999999998
 30
0.0
 11
113.113963
 21
-3.789827999999998
 31
0.0
  0
LINE
  5
300D
330
BF7
100
AcDbEntity
  8
1
100
AcDbLine
 10
105.050284
 20
-3.789827999999998
 30
0.0
 11
109.082136
 21
-3.789827999999998
 31
0.0
  0
LINE
  5
300E
330
BF7
100
AcDbEntity
  8
1
100
AcDbLine
 10
63.081819
 20
-3.789824999999998
 30
0.0
 11
67.11352600000004
 21
-3.789824999999998
 31
0.0
  0
LINE
  5
300F
330
BF7
100
AcDbEntity
  8
1
100
AcDbLine
 10
59.05011299999998
 20
-3.789824999999998
 30
0.0
 11
63.081819
 21
-3.789824999999998
 31
0.0
  0
LINE
  5
3010
330
BF7
100
AcDbEntity
  8
1
100
AcDbLine
 10
17.08173300000001
 20
-3.789835
 30
0.0
 11
21.11323400000001
 21
-3.789835
 31
0.0
  0
LINE
  5
3011
330
BF7
100
AcDbEntity
  8
1
100
AcDbLine
 10
13.05023300000002
 20
-3.789835
 30
0.0
 11
17.08173300000001
 21
-3.789835
 31
0.0
  0
LINE
  5
3012
330
BF7
100
AcDbEntity
  8
SK1
100
AcDbLine
 10
-39.99999299999999
 20
-4.174838999999998
 30
0.0
 11
-38.917464
 21
-4.799841
 31
0.0
  0
LINE
  5
3013
330
BF7
100
AcDbEntity
  8
SK1
100
AcDbLine
 10
-38.917464
 20
5.200161000000004
 30
0.0
 11
-39.99999299999999
 21
4.575159000000001
 31
0.0
  0
LINE
  5
3014
330
BF7
100
AcDbEntity
  8
1
100
AcDbLine
 10
0.5000060000000133
 20
-3.999838999999997
 30
0.0
 11
12.64159699999999
 21
-3.999838999999997
 31
0.0
  0
LINE
  5
3015
330
BF7
100
AcDbEntity
  8
1
100
AcDbLine
 10
34.63728700000002
 20
-3.999838999999997
 30
0.0
 11
35.64306400000001
 21
-3.999838999999997
 31
0.0
  0
LINE
  5
3016
330
BF7
100
AcDbEntity
  8
1
100
AcDbLine
 10
57.6369
 20
-3.999838999999997
 30
0.0
 11
58.64265300000003
 21
-3.999838999999997
 31
0.0
  0
LINE
  5
3017
330
BF7
100
AcDbEntity
  8
1
100
AcDbLine
 10
80.63706999999999
 20
-3.999838999999997
 30
0.0
 11
81.64267800000004
 21
-3.999838999999997
 31
0.0
  0
LINE
  5
3018
330
BF7
100
AcDbEntity
  8
1
100
AcDbLine
 10
103.637701
 20
-3.999838999999997
 30
0.0
 11
104.643163
 21
-3.999838999999997
 31
0.0
  0
LINE
  5
3019
330
BF7
100
AcDbEntity
  8
1
100
AcDbLine
 10
126.637096
 20
-3.999838999999997
 30
0.0
 11
127.642921
 21
-3.999838999999997
 31
0.0
  0
LINE
  5
301A
330
BF7
100
AcDbEntity
  8
1
100
AcDbLine
 10
149.636661
 20
-3.999838999999997
 30
0.0
 11
150.5856819999999
 21
-3.999838999999997
 31
0.0
  0
LINE
  5
301B
330
BF7
100
AcDbEntity
  8
1
100
AcDbLine
 10
150.581298
 20
4.400160999999998
 30
0.0
 11
149.636661
 21
4.400160999999998
 31
0.0
  0
LINE
  5
301C
330
BF7
100
AcDbEntity
  8
1
100
AcDbLine
 10
127.642921
 20
4.400160999999998
 30
0.0
 11
126.637096
 21
4.400160999999998
 31
0.0
  0
LINE
  5
301D
330
BF7
100
AcDbEntity
  8
1
100
AcDbLine
 10
104.643163
 20
4.400160999999998
 30
0.0
 11
103.637701
 21
4.400160999999998
 31
0.0
  0
LINE
  5
301E
330
BF7
100
AcDbEntity
  8
1
100
AcDbLine
 10
81.64267800000004
 20
4.400160999999998
 30
0.0
 11
80.63706999999999
 21
4.400160999999998
 31
0.0
  0
LINE
  5
301F
330
BF7
100
AcDbEntity
  8
1
100
AcDbLine
 10
58.64265300000003
 20
4.400160999999998
 30
0.0
 11
57.6369
 21
4.400160999999998
 31
0.0
  0
LINE
  5
3020
330
BF7
100
AcDbEntity
  8
1
100
AcDbLine
 10
35.64306400000001
 20
4.400160999999998
 30
0.0
 11
34.63728700000002
 21
4.400160999999998
 31
0.0
  0
LINE
  5
3021
330
BF7
100
AcDbEntity
  8
1
100
AcDbLine
 10
12.64159699999999
 20
4.400160999999998
 30
0.0
 11
0.5000060000000133
 21
4.400160999999998
 31
0.0
  0
LINE
  5
3022
330
BF7
100
AcDbEntity
  8
SK1
100
AcDbLine
 10
0.0
 20
5.200161000000004
 30
0.0
 11
-38.917464
 21
5.200161000000004
 31
0.0
  0
LINE
  5
3023
330
BF7
100
AcDbEntity
  8
SK1
100
AcDbLine
 10
-38.917464
 20
-4.799841
 30
0.0
 11
0.0
 21
-4.799841
 31
0.0
  0
LINE
  5
3026
330
BF7
100
AcDbEntity
  8
SK4
100
AcDbLine
 10
-62.45687595022523
 20
0.5089110000000089
 30
0.0
 11
173.5954649016308
 21
0.5590800000000016
 31
0.0
  0
LINE
  5
3027
330
BF7
100
AcDbEntity
  8
1
100
AcDbLine
 10
0.0
 20
5.200161000000004
 30
0.0
 11
0.0
 21
-4.799841
 31
0.0
  0
DIMENSION
  5
3028
330
BF7
100
AcDbEntity
  8
SK2
100
AcDbDimension
  2
*D2
 10
-39.99999299999999
 20
-44.15283652761746
 30
0.0
 11
55.99998400000001
 21
-40.35283652761747
 31
0.0
 70
    32
 71
     5
 42
191.999954
  3
SANDVIK_DIM
100
AcDbAlignedDimension
 13
151.999961
 23
0.2001600000000057
 33
0.0
 14
-39.99999299999999
 24
-4.174838999999998
 34
0.0
100
AcDbRotatedDimension
1001
ACAD
1000
DSTYLE
1002
{
1070
    40
1040
1.0
1002
}
  0
DIMENSION
  5
3035
330
BF7
100
AcDbEntity
  8
2
100
AcDbDimension
  2
*D3
 10
-0.0000000000000019
 20
-30.8377557213866
 30
0.0
 11
75.9999805
 21
-27.0377557213866
 31
0.0
 70
    32
 71
     5
 42
151.999961
  3
SANDVIK_DIM
100
AcDbAlignedDimension
 13
151.999961
 23
0.2001600000000057
 33
0.0
 14
0.0
 24
0.5089110000000014
 34
0.0
100
AcDbRotatedDimension
1001
ACAD
1000
DSTYLE
1002
{
1070
    40
1040
1.0
1002
}
  0
DIMENSION
  5
3042
330
BF7
100
AcDbEntity
  8
SK2
100
AcDbDimension
  2
*D4
 10
-39.99999299999999
 20
-30.84590709086058
 30
0.0
 11
-19.99999649999999
 21
-27.04590709086058
 31
0.0
 70
    32
 71
     5
 42
39.99999299999999
  3
SANDVIK_DIM
100
AcDbAlignedDimension
 13
0.0
 23
-1.497304999999998
 33
0.0
 14
-39.99999299999999
 24
-4.174838999999998
 34
0.0
100
AcDbRotatedDimension
1001
ACAD
1000
DSTYLE
1002
{
1070
    40
1040
1.0
1002
}
  0
DIMENSION
  5
304F
330
BF7
100
AcDbEntity
  8
2
100
AcDbDimension
  2
*D5
 10
151.999961
 20
-17.8187978606933
 30
0.0
 11
78.98551750000001
 21
-14.0187978606933
 31
0.0
 70
    32
 71
     5
 42
146.028887
  3
SANDVIK_DIM
100
AcDbAlignedDimension
 13
5.971074000000008
 23
3.369402499999998
 33
0.0
 14
151.999961
 24
0.1833820000000052
 34
0.0
100
AcDbRotatedDimension
1001
ACAD
1000
DSTYLE
1002
{
1070
    40
1040
1.0
1002
}
  0
DIMENSION
  5
3065
330
BF7
100
AcDbEntity
  8
SK2
100
AcDbDimension
  2
*D6
 10
51.20479269061675
 20
13.25664336777032
 30
0.0
 11
101.6023768453084
 21
17.05664336777032
 31
0.0
 70
    32
 71
     5
 42
100.7951683093832
  3
SANDVIK_DIM
100
AcDbAlignedDimension
 13
151.999961
 23
0.2001600000000057
 33
0.0
 14
51.20479269061675
 24
-0.7867774261343782
 34
0.0
100
AcDbRotatedDimension
1001
ACAD
1000
DSTYLE
1002
{
1070
    40
1040
1.0
1002
}
  0
DIMENSION
  5
3072
330
BF7
100
AcDbEntity
  8
2
100
AcDbDimension
  2
*D7
 10
164.0819095005981
 20
4.399997999999995
 30
0.0
 11
159.6636766254544
 21
-12.40043466432377
 31
0.0
 70
   160
  1
%%C <>
 71
     5
 42
8.399673999999997
  3
SANDVIK_DIM
100
AcDbAlignedDimension
 13
150.578197
 23
-3.999675999999995
 33
0.0
 14
150.578197
 24
4.399998
 34
0.0
 50
90.0
100
AcDbRotatedDimension
1001
ACAD
1000
DSTYLE
1002
{
1070
    40
1040
1.0
1002
}
  0
DIMENSION
  5
3080
330
BF7
100
AcDbEntity
  8
SK2
100
AcDbDimension
  2
*D8
 10
-48.56819380948445
 20
-4.799840999999998
 30
0.0
 11
-52.23773844213575
 21
-14.20299368841028
 31
0.0
 70
   160
  1
%%C <>
 71
     5
 42
10.000002
  3
SANDVIK_DIM
100
AcDbAlignedDimension
 13
-38.917464
 23
5.200161000000004
 33
0.0
 14
-38.917464
 24
-4.799841
 34
0.0
 50
90.0
100
AcDbRotatedDimension
1001
ACAD
1000
DSTYLE
1002
{
1070
    40
1040
1.0
1002
}
  0
ENDSEC
  0
SECTION
  2
OBJECTS
  0
DICTIONARY
  5
BE3
330
0
100
AcDbDictionary
281
     1
  3
ACAD_CIP_PREVIOUS_PRODUCT_INFO
350
31B2
  3
ACAD_COLOR
350
BF2
  3
ACAD_DETAILVIEWSTYLE
350
31AF
  3
ACAD_GROUP
350
BE4
  3
ACAD_LAYOUT
350
BF0
  3
ACAD_MATERIAL
350
BF1
  3
ACAD_MLEADERSTYLE
350
31AA
  3
ACAD_MLINESTYLE
350
BED
  3
ACAD_PLOTSETTINGS
350
BEF
  3
ACAD_PLOTSTYLENAME
350
BE5
  3
ACAD_SCALELIST
350
3198
  3
ACAD_SECTIONVIEWSTYLE
350
31AC
  3
ACAD_TABLESTYLE
350
3196
  3
ACAD_VISUALSTYLE
350
317D
  3
ACDB_RECOMPOSE_DATA
350
3214
  3
AcDbVariableDictionary
350
3207
  3
ASE_INDEX_DICTIONARY
350
3204
  3
DWGPROPS
350
3215
  0
DICTIONARY
  5
31B5
330
BE7
100
AcDbDictionary
280
     1
281
     1
  3
ADSK_XREC_LAYER_RECONCILED
360
31B6
  0
DICTIONARY
  5
31B7
330
BFB
100
AcDbDictionary
280
     1
281
     1
  3
ADSK_XREC_LAYER_RECONCILED
360
31B8
  0
DICTIONARY
  5
31B9
330
C00
100
AcDbDictionary
280
     1
281
     1
  3
ADSK_XREC_LAYER_RECONCILED
360
31BA
  0
DICTIONARY
  5
31BB
330
C01
100
AcDbDictionary
280
     1
281
     1
  3
ADSK_XREC_LAYER_RECONCILED
360
31BC
  0
DICTIONARY
  5
31BD
330
C02
100
AcDbDictionary
280
     1
281
     1
  3
ADSK_XREC_LAYER_RECONCILED
360
31BE
  0
DICTIONARY
  5
31BF
330
C03
100
AcDbDictionary
280
     1
281
     1
  3
ADSK_XREC_LAYER_RECONCILED
360
31C0
  0
DICTIONARY
  5
31C1
330
C04
100
AcDbDictionary
280
     1
281
     1
  3
ADSK_XREC_LAYER_RECONCILED
360
31C2
  0
DICTIONARY
  5
31C3
330
C05
100
AcDbDictionary
280
     1
281
     1
  3
ADSK_XREC_LAYER_RECONCILED
360
31C4
  0
DICTIONARY
  5
31C5
330
C06
100
AcDbDictionary
280
     1
281
     1
  3
ADSK_XREC_LAYER_RECONCILED
360
31C6
  0
DICTIONARY
  5
31C7
330
C07
100
AcDbDictionary
280
     1
281
     1
  3
ADSK_XREC_LAYER_RECONCILED
360
31C8
  0
DICTIONARY
  5
31C9
330
C08
100
AcDbDictionary
280
     1
281
     1
  3
ADSK_XREC_LAYER_RECONCILED
360
31CA
  0
DICTIONARY
  5
31CB
330
C09
100
AcDbDictionary
280
     1
281
     1
  3
ADSK_XREC_LAYER_RECONCILED
360
31CC
  0
DICTIONARY
  5
31CD
330
C0A
100
AcDbDictionary
280
     1
281
     1
  3
ADSK_XREC_LAYER_RECONCILED
360
31CE
  0
DICTIONARY
  5
31CF
330
C0B
100
AcDbDictionary
280
     1
281
     1
  3
ADSK_XREC_LAYER_RECONCILED
360
31D0
  0
DICTIONARY
  5
31D1
330
C0C
100
AcDbDictionary
280
     1
281
     1
  3
ADSK_XREC_LAYER_RECONCILED
360
31D2
  0
DICTIONARY
  5
31D3
330
C0D
100
AcDbDictionary
280
     1
281
     1
  3
ADSK_XREC_LAYER_RECONCILED
360
31D4
  0
DICTIONARY
  5
31D5
330
C0E
100
AcDbDictionary
280
     1
281
     1
  3
ADSK_XREC_LAYER_RECONCILED
360
31D6
  0
DICTIONARY
  5
31D7
330
C0F
100
AcDbDictionary
280
     1
281
     1
  3
ADSK_XREC_LAYER_RECONCILED
360
31D8
  0
DICTIONARY
  5
31D9
330
C10
100
AcDbDictionary
280
     1
281
     1
  3
ADSK_XREC_LAYER_RECONCILED
360
31DA
  0
DICTIONARY
  5
31DB
330
C11
100
AcDbDictionary
280
     1
281
     1
  3
ADSK_XREC_LAYER_RECONCILED
360
31DC
  0
DICTIONARY
  5
31DD
330
C12
100
AcDbDictionary
280
     1
281
     1
  3
ADSK_XREC_LAYER_RECONCILED
360
31DE
  0
DICTIONARY
  5
31DF
330
C13
100
AcDbDictionary
280
     1
281
     1
  3
ADSK_XREC_LAYER_RECONCILED
360
31E0
  0
DICTIONARY
  5
31E1
330
C14
100
AcDbDictionary
280
     1
281
     1
  3
ADSK_XREC_LAYER_RECONCILED
360
31E2
  0
DICTIONARY
  5
31E3
330
C15
100
AcDbDictionary
280
     1
281
     1
  3
ADSK_XREC_LAYER_RECONCILED
360
31E4
  0
DICTIONARY
  5
31E5
330
C16
100
AcDbDictionary
280
     1
281
     1
  3
ADSK_XREC_LAYER_RECONCILED
360
31E6
  0
DICTIONARY
  5
31E7
330
C17
100
AcDbDictionary
280
     1
281
     1
  3
ADSK_XREC_LAYER_RECONCILED
360
31E8
  0
DICTIONARY
  5
31E9
330
C18
100
AcDbDictionary
280
     1
281
     1
  3
ADSK_XREC_LAYER_RECONCILED
360
31EA
  0
DICTIONARY
  5
31EB
330
C19
100
AcDbDictionary
280
     1
281
     1
  3
ADSK_XREC_LAYER_RECONCILED
360
31EC
  0
DICTIONARY
  5
31ED
330
C1A
100
AcDbDictionary
280
     1
281
     1
  3
ADSK_XREC_LAYER_RECONCILED
360
31EE
  0
DICTIONARY
  5
31EF
330
C1B
100
AcDbDictionary
280
     1
281
     1
  3
ADSK_XREC_LAYER_RECONCILED
360
31F0
  0
DICTIONARY
  5
31F1
330
C1C
100
AcDbDictionary
280
     1
281
     1
  3
ADSK_XREC_LAYER_RECONCILED
360
31F2
  0
DICTIONARY
  5
31F3
330
C1D
100
AcDbDictionary
280
     1
281
     1
  3
ADSK_XREC_LAYER_RECONCILED
360
31F4
  0
DICTIONARY
  5
31F5
330
C1E
100
AcDbDictionary
280
     1
281
     1
  3
ADSK_XREC_LAYER_RECONCILED
360
31F6
  0
DICTIONARY
  5
31F7
330
C1F
100
AcDbDictionary
280
     1
281
     1
  3
ADSK_XREC_LAYER_RECONCILED
360
31F8
  0
DICTIONARY
  5
31F9
330
C20
100
AcDbDictionary
280
     1
281
     1
  3
ADSK_XREC_LAYER_RECONCILED
360
31FA
  0
DICTIONARY
  5
31FB
330
C21
100
AcDbDictionary
280
     1
281
     1
  3
ADSK_XREC_LAYER_RECONCILED
360
31FC
  0
DICTIONARY
  5
31FD
330
C22
100
AcDbDictionary
280
     1
281
     1
  3
ADSK_XREC_LAYER_RECONCILED
360
31FE
  0
DICTIONARY
  5
31FF
330
C23
100
AcDbDictionary
280
     1
281
     1
  3
ADSK_XREC_LAYER_RECONCILED
360
3200
  0
DICTIONARY
  5
3201
330
C42
100
AcDbDictionary
280
     1
281
     1
  3
ADSK_XREC_LAYER_RECONCILED
360
3202
  0
XRECORD
  5
31B2
102
{ACAD_REACTORS
330
BE3
102
}
330
BE3
100
AcDbXrecord
280
     1
300
AMECH_PP
300
2013
300
PDSU_F_S
  0
DICTIONARY
  5
BF2
102
{ACAD_REACTORS
330
BE3
102
}
330
BE3
100
AcDbDictionary
281
     1
  0
DICTIONARY
  5
31AF
102
{ACAD_REACTORS
330
BE3
102
}
330
BE3
100
AcDbDictionary
281
     1
  3
Imperial24
350
31B0
  0
DICTIONARY
  5
BE4
102
{ACAD_REACTORS
330
BE3
102
}
330
BE3
100
AcDbDictionary
281
     1
  0
DICTIONARY
  5
BF0
102
{ACAD_REACTORS
330
BE3
102
}
330
BE3
100
AcDbDictionary
281
     1
  3
Layout1
350
BF6
  3
Model
350
BFA
  0
DICTIONARY
  5
BF1
102
{ACAD_REACTORS
330
BE3
102
}
330
BE3
100
AcDbDictionary
281
     1
  3
ByBlock
350
316D
  3
ByLayer
350
3165
  3
Global
350
3175
  0
DICTIONARY
  5
31AA
102
{ACAD_REACTORS
330
BE3
102
}
330
BE3
100
AcDbDictionary
281
     1
  3
Standard
350
31AB
  0
DICTIONARY
  5
BED
102
{ACAD_REACTORS
330
BE3
102
}
330
BE3
100
AcDbDictionary
281
     1
  3
Standard
350
BEE
  0
DICTIONARY
  5
BEF
102
{ACAD_REACTORS
330
BE3
102
}
330
BE3
100
AcDbDictionary
281
     1
  0
ACDBDICTIONARYWDFLT
  5
BE5
102
{ACAD_REACTORS
330
BE3
102
}
330
BE3
100
AcDbDictionary
281
     1
  3
Normal
350
BE6
100
AcDbDictionaryWithDefault
340
BE6
  0
DICTIONARY
  5
3198
102
{ACAD_REACTORS
330
BE3
102
}
330
BE3
100
AcDbDictionary
281
     1
  3
A0
350
3199
  3
A1
350
319A
  3
A2
350
319B
  3
A3
350
319C
  3
A4
350
319D
  3
A5
350
319E
  3
A6
350
319F
  3
A7
350
31A0
  3
A8
350
31A1
  3
A9
350
31A2
  3
B0
350
31A3
  3
B1
350
31A4
  3
B2
350
31A5
  3
B3
350
31A6
  3
B4
350
31A7
  3
B5
350
31A8
  3
B6
350
31A9
  0
DICTIONARY
  5
31AC
102
{ACAD_REACTORS
330
BE3
102
}
330
BE3
100
AcDbDictionary
281
     1
  3
Imperial24
350
31AE
  0
DICTIONARY
  5
3196
102
{ACAD_REACTORS
330
BE3
102
}
330
BE3
100
AcDbDictionary
281
     1
  3
Standard
350
3197
  0
DICTIONARY
  5
317D
102
{ACAD_REACTORS
330
BE3
102
}
330
BE3
100
AcDbDictionary
281
     1
  3
2dWireframe
350
3183
  3
Basic
350
3182
  3
Brighten
350
3189
  3
ColorChange
350
318D
  3
Conceptual
350
3186
  3
Dim
350
3188
  3
EdgeColorOff
350
3195
  3
Facepattern
350
318C
  3
Flat
350
317E
  3
FlatWithEdges
350
317F
  3
Gouraud
350
3180
  3
GouraudWithEdges
350
3181
  3
Hidden
350
3185
  3
JitterOff
350
3193
  3
Linepattern
350
318B
  3
OverhangOff
350
3194
  3
Realistic
350
3187
  3
Shaded
350
3192
  3
Shaded with edges
350
3191
  3
Shades of Gray
350
318E
  3
Sketchy
350
318F
  3
Thicken
350
318A
  3
Wireframe
350
3184
  3
X-Ray
350
3190
  0
XRECORD
  5
3214
102
{ACAD_REACTORS
330
BE3
102
}
330
BE3
100
AcDbXrecord
280
     1
 90
        1
330
3197
  0
DICTIONARY
  5
3207
102
{ACAD_REACTORS
330
BE3
102
}
330
BE3
100
AcDbDictionary
281
     1
  3
CANNOSCALE
350
320C
  3
CMLEADERSTYLE
350
3209
  3
CTABLESTYLE
350
3208
  3
CVIEWDETAILSTYLE
350
320A
  3
CVIEWSECTIONSTYLE
350
320B
  3
DIMASSOC
350
3210
  3
INDEXCTL
350
320E
  3
SORTENTS
350
320D
  3
XCLIPFRAME
350
320F
  0
DICTIONARY
  5
3204
102
{ACAD_REACTORS
330
BE3
102
}
330
BE3
100
AcDbDictionary
281
     1
  3
ASEBlockHierarchyIndexRecord
350
3206
1001
DCO15
1040
1815724032.547
  0
XRECORD
  5
3215
102
{ACAD_REACTORS
330
BE3
102
}
330
BE3
100
AcDbXrecord
280
     1
  1
DWGPROPS COOKIE
  2

  3

  4

  6

  7

  8
Micke
  9

300
=
301
=
302
=
303
=
304
=
305
=
306
=
307
=
308
=
309
=
 40
0.096917650462963
 41
2455817.64629206
 42
2456818.536302628
  1

 90
        0
  0
XRECORD
  5
31B6
102
{ACAD_REACTORS
330
31B5
102
}
330
31B5
100
AcDbXrecord
280
     1
290
     1
  0
XRECORD
  5
31B8
102
{ACAD_REACTORS
330
31B7
102
}
330
31B7
100
AcDbXrecord
280
     1
290
     1
  0
XRECORD
  5
31BA
102
{ACAD_REACTORS
330
31B9
102
}
330
31B9
100
AcDbXrecord
280
     1
290
     1
  0
XRECORD
  5
31BC
102
{ACAD_REACTORS
330
31BB
102
}
330
31BB
100
AcDbXrecord
280
     1
290
     1
  0
XRECORD
  5
31BE
102
{ACAD_REACTORS
330
31BD
102
}
330
31BD
100
AcDbXrecord
280
     1
290
     1
  0
XRECORD
  5
31C0
102
{ACAD_REACTORS
330
31BF
102
}
330
31BF
100
AcDbXrecord
280
     1
290
     1
  0
XRECORD
  5
31C2
102
{ACAD_REACTORS
330
31C1
102
}
330
31C1
100
AcDbXrecord
280
     1
290
     1
  0
XRECORD
  5
31C4
102
{ACAD_REACTORS
330
31C3
102
}
330
31C3
100
AcDbXrecord
280
     1
290
     1
  0
XRECORD
  5
31C6
102
{ACAD_REACTORS
330
31C5
102
}
330
31C5
100
AcDbXrecord
280
     1
290
     1
  0
XRECORD
  5
31C8
102
{ACAD_REACTORS
330
31C7
102
}
330
31C7
100
AcDbXrecord
280
     1
290
     1
  0
XRECORD
  5
31CA
102
{ACAD_REACTORS
330
31C9
102
}
330
31C9
100
AcDbXrecord
280
     1
290
     1
  0
XRECORD
  5
31CC
102
{ACAD_REACTORS
330
31CB
102
}
330
31CB
100
AcDbXrecord
280
     1
290
     1
  0
XRECORD
  5
31CE
102
{ACAD_REACTORS
330
31CD
102
}
330
31CD
100
AcDbXrecord
280
     1
290
     1
  0
XRECORD
  5
31D0
102
{ACAD_REACTORS
330
31CF
102
}
330
31CF
100
AcDbXrecord
280
     1
290
     1
  0
XRECORD
  5
31D2
102
{ACAD_REACTORS
330
31D1
102
}
330
31D1
100
AcDbXrecord
280
     1
290
     1
  0
XRECORD
  5
31D4
102
{ACAD_REACTORS
330
31D3
102
}
330
31D3
100
AcDbXrecord
280
     1
290
     1
  0
XRECORD
  5
31D6
102
{ACAD_REACTORS
330
31D5
102
}
330
31D5
100
AcDbXrecord
280
     1
290
     1
  0
XRECORD
  5
31D8
102
{ACAD_REACTORS
330
31D7
102
}
330
31D7
100
AcDbXrecord
280
     1
290
     1
  0
XRECORD
  5
31DA
102
{ACAD_REACTORS
330
31D9
102
}
330
31D9
100
AcDbXrecord
280
     1
290
     1
  0
XRECORD
  5
31DC
102
{ACAD_REACTORS
330
31DB
102
}
330
31DB
100
AcDbXrecord
280
     1
290
     1
  0
XRECORD
  5
31DE
102
{ACAD_REACTORS
330
31DD
102
}
330
31DD
100
AcDbXrecord
280
     1
290
     1
  0
XRECORD
  5
31E0
102
{ACAD_REACTORS
330
31DF
102
}
330
31DF
100
AcDbXrecord
280
     1
290
     1
  0
XRECORD
  5
31E2
102
{ACAD_REACTORS
330
31E1
102
}
330
31E1
100
AcDbXrecord
280
     1
290
     1
  0
XRECORD
  5
31E4
102
{ACAD_REACTORS
330
31E3
102
}
330
31E3
100
AcDbXrecord
280
     1
290
     1
  0
XRECORD
  5
31E6
102
{ACAD_REACTORS
330
31E5
102
}
330
31E5
100
AcDbXrecord
280
     1
290
     1
  0
XRECORD
  5
31E8
102
{ACAD_REACTORS
330
31E7
102
}
330
31E7
100
AcDbXrecord
280
     1
290
     1
  0
XRECORD
  5
31EA
102
{ACAD_REACTORS
330
31E9
102
}
330
31E9
100
AcDbXrecord
280
     1
290
     1
  0
XRECORD
  5
31EC
102
{ACAD_REACTORS
330
31EB
102
}
330
31EB
100
AcDbXrecord
280
     1
290
     1
  0
XRECORD
  5
31EE
102
{ACAD_REACTORS
330
31ED
102
}
330
31ED
100
AcDbXrecord
280
     1
290
     1
  0
XRECORD
  5
31F0
102
{ACAD_REACTORS
330
31EF
102
}
330
31EF
100
AcDbXrecord
280
     1
290
     1
  0
XRECORD
  5
31F2
102
{ACAD_REACTORS
330
31F1
102
}
330
31F1
100
AcDbXrecord
280
     1
290
     1
  0
XRECORD
  5
31F4
102
{ACAD_REACTORS
330
31F3
102
}
330
31F3
100
AcDbXrecord
280
     1
290
     1
  0
XRECORD
  5
31F6
102
{ACAD_REACTORS
330
31F5
102
}
330
31F5
100
AcDbXrecord
280
     1
290
     1
  0
XRECORD
  5
31F8
102
{ACAD_REACTORS
330
31F7
102
}
330
31F7
100
AcDbXrecord
280
     1
290
     1
  0
XRECORD
  5
31FA
102
{ACAD_REACTORS
330
31F9
102
}
330
31F9
100
AcDbXrecord
280
     1
290
     1
  0
XRECORD
  5
31FC
102
{ACAD_REACTORS
330
31FB
102
}
330
31FB
100
AcDbXrecord
280
     1
290
     1
  0
XRECORD
  5
31FE
102
{ACAD_REACTORS
330
31FD
102
}
330
31FD
100
AcDbXrecord
280
     1
290
     1
  0
XRECORD
  5
3200
102
{ACAD_REACTORS
330
31FF
102
}
330
31FF
100
AcDbXrecord
280
     1
290
     1
  0
XRECORD
  5
3202
102
{ACAD_REACTORS
330
3201
102
}
330
3201
100
AcDbXrecord
280
     1
290
     1
  0
ACDBDETAILVIEWSTYLE
  5
31B0
102
{ACAD_REACTORS
330
31AF
102
}
330
31AF
100
AcDbModelDocViewStyle
 70
     0
  3
Imperial24
290
     0
100
AcDbDetailViewStyle
 70
     0
 71
     0
 90
        3
 71
     1
340
BE8
 40
0.24
340
0
 40
0.24
300

 40
0.36
280
     3
 71
     2
340
BEC
 90
       25
 71
     3
340
BE8
 40
0.24
 90
        1
 40
0.75
 90
        1
300
%<\AcVar ViewType \f "%tc1">% %<\AcVar ViewDetailId>%\PSCALE %<\AcVar ViewScale \f "%sn">%
 71
     4
340
BEC
 90
       25
340
BEC
 90
       25
280
     0
  0
LAYOUT
  5
BF6
102
{ACAD_XDICTIONARY
360
3216
102
}
102
{ACAD_REACTORS
330
BF0
102
}
330
BF0
100
AcDbPlotSettings
  1

  2
\\GBCFS501\GBCPR502
  4

  6

 40
0.0
 41
0.0
 42
0.0
 43
0.0
 44
0.0
 45
0.0
 46
0.0
 47
0.0
 48
0.0
 49
0.0
140
0.0
141
0.0
142
1.0
143
1.0
 70
   688
 72
     0
 73
     0
 74
     5
  7

 75
    16
147
1.0
148
0.0
149
0.0
100
AcDbLayout
  1
Layout1
 70
     1
 71
     1
 10
0.0
 20
0.0
 11
12.0
 21
9.0
 12
0.0
 22
0.0
 32
0.0
 14
1.000000000000000E+20
 24
1.000000000000000E+20
 34
1.000000000000000E+20
 15
-1.000000000000000E+20
 25
-1.000000000000000E+20
 35
-1.000000000000000E+20
146
0.0
 13
0.0
 23
0.0
 33
0.0
 16
1.0
 26
0.0
 36
0.0
 17
0.0
 27
1.0
 37
0.0
 76
     0
330
BF3
  0
LAYOUT
  5
BFA
102
{ACAD_XDICTIONARY
360
3218
102
}
102
{ACAD_REACTORS
330
BF0
102
}
330
BF0
100
AcDbPlotSettings
  1

  2
\\GBCFS501\GBCPR502
  4

  6

 40
0.0
 41
0.0
 42
0.0
 43
0.0
 44
0.0
 45
0.0
 46
0.0
 47
0.0
 48
0.0
 49
0.0
140
0.0
141
0.0
142
1.0
143
1.0
 70
  1712
 72
     0
 73
     0
 74
     0
  7

 75
     0
147
1.0
148
0.0
149
0.0
100
AcDbLayout
  1
Model
 70
     1
 71
     0
 10
0.0
 20
0.0
 11
12.0
 21
9.0
 12
0.0
 22
0.0
 32
0.0
 14
0.0
 24
0.0
 34
0.0
 15
0.0
 25
0.0
 35
0.0
146
0.0
 13
0.0
 23
0.0
 33
0.0
 16
1.0
 26
0.0
 36
0.0
 17
0.0
 27
1.0
 37
0.0
 76
     0
330
BF7
331
3161
  0
MATERIAL
  5
316D
102
{ACAD_XDICTIONARY
360
316E
102
}
102
{ACAD_REACTORS
330
BF1
102
}
330
BF1
100
AcDbMaterial
  1
ByBlock
 72
     0
 43
0.0208333333333333
 43
0.0
 43
0.0
 43
0.0
 43
0.0
 43
0.0208333333333333
 43
0.0
 43
0.0
 43
0.0
 43
0.0
 43
1.0
 43
0.0
 43
0.0
 43
0.0
 43
0.0
 43
1.0
 77
     0
 47
0.0208333333333333
 47
0.0
 47
0.0
 47
0.0
 47
0.0
 47
0.0208333333333333
 47
0.0
 47
0.0
 47
0.0
 47
0.0
 47
1.0
 47
0.0
 47
0.0
 47
0.0
 47
0.0
 47
1.0
171
     0
 49
0.0208333333333333
 49
0.0
 49
0.0
 49
0.0
 49
0.0
 49
0.0208333333333333
 49
0.0
 49
0.0
 49
0.0
 49
0.0
 49
1.0
 49
0.0
 49
0.0
 49
0.0
 49
0.0
 49
1.0
175
     0
142
0.0208333333333333
142
0.0
142
0.0
142
0.0
142
0.0
142
0.0208333333333333
142
0.0
142
0.0
142
0.0
142
0.0
142
1.0
142
0.0
142
0.0
142
0.0
142
0.0
142
1.0
179
     0
144
0.0208333333333333
144
0.0
144
0.0
144
0.0
144
0.0
144
0.0208333333333333
144
0.0
144
0.0
144
0.0
144
0.0
144
1.0
144
0.0
144
0.0
144
0.0
144
0.0
144
1.0
147
0.0208333333333333
147
0.0
147
0.0
147
0.0
147
0.0
147
0.0208333333333333
147
0.0
147
0.0
147
0.0
147
0.0
147
1.0
147
0.0
147
0.0
147
0.0
147
0.0
147
1.0
  0
MATERIAL
  5
3165
102
{ACAD_XDICTIONARY
360
3166
102
}
102
{ACAD_REACTORS
330
BF1
102
}
330
BF1
100
AcDbMaterial
  1
ByLayer
 72
     0
 43
0.0208333333333333
 43
0.0
 43
0.0
 43
0.0
 43
0.0
 43
0.0208333333333333
 43
0.0
 43
0.0
 43
0.0
 43
0.0
 43
1.0
 43
0.0
 43
0.0
 43
0.0
 43
0.0
 43
1.0
 77
     0
 47
0.0208333333333333
 47
0.0
 47
0.0
 47
0.0
 47
0.0
 47
0.0208333333333333
 47
0.0
 47
0.0
 47
0.0
 47
0.0
 47
1.0
 47
0.0
 47
0.0
 47
0.0
 47
0.0
 47
1.0
171
     0
 49
0.0208333333333333
 49
0.0
 49
0.0
 49
0.0
 49
0.0
 49
0.0208333333333333
 49
0.0
 49
0.0
 49
0.0
 49
0.0
 49
1.0
 49
0.0
 49
0.0
 49
0.0
 49
0.0
 49
1.0
175
     0
142
0.0208333333333333
142
0.0
142
0.0
142
0.0
142
0.0
142
0.0208333333333333
142
0.0
142
0.0
142
0.0
142
0.0
142
1.0
142
0.0
142
0.0
142
0.0
142
0.0
142
1.0
179
     0
144
0.0208333333333333
144
0.0
144
0.0
144
0.0
144
0.0
144
0.0208333333333333
144
0.0
144
0.0
144
0.0
144
0.0
144
1.0
144
0.0
144
0.0
144
0.0
144
0.0
144
1.0
147
0.0208333333333333
147
0.0
147
0.0
147
0.0
147
0.0
147
0.0208333333333333
147
0.0
147
0.0
147
0.0
147
0.0
147
1.0
147
0.0
147
0.0
147
0.0
147
0.0
147
1.0
  0
MATERIAL
  5
3175
102
{ACAD_XDICTIONARY
360
3176
102
}
102
{ACAD_REACTORS
330
BF1
102
}
330
BF1
100
AcDbMaterial
  1
Global
 72
     0
 43
0.0208333333333333
 43
0.0
 43
0.0
 43
0.0
 43
0.0
 43
0.0208333333333333
 43
0.0
 43
0.0
 43
0.0
 43
0.0
 43
1.0
 43
0.0
 43
0.0
 43
0.0
 43
0.0
 43
1.0
 77
     0
 47
0.0208333333333333
 47
0.0
 47
0.0
 47
0.0
 47
0.0
 47
0.0208333333333333
 47
0.0
 47
0.0
 47
0.0
 47
0.0
 47
1.0
 47
0.0
 47
0.0
 47
0.0
 47
0.0
 47
1.0
171
     0
 49
0.0208333333333333
 49
0.0
 49
0.0
 49
0.0
 49
0.0
 49
0.0208333333333333
 49
0.0
 49
0.0
 49
0.0
 49
0.0
 49
1.0
 49
0.0
 49
0.0
 49
0.0
 49
0.0
 49
1.0
175
     0
142
0.0208333333333333
142
0.0
142
0.0
142
0.0
142
0.0
142
0.0208333333333333
142
0.0
142
0.0
142
0.0
142
0.0
142
1.0
142
0.0
142
0.0
142
0.0
142
0.0
142
1.0
179
     0
144
0.0208333333333333
144
0.0
144
0.0
144
0.0
144
0.0
144
0.0208333333333333
144
0.0
144
0.0
144
0.0
144
0.0
144
1.0
144
0.0
144
0.0
144
0.0
144
0.0
144
1.0
147
0.0208333333333333
147
0.0
147
0.0
147
0.0
147
0.0
147
0.0208333333333333
147
0.0
147
0.0
147
0.0
147
0.0
147
1.0
147
0.0
147
0.0
147
0.0
147
0.0
147
1.0
  0
MLEADERSTYLE
  5
31AB
102
{ACAD_REACTORS
330
31AA
102
}
330
31AA
100
AcDbMLeaderStyle
170
     2
171
     1
172
     0
 90
        2
 40
0.0
 41
0.0
173
     1
 91
-1056964608
340
BEA
 92
       -2
290
     1
 42
0.09
291
     1
 43
0.36
  3
Standard
 44
0.18
300

342
BE8
174
     1
178
     6
175
     1
176
     0
 93
-1056964608
 45
0.18
292
     0
297
     0
 46
0.18
 94
-1056964608
 47
1.0
 49
1.0
140
1.0
293
     1
141
0.0
294
     1
177
     0
142
1.0
295
     0
296
     0
143
0.125
1001
ACAD_MLEADERVER
1070
     2
  0
MLINESTYLE
  5
BEE
102
{ACAD_REACTORS
330
BED
102
}
330
BED
100
AcDbMlineStyle
  2
STANDARD
 70
     0
  3

 62
   256
 51
90.0
 52
90.0
 71
     2
 49
0.5
 62
   256
  6
BYLAYER
 49
-0.5
 62
   256
  6
BYLAYER
  0
ACDBPLACEHOLDER
  5
BE6
102
{ACAD_REACTORS
330
BE5
102
}
330
BE5
  0
SCALE
  5
3199
102
{ACAD_REACTORS
330
3198
102
}
330
3198
100
AcDbScale
 70
     0
300
1:1
140
1.0
141
1.0
290
     1
  0
SCALE
  5
319A
102
{ACAD_REACTORS
330
3198
102
}
330
3198
100
AcDbScale
 70
     0
300
1/128" = 1'-0"
140
0.0078125
141
12.0
290
     0
  0
SCALE
  5
319B
102
{ACAD_REACTORS
330
3198
102
}
330
3198
100
AcDbScale
 70
     0
300
1/64" = 1'-0"
140
0.015625
141
12.0
290
     0
  0
SCALE
  5
319C
102
{ACAD_REACTORS
330
3198
102
}
330
3198
100
AcDbScale
 70
     0
300
1/32" = 1'-0"
140
0.03125
141
12.0
290
     0
  0
SCALE
  5
319D
102
{ACAD_REACTORS
330
3198
102
}
330
3198
100
AcDbScale
 70
     0
300
1/16" = 1'-0"
140
0.0625
141
12.0
290
     0
  0
SCALE
  5
319E
102
{ACAD_REACTORS
330
3198
102
}
330
3198
100
AcDbScale
 70
     0
300
3/32" = 1'-0"
140
0.09375
141
12.0
290
     0
  0
SCALE
  5
319F
102
{ACAD_REACTORS
330
3198
102
}
330
3198
100
AcDbScale
 70
     0
300
1/8" = 1'-0"
140
0.125
141
12.0
290
     0
  0
SCALE
  5
31A0
102
{ACAD_REACTORS
330
3198
102
}
330
3198
100
AcDbScale
 70
     0
300
3/16" = 1'-0"
140
0.1875
141
12.0
290
     0
  0
SCALE
  5
31A1
102
{ACAD_REACTORS
330
3198
102
}
330
3198
100
AcDbScale
 70
     0
300
1/4" = 1'-0"
140
0.25
141
12.0
290
     0
  0
SCALE
  5
31A2
102
{ACAD_REACTORS
330
3198
102
}
330
3198
100
AcDbScale
 70
     0
300
3/8" = 1'-0"
140
0.375
141
12.0
290
     0
  0
SCALE
  5
31A3
102
{ACAD_REACTORS
330
3198
102
}
330
3198
100
AcDbScale
 70
     0
300
1/2" = 1'-0"
140
0.5
141
12.0
290
     0
  0
SCALE
  5
31A4
102
{ACAD_REACTORS
330
3198
102
}
330
3198
100
AcDbScale
 70
     0
300
3/4" = 1'-0"
140
0.75
141
12.0
290
     0
  0
SCALE
  5
31A5
102
{ACAD_REACTORS
330
3198
102
}
330
3198
100
AcDbScale
 70
     0
300
1" = 1'-0"
140
1.0
141
12.0
290
     0
  0
SCALE
  5
31A6
102
{ACAD_REACTORS
330
3198
102
}
330
3198
100
AcDbScale
 70
     0
300
1-1/2" = 1'-0"
140
1.5
141
12.0
290
     0
  0
SCALE
  5
31A7
102
{ACAD_REACTORS
330
3198
102
}
330
3198
100
AcDbScale
 70
     0
300
3" = 1'-0"
140
3.0
141
12.0
290
     0
  0
SCALE
  5
31A8
102
{ACAD_REACTORS
330
3198
102
}
330
3198
100
AcDbScale
 70
     0
300
6" = 1'-0"
140
6.0
141
12.0
290
     0
  0
SCALE
  5
31A9
102
{ACAD_REACTORS
330
3198
102
}
330
3198
100
AcDbScale
 70
     0
300
1'-0" = 1'-0"
140
12.0
141
12.0
290
     0
  0
ACDBSECTIONVIEWSTYLE
  5
31AE
102
{ACAD_REACTORS
330
31AC
102
}
330
31AC
100
AcDbModelDocViewStyle
 70
     0
  3
Imperial24
290
     0
100
AcDbSectionViewStyle
 70
     0
 71
     0
 90
       78
 71
     1
340
BE8
 40
0.24
340
0
340
0
 40
0.24
300
I, O, Q, S, X, Z
 40
0.48
 90
        3
 40
0.18
 90
        1
 71
     2
340
31AD
 90
       25
340
BEC
 90
       50
 40
0.24
 40
0.0
 40
0.24
 71
     3
340
BE8
 40
0.24
 90
        1
 40
0.75
 90
        1
300
%<\AcVar ViewType \f "%tc1">% %<\AcVar ViewSectionStartId>%-%<\AcVar ViewSectionEndId>%\PSCALE %<\AcVar ViewScale \f "%sn">%
 71
     4
300
ANSI31
 40
1.0
 90
        0
290
     0
290
     0
 90
        6
 40
0.0
 40
1.570796326794896
 40
0.2617993877991494
 40
1.308996938995747
 40
-0.2617993877991494
 40
1.832595714594046
  0
TABLESTYLE
  5
3197
102
{ACAD_XDICTIONARY
360
3212
102
}
102
{ACAD_REACTORS
330
3196
102
}
330
3196
100
AcDbTableStyle
  3
Standard
 70
     0
 71
     0
 40
0.06
 41
0.06
280
     0
281
     0
  7
STANDARD
140
0.18
170
     2
 62
     0
 63
     7
283
     0
274
    -2
284
     1
 64
     0
275
    -2
285
     1
 65
     0
276
    -2
286
     1
 66
     0
277
    -2
287
     1
 67
     0
278
    -2
288
     1
 68
     0
279
    -2
289
     1
 69
     0
  7
STANDARD
140
0.25
170
     5
 62
     0
 63
     7
283
     0
274
    -2
284
     1
 64
     0
275
    -2
285
     1
 65
     0
276
    -2
286
     1
 66
     0
277
    -2
287
     1
 67
     0
278
    -2
288
     1
 68
     0
279
    -2
289
     1
 69
     0
  7
STANDARD
140
0.18
170
     5
 62
     0
 63
     7
283
     0
274
    -2
284
     1
 64
     0
275
    -2
285
     1
 65
     0
276
    -2
286
     1
 66
     0
277
    -2
287
     1
 67
     0
278
    -2
288
     1
 68
     0
279
    -2
289
     1
 69
     0
  0
VISUALSTYLE
  5
3183
102
{ACAD_XDICTIONARY
360
3227
102
}
102
{ACAD_REACTORS
330
317D
102
}
330
317D
100
AcDbVisualStyle
  2
2dWireframe
 70
     4
 71
     0
 72
     2
 73
     0
 90
        0
 40
-0.6
 41
-30.0
 62
     5
 63
     7
 74
     1
 91
        4
 64
     7
 65
   257
 75
     1
175
     1
 42
1.0
 92
        0
 66
   257
 43
1.0
 76
     1
 77
     6
 78
     2
 67
     7
 79
     5
170
     0
171
     0
290
     0
174
     0
 93
        1
 44
0.0
173
     0
291
     0
 45
0.0
1001
ACAD
1000
AcDbSavedByObjectVersion
1070
     0
  0
VISUALSTYLE
  5
3182
102
{ACAD_XDICTIONARY
360
3225
102
}
102
{ACAD_REACTORS
330
317D
102
}
330
317D
100
AcDbVisualStyle
  2
Basic
 70
     7
 71
     1
 72
     0
 73
     1
 90
        0
 40
-0.6
 41
-30.0
 62
     5
 63
     7
 74
     0
 91
        4
 64
     7
 65
   257
 75
     1
175
     1
 42
1.0
 92
        8
 66
     7
 43
1.0
 76
     1
 77
     6
 78
     2
 67
     7
 79
     5
170
     0
171
     0
290
     0
174
     0
 93
        1
 44
0.0
173
     0
291
     1
 45
0.0
1001
ACAD
1000
AcDbSavedByObjectVersion
1070
     0
  0
VISUALSTYLE
  5
3189
102
{ACAD_XDICTIONARY
360
3233
102
}
102
{ACAD_REACTORS
330
317D
102
}
330
317D
100
AcDbVisualStyle
  2
Brighten
 70
    12
 71
     2
 72
     2
 73
     0
 90
        0
 40
-0.6
 41
-30.0
 62
     5
 63
     7
 74
     1
 91
        4
 64
     7
 65
   257
 75
     1
175
     1
 42
1.0
 92
        8
 66
     7
 43
1.0
 76
     1
 77
     6
 78
     2
 67
     7
 79
     5
170
     0
171
     0
290
     0
174
     0
 93
        1
 44
50.0
173
     0
291
     1
 45
0.0
1001
ACAD
1000
AcDbSavedByObjectVersion
1070
     0
  0
VISUALSTYLE
  5
318D
102
{ACAD_XDICTIONARY
360
323B
102
}
102
{ACAD_REACTORS
330
317D
102
}
330
317D
100
AcDbVisualStyle
  2
ColorChange
 70
    16
 71
     2
 72
     2
 73
     3
 90
        0
 40
-0.6
 41
-30.0
 62
     5
 63
     8
 74
     1
 91
        4
 64
     7
 65
   257
 75
     1
175
     1
 42
1.0
 92
        8
 66
     8
 43
1.0
 76
     1
 77
     6
 78
     2
 67
     7
 79
     5
170
     0
171
     0
290
     0
174
     0
 93
        1
 44
0.0
173
     0
291
     1
 45
0.0
1001
ACAD
1000
AcDbSavedByObjectVersion
1070
     0
  0
VISUALSTYLE
  5
3186
102
{ACAD_XDICTIONARY
360
322D
102
}
102
{ACAD_REACTORS
330
317D
102
}
330
317D
100
AcDbVisualStyle
  2
Conceptual
 70
     9
 71
     3
 72
     2
 73
     0
 90
        0
 40
-0.6
 41
-30.0
 62
     5
 63
     7
 74
     2
 91
        2
 64
     7
 65
   257
 75
     1
175
     1
 42
179.0
 92
        8
 66
     7
 43
1.0
 76
     1
 77
     6
 78
     2
 67
     7
 79
     3
170
     0
171
     0
290
     0
174
     0
 93
        1
 44
0.0
173
     0
291
     0
 45
0.0
1001
ACAD
1000
AcDbSavedByObjectVersion
1070
     0
  0
VISUALSTYLE
  5
3188
102
{ACAD_XDICTIONARY
360
3231
102
}
102
{ACAD_REACTORS
330
317D
102
}
330
317D
100
AcDbVisualStyle
  2
Dim
 70
    11
 71
     2
 72
     2
 73
     0
 90
        0
 40
-0.6
 41
-30.0
 62
     5
 63
     7
 74
     1
 91
        4
 64
     7
 65
   257
 75
     1
175
     1
 42
1.0
 92
        8
 66
     7
 43
1.0
 76
     1
 77
     6
 78
     2
 67
     7
 79
     5
170
     0
171
     0
290
     0
174
     0
 93
        1
 44
-50.0
173
     0
291
     1
 45
0.0
1001
ACAD
1000
AcDbSavedByObjectVersion
1070
     0
  0
VISUALSTYLE
  5
3195
102
{ACAD_XDICTIONARY
360
324B
102
}
102
{ACAD_REACTORS
330
317D
102
}
330
317D
100
AcDbVisualStyle
  2
EdgeColorOff
 70
    22
 71
     2
 72
     2
 73
     0
 90
        0
 40
-0.6
 41
-30.0
 62
     5
 63
     7
 74
     1
 91
        4
 64
     7
 65
   257
 75
     1
175
     1
 42
1.0
 92
        8
 66
     7
 43
1.0
 76
     1
 77
     6
 78
     2
 67
     7
 79
     5
170
     0
171
     0
290
     0
174
     0
 93
        1
 44
0.0
173
     0
291
     1
 45
0.0
1001
ACAD
1000
AcDbSavedByObjectVersion
1070
     0
  0
VISUALSTYLE
  5
318C
102
{ACAD_XDICTIONARY
360
3239
102
}
102
{ACAD_REACTORS
330
317D
102
}
330
317D
100
AcDbVisualStyle
  2
Facepattern
 70
    15
 71
     2
 72
     2
 73
     0
 90
        0
 40
-0.6
 41
-30.0
 62
     5
 63
     7
 74
     1
 91
        4
 64
     7
 65
   257
 75
     1
175
     1
 42
1.0
 92
        8
 66
     7
 43
1.0
 76
     1
 77
     6
 78
     2
 67
     7
 79
     5
170
     0
171
     0
290
     0
174
     0
 93
        1
 44
0.0
173
     0
291
     1
 45
0.0
1001
ACAD
1000
AcDbSavedByObjectVersion
1070
     0
  0
VISUALSTYLE
  5
317E
102
{ACAD_XDICTIONARY
360
321D
102
}
102
{ACAD_REACTORS
330
317D
102
}
330
317D
100
AcDbVisualStyle
  2
Flat
 70
     0
 71
     2
 72
     1
 73
     1
 90
        2
 40
-0.6
 41
30.0
 62
     5
 63
     7
 74
     0
 91
        0
 64
     7
 65
   257
 75
     1
175
     1
 42
1.0
 92
        8
 66
     7
 43
1.0
 76
     1
 77
     6
 78
     2
 67
     7
 79
     5
170
     0
171
     0
290
     0
174
     0
 93
       13
 44
0.0
173
     0
291
     1
 45
0.0
1001
ACAD
1000
AcDbSavedByObjectVersion
1070
     0
  0
VISUALSTYLE
  5
317F
102
{ACAD_XDICTIONARY
360
321F
102
}
102
{ACAD_REACTORS
330
317D
102
}
330
317D
100
AcDbVisualStyle
  2
FlatWithEdges
 70
     1
 71
     2
 72
     1
 73
     1
 90
        2
 40
-0.6
 41
30.0
 62
     5
 63
     7
 74
     1
 91
        0
 64
     7
 65
   257
 75
     1
175
     1
 42
1.0
 92
        0
 66
   257
 43
1.0
 76
     1
 77
     6
 78
     2
 67
     7
 79
     5
170
     0
171
     0
290
     0
174
     0
 93
       13
 44
0.0
173
     0
291
     1
 45
0.0
1001
ACAD
1000
AcDbSavedByObjectVersion
1070
     0
  0
VISUALSTYLE
  5
3180
102
{ACAD_XDICTIONARY
360
3221
102
}
102
{ACAD_REACTORS
330
317D
102
}
330
317D
100
AcDbVisualStyle
  2
Gouraud
 70
     2
 71
     2
 72
     2
 73
     1
 90
        2
 40
-0.6
 41
30.0
 62
     5
 63
     7
 74
     0
 91
        0
 64
     7
 65
   257
 75
     1
175
     1
 42
1.0
 92
        0
 66
     7
 43
1.0
 76
     1
 77
     6
 78
     2
 67
     7
 79
     5
170
     0
171
     0
290
     0
174
     0
 93
       13
 44
0.0
173
     0
291
     1
 45
0.0
1001
ACAD
1000
AcDbSavedByObjectVersion
1070
     0
  0
VISUALSTYLE
  5
3181
102
{ACAD_XDICTIONARY
360
3223
102
}
102
{ACAD_REACTORS
330
317D
102
}
330
317D
100
AcDbVisualStyle
  2
GouraudWithEdges
 70
     3
 71
     2
 72
     2
 73
     1
 90
        2
 40
-0.6
 41
30.0
 62
     5
 63
     7
 74
     1
 91
        0
 64
     7
 65
   257
 75
     1
175
     1
 42
1.0
 92
        0
 66
   257
 43
1.0
 76
     1
 77
     6
 78
     2
 67
     7
 79
     5
170
     0
171
     0
290
     0
174
     0
 93
       13
 44
0.0
173
     0
291
     1
 45
0.0
1001
ACAD
1000
AcDbSavedByObjectVersion
1070
     0
  0
VISUALSTYLE
  5
3185
102
{ACAD_XDICTIONARY
360
322B
102
}
102
{ACAD_REACTORS
330
317D
102
}
330
317D
100
AcDbVisualStyle
  2
Hidden
 70
     6
 71
     1
 72
     2
 73
     2
 90
        0
 40
-0.6
 41
-30.0
 62
     5
 63
     7
 74
     2
 91
        2
 64
     7
 65
   257
 75
     2
175
     1
 42
40.0
 92
        0
 66
   257
 43
1.0
 76
     1
 77
     6
 78
     2
 67
     7
 79
     3
170
     0
171
     0
290
     0
174
     0
 93
        1
 44
0.0
173
     0
291
     0
 45
0.0
1001
ACAD
1000
AcDbSavedByObjectVersion
1070
     0
  0
VISUALSTYLE
  5
3193
102
{ACAD_XDICTIONARY
360
3247
102
}
102
{ACAD_REACTORS
330
317D
102
}
330
317D
100
AcDbVisualStyle
  2
JitterOff
 70
    20
 71
     2
 72
     2
 73
     0
 90
        0
 40
-0.6
 41
-30.0
 62
     5
 63
     7
 74
     1
 91
        4
 64
     7
 65
   257
 75
     1
175
     1
 42
1.0
 92
       10
 66
     7
 43
1.0
 76
     1
 77
     6
 78
     2
 67
     7
 79
     5
170
     0
171
     0
290
     0
174
     0
 93
        1
 44
0.0
173
     0
291
     1
 45
0.0
1001
ACAD
1000
AcDbSavedByObjectVersion
1070
     0
  0
VISUALSTYLE
  5
318B
102
{ACAD_XDICTIONARY
360
3237
102
}
102
{ACAD_REACTORS
330
317D
102
}
330
317D
100
AcDbVisualStyle
  2
Linepattern
 70
    14
 71
     2
 72
     2
 73
     0
 90
        0
 40
-0.6
 41
-30.0
 62
     5
 63
     7
 74
     1
 91
        4
 64
     7
 65
   257
 75
     7
175
     7
 42
1.0
 92
        8
 66
     7
 43
1.0
 76
     1
 77
     6
 78
     2
 67
     7
 79
     5
170
     0
171
     0
290
     0
174
     0
 93
        1
 44
0.0
173
     0
291
     1
 45
0.0
1001
ACAD
1000
AcDbSavedByObjectVersion
1070
     0
  0
VISUALSTYLE
  5
3194
102
{ACAD_XDICTIONARY
360
3249
102
}
102
{ACAD_REACTORS
330
317D
102
}
330
317D
100
AcDbVisualStyle
  2
OverhangOff
 70
    21
 71
     2
 72
     2
 73
     0
 90
        0
 40
-0.6
 41
-30.0
 62
     5
 63
     7
 74
     1
 91
        4
 64
     7
 65
   257
 75
     1
175
     1
 42
1.0
 92
        9
 66
     7
 43
1.0
 76
     1
 77
     6
 78
     2
 67
     7
 79
     5
170
     0
171
     0
290
     0
174
     0
 93
        1
 44
0.0
173
     0
291
     1
 45
0.0
1001
ACAD
1000
AcDbSavedByObjectVersion
1070
     0
  0
VISUALSTYLE
  5
3187
102
{ACAD_XDICTIONARY
360
322F
102
}
102
{ACAD_REACTORS
330
317D
102
}
330
317D
100
AcDbVisualStyle
  2
Realistic
 70
     8
 71
     2
 72
     3
 73
     0
 90
        2
 40
-0.6
 41
30.0
 62
     5
 63
     7
 74
     0
 91
        0
 64
     7
 65
   257
 75
     1
175
     1
 42
1.0
 92
        8
 66
   257
 43
1.0
 76
     1
 77
     6
 78
     2
 67
     7
 79
     3
170
     0
171
     0
290
     0
174
     0
 93
       13
 44
0.0
173
     0
291
     0
 45
0.0
1001
ACAD
1000
AcDbSavedByObjectVersion
1070
     0
  0
VISUALSTYLE
  5
3192
102
{ACAD_XDICTIONARY
360
3245
102
}
102
{ACAD_REACTORS
330
317D
102
}
330
317D
100
AcDbVisualStyle
  2
Shaded
 70
    27
 71
     2
 72
     2
 73
     1
 90
        2
 40
-0.6
 41
30.0
 62
     5
 63
     7
 74
     0
 91
        4
 64
     7
 65
   257
 75
     1
175
     1
 42
1.0
 92
        8
 66
   257
 43
1.0
 76
     1
 77
     6
 78
     2
 67
     8
 79
     3
170
     0
171
     0
290
     0
174
     0
 93
        5
 44
0.0
173
     0
291
     0
 45
0.0
1001
ACAD
1000
AcDbSavedByObjectVersion
1070
     0
  0
VISUALSTYLE
  5
3191
102
{ACAD_XDICTIONARY
360
3243
102
}
102
{ACAD_REACTORS
330
317D
102
}
330
317D
100
AcDbVisualStyle
  2
Shaded with edges
 70
    26
 71
     2
 72
     2
 73
     1
 90
        2
 40
-0.6
 41
30.0
 62
     5
 63
     7
 74
     1
 91
       10
 64
     7
 65
   257
 75
     2
175
     1
 42
1.0
 92
        8
 66
   257
 43
1.0
 76
     1
 77
     6
 78
     2
 67
     7
 79
     3
170
     0
171
     0
290
     0
174
     0
 93
        5
 44
0.0
173
     0
291
     0
 45
0.0
1001
ACAD
1000
AcDbSavedByObjectVersion
1070
     0
  0
VISUALSTYLE
  5
318E
102
{ACAD_XDICTIONARY
360
323D
102
}
102
{ACAD_REACTORS
330
317D
102
}
330
317D
100
AcDbVisualStyle
  2
Shades of Gray
 70
    23
 71
     2
 72
     2
 73
     3
 90
        0
 40
-0.6
 41
-30.0
 62
     5
 63
     7
 74
     2
 91
        2
 64
     7
 65
     7
 75
     1
175
     1
 42
40.0
 92
        8
 66
     7
 43
1.0
 76
     1
 77
     6
 78
     2
 67
     7
 79
     3
170
     0
171
     0
290
     0
174
     0
 93
        1
 44
0.0
173
     0
291
     0
 45
0.0
1001
ACAD
1000
AcDbSavedByObjectVersion
1070
     0
  0
VISUALSTYLE
  5
318F
102
{ACAD_XDICTIONARY
360
323F
102
}
102
{ACAD_REACTORS
330
317D
102
}
330
317D
100
AcDbVisualStyle
  2
Sketchy
 70
    24
 71
     1
 72
     2
 73
     2
 90
        0
 40
-0.6
 41
-30.0
 62
     5
 63
     7
 74
     2
 91
        2
 64
     7
 65
     7
 75
     1
175
     1
 42
40.0
 92
       11
 66
     7
 43
1.0
 76
     1
 77
     6
 78
     2
 67
     7
 79
     6
170
     0
171
     0
290
     0
174
     0
 93
        1
 44
0.0
173
     0
291
     0
 45
0.0
1001
ACAD
1000
AcDbSavedByObjectVersion
1070
     0
  0
VISUALSTYLE
  5
318A
102
{ACAD_XDICTIONARY
360
3235
102
}
102
{ACAD_REACTORS
330
317D
102
}
330
317D
100
AcDbVisualStyle
  2
Thicken
 70
    13
 71
     2
 72
     2
 73
     0
 90
        0
 40
-0.6
 41
-30.0
 62
     5
 63
     7
 74
     1
 91
        4
 64
     7
 65
   257
 75
     1
175
     1
 42
1.0
 92
       12
 66
     7
 43
1.0
 76
     1
 77
     6
 78
     2
 67
     7
 79
     5
170
     0
171
     0
290
     0
174
     0
 93
        1
 44
0.0
173
     0
291
     1
 45
0.0
1001
ACAD
1000
AcDbSavedByObjectVersion
1070
     0
  0
VISUALSTYLE
  5
3184
102
{ACAD_XDICTIONARY
360
3229
102
}
102
{ACAD_REACTORS
330
317D
102
}
330
317D
100
AcDbVisualStyle
  2
Wireframe
 70
     5
 71
     0
 72
     2
 73
     0
 90
        0
 40
-0.6
 41
-30.0
 62
     5
 63
     7
 74
     1
 91
        4
 64
     7
 65
   257
 75
     1
175
     1
 42
1.0
 92
        0
 66
   257
 43
1.0
 76
     1
 77
     6
 78
     2
 67
     7
 79
     3
170
     0
171
     0
290
     0
174
     0
 93
        1
 44
0.0
173
     0
291
     0
 45
0.0
1001
ACAD
1000
AcDbSavedByObjectVersion
1070
     0
  0
VISUALSTYLE
  5
3190
102
{ACAD_XDICTIONARY
360
3241
102
}
102
{ACAD_REACTORS
330
317D
102
}
330
317D
100
AcDbVisualStyle
  2
X-Ray
 70
    25
 71
     2
 72
     2
 73
     1
 90
        1
 40
0.5
 41
-30.0
 62
     5
 63
     7
 74
     1
 91
        0
 64
     7
 65
   257
 75
     1
175
     1
 42
1.0
 92
        8
 66
     7
 43
1.0
 76
     1
 77
     6
 78
     2
 67
     7
 79
     3
170
     0
171
     0
290
     0
174
     0
 93
       13
 44
0.0
173
     0
291
     0
 45
0.0
1001
ACAD
1000
AcDbSavedByObjectVersion
1070
     0
  0
DICTIONARYVAR
  5
320C
102
{ACAD_REACTORS
330
3207
102
}
330
3207
100
DictionaryVariables
280
     0
  1
1:1
  0
DICTIONARYVAR
  5
3209
102
{ACAD_REACTORS
330
3207
102
}
330
3207
100
DictionaryVariables
280
     0
  1
STANDARD
  0
DICTIONARYVAR
  5
3208
102
{ACAD_REACTORS
330
3207
102
}
330
3207
100
DictionaryVariables
280
     0
  1
STANDARD
  0
DICTIONARYVAR
  5
320A
102
{ACAD_REACTORS
330
3207
102
}
330
3207
100
DictionaryVariables
280
     0
  1
Imperial24
  0
DICTIONARYVAR
  5
320B
102
{ACAD_REACTORS
330
3207
102
}
330
3207
100
DictionaryVariables
280
     0
  1
Imperial24
  0
DICTIONARYVAR
  5
3210
102
{ACAD_REACTORS
330
3207
102
}
330
3207
100
DictionaryVariables
280
     0
  1
1
  0
DICTIONARYVAR
  5
320E
102
{ACAD_REACTORS
330
3207
102
}
330
3207
100
DictionaryVariables
280
     0
  1
0
  0
DICTIONARYVAR
  5
320D
102
{ACAD_REACTORS
330
3207
102
}
330
3207
100
DictionaryVariables
280
     0
  1
127
  0
DICTIONARYVAR
  5
320F
102
{ACAD_REACTORS
330
3207
102
}
330
3207
100
DictionaryVariables
280
     0
  1
0
  0
XRECORD
  5
3206
102
{ACAD_REACTORS
330
3204
102
}
330
3204
100
AcDbXrecord
280
     1
  0
DICTIONARY
  5
3216
330
BF6
100
AcDbDictionary
280
     1
281
     1
  3
ACAD_XREC_ROUNDTRIP
360
3217
  0
DICTIONARY
  5
3218
330
BFA
100
AcDbDictionary
280
     1
281
     1
  3
ACAD_XREC_ROUNDTRIP
360
3219
  0
DICTIONARY
  5
316E
330
316D
100
AcDbDictionary
280
     1
281
     1
  3
ACAD_XREC_ROUNDTRIP
360
321B
  3
BUMPTILE
360
3170
  3
DIFFUSETILE
360
316F
  3
OPACITYTILE
360
3173
  3
REFLECTIONTILE
360
3172
  3
REFRACTIONTILE
360
3174
  3
SPECULARTILE
360
3171
  0
DICTIONARY
  5
3166
330
3165
100
AcDbDictionary
280
     1
281
     1
  3
ACAD_XREC_ROUNDTRIP
360
321A
  3
BUMPTILE
360
3168
  3
DIFFUSETILE
360
3167
  3
OPACITYTILE
360
316B
  3
REFLECTIONTILE
360
316A
  3
REFRACTIONTILE
360
316C
  3
SPECULARTILE
360
3169
  0
DICTIONARY
  5
3176
330
3175
100
AcDbDictionary
280
     1
281
     1
  3
ACAD_XREC_ROUNDTRIP
360
321C
  3
BUMPTILE
360
3178
  3
DIFFUSETILE
360
3177
  3
OPACITYTILE
360
317B
  3
REFLECTIONTILE
360
317A
  3
REFRACTIONTILE
360
317C
  3
SPECULARTILE
360
3179
  0
DICTIONARY
  5
3212
330
3197
100
AcDbDictionary
280
     1
281
     1
  3
ACAD_ROUNDTRIP_2008_TABLESTYLE_CELLSTYLEMAP
360
3213
  3
ACAD_XREC_ROUNDTRIP
360
324D
  0
DICTIONARY
  5
3227
330
3183
100
AcDbDictionary
280
     1
281
     1
  3
ACAD_XREC_ROUNDTRIP
360
3228
  0
DICTIONARY
  5
3225
330
3182
100
AcDbDictionary
280
     1
281
     1
  3
ACAD_XREC_ROUNDTRIP
360
3226
  0
DICTIONARY
  5
3233
330
3189
100
AcDbDictionary
280
     1
281
     1
  3
ACAD_XREC_ROUNDTRIP
360
3234
  0
DICTIONARY
  5
323B
330
318D
100
AcDbDictionary
280
     1
281
     1
  3
ACAD_XREC_ROUNDTRIP
360
323C
  0
DICTIONARY
  5
322D
330
3186
100
AcDbDictionary
280
     1
281
     1
  3
ACAD_XREC_ROUNDTRIP
360
322E
  0
DICTIONARY
  5
3231
330
3188
100
AcDbDictionary
280
     1
281
     1
  3
ACAD_XREC_ROUNDTRIP
360
3232
  0
DICTIONARY
  5
324B
330
3195
100
AcDbDictionary
280
     1
281
     1
  3
ACAD_XREC_ROUNDTRIP
360
324C
  0
DICTIONARY
  5
3239
330
318C
100
AcDbDictionary
280
     1
281
     1
  3
ACAD_XREC_ROUNDTRIP
360
323A
  0
DICTIONARY
  5
321D
330
317E
100
AcDbDictionary
280
     1
281
     1
  3
ACAD_XREC_ROUNDTRIP
360
321E
  0
DICTIONARY
  5
321F
330
317F
100
AcDbDictionary
280
     1
281
     1
  3
ACAD_XREC_ROUNDTRIP
360
3220
  0
DICTIONARY
  5
3221
330
3180
100
AcDbDictionary
280
     1
281
     1
  3
ACAD_XREC_ROUNDTRIP
360
3222
  0
DICTIONARY
  5
3223
330
3181
100
AcDbDictionary
280
     1
281
     1
  3
ACAD_XREC_ROUNDTRIP
360
3224
  0
DICTIONARY
  5
322B
330
3185
100
AcDbDictionary
280
     1
281
     1
  3
ACAD_XREC_ROUNDTRIP
360
322C
  0
DICTIONARY
  5
3247
330
3193
100
AcDbDictionary
280
     1
281
     1
  3
ACAD_XREC_ROUNDTRIP
360
3248
  0
DICTIONARY
  5
3237
330
318B
100
AcDbDictionary
280
     1
281
     1
  3
ACAD_XREC_ROUNDTRIP
360
3238
  0
DICTIONARY
  5
3249
330
3194
100
AcDbDictionary
280
     1
281
     1
  3
ACAD_XREC_ROUNDTRIP
360
324A
  0
DICTIONARY
  5
322F
330
3187
100
AcDbDictionary
280
     1
281
     1
  3
ACAD_XREC_ROUNDTRIP
360
3230
  0
DICTIONARY
  5
3245
330
3192
100
AcDbDictionary
280
     1
281
     1
  3
ACAD_XREC_ROUNDTRIP
360
3246
  0
DICTIONARY
  5
3243
330
3191
100
AcDbDictionary
280
     1
281
     1
  3
ACAD_XREC_ROUNDTRIP
360
3244
  0
DICTIONARY
  5
323D
330
318E
100
AcDbDictionary
280
     1
281
     1
  3
ACAD_XREC_ROUNDTRIP
360
323E
  0
DICTIONARY
  5
323F
330
318F
100
AcDbDictionary
280
     1
281
     1
  3
ACAD_XREC_ROUNDTRIP
360
3240
  0
DICTIONARY
  5
3235
330
318A
100
AcDbDictionary
280
     1
281
     1
  3
ACAD_XREC_ROUNDTRIP
360
3236
  0
DICTIONARY
  5
3229
330
3184
100
AcDbDictionary
280
     1
281
     1
  3
ACAD_XREC_ROUNDTRIP
360
322A
  0
DICTIONARY
  5
3241
330
3190
100
AcDbDictionary
280
     1
281
     1
  3
ACAD_XREC_ROUNDTRIP
360
3242
  0
XRECORD
  5
3217
102
{ACAD_REACTORS
330
3216
102
}
330
3216
100
AcDbXrecord
280
     1
102
SHADEPLOT
 70
     0
102
SHADEPLOTRESLEVEL
 70
     2
102
SHADEPLOTCUSTOMDPI
 70
   300
  0
XRECORD
  5
3219
102
{ACAD_REACTORS
330
3218
102
}
330
3218
100
AcDbXrecord
280
     1
102
SHADEPLOT
 70
     0
102
SHADEPLOTRESLEVEL
 70
     2
102
SHADEPLOTCUSTOMDPI
 70
   300
  0
XRECORD
  5
321B
102
{ACAD_REACTORS
330
316E
102
}
330
316E
100
AcDbXrecord
280
     1
102
MATERIAL
148
0.0
149
0.0
149
0.0
 93
        0
 94
      127
282
     0
 72
     0
 77
     0
171
     0
175
     0
179
     0
273
     0
  0
XRECORD
  5
3170
102
{ACAD_REACTORS
330
316E
102
}
330
316E
100
AcDbXrecord
280
     1
270
     1
271
     1
  0
XRECORD
  5
316F
102
{ACAD_REACTORS
330
316E
102
}
330
316E
100
AcDbXrecord
280
     1
270
     1
271
     1
  0
XRECORD
  5
3173
102
{ACAD_REACTORS
330
316E
102
}
330
316E
100
AcDbXrecord
280
     1
270
     1
271
     1
  0
XRECORD
  5
3172
102
{ACAD_REACTORS
330
316E
102
}
330
316E
100
AcDbXrecord
280
     1
270
     1
271
     1
  0
XRECORD
  5
3174
102
{ACAD_REACTORS
330
316E
102
}
330
316E
100
AcDbXrecord
280
     1
270
     1
271
     1
  0
XRECORD
  5
3171
102
{ACAD_REACTORS
330
316E
102
}
330
316E
100
AcDbXrecord
280
     1
270
     1
271
     1
  0
XRECORD
  5
321A
102
{ACAD_REACTORS
330
3166
102
}
330
3166
100
AcDbXrecord
280
     1
102
MATERIAL
148
0.0
149
0.0
149
0.0
 93
        0
 94
      127
282
     0
 72
     0
 77
     0
171
     0
175
     0
179
     0
273
     0
  0
XRECORD
  5
3168
102
{ACAD_REACTORS
330
3166
102
}
330
3166
100
AcDbXrecord
280
     1
270
     1
271
     1
  0
XRECORD
  5
3167
102
{ACAD_REACTORS
330
3166
102
}
330
3166
100
AcDbXrecord
280
     1
270
     1
271
     1
  0
XRECORD
  5
316B
102
{ACAD_REACTORS
330
3166
102
}
330
3166
100
AcDbXrecord
280
     1
270
     1
271
     1
  0
XRECORD
  5
316A
102
{ACAD_REACTORS
330
3166
102
}
330
3166
100
AcDbXrecord
280
     1
270
     1
271
     1
  0
XRECORD
  5
316C
102
{ACAD_REACTORS
330
3166
102
}
330
3166
100
AcDbXrecord
280
     1
270
     1
271
     1
  0
XRECORD
  5
3169
102
{ACAD_REACTORS
330
3166
102
}
330
3166
100
AcDbXrecord
280
     1
270
     1
271
     1
  0
XRECORD
  5
321C
102
{ACAD_REACTORS
330
3176
102
}
330
3176
100
AcDbXrecord
280
     1
102
MATERIAL
148
0.0
149
0.0
149
0.0
 93
        0
 94
      127
282
     0
 72
     0
 77
     0
171
     0
175
     0
179
     0
273
     0
  0
XRECORD
  5
3178
102
{ACAD_REACTORS
330
3176
102
}
330
3176
100
AcDbXrecord
280
     1
270
     1
271
     1
  0
XRECORD
  5
3177
102
{ACAD_REACTORS
330
3176
102
}
330
3176
100
AcDbXrecord
280
     1
270
     1
271
     1
  0
XRECORD
  5
317B
102
{ACAD_REACTORS
330
3176
102
}
330
3176
100
AcDbXrecord
280
     1
270
     1
271
     1
  0
XRECORD
  5
317A
102
{ACAD_REACTORS
330
3176
102
}
330
3176
100
AcDbXrecord
280
     1
270
     1
271
     1
  0
XRECORD
  5
317C
102
{ACAD_REACTORS
330
3176
102
}
330
3176
100
AcDbXrecord
280
     1
270
     1
271
     1
  0
XRECORD
  5
3179
102
{ACAD_REACTORS
330
3176
102
}
330
3176
100
AcDbXrecord
280
     1
270
     1
271
     1
  0
CELLSTYLEMAP
  5
3213
102
{ACAD_REACTORS
330
3212
102
}
330
3212
100
AcDbCellStyleMap
 90
        3
300
CELLSTYLE
  1
TABLEFORMAT_BEGIN
 90
        5
170
     1
 91
        0
 92
    32768
 62
   257
 93
        1
300
CONTENTFORMAT
  1
CONTENTFORMAT_BEGIN
 90
        0
 91
        0
 92
      512
 93
        0
300

 40
0.0
140
1.0
 94
        5
 62
     0
340
BE8
144
0.25
309
CONTENTFORMAT_END
171
     0
 94
        0
309
TABLEFORMAT_END
  1
CELLSTYLE_BEGIN
 90
        1
 91
        1
300
_TITLE
309
CELLSTYLE_END
300
CELLSTYLE
  1
TABLEFORMAT_BEGIN
 90
        5
170
     1
 91
        0
 92
        0
 62
   257
 93
        1
300
CONTENTFORMAT
  1
CONTENTFORMAT_BEGIN
 90
        0
 91
        0
 92
      512
 93
        0
300

 40
0.0
140
1.0
 94
        5
 62
     0
340
BE8
144
0.18
309
CONTENTFORMAT_END
171
     0
 94
        0
309
TABLEFORMAT_END
  1
CELLSTYLE_BEGIN
 90
        2
 91
        1
300
_HEADER
309
CELLSTYLE_END
300
CELLSTYLE
  1
TABLEFORMAT_BEGIN
 90
        5
170
     1
 91
        0
 92
        0
 62
   257
 93
        1
300
CONTENTFORMAT
  1
CONTENTFORMAT_BEGIN
 90
        0
 91
        0
 92
      512
 93
        0
300

 40
0.0
140
1.0
 94
        2
 62
     0
340
BE8
144
0.18
309
CONTENTFORMAT_END
171
     0
 94
        0
309
TABLEFORMAT_END
  1
CELLSTYLE_BEGIN
 90
        3
 91
        2
300
_DATA
309
CELLSTYLE_END
  0
XRECORD
  5
324D
102
{ACAD_REACTORS
330
3212
102
}
330
3212
100
AcDbXrecord
280
     1
102
ACAD_ROUNDTRIP_PRE2007_TABLESTYLE
 90
      512
 91
        0
  1

 92
      512
 93
        0
  2

 94
      512
 95
        0
  3

  0
XRECORD
  5
3228
102
{ACAD_REACTORS
330
3227
102
}
330
3227
100
AcDbXrecord
280
     1
102
RTVSPost2010Prop28
280
     1
102
RTVSPost2010PropOp28
 70
     1
102
RTVSPost2010Prop29
280
     1
102
RTVSPost2010PropOp29
 70
     1
102
RTVSPost2010Prop30
280
     0
102
RTVSPost2010PropOp30
 70
     1
102
RTVSPost2010Prop31
280
     0
102
RTVSPost2010PropOp31
 70
     1
102
RTVSPost2010Prop32
280
     0
102
RTVSPost2010PropOp32
 70
     1
102
RTVSPost2010Prop33
280
     0
102
RTVSPost2010PropOp33
 70
     1
102
RTVSPost2010Prop34
280
     0
102
RTVSPost2010PropOp34
 70
     1
102
RTVSPost2010Prop35
280
     0
102
RTVSPost2010PropOp35
 70
     1
102
RTVSPost2010Prop36
280
     0
102
RTVSPost2010PropOp36
 70
     1
102
RTVSPost2010Prop37
 90
       50
102
RTVSPost2010PropOp37
 70
     1
102
RTVSPost2010Prop38
140
0.0
102
RTVSPost2010PropOp38
 70
     1
102
RTVSPost2010Prop39
140
1.0
102
RTVSPost2010PropOp39
 70
     1
102
RTVSPost2010Prop40
 90
        0
102
RTVSPost2010PropOp40
 70
     1
102
RTVSPost2010Prop41ColorIndex
 90
       18
102
RTVSPost2010Prop41ColorRGB
 90
        0
102
RTVSPost2010PropOp41
 70
     1
102
RTVSPost2010Prop42
 90
       50
102
RTVSPost2010PropOp42
 70
     1
102
RTVSPost2010Prop43
 90
        3
102
RTVSPost2010PropOp43
 70
     1
102
RTVSPost2010Prop44ColorIndex
 90
        5
102
RTVSPost2010Prop44ColorRGB
 90
      255
102
RTVSPost2010PropOp44
 70
     1
102
RTVSPost2010Prop45
280
     0
102
RTVSPost2010PropOp45
 70
     1
102
RTVSPost2010Prop46
 90
       50
102
RTVSPost2010PropOp46
 70
     1
102
RTVSPost2010Prop47
 90
       50
102
RTVSPost2010PropOp47
 70
     1
102
RTVSPost2010Prop48
 90
       50
102
RTVSPost2010PropOp48
 70
     1
102
RTVSPost2010Prop49
280
     0
102
RTVSPost2010PropOp49
 70
     1
102
RTVSPost2010Prop50
 90
       50
102
RTVSPost2010PropOp50
 70
     1
102
RTVSPost2010Prop51ColorIndex
 90
      256
102
RTVSPost2010Prop51ColorRGB
 90
-16777216
102
RTVSPost2010PropOp51
 70
     0
102
RTVSPost2010Prop52
140
1.0
102
RTVSPost2010PropOp52
 70
     0
102
RTVSPost2010Prop53
 90
        2
102
RTVSPost2010PropOp53
 70
     1
102
RTVSPost2010Prop54
  1
strokes_ogs.tif
102
RTVSPost2010PropOp54
 70
     1
102
RTVSPost2010Prop55
280
     0
102
RTVSPost2010PropOp55
 70
     1
102
RTVSPost2010Prop56
140
1.0
102
RTVSPost2010PropOp56
 70
     1
102
RTVSPost2010Prop57
140
1.0
102
RTVSPost2010PropOp57
 70
     1
102
RTVSPropertyOp0
 70
     1
102
RTVSPropertyOp1
 70
     1
102
RTVSPropertyOp2
 70
     1
102
RTVSPropertyOp3
 70
     1
102
RTVSPropertyOp4
 70
     1
102
RTVSPropertyOp5
 70
     1
102
RTVSPropertyOp6
 70
     1
102
RTVSPropertyOp7
 70
     1
102
RTVSPropertyOp8
 70
     1
102
RTVSPropertyOp9
 70
     1
102
RTVSPropertyOp10
 70
     1
102
RTVSPropertyOp11
 70
     1
102
RTVSPropertyOp12
 70
     1
102
RTVSPropertyOp13
 70
     1
102
RTVSPropertyOp14
 70
     1
102
RTVSPropertyOp15
 70
     1
102
RTVSPropertyOp16
 70
     1
102
RTVSPropertyOp17
 70
     1
102
RTVSPropertyOp18
 70
     1
102
RTVSPropertyOp19
 70
     1
102
RTVSPropertyOp20
 70
     1
102
RTVSPropertyOp21
 70
     1
102
RTVSPropertyOp22
 70
     1
102
RTVSPropertyOp23
 70
     1
102
RTVSPropertyOp24
 70
     1
102
RTVSPropertyOp25
 70
     1
102
RTVSPropertyOp26
 70
     1
102
RTVSPropertyOp27
 70
     1
102
RTVSPropertyOp28
 70
     1
102
RTVSPropertyOp29
 70
     1
102
RTVSPropertyOp30
 70
     1
102
RTVSPropertyOp31
 70
     1
102
RTVSPropertyOp32
 70
     1
102
RTVSPropertyOp33
 70
     1
102
RTVSPropertyOp34
 70
     1
102
RTVSPropertyOp35
 70
     1
102
RTVSPropertyOp36
 70
     1
102
RTVSPropertyOp37
 70
     1
102
RTVSPropertyOp38
 70
     1
102
RTVSPropertyOp39
 70
     1
102
RTVSPropertyOp40
 70
     1
102
RTVSPropertyOp41
 70
     1
102
RTVSPropertyOp42
 70
     1
102
RTVSPropertyOp43
 70
     1
102
RTVSPropertyOp44
 70
     1
102
RTVSPropertyOp45
 70
     1
102
RTVSPropertyOp46
 70
     1
102
RTVSPropertyOp47
 70
     1
102
RTVSPropertyOp48
 70
     1
102
RTVSPropertyOp49
 70
     1
102
RTVSPropertyOp50
 70
     1
102
RTVSPropertyOp51
 70
     0
102
RTVSPropertyOp52
 70
     0
102
RTVSPropertyOp53
 70
     1
102
RTVSPropertyOp54
 70
     1
102
RTVSPropertyOp55
 70
     1
102
RTVSPropertyOp56
 70
     1
102
RTVSPropertyOp57
 70
     1
102
RTVSPropertyOp58
 70
     1
102
RTVSPropertyOp59
 70
     1
102
RTVSPropertyOp60
 70
     1
102
RTVSPropertyOp61
 70
     1
102
RTVSPropertyOp62
 70
     1
  0
XRECORD
  5
3226
102
{ACAD_REACTORS
330
3225
102
}
330
3225
100
AcDbXrecord
280
     1
102
RTVSPost2010Prop28
280
     0
102
RTVSPost2010PropOp28
 70
     1
102
RTVSPost2010Prop29
280
     1
102
RTVSPost2010PropOp29
 70
     1
102
RTVSPost2010Prop30
280
     1
102
RTVSPost2010PropOp30
 70
     1
102
RTVSPost2010Prop31
280
     0
102
RTVSPost2010PropOp31
 70
     1
102
RTVSPost2010Prop32
280
     0
102
RTVSPost2010PropOp32
 70
     1
102
RTVSPost2010Prop33
280
     0
102
RTVSPost2010PropOp33
 70
     1
102
RTVSPost2010Prop34
280
     0
102
RTVSPost2010PropOp34
 70
     1
102
RTVSPost2010Prop35
280
     0
102
RTVSPost2010PropOp35
 70
     1
102
RTVSPost2010Prop36
280
     0
102
RTVSPost2010PropOp36
 70
     1
102
RTVSPost2010Prop37
 90
       50
102
RTVSPost2010PropOp37
 70
     1
102
RTVSPost2010Prop38
140
0.0
102
RTVSPost2010PropOp38
 70
     1
102
RTVSPost2010Prop39
140
1.0
102
RTVSPost2010PropOp39
 70
     1
102
RTVSPost2010Prop40
 90
        0
102
RTVSPost2010PropOp40
 70
     1
102
RTVSPost2010Prop41ColorIndex
 90
       18
102
RTVSPost2010Prop41ColorRGB
 90
        0
102
RTVSPost2010PropOp41
 70
     1
102
RTVSPost2010Prop42
 90
       50
102
RTVSPost2010PropOp42
 70
     1
102
RTVSPost2010Prop43
 90
        3
102
RTVSPost2010PropOp43
 70
     1
102
RTVSPost2010Prop44ColorIndex
 90
        5
102
RTVSPost2010Prop44ColorRGB
 90
      255
102
RTVSPost2010PropOp44
 70
     1
102
RTVSPost2010Prop45
280
     0
102
RTVSPost2010PropOp45
 70
     1
102
RTVSPost2010Prop46
 90
       50
102
RTVSPost2010PropOp46
 70
     1
102
RTVSPost2010Prop47
 90
       50
102
RTVSPost2010PropOp47
 70
     1
102
RTVSPost2010Prop48
 90
       50
102
RTVSPost2010PropOp48
 70
     1
102
RTVSPost2010Prop49
280
     0
102
RTVSPost2010PropOp49
 70
     1
102
RTVSPost2010Prop50
 90
       50
102
RTVSPost2010PropOp50
 70
     1
102
RTVSPost2010Prop51ColorIndex
 90
      256
102
RTVSPost2010Prop51ColorRGB
 90
-16777216
102
RTVSPost2010PropOp51
 70
     0
102
RTVSPost2010Prop52
140
1.0
102
RTVSPost2010PropOp52
 70
     0
102
RTVSPost2010Prop53
 90
        2
102
RTVSPost2010PropOp53
 70
     1
102
RTVSPost2010Prop54
  1
strokes_ogs.tif
102
RTVSPost2010PropOp54
 70
     1
102
RTVSPost2010Prop55
280
     0
102
RTVSPost2010PropOp55
 70
     1
102
RTVSPost2010Prop56
140
1.0
102
RTVSPost2010PropOp56
 70
     1
102
RTVSPost2010Prop57
140
1.0
102
RTVSPost2010PropOp57
 70
     1
102
RTVSPropertyOp0
 70
     1
102
RTVSPropertyOp1
 70
     1
102
RTVSPropertyOp2
 70
     1
102
RTVSPropertyOp3
 70
     1
102
RTVSPropertyOp4
 70
     1
102
RTVSPropertyOp5
 70
     1
102
RTVSPropertyOp6
 70
     1
102
RTVSPropertyOp7
 70
     1
102
RTVSPropertyOp8
 70
     1
102
RTVSPropertyOp9
 70
     1
102
RTVSPropertyOp10
 70
     1
102
RTVSPropertyOp11
 70
     1
102
RTVSPropertyOp12
 70
     1
102
RTVSPropertyOp13
 70
     1
102
RTVSPropertyOp14
 70
     1
102
RTVSPropertyOp15
 70
     1
102
RTVSPropertyOp16
 70
     1
102
RTVSPropertyOp17
 70
     1
102
RTVSPropertyOp18
 70
     1
102
RTVSPropertyOp19
 70
     1
102
RTVSPropertyOp20
 70
     1
102
RTVSPropertyOp21
 70
     1
102
RTVSPropertyOp22
 70
     1
102
RTVSPropertyOp23
 70
     1
102
RTVSPropertyOp24
 70
     1
102
RTVSPropertyOp25
 70
     1
102
RTVSPropertyOp26
 70
     1
102
RTVSPropertyOp27
 70
     1
102
RTVSPropertyOp28
 70
     1
102
RTVSPropertyOp29
 70
     1
102
RTVSPropertyOp30
 70
     1
102
RTVSPropertyOp31
 70
     1
102
RTVSPropertyOp32
 70
     1
102
RTVSPropertyOp33
 70
     1
102
RTVSPropertyOp34
 70
     1
102
RTVSPropertyOp35
 70
     1
102
RTVSPropertyOp36
 70
     1
102
RTVSPropertyOp37
 70
     1
102
RTVSPropertyOp38
 70
     1
102
RTVSPropertyOp39
 70
     1
102
RTVSPropertyOp40
 70
     1
102
RTVSPropertyOp41
 70
     1
102
RTVSPropertyOp42
 70
     1
102
RTVSPropertyOp43
 70
     1
102
RTVSPropertyOp44
 70
     1
102
RTVSPropertyOp45
 70
     1
102
RTVSPropertyOp46
 70
     1
102
RTVSPropertyOp47
 70
     1
102
RTVSPropertyOp48
 70
     1
102
RTVSPropertyOp49
 70
     1
102
RTVSPropertyOp50
 70
     1
102
RTVSPropertyOp51
 70
     0
102
RTVSPropertyOp52
 70
     0
102
RTVSPropertyOp53
 70
     1
102
RTVSPropertyOp54
 70
     1
102
RTVSPropertyOp55
 70
     1
102
RTVSPropertyOp56
 70
     1
102
RTVSPropertyOp57
 70
     1
102
RTVSPropertyOp58
 70
     1
102
RTVSPropertyOp59
 70
     1
102
RTVSPropertyOp60
 70
     1
102
RTVSPropertyOp61
 70
     1
102
RTVSPropertyOp62
 70
     1
  0
XRECORD
  5
3234
102
{ACAD_REACTORS
330
3233
102
}
330
3233
100
AcDbXrecord
280
     1
102
RTVSPost2010Prop28
280
     0
102
RTVSPost2010PropOp28
 70
     1
102
RTVSPost2010Prop29
280
     1
102
RTVSPost2010PropOp29
 70
     1
102
RTVSPost2010Prop30
280
     1
102
RTVSPost2010PropOp30
 70
     1
102
RTVSPost2010Prop31
280
     0
102
RTVSPost2010PropOp31
 70
     1
102
RTVSPost2010Prop32
280
     0
102
RTVSPost2010PropOp32
 70
     1
102
RTVSPost2010Prop33
280
     0
102
RTVSPost2010PropOp33
 70
     1
102
RTVSPost2010Prop34
280
     0
102
RTVSPost2010PropOp34
 70
     1
102
RTVSPost2010Prop35
280
     0
102
RTVSPost2010PropOp35
 70
     1
102
RTVSPost2010Prop36
280
     0
102
RTVSPost2010PropOp36
 70
     1
102
RTVSPost2010Prop37
 90
       50
102
RTVSPost2010PropOp37
 70
     1
102
RTVSPost2010Prop38
140
0.0
102
RTVSPost2010PropOp38
 70
     1
102
RTVSPost2010Prop39
140
1.0
102
RTVSPost2010PropOp39
 70
     1
102
RTVSPost2010Prop40
 90
        0
102
RTVSPost2010PropOp40
 70
     1
102
RTVSPost2010Prop41ColorIndex
 90
       18
102
RTVSPost2010Prop41ColorRGB
 90
        0
102
RTVSPost2010PropOp41
 70
     1
102
RTVSPost2010Prop42
 90
       50
102
RTVSPost2010PropOp42
 70
     1
102
RTVSPost2010Prop43
 90
        3
102
RTVSPost2010PropOp43
 70
     1
102
RTVSPost2010Prop44ColorIndex
 90
        5
102
RTVSPost2010Prop44ColorRGB
 90
      255
102
RTVSPost2010PropOp44
 70
     1
102
RTVSPost2010Prop45
280
     0
102
RTVSPost2010PropOp45
 70
     1
102
RTVSPost2010Prop46
 90
       50
102
RTVSPost2010PropOp46
 70
     1
102
RTVSPost2010Prop47
 90
       50
102
RTVSPost2010PropOp47
 70
     1
102
RTVSPost2010Prop48
 90
       50
102
RTVSPost2010PropOp48
 70
     1
102
RTVSPost2010Prop49
280
     0
102
RTVSPost2010PropOp49
 70
     1
102
RTVSPost2010Prop50
 90
       50
102
RTVSPost2010PropOp50
 70
     1
102
RTVSPost2010Prop51ColorIndex
 90
      256
102
RTVSPost2010Prop51ColorRGB
 90
-16777216
102
RTVSPost2010PropOp51
 70
     0
102
RTVSPost2010Prop52
140
1.0
102
RTVSPost2010PropOp52
 70
     0
102
RTVSPost2010Prop53
 90
        2
102
RTVSPost2010PropOp53
 70
     1
102
RTVSPost2010Prop54
  1
strokes_ogs.tif
102
RTVSPost2010PropOp54
 70
     1
102
RTVSPost2010Prop55
280
     0
102
RTVSPost2010PropOp55
 70
     1
102
RTVSPost2010Prop56
140
1.0
102
RTVSPost2010PropOp56
 70
     1
102
RTVSPost2010Prop57
140
1.0
102
RTVSPost2010PropOp57
 70
     1
102
RTVSPropertyOp0
 70
     1
102
RTVSPropertyOp1
 70
     1
102
RTVSPropertyOp2
 70
     1
102
RTVSPropertyOp3
 70
     1
102
RTVSPropertyOp4
 70
     1
102
RTVSPropertyOp5
 70
     1
102
RTVSPropertyOp6
 70
     1
102
RTVSPropertyOp7
 70
     1
102
RTVSPropertyOp8
 70
     1
102
RTVSPropertyOp9
 70
     1
102
RTVSPropertyOp10
 70
     1
102
RTVSPropertyOp11
 70
     1
102
RTVSPropertyOp12
 70
     1
102
RTVSPropertyOp13
 70
     1
102
RTVSPropertyOp14
 70
     1
102
RTVSPropertyOp15
 70
     1
102
RTVSPropertyOp16
 70
     1
102
RTVSPropertyOp17
 70
     1
102
RTVSPropertyOp18
 70
     1
102
RTVSPropertyOp19
 70
     1
102
RTVSPropertyOp20
 70
     1
102
RTVSPropertyOp21
 70
     1
102
RTVSPropertyOp22
 70
     1
102
RTVSPropertyOp23
 70
     1
102
RTVSPropertyOp24
 70
     1
102
RTVSPropertyOp25
 70
     1
102
RTVSPropertyOp26
 70
     1
102
RTVSPropertyOp27
 70
     1
102
RTVSPropertyOp28
 70
     1
102
RTVSPropertyOp29
 70
     1
102
RTVSPropertyOp30
 70
     1
102
RTVSPropertyOp31
 70
     1
102
RTVSPropertyOp32
 70
     1
102
RTVSPropertyOp33
 70
     1
102
RTVSPropertyOp34
 70
     1
102
RTVSPropertyOp35
 70
     1
102
RTVSPropertyOp36
 70
     1
102
RTVSPropertyOp37
 70
     1
102
RTVSPropertyOp38
 70
     1
102
RTVSPropertyOp39
 70
     1
102
RTVSPropertyOp40
 70
     1
102
RTVSPropertyOp41
 70
     1
102
RTVSPropertyOp42
 70
     1
102
RTVSPropertyOp43
 70
     1
102
RTVSPropertyOp44
 70
     1
102
RTVSPropertyOp45
 70
     1
102
RTVSPropertyOp46
 70
     1
102
RTVSPropertyOp47
 70
     1
102
RTVSPropertyOp48
 70
     1
102
RTVSPropertyOp49
 70
     1
102
RTVSPropertyOp50
 70
     1
102
RTVSPropertyOp51
 70
     0
102
RTVSPropertyOp52
 70
     0
102
RTVSPropertyOp53
 70
     1
102
RTVSPropertyOp54
 70
     1
102
RTVSPropertyOp55
 70
     1
102
RTVSPropertyOp56
 70
     1
102
RTVSPropertyOp57
 70
     1
102
RTVSPropertyOp58
 70
     1
102
RTVSPropertyOp59
 70
     1
102
RTVSPropertyOp60
 70
     1
102
RTVSPropertyOp61
 70
     1
102
RTVSPropertyOp62
 70
     1
  0
XRECORD
  5
323C
102
{ACAD_REACTORS
330
323B
102
}
330
323B
100
AcDbXrecord
280
     1
102
RTVSPost2010Prop28
280
     0
102
RTVSPost2010PropOp28
 70
     1
102
RTVSPost2010Prop29
280
     1
102
RTVSPost2010PropOp29
 70
     1
102
RTVSPost2010Prop30
280
     1
102
RTVSPost2010PropOp30
 70
     1
102
RTVSPost2010Prop31
280
     0
102
RTVSPost2010PropOp31
 70
     1
102
RTVSPost2010Prop32
280
     0
102
RTVSPost2010PropOp32
 70
     1
102
RTVSPost2010Prop33
280
     0
102
RTVSPost2010PropOp33
 70
     1
102
RTVSPost2010Prop34
280
     0
102
RTVSPost2010PropOp34
 70
     1
102
RTVSPost2010Prop35
280
     0
102
RTVSPost2010PropOp35
 70
     1
102
RTVSPost2010Prop36
280
     0
102
RTVSPost2010PropOp36
 70
     1
102
RTVSPost2010Prop37
 90
       50
102
RTVSPost2010PropOp37
 70
     1
102
RTVSPost2010Prop38
140
0.0
102
RTVSPost2010PropOp38
 70
     1
102
RTVSPost2010Prop39
140
1.0
102
RTVSPost2010PropOp39
 70
     1
102
RTVSPost2010Prop40
 90
        0
102
RTVSPost2010PropOp40
 70
     1
102
RTVSPost2010Prop41ColorIndex
 90
       18
102
RTVSPost2010Prop41ColorRGB
 90
        0
102
RTVSPost2010PropOp41
 70
     1
102
RTVSPost2010Prop42
 90
       50
102
RTVSPost2010PropOp42
 70
     1
102
RTVSPost2010Prop43
 90
        3
102
RTVSPost2010PropOp43
 70
     1
102
RTVSPost2010Prop44ColorIndex
 90
        5
102
RTVSPost2010Prop44ColorRGB
 90
      255
102
RTVSPost2010PropOp44
 70
     1
102
RTVSPost2010Prop45
280
     0
102
RTVSPost2010PropOp45
 70
     1
102
RTVSPost2010Prop46
 90
       50
102
RTVSPost2010PropOp46
 70
     1
102
RTVSPost2010Prop47
 90
       50
102
RTVSPost2010PropOp47
 70
     1
102
RTVSPost2010Prop48
 90
       50
102
RTVSPost2010PropOp48
 70
     1
102
RTVSPost2010Prop49
280
     0
102
RTVSPost2010PropOp49
 70
     1
102
RTVSPost2010Prop50
 90
       50
102
RTVSPost2010PropOp50
 70
     1
102
RTVSPost2010Prop51ColorIndex
 90
      256
102
RTVSPost2010Prop51ColorRGB
 90
-16777216
102
RTVSPost2010PropOp51
 70
     0
102
RTVSPost2010Prop52
140
1.0
102
RTVSPost2010PropOp52
 70
     0
102
RTVSPost2010Prop53
 90
        2
102
RTVSPost2010PropOp53
 70
     1
102
RTVSPost2010Prop54
  1
strokes_ogs.tif
102
RTVSPost2010PropOp54
 70
     1
102
RTVSPost2010Prop55
280
     0
102
RTVSPost2010PropOp55
 70
     1
102
RTVSPost2010Prop56
140
1.0
102
RTVSPost2010PropOp56
 70
     1
102
RTVSPost2010Prop57
140
1.0
102
RTVSPost2010PropOp57
 70
     1
102
RTVSPropertyOp0
 70
     1
102
RTVSPropertyOp1
 70
     1
102
RTVSPropertyOp2
 70
     1
102
RTVSPropertyOp3
 70
     1
102
RTVSPropertyOp4
 70
     1
102
RTVSPropertyOp5
 70
     1
102
RTVSPropertyOp6
 70
     1
102
RTVSPropertyOp7
 70
     1
102
RTVSPropertyOp8
 70
     1
102
RTVSPropertyOp9
 70
     1
102
RTVSPropertyOp10
 70
     1
102
RTVSPropertyOp11
 70
     1
102
RTVSPropertyOp12
 70
     1
102
RTVSPropertyOp13
 70
     1
102
RTVSPropertyOp14
 70
     1
102
RTVSPropertyOp15
 70
     1
102
RTVSPropertyOp16
 70
     1
102
RTVSPropertyOp17
 70
     1
102
RTVSPropertyOp18
 70
     1
102
RTVSPropertyOp19
 70
     1
102
RTVSPropertyOp20
 70
     1
102
RTVSPropertyOp21
 70
     1
102
RTVSPropertyOp22
 70
     1
102
RTVSPropertyOp23
 70
     1
102
RTVSPropertyOp24
 70
     1
102
RTVSPropertyOp25
 70
     1
102
RTVSPropertyOp26
 70
     1
102
RTVSPropertyOp27
 70
     1
102
RTVSPropertyOp28
 70
     1
102
RTVSPropertyOp29
 70
     1
102
RTVSPropertyOp30
 70
     1
102
RTVSPropertyOp31
 70
     1
102
RTVSPropertyOp32
 70
     1
102
RTVSPropertyOp33
 70
     1
102
RTVSPropertyOp34
 70
     1
102
RTVSPropertyOp35
 70
     1
102
RTVSPropertyOp36
 70
     1
102
RTVSPropertyOp37
 70
     1
102
RTVSPropertyOp38
 70
     1
102
RTVSPropertyOp39
 70
     1
102
RTVSPropertyOp40
 70
     1
102
RTVSPropertyOp41
 70
     1
102
RTVSPropertyOp42
 70
     1
102
RTVSPropertyOp43
 70
     1
102
RTVSPropertyOp44
 70
     1
102
RTVSPropertyOp45
 70
     1
102
RTVSPropertyOp46
 70
     1
102
RTVSPropertyOp47
 70
     1
102
RTVSPropertyOp48
 70
     1
102
RTVSPropertyOp49
 70
     1
102
RTVSPropertyOp50
 70
     1
102
RTVSPropertyOp51
 70
     0
102
RTVSPropertyOp52
 70
     0
102
RTVSPropertyOp53
 70
     1
102
RTVSPropertyOp54
 70
     1
102
RTVSPropertyOp55
 70
     1
102
RTVSPropertyOp56
 70
     1
102
RTVSPropertyOp57
 70
     1
102
RTVSPropertyOp58
 70
     1
102
RTVSPropertyOp59
 70
     1
102
RTVSPropertyOp60
 70
     1
102
RTVSPropertyOp61
 70
     1
102
RTVSPropertyOp62
 70
     1
  0
XRECORD
  5
322E
102
{ACAD_REACTORS
330
322D
102
}
330
322D
100
AcDbXrecord
280
     1
102
RTVSPost2010Prop28
280
     0
102
RTVSPost2010PropOp28
 70
     1
102
RTVSPost2010Prop29
280
     1
102
RTVSPost2010PropOp29
 70
     1
102
RTVSPost2010Prop30
280
     1
102
RTVSPost2010PropOp30
 70
     1
102
RTVSPost2010Prop31
280
     0
102
RTVSPost2010PropOp31
 70
     1
102
RTVSPost2010Prop32
280
     0
102
RTVSPost2010PropOp32
 70
     1
102
RTVSPost2010Prop33
280
     0
102
RTVSPost2010PropOp33
 70
     1
102
RTVSPost2010Prop34
280
     0
102
RTVSPost2010PropOp34
 70
     1
102
RTVSPost2010Prop35
280
     0
102
RTVSPost2010PropOp35
 70
     1
102
RTVSPost2010Prop36
280
     0
102
RTVSPost2010PropOp36
 70
     1
102
RTVSPost2010Prop37
 90
       50
102
RTVSPost2010PropOp37
 70
     1
102
RTVSPost2010Prop38
140
0.0
102
RTVSPost2010PropOp38
 70
     1
102
RTVSPost2010Prop39
140
1.0
102
RTVSPost2010PropOp39
 70
     1
102
RTVSPost2010Prop40
 90
        0
102
RTVSPost2010PropOp40
 70
     1
102
RTVSPost2010Prop41ColorIndex
 90
       18
102
RTVSPost2010Prop41ColorRGB
 90
        0
102
RTVSPost2010PropOp41
 70
     1
102
RTVSPost2010Prop42
 90
       50
102
RTVSPost2010PropOp42
 70
     1
102
RTVSPost2010Prop43
 90
        3
102
RTVSPost2010PropOp43
 70
     1
102
RTVSPost2010Prop44ColorIndex
 90
        5
102
RTVSPost2010Prop44ColorRGB
 90
      255
102
RTVSPost2010PropOp44
 70
     1
102
RTVSPost2010Prop45
280
     0
102
RTVSPost2010PropOp45
 70
     1
102
RTVSPost2010Prop46
 90
       50
102
RTVSPost2010PropOp46
 70
     1
102
RTVSPost2010Prop47
 90
       50
102
RTVSPost2010PropOp47
 70
     1
102
RTVSPost2010Prop48
 90
       50
102
RTVSPost2010PropOp48
 70
     1
102
RTVSPost2010Prop49
280
     0
102
RTVSPost2010PropOp49
 70
     1
102
RTVSPost2010Prop50
 90
       50
102
RTVSPost2010PropOp50
 70
     1
102
RTVSPost2010Prop51ColorIndex
 90
      256
102
RTVSPost2010Prop51ColorRGB
 90
-16777216
102
RTVSPost2010PropOp51
 70
     0
102
RTVSPost2010Prop52
140
1.0
102
RTVSPost2010PropOp52
 70
     0
102
RTVSPost2010Prop53
 90
        2
102
RTVSPost2010PropOp53
 70
     1
102
RTVSPost2010Prop54
  1
strokes_ogs.tif
102
RTVSPost2010PropOp54
 70
     1
102
RTVSPost2010Prop55
280
     0
102
RTVSPost2010PropOp55
 70
     1
102
RTVSPost2010Prop56
140
1.0
102
RTVSPost2010PropOp56
 70
     1
102
RTVSPost2010Prop57
140
1.0
102
RTVSPost2010PropOp57
 70
     1
102
RTVSPropertyOp0
 70
     1
102
RTVSPropertyOp1
 70
     1
102
RTVSPropertyOp2
 70
     1
102
RTVSPropertyOp3
 70
     1
102
RTVSPropertyOp4
 70
     1
102
RTVSPropertyOp5
 70
     1
102
RTVSPropertyOp6
 70
     1
102
RTVSPropertyOp7
 70
     1
102
RTVSPropertyOp8
 70
     1
102
RTVSPropertyOp9
 70
     1
102
RTVSPropertyOp10
 70
     1
102
RTVSPropertyOp11
 70
     1
102
RTVSPropertyOp12
 70
     1
102
RTVSPropertyOp13
 70
     1
102
RTVSPropertyOp14
 70
     1
102
RTVSPropertyOp15
 70
     1
102
RTVSPropertyOp16
 70
     1
102
RTVSPropertyOp17
 70
     1
102
RTVSPropertyOp18
 70
     1
102
RTVSPropertyOp19
 70
     1
102
RTVSPropertyOp20
 70
     1
102
RTVSPropertyOp21
 70
     1
102
RTVSPropertyOp22
 70
     1
102
RTVSPropertyOp23
 70
     1
102
RTVSPropertyOp24
 70
     1
102
RTVSPropertyOp25
 70
     1
102
RTVSPropertyOp26
 70
     1
102
RTVSPropertyOp27
 70
     1
102
RTVSPropertyOp28
 70
     1
102
RTVSPropertyOp29
 70
     1
102
RTVSPropertyOp30
 70
     1
102
RTVSPropertyOp31
 70
     1
102
RTVSPropertyOp32
 70
     1
102
RTVSPropertyOp33
 70
     1
102
RTVSPropertyOp34
 70
     1
102
RTVSPropertyOp35
 70
     1
102
RTVSPropertyOp36
 70
     1
102
RTVSPropertyOp37
 70
     1
102
RTVSPropertyOp38
 70
     1
102
RTVSPropertyOp39
 70
     1
102
RTVSPropertyOp40
 70
     1
102
RTVSPropertyOp41
 70
     1
102
RTVSPropertyOp42
 70
     1
102
RTVSPropertyOp43
 70
     1
102
RTVSPropertyOp44
 70
     1
102
RTVSPropertyOp45
 70
     1
102
RTVSPropertyOp46
 70
     1
102
RTVSPropertyOp47
 70
     1
102
RTVSPropertyOp48
 70
     1
102
RTVSPropertyOp49
 70
     1
102
RTVSPropertyOp50
 70
     1
102
RTVSPropertyOp51
 70
     0
102
RTVSPropertyOp52
 70
     0
102
RTVSPropertyOp53
 70
     1
102
RTVSPropertyOp54
 70
     1
102
RTVSPropertyOp55
 70
     1
102
RTVSPropertyOp56
 70
     1
102
RTVSPropertyOp57
 70
     1
102
RTVSPropertyOp58
 70
     1
102
RTVSPropertyOp59
 70
     1
102
RTVSPropertyOp60
 70
     1
102
RTVSPropertyOp61
 70
     1
102
RTVSPropertyOp62
 70
     1
  0
XRECORD
  5
3232
102
{ACAD_REACTORS
330
3231
102
}
330
3231
100
AcDbXrecord
280
     1
102
RTVSPost2010Prop28
280
     0
102
RTVSPost2010PropOp28
 70
     1
102
RTVSPost2010Prop29
280
     1
102
RTVSPost2010PropOp29
 70
     1
102
RTVSPost2010Prop30
280
     1
102
RTVSPost2010PropOp30
 70
     1
102
RTVSPost2010Prop31
280
     0
102
RTVSPost2010PropOp31
 70
     1
102
RTVSPost2010Prop32
280
     0
102
RTVSPost2010PropOp32
 70
     1
102
RTVSPost2010Prop33
280
     0
102
RTVSPost2010PropOp33
 70
     1
102
RTVSPost2010Prop34
280
     0
102
RTVSPost2010PropOp34
 70
     1
102
RTVSPost2010Prop35
280
     0
102
RTVSPost2010PropOp35
 70
     1
102
RTVSPost2010Prop36
280
     0
102
RTVSPost2010PropOp36
 70
     1
102
RTVSPost2010Prop37
 90
       50
102
RTVSPost2010PropOp37
 70
     1
102
RTVSPost2010Prop38
140
0.0
102
RTVSPost2010PropOp38
 70
     1
102
RTVSPost2010Prop39
140
1.0
102
RTVSPost2010PropOp39
 70
     1
102
RTVSPost2010Prop40
 90
        0
102
RTVSPost2010PropOp40
 70
     1
102
RTVSPost2010Prop41ColorIndex
 90
       18
102
RTVSPost2010Prop41ColorRGB
 90
        0
102
RTVSPost2010PropOp41
 70
     1
102
RTVSPost2010Prop42
 90
       50
102
RTVSPost2010PropOp42
 70
     1
102
RTVSPost2010Prop43
 90
        3
102
RTVSPost2010PropOp43
 70
     1
102
RTVSPost2010Prop44ColorIndex
 90
        5
102
RTVSPost2010Prop44ColorRGB
 90
      255
102
RTVSPost2010PropOp44
 70
     1
102
RTVSPost2010Prop45
280
     0
102
RTVSPost2010PropOp45
 70
     1
102
RTVSPost2010Prop46
 90
       50
102
RTVSPost2010PropOp46
 70
     1
102
RTVSPost2010Prop47
 90
       50
102
RTVSPost2010PropOp47
 70
     1
102
RTVSPost2010Prop48
 90
       50
102
RTVSPost2010PropOp48
 70
     1
102
RTVSPost2010Prop49
280
     0
102
RTVSPost2010PropOp49
 70
     1
102
RTVSPost2010Prop50
 90
       50
102
RTVSPost2010PropOp50
 70
     1
102
RTVSPost2010Prop51ColorIndex
 90
      256
102
RTVSPost2010Prop51ColorRGB
 90
-16777216
102
RTVSPost2010PropOp51
 70
     0
102
RTVSPost2010Prop52
140
1.0
102
RTVSPost2010PropOp52
 70
     0
102
RTVSPost2010Prop53
 90
        2
102
RTVSPost2010PropOp53
 70
     1
102
RTVSPost2010Prop54
  1
strokes_ogs.tif
102
RTVSPost2010PropOp54
 70
     1
102
RTVSPost2010Prop55
280
     0
102
RTVSPost2010PropOp55
 70
     1
102
RTVSPost2010Prop56
140
1.0
102
RTVSPost2010PropOp56
 70
     1
102
RTVSPost2010Prop57
140
1.0
102
RTVSPost2010PropOp57
 70
     1
102
RTVSPropertyOp0
 70
     1
102
RTVSPropertyOp1
 70
     1
102
RTVSPropertyOp2
 70
     1
102
RTVSPropertyOp3
 70
     1
102
RTVSPropertyOp4
 70
     1
102
RTVSPropertyOp5
 70
     1
102
RTVSPropertyOp6
 70
     1
102
RTVSPropertyOp7
 70
     1
102
RTVSPropertyOp8
 70
     1
102
RTVSPropertyOp9
 70
     1
102
RTVSPropertyOp10
 70
     1
102
RTVSPropertyOp11
 70
     1
102
RTVSPropertyOp12
 70
     1
102
RTVSPropertyOp13
 70
     1
102
RTVSPropertyOp14
 70
     1
102
RTVSPropertyOp15
 70
     1
102
RTVSPropertyOp16
 70
     1
102
RTVSPropertyOp17
 70
     1
102
RTVSPropertyOp18
 70
     1
102
RTVSPropertyOp19
 70
     1
102
RTVSPropertyOp20
 70
     1
102
RTVSPropertyOp21
 70
     1
102
RTVSPropertyOp22
 70
     1
102
RTVSPropertyOp23
 70
     1
102
RTVSPropertyOp24
 70
     1
102
RTVSPropertyOp25
 70
     1
102
RTVSPropertyOp26
 70
     1
102
RTVSPropertyOp27
 70
     1
102
RTVSPropertyOp28
 70
     1
102
RTVSPropertyOp29
 70
     1
102
RTVSPropertyOp30
 70
     1
102
RTVSPropertyOp31
 70
     1
102
RTVSPropertyOp32
 70
     1
102
RTVSPropertyOp33
 70
     1
102
RTVSPropertyOp34
 70
     1
102
RTVSPropertyOp35
 70
     1
102
RTVSPropertyOp36
 70
     1
102
RTVSPropertyOp37
 70
     1
102
RTVSPropertyOp38
 70
     1
102
RTVSPropertyOp39
 70
     1
102
RTVSPropertyOp40
 70
     1
102
RTVSPropertyOp41
 70
     1
102
RTVSPropertyOp42
 70
     1
102
RTVSPropertyOp43
 70
     1
102
RTVSPropertyOp44
 70
     1
102
RTVSPropertyOp45
 70
     1
102
RTVSPropertyOp46
 70
     1
102
RTVSPropertyOp47
 70
     1
102
RTVSPropertyOp48
 70
     1
102
RTVSPropertyOp49
 70
     1
102
RTVSPropertyOp50
 70
     1
102
RTVSPropertyOp51
 70
     0
102
RTVSPropertyOp52
 70
     0
102
RTVSPropertyOp53
 70
     1
102
RTVSPropertyOp54
 70
     1
102
RTVSPropertyOp55
 70
     1
102
RTVSPropertyOp56
 70
     1
102
RTVSPropertyOp57
 70
     1
102
RTVSPropertyOp58
 70
     1
102
RTVSPropertyOp59
 70
     1
102
RTVSPropertyOp60
 70
     1
102
RTVSPropertyOp61
 70
     1
102
RTVSPropertyOp62
 70
     1
  0
XRECORD
  5
324C
102
{ACAD_REACTORS
330
324B
102
}
330
324B
100
AcDbXrecord
280
     1
102
RTVSPost2010Prop28
280
     0
102
RTVSPost2010PropOp28
 70
     1
102
RTVSPost2010Prop29
280
     1
102
RTVSPost2010PropOp29
 70
     1
102
RTVSPost2010Prop30
280
     1
102
RTVSPost2010PropOp30
 70
     1
102
RTVSPost2010Prop31
280
     0
102
RTVSPost2010PropOp31
 70
     1
102
RTVSPost2010Prop32
280
     0
102
RTVSPost2010PropOp32
 70
     1
102
RTVSPost2010Prop33
280
     0
102
RTVSPost2010PropOp33
 70
     1
102
RTVSPost2010Prop34
280
     0
102
RTVSPost2010PropOp34
 70
     1
102
RTVSPost2010Prop35
280
     0
102
RTVSPost2010PropOp35
 70
     1
102
RTVSPost2010Prop36
280
     0
102
RTVSPost2010PropOp36
 70
     1
102
RTVSPost2010Prop37
 90
       50
102
RTVSPost2010PropOp37
 70
     0
102
RTVSPost2010Prop38
140
0.0
102
RTVSPost2010PropOp38
 70
     0
102
RTVSPost2010Prop39
140
1.0
102
RTVSPost2010PropOp39
 70
     0
102
RTVSPost2010Prop40
 90
        0
102
RTVSPost2010PropOp40
 70
     0
102
RTVSPost2010Prop41ColorIndex
 90
       18
102
RTVSPost2010Prop41ColorRGB
 90
        0
102
RTVSPost2010PropOp41
 70
     0
102
RTVSPost2010Prop42
 90
       50
102
RTVSPost2010PropOp42
 70
     0
102
RTVSPost2010Prop43
 90
        3
102
RTVSPost2010PropOp43
 70
     0
102
RTVSPost2010Prop44ColorIndex
 90
        5
102
RTVSPost2010Prop44ColorRGB
 90
      255
102
RTVSPost2010PropOp44
 70
     0
102
RTVSPost2010Prop45
280
     0
102
RTVSPost2010PropOp45
 70
     1
102
RTVSPost2010Prop46
 90
       50
102
RTVSPost2010PropOp46
 70
     0
102
RTVSPost2010Prop47
 90
       50
102
RTVSPost2010PropOp47
 70
     0
102
RTVSPost2010Prop48
 90
       50
102
RTVSPost2010PropOp48
 70
     0
102
RTVSPost2010Prop49
280
     0
102
RTVSPost2010PropOp49
 70
     1
102
RTVSPost2010Prop50
 90
       50
102
RTVSPost2010PropOp50
 70
     0
102
RTVSPost2010Prop51ColorIndex
 90
      256
102
RTVSPost2010Prop51ColorRGB
 90
-16777216
102
RTVSPost2010PropOp51
 70
     0
102
RTVSPost2010Prop52
140
1.0
102
RTVSPost2010PropOp52
 70
     0
102
RTVSPost2010Prop53
 90
        2
102
RTVSPost2010PropOp53
 70
     0
102
RTVSPost2010Prop54
  1
strokes_ogs.tif
102
RTVSPost2010PropOp54
 70
     0
102
RTVSPost2010Prop55
280
     0
102
RTVSPost2010PropOp55
 70
     1
102
RTVSPost2010Prop56
140
1.0
102
RTVSPost2010PropOp56
 70
     0
102
RTVSPost2010Prop57
140
1.0
102
RTVSPost2010PropOp57
 70
     0
102
RTVSPropertyOp0
 70
     0
102
RTVSPropertyOp1
 70
     0
102
RTVSPropertyOp2
 70
     0
102
RTVSPropertyOp3
 70
     0
102
RTVSPropertyOp4
 70
     0
102
RTVSPropertyOp5
 70
     0
102
RTVSPropertyOp6
 70
     0
102
RTVSPropertyOp7
 70
     0
102
RTVSPropertyOp8
 70
     0
102
RTVSPropertyOp9
 70
     0
102
RTVSPropertyOp10
 70
     0
102
RTVSPropertyOp11
 70
     0
102
RTVSPropertyOp12
 70
     0
102
RTVSPropertyOp13
 70
     0
102
RTVSPropertyOp14
 70
     2
102
RTVSPropertyOp15
 70
     0
102
RTVSPropertyOp16
 70
     0
102
RTVSPropertyOp17
 70
     0
102
RTVSPropertyOp18
 70
     0
102
RTVSPropertyOp19
 70
     0
102
RTVSPropertyOp20
 70
     0
102
RTVSPropertyOp21
 70
     0
102
RTVSPropertyOp22
 70
     0
102
RTVSPropertyOp23
 70
     0
102
RTVSPropertyOp24
 70
     0
102
RTVSPropertyOp25
 70
     0
102
RTVSPropertyOp26
 70
     0
102
RTVSPropertyOp27
 70
     0
102
RTVSPropertyOp28
 70
     1
102
RTVSPropertyOp29
 70
     1
102
RTVSPropertyOp30
 70
     1
102
RTVSPropertyOp31
 70
     1
102
RTVSPropertyOp32
 70
     1
102
RTVSPropertyOp33
 70
     1
102
RTVSPropertyOp34
 70
     1
102
RTVSPropertyOp35
 70
     1
102
RTVSPropertyOp36
 70
     1
102
RTVSPropertyOp37
 70
     0
102
RTVSPropertyOp38
 70
     0
102
RTVSPropertyOp39
 70
     0
102
RTVSPropertyOp40
 70
     0
102
RTVSPropertyOp41
 70
     0
102
RTVSPropertyOp42
 70
     0
102
RTVSPropertyOp43
 70
     0
102
RTVSPropertyOp44
 70
     0
102
RTVSPropertyOp45
 70
     1
102
RTVSPropertyOp46
 70
     0
102
RTVSPropertyOp47
 70
     0
102
RTVSPropertyOp48
 70
     0
102
RTVSPropertyOp49
 70
     1
102
RTVSPropertyOp50
 70
     0
102
RTVSPropertyOp51
 70
     0
102
RTVSPropertyOp52
 70
     0
102
RTVSPropertyOp53
 70
     0
102
RTVSPropertyOp54
 70
     0
102
RTVSPropertyOp55
 70
     1
102
RTVSPropertyOp56
 70
     0
102
RTVSPropertyOp57
 70
     0
102
RTVSPropertyOp58
 70
     0
102
RTVSPropertyOp59
 70
     0
102
RTVSPropertyOp60
 70
     0
102
RTVSPropertyOp61
 70
     0
102
RTVSPropertyOp62
 70
     0
  0
XRECORD
  5
323A
102
{ACAD_REACTORS
330
3239
102
}
330
3239
100
AcDbXrecord
280
     1
102
RTVSPost2010Prop28
280
     0
102
RTVSPost2010PropOp28
 70
     1
102
RTVSPost2010Prop29
280
     1
102
RTVSPost2010PropOp29
 70
     1
102
RTVSPost2010Prop30
280
     1
102
RTVSPost2010PropOp30
 70
     1
102
RTVSPost2010Prop31
280
     0
102
RTVSPost2010PropOp31
 70
     1
102
RTVSPost2010Prop32
280
     0
102
RTVSPost2010PropOp32
 70
     1
102
RTVSPost2010Prop33
280
     0
102
RTVSPost2010PropOp33
 70
     1
102
RTVSPost2010Prop34
280
     0
102
RTVSPost2010PropOp34
 70
     1
102
RTVSPost2010Prop35
280
     0
102
RTVSPost2010PropOp35
 70
     1
102
RTVSPost2010Prop36
280
     0
102
RTVSPost2010PropOp36
 70
     1
102
RTVSPost2010Prop37
 90
       50
102
RTVSPost2010PropOp37
 70
     1
102
RTVSPost2010Prop38
140
0.0
102
RTVSPost2010PropOp38
 70
     1
102
RTVSPost2010Prop39
140
1.0
102
RTVSPost2010PropOp39
 70
     1
102
RTVSPost2010Prop40
 90
        0
102
RTVSPost2010PropOp40
 70
     1
102
RTVSPost2010Prop41ColorIndex
 90
       18
102
RTVSPost2010Prop41ColorRGB
 90
        0
102
RTVSPost2010PropOp41
 70
     1
102
RTVSPost2010Prop42
 90
       50
102
RTVSPost2010PropOp42
 70
     1
102
RTVSPost2010Prop43
 90
        3
102
RTVSPost2010PropOp43
 70
     1
102
RTVSPost2010Prop44ColorIndex
 90
        5
102
RTVSPost2010Prop44ColorRGB
 90
      255
102
RTVSPost2010PropOp44
 70
     1
102
RTVSPost2010Prop45
280
     0
102
RTVSPost2010PropOp45
 70
     1
102
RTVSPost2010Prop46
 90
       50
102
RTVSPost2010PropOp46
 70
     1
102
RTVSPost2010Prop47
 90
       50
102
RTVSPost2010PropOp47
 70
     1
102
RTVSPost2010Prop48
 90
       50
102
RTVSPost2010PropOp48
 70
     1
102
RTVSPost2010Prop49
280
     0
102
RTVSPost2010PropOp49
 70
     1
102
RTVSPost2010Prop50
 90
       50
102
RTVSPost2010PropOp50
 70
     1
102
RTVSPost2010Prop51ColorIndex
 90
      256
102
RTVSPost2010Prop51ColorRGB
 90
-16777216
102
RTVSPost2010PropOp51
 70
     0
102
RTVSPost2010Prop52
140
1.0
102
RTVSPost2010PropOp52
 70
     0
102
RTVSPost2010Prop53
 90
        2
102
RTVSPost2010PropOp53
 70
     1
102
RTVSPost2010Prop54
  1
strokes_ogs.tif
102
RTVSPost2010PropOp54
 70
     1
102
RTVSPost2010Prop55
280
     0
102
RTVSPost2010PropOp55
 70
     1
102
RTVSPost2010Prop56
140
1.0
102
RTVSPost2010PropOp56
 70
     1
102
RTVSPost2010Prop57
140
1.0
102
RTVSPost2010PropOp57
 70
     1
102
RTVSPropertyOp0
 70
     1
102
RTVSPropertyOp1
 70
     1
102
RTVSPropertyOp2
 70
     1
102
RTVSPropertyOp3
 70
     1
102
RTVSPropertyOp4
 70
     1
102
RTVSPropertyOp5
 70
     1
102
RTVSPropertyOp6
 70
     1
102
RTVSPropertyOp7
 70
     1
102
RTVSPropertyOp8
 70
     1
102
RTVSPropertyOp9
 70
     1
102
RTVSPropertyOp10
 70
     1
102
RTVSPropertyOp11
 70
     1
102
RTVSPropertyOp12
 70
     1
102
RTVSPropertyOp13
 70
     1
102
RTVSPropertyOp14
 70
     1
102
RTVSPropertyOp15
 70
     1
102
RTVSPropertyOp16
 70
     1
102
RTVSPropertyOp17
 70
     1
102
RTVSPropertyOp18
 70
     1
102
RTVSPropertyOp19
 70
     1
102
RTVSPropertyOp20
 70
     1
102
RTVSPropertyOp21
 70
     1
102
RTVSPropertyOp22
 70
     1
102
RTVSPropertyOp23
 70
     1
102
RTVSPropertyOp24
 70
     1
102
RTVSPropertyOp25
 70
     1
102
RTVSPropertyOp26
 70
     1
102
RTVSPropertyOp27
 70
     1
102
RTVSPropertyOp28
 70
     1
102
RTVSPropertyOp29
 70
     1
102
RTVSPropertyOp30
 70
     1
102
RTVSPropertyOp31
 70
     1
102
RTVSPropertyOp32
 70
     1
102
RTVSPropertyOp33
 70
     1
102
RTVSPropertyOp34
 70
     1
102
RTVSPropertyOp35
 70
     1
102
RTVSPropertyOp36
 70
     1
102
RTVSPropertyOp37
 70
     1
102
RTVSPropertyOp38
 70
     1
102
RTVSPropertyOp39
 70
     1
102
RTVSPropertyOp40
 70
     1
102
RTVSPropertyOp41
 70
     1
102
RTVSPropertyOp42
 70
     1
102
RTVSPropertyOp43
 70
     1
102
RTVSPropertyOp44
 70
     1
102
RTVSPropertyOp45
 70
     1
102
RTVSPropertyOp46
 70
     1
102
RTVSPropertyOp47
 70
     1
102
RTVSPropertyOp48
 70
     1
102
RTVSPropertyOp49
 70
     1
102
RTVSPropertyOp50
 70
     1
102
RTVSPropertyOp51
 70
     0
102
RTVSPropertyOp52
 70
     0
102
RTVSPropertyOp53
 70
     1
102
RTVSPropertyOp54
 70
     1
102
RTVSPropertyOp55
 70
     1
102
RTVSPropertyOp56
 70
     1
102
RTVSPropertyOp57
 70
     1
102
RTVSPropertyOp58
 70
     1
102
RTVSPropertyOp59
 70
     1
102
RTVSPropertyOp60
 70
     1
102
RTVSPropertyOp61
 70
     1
102
RTVSPropertyOp62
 70
     1
  0
XRECORD
  5
321E
102
{ACAD_REACTORS
330
321D
102
}
330
321D
100
AcDbXrecord
280
     1
102
RTVSPost2010Prop28
280
     0
102
RTVSPost2010PropOp28
 70
     1
102
RTVSPost2010Prop29
280
     1
102
RTVSPost2010PropOp29
 70
     1
102
RTVSPost2010Prop30
280
     1
102
RTVSPost2010PropOp30
 70
     1
102
RTVSPost2010Prop31
280
     0
102
RTVSPost2010PropOp31
 70
     1
102
RTVSPost2010Prop32
280
     0
102
RTVSPost2010PropOp32
 70
     1
102
RTVSPost2010Prop33
280
     0
102
RTVSPost2010PropOp33
 70
     1
102
RTVSPost2010Prop34
280
     0
102
RTVSPost2010PropOp34
 70
     1
102
RTVSPost2010Prop35
280
     0
102
RTVSPost2010PropOp35
 70
     1
102
RTVSPost2010Prop36
280
     0
102
RTVSPost2010PropOp36
 70
     1
102
RTVSPost2010Prop37
 90
       50
102
RTVSPost2010PropOp37
 70
     1
102
RTVSPost2010Prop38
140
0.0
102
RTVSPost2010PropOp38
 70
     1
102
RTVSPost2010Prop39
140
1.0
102
RTVSPost2010PropOp39
 70
     1
102
RTVSPost2010Prop40
 90
        0
102
RTVSPost2010PropOp40
 70
     1
102
RTVSPost2010Prop41ColorIndex
 90
       18
102
RTVSPost2010Prop41ColorRGB
 90
        0
102
RTVSPost2010PropOp41
 70
     1
102
RTVSPost2010Prop42
 90
       50
102
RTVSPost2010PropOp42
 70
     1
102
RTVSPost2010Prop43
 90
        3
102
RTVSPost2010PropOp43
 70
     1
102
RTVSPost2010Prop44ColorIndex
 90
        5
102
RTVSPost2010Prop44ColorRGB
 90
      255
102
RTVSPost2010PropOp44
 70
     1
102
RTVSPost2010Prop45
280
     0
102
RTVSPost2010PropOp45
 70
     1
102
RTVSPost2010Prop46
 90
       50
102
RTVSPost2010PropOp46
 70
     1
102
RTVSPost2010Prop47
 90
       50
102
RTVSPost2010PropOp47
 70
     1
102
RTVSPost2010Prop48
 90
       50
102
RTVSPost2010PropOp48
 70
     1
102
RTVSPost2010Prop49
280
     0
102
RTVSPost2010PropOp49
 70
     1
102
RTVSPost2010Prop50
 90
       50
102
RTVSPost2010PropOp50
 70
     1
102
RTVSPost2010Prop51ColorIndex
 90
      256
102
RTVSPost2010Prop51ColorRGB
 90
-16777216
102
RTVSPost2010PropOp51
 70
     0
102
RTVSPost2010Prop52
140
1.0
102
RTVSPost2010PropOp52
 70
     0
102
RTVSPost2010Prop53
 90
        2
102
RTVSPost2010PropOp53
 70
     1
102
RTVSPost2010Prop54
  1
strokes_ogs.tif
102
RTVSPost2010PropOp54
 70
     1
102
RTVSPost2010Prop55
280
     0
102
RTVSPost2010PropOp55
 70
     1
102
RTVSPost2010Prop56
140
1.0
102
RTVSPost2010PropOp56
 70
     1
102
RTVSPost2010Prop57
140
1.0
102
RTVSPost2010PropOp57
 70
     1
102
RTVSPropertyOp0
 70
     1
102
RTVSPropertyOp1
 70
     1
102
RTVSPropertyOp2
 70
     1
102
RTVSPropertyOp3
 70
     1
102
RTVSPropertyOp4
 70
     1
102
RTVSPropertyOp5
 70
     1
102
RTVSPropertyOp6
 70
     1
102
RTVSPropertyOp7
 70
     1
102
RTVSPropertyOp8
 70
     1
102
RTVSPropertyOp9
 70
     1
102
RTVSPropertyOp10
 70
     1
102
RTVSPropertyOp11
 70
     1
102
RTVSPropertyOp12
 70
     1
102
RTVSPropertyOp13
 70
     1
102
RTVSPropertyOp14
 70
     1
102
RTVSPropertyOp15
 70
     1
102
RTVSPropertyOp16
 70
     1
102
RTVSPropertyOp17
 70
     1
102
RTVSPropertyOp18
 70
     1
102
RTVSPropertyOp19
 70
     1
102
RTVSPropertyOp20
 70
     1
102
RTVSPropertyOp21
 70
     1
102
RTVSPropertyOp22
 70
     1
102
RTVSPropertyOp23
 70
     1
102
RTVSPropertyOp24
 70
     1
102
RTVSPropertyOp25
 70
     1
102
RTVSPropertyOp26
 70
     1
102
RTVSPropertyOp27
 70
     1
102
RTVSPropertyOp28
 70
     1
102
RTVSPropertyOp29
 70
     1
102
RTVSPropertyOp30
 70
     1
102
RTVSPropertyOp31
 70
     1
102
RTVSPropertyOp32
 70
     1
102
RTVSPropertyOp33
 70
     1
102
RTVSPropertyOp34
 70
     1
102
RTVSPropertyOp35
 70
     1
102
RTVSPropertyOp36
 70
     1
102
RTVSPropertyOp37
 70
     1
102
RTVSPropertyOp38
 70
     1
102
RTVSPropertyOp39
 70
     1
102
RTVSPropertyOp40
 70
     1
102
RTVSPropertyOp41
 70
     1
102
RTVSPropertyOp42
 70
     1
102
RTVSPropertyOp43
 70
     1
102
RTVSPropertyOp44
 70
     1
102
RTVSPropertyOp45
 70
     1
102
RTVSPropertyOp46
 70
     1
102
RTVSPropertyOp47
 70
     1
102
RTVSPropertyOp48
 70
     1
102
RTVSPropertyOp49
 70
     1
102
RTVSPropertyOp50
 70
     1
102
RTVSPropertyOp51
 70
     0
102
RTVSPropertyOp52
 70
     0
102
RTVSPropertyOp53
 70
     1
102
RTVSPropertyOp54
 70
     1
102
RTVSPropertyOp55
 70
     1
102
RTVSPropertyOp56
 70
     1
102
RTVSPropertyOp57
 70
     1
102
RTVSPropertyOp58
 70
     1
102
RTVSPropertyOp59
 70
     1
102
RTVSPropertyOp60
 70
     1
102
RTVSPropertyOp61
 70
     1
102
RTVSPropertyOp62
 70
     1
  0
XRECORD
  5
3220
102
{ACAD_REACTORS
330
321F
102
}
330
321F
100
AcDbXrecord
280
     1
102
RTVSPost2010Prop28
280
     0
102
RTVSPost2010PropOp28
 70
     1
102
RTVSPost2010Prop29
280
     1
102
RTVSPost2010PropOp29
 70
     1
102
RTVSPost2010Prop30
280
     1
102
RTVSPost2010PropOp30
 70
     1
102
RTVSPost2010Prop31
280
     0
102
RTVSPost2010PropOp31
 70
     1
102
RTVSPost2010Prop32
280
     0
102
RTVSPost2010PropOp32
 70
     1
102
RTVSPost2010Prop33
280
     0
102
RTVSPost2010PropOp33
 70
     1
102
RTVSPost2010Prop34
280
     0
102
RTVSPost2010PropOp34
 70
     1
102
RTVSPost2010Prop35
280
     0
102
RTVSPost2010PropOp35
 70
     1
102
RTVSPost2010Prop36
280
     0
102
RTVSPost2010PropOp36
 70
     1
102
RTVSPost2010Prop37
 90
       50
102
RTVSPost2010PropOp37
 70
     1
102
RTVSPost2010Prop38
140
0.0
102
RTVSPost2010PropOp38
 70
     1
102
RTVSPost2010Prop39
140
1.0
102
RTVSPost2010PropOp39
 70
     1
102
RTVSPost2010Prop40
 90
        0
102
RTVSPost2010PropOp40
 70
     1
102
RTVSPost2010Prop41ColorIndex
 90
       18
102
RTVSPost2010Prop41ColorRGB
 90
        0
102
RTVSPost2010PropOp41
 70
     1
102
RTVSPost2010Prop42
 90
       50
102
RTVSPost2010PropOp42
 70
     1
102
RTVSPost2010Prop43
 90
        3
102
RTVSPost2010PropOp43
 70
     1
102
RTVSPost2010Prop44ColorIndex
 90
        5
102
RTVSPost2010Prop44ColorRGB
 90
      255
102
RTVSPost2010PropOp44
 70
     1
102
RTVSPost2010Prop45
280
     0
102
RTVSPost2010PropOp45
 70
     1
102
RTVSPost2010Prop46
 90
       50
102
RTVSPost2010PropOp46
 70
     1
102
RTVSPost2010Prop47
 90
       50
102
RTVSPost2010PropOp47
 70
     1
102
RTVSPost2010Prop48
 90
       50
102
RTVSPost2010PropOp48
 70
     1
102
RTVSPost2010Prop49
280
     0
102
RTVSPost2010PropOp49
 70
     1
102
RTVSPost2010Prop50
 90
       50
102
RTVSPost2010PropOp50
 70
     1
102
RTVSPost2010Prop51ColorIndex
 90
      256
102
RTVSPost2010Prop51ColorRGB
 90
-16777216
102
RTVSPost2010PropOp51
 70
     0
102
RTVSPost2010Prop52
140
1.0
102
RTVSPost2010PropOp52
 70
     0
102
RTVSPost2010Prop53
 90
        2
102
RTVSPost2010PropOp53
 70
     1
102
RTVSPost2010Prop54
  1
strokes_ogs.tif
102
RTVSPost2010PropOp54
 70
     1
102
RTVSPost2010Prop55
280
     0
102
RTVSPost2010PropOp55
 70
     1
102
RTVSPost2010Prop56
140
1.0
102
RTVSPost2010PropOp56
 70
     1
102
RTVSPost2010Prop57
140
1.0
102
RTVSPost2010PropOp57
 70
     1
102
RTVSPropertyOp0
 70
     1
102
RTVSPropertyOp1
 70
     1
102
RTVSPropertyOp2
 70
     1
102
RTVSPropertyOp3
 70
     1
102
RTVSPropertyOp4
 70
     1
102
RTVSPropertyOp5
 70
     1
102
RTVSPropertyOp6
 70
     1
102
RTVSPropertyOp7
 70
     1
102
RTVSPropertyOp8
 70
     1
102
RTVSPropertyOp9
 70
     1
102
RTVSPropertyOp10
 70
     1
102
RTVSPropertyOp11
 70
     1
102
RTVSPropertyOp12
 70
     1
102
RTVSPropertyOp13
 70
     1
102
RTVSPropertyOp14
 70
     1
102
RTVSPropertyOp15
 70
     1
102
RTVSPropertyOp16
 70
     1
102
RTVSPropertyOp17
 70
     1
102
RTVSPropertyOp18
 70
     1
102
RTVSPropertyOp19
 70
     1
102
RTVSPropertyOp20
 70
     1
102
RTVSPropertyOp21
 70
     1
102
RTVSPropertyOp22
 70
     1
102
RTVSPropertyOp23
 70
     1
102
RTVSPropertyOp24
 70
     1
102
RTVSPropertyOp25
 70
     1
102
RTVSPropertyOp26
 70
     1
102
RTVSPropertyOp27
 70
     1
102
RTVSPropertyOp28
 70
     1
102
RTVSPropertyOp29
 70
     1
102
RTVSPropertyOp30
 70
     1
102
RTVSPropertyOp31
 70
     1
102
RTVSPropertyOp32
 70
     1
102
RTVSPropertyOp33
 70
     1
102
RTVSPropertyOp34
 70
     1
102
RTVSPropertyOp35
 70
     1
102
RTVSPropertyOp36
 70
     1
102
RTVSPropertyOp37
 70
     1
102
RTVSPropertyOp38
 70
     1
102
RTVSPropertyOp39
 70
     1
102
RTVSPropertyOp40
 70
     1
102
RTVSPropertyOp41
 70
     1
102
RTVSPropertyOp42
 70
     1
102
RTVSPropertyOp43
 70
     1
102
RTVSPropertyOp44
 70
     1
102
RTVSPropertyOp45
 70
     1
102
RTVSPropertyOp46
 70
     1
102
RTVSPropertyOp47
 70
     1
102
RTVSPropertyOp48
 70
     1
102
RTVSPropertyOp49
 70
     1
102
RTVSPropertyOp50
 70
     1
102
RTVSPropertyOp51
 70
     0
102
RTVSPropertyOp52
 70
     0
102
RTVSPropertyOp53
 70
     1
102
RTVSPropertyOp54
 70
     1
102
RTVSPropertyOp55
 70
     1
102
RTVSPropertyOp56
 70
     1
102
RTVSPropertyOp57
 70
     1
102
RTVSPropertyOp58
 70
     1
102
RTVSPropertyOp59
 70
     1
102
RTVSPropertyOp60
 70
     1
102
RTVSPropertyOp61
 70
     1
102
RTVSPropertyOp62
 70
     1
  0
XRECORD
  5
3222
102
{ACAD_REACTORS
330
3221
102
}
330
3221
100
AcDbXrecord
280
     1
102
RTVSPost2010Prop28
280
     0
102
RTVSPost2010PropOp28
 70
     1
102
RTVSPost2010Prop29
280
     1
102
RTVSPost2010PropOp29
 70
     1
102
RTVSPost2010Prop30
280
     1
102
RTVSPost2010PropOp30
 70
     1
102
RTVSPost2010Prop31
280
     0
102
RTVSPost2010PropOp31
 70
     1
102
RTVSPost2010Prop32
280
     0
102
RTVSPost2010PropOp32
 70
     1
102
RTVSPost2010Prop33
280
     0
102
RTVSPost2010PropOp33
 70
     1
102
RTVSPost2010Prop34
280
     0
102
RTVSPost2010PropOp34
 70
     1
102
RTVSPost2010Prop35
280
     0
102
RTVSPost2010PropOp35
 70
     1
102
RTVSPost2010Prop36
280
     0
102
RTVSPost2010PropOp36
 70
     1
102
RTVSPost2010Prop37
 90
       50
102
RTVSPost2010PropOp37
 70
     1
102
RTVSPost2010Prop38
140
0.0
102
RTVSPost2010PropOp38
 70
     1
102
RTVSPost2010Prop39
140
1.0
102
RTVSPost2010PropOp39
 70
     1
102
RTVSPost2010Prop40
 90
        0
102
RTVSPost2010PropOp40
 70
     1
102
RTVSPost2010Prop41ColorIndex
 90
       18
102
RTVSPost2010Prop41ColorRGB
 90
        0
102
RTVSPost2010PropOp41
 70
     1
102
RTVSPost2010Prop42
 90
       50
102
RTVSPost2010PropOp42
 70
     1
102
RTVSPost2010Prop43
 90
        3
102
RTVSPost2010PropOp43
 70
     1
102
RTVSPost2010Prop44ColorIndex
 90
        5
102
RTVSPost2010Prop44ColorRGB
 90
      255
102
RTVSPost2010PropOp44
 70
     1
102
RTVSPost2010Prop45
280
     0
102
RTVSPost2010PropOp45
 70
     1
102
RTVSPost2010Prop46
 90
       50
102
RTVSPost2010PropOp46
 70
     1
102
RTVSPost2010Prop47
 90
       50
102
RTVSPost2010PropOp47
 70
     1
102
RTVSPost2010Prop48
 90
       50
102
RTVSPost2010PropOp48
 70
     1
102
RTVSPost2010Prop49
280
     0
102
RTVSPost2010PropOp49
 70
     1
102
RTVSPost2010Prop50
 90
       50
102
RTVSPost2010PropOp50
 70
     1
102
RTVSPost2010Prop51ColorIndex
 90
      256
102
RTVSPost2010Prop51ColorRGB
 90
-16777216
102
RTVSPost2010PropOp51
 70
     0
102
RTVSPost2010Prop52
140
1.0
102
RTVSPost2010PropOp52
 70
     0
102
RTVSPost2010Prop53
 90
        2
102
RTVSPost2010PropOp53
 70
     1
102
RTVSPost2010Prop54
  1
strokes_ogs.tif
102
RTVSPost2010PropOp54
 70
     1
102
RTVSPost2010Prop55
280
     0
102
RTVSPost2010PropOp55
 70
     1
102
RTVSPost2010Prop56
140
1.0
102
RTVSPost2010PropOp56
 70
     1
102
RTVSPost2010Prop57
140
1.0
102
RTVSPost2010PropOp57
 70
     1
102
RTVSPropertyOp0
 70
     1
102
RTVSPropertyOp1
 70
     1
102
RTVSPropertyOp2
 70
     1
102
RTVSPropertyOp3
 70
     1
102
RTVSPropertyOp4
 70
     1
102
RTVSPropertyOp5
 70
     1
102
RTVSPropertyOp6
 70
     1
102
RTVSPropertyOp7
 70
     1
102
RTVSPropertyOp8
 70
     1
102
RTVSPropertyOp9
 70
     1
102
RTVSPropertyOp10
 70
     1
102
RTVSPropertyOp11
 70
     1
102
RTVSPropertyOp12
 70
     1
102
RTVSPropertyOp13
 70
     1
102
RTVSPropertyOp14
 70
     1
102
RTVSPropertyOp15
 70
     1
102
RTVSPropertyOp16
 70
     1
102
RTVSPropertyOp17
 70
     1
102
RTVSPropertyOp18
 70
     1
102
RTVSPropertyOp19
 70
     1
102
RTVSPropertyOp20
 70
     1
102
RTVSPropertyOp21
 70
     1
102
RTVSPropertyOp22
 70
     1
102
RTVSPropertyOp23
 70
     1
102
RTVSPropertyOp24
 70
     1
102
RTVSPropertyOp25
 70
     1
102
RTVSPropertyOp26
 70
     1
102
RTVSPropertyOp27
 70
     1
102
RTVSPropertyOp28
 70
     1
102
RTVSPropertyOp29
 70
     1
102
RTVSPropertyOp30
 70
     1
102
RTVSPropertyOp31
 70
     1
102
RTVSPropertyOp32
 70
     1
102
RTVSPropertyOp33
 70
     1
102
RTVSPropertyOp34
 70
     1
102
RTVSPropertyOp35
 70
     1
102
RTVSPropertyOp36
 70
     1
102
RTVSPropertyOp37
 70
     1
102
RTVSPropertyOp38
 70
     1
102
RTVSPropertyOp39
 70
     1
102
RTVSPropertyOp40
 70
     1
102
RTVSPropertyOp41
 70
     1
102
RTVSPropertyOp42
 70
     1
102
RTVSPropertyOp43
 70
     1
102
RTVSPropertyOp44
 70
     1
102
RTVSPropertyOp45
 70
     1
102
RTVSPropertyOp46
 70
     1
102
RTVSPropertyOp47
 70
     1
102
RTVSPropertyOp48
 70
     1
102
RTVSPropertyOp49
 70
     1
102
RTVSPropertyOp50
 70
     1
102
RTVSPropertyOp51
 70
     0
102
RTVSPropertyOp52
 70
     0
102
RTVSPropertyOp53
 70
     1
102
RTVSPropertyOp54
 70
     1
102
RTVSPropertyOp55
 70
     1
102
RTVSPropertyOp56
 70
     1
102
RTVSPropertyOp57
 70
     1
102
RTVSPropertyOp58
 70
     1
102
RTVSPropertyOp59
 70
     1
102
RTVSPropertyOp60
 70
     1
102
RTVSPropertyOp61
 70
     1
102
RTVSPropertyOp62
 70
     1
  0
XRECORD
  5
3224
102
{ACAD_REACTORS
330
3223
102
}
330
3223
100
AcDbXrecord
280
     1
102
RTVSPost2010Prop28
280
     0
102
RTVSPost2010PropOp28
 70
     1
102
RTVSPost2010Prop29
280
     1
102
RTVSPost2010PropOp29
 70
     1
102
RTVSPost2010Prop30
280
     1
102
RTVSPost2010PropOp30
 70
     1
102
RTVSPost2010Prop31
280
     0
102
RTVSPost2010PropOp31
 70
     1
102
RTVSPost2010Prop32
280
     0
102
RTVSPost2010PropOp32
 70
     1
102
RTVSPost2010Prop33
280
     0
102
RTVSPost2010PropOp33
 70
     1
102
RTVSPost2010Prop34
280
     0
102
RTVSPost2010PropOp34
 70
     1
102
RTVSPost2010Prop35
280
     0
102
RTVSPost2010PropOp35
 70
     1
102
RTVSPost2010Prop36
280
     0
102
RTVSPost2010PropOp36
 70
     1
102
RTVSPost2010Prop37
 90
       50
102
RTVSPost2010PropOp37
 70
     1
102
RTVSPost2010Prop38
140
0.0
102
RTVSPost2010PropOp38
 70
     1
102
RTVSPost2010Prop39
140
1.0
102
RTVSPost2010PropOp39
 70
     1
102
RTVSPost2010Prop40
 90
        0
102
RTVSPost2010PropOp40
 70
     1
102
RTVSPost2010Prop41ColorIndex
 90
       18
102
RTVSPost2010Prop41ColorRGB
 90
        0
102
RTVSPost2010PropOp41
 70
     1
102
RTVSPost2010Prop42
 90
       50
102
RTVSPost2010PropOp42
 70
     1
102
RTVSPost2010Prop43
 90
        3
102
RTVSPost2010PropOp43
 70
     1
102
RTVSPost2010Prop44ColorIndex
 90
        5
102
RTVSPost2010Prop44ColorRGB
 90
      255
102
RTVSPost2010PropOp44
 70
     1
102
RTVSPost2010Prop45
280
     0
102
RTVSPost2010PropOp45
 70
     1
102
RTVSPost2010Prop46
 90
       50
102
RTVSPost2010PropOp46
 70
     1
102
RTVSPost2010Prop47
 90
       50
102
RTVSPost2010PropOp47
 70
     1
102
RTVSPost2010Prop48
 90
       50
102
RTVSPost2010PropOp48
 70
     1
102
RTVSPost2010Prop49
280
     0
102
RTVSPost2010PropOp49
 70
     1
102
RTVSPost2010Prop50
 90
       50
102
RTVSPost2010PropOp50
 70
     1
102
RTVSPost2010Prop51ColorIndex
 90
      256
102
RTVSPost2010Prop51ColorRGB
 90
-16777216
102
RTVSPost2010PropOp51
 70
     0
102
RTVSPost2010Prop52
140
1.0
102
RTVSPost2010PropOp52
 70
     0
102
RTVSPost2010Prop53
 90
        2
102
RTVSPost2010PropOp53
 70
     1
102
RTVSPost2010Prop54
  1
strokes_ogs.tif
102
RTVSPost2010PropOp54
 70
     1
102
RTVSPost2010Prop55
280
     0
102
RTVSPost2010PropOp55
 70
     1
102
RTVSPost2010Prop56
140
1.0
102
RTVSPost2010PropOp56
 70
     1
102
RTVSPost2010Prop57
140
1.0
102
RTVSPost2010PropOp57
 70
     1
102
RTVSPropertyOp0
 70
     1
102
RTVSPropertyOp1
 70
     1
102
RTVSPropertyOp2
 70
     1
102
RTVSPropertyOp3
 70
     1
102
RTVSPropertyOp4
 70
     1
102
RTVSPropertyOp5
 70
     1
102
RTVSPropertyOp6
 70
     1
102
RTVSPropertyOp7
 70
     1
102
RTVSPropertyOp8
 70
     1
102
RTVSPropertyOp9
 70
     1
102
RTVSPropertyOp10
 70
     1
102
RTVSPropertyOp11
 70
     1
102
RTVSPropertyOp12
 70
     1
102
RTVSPropertyOp13
 70
     1
102
RTVSPropertyOp14
 70
     1
102
RTVSPropertyOp15
 70
     1
102
RTVSPropertyOp16
 70
     1
102
RTVSPropertyOp17
 70
     1
102
RTVSPropertyOp18
 70
     1
102
RTVSPropertyOp19
 70
     1
102
RTVSPropertyOp20
 70
     1
102
RTVSPropertyOp21
 70
     1
102
RTVSPropertyOp22
 70
     1
102
RTVSPropertyOp23
 70
     1
102
RTVSPropertyOp24
 70
     1
102
RTVSPropertyOp25
 70
     1
102
RTVSPropertyOp26
 70
     1
102
RTVSPropertyOp27
 70
     1
102
RTVSPropertyOp28
 70
     1
102
RTVSPropertyOp29
 70
     1
102
RTVSPropertyOp30
 70
     1
102
RTVSPropertyOp31
 70
     1
102
RTVSPropertyOp32
 70
     1
102
RTVSPropertyOp33
 70
     1
102
RTVSPropertyOp34
 70
     1
102
RTVSPropertyOp35
 70
     1
102
RTVSPropertyOp36
 70
     1
102
RTVSPropertyOp37
 70
     1
102
RTVSPropertyOp38
 70
     1
102
RTVSPropertyOp39
 70
     1
102
RTVSPropertyOp40
 70
     1
102
RTVSPropertyOp41
 70
     1
102
RTVSPropertyOp42
 70
     1
102
RTVSPropertyOp43
 70
     1
102
RTVSPropertyOp44
 70
     1
102
RTVSPropertyOp45
 70
     1
102
RTVSPropertyOp46
 70
     1
102
RTVSPropertyOp47
 70
     1
102
RTVSPropertyOp48
 70
     1
102
RTVSPropertyOp49
 70
     1
102
RTVSPropertyOp50
 70
     1
102
RTVSPropertyOp51
 70
     0
102
RTVSPropertyOp52
 70
     0
102
RTVSPropertyOp53
 70
     1
102
RTVSPropertyOp54
 70
     1
102
RTVSPropertyOp55
 70
     1
102
RTVSPropertyOp56
 70
     1
102
RTVSPropertyOp57
 70
     1
102
RTVSPropertyOp58
 70
     1
102
RTVSPropertyOp59
 70
     1
102
RTVSPropertyOp60
 70
     1
102
RTVSPropertyOp61
 70
     1
102
RTVSPropertyOp62
 70
     1
  0
XRECORD
  5
322C
102
{ACAD_REACTORS
330
322B
102
}
330
322B
100
AcDbXrecord
280
     1
102
RTVSPost2010Prop28
280
     0
102
RTVSPost2010PropOp28
 70
     1
102
RTVSPost2010Prop29
280
     1
102
RTVSPost2010PropOp29
 70
     1
102
RTVSPost2010Prop30
280
     1
102
RTVSPost2010PropOp30
 70
     1
102
RTVSPost2010Prop31
280
     0
102
RTVSPost2010PropOp31
 70
     1
102
RTVSPost2010Prop32
280
     0
102
RTVSPost2010PropOp32
 70
     1
102
RTVSPost2010Prop33
280
     0
102
RTVSPost2010PropOp33
 70
     1
102
RTVSPost2010Prop34
280
     0
102
RTVSPost2010PropOp34
 70
     1
102
RTVSPost2010Prop35
280
     0
102
RTVSPost2010PropOp35
 70
     1
102
RTVSPost2010Prop36
280
     0
102
RTVSPost2010PropOp36
 70
     1
102
RTVSPost2010Prop37
 90
       50
102
RTVSPost2010PropOp37
 70
     1
102
RTVSPost2010Prop38
140
0.0
102
RTVSPost2010PropOp38
 70
     1
102
RTVSPost2010Prop39
140
1.0
102
RTVSPost2010PropOp39
 70
     1
102
RTVSPost2010Prop40
 90
        0
102
RTVSPost2010PropOp40
 70
     1
102
RTVSPost2010Prop41ColorIndex
 90
       18
102
RTVSPost2010Prop41ColorRGB
 90
        0
102
RTVSPost2010PropOp41
 70
     1
102
RTVSPost2010Prop42
 90
       50
102
RTVSPost2010PropOp42
 70
     1
102
RTVSPost2010Prop43
 90
        3
102
RTVSPost2010PropOp43
 70
     1
102
RTVSPost2010Prop44ColorIndex
 90
        5
102
RTVSPost2010Prop44ColorRGB
 90
      255
102
RTVSPost2010PropOp44
 70
     1
102
RTVSPost2010Prop45
280
     0
102
RTVSPost2010PropOp45
 70
     1
102
RTVSPost2010Prop46
 90
       50
102
RTVSPost2010PropOp46
 70
     1
102
RTVSPost2010Prop47
 90
       50
102
RTVSPost2010PropOp47
 70
     1
102
RTVSPost2010Prop48
 90
       50
102
RTVSPost2010PropOp48
 70
     1
102
RTVSPost2010Prop49
280
     0
102
RTVSPost2010PropOp49
 70
     1
102
RTVSPost2010Prop50
 90
       50
102
RTVSPost2010PropOp50
 70
     1
102
RTVSPost2010Prop51ColorIndex
 90
      256
102
RTVSPost2010Prop51ColorRGB
 90
-16777216
102
RTVSPost2010PropOp51
 70
     0
102
RTVSPost2010Prop52
140
1.0
102
RTVSPost2010PropOp52
 70
     0
102
RTVSPost2010Prop53
 90
        2
102
RTVSPost2010PropOp53
 70
     1
102
RTVSPost2010Prop54
  1
strokes_ogs.tif
102
RTVSPost2010PropOp54
 70
     1
102
RTVSPost2010Prop55
280
     0
102
RTVSPost2010PropOp55
 70
     1
102
RTVSPost2010Prop56
140
1.0
102
RTVSPost2010PropOp56
 70
     1
102
RTVSPost2010Prop57
140
1.0
102
RTVSPost2010PropOp57
 70
     1
102
RTVSPropertyOp0
 70
     1
102
RTVSPropertyOp1
 70
     1
102
RTVSPropertyOp2
 70
     1
102
RTVSPropertyOp3
 70
     1
102
RTVSPropertyOp4
 70
     1
102
RTVSPropertyOp5
 70
     1
102
RTVSPropertyOp6
 70
     1
102
RTVSPropertyOp7
 70
     1
102
RTVSPropertyOp8
 70
     1
102
RTVSPropertyOp9
 70
     1
102
RTVSPropertyOp10
 70
     1
102
RTVSPropertyOp11
 70
     1
102
RTVSPropertyOp12
 70
     1
102
RTVSPropertyOp13
 70
     1
102
RTVSPropertyOp14
 70
     1
102
RTVSPropertyOp15
 70
     1
102
RTVSPropertyOp16
 70
     1
102
RTVSPropertyOp17
 70
     1
102
RTVSPropertyOp18
 70
     1
102
RTVSPropertyOp19
 70
     1
102
RTVSPropertyOp20
 70
     1
102
RTVSPropertyOp21
 70
     1
102
RTVSPropertyOp22
 70
     1
102
RTVSPropertyOp23
 70
     1
102
RTVSPropertyOp24
 70
     1
102
RTVSPropertyOp25
 70
     1
102
RTVSPropertyOp26
 70
     1
102
RTVSPropertyOp27
 70
     1
102
RTVSPropertyOp28
 70
     1
102
RTVSPropertyOp29
 70
     1
102
RTVSPropertyOp30
 70
     1
102
RTVSPropertyOp31
 70
     1
102
RTVSPropertyOp32
 70
     1
102
RTVSPropertyOp33
 70
     1
102
RTVSPropertyOp34
 70
     1
102
RTVSPropertyOp35
 70
     1
102
RTVSPropertyOp36
 70
     1
102
RTVSPropertyOp37
 70
     1
102
RTVSPropertyOp38
 70
     1
102
RTVSPropertyOp39
 70
     1
102
RTVSPropertyOp40
 70
     1
102
RTVSPropertyOp41
 70
     1
102
RTVSPropertyOp42
 70
     1
102
RTVSPropertyOp43
 70
     1
102
RTVSPropertyOp44
 70
     1
102
RTVSPropertyOp45
 70
     1
102
RTVSPropertyOp46
 70
     1
102
RTVSPropertyOp47
 70
     1
102
RTVSPropertyOp48
 70
     1
102
RTVSPropertyOp49
 70
     1
102
RTVSPropertyOp50
 70
     1
102
RTVSPropertyOp51
 70
     0
102
RTVSPropertyOp52
 70
     0
102
RTVSPropertyOp53
 70
     1
102
RTVSPropertyOp54
 70
     1
102
RTVSPropertyOp55
 70
     1
102
RTVSPropertyOp56
 70
     1
102
RTVSPropertyOp57
 70
     1
102
RTVSPropertyOp58
 70
     1
102
RTVSPropertyOp59
 70
     1
102
RTVSPropertyOp60
 70
     1
102
RTVSPropertyOp61
 70
     1
102
RTVSPropertyOp62
 70
     1
  0
XRECORD
  5
3248
102
{ACAD_REACTORS
330
3247
102
}
330
3247
100
AcDbXrecord
280
     1
102
RTVSPost2010Prop28
280
     0
102
RTVSPost2010PropOp28
 70
     1
102
RTVSPost2010Prop29
280
     1
102
RTVSPost2010PropOp29
 70
     1
102
RTVSPost2010Prop30
280
     1
102
RTVSPost2010PropOp30
 70
     1
102
RTVSPost2010Prop31
280
     0
102
RTVSPost2010PropOp31
 70
     1
102
RTVSPost2010Prop32
280
     0
102
RTVSPost2010PropOp32
 70
     1
102
RTVSPost2010Prop33
280
     0
102
RTVSPost2010PropOp33
 70
     1
102
RTVSPost2010Prop34
280
     0
102
RTVSPost2010PropOp34
 70
     1
102
RTVSPost2010Prop35
280
     0
102
RTVSPost2010PropOp35
 70
     1
102
RTVSPost2010Prop36
280
     0
102
RTVSPost2010PropOp36
 70
     1
102
RTVSPost2010Prop37
 90
       50
102
RTVSPost2010PropOp37
 70
     0
102
RTVSPost2010Prop38
140
0.0
102
RTVSPost2010PropOp38
 70
     0
102
RTVSPost2010Prop39
140
1.0
102
RTVSPost2010PropOp39
 70
     0
102
RTVSPost2010Prop40
 90
        0
102
RTVSPost2010PropOp40
 70
     0
102
RTVSPost2010Prop41ColorIndex
 90
       18
102
RTVSPost2010Prop41ColorRGB
 90
        0
102
RTVSPost2010PropOp41
 70
     0
102
RTVSPost2010Prop42
 90
       50
102
RTVSPost2010PropOp42
 70
     0
102
RTVSPost2010Prop43
 90
        3
102
RTVSPost2010PropOp43
 70
     0
102
RTVSPost2010Prop44ColorIndex
 90
        5
102
RTVSPost2010Prop44ColorRGB
 90
      255
102
RTVSPost2010PropOp44
 70
     0
102
RTVSPost2010Prop45
280
     0
102
RTVSPost2010PropOp45
 70
     1
102
RTVSPost2010Prop46
 90
       50
102
RTVSPost2010PropOp46
 70
     0
102
RTVSPost2010Prop47
 90
       50
102
RTVSPost2010PropOp47
 70
     0
102
RTVSPost2010Prop48
 90
       50
102
RTVSPost2010PropOp48
 70
     0
102
RTVSPost2010Prop49
280
     0
102
RTVSPost2010PropOp49
 70
     1
102
RTVSPost2010Prop50
 90
       50
102
RTVSPost2010PropOp50
 70
     0
102
RTVSPost2010Prop51ColorIndex
 90
      256
102
RTVSPost2010Prop51ColorRGB
 90
-16777216
102
RTVSPost2010PropOp51
 70
     0
102
RTVSPost2010Prop52
140
1.0
102
RTVSPost2010PropOp52
 70
     0
102
RTVSPost2010Prop53
 90
        2
102
RTVSPost2010PropOp53
 70
     0
102
RTVSPost2010Prop54
  1
strokes_ogs.tif
102
RTVSPost2010PropOp54
 70
     0
102
RTVSPost2010Prop55
280
     0
102
RTVSPost2010PropOp55
 70
     1
102
RTVSPost2010Prop56
140
1.0
102
RTVSPost2010PropOp56
 70
     0
102
RTVSPost2010Prop57
140
1.0
102
RTVSPost2010PropOp57
 70
     0
102
RTVSPropertyOp0
 70
     0
102
RTVSPropertyOp1
 70
     0
102
RTVSPropertyOp2
 70
     0
102
RTVSPropertyOp3
 70
     0
102
RTVSPropertyOp4
 70
     0
102
RTVSPropertyOp5
 70
     0
102
RTVSPropertyOp6
 70
     0
102
RTVSPropertyOp7
 70
     0
102
RTVSPropertyOp8
 70
     0
102
RTVSPropertyOp9
 70
     0
102
RTVSPropertyOp10
 70
     0
102
RTVSPropertyOp11
 70
     0
102
RTVSPropertyOp12
 70
     0
102
RTVSPropertyOp13
 70
     0
102
RTVSPropertyOp14
 70
     2
102
RTVSPropertyOp15
 70
     0
102
RTVSPropertyOp16
 70
     0
102
RTVSPropertyOp17
 70
     0
102
RTVSPropertyOp18
 70
     0
102
RTVSPropertyOp19
 70
     0
102
RTVSPropertyOp20
 70
     0
102
RTVSPropertyOp21
 70
     0
102
RTVSPropertyOp22
 70
     0
102
RTVSPropertyOp23
 70
     0
102
RTVSPropertyOp24
 70
     0
102
RTVSPropertyOp25
 70
     0
102
RTVSPropertyOp26
 70
     0
102
RTVSPropertyOp27
 70
     0
102
RTVSPropertyOp28
 70
     1
102
RTVSPropertyOp29
 70
     1
102
RTVSPropertyOp30
 70
     1
102
RTVSPropertyOp31
 70
     1
102
RTVSPropertyOp32
 70
     1
102
RTVSPropertyOp33
 70
     1
102
RTVSPropertyOp34
 70
     1
102
RTVSPropertyOp35
 70
     1
102
RTVSPropertyOp36
 70
     1
102
RTVSPropertyOp37
 70
     0
102
RTVSPropertyOp38
 70
     0
102
RTVSPropertyOp39
 70
     0
102
RTVSPropertyOp40
 70
     0
102
RTVSPropertyOp41
 70
     0
102
RTVSPropertyOp42
 70
     0
102
RTVSPropertyOp43
 70
     0
102
RTVSPropertyOp44
 70
     0
102
RTVSPropertyOp45
 70
     1
102
RTVSPropertyOp46
 70
     0
102
RTVSPropertyOp47
 70
     0
102
RTVSPropertyOp48
 70
     0
102
RTVSPropertyOp49
 70
     1
102
RTVSPropertyOp50
 70
     0
102
RTVSPropertyOp51
 70
     0
102
RTVSPropertyOp52
 70
     0
102
RTVSPropertyOp53
 70
     0
102
RTVSPropertyOp54
 70
     0
102
RTVSPropertyOp55
 70
     1
102
RTVSPropertyOp56
 70
     0
102
RTVSPropertyOp57
 70
     0
102
RTVSPropertyOp58
 70
     0
102
RTVSPropertyOp59
 70
     0
102
RTVSPropertyOp60
 70
     0
102
RTVSPropertyOp61
 70
     0
102
RTVSPropertyOp62
 70
     0
  0
XRECORD
  5
3238
102
{ACAD_REACTORS
330
3237
102
}
330
3237
100
AcDbXrecord
280
     1
102
RTVSPost2010Prop28
280
     0
102
RTVSPost2010PropOp28
 70
     1
102
RTVSPost2010Prop29
280
     1
102
RTVSPost2010PropOp29
 70
     1
102
RTVSPost2010Prop30
280
     1
102
RTVSPost2010PropOp30
 70
     1
102
RTVSPost2010Prop31
280
     0
102
RTVSPost2010PropOp31
 70
     1
102
RTVSPost2010Prop32
280
     0
102
RTVSPost2010PropOp32
 70
     1
102
RTVSPost2010Prop33
280
     0
102
RTVSPost2010PropOp33
 70
     1
102
RTVSPost2010Prop34
280
     0
102
RTVSPost2010PropOp34
 70
     1
102
RTVSPost2010Prop35
280
     0
102
RTVSPost2010PropOp35
 70
     1
102
RTVSPost2010Prop36
280
     0
102
RTVSPost2010PropOp36
 70
     1
102
RTVSPost2010Prop37
 90
       50
102
RTVSPost2010PropOp37
 70
     1
102
RTVSPost2010Prop38
140
0.0
102
RTVSPost2010PropOp38
 70
     1
102
RTVSPost2010Prop39
140
1.0
102
RTVSPost2010PropOp39
 70
     1
102
RTVSPost2010Prop40
 90
        0
102
RTVSPost2010PropOp40
 70
     1
102
RTVSPost2010Prop41ColorIndex
 90
       18
102
RTVSPost2010Prop41ColorRGB
 90
        0
102
RTVSPost2010PropOp41
 70
     1
102
RTVSPost2010Prop42
 90
       50
102
RTVSPost2010PropOp42
 70
     1
102
RTVSPost2010Prop43
 90
        3
102
RTVSPost2010PropOp43
 70
     1
102
RTVSPost2010Prop44ColorIndex
 90
        5
102
RTVSPost2010Prop44ColorRGB
 90
      255
102
RTVSPost2010PropOp44
 70
     1
102
RTVSPost2010Prop45
280
     0
102
RTVSPost2010PropOp45
 70
     1
102
RTVSPost2010Prop46
 90
       50
102
RTVSPost2010PropOp46
 70
     1
102
RTVSPost2010Prop47
 90
       50
102
RTVSPost2010PropOp47
 70
     1
102
RTVSPost2010Prop48
 90
       50
102
RTVSPost2010PropOp48
 70
     1
102
RTVSPost2010Prop49
280
     0
102
RTVSPost2010PropOp49
 70
     1
102
RTVSPost2010Prop50
 90
       50
102
RTVSPost2010PropOp50
 70
     1
102
RTVSPost2010Prop51ColorIndex
 90
      256
102
RTVSPost2010Prop51ColorRGB
 90
-16777216
102
RTVSPost2010PropOp51
 70
     0
102
RTVSPost2010Prop52
140
1.0
102
RTVSPost2010PropOp52
 70
     0
102
RTVSPost2010Prop53
 90
        2
102
RTVSPost2010PropOp53
 70
     1
102
RTVSPost2010Prop54
  1
strokes_ogs.tif
102
RTVSPost2010PropOp54
 70
     1
102
RTVSPost2010Prop55
280
     0
102
RTVSPost2010PropOp55
 70
     1
102
RTVSPost2010Prop56
140
1.0
102
RTVSPost2010PropOp56
 70
     1
102
RTVSPost2010Prop57
140
1.0
102
RTVSPost2010PropOp57
 70
     1
102
RTVSPropertyOp0
 70
     1
102
RTVSPropertyOp1
 70
     1
102
RTVSPropertyOp2
 70
     1
102
RTVSPropertyOp3
 70
     1
102
RTVSPropertyOp4
 70
     1
102
RTVSPropertyOp5
 70
     1
102
RTVSPropertyOp6
 70
     1
102
RTVSPropertyOp7
 70
     1
102
RTVSPropertyOp8
 70
     1
102
RTVSPropertyOp9
 70
     1
102
RTVSPropertyOp10
 70
     1
102
RTVSPropertyOp11
 70
     1
102
RTVSPropertyOp12
 70
     1
102
RTVSPropertyOp13
 70
     1
102
RTVSPropertyOp14
 70
     1
102
RTVSPropertyOp15
 70
     1
102
RTVSPropertyOp16
 70
     1
102
RTVSPropertyOp17
 70
     1
102
RTVSPropertyOp18
 70
     1
102
RTVSPropertyOp19
 70
     1
102
RTVSPropertyOp20
 70
     1
102
RTVSPropertyOp21
 70
     1
102
RTVSPropertyOp22
 70
     1
102
RTVSPropertyOp23
 70
     1
102
RTVSPropertyOp24
 70
     1
102
RTVSPropertyOp25
 70
     1
102
RTVSPropertyOp26
 70
     1
102
RTVSPropertyOp27
 70
     1
102
RTVSPropertyOp28
 70
     1
102
RTVSPropertyOp29
 70
     1
102
RTVSPropertyOp30
 70
     1
102
RTVSPropertyOp31
 70
     1
102
RTVSPropertyOp32
 70
     1
102
RTVSPropertyOp33
 70
     1
102
RTVSPropertyOp34
 70
     1
102
RTVSPropertyOp35
 70
     1
102
RTVSPropertyOp36
 70
     1
102
RTVSPropertyOp37
 70
     1
102
RTVSPropertyOp38
 70
     1
102
RTVSPropertyOp39
 70
     1
102
RTVSPropertyOp40
 70
     1
102
RTVSPropertyOp41
 70
     1
102
RTVSPropertyOp42
 70
     1
102
RTVSPropertyOp43
 70
     1
102
RTVSPropertyOp44
 70
     1
102
RTVSPropertyOp45
 70
     1
102
RTVSPropertyOp46
 70
     1
102
RTVSPropertyOp47
 70
     1
102
RTVSPropertyOp48
 70
     1
102
RTVSPropertyOp49
 70
     1
102
RTVSPropertyOp50
 70
     1
102
RTVSPropertyOp51
 70
     0
102
RTVSPropertyOp52
 70
     0
102
RTVSPropertyOp53
 70
     1
102
RTVSPropertyOp54
 70
     1
102
RTVSPropertyOp55
 70
     1
102
RTVSPropertyOp56
 70
     1
102
RTVSPropertyOp57
 70
     1
102
RTVSPropertyOp58
 70
     1
102
RTVSPropertyOp59
 70
     1
102
RTVSPropertyOp60
 70
     1
102
RTVSPropertyOp61
 70
     1
102
RTVSPropertyOp62
 70
     1
  0
XRECORD
  5
324A
102
{ACAD_REACTORS
330
3249
102
}
330
3249
100
AcDbXrecord
280
     1
102
RTVSPost2010Prop28
280
     0
102
RTVSPost2010PropOp28
 70
     1
102
RTVSPost2010Prop29
280
     1
102
RTVSPost2010PropOp29
 70
     1
102
RTVSPost2010Prop30
280
     1
102
RTVSPost2010PropOp30
 70
     1
102
RTVSPost2010Prop31
280
     0
102
RTVSPost2010PropOp31
 70
     1
102
RTVSPost2010Prop32
280
     0
102
RTVSPost2010PropOp32
 70
     1
102
RTVSPost2010Prop33
280
     0
102
RTVSPost2010PropOp33
 70
     1
102
RTVSPost2010Prop34
280
     0
102
RTVSPost2010PropOp34
 70
     1
102
RTVSPost2010Prop35
280
     0
102
RTVSPost2010PropOp35
 70
     1
102
RTVSPost2010Prop36
280
     0
102
RTVSPost2010PropOp36
 70
     1
102
RTVSPost2010Prop37
 90
       50
102
RTVSPost2010PropOp37
 70
     0
102
RTVSPost2010Prop38
140
0.0
102
RTVSPost2010PropOp38
 70
     0
102
RTVSPost2010Prop39
140
1.0
102
RTVSPost2010PropOp39
 70
     0
102
RTVSPost2010Prop40
 90
        0
102
RTVSPost2010PropOp40
 70
     0
102
RTVSPost2010Prop41ColorIndex
 90
       18
102
RTVSPost2010Prop41ColorRGB
 90
        0
102
RTVSPost2010PropOp41
 70
     0
102
RTVSPost2010Prop42
 90
       50
102
RTVSPost2010PropOp42
 70
     0
102
RTVSPost2010Prop43
 90
        3
102
RTVSPost2010PropOp43
 70
     0
102
RTVSPost2010Prop44ColorIndex
 90
        5
102
RTVSPost2010Prop44ColorRGB
 90
      255
102
RTVSPost2010PropOp44
 70
     0
102
RTVSPost2010Prop45
280
     0
102
RTVSPost2010PropOp45
 70
     1
102
RTVSPost2010Prop46
 90
       50
102
RTVSPost2010PropOp46
 70
     0
102
RTVSPost2010Prop47
 90
       50
102
RTVSPost2010PropOp47
 70
     0
102
RTVSPost2010Prop48
 90
       50
102
RTVSPost2010PropOp48
 70
     0
102
RTVSPost2010Prop49
280
     0
102
RTVSPost2010PropOp49
 70
     1
102
RTVSPost2010Prop50
 90
       50
102
RTVSPost2010PropOp50
 70
     0
102
RTVSPost2010Prop51ColorIndex
 90
      256
102
RTVSPost2010Prop51ColorRGB
 90
-16777216
102
RTVSPost2010PropOp51
 70
     0
102
RTVSPost2010Prop52
140
1.0
102
RTVSPost2010PropOp52
 70
     0
102
RTVSPost2010Prop53
 90
        2
102
RTVSPost2010PropOp53
 70
     0
102
RTVSPost2010Prop54
  1
strokes_ogs.tif
102
RTVSPost2010PropOp54
 70
     0
102
RTVSPost2010Prop55
280
     0
102
RTVSPost2010PropOp55
 70
     1
102
RTVSPost2010Prop56
140
1.0
102
RTVSPost2010PropOp56
 70
     0
102
RTVSPost2010Prop57
140
1.0
102
RTVSPost2010PropOp57
 70
     0
102
RTVSPropertyOp0
 70
     0
102
RTVSPropertyOp1
 70
     0
102
RTVSPropertyOp2
 70
     0
102
RTVSPropertyOp3
 70
     0
102
RTVSPropertyOp4
 70
     0
102
RTVSPropertyOp5
 70
     0
102
RTVSPropertyOp6
 70
     0
102
RTVSPropertyOp7
 70
     0
102
RTVSPropertyOp8
 70
     0
102
RTVSPropertyOp9
 70
     0
102
RTVSPropertyOp10
 70
     0
102
RTVSPropertyOp11
 70
     0
102
RTVSPropertyOp12
 70
     0
102
RTVSPropertyOp13
 70
     0
102
RTVSPropertyOp14
 70
     2
102
RTVSPropertyOp15
 70
     0
102
RTVSPropertyOp16
 70
     0
102
RTVSPropertyOp17
 70
     0
102
RTVSPropertyOp18
 70
     0
102
RTVSPropertyOp19
 70
     0
102
RTVSPropertyOp20
 70
     0
102
RTVSPropertyOp21
 70
     0
102
RTVSPropertyOp22
 70
     0
102
RTVSPropertyOp23
 70
     0
102
RTVSPropertyOp24
 70
     0
102
RTVSPropertyOp25
 70
     0
102
RTVSPropertyOp26
 70
     0
102
RTVSPropertyOp27
 70
     0
102
RTVSPropertyOp28
 70
     1
102
RTVSPropertyOp29
 70
     1
102
RTVSPropertyOp30
 70
     1
102
RTVSPropertyOp31
 70
     1
102
RTVSPropertyOp32
 70
     1
102
RTVSPropertyOp33
 70
     1
102
RTVSPropertyOp34
 70
     1
102
RTVSPropertyOp35
 70
     1
102
RTVSPropertyOp36
 70
     1
102
RTVSPropertyOp37
 70
     0
102
RTVSPropertyOp38
 70
     0
102
RTVSPropertyOp39
 70
     0
102
RTVSPropertyOp40
 70
     0
102
RTVSPropertyOp41
 70
     0
102
RTVSPropertyOp42
 70
     0
102
RTVSPropertyOp43
 70
     0
102
RTVSPropertyOp44
 70
     0
102
RTVSPropertyOp45
 70
     1
102
RTVSPropertyOp46
 70
     0
102
RTVSPropertyOp47
 70
     0
102
RTVSPropertyOp48
 70
     0
102
RTVSPropertyOp49
 70
     1
102
RTVSPropertyOp50
 70
     0
102
RTVSPropertyOp51
 70
     0
102
RTVSPropertyOp52
 70
     0
102
RTVSPropertyOp53
 70
     0
102
RTVSPropertyOp54
 70
     0
102
RTVSPropertyOp55
 70
     1
102
RTVSPropertyOp56
 70
     0
102
RTVSPropertyOp57
 70
     0
102
RTVSPropertyOp58
 70
     0
102
RTVSPropertyOp59
 70
     0
102
RTVSPropertyOp60
 70
     0
102
RTVSPropertyOp61
 70
     0
102
RTVSPropertyOp62
 70
     0
  0
XRECORD
  5
3230
102
{ACAD_REACTORS
330
322F
102
}
330
322F
100
AcDbXrecord
280
     1
102
RTVSPost2010Prop28
280
     0
102
RTVSPost2010PropOp28
 70
     1
102
RTVSPost2010Prop29
280
     1
102
RTVSPost2010PropOp29
 70
     1
102
RTVSPost2010Prop30
280
     1
102
RTVSPost2010PropOp30
 70
     1
102
RTVSPost2010Prop31
280
     0
102
RTVSPost2010PropOp31
 70
     1
102
RTVSPost2010Prop32
280
     0
102
RTVSPost2010PropOp32
 70
     1
102
RTVSPost2010Prop33
280
     0
102
RTVSPost2010PropOp33
 70
     1
102
RTVSPost2010Prop34
280
     0
102
RTVSPost2010PropOp34
 70
     1
102
RTVSPost2010Prop35
280
     0
102
RTVSPost2010PropOp35
 70
     1
102
RTVSPost2010Prop36
280
     0
102
RTVSPost2010PropOp36
 70
     1
102
RTVSPost2010Prop37
 90
       50
102
RTVSPost2010PropOp37
 70
     1
102
RTVSPost2010Prop38
140
0.0
102
RTVSPost2010PropOp38
 70
     1
102
RTVSPost2010Prop39
140
1.0
102
RTVSPost2010PropOp39
 70
     1
102
RTVSPost2010Prop40
 90
        0
102
RTVSPost2010PropOp40
 70
     1
102
RTVSPost2010Prop41ColorIndex
 90
       18
102
RTVSPost2010Prop41ColorRGB
 90
        0
102
RTVSPost2010PropOp41
 70
     1
102
RTVSPost2010Prop42
 90
       50
102
RTVSPost2010PropOp42
 70
     1
102
RTVSPost2010Prop43
 90
        3
102
RTVSPost2010PropOp43
 70
     1
102
RTVSPost2010Prop44ColorIndex
 90
        5
102
RTVSPost2010Prop44ColorRGB
 90
      255
102
RTVSPost2010PropOp44
 70
     1
102
RTVSPost2010Prop45
280
     0
102
RTVSPost2010PropOp45
 70
     1
102
RTVSPost2010Prop46
 90
       50
102
RTVSPost2010PropOp46
 70
     1
102
RTVSPost2010Prop47
 90
       50
102
RTVSPost2010PropOp47
 70
     1
102
RTVSPost2010Prop48
 90
       50
102
RTVSPost2010PropOp48
 70
     1
102
RTVSPost2010Prop49
280
     0
102
RTVSPost2010PropOp49
 70
     1
102
RTVSPost2010Prop50
 90
       50
102
RTVSPost2010PropOp50
 70
     1
102
RTVSPost2010Prop51ColorIndex
 90
      256
102
RTVSPost2010Prop51ColorRGB
 90
-16777216
102
RTVSPost2010PropOp51
 70
     0
102
RTVSPost2010Prop52
140
1.0
102
RTVSPost2010PropOp52
 70
     0
102
RTVSPost2010Prop53
 90
        2
102
RTVSPost2010PropOp53
 70
     1
102
RTVSPost2010Prop54
  1
strokes_ogs.tif
102
RTVSPost2010PropOp54
 70
     1
102
RTVSPost2010Prop55
280
     0
102
RTVSPost2010PropOp55
 70
     1
102
RTVSPost2010Prop56
140
1.0
102
RTVSPost2010PropOp56
 70
     1
102
RTVSPost2010Prop57
140
1.0
102
RTVSPost2010PropOp57
 70
     1
102
RTVSPropertyOp0
 70
     1
102
RTVSPropertyOp1
 70
     1
102
RTVSPropertyOp2
 70
     1
102
RTVSPropertyOp3
 70
     1
102
RTVSPropertyOp4
 70
     1
102
RTVSPropertyOp5
 70
     1
102
RTVSPropertyOp6
 70
     1
102
RTVSPropertyOp7
 70
     1
102
RTVSPropertyOp8
 70
     1
102
RTVSPropertyOp9
 70
     1
102
RTVSPropertyOp10
 70
     1
102
RTVSPropertyOp11
 70
     1
102
RTVSPropertyOp12
 70
     1
102
RTVSPropertyOp13
 70
     1
102
RTVSPropertyOp14
 70
     1
102
RTVSPropertyOp15
 70
     1
102
RTVSPropertyOp16
 70
     1
102
RTVSPropertyOp17
 70
     1
102
RTVSPropertyOp18
 70
     1
102
RTVSPropertyOp19
 70
     1
102
RTVSPropertyOp20
 70
     1
102
RTVSPropertyOp21
 70
     1
102
RTVSPropertyOp22
 70
     1
102
RTVSPropertyOp23
 70
     1
102
RTVSPropertyOp24
 70
     1
102
RTVSPropertyOp25
 70
     1
102
RTVSPropertyOp26
 70
     1
102
RTVSPropertyOp27
 70
     1
102
RTVSPropertyOp28
 70
     1
102
RTVSPropertyOp29
 70
     1
102
RTVSPropertyOp30
 70
     1
102
RTVSPropertyOp31
 70
     1
102
RTVSPropertyOp32
 70
     1
102
RTVSPropertyOp33
 70
     1
102
RTVSPropertyOp34
 70
     1
102
RTVSPropertyOp35
 70
     1
102
RTVSPropertyOp36
 70
     1
102
RTVSPropertyOp37
 70
     1
102
RTVSPropertyOp38
 70
     1
102
RTVSPropertyOp39
 70
     1
102
RTVSPropertyOp40
 70
     1
102
RTVSPropertyOp41
 70
     1
102
RTVSPropertyOp42
 70
     1
102
RTVSPropertyOp43
 70
     1
102
RTVSPropertyOp44
 70
     1
102
RTVSPropertyOp45
 70
     1
102
RTVSPropertyOp46
 70
     1
102
RTVSPropertyOp47
 70
     1
102
RTVSPropertyOp48
 70
     1
102
RTVSPropertyOp49
 70
     1
102
RTVSPropertyOp50
 70
     1
102
RTVSPropertyOp51
 70
     0
102
RTVSPropertyOp52
 70
     0
102
RTVSPropertyOp53
 70
     1
102
RTVSPropertyOp54
 70
     1
102
RTVSPropertyOp55
 70
     1
102
RTVSPropertyOp56
 70
     1
102
RTVSPropertyOp57
 70
     1
102
RTVSPropertyOp58
 70
     1
102
RTVSPropertyOp59
 70
     1
102
RTVSPropertyOp60
 70
     1
102
RTVSPropertyOp61
 70
     1
102
RTVSPropertyOp62
 70
     1
  0
XRECORD
  5
3246
102
{ACAD_REACTORS
330
3245
102
}
330
3245
100
AcDbXrecord
280
     1
102
RTVSPost2010Prop28
280
     0
102
RTVSPost2010PropOp28
 70
     1
102
RTVSPost2010Prop29
280
     1
102
RTVSPost2010PropOp29
 70
     1
102
RTVSPost2010Prop30
280
     1
102
RTVSPost2010PropOp30
 70
     1
102
RTVSPost2010Prop31
280
     0
102
RTVSPost2010PropOp31
 70
     1
102
RTVSPost2010Prop32
280
     0
102
RTVSPost2010PropOp32
 70
     1
102
RTVSPost2010Prop33
280
     0
102
RTVSPost2010PropOp33
 70
     1
102
RTVSPost2010Prop34
280
     0
102
RTVSPost2010PropOp34
 70
     1
102
RTVSPost2010Prop35
280
     0
102
RTVSPost2010PropOp35
 70
     1
102
RTVSPost2010Prop36
280
     0
102
RTVSPost2010PropOp36
 70
     1
102
RTVSPost2010Prop37
 90
       50
102
RTVSPost2010PropOp37
 70
     1
102
RTVSPost2010Prop38
140
0.0
102
RTVSPost2010PropOp38
 70
     1
102
RTVSPost2010Prop39
140
1.0
102
RTVSPost2010PropOp39
 70
     1
102
RTVSPost2010Prop40
 90
        0
102
RTVSPost2010PropOp40
 70
     1
102
RTVSPost2010Prop41ColorIndex
 90
       18
102
RTVSPost2010Prop41ColorRGB
 90
        0
102
RTVSPost2010PropOp41
 70
     1
102
RTVSPost2010Prop42
 90
       50
102
RTVSPost2010PropOp42
 70
     1
102
RTVSPost2010Prop43
 90
        3
102
RTVSPost2010PropOp43
 70
     1
102
RTVSPost2010Prop44ColorIndex
 90
        5
102
RTVSPost2010Prop44ColorRGB
 90
      255
102
RTVSPost2010PropOp44
 70
     1
102
RTVSPost2010Prop45
280
     0
102
RTVSPost2010PropOp45
 70
     1
102
RTVSPost2010Prop46
 90
       50
102
RTVSPost2010PropOp46
 70
     1
102
RTVSPost2010Prop47
 90
       50
102
RTVSPost2010PropOp47
 70
     1
102
RTVSPost2010Prop48
 90
       50
102
RTVSPost2010PropOp48
 70
     1
102
RTVSPost2010Prop49
280
     0
102
RTVSPost2010PropOp49
 70
     1
102
RTVSPost2010Prop50
 90
       50
102
RTVSPost2010PropOp50
 70
     1
102
RTVSPost2010Prop51ColorIndex
 90
      256
102
RTVSPost2010Prop51ColorRGB
 90
-16777216
102
RTVSPost2010PropOp51
 70
     0
102
RTVSPost2010Prop52
140
1.0
102
RTVSPost2010PropOp52
 70
     0
102
RTVSPost2010Prop53
 90
        2
102
RTVSPost2010PropOp53
 70
     1
102
RTVSPost2010Prop54
  1
strokes_ogs.tif
102
RTVSPost2010PropOp54
 70
     1
102
RTVSPost2010Prop55
280
     0
102
RTVSPost2010PropOp55
 70
     1
102
RTVSPost2010Prop56
140
1.0
102
RTVSPost2010PropOp56
 70
     1
102
RTVSPost2010Prop57
140
1.0
102
RTVSPost2010PropOp57
 70
     1
102
RTVSPropertyOp0
 70
     1
102
RTVSPropertyOp1
 70
     1
102
RTVSPropertyOp2
 70
     1
102
RTVSPropertyOp3
 70
     1
102
RTVSPropertyOp4
 70
     1
102
RTVSPropertyOp5
 70
     1
102
RTVSPropertyOp6
 70
     1
102
RTVSPropertyOp7
 70
     1
102
RTVSPropertyOp8
 70
     1
102
RTVSPropertyOp9
 70
     1
102
RTVSPropertyOp10
 70
     1
102
RTVSPropertyOp11
 70
     1
102
RTVSPropertyOp12
 70
     1
102
RTVSPropertyOp13
 70
     1
102
RTVSPropertyOp14
 70
     1
102
RTVSPropertyOp15
 70
     1
102
RTVSPropertyOp16
 70
     1
102
RTVSPropertyOp17
 70
     1
102
RTVSPropertyOp18
 70
     1
102
RTVSPropertyOp19
 70
     1
102
RTVSPropertyOp20
 70
     1
102
RTVSPropertyOp21
 70
     1
102
RTVSPropertyOp22
 70
     1
102
RTVSPropertyOp23
 70
     1
102
RTVSPropertyOp24
 70
     1
102
RTVSPropertyOp25
 70
     1
102
RTVSPropertyOp26
 70
     1
102
RTVSPropertyOp27
 70
     1
102
RTVSPropertyOp28
 70
     1
102
RTVSPropertyOp29
 70
     1
102
RTVSPropertyOp30
 70
     1
102
RTVSPropertyOp31
 70
     1
102
RTVSPropertyOp32
 70
     1
102
RTVSPropertyOp33
 70
     1
102
RTVSPropertyOp34
 70
     1
102
RTVSPropertyOp35
 70
     1
102
RTVSPropertyOp36
 70
     1
102
RTVSPropertyOp37
 70
     1
102
RTVSPropertyOp38
 70
     1
102
RTVSPropertyOp39
 70
     1
102
RTVSPropertyOp40
 70
     1
102
RTVSPropertyOp41
 70
     1
102
RTVSPropertyOp42
 70
     1
102
RTVSPropertyOp43
 70
     1
102
RTVSPropertyOp44
 70
     1
102
RTVSPropertyOp45
 70
     1
102
RTVSPropertyOp46
 70
     1
102
RTVSPropertyOp47
 70
     1
102
RTVSPropertyOp48
 70
     1
102
RTVSPropertyOp49
 70
     1
102
RTVSPropertyOp50
 70
     1
102
RTVSPropertyOp51
 70
     0
102
RTVSPropertyOp52
 70
     0
102
RTVSPropertyOp53
 70
     1
102
RTVSPropertyOp54
 70
     1
102
RTVSPropertyOp55
 70
     1
102
RTVSPropertyOp56
 70
     1
102
RTVSPropertyOp57
 70
     1
102
RTVSPropertyOp58
 70
     1
102
RTVSPropertyOp59
 70
     1
102
RTVSPropertyOp60
 70
     1
102
RTVSPropertyOp61
 70
     1
102
RTVSPropertyOp62
 70
     1
  0
XRECORD
  5
3244
102
{ACAD_REACTORS
330
3243
102
}
330
3243
100
AcDbXrecord
280
     1
102
RTVSPost2010Prop28
280
     0
102
RTVSPost2010PropOp28
 70
     1
102
RTVSPost2010Prop29
280
     1
102
RTVSPost2010PropOp29
 70
     1
102
RTVSPost2010Prop30
280
     1
102
RTVSPost2010PropOp30
 70
     1
102
RTVSPost2010Prop31
280
     0
102
RTVSPost2010PropOp31
 70
     1
102
RTVSPost2010Prop32
280
     0
102
RTVSPost2010PropOp32
 70
     1
102
RTVSPost2010Prop33
280
     0
102
RTVSPost2010PropOp33
 70
     1
102
RTVSPost2010Prop34
280
     0
102
RTVSPost2010PropOp34
 70
     1
102
RTVSPost2010Prop35
280
     0
102
RTVSPost2010PropOp35
 70
     1
102
RTVSPost2010Prop36
280
     0
102
RTVSPost2010PropOp36
 70
     1
102
RTVSPost2010Prop37
 90
       50
102
RTVSPost2010PropOp37
 70
     1
102
RTVSPost2010Prop38
140
0.0
102
RTVSPost2010PropOp38
 70
     1
102
RTVSPost2010Prop39
140
1.0
102
RTVSPost2010PropOp39
 70
     1
102
RTVSPost2010Prop40
 90
        0
102
RTVSPost2010PropOp40
 70
     1
102
RTVSPost2010Prop41ColorIndex
 90
       18
102
RTVSPost2010Prop41ColorRGB
 90
        0
102
RTVSPost2010PropOp41
 70
     1
102
RTVSPost2010Prop42
 90
       50
102
RTVSPost2010PropOp42
 70
     1
102
RTVSPost2010Prop43
 90
        3
102
RTVSPost2010PropOp43
 70
     1
102
RTVSPost2010Prop44ColorIndex
 90
        5
102
RTVSPost2010Prop44ColorRGB
 90
      255
102
RTVSPost2010PropOp44
 70
     1
102
RTVSPost2010Prop45
280
     0
102
RTVSPost2010PropOp45
 70
     1
102
RTVSPost2010Prop46
 90
       50
102
RTVSPost2010PropOp46
 70
     1
102
RTVSPost2010Prop47
 90
       50
102
RTVSPost2010PropOp47
 70
     1
102
RTVSPost2010Prop48
 90
       50
102
RTVSPost2010PropOp48
 70
     1
102
RTVSPost2010Prop49
280
     0
102
RTVSPost2010PropOp49
 70
     1
102
RTVSPost2010Prop50
 90
       50
102
RTVSPost2010PropOp50
 70
     1
102
RTVSPost2010Prop51ColorIndex
 90
      256
102
RTVSPost2010Prop51ColorRGB
 90
-16777216
102
RTVSPost2010PropOp51
 70
     0
102
RTVSPost2010Prop52
140
1.0
102
RTVSPost2010PropOp52
 70
     0
102
RTVSPost2010Prop53
 90
        2
102
RTVSPost2010PropOp53
 70
     1
102
RTVSPost2010Prop54
  1
strokes_ogs.tif
102
RTVSPost2010PropOp54
 70
     1
102
RTVSPost2010Prop55
280
     0
102
RTVSPost2010PropOp55
 70
     1
102
RTVSPost2010Prop56
140
1.0
102
RTVSPost2010PropOp56
 70
     1
102
RTVSPost2010Prop57
140
1.0
102
RTVSPost2010PropOp57
 70
     1
102
RTVSPropertyOp0
 70
     1
102
RTVSPropertyOp1
 70
     1
102
RTVSPropertyOp2
 70
     1
102
RTVSPropertyOp3
 70
     1
102
RTVSPropertyOp4
 70
     1
102
RTVSPropertyOp5
 70
     1
102
RTVSPropertyOp6
 70
     1
102
RTVSPropertyOp7
 70
     1
102
RTVSPropertyOp8
 70
     1
102
RTVSPropertyOp9
 70
     1
102
RTVSPropertyOp10
 70
     1
102
RTVSPropertyOp11
 70
     1
102
RTVSPropertyOp12
 70
     1
102
RTVSPropertyOp13
 70
     1
102
RTVSPropertyOp14
 70
     1
102
RTVSPropertyOp15
 70
     1
102
RTVSPropertyOp16
 70
     1
102
RTVSPropertyOp17
 70
     1
102
RTVSPropertyOp18
 70
     1
102
RTVSPropertyOp19
 70
     1
102
RTVSPropertyOp20
 70
     1
102
RTVSPropertyOp21
 70
     1
102
RTVSPropertyOp22
 70
     1
102
RTVSPropertyOp23
 70
     1
102
RTVSPropertyOp24
 70
     1
102
RTVSPropertyOp25
 70
     1
102
RTVSPropertyOp26
 70
     1
102
RTVSPropertyOp27
 70
     1
102
RTVSPropertyOp28
 70
     1
102
RTVSPropertyOp29
 70
     1
102
RTVSPropertyOp30
 70
     1
102
RTVSPropertyOp31
 70
     1
102
RTVSPropertyOp32
 70
     1
102
RTVSPropertyOp33
 70
     1
102
RTVSPropertyOp34
 70
     1
102
RTVSPropertyOp35
 70
     1
102
RTVSPropertyOp36
 70
     1
102
RTVSPropertyOp37
 70
     1
102
RTVSPropertyOp38
 70
     1
102
RTVSPropertyOp39
 70
     1
102
RTVSPropertyOp40
 70
     1
102
RTVSPropertyOp41
 70
     1
102
RTVSPropertyOp42
 70
     1
102
RTVSPropertyOp43
 70
     1
102
RTVSPropertyOp44
 70
     1
102
RTVSPropertyOp45
 70
     1
102
RTVSPropertyOp46
 70
     1
102
RTVSPropertyOp47
 70
     1
102
RTVSPropertyOp48
 70
     1
102
RTVSPropertyOp49
 70
     1
102
RTVSPropertyOp50
 70
     1
102
RTVSPropertyOp51
 70
     0
102
RTVSPropertyOp52
 70
     0
102
RTVSPropertyOp53
 70
     1
102
RTVSPropertyOp54
 70
     1
102
RTVSPropertyOp55
 70
     1
102
RTVSPropertyOp56
 70
     1
102
RTVSPropertyOp57
 70
     1
102
RTVSPropertyOp58
 70
     1
102
RTVSPropertyOp59
 70
     1
102
RTVSPropertyOp60
 70
     1
102
RTVSPropertyOp61
 70
     1
102
RTVSPropertyOp62
 70
     1
  0
XRECORD
  5
323E
102
{ACAD_REACTORS
330
323D
102
}
330
323D
100
AcDbXrecord
280
     1
102
RTVSPost2010Prop28
280
     0
102
RTVSPost2010PropOp28
 70
     1
102
RTVSPost2010Prop29
280
     1
102
RTVSPost2010PropOp29
 70
     1
102
RTVSPost2010Prop30
280
     1
102
RTVSPost2010PropOp30
 70
     1
102
RTVSPost2010Prop31
280
     0
102
RTVSPost2010PropOp31
 70
     1
102
RTVSPost2010Prop32
280
     0
102
RTVSPost2010PropOp32
 70
     1
102
RTVSPost2010Prop33
280
     0
102
RTVSPost2010PropOp33
 70
     1
102
RTVSPost2010Prop34
280
     0
102
RTVSPost2010PropOp34
 70
     1
102
RTVSPost2010Prop35
280
     0
102
RTVSPost2010PropOp35
 70
     1
102
RTVSPost2010Prop36
280
     0
102
RTVSPost2010PropOp36
 70
     1
102
RTVSPost2010Prop37
 90
       50
102
RTVSPost2010PropOp37
 70
     1
102
RTVSPost2010Prop38
140
0.0
102
RTVSPost2010PropOp38
 70
     1
102
RTVSPost2010Prop39
140
1.0
102
RTVSPost2010PropOp39
 70
     1
102
RTVSPost2010Prop40
 90
        0
102
RTVSPost2010PropOp40
 70
     1
102
RTVSPost2010Prop41ColorIndex
 90
       18
102
RTVSPost2010Prop41ColorRGB
 90
        0
102
RTVSPost2010PropOp41
 70
     1
102
RTVSPost2010Prop42
 90
       50
102
RTVSPost2010PropOp42
 70
     1
102
RTVSPost2010Prop43
 90
        3
102
RTVSPost2010PropOp43
 70
     1
102
RTVSPost2010Prop44ColorIndex
 90
        5
102
RTVSPost2010Prop44ColorRGB
 90
      255
102
RTVSPost2010PropOp44
 70
     1
102
RTVSPost2010Prop45
280
     0
102
RTVSPost2010PropOp45
 70
     1
102
RTVSPost2010Prop46
 90
       50
102
RTVSPost2010PropOp46
 70
     1
102
RTVSPost2010Prop47
 90
       50
102
RTVSPost2010PropOp47
 70
     1
102
RTVSPost2010Prop48
 90
       50
102
RTVSPost2010PropOp48
 70
     1
102
RTVSPost2010Prop49
280
     0
102
RTVSPost2010PropOp49
 70
     1
102
RTVSPost2010Prop50
 90
       50
102
RTVSPost2010PropOp50
 70
     1
102
RTVSPost2010Prop51ColorIndex
 90
      256
102
RTVSPost2010Prop51ColorRGB
 90
-16777216
102
RTVSPost2010PropOp51
 70
     0
102
RTVSPost2010Prop52
140
1.0
102
RTVSPost2010PropOp52
 70
     0
102
RTVSPost2010Prop53
 90
        2
102
RTVSPost2010PropOp53
 70
     1
102
RTVSPost2010Prop54
  1
strokes_ogs.tif
102
RTVSPost2010PropOp54
 70
     1
102
RTVSPost2010Prop55
280
     0
102
RTVSPost2010PropOp55
 70
     1
102
RTVSPost2010Prop56
140
1.0
102
RTVSPost2010PropOp56
 70
     1
102
RTVSPost2010Prop57
140
1.0
102
RTVSPost2010PropOp57
 70
     1
102
RTVSPropertyOp0
 70
     1
102
RTVSPropertyOp1
 70
     1
102
RTVSPropertyOp2
 70
     1
102
RTVSPropertyOp3
 70
     1
102
RTVSPropertyOp4
 70
     1
102
RTVSPropertyOp5
 70
     1
102
RTVSPropertyOp6
 70
     1
102
RTVSPropertyOp7
 70
     1
102
RTVSPropertyOp8
 70
     1
102
RTVSPropertyOp9
 70
     1
102
RTVSPropertyOp10
 70
     1
102
RTVSPropertyOp11
 70
     1
102
RTVSPropertyOp12
 70
     1
102
RTVSPropertyOp13
 70
     1
102
RTVSPropertyOp14
 70
     1
102
RTVSPropertyOp15
 70
     1
102
RTVSPropertyOp16
 70
     1
102
RTVSPropertyOp17
 70
     1
102
RTVSPropertyOp18
 70
     1
102
RTVSPropertyOp19
 70
     1
102
RTVSPropertyOp20
 70
     1
102
RTVSPropertyOp21
 70
     1
102
RTVSPropertyOp22
 70
     1
102
RTVSPropertyOp23
 70
     1
102
RTVSPropertyOp24
 70
     1
102
RTVSPropertyOp25
 70
     1
102
RTVSPropertyOp26
 70
     1
102
RTVSPropertyOp27
 70
     1
102
RTVSPropertyOp28
 70
     1
102
RTVSPropertyOp29
 70
     1
102
RTVSPropertyOp30
 70
     1
102
RTVSPropertyOp31
 70
     1
102
RTVSPropertyOp32
 70
     1
102
RTVSPropertyOp33
 70
     1
102
RTVSPropertyOp34
 70
     1
102
RTVSPropertyOp35
 70
     1
102
RTVSPropertyOp36
 70
     1
102
RTVSPropertyOp37
 70
     1
102
RTVSPropertyOp38
 70
     1
102
RTVSPropertyOp39
 70
     1
102
RTVSPropertyOp40
 70
     1
102
RTVSPropertyOp41
 70
     1
102
RTVSPropertyOp42
 70
     1
102
RTVSPropertyOp43
 70
     1
102
RTVSPropertyOp44
 70
     1
102
RTVSPropertyOp45
 70
     1
102
RTVSPropertyOp46
 70
     1
102
RTVSPropertyOp47
 70
     1
102
RTVSPropertyOp48
 70
     1
102
RTVSPropertyOp49
 70
     1
102
RTVSPropertyOp50
 70
     1
102
RTVSPropertyOp51
 70
     0
102
RTVSPropertyOp52
 70
     0
102
RTVSPropertyOp53
 70
     1
102
RTVSPropertyOp54
 70
     1
102
RTVSPropertyOp55
 70
     1
102
RTVSPropertyOp56
 70
     1
102
RTVSPropertyOp57
 70
     1
102
RTVSPropertyOp58
 70
     1
102
RTVSPropertyOp59
 70
     1
102
RTVSPropertyOp60
 70
     1
102
RTVSPropertyOp61
 70
     1
102
RTVSPropertyOp62
 70
     1
  0
XRECORD
  5
3240
102
{ACAD_REACTORS
330
323F
102
}
330
323F
100
AcDbXrecord
280
     1
102
RTVSPost2010Prop28
280
     0
102
RTVSPost2010PropOp28
 70
     1
102
RTVSPost2010Prop29
280
     1
102
RTVSPost2010PropOp29
 70
     1
102
RTVSPost2010Prop30
280
     1
102
RTVSPost2010PropOp30
 70
     1
102
RTVSPost2010Prop31
280
     0
102
RTVSPost2010PropOp31
 70
     1
102
RTVSPost2010Prop32
280
     0
102
RTVSPost2010PropOp32
 70
     1
102
RTVSPost2010Prop33
280
     0
102
RTVSPost2010PropOp33
 70
     1
102
RTVSPost2010Prop34
280
     0
102
RTVSPost2010PropOp34
 70
     1
102
RTVSPost2010Prop35
280
     0
102
RTVSPost2010PropOp35
 70
     1
102
RTVSPost2010Prop36
280
     0
102
RTVSPost2010PropOp36
 70
     1
102
RTVSPost2010Prop37
 90
       50
102
RTVSPost2010PropOp37
 70
     1
102
RTVSPost2010Prop38
140
0.0
102
RTVSPost2010PropOp38
 70
     1
102
RTVSPost2010Prop39
140
1.0
102
RTVSPost2010PropOp39
 70
     1
102
RTVSPost2010Prop40
 90
        0
102
RTVSPost2010PropOp40
 70
     1
102
RTVSPost2010Prop41ColorIndex
 90
       18
102
RTVSPost2010Prop41ColorRGB
 90
        0
102
RTVSPost2010PropOp41
 70
     1
102
RTVSPost2010Prop42
 90
       50
102
RTVSPost2010PropOp42
 70
     1
102
RTVSPost2010Prop43
 90
        3
102
RTVSPost2010PropOp43
 70
     1
102
RTVSPost2010Prop44ColorIndex
 90
        5
102
RTVSPost2010Prop44ColorRGB
 90
      255
102
RTVSPost2010PropOp44
 70
     1
102
RTVSPost2010Prop45
280
     0
102
RTVSPost2010PropOp45
 70
     1
102
RTVSPost2010Prop46
 90
       50
102
RTVSPost2010PropOp46
 70
     1
102
RTVSPost2010Prop47
 90
       50
102
RTVSPost2010PropOp47
 70
     1
102
RTVSPost2010Prop48
 90
       50
102
RTVSPost2010PropOp48
 70
     1
102
RTVSPost2010Prop49
280
     0
102
RTVSPost2010PropOp49
 70
     1
102
RTVSPost2010Prop50
 90
       50
102
RTVSPost2010PropOp50
 70
     1
102
RTVSPost2010Prop51ColorIndex
 90
      256
102
RTVSPost2010Prop51ColorRGB
 90
-16777216
102
RTVSPost2010PropOp51
 70
     0
102
RTVSPost2010Prop52
140
1.0
102
RTVSPost2010PropOp52
 70
     0
102
RTVSPost2010Prop53
 90
        2
102
RTVSPost2010PropOp53
 70
     1
102
RTVSPost2010Prop54
  1
strokes_ogs.tif
102
RTVSPost2010PropOp54
 70
     1
102
RTVSPost2010Prop55
280
     0
102
RTVSPost2010PropOp55
 70
     1
102
RTVSPost2010Prop56
140
1.0
102
RTVSPost2010PropOp56
 70
     1
102
RTVSPost2010Prop57
140
1.0
102
RTVSPost2010PropOp57
 70
     1
102
RTVSPropertyOp0
 70
     1
102
RTVSPropertyOp1
 70
     1
102
RTVSPropertyOp2
 70
     1
102
RTVSPropertyOp3
 70
     1
102
RTVSPropertyOp4
 70
     1
102
RTVSPropertyOp5
 70
     1
102
RTVSPropertyOp6
 70
     1
102
RTVSPropertyOp7
 70
     1
102
RTVSPropertyOp8
 70
     1
102
RTVSPropertyOp9
 70
     1
102
RTVSPropertyOp10
 70
     1
102
RTVSPropertyOp11
 70
     1
102
RTVSPropertyOp12
 70
     1
102
RTVSPropertyOp13
 70
     1
102
RTVSPropertyOp14
 70
     1
102
RTVSPropertyOp15
 70
     1
102
RTVSPropertyOp16
 70
     1
102
RTVSPropertyOp17
 70
     1
102
RTVSPropertyOp18
 70
     1
102
RTVSPropertyOp19
 70
     1
102
RTVSPropertyOp20
 70
     1
102
RTVSPropertyOp21
 70
     1
102
RTVSPropertyOp22
 70
     1
102
RTVSPropertyOp23
 70
     1
102
RTVSPropertyOp24
 70
     1
102
RTVSPropertyOp25
 70
     1
102
RTVSPropertyOp26
 70
     1
102
RTVSPropertyOp27
 70
     1
102
RTVSPropertyOp28
 70
     1
102
RTVSPropertyOp29
 70
     1
102
RTVSPropertyOp30
 70
     1
102
RTVSPropertyOp31
 70
     1
102
RTVSPropertyOp32
 70
     1
102
RTVSPropertyOp33
 70
     1
102
RTVSPropertyOp34
 70
     1
102
RTVSPropertyOp35
 70
     1
102
RTVSPropertyOp36
 70
     1
102
RTVSPropertyOp37
 70
     1
102
RTVSPropertyOp38
 70
     1
102
RTVSPropertyOp39
 70
     1
102
RTVSPropertyOp40
 70
     1
102
RTVSPropertyOp41
 70
     1
102
RTVSPropertyOp42
 70
     1
102
RTVSPropertyOp43
 70
     1
102
RTVSPropertyOp44
 70
     1
102
RTVSPropertyOp45
 70
     1
102
RTVSPropertyOp46
 70
     1
102
RTVSPropertyOp47
 70
     1
102
RTVSPropertyOp48
 70
     1
102
RTVSPropertyOp49
 70
     1
102
RTVSPropertyOp50
 70
     1
102
RTVSPropertyOp51
 70
     0
102
RTVSPropertyOp52
 70
     0
102
RTVSPropertyOp53
 70
     1
102
RTVSPropertyOp54
 70
     1
102
RTVSPropertyOp55
 70
     1
102
RTVSPropertyOp56
 70
     1
102
RTVSPropertyOp57
 70
     1
102
RTVSPropertyOp58
 70
     1
102
RTVSPropertyOp59
 70
     1
102
RTVSPropertyOp60
 70
     1
102
RTVSPropertyOp61
 70
     1
102
RTVSPropertyOp62
 70
     1
  0
XRECORD
  5
3236
102
{ACAD_REACTORS
330
3235
102
}
330
3235
100
AcDbXrecord
280
     1
102
RTVSPost2010Prop28
280
     0
102
RTVSPost2010PropOp28
 70
     1
102
RTVSPost2010Prop29
280
     1
102
RTVSPost2010PropOp29
 70
     1
102
RTVSPost2010Prop30
280
     1
102
RTVSPost2010PropOp30
 70
     1
102
RTVSPost2010Prop31
280
     0
102
RTVSPost2010PropOp31
 70
     1
102
RTVSPost2010Prop32
280
     0
102
RTVSPost2010PropOp32
 70
     1
102
RTVSPost2010Prop33
280
     0
102
RTVSPost2010PropOp33
 70
     1
102
RTVSPost2010Prop34
280
     0
102
RTVSPost2010PropOp34
 70
     1
102
RTVSPost2010Prop35
280
     0
102
RTVSPost2010PropOp35
 70
     1
102
RTVSPost2010Prop36
280
     0
102
RTVSPost2010PropOp36
 70
     1
102
RTVSPost2010Prop37
 90
       50
102
RTVSPost2010PropOp37
 70
     1
102
RTVSPost2010Prop38
140
0.0
102
RTVSPost2010PropOp38
 70
     1
102
RTVSPost2010Prop39
140
1.0
102
RTVSPost2010PropOp39
 70
     1
102
RTVSPost2010Prop40
 90
        0
102
RTVSPost2010PropOp40
 70
     1
102
RTVSPost2010Prop41ColorIndex
 90
       18
102
RTVSPost2010Prop41ColorRGB
 90
        0
102
RTVSPost2010PropOp41
 70
     1
102
RTVSPost2010Prop42
 90
       50
102
RTVSPost2010PropOp42
 70
     1
102
RTVSPost2010Prop43
 90
        3
102
RTVSPost2010PropOp43
 70
     1
102
RTVSPost2010Prop44ColorIndex
 90
        5
102
RTVSPost2010Prop44ColorRGB
 90
      255
102
RTVSPost2010PropOp44
 70
     1
102
RTVSPost2010Prop45
280
     0
102
RTVSPost2010PropOp45
 70
     1
102
RTVSPost2010Prop46
 90
       50
102
RTVSPost2010PropOp46
 70
     1
102
RTVSPost2010Prop47
 90
       50
102
RTVSPost2010PropOp47
 70
     1
102
RTVSPost2010Prop48
 90
       50
102
RTVSPost2010PropOp48
 70
     1
102
RTVSPost2010Prop49
280
     0
102
RTVSPost2010PropOp49
 70
     1
102
RTVSPost2010Prop50
 90
       50
102
RTVSPost2010PropOp50
 70
     1
102
RTVSPost2010Prop51ColorIndex
 90
      256
102
RTVSPost2010Prop51ColorRGB
 90
-16777216
102
RTVSPost2010PropOp51
 70
     0
102
RTVSPost2010Prop52
140
1.0
102
RTVSPost2010PropOp52
 70
     0
102
RTVSPost2010Prop53
 90
        2
102
RTVSPost2010PropOp53
 70
     1
102
RTVSPost2010Prop54
  1
strokes_ogs.tif
102
RTVSPost2010PropOp54
 70
     1
102
RTVSPost2010Prop55
280
     0
102
RTVSPost2010PropOp55
 70
     1
102
RTVSPost2010Prop56
140
1.0
102
RTVSPost2010PropOp56
 70
     1
102
RTVSPost2010Prop57
140
1.0
102
RTVSPost2010PropOp57
 70
     1
102
RTVSPropertyOp0
 70
     1
102
RTVSPropertyOp1
 70
     1
102
RTVSPropertyOp2
 70
     1
102
RTVSPropertyOp3
 70
     1
102
RTVSPropertyOp4
 70
     1
102
RTVSPropertyOp5
 70
     1
102
RTVSPropertyOp6
 70
     1
102
RTVSPropertyOp7
 70
     1
102
RTVSPropertyOp8
 70
     1
102
RTVSPropertyOp9
 70
     1
102
RTVSPropertyOp10
 70
     1
102
RTVSPropertyOp11
 70
     1
102
RTVSPropertyOp12
 70
     1
102
RTVSPropertyOp13
 70
     1
102
RTVSPropertyOp14
 70
     1
102
RTVSPropertyOp15
 70
     1
102
RTVSPropertyOp16
 70
     1
102
RTVSPropertyOp17
 70
     1
102
RTVSPropertyOp18
 70
     1
102
RTVSPropertyOp19
 70
     1
102
RTVSPropertyOp20
 70
     1
102
RTVSPropertyOp21
 70
     1
102
RTVSPropertyOp22
 70
     1
102
RTVSPropertyOp23
 70
     1
102
RTVSPropertyOp24
 70
     1
102
RTVSPropertyOp25
 70
     1
102
RTVSPropertyOp26
 70
     1
102
RTVSPropertyOp27
 70
     1
102
RTVSPropertyOp28
 70
     1
102
RTVSPropertyOp29
 70
     1
102
RTVSPropertyOp30
 70
     1
102
RTVSPropertyOp31
 70
     1
102
RTVSPropertyOp32
 70
     1
102
RTVSPropertyOp33
 70
     1
102
RTVSPropertyOp34
 70
     1
102
RTVSPropertyOp35
 70
     1
102
RTVSPropertyOp36
 70
     1
102
RTVSPropertyOp37
 70
     1
102
RTVSPropertyOp38
 70
     1
102
RTVSPropertyOp39
 70
     1
102
RTVSPropertyOp40
 70
     1
102
RTVSPropertyOp41
 70
     1
102
RTVSPropertyOp42
 70
     1
102
RTVSPropertyOp43
 70
     1
102
RTVSPropertyOp44
 70
     1
102
RTVSPropertyOp45
 70
     1
102
RTVSPropertyOp46
 70
     1
102
RTVSPropertyOp47
 70
     1
102
RTVSPropertyOp48
 70
     1
102
RTVSPropertyOp49
 70
     1
102
RTVSPropertyOp50
 70
     1
102
RTVSPropertyOp51
 70
     0
102
RTVSPropertyOp52
 70
     0
102
RTVSPropertyOp53
 70
     1
102
RTVSPropertyOp54
 70
     1
102
RTVSPropertyOp55
 70
     1
102
RTVSPropertyOp56
 70
     1
102
RTVSPropertyOp57
 70
     1
102
RTVSPropertyOp58
 70
     1
102
RTVSPropertyOp59
 70
     1
102
RTVSPropertyOp60
 70
     1
102
RTVSPropertyOp61
 70
     1
102
RTVSPropertyOp62
 70
     1
  0
XRECORD
  5
322A
102
{ACAD_REACTORS
330
3229
102
}
330
3229
100
AcDbXrecord
280
     1
102
RTVSPost2010Prop28
280
     0
102
RTVSPost2010PropOp28
 70
     1
102
RTVSPost2010Prop29
280
     1
102
RTVSPost2010PropOp29
 70
     1
102
RTVSPost2010Prop30
280
     1
102
RTVSPost2010PropOp30
 70
     1
102
RTVSPost2010Prop31
280
     0
102
RTVSPost2010PropOp31
 70
     1
102
RTVSPost2010Prop32
280
     0
102
RTVSPost2010PropOp32
 70
     1
102
RTVSPost2010Prop33
280
     0
102
RTVSPost2010PropOp33
 70
     1
102
RTVSPost2010Prop34
280
     0
102
RTVSPost2010PropOp34
 70
     1
102
RTVSPost2010Prop35
280
     0
102
RTVSPost2010PropOp35
 70
     1
102
RTVSPost2010Prop36
280
     0
102
RTVSPost2010PropOp36
 70
     1
102
RTVSPost2010Prop37
 90
       50
102
RTVSPost2010PropOp37
 70
     1
102
RTVSPost2010Prop38
140
0.0
102
RTVSPost2010PropOp38
 70
     1
102
RTVSPost2010Prop39
140
1.0
102
RTVSPost2010PropOp39
 70
     1
102
RTVSPost2010Prop40
 90
        0
102
RTVSPost2010PropOp40
 70
     1
102
RTVSPost2010Prop41ColorIndex
 90
       18
102
RTVSPost2010Prop41ColorRGB
 90
        0
102
RTVSPost2010PropOp41
 70
     1
102
RTVSPost2010Prop42
 90
       50
102
RTVSPost2010PropOp42
 70
     1
102
RTVSPost2010Prop43
 90
        3
102
RTVSPost2010PropOp43
 70
     1
102
RTVSPost2010Prop44ColorIndex
 90
        5
102
RTVSPost2010Prop44ColorRGB
 90
      255
102
RTVSPost2010PropOp44
 70
     1
102
RTVSPost2010Prop45
280
     0
102
RTVSPost2010PropOp45
 70
     1
102
RTVSPost2010Prop46
 90
       50
102
RTVSPost2010PropOp46
 70
     1
102
RTVSPost2010Prop47
 90
       50
102
RTVSPost2010PropOp47
 70
     1
102
RTVSPost2010Prop48
 90
       50
102
RTVSPost2010PropOp48
 70
     1
102
RTVSPost2010Prop49
280
     0
102
RTVSPost2010PropOp49
 70
     1
102
RTVSPost2010Prop50
 90
       50
102
RTVSPost2010PropOp50
 70
     1
102
RTVSPost2010Prop51ColorIndex
 90
      256
102
RTVSPost2010Prop51ColorRGB
 90
-16777216
102
RTVSPost2010PropOp51
 70
     0
102
RTVSPost2010Prop52
140
1.0
102
RTVSPost2010PropOp52
 70
     0
102
RTVSPost2010Prop53
 90
        2
102
RTVSPost2010PropOp53
 70
     1
102
RTVSPost2010Prop54
  1
strokes_ogs.tif
102
RTVSPost2010PropOp54
 70
     1
102
RTVSPost2010Prop55
280
     0
102
RTVSPost2010PropOp55
 70
     1
102
RTVSPost2010Prop56
140
1.0
102
RTVSPost2010PropOp56
 70
     1
102
RTVSPost2010Prop57
140
1.0
102
RTVSPost2010PropOp57
 70
     1
102
RTVSPropertyOp0
 70
     1
102
RTVSPropertyOp1
 70
     1
102
RTVSPropertyOp2
 70
     1
102
RTVSPropertyOp3
 70
     1
102
RTVSPropertyOp4
 70
     1
102
RTVSPropertyOp5
 70
     1
102
RTVSPropertyOp6
 70
     1
102
RTVSPropertyOp7
 70
     1
102
RTVSPropertyOp8
 70
     1
102
RTVSPropertyOp9
 70
     1
102
RTVSPropertyOp10
 70
     1
102
RTVSPropertyOp11
 70
     1
102
RTVSPropertyOp12
 70
     1
102
RTVSPropertyOp13
 70
     1
102
RTVSPropertyOp14
 70
     1
102
RTVSPropertyOp15
 70
     1
102
RTVSPropertyOp16
 70
     1
102
RTVSPropertyOp17
 70
     1
102
RTVSPropertyOp18
 70
     1
102
RTVSPropertyOp19
 70
     1
102
RTVSPropertyOp20
 70
     1
102
RTVSPropertyOp21
 70
     1
102
RTVSPropertyOp22
 70
     1
102
RTVSPropertyOp23
 70
     1
102
RTVSPropertyOp24
 70
     1
102
RTVSPropertyOp25
 70
     1
102
RTVSPropertyOp26
 70
     1
102
RTVSPropertyOp27
 70
     1
102
RTVSPropertyOp28
 70
     1
102
RTVSPropertyOp29
 70
     1
102
RTVSPropertyOp30
 70
     1
102
RTVSPropertyOp31
 70
     1
102
RTVSPropertyOp32
 70
     1
102
RTVSPropertyOp33
 70
     1
102
RTVSPropertyOp34
 70
     1
102
RTVSPropertyOp35
 70
     1
102
RTVSPropertyOp36
 70
     1
102
RTVSPropertyOp37
 70
     1
102
RTVSPropertyOp38
 70
     1
102
RTVSPropertyOp39
 70
     1
102
RTVSPropertyOp40
 70
     1
102
RTVSPropertyOp41
 70
     1
102
RTVSPropertyOp42
 70
     1
102
RTVSPropertyOp43
 70
     1
102
RTVSPropertyOp44
 70
     1
102
RTVSPropertyOp45
 70
     1
102
RTVSPropertyOp46
 70
     1
102
RTVSPropertyOp47
 70
     1
102
RTVSPropertyOp48
 70
     1
102
RTVSPropertyOp49
 70
     1
102
RTVSPropertyOp50
 70
     1
102
RTVSPropertyOp51
 70
     0
102
RTVSPropertyOp52
 70
     0
102
RTVSPropertyOp53
 70
     1
102
RTVSPropertyOp54
 70
     1
102
RTVSPropertyOp55
 70
     1
102
RTVSPropertyOp56
 70
     1
102
RTVSPropertyOp57
 70
     1
102
RTVSPropertyOp58
 70
     1
102
RTVSPropertyOp59
 70
     1
102
RTVSPropertyOp60
 70
     1
102
RTVSPropertyOp61
 70
     1
102
RTVSPropertyOp62
 70
     1
  0
XRECORD
  5
3242
102
{ACAD_REACTORS
330
3241
102
}
330
3241
100
AcDbXrecord
280
     1
102
RTVSPost2010Prop28
280
     0
102
RTVSPost2010PropOp28
 70
     1
102
RTVSPost2010Prop29
280
     1
102
RTVSPost2010PropOp29
 70
     1
102
RTVSPost2010Prop30
280
     1
102
RTVSPost2010PropOp30
 70
     1
102
RTVSPost2010Prop31
280
     0
102
RTVSPost2010PropOp31
 70
     1
102
RTVSPost2010Prop32
280
     0
102
RTVSPost2010PropOp32
 70
     1
102
RTVSPost2010Prop33
280
     0
102
RTVSPost2010PropOp33
 70
     1
102
RTVSPost2010Prop34
280
     0
102
RTVSPost2010PropOp34
 70
     1
102
RTVSPost2010Prop35
280
     0
102
RTVSPost2010PropOp35
 70
     1
102
RTVSPost2010Prop36
280
     0
102
RTVSPost2010PropOp36
 70
     1
102
RTVSPost2010Prop37
 90
       50
102
RTVSPost2010PropOp37
 70
     1
102
RTVSPost2010Prop38
140
0.0
102
RTVSPost2010PropOp38
 70
     1
102
RTVSPost2010Prop39
140
1.0
102
RTVSPost2010PropOp39
 70
     1
102
RTVSPost2010Prop40
 90
        0
102
RTVSPost2010PropOp40
 70
     1
102
RTVSPost2010Prop41ColorIndex
 90
       18
102
RTVSPost2010Prop41ColorRGB
 90
        0
102
RTVSPost2010PropOp41
 70
     1
102
RTVSPost2010Prop42
 90
       50
102
RTVSPost2010PropOp42
 70
     1
102
RTVSPost2010Prop43
 90
        3
102
RTVSPost2010PropOp43
 70
     1
102
RTVSPost2010Prop44ColorIndex
 90
        5
102
RTVSPost2010Prop44ColorRGB
 90
      255
102
RTVSPost2010PropOp44
 70
     1
102
RTVSPost2010Prop45
280
     0
102
RTVSPost2010PropOp45
 70
     1
102
RTVSPost2010Prop46
 90
       50
102
RTVSPost2010PropOp46
 70
     1
102
RTVSPost2010Prop47
 90
       50
102
RTVSPost2010PropOp47
 70
     1
102
RTVSPost2010Prop48
 90
       50
102
RTVSPost2010PropOp48
 70
     1
102
RTVSPost2010Prop49
280
     0
102
RTVSPost2010PropOp49
 70
     1
102
RTVSPost2010Prop50
 90
       50
102
RTVSPost2010PropOp50
 70
     1
102
RTVSPost2010Prop51ColorIndex
 90
      256
102
RTVSPost2010Prop51ColorRGB
 90
-16777216
102
RTVSPost2010PropOp51
 70
     0
102
RTVSPost2010Prop52
140
1.0
102
RTVSPost2010PropOp52
 70
     0
102
RTVSPost2010Prop53
 90
        2
102
RTVSPost2010PropOp53
 70
     1
102
RTVSPost2010Prop54
  1
strokes_ogs.tif
102
RTVSPost2010PropOp54
 70
     1
102
RTVSPost2010Prop55
280
     0
102
RTVSPost2010PropOp55
 70
     1
102
RTVSPost2010Prop56
140
1.0
102
RTVSPost2010PropOp56
 70
     1
102
RTVSPost2010Prop57
140
1.0
102
RTVSPost2010PropOp57
 70
     1
102
RTVSPropertyOp0
 70
     1
102
RTVSPropertyOp1
 70
     1
102
RTVSPropertyOp2
 70
     1
102
RTVSPropertyOp3
 70
     1
102
RTVSPropertyOp4
 70
     1
102
RTVSPropertyOp5
 70
     1
102
RTVSPropertyOp6
 70
     1
102
RTVSPropertyOp7
 70
     1
102
RTVSPropertyOp8
 70
     1
102
RTVSPropertyOp9
 70
     1
102
RTVSPropertyOp10
 70
     1
102
RTVSPropertyOp11
 70
     1
102
RTVSPropertyOp12
 70
     1
102
RTVSPropertyOp13
 70
     1
102
RTVSPropertyOp14
 70
     1
102
RTVSPropertyOp15
 70
     1
102
RTVSPropertyOp16
 70
     1
102
RTVSPropertyOp17
 70
     1
102
RTVSPropertyOp18
 70
     1
102
RTVSPropertyOp19
 70
     1
102
RTVSPropertyOp20
 70
     1
102
RTVSPropertyOp21
 70
     1
102
RTVSPropertyOp22
 70
     1
102
RTVSPropertyOp23
 70
     1
102
RTVSPropertyOp24
 70
     1
102
RTVSPropertyOp25
 70
     1
102
RTVSPropertyOp26
 70
     1
102
RTVSPropertyOp27
 70
     1
102
RTVSPropertyOp28
 70
     1
102
RTVSPropertyOp29
 70
     1
102
RTVSPropertyOp30
 70
     1
102
RTVSPropertyOp31
 70
     1
102
RTVSPropertyOp32
 70
     1
102
RTVSPropertyOp33
 70
     1
102
RTVSPropertyOp34
 70
     1
102
RTVSPropertyOp35
 70
     1
102
RTVSPropertyOp36
 70
     1
102
RTVSPropertyOp37
 70
     1
102
RTVSPropertyOp38
 70
     1
102
RTVSPropertyOp39
 70
     1
102
RTVSPropertyOp40
 70
     1
102
RTVSPropertyOp41
 70
     1
102
RTVSPropertyOp42
 70
     1
102
RTVSPropertyOp43
 70
     1
102
RTVSPropertyOp44
 70
     1
102
RTVSPropertyOp45
 70
     1
102
RTVSPropertyOp46
 70
     1
102
RTVSPropertyOp47
 70
     1
102
RTVSPropertyOp48
 70
     1
102
RTVSPropertyOp49
 70
     1
102
RTVSPropertyOp50
 70
     1
102
RTVSPropertyOp51
 70
     0
102
RTVSPropertyOp52
 70
     0
102
RTVSPropertyOp53
 70
     1
102
RTVSPropertyOp54
 70
     1
102
RTVSPropertyOp55
 70
     1
102
RTVSPropertyOp56
 70
     1
102
RTVSPropertyOp57
 70
     1
102
RTVSPropertyOp58
 70
     1
102
RTVSPropertyOp59
 70
     1
102
RTVSPropertyOp60
 70
     1
102
RTVSPropertyOp61
 70
     1
102
RTVSPropertyOp62
 70
     1
  0
ENDSEC
  0
EOF
