  0
SECTION
  2
HEADER
  9
$ACADVER
  1
AC1015
  9
$ACADMAINTVER
 70
    20
  9
$DWGCODEPAGE
  3
ANSI_1252
  9
$INSBASE
 10
0.0
 20
0.0
 30
0.0
  9
$EXTMIN
 10
-50.14075095082853
 20
-30.21484086075105
 30
-0.0000000349181948
  9
$EXTMAX
 10
103.3716084042376
 20
28.00355331457078
 30
0.0000000814935747
  9
$LIMMIN
 10
0.0
 20
0.0
  9
$LIMMAX
 10
12.0
 20
9.0
  9
$ORTHOMODE
 70
     0
  9
$REGENMODE
 70
     1
  9
$FILLMODE
 70
     1
  9
$QTEXTMODE
 70
     0
  9
$MIRRTEXT
 70
     1
  9
$LTSCALE
 40
1.0
  9
$ATTMODE
 70
     1
  9
$TEXTSIZE
 40
3.0
  9
$TRACEWID
 40
10.0
  9
$TEXTSTYLE
  7
SANDVIK_STYLE
  9
$CLAYER
  8
SK2
  9
$CELTYPE
  6
ByLayer
  9
$CECOLOR
 62
   256
  9
$CELTSCALE
 40
1.0
  9
$DISPSILH
 70
     0
  9
$DIMSCALE
 40
0.0
  9
$DIMASZ
 40
4.57
  9
$DIMEXO
 40
0.0
  9
$DIMDLI
 40
0.38
  9
$DIMRND
 40
0.0
  9
$DIMDLE
 40
0.0
  9
$DIMEXE
 40
5.0
  9
$DIMTP
 40
0.0
  9
$DIMTM
 40
0.0
  9
$DIMTXT
 40
4.5
  9
$DIMCEN
 40
0.09
  9
$DIMTSZ
 40
0.0
  9
$DIMTOL
 70
     0
  9
$DIMLIM
 70
     0
  9
$DIMTIH
 70
     0
  9
$DIMTOH
 70
     0
  9
$DIMSE1
 70
     0
  9
$DIMSE2
 70
     0
  9
$DIMTAD
 70
     1
  9
$DIMZIN
 70
     8
  9
$DIMBLK
  1

  9
$DIMASO
 70
     1
  9
$DIMSHO
 70
     1
  9
$DIMPOST
  1
 
  9
$DIMAPOST
  1
 
  9
$DIMALT
 70
     0
  9
$DIMALTD
 70
     2
  9
$DIMALTF
 40
25.4
  9
$DIMLFAC
 40
1.0
  9
$DIMTOFL
 70
     0
  9
$DIMTVP
 40
0.0
  9
$DIMTIX
 70
     0
  9
$DIMSOXD
 70
     0
  9
$DIMSAH
 70
     0
  9
$DIMBLK1
  1

  9
$DIMBLK2
  1

  9
$DIMSTYLE
  2
SANDVIK_DIM
  9
$DIMCLRD
 70
   256
  9
$DIMCLRE
 70
   256
  9
$DIMCLRT
 70
   256
  9
$DIMTFAC
 40
1.0
  9
$DIMGAP
 40
2.299999999999998
  9
$DIMJUST
 70
     0
  9
$DIMSD1
 70
     0
  9
$DIMSD2
 70
     0
  9
$DIMTOLJ
 70
     1
  9
$DIMTZIN
 70
     0
  9
$DIMALTZ
 70
     0
  9
$DIMALTTZ
 70
     0
  9
$DIMUPT
 70
     0
  9
$DIMDEC
 70
     2
  9
$DIMTDEC
 70
     2
  9
$DIMALTU
 70
     2
  9
$DIMALTTD
 70
     2
  9
$DIMTXSTY
  7
SANDVIK_STYLE
  9
$DIMAUNIT
 70
     0
  9
$DIMADEC
 70
     0
  9
$DIMALTRND
 40
0.0
  9
$DIMAZIN
 70
     0
  9
$DIMDSEP
 70
    46
  9
$DIMATFIT
 70
     3
  9
$DIMFRAC
 70
     0
  9
$DIMLDRBLK
  1

  9
$DIMLUNIT
 70
     2
  9
$DIMLWD
 70
    -2
  9
$DIMLWE
 70
    -2
  9
$DIMTMOVE
 70
     2
  9
$LUNITS
 70
     2
  9
$LUPREC
 70
     2
  9
$SKETCHINC
 40
0.0
  9
$FILLETRAD
 40
0.0
  9
$AUNITS
 70
     0
  9
$AUPREC
 70
     2
  9
$MENU
  1
acad
  9
$ELEVATION
 40
0.0
  9
$PELEVATION
 40
0.0
  9
$THICKNESS
 40
0.0
  9
$LIMCHECK
 70
     0
  9
$CHAMFERA
 40
0.0
  9
$CHAMFERB
 40
0.0
  9
$CHAMFERC
 40
0.0
  9
$CHAMFERD
 40
0.0
  9
$SKPOLY
 70
     0
  9
$TDCREATE
 40
2455817.646292060
  9
$TDUCREATE
 40
2455817.562958727
  9
$TDUPDATE
 40
2456818.535723507
  9
$TDUUPDATE
 40
2456818.452390173
  9
$TDINDWG
 40
0.0925147569
  9
$TDUSRTIMER
 40
0.0925147569
  9
$USRTIMER
 70
     1
  9
$ANGBASE
 50
0.0
  9
$ANGDIR
 70
     0
  9
$PDMODE
 70
     0
  9
$PDSIZE
 40
0.0
  9
$PLINEWID
 40
0.0
  9
$SPLFRAME
 70
     0
  9
$SPLINETYPE
 70
     6
  9
$SPLINESEGS
 70
     8
  9
$HANDSEED
  5
2F4B
  9
$SURFTAB1
 70
     6
  9
$SURFTAB2
 70
     6
  9
$SURFTYPE
 70
     6
  9
$SURFU
 70
     6
  9
$SURFV
 70
     6
  9
$UCSBASE
  2

  9
$UCSNAME
  2

  9
$UCSORG
 10
0.0
 20
0.0
 30
0.0
  9
$UCSXDIR
 10
1.0
 20
0.0
 30
0.0
  9
$UCSYDIR
 10
0.0
 20
1.0
 30
0.0
  9
$UCSORTHOREF
  2

  9
$UCSORTHOVIEW
 70
     0
  9
$UCSORGTOP
 10
0.0
 20
0.0
 30
0.0
  9
$UCSORGBOTTOM
 10
0.0
 20
0.0
 30
0.0
  9
$UCSORGLEFT
 10
0.0
 20
0.0
 30
0.0
  9
$UCSORGRIGHT
 10
0.0
 20
0.0
 30
0.0
  9
$UCSORGFRONT
 10
0.0
 20
0.0
 30
0.0
  9
$UCSORGBACK
 10
0.0
 20
0.0
 30
0.0
  9
$PUCSBASE
  2

  9
$PUCSNAME
  2

  9
$PUCSORG
 10
0.0
 20
0.0
 30
0.0
  9
$PUCSXDIR
 10
1.0
 20
0.0
 30
0.0
  9
$PUCSYDIR
 10
0.0
 20
1.0
 30
0.0
  9
$PUCSORTHOREF
  2

  9
$PUCSORTHOVIEW
 70
     0
  9
$PUCSORGTOP
 10
0.0
 20
0.0
 30
0.0
  9
$PUCSORGBOTTOM
 10
0.0
 20
0.0
 30
0.0
  9
$PUCSORGLEFT
 10
0.0
 20
0.0
 30
0.0
  9
$PUCSORGRIGHT
 10
0.0
 20
0.0
 30
0.0
  9
$PUCSORGFRONT
 10
0.0
 20
0.0
 30
0.0
  9
$PUCSORGBACK
 10
0.0
 20
0.0
 30
0.0
  9
$USERI1
 70
     0
  9
$USERI2
 70
     0
  9
$USERI3
 70
     0
  9
$USERI4
 70
     0
  9
$USERI5
 70
     0
  9
$USERR1
 40
0.0
  9
$USERR2
 40
0.0
  9
$USERR3
 40
0.0
  9
$USERR4
 40
0.0
  9
$USERR5
 40
0.0
  9
$WORLDVIEW
 70
     1
  9
$SHADEDGE
 70
     3
  9
$SHADEDIF
 70
    70
  9
$TILEMODE
 70
     1
  9
$MAXACTVP
 70
    16
  9
$PINSBASE
 10
0.0
 20
0.0
 30
0.0
  9
$PLIMCHECK
 70
     0
  9
$PEXTMIN
 10
1.000000000000000E+20
 20
1.000000000000000E+20
 30
1.000000000000000E+20
  9
$PEXTMAX
 10
-1.000000000000000E+20
 20
-1.000000000000000E+20
 30
-1.000000000000000E+20
  9
$PLIMMIN
 10
0.0
 20
0.0
  9
$PLIMMAX
 10
12.0
 20
9.0
  9
$UNITMODE
 70
     0
  9
$VISRETAIN
 70
     0
  9
$PLINEGEN
 70
     0
  9
$PSLTSCALE
 70
     1
  9
$TREEDEPTH
 70
  3020
  9
$CMLSTYLE
  2
Standard
  9
$CMLJUST
 70
     0
  9
$CMLSCALE
 40
1.0
  9
$PROXYGRAPHICS
 70
     1
  9
$MEASUREMENT
 70
     0
  9
$CELWEIGHT
370
    -1
  9
$ENDCAPS
280
     0
  9
$JOINSTYLE
280
     0
  9
$LWDISPLAY
290
     0
  9
$INSUNITS
 70
     0
  9
$HYPERLINKBASE
  1

  9
$STYLESHEET
  1

  9
$XEDIT
290
     1
  9
$CEPSNTYPE
380
     0
  9
$PSTYLEMODE
290
     1
  9
$FINGERPRINTGUID
  2
{BC6BEBD7-5C89-4B2E-99DC-E3119A1637E9}
  9
$VERSIONGUID
  2
{E8F25183-0E42-4770-BC08-EC8BF824B2A6}
  9
$EXTNAMES
290
     1
  9
$PSVPSCALE
 40
0.0
  9
$OLESTARTUP
290
     0
  0
ENDSEC
  0
SECTION
  2
CLASSES
  0
CLASS
  1
ACDBDICTIONARYWDFLT
  2
AcDbDictionaryWithDefault
  3
ObjectDBX Classes
 90
        0
280
     0
281
     0
  0
CLASS
  1
MATERIAL
  2
AcDbMaterial
  3
ObjectDBX Classes
 90
     1153
280
     0
281
     0
  0
CLASS
  1
VISUALSTYLE
  2
AcDbVisualStyle
  3
ObjectDBX Classes
 90
     4095
280
     0
281
     0
  0
CLASS
  1
TABLESTYLE
  2
AcDbTableStyle
  3
ObjectDBX Classes
 90
     4095
280
     0
281
     0
  0
CLASS
  1
SCALE
  2
AcDbScale
  3
ObjectDBX Classes
 90
     1153
280
     0
281
     0
  0
CLASS
  1
MLEADERSTYLE
  2
AcDbMLeaderStyle
  3
ACDB_MLEADERSTYLE_CLASS
 90
     4095
280
     0
281
     0
  0
CLASS
  1
ACDBSECTIONVIEWSTYLE
  2
AcDbSectionViewStyle
  3
ObjectDBX Classes
 90
     1025
280
     0
281
     0
  0
CLASS
  1
ACDBDETAILVIEWSTYLE
  2
AcDbDetailViewStyle
  3
ObjectDBX Classes
 90
     1025
280
     0
281
     0
  0
CLASS
  1
EXACXREFPANELOBJECT
  2
ExAcXREFPanelObject
  3
EXAC_ESW
 90
     1025
280
     0
281
     0
  0
CLASS
  1
NPOCOLLECTION
  2
AcDbImpNonPersistentObjectsCollection
  3
ObjectDBX Classes
 90
     1153
280
     0
281
     0
  0
CLASS
  1
DICTIONARYVAR
  2
AcDbDictionaryVar
  3
ObjectDBX Classes
 90
        0
280
     0
281
     0
  0
CLASS
  1
CELLSTYLEMAP
  2
AcDbCellStyleMap
  3
ObjectDBX Classes
 90
     1152
280
     0
281
     0
  0
CLASS
  1
ACDBPLACEHOLDER
  2
AcDbPlaceHolder
  3
ObjectDBX Classes
 90
        0
280
     0
281
     0
  0
CLASS
  1
LAYOUT
  2
AcDbLayout
  3
ObjectDBX Classes
 90
        0
280
     0
281
     0
  0
ENDSEC
  0
SECTION
  2
TABLES
  0
TABLE
  2
VPORT
  5
BDF
330
0
100
AcDbSymbolTable
 70
     1
  0
VPORT
  5
2E5D
330
BDF
100
AcDbSymbolTableRecord
100
AcDbViewportTableRecord
  2
*Active
 70
     0
 10
0.0
 20
0.0
 11
1.0
 21
1.0
 12
26.61542872670456
 22
-1.105643773090136
 13
0.0
 23
0.0
 14
1.0
 24
1.0
 15
0.0
 25
0.0
 16
0.0
 26
0.0
 36
1.0
 17
0.0
 27
0.0
 37
0.0
 40
77.78442468452688
 41
2.2
 42
50.0
 43
0.0
 44
0.0
 50
0.0
 51
0.0
 71
     0
 72
   100
 73
     1
 74
     1
 75
     0
 76
     0
 77
     0
 78
     0
281
     0
 65
     1
110
0.0
120
0.0
130
0.0
111
1.0
121
0.0
131
0.0
112
0.0
122
1.0
132
0.0
 79
     0
146
0.0
1001
ACAD_NAV_VCDISPLAY
1070
     3
  0
ENDTAB
  0
TABLE
  2
LTYPE
  5
BDC
330
0
100
AcDbSymbolTable
 70
     4
  0
LTYPE
  5
BEA
330
BDC
100
AcDbSymbolTableRecord
100
AcDbLinetypeTableRecord
  2
ByBlock
 70
     0
  3

 72
    65
 73
     0
 40
0.0
  0
LTYPE
  5
BEB
330
BDC
100
AcDbSymbolTableRecord
100
AcDbLinetypeTableRecord
  2
ByLayer
 70
     0
  3

 72
    65
 73
     0
 40
0.0
  0
LTYPE
  5
BEC
330
BDC
100
AcDbSymbolTableRecord
100
AcDbLinetypeTableRecord
  2
CONTINUOUS
 70
     0
  3
Solid line
 72
    65
 73
     0
 40
0.0
  0
LTYPE
  5
BFE
330
BDC
100
AcDbSymbolTableRecord
100
AcDbLinetypeTableRecord
  2
CENTER
 70
     0
  3
____ _ ____ _ ____ _ ____ _ ____ _ ____ _ ____
 72
    65
 73
     4
 40
5.059897
 49
3.162434999999998
 74
     0
 49
-0.6324870000000004
 74
     0
 49
0.6324870000000004
 74
     0
 49
-0.6324870000000004
 74
     0
  0
LTYPE
  5
BFF
330
BDC
100
AcDbSymbolTableRecord
100
AcDbLinetypeTableRecord
  2
DASHED
 70
     0
  3
__ __ __ __ __ __ __ __ __ __ __ __ __ __ __ __
 72
    65
 73
     2
 40
7.589844999999997
 49
5.059897
 74
     0
 49
-2.529948
 74
     0
  0
LTYPE
  5
2EA9
330
BDC
100
AcDbSymbolTableRecord
100
AcDbLinetypeTableRecord
  2
PHANTOM2
 70
     0
  3
Phantom (.5x) ___ _ _ ___ _ _ ___ _ _ ___ _ _
 72
    65
 73
     6
 40
1.25
 49
0.625
 74
     0
 49
-0.125
 74
     0
 49
0.125
 74
     0
 49
-0.125
 74
     0
 49
0.125
 74
     0
 49
-0.125
 74
     0
  0
ENDTAB
  0
TABLE
  2
LAYER
  5
BD9
330
0
100
AcDbSymbolTable
 70
    40
  0
LAYER
  5
BE7
102
{ACAD_XDICTIONARY
360
2EB1
102
}
330
BD9
100
AcDbSymbolTableRecord
100
AcDbLayerTableRecord
  2
0
 70
     0
 62
     7
  6
CONTINUOUS
370
    -3
390
BE6
  0
LAYER
  5
BFB
102
{ACAD_XDICTIONARY
360
2EB3
102
}
330
BD9
100
AcDbSymbolTableRecord
100
AcDbLayerTableRecord
  2
3
 70
     0
 62
     1
  6
DASHED
370
    -3
390
BE6
  0
LAYER
  5
C00
102
{ACAD_XDICTIONARY
360
2EB5
102
}
330
BD9
100
AcDbSymbolTableRecord
100
AcDbLayerTableRecord
  2
1
 70
     0
 62
     4
  6
CONTINUOUS
370
    -3
390
BE6
  0
LAYER
  5
C01
102
{ACAD_XDICTIONARY
360
2EB7
102
}
330
BD9
100
AcDbSymbolTableRecord
100
AcDbLayerTableRecord
  2
61
 70
     0
 62
     5
  6
CONTINUOUS
370
    -3
390
BE6
  0
LAYER
  5
C02
102
{ACAD_XDICTIONARY
360
2EB9
102
}
330
BD9
100
AcDbSymbolTableRecord
100
AcDbLayerTableRecord
  2
62
 70
     0
 62
    -5
  6
CONTINUOUS
370
    -3
390
BE6
  0
LAYER
  5
C03
102
{ACAD_XDICTIONARY
360
2EBB
102
}
330
BD9
100
AcDbSymbolTableRecord
100
AcDbLayerTableRecord
  2
63
 70
     0
 62
    -5
  6
CONTINUOUS
370
    -3
390
BE6
  0
LAYER
  5
C04
102
{ACAD_XDICTIONARY
360
2EBD
102
}
330
BD9
100
AcDbSymbolTableRecord
100
AcDbLayerTableRecord
  2
64
 70
     0
 62
    -5
  6
CONTINUOUS
370
    -3
390
BE6
  0
LAYER
  5
C05
102
{ACAD_XDICTIONARY
360
2EBF
102
}
330
BD9
100
AcDbSymbolTableRecord
100
AcDbLayerTableRecord
  2
65
 70
     0
 62
    -5
  6
CONTINUOUS
370
    -3
390
BE6
  0
LAYER
  5
C06
102
{ACAD_XDICTIONARY
360
2EC1
102
}
330
BD9
100
AcDbSymbolTableRecord
100
AcDbLayerTableRecord
  2
66
 70
     0
 62
    -5
  6
CONTINUOUS
370
    -3
390
BE6
  0
LAYER
  5
C07
102
{ACAD_XDICTIONARY
360
2EC3
102
}
330
BD9
100
AcDbSymbolTableRecord
100
AcDbLayerTableRecord
  2
67
 70
     0
 62
    -5
  6
CONTINUOUS
370
    -3
390
BE6
  0
LAYER
  5
C08
102
{ACAD_XDICTIONARY
360
2EC5
102
}
330
BD9
100
AcDbSymbolTableRecord
100
AcDbLayerTableRecord
  2
68
 70
     0
 62
    -5
  6
CONTINUOUS
370
    -3
390
BE6
  0
LAYER
  5
C09
102
{ACAD_XDICTIONARY
360
2EC7
102
}
330
BD9
100
AcDbSymbolTableRecord
100
AcDbLayerTableRecord
  2
69
 70
     0
 62
    -5
  6
CONTINUOUS
370
    -3
390
BE6
  0
LAYER
  5
C0A
102
{ACAD_XDICTIONARY
360
2EC9
102
}
330
BD9
100
AcDbSymbolTableRecord
100
AcDbLayerTableRecord
  2
70
 70
     0
 62
     5
  6
CONTINUOUS
370
    -3
390
BE6
  0
LAYER
  5
C0B
102
{ACAD_XDICTIONARY
360
2ECB
102
}
330
BD9
100
AcDbSymbolTableRecord
100
AcDbLayerTableRecord
  2
2
 70
     0
 62
     7
  6
CONTINUOUS
370
    -3
390
BE6
  0
LAYER
  5
C0C
102
{ACAD_XDICTIONARY
360
2ECD
102
}
330
BD9
100
AcDbSymbolTableRecord
100
AcDbLayerTableRecord
  2
4
 70
     0
 62
    -2
  6
CENTER
370
    -3
390
BE6
  0
LAYER
  5
C0D
102
{ACAD_XDICTIONARY
360
2ECF
102
}
330
BD9
100
AcDbSymbolTableRecord
100
AcDbLayerTableRecord
  2
5
 70
     0
 62
    -7
  6
CONTINUOUS
370
    -3
390
BE6
  0
LAYER
  5
C0E
102
{ACAD_XDICTIONARY
360
2ED1
102
}
330
BD9
100
AcDbSymbolTableRecord
100
AcDbLayerTableRecord
  2
SK1
 70
     0
 62
     4
  6
CONTINUOUS
370
    -3
390
BE6
  0
LAYER
  5
C0F
102
{ACAD_XDICTIONARY
360
2ED3
102
}
330
BD9
100
AcDbSymbolTableRecord
100
AcDbLayerTableRecord
  2
6
 70
     0
 62
     5
  6
CONTINUOUS
370
    -3
390
BE6
  0
LAYER
  5
C10
102
{ACAD_XDICTIONARY
360
2ED5
102
}
330
BD9
100
AcDbSymbolTableRecord
100
AcDbLayerTableRecord
  2
SK2
 70
     0
 62
     7
  6
CONTINUOUS
370
    -3
390
BE6
  0
LAYER
  5
C11
102
{ACAD_XDICTIONARY
360
2ED7
102
}
330
BD9
100
AcDbSymbolTableRecord
100
AcDbLayerTableRecord
  2
SK3
 70
     0
 62
     1
  6
DASHED
370
    -3
390
BE6
  0
LAYER
  5
C12
102
{ACAD_XDICTIONARY
360
2ED9
102
}
330
BD9
100
AcDbSymbolTableRecord
100
AcDbLayerTableRecord
  2
SK4
 70
     0
 62
     2
  6
CENTER
370
    -3
390
BE6
  0
LAYER
  5
C13
102
{ACAD_XDICTIONARY
360
2EDB
102
}
330
BD9
100
AcDbSymbolTableRecord
100
AcDbLayerTableRecord
  2
CUT
 70
     0
 62
     1
  6
CONTINUOUS
370
    -3
390
BE6
  0
LAYER
  5
C14
102
{ACAD_XDICTIONARY
360
2EDD
102
}
330
BD9
100
AcDbSymbolTableRecord
100
AcDbLayerTableRecord
  2
SK6
 70
     0
 62
     5
  6
CONTINUOUS
370
    -3
390
BE6
  0
LAYER
  5
C15
102
{ACAD_XDICTIONARY
360
2EDF
102
}
330
BD9
100
AcDbSymbolTableRecord
100
AcDbLayerTableRecord
  2
80
 70
     0
 62
    -2
  6
CENTER
370
    -3
390
BE6
  0
LAYER
  5
C16
102
{ACAD_XDICTIONARY
360
2EE1
102
}
330
BD9
100
AcDbSymbolTableRecord
100
AcDbLayerTableRecord
  2
81
 70
     0
 62
    -2
  6
CENTER
370
    -3
390
BE6
  0
LAYER
  5
C17
102
{ACAD_XDICTIONARY
360
2EE3
102
}
330
BD9
100
AcDbSymbolTableRecord
100
AcDbLayerTableRecord
  2
82
 70
     0
 62
    -2
  6
CENTER
370
    -3
390
BE6
  0
LAYER
  5
C18
102
{ACAD_XDICTIONARY
360
2EE5
102
}
330
BD9
100
AcDbSymbolTableRecord
100
AcDbLayerTableRecord
  2
NOCUT
 70
     0
 62
     7
  6
CONTINUOUS
370
    -3
390
BE6
  0
LAYER
  5
C19
102
{ACAD_XDICTIONARY
360
2EE7
102
}
330
BD9
100
AcDbSymbolTableRecord
100
AcDbLayerTableRecord
  2
50
 70
     0
 62
    -7
  6
CONTINUOUS
370
    -3
390
BE6
  0
LAYER
  5
C1A
102
{ACAD_XDICTIONARY
360
2EE9
102
}
330
BD9
100
AcDbSymbolTableRecord
100
AcDbLayerTableRecord
  2
51
 70
     0
 62
     7
  6
CONTINUOUS
370
    -3
390
BE6
  0
LAYER
  5
C1B
102
{ACAD_XDICTIONARY
360
2EEB
102
}
330
BD9
100
AcDbSymbolTableRecord
100
AcDbLayerTableRecord
  2
52
 70
     0
 62
    -7
  6
CONTINUOUS
370
    -3
390
BE6
  0
LAYER
  5
C1C
102
{ACAD_XDICTIONARY
360
2EED
102
}
330
BD9
100
AcDbSymbolTableRecord
100
AcDbLayerTableRecord
  2
53
 70
     0
 62
    -7
  6
CONTINUOUS
370
    -3
390
BE6
  0
LAYER
  5
C1D
102
{ACAD_XDICTIONARY
360
2EEF
102
}
330
BD9
100
AcDbSymbolTableRecord
100
AcDbLayerTableRecord
  2
54
 70
     0
 62
    -7
  6
CONTINUOUS
370
    -3
390
BE6
  0
LAYER
  5
C1E
102
{ACAD_XDICTIONARY
360
2EF1
102
}
330
BD9
100
AcDbSymbolTableRecord
100
AcDbLayerTableRecord
  2
55
 70
     0
 62
    -7
  6
CONTINUOUS
370
    -3
390
BE6
  0
LAYER
  5
C1F
102
{ACAD_XDICTIONARY
360
2EF3
102
}
330
BD9
100
AcDbSymbolTableRecord
100
AcDbLayerTableRecord
  2
56
 70
     0
 62
    -7
  6
CONTINUOUS
370
    -3
390
BE6
  0
LAYER
  5
C20
102
{ACAD_XDICTIONARY
360
2EF5
102
}
330
BD9
100
AcDbSymbolTableRecord
100
AcDbLayerTableRecord
  2
57
 70
     0
 62
    -7
  6
CONTINUOUS
370
    -3
390
BE6
  0
LAYER
  5
C21
102
{ACAD_XDICTIONARY
360
2EF7
102
}
330
BD9
100
AcDbSymbolTableRecord
100
AcDbLayerTableRecord
  2
58
 70
     0
 62
    -7
  6
CONTINUOUS
370
    -3
390
BE6
  0
LAYER
  5
C22
102
{ACAD_XDICTIONARY
360
2EF9
102
}
330
BD9
100
AcDbSymbolTableRecord
100
AcDbLayerTableRecord
  2
2L
 70
     0
 62
     7
  6
CONTINUOUS
370
    -3
390
BE6
  0
LAYER
  5
C23
102
{ACAD_XDICTIONARY
360
2EFB
102
}
330
BD9
100
AcDbSymbolTableRecord
100
AcDbLayerTableRecord
  2
59
 70
     0
 62
    -7
  6
CONTINUOUS
370
    -3
390
BE6
  0
LAYER
  5
C24
330
BD9
100
AcDbSymbolTableRecord
100
AcDbLayerTableRecord
  2
DEFPOINTS
 70
     0
 62
     7
  6
CONTINUOUS
290
     0
370
    -3
390
BE6
  0
LAYER
  5
C42
102
{ACAD_XDICTIONARY
360
2EFD
102
}
330
BD9
100
AcDbSymbolTableRecord
100
AcDbLayerTableRecord
  2
TFR-TRI
 70
     0
 62
     7
  6
CONTINUOUS
370
    -3
390
BE6
  0
ENDTAB
  0
TABLE
  2
STYLE
  5
BDA
330
0
100
AcDbSymbolTable
 70
     2
  0
STYLE
  5
BE8
330
BDA
100
AcDbSymbolTableRecord
100
AcDbTextStyleTableRecord
  2
STANDARD
 70
     0
 40
0.0
 41
1.0
 50
0.0
 71
     0
 42
4.5
  3
simplex.shx
  4

  0
STYLE
  5
BFC
330
BDA
100
AcDbSymbolTableRecord
100
AcDbTextStyleTableRecord
  2
SANDVIK_STYLE
 70
     0
 40
3.0
 41
1.0
 50
0.0
 71
     0
 42
3.0
  3
simplex.shx
  4

  0
ENDTAB
  0
TABLE
  2
VIEW
  5
BDD
330
0
100
AcDbSymbolTable
 70
     0
  0
ENDTAB
  0
TABLE
  2
UCS
  5
BDE
330
0
100
AcDbSymbolTable
 70
     0
  0
ENDTAB
  0
TABLE
  2
APPID
  5
BE0
330
0
100
AcDbSymbolTable
 70
     4
  0
APPID
  5
BE9
330
BE0
100
AcDbSymbolTableRecord
100
AcDbRegAppTableRecord
  2
ACAD
 70
     0
  0
APPID
  5
2F01
330
BE0
100
AcDbSymbolTableRecord
100
AcDbRegAppTableRecord
  2
DCO15
 70
     0
  0
APPID
  5
2F0D
330
BE0
100
AcDbSymbolTableRecord
100
AcDbRegAppTableRecord
  2
ACAD_NAV_VCDISPLAY
 70
     0
  0
APPID
  5
2F4A
330
BE0
100
AcDbSymbolTableRecord
100
AcDbRegAppTableRecord
  2
ACAD_MLEADERVER
 70
     0
  0
ENDTAB
  0
TABLE
  2
DIMSTYLE
  5
BE1
330
0
100
AcDbSymbolTable
 70
     2
100
AcDbDimStyleTable
 71
     1
340
C26
  0
DIMSTYLE
105
C25
330
BE1
100
AcDbSymbolTableRecord
100
AcDbDimStyleTableRecord
  2
STANDARD
 70
     0
  3
 
  4
 
 41
3.0
 42
2.5
 43
10.0
 44
2.5
 46
1.25
 73
     0
 74
     0
140
3.0
141
-3.0
143
0.039
145
1.5
146
0.75
147
1.5
271
     2
272
     2
279
     2
340
BFC
  0
DIMSTYLE
105
C26
102
{ACAD_REACTORS
330
2DA4
330
2DC6
330
2DD4
330
2DE1
330
2DEE
330
2DFB
330
2E08
102
}
330
BE1
100
AcDbSymbolTableRecord
100
AcDbDimStyleTableRecord
  2
SANDVIK_DIM
 70
     0
  3
 
  4
 
 40
0.0
 41
4.57
 42
0.0
 44
5.0
 73
     0
 74
     0
 77
     1
 78
     8
140
4.5
147
2.299999999999998
176
   256
177
   256
178
   256
271
     2
272
     2
279
     2
340
BFC
  0
ENDTAB
  0
TABLE
  2
BLOCK_RECORD
  5
BD8
330
0
100
AcDbSymbolTable
 70
     9
  0
BLOCK_RECORD
  5
BF7
330
BD8
100
AcDbSymbolTableRecord
100
AcDbBlockTableRecord
  2
*Model_Space
340
BFA
  0
BLOCK_RECORD
  5
BF3
330
BD8
100
AcDbSymbolTableRecord
100
AcDbBlockTableRecord
  2
*Paper_Space
340
BF6
  0
BLOCK_RECORD
  5
C28
330
BD8
100
AcDbSymbolTableRecord
100
AcDbBlockTableRecord
  2
$MODEL_SPACE
340
0
  0
BLOCK_RECORD
  5
C2A
330
BD8
100
AcDbSymbolTableRecord
100
AcDbBlockTableRecord
  2
$PAPER_SPACE
340
0
  0
BLOCK_RECORD
  5
2DA5
330
BD8
100
AcDbSymbolTableRecord
100
AcDbBlockTableRecord
  2
*D2
340
0
  0
BLOCK_RECORD
  5
2DC7
330
BD8
100
AcDbSymbolTableRecord
100
AcDbBlockTableRecord
  2
*D3
340
0
  0
BLOCK_RECORD
  5
2DD5
330
BD8
100
AcDbSymbolTableRecord
100
AcDbBlockTableRecord
  2
*D4
340
0
  0
BLOCK_RECORD
  5
2DE2
330
BD8
100
AcDbSymbolTableRecord
100
AcDbBlockTableRecord
  2
*D5
340
0
  0
BLOCK_RECORD
  5
2DEF
330
BD8
100
AcDbSymbolTableRecord
100
AcDbBlockTableRecord
  2
*D6
340
0
  0
BLOCK_RECORD
  5
2DFC
330
BD8
100
AcDbSymbolTableRecord
100
AcDbBlockTableRecord
  2
*D7
340
0
  0
BLOCK_RECORD
  5
2E09
330
BD8
100
AcDbSymbolTableRecord
100
AcDbBlockTableRecord
  2
*D8
340
0
  0
ENDTAB
  0
ENDSEC
  0
SECTION
  2
BLOCKS
  0
BLOCK
  5
BF8
330
BF7
100
AcDbEntity
  8
0
100
AcDbBlockBegin
  2
*Model_Space
 70
     0
 10
0.0
 20
0.0
 30
0.0
  3
*Model_Space
  1

  0
ENDBLK
  5
BF9
330
BF7
100
AcDbEntity
  8
0
100
AcDbBlockEnd
  0
BLOCK
  5
BF4
330
BF3
100
AcDbEntity
 67
     1
  8
0
100
AcDbBlockBegin
  2
*Paper_Space
 70
     0
 10
0.0
 20
0.0
 30
0.0
  3
*Paper_Space
  1

  0
ENDBLK
  5
BF5
330
BF3
100
AcDbEntity
 67
     1
  8
0
100
AcDbBlockEnd
  0
BLOCK
  5
C29
330
C28
100
AcDbEntity
  8
0
100
AcDbBlockBegin
  2
$MODEL_SPACE
 70
     0
 10
0.0
 20
0.0
 30
0.0
  3
$MODEL_SPACE
  1

  0
ENDBLK
  5
AEF
330
C28
100
AcDbEntity
  8
0
100
AcDbBlockEnd
  0
BLOCK
  5
C2B
330
C2A
100
AcDbEntity
  8
0
100
AcDbBlockBegin
  2
$PAPER_SPACE
 70
     0
 10
0.0
 20
0.0
 30
0.0
  3
$PAPER_SPACE
  1

  0
ENDBLK
  5
AEB
330
C2A
100
AcDbEntity
  8
0
100
AcDbBlockEnd
  0
BLOCK
  5
2DB0
330
2DA5
100
AcDbEntity
  8
0
100
AcDbBlockBegin
  2
*D2
 70
     1
 10
0.0
 20
0.0
 30
0.0
  3
*D2
  1

  0
LINE
  5
2E33
330
2DA5
100
AcDbEntity
  8
SK2
370
    -2
100
AcDbLine
 10
-35.35048199999999
 20
3.0
 30
0.0
 11
-50.13181882548589
 21
3.000000000000003
 31
0.0
  0
LINE
  5
2E34
330
2DA5
100
AcDbEntity
  8
SK2
370
    -2
100
AcDbLine
 10
-35.35048199999999
 20
-3.0
 30
0.0
 11
-50.13181882548589
 21
-2.999999999999996
 31
0.0
  0
LINE
  5
2E35
330
2DA5
100
AcDbEntity
  8
SK2
370
    -2
100
AcDbLine
 10
-45.13181882548589
 20
7.570000000000002
 30
0.0
 11
-45.13181882548589
 21
12.14
 31
0.0
  0
LINE
  5
2E36
330
2DA5
100
AcDbEntity
  8
SK2
370
    -2
100
AcDbLine
 10
-45.13181882548589
 20
-7.569999999999997
 30
0.0
 11
-45.13181882548589
 21
-12.13999999999999
 31
0.0
  0
MTEXT
  5
2E37
330
2DA5
100
AcDbEntity
  8
SK2
100
AcDbMText
 10
-45.08454504885842
 20
-17.26552858628759
 30
0.0
 40
3.0
 41
0.0
 71
     5
 72
     1
  1
\A1;%%C 6 
  7
SANDVIK_STYLE
 11
0.0000000000000001
 21
1.0
 31
0.0
 73
     1
 44
1.0
1001
ACAD
1000
MTEXTBEGIN
1070
    73
1070
     1
1070
    44
1040
1.0
1070
    74
1070
     0
1000
MTEXTEND
  0
SOLID
  5
2E38
330
2DA5
100
AcDbEntity
  8
SK2
100
AcDbTrace
 10
-45.89348549215253
 20
7.570000000000002
 30
0.0
 11
-44.3701521588192
 21
7.570000000000002
 31
0.0
 12
-45.13181882548589
 22
3.000000000000001
 32
0.0
 13
-45.13181882548589
 23
3.000000000000001
 33
0.0
  0
SOLID
  5
2E39
330
2DA5
100
AcDbEntity
  8
SK2
100
AcDbTrace
 10
-45.89348549215253
 20
-7.569999999999997
 30
0.0
 11
-44.3701521588192
 21
-7.569999999999997
 31
0.0
 12
-45.13181882548589
 22
-2.999999999999996
 32
0.0
 13
-45.13181882548589
 23
-2.999999999999996
 33
0.0
  0
POINT
  5
2E3A
330
2DA5
100
AcDbEntity
  8
DEFPOINTS
 62
     0
100
AcDbPoint
 10
-35.35048199999999
 20
3.0
 30
0.0
  0
POINT
  5
2E3B
330
2DA5
100
AcDbEntity
  8
DEFPOINTS
 62
     0
100
AcDbPoint
 10
-35.35048199999999
 20
-3.0
 30
0.0
  0
POINT
  5
2E3C
330
2DA5
100
AcDbEntity
  8
DEFPOINTS
 62
     0
100
AcDbPoint
 10
-45.13181882548589
 20
-2.999999999999996
 30
0.0
  0
ENDBLK
  5
2DB1
330
2DA5
100
AcDbEntity
  8
0
100
AcDbBlockEnd
  0
BLOCK
  5
2DD2
330
2DC7
100
AcDbEntity
  8
0
100
AcDbBlockBegin
  2
*D3
 70
     1
 10
0.0
 20
0.0
 30
0.0
  3
*D3
  1

  0
LINE
  5
2E3D
330
2DC7
100
AcDbEntity
  8
2
370
    -2
100
AcDbLine
 10
91.00609
 20
2.899926999999993
 30
0.0
 11
103.3647918900967
 21
2.899926999999991
 31
0.0
  0
LINE
  5
2E3E
330
2DC7
100
AcDbEntity
  8
2
370
    -2
100
AcDbLine
 10
91.00609
 20
-2.899927000000004
 30
0.0
 11
103.3647918900967
 21
-2.899927000000008
 31
0.0
  0
LINE
  5
2E3F
330
2DC7
100
AcDbEntity
  8
2
370
    -2
100
AcDbLine
 10
98.36479189009674
 20
7.469926999999991
 30
0.0
 11
98.36479189009674
 21
12.03992699999999
 31
0.0
  0
LINE
  5
2E40
330
2DC7
100
AcDbEntity
  8
2
370
    -2
100
AcDbLine
 10
98.36479189009674
 20
-7.469927000000008
 30
0.0
 11
98.36479189009674
 21
-12.03992700000001
 31
0.0
  0
MTEXT
  5
2E41
330
2DC7
100
AcDbEntity
  8
2
100
AcDbMText
 10
98.08991434148923
 20
-19.20147990008212
 30
0.0
 40
3.0
 41
0.0
 71
     5
 72
     1
  1
\A1;%%C 5.8 
  7
SANDVIK_STYLE
 11
0.0000000000000001
 21
1.0
 31
0.0
 73
     1
 44
1.0
1001
ACAD
1000
MTEXTBEGIN
1070
    73
1070
     1
1070
    44
1040
1.0
1070
    74
1070
     0
1000
MTEXTEND
  0
SOLID
  5
2E42
330
2DC7
100
AcDbEntity
  8
2
100
AcDbTrace
 10
97.60312522343006
 20
7.469926999999991
 30
0.0
 11
99.12645855676339
 21
7.469926999999991
 31
0.0
 12
98.36479189009674
 22
2.899926999999991
 32
0.0
 13
98.36479189009674
 23
2.899926999999991
 33
0.0
  0
SOLID
  5
2E43
330
2DC7
100
AcDbEntity
  8
2
100
AcDbTrace
 10
97.60312522343006
 20
-7.469927000000008
 30
0.0
 11
99.12645855676339
 21
-7.469927000000008
 31
0.0
 12
98.36479189009674
 22
-2.899927000000006
 32
0.0
 13
98.36479189009674
 23
-2.899927000000006
 33
0.0
  0
POINT
  5
2E44
330
2DC7
100
AcDbEntity
  8
DEFPOINTS
 62
     0
100
AcDbPoint
 10
91.00609
 20
2.899926999999993
 30
0.0
  0
POINT
  5
2E45
330
2DC7
100
AcDbEntity
  8
DEFPOINTS
 62
     0
100
AcDbPoint
 10
91.00609
 20
-2.899927000000004
 30
0.0
  0
POINT
  5
2E46
330
2DC7
100
AcDbEntity
  8
DEFPOINTS
 62
     0
100
AcDbPoint
 10
98.36479189009674
 20
-2.899927000000006
 30
0.0
  0
ENDBLK
  5
2DD3
330
2DC7
100
AcDbEntity
  8
0
100
AcDbBlockEnd
  0
BLOCK
  5
2DDF
330
2DD5
100
AcDbEntity
  8
0
100
AcDbBlockBegin
  2
*D4
 70
     1
 10
0.0
 20
0.0
 30
0.0
  3
*D4
  1

  0
LINE
  5
2DD6
330
2DD5
100
AcDbEntity
  8
SK2
370
    -2
100
AcDbLine
 10
91.00609
 20
2.899926999999993
 30
0.0
 11
91.00609
 21
12.0250143410035
 31
0.0
  0
LINE
  5
2DD7
330
2DD5
100
AcDbEntity
  8
SK2
370
    -2
100
AcDbLine
 10
21.00609
 20
2.899927000000006
 30
0.0
 11
21.00609
 21
12.0250143410035
 31
0.0
  0
LINE
  5
2DD8
330
2DD5
100
AcDbEntity
  8
SK2
370
    -2
100
AcDbLine
 10
86.43609000000003
 20
7.025014341003497
 30
0.0
 11
25.57609
 21
7.025014341003497
 31
0.0
  0
SOLID
  5
2DD9
330
2DD5
100
AcDbEntity
  8
SK2
100
AcDbTrace
 10
86.43609000000003
 20
7.786681007670162
 30
0.0
 11
86.43609000000003
 21
6.263347674336831
 31
0.0
 12
91.00609
 22
7.025014341003497
 32
0.0
 13
91.00609
 23
7.025014341003497
 33
0.0
  0
SOLID
  5
2DDA
330
2DD5
100
AcDbEntity
  8
SK2
100
AcDbTrace
 10
25.57609
 20
7.786681007670162
 30
0.0
 11
25.57609
 21
6.263347674336831
 31
0.0
 12
21.00609
 22
7.025014341003497
 32
0.0
 13
21.00609
 23
7.025014341003497
 33
0.0
  0
MTEXT
  5
2DDB
330
2DD5
100
AcDbEntity
  8
SK2
100
AcDbMText
 10
56.00609
 20
10.8250143410035
 30
0.0
 40
3.0
 41
0.0
 71
     5
 72
     1
  1
\A1;70 
  7
SANDVIK_STYLE
 73
     1
 44
1.0
1001
ACAD
1000
MTEXTBEGIN
1070
    73
1070
     1
1070
    44
1040
1.0
1070
    74
1070
     0
1000
MTEXTEND
  0
POINT
  5
2DDC
330
2DD5
100
AcDbEntity
  8
DEFPOINTS
 62
     0
100
AcDbPoint
 10
91.00609
 20
2.899926999999993
 30
0.0
  0
POINT
  5
2DDD
330
2DD5
100
AcDbEntity
  8
DEFPOINTS
 62
     0
100
AcDbPoint
 10
21.00609
 20
2.899927000000006
 30
0.0
  0
POINT
  5
2DDE
330
2DD5
100
AcDbEntity
  8
DEFPOINTS
 62
     0
100
AcDbPoint
 10
21.00609
 20
7.025014341003497
 30
0.0
  0
ENDBLK
  5
2DE0
330
2DD5
100
AcDbEntity
  8
0
100
AcDbBlockEnd
  0
BLOCK
  5
2DEC
330
2DE2
100
AcDbEntity
  8
0
100
AcDbBlockBegin
  2
*D5
 70
     1
 10
0.0
 20
0.0
 30
0.0
  3
*D5
  1

  0
LINE
  5
2E47
330
2DE2
100
AcDbEntity
  8
2
370
    -2
100
AcDbLine
 10
91.99996099999999
 20
0.0
 30
0.0
 11
91.99996099999999
 21
-14.98974671655043
 31
0.0
  0
LINE
  5
2E48
330
2DE2
100
AcDbEntity
  8
2
370
    -2
100
AcDbLine
 10
5.999961000000013
 20
0.0000000000000105
 30
0.0
 11
5.999961000000013
 21
-14.98974671655043
 31
0.0
  0
LINE
  5
2E49
330
2DE2
100
AcDbEntity
  8
2
370
    -2
100
AcDbLine
 10
87.42996100000002
 20
-9.989746716550428
 30
0.0
 11
10.56996100000001
 21
-9.989746716550428
 31
0.0
  0
SOLID
  5
2E4A
330
2DE2
100
AcDbEntity
  8
2
100
AcDbTrace
 10
87.42996100000002
 20
-9.228080049883759
 30
0.0
 11
87.42996100000002
 21
-10.75141338321709
 31
0.0
 12
91.99996099999999
 22
-9.989746716550428
 32
0.0
 13
91.99996099999999
 23
-9.989746716550428
 33
0.0
  0
SOLID
  5
2E4B
330
2DE2
100
AcDbEntity
  8
2
100
AcDbTrace
 10
10.56996100000001
 20
-9.228080049883759
 30
0.0
 11
10.56996100000001
 21
-10.75141338321709
 31
0.0
 12
5.999961000000013
 22
-9.989746716550428
 32
0.0
 13
5.999961000000013
 23
-9.989746716550428
 33
0.0
  0
MTEXT
  5
2E4C
330
2DE2
100
AcDbEntity
  8
2
100
AcDbMText
 10
48.999961
 20
-6.189746716550429
 30
0.0
 40
3.0
 41
0.0
 71
     5
 72
     1
  1
\A1;86 
  7
SANDVIK_STYLE
 73
     1
 44
1.0
1001
ACAD
1000
MTEXTBEGIN
1070
    73
1070
     1
1070
    44
1040
1.0
1070
    74
1070
     0
1000
MTEXTEND
  0
POINT
  5
2E4D
330
2DE2
100
AcDbEntity
  8
DEFPOINTS
 62
     0
100
AcDbPoint
 10
91.99996099999999
 20
0.0
 30
0.0
  0
POINT
  5
2E4E
330
2DE2
100
AcDbEntity
  8
DEFPOINTS
 62
     0
100
AcDbPoint
 10
5.999961000000013
 20
0.0000000000000105
 30
0.0
  0
POINT
  5
2E4F
330
2DE2
100
AcDbEntity
  8
DEFPOINTS
 62
     0
100
AcDbPoint
 10
5.999961000000013
 20
-9.989746716550428
 30
0.0
  0
ENDBLK
  5
2DED
330
2DE2
100
AcDbEntity
  8
0
100
AcDbBlockEnd
  0
BLOCK
  5
2DF9
330
2DEF
100
AcDbEntity
  8
0
100
AcDbBlockBegin
  2
*D6
 70
     1
 10
0.0
 20
0.0
 30
0.0
  3
*D6
  1

  0
LINE
  5
2E50
330
2DEF
100
AcDbEntity
  8
2
370
    -2
100
AcDbLine
 10
0.0
 20
-3.0
 30
0.0
 11
-0.0000000000000012
 21
-22.53887295934027
 31
0.0
  0
LINE
  5
2E51
330
2DEF
100
AcDbEntity
  8
2
370
    -2
100
AcDbLine
 10
91.99996099999999
 20
-0.0000000000000053
 30
0.0
 11
91.99996099999999
 21
-22.53887295934027
 31
0.0
  0
LINE
  5
2E52
330
2DEF
100
AcDbEntity
  8
2
370
    -2
100
AcDbLine
 10
4.569999999999998
 20
-17.53887295934027
 30
0.0
 11
87.42996100000002
 21
-17.53887295934027
 31
0.0
  0
SOLID
  5
2E53
330
2DEF
100
AcDbEntity
  8
2
100
AcDbTrace
 10
4.569999999999998
 20
-16.7772062926736
 30
0.0
 11
4.569999999999998
 21
-18.30053962600693
 31
0.0
 12
-0.0000000000000009
 22
-17.53887295934027
 32
0.0
 13
-0.0000000000000009
 23
-17.53887295934027
 33
0.0
  0
SOLID
  5
2E54
330
2DEF
100
AcDbEntity
  8
2
100
AcDbTrace
 10
87.42996100000002
 20
-16.7772062926736
 30
0.0
 11
87.42996100000002
 21
-18.30053962600693
 31
0.0
 12
91.99996099999999
 22
-17.53887295934027
 32
0.0
 13
91.99996099999999
 23
-17.53887295934027
 33
0.0
  0
MTEXT
  5
2E55
330
2DEF
100
AcDbEntity
  8
2
100
AcDbMText
 10
45.99998049999999
 20
-13.73887295934027
 30
0.0
 40
3.0
 41
0.0
 71
     5
 72
     1
  1
\A1;92 
  7
SANDVIK_STYLE
 73
     1
 44
1.0
1001
ACAD
1000
MTEXTBEGIN
1070
    73
1070
     1
1070
    44
1040
1.0
1070
    74
1070
     0
1000
MTEXTEND
  0
POINT
  5
2E56
330
2DEF
100
AcDbEntity
  8
DEFPOINTS
 62
     0
100
AcDbPoint
 10
0.0
 20
-3.0
 30
0.0
  0
POINT
  5
2E57
330
2DEF
100
AcDbEntity
  8
DEFPOINTS
 62
     0
100
AcDbPoint
 10
91.99996099999999
 20
-0.0000000000000053
 30
0.0
  0
POINT
  5
2E58
330
2DEF
100
AcDbEntity
  8
DEFPOINTS
 62
     0
100
AcDbPoint
 10
91.99996099999999
 20
-17.53887295934027
 30
0.0
  0
ENDBLK
  5
2DFA
330
2DEF
100
AcDbEntity
  8
0
100
AcDbBlockEnd
  0
BLOCK
  5
2E06
330
2DFC
100
AcDbEntity
  8
0
100
AcDbBlockBegin
  2
*D7
 70
     1
 10
0.0
 20
0.0
 30
0.0
  3
*D7
  1

  0
LINE
  5
2DFD
330
2DFC
100
AcDbEntity
  8
SK2
370
    -2
100
AcDbLine
 10
91.99996099999999
 20
0.0
 30
0.0
 11
91.99996099999999
 21
-30.21128808833163
 31
0.0
  0
LINE
  5
2DFE
330
2DFC
100
AcDbEntity
  8
SK2
370
    -2
100
AcDbLine
 10
-36.0
 20
-2.624443000000002
 30
0.0
 11
-36.0
 21
-30.21128808833163
 31
0.0
  0
LINE
  5
2DFF
330
2DFC
100
AcDbEntity
  8
SK2
370
    -2
100
AcDbLine
 10
87.42996100000002
 20
-25.21128808833163
 30
0.0
 11
-31.43
 21
-25.21128808833163
 31
0.0
  0
SOLID
  5
2E00
330
2DFC
100
AcDbEntity
  8
SK2
100
AcDbTrace
 10
87.42996100000002
 20
-24.44962142166496
 30
0.0
 11
87.42996100000002
 21
-25.9729547549983
 31
0.0
 12
91.99996099999999
 22
-25.21128808833163
 32
0.0
 13
91.99996099999999
 23
-25.21128808833163
 33
0.0
  0
SOLID
  5
2E01
330
2DFC
100
AcDbEntity
  8
SK2
100
AcDbTrace
 10
-31.43
 20
-24.44962142166496
 30
0.0
 11
-31.43
 21
-25.9729547549983
 31
0.0
 12
-36.0
 22
-25.21128808833163
 32
0.0
 13
-36.0
 23
-25.21128808833163
 33
0.0
  0
MTEXT
  5
2E02
330
2DFC
100
AcDbEntity
  8
SK2
100
AcDbMText
 10
27.99998050000001
 20
-21.41128808833163
 30
0.0
 40
3.0
 41
0.0
 71
     5
 72
     1
  1
\A1;128 
  7
SANDVIK_STYLE
 73
     1
 44
1.0
1001
ACAD
1000
MTEXTBEGIN
1070
    73
1070
     1
1070
    44
1040
1.0
1070
    74
1070
     0
1000
MTEXTEND
  0
POINT
  5
2E03
330
2DFC
100
AcDbEntity
  8
DEFPOINTS
 62
     0
100
AcDbPoint
 10
91.99996099999999
 20
0.0
 30
0.0
  0
POINT
  5
2E04
330
2DFC
100
AcDbEntity
  8
DEFPOINTS
 62
     0
100
AcDbPoint
 10
-36.0
 20
-2.624443000000002
 30
0.0
  0
POINT
  5
2E05
330
2DFC
100
AcDbEntity
  8
DEFPOINTS
 62
     0
100
AcDbPoint
 10
-36.0
 20
-25.21128808833163
 30
0.0
  0
ENDBLK
  5
2E07
330
2DFC
100
AcDbEntity
  8
0
100
AcDbBlockEnd
  0
BLOCK
  5
2E13
330
2E09
100
AcDbEntity
  8
0
100
AcDbBlockBegin
  2
*D8
 70
     1
 10
0.0
 20
0.0
 30
0.0
  3
*D8
  1

  0
LINE
  5
2E0A
330
2E09
100
AcDbEntity
  8
SK2
370
    -2
100
AcDbLine
 10
0.0
 20
-3.0
 30
0.0
 11
-0.0000000000000012
 21
-22.53887295934027
 31
0.0
  0
LINE
  5
2E0B
330
2E09
100
AcDbEntity
  8
SK2
370
    -2
100
AcDbLine
 10
-36.0
 20
-2.500135000000001
 30
0.0
 11
-36.0
 21
-22.53887295934027
 31
0.0
  0
LINE
  5
2E0C
330
2E09
100
AcDbEntity
  8
SK2
370
    -2
100
AcDbLine
 10
-4.570000000000001
 20
-17.53887295934027
 30
0.0
 11
-31.43
 21
-17.53887295934027
 31
0.0
  0
SOLID
  5
2E0D
330
2E09
100
AcDbEntity
  8
SK2
100
AcDbTrace
 10
-4.570000000000001
 20
-16.7772062926736
 30
0.0
 11
-4.570000000000001
 21
-18.30053962600693
 31
0.0
 12
-0.0000000000000009
 22
-17.53887295934027
 32
0.0
 13
-0.0000000000000009
 23
-17.53887295934027
 33
0.0
  0
SOLID
  5
2E0E
330
2E09
100
AcDbEntity
  8
SK2
100
AcDbTrace
 10
-31.43
 20
-16.7772062926736
 30
0.0
 11
-31.43
 21
-18.30053962600693
 31
0.0
 12
-36.0
 22
-17.53887295934027
 32
0.0
 13
-36.0
 23
-17.53887295934027
 33
0.0
  0
MTEXT
  5
2E0F
330
2E09
100
AcDbEntity
  8
SK2
100
AcDbMText
 10
-18.0
 20
-13.73887295934027
 30
0.0
 40
3.0
 41
0.0
 71
     5
 72
     1
  1
\A1;36 
  7
SANDVIK_STYLE
 73
     1
 44
1.0
1001
ACAD
1000
MTEXTBEGIN
1070
    73
1070
     1
1070
    44
1040
1.0
1070
    74
1070
     0
1000
MTEXTEND
  0
POINT
  5
2E10
330
2E09
100
AcDbEntity
  8
DEFPOINTS
 62
     0
100
AcDbPoint
 10
0.0
 20
-3.0
 30
0.0
  0
POINT
  5
2E11
330
2E09
100
AcDbEntity
  8
DEFPOINTS
 62
     0
100
AcDbPoint
 10
-36.0
 20
-2.500135000000001
 30
0.0
  0
POINT
  5
2E12
330
2E09
100
AcDbEntity
  8
DEFPOINTS
 62
     0
100
AcDbPoint
 10
-36.0
 20
-17.53887295934027
 30
0.0
  0
ENDBLK
  5
2E14
330
2E09
100
AcDbEntity
  8
0
100
AcDbBlockEnd
  0
ENDSEC
  0
SECTION
  2
ENTITIES
  0
TEXT
  5
62
330
BF7
100
AcDbEntity
  8
SK6
100
AcDbText
 10
-18.5
 20
25.0
 30
0.0
 40
3.0
  1
861.1-0580-070A1-GM
 41
0.7540842026666672
  7
SANDVIK_STYLE
 72
     5
 11
21.897368
 21
25.0
 31
0.0
100
AcDbText
  0
LINE
  5
2BB5
330
BF7
100
AcDbEntity
  8
SK1
100
AcDbLine
 10
0.0
 20
3.0
 30
0.0
 11
0.0
 21
-3.0
 31
0.0
  0
LINE
  5
2BB6
330
BF7
100
AcDbEntity
  8
1
100
AcDbLine
 10
8.723697999999997
 20
-2.310039000000001
 30
0.0
 11
8.723697999999997
 21
-2.604875000000002
 31
0.0
  0
LINE
  5
2BB7
330
BF7
100
AcDbEntity
  8
1
100
AcDbLine
 10
16.25026100000001
 20
1.069276999999996
 30
0.0
 11
15.67526000000001
 21
1.327957999999997
 31
0.0
  0
LINE
  5
2BB8
330
BF7
100
AcDbEntity
  8
1
100
AcDbLine
 10
16.85805499999999
 20
0.7585669999999958
 30
0.0
 11
16.25026100000001
 21
1.069276999999996
 31
0.0
  0
LINE
  5
2BB9
330
BF7
100
AcDbEntity
  8
1
100
AcDbLine
 10
19.38088400000001
 20
-0.5552790000000059
 30
0.0
 11
16.85805499999999
 21
0.7585669999999958
 31
0.0
  0
LINE
  5
2BBA
330
BF7
100
AcDbEntity
  8
1
100
AcDbLine
 10
20.94620200000001
 20
-1.329780000000003
 30
0.0
 11
19.38088400000001
 21
-0.5552790000000059
 31
0.0
  0
LINE
  5
2BBB
330
BF7
100
AcDbEntity
  8
1
100
AcDbLine
 10
22.51151300000001
 20
-1.984893999999999
 30
0.0
 11
20.94620200000001
 21
-1.329780000000003
 31
0.0
  0
LINE
  5
2BBC
330
BF7
100
AcDbEntity
  8
1
100
AcDbLine
 10
24.076825
 20
-2.461797
 30
0.0
 11
22.51151300000001
 21
-1.984893999999999
 31
0.0
  0
LINE
  5
2BBD
330
BF7
100
AcDbEntity
  8
1
100
AcDbLine
 10
25.64213600000001
 20
-2.717680000000004
 30
0.0
 11
24.076825
 21
-2.461797
 31
0.0
  0
LINE
  5
2BBE
330
BF7
100
AcDbEntity
  8
1
100
AcDbLine
 10
26.50100399999999
 20
-2.724195000000001
 30
0.0
 11
25.64213600000001
 21
-2.717680000000004
 31
0.0
  0
LINE
  5
2BBF
330
BF7
100
AcDbEntity
  8
1
100
AcDbLine
 10
48.478829
 20
1.279952999999995
 30
0.0
 11
47.92806300000001
 21
1.532592999999996
 31
0.0
  0
LINE
  5
2BC0
330
BF7
100
AcDbEntity
  8
1
100
AcDbLine
 10
50.68713699999999
 20
0.1785639999999979
 30
0.0
 11
48.478829
 21
1.279952999999995
 31
0.0
  0
LINE
  5
2BC1
330
BF7
100
AcDbEntity
  8
1
100
AcDbLine
 10
52.25244799999998
 20
-0.6439179999999995
 30
0.0
 11
50.68713699999999
 21
0.1785639999999979
 31
0.0
  0
LINE
  5
2BC2
330
BF7
100
AcDbEntity
  8
1
100
AcDbLine
 10
53.81776000000001
 20
-1.408582
 30
0.0
 11
52.25244799999998
 21
-0.6439179999999995
 31
0.0
  0
LINE
  5
2BC3
330
BF7
100
AcDbEntity
  8
1
100
AcDbLine
 10
55.38307099999999
 20
-2.046789000000003
 30
0.0
 11
53.81776000000001
 21
-1.408582
 31
0.0
  0
LINE
  5
2BC4
330
BF7
100
AcDbEntity
  8
1
100
AcDbLine
 10
56.94838200000001
 20
-2.501219000000002
 30
0.0
 11
55.38307099999999
 21
-2.046789000000003
 31
0.0
  0
LINE
  5
2BC5
330
BF7
100
AcDbEntity
  8
1
100
AcDbLine
 10
58.51369400000002
 20
-2.731101000000001
 30
0.0
 11
56.94838200000001
 21
-2.501219000000002
 31
0.0
  0
LINE
  5
2BC6
330
BF7
100
AcDbEntity
  8
1
100
AcDbLine
 10
59.23879500000001
 20
-2.723995000000001
 30
0.0
 11
58.51369400000002
 21
-2.731101000000001
 31
0.0
  0
LINE
  5
2BC7
330
BF7
100
AcDbEntity
  8
1
100
AcDbLine
 10
81.81253800000002
 20
0.9841409999999971
 30
0.0
 11
80.95477800000002
 21
1.384733999999994
 31
0.0
  0
LINE
  5
2BC8
330
BF7
100
AcDbEntity
  8
1
100
AcDbLine
 10
83.55870099999998
 20
0.0878569999999997
 30
0.0
 11
81.81253800000002
 21
0.9841409999999971
 31
0.0
  0
LINE
  5
2BC9
330
BF7
100
AcDbEntity
  8
1
100
AcDbLine
 10
85.12401199999997
 20
-0.7318549999999995
 30
0.0
 11
83.55870099999998
 21
0.0878569999999997
 31
0.0
  0
LINE
  5
2BCA
330
BF7
100
AcDbEntity
  8
1
100
AcDbLine
 10
86.68932299999999
 20
-1.485851000000003
 30
0.0
 11
85.12401199999997
 21
-0.7318549999999995
 31
0.0
  0
LINE
  5
2BCB
330
BF7
100
AcDbEntity
  8
1
100
AcDbLine
 10
88.25463500000003
 20
-2.106457000000002
 30
0.0
 11
86.68932299999999
 21
-1.485851000000003
 31
0.0
  0
LINE
  5
2BCC
330
BF7
100
AcDbEntity
  8
1
100
AcDbLine
 10
89.81994600000001
 20
-2.537926000000001
 30
0.0
 11
88.25463500000003
 21
-2.106457000000002
 31
0.0
  0
LINE
  5
2BCD
330
BF7
100
AcDbEntity
  8
1
100
AcDbLine
 10
90.97393299999998
 20
-2.711518000000004
 30
0.0
 11
89.81994600000001
 21
-2.537926000000001
 31
0.0
  0
LINE
  5
2BCE
330
BF7
100
AcDbEntity
  8
1
100
AcDbLine
 10
14.86735799999999
 20
-2.604875000000002
 30
0.0
 11
8.723697999999997
 21
-2.604875000000002
 31
0.0
  0
LINE
  5
2BCF
330
BF7
100
AcDbEntity
  8
1
100
AcDbLine
 10
10.28901
 20
-2.753676000000001
 30
0.0
 11
8.723697999999997
 21
-2.604875000000002
 31
0.0
  0
LINE
  5
2BD0
330
BF7
100
AcDbEntity
  8
1
100
AcDbLine
 10
11.117399
 20
-2.701596000000001
 30
0.0
 11
10.28901
 21
-2.753676000000001
 31
0.0
  0
LINE
  5
2BD1
330
BF7
100
AcDbEntity
  8
1
100
AcDbLine
 10
32.20338099999999
 20
1.398674999999997
 30
0.0
 11
29.58343500000001
 21
2.347175
 31
0.0
  0
LINE
  5
2BD2
330
BF7
100
AcDbEntity
  8
1
100
AcDbLine
 10
33.76869300000001
 20
0.6327089999999949
 30
0.0
 11
32.20338099999999
 21
1.398674999999997
 31
0.0
  0
LINE
  5
2BD3
330
BF7
100
AcDbEntity
  8
1
100
AcDbLine
 10
35.33401600000001
 20
-0.190058000000004
 30
0.0
 11
33.76869300000001
 21
0.6327089999999949
 31
0.0
  0
LINE
  5
2BD4
330
BF7
100
AcDbEntity
  8
1
100
AcDbLine
 10
36.89932800000001
 20
-0.9957620000000028
 30
0.0
 11
35.33401600000001
 21
-0.190058000000004
 31
0.0
  0
LINE
  5
2BD5
330
BF7
100
AcDbEntity
  8
1
100
AcDbLine
 10
38.46463900000001
 20
-1.712067000000004
 30
0.0
 11
36.89932800000001
 21
-0.9957620000000028
 31
0.0
  0
LINE
  5
2BD6
330
BF7
100
AcDbEntity
  8
1
100
AcDbLine
 10
40.02995099999997
 20
-2.274651000000002
 30
0.0
 11
38.46463900000001
 21
-1.712067000000004
 31
0.0
  0
LINE
  5
2BD7
330
BF7
100
AcDbEntity
  8
1
100
AcDbLine
 10
41.59526200000001
 20
-2.633023000000001
 30
0.0
 11
40.02995099999997
 21
-2.274651000000002
 31
0.0
  0
LINE
  5
2BD8
330
BF7
100
AcDbEntity
  8
1
100
AcDbLine
 10
43.16057299999999
 20
-2.754986000000001
 30
0.0
 11
41.59526200000001
 21
-2.633023000000001
 31
0.0
  0
LINE
  5
2BD9
330
BF7
100
AcDbEntity
  8
1
100
AcDbLine
 10
43.18499100000001
 20
-2.753030000000001
 30
0.0
 11
43.16057299999999
 21
-2.754986000000001
 31
0.0
  0
LINE
  5
2BDA
330
BF7
100
AcDbEntity
  8
1
100
AcDbLine
 10
65.07494500000001
 20
1.319684999999995
 30
0.0
 11
62.67506800000001
 21
2.232659999999995
 31
0.0
  0
LINE
  5
2BDB
330
BF7
100
AcDbEntity
  8
1
100
AcDbLine
 10
66.64025699999999
 20
0.5439909999999948
 30
0.0
 11
65.07494500000001
 21
1.319684999999995
 31
0.0
  0
LINE
  5
2BDC
330
BF7
100
AcDbEntity
  8
1
100
AcDbLine
 10
68.205568
 20
-0.2805410000000066
 30
0.0
 11
66.64025699999999
 21
0.5439909999999948
 31
0.0
  0
LINE
  5
2BDD
330
BF7
100
AcDbEntity
  8
1
100
AcDbLine
 10
69.77088000000001
 20
-1.079883000000002
 30
0.0
 11
68.205568
 21
-0.2805410000000066
 31
0.0
  0
LINE
  5
2BDE
330
BF7
100
AcDbEntity
  8
1
100
AcDbLine
 10
71.33620299999998
 20
-1.782274000000004
 30
0.0
 11
69.77088000000001
 21
-1.079883000000002
 31
0.0
  0
LINE
  5
2BDF
330
BF7
100
AcDbEntity
  8
1
100
AcDbLine
 10
72.90151400000002
 20
-2.324648000000002
 30
0.0
 11
71.33620299999998
 21
-1.782274000000004
 31
0.0
  0
LINE
  5
2BE0
330
BF7
100
AcDbEntity
  8
1
100
AcDbLine
 10
74.46682599999999
 20
-2.658307000000002
 30
0.0
 11
72.90151400000002
 21
-2.324648000000002
 31
0.0
  0
LINE
  5
2BE1
330
BF7
100
AcDbEntity
  8
1
100
AcDbLine
 10
75.89886100000002
 20
-2.745216
 30
0.0
 11
74.46682599999999
 21
-2.658307000000002
 31
0.0
  0
LINE
  5
2BE2
330
BF7
100
AcDbEntity
  8
1
100
AcDbLine
 10
8.533303000000001
 20
-2.640493000000001
 30
0.0
 11
8.3716
 21
-2.741975
 31
0.0
  0
LINE
  5
2BE3
330
BF7
100
AcDbEntity
  8
1
100
AcDbLine
 10
8.723697999999997
 20
-2.604875000000002
 30
0.0
 11
8.533303000000001
 21
-2.640493000000001
 31
0.0
  0
LINE
  5
2BE4
330
BF7
100
AcDbEntity
  8
SK1
100
AcDbLine
 10
-35.370288
 20
2.642844999999997
 30
0.0
 11
-35.35048199999999
 21
2.654244999999999
 31
0.0
  0
LINE
  5
2BE5
330
BF7
100
AcDbEntity
  8
SK1
100
AcDbLine
 10
-36.0
 20
2.278974999999999
 30
0.0
 11
-35.370288
 21
2.642844999999997
 31
0.0
  0
LINE
  5
2BE6
330
BF7
100
AcDbEntity
  8
SK1
100
AcDbLine
 10
-35.35048199999999
 20
-2.999712000000004
 30
0.0
 11
-36.0
 21
-2.624443000000002
 31
0.0
  0
LINE
  5
2BE7
330
BF7
100
AcDbEntity
  8
1
100
AcDbLine
 10
91.97048100000001
 20
0.1323849999999958
 30
0.0
 11
91.066575
 21
0.8762140000000009
 31
0.0
  0
LINE
  5
2BE8
330
BF7
100
AcDbEntity
  8
1
100
AcDbLine
 10
10.302853
 20
0.6479179999999971
 30
0.0
 11
13.783219
 21
-1.496588
 31
0.0
  0
LINE
  5
2BE9
330
BF7
100
AcDbEntity
  8
1
100
AcDbLine
 10
6.824341000000002
 20
2.819868999999997
 30
0.0
 11
10.302853
 21
0.6479179999999971
 31
0.0
  0
LINE
  5
2BEA
330
BF7
100
AcDbEntity
  8
1
100
AcDbLine
 10
90.970373
 20
0.8233039999999967
 30
0.0
 11
90.967345
 21
0.801048999999999
 31
0.0
  0
LINE
  5
2BEB
330
BF7
100
AcDbEntity
  8
1
100
AcDbLine
 10
90.98130899999999
 20
0.8431039999999967
 30
0.0
 11
90.970373
 21
0.8233039999999967
 31
0.0
  0
LINE
  5
2BEC
330
BF7
100
AcDbEntity
  8
1
100
AcDbLine
 10
90.998871
 20
0.8586249999999997
 30
0.0
 11
90.98130899999999
 21
0.8431039999999967
 31
0.0
  0
LINE
  5
2BED
330
BF7
100
AcDbEntity
  8
1
100
AcDbLine
 10
91.02500799999999
 20
0.8704579999999991
 30
0.0
 11
90.998871
 21
0.8586249999999997
 31
0.0
  0
LINE
  5
2BEE
330
BF7
100
AcDbEntity
  8
1
100
AcDbLine
 10
91.066575
 20
0.8762140000000009
 30
0.0
 11
91.02500799999999
 21
0.8704579999999991
 31
0.0
  0
LINE
  5
2BEF
330
BF7
100
AcDbEntity
  8
1
100
AcDbLine
 10
89.16072000000005
 20
0.6386830000000005
 30
0.0
 11
90.96740500000001
 21
0.4328450000000005
 31
0.0
  0
LINE
  5
2BF0
330
BF7
100
AcDbEntity
  8
1
100
AcDbLine
 10
64.33979200000002
 20
-0.5296540000000043
 30
0.0
 11
67.926443
 21
-0.8269710000000037
 31
0.0
  0
LINE
  5
2BF1
330
BF7
100
AcDbEntity
  8
1
100
AcDbLine
 10
61.535178
 20
-0.0968460000000029
 30
0.0
 11
64.33979200000002
 21
-0.5296540000000043
 31
0.0
  0
LINE
  5
2BF2
330
BF7
100
AcDbEntity
  8
1
100
AcDbLine
 10
58.732842
 20
0.3631059999999984
 30
0.0
 11
61.535178
 21
-0.0968460000000029
 31
0.0
  0
LINE
  5
2BF3
330
BF7
100
AcDbEntity
  8
1
100
AcDbLine
 10
56.42014400000002
 20
0.6579529999999956
 30
0.0
 11
58.732842
 21
0.3631059999999984
 31
0.0
  0
LINE
  5
2BF4
330
BF7
100
AcDbEntity
  8
1
100
AcDbLine
 10
30.81578500000001
 20
-0.4131150000000048
 30
0.0
 11
35.21916200000001
 21
-0.8238490000000027
 31
0.0
  0
LINE
  5
2BF5
330
BF7
100
AcDbEntity
  8
1
100
AcDbLine
 10
28.06892000000001
 20
0.0318609999999957
 30
0.0
 11
30.81578500000001
 21
-0.4131150000000048
 31
0.0
  0
LINE
  5
2BF6
330
BF7
100
AcDbEntity
  8
1
100
AcDbLine
 10
25.32093500000001
 20
0.468392999999999
 30
0.0
 11
28.06892000000001
 21
0.0318609999999957
 31
0.0
  0
LINE
  5
2BF7
330
BF7
100
AcDbEntity
  8
1
100
AcDbLine
 10
23.80008500000001
 20
0.6384379999999972
 30
0.0
 11
25.32093500000001
 21
0.468392999999999
 31
0.0
  0
LINE
  5
2BF8
330
BF7
100
AcDbEntity
  8
1
100
AcDbLine
 10
91.81718399999999
 20
0.8820580000000004
 30
0.0
 11
91.066575
 21
0.8762140000000009
 31
0.0
  0
LINE
  5
2BF9
330
BF7
100
AcDbEntity
  8
1
100
AcDbLine
 10
11.33814000000001
 20
0.094895999999995
 30
0.0
 11
13.783219
 21
-1.496588
 31
0.0
  0
LINE
  5
2BFA
330
BF7
100
AcDbEntity
  8
1
100
AcDbLine
 10
78.63503099999999
 20
-0.2207760000000043
 30
0.0
 11
84.32797299999998
 21
-0.835491000000001
 31
0.0
  0
LINE
  5
2BFB
330
BF7
100
AcDbEntity
  8
1
100
AcDbLine
 10
75.55155899999999
 20
0.289990999999997
 30
0.0
 11
78.63503099999999
 21
-0.2207760000000043
 31
0.0
  0
LINE
  5
2BFC
330
BF7
100
AcDbEntity
  8
1
100
AcDbLine
 10
72.77006700000002
 20
0.6698249999999995
 30
0.0
 11
75.55155899999999
 21
0.289990999999997
 31
0.0
  0
LINE
  5
2BFD
330
BF7
100
AcDbEntity
  8
1
100
AcDbLine
 10
47.52134199999999
 20
-0.4648050000000019
 30
0.0
 11
51.576532
 21
-0.8216360000000014
 31
0.0
  0
LINE
  5
2BFE
330
BF7
100
AcDbEntity
  8
1
100
AcDbLine
 10
44.718921
 20
-0.018608000000004
 30
0.0
 11
47.52134199999999
 21
-0.4648050000000019
 31
0.0
  0
LINE
  5
2BFF
330
BF7
100
AcDbEntity
  8
1
100
AcDbLine
 10
41.914186
 20
0.433329999999998
 30
0.0
 11
44.718921
 21
-0.018608000000004
 31
0.0
  0
LINE
  5
2C00
330
BF7
100
AcDbEntity
  8
1
100
AcDbLine
 10
40.071482
 20
0.6496019999999945
 30
0.0
 11
41.914186
 21
0.433329999999998
 31
0.0
  0
LINE
  5
2C01
330
BF7
100
AcDbEntity
  8
1
100
AcDbLine
 10
14.134184
 20
-0.3630730000000071
 30
0.0
 11
18.906707
 21
-0.828445000000002
 31
0.0
  0
LINE
  5
2C02
330
BF7
100
AcDbEntity
  8
1
100
AcDbLine
 10
11.33814000000001
 20
0.094895999999995
 30
0.0
 11
14.134184
 21
-0.3630730000000071
 31
0.0
  0
LINE
  5
2C03
330
BF7
100
AcDbEntity
  8
1
100
AcDbLine
 10
11.62062
 20
0.3435519999999954
 30
0.0
 11
11.33814000000001
 21
0.094895999999995
 31
0.0
  0
LINE
  5
2C04
330
BF7
100
AcDbEntity
  8
1
100
AcDbLine
 10
11.82977700000001
 20
0.5278879999999973
 30
0.0
 11
11.62062
 21
0.3435519999999954
 31
0.0
  0
LINE
  5
2C05
330
BF7
100
AcDbEntity
  8
1
100
AcDbLine
 10
12.00637700000001
 20
0.6811769999999946
 30
0.0
 11
11.82977700000001
 21
0.5278879999999973
 31
0.0
  0
LINE
  5
2C06
330
BF7
100
AcDbEntity
  8
1
100
AcDbLine
 10
12.16852799999999
 20
0.8187049999999976
 30
0.0
 11
12.00637700000001
 21
0.6811769999999946
 31
0.0
  0
LINE
  5
2C07
330
BF7
100
AcDbEntity
  8
1
100
AcDbLine
 10
12.316405
 20
0.9401749999999999
 30
0.0
 11
12.16852799999999
 21
0.8187049999999976
 31
0.0
  0
LINE
  5
2C08
330
BF7
100
AcDbEntity
  8
1
100
AcDbLine
 10
12.571653
 20
1.137059999999994
 30
0.0
 11
12.316405
 21
0.9401749999999999
 31
0.0
  0
LINE
  5
2C09
330
BF7
100
AcDbEntity
  8
1
100
AcDbLine
 10
12.80209500000001
 20
1.296176999999991
 30
0.0
 11
12.571653
 21
1.137059999999994
 31
0.0
  0
LINE
  5
2C0A
330
BF7
100
AcDbEntity
  8
1
100
AcDbLine
 10
13.05643399999999
 20
1.444138999999999
 30
0.0
 11
12.80209500000001
 21
1.296176999999991
 31
0.0
  0
LINE
  5
2C0B
330
BF7
100
AcDbEntity
  8
1
100
AcDbLine
 10
13.292642
 20
1.549779999999996
 30
0.0
 11
13.05643399999999
 21
1.444138999999999
 31
0.0
  0
LINE
  5
2C0C
330
BF7
100
AcDbEntity
  8
1
100
AcDbLine
 10
13.549948
 20
1.624695999999993
 30
0.0
 11
13.292642
 21
1.549779999999996
 31
0.0
  0
LINE
  5
2C0D
330
BF7
100
AcDbEntity
  8
1
100
AcDbLine
 10
13.80122899999999
 20
1.656137999999996
 30
0.0
 11
13.549948
 21
1.624695999999993
 31
0.0
  0
LINE
  5
2C0E
330
BF7
100
AcDbEntity
  8
1
100
AcDbLine
 10
14.33993099999999
 20
1.599185999999995
 30
0.0
 11
13.80122899999999
 21
1.656137999999996
 31
0.0
  0
LINE
  5
2C0F
330
BF7
100
AcDbEntity
  8
1
100
AcDbLine
 10
14.369096
 20
1.592119
 30
0.0
 11
14.33993099999999
 21
1.599185999999995
 31
0.0
  0
LINE
  5
2C10
330
BF7
100
AcDbEntity
  8
SK1
100
AcDbLine
 10
-36.0
 20
1.813062999999999
 30
0.0
 11
-36.0
 21
2.278974999999999
 31
0.0
  0
LINE
  5
2C11
330
BF7
100
AcDbEntity
  8
SK1
100
AcDbLine
 10
-36.0
 20
1.196690999999994
 30
0.0
 11
-36.0
 21
1.813062999999999
 31
0.0
  0
LINE
  5
2C12
330
BF7
100
AcDbEntity
  8
SK1
100
AcDbLine
 10
-36.0
 20
0.4810069999999982
 30
0.0
 11
-36.0
 21
1.196690999999994
 31
0.0
  0
LINE
  5
2C13
330
BF7
100
AcDbEntity
  8
SK1
100
AcDbLine
 10
-36.0
 20
-0.2745910000000045
 30
0.0
 11
-36.0
 21
0.4810069999999982
 31
0.0
  0
LINE
  5
2C14
330
BF7
100
AcDbEntity
  8
SK1
100
AcDbLine
 10
-36.0
 20
-1.007404000000001
 30
0.0
 11
-36.0
 21
-0.2745910000000045
 31
0.0
  0
LINE
  5
2C15
330
BF7
100
AcDbEntity
  8
SK1
100
AcDbLine
 10
-36.0
 20
-1.656617000000004
 30
0.0
 11
-36.0
 21
-1.007404000000001
 31
0.0
  0
LINE
  5
2C16
330
BF7
100
AcDbEntity
  8
SK1
100
AcDbLine
 10
-36.0
 20
-2.168347999999999
 30
0.0
 11
-36.0
 21
-1.656617000000004
 31
0.0
  0
LINE
  5
2C17
330
BF7
100
AcDbEntity
  8
SK1
100
AcDbLine
 10
-36.0
 20
-2.500135000000001
 30
0.0
 11
-36.0
 21
-2.168347999999999
 31
0.0
  0
LINE
  5
2C18
330
BF7
100
AcDbEntity
  8
SK1
100
AcDbLine
 10
-36.0
 20
-2.624443000000002
 30
0.0
 11
-36.0
 21
-2.500135000000001
 31
0.0
  0
LINE
  5
2C19
330
BF7
100
AcDbEntity
  8
SK1
100
AcDbLine
 10
-35.35048199999999
 20
-2.904328000000003
 30
0.0
 11
-35.35048199999999
 21
-2.999712000000004
 31
0.0
  0
LINE
  5
2C1A
330
BF7
100
AcDbEntity
  8
SK1
100
AcDbLine
 10
-35.35048199999999
 20
-2.603037000000004
 30
0.0
 11
-35.35048199999999
 21
-2.904328000000003
 31
0.0
  0
LINE
  5
2C1B
330
BF7
100
AcDbEntity
  8
SK1
100
AcDbLine
 10
-35.35048199999999
 20
-2.117196000000003
 30
0.0
 11
-35.35048199999999
 21
-2.603037000000004
 31
0.0
  0
LINE
  5
2C1C
330
BF7
100
AcDbEntity
  8
SK1
100
AcDbLine
 10
-35.35048199999999
 20
-1.481252000000004
 30
0.0
 11
-35.35048199999999
 21
-2.117196000000003
 31
0.0
  0
LINE
  5
2C1D
330
BF7
100
AcDbEntity
  8
SK1
100
AcDbLine
 10
-35.35048199999999
 20
-0.7402910000000063
 30
0.0
 11
-35.35048199999999
 21
-1.481252000000004
 31
0.0
  0
LINE
  5
2C1E
330
BF7
100
AcDbEntity
  8
SK1
100
AcDbLine
 10
-35.35048199999999
 20
0.0531569999999988
 30
0.0
 11
-35.35048199999999
 21
-0.7402910000000063
 31
0.0
  0
LINE
  5
2C1F
330
BF7
100
AcDbEntity
  8
SK1
100
AcDbLine
 10
-35.35048199999999
 20
0.8428339999999963
 30
0.0
 11
-35.35048199999999
 21
0.0531569999999988
 31
0.0
  0
LINE
  5
2C20
330
BF7
100
AcDbEntity
  8
SK1
100
AcDbLine
 10
-35.35048199999999
 20
1.572755999999996
 30
0.0
 11
-35.35048199999999
 21
0.8428339999999963
 31
0.0
  0
LINE
  5
2C21
330
BF7
100
AcDbEntity
  8
SK1
100
AcDbLine
 10
-35.35048199999999
 20
2.191173999999995
 30
0.0
 11
-35.35048199999999
 21
1.572755999999996
 31
0.0
  0
LINE
  5
2C22
330
BF7
100
AcDbEntity
  8
SK1
100
AcDbLine
 10
-35.35048199999999
 20
2.654244999999999
 30
0.0
 11
-35.35048199999999
 21
2.191173999999995
 31
0.0
  0
LINE
  5
2C23
330
BF7
100
AcDbEntity
  8
SK1
100
AcDbLine
 10
-35.35048199999999
 20
2.999711999999998
 30
0.0
 11
-36.0
 21
2.624444999999997
 31
0.0
  0
LINE
  5
2C24
330
BF7
100
AcDbEntity
  8
SK1
100
AcDbLine
 10
-36.0
 20
2.624444999999997
 30
0.0
 11
-36.0
 21
2.278904999999996
 31
0.0
  0
LINE
  5
2C25
330
BF7
100
AcDbEntity
  8
1
100
AcDbLine
 10
90.36822899999998
 20
0.1181869999999989
 30
0.0
 11
89.86769
 21
0.325217999999996
 31
0.0
  0
LINE
  5
2C26
330
BF7
100
AcDbEntity
  8
1
100
AcDbLine
 10
90.667121
 20
0.1014059999999972
 30
0.0
 11
90.36822899999998
 21
0.1181869999999989
 31
0.0
  0
LINE
  5
2C27
330
BF7
100
AcDbEntity
  8
1
100
AcDbLine
 10
90.83303800000001
 20
0.1680509999999984
 30
0.0
 11
90.667121
 21
0.1014059999999972
 31
0.0
  0
LINE
  5
2C28
330
BF7
100
AcDbEntity
  8
1
100
AcDbLine
 10
90.925039
 20
0.2768229999999967
 30
0.0
 11
90.83303800000001
 21
0.1680509999999984
 31
0.0
  0
LINE
  5
2C29
330
BF7
100
AcDbEntity
  8
1
100
AcDbLine
 10
90.96740500000001
 20
0.4328450000000005
 30
0.0
 11
90.925039
 21
0.2768229999999967
 31
0.0
  0
LINE
  5
2C2A
330
BF7
100
AcDbEntity
  8
1
100
AcDbLine
 10
90.967345
 20
0.801048999999999
 30
0.0
 11
90.96740500000001
 21
0.4328450000000005
 31
0.0
  0
LINE
  5
2C2B
330
BF7
100
AcDbEntity
  8
1
100
AcDbLine
 10
91.97489000000002
 20
-0.0280730000000062
 30
0.0
 11
90.967345
 21
0.801048999999999
 31
0.0
  0
LINE
  5
2C2C
330
BF7
100
AcDbEntity
  8
1
100
AcDbLine
 10
89.74888699999999
 20
-0.8705820000000024
 30
0.0
 11
90.54707000000002
 21
-1.592873000000004
 31
0.0
  0
LINE
  5
2C2D
330
BF7
100
AcDbEntity
  8
1
100
AcDbLine
 10
89.41180700000002
 20
-0.4666120000000016
 30
0.0
 11
89.74888699999999
 21
-0.8705820000000024
 31
0.0
  0
LINE
  5
2C2E
330
BF7
100
AcDbEntity
  8
1
100
AcDbLine
 10
89.11692499999999
 20
-0.0221750000000007
 30
0.0
 11
89.41180700000002
 21
-0.4666120000000016
 31
0.0
  0
LINE
  5
2C2F
330
BF7
100
AcDbEntity
  8
1
100
AcDbLine
 10
88.829927
 20
0.608664000000001
 30
0.0
 11
89.11692499999999
 21
-0.0221750000000007
 31
0.0
  0
LINE
  5
2C30
330
BF7
100
AcDbEntity
  8
1
100
AcDbLine
 10
88.79646200000001
 20
0.7178629999999977
 30
0.0
 11
88.829927
 21
0.608664000000001
 31
0.0
  0
LINE
  5
2C31
330
BF7
100
AcDbEntity
  8
1
100
AcDbLine
 10
91.999113
 20
0.0210669999999951
 30
0.0
 11
91.97048100000001
 21
0.1323849999999958
 31
0.0
  0
LINE
  5
2C32
330
BF7
100
AcDbEntity
  8
1
100
AcDbLine
 10
91.97048100000001
 20
0.1323849999999958
 30
0.0
 11
91.81718399999999
 21
0.8820580000000004
 31
0.0
  0
LINE
  5
2C33
330
BF7
100
AcDbEntity
  8
1
100
AcDbLine
 10
91.13832499999999
 20
2.565239999999995
 30
0.0
 11
91.00609
 21
2.899926999999993
 31
0.0
  0
LINE
  5
2C34
330
BF7
100
AcDbEntity
  8
1
100
AcDbLine
 10
91.29062899999999
 20
2.183349999999995
 30
0.0
 11
91.13832499999999
 21
2.565239999999995
 31
0.0
  0
LINE
  5
2C35
330
BF7
100
AcDbEntity
  8
1
100
AcDbLine
 10
91.59641200000001
 20
1.425740999999995
 30
0.0
 11
91.29062899999999
 21
2.183349999999995
 31
0.0
  0
LINE
  5
2C36
330
BF7
100
AcDbEntity
  8
1
100
AcDbLine
 10
91.81718399999999
 20
0.8820580000000004
 30
0.0
 11
91.59641200000001
 21
1.425740999999995
 31
0.0
  0
LINE
  5
2C37
330
BF7
100
AcDbEntity
  8
1
100
AcDbLine
 10
90.55078800000002
 20
-1.663820000000001
 30
0.0
 11
90.54707000000002
 21
-1.592873000000004
 31
0.0
  0
LINE
  5
2C38
330
BF7
100
AcDbEntity
  8
1
100
AcDbLine
 10
90.571947
 20
-1.874289000000004
 30
0.0
 11
90.55078800000002
 21
-1.663820000000001
 31
0.0
  0
LINE
  5
2C39
330
BF7
100
AcDbEntity
  8
1
100
AcDbLine
 10
90.641832
 20
-2.192394000000003
 30
0.0
 11
90.571947
 21
-1.874289000000004
 31
0.0
  0
LINE
  5
2C3A
330
BF7
100
AcDbEntity
  8
1
100
AcDbLine
 10
90.74599199999999
 20
-2.435266000000002
 30
0.0
 11
90.641832
 21
-2.192394000000003
 31
0.0
  0
LINE
  5
2C3B
330
BF7
100
AcDbEntity
  8
1
100
AcDbLine
 10
90.88504600000002
 20
-2.613812000000002
 30
0.0
 11
90.74599199999999
 21
-2.435266000000002
 31
0.0
  0
LINE
  5
2C3C
330
BF7
100
AcDbEntity
  8
1
100
AcDbLine
 10
90.95003699999999
 20
-2.665953
 30
0.0
 11
90.88504600000002
 21
-2.613812000000002
 31
0.0
  0
LINE
  5
2C3D
330
BF7
100
AcDbEntity
  8
1
100
AcDbLine
 10
90.54707000000002
 20
-1.592873000000004
 30
0.0
 11
91.97489000000002
 21
-0.0280730000000062
 31
0.0
  0
LINE
  5
2C3E
330
BF7
100
AcDbEntity
  8
1
100
AcDbLine
 10
91.97489000000002
 20
-0.0280730000000062
 30
0.0
 11
91.999113
 21
0.0210669999999951
 31
0.0
  0
LINE
  5
2C3F
330
BF7
100
AcDbEntity
  8
1
100
AcDbLine
 10
91.999113
 20
0.0210669999999951
 30
0.0
 11
91.99996099999999
 21
0.0157349999999958
 31
0.0
  0
LINE
  5
2C40
330
BF7
100
AcDbEntity
  8
1
100
AcDbLine
 10
91.44389000000002
 20
-1.397469
 30
0.0
 11
91.455905
 21
-1.373873000000003
 31
0.0
  0
LINE
  5
2C41
330
BF7
100
AcDbEntity
  8
1
100
AcDbLine
 10
91.419957
 20
-1.438449000000002
 30
0.0
 11
91.44389000000002
 21
-1.397469
 31
0.0
  0
LINE
  5
2C42
330
BF7
100
AcDbEntity
  8
1
100
AcDbLine
 10
91.3348
 20
-1.538243000000004
 30
0.0
 11
91.419957
 21
-1.438449000000002
 31
0.0
  0
LINE
  5
2C43
330
BF7
100
AcDbEntity
  8
1
100
AcDbLine
 10
91.25341
 20
-1.579546999999999
 30
0.0
 11
91.3348
 21
-1.538243000000004
 31
0.0
  0
LINE
  5
2C44
330
BF7
100
AcDbEntity
  8
1
100
AcDbLine
 10
91.19128899999999
 20
-1.568868000000004
 30
0.0
 11
91.25341
 21
-1.579546999999999
 31
0.0
  0
LINE
  5
2C45
330
BF7
100
AcDbEntity
  8
1
100
AcDbLine
 10
91.150909
 20
-1.524615000000004
 30
0.0
 11
91.19128899999999
 21
-1.568868000000004
 31
0.0
  0
LINE
  5
2C46
330
BF7
100
AcDbEntity
  8
1
100
AcDbLine
 10
91.12910799999999
 20
-1.461298
 30
0.0
 11
91.150909
 21
-1.524615000000004
 31
0.0
  0
LINE
  5
2C47
330
BF7
100
AcDbEntity
  8
1
100
AcDbLine
 10
91.12245900000001
 20
-1.386080999999999
 30
0.0
 11
91.12910799999999
 21
-1.461298
 31
0.0
  0
LINE
  5
2C48
330
BF7
100
AcDbEntity
  8
1
100
AcDbLine
 10
91.12988300000001
 20
-1.299071000000004
 30
0.0
 11
91.12245900000001
 21
-1.386080999999999
 31
0.0
  0
LINE
  5
2C49
330
BF7
100
AcDbEntity
  8
1
100
AcDbLine
 10
91.15414300000001
 20
-1.198336000000004
 30
0.0
 11
91.12988300000001
 21
-1.299071000000004
 31
0.0
  0
LINE
  5
2C4A
330
BF7
100
AcDbEntity
  8
1
100
AcDbLine
 10
91.19144699999997
 20
-1.104958000000001
 30
0.0
 11
91.15414300000001
 21
-1.198336000000004
 31
0.0
  0
LINE
  5
2C4B
330
BF7
100
AcDbEntity
  8
1
100
AcDbLine
 10
91.24548900000002
 20
-1.014166000000003
 30
0.0
 11
91.19144699999997
 21
-1.104958000000001
 31
0.0
  0
LINE
  5
2C4C
330
BF7
100
AcDbEntity
  8
1
100
AcDbLine
 10
91.31809799999999
 20
-0.9376350000000035
 30
0.0
 11
91.24548900000002
 21
-1.014166000000003
 31
0.0
  0
LINE
  5
2C4D
330
BF7
100
AcDbEntity
  8
1
100
AcDbLine
 10
91.39970700000001
 20
-0.9013270000000019
 30
0.0
 11
91.31809799999999
 21
-0.9376350000000035
 31
0.0
  0
LINE
  5
2C4E
330
BF7
100
AcDbEntity
  8
1
100
AcDbLine
 10
91.45952599999999
 20
-0.9157800000000051
 30
0.0
 11
91.39970700000001
 21
-0.9013270000000019
 31
0.0
  0
LINE
  5
2C4F
330
BF7
100
AcDbEntity
  8
1
100
AcDbLine
 10
91.50380699999999
 20
-0.9732310000000019
 30
0.0
 11
91.45952599999999
 21
-0.9157800000000051
 31
0.0
  0
LINE
  5
2C50
330
BF7
100
AcDbEntity
  8
1
100
AcDbLine
 10
91.521114
 20
-1.038770000000003
 30
0.0
 11
91.50380699999999
 21
-0.9732310000000019
 31
0.0
  0
LINE
  5
2C51
330
BF7
100
AcDbEntity
  8
1
100
AcDbLine
 10
91.52420300000001
 20
-1.115304
 30
0.0
 11
91.521114
 21
-1.038770000000003
 31
0.0
  0
LINE
  5
2C52
330
BF7
100
AcDbEntity
  8
1
100
AcDbLine
 10
91.51278099999997
 20
-1.205712000000005
 30
0.0
 11
91.52420300000001
 21
-1.115304
 31
0.0
  0
LINE
  5
2C53
330
BF7
100
AcDbEntity
  8
1
100
AcDbLine
 10
91.496249
 20
-1.270827000000004
 30
0.0
 11
91.51278099999997
 21
-1.205712000000005
 31
0.0
  0
LINE
  5
2C54
330
BF7
100
AcDbEntity
  8
1
100
AcDbLine
 10
91.99996099999999
 20
0.0157349999999958
 30
0.0
 11
91.496249
 21
-1.270827000000004
 31
0.0
  0
LINE
  5
2C55
330
BF7
100
AcDbEntity
  8
1
100
AcDbLine
 10
91.99996099999999
 20
0.0157349999999958
 30
0.0
 11
91.99996099999999
 21
-0.0157350000000065
 31
0.0
  0
LINE
  5
2C56
330
BF7
100
AcDbEntity
  8
1
100
AcDbLine
 10
91.999113
 20
-0.0210669999999986
 30
0.0
 11
91.99996099999999
 21
-0.0157350000000065
 31
0.0
  0
LINE
  5
2C57
330
BF7
100
AcDbEntity
  8
1
100
AcDbLine
 10
91.999113
 20
-0.0210669999999986
 30
0.0
 11
91.97048100000001
 21
-0.1323820000000033
 31
0.0
  0
LINE
  5
2C58
330
BF7
100
AcDbEntity
  8
1
100
AcDbLine
 10
91.97048100000001
 20
-0.1323820000000033
 30
0.0
 11
91.81718399999999
 21
-0.8820580000000042
 31
0.0
  0
LINE
  5
2C59
330
BF7
100
AcDbEntity
  8
1
100
AcDbLine
 10
91.13832499999999
 20
-2.565237999999999
 30
0.0
 11
91.00609
 21
-2.899927000000004
 31
0.0
  0
LINE
  5
2C5A
330
BF7
100
AcDbEntity
  8
1
100
AcDbLine
 10
91.29062899999999
 20
-2.183348000000002
 30
0.0
 11
91.13832499999999
 21
-2.565237999999999
 31
0.0
  0
LINE
  5
2C5B
330
BF7
100
AcDbEntity
  8
1
100
AcDbLine
 10
91.59641200000001
 20
-1.425741000000002
 30
0.0
 11
91.29062899999999
 21
-2.183348000000002
 31
0.0
  0
LINE
  5
2C5C
330
BF7
100
AcDbEntity
  8
1
100
AcDbLine
 10
91.81718399999999
 20
-0.8820580000000042
 30
0.0
 11
91.59641200000001
 21
-1.425741000000002
 31
0.0
  0
LINE
  5
2C5D
330
BF7
100
AcDbEntity
  8
1
100
AcDbLine
 10
90.97475700000002
 20
-2.713397
 30
0.0
 11
90.97393299999998
 21
-2.711518000000004
 31
0.0
  0
LINE
  5
2C5E
330
BF7
100
AcDbEntity
  8
1
100
AcDbLine
 10
90.97492599999998
 20
-2.723943000000004
 30
0.0
 11
90.97475700000002
 21
-2.713397
 31
0.0
  0
LINE
  5
2C5F
330
BF7
100
AcDbEntity
  8
1
100
AcDbLine
 10
90.972129
 20
-2.740349000000004
 30
0.0
 11
90.97492599999998
 21
-2.723943000000004
 31
0.0
  0
LINE
  5
2C60
330
BF7
100
AcDbEntity
  8
1
100
AcDbLine
 10
90.966255
 20
-2.763659000000004
 30
0.0
 11
90.972129
 21
-2.740349000000004
 31
0.0
  0
LINE
  5
2C61
330
BF7
100
AcDbEntity
  8
1
100
AcDbLine
 10
90.95053400000001
 20
-2.813767000000001
 30
0.0
 11
90.966255
 21
-2.763659000000004
 31
0.0
  0
LINE
  5
2C62
330
BF7
100
AcDbEntity
  8
1
100
AcDbLine
 10
90.930937
 20
-2.867785000000001
 30
0.0
 11
90.95053400000001
 21
-2.813767000000001
 31
0.0
  0
LINE
  5
2C63
330
BF7
100
AcDbEntity
  8
1
100
AcDbLine
 10
90.96081600000003
 20
-2.689964000000001
 30
0.0
 11
90.95003699999999
 21
-2.665953
 31
0.0
  0
LINE
  5
2C64
330
BF7
100
AcDbEntity
  8
1
100
AcDbLine
 10
90.97393299999998
 20
-2.711518000000004
 30
0.0
 11
90.96081600000003
 21
-2.689964000000001
 31
0.0
  0
LINE
  5
2C65
330
BF7
100
AcDbEntity
  8
1
100
AcDbLine
 10
91.455905
 20
-1.373873000000003
 30
0.0
 11
90.95003699999999
 21
-2.665953
 31
0.0
  0
LINE
  5
2C66
330
BF7
100
AcDbEntity
  8
1
100
AcDbLine
 10
91.455905
 20
-1.373873000000003
 30
0.0
 11
91.496249
 21
-1.270827000000004
 31
0.0
  0
LINE
  5
2C67
330
BF7
100
AcDbEntity
  8
SK1
100
AcDbLine
 10
-35.35048199999999
 20
2.907227999999996
 30
0.0
 11
-35.35048199999999
 21
2.654244999999999
 31
0.0
  0
LINE
  5
2C68
330
BF7
100
AcDbEntity
  8
SK1
100
AcDbLine
 10
-35.35048199999999
 20
2.999711999999998
 30
0.0
 11
-35.35048199999999
 21
2.907227999999996
 31
0.0
  0
LINE
  5
2C69
330
BF7
100
AcDbEntity
  8
1
100
AcDbLine
 10
11.191111
 20
-0.9426760000000019
 30
0.0
 11
8.648242999999991
 21
-0.2242400000000053
 31
0.0
  0
LINE
  5
2C6A
330
BF7
100
AcDbEntity
  8
1
100
AcDbLine
 10
13.783219
 20
-1.496588
 30
0.0
 11
11.191111
 21
-0.9426760000000019
 31
0.0
  0
LINE
  5
2C6B
330
BF7
100
AcDbEntity
  8
1
100
AcDbLine
 10
82.75865199999998
 20
-1.885812000000004
 30
0.0
 11
85.68512100000003
 21
-1.534698000000002
 31
0.0
  0
LINE
  5
2C6C
330
BF7
100
AcDbEntity
  8
1
100
AcDbLine
 10
80.730591
 20
-1.767174999999999
 30
0.0
 11
82.75865199999998
 21
-1.885812000000004
 31
0.0
  0
LINE
  5
2C6D
330
BF7
100
AcDbEntity
  8
1
100
AcDbLine
 10
78.701863
 20
-1.383262000000004
 30
0.0
 11
80.730591
 21
-1.767174999999999
 31
0.0
  0
LINE
  5
2C6E
330
BF7
100
AcDbEntity
  8
1
100
AcDbLine
 10
76.67246900000002
 20
-0.7916170000000024
 30
0.0
 11
78.701863
 21
-1.383262000000004
 31
0.0
  0
LINE
  5
2C6F
330
BF7
100
AcDbEntity
  8
1
100
AcDbLine
 10
74.77994899999998
 20
-0.1290300000000002
 30
0.0
 11
76.67246900000002
 21
-0.7916170000000024
 31
0.0
  0
LINE
  5
2C70
330
BF7
100
AcDbEntity
  8
1
100
AcDbLine
 10
64.05067399999999
 20
1.700051999999995
 30
0.0
 11
64.292011
 21
1.744010999999995
 31
0.0
  0
LINE
  5
2C71
330
BF7
100
AcDbEntity
  8
1
100
AcDbLine
 10
50.299382
 20
-1.880975000000002
 30
0.0
 11
53.03134899999999
 21
-1.528257000000003
 31
0.0
  0
LINE
  5
2C72
330
BF7
100
AcDbEntity
  8
1
100
AcDbLine
 10
48.270327
 20
-1.795836000000004
 30
0.0
 11
50.299382
 21
-1.880975000000002
 31
0.0
  0
LINE
  5
2C73
330
BF7
100
AcDbEntity
  8
1
100
AcDbLine
 10
46.24185299999999
 20
-1.440880999999999
 30
0.0
 11
48.270327
 21
-1.795836000000004
 31
0.0
  0
LINE
  5
2C74
330
BF7
100
AcDbEntity
  8
1
100
AcDbLine
 10
44.21203499999999
 20
-0.8696370000000044
 30
0.0
 11
46.24185299999999
 21
-1.440880999999999
 31
0.0
  0
LINE
  5
2C75
330
BF7
100
AcDbEntity
  8
1
100
AcDbLine
 10
42.184482
 20
-0.1683870000000027
 30
0.0
 11
44.21203499999999
 21
-0.8696370000000044
 31
0.0
  0
LINE
  5
2C76
330
BF7
100
AcDbEntity
  8
1
100
AcDbLine
 10
42.018008
 20
-0.1087550000000021
 30
0.0
 11
42.184482
 21
-0.1683870000000027
 31
0.0
  0
LINE
  5
2C77
330
BF7
100
AcDbEntity
  8
1
100
AcDbLine
 10
17.83986900000001
 20
-1.872300000000002
 30
0.0
 11
20.303872
 21
-1.540923000000002
 31
0.0
  0
LINE
  5
2C78
330
BF7
100
AcDbEntity
  8
1
100
AcDbLine
 10
15.81034199999999
 20
-1.820501000000003
 30
0.0
 11
17.83986900000001
 21
-1.872300000000002
 31
0.0
  0
LINE
  5
2C79
330
BF7
100
AcDbEntity
  8
1
100
AcDbLine
 10
13.783219
 20
-1.496588
 30
0.0
 11
15.81034199999999
 21
-1.820501000000003
 31
0.0
  0
LINE
  5
2C7A
330
BF7
100
AcDbEntity
  8
1
100
AcDbLine
 10
16.499199
 20
-2.754537000000001
 30
0.0
 11
14.86735799999999
 21
-2.604875000000002
 31
0.0
  0
LINE
  5
2C7B
330
BF7
100
AcDbEntity
  8
1
100
AcDbLine
 10
18.424784
 20
-2.586179
 30
0.0
 11
16.499199
 21
-2.754537000000001
 31
0.0
  0
LINE
  5
2C7C
330
BF7
100
AcDbEntity
  8
1
100
AcDbLine
 10
20.29606
 20
-2.086611000000003
 30
0.0
 11
18.424784
 21
-2.586179
 31
0.0
  0
LINE
  5
2C7D
330
BF7
100
AcDbEntity
  8
1
100
AcDbLine
 10
20.94760100000002
 20
-1.818768000000002
 30
0.0
 11
20.29606
 21
-2.086611000000003
 31
0.0
  0
LINE
  5
2C7E
330
BF7
100
AcDbEntity
  8
1
100
AcDbLine
 10
35.48341400000001
 20
2.433322999999997
 30
0.0
 11
32.94508800000001
 21
2.712459999999995
 31
0.0
  0
LINE
  5
2C7F
330
BF7
100
AcDbEntity
  8
1
100
AcDbLine
 10
37.40909600000004
 20
1.801453999999995
 30
0.0
 11
35.48341400000001
 21
2.433322999999997
 31
0.0
  0
LINE
  5
2C80
330
BF7
100
AcDbEntity
  8
1
100
AcDbLine
 10
39.280554
 20
0.952816999999996
 30
0.0
 11
37.40909600000004
 21
1.801453999999995
 31
0.0
  0
LINE
  5
2C81
330
BF7
100
AcDbEntity
  8
1
100
AcDbLine
 10
41.206272
 20
-0.0466280000000055
 30
0.0
 11
39.280554
 21
0.952816999999996
 31
0.0
  0
LINE
  5
2C82
330
BF7
100
AcDbEntity
  8
1
100
AcDbLine
 10
43.077863
 20
-1.012851000000001
 30
0.0
 11
41.206272
 21
-0.0466280000000055
 31
0.0
  0
LINE
  5
2C83
330
BF7
100
AcDbEntity
  8
1
100
AcDbLine
 10
45.00323
 20
-1.870843000000004
 30
0.0
 11
43.077863
 21
-1.012851000000001
 31
0.0
  0
LINE
  5
2C84
330
BF7
100
AcDbEntity
  8
1
100
AcDbLine
 10
46.874518
 20
-2.462712999999999
 30
0.0
 11
45.00323
 21
-1.870843000000004
 31
0.0
  0
LINE
  5
2C85
330
BF7
100
AcDbEntity
  8
1
100
AcDbLine
 10
48.800236
 20
-2.742645000000003
 30
0.0
 11
46.874518
 21
-2.462712999999999
 31
0.0
  0
LINE
  5
2C86
330
BF7
100
AcDbEntity
  8
1
100
AcDbLine
 10
50.67182799999999
 20
-2.658945000000001
 30
0.0
 11
48.800236
 21
-2.742645000000003
 31
0.0
  0
LINE
  5
2C87
330
BF7
100
AcDbEntity
  8
1
100
AcDbLine
 10
52.59734
 20
-2.218160000000001
 30
0.0
 11
50.67182799999999
 21
-2.658945000000001
 31
0.0
  0
LINE
  5
2C88
330
BF7
100
AcDbEntity
  8
1
100
AcDbLine
 10
53.64664600000002
 20
-1.816310000000001
 30
0.0
 11
52.59734
 21
-2.218160000000001
 31
0.0
  0
LINE
  5
2C89
330
BF7
100
AcDbEntity
  8
1
100
AcDbLine
 10
67.78585099999999
 20
2.524816999999995
 30
0.0
 11
65.64524699999998
 21
2.737034999999995
 31
0.0
  0
LINE
  5
2C8A
330
BF7
100
AcDbEntity
  8
1
100
AcDbLine
 10
69.657466
 20
1.975355999999995
 30
0.0
 11
67.78585099999999
 21
2.524816999999995
 31
0.0
  0
LINE
  5
2C8B
330
BF7
100
AcDbEntity
  8
1
100
AcDbLine
 10
71.58285699999997
 20
1.147320999999994
 30
0.0
 11
69.657466
 21
1.975355999999995
 31
0.0
  0
LINE
  5
2C8C
330
BF7
100
AcDbEntity
  8
1
100
AcDbLine
 10
73.454036
 20
0.1927009999999996
 30
0.0
 11
71.58285699999997
 21
1.147320999999994
 31
0.0
  0
LINE
  5
2C8D
330
BF7
100
AcDbEntity
  8
1
100
AcDbLine
 10
75.37944000000002
 20
-0.814054000000002
 30
0.0
 11
73.454036
 21
0.1927009999999996
 31
0.0
  0
LINE
  5
2C8E
330
BF7
100
AcDbEntity
  8
1
100
AcDbLine
 10
77.25060699999997
 20
-1.688033000000004
 30
0.0
 11
75.37944000000002
 21
-0.814054000000002
 31
0.0
  0
LINE
  5
2C8F
330
BF7
100
AcDbEntity
  8
1
100
AcDbLine
 10
79.17552599999997
 20
-2.360948000000004
 30
0.0
 11
77.25060699999997
 21
-1.688033000000004
 31
0.0
  0
LINE
  5
2C90
330
BF7
100
AcDbEntity
  8
1
100
AcDbLine
 10
81.04625699999997
 20
-2.709500000000001
 30
0.0
 11
79.17552599999997
 21
-2.360948000000004
 31
0.0
  0
LINE
  5
2C91
330
BF7
100
AcDbEntity
  8
1
100
AcDbLine
 10
82.95460700000003
 20
-2.708129000000003
 30
0.0
 11
81.04625699999997
 21
-2.709500000000001
 31
0.0
  0
LINE
  5
2C92
330
BF7
100
AcDbEntity
  8
1
100
AcDbLine
 10
84.810102
 20
-2.361246000000003
 30
0.0
 11
82.95460700000003
 21
-2.708129000000003
 31
0.0
  0
LINE
  5
2C93
330
BF7
100
AcDbEntity
  8
1
100
AcDbLine
 10
86.36751600000001
 20
-1.817832000000002
 30
0.0
 11
84.810102
 21
-2.361246000000003
 31
0.0
  0
LINE
  5
2C94
330
BF7
100
AcDbEntity
  8
1
100
AcDbLine
 10
13.41522400000001
 20
-2.368465000000004
 30
0.0
 11
13.041803
 21
-2.310039000000001
 31
0.0
  0
LINE
  5
2C95
330
BF7
100
AcDbEntity
  8
1
100
AcDbLine
 10
13.853999
 20
-2.437855000000002
 30
0.0
 11
13.41522400000001
 21
-2.368465000000004
 31
0.0
  0
LINE
  5
2C96
330
BF7
100
AcDbEntity
  8
1
100
AcDbLine
 10
14.36274299999999
 20
-2.520097000000002
 30
0.0
 11
13.853999
 21
-2.437855000000002
 31
0.0
  0
LINE
  5
2C97
330
BF7
100
AcDbEntity
  8
1
100
AcDbLine
 10
14.86735799999999
 20
-2.604875000000002
 30
0.0
 11
14.36274299999999
 21
-2.520097000000002
 31
0.0
  0
LINE
  5
2C98
330
BF7
100
AcDbEntity
  8
1
100
AcDbLine
 10
66.52949600000003
 20
-1.883965000000003
 30
0.0
 11
69.365962
 21
-1.529552999999999
 31
0.0
  0
LINE
  5
2C99
330
BF7
100
AcDbEntity
  8
1
100
AcDbLine
 10
64.49921700000001
 20
-1.781754000000002
 30
0.0
 11
66.52949600000003
 21
-1.883965000000003
 31
0.0
  0
LINE
  5
2C9A
330
BF7
100
AcDbEntity
  8
1
100
AcDbLine
 10
62.47122799999999
 20
-1.412346000000002
 30
0.0
 11
64.49921700000001
 21
-1.781754000000002
 31
0.0
  0
LINE
  5
2C9B
330
BF7
100
AcDbEntity
  8
1
100
AcDbLine
 10
60.442464
 20
-0.830880000000004
 30
0.0
 11
62.47122799999999
 21
-1.412346000000002
 31
0.0
  0
LINE
  5
2C9C
330
BF7
100
AcDbEntity
  8
1
100
AcDbLine
 10
58.41459600000002
 20
-0.1250940000000007
 30
0.0
 11
60.442464
 21
-0.830880000000004
 31
0.0
  0
LINE
  5
2C9D
330
BF7
100
AcDbEntity
  8
1
100
AcDbLine
 10
58.21470500000001
 20
-0.05368
 30
0.0
 11
58.41459600000002
 21
-0.1250940000000007
 31
0.0
  0
LINE
  5
2C9E
330
BF7
100
AcDbEntity
  8
1
100
AcDbLine
 10
34.069547
 20
-1.877206
 30
0.0
 11
36.64561300000001
 21
-1.539149000000004
 31
0.0
  0
LINE
  5
2C9F
330
BF7
100
AcDbEntity
  8
1
100
AcDbLine
 10
32.041158
 20
-1.808666000000002
 30
0.0
 11
34.069547
 21
-1.877206
 31
0.0
  0
LINE
  5
2CA0
330
BF7
100
AcDbEntity
  8
1
100
AcDbLine
 10
30.01245399999999
 20
-1.468828000000002
 30
0.0
 11
32.041158
 21
-1.808666000000002
 31
0.0
  0
LINE
  5
2CA1
330
BF7
100
AcDbEntity
  8
1
100
AcDbLine
 10
27.98276900000001
 20
-0.9081670000000023
 30
0.0
 11
30.01245399999999
 21
-1.468828000000002
 31
0.0
  0
LINE
  5
2CA2
330
BF7
100
AcDbEntity
  8
1
100
AcDbLine
 10
26.004372
 20
-0.2288420000000002
 30
0.0
 11
27.98276900000001
 21
-0.9081670000000023
 31
0.0
  0
LINE
  5
2CA3
330
BF7
100
AcDbEntity
  8
1
100
AcDbLine
 10
88.864396
 20
0.7018449999999988
 30
0.0
 11
88.79646200000001
 21
0.7178629999999977
 31
0.0
  0
LINE
  5
2CA4
330
BF7
100
AcDbEntity
  8
1
100
AcDbLine
 10
89.10224500000003
 20
0.6378649999999944
 30
0.0
 11
88.864396
 21
0.7018449999999988
 31
0.0
  0
LINE
  5
2CA5
330
BF7
100
AcDbEntity
  8
1
100
AcDbLine
 10
89.34485399999998
 20
0.5589729999999982
 30
0.0
 11
89.10224500000003
 21
0.6378649999999944
 31
0.0
  0
LINE
  5
2CA6
330
BF7
100
AcDbEntity
  8
1
100
AcDbLine
 10
89.58702700000001
 20
0.4641359999999965
 30
0.0
 11
89.34485399999998
 21
0.5589729999999982
 31
0.0
  0
LINE
  5
2CA7
330
BF7
100
AcDbEntity
  8
1
100
AcDbLine
 10
89.728103
 20
0.3994559999999971
 30
0.0
 11
89.58702700000001
 21
0.4641359999999965
 31
0.0
  0
LINE
  5
2CA8
330
BF7
100
AcDbEntity
  8
1
100
AcDbLine
 10
89.86769
 20
0.325217999999996
 30
0.0
 11
89.728103
 21
0.3994559999999971
 31
0.0
  0
LINE
  5
2CA9
330
BF7
100
AcDbEntity
  8
1
100
AcDbLine
 10
20.296175
 20
2.086571999999995
 30
0.0
 11
16.516391
 21
2.753024999999995
 31
0.0
  0
LINE
  5
2CAA
330
BF7
100
AcDbEntity
  8
1
100
AcDbLine
 10
22.22176000000001
 20
1.294964999999994
 30
0.0
 11
20.296175
 21
2.086571999999995
 31
0.0
  0
LINE
  5
2CAB
330
BF7
100
AcDbEntity
  8
1
100
AcDbLine
 10
24.093012
 20
0.3564389999999982
 30
0.0
 11
22.22176000000001
 21
1.294964999999994
 31
0.0
  0
LINE
  5
2CAC
330
BF7
100
AcDbEntity
  8
1
100
AcDbLine
 10
26.01849400000001
 20
-0.6553820000000031
 30
0.0
 11
24.093012
 21
0.3564389999999982
 31
0.0
  0
LINE
  5
2CAD
330
BF7
100
AcDbEntity
  8
1
100
AcDbLine
 10
27.88965500000001
 20
-1.555054
 30
0.0
 11
26.01849400000001
 21
-0.6553820000000031
 31
0.0
  0
LINE
  5
2CAE
330
BF7
100
AcDbEntity
  8
1
100
AcDbLine
 10
29.81522799999999
 20
-2.272115000000002
 30
0.0
 11
27.88965500000001
 21
-1.555054
 31
0.0
  0
LINE
  5
2CAF
330
BF7
100
AcDbEntity
  8
1
100
AcDbLine
 10
31.68646800000001
 20
-2.675056
 30
0.0
 11
29.81522799999999
 21
-2.272115000000002
 31
0.0
  0
LINE
  5
2CB0
330
BF7
100
AcDbEntity
  8
1
100
AcDbLine
 10
33.612138
 20
-2.732279000000001
 30
0.0
 11
31.68646800000001
 21
-2.675056
 31
0.0
  0
LINE
  5
2CB1
330
BF7
100
AcDbEntity
  8
1
100
AcDbLine
 10
35.483499
 20
-2.433298000000002
 30
0.0
 11
33.612138
 21
-2.732279000000001
 31
0.0
  0
LINE
  5
2CB2
330
BF7
100
AcDbEntity
  8
1
100
AcDbLine
 10
37.33469400000001
 20
-1.825859000000004
 30
0.0
 11
35.483499
 21
-2.433298000000002
 31
0.0
  0
LINE
  5
2CB3
330
BF7
100
AcDbEntity
  8
1
100
AcDbLine
 10
52.59736400000001
 20
2.218152999999991
 30
0.0
 11
49.291703
 21
2.720677999999995
 31
0.0
  0
LINE
  5
2CB4
330
BF7
100
AcDbEntity
  8
1
100
AcDbLine
 10
54.468761
 20
1.501465999999995
 30
0.0
 11
52.59736400000001
 21
2.218152999999991
 31
0.0
  0
LINE
  5
2CB5
330
BF7
100
AcDbEntity
  8
1
100
AcDbLine
 10
56.39434600000001
 20
0.5644349999999962
 30
0.0
 11
54.468761
 21
1.501465999999995
 31
0.0
  0
LINE
  5
2CB6
330
BF7
100
AcDbEntity
  8
1
100
AcDbLine
 10
58.26579200000001
 20
-0.4204250000000016
 30
0.0
 11
56.39434600000001
 21
0.5644349999999962
 31
0.0
  0
LINE
  5
2CB7
330
BF7
100
AcDbEntity
  8
1
100
AcDbLine
 10
60.191474
 20
-1.376683000000002
 30
0.0
 11
58.26579200000001
 21
-0.4204250000000016
 31
0.0
  0
LINE
  5
2CB8
330
BF7
100
AcDbEntity
  8
1
100
AcDbLine
 10
62.06299300000001
 20
-2.128334000000004
 30
0.0
 11
60.191474
 21
-1.376683000000002
 31
0.0
  0
LINE
  5
2CB9
330
BF7
100
AcDbEntity
  8
1
100
AcDbLine
 10
63.988711
 20
-2.616934999999999
 30
0.0
 11
62.06299300000001
 21
-2.128334000000004
 31
0.0
  0
LINE
  5
2CBA
330
BF7
100
AcDbEntity
  8
1
100
AcDbLine
 10
65.860241
 20
-2.752601000000001
 30
0.0
 11
63.988711
 21
-2.616934999999999
 31
0.0
  0
LINE
  5
2CBB
330
BF7
100
AcDbEntity
  8
1
100
AcDbLine
 10
67.785887
 20
-2.524802000000002
 30
0.0
 11
65.860241
 21
-2.752601000000001
 31
0.0
  0
LINE
  5
2CBC
330
BF7
100
AcDbEntity
  8
1
100
AcDbLine
 10
69.65732100000002
 20
-1.975406000000003
 30
0.0
 11
67.785887
 21
-2.524802000000002
 31
0.0
  0
LINE
  5
2CBD
330
BF7
100
AcDbEntity
  8
1
100
AcDbLine
 10
70.016359
 20
-1.821002000000003
 30
0.0
 11
69.65732100000002
 21
-1.975406000000003
 31
0.0
  0
LINE
  5
2CBE
330
BF7
100
AcDbEntity
  8
1
100
AcDbLine
 10
84.810102
 20
2.361245999999994
 30
0.0
 11
81.99186299999999
 21
2.708820999999993
 31
0.0
  0
LINE
  5
2CBF
330
BF7
100
AcDbEntity
  8
1
100
AcDbLine
 10
86.71845199999998
 20
1.695382999999999
 30
0.0
 11
84.810102
 21
2.361245999999994
 31
0.0
  0
LINE
  5
2CC0
330
BF7
100
AcDbEntity
  8
1
100
AcDbLine
 10
88.573971
 20
0.8309069999999998
 30
0.0
 11
86.71845199999998
 21
1.695382999999999
 31
0.0
  0
LINE
  5
2CC1
330
BF7
100
AcDbEntity
  8
1
100
AcDbLine
 10
88.79646200000001
 20
0.7178629999999977
 30
0.0
 11
88.573971
 21
0.8309069999999998
 31
0.0
  0
LINE
  5
2CC2
330
BF7
100
AcDbEntity
  8
1
100
AcDbLine
 10
90.66823499999999
 20
-2.842382000000004
 30
0.0
 11
90.930937
 21
-2.867785000000001
 31
0.0
  0
LINE
  5
2CC3
330
BF7
100
AcDbEntity
  8
1
100
AcDbLine
 10
89.79029699999998
 20
-2.705459000000004
 30
0.0
 11
90.66823499999999
 21
-2.842382000000004
 31
0.0
  0
LINE
  5
2CC4
330
BF7
100
AcDbEntity
  8
1
100
AcDbLine
 10
88.99945399999998
 20
-2.51621
 30
0.0
 11
89.79029699999998
 21
-2.705459000000004
 31
0.0
  0
LINE
  5
2CC5
330
BF7
100
AcDbEntity
  8
1
100
AcDbLine
 10
88.20860999999998
 20
-2.268969000000002
 30
0.0
 11
88.99945399999998
 21
-2.51621
 31
0.0
  0
LINE
  5
2CC6
330
BF7
100
AcDbEntity
  8
1
100
AcDbLine
 10
87.417767
 20
-1.969437000000002
 30
0.0
 11
88.20860999999998
 21
-2.268969000000002
 31
0.0
  0
LINE
  5
2CC7
330
BF7
100
AcDbEntity
  8
1
100
AcDbLine
 10
86.626924
 20
-1.624516000000003
 30
0.0
 11
87.417767
 21
-1.969437000000002
 31
0.0
  0
LINE
  5
2CC8
330
BF7
100
AcDbEntity
  8
1
100
AcDbLine
 10
85.83608100000002
 20
-1.242156000000001
 30
0.0
 11
86.626924
 21
-1.624516000000003
 31
0.0
  0
LINE
  5
2CC9
330
BF7
100
AcDbEntity
  8
1
100
AcDbLine
 10
85.04523800000002
 20
-0.8311640000000044
 30
0.0
 11
85.83608100000002
 21
-1.242156000000001
 31
0.0
  0
LINE
  5
2CCA
330
BF7
100
AcDbEntity
  8
1
100
AcDbLine
 10
84.25439400000001
 20
-0.4010190000000017
 30
0.0
 11
85.04523800000002
 21
-0.8311640000000044
 31
0.0
  0
LINE
  5
2CCB
330
BF7
100
AcDbEntity
  8
1
100
AcDbLine
 10
83.463551
 20
0.0383649999999953
 30
0.0
 11
84.25439400000001
 21
-0.4010190000000017
 31
0.0
  0
LINE
  5
2CCC
330
BF7
100
AcDbEntity
  8
1
100
AcDbLine
 10
83.06839600000001
 20
0.2582129999999978
 30
0.0
 11
83.463551
 21
0.0383649999999953
 31
0.0
  0
LINE
  5
2CCD
330
BF7
100
AcDbEntity
  8
1
100
AcDbLine
 10
81.48236199999997
 20
1.113020999999995
 30
0.0
 11
83.06839600000001
 21
0.2582129999999978
 31
0.0
  0
LINE
  5
2CCE
330
BF7
100
AcDbEntity
  8
1
100
AcDbLine
 10
80.691518
 20
1.505556999999999
 30
0.0
 11
81.48236199999997
 21
1.113020999999995
 31
0.0
  0
LINE
  5
2CCF
330
BF7
100
AcDbEntity
  8
1
100
AcDbLine
 10
79.90067500000002
 20
1.863398999999995
 30
0.0
 11
80.691518
 21
1.505556999999999
 31
0.0
  0
LINE
  5
2CD0
330
BF7
100
AcDbEntity
  8
1
100
AcDbLine
 10
79.10983200000003
 20
2.178292999999996
 30
0.0
 11
79.90067500000002
 21
1.863398999999995
 31
0.0
  0
LINE
  5
2CD1
330
BF7
100
AcDbEntity
  8
1
100
AcDbLine
 10
78.31898900000002
 20
2.442987999999999
 30
0.0
 11
79.10983200000003
 21
2.178292999999996
 31
0.0
  0
LINE
  5
2CD2
330
BF7
100
AcDbEntity
  8
1
100
AcDbLine
 10
77.52814600000002
 20
2.651374999999998
 30
0.0
 11
78.31898900000002
 21
2.442987999999999
 31
0.0
  0
LINE
  5
2CD3
330
BF7
100
AcDbEntity
  8
1
100
AcDbLine
 10
76.73730299999999
 20
2.798658999999993
 30
0.0
 11
77.52814600000002
 21
2.651374999999998
 31
0.0
  0
LINE
  5
2CD4
330
BF7
100
AcDbEntity
  8
1
100
AcDbLine
 10
75.94645899999997
 20
2.881444999999999
 30
0.0
 11
76.73730299999999
 21
2.798658999999993
 31
0.0
  0
LINE
  5
2CD5
330
BF7
100
AcDbEntity
  8
1
100
AcDbLine
 10
75.356718
 20
2.893656999999997
 30
0.0
 11
75.94645899999997
 21
2.881444999999999
 31
0.0
  0
LINE
  5
2CD6
330
BF7
100
AcDbEntity
  8
1
100
AcDbLine
 10
59.73444
 20
-2.871748000000001
 30
0.0
 11
60.63770399999999
 21
-2.755037000000004
 31
0.0
  0
LINE
  5
2CD7
330
BF7
100
AcDbEntity
  8
1
100
AcDbLine
 10
58.94359699999998
 20
-2.899782000000001
 30
0.0
 11
59.73444
 21
-2.871748000000001
 31
0.0
  0
LINE
  5
2CD8
330
BF7
100
AcDbEntity
  8
1
100
AcDbLine
 10
58.15275399999999
 20
-2.860985000000001
 30
0.0
 11
58.94359699999998
 21
-2.899782000000001
 31
0.0
  0
LINE
  5
2CD9
330
BF7
100
AcDbEntity
  8
1
100
AcDbLine
 10
57.36191099999999
 20
-2.756253
 30
0.0
 11
58.15275399999999
 21
-2.860985000000001
 31
0.0
  0
LINE
  5
2CDA
330
BF7
100
AcDbEntity
  8
1
100
AcDbLine
 10
56.57106800000001
 20
-2.587998000000002
 30
0.0
 11
57.36191099999999
 21
-2.756253
 31
0.0
  0
LINE
  5
2CDB
330
BF7
100
AcDbEntity
  8
1
100
AcDbLine
 10
55.780224
 20
-2.360097000000001
 30
0.0
 11
56.57106800000001
 21
-2.587998000000002
 31
0.0
  0
LINE
  5
2CDC
330
BF7
100
AcDbEntity
  8
1
100
AcDbLine
 10
54.98938100000001
 20
-2.077803000000002
 30
0.0
 11
55.780224
 21
-2.360097000000001
 31
0.0
  0
LINE
  5
2CDD
330
BF7
100
AcDbEntity
  8
1
100
AcDbLine
 10
54.19853800000002
 20
-1.747624000000004
 30
0.0
 11
54.98938100000001
 21
-2.077803000000002
 31
0.0
  0
LINE
  5
2CDE
330
BF7
100
AcDbEntity
  8
1
100
AcDbLine
 10
53.40769500000002
 20
-1.377167000000002
 30
0.0
 11
54.19853800000002
 21
-1.747624000000004
 31
0.0
  0
LINE
  5
2CDF
330
BF7
100
AcDbEntity
  8
1
100
AcDbLine
 10
52.61685199999998
 20
-0.974972000000001
 30
0.0
 11
53.40769500000002
 21
-1.377167000000002
 31
0.0
  0
LINE
  5
2CE0
330
BF7
100
AcDbEntity
  8
1
100
AcDbLine
 10
51.826009
 20
-0.5503070000000037
 30
0.0
 11
52.61685199999998
 21
-0.974972000000001
 31
0.0
  0
LINE
  5
2CE1
330
BF7
100
AcDbEntity
  8
1
100
AcDbLine
 10
51.03516500000001
 20
-0.1129580000000026
 30
0.0
 11
51.826009
 21
-0.5503070000000037
 31
0.0
  0
LINE
  5
2CE2
330
BF7
100
AcDbEntity
  8
1
100
AcDbLine
 10
50.24432199999999
 20
0.3269919999999971
 30
0.0
 11
51.03516500000001
 21
-0.1129580000000026
 31
0.0
  0
LINE
  5
2CE3
330
BF7
100
AcDbEntity
  8
1
100
AcDbLine
 10
49.45347899999998
 20
0.7594089999999945
 30
0.0
 11
50.24432199999999
 21
0.3269919999999971
 31
0.0
  0
LINE
  5
2CE4
330
BF7
100
AcDbEntity
  8
1
100
AcDbLine
 10
48.66263599999999
 20
1.174323999999998
 30
0.0
 11
49.45347899999998
 21
0.7594089999999945
 31
0.0
  0
LINE
  5
2CE5
330
BF7
100
AcDbEntity
  8
1
100
AcDbLine
 10
47.871793
 20
1.562172999999995
 30
0.0
 11
48.66263599999999
 21
1.174323999999998
 31
0.0
  0
LINE
  5
2CE6
330
BF7
100
AcDbEntity
  8
1
100
AcDbLine
 10
47.08094899999998
 20
1.91402
 30
0.0
 11
47.871793
 21
1.562172999999995
 31
0.0
  0
LINE
  5
2CE7
330
BF7
100
AcDbEntity
  8
1
100
AcDbLine
 10
46.29010599999999
 20
2.221752999999996
 30
0.0
 11
47.08094899999998
 21
1.91402
 31
0.0
  0
LINE
  5
2CE8
330
BF7
100
AcDbEntity
  8
1
100
AcDbLine
 10
45.499263
 20
2.478283999999995
 30
0.0
 11
46.29010599999999
 21
2.221752999999996
 31
0.0
  0
LINE
  5
2CE9
330
BF7
100
AcDbEntity
  8
1
100
AcDbLine
 10
44.70842000000001
 20
2.677696999999993
 30
0.0
 11
45.499263
 21
2.478283999999995
 31
0.0
  0
LINE
  5
2CEA
330
BF7
100
AcDbEntity
  8
1
100
AcDbLine
 10
43.91757699999998
 20
2.815399999999995
 30
0.0
 11
44.70842000000001
 21
2.677696999999993
 31
0.0
  0
LINE
  5
2CEB
330
BF7
100
AcDbEntity
  8
1
100
AcDbLine
 10
43.126733
 20
2.888214999999995
 30
0.0
 11
43.91757699999998
 21
2.815399999999995
 31
0.0
  0
LINE
  5
2CEC
330
BF7
100
AcDbEntity
  8
1
100
AcDbLine
 10
42.658484
 20
2.891918999999997
 30
0.0
 11
43.126733
 21
2.888214999999995
 31
0.0
  0
LINE
  5
2CED
330
BF7
100
AcDbEntity
  8
1
100
AcDbLine
 10
26.914721
 20
-2.880276000000001
 30
0.0
 11
27.92396100000001
 21
-2.754901000000001
 31
0.0
  0
LINE
  5
2CEE
330
BF7
100
AcDbEntity
  8
1
100
AcDbLine
 10
26.12387700000001
 20
-2.898197000000001
 30
0.0
 11
26.914721
 21
-2.880276000000001
 31
0.0
  0
LINE
  5
2CEF
330
BF7
100
AcDbEntity
  8
1
100
AcDbLine
 10
25.333034
 20
-2.849323000000001
 30
0.0
 11
26.12387700000001
 21
-2.898197000000001
 31
0.0
  0
LINE
  5
2CF0
330
BF7
100
AcDbEntity
  8
1
100
AcDbLine
 10
24.542191
 20
-2.734782000000001
 30
0.0
 11
25.333034
 21
-2.849323000000001
 31
0.0
  0
LINE
  5
2CF1
330
BF7
100
AcDbEntity
  8
1
100
AcDbLine
 10
23.75134800000001
 20
-2.557212999999999
 30
0.0
 11
24.542191
 21
-2.734782000000001
 31
0.0
  0
LINE
  5
2CF2
330
BF7
100
AcDbEntity
  8
1
100
AcDbLine
 10
22.960505
 20
-2.320708000000001
 30
0.0
 11
23.75134800000001
 21
-2.557212999999999
 31
0.0
  0
LINE
  5
2CF3
330
BF7
100
AcDbEntity
  8
1
100
AcDbLine
 10
22.169661
 20
-2.030718999999999
 30
0.0
 11
22.960505
 21
-2.320708000000001
 31
0.0
  0
LINE
  5
2CF4
330
BF7
100
AcDbEntity
  8
1
100
AcDbLine
 10
21.378818
 20
-1.693928000000003
 30
0.0
 11
22.169661
 21
-2.030718999999999
 31
0.0
  0
LINE
  5
2CF5
330
BF7
100
AcDbEntity
  8
1
100
AcDbLine
 10
20.587975
 20
-1.318099000000003
 30
0.0
 11
21.378818
 21
-1.693928000000003
 31
0.0
  0
LINE
  5
2CF6
330
BF7
100
AcDbEntity
  8
1
100
AcDbLine
 10
19.797132
 20
-0.9118920000000015
 30
0.0
 11
20.587975
 21
-1.318099000000003
 31
0.0
  0
LINE
  5
2CF7
330
BF7
100
AcDbEntity
  8
1
100
AcDbLine
 10
19.00628900000001
 20
-0.4846680000000029
 30
0.0
 11
19.797132
 21
-0.9118920000000015
 31
0.0
  0
LINE
  5
2CF8
330
BF7
100
AcDbEntity
  8
1
100
AcDbLine
 10
18.215446
 20
-0.0462710000000044
 30
0.0
 11
19.00628900000001
 21
-0.4846680000000029
 31
0.0
  0
LINE
  5
2CF9
330
BF7
100
AcDbEntity
  8
1
100
AcDbLine
 10
17.42460200000001
 20
0.3931889999999996
 30
0.0
 11
18.215446
 21
-0.0462710000000044
 31
0.0
  0
LINE
  5
2CFA
330
BF7
100
AcDbEntity
  8
1
100
AcDbLine
 10
16.633759
 20
0.8235859999999949
 30
0.0
 11
17.42460200000001
 21
0.3931889999999996
 31
0.0
  0
LINE
  5
2CFB
330
BF7
100
AcDbEntity
  8
1
100
AcDbLine
 10
15.842916
 20
1.235003999999995
 30
0.0
 11
16.633759
 21
0.8235859999999949
 31
0.0
  0
LINE
  5
2CFC
330
BF7
100
AcDbEntity
  8
1
100
AcDbLine
 10
15.05207300000001
 20
1.617958999999995
 30
0.0
 11
15.842916
 21
1.235003999999995
 31
0.0
  0
LINE
  5
2CFD
330
BF7
100
AcDbEntity
  8
1
100
AcDbLine
 10
14.26123
 20
1.963625999999995
 30
0.0
 11
15.05207300000001
 21
1.617958999999995
 31
0.0
  0
LINE
  5
2CFE
330
BF7
100
AcDbEntity
  8
1
100
AcDbLine
 10
13.470386
 20
2.264037999999997
 30
0.0
 11
14.26123
 21
1.963625999999995
 31
0.0
  0
LINE
  5
2CFF
330
BF7
100
AcDbEntity
  8
1
100
AcDbLine
 10
12.67954299999999
 20
2.512268999999998
 30
0.0
 11
13.470386
 21
2.264037999999997
 31
0.0
  0
LINE
  5
2D00
330
BF7
100
AcDbEntity
  8
1
100
AcDbLine
 10
11.8887
 20
2.702600999999996
 30
0.0
 11
12.67954299999999
 21
2.512268999999998
 31
0.0
  0
LINE
  5
2D01
330
BF7
100
AcDbEntity
  8
1
100
AcDbLine
 10
11.097857
 20
2.830648999999997
 30
0.0
 11
11.8887
 21
2.702600999999996
 31
0.0
  0
LINE
  5
2D02
330
BF7
100
AcDbEntity
  8
1
100
AcDbLine
 10
10.30701400000001
 20
2.893459999999997
 30
0.0
 11
11.097857
 21
2.830648999999997
 31
0.0
  0
LINE
  5
2D03
330
BF7
100
AcDbEntity
  8
1
100
AcDbLine
 10
9.957652999999991
 20
2.891745999999993
 30
0.0
 11
10.30701400000001
 21
2.893459999999997
 31
0.0
  0
LINE
  5
2D04
330
BF7
100
AcDbEntity
  8
1
100
AcDbLine
 10
91.00609
 20
-2.899927000000004
 30
0.0
 11
90.930937
 21
-2.867785000000001
 31
0.0
  0
LINE
  5
2D05
330
BF7
100
AcDbEntity
  8
1
100
AcDbLine
 10
89.579275
 20
-2.797319000000001
 30
0.0
 11
91.00609
 21
-2.899927000000004
 31
0.0
  0
LINE
  5
2D06
330
BF7
100
AcDbEntity
  8
1
100
AcDbLine
 10
87.73059899999998
 20
-2.356476000000002
 30
0.0
 11
89.579275
 21
-2.797319000000001
 31
0.0
  0
LINE
  5
2D07
330
BF7
100
AcDbEntity
  8
1
100
AcDbLine
 10
85.93383399999998
 20
-1.645540999999999
 30
0.0
 11
87.73059899999998
 21
-2.356476000000002
 31
0.0
  0
LINE
  5
2D08
330
BF7
100
AcDbEntity
  8
1
100
AcDbLine
 10
84.085364
 20
-0.7122850000000051
 30
0.0
 11
85.93383399999998
 21
-1.645540999999999
 31
0.0
  0
LINE
  5
2D09
330
BF7
100
AcDbEntity
  8
1
100
AcDbLine
 10
82.28887699999999
 20
0.2808439999999983
 30
0.0
 11
84.085364
 21
-0.7122850000000051
 31
0.0
  0
LINE
  5
2D0A
330
BF7
100
AcDbEntity
  8
1
100
AcDbLine
 10
80.44112199999998
 20
1.266747999999995
 30
0.0
 11
82.28887699999999
 21
0.2808439999999983
 31
0.0
  0
LINE
  5
2D0B
330
BF7
100
AcDbEntity
  8
1
100
AcDbLine
 10
78.645398
 20
2.074444999999998
 30
0.0
 11
80.44112199999998
 21
1.266747999999995
 31
0.0
  0
LINE
  5
2D0C
330
BF7
100
AcDbEntity
  8
1
100
AcDbLine
 10
76.81538600000002
 20
2.645518999999999
 30
0.0
 11
78.645398
 21
2.074444999999998
 31
0.0
  0
LINE
  5
2D0D
330
BF7
100
AcDbEntity
  8
1
100
AcDbLine
 10
75.03586800000002
 20
2.890676999999993
 30
0.0
 11
76.81538600000002
 21
2.645518999999999
 31
0.0
  0
LINE
  5
2D0E
330
BF7
100
AcDbEntity
  8
1
100
AcDbLine
 10
73.256689
 20
2.801153999999995
 30
0.0
 11
75.03586800000002
 21
2.890676999999993
 31
0.0
  0
LINE
  5
2D0F
330
BF7
100
AcDbEntity
  8
1
100
AcDbLine
 10
71.47687999999998
 20
2.387736999999996
 30
0.0
 11
73.256689
 21
2.801153999999995
 31
0.0
  0
LINE
  5
2D10
330
BF7
100
AcDbEntity
  8
1
100
AcDbLine
 10
70.01626200000001
 20
1.820405999999998
 30
0.0
 11
71.47687999999998
 21
2.387736999999996
 31
0.0
  0
LINE
  5
2D11
330
BF7
100
AcDbEntity
  8
1
100
AcDbLine
 10
55.21035900000001
 20
-2.41345
 30
0.0
 11
58.269947
 21
-2.865760000000001
 31
0.0
  0
LINE
  5
2D12
330
BF7
100
AcDbEntity
  8
1
100
AcDbLine
 10
53.411861
 20
-1.726077000000003
 30
0.0
 11
55.21035900000001
 21
-2.41345
 31
0.0
  0
LINE
  5
2D13
330
BF7
100
AcDbEntity
  8
1
100
AcDbLine
 10
51.56124799999999
 20
-0.8072010000000027
 30
0.0
 11
53.411861
 21
-1.726077000000003
 31
0.0
  0
LINE
  5
2D14
330
BF7
100
AcDbEntity
  8
1
100
AcDbLine
 10
49.76332000000001
 20
0.1845619999999961
 30
0.0
 11
51.56124799999999
 21
-0.8072010000000027
 31
0.0
  0
LINE
  5
2D15
330
BF7
100
AcDbEntity
  8
1
100
AcDbLine
 10
47.91285099999998
 20
1.179368999999997
 30
0.0
 11
49.76332000000001
 21
0.1845619999999961
 31
0.0
  0
LINE
  5
2D16
330
BF7
100
AcDbEntity
  8
1
100
AcDbLine
 10
46.11558900000001
 20
2.007581999999999
 30
0.0
 11
47.91285099999998
 21
1.179368999999997
 31
0.0
  0
LINE
  5
2D17
330
BF7
100
AcDbEntity
  8
1
100
AcDbLine
 10
44.265569
 20
2.609882999999999
 30
0.0
 11
46.11558900000001
 21
2.007581999999999
 31
0.0
  0
LINE
  5
2D18
330
BF7
100
AcDbEntity
  8
1
100
AcDbLine
 10
42.468525
 20
2.883866999999995
 30
0.0
 11
44.265569
 21
2.609882999999999
 31
0.0
  0
LINE
  5
2D19
330
BF7
100
AcDbEntity
  8
1
100
AcDbLine
 10
40.61917100000001
 20
2.810055999999999
 30
0.0
 11
42.468525
 21
2.883866999999995
 31
0.0
  0
LINE
  5
2D1A
330
BF7
100
AcDbEntity
  8
1
100
AcDbLine
 10
38.821958
 20
2.401707999999999
 30
0.0
 11
40.61917100000001
 21
2.810055999999999
 31
0.0
  0
LINE
  5
2D1B
330
BF7
100
AcDbEntity
  8
1
100
AcDbLine
 10
37.33537199999999
 20
1.826155999999995
 30
0.0
 11
38.821958
 21
2.401707999999999
 31
0.0
  0
LINE
  5
2D1C
330
BF7
100
AcDbEntity
  8
1
100
AcDbLine
 10
22.56974000000001
 20
-2.431937000000004
 30
0.0
 11
25.57027100000001
 21
-2.860213000000001
 31
0.0
  0
LINE
  5
2D1D
330
BF7
100
AcDbEntity
  8
1
100
AcDbLine
 10
20.77309599999999
 20
-1.753118999999999
 30
0.0
 11
22.56974000000001
 21
-2.431937000000004
 31
0.0
  0
LINE
  5
2D1E
330
BF7
100
AcDbEntity
  8
1
100
AcDbLine
 10
18.93288
 20
-0.8455830000000046
 30
0.0
 11
20.77309599999999
 21
-1.753118999999999
 31
0.0
  0
LINE
  5
2D1F
330
BF7
100
AcDbEntity
  8
1
100
AcDbLine
 10
17.144714
 20
0.1391249999999999
 30
0.0
 11
18.93288
 21
-0.8455830000000046
 31
0.0
  0
LINE
  5
2D20
330
BF7
100
AcDbEntity
  8
1
100
AcDbLine
 10
15.745199
 20
0.9030899999999951
 30
0.0
 11
17.144714
 21
0.1391249999999999
 31
0.0
  0
LINE
  5
2D21
330
BF7
100
AcDbEntity
  8
1
100
AcDbLine
 10
14.369145
 20
1.592106999999996
 30
0.0
 11
15.745199
 21
0.9030899999999951
 31
0.0
  0
LINE
  5
2D22
330
BF7
100
AcDbEntity
  8
1
100
AcDbLine
 10
14.302658
 20
1.623083
 30
0.0
 11
14.36902899999999
 21
1.592160999999995
 31
0.0
  0
LINE
  5
2D23
330
BF7
100
AcDbEntity
  8
1
100
AcDbLine
 10
13.04454599999999
 20
2.129349999999996
 30
0.0
 11
14.302658
 21
1.623083
 31
0.0
  0
LINE
  5
2D24
330
BF7
100
AcDbEntity
  8
1
100
AcDbLine
 10
11.16594900000001
 20
2.593077999999993
 30
0.0
 11
13.04454599999999
 21
2.129349999999996
 31
0.0
  0
LINE
  5
2D25
330
BF7
100
AcDbEntity
  8
1
100
AcDbLine
 10
9.241865000000004
 20
2.783964
 30
0.0
 11
11.16594900000001
 21
2.593077999999993
 31
0.0
  0
LINE
  5
2D26
330
BF7
100
AcDbEntity
  8
1
100
AcDbLine
 10
7.766338000000001
 20
2.823902999999993
 30
0.0
 11
9.241865000000004
 21
2.783964
 31
0.0
  0
LINE
  5
2D27
330
BF7
100
AcDbEntity
  8
1
100
AcDbLine
 10
6.824341000000002
 20
2.819868999999997
 30
0.0
 11
7.766338000000001
 21
2.823902999999993
 31
0.0
  0
LINE
  5
2D28
330
BF7
100
AcDbEntity
  8
1
100
AcDbLine
 10
6.595988000000003
 20
2.764164999999993
 30
0.0
 11
6.824341000000002
 21
2.819868999999997
 31
0.0
  0
LINE
  5
2D29
330
BF7
100
AcDbEntity
  8
1
100
AcDbLine
 10
6.187600999999999
 20
2.563767999999996
 30
0.0
 11
6.595988000000003
 21
2.764164999999993
 31
0.0
  0
LINE
  5
2D2A
330
BF7
100
AcDbEntity
  8
1
100
AcDbLine
 10
6.040679999999992
 20
2.379083999999995
 30
0.0
 11
6.187600999999999
 21
2.563767999999996
 31
0.0
  0
LINE
  5
2D2B
330
BF7
100
AcDbEntity
  8
1
100
AcDbLine
 10
6.005562000000011
 20
2.094204999999996
 30
0.0
 11
6.040679999999992
 21
2.379083999999995
 31
0.0
  0
LINE
  5
2D2C
330
BF7
100
AcDbEntity
  8
1
100
AcDbLine
 10
6.155255999999994
 20
1.723278999999994
 30
0.0
 11
6.005562000000011
 21
2.094204999999996
 31
0.0
  0
LINE
  5
2D2D
330
BF7
100
AcDbEntity
  8
1
100
AcDbLine
 10
6.435737999999998
 20
1.361869999999999
 30
0.0
 11
6.155255999999994
 21
1.723278999999994
 31
0.0
  0
LINE
  5
2D2E
330
BF7
100
AcDbEntity
  8
1
100
AcDbLine
 10
6.829802999999997
 20
0.9855669999999959
 30
0.0
 11
6.435737999999998
 21
1.361869999999999
 31
0.0
  0
LINE
  5
2D2F
330
BF7
100
AcDbEntity
  8
1
100
AcDbLine
 10
7.272030999999997
 20
0.6376559999999998
 30
0.0
 11
6.829802999999997
 21
0.9855669999999959
 31
0.0
  0
LINE
  5
2D30
330
BF7
100
AcDbEntity
  8
1
100
AcDbLine
 10
8.403792999999991
 20
-0.0877320000000026
 30
0.0
 11
7.272030999999997
 21
0.6376559999999998
 31
0.0
  0
LINE
  5
2D31
330
BF7
100
AcDbEntity
  8
1
100
AcDbLine
 10
8.648255000000006
 20
-0.2242430000000013
 30
0.0
 11
8.403792999999991
 21
-0.0877320000000026
 31
0.0
  0
LINE
  5
2D32
330
BF7
100
AcDbEntity
  8
1
100
AcDbLine
 10
9.793412000000003
 20
-0.8498530000000029
 30
0.0
 11
8.648229999999998
 21
-0.2242400000000053
 31
0.0
  0
LINE
  5
2D33
330
BF7
100
AcDbEntity
  8
1
100
AcDbLine
 10
10.925696
 20
-1.428372000000003
 30
0.0
 11
9.793412000000003
 21
-0.8498530000000029
 31
0.0
  0
LINE
  5
2D34
330
BF7
100
AcDbEntity
  8
1
100
AcDbLine
 10
12.774135
 20
-2.216864000000002
 30
0.0
 11
10.925696
 21
-1.428372000000003
 31
0.0
  0
LINE
  5
2D35
330
BF7
100
AcDbEntity
  8
1
100
AcDbLine
 10
13.041803
 20
-2.310039000000001
 30
0.0
 11
12.774135
 21
-2.216864000000002
 31
0.0
  0
LINE
  5
2D36
330
BF7
100
AcDbEntity
  8
1
100
AcDbLine
 10
13.041803
 20
-2.310039000000001
 30
0.0
 11
8.723697999999997
 21
-2.310039000000001
 31
0.0
  0
LINE
  5
2D37
330
BF7
100
AcDbEntity
  8
1
100
AcDbLine
 10
8.381005000000001
 20
-2.658684000000004
 30
0.0
 11
8.3716
 21
-2.741975
 31
0.0
  0
LINE
  5
2D38
330
BF7
100
AcDbEntity
  8
1
100
AcDbLine
 10
8.459985000000003
 20
-2.470065000000003
 30
0.0
 11
8.381005000000001
 21
-2.658684000000004
 31
0.0
  0
LINE
  5
2D39
330
BF7
100
AcDbEntity
  8
1
100
AcDbLine
 10
8.544966000000002
 20
-2.376278000000001
 30
0.0
 11
8.459985000000003
 21
-2.470065000000003
 31
0.0
  0
LINE
  5
2D3A
330
BF7
100
AcDbEntity
  8
1
100
AcDbLine
 10
8.615214000000008
 20
-2.333374000000002
 30
0.0
 11
8.544966000000002
 21
-2.376278000000001
 31
0.0
  0
LINE
  5
2D3B
330
BF7
100
AcDbEntity
  8
1
100
AcDbLine
 10
8.666118999999994
 20
-2.316501000000001
 30
0.0
 11
8.615214000000008
 21
-2.333374000000002
 31
0.0
  0
LINE
  5
2D3C
330
BF7
100
AcDbEntity
  8
1
100
AcDbLine
 10
8.723697999999997
 20
-2.310039000000001
 30
0.0
 11
8.666118999999994
 21
-2.316501000000001
 31
0.0
  0
LINE
  5
2D3D
330
BF7
100
AcDbEntity
  8
1
100
AcDbLine
 10
75.58384799999998
 20
-2.899602000000004
 30
0.0
 11
77.55272000000002
 21
-2.662746000000002
 31
0.0
  0
LINE
  5
2D3E
330
BF7
100
AcDbEntity
  8
1
100
AcDbLine
 10
73.801726
 20
-2.747398000000004
 30
0.0
 11
75.58384799999998
 21
-2.899602000000004
 31
0.0
  0
LINE
  5
2D3F
330
BF7
100
AcDbEntity
  8
1
100
AcDbLine
 10
72.01961600000001
 20
-2.276177000000002
 30
0.0
 11
73.801726
 21
-2.747398000000004
 31
0.0
  0
LINE
  5
2D40
330
BF7
100
AcDbEntity
  8
1
100
AcDbLine
 10
70.237493
 20
-1.540663000000002
 30
0.0
 11
72.01961600000001
 21
-2.276177000000002
 31
0.0
  0
LINE
  5
2D41
330
BF7
100
AcDbEntity
  8
1
100
AcDbLine
 10
68.45538300000001
 20
-0.6262500000000025
 30
0.0
 11
70.237493
 21
-1.540663000000002
 31
0.0
  0
LINE
  5
2D42
330
BF7
100
AcDbEntity
  8
1
100
AcDbLine
 10
66.673261
 20
0.360871999999997
 30
0.0
 11
68.45538300000001
 21
-0.6262500000000025
 31
0.0
  0
LINE
  5
2D43
330
BF7
100
AcDbEntity
  8
1
100
AcDbLine
 10
64.89115100000001
 20
1.306101999999994
 30
0.0
 11
66.673261
 21
0.360871999999997
 31
0.0
  0
LINE
  5
2D44
330
BF7
100
AcDbEntity
  8
1
100
AcDbLine
 10
63.10904100000001
 20
2.099666999999995
 30
0.0
 11
64.89115100000001
 21
1.306101999999994
 31
0.0
  0
LINE
  5
2D45
330
BF7
100
AcDbEntity
  8
1
100
AcDbLine
 10
61.32693
 20
2.649433999999995
 30
0.0
 11
63.10904100000001
 21
2.099666999999995
 31
0.0
  0
LINE
  5
2D46
330
BF7
100
AcDbEntity
  8
1
100
AcDbLine
 10
59.54480799999998
 20
2.891557999999998
 30
0.0
 11
61.32693
 21
2.649433999999995
 31
0.0
  0
LINE
  5
2D47
330
BF7
100
AcDbEntity
  8
1
100
AcDbLine
 10
59.14919300000001
 20
2.870771999999995
 30
0.0
 11
59.54480799999998
 21
2.891557999999998
 31
0.0
  0
LINE
  5
2D48
330
BF7
100
AcDbEntity
  8
1
100
AcDbLine
 10
41.723658
 20
-2.838476000000003
 30
0.0
 11
44.21147799999999
 21
-2.754827999999998
 31
0.0
  0
LINE
  5
2D49
330
BF7
100
AcDbEntity
  8
1
100
AcDbLine
 10
39.941548
 20
-2.474175000000002
 30
0.0
 11
41.723658
 21
-2.838476000000003
 31
0.0
  0
LINE
  5
2D4A
330
BF7
100
AcDbEntity
  8
1
100
AcDbLine
 10
38.159425
 20
-1.822577000000002
 30
0.0
 11
39.941548
 21
-2.474175000000002
 31
0.0
  0
LINE
  5
2D4B
330
BF7
100
AcDbEntity
  8
1
100
AcDbLine
 10
36.37729100000001
 20
-0.959348000000002
 30
0.0
 11
38.159425
 21
-1.822577000000002
 31
0.0
  0
LINE
  5
2D4C
330
BF7
100
AcDbEntity
  8
1
100
AcDbLine
 10
34.595156
 20
0.0152859999999961
 30
0.0
 11
36.37729100000001
 21
-0.959348000000002
 31
0.0
  0
LINE
  5
2D4D
330
BF7
100
AcDbEntity
  8
1
100
AcDbLine
 10
32.81301000000001
 20
0.9881409999999949
 30
0.0
 11
34.595156
 21
0.0152859999999961
 31
0.0
  0
LINE
  5
2D4E
330
BF7
100
AcDbEntity
  8
1
100
AcDbLine
 10
31.03087600000001
 20
1.846257999999996
 30
0.0
 11
32.81301000000001
 21
0.9881409999999949
 31
0.0
  0
LINE
  5
2D4F
330
BF7
100
AcDbEntity
  8
1
100
AcDbLine
 10
29.248729
 20
2.489989999999995
 30
0.0
 11
31.03087600000001
 21
1.846257999999996
 31
0.0
  0
LINE
  5
2D50
330
BF7
100
AcDbEntity
  8
1
100
AcDbLine
 10
27.466595
 20
2.844588999999998
 30
0.0
 11
29.248729
 21
2.489989999999995
 31
0.0
  0
LINE
  5
2D51
330
BF7
100
AcDbEntity
  8
1
100
AcDbLine
 10
26.44771900000001
 20
2.858474999999998
 30
0.0
 11
27.466595
 21
2.844588999999998
 31
0.0
  0
LINE
  5
2D52
330
BF7
100
AcDbEntity
  8
1
100
AcDbLine
 10
9.643724000000004
 20
-2.888980000000001
 30
0.0
 11
11.650603
 21
-2.754610000000003
 31
0.0
  0
LINE
  5
2D53
330
BF7
100
AcDbEntity
  8
1
100
AcDbLine
 10
8.625732999999996
 20
-2.784797000000001
 30
0.0
 11
9.643724000000004
 21
-2.888980000000001
 31
0.0
  0
LINE
  5
2D54
330
BF7
100
AcDbEntity
  8
1
100
AcDbLine
 10
8.3716
 20
-2.741975
 30
0.0
 11
8.625732999999996
 21
-2.784797000000001
 31
0.0
  0
LINE
  5
2D55
330
BF7
100
AcDbEntity
  8
1
100
AcDbLine
 10
89.579275
 20
2.797319999999998
 30
0.0
 11
91.00609
 21
2.899926999999993
 31
0.0
  0
LINE
  5
2D56
330
BF7
100
AcDbEntity
  8
1
100
AcDbLine
 10
87.73059899999998
 20
2.356473999999996
 30
0.0
 11
89.579275
 21
2.797319999999998
 31
0.0
  0
LINE
  5
2D57
330
BF7
100
AcDbEntity
  8
1
100
AcDbLine
 10
86.367468
 20
1.817119999999999
 30
0.0
 11
87.73059899999998
 21
2.356473999999996
 31
0.0
  0
LINE
  5
2D58
330
BF7
100
AcDbEntity
  8
1
100
AcDbLine
 10
71.47687999999998
 20
-2.387737000000003
 30
0.0
 11
74.62011100000002
 21
-2.869756000000002
 31
0.0
  0
LINE
  5
2D59
330
BF7
100
AcDbEntity
  8
1
100
AcDbLine
 10
69.69806400000002
 20
-1.696811000000003
 30
0.0
 11
71.47687999999998
 21
-2.387737000000003
 31
0.0
  0
LINE
  5
2D5A
330
BF7
100
AcDbEntity
  8
1
100
AcDbLine
 10
67.90029399999998
 20
-0.8019660000000037
 30
0.0
 11
69.69806400000002
 21
-1.696811000000003
 31
0.0
  0
LINE
  5
2D5B
330
BF7
100
AcDbEntity
  8
1
100
AcDbLine
 10
66.051073
 20
0.2195439999999991
 30
0.0
 11
67.90029399999998
 21
-0.8019660000000037
 31
0.0
  0
LINE
  5
2D5C
330
BF7
100
AcDbEntity
  8
1
100
AcDbLine
 10
64.252466
 20
1.184388999999999
 30
0.0
 11
66.051073
 21
0.2195439999999991
 31
0.0
  0
LINE
  5
2D5D
330
BF7
100
AcDbEntity
  8
1
100
AcDbLine
 10
62.40312399999999
 20
2.032753999999995
 30
0.0
 11
64.252466
 21
1.184388999999999
 31
0.0
  0
LINE
  5
2D5E
330
BF7
100
AcDbEntity
  8
1
100
AcDbLine
 10
60.60442099999999
 20
2.612480999999998
 30
0.0
 11
62.40312399999999
 21
2.032753999999995
 31
0.0
  0
LINE
  5
2D5F
330
BF7
100
AcDbEntity
  8
1
100
AcDbLine
 10
58.773077
 20
2.886452999999995
 30
0.0
 11
60.60442099999999
 21
2.612480999999998
 31
0.0
  0
LINE
  5
2D60
330
BF7
100
AcDbEntity
  8
1
100
AcDbLine
 10
56.99145099999999
 20
2.813183999999995
 30
0.0
 11
58.773077
 21
2.886452999999995
 31
0.0
  0
LINE
  5
2D61
330
BF7
100
AcDbEntity
  8
1
100
AcDbLine
 10
55.21035900000001
 20
2.413449999999996
 30
0.0
 11
56.99145099999999
 21
2.813183999999995
 31
0.0
  0
LINE
  5
2D62
330
BF7
100
AcDbEntity
  8
1
100
AcDbLine
 10
53.64653700000001
 20
1.81577
 30
0.0
 11
55.21035900000001
 21
2.413449999999996
 31
0.0
  0
LINE
  5
2D63
330
BF7
100
AcDbEntity
  8
1
100
AcDbLine
 10
38.821958
 20
-2.401708000000001
 30
0.0
 11
41.92181699999999
 21
-2.862047
 31
0.0
  0
LINE
  5
2D64
330
BF7
100
AcDbEntity
  8
1
100
AcDbLine
 10
36.97309999999999
 20
-1.685893999999999
 30
0.0
 11
38.821958
 21
-2.401708000000001
 31
0.0
  0
LINE
  5
2D65
330
BF7
100
AcDbEntity
  8
1
100
AcDbLine
 10
35.175778
 20
-0.7882950000000016
 30
0.0
 11
36.97309999999999
 21
-1.685893999999999
 31
0.0
  0
LINE
  5
2D66
330
BF7
100
AcDbEntity
  8
1
100
AcDbLine
 10
33.34436100000001
 20
0.2226559999999971
 30
0.0
 11
35.175778
 21
-0.7882950000000016
 31
0.0
  0
LINE
  5
2D67
330
BF7
100
AcDbEntity
  8
1
100
AcDbLine
 10
31.563098
 20
1.179622999999994
 30
0.0
 11
33.34436100000001
 21
0.2226559999999971
 31
0.0
  0
LINE
  5
2D68
330
BF7
100
AcDbEntity
  8
1
100
AcDbLine
 10
29.78223600000001
 20
2.000496999999995
 30
0.0
 11
31.563098
 21
1.179622999999994
 31
0.0
  0
LINE
  5
2D69
330
BF7
100
AcDbEntity
  8
1
100
AcDbLine
 10
27.99965900000001
 20
2.589359999999995
 30
0.0
 11
29.78223600000001
 21
2.000496999999995
 31
0.0
  0
LINE
  5
2D6A
330
BF7
100
AcDbEntity
  8
1
100
AcDbLine
 10
26.217016
 20
2.877499999999995
 30
0.0
 11
27.99965900000001
 21
2.589359999999995
 31
0.0
  0
LINE
  5
2D6B
330
BF7
100
AcDbEntity
  8
1
100
AcDbLine
 10
24.41921500000001
 20
2.829446999999993
 30
0.0
 11
26.217016
 21
2.877499999999995
 31
0.0
  0
LINE
  5
2D6C
330
BF7
100
AcDbEntity
  8
1
100
AcDbLine
 10
22.56974000000001
 20
2.431938999999998
 30
0.0
 11
24.41921500000001
 21
2.829446999999993
 31
0.0
  0
LINE
  5
2D6D
330
BF7
100
AcDbEntity
  8
1
100
AcDbLine
 10
20.948103
 20
1.819242999999995
 30
0.0
 11
22.56974000000001
 21
2.431938999999998
 31
0.0
  0
LINE
  5
2D6E
330
BF7
100
AcDbEntity
  8
1
100
AcDbLine
 10
82.09656800000002
 20
0.7776819999999987
 30
0.0
 11
82.414076
 21
0.6110439999999997
 31
0.0
  0
LINE
  5
2D6F
330
BF7
100
AcDbEntity
  8
1
100
AcDbLine
 10
81.77906100000001
 20
0.9443209999999947
 30
0.0
 11
82.09656800000002
 21
0.7776819999999987
 31
0.0
  0
LINE
  5
2D70
330
BF7
100
AcDbEntity
  8
1
100
AcDbLine
 10
82.57410699999999
 20
0.5270559999999982
 30
0.0
 11
82.734138
 21
0.4430669999999959
 31
0.0
  0
LINE
  5
2D71
330
BF7
100
AcDbEntity
  8
1
100
AcDbLine
 10
82.414076
 20
0.6110439999999997
 30
0.0
 11
82.57410699999999
 21
0.5270559999999982
 31
0.0
  0
LINE
  5
2D72
330
BF7
100
AcDbEntity
  8
1
100
AcDbLine
 10
31.39169400000002
 20
1.678129999999995
 30
0.0
 11
31.61465800000001
 21
1.573085999999995
 31
0.0
  0
LINE
  5
2D73
330
BF7
100
AcDbEntity
  8
1
100
AcDbLine
 10
31.796308
 20
1.492058999999994
 30
0.0
 11
31.97797100000001
 21
1.411034999999993
 31
0.0
  0
LINE
  5
2D74
330
BF7
100
AcDbEntity
  8
1
100
AcDbLine
 10
31.61465800000001
 20
1.573085999999995
 30
0.0
 11
31.796308
 21
1.492058999999994
 31
0.0
  0
LINE
  5
2D75
330
BF7
100
AcDbEntity
  8
1
100
AcDbLine
 10
63.708144
 20
1.845125999999999
 30
0.0
 11
64.39865399999999
 21
1.529455999999997
 31
0.0
  0
LINE
  5
2D76
330
BF7
100
AcDbEntity
  8
1
100
AcDbLine
 10
63.01667699999999
 20
2.115348999999996
 30
0.0
 11
63.708144
 21
1.845125999999999
 31
0.0
  0
LINE
  5
2D77
330
BF7
100
AcDbEntity
  8
1
100
AcDbLine
 10
62.28594399999999
 20
2.351916999999996
 30
0.0
 11
63.01667699999999
 21
2.115348999999996
 31
0.0
  0
LINE
  5
2D78
330
BF7
100
AcDbEntity
  8
1
100
AcDbLine
 10
64.53826499999999
 20
1.470272999999995
 30
0.0
 11
64.677864
 21
1.411089
 31
0.0
  0
LINE
  5
2D79
330
BF7
100
AcDbEntity
  8
1
100
AcDbLine
 10
64.39865399999999
 20
1.529455999999997
 30
0.0
 11
64.53826499999999
 21
1.470272999999995
 31
0.0
  0
LINE
  5
2D7A
330
BF7
100
AcDbEntity
  8
1
100
AcDbLine
 10
11.115758
 20
-2.740489000000001
 30
0.0
 11
10.372822
 21
-2.754687000000004
 31
0.0
  0
LINE
  5
2D7B
330
BF7
100
AcDbEntity
  8
1
100
AcDbLine
 10
88.45049200000003
 20
0.9306890000000008
 30
0.0
 11
87.39881199999997
 21
1.408345999999994
 31
0.0
  0
LINE
  5
2D7C
330
BF7
100
AcDbEntity
  8
1
100
AcDbLine
 10
89.52058199999996
 20
0.4999349999999973
 30
0.0
 11
88.45049200000003
 21
0.9306890000000008
 31
0.0
  0
LINE
  5
2D7D
330
BF7
100
AcDbEntity
  8
1
100
AcDbLine
 10
56.71610499999999
 20
0.5339559999999965
 30
0.0
 11
54.63871199999999
 21
1.434630999999999
 31
0.0
  0
LINE
  5
2D7E
330
BF7
100
AcDbEntity
  8
1
100
AcDbLine
 10
58.82957799999999
 20
-0.2746549999999992
 30
0.0
 11
56.71610499999999
 21
0.5339559999999965
 31
0.0
  0
LINE
  5
2D7F
330
BF7
100
AcDbEntity
  8
1
100
AcDbLine
 10
24.027367
 20
0.5293299999999981
 30
0.0
 11
21.96102000000001
 21
1.424892999999995
 31
0.0
  0
LINE
  5
2D80
330
BF7
100
AcDbEntity
  8
1
100
AcDbLine
 10
26.129594
 20
-0.2746640000000013
 30
0.0
 11
24.027367
 21
0.5293299999999981
 31
0.0
  0
LINE
  5
2D81
330
BF7
100
AcDbEntity
  8
1
100
AcDbLine
 10
73.09547099999997
 20
0.5218899999999957
 30
0.0
 11
71.04586199999999
 21
1.409651
 31
0.0
  0
LINE
  5
2D82
330
BF7
100
AcDbEntity
  8
1
100
AcDbLine
 10
75.18063900000001
 20
-0.2750150000000033
 30
0.0
 11
73.09547099999997
 21
0.5218899999999957
 31
0.0
  0
LINE
  5
2D83
330
BF7
100
AcDbEntity
  8
1
100
AcDbLine
 10
40.39992599999999
 20
0.5200249999999969
 30
0.0
 11
38.35955800000001
 21
1.403621999999995
 31
0.0
  0
LINE
  5
2D84
330
BF7
100
AcDbEntity
  8
1
100
AcDbLine
 10
42.475768
 20
-0.2732559999999999
 30
0.0
 11
40.39992599999999
 21
0.5200249999999969
 31
0.0
  0
LINE
  5
2D85
330
BF7
100
AcDbEntity
  8
1
100
AcDbLine
 10
16.55541500000001
 20
2.754689999999995
 30
0.0
 11
11.567063
 21
2.754689999999995
 31
0.0
  0
LINE
  5
2D86
330
BF7
100
AcDbEntity
  8
1
100
AcDbLine
 10
49.332229
 20
2.754989999999995
 30
0.0
 11
44.26456400000001
 21
2.754989999999995
 31
0.0
  0
LINE
  5
2D87
330
BF7
100
AcDbEntity
  8
1
100
AcDbLine
 10
82.031202
 20
2.754995999999994
 30
0.0
 11
76.971845
 21
2.754995999999994
 31
0.0
  0
LINE
  5
2D88
330
BF7
100
AcDbEntity
  8
1
100
AcDbLine
 10
62.44145800000001
 20
-2.754993000000001
 30
0.0
 11
65.68281800000001
 21
-2.754993000000001
 31
0.0
  0
LINE
  5
2D89
330
BF7
100
AcDbEntity
  8
1
100
AcDbLine
 10
59.20009799999998
 20
-2.754993000000001
 30
0.0
 11
62.44145800000001
 21
-2.754993000000001
 31
0.0
  0
LINE
  5
2D8A
330
BF7
100
AcDbEntity
  8
1
100
AcDbLine
 10
29.74047500000001
 20
-2.754989000000001
 30
0.0
 11
32.98183400000001
 21
-2.754989000000001
 31
0.0
  0
LINE
  5
2D8B
330
BF7
100
AcDbEntity
  8
1
100
AcDbLine
 10
26.499109
 20
-2.754989000000001
 30
0.0
 11
29.74047500000001
 21
-2.754989000000001
 31
0.0
  0
LINE
  5
2D8C
330
BF7
100
AcDbEntity
  8
1
100
AcDbLine
 10
32.98036900000001
 20
2.754989999999995
 30
0.0
 11
27.91693700000001
 21
2.754989999999995
 31
0.0
  0
LINE
  5
2D8D
330
BF7
100
AcDbEntity
  8
1
100
AcDbLine
 10
65.68108599999999
 20
2.754992999999998
 30
0.0
 11
60.550052
 21
2.754992999999998
 31
0.0
  0
LINE
  5
2D8E
330
BF7
100
AcDbEntity
  8
1
100
AcDbLine
 10
78.939784
 20
-2.754996000000004
 30
0.0
 11
82.03024500000003
 21
-2.754996000000004
 31
0.0
  0
LINE
  5
2D8F
330
BF7
100
AcDbEntity
  8
1
100
AcDbLine
 10
75.84932399999998
 20
-2.754996000000004
 30
0.0
 11
78.939784
 21
-2.754996000000004
 31
0.0
  0
LINE
  5
2D90
330
BF7
100
AcDbEntity
  8
1
100
AcDbLine
 10
46.239637
 20
-2.754991999999999
 30
0.0
 11
49.33011
 21
-2.754991999999999
 31
0.0
  0
LINE
  5
2D91
330
BF7
100
AcDbEntity
  8
1
100
AcDbLine
 10
43.149176
 20
-2.754991999999999
 30
0.0
 11
46.239637
 21
-2.754991999999999
 31
0.0
  0
LINE
  5
2D92
330
BF7
100
AcDbEntity
  8
1
100
AcDbLine
 10
13.46389500000001
 20
-2.754692000000001
 30
0.0
 11
16.554355
 21
-2.754692000000001
 31
0.0
  0
LINE
  5
2D93
330
BF7
100
AcDbEntity
  8
1
100
AcDbLine
 10
10.373434
 20
-2.754692000000001
 30
0.0
 11
13.46389500000001
 21
-2.754692000000001
 31
0.0
  0
LINE
  5
2D94
330
BF7
100
AcDbEntity
  8
1
100
AcDbLine
 10
0.0
 20
-2.900000000000001
 30
0.0
 11
10.09595
 21
-2.900000000000001
 31
0.0
  0
LINE
  5
2D95
330
BF7
100
AcDbEntity
  8
1
100
AcDbLine
 10
25.569908
 20
-2.900000000000001
 30
0.0
 11
26.307254
 21
-2.900000000000001
 31
0.0
  0
LINE
  5
2D96
330
BF7
100
AcDbEntity
  8
1
100
AcDbLine
 10
41.92078699999998
 20
-2.900000000000001
 30
0.0
 11
42.798435
 21
-2.900000000000001
 31
0.0
  0
LINE
  5
2D97
330
BF7
100
AcDbEntity
  8
1
100
AcDbLine
 10
58.27086700000001
 20
-2.900000000000001
 30
0.0
 11
59.007305
 21
-2.900000000000001
 31
0.0
  0
LINE
  5
2D98
330
BF7
100
AcDbEntity
  8
1
100
AcDbLine
 10
74.620317
 20
-2.900000000000001
 30
0.0
 11
75.49831600000001
 21
-2.900000000000001
 31
0.0
  0
LINE
  5
2D99
330
BF7
100
AcDbEntity
  8
1
100
AcDbLine
 10
75.35726300000002
 20
2.899999999999998
 30
0.0
 11
74.620317
 21
2.899999999999998
 31
0.0
  0
LINE
  5
2D9A
330
BF7
100
AcDbEntity
  8
1
100
AcDbLine
 10
59.14925299999999
 20
2.899999999999998
 30
0.0
 11
58.27086700000001
 21
2.899999999999998
 31
0.0
  0
LINE
  5
2D9B
330
BF7
100
AcDbEntity
  8
1
100
AcDbLine
 10
42.65733400000001
 20
2.899999999999998
 30
0.0
 11
41.92078699999998
 21
2.899999999999998
 31
0.0
  0
LINE
  5
2D9C
330
BF7
100
AcDbEntity
  8
1
100
AcDbLine
 10
26.446968
 20
2.899999999999998
 30
0.0
 11
25.569908
 21
2.899999999999998
 31
0.0
  0
LINE
  5
2D9D
330
BF7
100
AcDbEntity
  8
1
100
AcDbLine
 10
9.957441000000002
 20
2.899999999999998
 30
0.0
 11
0.0
 21
2.899999999999998
 31
0.0
  0
LINE
  5
2D9E
330
BF7
100
AcDbEntity
  8
SK1
100
AcDbLine
 10
0.0
 20
3.0
 30
0.0
 11
-35.35048199999999
 21
3.0
 31
0.0
  0
LINE
  5
2D9F
330
BF7
100
AcDbEntity
  8
SK1
100
AcDbLine
 10
-35.35048199999999
 20
-3.0
 30
0.0
 11
0.0
 21
-3.0
 31
0.0
  0
LINE
  5
2DA1
330
BF7
100
AcDbEntity
  8
SK4
100
AcDbLine
 10
0.0
 20
0.0
 30
0.0
 11
-37.85729036459725
 21
0.0000000000000046
 31
0.0
  0
LINE
  5
2DA2
330
BF7
100
AcDbEntity
  8
SK4
100
AcDbLine
 10
0.0
 20
0.0
 30
0.0
 11
94.16688188215015
 21
0.0
 31
0.0
  0
LINE
  5
2DA3
330
BF7
100
AcDbEntity
  8
1
100
AcDbLine
 10
0.0
 20
2.899999999999998
 30
0.0
 11
0.0
 21
-2.900000000000001
 31
0.0
  0
DIMENSION
  5
2DA4
330
BF7
100
AcDbEntity
  8
SK2
100
AcDbDimension
  2
*D2
 10
-45.13181882548589
 20
-2.999999999999996
 30
0.0
 11
-45.08454504885842
 21
-17.26552858628759
 31
0.0
 70
   160
  1
%%C <>
 71
     5
 42
6.0
  3
SANDVIK_DIM
100
AcDbAlignedDimension
 13
-35.35048199999999
 23
3.0
 33
0.0
 14
-35.35048199999999
 24
-3.0
 34
0.0
 50
90.0
100
AcDbRotatedDimension
1001
ACAD
1000
DSTYLE
1002
{
1070
    40
1040
1.0
1002
}
  0
DIMENSION
  5
2DC6
330
BF7
100
AcDbEntity
  8
2
100
AcDbDimension
  2
*D3
 10
98.36479189009674
 20
-2.899927000000006
 30
0.0
 11
98.08991434148923
 21
-19.20147990008212
 31
0.0
 70
   160
  1
%%C <>
 71
     5
 42
5.799853999999997
  3
SANDVIK_DIM
100
AcDbAlignedDimension
 13
91.00609
 23
2.899926999999993
 33
0.0
 14
91.00609
 24
-2.899927000000004
 34
0.0
 50
90.0
100
AcDbRotatedDimension
1001
ACAD
1000
DSTYLE
1002
{
1070
    40
1040
1.0
1002
}
  0
DIMENSION
  5
2DD4
330
BF7
100
AcDbEntity
  8
SK2
100
AcDbDimension
  2
*D4
 10
21.00609
 20
7.025014341003497
 30
0.0
 11
56.00609
 21
10.8250143410035
 31
0.0
 70
    32
 71
     5
 42
70.0
  3
SANDVIK_DIM
100
AcDbAlignedDimension
 13
91.00609
 23
2.899926999999993
 33
0.0
 14
21.00609
 24
2.899927000000006
 34
0.0
100
AcDbRotatedDimension
1001
ACAD
1000
DSTYLE
1002
{
1070
    40
1040
1.0
1002
}
  0
DIMENSION
  5
2DE1
330
BF7
100
AcDbEntity
  8
2
100
AcDbDimension
  2
*D5
 10
5.999961000000013
 20
-9.989746716550428
 30
0.0
 11
48.999961
 21
-6.189746716550429
 31
0.0
 70
    32
 71
     5
 42
86.0
  3
SANDVIK_DIM
100
AcDbAlignedDimension
 13
91.99996099999999
 23
0.0
 33
0.0
 14
5.999961000000013
 24
0.0000000000000105
 34
0.0
100
AcDbRotatedDimension
1001
ACAD
1000
DSTYLE
1002
{
1070
    40
1040
1.0
1002
}
  0
DIMENSION
  5
2DEE
330
BF7
100
AcDbEntity
  8
2
100
AcDbDimension
  2
*D6
 10
91.99996099999999
 20
-17.53887295934027
 30
0.0
 11
45.99998049999999
 21
-13.73887295934027
 31
0.0
 70
    32
 71
     5
 42
91.99996099999999
  3
SANDVIK_DIM
100
AcDbAlignedDimension
 13
0.0
 23
-3.0
 33
0.0
 14
91.99996099999999
 24
-0.0000000000000053
 34
0.0
100
AcDbRotatedDimension
1001
ACAD
1000
DSTYLE
1002
{
1070
    40
1040
1.0
1002
}
  0
DIMENSION
  5
2DFB
330
BF7
100
AcDbEntity
  8
SK2
100
AcDbDimension
  2
*D7
 10
-36.0
 20
-25.21128808833163
 30
0.0
 11
27.99998050000001
 21
-21.41128808833163
 31
0.0
 70
    32
 71
     5
 42
127.999961
  3
SANDVIK_DIM
100
AcDbAlignedDimension
 13
91.99996099999999
 23
0.0
 33
0.0
 14
-36.0
 24
-2.624443000000002
 34
0.0
100
AcDbRotatedDimension
1001
ACAD
1000
DSTYLE
1002
{
1070
    40
1040
1.0
1002
}
  0
DIMENSION
  5
2E08
330
BF7
100
AcDbEntity
  8
SK2
100
AcDbDimension
  2
*D8
 10
-36.0
 20
-17.53887295934027
 30
0.0
 11
-18.0
 21
-13.73887295934027
 31
0.0
 70
    32
 71
     5
 42
36.0
  3
SANDVIK_DIM
100
AcDbAlignedDimension
 13
0.0
 23
-3.0
 33
0.0
 14
-36.0
 24
-2.500135000000001
 34
0.0
100
AcDbRotatedDimension
1001
ACAD
1000
DSTYLE
1002
{
1070
    40
1040
1.0
1002
}
  0
ENDSEC
  0
SECTION
  2
OBJECTS
  0
DICTIONARY
  5
BE3
330
0
100
AcDbDictionary
281
     1
  3
ACAD_CIP_PREVIOUS_PRODUCT_INFO
350
2EAE
  3
ACAD_COLOR
350
BF2
  3
ACAD_DETAILVIEWSTYLE
350
2EAB
  3
ACAD_GROUP
350
BE4
  3
ACAD_LAYOUT
350
BF0
  3
ACAD_MATERIAL
350
BF1
  3
ACAD_MLEADERSTYLE
350
2EA6
  3
ACAD_MLINESTYLE
350
BED
  3
ACAD_PLOTSETTINGS
350
BEF
  3
ACAD_PLOTSTYLENAME
350
BE5
  3
ACAD_SCALELIST
350
2E94
  3
ACAD_SECTIONVIEWSTYLE
350
2EA8
  3
ACAD_TABLESTYLE
350
2E92
  3
ACAD_VISUALSTYLE
350
2E79
  3
ACDB_RECOMPOSE_DATA
350
2F10
  3
AcDbVariableDictionary
350
2F03
  3
ASE_INDEX_DICTIONARY
350
2F00
  3
DWGPROPS
350
2F11
  0
DICTIONARY
  5
2EB1
330
BE7
100
AcDbDictionary
280
     1
281
     1
  3
ADSK_XREC_LAYER_RECONCILED
360
2EB2
  0
DICTIONARY
  5
2EB3
330
BFB
100
AcDbDictionary
280
     1
281
     1
  3
ADSK_XREC_LAYER_RECONCILED
360
2EB4
  0
DICTIONARY
  5
2EB5
330
C00
100
AcDbDictionary
280
     1
281
     1
  3
ADSK_XREC_LAYER_RECONCILED
360
2EB6
  0
DICTIONARY
  5
2EB7
330
C01
100
AcDbDictionary
280
     1
281
     1
  3
ADSK_XREC_LAYER_RECONCILED
360
2EB8
  0
DICTIONARY
  5
2EB9
330
C02
100
AcDbDictionary
280
     1
281
     1
  3
ADSK_XREC_LAYER_RECONCILED
360
2EBA
  0
DICTIONARY
  5
2EBB
330
C03
100
AcDbDictionary
280
     1
281
     1
  3
ADSK_XREC_LAYER_RECONCILED
360
2EBC
  0
DICTIONARY
  5
2EBD
330
C04
100
AcDbDictionary
280
     1
281
     1
  3
ADSK_XREC_LAYER_RECONCILED
360
2EBE
  0
DICTIONARY
  5
2EBF
330
C05
100
AcDbDictionary
280
     1
281
     1
  3
ADSK_XREC_LAYER_RECONCILED
360
2EC0
  0
DICTIONARY
  5
2EC1
330
C06
100
AcDbDictionary
280
     1
281
     1
  3
ADSK_XREC_LAYER_RECONCILED
360
2EC2
  0
DICTIONARY
  5
2EC3
330
C07
100
AcDbDictionary
280
     1
281
     1
  3
ADSK_XREC_LAYER_RECONCILED
360
2EC4
  0
DICTIONARY
  5
2EC5
330
C08
100
AcDbDictionary
280
     1
281
     1
  3
ADSK_XREC_LAYER_RECONCILED
360
2EC6
  0
DICTIONARY
  5
2EC7
330
C09
100
AcDbDictionary
280
     1
281
     1
  3
ADSK_XREC_LAYER_RECONCILED
360
2EC8
  0
DICTIONARY
  5
2EC9
330
C0A
100
AcDbDictionary
280
     1
281
     1
  3
ADSK_XREC_LAYER_RECONCILED
360
2ECA
  0
DICTIONARY
  5
2ECB
330
C0B
100
AcDbDictionary
280
     1
281
     1
  3
ADSK_XREC_LAYER_RECONCILED
360
2ECC
  0
DICTIONARY
  5
2ECD
330
C0C
100
AcDbDictionary
280
     1
281
     1
  3
ADSK_XREC_LAYER_RECONCILED
360
2ECE
  0
DICTIONARY
  5
2ECF
330
C0D
100
AcDbDictionary
280
     1
281
     1
  3
ADSK_XREC_LAYER_RECONCILED
360
2ED0
  0
DICTIONARY
  5
2ED1
330
C0E
100
AcDbDictionary
280
     1
281
     1
  3
ADSK_XREC_LAYER_RECONCILED
360
2ED2
  0
DICTIONARY
  5
2ED3
330
C0F
100
AcDbDictionary
280
     1
281
     1
  3
ADSK_XREC_LAYER_RECONCILED
360
2ED4
  0
DICTIONARY
  5
2ED5
330
C10
100
AcDbDictionary
280
     1
281
     1
  3
ADSK_XREC_LAYER_RECONCILED
360
2ED6
  0
DICTIONARY
  5
2ED7
330
C11
100
AcDbDictionary
280
     1
281
     1
  3
ADSK_XREC_LAYER_RECONCILED
360
2ED8
  0
DICTIONARY
  5
2ED9
330
C12
100
AcDbDictionary
280
     1
281
     1
  3
ADSK_XREC_LAYER_RECONCILED
360
2EDA
  0
DICTIONARY
  5
2EDB
330
C13
100
AcDbDictionary
280
     1
281
     1
  3
ADSK_XREC_LAYER_RECONCILED
360
2EDC
  0
DICTIONARY
  5
2EDD
330
C14
100
AcDbDictionary
280
     1
281
     1
  3
ADSK_XREC_LAYER_RECONCILED
360
2EDE
  0
DICTIONARY
  5
2EDF
330
C15
100
AcDbDictionary
280
     1
281
     1
  3
ADSK_XREC_LAYER_RECONCILED
360
2EE0
  0
DICTIONARY
  5
2EE1
330
C16
100
AcDbDictionary
280
     1
281
     1
  3
ADSK_XREC_LAYER_RECONCILED
360
2EE2
  0
DICTIONARY
  5
2EE3
330
C17
100
AcDbDictionary
280
     1
281
     1
  3
ADSK_XREC_LAYER_RECONCILED
360
2EE4
  0
DICTIONARY
  5
2EE5
330
C18
100
AcDbDictionary
280
     1
281
     1
  3
ADSK_XREC_LAYER_RECONCILED
360
2EE6
  0
DICTIONARY
  5
2EE7
330
C19
100
AcDbDictionary
280
     1
281
     1
  3
ADSK_XREC_LAYER_RECONCILED
360
2EE8
  0
DICTIONARY
  5
2EE9
330
C1A
100
AcDbDictionary
280
     1
281
     1
  3
ADSK_XREC_LAYER_RECONCILED
360
2EEA
  0
DICTIONARY
  5
2EEB
330
C1B
100
AcDbDictionary
280
     1
281
     1
  3
ADSK_XREC_LAYER_RECONCILED
360
2EEC
  0
DICTIONARY
  5
2EED
330
C1C
100
AcDbDictionary
280
     1
281
     1
  3
ADSK_XREC_LAYER_RECONCILED
360
2EEE
  0
DICTIONARY
  5
2EEF
330
C1D
100
AcDbDictionary
280
     1
281
     1
  3
ADSK_XREC_LAYER_RECONCILED
360
2EF0
  0
DICTIONARY
  5
2EF1
330
C1E
100
AcDbDictionary
280
     1
281
     1
  3
ADSK_XREC_LAYER_RECONCILED
360
2EF2
  0
DICTIONARY
  5
2EF3
330
C1F
100
AcDbDictionary
280
     1
281
     1
  3
ADSK_XREC_LAYER_RECONCILED
360
2EF4
  0
DICTIONARY
  5
2EF5
330
C20
100
AcDbDictionary
280
     1
281
     1
  3
ADSK_XREC_LAYER_RECONCILED
360
2EF6
  0
DICTIONARY
  5
2EF7
330
C21
100
AcDbDictionary
280
     1
281
     1
  3
ADSK_XREC_LAYER_RECONCILED
360
2EF8
  0
DICTIONARY
  5
2EF9
330
C22
100
AcDbDictionary
280
     1
281
     1
  3
ADSK_XREC_LAYER_RECONCILED
360
2EFA
  0
DICTIONARY
  5
2EFB
330
C23
100
AcDbDictionary
280
     1
281
     1
  3
ADSK_XREC_LAYER_RECONCILED
360
2EFC
  0
DICTIONARY
  5
2EFD
330
C42
100
AcDbDictionary
280
     1
281
     1
  3
ADSK_XREC_LAYER_RECONCILED
360
2EFE
  0
XRECORD
  5
2EAE
102
{ACAD_REACTORS
330
BE3
102
}
330
BE3
100
AcDbXrecord
280
     1
300
AMECH_PP
300
2013
300
PDSU_F_S
  0
DICTIONARY
  5
BF2
102
{ACAD_REACTORS
330
BE3
102
}
330
BE3
100
AcDbDictionary
281
     1
  0
DICTIONARY
  5
2EAB
102
{ACAD_REACTORS
330
BE3
102
}
330
BE3
100
AcDbDictionary
281
     1
  3
Imperial24
350
2EAC
  0
DICTIONARY
  5
BE4
102
{ACAD_REACTORS
330
BE3
102
}
330
BE3
100
AcDbDictionary
281
     1
  0
DICTIONARY
  5
BF0
102
{ACAD_REACTORS
330
BE3
102
}
330
BE3
100
AcDbDictionary
281
     1
  3
Layout1
350
BF6
  3
Model
350
BFA
  0
DICTIONARY
  5
BF1
102
{ACAD_REACTORS
330
BE3
102
}
330
BE3
100
AcDbDictionary
281
     1
  3
ByBlock
350
2E69
  3
ByLayer
350
2E61
  3
Global
350
2E71
  0
DICTIONARY
  5
2EA6
102
{ACAD_REACTORS
330
BE3
102
}
330
BE3
100
AcDbDictionary
281
     1
  3
Standard
350
2EA7
  0
DICTIONARY
  5
BED
102
{ACAD_REACTORS
330
BE3
102
}
330
BE3
100
AcDbDictionary
281
     1
  3
Standard
350
BEE
  0
DICTIONARY
  5
BEF
102
{ACAD_REACTORS
330
BE3
102
}
330
BE3
100
AcDbDictionary
281
     1
  0
ACDBDICTIONARYWDFLT
  5
BE5
102
{ACAD_REACTORS
330
BE3
102
}
330
BE3
100
AcDbDictionary
281
     1
  3
Normal
350
BE6
100
AcDbDictionaryWithDefault
340
BE6
  0
DICTIONARY
  5
2E94
102
{ACAD_REACTORS
330
BE3
102
}
330
BE3
100
AcDbDictionary
281
     1
  3
A0
350
2E95
  3
A1
350
2E96
  3
A2
350
2E97
  3
A3
350
2E98
  3
A4
350
2E99
  3
A5
350
2E9A
  3
A6
350
2E9B
  3
A7
350
2E9C
  3
A8
350
2E9D
  3
A9
350
2E9E
  3
B0
350
2E9F
  3
B1
350
2EA0
  3
B2
350
2EA1
  3
B3
350
2EA2
  3
B4
350
2EA3
  3
B5
350
2EA4
  3
B6
350
2EA5
  0
DICTIONARY
  5
2EA8
102
{ACAD_REACTORS
330
BE3
102
}
330
BE3
100
AcDbDictionary
281
     1
  3
Imperial24
350
2EAA
  0
DICTIONARY
  5
2E92
102
{ACAD_REACTORS
330
BE3
102
}
330
BE3
100
AcDbDictionary
281
     1
  3
Standard
350
2E93
  0
DICTIONARY
  5
2E79
102
{ACAD_REACTORS
330
BE3
102
}
330
BE3
100
AcDbDictionary
281
     1
  3
2dWireframe
350
2E7F
  3
Basic
350
2E7E
  3
Brighten
350
2E85
  3
ColorChange
350
2E89
  3
Conceptual
350
2E82
  3
Dim
350
2E84
  3
EdgeColorOff
350
2E91
  3
Facepattern
350
2E88
  3
Flat
350
2E7A
  3
FlatWithEdges
350
2E7B
  3
Gouraud
350
2E7C
  3
GouraudWithEdges
350
2E7D
  3
Hidden
350
2E81
  3
JitterOff
350
2E8F
  3
Linepattern
350
2E87
  3
OverhangOff
350
2E90
  3
Realistic
350
2E83
  3
Shaded
350
2E8E
  3
Shaded with edges
350
2E8D
  3
Shades of Gray
350
2E8A
  3
Sketchy
350
2E8B
  3
Thicken
350
2E86
  3
Wireframe
350
2E80
  3
X-Ray
350
2E8C
  0
XRECORD
  5
2F10
102
{ACAD_REACTORS
330
BE3
102
}
330
BE3
100
AcDbXrecord
280
     1
 90
        1
330
2E93
  0
DICTIONARY
  5
2F03
102
{ACAD_REACTORS
330
BE3
102
}
330
BE3
100
AcDbDictionary
281
     1
  3
CANNOSCALE
350
2F08
  3
CMLEADERSTYLE
350
2F05
  3
CTABLESTYLE
350
2F04
  3
CVIEWDETAILSTYLE
350
2F06
  3
CVIEWSECTIONSTYLE
350
2F07
  3
DIMASSOC
350
2F0C
  3
INDEXCTL
350
2F0A
  3
SORTENTS
350
2F09
  3
XCLIPFRAME
350
2F0B
  0
DICTIONARY
  5
2F00
102
{ACAD_REACTORS
330
BE3
102
}
330
BE3
100
AcDbDictionary
281
     1
  3
ASEBlockHierarchyIndexRecord
350
2F02
1001
DCO15
1040
1815723982.511
  0
XRECORD
  5
2F11
102
{ACAD_REACTORS
330
BE3
102
}
330
BE3
100
AcDbXrecord
280
     1
  1
DWGPROPS COOKIE
  2

  3

  4

  6

  7

  8
Micke
  9

300
=
301
=
302
=
303
=
304
=
305
=
306
=
307
=
308
=
309
=
 40
0.0925140277777778
 41
2455817.64629206
 42
2456818.535723507
  1

 90
        0
  0
XRECORD
  5
2EB2
102
{ACAD_REACTORS
330
2EB1
102
}
330
2EB1
100
AcDbXrecord
280
     1
290
     1
  0
XRECORD
  5
2EB4
102
{ACAD_REACTORS
330
2EB3
102
}
330
2EB3
100
AcDbXrecord
280
     1
290
     1
  0
XRECORD
  5
2EB6
102
{ACAD_REACTORS
330
2EB5
102
}
330
2EB5
100
AcDbXrecord
280
     1
290
     1
  0
XRECORD
  5
2EB8
102
{ACAD_REACTORS
330
2EB7
102
}
330
2EB7
100
AcDbXrecord
280
     1
290
     1
  0
XRECORD
  5
2EBA
102
{ACAD_REACTORS
330
2EB9
102
}
330
2EB9
100
AcDbXrecord
280
     1
290
     1
  0
XRECORD
  5
2EBC
102
{ACAD_REACTORS
330
2EBB
102
}
330
2EBB
100
AcDbXrecord
280
     1
290
     1
  0
XRECORD
  5
2EBE
102
{ACAD_REACTORS
330
2EBD
102
}
330
2EBD
100
AcDbXrecord
280
     1
290
     1
  0
XRECORD
  5
2EC0
102
{ACAD_REACTORS
330
2EBF
102
}
330
2EBF
100
AcDbXrecord
280
     1
290
     1
  0
XRECORD
  5
2EC2
102
{ACAD_REACTORS
330
2EC1
102
}
330
2EC1
100
AcDbXrecord
280
     1
290
     1
  0
XRECORD
  5
2EC4
102
{ACAD_REACTORS
330
2EC3
102
}
330
2EC3
100
AcDbXrecord
280
     1
290
     1
  0
XRECORD
  5
2EC6
102
{ACAD_REACTORS
330
2EC5
102
}
330
2EC5
100
AcDbXrecord
280
     1
290
     1
  0
XRECORD
  5
2EC8
102
{ACAD_REACTORS
330
2EC7
102
}
330
2EC7
100
AcDbXrecord
280
     1
290
     1
  0
XRECORD
  5
2ECA
102
{ACAD_REACTORS
330
2EC9
102
}
330
2EC9
100
AcDbXrecord
280
     1
290
     1
  0
XRECORD
  5
2ECC
102
{ACAD_REACTORS
330
2ECB
102
}
330
2ECB
100
AcDbXrecord
280
     1
290
     1
  0
XRECORD
  5
2ECE
102
{ACAD_REACTORS
330
2ECD
102
}
330
2ECD
100
AcDbXrecord
280
     1
290
     1
  0
XRECORD
  5
2ED0
102
{ACAD_REACTORS
330
2ECF
102
}
330
2ECF
100
AcDbXrecord
280
     1
290
     1
  0
XRECORD
  5
2ED2
102
{ACAD_REACTORS
330
2ED1
102
}
330
2ED1
100
AcDbXrecord
280
     1
290
     1
  0
XRECORD
  5
2ED4
102
{ACAD_REACTORS
330
2ED3
102
}
330
2ED3
100
AcDbXrecord
280
     1
290
     1
  0
XRECORD
  5
2ED6
102
{ACAD_REACTORS
330
2ED5
102
}
330
2ED5
100
AcDbXrecord
280
     1
290
     1
  0
XRECORD
  5
2ED8
102
{ACAD_REACTORS
330
2ED7
102
}
330
2ED7
100
AcDbXrecord
280
     1
290
     1
  0
XRECORD
  5
2EDA
102
{ACAD_REACTORS
330
2ED9
102
}
330
2ED9
100
AcDbXrecord
280
     1
290
     1
  0
XRECORD
  5
2EDC
102
{ACAD_REACTORS
330
2EDB
102
}
330
2EDB
100
AcDbXrecord
280
     1
290
     1
  0
XRECORD
  5
2EDE
102
{ACAD_REACTORS
330
2EDD
102
}
330
2EDD
100
AcDbXrecord
280
     1
290
     1
  0
XRECORD
  5
2EE0
102
{ACAD_REACTORS
330
2EDF
102
}
330
2EDF
100
AcDbXrecord
280
     1
290
     1
  0
XRECORD
  5
2EE2
102
{ACAD_REACTORS
330
2EE1
102
}
330
2EE1
100
AcDbXrecord
280
     1
290
     1
  0
XRECORD
  5
2EE4
102
{ACAD_REACTORS
330
2EE3
102
}
330
2EE3
100
AcDbXrecord
280
     1
290
     1
  0
XRECORD
  5
2EE6
102
{ACAD_REACTORS
330
2EE5
102
}
330
2EE5
100
AcDbXrecord
280
     1
290
     1
  0
XRECORD
  5
2EE8
102
{ACAD_REACTORS
330
2EE7
102
}
330
2EE7
100
AcDbXrecord
280
     1
290
     1
  0
XRECORD
  5
2EEA
102
{ACAD_REACTORS
330
2EE9
102
}
330
2EE9
100
AcDbXrecord
280
     1
290
     1
  0
XRECORD
  5
2EEC
102
{ACAD_REACTORS
330
2EEB
102
}
330
2EEB
100
AcDbXrecord
280
     1
290
     1
  0
XRECORD
  5
2EEE
102
{ACAD_REACTORS
330
2EED
102
}
330
2EED
100
AcDbXrecord
280
     1
290
     1
  0
XRECORD
  5
2EF0
102
{ACAD_REACTORS
330
2EEF
102
}
330
2EEF
100
AcDbXrecord
280
     1
290
     1
  0
XRECORD
  5
2EF2
102
{ACAD_REACTORS
330
2EF1
102
}
330
2EF1
100
AcDbXrecord
280
     1
290
     1
  0
XRECORD
  5
2EF4
102
{ACAD_REACTORS
330
2EF3
102
}
330
2EF3
100
AcDbXrecord
280
     1
290
     1
  0
XRECORD
  5
2EF6
102
{ACAD_REACTORS
330
2EF5
102
}
330
2EF5
100
AcDbXrecord
280
     1
290
     1
  0
XRECORD
  5
2EF8
102
{ACAD_REACTORS
330
2EF7
102
}
330
2EF7
100
AcDbXrecord
280
     1
290
     1
  0
XRECORD
  5
2EFA
102
{ACAD_REACTORS
330
2EF9
102
}
330
2EF9
100
AcDbXrecord
280
     1
290
     1
  0
XRECORD
  5
2EFC
102
{ACAD_REACTORS
330
2EFB
102
}
330
2EFB
100
AcDbXrecord
280
     1
290
     1
  0
XRECORD
  5
2EFE
102
{ACAD_REACTORS
330
2EFD
102
}
330
2EFD
100
AcDbXrecord
280
     1
290
     1
  0
ACDBDETAILVIEWSTYLE
  5
2EAC
102
{ACAD_REACTORS
330
2EAB
102
}
330
2EAB
100
AcDbModelDocViewStyle
 70
     0
  3
Imperial24
290
     0
100
AcDbDetailViewStyle
 70
     0
 71
     0
 90
        3
 71
     1
340
BE8
 40
0.24
340
0
 40
0.24
300

 40
0.36
280
     3
 71
     2
340
BEC
 90
       25
 71
     3
340
BE8
 40
0.24
 90
        1
 40
0.75
 90
        1
300
%<\AcVar ViewType \f "%tc1">% %<\AcVar ViewDetailId>%\PSCALE %<\AcVar ViewScale \f "%sn">%
 71
     4
340
BEC
 90
       25
340
BEC
 90
       25
280
     0
  0
LAYOUT
  5
BF6
102
{ACAD_XDICTIONARY
360
2F12
102
}
102
{ACAD_REACTORS
330
BF0
102
}
330
BF0
100
AcDbPlotSettings
  1

  2
\\GBCFS501\GBCPR502
  4

  6

 40
0.0
 41
0.0
 42
0.0
 43
0.0
 44
0.0
 45
0.0
 46
0.0
 47
0.0
 48
0.0
 49
0.0
140
0.0
141
0.0
142
1.0
143
1.0
 70
   688
 72
     0
 73
     0
 74
     5
  7

 75
    16
147
1.0
148
0.0
149
0.0
100
AcDbLayout
  1
Layout1
 70
     1
 71
     1
 10
0.0
 20
0.0
 11
12.0
 21
9.0
 12
0.0
 22
0.0
 32
0.0
 14
1.000000000000000E+20
 24
1.000000000000000E+20
 34
1.000000000000000E+20
 15
-1.000000000000000E+20
 25
-1.000000000000000E+20
 35
-1.000000000000000E+20
146
0.0
 13
0.0
 23
0.0
 33
0.0
 16
1.0
 26
0.0
 36
0.0
 17
0.0
 27
1.0
 37
0.0
 76
     0
330
BF3
  0
LAYOUT
  5
BFA
102
{ACAD_XDICTIONARY
360
2F14
102
}
102
{ACAD_REACTORS
330
BF0
102
}
330
BF0
100
AcDbPlotSettings
  1

  2
\\GBCFS501\GBCPR502
  4

  6

 40
0.0
 41
0.0
 42
0.0
 43
0.0
 44
0.0
 45
0.0
 46
0.0
 47
0.0
 48
0.0
 49
0.0
140
0.0
141
0.0
142
1.0
143
1.0
 70
  1712
 72
     0
 73
     0
 74
     0
  7

 75
     0
147
1.0
148
0.0
149
0.0
100
AcDbLayout
  1
Model
 70
     1
 71
     0
 10
0.0
 20
0.0
 11
12.0
 21
9.0
 12
0.0
 22
0.0
 32
0.0
 14
0.0
 24
0.0
 34
0.0
 15
0.0
 25
0.0
 35
0.0
146
0.0
 13
0.0
 23
0.0
 33
0.0
 16
1.0
 26
0.0
 36
0.0
 17
0.0
 27
1.0
 37
0.0
 76
     0
330
BF7
331
2E5D
  0
MATERIAL
  5
2E69
102
{ACAD_XDICTIONARY
360
2E6A
102
}
102
{ACAD_REACTORS
330
BF1
102
}
330
BF1
100
AcDbMaterial
  1
ByBlock
 72
     0
 43
0.0208333333333333
 43
0.0
 43
0.0
 43
0.0
 43
0.0
 43
0.0208333333333333
 43
0.0
 43
0.0
 43
0.0
 43
0.0
 43
1.0
 43
0.0
 43
0.0
 43
0.0
 43
0.0
 43
1.0
 77
     0
 47
0.0208333333333333
 47
0.0
 47
0.0
 47
0.0
 47
0.0
 47
0.0208333333333333
 47
0.0
 47
0.0
 47
0.0
 47
0.0
 47
1.0
 47
0.0
 47
0.0
 47
0.0
 47
0.0
 47
1.0
171
     0
 49
0.0208333333333333
 49
0.0
 49
0.0
 49
0.0
 49
0.0
 49
0.0208333333333333
 49
0.0
 49
0.0
 49
0.0
 49
0.0
 49
1.0
 49
0.0
 49
0.0
 49
0.0
 49
0.0
 49
1.0
175
     0
142
0.0208333333333333
142
0.0
142
0.0
142
0.0
142
0.0
142
0.0208333333333333
142
0.0
142
0.0
142
0.0
142
0.0
142
1.0
142
0.0
142
0.0
142
0.0
142
0.0
142
1.0
179
     0
144
0.0208333333333333
144
0.0
144
0.0
144
0.0
144
0.0
144
0.0208333333333333
144
0.0
144
0.0
144
0.0
144
0.0
144
1.0
144
0.0
144
0.0
144
0.0
144
0.0
144
1.0
147
0.0208333333333333
147
0.0
147
0.0
147
0.0
147
0.0
147
0.0208333333333333
147
0.0
147
0.0
147
0.0
147
0.0
147
1.0
147
0.0
147
0.0
147
0.0
147
0.0
147
1.0
  0
MATERIAL
  5
2E61
102
{ACAD_XDICTIONARY
360
2E62
102
}
102
{ACAD_REACTORS
330
BF1
102
}
330
BF1
100
AcDbMaterial
  1
ByLayer
 72
     0
 43
0.0208333333333333
 43
0.0
 43
0.0
 43
0.0
 43
0.0
 43
0.0208333333333333
 43
0.0
 43
0.0
 43
0.0
 43
0.0
 43
1.0
 43
0.0
 43
0.0
 43
0.0
 43
0.0
 43
1.0
 77
     0
 47
0.0208333333333333
 47
0.0
 47
0.0
 47
0.0
 47
0.0
 47
0.0208333333333333
 47
0.0
 47
0.0
 47
0.0
 47
0.0
 47
1.0
 47
0.0
 47
0.0
 47
0.0
 47
0.0
 47
1.0
171
     0
 49
0.0208333333333333
 49
0.0
 49
0.0
 49
0.0
 49
0.0
 49
0.0208333333333333
 49
0.0
 49
0.0
 49
0.0
 49
0.0
 49
1.0
 49
0.0
 49
0.0
 49
0.0
 49
0.0
 49
1.0
175
     0
142
0.0208333333333333
142
0.0
142
0.0
142
0.0
142
0.0
142
0.0208333333333333
142
0.0
142
0.0
142
0.0
142
0.0
142
1.0
142
0.0
142
0.0
142
0.0
142
0.0
142
1.0
179
     0
144
0.0208333333333333
144
0.0
144
0.0
144
0.0
144
0.0
144
0.0208333333333333
144
0.0
144
0.0
144
0.0
144
0.0
144
1.0
144
0.0
144
0.0
144
0.0
144
0.0
144
1.0
147
0.0208333333333333
147
0.0
147
0.0
147
0.0
147
0.0
147
0.0208333333333333
147
0.0
147
0.0
147
0.0
147
0.0
147
1.0
147
0.0
147
0.0
147
0.0
147
0.0
147
1.0
  0
MATERIAL
  5
2E71
102
{ACAD_XDICTIONARY
360
2E72
102
}
102
{ACAD_REACTORS
330
BF1
102
}
330
BF1
100
AcDbMaterial
  1
Global
 72
     0
 43
0.0208333333333333
 43
0.0
 43
0.0
 43
0.0
 43
0.0
 43
0.0208333333333333
 43
0.0
 43
0.0
 43
0.0
 43
0.0
 43
1.0
 43
0.0
 43
0.0
 43
0.0
 43
0.0
 43
1.0
 77
     0
 47
0.0208333333333333
 47
0.0
 47
0.0
 47
0.0
 47
0.0
 47
0.0208333333333333
 47
0.0
 47
0.0
 47
0.0
 47
0.0
 47
1.0
 47
0.0
 47
0.0
 47
0.0
 47
0.0
 47
1.0
171
     0
 49
0.0208333333333333
 49
0.0
 49
0.0
 49
0.0
 49
0.0
 49
0.0208333333333333
 49
0.0
 49
0.0
 49
0.0
 49
0.0
 49
1.0
 49
0.0
 49
0.0
 49
0.0
 49
0.0
 49
1.0
175
     0
142
0.0208333333333333
142
0.0
142
0.0
142
0.0
142
0.0
142
0.0208333333333333
142
0.0
142
0.0
142
0.0
142
0.0
142
1.0
142
0.0
142
0.0
142
0.0
142
0.0
142
1.0
179
     0
144
0.0208333333333333
144
0.0
144
0.0
144
0.0
144
0.0
144
0.0208333333333333
144
0.0
144
0.0
144
0.0
144
0.0
144
1.0
144
0.0
144
0.0
144
0.0
144
0.0
144
1.0
147
0.0208333333333333
147
0.0
147
0.0
147
0.0
147
0.0
147
0.0208333333333333
147
0.0
147
0.0
147
0.0
147
0.0
147
1.0
147
0.0
147
0.0
147
0.0
147
0.0
147
1.0
  0
MLEADERSTYLE
  5
2EA7
102
{ACAD_REACTORS
330
2EA6
102
}
330
2EA6
100
AcDbMLeaderStyle
170
     2
171
     1
172
     0
 90
        2
 40
0.0
 41
0.0
173
     1
 91
-1056964608
340
BEA
 92
       -2
290
     1
 42
0.09
291
     1
 43
0.36
  3
Standard
 44
0.18
300

342
BE8
174
     1
178
     6
175
     1
176
     0
 93
-1056964608
 45
0.18
292
     0
297
     0
 46
0.18
 94
-1056964608
 47
1.0
 49
1.0
140
1.0
293
     1
141
0.0
294
     1
177
     0
142
1.0
295
     0
296
     0
143
0.125
1001
ACAD_MLEADERVER
1070
     2
  0
MLINESTYLE
  5
BEE
102
{ACAD_REACTORS
330
BED
102
}
330
BED
100
AcDbMlineStyle
  2
STANDARD
 70
     0
  3

 62
   256
 51
90.0
 52
90.0
 71
     2
 49
0.5
 62
   256
  6
BYLAYER
 49
-0.5
 62
   256
  6
BYLAYER
  0
ACDBPLACEHOLDER
  5
BE6
102
{ACAD_REACTORS
330
BE5
102
}
330
BE5
  0
SCALE
  5
2E95
102
{ACAD_REACTORS
330
2E94
102
}
330
2E94
100
AcDbScale
 70
     0
300
1:1
140
1.0
141
1.0
290
     1
  0
SCALE
  5
2E96
102
{ACAD_REACTORS
330
2E94
102
}
330
2E94
100
AcDbScale
 70
     0
300
1/128" = 1'-0"
140
0.0078125
141
12.0
290
     0
  0
SCALE
  5
2E97
102
{ACAD_REACTORS
330
2E94
102
}
330
2E94
100
AcDbScale
 70
     0
300
1/64" = 1'-0"
140
0.015625
141
12.0
290
     0
  0
SCALE
  5
2E98
102
{ACAD_REACTORS
330
2E94
102
}
330
2E94
100
AcDbScale
 70
     0
300
1/32" = 1'-0"
140
0.03125
141
12.0
290
     0
  0
SCALE
  5
2E99
102
{ACAD_REACTORS
330
2E94
102
}
330
2E94
100
AcDbScale
 70
     0
300
1/16" = 1'-0"
140
0.0625
141
12.0
290
     0
  0
SCALE
  5
2E9A
102
{ACAD_REACTORS
330
2E94
102
}
330
2E94
100
AcDbScale
 70
     0
300
3/32" = 1'-0"
140
0.09375
141
12.0
290
     0
  0
SCALE
  5
2E9B
102
{ACAD_REACTORS
330
2E94
102
}
330
2E94
100
AcDbScale
 70
     0
300
1/8" = 1'-0"
140
0.125
141
12.0
290
     0
  0
SCALE
  5
2E9C
102
{ACAD_REACTORS
330
2E94
102
}
330
2E94
100
AcDbScale
 70
     0
300
3/16" = 1'-0"
140
0.1875
141
12.0
290
     0
  0
SCALE
  5
2E9D
102
{ACAD_REACTORS
330
2E94
102
}
330
2E94
100
AcDbScale
 70
     0
300
1/4" = 1'-0"
140
0.25
141
12.0
290
     0
  0
SCALE
  5
2E9E
102
{ACAD_REACTORS
330
2E94
102
}
330
2E94
100
AcDbScale
 70
     0
300
3/8" = 1'-0"
140
0.375
141
12.0
290
     0
  0
SCALE
  5
2E9F
102
{ACAD_REACTORS
330
2E94
102
}
330
2E94
100
AcDbScale
 70
     0
300
1/2" = 1'-0"
140
0.5
141
12.0
290
     0
  0
SCALE
  5
2EA0
102
{ACAD_REACTORS
330
2E94
102
}
330
2E94
100
AcDbScale
 70
     0
300
3/4" = 1'-0"
140
0.75
141
12.0
290
     0
  0
SCALE
  5
2EA1
102
{ACAD_REACTORS
330
2E94
102
}
330
2E94
100
AcDbScale
 70
     0
300
1" = 1'-0"
140
1.0
141
12.0
290
     0
  0
SCALE
  5
2EA2
102
{ACAD_REACTORS
330
2E94
102
}
330
2E94
100
AcDbScale
 70
     0
300
1-1/2" = 1'-0"
140
1.5
141
12.0
290
     0
  0
SCALE
  5
2EA3
102
{ACAD_REACTORS
330
2E94
102
}
330
2E94
100
AcDbScale
 70
     0
300
3" = 1'-0"
140
3.0
141
12.0
290
     0
  0
SCALE
  5
2EA4
102
{ACAD_REACTORS
330
2E94
102
}
330
2E94
100
AcDbScale
 70
     0
300
6" = 1'-0"
140
6.0
141
12.0
290
     0
  0
SCALE
  5
2EA5
102
{ACAD_REACTORS
330
2E94
102
}
330
2E94
100
AcDbScale
 70
     0
300
1'-0" = 1'-0"
140
12.0
141
12.0
290
     0
  0
ACDBSECTIONVIEWSTYLE
  5
2EAA
102
{ACAD_REACTORS
330
2EA8
102
}
330
2EA8
100
AcDbModelDocViewStyle
 70
     0
  3
Imperial24
290
     0
100
AcDbSectionViewStyle
 70
     0
 71
     0
 90
       78
 71
     1
340
BE8
 40
0.24
340
0
340
0
 40
0.24
300
I, O, Q, S, X, Z
 40
0.48
 90
        3
 40
0.18
 90
        1
 71
     2
340
2EA9
 90
       25
340
BEC
 90
       50
 40
0.24
 40
0.0
 40
0.24
 71
     3
340
BE8
 40
0.24
 90
        1
 40
0.75
 90
        1
300
%<\AcVar ViewType \f "%tc1">% %<\AcVar ViewSectionStartId>%-%<\AcVar ViewSectionEndId>%\PSCALE %<\AcVar ViewScale \f "%sn">%
 71
     4
300
ANSI31
 40
1.0
 90
        0
290
     0
290
     0
 90
        6
 40
0.0
 40
1.570796326794896
 40
0.2617993877991494
 40
1.308996938995747
 40
-0.2617993877991494
 40
1.832595714594046
  0
TABLESTYLE
  5
2E93
102
{ACAD_XDICTIONARY
360
2F0E
102
}
102
{ACAD_REACTORS
330
2E92
102
}
330
2E92
100
AcDbTableStyle
  3
Standard
 70
     0
 71
     0
 40
0.06
 41
0.06
280
     0
281
     0
  7
STANDARD
140
0.18
170
     2
 62
     0
 63
     7
283
     0
274
    -2
284
     1
 64
     0
275
    -2
285
     1
 65
     0
276
    -2
286
     1
 66
     0
277
    -2
287
     1
 67
     0
278
    -2
288
     1
 68
     0
279
    -2
289
     1
 69
     0
  7
STANDARD
140
0.25
170
     5
 62
     0
 63
     7
283
     0
274
    -2
284
     1
 64
     0
275
    -2
285
     1
 65
     0
276
    -2
286
     1
 66
     0
277
    -2
287
     1
 67
     0
278
    -2
288
     1
 68
     0
279
    -2
289
     1
 69
     0
  7
STANDARD
140
0.18
170
     5
 62
     0
 63
     7
283
     0
274
    -2
284
     1
 64
     0
275
    -2
285
     1
 65
     0
276
    -2
286
     1
 66
     0
277
    -2
287
     1
 67
     0
278
    -2
288
     1
 68
     0
279
    -2
289
     1
 69
     0
  0
VISUALSTYLE
  5
2E7F
102
{ACAD_XDICTIONARY
360
2F23
102
}
102
{ACAD_REACTORS
330
2E79
102
}
330
2E79
100
AcDbVisualStyle
  2
2dWireframe
 70
     4
 71
     0
 72
     2
 73
     0
 90
        0
 40
-0.6
 41
-30.0
 62
     5
 63
     7
 74
     1
 91
        4
 64
     7
 65
   257
 75
     1
175
     1
 42
1.0
 92
        0
 66
   257
 43
1.0
 76
     1
 77
     6
 78
     2
 67
     7
 79
     5
170
     0
171
     0
290
     0
174
     0
 93
        1
 44
0.0
173
     0
291
     0
 45
0.0
1001
ACAD
1000
AcDbSavedByObjectVersion
1070
     0
  0
VISUALSTYLE
  5
2E7E
102
{ACAD_XDICTIONARY
360
2F21
102
}
102
{ACAD_REACTORS
330
2E79
102
}
330
2E79
100
AcDbVisualStyle
  2
Basic
 70
     7
 71
     1
 72
     0
 73
     1
 90
        0
 40
-0.6
 41
-30.0
 62
     5
 63
     7
 74
     0
 91
        4
 64
     7
 65
   257
 75
     1
175
     1
 42
1.0
 92
        8
 66
     7
 43
1.0
 76
     1
 77
     6
 78
     2
 67
     7
 79
     5
170
     0
171
     0
290
     0
174
     0
 93
        1
 44
0.0
173
     0
291
     1
 45
0.0
1001
ACAD
1000
AcDbSavedByObjectVersion
1070
     0
  0
VISUALSTYLE
  5
2E85
102
{ACAD_XDICTIONARY
360
2F2F
102
}
102
{ACAD_REACTORS
330
2E79
102
}
330
2E79
100
AcDbVisualStyle
  2
Brighten
 70
    12
 71
     2
 72
     2
 73
     0
 90
        0
 40
-0.6
 41
-30.0
 62
     5
 63
     7
 74
     1
 91
        4
 64
     7
 65
   257
 75
     1
175
     1
 42
1.0
 92
        8
 66
     7
 43
1.0
 76
     1
 77
     6
 78
     2
 67
     7
 79
     5
170
     0
171
     0
290
     0
174
     0
 93
        1
 44
50.0
173
     0
291
     1
 45
0.0
1001
ACAD
1000
AcDbSavedByObjectVersion
1070
     0
  0
VISUALSTYLE
  5
2E89
102
{ACAD_XDICTIONARY
360
2F37
102
}
102
{ACAD_REACTORS
330
2E79
102
}
330
2E79
100
AcDbVisualStyle
  2
ColorChange
 70
    16
 71
     2
 72
     2
 73
     3
 90
        0
 40
-0.6
 41
-30.0
 62
     5
 63
     8
 74
     1
 91
        4
 64
     7
 65
   257
 75
     1
175
     1
 42
1.0
 92
        8
 66
     8
 43
1.0
 76
     1
 77
     6
 78
     2
 67
     7
 79
     5
170
     0
171
     0
290
     0
174
     0
 93
        1
 44
0.0
173
     0
291
     1
 45
0.0
1001
ACAD
1000
AcDbSavedByObjectVersion
1070
     0
  0
VISUALSTYLE
  5
2E82
102
{ACAD_XDICTIONARY
360
2F29
102
}
102
{ACAD_REACTORS
330
2E79
102
}
330
2E79
100
AcDbVisualStyle
  2
Conceptual
 70
     9
 71
     3
 72
     2
 73
     0
 90
        0
 40
-0.6
 41
-30.0
 62
     5
 63
     7
 74
     2
 91
        2
 64
     7
 65
   257
 75
     1
175
     1
 42
179.0
 92
        8
 66
     7
 43
1.0
 76
     1
 77
     6
 78
     2
 67
     7
 79
     3
170
     0
171
     0
290
     0
174
     0
 93
        1
 44
0.0
173
     0
291
     0
 45
0.0
1001
ACAD
1000
AcDbSavedByObjectVersion
1070
     0
  0
VISUALSTYLE
  5
2E84
102
{ACAD_XDICTIONARY
360
2F2D
102
}
102
{ACAD_REACTORS
330
2E79
102
}
330
2E79
100
AcDbVisualStyle
  2
Dim
 70
    11
 71
     2
 72
     2
 73
     0
 90
        0
 40
-0.6
 41
-30.0
 62
     5
 63
     7
 74
     1
 91
        4
 64
     7
 65
   257
 75
     1
175
     1
 42
1.0
 92
        8
 66
     7
 43
1.0
 76
     1
 77
     6
 78
     2
 67
     7
 79
     5
170
     0
171
     0
290
     0
174
     0
 93
        1
 44
-50.0
173
     0
291
     1
 45
0.0
1001
ACAD
1000
AcDbSavedByObjectVersion
1070
     0
  0
VISUALSTYLE
  5
2E91
102
{ACAD_XDICTIONARY
360
2F47
102
}
102
{ACAD_REACTORS
330
2E79
102
}
330
2E79
100
AcDbVisualStyle
  2
EdgeColorOff
 70
    22
 71
     2
 72
     2
 73
     0
 90
        0
 40
-0.6
 41
-30.0
 62
     5
 63
     7
 74
     1
 91
        4
 64
     7
 65
   257
 75
     1
175
     1
 42
1.0
 92
        8
 66
     7
 43
1.0
 76
     1
 77
     6
 78
     2
 67
     7
 79
     5
170
     0
171
     0
290
     0
174
     0
 93
        1
 44
0.0
173
     0
291
     1
 45
0.0
1001
ACAD
1000
AcDbSavedByObjectVersion
1070
     0
  0
VISUALSTYLE
  5
2E88
102
{ACAD_XDICTIONARY
360
2F35
102
}
102
{ACAD_REACTORS
330
2E79
102
}
330
2E79
100
AcDbVisualStyle
  2
Facepattern
 70
    15
 71
     2
 72
     2
 73
     0
 90
        0
 40
-0.6
 41
-30.0
 62
     5
 63
     7
 74
     1
 91
        4
 64
     7
 65
   257
 75
     1
175
     1
 42
1.0
 92
        8
 66
     7
 43
1.0
 76
     1
 77
     6
 78
     2
 67
     7
 79
     5
170
     0
171
     0
290
     0
174
     0
 93
        1
 44
0.0
173
     0
291
     1
 45
0.0
1001
ACAD
1000
AcDbSavedByObjectVersion
1070
     0
  0
VISUALSTYLE
  5
2E7A
102
{ACAD_XDICTIONARY
360
2F19
102
}
102
{ACAD_REACTORS
330
2E79
102
}
330
2E79
100
AcDbVisualStyle
  2
Flat
 70
     0
 71
     2
 72
     1
 73
     1
 90
        2
 40
-0.6
 41
30.0
 62
     5
 63
     7
 74
     0
 91
        0
 64
     7
 65
   257
 75
     1
175
     1
 42
1.0
 92
        8
 66
     7
 43
1.0
 76
     1
 77
     6
 78
     2
 67
     7
 79
     5
170
     0
171
     0
290
     0
174
     0
 93
       13
 44
0.0
173
     0
291
     1
 45
0.0
1001
ACAD
1000
AcDbSavedByObjectVersion
1070
     0
  0
VISUALSTYLE
  5
2E7B
102
{ACAD_XDICTIONARY
360
2F1B
102
}
102
{ACAD_REACTORS
330
2E79
102
}
330
2E79
100
AcDbVisualStyle
  2
FlatWithEdges
 70
     1
 71
     2
 72
     1
 73
     1
 90
        2
 40
-0.6
 41
30.0
 62
     5
 63
     7
 74
     1
 91
        0
 64
     7
 65
   257
 75
     1
175
     1
 42
1.0
 92
        0
 66
   257
 43
1.0
 76
     1
 77
     6
 78
     2
 67
     7
 79
     5
170
     0
171
     0
290
     0
174
     0
 93
       13
 44
0.0
173
     0
291
     1
 45
0.0
1001
ACAD
1000
AcDbSavedByObjectVersion
1070
     0
  0
VISUALSTYLE
  5
2E7C
102
{ACAD_XDICTIONARY
360
2F1D
102
}
102
{ACAD_REACTORS
330
2E79
102
}
330
2E79
100
AcDbVisualStyle
  2
Gouraud
 70
     2
 71
     2
 72
     2
 73
     1
 90
        2
 40
-0.6
 41
30.0
 62
     5
 63
     7
 74
     0
 91
        0
 64
     7
 65
   257
 75
     1
175
     1
 42
1.0
 92
        0
 66
     7
 43
1.0
 76
     1
 77
     6
 78
     2
 67
     7
 79
     5
170
     0
171
     0
290
     0
174
     0
 93
       13
 44
0.0
173
     0
291
     1
 45
0.0
1001
ACAD
1000
AcDbSavedByObjectVersion
1070
     0
  0
VISUALSTYLE
  5
2E7D
102
{ACAD_XDICTIONARY
360
2F1F
102
}
102
{ACAD_REACTORS
330
2E79
102
}
330
2E79
100
AcDbVisualStyle
  2
GouraudWithEdges
 70
     3
 71
     2
 72
     2
 73
     1
 90
        2
 40
-0.6
 41
30.0
 62
     5
 63
     7
 74
     1
 91
        0
 64
     7
 65
   257
 75
     1
175
     1
 42
1.0
 92
        0
 66
   257
 43
1.0
 76
     1
 77
     6
 78
     2
 67
     7
 79
     5
170
     0
171
     0
290
     0
174
     0
 93
       13
 44
0.0
173
     0
291
     1
 45
0.0
1001
ACAD
1000
AcDbSavedByObjectVersion
1070
     0
  0
VISUALSTYLE
  5
2E81
102
{ACAD_XDICTIONARY
360
2F27
102
}
102
{ACAD_REACTORS
330
2E79
102
}
330
2E79
100
AcDbVisualStyle
  2
Hidden
 70
     6
 71
     1
 72
     2
 73
     2
 90
        0
 40
-0.6
 41
-30.0
 62
     5
 63
     7
 74
     2
 91
        2
 64
     7
 65
   257
 75
     2
175
     1
 42
40.0
 92
        0
 66
   257
 43
1.0
 76
     1
 77
     6
 78
     2
 67
     7
 79
     3
170
     0
171
     0
290
     0
174
     0
 93
        1
 44
0.0
173
     0
291
     0
 45
0.0
1001
ACAD
1000
AcDbSavedByObjectVersion
1070
     0
  0
VISUALSTYLE
  5
2E8F
102
{ACAD_XDICTIONARY
360
2F43
102
}
102
{ACAD_REACTORS
330
2E79
102
}
330
2E79
100
AcDbVisualStyle
  2
JitterOff
 70
    20
 71
     2
 72
     2
 73
     0
 90
        0
 40
-0.6
 41
-30.0
 62
     5
 63
     7
 74
     1
 91
        4
 64
     7
 65
   257
 75
     1
175
     1
 42
1.0
 92
       10
 66
     7
 43
1.0
 76
     1
 77
     6
 78
     2
 67
     7
 79
     5
170
     0
171
     0
290
     0
174
     0
 93
        1
 44
0.0
173
     0
291
     1
 45
0.0
1001
ACAD
1000
AcDbSavedByObjectVersion
1070
     0
  0
VISUALSTYLE
  5
2E87
102
{ACAD_XDICTIONARY
360
2F33
102
}
102
{ACAD_REACTORS
330
2E79
102
}
330
2E79
100
AcDbVisualStyle
  2
Linepattern
 70
    14
 71
     2
 72
     2
 73
     0
 90
        0
 40
-0.6
 41
-30.0
 62
     5
 63
     7
 74
     1
 91
        4
 64
     7
 65
   257
 75
     7
175
     7
 42
1.0
 92
        8
 66
     7
 43
1.0
 76
     1
 77
     6
 78
     2
 67
     7
 79
     5
170
     0
171
     0
290
     0
174
     0
 93
        1
 44
0.0
173
     0
291
     1
 45
0.0
1001
ACAD
1000
AcDbSavedByObjectVersion
1070
     0
  0
VISUALSTYLE
  5
2E90
102
{ACAD_XDICTIONARY
360
2F45
102
}
102
{ACAD_REACTORS
330
2E79
102
}
330
2E79
100
AcDbVisualStyle
  2
OverhangOff
 70
    21
 71
     2
 72
     2
 73
     0
 90
        0
 40
-0.6
 41
-30.0
 62
     5
 63
     7
 74
     1
 91
        4
 64
     7
 65
   257
 75
     1
175
     1
 42
1.0
 92
        9
 66
     7
 43
1.0
 76
     1
 77
     6
 78
     2
 67
     7
 79
     5
170
     0
171
     0
290
     0
174
     0
 93
        1
 44
0.0
173
     0
291
     1
 45
0.0
1001
ACAD
1000
AcDbSavedByObjectVersion
1070
     0
  0
VISUALSTYLE
  5
2E83
102
{ACAD_XDICTIONARY
360
2F2B
102
}
102
{ACAD_REACTORS
330
2E79
102
}
330
2E79
100
AcDbVisualStyle
  2
Realistic
 70
     8
 71
     2
 72
     3
 73
     0
 90
        2
 40
-0.6
 41
30.0
 62
     5
 63
     7
 74
     0
 91
        0
 64
     7
 65
   257
 75
     1
175
     1
 42
1.0
 92
        8
 66
   257
 43
1.0
 76
     1
 77
     6
 78
     2
 67
     7
 79
     3
170
     0
171
     0
290
     0
174
     0
 93
       13
 44
0.0
173
     0
291
     0
 45
0.0
1001
ACAD
1000
AcDbSavedByObjectVersion
1070
     0
  0
VISUALSTYLE
  5
2E8E
102
{ACAD_XDICTIONARY
360
2F41
102
}
102
{ACAD_REACTORS
330
2E79
102
}
330
2E79
100
AcDbVisualStyle
  2
Shaded
 70
    27
 71
     2
 72
     2
 73
     1
 90
        2
 40
-0.6
 41
30.0
 62
     5
 63
     7
 74
     0
 91
        4
 64
     7
 65
   257
 75
     1
175
     1
 42
1.0
 92
        8
 66
   257
 43
1.0
 76
     1
 77
     6
 78
     2
 67
     8
 79
     3
170
     0
171
     0
290
     0
174
     0
 93
        5
 44
0.0
173
     0
291
     0
 45
0.0
1001
ACAD
1000
AcDbSavedByObjectVersion
1070
     0
  0
VISUALSTYLE
  5
2E8D
102
{ACAD_XDICTIONARY
360
2F3F
102
}
102
{ACAD_REACTORS
330
2E79
102
}
330
2E79
100
AcDbVisualStyle
  2
Shaded with edges
 70
    26
 71
     2
 72
     2
 73
     1
 90
        2
 40
-0.6
 41
30.0
 62
     5
 63
     7
 74
     1
 91
       10
 64
     7
 65
   257
 75
     2
175
     1
 42
1.0
 92
        8
 66
   257
 43
1.0
 76
     1
 77
     6
 78
     2
 67
     7
 79
     3
170
     0
171
     0
290
     0
174
     0
 93
        5
 44
0.0
173
     0
291
     0
 45
0.0
1001
ACAD
1000
AcDbSavedByObjectVersion
1070
     0
  0
VISUALSTYLE
  5
2E8A
102
{ACAD_XDICTIONARY
360
2F39
102
}
102
{ACAD_REACTORS
330
2E79
102
}
330
2E79
100
AcDbVisualStyle
  2
Shades of Gray
 70
    23
 71
     2
 72
     2
 73
     3
 90
        0
 40
-0.6
 41
-30.0
 62
     5
 63
     7
 74
     2
 91
        2
 64
     7
 65
     7
 75
     1
175
     1
 42
40.0
 92
        8
 66
     7
 43
1.0
 76
     1
 77
     6
 78
     2
 67
     7
 79
     3
170
     0
171
     0
290
     0
174
     0
 93
        1
 44
0.0
173
     0
291
     0
 45
0.0
1001
ACAD
1000
AcDbSavedByObjectVersion
1070
     0
  0
VISUALSTYLE
  5
2E8B
102
{ACAD_XDICTIONARY
360
2F3B
102
}
102
{ACAD_REACTORS
330
2E79
102
}
330
2E79
100
AcDbVisualStyle
  2
Sketchy
 70
    24
 71
     1
 72
     2
 73
     2
 90
        0
 40
-0.6
 41
-30.0
 62
     5
 63
     7
 74
     2
 91
        2
 64
     7
 65
     7
 75
     1
175
     1
 42
40.0
 92
       11
 66
     7
 43
1.0
 76
     1
 77
     6
 78
     2
 67
     7
 79
     6
170
     0
171
     0
290
     0
174
     0
 93
        1
 44
0.0
173
     0
291
     0
 45
0.0
1001
ACAD
1000
AcDbSavedByObjectVersion
1070
     0
  0
VISUALSTYLE
  5
2E86
102
{ACAD_XDICTIONARY
360
2F31
102
}
102
{ACAD_REACTORS
330
2E79
102
}
330
2E79
100
AcDbVisualStyle
  2
Thicken
 70
    13
 71
     2
 72
     2
 73
     0
 90
        0
 40
-0.6
 41
-30.0
 62
     5
 63
     7
 74
     1
 91
        4
 64
     7
 65
   257
 75
     1
175
     1
 42
1.0
 92
       12
 66
     7
 43
1.0
 76
     1
 77
     6
 78
     2
 67
     7
 79
     5
170
     0
171
     0
290
     0
174
     0
 93
        1
 44
0.0
173
     0
291
     1
 45
0.0
1001
ACAD
1000
AcDbSavedByObjectVersion
1070
     0
  0
VISUALSTYLE
  5
2E80
102
{ACAD_XDICTIONARY
360
2F25
102
}
102
{ACAD_REACTORS
330
2E79
102
}
330
2E79
100
AcDbVisualStyle
  2
Wireframe
 70
     5
 71
     0
 72
     2
 73
     0
 90
        0
 40
-0.6
 41
-30.0
 62
     5
 63
     7
 74
     1
 91
        4
 64
     7
 65
   257
 75
     1
175
     1
 42
1.0
 92
        0
 66
   257
 43
1.0
 76
     1
 77
     6
 78
     2
 67
     7
 79
     3
170
     0
171
     0
290
     0
174
     0
 93
        1
 44
0.0
173
     0
291
     0
 45
0.0
1001
ACAD
1000
AcDbSavedByObjectVersion
1070
     0
  0
VISUALSTYLE
  5
2E8C
102
{ACAD_XDICTIONARY
360
2F3D
102
}
102
{ACAD_REACTORS
330
2E79
102
}
330
2E79
100
AcDbVisualStyle
  2
X-Ray
 70
    25
 71
     2
 72
     2
 73
     1
 90
        1
 40
0.5
 41
-30.0
 62
     5
 63
     7
 74
     1
 91
        0
 64
     7
 65
   257
 75
     1
175
     1
 42
1.0
 92
        8
 66
     7
 43
1.0
 76
     1
 77
     6
 78
     2
 67
     7
 79
     3
170
     0
171
     0
290
     0
174
     0
 93
       13
 44
0.0
173
     0
291
     0
 45
0.0
1001
ACAD
1000
AcDbSavedByObjectVersion
1070
     0
  0
DICTIONARYVAR
  5
2F08
102
{ACAD_REACTORS
330
2F03
102
}
330
2F03
100
DictionaryVariables
280
     0
  1
1:1
  0
DICTIONARYVAR
  5
2F05
102
{ACAD_REACTORS
330
2F03
102
}
330
2F03
100
DictionaryVariables
280
     0
  1
STANDARD
  0
DICTIONARYVAR
  5
2F04
102
{ACAD_REACTORS
330
2F03
102
}
330
2F03
100
DictionaryVariables
280
     0
  1
STANDARD
  0
DICTIONARYVAR
  5
2F06
102
{ACAD_REACTORS
330
2F03
102
}
330
2F03
100
DictionaryVariables
280
     0
  1
Imperial24
  0
DICTIONARYVAR
  5
2F07
102
{ACAD_REACTORS
330
2F03
102
}
330
2F03
100
DictionaryVariables
280
     0
  1
Imperial24
  0
DICTIONARYVAR
  5
2F0C
102
{ACAD_REACTORS
330
2F03
102
}
330
2F03
100
DictionaryVariables
280
     0
  1
1
  0
DICTIONARYVAR
  5
2F0A
102
{ACAD_REACTORS
330
2F03
102
}
330
2F03
100
DictionaryVariables
280
     0
  1
0
  0
DICTIONARYVAR
  5
2F09
102
{ACAD_REACTORS
330
2F03
102
}
330
2F03
100
DictionaryVariables
280
     0
  1
127
  0
DICTIONARYVAR
  5
2F0B
102
{ACAD_REACTORS
330
2F03
102
}
330
2F03
100
DictionaryVariables
280
     0
  1
0
  0
XRECORD
  5
2F02
102
{ACAD_REACTORS
330
2F00
102
}
330
2F00
100
AcDbXrecord
280
     1
  0
DICTIONARY
  5
2F12
330
BF6
100
AcDbDictionary
280
     1
281
     1
  3
ACAD_XREC_ROUNDTRIP
360
2F13
  0
DICTIONARY
  5
2F14
330
BFA
100
AcDbDictionary
280
     1
281
     1
  3
ACAD_XREC_ROUNDTRIP
360
2F15
  0
DICTIONARY
  5
2E6A
330
2E69
100
AcDbDictionary
280
     1
281
     1
  3
ACAD_XREC_ROUNDTRIP
360
2F17
  3
BUMPTILE
360
2E6C
  3
DIFFUSETILE
360
2E6B
  3
OPACITYTILE
360
2E6F
  3
REFLECTIONTILE
360
2E6E
  3
REFRACTIONTILE
360
2E70
  3
SPECULARTILE
360
2E6D
  0
DICTIONARY
  5
2E62
330
2E61
100
AcDbDictionary
280
     1
281
     1
  3
ACAD_XREC_ROUNDTRIP
360
2F16
  3
BUMPTILE
360
2E64
  3
DIFFUSETILE
360
2E63
  3
OPACITYTILE
360
2E67
  3
REFLECTIONTILE
360
2E66
  3
REFRACTIONTILE
360
2E68
  3
SPECULARTILE
360
2E65
  0
DICTIONARY
  5
2E72
330
2E71
100
AcDbDictionary
280
     1
281
     1
  3
ACAD_XREC_ROUNDTRIP
360
2F18
  3
BUMPTILE
360
2E74
  3
DIFFUSETILE
360
2E73
  3
OPACITYTILE
360
2E77
  3
REFLECTIONTILE
360
2E76
  3
REFRACTIONTILE
360
2E78
  3
SPECULARTILE
360
2E75
  0
DICTIONARY
  5
2F0E
330
2E93
100
AcDbDictionary
280
     1
281
     1
  3
ACAD_ROUNDTRIP_2008_TABLESTYLE_CELLSTYLEMAP
360
2F0F
  3
ACAD_XREC_ROUNDTRIP
360
2F49
  0
DICTIONARY
  5
2F23
330
2E7F
100
AcDbDictionary
280
     1
281
     1
  3
ACAD_XREC_ROUNDTRIP
360
2F24
  0
DICTIONARY
  5
2F21
330
2E7E
100
AcDbDictionary
280
     1
281
     1
  3
ACAD_XREC_ROUNDTRIP
360
2F22
  0
DICTIONARY
  5
2F2F
330
2E85
100
AcDbDictionary
280
     1
281
     1
  3
ACAD_XREC_ROUNDTRIP
360
2F30
  0
DICTIONARY
  5
2F37
330
2E89
100
AcDbDictionary
280
     1
281
     1
  3
ACAD_XREC_ROUNDTRIP
360
2F38
  0
DICTIONARY
  5
2F29
330
2E82
100
AcDbDictionary
280
     1
281
     1
  3
ACAD_XREC_ROUNDTRIP
360
2F2A
  0
DICTIONARY
  5
2F2D
330
2E84
100
AcDbDictionary
280
     1
281
     1
  3
ACAD_XREC_ROUNDTRIP
360
2F2E
  0
DICTIONARY
  5
2F47
330
2E91
100
AcDbDictionary
280
     1
281
     1
  3
ACAD_XREC_ROUNDTRIP
360
2F48
  0
DICTIONARY
  5
2F35
330
2E88
100
AcDbDictionary
280
     1
281
     1
  3
ACAD_XREC_ROUNDTRIP
360
2F36
  0
DICTIONARY
  5
2F19
330
2E7A
100
AcDbDictionary
280
     1
281
     1
  3
ACAD_XREC_ROUNDTRIP
360
2F1A
  0
DICTIONARY
  5
2F1B
330
2E7B
100
AcDbDictionary
280
     1
281
     1
  3
ACAD_XREC_ROUNDTRIP
360
2F1C
  0
DICTIONARY
  5
2F1D
330
2E7C
100
AcDbDictionary
280
     1
281
     1
  3
ACAD_XREC_ROUNDTRIP
360
2F1E
  0
DICTIONARY
  5
2F1F
330
2E7D
100
AcDbDictionary
280
     1
281
     1
  3
ACAD_XREC_ROUNDTRIP
360
2F20
  0
DICTIONARY
  5
2F27
330
2E81
100
AcDbDictionary
280
     1
281
     1
  3
ACAD_XREC_ROUNDTRIP
360
2F28
  0
DICTIONARY
  5
2F43
330
2E8F
100
AcDbDictionary
280
     1
281
     1
  3
ACAD_XREC_ROUNDTRIP
360
2F44
  0
DICTIONARY
  5
2F33
330
2E87
100
AcDbDictionary
280
     1
281
     1
  3
ACAD_XREC_ROUNDTRIP
360
2F34
  0
DICTIONARY
  5
2F45
330
2E90
100
AcDbDictionary
280
     1
281
     1
  3
ACAD_XREC_ROUNDTRIP
360
2F46
  0
DICTIONARY
  5
2F2B
330
2E83
100
AcDbDictionary
280
     1
281
     1
  3
ACAD_XREC_ROUNDTRIP
360
2F2C
  0
DICTIONARY
  5
2F41
330
2E8E
100
AcDbDictionary
280
     1
281
     1
  3
ACAD_XREC_ROUNDTRIP
360
2F42
  0
DICTIONARY
  5
2F3F
330
2E8D
100
AcDbDictionary
280
     1
281
     1
  3
ACAD_XREC_ROUNDTRIP
360
2F40
  0
DICTIONARY
  5
2F39
330
2E8A
100
AcDbDictionary
280
     1
281
     1
  3
ACAD_XREC_ROUNDTRIP
360
2F3A
  0
DICTIONARY
  5
2F3B
330
2E8B
100
AcDbDictionary
280
     1
281
     1
  3
ACAD_XREC_ROUNDTRIP
360
2F3C
  0
DICTIONARY
  5
2F31
330
2E86
100
AcDbDictionary
280
     1
281
     1
  3
ACAD_XREC_ROUNDTRIP
360
2F32
  0
DICTIONARY
  5
2F25
330
2E80
100
AcDbDictionary
280
     1
281
     1
  3
ACAD_XREC_ROUNDTRIP
360
2F26
  0
DICTIONARY
  5
2F3D
330
2E8C
100
AcDbDictionary
280
     1
281
     1
  3
ACAD_XREC_ROUNDTRIP
360
2F3E
  0
XRECORD
  5
2F13
102
{ACAD_REACTORS
330
2F12
102
}
330
2F12
100
AcDbXrecord
280
     1
102
SHADEPLOT
 70
     0
102
SHADEPLOTRESLEVEL
 70
     2
102
SHADEPLOTCUSTOMDPI
 70
   300
  0
XRECORD
  5
2F15
102
{ACAD_REACTORS
330
2F14
102
}
330
2F14
100
AcDbXrecord
280
     1
102
SHADEPLOT
 70
     0
102
SHADEPLOTRESLEVEL
 70
     2
102
SHADEPLOTCUSTOMDPI
 70
   300
  0
XRECORD
  5
2F17
102
{ACAD_REACTORS
330
2E6A
102
}
330
2E6A
100
AcDbXrecord
280
     1
102
MATERIAL
148
0.0
149
0.0
149
0.0
 93
        0
 94
      127
282
     0
 72
     0
 77
     0
171
     0
175
     0
179
     0
273
     0
  0
XRECORD
  5
2E6C
102
{ACAD_REACTORS
330
2E6A
102
}
330
2E6A
100
AcDbXrecord
280
     1
270
     1
271
     1
  0
XRECORD
  5
2E6B
102
{ACAD_REACTORS
330
2E6A
102
}
330
2E6A
100
AcDbXrecord
280
     1
270
     1
271
     1
  0
XRECORD
  5
2E6F
102
{ACAD_REACTORS
330
2E6A
102
}
330
2E6A
100
AcDbXrecord
280
     1
270
     1
271
     1
  0
XRECORD
  5
2E6E
102
{ACAD_REACTORS
330
2E6A
102
}
330
2E6A
100
AcDbXrecord
280
     1
270
     1
271
     1
  0
XRECORD
  5
2E70
102
{ACAD_REACTORS
330
2E6A
102
}
330
2E6A
100
AcDbXrecord
280
     1
270
     1
271
     1
  0
XRECORD
  5
2E6D
102
{ACAD_REACTORS
330
2E6A
102
}
330
2E6A
100
AcDbXrecord
280
     1
270
     1
271
     1
  0
XRECORD
  5
2F16
102
{ACAD_REACTORS
330
2E62
102
}
330
2E62
100
AcDbXrecord
280
     1
102
MATERIAL
148
0.0
149
0.0
149
0.0
 93
        0
 94
      127
282
     0
 72
     0
 77
     0
171
     0
175
     0
179
     0
273
     0
  0
XRECORD
  5
2E64
102
{ACAD_REACTORS
330
2E62
102
}
330
2E62
100
AcDbXrecord
280
     1
270
     1
271
     1
  0
XRECORD
  5
2E63
102
{ACAD_REACTORS
330
2E62
102
}
330
2E62
100
AcDbXrecord
280
     1
270
     1
271
     1
  0
XRECORD
  5
2E67
102
{ACAD_REACTORS
330
2E62
102
}
330
2E62
100
AcDbXrecord
280
     1
270
     1
271
     1
  0
XRECORD
  5
2E66
102
{ACAD_REACTORS
330
2E62
102
}
330
2E62
100
AcDbXrecord
280
     1
270
     1
271
     1
  0
XRECORD
  5
2E68
102
{ACAD_REACTORS
330
2E62
102
}
330
2E62
100
AcDbXrecord
280
     1
270
     1
271
     1
  0
XRECORD
  5
2E65
102
{ACAD_REACTORS
330
2E62
102
}
330
2E62
100
AcDbXrecord
280
     1
270
     1
271
     1
  0
XRECORD
  5
2F18
102
{ACAD_REACTORS
330
2E72
102
}
330
2E72
100
AcDbXrecord
280
     1
102
MATERIAL
148
0.0
149
0.0
149
0.0
 93
        0
 94
      127
282
     0
 72
     0
 77
     0
171
     0
175
     0
179
     0
273
     0
  0
XRECORD
  5
2E74
102
{ACAD_REACTORS
330
2E72
102
}
330
2E72
100
AcDbXrecord
280
     1
270
     1
271
     1
  0
XRECORD
  5
2E73
102
{ACAD_REACTORS
330
2E72
102
}
330
2E72
100
AcDbXrecord
280
     1
270
     1
271
     1
  0
XRECORD
  5
2E77
102
{ACAD_REACTORS
330
2E72
102
}
330
2E72
100
AcDbXrecord
280
     1
270
     1
271
     1
  0
XRECORD
  5
2E76
102
{ACAD_REACTORS
330
2E72
102
}
330
2E72
100
AcDbXrecord
280
     1
270
     1
271
     1
  0
XRECORD
  5
2E78
102
{ACAD_REACTORS
330
2E72
102
}
330
2E72
100
AcDbXrecord
280
     1
270
     1
271
     1
  0
XRECORD
  5
2E75
102
{ACAD_REACTORS
330
2E72
102
}
330
2E72
100
AcDbXrecord
280
     1
270
     1
271
     1
  0
CELLSTYLEMAP
  5
2F0F
102
{ACAD_REACTORS
330
2F0E
102
}
330
2F0E
100
AcDbCellStyleMap
 90
        3
300
CELLSTYLE
  1
TABLEFORMAT_BEGIN
 90
        5
170
     1
 91
        0
 92
    32768
 62
   257
 93
        1
300
CONTENTFORMAT
  1
CONTENTFORMAT_BEGIN
 90
        0
 91
        0
 92
      512
 93
        0
300

 40
0.0
140
1.0
 94
        5
 62
     0
340
BE8
144
0.25
309
CONTENTFORMAT_END
171
     0
 94
        0
309
TABLEFORMAT_END
  1
CELLSTYLE_BEGIN
 90
        1
 91
        1
300
_TITLE
309
CELLSTYLE_END
300
CELLSTYLE
  1
TABLEFORMAT_BEGIN
 90
        5
170
     1
 91
        0
 92
        0
 62
   257
 93
        1
300
CONTENTFORMAT
  1
CONTENTFORMAT_BEGIN
 90
        0
 91
        0
 92
      512
 93
        0
300

 40
0.0
140
1.0
 94
        5
 62
     0
340
BE8
144
0.18
309
CONTENTFORMAT_END
171
     0
 94
        0
309
TABLEFORMAT_END
  1
CELLSTYLE_BEGIN
 90
        2
 91
        1
300
_HEADER
309
CELLSTYLE_END
300
CELLSTYLE
  1
TABLEFORMAT_BEGIN
 90
        5
170
     1
 91
        0
 92
        0
 62
   257
 93
        1
300
CONTENTFORMAT
  1
CONTENTFORMAT_BEGIN
 90
        0
 91
        0
 92
      512
 93
        0
300

 40
0.0
140
1.0
 94
        2
 62
     0
340
BE8
144
0.18
309
CONTENTFORMAT_END
171
     0
 94
        0
309
TABLEFORMAT_END
  1
CELLSTYLE_BEGIN
 90
        3
 91
        2
300
_DATA
309
CELLSTYLE_END
  0
XRECORD
  5
2F49
102
{ACAD_REACTORS
330
2F0E
102
}
330
2F0E
100
AcDbXrecord
280
     1
102
ACAD_ROUNDTRIP_PRE2007_TABLESTYLE
 90
      512
 91
        0
  1

 92
      512
 93
        0
  2

 94
      512
 95
        0
  3

  0
XRECORD
  5
2F24
102
{ACAD_REACTORS
330
2F23
102
}
330
2F23
100
AcDbXrecord
280
     1
102
RTVSPost2010Prop28
280
     1
102
RTVSPost2010PropOp28
 70
     1
102
RTVSPost2010Prop29
280
     1
102
RTVSPost2010PropOp29
 70
     1
102
RTVSPost2010Prop30
280
     0
102
RTVSPost2010PropOp30
 70
     1
102
RTVSPost2010Prop31
280
     0
102
RTVSPost2010PropOp31
 70
     1
102
RTVSPost2010Prop32
280
     0
102
RTVSPost2010PropOp32
 70
     1
102
RTVSPost2010Prop33
280
     0
102
RTVSPost2010PropOp33
 70
     1
102
RTVSPost2010Prop34
280
     0
102
RTVSPost2010PropOp34
 70
     1
102
RTVSPost2010Prop35
280
     0
102
RTVSPost2010PropOp35
 70
     1
102
RTVSPost2010Prop36
280
     0
102
RTVSPost2010PropOp36
 70
     1
102
RTVSPost2010Prop37
 90
       50
102
RTVSPost2010PropOp37
 70
     1
102
RTVSPost2010Prop38
140
0.0
102
RTVSPost2010PropOp38
 70
     1
102
RTVSPost2010Prop39
140
1.0
102
RTVSPost2010PropOp39
 70
     1
102
RTVSPost2010Prop40
 90
        0
102
RTVSPost2010PropOp40
 70
     1
102
RTVSPost2010Prop41ColorIndex
 90
       18
102
RTVSPost2010Prop41ColorRGB
 90
        0
102
RTVSPost2010PropOp41
 70
     1
102
RTVSPost2010Prop42
 90
       50
102
RTVSPost2010PropOp42
 70
     1
102
RTVSPost2010Prop43
 90
        3
102
RTVSPost2010PropOp43
 70
     1
102
RTVSPost2010Prop44ColorIndex
 90
        5
102
RTVSPost2010Prop44ColorRGB
 90
      255
102
RTVSPost2010PropOp44
 70
     1
102
RTVSPost2010Prop45
280
     0
102
RTVSPost2010PropOp45
 70
     1
102
RTVSPost2010Prop46
 90
       50
102
RTVSPost2010PropOp46
 70
     1
102
RTVSPost2010Prop47
 90
       50
102
RTVSPost2010PropOp47
 70
     1
102
RTVSPost2010Prop48
 90
       50
102
RTVSPost2010PropOp48
 70
     1
102
RTVSPost2010Prop49
280
     0
102
RTVSPost2010PropOp49
 70
     1
102
RTVSPost2010Prop50
 90
       50
102
RTVSPost2010PropOp50
 70
     1
102
RTVSPost2010Prop51ColorIndex
 90
      256
102
RTVSPost2010Prop51ColorRGB
 90
-16777216
102
RTVSPost2010PropOp51
 70
     0
102
RTVSPost2010Prop52
140
1.0
102
RTVSPost2010PropOp52
 70
     0
102
RTVSPost2010Prop53
 90
        2
102
RTVSPost2010PropOp53
 70
     1
102
RTVSPost2010Prop54
  1
strokes_ogs.tif
102
RTVSPost2010PropOp54
 70
     1
102
RTVSPost2010Prop55
280
     0
102
RTVSPost2010PropOp55
 70
     1
102
RTVSPost2010Prop56
140
1.0
102
RTVSPost2010PropOp56
 70
     1
102
RTVSPost2010Prop57
140
1.0
102
RTVSPost2010PropOp57
 70
     1
102
RTVSPropertyOp0
 70
     1
102
RTVSPropertyOp1
 70
     1
102
RTVSPropertyOp2
 70
     1
102
RTVSPropertyOp3
 70
     1
102
RTVSPropertyOp4
 70
     1
102
RTVSPropertyOp5
 70
     1
102
RTVSPropertyOp6
 70
     1
102
RTVSPropertyOp7
 70
     1
102
RTVSPropertyOp8
 70
     1
102
RTVSPropertyOp9
 70
     1
102
RTVSPropertyOp10
 70
     1
102
RTVSPropertyOp11
 70
     1
102
RTVSPropertyOp12
 70
     1
102
RTVSPropertyOp13
 70
     1
102
RTVSPropertyOp14
 70
     1
102
RTVSPropertyOp15
 70
     1
102
RTVSPropertyOp16
 70
     1
102
RTVSPropertyOp17
 70
     1
102
RTVSPropertyOp18
 70
     1
102
RTVSPropertyOp19
 70
     1
102
RTVSPropertyOp20
 70
     1
102
RTVSPropertyOp21
 70
     1
102
RTVSPropertyOp22
 70
     1
102
RTVSPropertyOp23
 70
     1
102
RTVSPropertyOp24
 70
     1
102
RTVSPropertyOp25
 70
     1
102
RTVSPropertyOp26
 70
     1
102
RTVSPropertyOp27
 70
     1
102
RTVSPropertyOp28
 70
     1
102
RTVSPropertyOp29
 70
     1
102
RTVSPropertyOp30
 70
     1
102
RTVSPropertyOp31
 70
     1
102
RTVSPropertyOp32
 70
     1
102
RTVSPropertyOp33
 70
     1
102
RTVSPropertyOp34
 70
     1
102
RTVSPropertyOp35
 70
     1
102
RTVSPropertyOp36
 70
     1
102
RTVSPropertyOp37
 70
     1
102
RTVSPropertyOp38
 70
     1
102
RTVSPropertyOp39
 70
     1
102
RTVSPropertyOp40
 70
     1
102
RTVSPropertyOp41
 70
     1
102
RTVSPropertyOp42
 70
     1
102
RTVSPropertyOp43
 70
     1
102
RTVSPropertyOp44
 70
     1
102
RTVSPropertyOp45
 70
     1
102
RTVSPropertyOp46
 70
     1
102
RTVSPropertyOp47
 70
     1
102
RTVSPropertyOp48
 70
     1
102
RTVSPropertyOp49
 70
     1
102
RTVSPropertyOp50
 70
     1
102
RTVSPropertyOp51
 70
     0
102
RTVSPropertyOp52
 70
     0
102
RTVSPropertyOp53
 70
     1
102
RTVSPropertyOp54
 70
     1
102
RTVSPropertyOp55
 70
     1
102
RTVSPropertyOp56
 70
     1
102
RTVSPropertyOp57
 70
     1
102
RTVSPropertyOp58
 70
     1
102
RTVSPropertyOp59
 70
     1
102
RTVSPropertyOp60
 70
     1
102
RTVSPropertyOp61
 70
     1
102
RTVSPropertyOp62
 70
     1
  0
XRECORD
  5
2F22
102
{ACAD_REACTORS
330
2F21
102
}
330
2F21
100
AcDbXrecord
280
     1
102
RTVSPost2010Prop28
280
     0
102
RTVSPost2010PropOp28
 70
     1
102
RTVSPost2010Prop29
280
     1
102
RTVSPost2010PropOp29
 70
     1
102
RTVSPost2010Prop30
280
     1
102
RTVSPost2010PropOp30
 70
     1
102
RTVSPost2010Prop31
280
     0
102
RTVSPost2010PropOp31
 70
     1
102
RTVSPost2010Prop32
280
     0
102
RTVSPost2010PropOp32
 70
     1
102
RTVSPost2010Prop33
280
     0
102
RTVSPost2010PropOp33
 70
     1
102
RTVSPost2010Prop34
280
     0
102
RTVSPost2010PropOp34
 70
     1
102
RTVSPost2010Prop35
280
     0
102
RTVSPost2010PropOp35
 70
     1
102
RTVSPost2010Prop36
280
     0
102
RTVSPost2010PropOp36
 70
     1
102
RTVSPost2010Prop37
 90
       50
102
RTVSPost2010PropOp37
 70
     1
102
RTVSPost2010Prop38
140
0.0
102
RTVSPost2010PropOp38
 70
     1
102
RTVSPost2010Prop39
140
1.0
102
RTVSPost2010PropOp39
 70
     1
102
RTVSPost2010Prop40
 90
        0
102
RTVSPost2010PropOp40
 70
     1
102
RTVSPost2010Prop41ColorIndex
 90
       18
102
RTVSPost2010Prop41ColorRGB
 90
        0
102
RTVSPost2010PropOp41
 70
     1
102
RTVSPost2010Prop42
 90
       50
102
RTVSPost2010PropOp42
 70
     1
102
RTVSPost2010Prop43
 90
        3
102
RTVSPost2010PropOp43
 70
     1
102
RTVSPost2010Prop44ColorIndex
 90
        5
102
RTVSPost2010Prop44ColorRGB
 90
      255
102
RTVSPost2010PropOp44
 70
     1
102
RTVSPost2010Prop45
280
     0
102
RTVSPost2010PropOp45
 70
     1
102
RTVSPost2010Prop46
 90
       50
102
RTVSPost2010PropOp46
 70
     1
102
RTVSPost2010Prop47
 90
       50
102
RTVSPost2010PropOp47
 70
     1
102
RTVSPost2010Prop48
 90
       50
102
RTVSPost2010PropOp48
 70
     1
102
RTVSPost2010Prop49
280
     0
102
RTVSPost2010PropOp49
 70
     1
102
RTVSPost2010Prop50
 90
       50
102
RTVSPost2010PropOp50
 70
     1
102
RTVSPost2010Prop51ColorIndex
 90
      256
102
RTVSPost2010Prop51ColorRGB
 90
-16777216
102
RTVSPost2010PropOp51
 70
     0
102
RTVSPost2010Prop52
140
1.0
102
RTVSPost2010PropOp52
 70
     0
102
RTVSPost2010Prop53
 90
        2
102
RTVSPost2010PropOp53
 70
     1
102
RTVSPost2010Prop54
  1
strokes_ogs.tif
102
RTVSPost2010PropOp54
 70
     1
102
RTVSPost2010Prop55
280
     0
102
RTVSPost2010PropOp55
 70
     1
102
RTVSPost2010Prop56
140
1.0
102
RTVSPost2010PropOp56
 70
     1
102
RTVSPost2010Prop57
140
1.0
102
RTVSPost2010PropOp57
 70
     1
102
RTVSPropertyOp0
 70
     1
102
RTVSPropertyOp1
 70
     1
102
RTVSPropertyOp2
 70
     1
102
RTVSPropertyOp3
 70
     1
102
RTVSPropertyOp4
 70
     1
102
RTVSPropertyOp5
 70
     1
102
RTVSPropertyOp6
 70
     1
102
RTVSPropertyOp7
 70
     1
102
RTVSPropertyOp8
 70
     1
102
RTVSPropertyOp9
 70
     1
102
RTVSPropertyOp10
 70
     1
102
RTVSPropertyOp11
 70
     1
102
RTVSPropertyOp12
 70
     1
102
RTVSPropertyOp13
 70
     1
102
RTVSPropertyOp14
 70
     1
102
RTVSPropertyOp15
 70
     1
102
RTVSPropertyOp16
 70
     1
102
RTVSPropertyOp17
 70
     1
102
RTVSPropertyOp18
 70
     1
102
RTVSPropertyOp19
 70
     1
102
RTVSPropertyOp20
 70
     1
102
RTVSPropertyOp21
 70
     1
102
RTVSPropertyOp22
 70
     1
102
RTVSPropertyOp23
 70
     1
102
RTVSPropertyOp24
 70
     1
102
RTVSPropertyOp25
 70
     1
102
RTVSPropertyOp26
 70
     1
102
RTVSPropertyOp27
 70
     1
102
RTVSPropertyOp28
 70
     1
102
RTVSPropertyOp29
 70
     1
102
RTVSPropertyOp30
 70
     1
102
RTVSPropertyOp31
 70
     1
102
RTVSPropertyOp32
 70
     1
102
RTVSPropertyOp33
 70
     1
102
RTVSPropertyOp34
 70
     1
102
RTVSPropertyOp35
 70
     1
102
RTVSPropertyOp36
 70
     1
102
RTVSPropertyOp37
 70
     1
102
RTVSPropertyOp38
 70
     1
102
RTVSPropertyOp39
 70
     1
102
RTVSPropertyOp40
 70
     1
102
RTVSPropertyOp41
 70
     1
102
RTVSPropertyOp42
 70
     1
102
RTVSPropertyOp43
 70
     1
102
RTVSPropertyOp44
 70
     1
102
RTVSPropertyOp45
 70
     1
102
RTVSPropertyOp46
 70
     1
102
RTVSPropertyOp47
 70
     1
102
RTVSPropertyOp48
 70
     1
102
RTVSPropertyOp49
 70
     1
102
RTVSPropertyOp50
 70
     1
102
RTVSPropertyOp51
 70
     0
102
RTVSPropertyOp52
 70
     0
102
RTVSPropertyOp53
 70
     1
102
RTVSPropertyOp54
 70
     1
102
RTVSPropertyOp55
 70
     1
102
RTVSPropertyOp56
 70
     1
102
RTVSPropertyOp57
 70
     1
102
RTVSPropertyOp58
 70
     1
102
RTVSPropertyOp59
 70
     1
102
RTVSPropertyOp60
 70
     1
102
RTVSPropertyOp61
 70
     1
102
RTVSPropertyOp62
 70
     1
  0
XRECORD
  5
2F30
102
{ACAD_REACTORS
330
2F2F
102
}
330
2F2F
100
AcDbXrecord
280
     1
102
RTVSPost2010Prop28
280
     0
102
RTVSPost2010PropOp28
 70
     1
102
RTVSPost2010Prop29
280
     1
102
RTVSPost2010PropOp29
 70
     1
102
RTVSPost2010Prop30
280
     1
102
RTVSPost2010PropOp30
 70
     1
102
RTVSPost2010Prop31
280
     0
102
RTVSPost2010PropOp31
 70
     1
102
RTVSPost2010Prop32
280
     0
102
RTVSPost2010PropOp32
 70
     1
102
RTVSPost2010Prop33
280
     0
102
RTVSPost2010PropOp33
 70
     1
102
RTVSPost2010Prop34
280
     0
102
RTVSPost2010PropOp34
 70
     1
102
RTVSPost2010Prop35
280
     0
102
RTVSPost2010PropOp35
 70
     1
102
RTVSPost2010Prop36
280
     0
102
RTVSPost2010PropOp36
 70
     1
102
RTVSPost2010Prop37
 90
       50
102
RTVSPost2010PropOp37
 70
     1
102
RTVSPost2010Prop38
140
0.0
102
RTVSPost2010PropOp38
 70
     1
102
RTVSPost2010Prop39
140
1.0
102
RTVSPost2010PropOp39
 70
     1
102
RTVSPost2010Prop40
 90
        0
102
RTVSPost2010PropOp40
 70
     1
102
RTVSPost2010Prop41ColorIndex
 90
       18
102
RTVSPost2010Prop41ColorRGB
 90
        0
102
RTVSPost2010PropOp41
 70
     1
102
RTVSPost2010Prop42
 90
       50
102
RTVSPost2010PropOp42
 70
     1
102
RTVSPost2010Prop43
 90
        3
102
RTVSPost2010PropOp43
 70
     1
102
RTVSPost2010Prop44ColorIndex
 90
        5
102
RTVSPost2010Prop44ColorRGB
 90
      255
102
RTVSPost2010PropOp44
 70
     1
102
RTVSPost2010Prop45
280
     0
102
RTVSPost2010PropOp45
 70
     1
102
RTVSPost2010Prop46
 90
       50
102
RTVSPost2010PropOp46
 70
     1
102
RTVSPost2010Prop47
 90
       50
102
RTVSPost2010PropOp47
 70
     1
102
RTVSPost2010Prop48
 90
       50
102
RTVSPost2010PropOp48
 70
     1
102
RTVSPost2010Prop49
280
     0
102
RTVSPost2010PropOp49
 70
     1
102
RTVSPost2010Prop50
 90
       50
102
RTVSPost2010PropOp50
 70
     1
102
RTVSPost2010Prop51ColorIndex
 90
      256
102
RTVSPost2010Prop51ColorRGB
 90
-16777216
102
RTVSPost2010PropOp51
 70
     0
102
RTVSPost2010Prop52
140
1.0
102
RTVSPost2010PropOp52
 70
     0
102
RTVSPost2010Prop53
 90
        2
102
RTVSPost2010PropOp53
 70
     1
102
RTVSPost2010Prop54
  1
strokes_ogs.tif
102
RTVSPost2010PropOp54
 70
     1
102
RTVSPost2010Prop55
280
     0
102
RTVSPost2010PropOp55
 70
     1
102
RTVSPost2010Prop56
140
1.0
102
RTVSPost2010PropOp56
 70
     1
102
RTVSPost2010Prop57
140
1.0
102
RTVSPost2010PropOp57
 70
     1
102
RTVSPropertyOp0
 70
     1
102
RTVSPropertyOp1
 70
     1
102
RTVSPropertyOp2
 70
     1
102
RTVSPropertyOp3
 70
     1
102
RTVSPropertyOp4
 70
     1
102
RTVSPropertyOp5
 70
     1
102
RTVSPropertyOp6
 70
     1
102
RTVSPropertyOp7
 70
     1
102
RTVSPropertyOp8
 70
     1
102
RTVSPropertyOp9
 70
     1
102
RTVSPropertyOp10
 70
     1
102
RTVSPropertyOp11
 70
     1
102
RTVSPropertyOp12
 70
     1
102
RTVSPropertyOp13
 70
     1
102
RTVSPropertyOp14
 70
     1
102
RTVSPropertyOp15
 70
     1
102
RTVSPropertyOp16
 70
     1
102
RTVSPropertyOp17
 70
     1
102
RTVSPropertyOp18
 70
     1
102
RTVSPropertyOp19
 70
     1
102
RTVSPropertyOp20
 70
     1
102
RTVSPropertyOp21
 70
     1
102
RTVSPropertyOp22
 70
     1
102
RTVSPropertyOp23
 70
     1
102
RTVSPropertyOp24
 70
     1
102
RTVSPropertyOp25
 70
     1
102
RTVSPropertyOp26
 70
     1
102
RTVSPropertyOp27
 70
     1
102
RTVSPropertyOp28
 70
     1
102
RTVSPropertyOp29
 70
     1
102
RTVSPropertyOp30
 70
     1
102
RTVSPropertyOp31
 70
     1
102
RTVSPropertyOp32
 70
     1
102
RTVSPropertyOp33
 70
     1
102
RTVSPropertyOp34
 70
     1
102
RTVSPropertyOp35
 70
     1
102
RTVSPropertyOp36
 70
     1
102
RTVSPropertyOp37
 70
     1
102
RTVSPropertyOp38
 70
     1
102
RTVSPropertyOp39
 70
     1
102
RTVSPropertyOp40
 70
     1
102
RTVSPropertyOp41
 70
     1
102
RTVSPropertyOp42
 70
     1
102
RTVSPropertyOp43
 70
     1
102
RTVSPropertyOp44
 70
     1
102
RTVSPropertyOp45
 70
     1
102
RTVSPropertyOp46
 70
     1
102
RTVSPropertyOp47
 70
     1
102
RTVSPropertyOp48
 70
     1
102
RTVSPropertyOp49
 70
     1
102
RTVSPropertyOp50
 70
     1
102
RTVSPropertyOp51
 70
     0
102
RTVSPropertyOp52
 70
     0
102
RTVSPropertyOp53
 70
     1
102
RTVSPropertyOp54
 70
     1
102
RTVSPropertyOp55
 70
     1
102
RTVSPropertyOp56
 70
     1
102
RTVSPropertyOp57
 70
     1
102
RTVSPropertyOp58
 70
     1
102
RTVSPropertyOp59
 70
     1
102
RTVSPropertyOp60
 70
     1
102
RTVSPropertyOp61
 70
     1
102
RTVSPropertyOp62
 70
     1
  0
XRECORD
  5
2F38
102
{ACAD_REACTORS
330
2F37
102
}
330
2F37
100
AcDbXrecord
280
     1
102
RTVSPost2010Prop28
280
     0
102
RTVSPost2010PropOp28
 70
     1
102
RTVSPost2010Prop29
280
     1
102
RTVSPost2010PropOp29
 70
     1
102
RTVSPost2010Prop30
280
     1
102
RTVSPost2010PropOp30
 70
     1
102
RTVSPost2010Prop31
280
     0
102
RTVSPost2010PropOp31
 70
     1
102
RTVSPost2010Prop32
280
     0
102
RTVSPost2010PropOp32
 70
     1
102
RTVSPost2010Prop33
280
     0
102
RTVSPost2010PropOp33
 70
     1
102
RTVSPost2010Prop34
280
     0
102
RTVSPost2010PropOp34
 70
     1
102
RTVSPost2010Prop35
280
     0
102
RTVSPost2010PropOp35
 70
     1
102
RTVSPost2010Prop36
280
     0
102
RTVSPost2010PropOp36
 70
     1
102
RTVSPost2010Prop37
 90
       50
102
RTVSPost2010PropOp37
 70
     1
102
RTVSPost2010Prop38
140
0.0
102
RTVSPost2010PropOp38
 70
     1
102
RTVSPost2010Prop39
140
1.0
102
RTVSPost2010PropOp39
 70
     1
102
RTVSPost2010Prop40
 90
        0
102
RTVSPost2010PropOp40
 70
     1
102
RTVSPost2010Prop41ColorIndex
 90
       18
102
RTVSPost2010Prop41ColorRGB
 90
        0
102
RTVSPost2010PropOp41
 70
     1
102
RTVSPost2010Prop42
 90
       50
102
RTVSPost2010PropOp42
 70
     1
102
RTVSPost2010Prop43
 90
        3
102
RTVSPost2010PropOp43
 70
     1
102
RTVSPost2010Prop44ColorIndex
 90
        5
102
RTVSPost2010Prop44ColorRGB
 90
      255
102
RTVSPost2010PropOp44
 70
     1
102
RTVSPost2010Prop45
280
     0
102
RTVSPost2010PropOp45
 70
     1
102
RTVSPost2010Prop46
 90
       50
102
RTVSPost2010PropOp46
 70
     1
102
RTVSPost2010Prop47
 90
       50
102
RTVSPost2010PropOp47
 70
     1
102
RTVSPost2010Prop48
 90
       50
102
RTVSPost2010PropOp48
 70
     1
102
RTVSPost2010Prop49
280
     0
102
RTVSPost2010PropOp49
 70
     1
102
RTVSPost2010Prop50
 90
       50
102
RTVSPost2010PropOp50
 70
     1
102
RTVSPost2010Prop51ColorIndex
 90
      256
102
RTVSPost2010Prop51ColorRGB
 90
-16777216
102
RTVSPost2010PropOp51
 70
     0
102
RTVSPost2010Prop52
140
1.0
102
RTVSPost2010PropOp52
 70
     0
102
RTVSPost2010Prop53
 90
        2
102
RTVSPost2010PropOp53
 70
     1
102
RTVSPost2010Prop54
  1
strokes_ogs.tif
102
RTVSPost2010PropOp54
 70
     1
102
RTVSPost2010Prop55
280
     0
102
RTVSPost2010PropOp55
 70
     1
102
RTVSPost2010Prop56
140
1.0
102
RTVSPost2010PropOp56
 70
     1
102
RTVSPost2010Prop57
140
1.0
102
RTVSPost2010PropOp57
 70
     1
102
RTVSPropertyOp0
 70
     1
102
RTVSPropertyOp1
 70
     1
102
RTVSPropertyOp2
 70
     1
102
RTVSPropertyOp3
 70
     1
102
RTVSPropertyOp4
 70
     1
102
RTVSPropertyOp5
 70
     1
102
RTVSPropertyOp6
 70
     1
102
RTVSPropertyOp7
 70
     1
102
RTVSPropertyOp8
 70
     1
102
RTVSPropertyOp9
 70
     1
102
RTVSPropertyOp10
 70
     1
102
RTVSPropertyOp11
 70
     1
102
RTVSPropertyOp12
 70
     1
102
RTVSPropertyOp13
 70
     1
102
RTVSPropertyOp14
 70
     1
102
RTVSPropertyOp15
 70
     1
102
RTVSPropertyOp16
 70
     1
102
RTVSPropertyOp17
 70
     1
102
RTVSPropertyOp18
 70
     1
102
RTVSPropertyOp19
 70
     1
102
RTVSPropertyOp20
 70
     1
102
RTVSPropertyOp21
 70
     1
102
RTVSPropertyOp22
 70
     1
102
RTVSPropertyOp23
 70
     1
102
RTVSPropertyOp24
 70
     1
102
RTVSPropertyOp25
 70
     1
102
RTVSPropertyOp26
 70
     1
102
RTVSPropertyOp27
 70
     1
102
RTVSPropertyOp28
 70
     1
102
RTVSPropertyOp29
 70
     1
102
RTVSPropertyOp30
 70
     1
102
RTVSPropertyOp31
 70
     1
102
RTVSPropertyOp32
 70
     1
102
RTVSPropertyOp33
 70
     1
102
RTVSPropertyOp34
 70
     1
102
RTVSPropertyOp35
 70
     1
102
RTVSPropertyOp36
 70
     1
102
RTVSPropertyOp37
 70
     1
102
RTVSPropertyOp38
 70
     1
102
RTVSPropertyOp39
 70
     1
102
RTVSPropertyOp40
 70
     1
102
RTVSPropertyOp41
 70
     1
102
RTVSPropertyOp42
 70
     1
102
RTVSPropertyOp43
 70
     1
102
RTVSPropertyOp44
 70
     1
102
RTVSPropertyOp45
 70
     1
102
RTVSPropertyOp46
 70
     1
102
RTVSPropertyOp47
 70
     1
102
RTVSPropertyOp48
 70
     1
102
RTVSPropertyOp49
 70
     1
102
RTVSPropertyOp50
 70
     1
102
RTVSPropertyOp51
 70
     0
102
RTVSPropertyOp52
 70
     0
102
RTVSPropertyOp53
 70
     1
102
RTVSPropertyOp54
 70
     1
102
RTVSPropertyOp55
 70
     1
102
RTVSPropertyOp56
 70
     1
102
RTVSPropertyOp57
 70
     1
102
RTVSPropertyOp58
 70
     1
102
RTVSPropertyOp59
 70
     1
102
RTVSPropertyOp60
 70
     1
102
RTVSPropertyOp61
 70
     1
102
RTVSPropertyOp62
 70
     1
  0
XRECORD
  5
2F2A
102
{ACAD_REACTORS
330
2F29
102
}
330
2F29
100
AcDbXrecord
280
     1
102
RTVSPost2010Prop28
280
     0
102
RTVSPost2010PropOp28
 70
     1
102
RTVSPost2010Prop29
280
     1
102
RTVSPost2010PropOp29
 70
     1
102
RTVSPost2010Prop30
280
     1
102
RTVSPost2010PropOp30
 70
     1
102
RTVSPost2010Prop31
280
     0
102
RTVSPost2010PropOp31
 70
     1
102
RTVSPost2010Prop32
280
     0
102
RTVSPost2010PropOp32
 70
     1
102
RTVSPost2010Prop33
280
     0
102
RTVSPost2010PropOp33
 70
     1
102
RTVSPost2010Prop34
280
     0
102
RTVSPost2010PropOp34
 70
     1
102
RTVSPost2010Prop35
280
     0
102
RTVSPost2010PropOp35
 70
     1
102
RTVSPost2010Prop36
280
     0
102
RTVSPost2010PropOp36
 70
     1
102
RTVSPost2010Prop37
 90
       50
102
RTVSPost2010PropOp37
 70
     1
102
RTVSPost2010Prop38
140
0.0
102
RTVSPost2010PropOp38
 70
     1
102
RTVSPost2010Prop39
140
1.0
102
RTVSPost2010PropOp39
 70
     1
102
RTVSPost2010Prop40
 90
        0
102
RTVSPost2010PropOp40
 70
     1
102
RTVSPost2010Prop41ColorIndex
 90
       18
102
RTVSPost2010Prop41ColorRGB
 90
        0
102
RTVSPost2010PropOp41
 70
     1
102
RTVSPost2010Prop42
 90
       50
102
RTVSPost2010PropOp42
 70
     1
102
RTVSPost2010Prop43
 90
        3
102
RTVSPost2010PropOp43
 70
     1
102
RTVSPost2010Prop44ColorIndex
 90
        5
102
RTVSPost2010Prop44ColorRGB
 90
      255
102
RTVSPost2010PropOp44
 70
     1
102
RTVSPost2010Prop45
280
     0
102
RTVSPost2010PropOp45
 70
     1
102
RTVSPost2010Prop46
 90
       50
102
RTVSPost2010PropOp46
 70
     1
102
RTVSPost2010Prop47
 90
       50
102
RTVSPost2010PropOp47
 70
     1
102
RTVSPost2010Prop48
 90
       50
102
RTVSPost2010PropOp48
 70
     1
102
RTVSPost2010Prop49
280
     0
102
RTVSPost2010PropOp49
 70
     1
102
RTVSPost2010Prop50
 90
       50
102
RTVSPost2010PropOp50
 70
     1
102
RTVSPost2010Prop51ColorIndex
 90
      256
102
RTVSPost2010Prop51ColorRGB
 90
-16777216
102
RTVSPost2010PropOp51
 70
     0
102
RTVSPost2010Prop52
140
1.0
102
RTVSPost2010PropOp52
 70
     0
102
RTVSPost2010Prop53
 90
        2
102
RTVSPost2010PropOp53
 70
     1
102
RTVSPost2010Prop54
  1
strokes_ogs.tif
102
RTVSPost2010PropOp54
 70
     1
102
RTVSPost2010Prop55
280
     0
102
RTVSPost2010PropOp55
 70
     1
102
RTVSPost2010Prop56
140
1.0
102
RTVSPost2010PropOp56
 70
     1
102
RTVSPost2010Prop57
140
1.0
102
RTVSPost2010PropOp57
 70
     1
102
RTVSPropertyOp0
 70
     1
102
RTVSPropertyOp1
 70
     1
102
RTVSPropertyOp2
 70
     1
102
RTVSPropertyOp3
 70
     1
102
RTVSPropertyOp4
 70
     1
102
RTVSPropertyOp5
 70
     1
102
RTVSPropertyOp6
 70
     1
102
RTVSPropertyOp7
 70
     1
102
RTVSPropertyOp8
 70
     1
102
RTVSPropertyOp9
 70
     1
102
RTVSPropertyOp10
 70
     1
102
RTVSPropertyOp11
 70
     1
102
RTVSPropertyOp12
 70
     1
102
RTVSPropertyOp13
 70
     1
102
RTVSPropertyOp14
 70
     1
102
RTVSPropertyOp15
 70
     1
102
RTVSPropertyOp16
 70
     1
102
RTVSPropertyOp17
 70
     1
102
RTVSPropertyOp18
 70
     1
102
RTVSPropertyOp19
 70
     1
102
RTVSPropertyOp20
 70
     1
102
RTVSPropertyOp21
 70
     1
102
RTVSPropertyOp22
 70
     1
102
RTVSPropertyOp23
 70
     1
102
RTVSPropertyOp24
 70
     1
102
RTVSPropertyOp25
 70
     1
102
RTVSPropertyOp26
 70
     1
102
RTVSPropertyOp27
 70
     1
102
RTVSPropertyOp28
 70
     1
102
RTVSPropertyOp29
 70
     1
102
RTVSPropertyOp30
 70
     1
102
RTVSPropertyOp31
 70
     1
102
RTVSPropertyOp32
 70
     1
102
RTVSPropertyOp33
 70
     1
102
RTVSPropertyOp34
 70
     1
102
RTVSPropertyOp35
 70
     1
102
RTVSPropertyOp36
 70
     1
102
RTVSPropertyOp37
 70
     1
102
RTVSPropertyOp38
 70
     1
102
RTVSPropertyOp39
 70
     1
102
RTVSPropertyOp40
 70
     1
102
RTVSPropertyOp41
 70
     1
102
RTVSPropertyOp42
 70
     1
102
RTVSPropertyOp43
 70
     1
102
RTVSPropertyOp44
 70
     1
102
RTVSPropertyOp45
 70
     1
102
RTVSPropertyOp46
 70
     1
102
RTVSPropertyOp47
 70
     1
102
RTVSPropertyOp48
 70
     1
102
RTVSPropertyOp49
 70
     1
102
RTVSPropertyOp50
 70
     1
102
RTVSPropertyOp51
 70
     0
102
RTVSPropertyOp52
 70
     0
102
RTVSPropertyOp53
 70
     1
102
RTVSPropertyOp54
 70
     1
102
RTVSPropertyOp55
 70
     1
102
RTVSPropertyOp56
 70
     1
102
RTVSPropertyOp57
 70
     1
102
RTVSPropertyOp58
 70
     1
102
RTVSPropertyOp59
 70
     1
102
RTVSPropertyOp60
 70
     1
102
RTVSPropertyOp61
 70
     1
102
RTVSPropertyOp62
 70
     1
  0
XRECORD
  5
2F2E
102
{ACAD_REACTORS
330
2F2D
102
}
330
2F2D
100
AcDbXrecord
280
     1
102
RTVSPost2010Prop28
280
     0
102
RTVSPost2010PropOp28
 70
     1
102
RTVSPost2010Prop29
280
     1
102
RTVSPost2010PropOp29
 70
     1
102
RTVSPost2010Prop30
280
     1
102
RTVSPost2010PropOp30
 70
     1
102
RTVSPost2010Prop31
280
     0
102
RTVSPost2010PropOp31
 70
     1
102
RTVSPost2010Prop32
280
     0
102
RTVSPost2010PropOp32
 70
     1
102
RTVSPost2010Prop33
280
     0
102
RTVSPost2010PropOp33
 70
     1
102
RTVSPost2010Prop34
280
     0
102
RTVSPost2010PropOp34
 70
     1
102
RTVSPost2010Prop35
280
     0
102
RTVSPost2010PropOp35
 70
     1
102
RTVSPost2010Prop36
280
     0
102
RTVSPost2010PropOp36
 70
     1
102
RTVSPost2010Prop37
 90
       50
102
RTVSPost2010PropOp37
 70
     1
102
RTVSPost2010Prop38
140
0.0
102
RTVSPost2010PropOp38
 70
     1
102
RTVSPost2010Prop39
140
1.0
102
RTVSPost2010PropOp39
 70
     1
102
RTVSPost2010Prop40
 90
        0
102
RTVSPost2010PropOp40
 70
     1
102
RTVSPost2010Prop41ColorIndex
 90
       18
102
RTVSPost2010Prop41ColorRGB
 90
        0
102
RTVSPost2010PropOp41
 70
     1
102
RTVSPost2010Prop42
 90
       50
102
RTVSPost2010PropOp42
 70
     1
102
RTVSPost2010Prop43
 90
        3
102
RTVSPost2010PropOp43
 70
     1
102
RTVSPost2010Prop44ColorIndex
 90
        5
102
RTVSPost2010Prop44ColorRGB
 90
      255
102
RTVSPost2010PropOp44
 70
     1
102
RTVSPost2010Prop45
280
     0
102
RTVSPost2010PropOp45
 70
     1
102
RTVSPost2010Prop46
 90
       50
102
RTVSPost2010PropOp46
 70
     1
102
RTVSPost2010Prop47
 90
       50
102
RTVSPost2010PropOp47
 70
     1
102
RTVSPost2010Prop48
 90
       50
102
RTVSPost2010PropOp48
 70
     1
102
RTVSPost2010Prop49
280
     0
102
RTVSPost2010PropOp49
 70
     1
102
RTVSPost2010Prop50
 90
       50
102
RTVSPost2010PropOp50
 70
     1
102
RTVSPost2010Prop51ColorIndex
 90
      256
102
RTVSPost2010Prop51ColorRGB
 90
-16777216
102
RTVSPost2010PropOp51
 70
     0
102
RTVSPost2010Prop52
140
1.0
102
RTVSPost2010PropOp52
 70
     0
102
RTVSPost2010Prop53
 90
        2
102
RTVSPost2010PropOp53
 70
     1
102
RTVSPost2010Prop54
  1
strokes_ogs.tif
102
RTVSPost2010PropOp54
 70
     1
102
RTVSPost2010Prop55
280
     0
102
RTVSPost2010PropOp55
 70
     1
102
RTVSPost2010Prop56
140
1.0
102
RTVSPost2010PropOp56
 70
     1
102
RTVSPost2010Prop57
140
1.0
102
RTVSPost2010PropOp57
 70
     1
102
RTVSPropertyOp0
 70
     1
102
RTVSPropertyOp1
 70
     1
102
RTVSPropertyOp2
 70
     1
102
RTVSPropertyOp3
 70
     1
102
RTVSPropertyOp4
 70
     1
102
RTVSPropertyOp5
 70
     1
102
RTVSPropertyOp6
 70
     1
102
RTVSPropertyOp7
 70
     1
102
RTVSPropertyOp8
 70
     1
102
RTVSPropertyOp9
 70
     1
102
RTVSPropertyOp10
 70
     1
102
RTVSPropertyOp11
 70
     1
102
RTVSPropertyOp12
 70
     1
102
RTVSPropertyOp13
 70
     1
102
RTVSPropertyOp14
 70
     1
102
RTVSPropertyOp15
 70
     1
102
RTVSPropertyOp16
 70
     1
102
RTVSPropertyOp17
 70
     1
102
RTVSPropertyOp18
 70
     1
102
RTVSPropertyOp19
 70
     1
102
RTVSPropertyOp20
 70
     1
102
RTVSPropertyOp21
 70
     1
102
RTVSPropertyOp22
 70
     1
102
RTVSPropertyOp23
 70
     1
102
RTVSPropertyOp24
 70
     1
102
RTVSPropertyOp25
 70
     1
102
RTVSPropertyOp26
 70
     1
102
RTVSPropertyOp27
 70
     1
102
RTVSPropertyOp28
 70
     1
102
RTVSPropertyOp29
 70
     1
102
RTVSPropertyOp30
 70
     1
102
RTVSPropertyOp31
 70
     1
102
RTVSPropertyOp32
 70
     1
102
RTVSPropertyOp33
 70
     1
102
RTVSPropertyOp34
 70
     1
102
RTVSPropertyOp35
 70
     1
102
RTVSPropertyOp36
 70
     1
102
RTVSPropertyOp37
 70
     1
102
RTVSPropertyOp38
 70
     1
102
RTVSPropertyOp39
 70
     1
102
RTVSPropertyOp40
 70
     1
102
RTVSPropertyOp41
 70
     1
102
RTVSPropertyOp42
 70
     1
102
RTVSPropertyOp43
 70
     1
102
RTVSPropertyOp44
 70
     1
102
RTVSPropertyOp45
 70
     1
102
RTVSPropertyOp46
 70
     1
102
RTVSPropertyOp47
 70
     1
102
RTVSPropertyOp48
 70
     1
102
RTVSPropertyOp49
 70
     1
102
RTVSPropertyOp50
 70
     1
102
RTVSPropertyOp51
 70
     0
102
RTVSPropertyOp52
 70
     0
102
RTVSPropertyOp53
 70
     1
102
RTVSPropertyOp54
 70
     1
102
RTVSPropertyOp55
 70
     1
102
RTVSPropertyOp56
 70
     1
102
RTVSPropertyOp57
 70
     1
102
RTVSPropertyOp58
 70
     1
102
RTVSPropertyOp59
 70
     1
102
RTVSPropertyOp60
 70
     1
102
RTVSPropertyOp61
 70
     1
102
RTVSPropertyOp62
 70
     1
  0
XRECORD
  5
2F48
102
{ACAD_REACTORS
330
2F47
102
}
330
2F47
100
AcDbXrecord
280
     1
102
RTVSPost2010Prop28
280
     0
102
RTVSPost2010PropOp28
 70
     1
102
RTVSPost2010Prop29
280
     1
102
RTVSPost2010PropOp29
 70
     1
102
RTVSPost2010Prop30
280
     1
102
RTVSPost2010PropOp30
 70
     1
102
RTVSPost2010Prop31
280
     0
102
RTVSPost2010PropOp31
 70
     1
102
RTVSPost2010Prop32
280
     0
102
RTVSPost2010PropOp32
 70
     1
102
RTVSPost2010Prop33
280
     0
102
RTVSPost2010PropOp33
 70
     1
102
RTVSPost2010Prop34
280
     0
102
RTVSPost2010PropOp34
 70
     1
102
RTVSPost2010Prop35
280
     0
102
RTVSPost2010PropOp35
 70
     1
102
RTVSPost2010Prop36
280
     0
102
RTVSPost2010PropOp36
 70
     1
102
RTVSPost2010Prop37
 90
       50
102
RTVSPost2010PropOp37
 70
     0
102
RTVSPost2010Prop38
140
0.0
102
RTVSPost2010PropOp38
 70
     0
102
RTVSPost2010Prop39
140
1.0
102
RTVSPost2010PropOp39
 70
     0
102
RTVSPost2010Prop40
 90
        0
102
RTVSPost2010PropOp40
 70
     0
102
RTVSPost2010Prop41ColorIndex
 90
       18
102
RTVSPost2010Prop41ColorRGB
 90
        0
102
RTVSPost2010PropOp41
 70
     0
102
RTVSPost2010Prop42
 90
       50
102
RTVSPost2010PropOp42
 70
     0
102
RTVSPost2010Prop43
 90
        3
102
RTVSPost2010PropOp43
 70
     0
102
RTVSPost2010Prop44ColorIndex
 90
        5
102
RTVSPost2010Prop44ColorRGB
 90
      255
102
RTVSPost2010PropOp44
 70
     0
102
RTVSPost2010Prop45
280
     0
102
RTVSPost2010PropOp45
 70
     1
102
RTVSPost2010Prop46
 90
       50
102
RTVSPost2010PropOp46
 70
     0
102
RTVSPost2010Prop47
 90
       50
102
RTVSPost2010PropOp47
 70
     0
102
RTVSPost2010Prop48
 90
       50
102
RTVSPost2010PropOp48
 70
     0
102
RTVSPost2010Prop49
280
     0
102
RTVSPost2010PropOp49
 70
     1
102
RTVSPost2010Prop50
 90
       50
102
RTVSPost2010PropOp50
 70
     0
102
RTVSPost2010Prop51ColorIndex
 90
      256
102
RTVSPost2010Prop51ColorRGB
 90
-16777216
102
RTVSPost2010PropOp51
 70
     0
102
RTVSPost2010Prop52
140
1.0
102
RTVSPost2010PropOp52
 70
     0
102
RTVSPost2010Prop53
 90
        2
102
RTVSPost2010PropOp53
 70
     0
102
RTVSPost2010Prop54
  1
strokes_ogs.tif
102
RTVSPost2010PropOp54
 70
     0
102
RTVSPost2010Prop55
280
     0
102
RTVSPost2010PropOp55
 70
     1
102
RTVSPost2010Prop56
140
1.0
102
RTVSPost2010PropOp56
 70
     0
102
RTVSPost2010Prop57
140
1.0
102
RTVSPost2010PropOp57
 70
     0
102
RTVSPropertyOp0
 70
     0
102
RTVSPropertyOp1
 70
     0
102
RTVSPropertyOp2
 70
     0
102
RTVSPropertyOp3
 70
     0
102
RTVSPropertyOp4
 70
     0
102
RTVSPropertyOp5
 70
     0
102
RTVSPropertyOp6
 70
     0
102
RTVSPropertyOp7
 70
     0
102
RTVSPropertyOp8
 70
     0
102
RTVSPropertyOp9
 70
     0
102
RTVSPropertyOp10
 70
     0
102
RTVSPropertyOp11
 70
     0
102
RTVSPropertyOp12
 70
     0
102
RTVSPropertyOp13
 70
     0
102
RTVSPropertyOp14
 70
     2
102
RTVSPropertyOp15
 70
     0
102
RTVSPropertyOp16
 70
     0
102
RTVSPropertyOp17
 70
     0
102
RTVSPropertyOp18
 70
     0
102
RTVSPropertyOp19
 70
     0
102
RTVSPropertyOp20
 70
     0
102
RTVSPropertyOp21
 70
     0
102
RTVSPropertyOp22
 70
     0
102
RTVSPropertyOp23
 70
     0
102
RTVSPropertyOp24
 70
     0
102
RTVSPropertyOp25
 70
     0
102
RTVSPropertyOp26
 70
     0
102
RTVSPropertyOp27
 70
     0
102
RTVSPropertyOp28
 70
     1
102
RTVSPropertyOp29
 70
     1
102
RTVSPropertyOp30
 70
     1
102
RTVSPropertyOp31
 70
     1
102
RTVSPropertyOp32
 70
     1
102
RTVSPropertyOp33
 70
     1
102
RTVSPropertyOp34
 70
     1
102
RTVSPropertyOp35
 70
     1
102
RTVSPropertyOp36
 70
     1
102
RTVSPropertyOp37
 70
     0
102
RTVSPropertyOp38
 70
     0
102
RTVSPropertyOp39
 70
     0
102
RTVSPropertyOp40
 70
     0
102
RTVSPropertyOp41
 70
     0
102
RTVSPropertyOp42
 70
     0
102
RTVSPropertyOp43
 70
     0
102
RTVSPropertyOp44
 70
     0
102
RTVSPropertyOp45
 70
     1
102
RTVSPropertyOp46
 70
     0
102
RTVSPropertyOp47
 70
     0
102
RTVSPropertyOp48
 70
     0
102
RTVSPropertyOp49
 70
     1
102
RTVSPropertyOp50
 70
     0
102
RTVSPropertyOp51
 70
     0
102
RTVSPropertyOp52
 70
     0
102
RTVSPropertyOp53
 70
     0
102
RTVSPropertyOp54
 70
     0
102
RTVSPropertyOp55
 70
     1
102
RTVSPropertyOp56
 70
     0
102
RTVSPropertyOp57
 70
     0
102
RTVSPropertyOp58
 70
     0
102
RTVSPropertyOp59
 70
     0
102
RTVSPropertyOp60
 70
     0
102
RTVSPropertyOp61
 70
     0
102
RTVSPropertyOp62
 70
     0
  0
XRECORD
  5
2F36
102
{ACAD_REACTORS
330
2F35
102
}
330
2F35
100
AcDbXrecord
280
     1
102
RTVSPost2010Prop28
280
     0
102
RTVSPost2010PropOp28
 70
     1
102
RTVSPost2010Prop29
280
     1
102
RTVSPost2010PropOp29
 70
     1
102
RTVSPost2010Prop30
280
     1
102
RTVSPost2010PropOp30
 70
     1
102
RTVSPost2010Prop31
280
     0
102
RTVSPost2010PropOp31
 70
     1
102
RTVSPost2010Prop32
280
     0
102
RTVSPost2010PropOp32
 70
     1
102
RTVSPost2010Prop33
280
     0
102
RTVSPost2010PropOp33
 70
     1
102
RTVSPost2010Prop34
280
     0
102
RTVSPost2010PropOp34
 70
     1
102
RTVSPost2010Prop35
280
     0
102
RTVSPost2010PropOp35
 70
     1
102
RTVSPost2010Prop36
280
     0
102
RTVSPost2010PropOp36
 70
     1
102
RTVSPost2010Prop37
 90
       50
102
RTVSPost2010PropOp37
 70
     1
102
RTVSPost2010Prop38
140
0.0
102
RTVSPost2010PropOp38
 70
     1
102
RTVSPost2010Prop39
140
1.0
102
RTVSPost2010PropOp39
 70
     1
102
RTVSPost2010Prop40
 90
        0
102
RTVSPost2010PropOp40
 70
     1
102
RTVSPost2010Prop41ColorIndex
 90
       18
102
RTVSPost2010Prop41ColorRGB
 90
        0
102
RTVSPost2010PropOp41
 70
     1
102
RTVSPost2010Prop42
 90
       50
102
RTVSPost2010PropOp42
 70
     1
102
RTVSPost2010Prop43
 90
        3
102
RTVSPost2010PropOp43
 70
     1
102
RTVSPost2010Prop44ColorIndex
 90
        5
102
RTVSPost2010Prop44ColorRGB
 90
      255
102
RTVSPost2010PropOp44
 70
     1
102
RTVSPost2010Prop45
280
     0
102
RTVSPost2010PropOp45
 70
     1
102
RTVSPost2010Prop46
 90
       50
102
RTVSPost2010PropOp46
 70
     1
102
RTVSPost2010Prop47
 90
       50
102
RTVSPost2010PropOp47
 70
     1
102
RTVSPost2010Prop48
 90
       50
102
RTVSPost2010PropOp48
 70
     1
102
RTVSPost2010Prop49
280
     0
102
RTVSPost2010PropOp49
 70
     1
102
RTVSPost2010Prop50
 90
       50
102
RTVSPost2010PropOp50
 70
     1
102
RTVSPost2010Prop51ColorIndex
 90
      256
102
RTVSPost2010Prop51ColorRGB
 90
-16777216
102
RTVSPost2010PropOp51
 70
     0
102
RTVSPost2010Prop52
140
1.0
102
RTVSPost2010PropOp52
 70
     0
102
RTVSPost2010Prop53
 90
        2
102
RTVSPost2010PropOp53
 70
     1
102
RTVSPost2010Prop54
  1
strokes_ogs.tif
102
RTVSPost2010PropOp54
 70
     1
102
RTVSPost2010Prop55
280
     0
102
RTVSPost2010PropOp55
 70
     1
102
RTVSPost2010Prop56
140
1.0
102
RTVSPost2010PropOp56
 70
     1
102
RTVSPost2010Prop57
140
1.0
102
RTVSPost2010PropOp57
 70
     1
102
RTVSPropertyOp0
 70
     1
102
RTVSPropertyOp1
 70
     1
102
RTVSPropertyOp2
 70
     1
102
RTVSPropertyOp3
 70
     1
102
RTVSPropertyOp4
 70
     1
102
RTVSPropertyOp5
 70
     1
102
RTVSPropertyOp6
 70
     1
102
RTVSPropertyOp7
 70
     1
102
RTVSPropertyOp8
 70
     1
102
RTVSPropertyOp9
 70
     1
102
RTVSPropertyOp10
 70
     1
102
RTVSPropertyOp11
 70
     1
102
RTVSPropertyOp12
 70
     1
102
RTVSPropertyOp13
 70
     1
102
RTVSPropertyOp14
 70
     1
102
RTVSPropertyOp15
 70
     1
102
RTVSPropertyOp16
 70
     1
102
RTVSPropertyOp17
 70
     1
102
RTVSPropertyOp18
 70
     1
102
RTVSPropertyOp19
 70
     1
102
RTVSPropertyOp20
 70
     1
102
RTVSPropertyOp21
 70
     1
102
RTVSPropertyOp22
 70
     1
102
RTVSPropertyOp23
 70
     1
102
RTVSPropertyOp24
 70
     1
102
RTVSPropertyOp25
 70
     1
102
RTVSPropertyOp26
 70
     1
102
RTVSPropertyOp27
 70
     1
102
RTVSPropertyOp28
 70
     1
102
RTVSPropertyOp29
 70
     1
102
RTVSPropertyOp30
 70
     1
102
RTVSPropertyOp31
 70
     1
102
RTVSPropertyOp32
 70
     1
102
RTVSPropertyOp33
 70
     1
102
RTVSPropertyOp34
 70
     1
102
RTVSPropertyOp35
 70
     1
102
RTVSPropertyOp36
 70
     1
102
RTVSPropertyOp37
 70
     1
102
RTVSPropertyOp38
 70
     1
102
RTVSPropertyOp39
 70
     1
102
RTVSPropertyOp40
 70
     1
102
RTVSPropertyOp41
 70
     1
102
RTVSPropertyOp42
 70
     1
102
RTVSPropertyOp43
 70
     1
102
RTVSPropertyOp44
 70
     1
102
RTVSPropertyOp45
 70
     1
102
RTVSPropertyOp46
 70
     1
102
RTVSPropertyOp47
 70
     1
102
RTVSPropertyOp48
 70
     1
102
RTVSPropertyOp49
 70
     1
102
RTVSPropertyOp50
 70
     1
102
RTVSPropertyOp51
 70
     0
102
RTVSPropertyOp52
 70
     0
102
RTVSPropertyOp53
 70
     1
102
RTVSPropertyOp54
 70
     1
102
RTVSPropertyOp55
 70
     1
102
RTVSPropertyOp56
 70
     1
102
RTVSPropertyOp57
 70
     1
102
RTVSPropertyOp58
 70
     1
102
RTVSPropertyOp59
 70
     1
102
RTVSPropertyOp60
 70
     1
102
RTVSPropertyOp61
 70
     1
102
RTVSPropertyOp62
 70
     1
  0
XRECORD
  5
2F1A
102
{ACAD_REACTORS
330
2F19
102
}
330
2F19
100
AcDbXrecord
280
     1
102
RTVSPost2010Prop28
280
     0
102
RTVSPost2010PropOp28
 70
     1
102
RTVSPost2010Prop29
280
     1
102
RTVSPost2010PropOp29
 70
     1
102
RTVSPost2010Prop30
280
     1
102
RTVSPost2010PropOp30
 70
     1
102
RTVSPost2010Prop31
280
     0
102
RTVSPost2010PropOp31
 70
     1
102
RTVSPost2010Prop32
280
     0
102
RTVSPost2010PropOp32
 70
     1
102
RTVSPost2010Prop33
280
     0
102
RTVSPost2010PropOp33
 70
     1
102
RTVSPost2010Prop34
280
     0
102
RTVSPost2010PropOp34
 70
     1
102
RTVSPost2010Prop35
280
     0
102
RTVSPost2010PropOp35
 70
     1
102
RTVSPost2010Prop36
280
     0
102
RTVSPost2010PropOp36
 70
     1
102
RTVSPost2010Prop37
 90
       50
102
RTVSPost2010PropOp37
 70
     1
102
RTVSPost2010Prop38
140
0.0
102
RTVSPost2010PropOp38
 70
     1
102
RTVSPost2010Prop39
140
1.0
102
RTVSPost2010PropOp39
 70
     1
102
RTVSPost2010Prop40
 90
        0
102
RTVSPost2010PropOp40
 70
     1
102
RTVSPost2010Prop41ColorIndex
 90
       18
102
RTVSPost2010Prop41ColorRGB
 90
        0
102
RTVSPost2010PropOp41
 70
     1
102
RTVSPost2010Prop42
 90
       50
102
RTVSPost2010PropOp42
 70
     1
102
RTVSPost2010Prop43
 90
        3
102
RTVSPost2010PropOp43
 70
     1
102
RTVSPost2010Prop44ColorIndex
 90
        5
102
RTVSPost2010Prop44ColorRGB
 90
      255
102
RTVSPost2010PropOp44
 70
     1
102
RTVSPost2010Prop45
280
     0
102
RTVSPost2010PropOp45
 70
     1
102
RTVSPost2010Prop46
 90
       50
102
RTVSPost2010PropOp46
 70
     1
102
RTVSPost2010Prop47
 90
       50
102
RTVSPost2010PropOp47
 70
     1
102
RTVSPost2010Prop48
 90
       50
102
RTVSPost2010PropOp48
 70
     1
102
RTVSPost2010Prop49
280
     0
102
RTVSPost2010PropOp49
 70
     1
102
RTVSPost2010Prop50
 90
       50
102
RTVSPost2010PropOp50
 70
     1
102
RTVSPost2010Prop51ColorIndex
 90
      256
102
RTVSPost2010Prop51ColorRGB
 90
-16777216
102
RTVSPost2010PropOp51
 70
     0
102
RTVSPost2010Prop52
140
1.0
102
RTVSPost2010PropOp52
 70
     0
102
RTVSPost2010Prop53
 90
        2
102
RTVSPost2010PropOp53
 70
     1
102
RTVSPost2010Prop54
  1
strokes_ogs.tif
102
RTVSPost2010PropOp54
 70
     1
102
RTVSPost2010Prop55
280
     0
102
RTVSPost2010PropOp55
 70
     1
102
RTVSPost2010Prop56
140
1.0
102
RTVSPost2010PropOp56
 70
     1
102
RTVSPost2010Prop57
140
1.0
102
RTVSPost2010PropOp57
 70
     1
102
RTVSPropertyOp0
 70
     1
102
RTVSPropertyOp1
 70
     1
102
RTVSPropertyOp2
 70
     1
102
RTVSPropertyOp3
 70
     1
102
RTVSPropertyOp4
 70
     1
102
RTVSPropertyOp5
 70
     1
102
RTVSPropertyOp6
 70
     1
102
RTVSPropertyOp7
 70
     1
102
RTVSPropertyOp8
 70
     1
102
RTVSPropertyOp9
 70
     1
102
RTVSPropertyOp10
 70
     1
102
RTVSPropertyOp11
 70
     1
102
RTVSPropertyOp12
 70
     1
102
RTVSPropertyOp13
 70
     1
102
RTVSPropertyOp14
 70
     1
102
RTVSPropertyOp15
 70
     1
102
RTVSPropertyOp16
 70
     1
102
RTVSPropertyOp17
 70
     1
102
RTVSPropertyOp18
 70
     1
102
RTVSPropertyOp19
 70
     1
102
RTVSPropertyOp20
 70
     1
102
RTVSPropertyOp21
 70
     1
102
RTVSPropertyOp22
 70
     1
102
RTVSPropertyOp23
 70
     1
102
RTVSPropertyOp24
 70
     1
102
RTVSPropertyOp25
 70
     1
102
RTVSPropertyOp26
 70
     1
102
RTVSPropertyOp27
 70
     1
102
RTVSPropertyOp28
 70
     1
102
RTVSPropertyOp29
 70
     1
102
RTVSPropertyOp30
 70
     1
102
RTVSPropertyOp31
 70
     1
102
RTVSPropertyOp32
 70
     1
102
RTVSPropertyOp33
 70
     1
102
RTVSPropertyOp34
 70
     1
102
RTVSPropertyOp35
 70
     1
102
RTVSPropertyOp36
 70
     1
102
RTVSPropertyOp37
 70
     1
102
RTVSPropertyOp38
 70
     1
102
RTVSPropertyOp39
 70
     1
102
RTVSPropertyOp40
 70
     1
102
RTVSPropertyOp41
 70
     1
102
RTVSPropertyOp42
 70
     1
102
RTVSPropertyOp43
 70
     1
102
RTVSPropertyOp44
 70
     1
102
RTVSPropertyOp45
 70
     1
102
RTVSPropertyOp46
 70
     1
102
RTVSPropertyOp47
 70
     1
102
RTVSPropertyOp48
 70
     1
102
RTVSPropertyOp49
 70
     1
102
RTVSPropertyOp50
 70
     1
102
RTVSPropertyOp51
 70
     0
102
RTVSPropertyOp52
 70
     0
102
RTVSPropertyOp53
 70
     1
102
RTVSPropertyOp54
 70
     1
102
RTVSPropertyOp55
 70
     1
102
RTVSPropertyOp56
 70
     1
102
RTVSPropertyOp57
 70
     1
102
RTVSPropertyOp58
 70
     1
102
RTVSPropertyOp59
 70
     1
102
RTVSPropertyOp60
 70
     1
102
RTVSPropertyOp61
 70
     1
102
RTVSPropertyOp62
 70
     1
  0
XRECORD
  5
2F1C
102
{ACAD_REACTORS
330
2F1B
102
}
330
2F1B
100
AcDbXrecord
280
     1
102
RTVSPost2010Prop28
280
     0
102
RTVSPost2010PropOp28
 70
     1
102
RTVSPost2010Prop29
280
     1
102
RTVSPost2010PropOp29
 70
     1
102
RTVSPost2010Prop30
280
     1
102
RTVSPost2010PropOp30
 70
     1
102
RTVSPost2010Prop31
280
     0
102
RTVSPost2010PropOp31
 70
     1
102
RTVSPost2010Prop32
280
     0
102
RTVSPost2010PropOp32
 70
     1
102
RTVSPost2010Prop33
280
     0
102
RTVSPost2010PropOp33
 70
     1
102
RTVSPost2010Prop34
280
     0
102
RTVSPost2010PropOp34
 70
     1
102
RTVSPost2010Prop35
280
     0
102
RTVSPost2010PropOp35
 70
     1
102
RTVSPost2010Prop36
280
     0
102
RTVSPost2010PropOp36
 70
     1
102
RTVSPost2010Prop37
 90
       50
102
RTVSPost2010PropOp37
 70
     1
102
RTVSPost2010Prop38
140
0.0
102
RTVSPost2010PropOp38
 70
     1
102
RTVSPost2010Prop39
140
1.0
102
RTVSPost2010PropOp39
 70
     1
102
RTVSPost2010Prop40
 90
        0
102
RTVSPost2010PropOp40
 70
     1
102
RTVSPost2010Prop41ColorIndex
 90
       18
102
RTVSPost2010Prop41ColorRGB
 90
        0
102
RTVSPost2010PropOp41
 70
     1
102
RTVSPost2010Prop42
 90
       50
102
RTVSPost2010PropOp42
 70
     1
102
RTVSPost2010Prop43
 90
        3
102
RTVSPost2010PropOp43
 70
     1
102
RTVSPost2010Prop44ColorIndex
 90
        5
102
RTVSPost2010Prop44ColorRGB
 90
      255
102
RTVSPost2010PropOp44
 70
     1
102
RTVSPost2010Prop45
280
     0
102
RTVSPost2010PropOp45
 70
     1
102
RTVSPost2010Prop46
 90
       50
102
RTVSPost2010PropOp46
 70
     1
102
RTVSPost2010Prop47
 90
       50
102
RTVSPost2010PropOp47
 70
     1
102
RTVSPost2010Prop48
 90
       50
102
RTVSPost2010PropOp48
 70
     1
102
RTVSPost2010Prop49
280
     0
102
RTVSPost2010PropOp49
 70
     1
102
RTVSPost2010Prop50
 90
       50
102
RTVSPost2010PropOp50
 70
     1
102
RTVSPost2010Prop51ColorIndex
 90
      256
102
RTVSPost2010Prop51ColorRGB
 90
-16777216
102
RTVSPost2010PropOp51
 70
     0
102
RTVSPost2010Prop52
140
1.0
102
RTVSPost2010PropOp52
 70
     0
102
RTVSPost2010Prop53
 90
        2
102
RTVSPost2010PropOp53
 70
     1
102
RTVSPost2010Prop54
  1
strokes_ogs.tif
102
RTVSPost2010PropOp54
 70
     1
102
RTVSPost2010Prop55
280
     0
102
RTVSPost2010PropOp55
 70
     1
102
RTVSPost2010Prop56
140
1.0
102
RTVSPost2010PropOp56
 70
     1
102
RTVSPost2010Prop57
140
1.0
102
RTVSPost2010PropOp57
 70
     1
102
RTVSPropertyOp0
 70
     1
102
RTVSPropertyOp1
 70
     1
102
RTVSPropertyOp2
 70
     1
102
RTVSPropertyOp3
 70
     1
102
RTVSPropertyOp4
 70
     1
102
RTVSPropertyOp5
 70
     1
102
RTVSPropertyOp6
 70
     1
102
RTVSPropertyOp7
 70
     1
102
RTVSPropertyOp8
 70
     1
102
RTVSPropertyOp9
 70
     1
102
RTVSPropertyOp10
 70
     1
102
RTVSPropertyOp11
 70
     1
102
RTVSPropertyOp12
 70
     1
102
RTVSPropertyOp13
 70
     1
102
RTVSPropertyOp14
 70
     1
102
RTVSPropertyOp15
 70
     1
102
RTVSPropertyOp16
 70
     1
102
RTVSPropertyOp17
 70
     1
102
RTVSPropertyOp18
 70
     1
102
RTVSPropertyOp19
 70
     1
102
RTVSPropertyOp20
 70
     1
102
RTVSPropertyOp21
 70
     1
102
RTVSPropertyOp22
 70
     1
102
RTVSPropertyOp23
 70
     1
102
RTVSPropertyOp24
 70
     1
102
RTVSPropertyOp25
 70
     1
102
RTVSPropertyOp26
 70
     1
102
RTVSPropertyOp27
 70
     1
102
RTVSPropertyOp28
 70
     1
102
RTVSPropertyOp29
 70
     1
102
RTVSPropertyOp30
 70
     1
102
RTVSPropertyOp31
 70
     1
102
RTVSPropertyOp32
 70
     1
102
RTVSPropertyOp33
 70
     1
102
RTVSPropertyOp34
 70
     1
102
RTVSPropertyOp35
 70
     1
102
RTVSPropertyOp36
 70
     1
102
RTVSPropertyOp37
 70
     1
102
RTVSPropertyOp38
 70
     1
102
RTVSPropertyOp39
 70
     1
102
RTVSPropertyOp40
 70
     1
102
RTVSPropertyOp41
 70
     1
102
RTVSPropertyOp42
 70
     1
102
RTVSPropertyOp43
 70
     1
102
RTVSPropertyOp44
 70
     1
102
RTVSPropertyOp45
 70
     1
102
RTVSPropertyOp46
 70
     1
102
RTVSPropertyOp47
 70
     1
102
RTVSPropertyOp48
 70
     1
102
RTVSPropertyOp49
 70
     1
102
RTVSPropertyOp50
 70
     1
102
RTVSPropertyOp51
 70
     0
102
RTVSPropertyOp52
 70
     0
102
RTVSPropertyOp53
 70
     1
102
RTVSPropertyOp54
 70
     1
102
RTVSPropertyOp55
 70
     1
102
RTVSPropertyOp56
 70
     1
102
RTVSPropertyOp57
 70
     1
102
RTVSPropertyOp58
 70
     1
102
RTVSPropertyOp59
 70
     1
102
RTVSPropertyOp60
 70
     1
102
RTVSPropertyOp61
 70
     1
102
RTVSPropertyOp62
 70
     1
  0
XRECORD
  5
2F1E
102
{ACAD_REACTORS
330
2F1D
102
}
330
2F1D
100
AcDbXrecord
280
     1
102
RTVSPost2010Prop28
280
     0
102
RTVSPost2010PropOp28
 70
     1
102
RTVSPost2010Prop29
280
     1
102
RTVSPost2010PropOp29
 70
     1
102
RTVSPost2010Prop30
280
     1
102
RTVSPost2010PropOp30
 70
     1
102
RTVSPost2010Prop31
280
     0
102
RTVSPost2010PropOp31
 70
     1
102
RTVSPost2010Prop32
280
     0
102
RTVSPost2010PropOp32
 70
     1
102
RTVSPost2010Prop33
280
     0
102
RTVSPost2010PropOp33
 70
     1
102
RTVSPost2010Prop34
280
     0
102
RTVSPost2010PropOp34
 70
     1
102
RTVSPost2010Prop35
280
     0
102
RTVSPost2010PropOp35
 70
     1
102
RTVSPost2010Prop36
280
     0
102
RTVSPost2010PropOp36
 70
     1
102
RTVSPost2010Prop37
 90
       50
102
RTVSPost2010PropOp37
 70
     1
102
RTVSPost2010Prop38
140
0.0
102
RTVSPost2010PropOp38
 70
     1
102
RTVSPost2010Prop39
140
1.0
102
RTVSPost2010PropOp39
 70
     1
102
RTVSPost2010Prop40
 90
        0
102
RTVSPost2010PropOp40
 70
     1
102
RTVSPost2010Prop41ColorIndex
 90
       18
102
RTVSPost2010Prop41ColorRGB
 90
        0
102
RTVSPost2010PropOp41
 70
     1
102
RTVSPost2010Prop42
 90
       50
102
RTVSPost2010PropOp42
 70
     1
102
RTVSPost2010Prop43
 90
        3
102
RTVSPost2010PropOp43
 70
     1
102
RTVSPost2010Prop44ColorIndex
 90
        5
102
RTVSPost2010Prop44ColorRGB
 90
      255
102
RTVSPost2010PropOp44
 70
     1
102
RTVSPost2010Prop45
280
     0
102
RTVSPost2010PropOp45
 70
     1
102
RTVSPost2010Prop46
 90
       50
102
RTVSPost2010PropOp46
 70
     1
102
RTVSPost2010Prop47
 90
       50
102
RTVSPost2010PropOp47
 70
     1
102
RTVSPost2010Prop48
 90
       50
102
RTVSPost2010PropOp48
 70
     1
102
RTVSPost2010Prop49
280
     0
102
RTVSPost2010PropOp49
 70
     1
102
RTVSPost2010Prop50
 90
       50
102
RTVSPost2010PropOp50
 70
     1
102
RTVSPost2010Prop51ColorIndex
 90
      256
102
RTVSPost2010Prop51ColorRGB
 90
-16777216
102
RTVSPost2010PropOp51
 70
     0
102
RTVSPost2010Prop52
140
1.0
102
RTVSPost2010PropOp52
 70
     0
102
RTVSPost2010Prop53
 90
        2
102
RTVSPost2010PropOp53
 70
     1
102
RTVSPost2010Prop54
  1
strokes_ogs.tif
102
RTVSPost2010PropOp54
 70
     1
102
RTVSPost2010Prop55
280
     0
102
RTVSPost2010PropOp55
 70
     1
102
RTVSPost2010Prop56
140
1.0
102
RTVSPost2010PropOp56
 70
     1
102
RTVSPost2010Prop57
140
1.0
102
RTVSPost2010PropOp57
 70
     1
102
RTVSPropertyOp0
 70
     1
102
RTVSPropertyOp1
 70
     1
102
RTVSPropertyOp2
 70
     1
102
RTVSPropertyOp3
 70
     1
102
RTVSPropertyOp4
 70
     1
102
RTVSPropertyOp5
 70
     1
102
RTVSPropertyOp6
 70
     1
102
RTVSPropertyOp7
 70
     1
102
RTVSPropertyOp8
 70
     1
102
RTVSPropertyOp9
 70
     1
102
RTVSPropertyOp10
 70
     1
102
RTVSPropertyOp11
 70
     1
102
RTVSPropertyOp12
 70
     1
102
RTVSPropertyOp13
 70
     1
102
RTVSPropertyOp14
 70
     1
102
RTVSPropertyOp15
 70
     1
102
RTVSPropertyOp16
 70
     1
102
RTVSPropertyOp17
 70
     1
102
RTVSPropertyOp18
 70
     1
102
RTVSPropertyOp19
 70
     1
102
RTVSPropertyOp20
 70
     1
102
RTVSPropertyOp21
 70
     1
102
RTVSPropertyOp22
 70
     1
102
RTVSPropertyOp23
 70
     1
102
RTVSPropertyOp24
 70
     1
102
RTVSPropertyOp25
 70
     1
102
RTVSPropertyOp26
 70
     1
102
RTVSPropertyOp27
 70
     1
102
RTVSPropertyOp28
 70
     1
102
RTVSPropertyOp29
 70
     1
102
RTVSPropertyOp30
 70
     1
102
RTVSPropertyOp31
 70
     1
102
RTVSPropertyOp32
 70
     1
102
RTVSPropertyOp33
 70
     1
102
RTVSPropertyOp34
 70
     1
102
RTVSPropertyOp35
 70
     1
102
RTVSPropertyOp36
 70
     1
102
RTVSPropertyOp37
 70
     1
102
RTVSPropertyOp38
 70
     1
102
RTVSPropertyOp39
 70
     1
102
RTVSPropertyOp40
 70
     1
102
RTVSPropertyOp41
 70
     1
102
RTVSPropertyOp42
 70
     1
102
RTVSPropertyOp43
 70
     1
102
RTVSPropertyOp44
 70
     1
102
RTVSPropertyOp45
 70
     1
102
RTVSPropertyOp46
 70
     1
102
RTVSPropertyOp47
 70
     1
102
RTVSPropertyOp48
 70
     1
102
RTVSPropertyOp49
 70
     1
102
RTVSPropertyOp50
 70
     1
102
RTVSPropertyOp51
 70
     0
102
RTVSPropertyOp52
 70
     0
102
RTVSPropertyOp53
 70
     1
102
RTVSPropertyOp54
 70
     1
102
RTVSPropertyOp55
 70
     1
102
RTVSPropertyOp56
 70
     1
102
RTVSPropertyOp57
 70
     1
102
RTVSPropertyOp58
 70
     1
102
RTVSPropertyOp59
 70
     1
102
RTVSPropertyOp60
 70
     1
102
RTVSPropertyOp61
 70
     1
102
RTVSPropertyOp62
 70
     1
  0
XRECORD
  5
2F20
102
{ACAD_REACTORS
330
2F1F
102
}
330
2F1F
100
AcDbXrecord
280
     1
102
RTVSPost2010Prop28
280
     0
102
RTVSPost2010PropOp28
 70
     1
102
RTVSPost2010Prop29
280
     1
102
RTVSPost2010PropOp29
 70
     1
102
RTVSPost2010Prop30
280
     1
102
RTVSPost2010PropOp30
 70
     1
102
RTVSPost2010Prop31
280
     0
102
RTVSPost2010PropOp31
 70
     1
102
RTVSPost2010Prop32
280
     0
102
RTVSPost2010PropOp32
 70
     1
102
RTVSPost2010Prop33
280
     0
102
RTVSPost2010PropOp33
 70
     1
102
RTVSPost2010Prop34
280
     0
102
RTVSPost2010PropOp34
 70
     1
102
RTVSPost2010Prop35
280
     0
102
RTVSPost2010PropOp35
 70
     1
102
RTVSPost2010Prop36
280
     0
102
RTVSPost2010PropOp36
 70
     1
102
RTVSPost2010Prop37
 90
       50
102
RTVSPost2010PropOp37
 70
     1
102
RTVSPost2010Prop38
140
0.0
102
RTVSPost2010PropOp38
 70
     1
102
RTVSPost2010Prop39
140
1.0
102
RTVSPost2010PropOp39
 70
     1
102
RTVSPost2010Prop40
 90
        0
102
RTVSPost2010PropOp40
 70
     1
102
RTVSPost2010Prop41ColorIndex
 90
       18
102
RTVSPost2010Prop41ColorRGB
 90
        0
102
RTVSPost2010PropOp41
 70
     1
102
RTVSPost2010Prop42
 90
       50
102
RTVSPost2010PropOp42
 70
     1
102
RTVSPost2010Prop43
 90
        3
102
RTVSPost2010PropOp43
 70
     1
102
RTVSPost2010Prop44ColorIndex
 90
        5
102
RTVSPost2010Prop44ColorRGB
 90
      255
102
RTVSPost2010PropOp44
 70
     1
102
RTVSPost2010Prop45
280
     0
102
RTVSPost2010PropOp45
 70
     1
102
RTVSPost2010Prop46
 90
       50
102
RTVSPost2010PropOp46
 70
     1
102
RTVSPost2010Prop47
 90
       50
102
RTVSPost2010PropOp47
 70
     1
102
RTVSPost2010Prop48
 90
       50
102
RTVSPost2010PropOp48
 70
     1
102
RTVSPost2010Prop49
280
     0
102
RTVSPost2010PropOp49
 70
     1
102
RTVSPost2010Prop50
 90
       50
102
RTVSPost2010PropOp50
 70
     1
102
RTVSPost2010Prop51ColorIndex
 90
      256
102
RTVSPost2010Prop51ColorRGB
 90
-16777216
102
RTVSPost2010PropOp51
 70
     0
102
RTVSPost2010Prop52
140
1.0
102
RTVSPost2010PropOp52
 70
     0
102
RTVSPost2010Prop53
 90
        2
102
RTVSPost2010PropOp53
 70
     1
102
RTVSPost2010Prop54
  1
strokes_ogs.tif
102
RTVSPost2010PropOp54
 70
     1
102
RTVSPost2010Prop55
280
     0
102
RTVSPost2010PropOp55
 70
     1
102
RTVSPost2010Prop56
140
1.0
102
RTVSPost2010PropOp56
 70
     1
102
RTVSPost2010Prop57
140
1.0
102
RTVSPost2010PropOp57
 70
     1
102
RTVSPropertyOp0
 70
     1
102
RTVSPropertyOp1
 70
     1
102
RTVSPropertyOp2
 70
     1
102
RTVSPropertyOp3
 70
     1
102
RTVSPropertyOp4
 70
     1
102
RTVSPropertyOp5
 70
     1
102
RTVSPropertyOp6
 70
     1
102
RTVSPropertyOp7
 70
     1
102
RTVSPropertyOp8
 70
     1
102
RTVSPropertyOp9
 70
     1
102
RTVSPropertyOp10
 70
     1
102
RTVSPropertyOp11
 70
     1
102
RTVSPropertyOp12
 70
     1
102
RTVSPropertyOp13
 70
     1
102
RTVSPropertyOp14
 70
     1
102
RTVSPropertyOp15
 70
     1
102
RTVSPropertyOp16
 70
     1
102
RTVSPropertyOp17
 70
     1
102
RTVSPropertyOp18
 70
     1
102
RTVSPropertyOp19
 70
     1
102
RTVSPropertyOp20
 70
     1
102
RTVSPropertyOp21
 70
     1
102
RTVSPropertyOp22
 70
     1
102
RTVSPropertyOp23
 70
     1
102
RTVSPropertyOp24
 70
     1
102
RTVSPropertyOp25
 70
     1
102
RTVSPropertyOp26
 70
     1
102
RTVSPropertyOp27
 70
     1
102
RTVSPropertyOp28
 70
     1
102
RTVSPropertyOp29
 70
     1
102
RTVSPropertyOp30
 70
     1
102
RTVSPropertyOp31
 70
     1
102
RTVSPropertyOp32
 70
     1
102
RTVSPropertyOp33
 70
     1
102
RTVSPropertyOp34
 70
     1
102
RTVSPropertyOp35
 70
     1
102
RTVSPropertyOp36
 70
     1
102
RTVSPropertyOp37
 70
     1
102
RTVSPropertyOp38
 70
     1
102
RTVSPropertyOp39
 70
     1
102
RTVSPropertyOp40
 70
     1
102
RTVSPropertyOp41
 70
     1
102
RTVSPropertyOp42
 70
     1
102
RTVSPropertyOp43
 70
     1
102
RTVSPropertyOp44
 70
     1
102
RTVSPropertyOp45
 70
     1
102
RTVSPropertyOp46
 70
     1
102
RTVSPropertyOp47
 70
     1
102
RTVSPropertyOp48
 70
     1
102
RTVSPropertyOp49
 70
     1
102
RTVSPropertyOp50
 70
     1
102
RTVSPropertyOp51
 70
     0
102
RTVSPropertyOp52
 70
     0
102
RTVSPropertyOp53
 70
     1
102
RTVSPropertyOp54
 70
     1
102
RTVSPropertyOp55
 70
     1
102
RTVSPropertyOp56
 70
     1
102
RTVSPropertyOp57
 70
     1
102
RTVSPropertyOp58
 70
     1
102
RTVSPropertyOp59
 70
     1
102
RTVSPropertyOp60
 70
     1
102
RTVSPropertyOp61
 70
     1
102
RTVSPropertyOp62
 70
     1
  0
XRECORD
  5
2F28
102
{ACAD_REACTORS
330
2F27
102
}
330
2F27
100
AcDbXrecord
280
     1
102
RTVSPost2010Prop28
280
     0
102
RTVSPost2010PropOp28
 70
     1
102
RTVSPost2010Prop29
280
     1
102
RTVSPost2010PropOp29
 70
     1
102
RTVSPost2010Prop30
280
     1
102
RTVSPost2010PropOp30
 70
     1
102
RTVSPost2010Prop31
280
     0
102
RTVSPost2010PropOp31
 70
     1
102
RTVSPost2010Prop32
280
     0
102
RTVSPost2010PropOp32
 70
     1
102
RTVSPost2010Prop33
280
     0
102
RTVSPost2010PropOp33
 70
     1
102
RTVSPost2010Prop34
280
     0
102
RTVSPost2010PropOp34
 70
     1
102
RTVSPost2010Prop35
280
     0
102
RTVSPost2010PropOp35
 70
     1
102
RTVSPost2010Prop36
280
     0
102
RTVSPost2010PropOp36
 70
     1
102
RTVSPost2010Prop37
 90
       50
102
RTVSPost2010PropOp37
 70
     1
102
RTVSPost2010Prop38
140
0.0
102
RTVSPost2010PropOp38
 70
     1
102
RTVSPost2010Prop39
140
1.0
102
RTVSPost2010PropOp39
 70
     1
102
RTVSPost2010Prop40
 90
        0
102
RTVSPost2010PropOp40
 70
     1
102
RTVSPost2010Prop41ColorIndex
 90
       18
102
RTVSPost2010Prop41ColorRGB
 90
        0
102
RTVSPost2010PropOp41
 70
     1
102
RTVSPost2010Prop42
 90
       50
102
RTVSPost2010PropOp42
 70
     1
102
RTVSPost2010Prop43
 90
        3
102
RTVSPost2010PropOp43
 70
     1
102
RTVSPost2010Prop44ColorIndex
 90
        5
102
RTVSPost2010Prop44ColorRGB
 90
      255
102
RTVSPost2010PropOp44
 70
     1
102
RTVSPost2010Prop45
280
     0
102
RTVSPost2010PropOp45
 70
     1
102
RTVSPost2010Prop46
 90
       50
102
RTVSPost2010PropOp46
 70
     1
102
RTVSPost2010Prop47
 90
       50
102
RTVSPost2010PropOp47
 70
     1
102
RTVSPost2010Prop48
 90
       50
102
RTVSPost2010PropOp48
 70
     1
102
RTVSPost2010Prop49
280
     0
102
RTVSPost2010PropOp49
 70
     1
102
RTVSPost2010Prop50
 90
       50
102
RTVSPost2010PropOp50
 70
     1
102
RTVSPost2010Prop51ColorIndex
 90
      256
102
RTVSPost2010Prop51ColorRGB
 90
-16777216
102
RTVSPost2010PropOp51
 70
     0
102
RTVSPost2010Prop52
140
1.0
102
RTVSPost2010PropOp52
 70
     0
102
RTVSPost2010Prop53
 90
        2
102
RTVSPost2010PropOp53
 70
     1
102
RTVSPost2010Prop54
  1
strokes_ogs.tif
102
RTVSPost2010PropOp54
 70
     1
102
RTVSPost2010Prop55
280
     0
102
RTVSPost2010PropOp55
 70
     1
102
RTVSPost2010Prop56
140
1.0
102
RTVSPost2010PropOp56
 70
     1
102
RTVSPost2010Prop57
140
1.0
102
RTVSPost2010PropOp57
 70
     1
102
RTVSPropertyOp0
 70
     1
102
RTVSPropertyOp1
 70
     1
102
RTVSPropertyOp2
 70
     1
102
RTVSPropertyOp3
 70
     1
102
RTVSPropertyOp4
 70
     1
102
RTVSPropertyOp5
 70
     1
102
RTVSPropertyOp6
 70
     1
102
RTVSPropertyOp7
 70
     1
102
RTVSPropertyOp8
 70
     1
102
RTVSPropertyOp9
 70
     1
102
RTVSPropertyOp10
 70
     1
102
RTVSPropertyOp11
 70
     1
102
RTVSPropertyOp12
 70
     1
102
RTVSPropertyOp13
 70
     1
102
RTVSPropertyOp14
 70
     1
102
RTVSPropertyOp15
 70
     1
102
RTVSPropertyOp16
 70
     1
102
RTVSPropertyOp17
 70
     1
102
RTVSPropertyOp18
 70
     1
102
RTVSPropertyOp19
 70
     1
102
RTVSPropertyOp20
 70
     1
102
RTVSPropertyOp21
 70
     1
102
RTVSPropertyOp22
 70
     1
102
RTVSPropertyOp23
 70
     1
102
RTVSPropertyOp24
 70
     1
102
RTVSPropertyOp25
 70
     1
102
RTVSPropertyOp26
 70
     1
102
RTVSPropertyOp27
 70
     1
102
RTVSPropertyOp28
 70
     1
102
RTVSPropertyOp29
 70
     1
102
RTVSPropertyOp30
 70
     1
102
RTVSPropertyOp31
 70
     1
102
RTVSPropertyOp32
 70
     1
102
RTVSPropertyOp33
 70
     1
102
RTVSPropertyOp34
 70
     1
102
RTVSPropertyOp35
 70
     1
102
RTVSPropertyOp36
 70
     1
102
RTVSPropertyOp37
 70
     1
102
RTVSPropertyOp38
 70
     1
102
RTVSPropertyOp39
 70
     1
102
RTVSPropertyOp40
 70
     1
102
RTVSPropertyOp41
 70
     1
102
RTVSPropertyOp42
 70
     1
102
RTVSPropertyOp43
 70
     1
102
RTVSPropertyOp44
 70
     1
102
RTVSPropertyOp45
 70
     1
102
RTVSPropertyOp46
 70
     1
102
RTVSPropertyOp47
 70
     1
102
RTVSPropertyOp48
 70
     1
102
RTVSPropertyOp49
 70
     1
102
RTVSPropertyOp50
 70
     1
102
RTVSPropertyOp51
 70
     0
102
RTVSPropertyOp52
 70
     0
102
RTVSPropertyOp53
 70
     1
102
RTVSPropertyOp54
 70
     1
102
RTVSPropertyOp55
 70
     1
102
RTVSPropertyOp56
 70
     1
102
RTVSPropertyOp57
 70
     1
102
RTVSPropertyOp58
 70
     1
102
RTVSPropertyOp59
 70
     1
102
RTVSPropertyOp60
 70
     1
102
RTVSPropertyOp61
 70
     1
102
RTVSPropertyOp62
 70
     1
  0
XRECORD
  5
2F44
102
{ACAD_REACTORS
330
2F43
102
}
330
2F43
100
AcDbXrecord
280
     1
102
RTVSPost2010Prop28
280
     0
102
RTVSPost2010PropOp28
 70
     1
102
RTVSPost2010Prop29
280
     1
102
RTVSPost2010PropOp29
 70
     1
102
RTVSPost2010Prop30
280
     1
102
RTVSPost2010PropOp30
 70
     1
102
RTVSPost2010Prop31
280
     0
102
RTVSPost2010PropOp31
 70
     1
102
RTVSPost2010Prop32
280
     0
102
RTVSPost2010PropOp32
 70
     1
102
RTVSPost2010Prop33
280
     0
102
RTVSPost2010PropOp33
 70
     1
102
RTVSPost2010Prop34
280
     0
102
RTVSPost2010PropOp34
 70
     1
102
RTVSPost2010Prop35
280
     0
102
RTVSPost2010PropOp35
 70
     1
102
RTVSPost2010Prop36
280
     0
102
RTVSPost2010PropOp36
 70
     1
102
RTVSPost2010Prop37
 90
       50
102
RTVSPost2010PropOp37
 70
     0
102
RTVSPost2010Prop38
140
0.0
102
RTVSPost2010PropOp38
 70
     0
102
RTVSPost2010Prop39
140
1.0
102
RTVSPost2010PropOp39
 70
     0
102
RTVSPost2010Prop40
 90
        0
102
RTVSPost2010PropOp40
 70
     0
102
RTVSPost2010Prop41ColorIndex
 90
       18
102
RTVSPost2010Prop41ColorRGB
 90
        0
102
RTVSPost2010PropOp41
 70
     0
102
RTVSPost2010Prop42
 90
       50
102
RTVSPost2010PropOp42
 70
     0
102
RTVSPost2010Prop43
 90
        3
102
RTVSPost2010PropOp43
 70
     0
102
RTVSPost2010Prop44ColorIndex
 90
        5
102
RTVSPost2010Prop44ColorRGB
 90
      255
102
RTVSPost2010PropOp44
 70
     0
102
RTVSPost2010Prop45
280
     0
102
RTVSPost2010PropOp45
 70
     1
102
RTVSPost2010Prop46
 90
       50
102
RTVSPost2010PropOp46
 70
     0
102
RTVSPost2010Prop47
 90
       50
102
RTVSPost2010PropOp47
 70
     0
102
RTVSPost2010Prop48
 90
       50
102
RTVSPost2010PropOp48
 70
     0
102
RTVSPost2010Prop49
280
     0
102
RTVSPost2010PropOp49
 70
     1
102
RTVSPost2010Prop50
 90
       50
102
RTVSPost2010PropOp50
 70
     0
102
RTVSPost2010Prop51ColorIndex
 90
      256
102
RTVSPost2010Prop51ColorRGB
 90
-16777216
102
RTVSPost2010PropOp51
 70
     0
102
RTVSPost2010Prop52
140
1.0
102
RTVSPost2010PropOp52
 70
     0
102
RTVSPost2010Prop53
 90
        2
102
RTVSPost2010PropOp53
 70
     0
102
RTVSPost2010Prop54
  1
strokes_ogs.tif
102
RTVSPost2010PropOp54
 70
     0
102
RTVSPost2010Prop55
280
     0
102
RTVSPost2010PropOp55
 70
     1
102
RTVSPost2010Prop56
140
1.0
102
RTVSPost2010PropOp56
 70
     0
102
RTVSPost2010Prop57
140
1.0
102
RTVSPost2010PropOp57
 70
     0
102
RTVSPropertyOp0
 70
     0
102
RTVSPropertyOp1
 70
     0
102
RTVSPropertyOp2
 70
     0
102
RTVSPropertyOp3
 70
     0
102
RTVSPropertyOp4
 70
     0
102
RTVSPropertyOp5
 70
     0
102
RTVSPropertyOp6
 70
     0
102
RTVSPropertyOp7
 70
     0
102
RTVSPropertyOp8
 70
     0
102
RTVSPropertyOp9
 70
     0
102
RTVSPropertyOp10
 70
     0
102
RTVSPropertyOp11
 70
     0
102
RTVSPropertyOp12
 70
     0
102
RTVSPropertyOp13
 70
     0
102
RTVSPropertyOp14
 70
     2
102
RTVSPropertyOp15
 70
     0
102
RTVSPropertyOp16
 70
     0
102
RTVSPropertyOp17
 70
     0
102
RTVSPropertyOp18
 70
     0
102
RTVSPropertyOp19
 70
     0
102
RTVSPropertyOp20
 70
     0
102
RTVSPropertyOp21
 70
     0
102
RTVSPropertyOp22
 70
     0
102
RTVSPropertyOp23
 70
     0
102
RTVSPropertyOp24
 70
     0
102
RTVSPropertyOp25
 70
     0
102
RTVSPropertyOp26
 70
     0
102
RTVSPropertyOp27
 70
     0
102
RTVSPropertyOp28
 70
     1
102
RTVSPropertyOp29
 70
     1
102
RTVSPropertyOp30
 70
     1
102
RTVSPropertyOp31
 70
     1
102
RTVSPropertyOp32
 70
     1
102
RTVSPropertyOp33
 70
     1
102
RTVSPropertyOp34
 70
     1
102
RTVSPropertyOp35
 70
     1
102
RTVSPropertyOp36
 70
     1
102
RTVSPropertyOp37
 70
     0
102
RTVSPropertyOp38
 70
     0
102
RTVSPropertyOp39
 70
     0
102
RTVSPropertyOp40
 70
     0
102
RTVSPropertyOp41
 70
     0
102
RTVSPropertyOp42
 70
     0
102
RTVSPropertyOp43
 70
     0
102
RTVSPropertyOp44
 70
     0
102
RTVSPropertyOp45
 70
     1
102
RTVSPropertyOp46
 70
     0
102
RTVSPropertyOp47
 70
     0
102
RTVSPropertyOp48
 70
     0
102
RTVSPropertyOp49
 70
     1
102
RTVSPropertyOp50
 70
     0
102
RTVSPropertyOp51
 70
     0
102
RTVSPropertyOp52
 70
     0
102
RTVSPropertyOp53
 70
     0
102
RTVSPropertyOp54
 70
     0
102
RTVSPropertyOp55
 70
     1
102
RTVSPropertyOp56
 70
     0
102
RTVSPropertyOp57
 70
     0
102
RTVSPropertyOp58
 70
     0
102
RTVSPropertyOp59
 70
     0
102
RTVSPropertyOp60
 70
     0
102
RTVSPropertyOp61
 70
     0
102
RTVSPropertyOp62
 70
     0
  0
XRECORD
  5
2F34
102
{ACAD_REACTORS
330
2F33
102
}
330
2F33
100
AcDbXrecord
280
     1
102
RTVSPost2010Prop28
280
     0
102
RTVSPost2010PropOp28
 70
     1
102
RTVSPost2010Prop29
280
     1
102
RTVSPost2010PropOp29
 70
     1
102
RTVSPost2010Prop30
280
     1
102
RTVSPost2010PropOp30
 70
     1
102
RTVSPost2010Prop31
280
     0
102
RTVSPost2010PropOp31
 70
     1
102
RTVSPost2010Prop32
280
     0
102
RTVSPost2010PropOp32
 70
     1
102
RTVSPost2010Prop33
280
     0
102
RTVSPost2010PropOp33
 70
     1
102
RTVSPost2010Prop34
280
     0
102
RTVSPost2010PropOp34
 70
     1
102
RTVSPost2010Prop35
280
     0
102
RTVSPost2010PropOp35
 70
     1
102
RTVSPost2010Prop36
280
     0
102
RTVSPost2010PropOp36
 70
     1
102
RTVSPost2010Prop37
 90
       50
102
RTVSPost2010PropOp37
 70
     1
102
RTVSPost2010Prop38
140
0.0
102
RTVSPost2010PropOp38
 70
     1
102
RTVSPost2010Prop39
140
1.0
102
RTVSPost2010PropOp39
 70
     1
102
RTVSPost2010Prop40
 90
        0
102
RTVSPost2010PropOp40
 70
     1
102
RTVSPost2010Prop41ColorIndex
 90
       18
102
RTVSPost2010Prop41ColorRGB
 90
        0
102
RTVSPost2010PropOp41
 70
     1
102
RTVSPost2010Prop42
 90
       50
102
RTVSPost2010PropOp42
 70
     1
102
RTVSPost2010Prop43
 90
        3
102
RTVSPost2010PropOp43
 70
     1
102
RTVSPost2010Prop44ColorIndex
 90
        5
102
RTVSPost2010Prop44ColorRGB
 90
      255
102
RTVSPost2010PropOp44
 70
     1
102
RTVSPost2010Prop45
280
     0
102
RTVSPost2010PropOp45
 70
     1
102
RTVSPost2010Prop46
 90
       50
102
RTVSPost2010PropOp46
 70
     1
102
RTVSPost2010Prop47
 90
       50
102
RTVSPost2010PropOp47
 70
     1
102
RTVSPost2010Prop48
 90
       50
102
RTVSPost2010PropOp48
 70
     1
102
RTVSPost2010Prop49
280
     0
102
RTVSPost2010PropOp49
 70
     1
102
RTVSPost2010Prop50
 90
       50
102
RTVSPost2010PropOp50
 70
     1
102
RTVSPost2010Prop51ColorIndex
 90
      256
102
RTVSPost2010Prop51ColorRGB
 90
-16777216
102
RTVSPost2010PropOp51
 70
     0
102
RTVSPost2010Prop52
140
1.0
102
RTVSPost2010PropOp52
 70
     0
102
RTVSPost2010Prop53
 90
        2
102
RTVSPost2010PropOp53
 70
     1
102
RTVSPost2010Prop54
  1
strokes_ogs.tif
102
RTVSPost2010PropOp54
 70
     1
102
RTVSPost2010Prop55
280
     0
102
RTVSPost2010PropOp55
 70
     1
102
RTVSPost2010Prop56
140
1.0
102
RTVSPost2010PropOp56
 70
     1
102
RTVSPost2010Prop57
140
1.0
102
RTVSPost2010PropOp57
 70
     1
102
RTVSPropertyOp0
 70
     1
102
RTVSPropertyOp1
 70
     1
102
RTVSPropertyOp2
 70
     1
102
RTVSPropertyOp3
 70
     1
102
RTVSPropertyOp4
 70
     1
102
RTVSPropertyOp5
 70
     1
102
RTVSPropertyOp6
 70
     1
102
RTVSPropertyOp7
 70
     1
102
RTVSPropertyOp8
 70
     1
102
RTVSPropertyOp9
 70
     1
102
RTVSPropertyOp10
 70
     1
102
RTVSPropertyOp11
 70
     1
102
RTVSPropertyOp12
 70
     1
102
RTVSPropertyOp13
 70
     1
102
RTVSPropertyOp14
 70
     1
102
RTVSPropertyOp15
 70
     1
102
RTVSPropertyOp16
 70
     1
102
RTVSPropertyOp17
 70
     1
102
RTVSPropertyOp18
 70
     1
102
RTVSPropertyOp19
 70
     1
102
RTVSPropertyOp20
 70
     1
102
RTVSPropertyOp21
 70
     1
102
RTVSPropertyOp22
 70
     1
102
RTVSPropertyOp23
 70
     1
102
RTVSPropertyOp24
 70
     1
102
RTVSPropertyOp25
 70
     1
102
RTVSPropertyOp26
 70
     1
102
RTVSPropertyOp27
 70
     1
102
RTVSPropertyOp28
 70
     1
102
RTVSPropertyOp29
 70
     1
102
RTVSPropertyOp30
 70
     1
102
RTVSPropertyOp31
 70
     1
102
RTVSPropertyOp32
 70
     1
102
RTVSPropertyOp33
 70
     1
102
RTVSPropertyOp34
 70
     1
102
RTVSPropertyOp35
 70
     1
102
RTVSPropertyOp36
 70
     1
102
RTVSPropertyOp37
 70
     1
102
RTVSPropertyOp38
 70
     1
102
RTVSPropertyOp39
 70
     1
102
RTVSPropertyOp40
 70
     1
102
RTVSPropertyOp41
 70
     1
102
RTVSPropertyOp42
 70
     1
102
RTVSPropertyOp43
 70
     1
102
RTVSPropertyOp44
 70
     1
102
RTVSPropertyOp45
 70
     1
102
RTVSPropertyOp46
 70
     1
102
RTVSPropertyOp47
 70
     1
102
RTVSPropertyOp48
 70
     1
102
RTVSPropertyOp49
 70
     1
102
RTVSPropertyOp50
 70
     1
102
RTVSPropertyOp51
 70
     0
102
RTVSPropertyOp52
 70
     0
102
RTVSPropertyOp53
 70
     1
102
RTVSPropertyOp54
 70
     1
102
RTVSPropertyOp55
 70
     1
102
RTVSPropertyOp56
 70
     1
102
RTVSPropertyOp57
 70
     1
102
RTVSPropertyOp58
 70
     1
102
RTVSPropertyOp59
 70
     1
102
RTVSPropertyOp60
 70
     1
102
RTVSPropertyOp61
 70
     1
102
RTVSPropertyOp62
 70
     1
  0
XRECORD
  5
2F46
102
{ACAD_REACTORS
330
2F45
102
}
330
2F45
100
AcDbXrecord
280
     1
102
RTVSPost2010Prop28
280
     0
102
RTVSPost2010PropOp28
 70
     1
102
RTVSPost2010Prop29
280
     1
102
RTVSPost2010PropOp29
 70
     1
102
RTVSPost2010Prop30
280
     1
102
RTVSPost2010PropOp30
 70
     1
102
RTVSPost2010Prop31
280
     0
102
RTVSPost2010PropOp31
 70
     1
102
RTVSPost2010Prop32
280
     0
102
RTVSPost2010PropOp32
 70
     1
102
RTVSPost2010Prop33
280
     0
102
RTVSPost2010PropOp33
 70
     1
102
RTVSPost2010Prop34
280
     0
102
RTVSPost2010PropOp34
 70
     1
102
RTVSPost2010Prop35
280
     0
102
RTVSPost2010PropOp35
 70
     1
102
RTVSPost2010Prop36
280
     0
102
RTVSPost2010PropOp36
 70
     1
102
RTVSPost2010Prop37
 90
       50
102
RTVSPost2010PropOp37
 70
     0
102
RTVSPost2010Prop38
140
0.0
102
RTVSPost2010PropOp38
 70
     0
102
RTVSPost2010Prop39
140
1.0
102
RTVSPost2010PropOp39
 70
     0
102
RTVSPost2010Prop40
 90
        0
102
RTVSPost2010PropOp40
 70
     0
102
RTVSPost2010Prop41ColorIndex
 90
       18
102
RTVSPost2010Prop41ColorRGB
 90
        0
102
RTVSPost2010PropOp41
 70
     0
102
RTVSPost2010Prop42
 90
       50
102
RTVSPost2010PropOp42
 70
     0
102
RTVSPost2010Prop43
 90
        3
102
RTVSPost2010PropOp43
 70
     0
102
RTVSPost2010Prop44ColorIndex
 90
        5
102
RTVSPost2010Prop44ColorRGB
 90
      255
102
RTVSPost2010PropOp44
 70
     0
102
RTVSPost2010Prop45
280
     0
102
RTVSPost2010PropOp45
 70
     1
102
RTVSPost2010Prop46
 90
       50
102
RTVSPost2010PropOp46
 70
     0
102
RTVSPost2010Prop47
 90
       50
102
RTVSPost2010PropOp47
 70
     0
102
RTVSPost2010Prop48
 90
       50
102
RTVSPost2010PropOp48
 70
     0
102
RTVSPost2010Prop49
280
     0
102
RTVSPost2010PropOp49
 70
     1
102
RTVSPost2010Prop50
 90
       50
102
RTVSPost2010PropOp50
 70
     0
102
RTVSPost2010Prop51ColorIndex
 90
      256
102
RTVSPost2010Prop51ColorRGB
 90
-16777216
102
RTVSPost2010PropOp51
 70
     0
102
RTVSPost2010Prop52
140
1.0
102
RTVSPost2010PropOp52
 70
     0
102
RTVSPost2010Prop53
 90
        2
102
RTVSPost2010PropOp53
 70
     0
102
RTVSPost2010Prop54
  1
strokes_ogs.tif
102
RTVSPost2010PropOp54
 70
     0
102
RTVSPost2010Prop55
280
     0
102
RTVSPost2010PropOp55
 70
     1
102
RTVSPost2010Prop56
140
1.0
102
RTVSPost2010PropOp56
 70
     0
102
RTVSPost2010Prop57
140
1.0
102
RTVSPost2010PropOp57
 70
     0
102
RTVSPropertyOp0
 70
     0
102
RTVSPropertyOp1
 70
     0
102
RTVSPropertyOp2
 70
     0
102
RTVSPropertyOp3
 70
     0
102
RTVSPropertyOp4
 70
     0
102
RTVSPropertyOp5
 70
     0
102
RTVSPropertyOp6
 70
     0
102
RTVSPropertyOp7
 70
     0
102
RTVSPropertyOp8
 70
     0
102
RTVSPropertyOp9
 70
     0
102
RTVSPropertyOp10
 70
     0
102
RTVSPropertyOp11
 70
     0
102
RTVSPropertyOp12
 70
     0
102
RTVSPropertyOp13
 70
     0
102
RTVSPropertyOp14
 70
     2
102
RTVSPropertyOp15
 70
     0
102
RTVSPropertyOp16
 70
     0
102
RTVSPropertyOp17
 70
     0
102
RTVSPropertyOp18
 70
     0
102
RTVSPropertyOp19
 70
     0
102
RTVSPropertyOp20
 70
     0
102
RTVSPropertyOp21
 70
     0
102
RTVSPropertyOp22
 70
     0
102
RTVSPropertyOp23
 70
     0
102
RTVSPropertyOp24
 70
     0
102
RTVSPropertyOp25
 70
     0
102
RTVSPropertyOp26
 70
     0
102
RTVSPropertyOp27
 70
     0
102
RTVSPropertyOp28
 70
     1
102
RTVSPropertyOp29
 70
     1
102
RTVSPropertyOp30
 70
     1
102
RTVSPropertyOp31
 70
     1
102
RTVSPropertyOp32
 70
     1
102
RTVSPropertyOp33
 70
     1
102
RTVSPropertyOp34
 70
     1
102
RTVSPropertyOp35
 70
     1
102
RTVSPropertyOp36
 70
     1
102
RTVSPropertyOp37
 70
     0
102
RTVSPropertyOp38
 70
     0
102
RTVSPropertyOp39
 70
     0
102
RTVSPropertyOp40
 70
     0
102
RTVSPropertyOp41
 70
     0
102
RTVSPropertyOp42
 70
     0
102
RTVSPropertyOp43
 70
     0
102
RTVSPropertyOp44
 70
     0
102
RTVSPropertyOp45
 70
     1
102
RTVSPropertyOp46
 70
     0
102
RTVSPropertyOp47
 70
     0
102
RTVSPropertyOp48
 70
     0
102
RTVSPropertyOp49
 70
     1
102
RTVSPropertyOp50
 70
     0
102
RTVSPropertyOp51
 70
     0
102
RTVSPropertyOp52
 70
     0
102
RTVSPropertyOp53
 70
     0
102
RTVSPropertyOp54
 70
     0
102
RTVSPropertyOp55
 70
     1
102
RTVSPropertyOp56
 70
     0
102
RTVSPropertyOp57
 70
     0
102
RTVSPropertyOp58
 70
     0
102
RTVSPropertyOp59
 70
     0
102
RTVSPropertyOp60
 70
     0
102
RTVSPropertyOp61
 70
     0
102
RTVSPropertyOp62
 70
     0
  0
XRECORD
  5
2F2C
102
{ACAD_REACTORS
330
2F2B
102
}
330
2F2B
100
AcDbXrecord
280
     1
102
RTVSPost2010Prop28
280
     0
102
RTVSPost2010PropOp28
 70
     1
102
RTVSPost2010Prop29
280
     1
102
RTVSPost2010PropOp29
 70
     1
102
RTVSPost2010Prop30
280
     1
102
RTVSPost2010PropOp30
 70
     1
102
RTVSPost2010Prop31
280
     0
102
RTVSPost2010PropOp31
 70
     1
102
RTVSPost2010Prop32
280
     0
102
RTVSPost2010PropOp32
 70
     1
102
RTVSPost2010Prop33
280
     0
102
RTVSPost2010PropOp33
 70
     1
102
RTVSPost2010Prop34
280
     0
102
RTVSPost2010PropOp34
 70
     1
102
RTVSPost2010Prop35
280
     0
102
RTVSPost2010PropOp35
 70
     1
102
RTVSPost2010Prop36
280
     0
102
RTVSPost2010PropOp36
 70
     1
102
RTVSPost2010Prop37
 90
       50
102
RTVSPost2010PropOp37
 70
     1
102
RTVSPost2010Prop38
140
0.0
102
RTVSPost2010PropOp38
 70
     1
102
RTVSPost2010Prop39
140
1.0
102
RTVSPost2010PropOp39
 70
     1
102
RTVSPost2010Prop40
 90
        0
102
RTVSPost2010PropOp40
 70
     1
102
RTVSPost2010Prop41ColorIndex
 90
       18
102
RTVSPost2010Prop41ColorRGB
 90
        0
102
RTVSPost2010PropOp41
 70
     1
102
RTVSPost2010Prop42
 90
       50
102
RTVSPost2010PropOp42
 70
     1
102
RTVSPost2010Prop43
 90
        3
102
RTVSPost2010PropOp43
 70
     1
102
RTVSPost2010Prop44ColorIndex
 90
        5
102
RTVSPost2010Prop44ColorRGB
 90
      255
102
RTVSPost2010PropOp44
 70
     1
102
RTVSPost2010Prop45
280
     0
102
RTVSPost2010PropOp45
 70
     1
102
RTVSPost2010Prop46
 90
       50
102
RTVSPost2010PropOp46
 70
     1
102
RTVSPost2010Prop47
 90
       50
102
RTVSPost2010PropOp47
 70
     1
102
RTVSPost2010Prop48
 90
       50
102
RTVSPost2010PropOp48
 70
     1
102
RTVSPost2010Prop49
280
     0
102
RTVSPost2010PropOp49
 70
     1
102
RTVSPost2010Prop50
 90
       50
102
RTVSPost2010PropOp50
 70
     1
102
RTVSPost2010Prop51ColorIndex
 90
      256
102
RTVSPost2010Prop51ColorRGB
 90
-16777216
102
RTVSPost2010PropOp51
 70
     0
102
RTVSPost2010Prop52
140
1.0
102
RTVSPost2010PropOp52
 70
     0
102
RTVSPost2010Prop53
 90
        2
102
RTVSPost2010PropOp53
 70
     1
102
RTVSPost2010Prop54
  1
strokes_ogs.tif
102
RTVSPost2010PropOp54
 70
     1
102
RTVSPost2010Prop55
280
     0
102
RTVSPost2010PropOp55
 70
     1
102
RTVSPost2010Prop56
140
1.0
102
RTVSPost2010PropOp56
 70
     1
102
RTVSPost2010Prop57
140
1.0
102
RTVSPost2010PropOp57
 70
     1
102
RTVSPropertyOp0
 70
     1
102
RTVSPropertyOp1
 70
     1
102
RTVSPropertyOp2
 70
     1
102
RTVSPropertyOp3
 70
     1
102
RTVSPropertyOp4
 70
     1
102
RTVSPropertyOp5
 70
     1
102
RTVSPropertyOp6
 70
     1
102
RTVSPropertyOp7
 70
     1
102
RTVSPropertyOp8
 70
     1
102
RTVSPropertyOp9
 70
     1
102
RTVSPropertyOp10
 70
     1
102
RTVSPropertyOp11
 70
     1
102
RTVSPropertyOp12
 70
     1
102
RTVSPropertyOp13
 70
     1
102
RTVSPropertyOp14
 70
     1
102
RTVSPropertyOp15
 70
     1
102
RTVSPropertyOp16
 70
     1
102
RTVSPropertyOp17
 70
     1
102
RTVSPropertyOp18
 70
     1
102
RTVSPropertyOp19
 70
     1
102
RTVSPropertyOp20
 70
     1
102
RTVSPropertyOp21
 70
     1
102
RTVSPropertyOp22
 70
     1
102
RTVSPropertyOp23
 70
     1
102
RTVSPropertyOp24
 70
     1
102
RTVSPropertyOp25
 70
     1
102
RTVSPropertyOp26
 70
     1
102
RTVSPropertyOp27
 70
     1
102
RTVSPropertyOp28
 70
     1
102
RTVSPropertyOp29
 70
     1
102
RTVSPropertyOp30
 70
     1
102
RTVSPropertyOp31
 70
     1
102
RTVSPropertyOp32
 70
     1
102
RTVSPropertyOp33
 70
     1
102
RTVSPropertyOp34
 70
     1
102
RTVSPropertyOp35
 70
     1
102
RTVSPropertyOp36
 70
     1
102
RTVSPropertyOp37
 70
     1
102
RTVSPropertyOp38
 70
     1
102
RTVSPropertyOp39
 70
     1
102
RTVSPropertyOp40
 70
     1
102
RTVSPropertyOp41
 70
     1
102
RTVSPropertyOp42
 70
     1
102
RTVSPropertyOp43
 70
     1
102
RTVSPropertyOp44
 70
     1
102
RTVSPropertyOp45
 70
     1
102
RTVSPropertyOp46
 70
     1
102
RTVSPropertyOp47
 70
     1
102
RTVSPropertyOp48
 70
     1
102
RTVSPropertyOp49
 70
     1
102
RTVSPropertyOp50
 70
     1
102
RTVSPropertyOp51
 70
     0
102
RTVSPropertyOp52
 70
     0
102
RTVSPropertyOp53
 70
     1
102
RTVSPropertyOp54
 70
     1
102
RTVSPropertyOp55
 70
     1
102
RTVSPropertyOp56
 70
     1
102
RTVSPropertyOp57
 70
     1
102
RTVSPropertyOp58
 70
     1
102
RTVSPropertyOp59
 70
     1
102
RTVSPropertyOp60
 70
     1
102
RTVSPropertyOp61
 70
     1
102
RTVSPropertyOp62
 70
     1
  0
XRECORD
  5
2F42
102
{ACAD_REACTORS
330
2F41
102
}
330
2F41
100
AcDbXrecord
280
     1
102
RTVSPost2010Prop28
280
     0
102
RTVSPost2010PropOp28
 70
     1
102
RTVSPost2010Prop29
280
     1
102
RTVSPost2010PropOp29
 70
     1
102
RTVSPost2010Prop30
280
     1
102
RTVSPost2010PropOp30
 70
     1
102
RTVSPost2010Prop31
280
     0
102
RTVSPost2010PropOp31
 70
     1
102
RTVSPost2010Prop32
280
     0
102
RTVSPost2010PropOp32
 70
     1
102
RTVSPost2010Prop33
280
     0
102
RTVSPost2010PropOp33
 70
     1
102
RTVSPost2010Prop34
280
     0
102
RTVSPost2010PropOp34
 70
     1
102
RTVSPost2010Prop35
280
     0
102
RTVSPost2010PropOp35
 70
     1
102
RTVSPost2010Prop36
280
     0
102
RTVSPost2010PropOp36
 70
     1
102
RTVSPost2010Prop37
 90
       50
102
RTVSPost2010PropOp37
 70
     1
102
RTVSPost2010Prop38
140
0.0
102
RTVSPost2010PropOp38
 70
     1
102
RTVSPost2010Prop39
140
1.0
102
RTVSPost2010PropOp39
 70
     1
102
RTVSPost2010Prop40
 90
        0
102
RTVSPost2010PropOp40
 70
     1
102
RTVSPost2010Prop41ColorIndex
 90
       18
102
RTVSPost2010Prop41ColorRGB
 90
        0
102
RTVSPost2010PropOp41
 70
     1
102
RTVSPost2010Prop42
 90
       50
102
RTVSPost2010PropOp42
 70
     1
102
RTVSPost2010Prop43
 90
        3
102
RTVSPost2010PropOp43
 70
     1
102
RTVSPost2010Prop44ColorIndex
 90
        5
102
RTVSPost2010Prop44ColorRGB
 90
      255
102
RTVSPost2010PropOp44
 70
     1
102
RTVSPost2010Prop45
280
     0
102
RTVSPost2010PropOp45
 70
     1
102
RTVSPost2010Prop46
 90
       50
102
RTVSPost2010PropOp46
 70
     1
102
RTVSPost2010Prop47
 90
       50
102
RTVSPost2010PropOp47
 70
     1
102
RTVSPost2010Prop48
 90
       50
102
RTVSPost2010PropOp48
 70
     1
102
RTVSPost2010Prop49
280
     0
102
RTVSPost2010PropOp49
 70
     1
102
RTVSPost2010Prop50
 90
       50
102
RTVSPost2010PropOp50
 70
     1
102
RTVSPost2010Prop51ColorIndex
 90
      256
102
RTVSPost2010Prop51ColorRGB
 90
-16777216
102
RTVSPost2010PropOp51
 70
     0
102
RTVSPost2010Prop52
140
1.0
102
RTVSPost2010PropOp52
 70
     0
102
RTVSPost2010Prop53
 90
        2
102
RTVSPost2010PropOp53
 70
     1
102
RTVSPost2010Prop54
  1
strokes_ogs.tif
102
RTVSPost2010PropOp54
 70
     1
102
RTVSPost2010Prop55
280
     0
102
RTVSPost2010PropOp55
 70
     1
102
RTVSPost2010Prop56
140
1.0
102
RTVSPost2010PropOp56
 70
     1
102
RTVSPost2010Prop57
140
1.0
102
RTVSPost2010PropOp57
 70
     1
102
RTVSPropertyOp0
 70
     1
102
RTVSPropertyOp1
 70
     1
102
RTVSPropertyOp2
 70
     1
102
RTVSPropertyOp3
 70
     1
102
RTVSPropertyOp4
 70
     1
102
RTVSPropertyOp5
 70
     1
102
RTVSPropertyOp6
 70
     1
102
RTVSPropertyOp7
 70
     1
102
RTVSPropertyOp8
 70
     1
102
RTVSPropertyOp9
 70
     1
102
RTVSPropertyOp10
 70
     1
102
RTVSPropertyOp11
 70
     1
102
RTVSPropertyOp12
 70
     1
102
RTVSPropertyOp13
 70
     1
102
RTVSPropertyOp14
 70
     1
102
RTVSPropertyOp15
 70
     1
102
RTVSPropertyOp16
 70
     1
102
RTVSPropertyOp17
 70
     1
102
RTVSPropertyOp18
 70
     1
102
RTVSPropertyOp19
 70
     1
102
RTVSPropertyOp20
 70
     1
102
RTVSPropertyOp21
 70
     1
102
RTVSPropertyOp22
 70
     1
102
RTVSPropertyOp23
 70
     1
102
RTVSPropertyOp24
 70
     1
102
RTVSPropertyOp25
 70
     1
102
RTVSPropertyOp26
 70
     1
102
RTVSPropertyOp27
 70
     1
102
RTVSPropertyOp28
 70
     1
102
RTVSPropertyOp29
 70
     1
102
RTVSPropertyOp30
 70
     1
102
RTVSPropertyOp31
 70
     1
102
RTVSPropertyOp32
 70
     1
102
RTVSPropertyOp33
 70
     1
102
RTVSPropertyOp34
 70
     1
102
RTVSPropertyOp35
 70
     1
102
RTVSPropertyOp36
 70
     1
102
RTVSPropertyOp37
 70
     1
102
RTVSPropertyOp38
 70
     1
102
RTVSPropertyOp39
 70
     1
102
RTVSPropertyOp40
 70
     1
102
RTVSPropertyOp41
 70
     1
102
RTVSPropertyOp42
 70
     1
102
RTVSPropertyOp43
 70
     1
102
RTVSPropertyOp44
 70
     1
102
RTVSPropertyOp45
 70
     1
102
RTVSPropertyOp46
 70
     1
102
RTVSPropertyOp47
 70
     1
102
RTVSPropertyOp48
 70
     1
102
RTVSPropertyOp49
 70
     1
102
RTVSPropertyOp50
 70
     1
102
RTVSPropertyOp51
 70
     0
102
RTVSPropertyOp52
 70
     0
102
RTVSPropertyOp53
 70
     1
102
RTVSPropertyOp54
 70
     1
102
RTVSPropertyOp55
 70
     1
102
RTVSPropertyOp56
 70
     1
102
RTVSPropertyOp57
 70
     1
102
RTVSPropertyOp58
 70
     1
102
RTVSPropertyOp59
 70
     1
102
RTVSPropertyOp60
 70
     1
102
RTVSPropertyOp61
 70
     1
102
RTVSPropertyOp62
 70
     1
  0
XRECORD
  5
2F40
102
{ACAD_REACTORS
330
2F3F
102
}
330
2F3F
100
AcDbXrecord
280
     1
102
RTVSPost2010Prop28
280
     0
102
RTVSPost2010PropOp28
 70
     1
102
RTVSPost2010Prop29
280
     1
102
RTVSPost2010PropOp29
 70
     1
102
RTVSPost2010Prop30
280
     1
102
RTVSPost2010PropOp30
 70
     1
102
RTVSPost2010Prop31
280
     0
102
RTVSPost2010PropOp31
 70
     1
102
RTVSPost2010Prop32
280
     0
102
RTVSPost2010PropOp32
 70
     1
102
RTVSPost2010Prop33
280
     0
102
RTVSPost2010PropOp33
 70
     1
102
RTVSPost2010Prop34
280
     0
102
RTVSPost2010PropOp34
 70
     1
102
RTVSPost2010Prop35
280
     0
102
RTVSPost2010PropOp35
 70
     1
102
RTVSPost2010Prop36
280
     0
102
RTVSPost2010PropOp36
 70
     1
102
RTVSPost2010Prop37
 90
       50
102
RTVSPost2010PropOp37
 70
     1
102
RTVSPost2010Prop38
140
0.0
102
RTVSPost2010PropOp38
 70
     1
102
RTVSPost2010Prop39
140
1.0
102
RTVSPost2010PropOp39
 70
     1
102
RTVSPost2010Prop40
 90
        0
102
RTVSPost2010PropOp40
 70
     1
102
RTVSPost2010Prop41ColorIndex
 90
       18
102
RTVSPost2010Prop41ColorRGB
 90
        0
102
RTVSPost2010PropOp41
 70
     1
102
RTVSPost2010Prop42
 90
       50
102
RTVSPost2010PropOp42
 70
     1
102
RTVSPost2010Prop43
 90
        3
102
RTVSPost2010PropOp43
 70
     1
102
RTVSPost2010Prop44ColorIndex
 90
        5
102
RTVSPost2010Prop44ColorRGB
 90
      255
102
RTVSPost2010PropOp44
 70
     1
102
RTVSPost2010Prop45
280
     0
102
RTVSPost2010PropOp45
 70
     1
102
RTVSPost2010Prop46
 90
       50
102
RTVSPost2010PropOp46
 70
     1
102
RTVSPost2010Prop47
 90
       50
102
RTVSPost2010PropOp47
 70
     1
102
RTVSPost2010Prop48
 90
       50
102
RTVSPost2010PropOp48
 70
     1
102
RTVSPost2010Prop49
280
     0
102
RTVSPost2010PropOp49
 70
     1
102
RTVSPost2010Prop50
 90
       50
102
RTVSPost2010PropOp50
 70
     1
102
RTVSPost2010Prop51ColorIndex
 90
      256
102
RTVSPost2010Prop51ColorRGB
 90
-16777216
102
RTVSPost2010PropOp51
 70
     0
102
RTVSPost2010Prop52
140
1.0
102
RTVSPost2010PropOp52
 70
     0
102
RTVSPost2010Prop53
 90
        2
102
RTVSPost2010PropOp53
 70
     1
102
RTVSPost2010Prop54
  1
strokes_ogs.tif
102
RTVSPost2010PropOp54
 70
     1
102
RTVSPost2010Prop55
280
     0
102
RTVSPost2010PropOp55
 70
     1
102
RTVSPost2010Prop56
140
1.0
102
RTVSPost2010PropOp56
 70
     1
102
RTVSPost2010Prop57
140
1.0
102
RTVSPost2010PropOp57
 70
     1
102
RTVSPropertyOp0
 70
     1
102
RTVSPropertyOp1
 70
     1
102
RTVSPropertyOp2
 70
     1
102
RTVSPropertyOp3
 70
     1
102
RTVSPropertyOp4
 70
     1
102
RTVSPropertyOp5
 70
     1
102
RTVSPropertyOp6
 70
     1
102
RTVSPropertyOp7
 70
     1
102
RTVSPropertyOp8
 70
     1
102
RTVSPropertyOp9
 70
     1
102
RTVSPropertyOp10
 70
     1
102
RTVSPropertyOp11
 70
     1
102
RTVSPropertyOp12
 70
     1
102
RTVSPropertyOp13
 70
     1
102
RTVSPropertyOp14
 70
     1
102
RTVSPropertyOp15
 70
     1
102
RTVSPropertyOp16
 70
     1
102
RTVSPropertyOp17
 70
     1
102
RTVSPropertyOp18
 70
     1
102
RTVSPropertyOp19
 70
     1
102
RTVSPropertyOp20
 70
     1
102
RTVSPropertyOp21
 70
     1
102
RTVSPropertyOp22
 70
     1
102
RTVSPropertyOp23
 70
     1
102
RTVSPropertyOp24
 70
     1
102
RTVSPropertyOp25
 70
     1
102
RTVSPropertyOp26
 70
     1
102
RTVSPropertyOp27
 70
     1
102
RTVSPropertyOp28
 70
     1
102
RTVSPropertyOp29
 70
     1
102
RTVSPropertyOp30
 70
     1
102
RTVSPropertyOp31
 70
     1
102
RTVSPropertyOp32
 70
     1
102
RTVSPropertyOp33
 70
     1
102
RTVSPropertyOp34
 70
     1
102
RTVSPropertyOp35
 70
     1
102
RTVSPropertyOp36
 70
     1
102
RTVSPropertyOp37
 70
     1
102
RTVSPropertyOp38
 70
     1
102
RTVSPropertyOp39
 70
     1
102
RTVSPropertyOp40
 70
     1
102
RTVSPropertyOp41
 70
     1
102
RTVSPropertyOp42
 70
     1
102
RTVSPropertyOp43
 70
     1
102
RTVSPropertyOp44
 70
     1
102
RTVSPropertyOp45
 70
     1
102
RTVSPropertyOp46
 70
     1
102
RTVSPropertyOp47
 70
     1
102
RTVSPropertyOp48
 70
     1
102
RTVSPropertyOp49
 70
     1
102
RTVSPropertyOp50
 70
     1
102
RTVSPropertyOp51
 70
     0
102
RTVSPropertyOp52
 70
     0
102
RTVSPropertyOp53
 70
     1
102
RTVSPropertyOp54
 70
     1
102
RTVSPropertyOp55
 70
     1
102
RTVSPropertyOp56
 70
     1
102
RTVSPropertyOp57
 70
     1
102
RTVSPropertyOp58
 70
     1
102
RTVSPropertyOp59
 70
     1
102
RTVSPropertyOp60
 70
     1
102
RTVSPropertyOp61
 70
     1
102
RTVSPropertyOp62
 70
     1
  0
XRECORD
  5
2F3A
102
{ACAD_REACTORS
330
2F39
102
}
330
2F39
100
AcDbXrecord
280
     1
102
RTVSPost2010Prop28
280
     0
102
RTVSPost2010PropOp28
 70
     1
102
RTVSPost2010Prop29
280
     1
102
RTVSPost2010PropOp29
 70
     1
102
RTVSPost2010Prop30
280
     1
102
RTVSPost2010PropOp30
 70
     1
102
RTVSPost2010Prop31
280
     0
102
RTVSPost2010PropOp31
 70
     1
102
RTVSPost2010Prop32
280
     0
102
RTVSPost2010PropOp32
 70
     1
102
RTVSPost2010Prop33
280
     0
102
RTVSPost2010PropOp33
 70
     1
102
RTVSPost2010Prop34
280
     0
102
RTVSPost2010PropOp34
 70
     1
102
RTVSPost2010Prop35
280
     0
102
RTVSPost2010PropOp35
 70
     1
102
RTVSPost2010Prop36
280
     0
102
RTVSPost2010PropOp36
 70
     1
102
RTVSPost2010Prop37
 90
       50
102
RTVSPost2010PropOp37
 70
     1
102
RTVSPost2010Prop38
140
0.0
102
RTVSPost2010PropOp38
 70
     1
102
RTVSPost2010Prop39
140
1.0
102
RTVSPost2010PropOp39
 70
     1
102
RTVSPost2010Prop40
 90
        0
102
RTVSPost2010PropOp40
 70
     1
102
RTVSPost2010Prop41ColorIndex
 90
       18
102
RTVSPost2010Prop41ColorRGB
 90
        0
102
RTVSPost2010PropOp41
 70
     1
102
RTVSPost2010Prop42
 90
       50
102
RTVSPost2010PropOp42
 70
     1
102
RTVSPost2010Prop43
 90
        3
102
RTVSPost2010PropOp43
 70
     1
102
RTVSPost2010Prop44ColorIndex
 90
        5
102
RTVSPost2010Prop44ColorRGB
 90
      255
102
RTVSPost2010PropOp44
 70
     1
102
RTVSPost2010Prop45
280
     0
102
RTVSPost2010PropOp45
 70
     1
102
RTVSPost2010Prop46
 90
       50
102
RTVSPost2010PropOp46
 70
     1
102
RTVSPost2010Prop47
 90
       50
102
RTVSPost2010PropOp47
 70
     1
102
RTVSPost2010Prop48
 90
       50
102
RTVSPost2010PropOp48
 70
     1
102
RTVSPost2010Prop49
280
     0
102
RTVSPost2010PropOp49
 70
     1
102
RTVSPost2010Prop50
 90
       50
102
RTVSPost2010PropOp50
 70
     1
102
RTVSPost2010Prop51ColorIndex
 90
      256
102
RTVSPost2010Prop51ColorRGB
 90
-16777216
102
RTVSPost2010PropOp51
 70
     0
102
RTVSPost2010Prop52
140
1.0
102
RTVSPost2010PropOp52
 70
     0
102
RTVSPost2010Prop53
 90
        2
102
RTVSPost2010PropOp53
 70
     1
102
RTVSPost2010Prop54
  1
strokes_ogs.tif
102
RTVSPost2010PropOp54
 70
     1
102
RTVSPost2010Prop55
280
     0
102
RTVSPost2010PropOp55
 70
     1
102
RTVSPost2010Prop56
140
1.0
102
RTVSPost2010PropOp56
 70
     1
102
RTVSPost2010Prop57
140
1.0
102
RTVSPost2010PropOp57
 70
     1
102
RTVSPropertyOp0
 70
     1
102
RTVSPropertyOp1
 70
     1
102
RTVSPropertyOp2
 70
     1
102
RTVSPropertyOp3
 70
     1
102
RTVSPropertyOp4
 70
     1
102
RTVSPropertyOp5
 70
     1
102
RTVSPropertyOp6
 70
     1
102
RTVSPropertyOp7
 70
     1
102
RTVSPropertyOp8
 70
     1
102
RTVSPropertyOp9
 70
     1
102
RTVSPropertyOp10
 70
     1
102
RTVSPropertyOp11
 70
     1
102
RTVSPropertyOp12
 70
     1
102
RTVSPropertyOp13
 70
     1
102
RTVSPropertyOp14
 70
     1
102
RTVSPropertyOp15
 70
     1
102
RTVSPropertyOp16
 70
     1
102
RTVSPropertyOp17
 70
     1
102
RTVSPropertyOp18
 70
     1
102
RTVSPropertyOp19
 70
     1
102
RTVSPropertyOp20
 70
     1
102
RTVSPropertyOp21
 70
     1
102
RTVSPropertyOp22
 70
     1
102
RTVSPropertyOp23
 70
     1
102
RTVSPropertyOp24
 70
     1
102
RTVSPropertyOp25
 70
     1
102
RTVSPropertyOp26
 70
     1
102
RTVSPropertyOp27
 70
     1
102
RTVSPropertyOp28
 70
     1
102
RTVSPropertyOp29
 70
     1
102
RTVSPropertyOp30
 70
     1
102
RTVSPropertyOp31
 70
     1
102
RTVSPropertyOp32
 70
     1
102
RTVSPropertyOp33
 70
     1
102
RTVSPropertyOp34
 70
     1
102
RTVSPropertyOp35
 70
     1
102
RTVSPropertyOp36
 70
     1
102
RTVSPropertyOp37
 70
     1
102
RTVSPropertyOp38
 70
     1
102
RTVSPropertyOp39
 70
     1
102
RTVSPropertyOp40
 70
     1
102
RTVSPropertyOp41
 70
     1
102
RTVSPropertyOp42
 70
     1
102
RTVSPropertyOp43
 70
     1
102
RTVSPropertyOp44
 70
     1
102
RTVSPropertyOp45
 70
     1
102
RTVSPropertyOp46
 70
     1
102
RTVSPropertyOp47
 70
     1
102
RTVSPropertyOp48
 70
     1
102
RTVSPropertyOp49
 70
     1
102
RTVSPropertyOp50
 70
     1
102
RTVSPropertyOp51
 70
     0
102
RTVSPropertyOp52
 70
     0
102
RTVSPropertyOp53
 70
     1
102
RTVSPropertyOp54
 70
     1
102
RTVSPropertyOp55
 70
     1
102
RTVSPropertyOp56
 70
     1
102
RTVSPropertyOp57
 70
     1
102
RTVSPropertyOp58
 70
     1
102
RTVSPropertyOp59
 70
     1
102
RTVSPropertyOp60
 70
     1
102
RTVSPropertyOp61
 70
     1
102
RTVSPropertyOp62
 70
     1
  0
XRECORD
  5
2F3C
102
{ACAD_REACTORS
330
2F3B
102
}
330
2F3B
100
AcDbXrecord
280
     1
102
RTVSPost2010Prop28
280
     0
102
RTVSPost2010PropOp28
 70
     1
102
RTVSPost2010Prop29
280
     1
102
RTVSPost2010PropOp29
 70
     1
102
RTVSPost2010Prop30
280
     1
102
RTVSPost2010PropOp30
 70
     1
102
RTVSPost2010Prop31
280
     0
102
RTVSPost2010PropOp31
 70
     1
102
RTVSPost2010Prop32
280
     0
102
RTVSPost2010PropOp32
 70
     1
102
RTVSPost2010Prop33
280
     0
102
RTVSPost2010PropOp33
 70
     1
102
RTVSPost2010Prop34
280
     0
102
RTVSPost2010PropOp34
 70
     1
102
RTVSPost2010Prop35
280
     0
102
RTVSPost2010PropOp35
 70
     1
102
RTVSPost2010Prop36
280
     0
102
RTVSPost2010PropOp36
 70
     1
102
RTVSPost2010Prop37
 90
       50
102
RTVSPost2010PropOp37
 70
     1
102
RTVSPost2010Prop38
140
0.0
102
RTVSPost2010PropOp38
 70
     1
102
RTVSPost2010Prop39
140
1.0
102
RTVSPost2010PropOp39
 70
     1
102
RTVSPost2010Prop40
 90
        0
102
RTVSPost2010PropOp40
 70
     1
102
RTVSPost2010Prop41ColorIndex
 90
       18
102
RTVSPost2010Prop41ColorRGB
 90
        0
102
RTVSPost2010PropOp41
 70
     1
102
RTVSPost2010Prop42
 90
       50
102
RTVSPost2010PropOp42
 70
     1
102
RTVSPost2010Prop43
 90
        3
102
RTVSPost2010PropOp43
 70
     1
102
RTVSPost2010Prop44ColorIndex
 90
        5
102
RTVSPost2010Prop44ColorRGB
 90
      255
102
RTVSPost2010PropOp44
 70
     1
102
RTVSPost2010Prop45
280
     0
102
RTVSPost2010PropOp45
 70
     1
102
RTVSPost2010Prop46
 90
       50
102
RTVSPost2010PropOp46
 70
     1
102
RTVSPost2010Prop47
 90
       50
102
RTVSPost2010PropOp47
 70
     1
102
RTVSPost2010Prop48
 90
       50
102
RTVSPost2010PropOp48
 70
     1
102
RTVSPost2010Prop49
280
     0
102
RTVSPost2010PropOp49
 70
     1
102
RTVSPost2010Prop50
 90
       50
102
RTVSPost2010PropOp50
 70
     1
102
RTVSPost2010Prop51ColorIndex
 90
      256
102
RTVSPost2010Prop51ColorRGB
 90
-16777216
102
RTVSPost2010PropOp51
 70
     0
102
RTVSPost2010Prop52
140
1.0
102
RTVSPost2010PropOp52
 70
     0
102
RTVSPost2010Prop53
 90
        2
102
RTVSPost2010PropOp53
 70
     1
102
RTVSPost2010Prop54
  1
strokes_ogs.tif
102
RTVSPost2010PropOp54
 70
     1
102
RTVSPost2010Prop55
280
     0
102
RTVSPost2010PropOp55
 70
     1
102
RTVSPost2010Prop56
140
1.0
102
RTVSPost2010PropOp56
 70
     1
102
RTVSPost2010Prop57
140
1.0
102
RTVSPost2010PropOp57
 70
     1
102
RTVSPropertyOp0
 70
     1
102
RTVSPropertyOp1
 70
     1
102
RTVSPropertyOp2
 70
     1
102
RTVSPropertyOp3
 70
     1
102
RTVSPropertyOp4
 70
     1
102
RTVSPropertyOp5
 70
     1
102
RTVSPropertyOp6
 70
     1
102
RTVSPropertyOp7
 70
     1
102
RTVSPropertyOp8
 70
     1
102
RTVSPropertyOp9
 70
     1
102
RTVSPropertyOp10
 70
     1
102
RTVSPropertyOp11
 70
     1
102
RTVSPropertyOp12
 70
     1
102
RTVSPropertyOp13
 70
     1
102
RTVSPropertyOp14
 70
     1
102
RTVSPropertyOp15
 70
     1
102
RTVSPropertyOp16
 70
     1
102
RTVSPropertyOp17
 70
     1
102
RTVSPropertyOp18
 70
     1
102
RTVSPropertyOp19
 70
     1
102
RTVSPropertyOp20
 70
     1
102
RTVSPropertyOp21
 70
     1
102
RTVSPropertyOp22
 70
     1
102
RTVSPropertyOp23
 70
     1
102
RTVSPropertyOp24
 70
     1
102
RTVSPropertyOp25
 70
     1
102
RTVSPropertyOp26
 70
     1
102
RTVSPropertyOp27
 70
     1
102
RTVSPropertyOp28
 70
     1
102
RTVSPropertyOp29
 70
     1
102
RTVSPropertyOp30
 70
     1
102
RTVSPropertyOp31
 70
     1
102
RTVSPropertyOp32
 70
     1
102
RTVSPropertyOp33
 70
     1
102
RTVSPropertyOp34
 70
     1
102
RTVSPropertyOp35
 70
     1
102
RTVSPropertyOp36
 70
     1
102
RTVSPropertyOp37
 70
     1
102
RTVSPropertyOp38
 70
     1
102
RTVSPropertyOp39
 70
     1
102
RTVSPropertyOp40
 70
     1
102
RTVSPropertyOp41
 70
     1
102
RTVSPropertyOp42
 70
     1
102
RTVSPropertyOp43
 70
     1
102
RTVSPropertyOp44
 70
     1
102
RTVSPropertyOp45
 70
     1
102
RTVSPropertyOp46
 70
     1
102
RTVSPropertyOp47
 70
     1
102
RTVSPropertyOp48
 70
     1
102
RTVSPropertyOp49
 70
     1
102
RTVSPropertyOp50
 70
     1
102
RTVSPropertyOp51
 70
     0
102
RTVSPropertyOp52
 70
     0
102
RTVSPropertyOp53
 70
     1
102
RTVSPropertyOp54
 70
     1
102
RTVSPropertyOp55
 70
     1
102
RTVSPropertyOp56
 70
     1
102
RTVSPropertyOp57
 70
     1
102
RTVSPropertyOp58
 70
     1
102
RTVSPropertyOp59
 70
     1
102
RTVSPropertyOp60
 70
     1
102
RTVSPropertyOp61
 70
     1
102
RTVSPropertyOp62
 70
     1
  0
XRECORD
  5
2F32
102
{ACAD_REACTORS
330
2F31
102
}
330
2F31
100
AcDbXrecord
280
     1
102
RTVSPost2010Prop28
280
     0
102
RTVSPost2010PropOp28
 70
     1
102
RTVSPost2010Prop29
280
     1
102
RTVSPost2010PropOp29
 70
     1
102
RTVSPost2010Prop30
280
     1
102
RTVSPost2010PropOp30
 70
     1
102
RTVSPost2010Prop31
280
     0
102
RTVSPost2010PropOp31
 70
     1
102
RTVSPost2010Prop32
280
     0
102
RTVSPost2010PropOp32
 70
     1
102
RTVSPost2010Prop33
280
     0
102
RTVSPost2010PropOp33
 70
     1
102
RTVSPost2010Prop34
280
     0
102
RTVSPost2010PropOp34
 70
     1
102
RTVSPost2010Prop35
280
     0
102
RTVSPost2010PropOp35
 70
     1
102
RTVSPost2010Prop36
280
     0
102
RTVSPost2010PropOp36
 70
     1
102
RTVSPost2010Prop37
 90
       50
102
RTVSPost2010PropOp37
 70
     1
102
RTVSPost2010Prop38
140
0.0
102
RTVSPost2010PropOp38
 70
     1
102
RTVSPost2010Prop39
140
1.0
102
RTVSPost2010PropOp39
 70
     1
102
RTVSPost2010Prop40
 90
        0
102
RTVSPost2010PropOp40
 70
     1
102
RTVSPost2010Prop41ColorIndex
 90
       18
102
RTVSPost2010Prop41ColorRGB
 90
        0
102
RTVSPost2010PropOp41
 70
     1
102
RTVSPost2010Prop42
 90
       50
102
RTVSPost2010PropOp42
 70
     1
102
RTVSPost2010Prop43
 90
        3
102
RTVSPost2010PropOp43
 70
     1
102
RTVSPost2010Prop44ColorIndex
 90
        5
102
RTVSPost2010Prop44ColorRGB
 90
      255
102
RTVSPost2010PropOp44
 70
     1
102
RTVSPost2010Prop45
280
     0
102
RTVSPost2010PropOp45
 70
     1
102
RTVSPost2010Prop46
 90
       50
102
RTVSPost2010PropOp46
 70
     1
102
RTVSPost2010Prop47
 90
       50
102
RTVSPost2010PropOp47
 70
     1
102
RTVSPost2010Prop48
 90
       50
102
RTVSPost2010PropOp48
 70
     1
102
RTVSPost2010Prop49
280
     0
102
RTVSPost2010PropOp49
 70
     1
102
RTVSPost2010Prop50
 90
       50
102
RTVSPost2010PropOp50
 70
     1
102
RTVSPost2010Prop51ColorIndex
 90
      256
102
RTVSPost2010Prop51ColorRGB
 90
-16777216
102
RTVSPost2010PropOp51
 70
     0
102
RTVSPost2010Prop52
140
1.0
102
RTVSPost2010PropOp52
 70
     0
102
RTVSPost2010Prop53
 90
        2
102
RTVSPost2010PropOp53
 70
     1
102
RTVSPost2010Prop54
  1
strokes_ogs.tif
102
RTVSPost2010PropOp54
 70
     1
102
RTVSPost2010Prop55
280
     0
102
RTVSPost2010PropOp55
 70
     1
102
RTVSPost2010Prop56
140
1.0
102
RTVSPost2010PropOp56
 70
     1
102
RTVSPost2010Prop57
140
1.0
102
RTVSPost2010PropOp57
 70
     1
102
RTVSPropertyOp0
 70
     1
102
RTVSPropertyOp1
 70
     1
102
RTVSPropertyOp2
 70
     1
102
RTVSPropertyOp3
 70
     1
102
RTVSPropertyOp4
 70
     1
102
RTVSPropertyOp5
 70
     1
102
RTVSPropertyOp6
 70
     1
102
RTVSPropertyOp7
 70
     1
102
RTVSPropertyOp8
 70
     1
102
RTVSPropertyOp9
 70
     1
102
RTVSPropertyOp10
 70
     1
102
RTVSPropertyOp11
 70
     1
102
RTVSPropertyOp12
 70
     1
102
RTVSPropertyOp13
 70
     1
102
RTVSPropertyOp14
 70
     1
102
RTVSPropertyOp15
 70
     1
102
RTVSPropertyOp16
 70
     1
102
RTVSPropertyOp17
 70
     1
102
RTVSPropertyOp18
 70
     1
102
RTVSPropertyOp19
 70
     1
102
RTVSPropertyOp20
 70
     1
102
RTVSPropertyOp21
 70
     1
102
RTVSPropertyOp22
 70
     1
102
RTVSPropertyOp23
 70
     1
102
RTVSPropertyOp24
 70
     1
102
RTVSPropertyOp25
 70
     1
102
RTVSPropertyOp26
 70
     1
102
RTVSPropertyOp27
 70
     1
102
RTVSPropertyOp28
 70
     1
102
RTVSPropertyOp29
 70
     1
102
RTVSPropertyOp30
 70
     1
102
RTVSPropertyOp31
 70
     1
102
RTVSPropertyOp32
 70
     1
102
RTVSPropertyOp33
 70
     1
102
RTVSPropertyOp34
 70
     1
102
RTVSPropertyOp35
 70
     1
102
RTVSPropertyOp36
 70
     1
102
RTVSPropertyOp37
 70
     1
102
RTVSPropertyOp38
 70
     1
102
RTVSPropertyOp39
 70
     1
102
RTVSPropertyOp40
 70
     1
102
RTVSPropertyOp41
 70
     1
102
RTVSPropertyOp42
 70
     1
102
RTVSPropertyOp43
 70
     1
102
RTVSPropertyOp44
 70
     1
102
RTVSPropertyOp45
 70
     1
102
RTVSPropertyOp46
 70
     1
102
RTVSPropertyOp47
 70
     1
102
RTVSPropertyOp48
 70
     1
102
RTVSPropertyOp49
 70
     1
102
RTVSPropertyOp50
 70
     1
102
RTVSPropertyOp51
 70
     0
102
RTVSPropertyOp52
 70
     0
102
RTVSPropertyOp53
 70
     1
102
RTVSPropertyOp54
 70
     1
102
RTVSPropertyOp55
 70
     1
102
RTVSPropertyOp56
 70
     1
102
RTVSPropertyOp57
 70
     1
102
RTVSPropertyOp58
 70
     1
102
RTVSPropertyOp59
 70
     1
102
RTVSPropertyOp60
 70
     1
102
RTVSPropertyOp61
 70
     1
102
RTVSPropertyOp62
 70
     1
  0
XRECORD
  5
2F26
102
{ACAD_REACTORS
330
2F25
102
}
330
2F25
100
AcDbXrecord
280
     1
102
RTVSPost2010Prop28
280
     0
102
RTVSPost2010PropOp28
 70
     1
102
RTVSPost2010Prop29
280
     1
102
RTVSPost2010PropOp29
 70
     1
102
RTVSPost2010Prop30
280
     1
102
RTVSPost2010PropOp30
 70
     1
102
RTVSPost2010Prop31
280
     0
102
RTVSPost2010PropOp31
 70
     1
102
RTVSPost2010Prop32
280
     0
102
RTVSPost2010PropOp32
 70
     1
102
RTVSPost2010Prop33
280
     0
102
RTVSPost2010PropOp33
 70
     1
102
RTVSPost2010Prop34
280
     0
102
RTVSPost2010PropOp34
 70
     1
102
RTVSPost2010Prop35
280
     0
102
RTVSPost2010PropOp35
 70
     1
102
RTVSPost2010Prop36
280
     0
102
RTVSPost2010PropOp36
 70
     1
102
RTVSPost2010Prop37
 90
       50
102
RTVSPost2010PropOp37
 70
     1
102
RTVSPost2010Prop38
140
0.0
102
RTVSPost2010PropOp38
 70
     1
102
RTVSPost2010Prop39
140
1.0
102
RTVSPost2010PropOp39
 70
     1
102
RTVSPost2010Prop40
 90
        0
102
RTVSPost2010PropOp40
 70
     1
102
RTVSPost2010Prop41ColorIndex
 90
       18
102
RTVSPost2010Prop41ColorRGB
 90
        0
102
RTVSPost2010PropOp41
 70
     1
102
RTVSPost2010Prop42
 90
       50
102
RTVSPost2010PropOp42
 70
     1
102
RTVSPost2010Prop43
 90
        3
102
RTVSPost2010PropOp43
 70
     1
102
RTVSPost2010Prop44ColorIndex
 90
        5
102
RTVSPost2010Prop44ColorRGB
 90
      255
102
RTVSPost2010PropOp44
 70
     1
102
RTVSPost2010Prop45
280
     0
102
RTVSPost2010PropOp45
 70
     1
102
RTVSPost2010Prop46
 90
       50
102
RTVSPost2010PropOp46
 70
     1
102
RTVSPost2010Prop47
 90
       50
102
RTVSPost2010PropOp47
 70
     1
102
RTVSPost2010Prop48
 90
       50
102
RTVSPost2010PropOp48
 70
     1
102
RTVSPost2010Prop49
280
     0
102
RTVSPost2010PropOp49
 70
     1
102
RTVSPost2010Prop50
 90
       50
102
RTVSPost2010PropOp50
 70
     1
102
RTVSPost2010Prop51ColorIndex
 90
      256
102
RTVSPost2010Prop51ColorRGB
 90
-16777216
102
RTVSPost2010PropOp51
 70
     0
102
RTVSPost2010Prop52
140
1.0
102
RTVSPost2010PropOp52
 70
     0
102
RTVSPost2010Prop53
 90
        2
102
RTVSPost2010PropOp53
 70
     1
102
RTVSPost2010Prop54
  1
strokes_ogs.tif
102
RTVSPost2010PropOp54
 70
     1
102
RTVSPost2010Prop55
280
     0
102
RTVSPost2010PropOp55
 70
     1
102
RTVSPost2010Prop56
140
1.0
102
RTVSPost2010PropOp56
 70
     1
102
RTVSPost2010Prop57
140
1.0
102
RTVSPost2010PropOp57
 70
     1
102
RTVSPropertyOp0
 70
     1
102
RTVSPropertyOp1
 70
     1
102
RTVSPropertyOp2
 70
     1
102
RTVSPropertyOp3
 70
     1
102
RTVSPropertyOp4
 70
     1
102
RTVSPropertyOp5
 70
     1
102
RTVSPropertyOp6
 70
     1
102
RTVSPropertyOp7
 70
     1
102
RTVSPropertyOp8
 70
     1
102
RTVSPropertyOp9
 70
     1
102
RTVSPropertyOp10
 70
     1
102
RTVSPropertyOp11
 70
     1
102
RTVSPropertyOp12
 70
     1
102
RTVSPropertyOp13
 70
     1
102
RTVSPropertyOp14
 70
     1
102
RTVSPropertyOp15
 70
     1
102
RTVSPropertyOp16
 70
     1
102
RTVSPropertyOp17
 70
     1
102
RTVSPropertyOp18
 70
     1
102
RTVSPropertyOp19
 70
     1
102
RTVSPropertyOp20
 70
     1
102
RTVSPropertyOp21
 70
     1
102
RTVSPropertyOp22
 70
     1
102
RTVSPropertyOp23
 70
     1
102
RTVSPropertyOp24
 70
     1
102
RTVSPropertyOp25
 70
     1
102
RTVSPropertyOp26
 70
     1
102
RTVSPropertyOp27
 70
     1
102
RTVSPropertyOp28
 70
     1
102
RTVSPropertyOp29
 70
     1
102
RTVSPropertyOp30
 70
     1
102
RTVSPropertyOp31
 70
     1
102
RTVSPropertyOp32
 70
     1
102
RTVSPropertyOp33
 70
     1
102
RTVSPropertyOp34
 70
     1
102
RTVSPropertyOp35
 70
     1
102
RTVSPropertyOp36
 70
     1
102
RTVSPropertyOp37
 70
     1
102
RTVSPropertyOp38
 70
     1
102
RTVSPropertyOp39
 70
     1
102
RTVSPropertyOp40
 70
     1
102
RTVSPropertyOp41
 70
     1
102
RTVSPropertyOp42
 70
     1
102
RTVSPropertyOp43
 70
     1
102
RTVSPropertyOp44
 70
     1
102
RTVSPropertyOp45
 70
     1
102
RTVSPropertyOp46
 70
     1
102
RTVSPropertyOp47
 70
     1
102
RTVSPropertyOp48
 70
     1
102
RTVSPropertyOp49
 70
     1
102
RTVSPropertyOp50
 70
     1
102
RTVSPropertyOp51
 70
     0
102
RTVSPropertyOp52
 70
     0
102
RTVSPropertyOp53
 70
     1
102
RTVSPropertyOp54
 70
     1
102
RTVSPropertyOp55
 70
     1
102
RTVSPropertyOp56
 70
     1
102
RTVSPropertyOp57
 70
     1
102
RTVSPropertyOp58
 70
     1
102
RTVSPropertyOp59
 70
     1
102
RTVSPropertyOp60
 70
     1
102
RTVSPropertyOp61
 70
     1
102
RTVSPropertyOp62
 70
     1
  0
XRECORD
  5
2F3E
102
{ACAD_REACTORS
330
2F3D
102
}
330
2F3D
100
AcDbXrecord
280
     1
102
RTVSPost2010Prop28
280
     0
102
RTVSPost2010PropOp28
 70
     1
102
RTVSPost2010Prop29
280
     1
102
RTVSPost2010PropOp29
 70
     1
102
RTVSPost2010Prop30
280
     1
102
RTVSPost2010PropOp30
 70
     1
102
RTVSPost2010Prop31
280
     0
102
RTVSPost2010PropOp31
 70
     1
102
RTVSPost2010Prop32
280
     0
102
RTVSPost2010PropOp32
 70
     1
102
RTVSPost2010Prop33
280
     0
102
RTVSPost2010PropOp33
 70
     1
102
RTVSPost2010Prop34
280
     0
102
RTVSPost2010PropOp34
 70
     1
102
RTVSPost2010Prop35
280
     0
102
RTVSPost2010PropOp35
 70
     1
102
RTVSPost2010Prop36
280
     0
102
RTVSPost2010PropOp36
 70
     1
102
RTVSPost2010Prop37
 90
       50
102
RTVSPost2010PropOp37
 70
     1
102
RTVSPost2010Prop38
140
0.0
102
RTVSPost2010PropOp38
 70
     1
102
RTVSPost2010Prop39
140
1.0
102
RTVSPost2010PropOp39
 70
     1
102
RTVSPost2010Prop40
 90
        0
102
RTVSPost2010PropOp40
 70
     1
102
RTVSPost2010Prop41ColorIndex
 90
       18
102
RTVSPost2010Prop41ColorRGB
 90
        0
102
RTVSPost2010PropOp41
 70
     1
102
RTVSPost2010Prop42
 90
       50
102
RTVSPost2010PropOp42
 70
     1
102
RTVSPost2010Prop43
 90
        3
102
RTVSPost2010PropOp43
 70
     1
102
RTVSPost2010Prop44ColorIndex
 90
        5
102
RTVSPost2010Prop44ColorRGB
 90
      255
102
RTVSPost2010PropOp44
 70
     1
102
RTVSPost2010Prop45
280
     0
102
RTVSPost2010PropOp45
 70
     1
102
RTVSPost2010Prop46
 90
       50
102
RTVSPost2010PropOp46
 70
     1
102
RTVSPost2010Prop47
 90
       50
102
RTVSPost2010PropOp47
 70
     1
102
RTVSPost2010Prop48
 90
       50
102
RTVSPost2010PropOp48
 70
     1
102
RTVSPost2010Prop49
280
     0
102
RTVSPost2010PropOp49
 70
     1
102
RTVSPost2010Prop50
 90
       50
102
RTVSPost2010PropOp50
 70
     1
102
RTVSPost2010Prop51ColorIndex
 90
      256
102
RTVSPost2010Prop51ColorRGB
 90
-16777216
102
RTVSPost2010PropOp51
 70
     0
102
RTVSPost2010Prop52
140
1.0
102
RTVSPost2010PropOp52
 70
     0
102
RTVSPost2010Prop53
 90
        2
102
RTVSPost2010PropOp53
 70
     1
102
RTVSPost2010Prop54
  1
strokes_ogs.tif
102
RTVSPost2010PropOp54
 70
     1
102
RTVSPost2010Prop55
280
     0
102
RTVSPost2010PropOp55
 70
     1
102
RTVSPost2010Prop56
140
1.0
102
RTVSPost2010PropOp56
 70
     1
102
RTVSPost2010Prop57
140
1.0
102
RTVSPost2010PropOp57
 70
     1
102
RTVSPropertyOp0
 70
     1
102
RTVSPropertyOp1
 70
     1
102
RTVSPropertyOp2
 70
     1
102
RTVSPropertyOp3
 70
     1
102
RTVSPropertyOp4
 70
     1
102
RTVSPropertyOp5
 70
     1
102
RTVSPropertyOp6
 70
     1
102
RTVSPropertyOp7
 70
     1
102
RTVSPropertyOp8
 70
     1
102
RTVSPropertyOp9
 70
     1
102
RTVSPropertyOp10
 70
     1
102
RTVSPropertyOp11
 70
     1
102
RTVSPropertyOp12
 70
     1
102
RTVSPropertyOp13
 70
     1
102
RTVSPropertyOp14
 70
     1
102
RTVSPropertyOp15
 70
     1
102
RTVSPropertyOp16
 70
     1
102
RTVSPropertyOp17
 70
     1
102
RTVSPropertyOp18
 70
     1
102
RTVSPropertyOp19
 70
     1
102
RTVSPropertyOp20
 70
     1
102
RTVSPropertyOp21
 70
     1
102
RTVSPropertyOp22
 70
     1
102
RTVSPropertyOp23
 70
     1
102
RTVSPropertyOp24
 70
     1
102
RTVSPropertyOp25
 70
     1
102
RTVSPropertyOp26
 70
     1
102
RTVSPropertyOp27
 70
     1
102
RTVSPropertyOp28
 70
     1
102
RTVSPropertyOp29
 70
     1
102
RTVSPropertyOp30
 70
     1
102
RTVSPropertyOp31
 70
     1
102
RTVSPropertyOp32
 70
     1
102
RTVSPropertyOp33
 70
     1
102
RTVSPropertyOp34
 70
     1
102
RTVSPropertyOp35
 70
     1
102
RTVSPropertyOp36
 70
     1
102
RTVSPropertyOp37
 70
     1
102
RTVSPropertyOp38
 70
     1
102
RTVSPropertyOp39
 70
     1
102
RTVSPropertyOp40
 70
     1
102
RTVSPropertyOp41
 70
     1
102
RTVSPropertyOp42
 70
     1
102
RTVSPropertyOp43
 70
     1
102
RTVSPropertyOp44
 70
     1
102
RTVSPropertyOp45
 70
     1
102
RTVSPropertyOp46
 70
     1
102
RTVSPropertyOp47
 70
     1
102
RTVSPropertyOp48
 70
     1
102
RTVSPropertyOp49
 70
     1
102
RTVSPropertyOp50
 70
     1
102
RTVSPropertyOp51
 70
     0
102
RTVSPropertyOp52
 70
     0
102
RTVSPropertyOp53
 70
     1
102
RTVSPropertyOp54
 70
     1
102
RTVSPropertyOp55
 70
     1
102
RTVSPropertyOp56
 70
     1
102
RTVSPropertyOp57
 70
     1
102
RTVSPropertyOp58
 70
     1
102
RTVSPropertyOp59
 70
     1
102
RTVSPropertyOp60
 70
     1
102
RTVSPropertyOp61
 70
     1
102
RTVSPropertyOp62
 70
     1
  0
ENDSEC
  0
EOF
