  0
SECTION
  2
HEADER
  9
$ACADVER
  1
AC1015
  9
$ACADMAINTVER
 70
    20
  9
$DWGCODEPAGE
  3
ANSI_1252
  9
$INSBASE
 10
0.0
 20
0.0
 30
0.0
  9
$EXTMIN
 10
-47.36607002630506
 20
-28.99575764203238
 30
-0.0000000349181948
  9
$EXTMAX
 10
101.5663424280758
 20
28.00347890422973
 30
0.0000000814935747
  9
$LIMMIN
 10
0.0
 20
0.0
  9
$LIMMAX
 10
12.0
 20
9.0
  9
$ORTHOMODE
 70
     0
  9
$REGENMODE
 70
     1
  9
$FILLMODE
 70
     1
  9
$QTEXTMODE
 70
     0
  9
$MIRRTEXT
 70
     1
  9
$LTSCALE
 40
1.0
  9
$ATTMODE
 70
     1
  9
$TEXTSIZE
 40
3.0
  9
$TRACEWID
 40
10.0
  9
$TEXTSTYLE
  7
SANDVIK_STYLE
  9
$CLAYER
  8
SK2
  9
$CELTYPE
  6
ByLayer
  9
$CECOLOR
 62
   256
  9
$CELTSCALE
 40
1.0
  9
$DISPSILH
 70
     0
  9
$DIMSCALE
 40
0.0
  9
$DIMASZ
 40
4.57
  9
$DIMEXO
 40
0.0
  9
$DIMDLI
 40
0.38
  9
$DIMRND
 40
0.0
  9
$DIMDLE
 40
0.0
  9
$DIMEXE
 40
5.0
  9
$DIMTP
 40
0.0
  9
$DIMTM
 40
0.0
  9
$DIMTXT
 40
4.5
  9
$DIMCEN
 40
0.09
  9
$DIMTSZ
 40
0.0
  9
$DIMTOL
 70
     0
  9
$DIMLIM
 70
     0
  9
$DIMTIH
 70
     0
  9
$DIMTOH
 70
     0
  9
$DIMSE1
 70
     0
  9
$DIMSE2
 70
     0
  9
$DIMTAD
 70
     1
  9
$DIMZIN
 70
     8
  9
$DIMBLK
  1

  9
$DIMASO
 70
     1
  9
$DIMSHO
 70
     1
  9
$DIMPOST
  1
 
  9
$DIMAPOST
  1
 
  9
$DIMALT
 70
     0
  9
$DIMALTD
 70
     2
  9
$DIMALTF
 40
25.4
  9
$DIMLFAC
 40
1.0
  9
$DIMTOFL
 70
     0
  9
$DIMTVP
 40
0.0
  9
$DIMTIX
 70
     0
  9
$DIMSOXD
 70
     0
  9
$DIMSAH
 70
     0
  9
$DIMBLK1
  1

  9
$DIMBLK2
  1

  9
$DIMSTYLE
  2
SANDVIK_DIM
  9
$DIMCLRD
 70
   256
  9
$DIMCLRE
 70
   256
  9
$DIMCLRT
 70
   256
  9
$DIMTFAC
 40
1.0
  9
$DIMGAP
 40
2.299999999999998
  9
$DIMJUST
 70
     0
  9
$DIMSD1
 70
     0
  9
$DIMSD2
 70
     0
  9
$DIMTOLJ
 70
     1
  9
$DIMTZIN
 70
     0
  9
$DIMALTZ
 70
     0
  9
$DIMALTTZ
 70
     0
  9
$DIMUPT
 70
     0
  9
$DIMDEC
 70
     2
  9
$DIMTDEC
 70
     2
  9
$DIMALTU
 70
     2
  9
$DIMALTTD
 70
     2
  9
$DIMTXSTY
  7
SANDVIK_STYLE
  9
$DIMAUNIT
 70
     0
  9
$DIMADEC
 70
     0
  9
$DIMALTRND
 40
0.0
  9
$DIMAZIN
 70
     0
  9
$DIMDSEP
 70
    46
  9
$DIMATFIT
 70
     3
  9
$DIMFRAC
 70
     0
  9
$DIMLDRBLK
  1

  9
$DIMLUNIT
 70
     2
  9
$DIMLWD
 70
    -2
  9
$DIMLWE
 70
    -2
  9
$DIMTMOVE
 70
     2
  9
$LUNITS
 70
     2
  9
$LUPREC
 70
     2
  9
$SKETCHINC
 40
0.0
  9
$FILLETRAD
 40
0.0
  9
$AUNITS
 70
     0
  9
$AUPREC
 70
     2
  9
$MENU
  1
acad
  9
$ELEVATION
 40
0.0
  9
$PELEVATION
 40
0.0
  9
$THICKNESS
 40
0.0
  9
$LIMCHECK
 70
     0
  9
$CHAMFERA
 40
0.0
  9
$CHAMFERB
 40
0.0
  9
$CHAMFERC
 40
0.0
  9
$CHAMFERD
 40
0.0
  9
$SKPOLY
 70
     0
  9
$TDCREATE
 40
2455817.646292060
  9
$TDUCREATE
 40
2455817.562958727
  9
$TDUPDATE
 40
2456818.534634977
  9
$TDUUPDATE
 40
2456818.451301644
  9
$TDINDWG
 40
0.1001052315
  9
$TDUSRTIMER
 40
0.1001052315
  9
$USRTIMER
 70
     1
  9
$ANGBASE
 50
0.0
  9
$ANGDIR
 70
     0
  9
$PDMODE
 70
     0
  9
$PDSIZE
 40
0.0
  9
$PLINEWID
 40
0.0
  9
$SPLFRAME
 70
     0
  9
$SPLINETYPE
 70
     6
  9
$SPLINESEGS
 70
     8
  9
$HANDSEED
  5
2F5A
  9
$SURFTAB1
 70
     6
  9
$SURFTAB2
 70
     6
  9
$SURFTYPE
 70
     6
  9
$SURFU
 70
     6
  9
$SURFV
 70
     6
  9
$UCSBASE
  2

  9
$UCSNAME
  2

  9
$UCSORG
 10
0.0
 20
0.0
 30
0.0
  9
$UCSXDIR
 10
1.0
 20
0.0
 30
0.0
  9
$UCSYDIR
 10
0.0
 20
1.0
 30
0.0
  9
$UCSORTHOREF
  2

  9
$UCSORTHOVIEW
 70
     0
  9
$UCSORGTOP
 10
0.0
 20
0.0
 30
0.0
  9
$UCSORGBOTTOM
 10
0.0
 20
0.0
 30
0.0
  9
$UCSORGLEFT
 10
0.0
 20
0.0
 30
0.0
  9
$UCSORGRIGHT
 10
0.0
 20
0.0
 30
0.0
  9
$UCSORGFRONT
 10
0.0
 20
0.0
 30
0.0
  9
$UCSORGBACK
 10
0.0
 20
0.0
 30
0.0
  9
$PUCSBASE
  2

  9
$PUCSNAME
  2

  9
$PUCSORG
 10
0.0
 20
0.0
 30
0.0
  9
$PUCSXDIR
 10
1.0
 20
0.0
 30
0.0
  9
$PUCSYDIR
 10
0.0
 20
1.0
 30
0.0
  9
$PUCSORTHOREF
  2

  9
$PUCSORTHOVIEW
 70
     0
  9
$PUCSORGTOP
 10
0.0
 20
0.0
 30
0.0
  9
$PUCSORGBOTTOM
 10
0.0
 20
0.0
 30
0.0
  9
$PUCSORGLEFT
 10
0.0
 20
0.0
 30
0.0
  9
$PUCSORGRIGHT
 10
0.0
 20
0.0
 30
0.0
  9
$PUCSORGFRONT
 10
0.0
 20
0.0
 30
0.0
  9
$PUCSORGBACK
 10
0.0
 20
0.0
 30
0.0
  9
$USERI1
 70
     0
  9
$USERI2
 70
     0
  9
$USERI3
 70
     0
  9
$USERI4
 70
     0
  9
$USERI5
 70
     0
  9
$USERR1
 40
0.0
  9
$USERR2
 40
0.0
  9
$USERR3
 40
0.0
  9
$USERR4
 40
0.0
  9
$USERR5
 40
0.0
  9
$WORLDVIEW
 70
     1
  9
$SHADEDGE
 70
     3
  9
$SHADEDIF
 70
    70
  9
$TILEMODE
 70
     1
  9
$MAXACTVP
 70
    16
  9
$PINSBASE
 10
0.0
 20
0.0
 30
0.0
  9
$PLIMCHECK
 70
     0
  9
$PEXTMIN
 10
1.000000000000000E+20
 20
1.000000000000000E+20
 30
1.000000000000000E+20
  9
$PEXTMAX
 10
-1.000000000000000E+20
 20
-1.000000000000000E+20
 30
-1.000000000000000E+20
  9
$PLIMMIN
 10
0.0
 20
0.0
  9
$PLIMMAX
 10
12.0
 20
9.0
  9
$UNITMODE
 70
     0
  9
$VISRETAIN
 70
     0
  9
$PLINEGEN
 70
     0
  9
$PSLTSCALE
 70
     1
  9
$TREEDEPTH
 70
  3020
  9
$CMLSTYLE
  2
Standard
  9
$CMLJUST
 70
     0
  9
$CMLSCALE
 40
1.0
  9
$PROXYGRAPHICS
 70
     1
  9
$MEASUREMENT
 70
     0
  9
$CELWEIGHT
370
    -1
  9
$ENDCAPS
280
     0
  9
$JOINSTYLE
280
     0
  9
$LWDISPLAY
290
     0
  9
$INSUNITS
 70
     0
  9
$HYPERLINKBASE
  1

  9
$STYLESHEET
  1

  9
$XEDIT
290
     1
  9
$CEPSNTYPE
380
     0
  9
$PSTYLEMODE
290
     1
  9
$FINGERPRINTGUID
  2
{BC6BEBD7-5C89-4B2E-99DC-E3119A1637E9}
  9
$VERSIONGUID
  2
{56D5961F-F777-48F3-8B92-2EB88B4921C1}
  9
$EXTNAMES
290
     1
  9
$PSVPSCALE
 40
0.0
  9
$OLESTARTUP
290
     0
  0
ENDSEC
  0
SECTION
  2
CLASSES
  0
CLASS
  1
ACDBDICTIONARYWDFLT
  2
AcDbDictionaryWithDefault
  3
ObjectDBX Classes
 90
        0
280
     0
281
     0
  0
CLASS
  1
MATERIAL
  2
AcDbMaterial
  3
ObjectDBX Classes
 90
     1153
280
     0
281
     0
  0
CLASS
  1
VISUALSTYLE
  2
AcDbVisualStyle
  3
ObjectDBX Classes
 90
     4095
280
     0
281
     0
  0
CLASS
  1
TABLESTYLE
  2
AcDbTableStyle
  3
ObjectDBX Classes
 90
     4095
280
     0
281
     0
  0
CLASS
  1
SCALE
  2
AcDbScale
  3
ObjectDBX Classes
 90
     1153
280
     0
281
     0
  0
CLASS
  1
MLEADERSTYLE
  2
AcDbMLeaderStyle
  3
ACDB_MLEADERSTYLE_CLASS
 90
     4095
280
     0
281
     0
  0
CLASS
  1
ACDBSECTIONVIEWSTYLE
  2
AcDbSectionViewStyle
  3
ObjectDBX Classes
 90
     1025
280
     0
281
     0
  0
CLASS
  1
ACDBDETAILVIEWSTYLE
  2
AcDbDetailViewStyle
  3
ObjectDBX Classes
 90
     1025
280
     0
281
     0
  0
CLASS
  1
EXACXREFPANELOBJECT
  2
ExAcXREFPanelObject
  3
EXAC_ESW
 90
     1025
280
     0
281
     0
  0
CLASS
  1
NPOCOLLECTION
  2
AcDbImpNonPersistentObjectsCollection
  3
ObjectDBX Classes
 90
     1153
280
     0
281
     0
  0
CLASS
  1
DICTIONARYVAR
  2
AcDbDictionaryVar
  3
ObjectDBX Classes
 90
        0
280
     0
281
     0
  0
CLASS
  1
CELLSTYLEMAP
  2
AcDbCellStyleMap
  3
ObjectDBX Classes
 90
     1152
280
     0
281
     0
  0
CLASS
  1
ACDBPLACEHOLDER
  2
AcDbPlaceHolder
  3
ObjectDBX Classes
 90
        0
280
     0
281
     0
  0
CLASS
  1
LAYOUT
  2
AcDbLayout
  3
ObjectDBX Classes
 90
        0
280
     0
281
     0
  0
ENDSEC
  0
SECTION
  2
TABLES
  0
TABLE
  2
VPORT
  5
BDF
330
0
100
AcDbSymbolTable
 70
     1
  0
VPORT
  5
2E6C
330
BDF
100
AcDbSymbolTableRecord
100
AcDbViewportTableRecord
  2
*Active
 70
     0
 10
0.0
 20
0.0
 11
1.0
 21
1.0
 12
27.10013620088537
 22
-0.496139368901325
 13
0.0
 23
0.0
 14
1.0
 24
1.0
 15
0.0
 25
0.0
 16
0.0
 26
0.0
 36
1.0
 17
0.0
 27
0.0
 37
0.0
 40
75.46377417630623
 41
2.2
 42
50.0
 43
0.0
 44
0.0
 50
0.0
 51
0.0
 71
     0
 72
   100
 73
     1
 74
     1
 75
     0
 76
     0
 77
     0
 78
     0
281
     0
 65
     1
110
0.0
120
0.0
130
0.0
111
1.0
121
0.0
131
0.0
112
0.0
122
1.0
132
0.0
 79
     0
146
0.0
1001
ACAD_NAV_VCDISPLAY
1070
     3
  0
ENDTAB
  0
TABLE
  2
LTYPE
  5
BDC
330
0
100
AcDbSymbolTable
 70
     4
  0
LTYPE
  5
BEA
330
BDC
100
AcDbSymbolTableRecord
100
AcDbLinetypeTableRecord
  2
ByBlock
 70
     0
  3

 72
    65
 73
     0
 40
0.0
  0
LTYPE
  5
BEB
330
BDC
100
AcDbSymbolTableRecord
100
AcDbLinetypeTableRecord
  2
ByLayer
 70
     0
  3

 72
    65
 73
     0
 40
0.0
  0
LTYPE
  5
BEC
330
BDC
100
AcDbSymbolTableRecord
100
AcDbLinetypeTableRecord
  2
CONTINUOUS
 70
     0
  3
Solid line
 72
    65
 73
     0
 40
0.0
  0
LTYPE
  5
BFE
330
BDC
100
AcDbSymbolTableRecord
100
AcDbLinetypeTableRecord
  2
CENTER
 70
     0
  3
____ _ ____ _ ____ _ ____ _ ____ _ ____ _ ____
 72
    65
 73
     4
 40
5.059897
 49
3.162434999999998
 74
     0
 49
-0.6324870000000004
 74
     0
 49
0.6324870000000004
 74
     0
 49
-0.6324870000000004
 74
     0
  0
LTYPE
  5
BFF
330
BDC
100
AcDbSymbolTableRecord
100
AcDbLinetypeTableRecord
  2
DASHED
 70
     0
  3
__ __ __ __ __ __ __ __ __ __ __ __ __ __ __ __
 72
    65
 73
     2
 40
7.589844999999997
 49
5.059897
 74
     0
 49
-2.529948
 74
     0
  0
LTYPE
  5
2EB8
330
BDC
100
AcDbSymbolTableRecord
100
AcDbLinetypeTableRecord
  2
PHANTOM2
 70
     0
  3
Phantom (.5x) ___ _ _ ___ _ _ ___ _ _ ___ _ _
 72
    65
 73
     6
 40
1.25
 49
0.625
 74
     0
 49
-0.125
 74
     0
 49
0.125
 74
     0
 49
-0.125
 74
     0
 49
0.125
 74
     0
 49
-0.125
 74
     0
  0
ENDTAB
  0
TABLE
  2
LAYER
  5
BD9
330
0
100
AcDbSymbolTable
 70
    40
  0
LAYER
  5
BE7
102
{ACAD_XDICTIONARY
360
2EC0
102
}
330
BD9
100
AcDbSymbolTableRecord
100
AcDbLayerTableRecord
  2
0
 70
     0
 62
     7
  6
CONTINUOUS
370
    -3
390
BE6
  0
LAYER
  5
BFB
102
{ACAD_XDICTIONARY
360
2EC2
102
}
330
BD9
100
AcDbSymbolTableRecord
100
AcDbLayerTableRecord
  2
3
 70
     0
 62
     1
  6
DASHED
370
    -3
390
BE6
  0
LAYER
  5
C00
102
{ACAD_XDICTIONARY
360
2EC4
102
}
330
BD9
100
AcDbSymbolTableRecord
100
AcDbLayerTableRecord
  2
1
 70
     0
 62
     4
  6
CONTINUOUS
370
    -3
390
BE6
  0
LAYER
  5
C01
102
{ACAD_XDICTIONARY
360
2EC6
102
}
330
BD9
100
AcDbSymbolTableRecord
100
AcDbLayerTableRecord
  2
61
 70
     0
 62
     5
  6
CONTINUOUS
370
    -3
390
BE6
  0
LAYER
  5
C02
102
{ACAD_XDICTIONARY
360
2EC8
102
}
330
BD9
100
AcDbSymbolTableRecord
100
AcDbLayerTableRecord
  2
62
 70
     0
 62
    -5
  6
CONTINUOUS
370
    -3
390
BE6
  0
LAYER
  5
C03
102
{ACAD_XDICTIONARY
360
2ECA
102
}
330
BD9
100
AcDbSymbolTableRecord
100
AcDbLayerTableRecord
  2
63
 70
     0
 62
    -5
  6
CONTINUOUS
370
    -3
390
BE6
  0
LAYER
  5
C04
102
{ACAD_XDICTIONARY
360
2ECC
102
}
330
BD9
100
AcDbSymbolTableRecord
100
AcDbLayerTableRecord
  2
64
 70
     0
 62
    -5
  6
CONTINUOUS
370
    -3
390
BE6
  0
LAYER
  5
C05
102
{ACAD_XDICTIONARY
360
2ECE
102
}
330
BD9
100
AcDbSymbolTableRecord
100
AcDbLayerTableRecord
  2
65
 70
     0
 62
    -5
  6
CONTINUOUS
370
    -3
390
BE6
  0
LAYER
  5
C06
102
{ACAD_XDICTIONARY
360
2ED0
102
}
330
BD9
100
AcDbSymbolTableRecord
100
AcDbLayerTableRecord
  2
66
 70
     0
 62
    -5
  6
CONTINUOUS
370
    -3
390
BE6
  0
LAYER
  5
C07
102
{ACAD_XDICTIONARY
360
2ED2
102
}
330
BD9
100
AcDbSymbolTableRecord
100
AcDbLayerTableRecord
  2
67
 70
     0
 62
    -5
  6
CONTINUOUS
370
    -3
390
BE6
  0
LAYER
  5
C08
102
{ACAD_XDICTIONARY
360
2ED4
102
}
330
BD9
100
AcDbSymbolTableRecord
100
AcDbLayerTableRecord
  2
68
 70
     0
 62
    -5
  6
CONTINUOUS
370
    -3
390
BE6
  0
LAYER
  5
C09
102
{ACAD_XDICTIONARY
360
2ED6
102
}
330
BD9
100
AcDbSymbolTableRecord
100
AcDbLayerTableRecord
  2
69
 70
     0
 62
    -5
  6
CONTINUOUS
370
    -3
390
BE6
  0
LAYER
  5
C0A
102
{ACAD_XDICTIONARY
360
2ED8
102
}
330
BD9
100
AcDbSymbolTableRecord
100
AcDbLayerTableRecord
  2
70
 70
     0
 62
     5
  6
CONTINUOUS
370
    -3
390
BE6
  0
LAYER
  5
C0B
102
{ACAD_XDICTIONARY
360
2EDA
102
}
330
BD9
100
AcDbSymbolTableRecord
100
AcDbLayerTableRecord
  2
2
 70
     0
 62
     7
  6
CONTINUOUS
370
    -3
390
BE6
  0
LAYER
  5
C0C
102
{ACAD_XDICTIONARY
360
2EDC
102
}
330
BD9
100
AcDbSymbolTableRecord
100
AcDbLayerTableRecord
  2
4
 70
     0
 62
    -2
  6
CENTER
370
    -3
390
BE6
  0
LAYER
  5
C0D
102
{ACAD_XDICTIONARY
360
2EDE
102
}
330
BD9
100
AcDbSymbolTableRecord
100
AcDbLayerTableRecord
  2
5
 70
     0
 62
    -7
  6
CONTINUOUS
370
    -3
390
BE6
  0
LAYER
  5
C0E
102
{ACAD_XDICTIONARY
360
2EE0
102
}
330
BD9
100
AcDbSymbolTableRecord
100
AcDbLayerTableRecord
  2
SK1
 70
     0
 62
     4
  6
CONTINUOUS
370
    -3
390
BE6
  0
LAYER
  5
C0F
102
{ACAD_XDICTIONARY
360
2EE2
102
}
330
BD9
100
AcDbSymbolTableRecord
100
AcDbLayerTableRecord
  2
6
 70
     0
 62
     5
  6
CONTINUOUS
370
    -3
390
BE6
  0
LAYER
  5
C10
102
{ACAD_XDICTIONARY
360
2EE4
102
}
330
BD9
100
AcDbSymbolTableRecord
100
AcDbLayerTableRecord
  2
SK2
 70
     0
 62
     7
  6
CONTINUOUS
370
    -3
390
BE6
  0
LAYER
  5
C11
102
{ACAD_XDICTIONARY
360
2EE6
102
}
330
BD9
100
AcDbSymbolTableRecord
100
AcDbLayerTableRecord
  2
SK3
 70
     0
 62
     1
  6
DASHED
370
    -3
390
BE6
  0
LAYER
  5
C12
102
{ACAD_XDICTIONARY
360
2EE8
102
}
330
BD9
100
AcDbSymbolTableRecord
100
AcDbLayerTableRecord
  2
SK4
 70
     0
 62
     2
  6
CENTER
370
    -3
390
BE6
  0
LAYER
  5
C13
102
{ACAD_XDICTIONARY
360
2EEA
102
}
330
BD9
100
AcDbSymbolTableRecord
100
AcDbLayerTableRecord
  2
CUT
 70
     0
 62
     1
  6
CONTINUOUS
370
    -3
390
BE6
  0
LAYER
  5
C14
102
{ACAD_XDICTIONARY
360
2EEC
102
}
330
BD9
100
AcDbSymbolTableRecord
100
AcDbLayerTableRecord
  2
SK6
 70
     0
 62
     5
  6
CONTINUOUS
370
    -3
390
BE6
  0
LAYER
  5
C15
102
{ACAD_XDICTIONARY
360
2EEE
102
}
330
BD9
100
AcDbSymbolTableRecord
100
AcDbLayerTableRecord
  2
80
 70
     0
 62
    -2
  6
CENTER
370
    -3
390
BE6
  0
LAYER
  5
C16
102
{ACAD_XDICTIONARY
360
2EF0
102
}
330
BD9
100
AcDbSymbolTableRecord
100
AcDbLayerTableRecord
  2
81
 70
     0
 62
    -2
  6
CENTER
370
    -3
390
BE6
  0
LAYER
  5
C17
102
{ACAD_XDICTIONARY
360
2EF2
102
}
330
BD9
100
AcDbSymbolTableRecord
100
AcDbLayerTableRecord
  2
82
 70
     0
 62
    -2
  6
CENTER
370
    -3
390
BE6
  0
LAYER
  5
C18
102
{ACAD_XDICTIONARY
360
2EF4
102
}
330
BD9
100
AcDbSymbolTableRecord
100
AcDbLayerTableRecord
  2
NOCUT
 70
     0
 62
     7
  6
CONTINUOUS
370
    -3
390
BE6
  0
LAYER
  5
C19
102
{ACAD_XDICTIONARY
360
2EF6
102
}
330
BD9
100
AcDbSymbolTableRecord
100
AcDbLayerTableRecord
  2
50
 70
     0
 62
    -7
  6
CONTINUOUS
370
    -3
390
BE6
  0
LAYER
  5
C1A
102
{ACAD_XDICTIONARY
360
2EF8
102
}
330
BD9
100
AcDbSymbolTableRecord
100
AcDbLayerTableRecord
  2
51
 70
     0
 62
     7
  6
CONTINUOUS
370
    -3
390
BE6
  0
LAYER
  5
C1B
102
{ACAD_XDICTIONARY
360
2EFA
102
}
330
BD9
100
AcDbSymbolTableRecord
100
AcDbLayerTableRecord
  2
52
 70
     0
 62
    -7
  6
CONTINUOUS
370
    -3
390
BE6
  0
LAYER
  5
C1C
102
{ACAD_XDICTIONARY
360
2EFC
102
}
330
BD9
100
AcDbSymbolTableRecord
100
AcDbLayerTableRecord
  2
53
 70
     0
 62
    -7
  6
CONTINUOUS
370
    -3
390
BE6
  0
LAYER
  5
C1D
102
{ACAD_XDICTIONARY
360
2EFE
102
}
330
BD9
100
AcDbSymbolTableRecord
100
AcDbLayerTableRecord
  2
54
 70
     0
 62
    -7
  6
CONTINUOUS
370
    -3
390
BE6
  0
LAYER
  5
C1E
102
{ACAD_XDICTIONARY
360
2F00
102
}
330
BD9
100
AcDbSymbolTableRecord
100
AcDbLayerTableRecord
  2
55
 70
     0
 62
    -7
  6
CONTINUOUS
370
    -3
390
BE6
  0
LAYER
  5
C1F
102
{ACAD_XDICTIONARY
360
2F02
102
}
330
BD9
100
AcDbSymbolTableRecord
100
AcDbLayerTableRecord
  2
56
 70
     0
 62
    -7
  6
CONTINUOUS
370
    -3
390
BE6
  0
LAYER
  5
C20
102
{ACAD_XDICTIONARY
360
2F04
102
}
330
BD9
100
AcDbSymbolTableRecord
100
AcDbLayerTableRecord
  2
57
 70
     0
 62
    -7
  6
CONTINUOUS
370
    -3
390
BE6
  0
LAYER
  5
C21
102
{ACAD_XDICTIONARY
360
2F06
102
}
330
BD9
100
AcDbSymbolTableRecord
100
AcDbLayerTableRecord
  2
58
 70
     0
 62
    -7
  6
CONTINUOUS
370
    -3
390
BE6
  0
LAYER
  5
C22
102
{ACAD_XDICTIONARY
360
2F08
102
}
330
BD9
100
AcDbSymbolTableRecord
100
AcDbLayerTableRecord
  2
2L
 70
     0
 62
     7
  6
CONTINUOUS
370
    -3
390
BE6
  0
LAYER
  5
C23
102
{ACAD_XDICTIONARY
360
2F0A
102
}
330
BD9
100
AcDbSymbolTableRecord
100
AcDbLayerTableRecord
  2
59
 70
     0
 62
    -7
  6
CONTINUOUS
370
    -3
390
BE6
  0
LAYER
  5
C24
330
BD9
100
AcDbSymbolTableRecord
100
AcDbLayerTableRecord
  2
DEFPOINTS
 70
     0
 62
     7
  6
CONTINUOUS
290
     0
370
    -3
390
BE6
  0
LAYER
  5
C42
102
{ACAD_XDICTIONARY
360
2F0C
102
}
330
BD9
100
AcDbSymbolTableRecord
100
AcDbLayerTableRecord
  2
TFR-TRI
 70
     0
 62
     7
  6
CONTINUOUS
370
    -3
390
BE6
  0
ENDTAB
  0
TABLE
  2
STYLE
  5
BDA
330
0
100
AcDbSymbolTable
 70
     2
  0
STYLE
  5
BE8
330
BDA
100
AcDbSymbolTableRecord
100
AcDbTextStyleTableRecord
  2
STANDARD
 70
     0
 40
0.0
 41
1.0
 50
0.0
 71
     0
 42
4.5
  3
simplex.shx
  4

  0
STYLE
  5
BFC
330
BDA
100
AcDbSymbolTableRecord
100
AcDbTextStyleTableRecord
  2
SANDVIK_STYLE
 70
     0
 40
3.0
 41
1.0
 50
0.0
 71
     0
 42
3.0
  3
simplex.shx
  4

  0
ENDTAB
  0
TABLE
  2
VIEW
  5
BDD
330
0
100
AcDbSymbolTable
 70
     0
  0
ENDTAB
  0
TABLE
  2
UCS
  5
BDE
330
0
100
AcDbSymbolTable
 70
     0
  0
ENDTAB
  0
TABLE
  2
APPID
  5
BE0
330
0
100
AcDbSymbolTable
 70
     4
  0
APPID
  5
BE9
330
BE0
100
AcDbSymbolTableRecord
100
AcDbRegAppTableRecord
  2
ACAD
 70
     0
  0
APPID
  5
2F10
330
BE0
100
AcDbSymbolTableRecord
100
AcDbRegAppTableRecord
  2
DCO15
 70
     0
  0
APPID
  5
2F1C
330
BE0
100
AcDbSymbolTableRecord
100
AcDbRegAppTableRecord
  2
ACAD_NAV_VCDISPLAY
 70
     0
  0
APPID
  5
2F59
330
BE0
100
AcDbSymbolTableRecord
100
AcDbRegAppTableRecord
  2
ACAD_MLEADERVER
 70
     0
  0
ENDTAB
  0
TABLE
  2
DIMSTYLE
  5
BE1
330
0
100
AcDbSymbolTable
 70
     2
100
AcDbDimStyleTable
 71
     1
340
C26
  0
DIMSTYLE
105
C25
330
BE1
100
AcDbSymbolTableRecord
100
AcDbDimStyleTableRecord
  2
STANDARD
 70
     0
  3
 
  4
 
 41
3.0
 42
2.5
 43
10.0
 44
2.5
 46
1.25
 73
     0
 74
     0
140
3.0
141
-3.0
143
0.039
145
1.5
146
0.75
147
1.5
271
     2
272
     2
279
     2
340
BFC
  0
DIMSTYLE
105
C26
102
{ACAD_REACTORS
330
2DC6
330
2DD4
330
2DE2
330
2DEF
330
2DFC
330
2E09
330
2E16
102
}
330
BE1
100
AcDbSymbolTableRecord
100
AcDbDimStyleTableRecord
  2
SANDVIK_DIM
 70
     0
  3
 
  4
 
 40
0.0
 41
4.57
 42
0.0
 44
5.0
 73
     0
 74
     0
 77
     1
 78
     8
140
4.5
147
2.299999999999998
176
   256
177
   256
178
   256
271
     2
272
     2
279
     2
340
BFC
  0
ENDTAB
  0
TABLE
  2
BLOCK_RECORD
  5
BD8
330
0
100
AcDbSymbolTable
 70
     9
  0
BLOCK_RECORD
  5
BF7
330
BD8
100
AcDbSymbolTableRecord
100
AcDbBlockTableRecord
  2
*Model_Space
340
BFA
  0
BLOCK_RECORD
  5
BF3
330
BD8
100
AcDbSymbolTableRecord
100
AcDbBlockTableRecord
  2
*Paper_Space
340
BF6
  0
BLOCK_RECORD
  5
C28
330
BD8
100
AcDbSymbolTableRecord
100
AcDbBlockTableRecord
  2
$MODEL_SPACE
340
0
  0
BLOCK_RECORD
  5
C2A
330
BD8
100
AcDbSymbolTableRecord
100
AcDbBlockTableRecord
  2
$PAPER_SPACE
340
0
  0
BLOCK_RECORD
  5
2DC7
330
BD8
100
AcDbSymbolTableRecord
100
AcDbBlockTableRecord
  2
*D2
340
0
  0
BLOCK_RECORD
  5
2DD5
330
BD8
100
AcDbSymbolTableRecord
100
AcDbBlockTableRecord
  2
*D3
340
0
  0
BLOCK_RECORD
  5
2DE3
330
BD8
100
AcDbSymbolTableRecord
100
AcDbBlockTableRecord
  2
*D4
340
0
  0
BLOCK_RECORD
  5
2DF0
330
BD8
100
AcDbSymbolTableRecord
100
AcDbBlockTableRecord
  2
*D5
340
0
  0
BLOCK_RECORD
  5
2DFD
330
BD8
100
AcDbSymbolTableRecord
100
AcDbBlockTableRecord
  2
*D6
340
0
  0
BLOCK_RECORD
  5
2E0A
330
BD8
100
AcDbSymbolTableRecord
100
AcDbBlockTableRecord
  2
*D7
340
0
  0
BLOCK_RECORD
  5
2E17
330
BD8
100
AcDbSymbolTableRecord
100
AcDbBlockTableRecord
  2
*D8
340
0
  0
ENDTAB
  0
ENDSEC
  0
SECTION
  2
BLOCKS
  0
BLOCK
  5
BF8
330
BF7
100
AcDbEntity
  8
0
100
AcDbBlockBegin
  2
*Model_Space
 70
     0
 10
0.0
 20
0.0
 30
0.0
  3
*Model_Space
  1

  0
ENDBLK
  5
BF9
330
BF7
100
AcDbEntity
  8
0
100
AcDbBlockEnd
  0
BLOCK
  5
BF4
330
BF3
100
AcDbEntity
 67
     1
  8
0
100
AcDbBlockBegin
  2
*Paper_Space
 70
     0
 10
0.0
 20
0.0
 30
0.0
  3
*Paper_Space
  1

  0
ENDBLK
  5
BF5
330
BF3
100
AcDbEntity
 67
     1
  8
0
100
AcDbBlockEnd
  0
BLOCK
  5
C29
330
C28
100
AcDbEntity
  8
0
100
AcDbBlockBegin
  2
$MODEL_SPACE
 70
     0
 10
0.0
 20
0.0
 30
0.0
  3
$MODEL_SPACE
  1

  0
ENDBLK
  5
AEF
330
C28
100
AcDbEntity
  8
0
100
AcDbBlockEnd
  0
BLOCK
  5
C2B
330
C2A
100
AcDbEntity
  8
0
100
AcDbBlockBegin
  2
$PAPER_SPACE
 70
     0
 10
0.0
 20
0.0
 30
0.0
  3
$PAPER_SPACE
  1

  0
ENDBLK
  5
AEB
330
C2A
100
AcDbEntity
  8
0
100
AcDbBlockEnd
  0
BLOCK
  5
2DD2
330
2DC7
100
AcDbEntity
  8
0
100
AcDbBlockBegin
  2
*D2
 70
     1
 10
0.0
 20
0.0
 30
0.0
  3
*D2
  1

  0
LINE
  5
2E41
330
2DC7
100
AcDbEntity
  8
SK2
370
    -2
100
AcDbLine
 10
-35.35048199999999
 20
3.000000500000001
 30
0.0
 11
-47.35718465057639
 21
3.000000500000004
 31
0.0
  0
LINE
  5
2E42
330
2DC7
100
AcDbEntity
  8
SK2
370
    -2
100
AcDbLine
 10
-35.35048199999999
 20
-2.999713499999998
 30
0.0
 11
-47.35718465057639
 21
-2.999713499999995
 31
0.0
  0
LINE
  5
2E43
330
2DC7
100
AcDbEntity
  8
SK2
370
    -2
100
AcDbLine
 10
-42.35718465057639
 20
7.570000500000003
 30
0.0
 11
-42.35718465057639
 21
12.1400005
 31
0.0
  0
LINE
  5
2E44
330
2DC7
100
AcDbEntity
  8
SK2
370
    -2
100
AcDbLine
 10
-42.35718465057639
 20
-7.569713499999996
 30
0.0
 11
-42.35718465057639
 21
-12.1397135
 31
0.0
  0
MTEXT
  5
2E45
330
2DC7
100
AcDbEntity
  8
SK2
100
AcDbMText
 10
-42.2209226971554
 20
-18.24426459125169
 30
0.0
 40
3.0
 41
0.0
 71
     5
 72
     1
  1
\A1;%%C 6 
  7
SANDVIK_STYLE
 11
0.0000000000000001
 21
1.0
 31
0.0
 73
     1
 44
1.0
1001
ACAD
1000
MTEXTBEGIN
1070
    73
1070
     1
1070
    44
1040
1.0
1070
    74
1070
     0
1000
MTEXTEND
  0
SOLID
  5
2E46
330
2DC7
100
AcDbEntity
  8
SK2
100
AcDbTrace
 10
-43.11885131724308
 20
7.570000500000003
 30
0.0
 11
-41.59551798390974
 21
7.570000500000002
 31
0.0
 12
-42.35718465057639
 22
3.000000500000004
 32
0.0
 13
-42.35718465057639
 23
3.000000500000004
 33
0.0
  0
SOLID
  5
2E47
330
2DC7
100
AcDbEntity
  8
SK2
100
AcDbTrace
 10
-43.11885131724308
 20
-7.569713499999996
 30
0.0
 11
-41.59551798390974
 21
-7.569713499999997
 31
0.0
 12
-42.35718465057639
 22
-2.999713499999995
 32
0.0
 13
-42.35718465057639
 23
-2.999713499999995
 33
0.0
  0
POINT
  5
2E48
330
2DC7
100
AcDbEntity
  8
DEFPOINTS
 62
     0
100
AcDbPoint
 10
-35.35048199999999
 20
3.000000500000001
 30
0.0
  0
POINT
  5
2E49
330
2DC7
100
AcDbEntity
  8
DEFPOINTS
 62
     0
100
AcDbPoint
 10
-35.35048199999999
 20
-2.999713499999998
 30
0.0
  0
POINT
  5
2E4A
330
2DC7
100
AcDbEntity
  8
DEFPOINTS
 62
     0
100
AcDbPoint
 10
-42.35718465057639
 20
-2.999713499999995
 30
0.0
  0
ENDBLK
  5
2DD3
330
2DC7
100
AcDbEntity
  8
0
100
AcDbBlockEnd
  0
BLOCK
  5
2DE0
330
2DD5
100
AcDbEntity
  8
0
100
AcDbBlockBegin
  2
*D3
 70
     1
 10
0.0
 20
0.0
 30
0.0
  3
*D3
  1

  0
LINE
  5
2E4B
330
2DD5
100
AcDbEntity
  8
2
370
    -2
100
AcDbLine
 10
91.05456100000003
 20
2.777482499999995
 30
0.0
 11
101.5605118177365
 21
2.777482499999995
 31
0.0
  0
LINE
  5
2E4C
330
2DD5
100
AcDbEntity
  8
2
370
    -2
100
AcDbLine
 10
91.05456100000003
 20
-2.777482500000001
 30
0.0
 11
101.5605118177365
 21
-2.777482500000004
 31
0.0
  0
LINE
  5
2E4D
330
2DD5
100
AcDbEntity
  8
2
370
    -2
100
AcDbLine
 10
96.56051181773658
 20
7.347482499999996
 30
0.0
 11
96.56051181773658
 21
11.91748249999999
 31
0.0
  0
LINE
  5
2E4E
330
2DD5
100
AcDbEntity
  8
2
370
    -2
100
AcDbLine
 10
96.56051181773658
 20
-7.347482500000002
 30
0.0
 11
96.56051181773658
 21
-11.9174825
 31
0.0
  0
MTEXT
  5
2E4F
330
2DD5
100
AcDbEntity
  8
2
100
AcDbMText
 10
96.57786059936675
 20
-20.81718791663536
 30
0.0
 40
3.0
 41
0.0
 71
     5
 72
     1
  1
\A1;%%C 5.55 
  7
SANDVIK_STYLE
 11
0.0000000000000001
 21
1.0
 31
0.0
 73
     1
 44
1.0
1001
ACAD
1000
MTEXTBEGIN
1070
    73
1070
     1
1070
    44
1040
1.0
1070
    74
1070
     0
1000
MTEXTEND
  0
SOLID
  5
2E50
330
2DD5
100
AcDbEntity
  8
2
100
AcDbTrace
 10
95.79884515106993
 20
7.347482499999996
 30
0.0
 11
97.32217848440328
 21
7.347482499999996
 31
0.0
 12
96.56051181773658
 22
2.777482499999995
 32
0.0
 13
96.56051181773658
 23
2.777482499999995
 33
0.0
  0
SOLID
  5
2E51
330
2DD5
100
AcDbEntity
  8
2
100
AcDbTrace
 10
95.79884515106993
 20
-7.347482500000002
 30
0.0
 11
97.32217848440328
 21
-7.347482500000002
 31
0.0
 12
96.56051181773658
 22
-2.777482500000001
 32
0.0
 13
96.56051181773658
 23
-2.777482500000001
 33
0.0
  0
POINT
  5
2E52
330
2DD5
100
AcDbEntity
  8
DEFPOINTS
 62
     0
100
AcDbPoint
 10
91.05456100000003
 20
2.777482499999995
 30
0.0
  0
POINT
  5
2E53
330
2DD5
100
AcDbEntity
  8
DEFPOINTS
 62
     0
100
AcDbPoint
 10
91.05456100000003
 20
-2.777482500000001
 30
0.0
  0
POINT
  5
2E54
330
2DD5
100
AcDbEntity
  8
DEFPOINTS
 62
     0
100
AcDbPoint
 10
96.56051181773658
 20
-2.777482500000001
 30
0.0
  0
ENDBLK
  5
2DE1
330
2DD5
100
AcDbEntity
  8
0
100
AcDbBlockEnd
  0
BLOCK
  5
2DED
330
2DE3
100
AcDbEntity
  8
0
100
AcDbBlockBegin
  2
*D4
 70
     1
 10
0.0
 20
0.0
 30
0.0
  3
*D4
  1

  0
LINE
  5
2DE4
330
2DE3
100
AcDbEntity
  8
SK2
370
    -2
100
AcDbLine
 10
91.05456100000003
 20
2.777482499999995
 30
0.0
 11
91.05456100000003
 21
10.69513942026185
 31
0.0
  0
LINE
  5
2DE5
330
2DE3
100
AcDbEntity
  8
SK2
370
    -2
100
AcDbLine
 10
24.05456100000002
 20
2.777482500000008
 30
0.0
 11
24.05456100000002
 21
10.69513942026185
 31
0.0
  0
LINE
  5
2DE6
330
2DE3
100
AcDbEntity
  8
SK2
370
    -2
100
AcDbLine
 10
86.48456100000002
 20
5.695139420261853
 30
0.0
 11
28.62456100000002
 21
5.695139420261853
 31
0.0
  0
SOLID
  5
2DE7
330
2DE3
100
AcDbEntity
  8
SK2
100
AcDbTrace
 10
86.48456100000002
 20
6.456806086928517
 30
0.0
 11
86.48456100000002
 21
4.933472753595186
 31
0.0
 12
91.05456100000003
 22
5.695139420261853
 32
0.0
 13
91.05456100000003
 23
5.695139420261853
 33
0.0
  0
SOLID
  5
2DE8
330
2DE3
100
AcDbEntity
  8
SK2
100
AcDbTrace
 10
28.62456100000002
 20
6.456806086928517
 30
0.0
 11
28.62456100000002
 21
4.933472753595186
 31
0.0
 12
24.05456100000002
 22
5.695139420261853
 32
0.0
 13
24.05456100000002
 23
5.695139420261853
 33
0.0
  0
MTEXT
  5
2DE9
330
2DE3
100
AcDbEntity
  8
SK2
100
AcDbMText
 10
57.55456100000002
 20
9.495139420261851
 30
0.0
 40
3.0
 41
0.0
 71
     5
 72
     1
  1
\A1;67 
  7
SANDVIK_STYLE
 73
     1
 44
1.0
1001
ACAD
1000
MTEXTBEGIN
1070
    73
1070
     1
1070
    44
1040
1.0
1070
    74
1070
     0
1000
MTEXTEND
  0
POINT
  5
2DEA
330
2DE3
100
AcDbEntity
  8
DEFPOINTS
 62
     0
100
AcDbPoint
 10
91.05456100000003
 20
2.777482499999995
 30
0.0
  0
POINT
  5
2DEB
330
2DE3
100
AcDbEntity
  8
DEFPOINTS
 62
     0
100
AcDbPoint
 10
24.05456100000002
 20
2.777482500000008
 30
0.0
  0
POINT
  5
2DEC
330
2DE3
100
AcDbEntity
  8
DEFPOINTS
 62
     0
100
AcDbPoint
 10
24.05456100000002
 20
5.695139420261853
 30
0.0
  0
ENDBLK
  5
2DEE
330
2DE3
100
AcDbEntity
  8
0
100
AcDbBlockEnd
  0
BLOCK
  5
2DFA
330
2DF0
100
AcDbEntity
  8
0
100
AcDbBlockBegin
  2
*D5
 70
     1
 10
0.0
 20
0.0
 30
0.0
  3
*D5
  1

  0
LINE
  5
2E5E
330
2DF0
100
AcDbEntity
  8
2
370
    -2
100
AcDbLine
 10
91.99996099999999
 20
-0.0000005000000023
 30
0.0
 11
91.99996099999999
 21
-13.81957995325473
 31
0.0
  0
LINE
  5
2E5F
330
2DF0
100
AcDbEntity
  8
2
370
    -2
100
AcDbLine
 10
5.999960999999997
 20
-0.0000004999999918
 30
0.0
 11
5.999960999999997
 21
-13.81957995325473
 31
0.0
  0
LINE
  5
2E60
330
2DF0
100
AcDbEntity
  8
2
370
    -2
100
AcDbLine
 10
87.42996099999997
 20
-8.819579953254731
 30
0.0
 11
10.569961
 21
-8.819579953254731
 31
0.0
  0
SOLID
  5
2E61
330
2DF0
100
AcDbEntity
  8
2
100
AcDbTrace
 10
87.42996099999997
 20
-8.057913286588062
 30
0.0
 11
87.42996099999997
 21
-9.581246619921396
 31
0.0
 12
91.99996099999999
 22
-8.819579953254731
 32
0.0
 13
91.99996099999999
 23
-8.819579953254731
 33
0.0
  0
SOLID
  5
2E62
330
2DF0
100
AcDbEntity
  8
2
100
AcDbTrace
 10
10.569961
 20
-8.057913286588062
 30
0.0
 11
10.569961
 21
-9.581246619921396
 31
0.0
 12
5.999960999999997
 22
-8.819579953254731
 32
0.0
 13
5.999960999999997
 23
-8.819579953254731
 33
0.0
  0
MTEXT
  5
2E63
330
2DF0
100
AcDbEntity
  8
2
100
AcDbMText
 10
48.999961
 20
-5.019579953254731
 30
0.0
 40
3.0
 41
0.0
 71
     5
 72
     1
  1
\A1;86 
  7
SANDVIK_STYLE
 73
     1
 44
1.0
1001
ACAD
1000
MTEXTBEGIN
1070
    73
1070
     1
1070
    44
1040
1.0
1070
    74
1070
     0
1000
MTEXTEND
  0
POINT
  5
2E64
330
2DF0
100
AcDbEntity
  8
DEFPOINTS
 62
     0
100
AcDbPoint
 10
91.99996099999999
 20
-0.0000005000000023
 30
0.0
  0
POINT
  5
2E65
330
2DF0
100
AcDbEntity
  8
DEFPOINTS
 62
     0
100
AcDbPoint
 10
5.999960999999997
 20
-0.0000004999999918
 30
0.0
  0
POINT
  5
2E66
330
2DF0
100
AcDbEntity
  8
DEFPOINTS
 62
     0
100
AcDbPoint
 10
5.999960999999997
 20
-8.819579953254731
 30
0.0
  0
ENDBLK
  5
2DFB
330
2DF0
100
AcDbEntity
  8
0
100
AcDbBlockEnd
  0
BLOCK
  5
2E07
330
2DFD
100
AcDbEntity
  8
0
100
AcDbBlockBegin
  2
*D6
 70
     1
 10
0.0
 20
0.0
 30
0.0
  3
*D6
  1

  0
LINE
  5
2E55
330
2DFD
100
AcDbEntity
  8
2
370
    -2
100
AcDbLine
 10
91.99996099999999
 20
-0.0000005000000023
 30
0.0
 11
91.99996099999999
 21
-21.65776544393481
 31
0.0
  0
LINE
  5
2E56
330
2DFD
100
AcDbEntity
  8
2
370
    -2
100
AcDbLine
 10
0.0
 20
-3.000000500000001
 30
0.0
 11
-0.0000000000000011
 21
-21.65776544393481
 31
0.0
  0
LINE
  5
2E57
330
2DFD
100
AcDbEntity
  8
2
370
    -2
100
AcDbLine
 10
87.42996099999997
 20
-16.6577654439348
 30
0.0
 11
4.569999999999998
 21
-16.6577654439348
 31
0.0
  0
SOLID
  5
2E58
330
2DFD
100
AcDbEntity
  8
2
100
AcDbTrace
 10
87.42996099999997
 20
-15.89609877726814
 30
0.0
 11
87.42996099999997
 21
-17.41943211060147
 31
0.0
 12
91.99996099999999
 22
-16.6577654439348
 32
0.0
 13
91.99996099999999
 23
-16.6577654439348
 33
0.0
  0
SOLID
  5
2E59
330
2DFD
100
AcDbEntity
  8
2
100
AcDbTrace
 10
4.569999999999998
 20
-15.89609877726814
 30
0.0
 11
4.569999999999998
 21
-17.41943211060147
 31
0.0
 12
-0.0000000000000008
 22
-16.6577654439348
 32
0.0
 13
-0.0000000000000008
 23
-16.6577654439348
 33
0.0
  0
MTEXT
  5
2E5A
330
2DFD
100
AcDbEntity
  8
2
100
AcDbMText
 10
45.99998049999999
 20
-12.8577654439348
 30
0.0
 40
3.0
 41
0.0
 71
     5
 72
     1
  1
\A1;92 
  7
SANDVIK_STYLE
 73
     1
 44
1.0
1001
ACAD
1000
MTEXTBEGIN
1070
    73
1070
     1
1070
    44
1040
1.0
1070
    74
1070
     0
1000
MTEXTEND
  0
POINT
  5
2E5B
330
2DFD
100
AcDbEntity
  8
DEFPOINTS
 62
     0
100
AcDbPoint
 10
91.99996099999999
 20
-0.0000005000000023
 30
0.0
  0
POINT
  5
2E5C
330
2DFD
100
AcDbEntity
  8
DEFPOINTS
 62
     0
100
AcDbPoint
 10
0.0
 20
-3.000000500000001
 30
0.0
  0
POINT
  5
2E5D
330
2DFD
100
AcDbEntity
  8
DEFPOINTS
 62
     0
100
AcDbPoint
 10
-0.0000000000000008
 20
-16.6577654439348
 30
0.0
  0
ENDBLK
  5
2E08
330
2DFD
100
AcDbEntity
  8
0
100
AcDbBlockEnd
  0
BLOCK
  5
2E14
330
2E0A
100
AcDbEntity
  8
0
100
AcDbBlockBegin
  2
*D7
 70
     1
 10
0.0
 20
0.0
 30
0.0
  3
*D7
  1

  0
LINE
  5
2E0B
330
2E0A
100
AcDbEntity
  8
SK2
370
    -2
100
AcDbLine
 10
91.99996099999999
 20
-0.0000005000000023
 30
0.0
 11
91.99996099999999
 21
-28.99227926860078
 31
0.0
  0
LINE
  5
2E0C
330
2E0A
100
AcDbEntity
  8
SK2
370
    -2
100
AcDbLine
 10
-36.000004
 20
-2.624443499999999
 30
0.0
 11
-36.000004
 21
-28.99227926860078
 31
0.0
  0
LINE
  5
2E0D
330
2E0A
100
AcDbEntity
  8
SK2
370
    -2
100
AcDbLine
 10
87.42996099999997
 20
-23.99227926860078
 30
0.0
 11
-31.430004
 21
-23.99227926860078
 31
0.0
  0
SOLID
  5
2E0E
330
2E0A
100
AcDbEntity
  8
SK2
100
AcDbTrace
 10
87.42996099999997
 20
-23.23061260193412
 30
0.0
 11
87.42996099999997
 21
-24.75394593526745
 31
0.0
 12
91.99996099999999
 22
-23.99227926860078
 32
0.0
 13
91.99996099999999
 23
-23.99227926860078
 33
0.0
  0
SOLID
  5
2E0F
330
2E0A
100
AcDbEntity
  8
SK2
100
AcDbTrace
 10
-31.430004
 20
-23.23061260193412
 30
0.0
 11
-31.430004
 21
-24.75394593526745
 31
0.0
 12
-36.000004
 22
-23.99227926860078
 32
0.0
 13
-36.000004
 23
-23.99227926860078
 33
0.0
  0
MTEXT
  5
2E10
330
2E0A
100
AcDbEntity
  8
SK2
100
AcDbMText
 10
27.9999785
 20
-20.19227926860079
 30
0.0
 40
3.0
 41
0.0
 71
     5
 72
     1
  1
\A1;128 
  7
SANDVIK_STYLE
 73
     1
 44
1.0
1001
ACAD
1000
MTEXTBEGIN
1070
    73
1070
     1
1070
    44
1040
1.0
1070
    74
1070
     0
1000
MTEXTEND
  0
POINT
  5
2E11
330
2E0A
100
AcDbEntity
  8
DEFPOINTS
 62
     0
100
AcDbPoint
 10
91.99996099999999
 20
-0.0000005000000023
 30
0.0
  0
POINT
  5
2E12
330
2E0A
100
AcDbEntity
  8
DEFPOINTS
 62
     0
100
AcDbPoint
 10
-36.000004
 20
-2.624443499999999
 30
0.0
  0
POINT
  5
2E13
330
2E0A
100
AcDbEntity
  8
DEFPOINTS
 62
     0
100
AcDbPoint
 10
-36.000004
 20
-23.99227926860078
 30
0.0
  0
ENDBLK
  5
2E15
330
2E0A
100
AcDbEntity
  8
0
100
AcDbBlockEnd
  0
BLOCK
  5
2E21
330
2E17
100
AcDbEntity
  8
0
100
AcDbBlockBegin
  2
*D8
 70
     1
 10
0.0
 20
0.0
 30
0.0
  3
*D8
  1

  0
LINE
  5
2E18
330
2E17
100
AcDbEntity
  8
SK2
370
    -2
100
AcDbLine
 10
-36.000004
 20
-2.624443499999999
 30
0.0
 11
-36.000004
 21
-21.65776544393481
 31
0.0
  0
LINE
  5
2E19
330
2E17
100
AcDbEntity
  8
SK2
370
    -2
100
AcDbLine
 10
0.0
 20
-3.000000500000001
 30
0.0
 11
-0.0000000000000011
 21
-21.65776544393481
 31
0.0
  0
LINE
  5
2E1A
330
2E17
100
AcDbEntity
  8
SK2
370
    -2
100
AcDbLine
 10
-31.430004
 20
-16.6577654439348
 30
0.0
 11
-4.570000000000001
 21
-16.6577654439348
 31
0.0
  0
SOLID
  5
2E1B
330
2E17
100
AcDbEntity
  8
SK2
100
AcDbTrace
 10
-31.430004
 20
-15.89609877726814
 30
0.0
 11
-31.430004
 21
-17.41943211060147
 31
0.0
 12
-36.000004
 22
-16.6577654439348
 32
0.0
 13
-36.000004
 23
-16.6577654439348
 33
0.0
  0
SOLID
  5
2E1C
330
2E17
100
AcDbEntity
  8
SK2
100
AcDbTrace
 10
-4.570000000000001
 20
-15.89609877726814
 30
0.0
 11
-4.570000000000001
 21
-17.41943211060147
 31
0.0
 12
-0.0000000000000008
 22
-16.6577654439348
 32
0.0
 13
-0.0000000000000008
 23
-16.6577654439348
 33
0.0
  0
MTEXT
  5
2E1D
330
2E17
100
AcDbEntity
  8
SK2
100
AcDbMText
 10
-18.000002
 20
-12.8577654439348
 30
0.0
 40
3.0
 41
0.0
 71
     5
 72
     1
  1
\A1;36 
  7
SANDVIK_STYLE
 73
     1
 44
1.0
1001
ACAD
1000
MTEXTBEGIN
1070
    73
1070
     1
1070
    44
1040
1.0
1070
    74
1070
     0
1000
MTEXTEND
  0
POINT
  5
2E1E
330
2E17
100
AcDbEntity
  8
DEFPOINTS
 62
     0
100
AcDbPoint
 10
-36.000004
 20
-2.624443499999999
 30
0.0
  0
POINT
  5
2E1F
330
2E17
100
AcDbEntity
  8
DEFPOINTS
 62
     0
100
AcDbPoint
 10
0.0
 20
-3.000000500000001
 30
0.0
  0
POINT
  5
2E20
330
2E17
100
AcDbEntity
  8
DEFPOINTS
 62
     0
100
AcDbPoint
 10
-0.0000000000000008
 20
-16.6577654439348
 30
0.0
  0
ENDBLK
  5
2E22
330
2E17
100
AcDbEntity
  8
0
100
AcDbBlockEnd
  0
ENDSEC
  0
SECTION
  2
ENTITIES
  0
TEXT
  5
62
330
BF7
100
AcDbEntity
  8
SK6
100
AcDbText
 10
-18.5
 20
25.0
 30
0.0
 40
3.0
  1
861.1-0556-067A1-GM
 41
0.7540842026666671
  7
SANDVIK_STYLE
 72
     5
 11
21.897368
 21
25.0
 31
0.0
100
AcDbText
  0
LINE
  5
2BC6
330
BF7
100
AcDbEntity
  8
SK1
100
AcDbLine
 10
0.0
 20
3.000000500000001
 30
0.0
 11
0.0
 21
-3.000000500000001
 31
0.0
  0
ARC
  5
2BC7
330
BF7
100
AcDbEntity
  8
1
100
AcDbCircle
 10
0.1219950000000125
 20
2.899997499999996
 30
0.0
 40
0.1219999953476991
100
AcDbArc
 50
180.0
 51
270.0
  0
ARC
  5
2BC8
330
BF7
100
AcDbEntity
  8
1
100
AcDbCircle
 10
0.1219950000000125
 20
-2.900000499999998
 30
0.0
 40
0.1219999953476991
100
AcDbArc
 50
90.0
 51
180.0
  0
LINE
  5
2BC9
330
BF7
100
AcDbEntity
  8
1
100
AcDbLine
 10
8.719695000000013
 20
-2.211567500000001
 30
0.0
 11
8.719695000000013
 21
-2.494631499999999
 31
0.0
  0
LINE
  5
2BCA
330
BF7
100
AcDbEntity
  8
1
100
AcDbLine
 10
16.869392
 20
0.7182784999999968
 30
0.0
 11
15.71687000000001
 21
1.263309499999998
 31
0.0
  0
LINE
  5
2BCB
330
BF7
100
AcDbEntity
  8
1
100
AcDbLine
 10
19.1537
 20
-0.4186075000000005
 30
0.0
 11
16.869392
 21
0.7182784999999968
 31
0.0
  0
LINE
  5
2BCC
330
BF7
100
AcDbEntity
  8
1
100
AcDbLine
 10
20.94269500000002
 20
-1.272285499999997
 30
0.0
 11
19.1537
 21
-0.4186075000000005
 31
0.0
  0
LINE
  5
2BCD
330
BF7
100
AcDbEntity
  8
1
100
AcDbLine
 10
22.73169700000001
 20
-1.9770965
 30
0.0
 11
20.94269500000002
 21
-1.272285499999997
 31
0.0
  0
LINE
  5
2BCE
330
BF7
100
AcDbEntity
  8
1
100
AcDbLine
 10
24.52069900000001
 20
-2.450582499999998
 30
0.0
 11
22.73169700000001
 21
-1.9770965
 31
0.0
  0
LINE
  5
2BCF
330
BF7
100
AcDbEntity
  8
1
100
AcDbLine
 10
26.30969500000001
 20
-2.637332499999998
 30
0.0
 11
24.52069900000001
 21
-2.450582499999998
 31
0.0
  0
LINE
  5
2BD0
330
BF7
100
AcDbEntity
  8
1
100
AcDbLine
 10
26.501301
 20
-2.624284499999999
 30
0.0
 11
26.30969500000001
 21
-2.637332499999998
 31
0.0
  0
LINE
  5
2BD1
330
BF7
100
AcDbEntity
  8
1
100
AcDbLine
 10
48.515431
 20
1.206896499999998
 30
0.0
 11
47.90238700000002
 21
1.485167499999999
 31
0.0
  0
LINE
  5
2BD2
330
BF7
100
AcDbEntity
  8
1
100
AcDbLine
 10
51.3557
 20
-0.1677384999999987
 30
0.0
 11
48.515431
 21
1.206896499999998
 31
0.0
  0
LINE
  5
2BD3
330
BF7
100
AcDbEntity
  8
1
100
AcDbLine
 10
53.14469000000001
 20
-1.045552500000002
 30
0.0
 11
51.3557
 21
-0.1677384999999987
 31
0.0
  0
LINE
  5
2BD4
330
BF7
100
AcDbEntity
  8
1
100
AcDbLine
 10
54.933692
 20
-1.8010355
 30
0.0
 11
53.14469000000001
 21
-1.045552500000002
 31
0.0
  0
LINE
  5
2BD5
330
BF7
100
AcDbEntity
  8
1
100
AcDbLine
 10
56.72269400000001
 20
-2.3457805
 30
0.0
 11
54.933692
 21
-1.8010355
 31
0.0
  0
LINE
  5
2BD6
330
BF7
100
AcDbEntity
  8
1
100
AcDbLine
 10
58.51169499999999
 20
-2.616074499999998
 30
0.0
 11
56.72269400000001
 21
-2.3457805
 31
0.0
  0
LINE
  5
2BD7
330
BF7
100
AcDbEntity
  8
1
100
AcDbLine
 10
59.24178600000001
 20
-2.601454499999999
 30
0.0
 11
58.51169499999999
 21
-2.616074499999998
 31
0.0
  0
LINE
  5
2BD8
330
BF7
100
AcDbEntity
  8
1
100
AcDbLine
 10
81.76869299999998
 20
0.9686834999999971
 30
0.0
 11
80.80547700000002
 21
1.383617499999999
 31
0.0
  0
LINE
  5
2BD9
330
BF7
100
AcDbEntity
  8
1
100
AcDbLine
 10
81.85862300000001
 20
0.9242434999999991
 30
0.0
 11
81.76869299999998
 21
0.9686834999999971
 31
0.0
  0
LINE
  5
2BDA
330
BF7
100
AcDbEntity
  8
1
100
AcDbLine
 10
85.42330300000001
 20
-0.8461425000000025
 30
0.0
 11
81.85862300000001
 21
0.9242434999999991
 31
0.0
  0
LINE
  5
2BDB
330
BF7
100
AcDbEntity
  8
1
100
AcDbLine
 10
87.288899
 20
-1.6693755
 30
0.0
 11
85.42330300000001
 21
-0.8461425000000025
 31
0.0
  0
LINE
  5
2BDC
330
BF7
100
AcDbEntity
  8
1
100
AcDbLine
 10
89.15450699999999
 20
-2.280390500000001
 30
0.0
 11
87.288899
 21
-1.6693755
 31
0.0
  0
LINE
  5
2BDD
330
BF7
100
AcDbEntity
  8
1
100
AcDbLine
 10
91.02011500000001
 20
-2.601489499999999
 30
0.0
 11
89.15450699999999
 21
-2.280390500000001
 31
0.0
  0
LINE
  5
2BDE
330
BF7
100
AcDbEntity
  8
1
100
AcDbLine
 10
14.977247
 20
-2.494631499999999
 30
0.0
 11
8.719695000000013
 21
-2.494631499999999
 31
0.0
  0
LINE
  5
2BDF
330
BF7
100
AcDbEntity
  8
1
100
AcDbLine
 10
10.50869700000001
 20
-2.638918500000002
 30
0.0
 11
8.719695000000013
 21
-2.494631499999999
 31
0.0
  0
LINE
  5
2BE0
330
BF7
100
AcDbEntity
  8
1
100
AcDbLine
 10
11.11228200000001
 20
-2.5834325
 30
0.0
 11
10.50869700000001
 21
-2.638918500000002
 31
0.0
  0
LINE
  5
2BE1
330
BF7
100
AcDbEntity
  8
1
100
AcDbLine
 10
33.76570100000001
 20
0.6075714999999989
 30
0.0
 11
30.35579600000001
 21
2.037162499999999
 31
0.0
  0
LINE
  5
2BE2
330
BF7
100
AcDbEntity
  8
1
100
AcDbLine
 10
35.55469100000003
 20
-0.2935085000000015
 30
0.0
 11
33.76570100000001
 21
0.6075714999999989
 31
0.0
  0
LINE
  5
2BE3
330
BF7
100
AcDbEntity
  8
1
100
AcDbLine
 10
37.343693
 20
-1.1602405
 30
0.0
 11
35.55469100000003
 21
-0.2935085000000015
 31
0.0
  0
LINE
  5
2BE4
330
BF7
100
AcDbEntity
  8
1
100
AcDbLine
 10
39.132694
 20
-1.891231500000003
 30
0.0
 11
37.343693
 21
-1.1602405
 31
0.0
  0
LINE
  5
2BE5
330
BF7
100
AcDbEntity
  8
1
100
AcDbLine
 10
40.921696
 20
-2.400929499999999
 30
0.0
 11
39.132694
 21
-1.891231500000003
 31
0.0
  0
LINE
  5
2BE6
330
BF7
100
AcDbEntity
  8
1
100
AcDbLine
 10
42.71069799999999
 20
-2.629710499999999
 30
0.0
 11
40.921696
 21
-2.400929499999999
 31
0.0
  0
LINE
  5
2BE7
330
BF7
100
AcDbEntity
  8
1
100
AcDbLine
 10
43.18779999999999
 20
-2.6086685
 30
0.0
 11
42.71069799999999
 21
-2.629710499999999
 31
0.0
  0
LINE
  5
2BE8
330
BF7
100
AcDbEntity
  8
1
100
AcDbLine
 10
65.96769599999999
 20
0.8501654999999992
 30
0.0
 11
62.74116100000002
 21
2.124645499999995
 31
0.0
  0
LINE
  5
2BE9
330
BF7
100
AcDbEntity
  8
1
100
AcDbLine
 10
67.75669800000001
 20
-0.0415835000000016
 30
0.0
 11
65.96769599999999
 21
0.8501654999999992
 31
0.0
  0
LINE
  5
2BEA
330
BF7
100
AcDbEntity
  8
1
100
AcDbLine
 10
69.545699
 20
-0.9284684999999972
 30
0.0
 11
67.75669800000001
 21
-0.0415835000000016
 31
0.0
  0
LINE
  5
2BEB
330
BF7
100
AcDbEntity
  8
1
100
AcDbLine
 10
71.33470100000002
 20
-1.706715499999999
 30
0.0
 11
69.545699
 21
-0.9284684999999972
 31
0.0
  0
LINE
  5
2BEC
330
BF7
100
AcDbEntity
  8
1
100
AcDbLine
 10
73.12369100000002
 20
-2.285267499999998
 30
0.0
 11
71.33470100000002
 21
-1.706715499999999
 31
0.0
  0
LINE
  5
2BED
330
BF7
100
AcDbEntity
  8
1
100
AcDbLine
 10
74.91269200000002
 20
-2.596437499999999
 30
0.0
 11
73.12369100000002
 21
-2.285267499999998
 31
0.0
  0
LINE
  5
2BEE
330
BF7
100
AcDbEntity
  8
1
100
AcDbLine
 10
75.90100400000001
 20
-2.600506499999999
 30
0.0
 11
74.91269200000002
 21
-2.596437499999999
 31
0.0
  0
LINE
  5
2BEF
330
BF7
100
AcDbEntity
  8
1
100
AcDbLine
 10
8.533350999999996
 20
-2.528681499999999
 30
0.0
 11
8.373853000000011
 21
-2.625927500000003
 31
0.0
  0
LINE
  5
2BF0
330
BF7
100
AcDbEntity
  8
1
100
AcDbLine
 10
8.719695000000013
 20
-2.494631499999999
 30
0.0
 11
8.533350999999996
 21
-2.528681499999999
 31
0.0
  0
LINE
  5
2BF1
330
BF7
100
AcDbEntity
  8
SK1
100
AcDbLine
 10
-35.370291
 20
2.642845499999995
 30
0.0
 11
-35.35048199999999
 21
2.654243499999999
 31
0.0
  0
LINE
  5
2BF2
330
BF7
100
AcDbEntity
  8
SK1
100
AcDbLine
 10
-36.000004
 20
2.2789755
 30
0.0
 11
-35.370291
 21
2.642845499999995
 31
0.0
  0
LINE
  5
2BF3
330
BF7
100
AcDbEntity
  8
SK1
100
AcDbLine
 10
-35.35048199999999
 20
-2.999713499999998
 30
0.0
 11
-36.000004
 21
-2.624443499999999
 31
0.0
  0
LINE
  5
2BF4
330
BF7
100
AcDbEntity
  8
1
100
AcDbLine
 10
91.97048100000001
 20
0.132382499999995
 30
0.0
 11
91.06703600000001
 21
0.8758384999999966
 31
0.0
  0
LINE
  5
2BF5
330
BF7
100
AcDbEntity
  8
1
100
AcDbLine
 10
10.14266400000001
 20
0.6310654999999983
 30
0.0
 11
13.510549
 21
-1.425331500000002
 31
0.0
  0
LINE
  5
2BF6
330
BF7
100
AcDbEntity
  8
1
100
AcDbLine
 10
6.776270000000008
 20
2.723243500000001
 30
0.0
 11
10.14266400000001
 21
0.6310654999999983
 31
0.0
  0
LINE
  5
2BF7
330
BF7
100
AcDbEntity
  8
1
100
AcDbLine
 10
90.97082099999999
 20
0.822886499999999
 30
0.0
 11
90.96779299999999
 21
0.8006774999999988
 31
0.0
  0
LINE
  5
2BF8
330
BF7
100
AcDbEntity
  8
1
100
AcDbLine
 10
90.98174499999997
 20
0.8426924999999981
 30
0.0
 11
90.97082099999999
 21
0.822886499999999
 31
0.0
  0
LINE
  5
2BF9
330
BF7
100
AcDbEntity
  8
1
100
AcDbLine
 10
90.99931899999999
 20
0.8582225000000001
 30
0.0
 11
90.98174499999997
 21
0.8426924999999981
 31
0.0
  0
LINE
  5
2BFA
330
BF7
100
AcDbEntity
  8
1
100
AcDbLine
 10
91.025468
 20
0.8700675000000011
 30
0.0
 11
90.99931899999999
 21
0.8582225000000001
 31
0.0
  0
LINE
  5
2BFB
330
BF7
100
AcDbEntity
  8
1
100
AcDbLine
 10
91.06703600000001
 20
0.8758384999999966
 30
0.0
 11
91.025468
 21
0.8700675000000011
 31
0.0
  0
LINE
  5
2BFC
330
BF7
100
AcDbEntity
  8
1
100
AcDbLine
 10
89.14387299999999
 20
0.640439499999996
 30
0.0
 11
90.967417
 21
0.4329154999999967
 31
0.0
  0
LINE
  5
2BFD
330
BF7
100
AcDbEntity
  8
1
100
AcDbLine
 10
64.25607599999999
 20
-0.5182925000000047
 30
0.0
 11
67.99193000000001
 21
-0.8269005000000007
 31
0.0
  0
LINE
  5
2BFE
330
BF7
100
AcDbEntity
  8
1
100
AcDbLine
 10
61.444462
 20
-0.0815884999999988
 30
0.0
 11
64.25607599999999
 21
-0.5182925000000047
 31
0.0
  0
LINE
  5
2BFF
330
BF7
100
AcDbEntity
  8
1
100
AcDbLine
 10
58.63276300000002
 20
0.378479500000001
 30
0.0
 11
61.444462
 21
-0.0815884999999988
 31
0.0
  0
LINE
  5
2C00
330
BF7
100
AcDbEntity
  8
1
100
AcDbLine
 10
56.40859000000002
 20
0.6571235000000009
 30
0.0
 11
58.63276300000002
 21
0.378479500000001
 31
0.0
  0
LINE
  5
2C01
330
BF7
100
AcDbEntity
  8
1
100
AcDbLine
 10
30.628102
 20
-0.3849425000000046
 30
0.0
 11
35.331231
 21
-0.8317455000000002
 31
0.0
  0
LINE
  5
2C02
330
BF7
100
AcDbEntity
  8
1
100
AcDbLine
 10
27.87263800000001
 20
0.0649055000000018
 30
0.0
 11
30.628102
 21
-0.3849425000000046
 31
0.0
  0
LINE
  5
2C03
330
BF7
100
AcDbEntity
  8
1
100
AcDbLine
 10
25.11698000000001
 20
0.497128499999999
 30
0.0
 11
27.87263800000001
 21
0.0649055000000018
 31
0.0
  0
LINE
  5
2C04
330
BF7
100
AcDbEntity
  8
1
100
AcDbLine
 10
23.675638
 20
0.6510134999999977
 30
0.0
 11
25.11698000000001
 21
0.497128499999999
 31
0.0
  0
LINE
  5
2C05
330
BF7
100
AcDbEntity
  8
1
100
AcDbLine
 10
91.81718399999999
 20
0.8820914999999978
 30
0.0
 11
91.06703600000001
 21
0.8758384999999966
 31
0.0
  0
LINE
  5
2C06
330
BF7
100
AcDbEntity
  8
1
100
AcDbLine
 10
11.089978
 20
0.1363464999999984
 30
0.0
 11
13.510549
 21
-1.425331500000002
 31
0.0
  0
LINE
  5
2C07
330
BF7
100
AcDbEntity
  8
1
100
AcDbLine
 10
78.595849
 20
-0.2143134999999994
 30
0.0
 11
84.39715500000001
 21
-0.840934500000003
 31
0.0
  0
LINE
  5
2C08
330
BF7
100
AcDbEntity
  8
1
100
AcDbLine
 10
75.50262700000001
 20
0.2978094999999996
 30
0.0
 11
78.595849
 21
-0.2143134999999994
 31
0.0
  0
LINE
  5
2C09
330
BF7
100
AcDbEntity
  8
1
100
AcDbLine
 10
72.753304
 20
0.6705435000000009
 30
0.0
 11
75.50262700000001
 21
0.2978094999999996
 31
0.0
  0
LINE
  5
2C0A
330
BF7
100
AcDbEntity
  8
1
100
AcDbLine
 10
47.38563
 20
-0.4452925000000043
 30
0.0
 11
51.66344599999999
 21
-0.8244475000000015
 31
0.0
  0
LINE
  5
2C0B
330
BF7
100
AcDbEntity
  8
1
100
AcDbLine
 10
44.57421
 20
0.0058244999999992
 30
0.0
 11
47.38563
 21
-0.4452925000000043
 31
0.0
  0
LINE
  5
2C0C
330
BF7
100
AcDbEntity
  8
1
100
AcDbLine
 10
41.76251200000002
 20
0.4553735000000004
 30
0.0
 11
44.57421
 21
0.0058244999999992
 31
0.0
  0
LINE
  5
2C0D
330
BF7
100
AcDbEntity
  8
1
100
AcDbLine
 10
40.07761000000001
 20
0.6470644999999955
 30
0.0
 11
41.76251200000002
 21
0.4553735000000004
 31
0.0
  0
LINE
  5
2C0E
330
BF7
100
AcDbEntity
  8
1
100
AcDbLine
 10
13.89479100000001
 20
-0.3260345000000022
 30
0.0
 11
18.94797100000001
 21
-0.8357355000000017
 31
0.0
  0
LINE
  5
2C0F
330
BF7
100
AcDbEntity
  8
1
100
AcDbLine
 10
11.089978
 20
0.1363464999999984
 30
0.0
 11
13.89479100000001
 21
-0.3260345000000022
 31
0.0
  0
LINE
  5
2C10
330
BF7
100
AcDbEntity
  8
1
100
AcDbLine
 10
11.395713
 20
0.4049644999999984
 30
0.0
 11
11.089978
 21
0.1363464999999984
 31
0.0
  0
LINE
  5
2C11
330
BF7
100
AcDbEntity
  8
1
100
AcDbLine
 10
11.659602
 20
0.6380904999999971
 30
0.0
 11
11.395713
 21
0.4049644999999984
 31
0.0
  0
LINE
  5
2C12
330
BF7
100
AcDbEntity
  8
1
100
AcDbLine
 10
11.927052
 20
0.8697584999999961
 30
0.0
 11
11.659602
 21
0.6380904999999971
 31
0.0
  0
LINE
  5
2C13
330
BF7
100
AcDbEntity
  8
1
100
AcDbLine
 10
12.23508100000001
 20
1.122066499999998
 30
0.0
 11
11.927052
 21
0.8697584999999961
 31
0.0
  0
LINE
  5
2C14
330
BF7
100
AcDbEntity
  8
1
100
AcDbLine
 10
12.510767
 20
1.326317499999998
 30
0.0
 11
12.23508100000001
 21
1.122066499999998
 31
0.0
  0
LINE
  5
2C15
330
BF7
100
AcDbEntity
  8
1
100
AcDbLine
 10
12.75644
 20
1.483148499999996
 30
0.0
 11
12.510767
 21
1.326317499999998
 31
0.0
  0
LINE
  5
2C16
330
BF7
100
AcDbEntity
  8
1
100
AcDbLine
 10
12.973566
 20
1.595589499999995
 30
0.0
 11
12.75644
 21
1.483148499999996
 31
0.0
  0
LINE
  5
2C17
330
BF7
100
AcDbEntity
  8
1
100
AcDbLine
 10
13.17987000000001
 20
1.676226499999994
 30
0.0
 11
12.973566
 21
1.595589499999995
 31
0.0
  0
LINE
  5
2C18
330
BF7
100
AcDbEntity
  8
1
100
AcDbLine
 10
13.399781
 20
1.731567499999998
 30
0.0
 11
13.17987000000001
 21
1.676226499999994
 31
0.0
  0
LINE
  5
2C19
330
BF7
100
AcDbEntity
  8
1
100
AcDbLine
 10
13.617519
 20
1.755297499999995
 30
0.0
 11
13.399781
 21
1.731567499999998
 31
0.0
  0
LINE
  5
2C1A
330
BF7
100
AcDbEntity
  8
1
100
AcDbLine
 10
13.83132
 20
1.750407499999995
 30
0.0
 11
13.617519
 21
1.755297499999995
 31
0.0
  0
LINE
  5
2C1B
330
BF7
100
AcDbEntity
  8
SK1
100
AcDbLine
 10
-36.000004
 20
1.813063499999993
 30
0.0
 11
-36.000004
 21
2.2789755
 31
0.0
  0
LINE
  5
2C1C
330
BF7
100
AcDbEntity
  8
SK1
100
AcDbLine
 10
-36.000004
 20
1.196692500000001
 30
0.0
 11
-36.000004
 21
1.813063499999993
 31
0.0
  0
LINE
  5
2C1D
330
BF7
100
AcDbEntity
  8
SK1
100
AcDbLine
 10
-36.000004
 20
0.4810074999999971
 30
0.0
 11
-36.000004
 21
1.196692500000001
 31
0.0
  0
LINE
  5
2C1E
330
BF7
100
AcDbEntity
  8
SK1
100
AcDbLine
 10
-36.000004
 20
-0.2745934999999982
 30
0.0
 11
-36.000004
 21
0.4810074999999971
 31
0.0
  0
LINE
  5
2C1F
330
BF7
100
AcDbEntity
  8
SK1
100
AcDbLine
 10
-36.000004
 20
-1.007403500000002
 30
0.0
 11
-36.000004
 21
-0.2745934999999982
 31
0.0
  0
LINE
  5
2C20
330
BF7
100
AcDbEntity
  8
SK1
100
AcDbLine
 10
-36.000004
 20
-1.6566165
 30
0.0
 11
-36.000004
 21
-1.007403500000002
 31
0.0
  0
LINE
  5
2C21
330
BF7
100
AcDbEntity
  8
SK1
100
AcDbLine
 10
-36.000004
 20
-2.1683485
 30
0.0
 11
-36.000004
 21
-1.6566165
 31
0.0
  0
LINE
  5
2C22
330
BF7
100
AcDbEntity
  8
SK1
100
AcDbLine
 10
-36.000004
 20
-2.500135499999998
 30
0.0
 11
-36.000004
 21
-2.1683485
 31
0.0
  0
LINE
  5
2C23
330
BF7
100
AcDbEntity
  8
SK1
100
AcDbLine
 10
-36.000004
 20
-2.624443499999999
 30
0.0
 11
-36.000004
 21
-2.500135499999998
 31
0.0
  0
LINE
  5
2C24
330
BF7
100
AcDbEntity
  8
SK1
100
AcDbLine
 10
-35.35048199999999
 20
-2.904329499999997
 30
0.0
 11
-35.35048199999999
 21
-2.999713499999998
 31
0.0
  0
LINE
  5
2C25
330
BF7
100
AcDbEntity
  8
SK1
100
AcDbLine
 10
-35.35048199999999
 20
-2.603036499999999
 30
0.0
 11
-35.35048199999999
 21
-2.904329499999997
 31
0.0
  0
LINE
  5
2C26
330
BF7
100
AcDbEntity
  8
SK1
100
AcDbLine
 10
-35.35048199999999
 20
-2.1171955
 30
0.0
 11
-35.35048199999999
 21
-2.603036499999999
 31
0.0
  0
LINE
  5
2C27
330
BF7
100
AcDbEntity
  8
SK1
100
AcDbLine
 10
-35.35048199999999
 20
-1.481251499999999
 30
0.0
 11
-35.35048199999999
 21
-2.1171955
 31
0.0
  0
LINE
  5
2C28
330
BF7
100
AcDbEntity
  8
SK1
100
AcDbLine
 10
-35.35048199999999
 20
-0.7402894999999994
 30
0.0
 11
-35.35048199999999
 21
-1.481251499999999
 31
0.0
  0
LINE
  5
2C29
330
BF7
100
AcDbEntity
  8
SK1
100
AcDbLine
 10
-35.35048199999999
 20
0.0531574999999975
 30
0.0
 11
-35.35048199999999
 21
-0.7402894999999994
 31
0.0
  0
LINE
  5
2C2A
330
BF7
100
AcDbEntity
  8
SK1
100
AcDbLine
 10
-35.35048199999999
 20
0.8428344999999984
 30
0.0
 11
-35.35048199999999
 21
0.0531574999999975
 31
0.0
  0
LINE
  5
2C2B
330
BF7
100
AcDbEntity
  8
SK1
100
AcDbLine
 10
-35.35048199999999
 20
1.5727565
 30
0.0
 11
-35.35048199999999
 21
0.8428344999999984
 31
0.0
  0
LINE
  5
2C2C
330
BF7
100
AcDbEntity
  8
SK1
100
AcDbLine
 10
-35.35048199999999
 20
2.191174499999998
 30
0.0
 11
-35.35048199999999
 21
1.5727565
 31
0.0
  0
LINE
  5
2C2D
330
BF7
100
AcDbEntity
  8
SK1
100
AcDbLine
 10
-35.35048199999999
 20
2.654243499999999
 30
0.0
 11
-35.35048199999999
 21
2.191174499999998
 31
0.0
  0
LINE
  5
2C2E
330
BF7
100
AcDbEntity
  8
SK1
100
AcDbLine
 10
-35.35048199999999
 20
2.999713499999995
 30
0.0
 11
-36.000004
 21
2.624442499999998
 31
0.0
  0
LINE
  5
2C2F
330
BF7
100
AcDbEntity
  8
SK1
100
AcDbLine
 10
-36.000004
 20
2.624442499999998
 30
0.0
 11
-36.000004
 21
2.2789055
 31
0.0
  0
LINE
  5
2C30
330
BF7
100
AcDbEntity
  8
1
100
AcDbLine
 10
90.36794999999999
 20
0.1179604999999988
 30
0.0
 11
89.88669299999996
 21
0.3139484999999986
 31
0.0
  0
LINE
  5
2C31
330
BF7
100
AcDbEntity
  8
1
100
AcDbLine
 10
90.66709600000001
 20
0.1012344999999968
 30
0.0
 11
90.36794999999999
 21
0.1179604999999988
 31
0.0
  0
LINE
  5
2C32
330
BF7
100
AcDbEntity
  8
1
100
AcDbLine
 10
90.833075
 20
0.1679424999999988
 30
0.0
 11
90.66709600000001
 21
0.1012344999999968
 31
0.0
  0
LINE
  5
2C33
330
BF7
100
AcDbEntity
  8
1
100
AcDbLine
 10
90.92508700000001
 20
0.2767935000000001
 30
0.0
 11
90.833075
 21
0.1679424999999988
 31
0.0
  0
LINE
  5
2C34
330
BF7
100
AcDbEntity
  8
1
100
AcDbLine
 10
90.967417
 20
0.4329154999999967
 30
0.0
 11
90.92508700000001
 21
0.2767935000000001
 31
0.0
  0
LINE
  5
2C35
330
BF7
100
AcDbEntity
  8
1
100
AcDbLine
 10
90.96779299999999
 20
0.8006774999999988
 30
0.0
 11
90.967417
 21
0.4329154999999967
 31
0.0
  0
LINE
  5
2C36
330
BF7
100
AcDbEntity
  8
1
100
AcDbLine
 10
91.97489
 20
-0.028072500000004
 30
0.0
 11
90.96779299999999
 21
0.8006774999999988
 31
0.0
  0
LINE
  5
2C37
330
BF7
100
AcDbEntity
  8
1
100
AcDbLine
 10
89.83886500000002
 20
-0.8279605000000032
 30
0.0
 11
90.60852399999999
 21
-1.5255165
 31
0.0
  0
LINE
  5
2C38
330
BF7
100
AcDbEntity
  8
1
100
AcDbLine
 10
89.23620000000004
 20
-0.0163814999999978
 30
0.0
 11
89.83886500000002
 21
-0.8279605000000032
 31
0.0
  0
LINE
  5
2C39
330
BF7
100
AcDbEntity
  8
1
100
AcDbLine
 10
88.96261
 20
0.5875485000000005
 30
0.0
 11
89.23620000000004
 21
-0.0163814999999978
 31
0.0
  0
LINE
  5
2C3A
330
BF7
100
AcDbEntity
  8
1
100
AcDbLine
 10
88.935565
 20
0.6752915000000002
 30
0.0
 11
88.96261
 21
0.5875485000000005
 31
0.0
  0
LINE
  5
2C3B
330
BF7
100
AcDbEntity
  8
1
100
AcDbLine
 10
91.999113
 20
0.0210675000000009
 30
0.0
 11
91.97048100000001
 21
0.132382499999995
 31
0.0
  0
LINE
  5
2C3C
330
BF7
100
AcDbEntity
  8
1
100
AcDbLine
 10
91.97048100000001
 20
0.132382499999995
 30
0.0
 11
91.81718399999999
 21
0.8820914999999978
 31
0.0
  0
LINE
  5
2C3D
330
BF7
100
AcDbEntity
  8
1
100
AcDbLine
 10
91.29174299999998
 20
2.180343499999999
 30
0.0
 11
91.05456100000003
 21
2.777482499999995
 31
0.0
  0
LINE
  5
2C3E
330
BF7
100
AcDbEntity
  8
1
100
AcDbLine
 10
91.55031500000005
 20
1.538946499999995
 30
0.0
 11
91.29174299999998
 21
2.180343499999999
 31
0.0
  0
LINE
  5
2C3F
330
BF7
100
AcDbEntity
  8
1
100
AcDbLine
 10
91.81718399999999
 20
0.8820914999999978
 30
0.0
 11
91.55031500000005
 21
1.538946499999995
 31
0.0
  0
LINE
  5
2C40
330
BF7
100
AcDbEntity
  8
1
100
AcDbLine
 10
90.61265400000001
 20
-1.602313499999999
 30
0.0
 11
90.60852399999999
 21
-1.5255165
 31
0.0
  0
LINE
  5
2C41
330
BF7
100
AcDbEntity
  8
1
100
AcDbLine
 10
90.634613
 20
-1.8109645
 30
0.0
 11
90.61265400000001
 21
-1.602313499999999
 31
0.0
  0
LINE
  5
2C42
330
BF7
100
AcDbEntity
  8
1
100
AcDbLine
 10
90.703686
 20
-2.113785499999996
 30
0.0
 11
90.634613
 21
-1.8109645
 31
0.0
  0
LINE
  5
2C43
330
BF7
100
AcDbEntity
  8
1
100
AcDbLine
 10
90.80554499999999
 20
-2.343830500000001
 30
0.0
 11
90.703686
 21
-2.113785499999996
 31
0.0
  0
LINE
  5
2C44
330
BF7
100
AcDbEntity
  8
1
100
AcDbLine
 10
90.94080800000002
 20
-2.511581500000001
 30
0.0
 11
90.80554499999999
 21
-2.343830500000001
 31
0.0
  0
LINE
  5
2C45
330
BF7
100
AcDbEntity
  8
1
100
AcDbLine
 10
90.99407499999999
 20
-2.553466500000002
 30
0.0
 11
90.94080800000002
 21
-2.511581500000001
 31
0.0
  0
LINE
  5
2C46
330
BF7
100
AcDbEntity
  8
1
100
AcDbLine
 10
90.60852399999999
 20
-1.5255165
 30
0.0
 11
91.97489
 21
-0.028072500000004
 31
0.0
  0
LINE
  5
2C47
330
BF7
100
AcDbEntity
  8
1
100
AcDbLine
 10
91.97489
 20
-0.028072500000004
 30
0.0
 11
91.999113
 21
0.0210675000000009
 31
0.0
  0
LINE
  5
2C48
330
BF7
100
AcDbEntity
  8
1
100
AcDbLine
 10
91.999113
 20
0.0210675000000009
 30
0.0
 11
91.99996099999999
 21
0.0157354999999981
 31
0.0
  0
LINE
  5
2C49
330
BF7
100
AcDbEntity
  8
1
100
AcDbLine
 10
91.39091400000003
 20
-1.465781500000002
 30
0.0
 11
91.44932799999999
 21
-1.390692499999999
 31
0.0
  0
LINE
  5
2C4A
330
BF7
100
AcDbEntity
  8
1
100
AcDbLine
 10
91.306907
 20
-1.525271500000002
 30
0.0
 11
91.39091400000003
 21
-1.465781500000002
 31
0.0
  0
LINE
  5
2C4B
330
BF7
100
AcDbEntity
  8
1
100
AcDbLine
 10
91.23890000000001
 20
-1.529143499999999
 30
0.0
 11
91.306907
 21
-1.525271500000002
 31
0.0
  0
LINE
  5
2C4C
330
BF7
100
AcDbEntity
  8
1
100
AcDbLine
 10
91.19241600000002
 20
-1.4941135
 30
0.0
 11
91.23890000000001
 21
-1.529143499999999
 31
0.0
  0
LINE
  5
2C4D
330
BF7
100
AcDbEntity
  8
1
100
AcDbLine
 10
91.16541899999999
 20
-1.4361625
 30
0.0
 11
91.19241600000002
 21
-1.4941135
 31
0.0
  0
LINE
  5
2C4E
330
BF7
100
AcDbEntity
  8
1
100
AcDbLine
 10
91.15437300000001
 20
-1.364434499999999
 30
0.0
 11
91.16541899999999
 21
-1.4361625
 31
0.0
  0
LINE
  5
2C4F
330
BF7
100
AcDbEntity
  8
1
100
AcDbLine
 10
91.15741300000001
 20
-1.280954499999998
 30
0.0
 11
91.15437300000001
 21
-1.364434499999999
 31
0.0
  0
LINE
  5
2C50
330
BF7
100
AcDbEntity
  8
1
100
AcDbLine
 10
91.176949
 20
-1.181166500000002
 30
0.0
 11
91.15741300000001
 21
-1.280954499999998
 31
0.0
  0
LINE
  5
2C51
330
BF7
100
AcDbEntity
  8
1
100
AcDbLine
 10
91.21791100000001
 20
-1.068988499999999
 30
0.0
 11
91.176949
 21
-1.181166500000002
 31
0.0
  0
LINE
  5
2C52
330
BF7
100
AcDbEntity
  8
1
100
AcDbLine
 10
91.26988199999999
 20
-0.9771725000000015
 30
0.0
 11
91.21791100000001
 21
-1.068988499999999
 31
0.0
  0
LINE
  5
2C53
330
BF7
100
AcDbEntity
  8
1
100
AcDbLine
 10
91.35620199999999
 20
-0.885066500000004
 30
0.0
 11
91.26988199999999
 21
-0.9771725000000015
 31
0.0
  0
LINE
  5
2C54
330
BF7
100
AcDbEntity
  8
1
100
AcDbLine
 10
91.43566599999999
 20
-0.8527775000000017
 30
0.0
 11
91.35620199999999
 21
-0.885066500000004
 31
0.0
  0
LINE
  5
2C55
330
BF7
100
AcDbEntity
  8
1
100
AcDbLine
 10
91.49333
 20
-0.8692124999999997
 30
0.0
 11
91.43566599999999
 21
-0.8527775000000017
 31
0.0
  0
LINE
  5
2C56
330
BF7
100
AcDbEntity
  8
1
100
AcDbLine
 10
91.53564799999999
 20
-0.9273184999999983
 30
0.0
 11
91.49333
 21
-0.8692124999999997
 31
0.0
  0
LINE
  5
2C57
330
BF7
100
AcDbEntity
  8
1
100
AcDbLine
 10
91.55197499999999
 20
-0.9933384999999999
 30
0.0
 11
91.53564799999999
 21
-0.9273184999999983
 31
0.0
  0
LINE
  5
2C58
330
BF7
100
AcDbEntity
  8
1
100
AcDbLine
 10
91.55416700000001
 20
-1.070947500000002
 30
0.0
 11
91.55197499999999
 21
-0.9933384999999999
 31
0.0
  0
LINE
  5
2C59
330
BF7
100
AcDbEntity
  8
1
100
AcDbLine
 10
91.544708
 20
-1.147054499999998
 30
0.0
 11
91.55416700000001
 21
-1.070947500000002
 31
0.0
  0
LINE
  5
2C5A
330
BF7
100
AcDbEntity
  8
1
100
AcDbLine
 10
91.99996099999999
 20
0.0157354999999981
 30
0.0
 11
91.544708
 21
-1.147054499999998
 31
0.0
  0
LINE
  5
2C5B
330
BF7
100
AcDbEntity
  8
1
100
AcDbLine
 10
91.99996099999999
 20
0.0157354999999981
 30
0.0
 11
91.99996099999999
 21
-0.0157365000000027
 31
0.0
  0
LINE
  5
2C5C
330
BF7
100
AcDbEntity
  8
1
100
AcDbLine
 10
91.999113
 20
-0.0210694999999994
 30
0.0
 11
91.99996099999999
 21
-0.0157365000000027
 31
0.0
  0
LINE
  5
2C5D
330
BF7
100
AcDbEntity
  8
1
100
AcDbLine
 10
91.999113
 20
-0.0210694999999994
 30
0.0
 11
91.97048100000001
 21
-0.1323845000000006
 31
0.0
  0
LINE
  5
2C5E
330
BF7
100
AcDbEntity
  8
1
100
AcDbLine
 10
91.97048100000001
 20
-0.1323845000000006
 30
0.0
 11
91.81718399999999
 21
-0.8820934999999996
 31
0.0
  0
LINE
  5
2C5F
330
BF7
100
AcDbEntity
  8
1
100
AcDbLine
 10
91.29174299999998
 20
-2.180344500000003
 30
0.0
 11
91.05456100000003
 21
-2.777482500000001
 31
0.0
  0
LINE
  5
2C60
330
BF7
100
AcDbEntity
  8
1
100
AcDbLine
 10
91.55031500000005
 20
-1.5389485
 30
0.0
 11
91.29174299999998
 21
-2.180344500000003
 31
0.0
  0
LINE
  5
2C61
330
BF7
100
AcDbEntity
  8
1
100
AcDbLine
 10
91.81718399999999
 20
-0.8820934999999996
 30
0.0
 11
91.55031500000005
 21
-1.5389485
 31
0.0
  0
LINE
  5
2C62
330
BF7
100
AcDbEntity
  8
1
100
AcDbLine
 10
91.02055099999999
 20
-2.602226499999999
 30
0.0
 11
91.02011500000001
 21
-2.601489499999999
 31
0.0
  0
LINE
  5
2C63
330
BF7
100
AcDbEntity
  8
1
100
AcDbLine
 10
91.021326
 20
-2.6100585
 30
0.0
 11
91.02055099999999
 21
-2.602226499999999
 31
0.0
  0
LINE
  5
2C64
330
BF7
100
AcDbEntity
  8
1
100
AcDbLine
 10
91.01950900000002
 20
-2.623341500000002
 30
0.0
 11
91.021326
 21
-2.6100585
 31
0.0
  0
LINE
  5
2C65
330
BF7
100
AcDbEntity
  8
1
100
AcDbLine
 10
91.01499200000001
 20
-2.6429095
 30
0.0
 11
91.01950900000002
 21
-2.623341500000002
 31
0.0
  0
LINE
  5
2C66
330
BF7
100
AcDbEntity
  8
1
100
AcDbLine
 10
91.002299
 20
-2.685662500000001
 30
0.0
 11
91.01499200000001
 21
-2.6429095
 31
0.0
  0
LINE
  5
2C67
330
BF7
100
AcDbEntity
  8
1
100
AcDbLine
 10
90.97938400000002
 20
-2.750726499999998
 30
0.0
 11
91.002299
 21
-2.685662500000001
 31
0.0
  0
LINE
  5
2C68
330
BF7
100
AcDbEntity
  8
1
100
AcDbLine
 10
91.00577499999999
 20
-2.579155500000001
 30
0.0
 11
90.99407499999999
 21
-2.553466500000002
 31
0.0
  0
LINE
  5
2C69
330
BF7
100
AcDbEntity
  8
1
100
AcDbLine
 10
91.02011500000001
 20
-2.601489499999999
 30
0.0
 11
91.00577499999999
 21
-2.579155500000001
 31
0.0
  0
LINE
  5
2C6A
330
BF7
100
AcDbEntity
  8
1
100
AcDbLine
 10
91.44932799999999
 20
-1.390692499999999
 30
0.0
 11
90.99407499999999
 21
-2.553466500000002
 31
0.0
  0
LINE
  5
2C6B
330
BF7
100
AcDbEntity
  8
1
100
AcDbLine
 10
91.52386300000001
 20
-1.210083499999998
 30
0.0
 11
91.544708
 21
-1.147054499999998
 31
0.0
  0
LINE
  5
2C6C
330
BF7
100
AcDbEntity
  8
1
100
AcDbLine
 10
91.47759699999999
 20
-1.328883499999998
 30
0.0
 11
91.52386300000001
 21
-1.210083499999998
 31
0.0
  0
LINE
  5
2C6D
330
BF7
100
AcDbEntity
  8
1
100
AcDbLine
 10
91.44932799999999
 20
-1.390692499999999
 30
0.0
 11
91.47759699999999
 21
-1.328883499999998
 31
0.0
  0
LINE
  5
2C6E
330
BF7
100
AcDbEntity
  8
SK1
100
AcDbLine
 10
-35.35048199999999
 20
2.907228499999998
 30
0.0
 11
-35.35048199999999
 21
2.654243499999999
 31
0.0
  0
LINE
  5
2C6F
330
BF7
100
AcDbEntity
  8
SK1
100
AcDbLine
 10
-35.35048199999999
 20
2.999713499999995
 30
0.0
 11
-35.35048199999999
 21
2.907228499999998
 31
0.0
  0
LINE
  5
2C70
330
BF7
100
AcDbEntity
  8
1
100
AcDbLine
 10
11.12415099999999
 20
-0.8937744999999992
 30
0.0
 11
8.780768000000009
 21
-0.2163035000000022
 31
0.0
  0
LINE
  5
2C71
330
BF7
100
AcDbEntity
  8
1
100
AcDbLine
 10
13.510549
 20
-1.425331500000002
 30
0.0
 11
11.12415099999999
 21
-0.8937744999999992
 31
0.0
  0
LINE
  5
2C72
330
BF7
100
AcDbEntity
  8
1
100
AcDbLine
 10
82.662256
 20
-1.8729195
 30
0.0
 11
85.781106
 21
-1.502234500000003
 31
0.0
  0
LINE
  5
2C73
330
BF7
100
AcDbEntity
  8
1
100
AcDbLine
 10
80.62846500000002
 20
-1.741948499999999
 30
0.0
 11
82.662256
 21
-1.8729195
 31
0.0
  0
LINE
  5
2C74
330
BF7
100
AcDbEntity
  8
1
100
AcDbLine
 10
78.59431100000001
 20
-1.348168500000002
 30
0.0
 11
80.62846500000002
 21
-1.741948499999999
 31
0.0
  0
LINE
  5
2C75
330
BF7
100
AcDbEntity
  8
1
100
AcDbLine
 10
76.560375
 20
-0.7510905000000001
 30
0.0
 11
78.59431100000001
 21
-1.348168500000002
 31
0.0
  0
LINE
  5
2C76
330
BF7
100
AcDbEntity
  8
1
100
AcDbLine
 10
74.69691100000002
 20
-0.1003035000000025
 30
0.0
 11
76.560375
 21
-0.7510905000000001
 31
0.0
  0
LINE
  5
2C77
330
BF7
100
AcDbEntity
  8
1
100
AcDbLine
 10
50.11976600000001
 20
-1.8712685
 30
0.0
 11
53.07021500000002
 21
-1.505038499999999
 31
0.0
  0
LINE
  5
2C78
330
BF7
100
AcDbEntity
  8
1
100
AcDbLine
 10
48.086242
 20
-1.762011499999999
 30
0.0
 11
50.11976600000001
 21
-1.8712685
 31
0.0
  0
LINE
  5
2C79
330
BF7
100
AcDbEntity
  8
1
100
AcDbLine
 10
46.05226899999999
 20
-1.387028500000002
 30
0.0
 11
48.086242
 21
-1.762011499999999
 31
0.0
  0
LINE
  5
2C7A
330
BF7
100
AcDbEntity
  8
1
100
AcDbLine
 10
44.018382
 20
-0.8028225000000013
 30
0.0
 11
46.05226899999999
 21
-1.387028500000002
 31
0.0
  0
LINE
  5
2C7B
330
BF7
100
AcDbEntity
  8
1
100
AcDbLine
 10
42.00390999999998
 20
-0.1043455000000009
 30
0.0
 11
44.018382
 21
-0.8028225000000013
 31
0.0
  0
LINE
  5
2C7C
330
BF7
100
AcDbEntity
  8
1
100
AcDbLine
 10
17.577676
 20
-1.867863499999996
 30
0.0
 11
20.40585800000001
 21
-1.499206500000003
 31
0.0
  0
LINE
  5
2C7D
330
BF7
100
AcDbEntity
  8
1
100
AcDbLine
 10
15.543891
 20
-1.780469500000002
 30
0.0
 11
17.577676
 21
-1.867863499999996
 31
0.0
  0
LINE
  5
2C7E
330
BF7
100
AcDbEntity
  8
1
100
AcDbLine
 10
13.510549
 20
-1.425331500000002
 30
0.0
 11
15.543891
 21
-1.780469500000002
 31
0.0
  0
LINE
  5
2C7F
330
BF7
100
AcDbEntity
  8
1
100
AcDbLine
 10
16.53472200000001
 20
-2.637639500000001
 30
0.0
 11
14.977247
 21
-2.494631499999999
 31
0.0
  0
LINE
  5
2C80
330
BF7
100
AcDbEntity
  8
1
100
AcDbLine
 10
18.064764
 20
-2.549823500000002
 30
0.0
 11
16.53472200000001
 21
-2.637639500000001
 31
0.0
  0
LINE
  5
2C81
330
BF7
100
AcDbEntity
  8
1
100
AcDbLine
 10
20.05850800000001
 20
-2.110594499999999
 30
0.0
 11
18.064764
 21
-2.549823500000002
 31
0.0
  0
LINE
  5
2C82
330
BF7
100
AcDbEntity
  8
1
100
AcDbLine
 10
20.99435800000001
 20
-1.762390500000002
 30
0.0
 11
20.05850800000001
 21
-2.110594499999999
 31
0.0
  0
LINE
  5
2C83
330
BF7
100
AcDbEntity
  8
1
100
AcDbLine
 10
35.78563600000001
 20
2.284658499999995
 30
0.0
 11
33.05910700000001
 21
2.596225500000002
 31
0.0
  0
LINE
  5
2C84
330
BF7
100
AcDbEntity
  8
1
100
AcDbLine
 10
37.723417
 20
1.647539499999995
 30
0.0
 11
35.78563600000001
 21
2.284658499999995
 31
0.0
  0
LINE
  5
2C85
330
BF7
100
AcDbEntity
  8
1
100
AcDbLine
 10
39.71760300000001
 20
0.7572624999999995
 30
0.0
 11
37.723417
 21
1.647539499999995
 31
0.0
  0
LINE
  5
2C86
330
BF7
100
AcDbEntity
  8
1
100
AcDbLine
 10
41.65562700000001
 20
-0.2144465000000011
 30
0.0
 11
39.71760300000001
 21
0.7572624999999995
 31
0.0
  0
LINE
  5
2C87
330
BF7
100
AcDbEntity
  8
1
100
AcDbLine
 10
43.64929100000002
 20
-1.182074500000001
 30
0.0
 11
41.65562700000001
 21
-0.2144465000000011
 31
0.0
  0
LINE
  5
2C88
330
BF7
100
AcDbEntity
  8
1
100
AcDbLine
 10
45.586855
 20
-1.959390500000001
 30
0.0
 11
43.64929100000002
 21
-1.182074500000001
 31
0.0
  0
LINE
  5
2C89
330
BF7
100
AcDbEntity
  8
1
100
AcDbLine
 10
47.58093099999999
 20
-2.478263499999999
 30
0.0
 11
45.586855
 21
-1.959390500000001
 31
0.0
  0
LINE
  5
2C8A
330
BF7
100
AcDbEntity
  8
1
100
AcDbLine
 10
49.51886999999999
 20
-2.6384845
 30
0.0
 11
47.58093099999999
 21
-2.478263499999999
 31
0.0
  0
LINE
  5
2C8B
330
BF7
100
AcDbEntity
  8
1
100
AcDbLine
 10
51.512861
 20
-2.426023499999999
 30
0.0
 11
49.51886999999999
 21
-2.6384845
 31
0.0
  0
LINE
  5
2C8C
330
BF7
100
AcDbEntity
  8
1
100
AcDbLine
 10
53.450716
 20
-1.881850500000002
 30
0.0
 11
51.512861
 21
-2.426023499999999
 31
0.0
  0
LINE
  5
2C8D
330
BF7
100
AcDbEntity
  8
1
100
AcDbLine
 10
53.727491
 20
-1.766901499999999
 30
0.0
 11
53.450716
 21
-1.881850500000002
 31
0.0
  0
LINE
  5
2C8E
330
BF7
100
AcDbEntity
  8
1
100
AcDbLine
 10
69.17775900000002
 20
2.089330499999999
 30
0.0
 11
65.75527000000001
 21
2.602465499999996
 31
0.0
  0
LINE
  5
2C8F
330
BF7
100
AcDbEntity
  8
1
100
AcDbLine
 10
71.17186000000002
 20
1.335058499999998
 30
0.0
 11
69.17775900000002
 21
2.089330499999999
 31
0.0
  0
LINE
  5
2C90
330
BF7
100
AcDbEntity
  8
1
100
AcDbLine
 10
73.10978700000003
 20
0.4153354999999979
 30
0.0
 11
71.17186000000002
 21
1.335058499999998
 31
0.0
  0
LINE
  5
2C91
330
BF7
100
AcDbEntity
  8
1
100
AcDbLine
 10
75.10379000000002
 20
-0.589078500000003
 30
0.0
 11
73.10978700000003
 21
0.4153354999999979
 31
0.0
  0
LINE
  5
2C92
330
BF7
100
AcDbEntity
  8
1
100
AcDbLine
 10
77.04163199999998
 20
-1.484591500000004
 30
0.0
 11
75.10379000000002
 21
-0.589078500000003
 31
0.0
  0
LINE
  5
2C93
330
BF7
100
AcDbEntity
  8
1
100
AcDbLine
 10
79.03503000000002
 20
-2.192470500000001
 30
0.0
 11
77.04163199999998
 21
-1.484591500000004
 31
0.0
  0
LINE
  5
2C94
330
BF7
100
AcDbEntity
  8
1
100
AcDbLine
 10
80.97232699999997
 20
-2.5765905
 30
0.0
 11
79.03503000000002
 21
-2.192470500000001
 31
0.0
  0
LINE
  5
2C95
330
BF7
100
AcDbEntity
  8
1
100
AcDbLine
 10
82.94568100000002
 20
-2.6049185
 30
0.0
 11
80.97232699999997
 21
-2.5765905
 31
0.0
  0
LINE
  5
2C96
330
BF7
100
AcDbEntity
  8
1
100
AcDbLine
 10
84.86453200000003
 20
-2.277294500000003
 30
0.0
 11
82.94568100000002
 21
-2.6049185
 31
0.0
  0
LINE
  5
2C97
330
BF7
100
AcDbEntity
  8
1
100
AcDbLine
 10
86.40738800000002
 20
-1.764857499999999
 30
0.0
 11
84.86453200000003
 21
-2.277294500000003
 31
0.0
  0
LINE
  5
2C98
330
BF7
100
AcDbEntity
  8
1
100
AcDbLine
 10
13.554175
 20
-2.270530499999999
 30
0.0
 11
13.167443
 21
-2.211567500000001
 31
0.0
  0
LINE
  5
2C99
330
BF7
100
AcDbEntity
  8
1
100
AcDbLine
 10
14.00009600000001
 20
-2.339079499999999
 30
0.0
 11
13.554175
 21
-2.270530499999999
 31
0.0
  0
LINE
  5
2C9A
330
BF7
100
AcDbEntity
  8
1
100
AcDbLine
 10
14.490267
 20
-2.415828500000003
 30
0.0
 11
14.00009600000001
 21
-2.339079499999999
 31
0.0
  0
LINE
  5
2C9B
330
BF7
100
AcDbEntity
  8
1
100
AcDbLine
 10
14.977247
 20
-2.494631499999999
 30
0.0
 11
14.490267
 21
-2.415828500000003
 31
0.0
  0
LINE
  5
2C9C
330
BF7
100
AcDbEntity
  8
1
100
AcDbLine
 10
66.39115600000001
 20
-1.872297499999999
 30
0.0
 11
69.46146300000002
 21
-1.4960485
 31
0.0
  0
LINE
  5
2C9D
330
BF7
100
AcDbEntity
  8
1
100
AcDbLine
 10
64.35736600000002
 20
-1.7521895
 30
0.0
 11
66.39115600000001
 21
-1.872297499999999
 31
0.0
  0
LINE
  5
2C9E
330
BF7
100
AcDbEntity
  8
1
100
AcDbLine
 10
62.323345
 20
-1.367767499999999
 30
0.0
 11
64.35736600000002
 21
-1.7521895
 31
0.0
  0
LINE
  5
2C9F
330
BF7
100
AcDbEntity
  8
1
100
AcDbLine
 10
60.289554
 20
-0.7771064999999986
 30
0.0
 11
62.323345
 21
-1.367767499999999
 31
0.0
  0
LINE
  5
2CA0
330
BF7
100
AcDbEntity
  8
1
100
AcDbLine
 10
58.47391900000001
 20
-0.1452254999999987
 30
0.0
 11
60.289554
 21
-0.7771064999999986
 31
0.0
  0
LINE
  5
2CA1
330
BF7
100
AcDbEntity
  8
1
100
AcDbLine
 10
33.848848
 20
-1.869778500000002
 30
0.0
 11
36.72072900000003
 21
-1.505753499999999
 31
0.0
  0
LINE
  5
2CA2
330
BF7
100
AcDbEntity
  8
1
100
AcDbLine
 10
31.81498500000001
 20
-1.771434499999999
 30
0.0
 11
33.848848
 21
-1.869778500000002
 31
0.0
  0
LINE
  5
2CA3
330
BF7
100
AcDbEntity
  8
1
100
AcDbLine
 10
29.78110900000002
 20
-1.405934499999999
 30
0.0
 11
31.81498500000001
 21
-1.771434499999999
 31
0.0
  0
LINE
  5
2CA4
330
BF7
100
AcDbEntity
  8
1
100
AcDbLine
 10
27.747016
 20
-0.8283085000000021
 30
0.0
 11
29.78110900000002
 21
-1.405934499999999
 31
0.0
  0
LINE
  5
2CA5
330
BF7
100
AcDbEntity
  8
1
100
AcDbLine
 10
25.896687
 20
-0.1892605000000031
 30
0.0
 11
27.747016
 21
-0.8283085000000021
 31
0.0
  0
LINE
  5
2CA6
330
BF7
100
AcDbEntity
  8
1
100
AcDbLine
 10
88.969138
 20
0.6666375000000003
 30
0.0
 11
88.935565
 21
0.6752915000000002
 31
0.0
  0
LINE
  5
2CA7
330
BF7
100
AcDbEntity
  8
1
100
AcDbLine
 10
89.16646100000001
 20
0.6107514999999957
 30
0.0
 11
88.969138
 21
0.6666375000000003
 31
0.0
  0
LINE
  5
2CA8
330
BF7
100
AcDbEntity
  8
1
100
AcDbLine
 10
89.36844699999998
 20
0.5440824999999947
 30
0.0
 11
89.16646100000001
 21
0.6107514999999957
 31
0.0
  0
LINE
  5
2CA9
330
BF7
100
AcDbEntity
  8
1
100
AcDbLine
 10
89.57026400000001
 20
0.4664854999999977
 30
0.0
 11
89.36844699999998
 21
0.5440824999999947
 31
0.0
  0
LINE
  5
2CAA
330
BF7
100
AcDbEntity
  8
1
100
AcDbLine
 10
89.72929
 20
0.3957904999999968
 30
0.0
 11
89.57026400000001
 21
0.4664854999999977
 31
0.0
  0
LINE
  5
2CAB
330
BF7
100
AcDbEntity
  8
1
100
AcDbLine
 10
89.88669299999996
 20
0.3139484999999986
 30
0.0
 11
89.72929
 21
0.3957904999999968
 31
0.0
  0
LINE
  5
2CAC
330
BF7
100
AcDbEntity
  8
1
100
AcDbLine
 10
20.05816199999999
 20
2.110698499999998
 30
0.0
 11
16.63021
 21
2.632139499999996
 31
0.0
  0
LINE
  5
2CAD
330
BF7
100
AcDbEntity
  8
1
100
AcDbLine
 10
21.995992
 20
1.389715499999995
 30
0.0
 11
20.05816199999999
 21
2.110698499999998
 31
0.0
  0
LINE
  5
2CAE
330
BF7
100
AcDbEntity
  8
1
100
AcDbLine
 10
23.99002000000002
 20
0.4502324999999951
 30
0.0
 11
21.995992
 21
1.389715499999995
 31
0.0
  0
LINE
  5
2CAF
330
BF7
100
AcDbEntity
  8
1
100
AcDbLine
 10
25.927892
 20
-0.5266735000000047
 30
0.0
 11
23.99002000000002
 21
0.4502324999999951
 31
0.0
  0
LINE
  5
2CB0
330
BF7
100
AcDbEntity
  8
1
100
AcDbLine
 10
27.92190800000002
 20
-1.4552385
 30
0.0
 11
25.927892
 21
-0.5266735000000047
 31
0.0
  0
LINE
  5
2CB1
330
BF7
100
AcDbEntity
  8
1
100
AcDbLine
 10
29.85976200000001
 20
-2.156470500000001
 30
0.0
 11
27.92190800000002
 21
-1.4552385
 31
0.0
  0
LINE
  5
2CB2
330
BF7
100
AcDbEntity
  8
1
100
AcDbLine
 10
31.85373000000002
 20
-2.568845500000001
 30
0.0
 11
29.85976200000001
 21
-2.156470500000001
 31
0.0
  0
LINE
  5
2CB3
330
BF7
100
AcDbEntity
  8
1
100
AcDbLine
 10
33.79154800000002
 20
-2.6128685
 30
0.0
 11
31.85373000000002
 21
-2.568845500000001
 31
0.0
  0
LINE
  5
2CB4
330
BF7
100
AcDbEntity
  8
1
100
AcDbLine
 10
35.785467
 20
-2.2847015
 30
0.0
 11
33.79154800000002
 21
-2.6128685
 31
0.0
  0
LINE
  5
2CB5
330
BF7
100
AcDbEntity
  8
1
100
AcDbLine
 10
37.37420200000001
 20
-1.762365499999999
 30
0.0
 11
35.785467
 21
-2.2847015
 31
0.0
  0
LINE
  5
2CB6
330
BF7
100
AcDbEntity
  8
1
100
AcDbLine
 10
51.51278900000001
 20
2.4260415
 30
0.0
 11
49.40890800000001
 21
2.6293985
 31
0.0
  0
LINE
  5
2CB7
330
BF7
100
AcDbEntity
  8
1
100
AcDbLine
 10
53.45065500000001
 20
1.881870499999998
 30
0.0
 11
51.51278900000001
 21
2.4260415
 31
0.0
  0
LINE
  5
2CB8
330
BF7
100
AcDbEntity
  8
1
100
AcDbLine
 10
55.444598
 20
1.053753499999998
 30
0.0
 11
53.45065500000001
 21
1.881870499999998
 31
0.0
  0
LINE
  5
2CB9
330
BF7
100
AcDbEntity
  8
1
100
AcDbLine
 10
57.38239199999998
 20
0.1013344999999965
 30
0.0
 11
55.444598
 21
1.053753499999998
 31
0.0
  0
LINE
  5
2CBA
330
BF7
100
AcDbEntity
  8
1
100
AcDbLine
 10
59.376323
 20
-0.8918525000000022
 30
0.0
 11
57.38239199999998
 21
0.1013344999999965
 31
0.0
  0
LINE
  5
2CBB
330
BF7
100
AcDbEntity
  8
1
100
AcDbLine
 10
61.314092
 20
-1.7343365
 30
0.0
 11
59.376323
 21
-0.8918525000000022
 31
0.0
  0
LINE
  5
2CBC
330
BF7
100
AcDbEntity
  8
1
100
AcDbLine
 10
63.30808400000002
 20
-2.352213499999999
 30
0.0
 11
61.314092
 21
-1.7343365
 31
0.0
  0
LINE
  5
2CBD
330
BF7
100
AcDbEntity
  8
1
100
AcDbLine
 10
65.24591300000001
 20
-2.626369500000002
 30
0.0
 11
63.30808400000002
 21
-2.352213499999999
 31
0.0
  0
LINE
  5
2CBE
330
BF7
100
AcDbEntity
  8
1
100
AcDbLine
 10
67.23996600000003
 20
-2.532710499999998
 30
0.0
 11
65.24591300000001
 21
-2.626369500000002
 31
0.0
  0
LINE
  5
2CBF
330
BF7
100
AcDbEntity
  8
1
100
AcDbLine
 10
69.17784400000001
 20
-2.089299500000002
 30
0.0
 11
67.23996600000003
 21
-2.532710499999998
 31
0.0
  0
LINE
  5
2CC0
330
BF7
100
AcDbEntity
  8
1
100
AcDbLine
 10
70.02878500000001
 20
-1.767428500000001
 30
0.0
 11
69.17784400000001
 21
-2.089299500000002
 31
0.0
  0
LINE
  5
2CC1
330
BF7
100
AcDbEntity
  8
1
100
AcDbLine
 10
84.86453200000003
 20
2.2772915
 30
0.0
 11
82.106221
 21
2.5928675
 31
0.0
  0
LINE
  5
2CC2
330
BF7
100
AcDbEntity
  8
1
100
AcDbLine
 10
86.83789700000001
 20
1.621869499999995
 30
0.0
 11
84.86453200000003
 21
2.2772915
 31
0.0
  0
LINE
  5
2CC3
330
BF7
100
AcDbEntity
  8
1
100
AcDbLine
 10
88.756736
 20
0.7625404999999966
 30
0.0
 11
86.83789700000001
 21
1.621869499999995
 31
0.0
  0
LINE
  5
2CC4
330
BF7
100
AcDbEntity
  8
1
100
AcDbLine
 10
88.935565
 20
0.6752915000000002
 30
0.0
 11
88.756736
 21
0.7625404999999966
 31
0.0
  0
LINE
  5
2CC5
330
BF7
100
AcDbEntity
  8
1
100
AcDbLine
 10
90.88473099999999
 20
-2.743210499999998
 30
0.0
 11
90.97938400000002
 21
-2.750726499999998
 31
0.0
  0
LINE
  5
2CC6
330
BF7
100
AcDbEntity
  8
1
100
AcDbLine
 10
90.17228600000001
 20
-2.657737500000003
 30
0.0
 11
90.88473099999999
 21
-2.743210499999998
 31
0.0
  0
LINE
  5
2CC7
330
BF7
100
AcDbEntity
  8
1
100
AcDbLine
 10
89.41104399999998
 20
-2.511513499999999
 30
0.0
 11
90.17228600000001
 21
-2.657737500000003
 31
0.0
  0
LINE
  5
2CC8
330
BF7
100
AcDbEntity
  8
1
100
AcDbLine
 10
88.64979000000003
 20
-2.3116525
 30
0.0
 11
89.41104399999998
 21
-2.511513499999999
 31
0.0
  0
LINE
  5
2CC9
330
BF7
100
AcDbEntity
  8
1
100
AcDbLine
 10
87.88854800000001
 20
-2.062420499999999
 30
0.0
 11
88.64979000000003
 21
-2.3116525
 31
0.0
  0
LINE
  5
2CCA
330
BF7
100
AcDbEntity
  8
1
100
AcDbLine
 10
87.12730499999997
 20
-1.769142499999999
 30
0.0
 11
87.88854800000001
 21
-2.062420499999999
 31
0.0
  0
LINE
  5
2CCB
330
BF7
100
AcDbEntity
  8
1
100
AcDbLine
 10
86.36606300000002
 20
-1.4380825
 30
0.0
 11
87.12730499999997
 21
-1.769142499999999
 31
0.0
  0
LINE
  5
2CCC
330
BF7
100
AcDbEntity
  8
1
100
AcDbLine
 10
85.60482099999999
 20
-1.0763095
 30
0.0
 11
86.36606300000002
 21
-1.4380825
 31
0.0
  0
LINE
  5
2CCD
330
BF7
100
AcDbEntity
  8
1
100
AcDbLine
 10
84.84357799999996
 20
-0.6915465000000012
 30
0.0
 11
85.60482099999999
 21
-1.0763095
 31
0.0
  0
LINE
  5
2CCE
330
BF7
100
AcDbEntity
  8
1
100
AcDbLine
 10
83.31746000000002
 20
0.1156804999999998
 30
0.0
 11
84.84357799999996
 21
-0.6915465000000012
 31
0.0
  0
LINE
  5
2CCF
330
BF7
100
AcDbEntity
  8
1
100
AcDbLine
 10
82.55621799999998
 20
0.5189834999999974
 30
0.0
 11
83.31746000000002
 21
0.1156804999999998
 31
0.0
  0
LINE
  5
2CD0
330
BF7
100
AcDbEntity
  8
1
100
AcDbLine
 10
81.79497600000003
 20
0.9112084999999972
 30
0.0
 11
82.55621799999998
 21
0.5189834999999974
 31
0.0
  0
LINE
  5
2CD1
330
BF7
100
AcDbEntity
  8
1
100
AcDbLine
 10
80.26887
 20
1.630871499999995
 30
0.0
 11
81.79497600000003
 21
0.9112084999999972
 31
0.0
  0
LINE
  5
2CD2
330
BF7
100
AcDbEntity
  8
1
100
AcDbLine
 10
79.50762799999998
 20
1.941232499999994
 30
0.0
 11
80.26887
 21
1.630871499999995
 31
0.0
  0
LINE
  5
2CD3
330
BF7
100
AcDbEntity
  8
1
100
AcDbLine
 10
78.74637299999998
 20
2.210132499999996
 30
0.0
 11
79.50762799999998
 21
1.941232499999994
 31
0.0
  0
LINE
  5
2CD4
330
BF7
100
AcDbEntity
  8
1
100
AcDbLine
 10
77.985131
 20
2.431833499999996
 30
0.0
 11
78.74637299999998
 21
2.210132499999996
 31
0.0
  0
LINE
  5
2CD5
330
BF7
100
AcDbEntity
  8
1
100
AcDbLine
 10
77.22388900000002
 20
2.601596499999998
 30
0.0
 11
77.985131
 21
2.431833499999996
 31
0.0
  0
LINE
  5
2CD6
330
BF7
100
AcDbEntity
  8
1
100
AcDbLine
 10
76.46264599999998
 20
2.715797499999997
 30
0.0
 11
77.22388900000002
 21
2.601596499999998
 31
0.0
  0
LINE
  5
2CD7
330
BF7
100
AcDbEntity
  8
1
100
AcDbLine
 10
75.70140400000003
 20
2.771998499999998
 30
0.0
 11
76.46264599999998
 21
2.715797499999997
 31
0.0
  0
LINE
  5
2CD8
330
BF7
100
AcDbEntity
  8
1
100
AcDbLine
 10
75.359177
 20
2.7706485
 30
0.0
 11
75.70140400000003
 21
2.771998499999998
 31
0.0
  0
LINE
  5
2CD9
330
BF7
100
AcDbEntity
  8
1
100
AcDbLine
 10
59.71529199999999
 20
-2.752476499999998
 30
0.0
 11
60.63415500000001
 21
-2.639099499999999
 31
0.0
  0
LINE
  5
2CDA
330
BF7
100
AcDbEntity
  8
1
100
AcDbLine
 10
58.95405000000001
 20
-2.777844500000004
 30
0.0
 11
59.71529199999999
 21
-2.752476499999998
 31
0.0
  0
LINE
  5
2CDB
330
BF7
100
AcDbEntity
  8
1
100
AcDbLine
 10
58.192807
 20
-2.743887500000003
 30
0.0
 11
58.95405000000001
 21
-2.777844500000004
 31
0.0
  0
LINE
  5
2CDC
330
BF7
100
AcDbEntity
  8
1
100
AcDbLine
 10
57.43156500000002
 20
-2.651328499999999
 30
0.0
 11
58.192807
 21
-2.743887500000003
 31
0.0
  0
LINE
  5
2CDD
330
BF7
100
AcDbEntity
  8
1
100
AcDbLine
 10
56.67032300000001
 20
-2.502147500000003
 30
0.0
 11
57.43156500000002
 21
-2.651328499999999
 31
0.0
  0
LINE
  5
2CDE
330
BF7
100
AcDbEntity
  8
1
100
AcDbLine
 10
55.90908
 20
-2.299527499999999
 30
0.0
 11
56.67032300000001
 21
-2.502147500000003
 31
0.0
  0
LINE
  5
2CDF
330
BF7
100
AcDbEntity
  8
1
100
AcDbLine
 10
55.14783800000002
 20
-2.047797500000001
 30
0.0
 11
55.90908
 21
-2.299527499999999
 31
0.0
  0
LINE
  5
2CE0
330
BF7
100
AcDbEntity
  8
1
100
AcDbLine
 10
54.386596
 20
-1.752331500000003
 30
0.0
 11
55.14783800000002
 21
-2.047797500000001
 31
0.0
  0
LINE
  5
2CE1
330
BF7
100
AcDbEntity
  8
1
100
AcDbLine
 10
52.860478
 20
-1.054448499999999
 30
0.0
 11
54.386596
 21
-1.752331500000003
 31
0.0
  0
LINE
  5
2CE2
330
BF7
100
AcDbEntity
  8
1
100
AcDbLine
 10
52.09923600000002
 20
-0.6685975000000042
 30
0.0
 11
52.860478
 21
-1.054448499999999
 31
0.0
  0
LINE
  5
2CE3
330
BF7
100
AcDbEntity
  8
1
100
AcDbLine
 10
51.33799299999999
 20
-0.2684675000000034
 30
0.0
 11
52.09923600000002
 21
-0.6685975000000042
 31
0.0
  0
LINE
  5
2CE4
330
BF7
100
AcDbEntity
  8
1
100
AcDbLine
 10
50.576751
 20
0.1373935000000017
 30
0.0
 11
51.33799299999999
 21
-0.2684675000000034
 31
0.0
  0
LINE
  5
2CE5
330
BF7
100
AcDbEntity
  8
1
100
AcDbLine
 10
49.81550900000002
 20
0.5403214999999975
 30
0.0
 11
50.576751
 21
0.1373935000000017
 31
0.0
  0
LINE
  5
2CE6
330
BF7
100
AcDbEntity
  8
1
100
AcDbLine
 10
49.05426600000001
 20
0.9317104999999974
 30
0.0
 11
49.81550900000002
 21
0.5403214999999975
 31
0.0
  0
LINE
  5
2CE7
330
BF7
100
AcDbEntity
  8
1
100
AcDbLine
 10
48.29301200000002
 20
1.303202499999995
 30
0.0
 11
49.05426600000001
 21
0.9317104999999974
 31
0.0
  0
LINE
  5
2CE8
330
BF7
100
AcDbEntity
  8
1
100
AcDbLine
 10
47.53176999999999
 20
1.646858499999995
 30
0.0
 11
48.29301200000002
 21
1.303202499999995
 31
0.0
  0
LINE
  5
2CE9
330
BF7
100
AcDbEntity
  8
1
100
AcDbLine
 10
46.77052699999999
 20
1.955345499999995
 30
0.0
 11
47.53176999999999
 21
1.646858499999995
 31
0.0
  0
LINE
  5
2CEA
330
BF7
100
AcDbEntity
  8
1
100
AcDbLine
 10
46.00928500000001
 20
2.222071499999997
 30
0.0
 11
46.77052699999999
 21
1.955345499999995
 31
0.0
  0
LINE
  5
2CEB
330
BF7
100
AcDbEntity
  8
1
100
AcDbLine
 10
45.24804299999998
 20
2.4413415
 30
0.0
 11
46.00928500000001
 21
2.222071499999997
 31
0.0
  0
LINE
  5
2CEC
330
BF7
100
AcDbEntity
  8
1
100
AcDbLine
 10
44.48680099999999
 20
2.608473499999997
 30
0.0
 11
45.24804299999998
 21
2.4413415
 31
0.0
  0
LINE
  5
2CED
330
BF7
100
AcDbEntity
  8
1
100
AcDbLine
 10
43.72555799999999
 20
2.719894499999995
 30
0.0
 11
44.48680099999999
 21
2.608473499999997
 31
0.0
  0
LINE
  5
2CEE
330
BF7
100
AcDbEntity
  8
1
100
AcDbLine
 10
42.964316
 20
2.773227499999995
 30
0.0
 11
43.72555799999999
 21
2.719894499999995
 31
0.0
  0
LINE
  5
2CEF
330
BF7
100
AcDbEntity
  8
1
100
AcDbLine
 10
42.660434
 20
2.770875500000001
 30
0.0
 11
42.964316
 21
2.773227499999995
 31
0.0
  0
LINE
  5
2CF0
330
BF7
100
AcDbEntity
  8
1
100
AcDbLine
 10
26.97820400000001
 20
-2.755083500000001
 30
0.0
 11
27.93024700000001
 21
-2.6390685
 31
0.0
  0
LINE
  5
2CF1
330
BF7
100
AcDbEntity
  8
1
100
AcDbLine
 10
26.216962
 20
-2.777564499999998
 30
0.0
 11
26.97820400000001
 21
-2.755083500000001
 31
0.0
  0
LINE
  5
2CF2
330
BF7
100
AcDbEntity
  8
1
100
AcDbLine
 10
24.69085
 20
-2.644759500000001
 30
0.0
 11
26.216962
 21
-2.777564499999998
 31
0.0
  0
LINE
  5
2CF3
330
BF7
100
AcDbEntity
  8
1
100
AcDbLine
 10
23.92960100000001
 20
-2.492628500000002
 30
0.0
 11
24.69085
 21
-2.644759500000001
 31
0.0
  0
LINE
  5
2CF4
330
BF7
100
AcDbEntity
  8
1
100
AcDbLine
 10
23.16835900000001
 20
-2.2872625
 30
0.0
 11
23.92960100000001
 21
-2.492628500000002
 31
0.0
  0
LINE
  5
2CF5
330
BF7
100
AcDbEntity
  8
1
100
AcDbLine
 10
22.407117
 20
-2.033048499999999
 30
0.0
 11
23.16835900000001
 21
-2.2872625
 31
0.0
  0
LINE
  5
2CF6
330
BF7
100
AcDbEntity
  8
1
100
AcDbLine
 10
21.64587400000001
 20
-1.7354145
 30
0.0
 11
22.407117
 21
-2.033048499999999
 31
0.0
  0
LINE
  5
2CF7
330
BF7
100
AcDbEntity
  8
1
100
AcDbLine
 10
20.88463200000001
 20
-1.400714499999999
 30
0.0
 11
21.64587400000001
 21
-1.7354145
 31
0.0
  0
LINE
  5
2CF8
330
BF7
100
AcDbEntity
  8
1
100
AcDbLine
 10
20.12338400000002
 20
-1.036105500000001
 30
0.0
 11
20.88463200000001
 21
-1.400714499999999
 31
0.0
  0
LINE
  5
2CF9
330
BF7
100
AcDbEntity
  8
1
100
AcDbLine
 10
19.36214100000001
 20
-0.6493645000000008
 30
0.0
 11
20.12338400000002
 21
-1.036105500000001
 31
0.0
  0
LINE
  5
2CFA
330
BF7
100
AcDbEntity
  8
1
100
AcDbLine
 10
18.600899
 20
-0.2487564999999989
 30
0.0
 11
19.36214100000001
 21
-0.6493645000000008
 31
0.0
  0
LINE
  5
2CFB
330
BF7
100
AcDbEntity
  8
1
100
AcDbLine
 10
17.839657
 20
0.1571664999999989
 30
0.0
 11
18.600899
 21
-0.2487564999999989
 31
0.0
  0
LINE
  5
2CFC
330
BF7
100
AcDbEntity
  8
1
100
AcDbLine
 10
17.078415
 20
0.5597274999999975
 30
0.0
 11
17.839657
 21
0.1571664999999989
 31
0.0
  0
LINE
  5
2CFD
330
BF7
100
AcDbEntity
  8
1
100
AcDbLine
 10
16.317166
 20
0.9503374999999998
 30
0.0
 11
17.078415
 21
0.5597274999999975
 31
0.0
  0
LINE
  5
2CFE
330
BF7
100
AcDbEntity
  8
1
100
AcDbLine
 10
15.555924
 20
1.320651499999994
 30
0.0
 11
16.317166
 21
0.9503374999999998
 31
0.0
  0
LINE
  5
2CFF
330
BF7
100
AcDbEntity
  8
1
100
AcDbLine
 10
14.79468200000001
 20
1.662761499999998
 30
0.0
 11
15.555924
 21
1.320651499999994
 31
0.0
  0
LINE
  5
2D00
330
BF7
100
AcDbEntity
  8
1
100
AcDbLine
 10
14.033439
 20
1.969358499999998
 30
0.0
 11
14.79468200000001
 21
1.662761499999998
 31
0.0
  0
LINE
  5
2D01
330
BF7
100
AcDbEntity
  8
1
100
AcDbLine
 10
13.272197
 20
2.233898499999996
 30
0.0
 11
14.033439
 21
1.969358499999998
 31
0.0
  0
LINE
  5
2D02
330
BF7
100
AcDbEntity
  8
1
100
AcDbLine
 10
12.51095500000001
 20
2.450727499999995
 30
0.0
 11
13.272197
 21
2.233898499999996
 31
0.0
  0
LINE
  5
2D03
330
BF7
100
AcDbEntity
  8
1
100
AcDbLine
 10
11.74970700000001
 20
2.615216499999998
 30
0.0
 11
12.51095500000001
 21
2.450727499999995
 31
0.0
  0
LINE
  5
2D04
330
BF7
100
AcDbEntity
  8
1
100
AcDbLine
 10
10.98846400000001
 20
2.723854499999998
 30
0.0
 11
11.74970700000001
 21
2.615216499999998
 31
0.0
  0
LINE
  5
2D05
330
BF7
100
AcDbEntity
  8
1
100
AcDbLine
 10
10.22722200000001
 20
2.774318499999998
 30
0.0
 11
10.98846400000001
 21
2.723854499999998
 31
0.0
  0
LINE
  5
2D06
330
BF7
100
AcDbEntity
  8
1
100
AcDbLine
 10
9.960396000000015
 20
2.771238499999995
 30
0.0
 11
10.22722200000001
 21
2.774318499999998
 31
0.0
  0
LINE
  5
2D07
330
BF7
100
AcDbEntity
  8
1
100
AcDbLine
 10
91.05456100000003
 20
-2.777482500000001
 30
0.0
 11
90.97938400000002
 21
-2.750726499999998
 31
0.0
  0
LINE
  5
2D08
330
BF7
100
AcDbEntity
  8
1
100
AcDbLine
 10
89.872317
 20
-2.7181955
 30
0.0
 11
91.05456100000003
 21
-2.777482500000001
 31
0.0
  0
LINE
  5
2D09
330
BF7
100
AcDbEntity
  8
1
100
AcDbLine
 10
88.703275
 20
-2.5221865
 30
0.0
 11
89.872317
 21
-2.7181955
 31
0.0
  0
LINE
  5
2D0A
330
BF7
100
AcDbEntity
  8
1
100
AcDbLine
 10
86.84455800000002
 20
-1.9560855
 30
0.0
 11
88.703275
 21
-2.5221865
 31
0.0
  0
LINE
  5
2D0B
330
BF7
100
AcDbEntity
  8
1
100
AcDbLine
 10
84.93198100000002
 20
-1.116602500000001
 30
0.0
 11
86.84455800000002
 21
-1.9560855
 31
0.0
  0
LINE
  5
2D0C
330
BF7
100
AcDbEntity
  8
1
100
AcDbLine
 10
83.073192
 20
-0.1569045000000031
 30
0.0
 11
84.93198100000002
 21
-1.116602500000001
 31
0.0
  0
LINE
  5
2D0D
330
BF7
100
AcDbEntity
  8
1
100
AcDbLine
 10
81.16091799999997
 20
0.8499104999999998
 30
0.0
 11
83.073192
 21
-0.1569045000000031
 31
0.0
  0
LINE
  5
2D0E
330
BF7
100
AcDbEntity
  8
1
100
AcDbLine
 10
79.30248000000002
 20
1.720772499999996
 30
0.0
 11
81.16091799999997
 21
0.8499104999999998
 31
0.0
  0
LINE
  5
2D0F
330
BF7
100
AcDbEntity
  8
1
100
AcDbLine
 10
77.407356
 20
2.384679499999998
 30
0.0
 11
79.30248000000002
 21
1.720772499999996
 31
0.0
  0
LINE
  5
2D10
330
BF7
100
AcDbEntity
  8
1
100
AcDbLine
 10
75.56466300000002
 20
2.730815499999998
 30
0.0
 11
77.407356
 21
2.384679499999998
 31
0.0
  0
LINE
  5
2D11
330
BF7
100
AcDbEntity
  8
1
100
AcDbLine
 10
73.721874
 20
2.7381855
 30
0.0
 11
75.56466300000002
 21
2.730815499999998
 31
0.0
  0
LINE
  5
2D12
330
BF7
100
AcDbEntity
  8
1
100
AcDbLine
 10
71.86319400000002
 20
2.401545499999997
 30
0.0
 11
73.721874
 21
2.7381855
 31
0.0
  0
LINE
  5
2D13
330
BF7
100
AcDbEntity
  8
1
100
AcDbLine
 10
70.02928200000001
 20
1.766788499999995
 30
0.0
 11
71.86319400000002
 21
2.401545499999997
 31
0.0
  0
LINE
  5
2D14
330
BF7
100
AcDbEntity
  8
1
100
AcDbLine
 10
54.98819400000001
 20
-2.248731499999999
 30
0.0
 11
58.25494000000002
 21
-2.743937500000001
 31
0.0
  0
LINE
  5
2D15
330
BF7
100
AcDbEntity
  8
1
100
AcDbLine
 10
53.14572
 20
-1.543835499999999
 30
0.0
 11
54.98819400000001
 21
-2.248731499999999
 31
0.0
  0
LINE
  5
2D16
330
BF7
100
AcDbEntity
  8
1
100
AcDbLine
 10
51.30331799999999
 20
-0.6473665000000041
 30
0.0
 11
53.14572
 21
-1.543835499999999
 31
0.0
  0
LINE
  5
2D17
330
BF7
100
AcDbEntity
  8
1
100
AcDbLine
 10
49.44461300000002
 20
0.3377994999999991
 30
0.0
 11
51.30331799999999
 21
-0.6473665000000041
 31
0.0
  0
LINE
  5
2D18
330
BF7
100
AcDbEntity
  8
1
100
AcDbLine
 10
47.532109
 20
1.305957499999994
 30
0.0
 11
49.44461300000002
 21
0.3377994999999991
 31
0.0
  0
LINE
  5
2D19
330
BF7
100
AcDbEntity
  8
1
100
AcDbLine
 10
45.67340399999999
 20
2.080652499999995
 30
0.0
 11
47.532109
 21
1.305957499999994
 31
0.0
  0
LINE
  5
2D1A
330
BF7
100
AcDbEntity
  8
1
100
AcDbLine
 10
43.76117900000001
 20
2.603025500000001
 30
0.0
 11
45.67340399999999
 21
2.080652499999995
 31
0.0
  0
LINE
  5
2D1B
330
BF7
100
AcDbEntity
  8
1
100
AcDbLine
 10
41.902753
 20
2.777999499999998
 30
0.0
 11
43.76117900000001
 21
2.603025500000001
 31
0.0
  0
LINE
  5
2D1C
330
BF7
100
AcDbEntity
  8
1
100
AcDbLine
 10
40.00747099999999
 20
2.595549499999999
 30
0.0
 11
41.902753
 21
2.777999499999998
 31
0.0
  0
LINE
  5
2D1D
330
BF7
100
AcDbEntity
  8
1
100
AcDbLine
 10
38.16463300000001
 20
2.091238499999995
 30
0.0
 11
40.00747099999999
 21
2.595549499999999
 31
0.0
  0
LINE
  5
2D1E
330
BF7
100
AcDbEntity
  8
1
100
AcDbLine
 10
37.37408100000001
 20
1.763157499999993
 30
0.0
 11
38.16463300000001
 21
2.091238499999995
 31
0.0
  0
LINE
  5
2D1F
330
BF7
100
AcDbEntity
  8
1
100
AcDbLine
 10
23.18493400000001
 20
-2.4951295
 30
0.0
 11
25.55251000000001
 21
-2.742687500000001
 31
0.0
  0
LINE
  5
2D20
330
BF7
100
AcDbEntity
  8
1
100
AcDbLine
 10
21.326514
 20
-1.9107455
 30
0.0
 11
23.18493400000001
 21
-2.4951295
 31
0.0
  0
LINE
  5
2D21
330
BF7
100
AcDbEntity
  8
1
100
AcDbLine
 10
19.426242
 20
-1.064761499999999
 30
0.0
 11
21.326514
 21
-1.9107455
 31
0.0
  0
LINE
  5
2D22
330
BF7
100
AcDbEntity
  8
1
100
AcDbLine
 10
17.57885
 20
-0.1066105000000022
 30
0.0
 11
19.426242
 21
-1.064761499999999
 31
0.0
  0
LINE
  5
2D23
330
BF7
100
AcDbEntity
  8
1
100
AcDbLine
 10
15.67867000000001
 20
0.8915904999999995
 30
0.0
 11
17.57885
 21
-0.1066105000000022
 31
0.0
  0
LINE
  5
2D24
330
BF7
100
AcDbEntity
  8
1
100
AcDbLine
 10
13.83129600000001
 20
1.7504495
 30
0.0
 11
15.67867000000001
 21
0.8915904999999995
 31
0.0
  0
LINE
  5
2D25
330
BF7
100
AcDbEntity
  8
1
100
AcDbLine
 10
13.79093400000001
 20
1.767239499999996
 30
0.0
 11
13.83130200000001
 21
1.750446499999998
 31
0.0
  0
LINE
  5
2D26
330
BF7
100
AcDbEntity
  8
1
100
AcDbLine
 10
12.95885
 20
2.076283499999996
 30
0.0
 11
13.79093400000001
 21
1.767239499999996
 31
0.0
  0
LINE
  5
2D27
330
BF7
100
AcDbEntity
  8
1
100
AcDbLine
 10
11.067681
 20
2.520430499999998
 30
0.0
 11
12.95885
 21
2.076283499999996
 31
0.0
  0
LINE
  5
2D28
330
BF7
100
AcDbEntity
  8
1
100
AcDbLine
 10
9.132449000000008
 20
2.693360499999998
 30
0.0
 11
11.067681
 21
2.520430499999998
 31
0.0
  0
LINE
  5
2D29
330
BF7
100
AcDbEntity
  8
1
100
AcDbLine
 10
7.713374
 20
2.726201499999993
 30
0.0
 11
9.132449000000008
 21
2.693360499999998
 31
0.0
  0
LINE
  5
2D2A
330
BF7
100
AcDbEntity
  8
1
100
AcDbLine
 10
6.776270000000008
 20
2.723243500000001
 30
0.0
 11
7.713374
 21
2.726201499999993
 31
0.0
  0
LINE
  5
2D2B
330
BF7
100
AcDbEntity
  8
1
100
AcDbLine
 10
6.565477999999997
 20
2.678987499999999
 30
0.0
 11
6.776270000000008
 21
2.723243500000001
 31
0.0
  0
LINE
  5
2D2C
330
BF7
100
AcDbEntity
  8
1
100
AcDbLine
 10
6.175888999999997
 20
2.506992499999999
 30
0.0
 11
6.565477999999997
 21
2.678987499999999
 31
0.0
  0
LINE
  5
2D2D
330
BF7
100
AcDbEntity
  8
1
100
AcDbLine
 10
6.035865999999997
 20
2.343824499999999
 30
0.0
 11
6.175888999999997
 21
2.506992499999999
 31
0.0
  0
LINE
  5
2D2E
330
BF7
100
AcDbEntity
  8
1
100
AcDbLine
 10
6.002383000000008
 20
2.085564499999995
 30
0.0
 11
6.035865999999997
 21
2.343824499999999
 31
0.0
  0
LINE
  5
2D2F
330
BF7
100
AcDbEntity
  8
1
100
AcDbLine
 10
6.151205000000002
 20
1.738228499999998
 30
0.0
 11
6.002383000000008
 21
2.085564499999995
 31
0.0
  0
LINE
  5
2D30
330
BF7
100
AcDbEntity
  8
1
100
AcDbLine
 10
6.428386999999998
 20
1.397509499999997
 30
0.0
 11
6.151205000000002
 21
1.738228499999998
 31
0.0
  0
LINE
  5
2D31
330
BF7
100
AcDbEntity
  8
1
100
AcDbLine
 10
6.800487000000002
 20
1.053756500000001
 30
0.0
 11
6.428386999999998
 21
1.397509499999997
 31
0.0
  0
LINE
  5
2D32
330
BF7
100
AcDbEntity
  8
1
100
AcDbLine
 10
7.216032000000013
 20
0.7335364999999996
 30
0.0
 11
6.800487000000002
 21
1.053756500000001
 31
0.0
  0
LINE
  5
2D33
330
BF7
100
AcDbEntity
  8
1
100
AcDbLine
 10
8.337397000000008
 20
0.0247375000000005
 30
0.0
 11
7.216032000000013
 21
0.7335364999999996
 31
0.0
  0
LINE
  5
2D34
330
BF7
100
AcDbEntity
  8
1
100
AcDbLine
 10
8.780780000000008
 20
-0.2163064999999982
 30
0.0
 11
8.337397000000008
 21
0.0247375000000005
 31
0.0
  0
LINE
  5
2D35
330
BF7
100
AcDbEntity
  8
1
100
AcDbLine
 10
10.38638100000001
 20
-1.0470395
 30
0.0
 11
8.780756000000009
 21
-0.2163004999999991
 31
0.0
  0
LINE
  5
2D36
330
BF7
100
AcDbEntity
  8
1
100
AcDbLine
 10
11.959565
 20
-1.765569499999999
 30
0.0
 11
10.38638100000001
 21
-1.0470395
 31
0.0
  0
LINE
  5
2D37
330
BF7
100
AcDbEntity
  8
1
100
AcDbLine
 10
13.167443
 20
-2.211567500000001
 30
0.0
 11
11.959565
 21
-1.765569499999999
 31
0.0
  0
LINE
  5
2D38
330
BF7
100
AcDbEntity
  8
1
100
AcDbLine
 10
13.167443
 20
-2.211567500000001
 30
0.0
 11
8.719695000000013
 21
-2.211567500000001
 31
0.0
  0
LINE
  5
2D39
330
BF7
100
AcDbEntity
  8
1
100
AcDbLine
 10
8.382004000000009
 20
-2.5515715
 30
0.0
 11
8.373853000000011
 21
-2.625927500000003
 31
0.0
  0
LINE
  5
2D3A
330
BF7
100
AcDbEntity
  8
1
100
AcDbLine
 10
8.457937999999996
 20
-2.369758499999999
 30
0.0
 11
8.382004000000009
 21
-2.5515715
 31
0.0
  0
LINE
  5
2D3B
330
BF7
100
AcDbEntity
  8
1
100
AcDbLine
 10
8.541587000000005
 20
-2.277491500000003
 30
0.0
 11
8.457937999999996
 21
-2.369758499999999
 31
0.0
  0
LINE
  5
2D3C
330
BF7
100
AcDbEntity
  8
1
100
AcDbLine
 10
8.611362999999997
 20
-2.234872499999999
 30
0.0
 11
8.541587000000005
 21
-2.277491500000003
 31
0.0
  0
LINE
  5
2D3D
330
BF7
100
AcDbEntity
  8
1
100
AcDbLine
 10
8.662200999999996
 20
-2.218017500000001
 30
0.0
 11
8.611362999999997
 21
-2.234872499999999
 31
0.0
  0
LINE
  5
2D3E
330
BF7
100
AcDbEntity
  8
1
100
AcDbLine
 10
8.719695000000013
 20
-2.211567500000001
 30
0.0
 11
8.662200999999996
 21
-2.218017500000001
 31
0.0
  0
LINE
  5
2D40
330
BF7
100
AcDbEntity
  8
1
100
AcDbLine
 10
74.089681
 20
-2.676072500000003
 30
0.0
 11
77.49723700000003
 21
-2.555490499999999
 31
0.0
  0
LINE
  5
2D41
330
BF7
100
AcDbEntity
  8
1
100
AcDbLine
 10
72.24710900000002
 20
-2.251606499999999
 30
0.0
 11
74.089681
 21
-2.676072500000003
 31
0.0
  0
LINE
  5
2D42
330
BF7
100
AcDbEntity
  8
1
100
AcDbLine
 10
70.40453700000002
 20
-1.547844500000003
 30
0.0
 11
72.24710900000002
 21
-2.251606499999999
 31
0.0
  0
LINE
  5
2D43
330
BF7
100
AcDbEntity
  8
1
100
AcDbLine
 10
68.561978
 20
-0.6520834999999999
 30
0.0
 11
70.40453700000002
 21
-1.547844500000003
 31
0.0
  0
LINE
  5
2D44
330
BF7
100
AcDbEntity
  8
1
100
AcDbLine
 10
66.719406
 20
0.3245554999999989
 30
0.0
 11
68.561978
 21
-0.6520834999999999
 31
0.0
  0
LINE
  5
2D45
330
BF7
100
AcDbEntity
  8
1
100
AcDbLine
 10
64.87684700000001
 20
1.2609475
 30
0.0
 11
66.719406
 21
0.3245554999999989
 31
0.0
  0
LINE
  5
2D46
330
BF7
100
AcDbEntity
  8
1
100
AcDbLine
 10
63.03427499999999
 20
2.040920499999995
 30
0.0
 11
64.87684700000001
 21
1.2609475
 31
0.0
  0
LINE
  5
2D47
330
BF7
100
AcDbEntity
  8
1
100
AcDbLine
 10
61.191704
 20
2.567738499999995
 30
0.0
 11
63.03427499999999
 21
2.040920499999995
 31
0.0
  0
LINE
  5
2D48
330
BF7
100
AcDbEntity
  8
1
100
AcDbLine
 10
59.34914400000001
 20
2.7760435
 30
0.0
 11
61.191704
 21
2.567738499999995
 31
0.0
  0
LINE
  5
2D49
330
BF7
100
AcDbEntity
  8
1
100
AcDbLine
 10
59.15429199999998
 20
2.761658499999995
 30
0.0
 11
59.34914400000001
 21
2.7760435
 31
0.0
  0
LINE
  5
2D4A
330
BF7
100
AcDbEntity
  8
1
100
AcDbLine
 10
40.923476
 20
-2.598641500000002
 30
0.0
 11
44.31397899999999
 21
-2.6390625
 31
0.0
  0
LINE
  5
2D4B
330
BF7
100
AcDbEntity
  8
1
100
AcDbLine
 10
39.080905
 20
-2.097012499999999
 30
0.0
 11
40.923476
 21
-2.598641500000002
 31
0.0
  0
LINE
  5
2D4C
330
BF7
100
AcDbEntity
  8
1
100
AcDbLine
 10
37.23833300000001
 20
-1.3352725
 30
0.0
 11
39.080905
 21
-2.097012499999999
 31
0.0
  0
LINE
  5
2D4D
330
BF7
100
AcDbEntity
  8
1
100
AcDbLine
 10
35.39577400000001
 20
-0.4078945000000014
 30
0.0
 11
37.23833300000001
 21
-1.3352725
 31
0.0
  0
LINE
  5
2D4E
330
BF7
100
AcDbEntity
  8
1
100
AcDbLine
 10
33.553202
 20
0.5700734999999995
 30
0.0
 11
35.39577400000001
 21
-0.4078945000000014
 31
0.0
  0
LINE
  5
2D4F
330
BF7
100
AcDbEntity
  8
1
100
AcDbLine
 10
31.71064300000001
 20
1.477334499999995
 30
0.0
 11
33.553202
 21
0.5700734999999995
 31
0.0
  0
LINE
  5
2D50
330
BF7
100
AcDbEntity
  8
1
100
AcDbLine
 10
29.86807100000002
 20
2.2013365
 30
0.0
 11
31.71064300000001
 21
1.477334499999995
 31
0.0
  0
LINE
  5
2D51
330
BF7
100
AcDbEntity
  8
1
100
AcDbLine
 10
28.02550500000001
 20
2.652286499999997
 30
0.0
 11
29.86807100000002
 21
2.2013365
 31
0.0
  0
LINE
  5
2D52
330
BF7
100
AcDbEntity
  8
1
100
AcDbLine
 10
26.45242400000001
 20
2.756401499999995
 30
0.0
 11
28.02550500000001
 21
2.652286499999997
 31
0.0
  0
LINE
  5
2D53
330
BF7
100
AcDbEntity
  8
1
100
AcDbLine
 10
14.732718
 20
-1.729858500000002
 30
0.0
 11
15.03084100000001
 21
-1.617601499999999
 31
0.0
  0
LINE
  5
2D54
330
BF7
100
AcDbEntity
  8
1
100
AcDbLine
 10
9.599013999999996
 20
-2.7649425
 30
0.0
 11
11.65727599999999
 21
-2.638614499999999
 31
0.0
  0
LINE
  5
2D55
330
BF7
100
AcDbEntity
  8
1
100
AcDbLine
 10
8.618647999999991
 20
-2.665647500000002
 30
0.0
 11
9.599013999999996
 21
-2.7649425
 31
0.0
  0
LINE
  5
2D56
330
BF7
100
AcDbEntity
  8
1
100
AcDbLine
 10
8.373853000000011
 20
-2.625927500000003
 30
0.0
 11
8.618647999999991
 21
-2.665647500000002
 31
0.0
  0
LINE
  5
2D57
330
BF7
100
AcDbEntity
  8
1
100
AcDbLine
 10
89.872317
 20
2.718195499999995
 30
0.0
 11
91.05456100000003
 21
2.777482499999995
 31
0.0
  0
LINE
  5
2D58
330
BF7
100
AcDbEntity
  8
1
100
AcDbLine
 10
88.703275
 20
2.5221865
 30
0.0
 11
89.872317
 21
2.718195499999995
 31
0.0
  0
LINE
  5
2D59
330
BF7
100
AcDbEntity
  8
1
100
AcDbLine
 10
86.84455800000002
 20
1.956084499999999
 30
0.0
 11
88.703275
 21
2.5221865
 31
0.0
  0
LINE
  5
2D5A
330
BF7
100
AcDbEntity
  8
1
100
AcDbLine
 10
86.407073
 20
1.764059499999996
 30
0.0
 11
86.84455800000002
 21
1.956084499999999
 31
0.0
  0
LINE
  5
2D5B
330
BF7
100
AcDbEntity
  8
1
100
AcDbLine
 10
71.86319400000002
 20
-2.401546500000002
 30
0.0
 11
74.603675
 21
-2.734660499999998
 31
0.0
  0
LINE
  5
2D5C
330
BF7
100
AcDbEntity
  8
1
100
AcDbLine
 10
69.95085900000002
 20
-1.739647500000003
 30
0.0
 11
71.86319400000002
 21
-2.401546500000002
 31
0.0
  0
LINE
  5
2D5D
330
BF7
100
AcDbEntity
  8
1
100
AcDbLine
 10
68.09242099999998
 20
-0.8727855000000024
 30
0.0
 11
69.95085900000002
 21
-1.739647500000003
 31
0.0
  0
LINE
  5
2D5E
330
BF7
100
AcDbEntity
  8
1
100
AcDbLine
 10
66.197333
 20
0.123647499999997
 30
0.0
 11
68.09242099999998
 21
-0.8727855000000024
 31
0.0
  0
LINE
  5
2D5F
330
BF7
100
AcDbEntity
  8
1
100
AcDbLine
 10
64.35473700000001
 20
1.0781555
 30
0.0
 11
66.197333
 21
0.123647499999997
 31
0.0
  0
LINE
  5
2D60
330
BF7
100
AcDbEntity
  8
1
100
AcDbLine
 10
62.51208100000001
 20
1.898941499999999
 30
0.0
 11
64.35473700000001
 21
1.0781555
 31
0.0
  0
LINE
  5
2D61
330
BF7
100
AcDbEntity
  8
1
100
AcDbLine
 10
60.65334000000003
 20
2.488001499999995
 30
0.0
 11
62.51208100000001
 21
1.898941499999999
 31
0.0
  0
LINE
  5
2D62
330
BF7
100
AcDbEntity
  8
1
100
AcDbLine
 10
58.74129599999999
 20
2.765833499999995
 30
0.0
 11
60.65334000000003
 21
2.488001499999995
 31
0.0
  0
LINE
  5
2D63
330
BF7
100
AcDbEntity
  8
1
100
AcDbLine
 10
56.8831
 20
2.682169499999996
 30
0.0
 11
58.74129599999999
 21
2.765833499999995
 31
0.0
  0
LINE
  5
2D64
330
BF7
100
AcDbEntity
  8
1
100
AcDbLine
 10
54.98819400000001
 20
2.248729499999999
 30
0.0
 11
56.8831
 21
2.682169499999996
 31
0.0
  0
LINE
  5
2D65
330
BF7
100
AcDbEntity
  8
1
100
AcDbLine
 10
53.72763700000001
 20
1.766464499999995
 30
0.0
 11
54.98819400000001
 21
2.248729499999999
 31
0.0
  0
LINE
  5
2D66
330
BF7
100
AcDbEntity
  8
1
100
AcDbLine
 10
40.00747099999999
 20
-2.595551499999999
 30
0.0
 11
41.90496899999997
 21
-2.777791500000001
 31
0.0
  0
LINE
  5
2D67
330
BF7
100
AcDbEntity
  8
1
100
AcDbLine
 10
38.16463300000001
 20
-2.0912405
 30
0.0
 11
40.00747099999999
 21
-2.595551499999999
 31
0.0
  0
LINE
  5
2D68
330
BF7
100
AcDbEntity
  8
1
100
AcDbLine
 10
36.30594100000003
 20
-1.319878500000001
 30
0.0
 11
38.16463300000001
 21
-2.0912405
 31
0.0
  0
LINE
  5
2D69
330
BF7
100
AcDbEntity
  8
1
100
AcDbLine
 10
34.393473
 20
-0.3537405000000007
 30
0.0
 11
36.30594100000003
 21
-1.319878500000001
 31
0.0
  0
LINE
  5
2D6A
330
BF7
100
AcDbEntity
  8
1
100
AcDbLine
 10
32.53498700000001
 20
0.6318944999999943
 30
0.0
 11
34.393473
 21
-0.3537405000000007
 31
0.0
  0
LINE
  5
2D6B
330
BF7
100
AcDbEntity
  8
1
100
AcDbLine
 10
30.62287000000001
 20
1.5612315
 30
0.0
 11
32.53498700000001
 21
0.6318944999999943
 31
0.0
  0
LINE
  5
2D6C
330
BF7
100
AcDbEntity
  8
1
100
AcDbLine
 10
28.76480700000001
 20
2.265985499999999
 30
0.0
 11
30.62287000000001
 21
1.5612315
 31
0.0
  0
LINE
  5
2D6D
330
BF7
100
AcDbEntity
  8
1
100
AcDbLine
 10
26.87007700000001
 20
2.689630499999998
 30
0.0
 11
28.76480700000001
 21
2.265985499999999
 31
0.0
  0
LINE
  5
2D6E
330
BF7
100
AcDbEntity
  8
1
100
AcDbLine
 10
25.027984
 20
2.763808499999995
 30
0.0
 11
26.87007700000001
 21
2.689630499999998
 31
0.0
  0
LINE
  5
2D6F
330
BF7
100
AcDbEntity
  8
1
100
AcDbLine
 10
23.18493400000001
 20
2.4951295
 30
0.0
 11
25.027984
 21
2.763808499999995
 31
0.0
  0
LINE
  5
2D70
330
BF7
100
AcDbEntity
  8
1
100
AcDbLine
 10
21.326514
 20
1.910744499999995
 30
0.0
 11
23.18493400000001
 21
2.4951295
 31
0.0
  0
LINE
  5
2D71
330
BF7
100
AcDbEntity
  8
1
100
AcDbLine
 10
20.99392800000001
 20
1.762682499999995
 30
0.0
 11
21.326514
 21
1.910744499999995
 31
0.0
  0
LINE
  5
2D72
330
BF7
100
AcDbEntity
  8
1
100
AcDbLine
 10
0.1219950000000125
 20
1.485558499999995
 30
0.0
 11
0.1219950000000125
 21
0.6297634999999957
 31
0.0
  0
LINE
  5
2D73
330
BF7
100
AcDbEntity
  8
1
100
AcDbLine
 10
0.1219950000000125
 20
2.175665499999996
 30
0.0
 11
0.1219950000000125
 21
1.485558499999995
 31
0.0
  0
LINE
  5
2D74
330
BF7
100
AcDbEntity
  8
1
100
AcDbLine
 10
0.1219950000000125
 20
2.623113499999995
 30
0.0
 11
0.1219950000000125
 21
2.175665499999996
 31
0.0
  0
LINE
  5
2D75
330
BF7
100
AcDbEntity
  8
1
100
AcDbLine
 10
0.1219950000000125
 20
2.777999499999998
 30
0.0
 11
0.1219950000000125
 21
2.623113499999995
 31
0.0
  0
LINE
  5
2D76
330
BF7
100
AcDbEntity
  8
1
100
AcDbLine
 10
0.1219950000000125
 20
-2.654038499999996
 30
0.0
 11
0.1219950000000125
 21
-2.7780005
 31
0.0
  0
LINE
  5
2D77
330
BF7
100
AcDbEntity
  8
1
100
AcDbLine
 10
0.1219950000000125
 20
-2.293118500000002
 30
0.0
 11
0.1219950000000125
 21
-2.654038499999996
 31
0.0
  0
LINE
  5
2D78
330
BF7
100
AcDbEntity
  8
1
100
AcDbLine
 10
0.1219950000000125
 20
-1.727466500000002
 30
0.0
 11
0.1219950000000125
 21
-2.293118500000002
 31
0.0
  0
LINE
  5
2D79
330
BF7
100
AcDbEntity
  8
1
100
AcDbLine
 10
0.1219950000000125
 20
-1.007579500000002
 30
0.0
 11
0.1219950000000125
 21
-1.727466500000002
 31
0.0
  0
LINE
  5
2D7A
330
BF7
100
AcDbEntity
  8
1
100
AcDbLine
 10
0.1219950000000125
 20
-0.1977355000000038
 30
0.0
 11
0.1219950000000125
 21
-1.007579500000002
 31
0.0
  0
LINE
  5
2D7B
330
BF7
100
AcDbEntity
  8
1
100
AcDbLine
 10
0.1219950000000125
 20
0.6297634999999957
 30
0.0
 11
0.1219950000000125
 21
-0.1977355000000038
 31
0.0
  0
LINE
  5
2D7C
330
BF7
100
AcDbEntity
  8
1
100
AcDbLine
 10
82.25196100000003
 20
0.6688534999999975
 30
0.0
 11
82.67446400000002
 21
0.4568484999999998
 31
0.0
  0
LINE
  5
2D7D
330
BF7
100
AcDbEntity
  8
1
100
AcDbLine
 10
81.82947
 20
0.8808565000000001
 30
0.0
 11
82.25196100000003
 21
0.6688534999999975
 31
0.0
  0
LINE
  5
2D7E
330
BF7
100
AcDbEntity
  8
1
100
AcDbLine
 10
31.300881
 20
1.650597499999999
 30
0.0
 11
31.69699300000001
 21
1.473934499999996
 31
0.0
  0
LINE
  5
2D7F
330
BF7
100
AcDbEntity
  8
1
100
AcDbLine
 10
30.90388500000002
 20
1.813369499999995
 30
0.0
 11
31.300881
 21
1.650597499999999
 31
0.0
  0
LINE
  5
2D80
330
BF7
100
AcDbEntity
  8
1
100
AcDbLine
 10
30.57515000000001
 20
1.937801499999995
 30
0.0
 11
30.90388500000002
 21
1.813369499999995
 31
0.0
  0
LINE
  5
2D81
330
BF7
100
AcDbEntity
  8
1
100
AcDbLine
 10
31.84923600000002
 20
1.408779499999995
 30
0.0
 11
32.00148
 21
1.343621499999995
 31
0.0
  0
LINE
  5
2D82
330
BF7
100
AcDbEntity
  8
1
100
AcDbLine
 10
31.69699300000001
 20
1.473934499999996
 30
0.0
 11
31.84923600000002
 21
1.408779499999995
 31
0.0
  0
LINE
  5
2D83
330
BF7
100
AcDbEntity
  8
1
100
AcDbLine
 10
63.735371
 20
1.7589915
 30
0.0
 11
64.42860600000002
 21
1.454728499999996
 31
0.0
  0
LINE
  5
2D84
330
BF7
100
AcDbEntity
  8
1
100
AcDbLine
 10
63.04117900000001
 20
2.019628499999999
 30
0.0
 11
63.735371
 21
1.7589915
 31
0.0
  0
LINE
  5
2D85
330
BF7
100
AcDbEntity
  8
1
100
AcDbLine
 10
62.30619499999999
 20
2.248393500000001
 30
0.0
 11
63.04117900000001
 21
2.019628499999999
 31
0.0
  0
LINE
  5
2D86
330
BF7
100
AcDbEntity
  8
1
100
AcDbLine
 10
64.56499599999999
 20
1.399196499999997
 30
0.0
 11
64.701385
 21
1.343667499999998
 31
0.0
  0
LINE
  5
2D87
330
BF7
100
AcDbEntity
  8
1
100
AcDbLine
 10
64.42860600000002
 20
1.454728499999996
 30
0.0
 11
64.56499599999999
 21
1.399196499999997
 31
0.0
  0
LINE
  5
2D8B
330
BF7
100
AcDbEntity
  8
1
100
AcDbLine
 10
15.04233500000001
 20
-1.599715500000002
 30
0.0
 11
14.732882
 21
-1.7358025
 31
0.0
  0
LINE
  5
2D8C
330
BF7
100
AcDbEntity
  8
1
100
AcDbLine
 10
11.110738
 20
-2.6254275
 30
0.0
 11
10.37293100000001
 21
-2.6388025
 31
0.0
  0
LINE
  5
2D8D
330
BF7
100
AcDbEntity
  8
1
100
AcDbLine
 10
87.95814100000002
 20
1.143534499999997
 30
0.0
 11
87.81936600000001
 21
1.2053065
 31
0.0
  0
LINE
  5
2D8E
330
BF7
100
AcDbEntity
  8
1
100
AcDbLine
 10
88.09717099999998
 20
1.082255499999996
 30
0.0
 11
87.95814100000002
 21
1.143534499999997
 31
0.0
  0
LINE
  5
2D8F
330
BF7
100
AcDbEntity
  8
1
100
AcDbLine
 10
88.58392700000001
 20
0.872359499999998
 30
0.0
 11
88.09717099999998
 21
1.082255499999996
 31
0.0
  0
LINE
  5
2D90
330
BF7
100
AcDbEntity
  8
1
100
AcDbLine
 10
89.07356500000002
 20
0.6688904999999963
 30
0.0
 11
88.58392700000001
 21
0.872359499999998
 31
0.0
  0
LINE
  5
2D91
330
BF7
100
AcDbEntity
  8
1
100
AcDbLine
 10
89.30145800000003
 20
0.5769384999999973
 30
0.0
 11
89.07356500000002
 21
0.6688904999999963
 31
0.0
  0
LINE
  5
2D92
330
BF7
100
AcDbEntity
  8
1
100
AcDbLine
 10
89.529957
 20
0.4864555000000017
 30
0.0
 11
89.30145800000003
 21
0.5769384999999973
 31
0.0
  0
LINE
  5
2D93
330
BF7
100
AcDbEntity
  8
1
100
AcDbLine
 10
55.19514599999999
 20
1.171239499999997
 30
0.0
 11
55.03418199999998
 21
1.243173500000001
 31
0.0
  0
LINE
  5
2D94
330
BF7
100
AcDbEntity
  8
1
100
AcDbLine
 10
55.35638900000002
 20
1.100010499999998
 30
0.0
 11
55.19514599999999
 21
1.171239499999997
 31
0.0
  0
LINE
  5
2D95
330
BF7
100
AcDbEntity
  8
1
100
AcDbLine
 10
55.854178
 20
0.8855554999999988
 30
0.0
 11
55.35638900000002
 21
1.100010499999998
 31
0.0
  0
LINE
  5
2D96
330
BF7
100
AcDbEntity
  8
1
100
AcDbLine
 10
56.354305
 20
0.6768384999999954
 30
0.0
 11
55.854178
 21
0.8855554999999988
 31
0.0
  0
LINE
  5
2D97
330
BF7
100
AcDbEntity
  8
1
100
AcDbLine
 10
56.92306899999998
 20
0.4457784999999995
 30
0.0
 11
56.354305
 21
0.6768384999999954
 31
0.0
  0
LINE
  5
2D98
330
BF7
100
AcDbEntity
  8
1
100
AcDbLine
 10
57.49411000000002
 20
0.2208915000000005
 30
0.0
 11
56.92306899999998
 21
0.4457784999999995
 31
0.0
  0
LINE
  5
2D99
330
BF7
100
AcDbEntity
  8
1
100
AcDbLine
 10
58.13601600000001
 20
-0.0225735000000036
 30
0.0
 11
57.49411000000002
 21
0.2208915000000005
 31
0.0
  0
LINE
  5
2D9A
330
BF7
100
AcDbEntity
  8
1
100
AcDbLine
 10
58.780974
 20
-0.2575314999999989
 30
0.0
 11
58.13601600000001
 21
-0.0225735000000036
 31
0.0
  0
LINE
  5
2D9B
330
BF7
100
AcDbEntity
  8
1
100
AcDbLine
 10
24.18115400000001
 20
0.4618654999999984
 30
0.0
 11
22.31263400000002
 21
1.259863499999994
 31
0.0
  0
LINE
  5
2D9C
330
BF7
100
AcDbEntity
  8
1
100
AcDbLine
 10
26.080039
 20
-0.2572015000000007
 30
0.0
 11
24.18115400000001
 21
0.4618654999999984
 31
0.0
  0
LINE
  5
2D9D
330
BF7
100
AcDbEntity
  8
1
100
AcDbLine
 10
71.51924699999998
 20
1.182630500000001
 30
0.0
 11
71.33453200000002
 21
1.2652315
 31
0.0
  0
LINE
  5
2D9E
330
BF7
100
AcDbEntity
  8
1
100
AcDbLine
 10
71.704325
 20
1.100919499999995
 30
0.0
 11
71.51924699999998
 21
1.182630500000001
 31
0.0
  0
LINE
  5
2D9F
330
BF7
100
AcDbEntity
  8
1
100
AcDbLine
 10
72.20189599999997
 20
0.8866125000000018
 30
0.0
 11
71.704325
 21
1.100919499999995
 31
0.0
  0
LINE
  5
2DA0
330
BF7
100
AcDbEntity
  8
1
100
AcDbLine
 10
72.701769
 20
0.6778924999999987
 30
0.0
 11
72.20189599999997
 21
0.8866125000000018
 31
0.0
  0
LINE
  5
2DA1
330
BF7
100
AcDbEntity
  8
1
100
AcDbLine
 10
73.27083500000002
 20
0.4466474999999975
 30
0.0
 11
72.701769
 21
0.6778924999999987
 31
0.0
  0
LINE
  5
2DA2
330
BF7
100
AcDbEntity
  8
1
100
AcDbLine
 10
73.84220299999999
 20
0.2216334999999958
 30
0.0
 11
73.27083500000002
 21
0.4466474999999975
 31
0.0
  0
LINE
  5
2DA3
330
BF7
100
AcDbEntity
  8
1
100
AcDbLine
 10
74.48496899999998
 20
-0.0221775000000015
 30
0.0
 11
73.84220299999999
 21
0.2216334999999958
 31
0.0
  0
LINE
  5
2DA4
330
BF7
100
AcDbEntity
  8
1
100
AcDbLine
 10
75.13079900000002
 20
-0.2574645000000011
 30
0.0
 11
74.48496899999998
 21
-0.0221775000000015
 31
0.0
  0
LINE
  5
2DA5
330
BF7
100
AcDbEntity
  8
1
100
AcDbLine
 10
40.56218600000001
 20
0.4492724999999993
 30
0.0
 11
38.723175
 21
1.2338175
 31
0.0
  0
LINE
  5
2DA6
330
BF7
100
AcDbEntity
  8
1
100
AcDbLine
 10
42.431076
 20
-0.2575675000000039
 30
0.0
 11
40.56218600000001
 21
0.4492724999999993
 31
0.0
  0
LINE
  5
2DA7
330
BF7
100
AcDbEntity
  8
1
100
AcDbLine
 10
16.66975500000001
 20
2.638800500000002
 30
0.0
 11
11.584534
 21
2.638800500000002
 31
0.0
  0
LINE
  5
2DA8
330
BF7
100
AcDbEntity
  8
1
100
AcDbLine
 10
49.446527
 20
2.639091499999999
 30
0.0
 11
44.27770500000001
 21
2.639091499999999
 31
0.0
  0
LINE
  5
2DA9
330
BF7
100
AcDbEntity
  8
1
100
AcDbLine
 10
82.14546300000002
 20
2.639094499999995
 30
0.0
 11
76.97396400000002
 21
2.639094499999995
 31
0.0
  0
LINE
  5
2DAA
330
BF7
100
AcDbEntity
  8
1
100
AcDbLine
 10
62.49854
 20
-2.639094500000001
 30
0.0
 11
65.79701799999999
 21
-2.639094500000001
 31
0.0
  0
LINE
  5
2DAB
330
BF7
100
AcDbEntity
  8
1
100
AcDbLine
 10
59.20006200000002
 20
-2.639094500000001
 30
0.0
 11
62.49854
 21
-2.639094500000001
 31
0.0
  0
LINE
  5
2DAC
330
BF7
100
AcDbEntity
  8
1
100
AcDbLine
 10
29.79755700000001
 20
-2.639089499999998
 30
0.0
 11
33.09603500000001
 21
-2.639089499999998
 31
0.0
  0
LINE
  5
2DAD
330
BF7
100
AcDbEntity
  8
1
100
AcDbLine
 10
26.49907900000001
 20
-2.639089499999998
 30
0.0
 11
29.79755700000001
 21
-2.639089499999998
 31
0.0
  0
LINE
  5
2DAE
330
BF7
100
AcDbEntity
  8
1
100
AcDbLine
 10
33.09460600000001
 20
2.639088499999996
 30
0.0
 11
28.07949300000002
 21
2.639088499999996
 31
0.0
  0
LINE
  5
2DAF
330
BF7
100
AcDbEntity
  8
1
100
AcDbLine
 10
65.79535899999999
 20
2.639094499999995
 30
0.0
 11
60.560613
 21
2.639094499999995
 31
0.0
  0
LINE
  5
2DB0
330
BF7
100
AcDbEntity
  8
1
100
AcDbLine
 10
78.996721
 20
-2.639097499999999
 30
0.0
 11
82.14432499999999
 21
-2.639097499999999
 31
0.0
  0
LINE
  5
2DB1
330
BF7
100
AcDbEntity
  8
1
100
AcDbLine
 10
75.84913000000002
 20
-2.639097499999999
 30
0.0
 11
78.996721
 21
-2.639097499999999
 31
0.0
  0
LINE
  5
2DB2
330
BF7
100
AcDbEntity
  8
1
100
AcDbLine
 10
46.29681600000002
 20
-2.639092499999998
 30
0.0
 11
49.44441900000001
 21
-2.639092499999998
 31
0.0
  0
LINE
  5
2DB3
330
BF7
100
AcDbEntity
  8
1
100
AcDbLine
 10
43.149213
 20
-2.639092499999998
 30
0.0
 11
46.29681600000002
 21
-2.639092499999998
 31
0.0
  0
LINE
  5
2DB4
330
BF7
100
AcDbEntity
  8
1
100
AcDbLine
 10
13.52116500000001
 20
-2.638806499999999
 30
0.0
 11
16.668762
 21
-2.638806499999999
 31
0.0
  0
LINE
  5
2DB5
330
BF7
100
AcDbEntity
  8
1
100
AcDbLine
 10
10.37356700000001
 20
-2.638806499999999
 30
0.0
 11
13.52116500000001
 21
-2.638806499999999
 31
0.0
  0
LINE
  5
2DB6
330
BF7
100
AcDbEntity
  8
1
100
AcDbLine
 10
0.1219950000000125
 20
-2.7780005
 30
0.0
 11
10.102096
 21
-2.7780005
 31
0.0
  0
LINE
  5
2DB7
330
BF7
100
AcDbEntity
  8
1
100
AcDbLine
 10
25.552461
 20
-2.7780005
 30
0.0
 11
26.30913700000001
 21
-2.7780005
 31
0.0
  0
LINE
  5
2DB8
330
BF7
100
AcDbEntity
  8
1
100
AcDbLine
 10
41.90407299999999
 20
-2.7780005
 30
0.0
 11
42.80346100000001
 21
-2.7780005
 31
0.0
  0
LINE
  5
2DB9
330
BF7
100
AcDbEntity
  8
1
100
AcDbLine
 10
58.25588500000002
 20
-2.7780005
 30
0.0
 11
59.00916999999999
 21
-2.7780005
 31
0.0
  0
LINE
  5
2DBA
330
BF7
100
AcDbEntity
  8
1
100
AcDbLine
 10
74.60385700000002
 20
-2.7780005
 30
0.0
 11
75.50568
 21
-2.7780005
 31
0.0
  0
LINE
  5
2DBB
330
BF7
100
AcDbEntity
  8
1
100
AcDbLine
 10
75.35928600000002
 20
2.777999499999998
 30
0.0
 11
74.60385700000002
 21
2.777999499999998
 31
0.0
  0
LINE
  5
2DBC
330
BF7
100
AcDbEntity
  8
1
100
AcDbLine
 10
59.155285
 20
2.777999499999998
 30
0.0
 11
58.25588500000002
 21
2.777999499999998
 31
0.0
  0
LINE
  5
2DBD
330
BF7
100
AcDbEntity
  8
1
100
AcDbLine
 10
42.65930800000001
 20
2.777999499999998
 30
0.0
 11
41.90407299999999
 21
2.777999499999998
 31
0.0
  0
LINE
  5
2DBE
330
BF7
100
AcDbEntity
  8
1
100
AcDbLine
 10
26.452128
 20
2.777999499999998
 30
0.0
 11
25.552461
 21
2.777999499999998
 31
0.0
  0
LINE
  5
2DBF
330
BF7
100
AcDbEntity
  8
1
100
AcDbLine
 10
9.959342000000006
 20
2.777999499999998
 30
0.0
 11
0.1219950000000125
 21
2.777999499999998
 31
0.0
  0
LINE
  5
2DC0
330
BF7
100
AcDbEntity
  8
SK1
100
AcDbLine
 10
0.0
 20
3.000000500000001
 30
0.0
 11
-35.35048199999999
 21
3.000000500000001
 31
0.0
  0
LINE
  5
2DC1
330
BF7
100
AcDbEntity
  8
SK1
100
AcDbLine
 10
-35.35048199999999
 20
-3.000000500000001
 30
0.0
 11
0.0
 21
-3.000000500000001
 31
0.0
  0
LINE
  5
2DC3
330
BF7
100
AcDbEntity
  8
SK4
100
AcDbLine
 10
0.0
 20
0.0
 30
0.0
 11
-36.64872668861097
 21
0.0000000000000045
 31
0.0
  0
LINE
  5
2DC4
330
BF7
100
AcDbEntity
  8
SK4
100
AcDbLine
 10
0.0
 20
0.0
 30
0.0
 11
92.66986736828275
 21
0.0
 31
0.0
  0
LINE
  5
2DC5
330
BF7
100
AcDbEntity
  8
1
100
AcDbLine
 10
-0.0000049953476866
 20
2.899997499999996
 30
0.0
 11
-0.0000049953476877
 21
-2.900000499999998
 31
0.0
  0
DIMENSION
  5
2DC6
330
BF7
100
AcDbEntity
  8
SK2
100
AcDbDimension
  2
*D2
 10
-42.35718465057639
 20
-2.999713499999995
 30
0.0
 11
-42.2209226971554
 21
-18.24426459125169
 31
0.0
 70
   160
  1
%%C <>
 71
     5
 42
5.999713999999999
  3
SANDVIK_DIM
100
AcDbAlignedDimension
 13
-35.35048199999999
 23
3.000000500000001
 33
0.0
 14
-35.35048199999999
 24
-2.999713499999998
 34
0.0
 50
90.0
100
AcDbRotatedDimension
1001
ACAD
1000
DSTYLE
1002
{
1070
    40
1040
1.0
1002
}
  0
DIMENSION
  5
2DD4
330
BF7
100
AcDbEntity
  8
2
100
AcDbDimension
  2
*D3
 10
96.56051181773658
 20
-2.777482500000001
 30
0.0
 11
96.57786059936675
 21
-20.81718791663536
 31
0.0
 70
   160
  1
%%C <>
 71
     5
 42
5.554964999999997
  3
SANDVIK_DIM
100
AcDbAlignedDimension
 13
91.05456100000003
 23
2.777482499999995
 33
0.0
 14
91.05456100000003
 24
-2.777482500000001
 34
0.0
 50
90.0
100
AcDbRotatedDimension
1001
ACAD
1000
DSTYLE
1002
{
1070
    40
1040
1.0
1002
}
  0
DIMENSION
  5
2DE2
330
BF7
100
AcDbEntity
  8
SK2
100
AcDbDimension
  2
*D4
 10
24.05456100000002
 20
5.695139420261853
 30
0.0
 11
57.55456100000002
 21
9.495139420261851
 31
0.0
 70
    32
 71
     5
 42
67.0
  3
SANDVIK_DIM
100
AcDbAlignedDimension
 13
91.05456100000003
 23
2.777482499999995
 33
0.0
 14
24.05456100000002
 24
2.777482500000008
 34
0.0
100
AcDbRotatedDimension
1001
ACAD
1000
DSTYLE
1002
{
1070
    40
1040
1.0
1002
}
  0
DIMENSION
  5
2DEF
330
BF7
100
AcDbEntity
  8
2
100
AcDbDimension
  2
*D5
 10
5.999960999999997
 20
-8.819579953254731
 30
0.0
 11
48.999961
 21
-5.019579953254731
 31
0.0
 70
    32
 71
     5
 42
86.0
  3
SANDVIK_DIM
100
AcDbAlignedDimension
 13
91.99996099999999
 23
-0.0000005000000023
 33
0.0
 14
5.999960999999997
 24
-0.0000004999999918
 34
0.0
100
AcDbRotatedDimension
1001
ACAD
1000
DSTYLE
1002
{
1070
    40
1040
1.0
1002
}
  0
DIMENSION
  5
2DFC
330
BF7
100
AcDbEntity
  8
2
100
AcDbDimension
  2
*D6
 10
-0.0000000000000008
 20
-16.6577654439348
 30
0.0
 11
45.99998049999999
 21
-12.8577654439348
 31
0.0
 70
    32
 71
     5
 42
91.99996099999999
  3
SANDVIK_DIM
100
AcDbAlignedDimension
 13
91.99996099999999
 23
-0.0000005000000023
 33
0.0
 14
0.0
 24
-3.000000500000001
 34
0.0
100
AcDbRotatedDimension
1001
ACAD
1000
DSTYLE
1002
{
1070
    40
1040
1.0
1002
}
  0
DIMENSION
  5
2E09
330
BF7
100
AcDbEntity
  8
SK2
100
AcDbDimension
  2
*D7
 10
-36.000004
 20
-23.99227926860078
 30
0.0
 11
27.9999785
 21
-20.19227926860079
 31
0.0
 70
    32
 71
     5
 42
127.999965
  3
SANDVIK_DIM
100
AcDbAlignedDimension
 13
91.99996099999999
 23
-0.0000005000000023
 33
0.0
 14
-36.000004
 24
-2.624443499999999
 34
0.0
100
AcDbRotatedDimension
1001
ACAD
1000
DSTYLE
1002
{
1070
    40
1040
1.0
1002
}
  0
DIMENSION
  5
2E16
330
BF7
100
AcDbEntity
  8
SK2
100
AcDbDimension
  2
*D8
 10
-0.0000000000000008
 20
-16.6577654439348
 30
0.0
 11
-18.000002
 21
-12.8577654439348
 31
0.0
 70
    32
 71
     5
 42
36.000004
  3
SANDVIK_DIM
100
AcDbAlignedDimension
 13
-36.000004
 23
-2.624443499999999
 33
0.0
 14
0.0
 24
-3.000000500000001
 34
0.0
100
AcDbRotatedDimension
1001
ACAD
1000
DSTYLE
1002
{
1070
    40
1040
1.0
1002
}
  0
ENDSEC
  0
SECTION
  2
OBJECTS
  0
DICTIONARY
  5
BE3
330
0
100
AcDbDictionary
281
     1
  3
ACAD_CIP_PREVIOUS_PRODUCT_INFO
350
2EBD
  3
ACAD_COLOR
350
BF2
  3
ACAD_DETAILVIEWSTYLE
350
2EBA
  3
ACAD_GROUP
350
BE4
  3
ACAD_LAYOUT
350
BF0
  3
ACAD_MATERIAL
350
BF1
  3
ACAD_MLEADERSTYLE
350
2EB5
  3
ACAD_MLINESTYLE
350
BED
  3
ACAD_PLOTSETTINGS
350
BEF
  3
ACAD_PLOTSTYLENAME
350
BE5
  3
ACAD_SCALELIST
350
2EA3
  3
ACAD_SECTIONVIEWSTYLE
350
2EB7
  3
ACAD_TABLESTYLE
350
2EA1
  3
ACAD_VISUALSTYLE
350
2E88
  3
ACDB_RECOMPOSE_DATA
350
2F1F
  3
AcDbVariableDictionary
350
2F12
  3
ASE_INDEX_DICTIONARY
350
2F0F
  3
DWGPROPS
350
2F20
  0
DICTIONARY
  5
2EC0
330
BE7
100
AcDbDictionary
280
     1
281
     1
  3
ADSK_XREC_LAYER_RECONCILED
360
2EC1
  0
DICTIONARY
  5
2EC2
330
BFB
100
AcDbDictionary
280
     1
281
     1
  3
ADSK_XREC_LAYER_RECONCILED
360
2EC3
  0
DICTIONARY
  5
2EC4
330
C00
100
AcDbDictionary
280
     1
281
     1
  3
ADSK_XREC_LAYER_RECONCILED
360
2EC5
  0
DICTIONARY
  5
2EC6
330
C01
100
AcDbDictionary
280
     1
281
     1
  3
ADSK_XREC_LAYER_RECONCILED
360
2EC7
  0
DICTIONARY
  5
2EC8
330
C02
100
AcDbDictionary
280
     1
281
     1
  3
ADSK_XREC_LAYER_RECONCILED
360
2EC9
  0
DICTIONARY
  5
2ECA
330
C03
100
AcDbDictionary
280
     1
281
     1
  3
ADSK_XREC_LAYER_RECONCILED
360
2ECB
  0
DICTIONARY
  5
2ECC
330
C04
100
AcDbDictionary
280
     1
281
     1
  3
ADSK_XREC_LAYER_RECONCILED
360
2ECD
  0
DICTIONARY
  5
2ECE
330
C05
100
AcDbDictionary
280
     1
281
     1
  3
ADSK_XREC_LAYER_RECONCILED
360
2ECF
  0
DICTIONARY
  5
2ED0
330
C06
100
AcDbDictionary
280
     1
281
     1
  3
ADSK_XREC_LAYER_RECONCILED
360
2ED1
  0
DICTIONARY
  5
2ED2
330
C07
100
AcDbDictionary
280
     1
281
     1
  3
ADSK_XREC_LAYER_RECONCILED
360
2ED3
  0
DICTIONARY
  5
2ED4
330
C08
100
AcDbDictionary
280
     1
281
     1
  3
ADSK_XREC_LAYER_RECONCILED
360
2ED5
  0
DICTIONARY
  5
2ED6
330
C09
100
AcDbDictionary
280
     1
281
     1
  3
ADSK_XREC_LAYER_RECONCILED
360
2ED7
  0
DICTIONARY
  5
2ED8
330
C0A
100
AcDbDictionary
280
     1
281
     1
  3
ADSK_XREC_LAYER_RECONCILED
360
2ED9
  0
DICTIONARY
  5
2EDA
330
C0B
100
AcDbDictionary
280
     1
281
     1
  3
ADSK_XREC_LAYER_RECONCILED
360
2EDB
  0
DICTIONARY
  5
2EDC
330
C0C
100
AcDbDictionary
280
     1
281
     1
  3
ADSK_XREC_LAYER_RECONCILED
360
2EDD
  0
DICTIONARY
  5
2EDE
330
C0D
100
AcDbDictionary
280
     1
281
     1
  3
ADSK_XREC_LAYER_RECONCILED
360
2EDF
  0
DICTIONARY
  5
2EE0
330
C0E
100
AcDbDictionary
280
     1
281
     1
  3
ADSK_XREC_LAYER_RECONCILED
360
2EE1
  0
DICTIONARY
  5
2EE2
330
C0F
100
AcDbDictionary
280
     1
281
     1
  3
ADSK_XREC_LAYER_RECONCILED
360
2EE3
  0
DICTIONARY
  5
2EE4
330
C10
100
AcDbDictionary
280
     1
281
     1
  3
ADSK_XREC_LAYER_RECONCILED
360
2EE5
  0
DICTIONARY
  5
2EE6
330
C11
100
AcDbDictionary
280
     1
281
     1
  3
ADSK_XREC_LAYER_RECONCILED
360
2EE7
  0
DICTIONARY
  5
2EE8
330
C12
100
AcDbDictionary
280
     1
281
     1
  3
ADSK_XREC_LAYER_RECONCILED
360
2EE9
  0
DICTIONARY
  5
2EEA
330
C13
100
AcDbDictionary
280
     1
281
     1
  3
ADSK_XREC_LAYER_RECONCILED
360
2EEB
  0
DICTIONARY
  5
2EEC
330
C14
100
AcDbDictionary
280
     1
281
     1
  3
ADSK_XREC_LAYER_RECONCILED
360
2EED
  0
DICTIONARY
  5
2EEE
330
C15
100
AcDbDictionary
280
     1
281
     1
  3
ADSK_XREC_LAYER_RECONCILED
360
2EEF
  0
DICTIONARY
  5
2EF0
330
C16
100
AcDbDictionary
280
     1
281
     1
  3
ADSK_XREC_LAYER_RECONCILED
360
2EF1
  0
DICTIONARY
  5
2EF2
330
C17
100
AcDbDictionary
280
     1
281
     1
  3
ADSK_XREC_LAYER_RECONCILED
360
2EF3
  0
DICTIONARY
  5
2EF4
330
C18
100
AcDbDictionary
280
     1
281
     1
  3
ADSK_XREC_LAYER_RECONCILED
360
2EF5
  0
DICTIONARY
  5
2EF6
330
C19
100
AcDbDictionary
280
     1
281
     1
  3
ADSK_XREC_LAYER_RECONCILED
360
2EF7
  0
DICTIONARY
  5
2EF8
330
C1A
100
AcDbDictionary
280
     1
281
     1
  3
ADSK_XREC_LAYER_RECONCILED
360
2EF9
  0
DICTIONARY
  5
2EFA
330
C1B
100
AcDbDictionary
280
     1
281
     1
  3
ADSK_XREC_LAYER_RECONCILED
360
2EFB
  0
DICTIONARY
  5
2EFC
330
C1C
100
AcDbDictionary
280
     1
281
     1
  3
ADSK_XREC_LAYER_RECONCILED
360
2EFD
  0
DICTIONARY
  5
2EFE
330
C1D
100
AcDbDictionary
280
     1
281
     1
  3
ADSK_XREC_LAYER_RECONCILED
360
2EFF
  0
DICTIONARY
  5
2F00
330
C1E
100
AcDbDictionary
280
     1
281
     1
  3
ADSK_XREC_LAYER_RECONCILED
360
2F01
  0
DICTIONARY
  5
2F02
330
C1F
100
AcDbDictionary
280
     1
281
     1
  3
ADSK_XREC_LAYER_RECONCILED
360
2F03
  0
DICTIONARY
  5
2F04
330
C20
100
AcDbDictionary
280
     1
281
     1
  3
ADSK_XREC_LAYER_RECONCILED
360
2F05
  0
DICTIONARY
  5
2F06
330
C21
100
AcDbDictionary
280
     1
281
     1
  3
ADSK_XREC_LAYER_RECONCILED
360
2F07
  0
DICTIONARY
  5
2F08
330
C22
100
AcDbDictionary
280
     1
281
     1
  3
ADSK_XREC_LAYER_RECONCILED
360
2F09
  0
DICTIONARY
  5
2F0A
330
C23
100
AcDbDictionary
280
     1
281
     1
  3
ADSK_XREC_LAYER_RECONCILED
360
2F0B
  0
DICTIONARY
  5
2F0C
330
C42
100
AcDbDictionary
280
     1
281
     1
  3
ADSK_XREC_LAYER_RECONCILED
360
2F0D
  0
XRECORD
  5
2EBD
102
{ACAD_REACTORS
330
BE3
102
}
330
BE3
100
AcDbXrecord
280
     1
300
AMECH_PP
300
2013
300
PDSU_F_S
  0
DICTIONARY
  5
BF2
102
{ACAD_REACTORS
330
BE3
102
}
330
BE3
100
AcDbDictionary
281
     1
  0
DICTIONARY
  5
2EBA
102
{ACAD_REACTORS
330
BE3
102
}
330
BE3
100
AcDbDictionary
281
     1
  3
Imperial24
350
2EBB
  0
DICTIONARY
  5
BE4
102
{ACAD_REACTORS
330
BE3
102
}
330
BE3
100
AcDbDictionary
281
     1
  0
DICTIONARY
  5
BF0
102
{ACAD_REACTORS
330
BE3
102
}
330
BE3
100
AcDbDictionary
281
     1
  3
Layout1
350
BF6
  3
Model
350
BFA
  0
DICTIONARY
  5
BF1
102
{ACAD_REACTORS
330
BE3
102
}
330
BE3
100
AcDbDictionary
281
     1
  3
ByBlock
350
2E78
  3
ByLayer
350
2E70
  3
Global
350
2E80
  0
DICTIONARY
  5
2EB5
102
{ACAD_REACTORS
330
BE3
102
}
330
BE3
100
AcDbDictionary
281
     1
  3
Standard
350
2EB6
  0
DICTIONARY
  5
BED
102
{ACAD_REACTORS
330
BE3
102
}
330
BE3
100
AcDbDictionary
281
     1
  3
Standard
350
BEE
  0
DICTIONARY
  5
BEF
102
{ACAD_REACTORS
330
BE3
102
}
330
BE3
100
AcDbDictionary
281
     1
  0
ACDBDICTIONARYWDFLT
  5
BE5
102
{ACAD_REACTORS
330
BE3
102
}
330
BE3
100
AcDbDictionary
281
     1
  3
Normal
350
BE6
100
AcDbDictionaryWithDefault
340
BE6
  0
DICTIONARY
  5
2EA3
102
{ACAD_REACTORS
330
BE3
102
}
330
BE3
100
AcDbDictionary
281
     1
  3
A0
350
2EA4
  3
A1
350
2EA5
  3
A2
350
2EA6
  3
A3
350
2EA7
  3
A4
350
2EA8
  3
A5
350
2EA9
  3
A6
350
2EAA
  3
A7
350
2EAB
  3
A8
350
2EAC
  3
A9
350
2EAD
  3
B0
350
2EAE
  3
B1
350
2EAF
  3
B2
350
2EB0
  3
B3
350
2EB1
  3
B4
350
2EB2
  3
B5
350
2EB3
  3
B6
350
2EB4
  0
DICTIONARY
  5
2EB7
102
{ACAD_REACTORS
330
BE3
102
}
330
BE3
100
AcDbDictionary
281
     1
  3
Imperial24
350
2EB9
  0
DICTIONARY
  5
2EA1
102
{ACAD_REACTORS
330
BE3
102
}
330
BE3
100
AcDbDictionary
281
     1
  3
Standard
350
2EA2
  0
DICTIONARY
  5
2E88
102
{ACAD_REACTORS
330
BE3
102
}
330
BE3
100
AcDbDictionary
281
     1
  3
2dWireframe
350
2E8E
  3
Basic
350
2E8D
  3
Brighten
350
2E94
  3
ColorChange
350
2E98
  3
Conceptual
350
2E91
  3
Dim
350
2E93
  3
EdgeColorOff
350
2EA0
  3
Facepattern
350
2E97
  3
Flat
350
2E89
  3
FlatWithEdges
350
2E8A
  3
Gouraud
350
2E8B
  3
GouraudWithEdges
350
2E8C
  3
Hidden
350
2E90
  3
JitterOff
350
2E9E
  3
Linepattern
350
2E96
  3
OverhangOff
350
2E9F
  3
Realistic
350
2E92
  3
Shaded
350
2E9D
  3
Shaded with edges
350
2E9C
  3
Shades of Gray
350
2E99
  3
Sketchy
350
2E9A
  3
Thicken
350
2E95
  3
Wireframe
350
2E8F
  3
X-Ray
350
2E9B
  0
XRECORD
  5
2F1F
102
{ACAD_REACTORS
330
BE3
102
}
330
BE3
100
AcDbXrecord
280
     1
 90
        1
330
2EA2
  0
DICTIONARY
  5
2F12
102
{ACAD_REACTORS
330
BE3
102
}
330
BE3
100
AcDbDictionary
281
     1
  3
CANNOSCALE
350
2F17
  3
CMLEADERSTYLE
350
2F14
  3
CTABLESTYLE
350
2F13
  3
CVIEWDETAILSTYLE
350
2F15
  3
CVIEWSECTIONSTYLE
350
2F16
  3
DIMASSOC
350
2F1B
  3
INDEXCTL
350
2F19
  3
SORTENTS
350
2F18
  3
XCLIPFRAME
350
2F1A
  0
DICTIONARY
  5
2F0F
102
{ACAD_REACTORS
330
BE3
102
}
330
BE3
100
AcDbDictionary
281
     1
  3
ASEBlockHierarchyIndexRecord
350
2F11
1001
DCO15
1040
1815723888.462
  0
XRECORD
  5
2F20
102
{ACAD_REACTORS
330
BE3
102
}
330
BE3
100
AcDbXrecord
280
     1
  1
DWGPROPS COOKIE
  2

  3

  4

  6

  7

  8
Micke
  9

300
=
301
=
302
=
303
=
304
=
305
=
306
=
307
=
308
=
309
=
 40
0.1001045023148148
 41
2455817.64629206
 42
2456818.534634977
  1

 90
        0
  0
XRECORD
  5
2EC1
102
{ACAD_REACTORS
330
2EC0
102
}
330
2EC0
100
AcDbXrecord
280
     1
290
     1
  0
XRECORD
  5
2EC3
102
{ACAD_REACTORS
330
2EC2
102
}
330
2EC2
100
AcDbXrecord
280
     1
290
     1
  0
XRECORD
  5
2EC5
102
{ACAD_REACTORS
330
2EC4
102
}
330
2EC4
100
AcDbXrecord
280
     1
290
     1
  0
XRECORD
  5
2EC7
102
{ACAD_REACTORS
330
2EC6
102
}
330
2EC6
100
AcDbXrecord
280
     1
290
     1
  0
XRECORD
  5
2EC9
102
{ACAD_REACTORS
330
2EC8
102
}
330
2EC8
100
AcDbXrecord
280
     1
290
     1
  0
XRECORD
  5
2ECB
102
{ACAD_REACTORS
330
2ECA
102
}
330
2ECA
100
AcDbXrecord
280
     1
290
     1
  0
XRECORD
  5
2ECD
102
{ACAD_REACTORS
330
2ECC
102
}
330
2ECC
100
AcDbXrecord
280
     1
290
     1
  0
XRECORD
  5
2ECF
102
{ACAD_REACTORS
330
2ECE
102
}
330
2ECE
100
AcDbXrecord
280
     1
290
     1
  0
XRECORD
  5
2ED1
102
{ACAD_REACTORS
330
2ED0
102
}
330
2ED0
100
AcDbXrecord
280
     1
290
     1
  0
XRECORD
  5
2ED3
102
{ACAD_REACTORS
330
2ED2
102
}
330
2ED2
100
AcDbXrecord
280
     1
290
     1
  0
XRECORD
  5
2ED5
102
{ACAD_REACTORS
330
2ED4
102
}
330
2ED4
100
AcDbXrecord
280
     1
290
     1
  0
XRECORD
  5
2ED7
102
{ACAD_REACTORS
330
2ED6
102
}
330
2ED6
100
AcDbXrecord
280
     1
290
     1
  0
XRECORD
  5
2ED9
102
{ACAD_REACTORS
330
2ED8
102
}
330
2ED8
100
AcDbXrecord
280
     1
290
     1
  0
XRECORD
  5
2EDB
102
{ACAD_REACTORS
330
2EDA
102
}
330
2EDA
100
AcDbXrecord
280
     1
290
     1
  0
XRECORD
  5
2EDD
102
{ACAD_REACTORS
330
2EDC
102
}
330
2EDC
100
AcDbXrecord
280
     1
290
     1
  0
XRECORD
  5
2EDF
102
{ACAD_REACTORS
330
2EDE
102
}
330
2EDE
100
AcDbXrecord
280
     1
290
     1
  0
XRECORD
  5
2EE1
102
{ACAD_REACTORS
330
2EE0
102
}
330
2EE0
100
AcDbXrecord
280
     1
290
     1
  0
XRECORD
  5
2EE3
102
{ACAD_REACTORS
330
2EE2
102
}
330
2EE2
100
AcDbXrecord
280
     1
290
     1
  0
XRECORD
  5
2EE5
102
{ACAD_REACTORS
330
2EE4
102
}
330
2EE4
100
AcDbXrecord
280
     1
290
     1
  0
XRECORD
  5
2EE7
102
{ACAD_REACTORS
330
2EE6
102
}
330
2EE6
100
AcDbXrecord
280
     1
290
     1
  0
XRECORD
  5
2EE9
102
{ACAD_REACTORS
330
2EE8
102
}
330
2EE8
100
AcDbXrecord
280
     1
290
     1
  0
XRECORD
  5
2EEB
102
{ACAD_REACTORS
330
2EEA
102
}
330
2EEA
100
AcDbXrecord
280
     1
290
     1
  0
XRECORD
  5
2EED
102
{ACAD_REACTORS
330
2EEC
102
}
330
2EEC
100
AcDbXrecord
280
     1
290
     1
  0
XRECORD
  5
2EEF
102
{ACAD_REACTORS
330
2EEE
102
}
330
2EEE
100
AcDbXrecord
280
     1
290
     1
  0
XRECORD
  5
2EF1
102
{ACAD_REACTORS
330
2EF0
102
}
330
2EF0
100
AcDbXrecord
280
     1
290
     1
  0
XRECORD
  5
2EF3
102
{ACAD_REACTORS
330
2EF2
102
}
330
2EF2
100
AcDbXrecord
280
     1
290
     1
  0
XRECORD
  5
2EF5
102
{ACAD_REACTORS
330
2EF4
102
}
330
2EF4
100
AcDbXrecord
280
     1
290
     1
  0
XRECORD
  5
2EF7
102
{ACAD_REACTORS
330
2EF6
102
}
330
2EF6
100
AcDbXrecord
280
     1
290
     1
  0
XRECORD
  5
2EF9
102
{ACAD_REACTORS
330
2EF8
102
}
330
2EF8
100
AcDbXrecord
280
     1
290
     1
  0
XRECORD
  5
2EFB
102
{ACAD_REACTORS
330
2EFA
102
}
330
2EFA
100
AcDbXrecord
280
     1
290
     1
  0
XRECORD
  5
2EFD
102
{ACAD_REACTORS
330
2EFC
102
}
330
2EFC
100
AcDbXrecord
280
     1
290
     1
  0
XRECORD
  5
2EFF
102
{ACAD_REACTORS
330
2EFE
102
}
330
2EFE
100
AcDbXrecord
280
     1
290
     1
  0
XRECORD
  5
2F01
102
{ACAD_REACTORS
330
2F00
102
}
330
2F00
100
AcDbXrecord
280
     1
290
     1
  0
XRECORD
  5
2F03
102
{ACAD_REACTORS
330
2F02
102
}
330
2F02
100
AcDbXrecord
280
     1
290
     1
  0
XRECORD
  5
2F05
102
{ACAD_REACTORS
330
2F04
102
}
330
2F04
100
AcDbXrecord
280
     1
290
     1
  0
XRECORD
  5
2F07
102
{ACAD_REACTORS
330
2F06
102
}
330
2F06
100
AcDbXrecord
280
     1
290
     1
  0
XRECORD
  5
2F09
102
{ACAD_REACTORS
330
2F08
102
}
330
2F08
100
AcDbXrecord
280
     1
290
     1
  0
XRECORD
  5
2F0B
102
{ACAD_REACTORS
330
2F0A
102
}
330
2F0A
100
AcDbXrecord
280
     1
290
     1
  0
XRECORD
  5
2F0D
102
{ACAD_REACTORS
330
2F0C
102
}
330
2F0C
100
AcDbXrecord
280
     1
290
     1
  0
ACDBDETAILVIEWSTYLE
  5
2EBB
102
{ACAD_REACTORS
330
2EBA
102
}
330
2EBA
100
AcDbModelDocViewStyle
 70
     0
  3
Imperial24
290
     0
100
AcDbDetailViewStyle
 70
     0
 71
     0
 90
        3
 71
     1
340
BE8
 40
0.24
340
0
 40
0.24
300

 40
0.36
280
     3
 71
     2
340
BEC
 90
       25
 71
     3
340
BE8
 40
0.24
 90
        1
 40
0.75
 90
        1
300
%<\AcVar ViewType \f "%tc1">% %<\AcVar ViewDetailId>%\PSCALE %<\AcVar ViewScale \f "%sn">%
 71
     4
340
BEC
 90
       25
340
BEC
 90
       25
280
     0
  0
LAYOUT
  5
BF6
102
{ACAD_XDICTIONARY
360
2F21
102
}
102
{ACAD_REACTORS
330
BF0
102
}
330
BF0
100
AcDbPlotSettings
  1

  2
\\GBCFS501\GBCPR502
  4

  6

 40
0.0
 41
0.0
 42
0.0
 43
0.0
 44
0.0
 45
0.0
 46
0.0
 47
0.0
 48
0.0
 49
0.0
140
0.0
141
0.0
142
1.0
143
1.0
 70
   688
 72
     0
 73
     0
 74
     5
  7

 75
    16
147
1.0
148
0.0
149
0.0
100
AcDbLayout
  1
Layout1
 70
     1
 71
     1
 10
0.0
 20
0.0
 11
12.0
 21
9.0
 12
0.0
 22
0.0
 32
0.0
 14
1.000000000000000E+20
 24
1.000000000000000E+20
 34
1.000000000000000E+20
 15
-1.000000000000000E+20
 25
-1.000000000000000E+20
 35
-1.000000000000000E+20
146
0.0
 13
0.0
 23
0.0
 33
0.0
 16
1.0
 26
0.0
 36
0.0
 17
0.0
 27
1.0
 37
0.0
 76
     0
330
BF3
  0
LAYOUT
  5
BFA
102
{ACAD_XDICTIONARY
360
2F23
102
}
102
{ACAD_REACTORS
330
BF0
102
}
330
BF0
100
AcDbPlotSettings
  1

  2
\\GBCFS501\GBCPR502
  4

  6

 40
0.0
 41
0.0
 42
0.0
 43
0.0
 44
0.0
 45
0.0
 46
0.0
 47
0.0
 48
0.0
 49
0.0
140
0.0
141
0.0
142
1.0
143
1.0
 70
  1712
 72
     0
 73
     0
 74
     0
  7

 75
     0
147
1.0
148
0.0
149
0.0
100
AcDbLayout
  1
Model
 70
     1
 71
     0
 10
0.0
 20
0.0
 11
12.0
 21
9.0
 12
0.0
 22
0.0
 32
0.0
 14
0.0
 24
0.0
 34
0.0
 15
0.0
 25
0.0
 35
0.0
146
0.0
 13
0.0
 23
0.0
 33
0.0
 16
1.0
 26
0.0
 36
0.0
 17
0.0
 27
1.0
 37
0.0
 76
     0
330
BF7
331
2E6C
  0
MATERIAL
  5
2E78
102
{ACAD_XDICTIONARY
360
2E79
102
}
102
{ACAD_REACTORS
330
BF1
102
}
330
BF1
100
AcDbMaterial
  1
ByBlock
 72
     0
 43
0.0208333333333333
 43
0.0
 43
0.0
 43
0.0
 43
0.0
 43
0.0208333333333333
 43
0.0
 43
0.0
 43
0.0
 43
0.0
 43
1.0
 43
0.0
 43
0.0
 43
0.0
 43
0.0
 43
1.0
 77
     0
 47
0.0208333333333333
 47
0.0
 47
0.0
 47
0.0
 47
0.0
 47
0.0208333333333333
 47
0.0
 47
0.0
 47
0.0
 47
0.0
 47
1.0
 47
0.0
 47
0.0
 47
0.0
 47
0.0
 47
1.0
171
     0
 49
0.0208333333333333
 49
0.0
 49
0.0
 49
0.0
 49
0.0
 49
0.0208333333333333
 49
0.0
 49
0.0
 49
0.0
 49
0.0
 49
1.0
 49
0.0
 49
0.0
 49
0.0
 49
0.0
 49
1.0
175
     0
142
0.0208333333333333
142
0.0
142
0.0
142
0.0
142
0.0
142
0.0208333333333333
142
0.0
142
0.0
142
0.0
142
0.0
142
1.0
142
0.0
142
0.0
142
0.0
142
0.0
142
1.0
179
     0
144
0.0208333333333333
144
0.0
144
0.0
144
0.0
144
0.0
144
0.0208333333333333
144
0.0
144
0.0
144
0.0
144
0.0
144
1.0
144
0.0
144
0.0
144
0.0
144
0.0
144
1.0
147
0.0208333333333333
147
0.0
147
0.0
147
0.0
147
0.0
147
0.0208333333333333
147
0.0
147
0.0
147
0.0
147
0.0
147
1.0
147
0.0
147
0.0
147
0.0
147
0.0
147
1.0
  0
MATERIAL
  5
2E70
102
{ACAD_XDICTIONARY
360
2E71
102
}
102
{ACAD_REACTORS
330
BF1
102
}
330
BF1
100
AcDbMaterial
  1
ByLayer
 72
     0
 43
0.0208333333333333
 43
0.0
 43
0.0
 43
0.0
 43
0.0
 43
0.0208333333333333
 43
0.0
 43
0.0
 43
0.0
 43
0.0
 43
1.0
 43
0.0
 43
0.0
 43
0.0
 43
0.0
 43
1.0
 77
     0
 47
0.0208333333333333
 47
0.0
 47
0.0
 47
0.0
 47
0.0
 47
0.0208333333333333
 47
0.0
 47
0.0
 47
0.0
 47
0.0
 47
1.0
 47
0.0
 47
0.0
 47
0.0
 47
0.0
 47
1.0
171
     0
 49
0.0208333333333333
 49
0.0
 49
0.0
 49
0.0
 49
0.0
 49
0.0208333333333333
 49
0.0
 49
0.0
 49
0.0
 49
0.0
 49
1.0
 49
0.0
 49
0.0
 49
0.0
 49
0.0
 49
1.0
175
     0
142
0.0208333333333333
142
0.0
142
0.0
142
0.0
142
0.0
142
0.0208333333333333
142
0.0
142
0.0
142
0.0
142
0.0
142
1.0
142
0.0
142
0.0
142
0.0
142
0.0
142
1.0
179
     0
144
0.0208333333333333
144
0.0
144
0.0
144
0.0
144
0.0
144
0.0208333333333333
144
0.0
144
0.0
144
0.0
144
0.0
144
1.0
144
0.0
144
0.0
144
0.0
144
0.0
144
1.0
147
0.0208333333333333
147
0.0
147
0.0
147
0.0
147
0.0
147
0.0208333333333333
147
0.0
147
0.0
147
0.0
147
0.0
147
1.0
147
0.0
147
0.0
147
0.0
147
0.0
147
1.0
  0
MATERIAL
  5
2E80
102
{ACAD_XDICTIONARY
360
2E81
102
}
102
{ACAD_REACTORS
330
BF1
102
}
330
BF1
100
AcDbMaterial
  1
Global
 72
     0
 43
0.0208333333333333
 43
0.0
 43
0.0
 43
0.0
 43
0.0
 43
0.0208333333333333
 43
0.0
 43
0.0
 43
0.0
 43
0.0
 43
1.0
 43
0.0
 43
0.0
 43
0.0
 43
0.0
 43
1.0
 77
     0
 47
0.0208333333333333
 47
0.0
 47
0.0
 47
0.0
 47
0.0
 47
0.0208333333333333
 47
0.0
 47
0.0
 47
0.0
 47
0.0
 47
1.0
 47
0.0
 47
0.0
 47
0.0
 47
0.0
 47
1.0
171
     0
 49
0.0208333333333333
 49
0.0
 49
0.0
 49
0.0
 49
0.0
 49
0.0208333333333333
 49
0.0
 49
0.0
 49
0.0
 49
0.0
 49
1.0
 49
0.0
 49
0.0
 49
0.0
 49
0.0
 49
1.0
175
     0
142
0.0208333333333333
142
0.0
142
0.0
142
0.0
142
0.0
142
0.0208333333333333
142
0.0
142
0.0
142
0.0
142
0.0
142
1.0
142
0.0
142
0.0
142
0.0
142
0.0
142
1.0
179
     0
144
0.0208333333333333
144
0.0
144
0.0
144
0.0
144
0.0
144
0.0208333333333333
144
0.0
144
0.0
144
0.0
144
0.0
144
1.0
144
0.0
144
0.0
144
0.0
144
0.0
144
1.0
147
0.0208333333333333
147
0.0
147
0.0
147
0.0
147
0.0
147
0.0208333333333333
147
0.0
147
0.0
147
0.0
147
0.0
147
1.0
147
0.0
147
0.0
147
0.0
147
0.0
147
1.0
  0
MLEADERSTYLE
  5
2EB6
102
{ACAD_REACTORS
330
2EB5
102
}
330
2EB5
100
AcDbMLeaderStyle
170
     2
171
     1
172
     0
 90
        2
 40
0.0
 41
0.0
173
     1
 91
-1056964608
340
BEA
 92
       -2
290
     1
 42
0.09
291
     1
 43
0.36
  3
Standard
 44
0.18
300

342
BE8
174
     1
178
     6
175
     1
176
     0
 93
-1056964608
 45
0.18
292
     0
297
     0
 46
0.18
 94
-1056964608
 47
1.0
 49
1.0
140
1.0
293
     1
141
0.0
294
     1
177
     0
142
1.0
295
     0
296
     0
143
0.125
1001
ACAD_MLEADERVER
1070
     2
  0
MLINESTYLE
  5
BEE
102
{ACAD_REACTORS
330
BED
102
}
330
BED
100
AcDbMlineStyle
  2
STANDARD
 70
     0
  3

 62
   256
 51
90.0
 52
90.0
 71
     2
 49
0.5
 62
   256
  6
BYLAYER
 49
-0.5
 62
   256
  6
BYLAYER
  0
ACDBPLACEHOLDER
  5
BE6
102
{ACAD_REACTORS
330
BE5
102
}
330
BE5
  0
SCALE
  5
2EA4
102
{ACAD_REACTORS
330
2EA3
102
}
330
2EA3
100
AcDbScale
 70
     0
300
1:1
140
1.0
141
1.0
290
     1
  0
SCALE
  5
2EA5
102
{ACAD_REACTORS
330
2EA3
102
}
330
2EA3
100
AcDbScale
 70
     0
300
1/128" = 1'-0"
140
0.0078125
141
12.0
290
     0
  0
SCALE
  5
2EA6
102
{ACAD_REACTORS
330
2EA3
102
}
330
2EA3
100
AcDbScale
 70
     0
300
1/64" = 1'-0"
140
0.015625
141
12.0
290
     0
  0
SCALE
  5
2EA7
102
{ACAD_REACTORS
330
2EA3
102
}
330
2EA3
100
AcDbScale
 70
     0
300
1/32" = 1'-0"
140
0.03125
141
12.0
290
     0
  0
SCALE
  5
2EA8
102
{ACAD_REACTORS
330
2EA3
102
}
330
2EA3
100
AcDbScale
 70
     0
300
1/16" = 1'-0"
140
0.0625
141
12.0
290
     0
  0
SCALE
  5
2EA9
102
{ACAD_REACTORS
330
2EA3
102
}
330
2EA3
100
AcDbScale
 70
     0
300
3/32" = 1'-0"
140
0.09375
141
12.0
290
     0
  0
SCALE
  5
2EAA
102
{ACAD_REACTORS
330
2EA3
102
}
330
2EA3
100
AcDbScale
 70
     0
300
1/8" = 1'-0"
140
0.125
141
12.0
290
     0
  0
SCALE
  5
2EAB
102
{ACAD_REACTORS
330
2EA3
102
}
330
2EA3
100
AcDbScale
 70
     0
300
3/16" = 1'-0"
140
0.1875
141
12.0
290
     0
  0
SCALE
  5
2EAC
102
{ACAD_REACTORS
330
2EA3
102
}
330
2EA3
100
AcDbScale
 70
     0
300
1/4" = 1'-0"
140
0.25
141
12.0
290
     0
  0
SCALE
  5
2EAD
102
{ACAD_REACTORS
330
2EA3
102
}
330
2EA3
100
AcDbScale
 70
     0
300
3/8" = 1'-0"
140
0.375
141
12.0
290
     0
  0
SCALE
  5
2EAE
102
{ACAD_REACTORS
330
2EA3
102
}
330
2EA3
100
AcDbScale
 70
     0
300
1/2" = 1'-0"
140
0.5
141
12.0
290
     0
  0
SCALE
  5
2EAF
102
{ACAD_REACTORS
330
2EA3
102
}
330
2EA3
100
AcDbScale
 70
     0
300
3/4" = 1'-0"
140
0.75
141
12.0
290
     0
  0
SCALE
  5
2EB0
102
{ACAD_REACTORS
330
2EA3
102
}
330
2EA3
100
AcDbScale
 70
     0
300
1" = 1'-0"
140
1.0
141
12.0
290
     0
  0
SCALE
  5
2EB1
102
{ACAD_REACTORS
330
2EA3
102
}
330
2EA3
100
AcDbScale
 70
     0
300
1-1/2" = 1'-0"
140
1.5
141
12.0
290
     0
  0
SCALE
  5
2EB2
102
{ACAD_REACTORS
330
2EA3
102
}
330
2EA3
100
AcDbScale
 70
     0
300
3" = 1'-0"
140
3.0
141
12.0
290
     0
  0
SCALE
  5
2EB3
102
{ACAD_REACTORS
330
2EA3
102
}
330
2EA3
100
AcDbScale
 70
     0
300
6" = 1'-0"
140
6.0
141
12.0
290
     0
  0
SCALE
  5
2EB4
102
{ACAD_REACTORS
330
2EA3
102
}
330
2EA3
100
AcDbScale
 70
     0
300
1'-0" = 1'-0"
140
12.0
141
12.0
290
     0
  0
ACDBSECTIONVIEWSTYLE
  5
2EB9
102
{ACAD_REACTORS
330
2EB7
102
}
330
2EB7
100
AcDbModelDocViewStyle
 70
     0
  3
Imperial24
290
     0
100
AcDbSectionViewStyle
 70
     0
 71
     0
 90
       78
 71
     1
340
BE8
 40
0.24
340
0
340
0
 40
0.24
300
I, O, Q, S, X, Z
 40
0.48
 90
        3
 40
0.18
 90
        1
 71
     2
340
2EB8
 90
       25
340
BEC
 90
       50
 40
0.24
 40
0.0
 40
0.24
 71
     3
340
BE8
 40
0.24
 90
        1
 40
0.75
 90
        1
300
%<\AcVar ViewType \f "%tc1">% %<\AcVar ViewSectionStartId>%-%<\AcVar ViewSectionEndId>%\PSCALE %<\AcVar ViewScale \f "%sn">%
 71
     4
300
ANSI31
 40
1.0
 90
        0
290
     0
290
     0
 90
        6
 40
0.0
 40
1.570796326794896
 40
0.2617993877991494
 40
1.308996938995747
 40
-0.2617993877991494
 40
1.832595714594046
  0
TABLESTYLE
  5
2EA2
102
{ACAD_XDICTIONARY
360
2F1D
102
}
102
{ACAD_REACTORS
330
2EA1
102
}
330
2EA1
100
AcDbTableStyle
  3
Standard
 70
     0
 71
     0
 40
0.06
 41
0.06
280
     0
281
     0
  7
STANDARD
140
0.18
170
     2
 62
     0
 63
     7
283
     0
274
    -2
284
     1
 64
     0
275
    -2
285
     1
 65
     0
276
    -2
286
     1
 66
     0
277
    -2
287
     1
 67
     0
278
    -2
288
     1
 68
     0
279
    -2
289
     1
 69
     0
  7
STANDARD
140
0.25
170
     5
 62
     0
 63
     7
283
     0
274
    -2
284
     1
 64
     0
275
    -2
285
     1
 65
     0
276
    -2
286
     1
 66
     0
277
    -2
287
     1
 67
     0
278
    -2
288
     1
 68
     0
279
    -2
289
     1
 69
     0
  7
STANDARD
140
0.18
170
     5
 62
     0
 63
     7
283
     0
274
    -2
284
     1
 64
     0
275
    -2
285
     1
 65
     0
276
    -2
286
     1
 66
     0
277
    -2
287
     1
 67
     0
278
    -2
288
     1
 68
     0
279
    -2
289
     1
 69
     0
  0
VISUALSTYLE
  5
2E8E
102
{ACAD_XDICTIONARY
360
2F32
102
}
102
{ACAD_REACTORS
330
2E88
102
}
330
2E88
100
AcDbVisualStyle
  2
2dWireframe
 70
     4
 71
     0
 72
     2
 73
     0
 90
        0
 40
-0.6
 41
-30.0
 62
     5
 63
     7
 74
     1
 91
        4
 64
     7
 65
   257
 75
     1
175
     1
 42
1.0
 92
        0
 66
   257
 43
1.0
 76
     1
 77
     6
 78
     2
 67
     7
 79
     5
170
     0
171
     0
290
     0
174
     0
 93
        1
 44
0.0
173
     0
291
     0
 45
0.0
1001
ACAD
1000
AcDbSavedByObjectVersion
1070
     0
  0
VISUALSTYLE
  5
2E8D
102
{ACAD_XDICTIONARY
360
2F30
102
}
102
{ACAD_REACTORS
330
2E88
102
}
330
2E88
100
AcDbVisualStyle
  2
Basic
 70
     7
 71
     1
 72
     0
 73
     1
 90
        0
 40
-0.6
 41
-30.0
 62
     5
 63
     7
 74
     0
 91
        4
 64
     7
 65
   257
 75
     1
175
     1
 42
1.0
 92
        8
 66
     7
 43
1.0
 76
     1
 77
     6
 78
     2
 67
     7
 79
     5
170
     0
171
     0
290
     0
174
     0
 93
        1
 44
0.0
173
     0
291
     1
 45
0.0
1001
ACAD
1000
AcDbSavedByObjectVersion
1070
     0
  0
VISUALSTYLE
  5
2E94
102
{ACAD_XDICTIONARY
360
2F3E
102
}
102
{ACAD_REACTORS
330
2E88
102
}
330
2E88
100
AcDbVisualStyle
  2
Brighten
 70
    12
 71
     2
 72
     2
 73
     0
 90
        0
 40
-0.6
 41
-30.0
 62
     5
 63
     7
 74
     1
 91
        4
 64
     7
 65
   257
 75
     1
175
     1
 42
1.0
 92
        8
 66
     7
 43
1.0
 76
     1
 77
     6
 78
     2
 67
     7
 79
     5
170
     0
171
     0
290
     0
174
     0
 93
        1
 44
50.0
173
     0
291
     1
 45
0.0
1001
ACAD
1000
AcDbSavedByObjectVersion
1070
     0
  0
VISUALSTYLE
  5
2E98
102
{ACAD_XDICTIONARY
360
2F46
102
}
102
{ACAD_REACTORS
330
2E88
102
}
330
2E88
100
AcDbVisualStyle
  2
ColorChange
 70
    16
 71
     2
 72
     2
 73
     3
 90
        0
 40
-0.6
 41
-30.0
 62
     5
 63
     8
 74
     1
 91
        4
 64
     7
 65
   257
 75
     1
175
     1
 42
1.0
 92
        8
 66
     8
 43
1.0
 76
     1
 77
     6
 78
     2
 67
     7
 79
     5
170
     0
171
     0
290
     0
174
     0
 93
        1
 44
0.0
173
     0
291
     1
 45
0.0
1001
ACAD
1000
AcDbSavedByObjectVersion
1070
     0
  0
VISUALSTYLE
  5
2E91
102
{ACAD_XDICTIONARY
360
2F38
102
}
102
{ACAD_REACTORS
330
2E88
102
}
330
2E88
100
AcDbVisualStyle
  2
Conceptual
 70
     9
 71
     3
 72
     2
 73
     0
 90
        0
 40
-0.6
 41
-30.0
 62
     5
 63
     7
 74
     2
 91
        2
 64
     7
 65
   257
 75
     1
175
     1
 42
179.0
 92
        8
 66
     7
 43
1.0
 76
     1
 77
     6
 78
     2
 67
     7
 79
     3
170
     0
171
     0
290
     0
174
     0
 93
        1
 44
0.0
173
     0
291
     0
 45
0.0
1001
ACAD
1000
AcDbSavedByObjectVersion
1070
     0
  0
VISUALSTYLE
  5
2E93
102
{ACAD_XDICTIONARY
360
2F3C
102
}
102
{ACAD_REACTORS
330
2E88
102
}
330
2E88
100
AcDbVisualStyle
  2
Dim
 70
    11
 71
     2
 72
     2
 73
     0
 90
        0
 40
-0.6
 41
-30.0
 62
     5
 63
     7
 74
     1
 91
        4
 64
     7
 65
   257
 75
     1
175
     1
 42
1.0
 92
        8
 66
     7
 43
1.0
 76
     1
 77
     6
 78
     2
 67
     7
 79
     5
170
     0
171
     0
290
     0
174
     0
 93
        1
 44
-50.0
173
     0
291
     1
 45
0.0
1001
ACAD
1000
AcDbSavedByObjectVersion
1070
     0
  0
VISUALSTYLE
  5
2EA0
102
{ACAD_XDICTIONARY
360
2F56
102
}
102
{ACAD_REACTORS
330
2E88
102
}
330
2E88
100
AcDbVisualStyle
  2
EdgeColorOff
 70
    22
 71
     2
 72
     2
 73
     0
 90
        0
 40
-0.6
 41
-30.0
 62
     5
 63
     7
 74
     1
 91
        4
 64
     7
 65
   257
 75
     1
175
     1
 42
1.0
 92
        8
 66
     7
 43
1.0
 76
     1
 77
     6
 78
     2
 67
     7
 79
     5
170
     0
171
     0
290
     0
174
     0
 93
        1
 44
0.0
173
     0
291
     1
 45
0.0
1001
ACAD
1000
AcDbSavedByObjectVersion
1070
     0
  0
VISUALSTYLE
  5
2E97
102
{ACAD_XDICTIONARY
360
2F44
102
}
102
{ACAD_REACTORS
330
2E88
102
}
330
2E88
100
AcDbVisualStyle
  2
Facepattern
 70
    15
 71
     2
 72
     2
 73
     0
 90
        0
 40
-0.6
 41
-30.0
 62
     5
 63
     7
 74
     1
 91
        4
 64
     7
 65
   257
 75
     1
175
     1
 42
1.0
 92
        8
 66
     7
 43
1.0
 76
     1
 77
     6
 78
     2
 67
     7
 79
     5
170
     0
171
     0
290
     0
174
     0
 93
        1
 44
0.0
173
     0
291
     1
 45
0.0
1001
ACAD
1000
AcDbSavedByObjectVersion
1070
     0
  0
VISUALSTYLE
  5
2E89
102
{ACAD_XDICTIONARY
360
2F28
102
}
102
{ACAD_REACTORS
330
2E88
102
}
330
2E88
100
AcDbVisualStyle
  2
Flat
 70
     0
 71
     2
 72
     1
 73
     1
 90
        2
 40
-0.6
 41
30.0
 62
     5
 63
     7
 74
     0
 91
        0
 64
     7
 65
   257
 75
     1
175
     1
 42
1.0
 92
        8
 66
     7
 43
1.0
 76
     1
 77
     6
 78
     2
 67
     7
 79
     5
170
     0
171
     0
290
     0
174
     0
 93
       13
 44
0.0
173
     0
291
     1
 45
0.0
1001
ACAD
1000
AcDbSavedByObjectVersion
1070
     0
  0
VISUALSTYLE
  5
2E8A
102
{ACAD_XDICTIONARY
360
2F2A
102
}
102
{ACAD_REACTORS
330
2E88
102
}
330
2E88
100
AcDbVisualStyle
  2
FlatWithEdges
 70
     1
 71
     2
 72
     1
 73
     1
 90
        2
 40
-0.6
 41
30.0
 62
     5
 63
     7
 74
     1
 91
        0
 64
     7
 65
   257
 75
     1
175
     1
 42
1.0
 92
        0
 66
   257
 43
1.0
 76
     1
 77
     6
 78
     2
 67
     7
 79
     5
170
     0
171
     0
290
     0
174
     0
 93
       13
 44
0.0
173
     0
291
     1
 45
0.0
1001
ACAD
1000
AcDbSavedByObjectVersion
1070
     0
  0
VISUALSTYLE
  5
2E8B
102
{ACAD_XDICTIONARY
360
2F2C
102
}
102
{ACAD_REACTORS
330
2E88
102
}
330
2E88
100
AcDbVisualStyle
  2
Gouraud
 70
     2
 71
     2
 72
     2
 73
     1
 90
        2
 40
-0.6
 41
30.0
 62
     5
 63
     7
 74
     0
 91
        0
 64
     7
 65
   257
 75
     1
175
     1
 42
1.0
 92
        0
 66
     7
 43
1.0
 76
     1
 77
     6
 78
     2
 67
     7
 79
     5
170
     0
171
     0
290
     0
174
     0
 93
       13
 44
0.0
173
     0
291
     1
 45
0.0
1001
ACAD
1000
AcDbSavedByObjectVersion
1070
     0
  0
VISUALSTYLE
  5
2E8C
102
{ACAD_XDICTIONARY
360
2F2E
102
}
102
{ACAD_REACTORS
330
2E88
102
}
330
2E88
100
AcDbVisualStyle
  2
GouraudWithEdges
 70
     3
 71
     2
 72
     2
 73
     1
 90
        2
 40
-0.6
 41
30.0
 62
     5
 63
     7
 74
     1
 91
        0
 64
     7
 65
   257
 75
     1
175
     1
 42
1.0
 92
        0
 66
   257
 43
1.0
 76
     1
 77
     6
 78
     2
 67
     7
 79
     5
170
     0
171
     0
290
     0
174
     0
 93
       13
 44
0.0
173
     0
291
     1
 45
0.0
1001
ACAD
1000
AcDbSavedByObjectVersion
1070
     0
  0
VISUALSTYLE
  5
2E90
102
{ACAD_XDICTIONARY
360
2F36
102
}
102
{ACAD_REACTORS
330
2E88
102
}
330
2E88
100
AcDbVisualStyle
  2
Hidden
 70
     6
 71
     1
 72
     2
 73
     2
 90
        0
 40
-0.6
 41
-30.0
 62
     5
 63
     7
 74
     2
 91
        2
 64
     7
 65
   257
 75
     2
175
     1
 42
40.0
 92
        0
 66
   257
 43
1.0
 76
     1
 77
     6
 78
     2
 67
     7
 79
     3
170
     0
171
     0
290
     0
174
     0
 93
        1
 44
0.0
173
     0
291
     0
 45
0.0
1001
ACAD
1000
AcDbSavedByObjectVersion
1070
     0
  0
VISUALSTYLE
  5
2E9E
102
{ACAD_XDICTIONARY
360
2F52
102
}
102
{ACAD_REACTORS
330
2E88
102
}
330
2E88
100
AcDbVisualStyle
  2
JitterOff
 70
    20
 71
     2
 72
     2
 73
     0
 90
        0
 40
-0.6
 41
-30.0
 62
     5
 63
     7
 74
     1
 91
        4
 64
     7
 65
   257
 75
     1
175
     1
 42
1.0
 92
       10
 66
     7
 43
1.0
 76
     1
 77
     6
 78
     2
 67
     7
 79
     5
170
     0
171
     0
290
     0
174
     0
 93
        1
 44
0.0
173
     0
291
     1
 45
0.0
1001
ACAD
1000
AcDbSavedByObjectVersion
1070
     0
  0
VISUALSTYLE
  5
2E96
102
{ACAD_XDICTIONARY
360
2F42
102
}
102
{ACAD_REACTORS
330
2E88
102
}
330
2E88
100
AcDbVisualStyle
  2
Linepattern
 70
    14
 71
     2
 72
     2
 73
     0
 90
        0
 40
-0.6
 41
-30.0
 62
     5
 63
     7
 74
     1
 91
        4
 64
     7
 65
   257
 75
     7
175
     7
 42
1.0
 92
        8
 66
     7
 43
1.0
 76
     1
 77
     6
 78
     2
 67
     7
 79
     5
170
     0
171
     0
290
     0
174
     0
 93
        1
 44
0.0
173
     0
291
     1
 45
0.0
1001
ACAD
1000
AcDbSavedByObjectVersion
1070
     0
  0
VISUALSTYLE
  5
2E9F
102
{ACAD_XDICTIONARY
360
2F54
102
}
102
{ACAD_REACTORS
330
2E88
102
}
330
2E88
100
AcDbVisualStyle
  2
OverhangOff
 70
    21
 71
     2
 72
     2
 73
     0
 90
        0
 40
-0.6
 41
-30.0
 62
     5
 63
     7
 74
     1
 91
        4
 64
     7
 65
   257
 75
     1
175
     1
 42
1.0
 92
        9
 66
     7
 43
1.0
 76
     1
 77
     6
 78
     2
 67
     7
 79
     5
170
     0
171
     0
290
     0
174
     0
 93
        1
 44
0.0
173
     0
291
     1
 45
0.0
1001
ACAD
1000
AcDbSavedByObjectVersion
1070
     0
  0
VISUALSTYLE
  5
2E92
102
{ACAD_XDICTIONARY
360
2F3A
102
}
102
{ACAD_REACTORS
330
2E88
102
}
330
2E88
100
AcDbVisualStyle
  2
Realistic
 70
     8
 71
     2
 72
     3
 73
     0
 90
        2
 40
-0.6
 41
30.0
 62
     5
 63
     7
 74
     0
 91
        0
 64
     7
 65
   257
 75
     1
175
     1
 42
1.0
 92
        8
 66
   257
 43
1.0
 76
     1
 77
     6
 78
     2
 67
     7
 79
     3
170
     0
171
     0
290
     0
174
     0
 93
       13
 44
0.0
173
     0
291
     0
 45
0.0
1001
ACAD
1000
AcDbSavedByObjectVersion
1070
     0
  0
VISUALSTYLE
  5
2E9D
102
{ACAD_XDICTIONARY
360
2F50
102
}
102
{ACAD_REACTORS
330
2E88
102
}
330
2E88
100
AcDbVisualStyle
  2
Shaded
 70
    27
 71
     2
 72
     2
 73
     1
 90
        2
 40
-0.6
 41
30.0
 62
     5
 63
     7
 74
     0
 91
        4
 64
     7
 65
   257
 75
     1
175
     1
 42
1.0
 92
        8
 66
   257
 43
1.0
 76
     1
 77
     6
 78
     2
 67
     8
 79
     3
170
     0
171
     0
290
     0
174
     0
 93
        5
 44
0.0
173
     0
291
     0
 45
0.0
1001
ACAD
1000
AcDbSavedByObjectVersion
1070
     0
  0
VISUALSTYLE
  5
2E9C
102
{ACAD_XDICTIONARY
360
2F4E
102
}
102
{ACAD_REACTORS
330
2E88
102
}
330
2E88
100
AcDbVisualStyle
  2
Shaded with edges
 70
    26
 71
     2
 72
     2
 73
     1
 90
        2
 40
-0.6
 41
30.0
 62
     5
 63
     7
 74
     1
 91
       10
 64
     7
 65
   257
 75
     2
175
     1
 42
1.0
 92
        8
 66
   257
 43
1.0
 76
     1
 77
     6
 78
     2
 67
     7
 79
     3
170
     0
171
     0
290
     0
174
     0
 93
        5
 44
0.0
173
     0
291
     0
 45
0.0
1001
ACAD
1000
AcDbSavedByObjectVersion
1070
     0
  0
VISUALSTYLE
  5
2E99
102
{ACAD_XDICTIONARY
360
2F48
102
}
102
{ACAD_REACTORS
330
2E88
102
}
330
2E88
100
AcDbVisualStyle
  2
Shades of Gray
 70
    23
 71
     2
 72
     2
 73
     3
 90
        0
 40
-0.6
 41
-30.0
 62
     5
 63
     7
 74
     2
 91
        2
 64
     7
 65
     7
 75
     1
175
     1
 42
40.0
 92
        8
 66
     7
 43
1.0
 76
     1
 77
     6
 78
     2
 67
     7
 79
     3
170
     0
171
     0
290
     0
174
     0
 93
        1
 44
0.0
173
     0
291
     0
 45
0.0
1001
ACAD
1000
AcDbSavedByObjectVersion
1070
     0
  0
VISUALSTYLE
  5
2E9A
102
{ACAD_XDICTIONARY
360
2F4A
102
}
102
{ACAD_REACTORS
330
2E88
102
}
330
2E88
100
AcDbVisualStyle
  2
Sketchy
 70
    24
 71
     1
 72
     2
 73
     2
 90
        0
 40
-0.6
 41
-30.0
 62
     5
 63
     7
 74
     2
 91
        2
 64
     7
 65
     7
 75
     1
175
     1
 42
40.0
 92
       11
 66
     7
 43
1.0
 76
     1
 77
     6
 78
     2
 67
     7
 79
     6
170
     0
171
     0
290
     0
174
     0
 93
        1
 44
0.0
173
     0
291
     0
 45
0.0
1001
ACAD
1000
AcDbSavedByObjectVersion
1070
     0
  0
VISUALSTYLE
  5
2E95
102
{ACAD_XDICTIONARY
360
2F40
102
}
102
{ACAD_REACTORS
330
2E88
102
}
330
2E88
100
AcDbVisualStyle
  2
Thicken
 70
    13
 71
     2
 72
     2
 73
     0
 90
        0
 40
-0.6
 41
-30.0
 62
     5
 63
     7
 74
     1
 91
        4
 64
     7
 65
   257
 75
     1
175
     1
 42
1.0
 92
       12
 66
     7
 43
1.0
 76
     1
 77
     6
 78
     2
 67
     7
 79
     5
170
     0
171
     0
290
     0
174
     0
 93
        1
 44
0.0
173
     0
291
     1
 45
0.0
1001
ACAD
1000
AcDbSavedByObjectVersion
1070
     0
  0
VISUALSTYLE
  5
2E8F
102
{ACAD_XDICTIONARY
360
2F34
102
}
102
{ACAD_REACTORS
330
2E88
102
}
330
2E88
100
AcDbVisualStyle
  2
Wireframe
 70
     5
 71
     0
 72
     2
 73
     0
 90
        0
 40
-0.6
 41
-30.0
 62
     5
 63
     7
 74
     1
 91
        4
 64
     7
 65
   257
 75
     1
175
     1
 42
1.0
 92
        0
 66
   257
 43
1.0
 76
     1
 77
     6
 78
     2
 67
     7
 79
     3
170
     0
171
     0
290
     0
174
     0
 93
        1
 44
0.0
173
     0
291
     0
 45
0.0
1001
ACAD
1000
AcDbSavedByObjectVersion
1070
     0
  0
VISUALSTYLE
  5
2E9B
102
{ACAD_XDICTIONARY
360
2F4C
102
}
102
{ACAD_REACTORS
330
2E88
102
}
330
2E88
100
AcDbVisualStyle
  2
X-Ray
 70
    25
 71
     2
 72
     2
 73
     1
 90
        1
 40
0.5
 41
-30.0
 62
     5
 63
     7
 74
     1
 91
        0
 64
     7
 65
   257
 75
     1
175
     1
 42
1.0
 92
        8
 66
     7
 43
1.0
 76
     1
 77
     6
 78
     2
 67
     7
 79
     3
170
     0
171
     0
290
     0
174
     0
 93
       13
 44
0.0
173
     0
291
     0
 45
0.0
1001
ACAD
1000
AcDbSavedByObjectVersion
1070
     0
  0
DICTIONARYVAR
  5
2F17
102
{ACAD_REACTORS
330
2F12
102
}
330
2F12
100
DictionaryVariables
280
     0
  1
1:1
  0
DICTIONARYVAR
  5
2F14
102
{ACAD_REACTORS
330
2F12
102
}
330
2F12
100
DictionaryVariables
280
     0
  1
STANDARD
  0
DICTIONARYVAR
  5
2F13
102
{ACAD_REACTORS
330
2F12
102
}
330
2F12
100
DictionaryVariables
280
     0
  1
STANDARD
  0
DICTIONARYVAR
  5
2F15
102
{ACAD_REACTORS
330
2F12
102
}
330
2F12
100
DictionaryVariables
280
     0
  1
Imperial24
  0
DICTIONARYVAR
  5
2F16
102
{ACAD_REACTORS
330
2F12
102
}
330
2F12
100
DictionaryVariables
280
     0
  1
Imperial24
  0
DICTIONARYVAR
  5
2F1B
102
{ACAD_REACTORS
330
2F12
102
}
330
2F12
100
DictionaryVariables
280
     0
  1
1
  0
DICTIONARYVAR
  5
2F19
102
{ACAD_REACTORS
330
2F12
102
}
330
2F12
100
DictionaryVariables
280
     0
  1
0
  0
DICTIONARYVAR
  5
2F18
102
{ACAD_REACTORS
330
2F12
102
}
330
2F12
100
DictionaryVariables
280
     0
  1
127
  0
DICTIONARYVAR
  5
2F1A
102
{ACAD_REACTORS
330
2F12
102
}
330
2F12
100
DictionaryVariables
280
     0
  1
0
  0
XRECORD
  5
2F11
102
{ACAD_REACTORS
330
2F0F
102
}
330
2F0F
100
AcDbXrecord
280
     1
  0
DICTIONARY
  5
2F21
330
BF6
100
AcDbDictionary
280
     1
281
     1
  3
ACAD_XREC_ROUNDTRIP
360
2F22
  0
DICTIONARY
  5
2F23
330
BFA
100
AcDbDictionary
280
     1
281
     1
  3
ACAD_XREC_ROUNDTRIP
360
2F24
  0
DICTIONARY
  5
2E79
330
2E78
100
AcDbDictionary
280
     1
281
     1
  3
ACAD_XREC_ROUNDTRIP
360
2F26
  3
BUMPTILE
360
2E7B
  3
DIFFUSETILE
360
2E7A
  3
OPACITYTILE
360
2E7E
  3
REFLECTIONTILE
360
2E7D
  3
REFRACTIONTILE
360
2E7F
  3
SPECULARTILE
360
2E7C
  0
DICTIONARY
  5
2E71
330
2E70
100
AcDbDictionary
280
     1
281
     1
  3
ACAD_XREC_ROUNDTRIP
360
2F25
  3
BUMPTILE
360
2E73
  3
DIFFUSETILE
360
2E72
  3
OPACITYTILE
360
2E76
  3
REFLECTIONTILE
360
2E75
  3
REFRACTIONTILE
360
2E77
  3
SPECULARTILE
360
2E74
  0
DICTIONARY
  5
2E81
330
2E80
100
AcDbDictionary
280
     1
281
     1
  3
ACAD_XREC_ROUNDTRIP
360
2F27
  3
BUMPTILE
360
2E83
  3
DIFFUSETILE
360
2E82
  3
OPACITYTILE
360
2E86
  3
REFLECTIONTILE
360
2E85
  3
REFRACTIONTILE
360
2E87
  3
SPECULARTILE
360
2E84
  0
DICTIONARY
  5
2F1D
330
2EA2
100
AcDbDictionary
280
     1
281
     1
  3
ACAD_ROUNDTRIP_2008_TABLESTYLE_CELLSTYLEMAP
360
2F1E
  3
ACAD_XREC_ROUNDTRIP
360
2F58
  0
DICTIONARY
  5
2F32
330
2E8E
100
AcDbDictionary
280
     1
281
     1
  3
ACAD_XREC_ROUNDTRIP
360
2F33
  0
DICTIONARY
  5
2F30
330
2E8D
100
AcDbDictionary
280
     1
281
     1
  3
ACAD_XREC_ROUNDTRIP
360
2F31
  0
DICTIONARY
  5
2F3E
330
2E94
100
AcDbDictionary
280
     1
281
     1
  3
ACAD_XREC_ROUNDTRIP
360
2F3F
  0
DICTIONARY
  5
2F46
330
2E98
100
AcDbDictionary
280
     1
281
     1
  3
ACAD_XREC_ROUNDTRIP
360
2F47
  0
DICTIONARY
  5
2F38
330
2E91
100
AcDbDictionary
280
     1
281
     1
  3
ACAD_XREC_ROUNDTRIP
360
2F39
  0
DICTIONARY
  5
2F3C
330
2E93
100
AcDbDictionary
280
     1
281
     1
  3
ACAD_XREC_ROUNDTRIP
360
2F3D
  0
DICTIONARY
  5
2F56
330
2EA0
100
AcDbDictionary
280
     1
281
     1
  3
ACAD_XREC_ROUNDTRIP
360
2F57
  0
DICTIONARY
  5
2F44
330
2E97
100
AcDbDictionary
280
     1
281
     1
  3
ACAD_XREC_ROUNDTRIP
360
2F45
  0
DICTIONARY
  5
2F28
330
2E89
100
AcDbDictionary
280
     1
281
     1
  3
ACAD_XREC_ROUNDTRIP
360
2F29
  0
DICTIONARY
  5
2F2A
330
2E8A
100
AcDbDictionary
280
     1
281
     1
  3
ACAD_XREC_ROUNDTRIP
360
2F2B
  0
DICTIONARY
  5
2F2C
330
2E8B
100
AcDbDictionary
280
     1
281
     1
  3
ACAD_XREC_ROUNDTRIP
360
2F2D
  0
DICTIONARY
  5
2F2E
330
2E8C
100
AcDbDictionary
280
     1
281
     1
  3
ACAD_XREC_ROUNDTRIP
360
2F2F
  0
DICTIONARY
  5
2F36
330
2E90
100
AcDbDictionary
280
     1
281
     1
  3
ACAD_XREC_ROUNDTRIP
360
2F37
  0
DICTIONARY
  5
2F52
330
2E9E
100
AcDbDictionary
280
     1
281
     1
  3
ACAD_XREC_ROUNDTRIP
360
2F53
  0
DICTIONARY
  5
2F42
330
2E96
100
AcDbDictionary
280
     1
281
     1
  3
ACAD_XREC_ROUNDTRIP
360
2F43
  0
DICTIONARY
  5
2F54
330
2E9F
100
AcDbDictionary
280
     1
281
     1
  3
ACAD_XREC_ROUNDTRIP
360
2F55
  0
DICTIONARY
  5
2F3A
330
2E92
100
AcDbDictionary
280
     1
281
     1
  3
ACAD_XREC_ROUNDTRIP
360
2F3B
  0
DICTIONARY
  5
2F50
330
2E9D
100
AcDbDictionary
280
     1
281
     1
  3
ACAD_XREC_ROUNDTRIP
360
2F51
  0
DICTIONARY
  5
2F4E
330
2E9C
100
AcDbDictionary
280
     1
281
     1
  3
ACAD_XREC_ROUNDTRIP
360
2F4F
  0
DICTIONARY
  5
2F48
330
2E99
100
AcDbDictionary
280
     1
281
     1
  3
ACAD_XREC_ROUNDTRIP
360
2F49
  0
DICTIONARY
  5
2F4A
330
2E9A
100
AcDbDictionary
280
     1
281
     1
  3
ACAD_XREC_ROUNDTRIP
360
2F4B
  0
DICTIONARY
  5
2F40
330
2E95
100
AcDbDictionary
280
     1
281
     1
  3
ACAD_XREC_ROUNDTRIP
360
2F41
  0
DICTIONARY
  5
2F34
330
2E8F
100
AcDbDictionary
280
     1
281
     1
  3
ACAD_XREC_ROUNDTRIP
360
2F35
  0
DICTIONARY
  5
2F4C
330
2E9B
100
AcDbDictionary
280
     1
281
     1
  3
ACAD_XREC_ROUNDTRIP
360
2F4D
  0
XRECORD
  5
2F22
102
{ACAD_REACTORS
330
2F21
102
}
330
2F21
100
AcDbXrecord
280
     1
102
SHADEPLOT
 70
     0
102
SHADEPLOTRESLEVEL
 70
     2
102
SHADEPLOTCUSTOMDPI
 70
   300
  0
XRECORD
  5
2F24
102
{ACAD_REACTORS
330
2F23
102
}
330
2F23
100
AcDbXrecord
280
     1
102
SHADEPLOT
 70
     0
102
SHADEPLOTRESLEVEL
 70
     2
102
SHADEPLOTCUSTOMDPI
 70
   300
  0
XRECORD
  5
2F26
102
{ACAD_REACTORS
330
2E79
102
}
330
2E79
100
AcDbXrecord
280
     1
102
MATERIAL
148
0.0
149
0.0
149
0.0
 93
        0
 94
      127
282
     0
 72
     0
 77
     0
171
     0
175
     0
179
     0
273
     0
  0
XRECORD
  5
2E7B
102
{ACAD_REACTORS
330
2E79
102
}
330
2E79
100
AcDbXrecord
280
     1
270
     1
271
     1
  0
XRECORD
  5
2E7A
102
{ACAD_REACTORS
330
2E79
102
}
330
2E79
100
AcDbXrecord
280
     1
270
     1
271
     1
  0
XRECORD
  5
2E7E
102
{ACAD_REACTORS
330
2E79
102
}
330
2E79
100
AcDbXrecord
280
     1
270
     1
271
     1
  0
XRECORD
  5
2E7D
102
{ACAD_REACTORS
330
2E79
102
}
330
2E79
100
AcDbXrecord
280
     1
270
     1
271
     1
  0
XRECORD
  5
2E7F
102
{ACAD_REACTORS
330
2E79
102
}
330
2E79
100
AcDbXrecord
280
     1
270
     1
271
     1
  0
XRECORD
  5
2E7C
102
{ACAD_REACTORS
330
2E79
102
}
330
2E79
100
AcDbXrecord
280
     1
270
     1
271
     1
  0
XRECORD
  5
2F25
102
{ACAD_REACTORS
330
2E71
102
}
330
2E71
100
AcDbXrecord
280
     1
102
MATERIAL
148
0.0
149
0.0
149
0.0
 93
        0
 94
      127
282
     0
 72
     0
 77
     0
171
     0
175
     0
179
     0
273
     0
  0
XRECORD
  5
2E73
102
{ACAD_REACTORS
330
2E71
102
}
330
2E71
100
AcDbXrecord
280
     1
270
     1
271
     1
  0
XRECORD
  5
2E72
102
{ACAD_REACTORS
330
2E71
102
}
330
2E71
100
AcDbXrecord
280
     1
270
     1
271
     1
  0
XRECORD
  5
2E76
102
{ACAD_REACTORS
330
2E71
102
}
330
2E71
100
AcDbXrecord
280
     1
270
     1
271
     1
  0
XRECORD
  5
2E75
102
{ACAD_REACTORS
330
2E71
102
}
330
2E71
100
AcDbXrecord
280
     1
270
     1
271
     1
  0
XRECORD
  5
2E77
102
{ACAD_REACTORS
330
2E71
102
}
330
2E71
100
AcDbXrecord
280
     1
270
     1
271
     1
  0
XRECORD
  5
2E74
102
{ACAD_REACTORS
330
2E71
102
}
330
2E71
100
AcDbXrecord
280
     1
270
     1
271
     1
  0
XRECORD
  5
2F27
102
{ACAD_REACTORS
330
2E81
102
}
330
2E81
100
AcDbXrecord
280
     1
102
MATERIAL
148
0.0
149
0.0
149
0.0
 93
        0
 94
      127
282
     0
 72
     0
 77
     0
171
     0
175
     0
179
     0
273
     0
  0
XRECORD
  5
2E83
102
{ACAD_REACTORS
330
2E81
102
}
330
2E81
100
AcDbXrecord
280
     1
270
     1
271
     1
  0
XRECORD
  5
2E82
102
{ACAD_REACTORS
330
2E81
102
}
330
2E81
100
AcDbXrecord
280
     1
270
     1
271
     1
  0
XRECORD
  5
2E86
102
{ACAD_REACTORS
330
2E81
102
}
330
2E81
100
AcDbXrecord
280
     1
270
     1
271
     1
  0
XRECORD
  5
2E85
102
{ACAD_REACTORS
330
2E81
102
}
330
2E81
100
AcDbXrecord
280
     1
270
     1
271
     1
  0
XRECORD
  5
2E87
102
{ACAD_REACTORS
330
2E81
102
}
330
2E81
100
AcDbXrecord
280
     1
270
     1
271
     1
  0
XRECORD
  5
2E84
102
{ACAD_REACTORS
330
2E81
102
}
330
2E81
100
AcDbXrecord
280
     1
270
     1
271
     1
  0
CELLSTYLEMAP
  5
2F1E
102
{ACAD_REACTORS
330
2F1D
102
}
330
2F1D
100
AcDbCellStyleMap
 90
        3
300
CELLSTYLE
  1
TABLEFORMAT_BEGIN
 90
        5
170
     1
 91
        0
 92
    32768
 62
   257
 93
        1
300
CONTENTFORMAT
  1
CONTENTFORMAT_BEGIN
 90
        0
 91
        0
 92
      512
 93
        0
300

 40
0.0
140
1.0
 94
        5
 62
     0
340
BE8
144
0.25
309
CONTENTFORMAT_END
171
     0
 94
        0
309
TABLEFORMAT_END
  1
CELLSTYLE_BEGIN
 90
        1
 91
        1
300
_TITLE
309
CELLSTYLE_END
300
CELLSTYLE
  1
TABLEFORMAT_BEGIN
 90
        5
170
     1
 91
        0
 92
        0
 62
   257
 93
        1
300
CONTENTFORMAT
  1
CONTENTFORMAT_BEGIN
 90
        0
 91
        0
 92
      512
 93
        0
300

 40
0.0
140
1.0
 94
        5
 62
     0
340
BE8
144
0.18
309
CONTENTFORMAT_END
171
     0
 94
        0
309
TABLEFORMAT_END
  1
CELLSTYLE_BEGIN
 90
        2
 91
        1
300
_HEADER
309
CELLSTYLE_END
300
CELLSTYLE
  1
TABLEFORMAT_BEGIN
 90
        5
170
     1
 91
        0
 92
        0
 62
   257
 93
        1
300
CONTENTFORMAT
  1
CONTENTFORMAT_BEGIN
 90
        0
 91
        0
 92
      512
 93
        0
300

 40
0.0
140
1.0
 94
        2
 62
     0
340
BE8
144
0.18
309
CONTENTFORMAT_END
171
     0
 94
        0
309
TABLEFORMAT_END
  1
CELLSTYLE_BEGIN
 90
        3
 91
        2
300
_DATA
309
CELLSTYLE_END
  0
XRECORD
  5
2F58
102
{ACAD_REACTORS
330
2F1D
102
}
330
2F1D
100
AcDbXrecord
280
     1
102
ACAD_ROUNDTRIP_PRE2007_TABLESTYLE
 90
      512
 91
        0
  1

 92
      512
 93
        0
  2

 94
      512
 95
        0
  3

  0
XRECORD
  5
2F33
102
{ACAD_REACTORS
330
2F32
102
}
330
2F32
100
AcDbXrecord
280
     1
102
RTVSPost2010Prop28
280
     1
102
RTVSPost2010PropOp28
 70
     1
102
RTVSPost2010Prop29
280
     1
102
RTVSPost2010PropOp29
 70
     1
102
RTVSPost2010Prop30
280
     0
102
RTVSPost2010PropOp30
 70
     1
102
RTVSPost2010Prop31
280
     0
102
RTVSPost2010PropOp31
 70
     1
102
RTVSPost2010Prop32
280
     0
102
RTVSPost2010PropOp32
 70
     1
102
RTVSPost2010Prop33
280
     0
102
RTVSPost2010PropOp33
 70
     1
102
RTVSPost2010Prop34
280
     0
102
RTVSPost2010PropOp34
 70
     1
102
RTVSPost2010Prop35
280
     0
102
RTVSPost2010PropOp35
 70
     1
102
RTVSPost2010Prop36
280
     0
102
RTVSPost2010PropOp36
 70
     1
102
RTVSPost2010Prop37
 90
       50
102
RTVSPost2010PropOp37
 70
     1
102
RTVSPost2010Prop38
140
0.0
102
RTVSPost2010PropOp38
 70
     1
102
RTVSPost2010Prop39
140
1.0
102
RTVSPost2010PropOp39
 70
     1
102
RTVSPost2010Prop40
 90
        0
102
RTVSPost2010PropOp40
 70
     1
102
RTVSPost2010Prop41ColorIndex
 90
       18
102
RTVSPost2010Prop41ColorRGB
 90
        0
102
RTVSPost2010PropOp41
 70
     1
102
RTVSPost2010Prop42
 90
       50
102
RTVSPost2010PropOp42
 70
     1
102
RTVSPost2010Prop43
 90
        3
102
RTVSPost2010PropOp43
 70
     1
102
RTVSPost2010Prop44ColorIndex
 90
        5
102
RTVSPost2010Prop44ColorRGB
 90
      255
102
RTVSPost2010PropOp44
 70
     1
102
RTVSPost2010Prop45
280
     0
102
RTVSPost2010PropOp45
 70
     1
102
RTVSPost2010Prop46
 90
       50
102
RTVSPost2010PropOp46
 70
     1
102
RTVSPost2010Prop47
 90
       50
102
RTVSPost2010PropOp47
 70
     1
102
RTVSPost2010Prop48
 90
       50
102
RTVSPost2010PropOp48
 70
     1
102
RTVSPost2010Prop49
280
     0
102
RTVSPost2010PropOp49
 70
     1
102
RTVSPost2010Prop50
 90
       50
102
RTVSPost2010PropOp50
 70
     1
102
RTVSPost2010Prop51ColorIndex
 90
      256
102
RTVSPost2010Prop51ColorRGB
 90
-16777216
102
RTVSPost2010PropOp51
 70
     0
102
RTVSPost2010Prop52
140
1.0
102
RTVSPost2010PropOp52
 70
     0
102
RTVSPost2010Prop53
 90
        2
102
RTVSPost2010PropOp53
 70
     1
102
RTVSPost2010Prop54
  1
strokes_ogs.tif
102
RTVSPost2010PropOp54
 70
     1
102
RTVSPost2010Prop55
280
     0
102
RTVSPost2010PropOp55
 70
     1
102
RTVSPost2010Prop56
140
1.0
102
RTVSPost2010PropOp56
 70
     1
102
RTVSPost2010Prop57
140
1.0
102
RTVSPost2010PropOp57
 70
     1
102
RTVSPropertyOp0
 70
     1
102
RTVSPropertyOp1
 70
     1
102
RTVSPropertyOp2
 70
     1
102
RTVSPropertyOp3
 70
     1
102
RTVSPropertyOp4
 70
     1
102
RTVSPropertyOp5
 70
     1
102
RTVSPropertyOp6
 70
     1
102
RTVSPropertyOp7
 70
     1
102
RTVSPropertyOp8
 70
     1
102
RTVSPropertyOp9
 70
     1
102
RTVSPropertyOp10
 70
     1
102
RTVSPropertyOp11
 70
     1
102
RTVSPropertyOp12
 70
     1
102
RTVSPropertyOp13
 70
     1
102
RTVSPropertyOp14
 70
     1
102
RTVSPropertyOp15
 70
     1
102
RTVSPropertyOp16
 70
     1
102
RTVSPropertyOp17
 70
     1
102
RTVSPropertyOp18
 70
     1
102
RTVSPropertyOp19
 70
     1
102
RTVSPropertyOp20
 70
     1
102
RTVSPropertyOp21
 70
     1
102
RTVSPropertyOp22
 70
     1
102
RTVSPropertyOp23
 70
     1
102
RTVSPropertyOp24
 70
     1
102
RTVSPropertyOp25
 70
     1
102
RTVSPropertyOp26
 70
     1
102
RTVSPropertyOp27
 70
     1
102
RTVSPropertyOp28
 70
     1
102
RTVSPropertyOp29
 70
     1
102
RTVSPropertyOp30
 70
     1
102
RTVSPropertyOp31
 70
     1
102
RTVSPropertyOp32
 70
     1
102
RTVSPropertyOp33
 70
     1
102
RTVSPropertyOp34
 70
     1
102
RTVSPropertyOp35
 70
     1
102
RTVSPropertyOp36
 70
     1
102
RTVSPropertyOp37
 70
     1
102
RTVSPropertyOp38
 70
     1
102
RTVSPropertyOp39
 70
     1
102
RTVSPropertyOp40
 70
     1
102
RTVSPropertyOp41
 70
     1
102
RTVSPropertyOp42
 70
     1
102
RTVSPropertyOp43
 70
     1
102
RTVSPropertyOp44
 70
     1
102
RTVSPropertyOp45
 70
     1
102
RTVSPropertyOp46
 70
     1
102
RTVSPropertyOp47
 70
     1
102
RTVSPropertyOp48
 70
     1
102
RTVSPropertyOp49
 70
     1
102
RTVSPropertyOp50
 70
     1
102
RTVSPropertyOp51
 70
     0
102
RTVSPropertyOp52
 70
     0
102
RTVSPropertyOp53
 70
     1
102
RTVSPropertyOp54
 70
     1
102
RTVSPropertyOp55
 70
     1
102
RTVSPropertyOp56
 70
     1
102
RTVSPropertyOp57
 70
     1
102
RTVSPropertyOp58
 70
     1
102
RTVSPropertyOp59
 70
     1
102
RTVSPropertyOp60
 70
     1
102
RTVSPropertyOp61
 70
     1
102
RTVSPropertyOp62
 70
     1
  0
XRECORD
  5
2F31
102
{ACAD_REACTORS
330
2F30
102
}
330
2F30
100
AcDbXrecord
280
     1
102
RTVSPost2010Prop28
280
     0
102
RTVSPost2010PropOp28
 70
     1
102
RTVSPost2010Prop29
280
     1
102
RTVSPost2010PropOp29
 70
     1
102
RTVSPost2010Prop30
280
     1
102
RTVSPost2010PropOp30
 70
     1
102
RTVSPost2010Prop31
280
     0
102
RTVSPost2010PropOp31
 70
     1
102
RTVSPost2010Prop32
280
     0
102
RTVSPost2010PropOp32
 70
     1
102
RTVSPost2010Prop33
280
     0
102
RTVSPost2010PropOp33
 70
     1
102
RTVSPost2010Prop34
280
     0
102
RTVSPost2010PropOp34
 70
     1
102
RTVSPost2010Prop35
280
     0
102
RTVSPost2010PropOp35
 70
     1
102
RTVSPost2010Prop36
280
     0
102
RTVSPost2010PropOp36
 70
     1
102
RTVSPost2010Prop37
 90
       50
102
RTVSPost2010PropOp37
 70
     1
102
RTVSPost2010Prop38
140
0.0
102
RTVSPost2010PropOp38
 70
     1
102
RTVSPost2010Prop39
140
1.0
102
RTVSPost2010PropOp39
 70
     1
102
RTVSPost2010Prop40
 90
        0
102
RTVSPost2010PropOp40
 70
     1
102
RTVSPost2010Prop41ColorIndex
 90
       18
102
RTVSPost2010Prop41ColorRGB
 90
        0
102
RTVSPost2010PropOp41
 70
     1
102
RTVSPost2010Prop42
 90
       50
102
RTVSPost2010PropOp42
 70
     1
102
RTVSPost2010Prop43
 90
        3
102
RTVSPost2010PropOp43
 70
     1
102
RTVSPost2010Prop44ColorIndex
 90
        5
102
RTVSPost2010Prop44ColorRGB
 90
      255
102
RTVSPost2010PropOp44
 70
     1
102
RTVSPost2010Prop45
280
     0
102
RTVSPost2010PropOp45
 70
     1
102
RTVSPost2010Prop46
 90
       50
102
RTVSPost2010PropOp46
 70
     1
102
RTVSPost2010Prop47
 90
       50
102
RTVSPost2010PropOp47
 70
     1
102
RTVSPost2010Prop48
 90
       50
102
RTVSPost2010PropOp48
 70
     1
102
RTVSPost2010Prop49
280
     0
102
RTVSPost2010PropOp49
 70
     1
102
RTVSPost2010Prop50
 90
       50
102
RTVSPost2010PropOp50
 70
     1
102
RTVSPost2010Prop51ColorIndex
 90
      256
102
RTVSPost2010Prop51ColorRGB
 90
-16777216
102
RTVSPost2010PropOp51
 70
     0
102
RTVSPost2010Prop52
140
1.0
102
RTVSPost2010PropOp52
 70
     0
102
RTVSPost2010Prop53
 90
        2
102
RTVSPost2010PropOp53
 70
     1
102
RTVSPost2010Prop54
  1
strokes_ogs.tif
102
RTVSPost2010PropOp54
 70
     1
102
RTVSPost2010Prop55
280
     0
102
RTVSPost2010PropOp55
 70
     1
102
RTVSPost2010Prop56
140
1.0
102
RTVSPost2010PropOp56
 70
     1
102
RTVSPost2010Prop57
140
1.0
102
RTVSPost2010PropOp57
 70
     1
102
RTVSPropertyOp0
 70
     1
102
RTVSPropertyOp1
 70
     1
102
RTVSPropertyOp2
 70
     1
102
RTVSPropertyOp3
 70
     1
102
RTVSPropertyOp4
 70
     1
102
RTVSPropertyOp5
 70
     1
102
RTVSPropertyOp6
 70
     1
102
RTVSPropertyOp7
 70
     1
102
RTVSPropertyOp8
 70
     1
102
RTVSPropertyOp9
 70
     1
102
RTVSPropertyOp10
 70
     1
102
RTVSPropertyOp11
 70
     1
102
RTVSPropertyOp12
 70
     1
102
RTVSPropertyOp13
 70
     1
102
RTVSPropertyOp14
 70
     1
102
RTVSPropertyOp15
 70
     1
102
RTVSPropertyOp16
 70
     1
102
RTVSPropertyOp17
 70
     1
102
RTVSPropertyOp18
 70
     1
102
RTVSPropertyOp19
 70
     1
102
RTVSPropertyOp20
 70
     1
102
RTVSPropertyOp21
 70
     1
102
RTVSPropertyOp22
 70
     1
102
RTVSPropertyOp23
 70
     1
102
RTVSPropertyOp24
 70
     1
102
RTVSPropertyOp25
 70
     1
102
RTVSPropertyOp26
 70
     1
102
RTVSPropertyOp27
 70
     1
102
RTVSPropertyOp28
 70
     1
102
RTVSPropertyOp29
 70
     1
102
RTVSPropertyOp30
 70
     1
102
RTVSPropertyOp31
 70
     1
102
RTVSPropertyOp32
 70
     1
102
RTVSPropertyOp33
 70
     1
102
RTVSPropertyOp34
 70
     1
102
RTVSPropertyOp35
 70
     1
102
RTVSPropertyOp36
 70
     1
102
RTVSPropertyOp37
 70
     1
102
RTVSPropertyOp38
 70
     1
102
RTVSPropertyOp39
 70
     1
102
RTVSPropertyOp40
 70
     1
102
RTVSPropertyOp41
 70
     1
102
RTVSPropertyOp42
 70
     1
102
RTVSPropertyOp43
 70
     1
102
RTVSPropertyOp44
 70
     1
102
RTVSPropertyOp45
 70
     1
102
RTVSPropertyOp46
 70
     1
102
RTVSPropertyOp47
 70
     1
102
RTVSPropertyOp48
 70
     1
102
RTVSPropertyOp49
 70
     1
102
RTVSPropertyOp50
 70
     1
102
RTVSPropertyOp51
 70
     0
102
RTVSPropertyOp52
 70
     0
102
RTVSPropertyOp53
 70
     1
102
RTVSPropertyOp54
 70
     1
102
RTVSPropertyOp55
 70
     1
102
RTVSPropertyOp56
 70
     1
102
RTVSPropertyOp57
 70
     1
102
RTVSPropertyOp58
 70
     1
102
RTVSPropertyOp59
 70
     1
102
RTVSPropertyOp60
 70
     1
102
RTVSPropertyOp61
 70
     1
102
RTVSPropertyOp62
 70
     1
  0
XRECORD
  5
2F3F
102
{ACAD_REACTORS
330
2F3E
102
}
330
2F3E
100
AcDbXrecord
280
     1
102
RTVSPost2010Prop28
280
     0
102
RTVSPost2010PropOp28
 70
     1
102
RTVSPost2010Prop29
280
     1
102
RTVSPost2010PropOp29
 70
     1
102
RTVSPost2010Prop30
280
     1
102
RTVSPost2010PropOp30
 70
     1
102
RTVSPost2010Prop31
280
     0
102
RTVSPost2010PropOp31
 70
     1
102
RTVSPost2010Prop32
280
     0
102
RTVSPost2010PropOp32
 70
     1
102
RTVSPost2010Prop33
280
     0
102
RTVSPost2010PropOp33
 70
     1
102
RTVSPost2010Prop34
280
     0
102
RTVSPost2010PropOp34
 70
     1
102
RTVSPost2010Prop35
280
     0
102
RTVSPost2010PropOp35
 70
     1
102
RTVSPost2010Prop36
280
     0
102
RTVSPost2010PropOp36
 70
     1
102
RTVSPost2010Prop37
 90
       50
102
RTVSPost2010PropOp37
 70
     1
102
RTVSPost2010Prop38
140
0.0
102
RTVSPost2010PropOp38
 70
     1
102
RTVSPost2010Prop39
140
1.0
102
RTVSPost2010PropOp39
 70
     1
102
RTVSPost2010Prop40
 90
        0
102
RTVSPost2010PropOp40
 70
     1
102
RTVSPost2010Prop41ColorIndex
 90
       18
102
RTVSPost2010Prop41ColorRGB
 90
        0
102
RTVSPost2010PropOp41
 70
     1
102
RTVSPost2010Prop42
 90
       50
102
RTVSPost2010PropOp42
 70
     1
102
RTVSPost2010Prop43
 90
        3
102
RTVSPost2010PropOp43
 70
     1
102
RTVSPost2010Prop44ColorIndex
 90
        5
102
RTVSPost2010Prop44ColorRGB
 90
      255
102
RTVSPost2010PropOp44
 70
     1
102
RTVSPost2010Prop45
280
     0
102
RTVSPost2010PropOp45
 70
     1
102
RTVSPost2010Prop46
 90
       50
102
RTVSPost2010PropOp46
 70
     1
102
RTVSPost2010Prop47
 90
       50
102
RTVSPost2010PropOp47
 70
     1
102
RTVSPost2010Prop48
 90
       50
102
RTVSPost2010PropOp48
 70
     1
102
RTVSPost2010Prop49
280
     0
102
RTVSPost2010PropOp49
 70
     1
102
RTVSPost2010Prop50
 90
       50
102
RTVSPost2010PropOp50
 70
     1
102
RTVSPost2010Prop51ColorIndex
 90
      256
102
RTVSPost2010Prop51ColorRGB
 90
-16777216
102
RTVSPost2010PropOp51
 70
     0
102
RTVSPost2010Prop52
140
1.0
102
RTVSPost2010PropOp52
 70
     0
102
RTVSPost2010Prop53
 90
        2
102
RTVSPost2010PropOp53
 70
     1
102
RTVSPost2010Prop54
  1
strokes_ogs.tif
102
RTVSPost2010PropOp54
 70
     1
102
RTVSPost2010Prop55
280
     0
102
RTVSPost2010PropOp55
 70
     1
102
RTVSPost2010Prop56
140
1.0
102
RTVSPost2010PropOp56
 70
     1
102
RTVSPost2010Prop57
140
1.0
102
RTVSPost2010PropOp57
 70
     1
102
RTVSPropertyOp0
 70
     1
102
RTVSPropertyOp1
 70
     1
102
RTVSPropertyOp2
 70
     1
102
RTVSPropertyOp3
 70
     1
102
RTVSPropertyOp4
 70
     1
102
RTVSPropertyOp5
 70
     1
102
RTVSPropertyOp6
 70
     1
102
RTVSPropertyOp7
 70
     1
102
RTVSPropertyOp8
 70
     1
102
RTVSPropertyOp9
 70
     1
102
RTVSPropertyOp10
 70
     1
102
RTVSPropertyOp11
 70
     1
102
RTVSPropertyOp12
 70
     1
102
RTVSPropertyOp13
 70
     1
102
RTVSPropertyOp14
 70
     1
102
RTVSPropertyOp15
 70
     1
102
RTVSPropertyOp16
 70
     1
102
RTVSPropertyOp17
 70
     1
102
RTVSPropertyOp18
 70
     1
102
RTVSPropertyOp19
 70
     1
102
RTVSPropertyOp20
 70
     1
102
RTVSPropertyOp21
 70
     1
102
RTVSPropertyOp22
 70
     1
102
RTVSPropertyOp23
 70
     1
102
RTVSPropertyOp24
 70
     1
102
RTVSPropertyOp25
 70
     1
102
RTVSPropertyOp26
 70
     1
102
RTVSPropertyOp27
 70
     1
102
RTVSPropertyOp28
 70
     1
102
RTVSPropertyOp29
 70
     1
102
RTVSPropertyOp30
 70
     1
102
RTVSPropertyOp31
 70
     1
102
RTVSPropertyOp32
 70
     1
102
RTVSPropertyOp33
 70
     1
102
RTVSPropertyOp34
 70
     1
102
RTVSPropertyOp35
 70
     1
102
RTVSPropertyOp36
 70
     1
102
RTVSPropertyOp37
 70
     1
102
RTVSPropertyOp38
 70
     1
102
RTVSPropertyOp39
 70
     1
102
RTVSPropertyOp40
 70
     1
102
RTVSPropertyOp41
 70
     1
102
RTVSPropertyOp42
 70
     1
102
RTVSPropertyOp43
 70
     1
102
RTVSPropertyOp44
 70
     1
102
RTVSPropertyOp45
 70
     1
102
RTVSPropertyOp46
 70
     1
102
RTVSPropertyOp47
 70
     1
102
RTVSPropertyOp48
 70
     1
102
RTVSPropertyOp49
 70
     1
102
RTVSPropertyOp50
 70
     1
102
RTVSPropertyOp51
 70
     0
102
RTVSPropertyOp52
 70
     0
102
RTVSPropertyOp53
 70
     1
102
RTVSPropertyOp54
 70
     1
102
RTVSPropertyOp55
 70
     1
102
RTVSPropertyOp56
 70
     1
102
RTVSPropertyOp57
 70
     1
102
RTVSPropertyOp58
 70
     1
102
RTVSPropertyOp59
 70
     1
102
RTVSPropertyOp60
 70
     1
102
RTVSPropertyOp61
 70
     1
102
RTVSPropertyOp62
 70
     1
  0
XRECORD
  5
2F47
102
{ACAD_REACTORS
330
2F46
102
}
330
2F46
100
AcDbXrecord
280
     1
102
RTVSPost2010Prop28
280
     0
102
RTVSPost2010PropOp28
 70
     1
102
RTVSPost2010Prop29
280
     1
102
RTVSPost2010PropOp29
 70
     1
102
RTVSPost2010Prop30
280
     1
102
RTVSPost2010PropOp30
 70
     1
102
RTVSPost2010Prop31
280
     0
102
RTVSPost2010PropOp31
 70
     1
102
RTVSPost2010Prop32
280
     0
102
RTVSPost2010PropOp32
 70
     1
102
RTVSPost2010Prop33
280
     0
102
RTVSPost2010PropOp33
 70
     1
102
RTVSPost2010Prop34
280
     0
102
RTVSPost2010PropOp34
 70
     1
102
RTVSPost2010Prop35
280
     0
102
RTVSPost2010PropOp35
 70
     1
102
RTVSPost2010Prop36
280
     0
102
RTVSPost2010PropOp36
 70
     1
102
RTVSPost2010Prop37
 90
       50
102
RTVSPost2010PropOp37
 70
     1
102
RTVSPost2010Prop38
140
0.0
102
RTVSPost2010PropOp38
 70
     1
102
RTVSPost2010Prop39
140
1.0
102
RTVSPost2010PropOp39
 70
     1
102
RTVSPost2010Prop40
 90
        0
102
RTVSPost2010PropOp40
 70
     1
102
RTVSPost2010Prop41ColorIndex
 90
       18
102
RTVSPost2010Prop41ColorRGB
 90
        0
102
RTVSPost2010PropOp41
 70
     1
102
RTVSPost2010Prop42
 90
       50
102
RTVSPost2010PropOp42
 70
     1
102
RTVSPost2010Prop43
 90
        3
102
RTVSPost2010PropOp43
 70
     1
102
RTVSPost2010Prop44ColorIndex
 90
        5
102
RTVSPost2010Prop44ColorRGB
 90
      255
102
RTVSPost2010PropOp44
 70
     1
102
RTVSPost2010Prop45
280
     0
102
RTVSPost2010PropOp45
 70
     1
102
RTVSPost2010Prop46
 90
       50
102
RTVSPost2010PropOp46
 70
     1
102
RTVSPost2010Prop47
 90
       50
102
RTVSPost2010PropOp47
 70
     1
102
RTVSPost2010Prop48
 90
       50
102
RTVSPost2010PropOp48
 70
     1
102
RTVSPost2010Prop49
280
     0
102
RTVSPost2010PropOp49
 70
     1
102
RTVSPost2010Prop50
 90
       50
102
RTVSPost2010PropOp50
 70
     1
102
RTVSPost2010Prop51ColorIndex
 90
      256
102
RTVSPost2010Prop51ColorRGB
 90
-16777216
102
RTVSPost2010PropOp51
 70
     0
102
RTVSPost2010Prop52
140
1.0
102
RTVSPost2010PropOp52
 70
     0
102
RTVSPost2010Prop53
 90
        2
102
RTVSPost2010PropOp53
 70
     1
102
RTVSPost2010Prop54
  1
strokes_ogs.tif
102
RTVSPost2010PropOp54
 70
     1
102
RTVSPost2010Prop55
280
     0
102
RTVSPost2010PropOp55
 70
     1
102
RTVSPost2010Prop56
140
1.0
102
RTVSPost2010PropOp56
 70
     1
102
RTVSPost2010Prop57
140
1.0
102
RTVSPost2010PropOp57
 70
     1
102
RTVSPropertyOp0
 70
     1
102
RTVSPropertyOp1
 70
     1
102
RTVSPropertyOp2
 70
     1
102
RTVSPropertyOp3
 70
     1
102
RTVSPropertyOp4
 70
     1
102
RTVSPropertyOp5
 70
     1
102
RTVSPropertyOp6
 70
     1
102
RTVSPropertyOp7
 70
     1
102
RTVSPropertyOp8
 70
     1
102
RTVSPropertyOp9
 70
     1
102
RTVSPropertyOp10
 70
     1
102
RTVSPropertyOp11
 70
     1
102
RTVSPropertyOp12
 70
     1
102
RTVSPropertyOp13
 70
     1
102
RTVSPropertyOp14
 70
     1
102
RTVSPropertyOp15
 70
     1
102
RTVSPropertyOp16
 70
     1
102
RTVSPropertyOp17
 70
     1
102
RTVSPropertyOp18
 70
     1
102
RTVSPropertyOp19
 70
     1
102
RTVSPropertyOp20
 70
     1
102
RTVSPropertyOp21
 70
     1
102
RTVSPropertyOp22
 70
     1
102
RTVSPropertyOp23
 70
     1
102
RTVSPropertyOp24
 70
     1
102
RTVSPropertyOp25
 70
     1
102
RTVSPropertyOp26
 70
     1
102
RTVSPropertyOp27
 70
     1
102
RTVSPropertyOp28
 70
     1
102
RTVSPropertyOp29
 70
     1
102
RTVSPropertyOp30
 70
     1
102
RTVSPropertyOp31
 70
     1
102
RTVSPropertyOp32
 70
     1
102
RTVSPropertyOp33
 70
     1
102
RTVSPropertyOp34
 70
     1
102
RTVSPropertyOp35
 70
     1
102
RTVSPropertyOp36
 70
     1
102
RTVSPropertyOp37
 70
     1
102
RTVSPropertyOp38
 70
     1
102
RTVSPropertyOp39
 70
     1
102
RTVSPropertyOp40
 70
     1
102
RTVSPropertyOp41
 70
     1
102
RTVSPropertyOp42
 70
     1
102
RTVSPropertyOp43
 70
     1
102
RTVSPropertyOp44
 70
     1
102
RTVSPropertyOp45
 70
     1
102
RTVSPropertyOp46
 70
     1
102
RTVSPropertyOp47
 70
     1
102
RTVSPropertyOp48
 70
     1
102
RTVSPropertyOp49
 70
     1
102
RTVSPropertyOp50
 70
     1
102
RTVSPropertyOp51
 70
     0
102
RTVSPropertyOp52
 70
     0
102
RTVSPropertyOp53
 70
     1
102
RTVSPropertyOp54
 70
     1
102
RTVSPropertyOp55
 70
     1
102
RTVSPropertyOp56
 70
     1
102
RTVSPropertyOp57
 70
     1
102
RTVSPropertyOp58
 70
     1
102
RTVSPropertyOp59
 70
     1
102
RTVSPropertyOp60
 70
     1
102
RTVSPropertyOp61
 70
     1
102
RTVSPropertyOp62
 70
     1
  0
XRECORD
  5
2F39
102
{ACAD_REACTORS
330
2F38
102
}
330
2F38
100
AcDbXrecord
280
     1
102
RTVSPost2010Prop28
280
     0
102
RTVSPost2010PropOp28
 70
     1
102
RTVSPost2010Prop29
280
     1
102
RTVSPost2010PropOp29
 70
     1
102
RTVSPost2010Prop30
280
     1
102
RTVSPost2010PropOp30
 70
     1
102
RTVSPost2010Prop31
280
     0
102
RTVSPost2010PropOp31
 70
     1
102
RTVSPost2010Prop32
280
     0
102
RTVSPost2010PropOp32
 70
     1
102
RTVSPost2010Prop33
280
     0
102
RTVSPost2010PropOp33
 70
     1
102
RTVSPost2010Prop34
280
     0
102
RTVSPost2010PropOp34
 70
     1
102
RTVSPost2010Prop35
280
     0
102
RTVSPost2010PropOp35
 70
     1
102
RTVSPost2010Prop36
280
     0
102
RTVSPost2010PropOp36
 70
     1
102
RTVSPost2010Prop37
 90
       50
102
RTVSPost2010PropOp37
 70
     1
102
RTVSPost2010Prop38
140
0.0
102
RTVSPost2010PropOp38
 70
     1
102
RTVSPost2010Prop39
140
1.0
102
RTVSPost2010PropOp39
 70
     1
102
RTVSPost2010Prop40
 90
        0
102
RTVSPost2010PropOp40
 70
     1
102
RTVSPost2010Prop41ColorIndex
 90
       18
102
RTVSPost2010Prop41ColorRGB
 90
        0
102
RTVSPost2010PropOp41
 70
     1
102
RTVSPost2010Prop42
 90
       50
102
RTVSPost2010PropOp42
 70
     1
102
RTVSPost2010Prop43
 90
        3
102
RTVSPost2010PropOp43
 70
     1
102
RTVSPost2010Prop44ColorIndex
 90
        5
102
RTVSPost2010Prop44ColorRGB
 90
      255
102
RTVSPost2010PropOp44
 70
     1
102
RTVSPost2010Prop45
280
     0
102
RTVSPost2010PropOp45
 70
     1
102
RTVSPost2010Prop46
 90
       50
102
RTVSPost2010PropOp46
 70
     1
102
RTVSPost2010Prop47
 90
       50
102
RTVSPost2010PropOp47
 70
     1
102
RTVSPost2010Prop48
 90
       50
102
RTVSPost2010PropOp48
 70
     1
102
RTVSPost2010Prop49
280
     0
102
RTVSPost2010PropOp49
 70
     1
102
RTVSPost2010Prop50
 90
       50
102
RTVSPost2010PropOp50
 70
     1
102
RTVSPost2010Prop51ColorIndex
 90
      256
102
RTVSPost2010Prop51ColorRGB
 90
-16777216
102
RTVSPost2010PropOp51
 70
     0
102
RTVSPost2010Prop52
140
1.0
102
RTVSPost2010PropOp52
 70
     0
102
RTVSPost2010Prop53
 90
        2
102
RTVSPost2010PropOp53
 70
     1
102
RTVSPost2010Prop54
  1
strokes_ogs.tif
102
RTVSPost2010PropOp54
 70
     1
102
RTVSPost2010Prop55
280
     0
102
RTVSPost2010PropOp55
 70
     1
102
RTVSPost2010Prop56
140
1.0
102
RTVSPost2010PropOp56
 70
     1
102
RTVSPost2010Prop57
140
1.0
102
RTVSPost2010PropOp57
 70
     1
102
RTVSPropertyOp0
 70
     1
102
RTVSPropertyOp1
 70
     1
102
RTVSPropertyOp2
 70
     1
102
RTVSPropertyOp3
 70
     1
102
RTVSPropertyOp4
 70
     1
102
RTVSPropertyOp5
 70
     1
102
RTVSPropertyOp6
 70
     1
102
RTVSPropertyOp7
 70
     1
102
RTVSPropertyOp8
 70
     1
102
RTVSPropertyOp9
 70
     1
102
RTVSPropertyOp10
 70
     1
102
RTVSPropertyOp11
 70
     1
102
RTVSPropertyOp12
 70
     1
102
RTVSPropertyOp13
 70
     1
102
RTVSPropertyOp14
 70
     1
102
RTVSPropertyOp15
 70
     1
102
RTVSPropertyOp16
 70
     1
102
RTVSPropertyOp17
 70
     1
102
RTVSPropertyOp18
 70
     1
102
RTVSPropertyOp19
 70
     1
102
RTVSPropertyOp20
 70
     1
102
RTVSPropertyOp21
 70
     1
102
RTVSPropertyOp22
 70
     1
102
RTVSPropertyOp23
 70
     1
102
RTVSPropertyOp24
 70
     1
102
RTVSPropertyOp25
 70
     1
102
RTVSPropertyOp26
 70
     1
102
RTVSPropertyOp27
 70
     1
102
RTVSPropertyOp28
 70
     1
102
RTVSPropertyOp29
 70
     1
102
RTVSPropertyOp30
 70
     1
102
RTVSPropertyOp31
 70
     1
102
RTVSPropertyOp32
 70
     1
102
RTVSPropertyOp33
 70
     1
102
RTVSPropertyOp34
 70
     1
102
RTVSPropertyOp35
 70
     1
102
RTVSPropertyOp36
 70
     1
102
RTVSPropertyOp37
 70
     1
102
RTVSPropertyOp38
 70
     1
102
RTVSPropertyOp39
 70
     1
102
RTVSPropertyOp40
 70
     1
102
RTVSPropertyOp41
 70
     1
102
RTVSPropertyOp42
 70
     1
102
RTVSPropertyOp43
 70
     1
102
RTVSPropertyOp44
 70
     1
102
RTVSPropertyOp45
 70
     1
102
RTVSPropertyOp46
 70
     1
102
RTVSPropertyOp47
 70
     1
102
RTVSPropertyOp48
 70
     1
102
RTVSPropertyOp49
 70
     1
102
RTVSPropertyOp50
 70
     1
102
RTVSPropertyOp51
 70
     0
102
RTVSPropertyOp52
 70
     0
102
RTVSPropertyOp53
 70
     1
102
RTVSPropertyOp54
 70
     1
102
RTVSPropertyOp55
 70
     1
102
RTVSPropertyOp56
 70
     1
102
RTVSPropertyOp57
 70
     1
102
RTVSPropertyOp58
 70
     1
102
RTVSPropertyOp59
 70
     1
102
RTVSPropertyOp60
 70
     1
102
RTVSPropertyOp61
 70
     1
102
RTVSPropertyOp62
 70
     1
  0
XRECORD
  5
2F3D
102
{ACAD_REACTORS
330
2F3C
102
}
330
2F3C
100
AcDbXrecord
280
     1
102
RTVSPost2010Prop28
280
     0
102
RTVSPost2010PropOp28
 70
     1
102
RTVSPost2010Prop29
280
     1
102
RTVSPost2010PropOp29
 70
     1
102
RTVSPost2010Prop30
280
     1
102
RTVSPost2010PropOp30
 70
     1
102
RTVSPost2010Prop31
280
     0
102
RTVSPost2010PropOp31
 70
     1
102
RTVSPost2010Prop32
280
     0
102
RTVSPost2010PropOp32
 70
     1
102
RTVSPost2010Prop33
280
     0
102
RTVSPost2010PropOp33
 70
     1
102
RTVSPost2010Prop34
280
     0
102
RTVSPost2010PropOp34
 70
     1
102
RTVSPost2010Prop35
280
     0
102
RTVSPost2010PropOp35
 70
     1
102
RTVSPost2010Prop36
280
     0
102
RTVSPost2010PropOp36
 70
     1
102
RTVSPost2010Prop37
 90
       50
102
RTVSPost2010PropOp37
 70
     1
102
RTVSPost2010Prop38
140
0.0
102
RTVSPost2010PropOp38
 70
     1
102
RTVSPost2010Prop39
140
1.0
102
RTVSPost2010PropOp39
 70
     1
102
RTVSPost2010Prop40
 90
        0
102
RTVSPost2010PropOp40
 70
     1
102
RTVSPost2010Prop41ColorIndex
 90
       18
102
RTVSPost2010Prop41ColorRGB
 90
        0
102
RTVSPost2010PropOp41
 70
     1
102
RTVSPost2010Prop42
 90
       50
102
RTVSPost2010PropOp42
 70
     1
102
RTVSPost2010Prop43
 90
        3
102
RTVSPost2010PropOp43
 70
     1
102
RTVSPost2010Prop44ColorIndex
 90
        5
102
RTVSPost2010Prop44ColorRGB
 90
      255
102
RTVSPost2010PropOp44
 70
     1
102
RTVSPost2010Prop45
280
     0
102
RTVSPost2010PropOp45
 70
     1
102
RTVSPost2010Prop46
 90
       50
102
RTVSPost2010PropOp46
 70
     1
102
RTVSPost2010Prop47
 90
       50
102
RTVSPost2010PropOp47
 70
     1
102
RTVSPost2010Prop48
 90
       50
102
RTVSPost2010PropOp48
 70
     1
102
RTVSPost2010Prop49
280
     0
102
RTVSPost2010PropOp49
 70
     1
102
RTVSPost2010Prop50
 90
       50
102
RTVSPost2010PropOp50
 70
     1
102
RTVSPost2010Prop51ColorIndex
 90
      256
102
RTVSPost2010Prop51ColorRGB
 90
-16777216
102
RTVSPost2010PropOp51
 70
     0
102
RTVSPost2010Prop52
140
1.0
102
RTVSPost2010PropOp52
 70
     0
102
RTVSPost2010Prop53
 90
        2
102
RTVSPost2010PropOp53
 70
     1
102
RTVSPost2010Prop54
  1
strokes_ogs.tif
102
RTVSPost2010PropOp54
 70
     1
102
RTVSPost2010Prop55
280
     0
102
RTVSPost2010PropOp55
 70
     1
102
RTVSPost2010Prop56
140
1.0
102
RTVSPost2010PropOp56
 70
     1
102
RTVSPost2010Prop57
140
1.0
102
RTVSPost2010PropOp57
 70
     1
102
RTVSPropertyOp0
 70
     1
102
RTVSPropertyOp1
 70
     1
102
RTVSPropertyOp2
 70
     1
102
RTVSPropertyOp3
 70
     1
102
RTVSPropertyOp4
 70
     1
102
RTVSPropertyOp5
 70
     1
102
RTVSPropertyOp6
 70
     1
102
RTVSPropertyOp7
 70
     1
102
RTVSPropertyOp8
 70
     1
102
RTVSPropertyOp9
 70
     1
102
RTVSPropertyOp10
 70
     1
102
RTVSPropertyOp11
 70
     1
102
RTVSPropertyOp12
 70
     1
102
RTVSPropertyOp13
 70
     1
102
RTVSPropertyOp14
 70
     1
102
RTVSPropertyOp15
 70
     1
102
RTVSPropertyOp16
 70
     1
102
RTVSPropertyOp17
 70
     1
102
RTVSPropertyOp18
 70
     1
102
RTVSPropertyOp19
 70
     1
102
RTVSPropertyOp20
 70
     1
102
RTVSPropertyOp21
 70
     1
102
RTVSPropertyOp22
 70
     1
102
RTVSPropertyOp23
 70
     1
102
RTVSPropertyOp24
 70
     1
102
RTVSPropertyOp25
 70
     1
102
RTVSPropertyOp26
 70
     1
102
RTVSPropertyOp27
 70
     1
102
RTVSPropertyOp28
 70
     1
102
RTVSPropertyOp29
 70
     1
102
RTVSPropertyOp30
 70
     1
102
RTVSPropertyOp31
 70
     1
102
RTVSPropertyOp32
 70
     1
102
RTVSPropertyOp33
 70
     1
102
RTVSPropertyOp34
 70
     1
102
RTVSPropertyOp35
 70
     1
102
RTVSPropertyOp36
 70
     1
102
RTVSPropertyOp37
 70
     1
102
RTVSPropertyOp38
 70
     1
102
RTVSPropertyOp39
 70
     1
102
RTVSPropertyOp40
 70
     1
102
RTVSPropertyOp41
 70
     1
102
RTVSPropertyOp42
 70
     1
102
RTVSPropertyOp43
 70
     1
102
RTVSPropertyOp44
 70
     1
102
RTVSPropertyOp45
 70
     1
102
RTVSPropertyOp46
 70
     1
102
RTVSPropertyOp47
 70
     1
102
RTVSPropertyOp48
 70
     1
102
RTVSPropertyOp49
 70
     1
102
RTVSPropertyOp50
 70
     1
102
RTVSPropertyOp51
 70
     0
102
RTVSPropertyOp52
 70
     0
102
RTVSPropertyOp53
 70
     1
102
RTVSPropertyOp54
 70
     1
102
RTVSPropertyOp55
 70
     1
102
RTVSPropertyOp56
 70
     1
102
RTVSPropertyOp57
 70
     1
102
RTVSPropertyOp58
 70
     1
102
RTVSPropertyOp59
 70
     1
102
RTVSPropertyOp60
 70
     1
102
RTVSPropertyOp61
 70
     1
102
RTVSPropertyOp62
 70
     1
  0
XRECORD
  5
2F57
102
{ACAD_REACTORS
330
2F56
102
}
330
2F56
100
AcDbXrecord
280
     1
102
RTVSPost2010Prop28
280
     0
102
RTVSPost2010PropOp28
 70
     1
102
RTVSPost2010Prop29
280
     1
102
RTVSPost2010PropOp29
 70
     1
102
RTVSPost2010Prop30
280
     1
102
RTVSPost2010PropOp30
 70
     1
102
RTVSPost2010Prop31
280
     0
102
RTVSPost2010PropOp31
 70
     1
102
RTVSPost2010Prop32
280
     0
102
RTVSPost2010PropOp32
 70
     1
102
RTVSPost2010Prop33
280
     0
102
RTVSPost2010PropOp33
 70
     1
102
RTVSPost2010Prop34
280
     0
102
RTVSPost2010PropOp34
 70
     1
102
RTVSPost2010Prop35
280
     0
102
RTVSPost2010PropOp35
 70
     1
102
RTVSPost2010Prop36
280
     0
102
RTVSPost2010PropOp36
 70
     1
102
RTVSPost2010Prop37
 90
       50
102
RTVSPost2010PropOp37
 70
     0
102
RTVSPost2010Prop38
140
0.0
102
RTVSPost2010PropOp38
 70
     0
102
RTVSPost2010Prop39
140
1.0
102
RTVSPost2010PropOp39
 70
     0
102
RTVSPost2010Prop40
 90
        0
102
RTVSPost2010PropOp40
 70
     0
102
RTVSPost2010Prop41ColorIndex
 90
       18
102
RTVSPost2010Prop41ColorRGB
 90
        0
102
RTVSPost2010PropOp41
 70
     0
102
RTVSPost2010Prop42
 90
       50
102
RTVSPost2010PropOp42
 70
     0
102
RTVSPost2010Prop43
 90
        3
102
RTVSPost2010PropOp43
 70
     0
102
RTVSPost2010Prop44ColorIndex
 90
        5
102
RTVSPost2010Prop44ColorRGB
 90
      255
102
RTVSPost2010PropOp44
 70
     0
102
RTVSPost2010Prop45
280
     0
102
RTVSPost2010PropOp45
 70
     1
102
RTVSPost2010Prop46
 90
       50
102
RTVSPost2010PropOp46
 70
     0
102
RTVSPost2010Prop47
 90
       50
102
RTVSPost2010PropOp47
 70
     0
102
RTVSPost2010Prop48
 90
       50
102
RTVSPost2010PropOp48
 70
     0
102
RTVSPost2010Prop49
280
     0
102
RTVSPost2010PropOp49
 70
     1
102
RTVSPost2010Prop50
 90
       50
102
RTVSPost2010PropOp50
 70
     0
102
RTVSPost2010Prop51ColorIndex
 90
      256
102
RTVSPost2010Prop51ColorRGB
 90
-16777216
102
RTVSPost2010PropOp51
 70
     0
102
RTVSPost2010Prop52
140
1.0
102
RTVSPost2010PropOp52
 70
     0
102
RTVSPost2010Prop53
 90
        2
102
RTVSPost2010PropOp53
 70
     0
102
RTVSPost2010Prop54
  1
strokes_ogs.tif
102
RTVSPost2010PropOp54
 70
     0
102
RTVSPost2010Prop55
280
     0
102
RTVSPost2010PropOp55
 70
     1
102
RTVSPost2010Prop56
140
1.0
102
RTVSPost2010PropOp56
 70
     0
102
RTVSPost2010Prop57
140
1.0
102
RTVSPost2010PropOp57
 70
     0
102
RTVSPropertyOp0
 70
     0
102
RTVSPropertyOp1
 70
     0
102
RTVSPropertyOp2
 70
     0
102
RTVSPropertyOp3
 70
     0
102
RTVSPropertyOp4
 70
     0
102
RTVSPropertyOp5
 70
     0
102
RTVSPropertyOp6
 70
     0
102
RTVSPropertyOp7
 70
     0
102
RTVSPropertyOp8
 70
     0
102
RTVSPropertyOp9
 70
     0
102
RTVSPropertyOp10
 70
     0
102
RTVSPropertyOp11
 70
     0
102
RTVSPropertyOp12
 70
     0
102
RTVSPropertyOp13
 70
     0
102
RTVSPropertyOp14
 70
     2
102
RTVSPropertyOp15
 70
     0
102
RTVSPropertyOp16
 70
     0
102
RTVSPropertyOp17
 70
     0
102
RTVSPropertyOp18
 70
     0
102
RTVSPropertyOp19
 70
     0
102
RTVSPropertyOp20
 70
     0
102
RTVSPropertyOp21
 70
     0
102
RTVSPropertyOp22
 70
     0
102
RTVSPropertyOp23
 70
     0
102
RTVSPropertyOp24
 70
     0
102
RTVSPropertyOp25
 70
     0
102
RTVSPropertyOp26
 70
     0
102
RTVSPropertyOp27
 70
     0
102
RTVSPropertyOp28
 70
     1
102
RTVSPropertyOp29
 70
     1
102
RTVSPropertyOp30
 70
     1
102
RTVSPropertyOp31
 70
     1
102
RTVSPropertyOp32
 70
     1
102
RTVSPropertyOp33
 70
     1
102
RTVSPropertyOp34
 70
     1
102
RTVSPropertyOp35
 70
     1
102
RTVSPropertyOp36
 70
     1
102
RTVSPropertyOp37
 70
     0
102
RTVSPropertyOp38
 70
     0
102
RTVSPropertyOp39
 70
     0
102
RTVSPropertyOp40
 70
     0
102
RTVSPropertyOp41
 70
     0
102
RTVSPropertyOp42
 70
     0
102
RTVSPropertyOp43
 70
     0
102
RTVSPropertyOp44
 70
     0
102
RTVSPropertyOp45
 70
     1
102
RTVSPropertyOp46
 70
     0
102
RTVSPropertyOp47
 70
     0
102
RTVSPropertyOp48
 70
     0
102
RTVSPropertyOp49
 70
     1
102
RTVSPropertyOp50
 70
     0
102
RTVSPropertyOp51
 70
     0
102
RTVSPropertyOp52
 70
     0
102
RTVSPropertyOp53
 70
     0
102
RTVSPropertyOp54
 70
     0
102
RTVSPropertyOp55
 70
     1
102
RTVSPropertyOp56
 70
     0
102
RTVSPropertyOp57
 70
     0
102
RTVSPropertyOp58
 70
     0
102
RTVSPropertyOp59
 70
     0
102
RTVSPropertyOp60
 70
     0
102
RTVSPropertyOp61
 70
     0
102
RTVSPropertyOp62
 70
     0
  0
XRECORD
  5
2F45
102
{ACAD_REACTORS
330
2F44
102
}
330
2F44
100
AcDbXrecord
280
     1
102
RTVSPost2010Prop28
280
     0
102
RTVSPost2010PropOp28
 70
     1
102
RTVSPost2010Prop29
280
     1
102
RTVSPost2010PropOp29
 70
     1
102
RTVSPost2010Prop30
280
     1
102
RTVSPost2010PropOp30
 70
     1
102
RTVSPost2010Prop31
280
     0
102
RTVSPost2010PropOp31
 70
     1
102
RTVSPost2010Prop32
280
     0
102
RTVSPost2010PropOp32
 70
     1
102
RTVSPost2010Prop33
280
     0
102
RTVSPost2010PropOp33
 70
     1
102
RTVSPost2010Prop34
280
     0
102
RTVSPost2010PropOp34
 70
     1
102
RTVSPost2010Prop35
280
     0
102
RTVSPost2010PropOp35
 70
     1
102
RTVSPost2010Prop36
280
     0
102
RTVSPost2010PropOp36
 70
     1
102
RTVSPost2010Prop37
 90
       50
102
RTVSPost2010PropOp37
 70
     1
102
RTVSPost2010Prop38
140
0.0
102
RTVSPost2010PropOp38
 70
     1
102
RTVSPost2010Prop39
140
1.0
102
RTVSPost2010PropOp39
 70
     1
102
RTVSPost2010Prop40
 90
        0
102
RTVSPost2010PropOp40
 70
     1
102
RTVSPost2010Prop41ColorIndex
 90
       18
102
RTVSPost2010Prop41ColorRGB
 90
        0
102
RTVSPost2010PropOp41
 70
     1
102
RTVSPost2010Prop42
 90
       50
102
RTVSPost2010PropOp42
 70
     1
102
RTVSPost2010Prop43
 90
        3
102
RTVSPost2010PropOp43
 70
     1
102
RTVSPost2010Prop44ColorIndex
 90
        5
102
RTVSPost2010Prop44ColorRGB
 90
      255
102
RTVSPost2010PropOp44
 70
     1
102
RTVSPost2010Prop45
280
     0
102
RTVSPost2010PropOp45
 70
     1
102
RTVSPost2010Prop46
 90
       50
102
RTVSPost2010PropOp46
 70
     1
102
RTVSPost2010Prop47
 90
       50
102
RTVSPost2010PropOp47
 70
     1
102
RTVSPost2010Prop48
 90
       50
102
RTVSPost2010PropOp48
 70
     1
102
RTVSPost2010Prop49
280
     0
102
RTVSPost2010PropOp49
 70
     1
102
RTVSPost2010Prop50
 90
       50
102
RTVSPost2010PropOp50
 70
     1
102
RTVSPost2010Prop51ColorIndex
 90
      256
102
RTVSPost2010Prop51ColorRGB
 90
-16777216
102
RTVSPost2010PropOp51
 70
     0
102
RTVSPost2010Prop52
140
1.0
102
RTVSPost2010PropOp52
 70
     0
102
RTVSPost2010Prop53
 90
        2
102
RTVSPost2010PropOp53
 70
     1
102
RTVSPost2010Prop54
  1
strokes_ogs.tif
102
RTVSPost2010PropOp54
 70
     1
102
RTVSPost2010Prop55
280
     0
102
RTVSPost2010PropOp55
 70
     1
102
RTVSPost2010Prop56
140
1.0
102
RTVSPost2010PropOp56
 70
     1
102
RTVSPost2010Prop57
140
1.0
102
RTVSPost2010PropOp57
 70
     1
102
RTVSPropertyOp0
 70
     1
102
RTVSPropertyOp1
 70
     1
102
RTVSPropertyOp2
 70
     1
102
RTVSPropertyOp3
 70
     1
102
RTVSPropertyOp4
 70
     1
102
RTVSPropertyOp5
 70
     1
102
RTVSPropertyOp6
 70
     1
102
RTVSPropertyOp7
 70
     1
102
RTVSPropertyOp8
 70
     1
102
RTVSPropertyOp9
 70
     1
102
RTVSPropertyOp10
 70
     1
102
RTVSPropertyOp11
 70
     1
102
RTVSPropertyOp12
 70
     1
102
RTVSPropertyOp13
 70
     1
102
RTVSPropertyOp14
 70
     1
102
RTVSPropertyOp15
 70
     1
102
RTVSPropertyOp16
 70
     1
102
RTVSPropertyOp17
 70
     1
102
RTVSPropertyOp18
 70
     1
102
RTVSPropertyOp19
 70
     1
102
RTVSPropertyOp20
 70
     1
102
RTVSPropertyOp21
 70
     1
102
RTVSPropertyOp22
 70
     1
102
RTVSPropertyOp23
 70
     1
102
RTVSPropertyOp24
 70
     1
102
RTVSPropertyOp25
 70
     1
102
RTVSPropertyOp26
 70
     1
102
RTVSPropertyOp27
 70
     1
102
RTVSPropertyOp28
 70
     1
102
RTVSPropertyOp29
 70
     1
102
RTVSPropertyOp30
 70
     1
102
RTVSPropertyOp31
 70
     1
102
RTVSPropertyOp32
 70
     1
102
RTVSPropertyOp33
 70
     1
102
RTVSPropertyOp34
 70
     1
102
RTVSPropertyOp35
 70
     1
102
RTVSPropertyOp36
 70
     1
102
RTVSPropertyOp37
 70
     1
102
RTVSPropertyOp38
 70
     1
102
RTVSPropertyOp39
 70
     1
102
RTVSPropertyOp40
 70
     1
102
RTVSPropertyOp41
 70
     1
102
RTVSPropertyOp42
 70
     1
102
RTVSPropertyOp43
 70
     1
102
RTVSPropertyOp44
 70
     1
102
RTVSPropertyOp45
 70
     1
102
RTVSPropertyOp46
 70
     1
102
RTVSPropertyOp47
 70
     1
102
RTVSPropertyOp48
 70
     1
102
RTVSPropertyOp49
 70
     1
102
RTVSPropertyOp50
 70
     1
102
RTVSPropertyOp51
 70
     0
102
RTVSPropertyOp52
 70
     0
102
RTVSPropertyOp53
 70
     1
102
RTVSPropertyOp54
 70
     1
102
RTVSPropertyOp55
 70
     1
102
RTVSPropertyOp56
 70
     1
102
RTVSPropertyOp57
 70
     1
102
RTVSPropertyOp58
 70
     1
102
RTVSPropertyOp59
 70
     1
102
RTVSPropertyOp60
 70
     1
102
RTVSPropertyOp61
 70
     1
102
RTVSPropertyOp62
 70
     1
  0
XRECORD
  5
2F29
102
{ACAD_REACTORS
330
2F28
102
}
330
2F28
100
AcDbXrecord
280
     1
102
RTVSPost2010Prop28
280
     0
102
RTVSPost2010PropOp28
 70
     1
102
RTVSPost2010Prop29
280
     1
102
RTVSPost2010PropOp29
 70
     1
102
RTVSPost2010Prop30
280
     1
102
RTVSPost2010PropOp30
 70
     1
102
RTVSPost2010Prop31
280
     0
102
RTVSPost2010PropOp31
 70
     1
102
RTVSPost2010Prop32
280
     0
102
RTVSPost2010PropOp32
 70
     1
102
RTVSPost2010Prop33
280
     0
102
RTVSPost2010PropOp33
 70
     1
102
RTVSPost2010Prop34
280
     0
102
RTVSPost2010PropOp34
 70
     1
102
RTVSPost2010Prop35
280
     0
102
RTVSPost2010PropOp35
 70
     1
102
RTVSPost2010Prop36
280
     0
102
RTVSPost2010PropOp36
 70
     1
102
RTVSPost2010Prop37
 90
       50
102
RTVSPost2010PropOp37
 70
     1
102
RTVSPost2010Prop38
140
0.0
102
RTVSPost2010PropOp38
 70
     1
102
RTVSPost2010Prop39
140
1.0
102
RTVSPost2010PropOp39
 70
     1
102
RTVSPost2010Prop40
 90
        0
102
RTVSPost2010PropOp40
 70
     1
102
RTVSPost2010Prop41ColorIndex
 90
       18
102
RTVSPost2010Prop41ColorRGB
 90
        0
102
RTVSPost2010PropOp41
 70
     1
102
RTVSPost2010Prop42
 90
       50
102
RTVSPost2010PropOp42
 70
     1
102
RTVSPost2010Prop43
 90
        3
102
RTVSPost2010PropOp43
 70
     1
102
RTVSPost2010Prop44ColorIndex
 90
        5
102
RTVSPost2010Prop44ColorRGB
 90
      255
102
RTVSPost2010PropOp44
 70
     1
102
RTVSPost2010Prop45
280
     0
102
RTVSPost2010PropOp45
 70
     1
102
RTVSPost2010Prop46
 90
       50
102
RTVSPost2010PropOp46
 70
     1
102
RTVSPost2010Prop47
 90
       50
102
RTVSPost2010PropOp47
 70
     1
102
RTVSPost2010Prop48
 90
       50
102
RTVSPost2010PropOp48
 70
     1
102
RTVSPost2010Prop49
280
     0
102
RTVSPost2010PropOp49
 70
     1
102
RTVSPost2010Prop50
 90
       50
102
RTVSPost2010PropOp50
 70
     1
102
RTVSPost2010Prop51ColorIndex
 90
      256
102
RTVSPost2010Prop51ColorRGB
 90
-16777216
102
RTVSPost2010PropOp51
 70
     0
102
RTVSPost2010Prop52
140
1.0
102
RTVSPost2010PropOp52
 70
     0
102
RTVSPost2010Prop53
 90
        2
102
RTVSPost2010PropOp53
 70
     1
102
RTVSPost2010Prop54
  1
strokes_ogs.tif
102
RTVSPost2010PropOp54
 70
     1
102
RTVSPost2010Prop55
280
     0
102
RTVSPost2010PropOp55
 70
     1
102
RTVSPost2010Prop56
140
1.0
102
RTVSPost2010PropOp56
 70
     1
102
RTVSPost2010Prop57
140
1.0
102
RTVSPost2010PropOp57
 70
     1
102
RTVSPropertyOp0
 70
     1
102
RTVSPropertyOp1
 70
     1
102
RTVSPropertyOp2
 70
     1
102
RTVSPropertyOp3
 70
     1
102
RTVSPropertyOp4
 70
     1
102
RTVSPropertyOp5
 70
     1
102
RTVSPropertyOp6
 70
     1
102
RTVSPropertyOp7
 70
     1
102
RTVSPropertyOp8
 70
     1
102
RTVSPropertyOp9
 70
     1
102
RTVSPropertyOp10
 70
     1
102
RTVSPropertyOp11
 70
     1
102
RTVSPropertyOp12
 70
     1
102
RTVSPropertyOp13
 70
     1
102
RTVSPropertyOp14
 70
     1
102
RTVSPropertyOp15
 70
     1
102
RTVSPropertyOp16
 70
     1
102
RTVSPropertyOp17
 70
     1
102
RTVSPropertyOp18
 70
     1
102
RTVSPropertyOp19
 70
     1
102
RTVSPropertyOp20
 70
     1
102
RTVSPropertyOp21
 70
     1
102
RTVSPropertyOp22
 70
     1
102
RTVSPropertyOp23
 70
     1
102
RTVSPropertyOp24
 70
     1
102
RTVSPropertyOp25
 70
     1
102
RTVSPropertyOp26
 70
     1
102
RTVSPropertyOp27
 70
     1
102
RTVSPropertyOp28
 70
     1
102
RTVSPropertyOp29
 70
     1
102
RTVSPropertyOp30
 70
     1
102
RTVSPropertyOp31
 70
     1
102
RTVSPropertyOp32
 70
     1
102
RTVSPropertyOp33
 70
     1
102
RTVSPropertyOp34
 70
     1
102
RTVSPropertyOp35
 70
     1
102
RTVSPropertyOp36
 70
     1
102
RTVSPropertyOp37
 70
     1
102
RTVSPropertyOp38
 70
     1
102
RTVSPropertyOp39
 70
     1
102
RTVSPropertyOp40
 70
     1
102
RTVSPropertyOp41
 70
     1
102
RTVSPropertyOp42
 70
     1
102
RTVSPropertyOp43
 70
     1
102
RTVSPropertyOp44
 70
     1
102
RTVSPropertyOp45
 70
     1
102
RTVSPropertyOp46
 70
     1
102
RTVSPropertyOp47
 70
     1
102
RTVSPropertyOp48
 70
     1
102
RTVSPropertyOp49
 70
     1
102
RTVSPropertyOp50
 70
     1
102
RTVSPropertyOp51
 70
     0
102
RTVSPropertyOp52
 70
     0
102
RTVSPropertyOp53
 70
     1
102
RTVSPropertyOp54
 70
     1
102
RTVSPropertyOp55
 70
     1
102
RTVSPropertyOp56
 70
     1
102
RTVSPropertyOp57
 70
     1
102
RTVSPropertyOp58
 70
     1
102
RTVSPropertyOp59
 70
     1
102
RTVSPropertyOp60
 70
     1
102
RTVSPropertyOp61
 70
     1
102
RTVSPropertyOp62
 70
     1
  0
XRECORD
  5
2F2B
102
{ACAD_REACTORS
330
2F2A
102
}
330
2F2A
100
AcDbXrecord
280
     1
102
RTVSPost2010Prop28
280
     0
102
RTVSPost2010PropOp28
 70
     1
102
RTVSPost2010Prop29
280
     1
102
RTVSPost2010PropOp29
 70
     1
102
RTVSPost2010Prop30
280
     1
102
RTVSPost2010PropOp30
 70
     1
102
RTVSPost2010Prop31
280
     0
102
RTVSPost2010PropOp31
 70
     1
102
RTVSPost2010Prop32
280
     0
102
RTVSPost2010PropOp32
 70
     1
102
RTVSPost2010Prop33
280
     0
102
RTVSPost2010PropOp33
 70
     1
102
RTVSPost2010Prop34
280
     0
102
RTVSPost2010PropOp34
 70
     1
102
RTVSPost2010Prop35
280
     0
102
RTVSPost2010PropOp35
 70
     1
102
RTVSPost2010Prop36
280
     0
102
RTVSPost2010PropOp36
 70
     1
102
RTVSPost2010Prop37
 90
       50
102
RTVSPost2010PropOp37
 70
     1
102
RTVSPost2010Prop38
140
0.0
102
RTVSPost2010PropOp38
 70
     1
102
RTVSPost2010Prop39
140
1.0
102
RTVSPost2010PropOp39
 70
     1
102
RTVSPost2010Prop40
 90
        0
102
RTVSPost2010PropOp40
 70
     1
102
RTVSPost2010Prop41ColorIndex
 90
       18
102
RTVSPost2010Prop41ColorRGB
 90
        0
102
RTVSPost2010PropOp41
 70
     1
102
RTVSPost2010Prop42
 90
       50
102
RTVSPost2010PropOp42
 70
     1
102
RTVSPost2010Prop43
 90
        3
102
RTVSPost2010PropOp43
 70
     1
102
RTVSPost2010Prop44ColorIndex
 90
        5
102
RTVSPost2010Prop44ColorRGB
 90
      255
102
RTVSPost2010PropOp44
 70
     1
102
RTVSPost2010Prop45
280
     0
102
RTVSPost2010PropOp45
 70
     1
102
RTVSPost2010Prop46
 90
       50
102
RTVSPost2010PropOp46
 70
     1
102
RTVSPost2010Prop47
 90
       50
102
RTVSPost2010PropOp47
 70
     1
102
RTVSPost2010Prop48
 90
       50
102
RTVSPost2010PropOp48
 70
     1
102
RTVSPost2010Prop49
280
     0
102
RTVSPost2010PropOp49
 70
     1
102
RTVSPost2010Prop50
 90
       50
102
RTVSPost2010PropOp50
 70
     1
102
RTVSPost2010Prop51ColorIndex
 90
      256
102
RTVSPost2010Prop51ColorRGB
 90
-16777216
102
RTVSPost2010PropOp51
 70
     0
102
RTVSPost2010Prop52
140
1.0
102
RTVSPost2010PropOp52
 70
     0
102
RTVSPost2010Prop53
 90
        2
102
RTVSPost2010PropOp53
 70
     1
102
RTVSPost2010Prop54
  1
strokes_ogs.tif
102
RTVSPost2010PropOp54
 70
     1
102
RTVSPost2010Prop55
280
     0
102
RTVSPost2010PropOp55
 70
     1
102
RTVSPost2010Prop56
140
1.0
102
RTVSPost2010PropOp56
 70
     1
102
RTVSPost2010Prop57
140
1.0
102
RTVSPost2010PropOp57
 70
     1
102
RTVSPropertyOp0
 70
     1
102
RTVSPropertyOp1
 70
     1
102
RTVSPropertyOp2
 70
     1
102
RTVSPropertyOp3
 70
     1
102
RTVSPropertyOp4
 70
     1
102
RTVSPropertyOp5
 70
     1
102
RTVSPropertyOp6
 70
     1
102
RTVSPropertyOp7
 70
     1
102
RTVSPropertyOp8
 70
     1
102
RTVSPropertyOp9
 70
     1
102
RTVSPropertyOp10
 70
     1
102
RTVSPropertyOp11
 70
     1
102
RTVSPropertyOp12
 70
     1
102
RTVSPropertyOp13
 70
     1
102
RTVSPropertyOp14
 70
     1
102
RTVSPropertyOp15
 70
     1
102
RTVSPropertyOp16
 70
     1
102
RTVSPropertyOp17
 70
     1
102
RTVSPropertyOp18
 70
     1
102
RTVSPropertyOp19
 70
     1
102
RTVSPropertyOp20
 70
     1
102
RTVSPropertyOp21
 70
     1
102
RTVSPropertyOp22
 70
     1
102
RTVSPropertyOp23
 70
     1
102
RTVSPropertyOp24
 70
     1
102
RTVSPropertyOp25
 70
     1
102
RTVSPropertyOp26
 70
     1
102
RTVSPropertyOp27
 70
     1
102
RTVSPropertyOp28
 70
     1
102
RTVSPropertyOp29
 70
     1
102
RTVSPropertyOp30
 70
     1
102
RTVSPropertyOp31
 70
     1
102
RTVSPropertyOp32
 70
     1
102
RTVSPropertyOp33
 70
     1
102
RTVSPropertyOp34
 70
     1
102
RTVSPropertyOp35
 70
     1
102
RTVSPropertyOp36
 70
     1
102
RTVSPropertyOp37
 70
     1
102
RTVSPropertyOp38
 70
     1
102
RTVSPropertyOp39
 70
     1
102
RTVSPropertyOp40
 70
     1
102
RTVSPropertyOp41
 70
     1
102
RTVSPropertyOp42
 70
     1
102
RTVSPropertyOp43
 70
     1
102
RTVSPropertyOp44
 70
     1
102
RTVSPropertyOp45
 70
     1
102
RTVSPropertyOp46
 70
     1
102
RTVSPropertyOp47
 70
     1
102
RTVSPropertyOp48
 70
     1
102
RTVSPropertyOp49
 70
     1
102
RTVSPropertyOp50
 70
     1
102
RTVSPropertyOp51
 70
     0
102
RTVSPropertyOp52
 70
     0
102
RTVSPropertyOp53
 70
     1
102
RTVSPropertyOp54
 70
     1
102
RTVSPropertyOp55
 70
     1
102
RTVSPropertyOp56
 70
     1
102
RTVSPropertyOp57
 70
     1
102
RTVSPropertyOp58
 70
     1
102
RTVSPropertyOp59
 70
     1
102
RTVSPropertyOp60
 70
     1
102
RTVSPropertyOp61
 70
     1
102
RTVSPropertyOp62
 70
     1
  0
XRECORD
  5
2F2D
102
{ACAD_REACTORS
330
2F2C
102
}
330
2F2C
100
AcDbXrecord
280
     1
102
RTVSPost2010Prop28
280
     0
102
RTVSPost2010PropOp28
 70
     1
102
RTVSPost2010Prop29
280
     1
102
RTVSPost2010PropOp29
 70
     1
102
RTVSPost2010Prop30
280
     1
102
RTVSPost2010PropOp30
 70
     1
102
RTVSPost2010Prop31
280
     0
102
RTVSPost2010PropOp31
 70
     1
102
RTVSPost2010Prop32
280
     0
102
RTVSPost2010PropOp32
 70
     1
102
RTVSPost2010Prop33
280
     0
102
RTVSPost2010PropOp33
 70
     1
102
RTVSPost2010Prop34
280
     0
102
RTVSPost2010PropOp34
 70
     1
102
RTVSPost2010Prop35
280
     0
102
RTVSPost2010PropOp35
 70
     1
102
RTVSPost2010Prop36
280
     0
102
RTVSPost2010PropOp36
 70
     1
102
RTVSPost2010Prop37
 90
       50
102
RTVSPost2010PropOp37
 70
     1
102
RTVSPost2010Prop38
140
0.0
102
RTVSPost2010PropOp38
 70
     1
102
RTVSPost2010Prop39
140
1.0
102
RTVSPost2010PropOp39
 70
     1
102
RTVSPost2010Prop40
 90
        0
102
RTVSPost2010PropOp40
 70
     1
102
RTVSPost2010Prop41ColorIndex
 90
       18
102
RTVSPost2010Prop41ColorRGB
 90
        0
102
RTVSPost2010PropOp41
 70
     1
102
RTVSPost2010Prop42
 90
       50
102
RTVSPost2010PropOp42
 70
     1
102
RTVSPost2010Prop43
 90
        3
102
RTVSPost2010PropOp43
 70
     1
102
RTVSPost2010Prop44ColorIndex
 90
        5
102
RTVSPost2010Prop44ColorRGB
 90
      255
102
RTVSPost2010PropOp44
 70
     1
102
RTVSPost2010Prop45
280
     0
102
RTVSPost2010PropOp45
 70
     1
102
RTVSPost2010Prop46
 90
       50
102
RTVSPost2010PropOp46
 70
     1
102
RTVSPost2010Prop47
 90
       50
102
RTVSPost2010PropOp47
 70
     1
102
RTVSPost2010Prop48
 90
       50
102
RTVSPost2010PropOp48
 70
     1
102
RTVSPost2010Prop49
280
     0
102
RTVSPost2010PropOp49
 70
     1
102
RTVSPost2010Prop50
 90
       50
102
RTVSPost2010PropOp50
 70
     1
102
RTVSPost2010Prop51ColorIndex
 90
      256
102
RTVSPost2010Prop51ColorRGB
 90
-16777216
102
RTVSPost2010PropOp51
 70
     0
102
RTVSPost2010Prop52
140
1.0
102
RTVSPost2010PropOp52
 70
     0
102
RTVSPost2010Prop53
 90
        2
102
RTVSPost2010PropOp53
 70
     1
102
RTVSPost2010Prop54
  1
strokes_ogs.tif
102
RTVSPost2010PropOp54
 70
     1
102
RTVSPost2010Prop55
280
     0
102
RTVSPost2010PropOp55
 70
     1
102
RTVSPost2010Prop56
140
1.0
102
RTVSPost2010PropOp56
 70
     1
102
RTVSPost2010Prop57
140
1.0
102
RTVSPost2010PropOp57
 70
     1
102
RTVSPropertyOp0
 70
     1
102
RTVSPropertyOp1
 70
     1
102
RTVSPropertyOp2
 70
     1
102
RTVSPropertyOp3
 70
     1
102
RTVSPropertyOp4
 70
     1
102
RTVSPropertyOp5
 70
     1
102
RTVSPropertyOp6
 70
     1
102
RTVSPropertyOp7
 70
     1
102
RTVSPropertyOp8
 70
     1
102
RTVSPropertyOp9
 70
     1
102
RTVSPropertyOp10
 70
     1
102
RTVSPropertyOp11
 70
     1
102
RTVSPropertyOp12
 70
     1
102
RTVSPropertyOp13
 70
     1
102
RTVSPropertyOp14
 70
     1
102
RTVSPropertyOp15
 70
     1
102
RTVSPropertyOp16
 70
     1
102
RTVSPropertyOp17
 70
     1
102
RTVSPropertyOp18
 70
     1
102
RTVSPropertyOp19
 70
     1
102
RTVSPropertyOp20
 70
     1
102
RTVSPropertyOp21
 70
     1
102
RTVSPropertyOp22
 70
     1
102
RTVSPropertyOp23
 70
     1
102
RTVSPropertyOp24
 70
     1
102
RTVSPropertyOp25
 70
     1
102
RTVSPropertyOp26
 70
     1
102
RTVSPropertyOp27
 70
     1
102
RTVSPropertyOp28
 70
     1
102
RTVSPropertyOp29
 70
     1
102
RTVSPropertyOp30
 70
     1
102
RTVSPropertyOp31
 70
     1
102
RTVSPropertyOp32
 70
     1
102
RTVSPropertyOp33
 70
     1
102
RTVSPropertyOp34
 70
     1
102
RTVSPropertyOp35
 70
     1
102
RTVSPropertyOp36
 70
     1
102
RTVSPropertyOp37
 70
     1
102
RTVSPropertyOp38
 70
     1
102
RTVSPropertyOp39
 70
     1
102
RTVSPropertyOp40
 70
     1
102
RTVSPropertyOp41
 70
     1
102
RTVSPropertyOp42
 70
     1
102
RTVSPropertyOp43
 70
     1
102
RTVSPropertyOp44
 70
     1
102
RTVSPropertyOp45
 70
     1
102
RTVSPropertyOp46
 70
     1
102
RTVSPropertyOp47
 70
     1
102
RTVSPropertyOp48
 70
     1
102
RTVSPropertyOp49
 70
     1
102
RTVSPropertyOp50
 70
     1
102
RTVSPropertyOp51
 70
     0
102
RTVSPropertyOp52
 70
     0
102
RTVSPropertyOp53
 70
     1
102
RTVSPropertyOp54
 70
     1
102
RTVSPropertyOp55
 70
     1
102
RTVSPropertyOp56
 70
     1
102
RTVSPropertyOp57
 70
     1
102
RTVSPropertyOp58
 70
     1
102
RTVSPropertyOp59
 70
     1
102
RTVSPropertyOp60
 70
     1
102
RTVSPropertyOp61
 70
     1
102
RTVSPropertyOp62
 70
     1
  0
XRECORD
  5
2F2F
102
{ACAD_REACTORS
330
2F2E
102
}
330
2F2E
100
AcDbXrecord
280
     1
102
RTVSPost2010Prop28
280
     0
102
RTVSPost2010PropOp28
 70
     1
102
RTVSPost2010Prop29
280
     1
102
RTVSPost2010PropOp29
 70
     1
102
RTVSPost2010Prop30
280
     1
102
RTVSPost2010PropOp30
 70
     1
102
RTVSPost2010Prop31
280
     0
102
RTVSPost2010PropOp31
 70
     1
102
RTVSPost2010Prop32
280
     0
102
RTVSPost2010PropOp32
 70
     1
102
RTVSPost2010Prop33
280
     0
102
RTVSPost2010PropOp33
 70
     1
102
RTVSPost2010Prop34
280
     0
102
RTVSPost2010PropOp34
 70
     1
102
RTVSPost2010Prop35
280
     0
102
RTVSPost2010PropOp35
 70
     1
102
RTVSPost2010Prop36
280
     0
102
RTVSPost2010PropOp36
 70
     1
102
RTVSPost2010Prop37
 90
       50
102
RTVSPost2010PropOp37
 70
     1
102
RTVSPost2010Prop38
140
0.0
102
RTVSPost2010PropOp38
 70
     1
102
RTVSPost2010Prop39
140
1.0
102
RTVSPost2010PropOp39
 70
     1
102
RTVSPost2010Prop40
 90
        0
102
RTVSPost2010PropOp40
 70
     1
102
RTVSPost2010Prop41ColorIndex
 90
       18
102
RTVSPost2010Prop41ColorRGB
 90
        0
102
RTVSPost2010PropOp41
 70
     1
102
RTVSPost2010Prop42
 90
       50
102
RTVSPost2010PropOp42
 70
     1
102
RTVSPost2010Prop43
 90
        3
102
RTVSPost2010PropOp43
 70
     1
102
RTVSPost2010Prop44ColorIndex
 90
        5
102
RTVSPost2010Prop44ColorRGB
 90
      255
102
RTVSPost2010PropOp44
 70
     1
102
RTVSPost2010Prop45
280
     0
102
RTVSPost2010PropOp45
 70
     1
102
RTVSPost2010Prop46
 90
       50
102
RTVSPost2010PropOp46
 70
     1
102
RTVSPost2010Prop47
 90
       50
102
RTVSPost2010PropOp47
 70
     1
102
RTVSPost2010Prop48
 90
       50
102
RTVSPost2010PropOp48
 70
     1
102
RTVSPost2010Prop49
280
     0
102
RTVSPost2010PropOp49
 70
     1
102
RTVSPost2010Prop50
 90
       50
102
RTVSPost2010PropOp50
 70
     1
102
RTVSPost2010Prop51ColorIndex
 90
      256
102
RTVSPost2010Prop51ColorRGB
 90
-16777216
102
RTVSPost2010PropOp51
 70
     0
102
RTVSPost2010Prop52
140
1.0
102
RTVSPost2010PropOp52
 70
     0
102
RTVSPost2010Prop53
 90
        2
102
RTVSPost2010PropOp53
 70
     1
102
RTVSPost2010Prop54
  1
strokes_ogs.tif
102
RTVSPost2010PropOp54
 70
     1
102
RTVSPost2010Prop55
280
     0
102
RTVSPost2010PropOp55
 70
     1
102
RTVSPost2010Prop56
140
1.0
102
RTVSPost2010PropOp56
 70
     1
102
RTVSPost2010Prop57
140
1.0
102
RTVSPost2010PropOp57
 70
     1
102
RTVSPropertyOp0
 70
     1
102
RTVSPropertyOp1
 70
     1
102
RTVSPropertyOp2
 70
     1
102
RTVSPropertyOp3
 70
     1
102
RTVSPropertyOp4
 70
     1
102
RTVSPropertyOp5
 70
     1
102
RTVSPropertyOp6
 70
     1
102
RTVSPropertyOp7
 70
     1
102
RTVSPropertyOp8
 70
     1
102
RTVSPropertyOp9
 70
     1
102
RTVSPropertyOp10
 70
     1
102
RTVSPropertyOp11
 70
     1
102
RTVSPropertyOp12
 70
     1
102
RTVSPropertyOp13
 70
     1
102
RTVSPropertyOp14
 70
     1
102
RTVSPropertyOp15
 70
     1
102
RTVSPropertyOp16
 70
     1
102
RTVSPropertyOp17
 70
     1
102
RTVSPropertyOp18
 70
     1
102
RTVSPropertyOp19
 70
     1
102
RTVSPropertyOp20
 70
     1
102
RTVSPropertyOp21
 70
     1
102
RTVSPropertyOp22
 70
     1
102
RTVSPropertyOp23
 70
     1
102
RTVSPropertyOp24
 70
     1
102
RTVSPropertyOp25
 70
     1
102
RTVSPropertyOp26
 70
     1
102
RTVSPropertyOp27
 70
     1
102
RTVSPropertyOp28
 70
     1
102
RTVSPropertyOp29
 70
     1
102
RTVSPropertyOp30
 70
     1
102
RTVSPropertyOp31
 70
     1
102
RTVSPropertyOp32
 70
     1
102
RTVSPropertyOp33
 70
     1
102
RTVSPropertyOp34
 70
     1
102
RTVSPropertyOp35
 70
     1
102
RTVSPropertyOp36
 70
     1
102
RTVSPropertyOp37
 70
     1
102
RTVSPropertyOp38
 70
     1
102
RTVSPropertyOp39
 70
     1
102
RTVSPropertyOp40
 70
     1
102
RTVSPropertyOp41
 70
     1
102
RTVSPropertyOp42
 70
     1
102
RTVSPropertyOp43
 70
     1
102
RTVSPropertyOp44
 70
     1
102
RTVSPropertyOp45
 70
     1
102
RTVSPropertyOp46
 70
     1
102
RTVSPropertyOp47
 70
     1
102
RTVSPropertyOp48
 70
     1
102
RTVSPropertyOp49
 70
     1
102
RTVSPropertyOp50
 70
     1
102
RTVSPropertyOp51
 70
     0
102
RTVSPropertyOp52
 70
     0
102
RTVSPropertyOp53
 70
     1
102
RTVSPropertyOp54
 70
     1
102
RTVSPropertyOp55
 70
     1
102
RTVSPropertyOp56
 70
     1
102
RTVSPropertyOp57
 70
     1
102
RTVSPropertyOp58
 70
     1
102
RTVSPropertyOp59
 70
     1
102
RTVSPropertyOp60
 70
     1
102
RTVSPropertyOp61
 70
     1
102
RTVSPropertyOp62
 70
     1
  0
XRECORD
  5
2F37
102
{ACAD_REACTORS
330
2F36
102
}
330
2F36
100
AcDbXrecord
280
     1
102
RTVSPost2010Prop28
280
     0
102
RTVSPost2010PropOp28
 70
     1
102
RTVSPost2010Prop29
280
     1
102
RTVSPost2010PropOp29
 70
     1
102
RTVSPost2010Prop30
280
     1
102
RTVSPost2010PropOp30
 70
     1
102
RTVSPost2010Prop31
280
     0
102
RTVSPost2010PropOp31
 70
     1
102
RTVSPost2010Prop32
280
     0
102
RTVSPost2010PropOp32
 70
     1
102
RTVSPost2010Prop33
280
     0
102
RTVSPost2010PropOp33
 70
     1
102
RTVSPost2010Prop34
280
     0
102
RTVSPost2010PropOp34
 70
     1
102
RTVSPost2010Prop35
280
     0
102
RTVSPost2010PropOp35
 70
     1
102
RTVSPost2010Prop36
280
     0
102
RTVSPost2010PropOp36
 70
     1
102
RTVSPost2010Prop37
 90
       50
102
RTVSPost2010PropOp37
 70
     1
102
RTVSPost2010Prop38
140
0.0
102
RTVSPost2010PropOp38
 70
     1
102
RTVSPost2010Prop39
140
1.0
102
RTVSPost2010PropOp39
 70
     1
102
RTVSPost2010Prop40
 90
        0
102
RTVSPost2010PropOp40
 70
     1
102
RTVSPost2010Prop41ColorIndex
 90
       18
102
RTVSPost2010Prop41ColorRGB
 90
        0
102
RTVSPost2010PropOp41
 70
     1
102
RTVSPost2010Prop42
 90
       50
102
RTVSPost2010PropOp42
 70
     1
102
RTVSPost2010Prop43
 90
        3
102
RTVSPost2010PropOp43
 70
     1
102
RTVSPost2010Prop44ColorIndex
 90
        5
102
RTVSPost2010Prop44ColorRGB
 90
      255
102
RTVSPost2010PropOp44
 70
     1
102
RTVSPost2010Prop45
280
     0
102
RTVSPost2010PropOp45
 70
     1
102
RTVSPost2010Prop46
 90
       50
102
RTVSPost2010PropOp46
 70
     1
102
RTVSPost2010Prop47
 90
       50
102
RTVSPost2010PropOp47
 70
     1
102
RTVSPost2010Prop48
 90
       50
102
RTVSPost2010PropOp48
 70
     1
102
RTVSPost2010Prop49
280
     0
102
RTVSPost2010PropOp49
 70
     1
102
RTVSPost2010Prop50
 90
       50
102
RTVSPost2010PropOp50
 70
     1
102
RTVSPost2010Prop51ColorIndex
 90
      256
102
RTVSPost2010Prop51ColorRGB
 90
-16777216
102
RTVSPost2010PropOp51
 70
     0
102
RTVSPost2010Prop52
140
1.0
102
RTVSPost2010PropOp52
 70
     0
102
RTVSPost2010Prop53
 90
        2
102
RTVSPost2010PropOp53
 70
     1
102
RTVSPost2010Prop54
  1
strokes_ogs.tif
102
RTVSPost2010PropOp54
 70
     1
102
RTVSPost2010Prop55
280
     0
102
RTVSPost2010PropOp55
 70
     1
102
RTVSPost2010Prop56
140
1.0
102
RTVSPost2010PropOp56
 70
     1
102
RTVSPost2010Prop57
140
1.0
102
RTVSPost2010PropOp57
 70
     1
102
RTVSPropertyOp0
 70
     1
102
RTVSPropertyOp1
 70
     1
102
RTVSPropertyOp2
 70
     1
102
RTVSPropertyOp3
 70
     1
102
RTVSPropertyOp4
 70
     1
102
RTVSPropertyOp5
 70
     1
102
RTVSPropertyOp6
 70
     1
102
RTVSPropertyOp7
 70
     1
102
RTVSPropertyOp8
 70
     1
102
RTVSPropertyOp9
 70
     1
102
RTVSPropertyOp10
 70
     1
102
RTVSPropertyOp11
 70
     1
102
RTVSPropertyOp12
 70
     1
102
RTVSPropertyOp13
 70
     1
102
RTVSPropertyOp14
 70
     1
102
RTVSPropertyOp15
 70
     1
102
RTVSPropertyOp16
 70
     1
102
RTVSPropertyOp17
 70
     1
102
RTVSPropertyOp18
 70
     1
102
RTVSPropertyOp19
 70
     1
102
RTVSPropertyOp20
 70
     1
102
RTVSPropertyOp21
 70
     1
102
RTVSPropertyOp22
 70
     1
102
RTVSPropertyOp23
 70
     1
102
RTVSPropertyOp24
 70
     1
102
RTVSPropertyOp25
 70
     1
102
RTVSPropertyOp26
 70
     1
102
RTVSPropertyOp27
 70
     1
102
RTVSPropertyOp28
 70
     1
102
RTVSPropertyOp29
 70
     1
102
RTVSPropertyOp30
 70
     1
102
RTVSPropertyOp31
 70
     1
102
RTVSPropertyOp32
 70
     1
102
RTVSPropertyOp33
 70
     1
102
RTVSPropertyOp34
 70
     1
102
RTVSPropertyOp35
 70
     1
102
RTVSPropertyOp36
 70
     1
102
RTVSPropertyOp37
 70
     1
102
RTVSPropertyOp38
 70
     1
102
RTVSPropertyOp39
 70
     1
102
RTVSPropertyOp40
 70
     1
102
RTVSPropertyOp41
 70
     1
102
RTVSPropertyOp42
 70
     1
102
RTVSPropertyOp43
 70
     1
102
RTVSPropertyOp44
 70
     1
102
RTVSPropertyOp45
 70
     1
102
RTVSPropertyOp46
 70
     1
102
RTVSPropertyOp47
 70
     1
102
RTVSPropertyOp48
 70
     1
102
RTVSPropertyOp49
 70
     1
102
RTVSPropertyOp50
 70
     1
102
RTVSPropertyOp51
 70
     0
102
RTVSPropertyOp52
 70
     0
102
RTVSPropertyOp53
 70
     1
102
RTVSPropertyOp54
 70
     1
102
RTVSPropertyOp55
 70
     1
102
RTVSPropertyOp56
 70
     1
102
RTVSPropertyOp57
 70
     1
102
RTVSPropertyOp58
 70
     1
102
RTVSPropertyOp59
 70
     1
102
RTVSPropertyOp60
 70
     1
102
RTVSPropertyOp61
 70
     1
102
RTVSPropertyOp62
 70
     1
  0
XRECORD
  5
2F53
102
{ACAD_REACTORS
330
2F52
102
}
330
2F52
100
AcDbXrecord
280
     1
102
RTVSPost2010Prop28
280
     0
102
RTVSPost2010PropOp28
 70
     1
102
RTVSPost2010Prop29
280
     1
102
RTVSPost2010PropOp29
 70
     1
102
RTVSPost2010Prop30
280
     1
102
RTVSPost2010PropOp30
 70
     1
102
RTVSPost2010Prop31
280
     0
102
RTVSPost2010PropOp31
 70
     1
102
RTVSPost2010Prop32
280
     0
102
RTVSPost2010PropOp32
 70
     1
102
RTVSPost2010Prop33
280
     0
102
RTVSPost2010PropOp33
 70
     1
102
RTVSPost2010Prop34
280
     0
102
RTVSPost2010PropOp34
 70
     1
102
RTVSPost2010Prop35
280
     0
102
RTVSPost2010PropOp35
 70
     1
102
RTVSPost2010Prop36
280
     0
102
RTVSPost2010PropOp36
 70
     1
102
RTVSPost2010Prop37
 90
       50
102
RTVSPost2010PropOp37
 70
     0
102
RTVSPost2010Prop38
140
0.0
102
RTVSPost2010PropOp38
 70
     0
102
RTVSPost2010Prop39
140
1.0
102
RTVSPost2010PropOp39
 70
     0
102
RTVSPost2010Prop40
 90
        0
102
RTVSPost2010PropOp40
 70
     0
102
RTVSPost2010Prop41ColorIndex
 90
       18
102
RTVSPost2010Prop41ColorRGB
 90
        0
102
RTVSPost2010PropOp41
 70
     0
102
RTVSPost2010Prop42
 90
       50
102
RTVSPost2010PropOp42
 70
     0
102
RTVSPost2010Prop43
 90
        3
102
RTVSPost2010PropOp43
 70
     0
102
RTVSPost2010Prop44ColorIndex
 90
        5
102
RTVSPost2010Prop44ColorRGB
 90
      255
102
RTVSPost2010PropOp44
 70
     0
102
RTVSPost2010Prop45
280
     0
102
RTVSPost2010PropOp45
 70
     1
102
RTVSPost2010Prop46
 90
       50
102
RTVSPost2010PropOp46
 70
     0
102
RTVSPost2010Prop47
 90
       50
102
RTVSPost2010PropOp47
 70
     0
102
RTVSPost2010Prop48
 90
       50
102
RTVSPost2010PropOp48
 70
     0
102
RTVSPost2010Prop49
280
     0
102
RTVSPost2010PropOp49
 70
     1
102
RTVSPost2010Prop50
 90
       50
102
RTVSPost2010PropOp50
 70
     0
102
RTVSPost2010Prop51ColorIndex
 90
      256
102
RTVSPost2010Prop51ColorRGB
 90
-16777216
102
RTVSPost2010PropOp51
 70
     0
102
RTVSPost2010Prop52
140
1.0
102
RTVSPost2010PropOp52
 70
     0
102
RTVSPost2010Prop53
 90
        2
102
RTVSPost2010PropOp53
 70
     0
102
RTVSPost2010Prop54
  1
strokes_ogs.tif
102
RTVSPost2010PropOp54
 70
     0
102
RTVSPost2010Prop55
280
     0
102
RTVSPost2010PropOp55
 70
     1
102
RTVSPost2010Prop56
140
1.0
102
RTVSPost2010PropOp56
 70
     0
102
RTVSPost2010Prop57
140
1.0
102
RTVSPost2010PropOp57
 70
     0
102
RTVSPropertyOp0
 70
     0
102
RTVSPropertyOp1
 70
     0
102
RTVSPropertyOp2
 70
     0
102
RTVSPropertyOp3
 70
     0
102
RTVSPropertyOp4
 70
     0
102
RTVSPropertyOp5
 70
     0
102
RTVSPropertyOp6
 70
     0
102
RTVSPropertyOp7
 70
     0
102
RTVSPropertyOp8
 70
     0
102
RTVSPropertyOp9
 70
     0
102
RTVSPropertyOp10
 70
     0
102
RTVSPropertyOp11
 70
     0
102
RTVSPropertyOp12
 70
     0
102
RTVSPropertyOp13
 70
     0
102
RTVSPropertyOp14
 70
     2
102
RTVSPropertyOp15
 70
     0
102
RTVSPropertyOp16
 70
     0
102
RTVSPropertyOp17
 70
     0
102
RTVSPropertyOp18
 70
     0
102
RTVSPropertyOp19
 70
     0
102
RTVSPropertyOp20
 70
     0
102
RTVSPropertyOp21
 70
     0
102
RTVSPropertyOp22
 70
     0
102
RTVSPropertyOp23
 70
     0
102
RTVSPropertyOp24
 70
     0
102
RTVSPropertyOp25
 70
     0
102
RTVSPropertyOp26
 70
     0
102
RTVSPropertyOp27
 70
     0
102
RTVSPropertyOp28
 70
     1
102
RTVSPropertyOp29
 70
     1
102
RTVSPropertyOp30
 70
     1
102
RTVSPropertyOp31
 70
     1
102
RTVSPropertyOp32
 70
     1
102
RTVSPropertyOp33
 70
     1
102
RTVSPropertyOp34
 70
     1
102
RTVSPropertyOp35
 70
     1
102
RTVSPropertyOp36
 70
     1
102
RTVSPropertyOp37
 70
     0
102
RTVSPropertyOp38
 70
     0
102
RTVSPropertyOp39
 70
     0
102
RTVSPropertyOp40
 70
     0
102
RTVSPropertyOp41
 70
     0
102
RTVSPropertyOp42
 70
     0
102
RTVSPropertyOp43
 70
     0
102
RTVSPropertyOp44
 70
     0
102
RTVSPropertyOp45
 70
     1
102
RTVSPropertyOp46
 70
     0
102
RTVSPropertyOp47
 70
     0
102
RTVSPropertyOp48
 70
     0
102
RTVSPropertyOp49
 70
     1
102
RTVSPropertyOp50
 70
     0
102
RTVSPropertyOp51
 70
     0
102
RTVSPropertyOp52
 70
     0
102
RTVSPropertyOp53
 70
     0
102
RTVSPropertyOp54
 70
     0
102
RTVSPropertyOp55
 70
     1
102
RTVSPropertyOp56
 70
     0
102
RTVSPropertyOp57
 70
     0
102
RTVSPropertyOp58
 70
     0
102
RTVSPropertyOp59
 70
     0
102
RTVSPropertyOp60
 70
     0
102
RTVSPropertyOp61
 70
     0
102
RTVSPropertyOp62
 70
     0
  0
XRECORD
  5
2F43
102
{ACAD_REACTORS
330
2F42
102
}
330
2F42
100
AcDbXrecord
280
     1
102
RTVSPost2010Prop28
280
     0
102
RTVSPost2010PropOp28
 70
     1
102
RTVSPost2010Prop29
280
     1
102
RTVSPost2010PropOp29
 70
     1
102
RTVSPost2010Prop30
280
     1
102
RTVSPost2010PropOp30
 70
     1
102
RTVSPost2010Prop31
280
     0
102
RTVSPost2010PropOp31
 70
     1
102
RTVSPost2010Prop32
280
     0
102
RTVSPost2010PropOp32
 70
     1
102
RTVSPost2010Prop33
280
     0
102
RTVSPost2010PropOp33
 70
     1
102
RTVSPost2010Prop34
280
     0
102
RTVSPost2010PropOp34
 70
     1
102
RTVSPost2010Prop35
280
     0
102
RTVSPost2010PropOp35
 70
     1
102
RTVSPost2010Prop36
280
     0
102
RTVSPost2010PropOp36
 70
     1
102
RTVSPost2010Prop37
 90
       50
102
RTVSPost2010PropOp37
 70
     1
102
RTVSPost2010Prop38
140
0.0
102
RTVSPost2010PropOp38
 70
     1
102
RTVSPost2010Prop39
140
1.0
102
RTVSPost2010PropOp39
 70
     1
102
RTVSPost2010Prop40
 90
        0
102
RTVSPost2010PropOp40
 70
     1
102
RTVSPost2010Prop41ColorIndex
 90
       18
102
RTVSPost2010Prop41ColorRGB
 90
        0
102
RTVSPost2010PropOp41
 70
     1
102
RTVSPost2010Prop42
 90
       50
102
RTVSPost2010PropOp42
 70
     1
102
RTVSPost2010Prop43
 90
        3
102
RTVSPost2010PropOp43
 70
     1
102
RTVSPost2010Prop44ColorIndex
 90
        5
102
RTVSPost2010Prop44ColorRGB
 90
      255
102
RTVSPost2010PropOp44
 70
     1
102
RTVSPost2010Prop45
280
     0
102
RTVSPost2010PropOp45
 70
     1
102
RTVSPost2010Prop46
 90
       50
102
RTVSPost2010PropOp46
 70
     1
102
RTVSPost2010Prop47
 90
       50
102
RTVSPost2010PropOp47
 70
     1
102
RTVSPost2010Prop48
 90
       50
102
RTVSPost2010PropOp48
 70
     1
102
RTVSPost2010Prop49
280
     0
102
RTVSPost2010PropOp49
 70
     1
102
RTVSPost2010Prop50
 90
       50
102
RTVSPost2010PropOp50
 70
     1
102
RTVSPost2010Prop51ColorIndex
 90
      256
102
RTVSPost2010Prop51ColorRGB
 90
-16777216
102
RTVSPost2010PropOp51
 70
     0
102
RTVSPost2010Prop52
140
1.0
102
RTVSPost2010PropOp52
 70
     0
102
RTVSPost2010Prop53
 90
        2
102
RTVSPost2010PropOp53
 70
     1
102
RTVSPost2010Prop54
  1
strokes_ogs.tif
102
RTVSPost2010PropOp54
 70
     1
102
RTVSPost2010Prop55
280
     0
102
RTVSPost2010PropOp55
 70
     1
102
RTVSPost2010Prop56
140
1.0
102
RTVSPost2010PropOp56
 70
     1
102
RTVSPost2010Prop57
140
1.0
102
RTVSPost2010PropOp57
 70
     1
102
RTVSPropertyOp0
 70
     1
102
RTVSPropertyOp1
 70
     1
102
RTVSPropertyOp2
 70
     1
102
RTVSPropertyOp3
 70
     1
102
RTVSPropertyOp4
 70
     1
102
RTVSPropertyOp5
 70
     1
102
RTVSPropertyOp6
 70
     1
102
RTVSPropertyOp7
 70
     1
102
RTVSPropertyOp8
 70
     1
102
RTVSPropertyOp9
 70
     1
102
RTVSPropertyOp10
 70
     1
102
RTVSPropertyOp11
 70
     1
102
RTVSPropertyOp12
 70
     1
102
RTVSPropertyOp13
 70
     1
102
RTVSPropertyOp14
 70
     1
102
RTVSPropertyOp15
 70
     1
102
RTVSPropertyOp16
 70
     1
102
RTVSPropertyOp17
 70
     1
102
RTVSPropertyOp18
 70
     1
102
RTVSPropertyOp19
 70
     1
102
RTVSPropertyOp20
 70
     1
102
RTVSPropertyOp21
 70
     1
102
RTVSPropertyOp22
 70
     1
102
RTVSPropertyOp23
 70
     1
102
RTVSPropertyOp24
 70
     1
102
RTVSPropertyOp25
 70
     1
102
RTVSPropertyOp26
 70
     1
102
RTVSPropertyOp27
 70
     1
102
RTVSPropertyOp28
 70
     1
102
RTVSPropertyOp29
 70
     1
102
RTVSPropertyOp30
 70
     1
102
RTVSPropertyOp31
 70
     1
102
RTVSPropertyOp32
 70
     1
102
RTVSPropertyOp33
 70
     1
102
RTVSPropertyOp34
 70
     1
102
RTVSPropertyOp35
 70
     1
102
RTVSPropertyOp36
 70
     1
102
RTVSPropertyOp37
 70
     1
102
RTVSPropertyOp38
 70
     1
102
RTVSPropertyOp39
 70
     1
102
RTVSPropertyOp40
 70
     1
102
RTVSPropertyOp41
 70
     1
102
RTVSPropertyOp42
 70
     1
102
RTVSPropertyOp43
 70
     1
102
RTVSPropertyOp44
 70
     1
102
RTVSPropertyOp45
 70
     1
102
RTVSPropertyOp46
 70
     1
102
RTVSPropertyOp47
 70
     1
102
RTVSPropertyOp48
 70
     1
102
RTVSPropertyOp49
 70
     1
102
RTVSPropertyOp50
 70
     1
102
RTVSPropertyOp51
 70
     0
102
RTVSPropertyOp52
 70
     0
102
RTVSPropertyOp53
 70
     1
102
RTVSPropertyOp54
 70
     1
102
RTVSPropertyOp55
 70
     1
102
RTVSPropertyOp56
 70
     1
102
RTVSPropertyOp57
 70
     1
102
RTVSPropertyOp58
 70
     1
102
RTVSPropertyOp59
 70
     1
102
RTVSPropertyOp60
 70
     1
102
RTVSPropertyOp61
 70
     1
102
RTVSPropertyOp62
 70
     1
  0
XRECORD
  5
2F55
102
{ACAD_REACTORS
330
2F54
102
}
330
2F54
100
AcDbXrecord
280
     1
102
RTVSPost2010Prop28
280
     0
102
RTVSPost2010PropOp28
 70
     1
102
RTVSPost2010Prop29
280
     1
102
RTVSPost2010PropOp29
 70
     1
102
RTVSPost2010Prop30
280
     1
102
RTVSPost2010PropOp30
 70
     1
102
RTVSPost2010Prop31
280
     0
102
RTVSPost2010PropOp31
 70
     1
102
RTVSPost2010Prop32
280
     0
102
RTVSPost2010PropOp32
 70
     1
102
RTVSPost2010Prop33
280
     0
102
RTVSPost2010PropOp33
 70
     1
102
RTVSPost2010Prop34
280
     0
102
RTVSPost2010PropOp34
 70
     1
102
RTVSPost2010Prop35
280
     0
102
RTVSPost2010PropOp35
 70
     1
102
RTVSPost2010Prop36
280
     0
102
RTVSPost2010PropOp36
 70
     1
102
RTVSPost2010Prop37
 90
       50
102
RTVSPost2010PropOp37
 70
     0
102
RTVSPost2010Prop38
140
0.0
102
RTVSPost2010PropOp38
 70
     0
102
RTVSPost2010Prop39
140
1.0
102
RTVSPost2010PropOp39
 70
     0
102
RTVSPost2010Prop40
 90
        0
102
RTVSPost2010PropOp40
 70
     0
102
RTVSPost2010Prop41ColorIndex
 90
       18
102
RTVSPost2010Prop41ColorRGB
 90
        0
102
RTVSPost2010PropOp41
 70
     0
102
RTVSPost2010Prop42
 90
       50
102
RTVSPost2010PropOp42
 70
     0
102
RTVSPost2010Prop43
 90
        3
102
RTVSPost2010PropOp43
 70
     0
102
RTVSPost2010Prop44ColorIndex
 90
        5
102
RTVSPost2010Prop44ColorRGB
 90
      255
102
RTVSPost2010PropOp44
 70
     0
102
RTVSPost2010Prop45
280
     0
102
RTVSPost2010PropOp45
 70
     1
102
RTVSPost2010Prop46
 90
       50
102
RTVSPost2010PropOp46
 70
     0
102
RTVSPost2010Prop47
 90
       50
102
RTVSPost2010PropOp47
 70
     0
102
RTVSPost2010Prop48
 90
       50
102
RTVSPost2010PropOp48
 70
     0
102
RTVSPost2010Prop49
280
     0
102
RTVSPost2010PropOp49
 70
     1
102
RTVSPost2010Prop50
 90
       50
102
RTVSPost2010PropOp50
 70
     0
102
RTVSPost2010Prop51ColorIndex
 90
      256
102
RTVSPost2010Prop51ColorRGB
 90
-16777216
102
RTVSPost2010PropOp51
 70
     0
102
RTVSPost2010Prop52
140
1.0
102
RTVSPost2010PropOp52
 70
     0
102
RTVSPost2010Prop53
 90
        2
102
RTVSPost2010PropOp53
 70
     0
102
RTVSPost2010Prop54
  1
strokes_ogs.tif
102
RTVSPost2010PropOp54
 70
     0
102
RTVSPost2010Prop55
280
     0
102
RTVSPost2010PropOp55
 70
     1
102
RTVSPost2010Prop56
140
1.0
102
RTVSPost2010PropOp56
 70
     0
102
RTVSPost2010Prop57
140
1.0
102
RTVSPost2010PropOp57
 70
     0
102
RTVSPropertyOp0
 70
     0
102
RTVSPropertyOp1
 70
     0
102
RTVSPropertyOp2
 70
     0
102
RTVSPropertyOp3
 70
     0
102
RTVSPropertyOp4
 70
     0
102
RTVSPropertyOp5
 70
     0
102
RTVSPropertyOp6
 70
     0
102
RTVSPropertyOp7
 70
     0
102
RTVSPropertyOp8
 70
     0
102
RTVSPropertyOp9
 70
     0
102
RTVSPropertyOp10
 70
     0
102
RTVSPropertyOp11
 70
     0
102
RTVSPropertyOp12
 70
     0
102
RTVSPropertyOp13
 70
     0
102
RTVSPropertyOp14
 70
     2
102
RTVSPropertyOp15
 70
     0
102
RTVSPropertyOp16
 70
     0
102
RTVSPropertyOp17
 70
     0
102
RTVSPropertyOp18
 70
     0
102
RTVSPropertyOp19
 70
     0
102
RTVSPropertyOp20
 70
     0
102
RTVSPropertyOp21
 70
     0
102
RTVSPropertyOp22
 70
     0
102
RTVSPropertyOp23
 70
     0
102
RTVSPropertyOp24
 70
     0
102
RTVSPropertyOp25
 70
     0
102
RTVSPropertyOp26
 70
     0
102
RTVSPropertyOp27
 70
     0
102
RTVSPropertyOp28
 70
     1
102
RTVSPropertyOp29
 70
     1
102
RTVSPropertyOp30
 70
     1
102
RTVSPropertyOp31
 70
     1
102
RTVSPropertyOp32
 70
     1
102
RTVSPropertyOp33
 70
     1
102
RTVSPropertyOp34
 70
     1
102
RTVSPropertyOp35
 70
     1
102
RTVSPropertyOp36
 70
     1
102
RTVSPropertyOp37
 70
     0
102
RTVSPropertyOp38
 70
     0
102
RTVSPropertyOp39
 70
     0
102
RTVSPropertyOp40
 70
     0
102
RTVSPropertyOp41
 70
     0
102
RTVSPropertyOp42
 70
     0
102
RTVSPropertyOp43
 70
     0
102
RTVSPropertyOp44
 70
     0
102
RTVSPropertyOp45
 70
     1
102
RTVSPropertyOp46
 70
     0
102
RTVSPropertyOp47
 70
     0
102
RTVSPropertyOp48
 70
     0
102
RTVSPropertyOp49
 70
     1
102
RTVSPropertyOp50
 70
     0
102
RTVSPropertyOp51
 70
     0
102
RTVSPropertyOp52
 70
     0
102
RTVSPropertyOp53
 70
     0
102
RTVSPropertyOp54
 70
     0
102
RTVSPropertyOp55
 70
     1
102
RTVSPropertyOp56
 70
     0
102
RTVSPropertyOp57
 70
     0
102
RTVSPropertyOp58
 70
     0
102
RTVSPropertyOp59
 70
     0
102
RTVSPropertyOp60
 70
     0
102
RTVSPropertyOp61
 70
     0
102
RTVSPropertyOp62
 70
     0
  0
XRECORD
  5
2F3B
102
{ACAD_REACTORS
330
2F3A
102
}
330
2F3A
100
AcDbXrecord
280
     1
102
RTVSPost2010Prop28
280
     0
102
RTVSPost2010PropOp28
 70
     1
102
RTVSPost2010Prop29
280
     1
102
RTVSPost2010PropOp29
 70
     1
102
RTVSPost2010Prop30
280
     1
102
RTVSPost2010PropOp30
 70
     1
102
RTVSPost2010Prop31
280
     0
102
RTVSPost2010PropOp31
 70
     1
102
RTVSPost2010Prop32
280
     0
102
RTVSPost2010PropOp32
 70
     1
102
RTVSPost2010Prop33
280
     0
102
RTVSPost2010PropOp33
 70
     1
102
RTVSPost2010Prop34
280
     0
102
RTVSPost2010PropOp34
 70
     1
102
RTVSPost2010Prop35
280
     0
102
RTVSPost2010PropOp35
 70
     1
102
RTVSPost2010Prop36
280
     0
102
RTVSPost2010PropOp36
 70
     1
102
RTVSPost2010Prop37
 90
       50
102
RTVSPost2010PropOp37
 70
     1
102
RTVSPost2010Prop38
140
0.0
102
RTVSPost2010PropOp38
 70
     1
102
RTVSPost2010Prop39
140
1.0
102
RTVSPost2010PropOp39
 70
     1
102
RTVSPost2010Prop40
 90
        0
102
RTVSPost2010PropOp40
 70
     1
102
RTVSPost2010Prop41ColorIndex
 90
       18
102
RTVSPost2010Prop41ColorRGB
 90
        0
102
RTVSPost2010PropOp41
 70
     1
102
RTVSPost2010Prop42
 90
       50
102
RTVSPost2010PropOp42
 70
     1
102
RTVSPost2010Prop43
 90
        3
102
RTVSPost2010PropOp43
 70
     1
102
RTVSPost2010Prop44ColorIndex
 90
        5
102
RTVSPost2010Prop44ColorRGB
 90
      255
102
RTVSPost2010PropOp44
 70
     1
102
RTVSPost2010Prop45
280
     0
102
RTVSPost2010PropOp45
 70
     1
102
RTVSPost2010Prop46
 90
       50
102
RTVSPost2010PropOp46
 70
     1
102
RTVSPost2010Prop47
 90
       50
102
RTVSPost2010PropOp47
 70
     1
102
RTVSPost2010Prop48
 90
       50
102
RTVSPost2010PropOp48
 70
     1
102
RTVSPost2010Prop49
280
     0
102
RTVSPost2010PropOp49
 70
     1
102
RTVSPost2010Prop50
 90
       50
102
RTVSPost2010PropOp50
 70
     1
102
RTVSPost2010Prop51ColorIndex
 90
      256
102
RTVSPost2010Prop51ColorRGB
 90
-16777216
102
RTVSPost2010PropOp51
 70
     0
102
RTVSPost2010Prop52
140
1.0
102
RTVSPost2010PropOp52
 70
     0
102
RTVSPost2010Prop53
 90
        2
102
RTVSPost2010PropOp53
 70
     1
102
RTVSPost2010Prop54
  1
strokes_ogs.tif
102
RTVSPost2010PropOp54
 70
     1
102
RTVSPost2010Prop55
280
     0
102
RTVSPost2010PropOp55
 70
     1
102
RTVSPost2010Prop56
140
1.0
102
RTVSPost2010PropOp56
 70
     1
102
RTVSPost2010Prop57
140
1.0
102
RTVSPost2010PropOp57
 70
     1
102
RTVSPropertyOp0
 70
     1
102
RTVSPropertyOp1
 70
     1
102
RTVSPropertyOp2
 70
     1
102
RTVSPropertyOp3
 70
     1
102
RTVSPropertyOp4
 70
     1
102
RTVSPropertyOp5
 70
     1
102
RTVSPropertyOp6
 70
     1
102
RTVSPropertyOp7
 70
     1
102
RTVSPropertyOp8
 70
     1
102
RTVSPropertyOp9
 70
     1
102
RTVSPropertyOp10
 70
     1
102
RTVSPropertyOp11
 70
     1
102
RTVSPropertyOp12
 70
     1
102
RTVSPropertyOp13
 70
     1
102
RTVSPropertyOp14
 70
     1
102
RTVSPropertyOp15
 70
     1
102
RTVSPropertyOp16
 70
     1
102
RTVSPropertyOp17
 70
     1
102
RTVSPropertyOp18
 70
     1
102
RTVSPropertyOp19
 70
     1
102
RTVSPropertyOp20
 70
     1
102
RTVSPropertyOp21
 70
     1
102
RTVSPropertyOp22
 70
     1
102
RTVSPropertyOp23
 70
     1
102
RTVSPropertyOp24
 70
     1
102
RTVSPropertyOp25
 70
     1
102
RTVSPropertyOp26
 70
     1
102
RTVSPropertyOp27
 70
     1
102
RTVSPropertyOp28
 70
     1
102
RTVSPropertyOp29
 70
     1
102
RTVSPropertyOp30
 70
     1
102
RTVSPropertyOp31
 70
     1
102
RTVSPropertyOp32
 70
     1
102
RTVSPropertyOp33
 70
     1
102
RTVSPropertyOp34
 70
     1
102
RTVSPropertyOp35
 70
     1
102
RTVSPropertyOp36
 70
     1
102
RTVSPropertyOp37
 70
     1
102
RTVSPropertyOp38
 70
     1
102
RTVSPropertyOp39
 70
     1
102
RTVSPropertyOp40
 70
     1
102
RTVSPropertyOp41
 70
     1
102
RTVSPropertyOp42
 70
     1
102
RTVSPropertyOp43
 70
     1
102
RTVSPropertyOp44
 70
     1
102
RTVSPropertyOp45
 70
     1
102
RTVSPropertyOp46
 70
     1
102
RTVSPropertyOp47
 70
     1
102
RTVSPropertyOp48
 70
     1
102
RTVSPropertyOp49
 70
     1
102
RTVSPropertyOp50
 70
     1
102
RTVSPropertyOp51
 70
     0
102
RTVSPropertyOp52
 70
     0
102
RTVSPropertyOp53
 70
     1
102
RTVSPropertyOp54
 70
     1
102
RTVSPropertyOp55
 70
     1
102
RTVSPropertyOp56
 70
     1
102
RTVSPropertyOp57
 70
     1
102
RTVSPropertyOp58
 70
     1
102
RTVSPropertyOp59
 70
     1
102
RTVSPropertyOp60
 70
     1
102
RTVSPropertyOp61
 70
     1
102
RTVSPropertyOp62
 70
     1
  0
XRECORD
  5
2F51
102
{ACAD_REACTORS
330
2F50
102
}
330
2F50
100
AcDbXrecord
280
     1
102
RTVSPost2010Prop28
280
     0
102
RTVSPost2010PropOp28
 70
     1
102
RTVSPost2010Prop29
280
     1
102
RTVSPost2010PropOp29
 70
     1
102
RTVSPost2010Prop30
280
     1
102
RTVSPost2010PropOp30
 70
     1
102
RTVSPost2010Prop31
280
     0
102
RTVSPost2010PropOp31
 70
     1
102
RTVSPost2010Prop32
280
     0
102
RTVSPost2010PropOp32
 70
     1
102
RTVSPost2010Prop33
280
     0
102
RTVSPost2010PropOp33
 70
     1
102
RTVSPost2010Prop34
280
     0
102
RTVSPost2010PropOp34
 70
     1
102
RTVSPost2010Prop35
280
     0
102
RTVSPost2010PropOp35
 70
     1
102
RTVSPost2010Prop36
280
     0
102
RTVSPost2010PropOp36
 70
     1
102
RTVSPost2010Prop37
 90
       50
102
RTVSPost2010PropOp37
 70
     1
102
RTVSPost2010Prop38
140
0.0
102
RTVSPost2010PropOp38
 70
     1
102
RTVSPost2010Prop39
140
1.0
102
RTVSPost2010PropOp39
 70
     1
102
RTVSPost2010Prop40
 90
        0
102
RTVSPost2010PropOp40
 70
     1
102
RTVSPost2010Prop41ColorIndex
 90
       18
102
RTVSPost2010Prop41ColorRGB
 90
        0
102
RTVSPost2010PropOp41
 70
     1
102
RTVSPost2010Prop42
 90
       50
102
RTVSPost2010PropOp42
 70
     1
102
RTVSPost2010Prop43
 90
        3
102
RTVSPost2010PropOp43
 70
     1
102
RTVSPost2010Prop44ColorIndex
 90
        5
102
RTVSPost2010Prop44ColorRGB
 90
      255
102
RTVSPost2010PropOp44
 70
     1
102
RTVSPost2010Prop45
280
     0
102
RTVSPost2010PropOp45
 70
     1
102
RTVSPost2010Prop46
 90
       50
102
RTVSPost2010PropOp46
 70
     1
102
RTVSPost2010Prop47
 90
       50
102
RTVSPost2010PropOp47
 70
     1
102
RTVSPost2010Prop48
 90
       50
102
RTVSPost2010PropOp48
 70
     1
102
RTVSPost2010Prop49
280
     0
102
RTVSPost2010PropOp49
 70
     1
102
RTVSPost2010Prop50
 90
       50
102
RTVSPost2010PropOp50
 70
     1
102
RTVSPost2010Prop51ColorIndex
 90
      256
102
RTVSPost2010Prop51ColorRGB
 90
-16777216
102
RTVSPost2010PropOp51
 70
     0
102
RTVSPost2010Prop52
140
1.0
102
RTVSPost2010PropOp52
 70
     0
102
RTVSPost2010Prop53
 90
        2
102
RTVSPost2010PropOp53
 70
     1
102
RTVSPost2010Prop54
  1
strokes_ogs.tif
102
RTVSPost2010PropOp54
 70
     1
102
RTVSPost2010Prop55
280
     0
102
RTVSPost2010PropOp55
 70
     1
102
RTVSPost2010Prop56
140
1.0
102
RTVSPost2010PropOp56
 70
     1
102
RTVSPost2010Prop57
140
1.0
102
RTVSPost2010PropOp57
 70
     1
102
RTVSPropertyOp0
 70
     1
102
RTVSPropertyOp1
 70
     1
102
RTVSPropertyOp2
 70
     1
102
RTVSPropertyOp3
 70
     1
102
RTVSPropertyOp4
 70
     1
102
RTVSPropertyOp5
 70
     1
102
RTVSPropertyOp6
 70
     1
102
RTVSPropertyOp7
 70
     1
102
RTVSPropertyOp8
 70
     1
102
RTVSPropertyOp9
 70
     1
102
RTVSPropertyOp10
 70
     1
102
RTVSPropertyOp11
 70
     1
102
RTVSPropertyOp12
 70
     1
102
RTVSPropertyOp13
 70
     1
102
RTVSPropertyOp14
 70
     1
102
RTVSPropertyOp15
 70
     1
102
RTVSPropertyOp16
 70
     1
102
RTVSPropertyOp17
 70
     1
102
RTVSPropertyOp18
 70
     1
102
RTVSPropertyOp19
 70
     1
102
RTVSPropertyOp20
 70
     1
102
RTVSPropertyOp21
 70
     1
102
RTVSPropertyOp22
 70
     1
102
RTVSPropertyOp23
 70
     1
102
RTVSPropertyOp24
 70
     1
102
RTVSPropertyOp25
 70
     1
102
RTVSPropertyOp26
 70
     1
102
RTVSPropertyOp27
 70
     1
102
RTVSPropertyOp28
 70
     1
102
RTVSPropertyOp29
 70
     1
102
RTVSPropertyOp30
 70
     1
102
RTVSPropertyOp31
 70
     1
102
RTVSPropertyOp32
 70
     1
102
RTVSPropertyOp33
 70
     1
102
RTVSPropertyOp34
 70
     1
102
RTVSPropertyOp35
 70
     1
102
RTVSPropertyOp36
 70
     1
102
RTVSPropertyOp37
 70
     1
102
RTVSPropertyOp38
 70
     1
102
RTVSPropertyOp39
 70
     1
102
RTVSPropertyOp40
 70
     1
102
RTVSPropertyOp41
 70
     1
102
RTVSPropertyOp42
 70
     1
102
RTVSPropertyOp43
 70
     1
102
RTVSPropertyOp44
 70
     1
102
RTVSPropertyOp45
 70
     1
102
RTVSPropertyOp46
 70
     1
102
RTVSPropertyOp47
 70
     1
102
RTVSPropertyOp48
 70
     1
102
RTVSPropertyOp49
 70
     1
102
RTVSPropertyOp50
 70
     1
102
RTVSPropertyOp51
 70
     0
102
RTVSPropertyOp52
 70
     0
102
RTVSPropertyOp53
 70
     1
102
RTVSPropertyOp54
 70
     1
102
RTVSPropertyOp55
 70
     1
102
RTVSPropertyOp56
 70
     1
102
RTVSPropertyOp57
 70
     1
102
RTVSPropertyOp58
 70
     1
102
RTVSPropertyOp59
 70
     1
102
RTVSPropertyOp60
 70
     1
102
RTVSPropertyOp61
 70
     1
102
RTVSPropertyOp62
 70
     1
  0
XRECORD
  5
2F4F
102
{ACAD_REACTORS
330
2F4E
102
}
330
2F4E
100
AcDbXrecord
280
     1
102
RTVSPost2010Prop28
280
     0
102
RTVSPost2010PropOp28
 70
     1
102
RTVSPost2010Prop29
280
     1
102
RTVSPost2010PropOp29
 70
     1
102
RTVSPost2010Prop30
280
     1
102
RTVSPost2010PropOp30
 70
     1
102
RTVSPost2010Prop31
280
     0
102
RTVSPost2010PropOp31
 70
     1
102
RTVSPost2010Prop32
280
     0
102
RTVSPost2010PropOp32
 70
     1
102
RTVSPost2010Prop33
280
     0
102
RTVSPost2010PropOp33
 70
     1
102
RTVSPost2010Prop34
280
     0
102
RTVSPost2010PropOp34
 70
     1
102
RTVSPost2010Prop35
280
     0
102
RTVSPost2010PropOp35
 70
     1
102
RTVSPost2010Prop36
280
     0
102
RTVSPost2010PropOp36
 70
     1
102
RTVSPost2010Prop37
 90
       50
102
RTVSPost2010PropOp37
 70
     1
102
RTVSPost2010Prop38
140
0.0
102
RTVSPost2010PropOp38
 70
     1
102
RTVSPost2010Prop39
140
1.0
102
RTVSPost2010PropOp39
 70
     1
102
RTVSPost2010Prop40
 90
        0
102
RTVSPost2010PropOp40
 70
     1
102
RTVSPost2010Prop41ColorIndex
 90
       18
102
RTVSPost2010Prop41ColorRGB
 90
        0
102
RTVSPost2010PropOp41
 70
     1
102
RTVSPost2010Prop42
 90
       50
102
RTVSPost2010PropOp42
 70
     1
102
RTVSPost2010Prop43
 90
        3
102
RTVSPost2010PropOp43
 70
     1
102
RTVSPost2010Prop44ColorIndex
 90
        5
102
RTVSPost2010Prop44ColorRGB
 90
      255
102
RTVSPost2010PropOp44
 70
     1
102
RTVSPost2010Prop45
280
     0
102
RTVSPost2010PropOp45
 70
     1
102
RTVSPost2010Prop46
 90
       50
102
RTVSPost2010PropOp46
 70
     1
102
RTVSPost2010Prop47
 90
       50
102
RTVSPost2010PropOp47
 70
     1
102
RTVSPost2010Prop48
 90
       50
102
RTVSPost2010PropOp48
 70
     1
102
RTVSPost2010Prop49
280
     0
102
RTVSPost2010PropOp49
 70
     1
102
RTVSPost2010Prop50
 90
       50
102
RTVSPost2010PropOp50
 70
     1
102
RTVSPost2010Prop51ColorIndex
 90
      256
102
RTVSPost2010Prop51ColorRGB
 90
-16777216
102
RTVSPost2010PropOp51
 70
     0
102
RTVSPost2010Prop52
140
1.0
102
RTVSPost2010PropOp52
 70
     0
102
RTVSPost2010Prop53
 90
        2
102
RTVSPost2010PropOp53
 70
     1
102
RTVSPost2010Prop54
  1
strokes_ogs.tif
102
RTVSPost2010PropOp54
 70
     1
102
RTVSPost2010Prop55
280
     0
102
RTVSPost2010PropOp55
 70
     1
102
RTVSPost2010Prop56
140
1.0
102
RTVSPost2010PropOp56
 70
     1
102
RTVSPost2010Prop57
140
1.0
102
RTVSPost2010PropOp57
 70
     1
102
RTVSPropertyOp0
 70
     1
102
RTVSPropertyOp1
 70
     1
102
RTVSPropertyOp2
 70
     1
102
RTVSPropertyOp3
 70
     1
102
RTVSPropertyOp4
 70
     1
102
RTVSPropertyOp5
 70
     1
102
RTVSPropertyOp6
 70
     1
102
RTVSPropertyOp7
 70
     1
102
RTVSPropertyOp8
 70
     1
102
RTVSPropertyOp9
 70
     1
102
RTVSPropertyOp10
 70
     1
102
RTVSPropertyOp11
 70
     1
102
RTVSPropertyOp12
 70
     1
102
RTVSPropertyOp13
 70
     1
102
RTVSPropertyOp14
 70
     1
102
RTVSPropertyOp15
 70
     1
102
RTVSPropertyOp16
 70
     1
102
RTVSPropertyOp17
 70
     1
102
RTVSPropertyOp18
 70
     1
102
RTVSPropertyOp19
 70
     1
102
RTVSPropertyOp20
 70
     1
102
RTVSPropertyOp21
 70
     1
102
RTVSPropertyOp22
 70
     1
102
RTVSPropertyOp23
 70
     1
102
RTVSPropertyOp24
 70
     1
102
RTVSPropertyOp25
 70
     1
102
RTVSPropertyOp26
 70
     1
102
RTVSPropertyOp27
 70
     1
102
RTVSPropertyOp28
 70
     1
102
RTVSPropertyOp29
 70
     1
102
RTVSPropertyOp30
 70
     1
102
RTVSPropertyOp31
 70
     1
102
RTVSPropertyOp32
 70
     1
102
RTVSPropertyOp33
 70
     1
102
RTVSPropertyOp34
 70
     1
102
RTVSPropertyOp35
 70
     1
102
RTVSPropertyOp36
 70
     1
102
RTVSPropertyOp37
 70
     1
102
RTVSPropertyOp38
 70
     1
102
RTVSPropertyOp39
 70
     1
102
RTVSPropertyOp40
 70
     1
102
RTVSPropertyOp41
 70
     1
102
RTVSPropertyOp42
 70
     1
102
RTVSPropertyOp43
 70
     1
102
RTVSPropertyOp44
 70
     1
102
RTVSPropertyOp45
 70
     1
102
RTVSPropertyOp46
 70
     1
102
RTVSPropertyOp47
 70
     1
102
RTVSPropertyOp48
 70
     1
102
RTVSPropertyOp49
 70
     1
102
RTVSPropertyOp50
 70
     1
102
RTVSPropertyOp51
 70
     0
102
RTVSPropertyOp52
 70
     0
102
RTVSPropertyOp53
 70
     1
102
RTVSPropertyOp54
 70
     1
102
RTVSPropertyOp55
 70
     1
102
RTVSPropertyOp56
 70
     1
102
RTVSPropertyOp57
 70
     1
102
RTVSPropertyOp58
 70
     1
102
RTVSPropertyOp59
 70
     1
102
RTVSPropertyOp60
 70
     1
102
RTVSPropertyOp61
 70
     1
102
RTVSPropertyOp62
 70
     1
  0
XRECORD
  5
2F49
102
{ACAD_REACTORS
330
2F48
102
}
330
2F48
100
AcDbXrecord
280
     1
102
RTVSPost2010Prop28
280
     0
102
RTVSPost2010PropOp28
 70
     1
102
RTVSPost2010Prop29
280
     1
102
RTVSPost2010PropOp29
 70
     1
102
RTVSPost2010Prop30
280
     1
102
RTVSPost2010PropOp30
 70
     1
102
RTVSPost2010Prop31
280
     0
102
RTVSPost2010PropOp31
 70
     1
102
RTVSPost2010Prop32
280
     0
102
RTVSPost2010PropOp32
 70
     1
102
RTVSPost2010Prop33
280
     0
102
RTVSPost2010PropOp33
 70
     1
102
RTVSPost2010Prop34
280
     0
102
RTVSPost2010PropOp34
 70
     1
102
RTVSPost2010Prop35
280
     0
102
RTVSPost2010PropOp35
 70
     1
102
RTVSPost2010Prop36
280
     0
102
RTVSPost2010PropOp36
 70
     1
102
RTVSPost2010Prop37
 90
       50
102
RTVSPost2010PropOp37
 70
     1
102
RTVSPost2010Prop38
140
0.0
102
RTVSPost2010PropOp38
 70
     1
102
RTVSPost2010Prop39
140
1.0
102
RTVSPost2010PropOp39
 70
     1
102
RTVSPost2010Prop40
 90
        0
102
RTVSPost2010PropOp40
 70
     1
102
RTVSPost2010Prop41ColorIndex
 90
       18
102
RTVSPost2010Prop41ColorRGB
 90
        0
102
RTVSPost2010PropOp41
 70
     1
102
RTVSPost2010Prop42
 90
       50
102
RTVSPost2010PropOp42
 70
     1
102
RTVSPost2010Prop43
 90
        3
102
RTVSPost2010PropOp43
 70
     1
102
RTVSPost2010Prop44ColorIndex
 90
        5
102
RTVSPost2010Prop44ColorRGB
 90
      255
102
RTVSPost2010PropOp44
 70
     1
102
RTVSPost2010Prop45
280
     0
102
RTVSPost2010PropOp45
 70
     1
102
RTVSPost2010Prop46
 90
       50
102
RTVSPost2010PropOp46
 70
     1
102
RTVSPost2010Prop47
 90
       50
102
RTVSPost2010PropOp47
 70
     1
102
RTVSPost2010Prop48
 90
       50
102
RTVSPost2010PropOp48
 70
     1
102
RTVSPost2010Prop49
280
     0
102
RTVSPost2010PropOp49
 70
     1
102
RTVSPost2010Prop50
 90
       50
102
RTVSPost2010PropOp50
 70
     1
102
RTVSPost2010Prop51ColorIndex
 90
      256
102
RTVSPost2010Prop51ColorRGB
 90
-16777216
102
RTVSPost2010PropOp51
 70
     0
102
RTVSPost2010Prop52
140
1.0
102
RTVSPost2010PropOp52
 70
     0
102
RTVSPost2010Prop53
 90
        2
102
RTVSPost2010PropOp53
 70
     1
102
RTVSPost2010Prop54
  1
strokes_ogs.tif
102
RTVSPost2010PropOp54
 70
     1
102
RTVSPost2010Prop55
280
     0
102
RTVSPost2010PropOp55
 70
     1
102
RTVSPost2010Prop56
140
1.0
102
RTVSPost2010PropOp56
 70
     1
102
RTVSPost2010Prop57
140
1.0
102
RTVSPost2010PropOp57
 70
     1
102
RTVSPropertyOp0
 70
     1
102
RTVSPropertyOp1
 70
     1
102
RTVSPropertyOp2
 70
     1
102
RTVSPropertyOp3
 70
     1
102
RTVSPropertyOp4
 70
     1
102
RTVSPropertyOp5
 70
     1
102
RTVSPropertyOp6
 70
     1
102
RTVSPropertyOp7
 70
     1
102
RTVSPropertyOp8
 70
     1
102
RTVSPropertyOp9
 70
     1
102
RTVSPropertyOp10
 70
     1
102
RTVSPropertyOp11
 70
     1
102
RTVSPropertyOp12
 70
     1
102
RTVSPropertyOp13
 70
     1
102
RTVSPropertyOp14
 70
     1
102
RTVSPropertyOp15
 70
     1
102
RTVSPropertyOp16
 70
     1
102
RTVSPropertyOp17
 70
     1
102
RTVSPropertyOp18
 70
     1
102
RTVSPropertyOp19
 70
     1
102
RTVSPropertyOp20
 70
     1
102
RTVSPropertyOp21
 70
     1
102
RTVSPropertyOp22
 70
     1
102
RTVSPropertyOp23
 70
     1
102
RTVSPropertyOp24
 70
     1
102
RTVSPropertyOp25
 70
     1
102
RTVSPropertyOp26
 70
     1
102
RTVSPropertyOp27
 70
     1
102
RTVSPropertyOp28
 70
     1
102
RTVSPropertyOp29
 70
     1
102
RTVSPropertyOp30
 70
     1
102
RTVSPropertyOp31
 70
     1
102
RTVSPropertyOp32
 70
     1
102
RTVSPropertyOp33
 70
     1
102
RTVSPropertyOp34
 70
     1
102
RTVSPropertyOp35
 70
     1
102
RTVSPropertyOp36
 70
     1
102
RTVSPropertyOp37
 70
     1
102
RTVSPropertyOp38
 70
     1
102
RTVSPropertyOp39
 70
     1
102
RTVSPropertyOp40
 70
     1
102
RTVSPropertyOp41
 70
     1
102
RTVSPropertyOp42
 70
     1
102
RTVSPropertyOp43
 70
     1
102
RTVSPropertyOp44
 70
     1
102
RTVSPropertyOp45
 70
     1
102
RTVSPropertyOp46
 70
     1
102
RTVSPropertyOp47
 70
     1
102
RTVSPropertyOp48
 70
     1
102
RTVSPropertyOp49
 70
     1
102
RTVSPropertyOp50
 70
     1
102
RTVSPropertyOp51
 70
     0
102
RTVSPropertyOp52
 70
     0
102
RTVSPropertyOp53
 70
     1
102
RTVSPropertyOp54
 70
     1
102
RTVSPropertyOp55
 70
     1
102
RTVSPropertyOp56
 70
     1
102
RTVSPropertyOp57
 70
     1
102
RTVSPropertyOp58
 70
     1
102
RTVSPropertyOp59
 70
     1
102
RTVSPropertyOp60
 70
     1
102
RTVSPropertyOp61
 70
     1
102
RTVSPropertyOp62
 70
     1
  0
XRECORD
  5
2F4B
102
{ACAD_REACTORS
330
2F4A
102
}
330
2F4A
100
AcDbXrecord
280
     1
102
RTVSPost2010Prop28
280
     0
102
RTVSPost2010PropOp28
 70
     1
102
RTVSPost2010Prop29
280
     1
102
RTVSPost2010PropOp29
 70
     1
102
RTVSPost2010Prop30
280
     1
102
RTVSPost2010PropOp30
 70
     1
102
RTVSPost2010Prop31
280
     0
102
RTVSPost2010PropOp31
 70
     1
102
RTVSPost2010Prop32
280
     0
102
RTVSPost2010PropOp32
 70
     1
102
RTVSPost2010Prop33
280
     0
102
RTVSPost2010PropOp33
 70
     1
102
RTVSPost2010Prop34
280
     0
102
RTVSPost2010PropOp34
 70
     1
102
RTVSPost2010Prop35
280
     0
102
RTVSPost2010PropOp35
 70
     1
102
RTVSPost2010Prop36
280
     0
102
RTVSPost2010PropOp36
 70
     1
102
RTVSPost2010Prop37
 90
       50
102
RTVSPost2010PropOp37
 70
     1
102
RTVSPost2010Prop38
140
0.0
102
RTVSPost2010PropOp38
 70
     1
102
RTVSPost2010Prop39
140
1.0
102
RTVSPost2010PropOp39
 70
     1
102
RTVSPost2010Prop40
 90
        0
102
RTVSPost2010PropOp40
 70
     1
102
RTVSPost2010Prop41ColorIndex
 90
       18
102
RTVSPost2010Prop41ColorRGB
 90
        0
102
RTVSPost2010PropOp41
 70
     1
102
RTVSPost2010Prop42
 90
       50
102
RTVSPost2010PropOp42
 70
     1
102
RTVSPost2010Prop43
 90
        3
102
RTVSPost2010PropOp43
 70
     1
102
RTVSPost2010Prop44ColorIndex
 90
        5
102
RTVSPost2010Prop44ColorRGB
 90
      255
102
RTVSPost2010PropOp44
 70
     1
102
RTVSPost2010Prop45
280
     0
102
RTVSPost2010PropOp45
 70
     1
102
RTVSPost2010Prop46
 90
       50
102
RTVSPost2010PropOp46
 70
     1
102
RTVSPost2010Prop47
 90
       50
102
RTVSPost2010PropOp47
 70
     1
102
RTVSPost2010Prop48
 90
       50
102
RTVSPost2010PropOp48
 70
     1
102
RTVSPost2010Prop49
280
     0
102
RTVSPost2010PropOp49
 70
     1
102
RTVSPost2010Prop50
 90
       50
102
RTVSPost2010PropOp50
 70
     1
102
RTVSPost2010Prop51ColorIndex
 90
      256
102
RTVSPost2010Prop51ColorRGB
 90
-16777216
102
RTVSPost2010PropOp51
 70
     0
102
RTVSPost2010Prop52
140
1.0
102
RTVSPost2010PropOp52
 70
     0
102
RTVSPost2010Prop53
 90
        2
102
RTVSPost2010PropOp53
 70
     1
102
RTVSPost2010Prop54
  1
strokes_ogs.tif
102
RTVSPost2010PropOp54
 70
     1
102
RTVSPost2010Prop55
280
     0
102
RTVSPost2010PropOp55
 70
     1
102
RTVSPost2010Prop56
140
1.0
102
RTVSPost2010PropOp56
 70
     1
102
RTVSPost2010Prop57
140
1.0
102
RTVSPost2010PropOp57
 70
     1
102
RTVSPropertyOp0
 70
     1
102
RTVSPropertyOp1
 70
     1
102
RTVSPropertyOp2
 70
     1
102
RTVSPropertyOp3
 70
     1
102
RTVSPropertyOp4
 70
     1
102
RTVSPropertyOp5
 70
     1
102
RTVSPropertyOp6
 70
     1
102
RTVSPropertyOp7
 70
     1
102
RTVSPropertyOp8
 70
     1
102
RTVSPropertyOp9
 70
     1
102
RTVSPropertyOp10
 70
     1
102
RTVSPropertyOp11
 70
     1
102
RTVSPropertyOp12
 70
     1
102
RTVSPropertyOp13
 70
     1
102
RTVSPropertyOp14
 70
     1
102
RTVSPropertyOp15
 70
     1
102
RTVSPropertyOp16
 70
     1
102
RTVSPropertyOp17
 70
     1
102
RTVSPropertyOp18
 70
     1
102
RTVSPropertyOp19
 70
     1
102
RTVSPropertyOp20
 70
     1
102
RTVSPropertyOp21
 70
     1
102
RTVSPropertyOp22
 70
     1
102
RTVSPropertyOp23
 70
     1
102
RTVSPropertyOp24
 70
     1
102
RTVSPropertyOp25
 70
     1
102
RTVSPropertyOp26
 70
     1
102
RTVSPropertyOp27
 70
     1
102
RTVSPropertyOp28
 70
     1
102
RTVSPropertyOp29
 70
     1
102
RTVSPropertyOp30
 70
     1
102
RTVSPropertyOp31
 70
     1
102
RTVSPropertyOp32
 70
     1
102
RTVSPropertyOp33
 70
     1
102
RTVSPropertyOp34
 70
     1
102
RTVSPropertyOp35
 70
     1
102
RTVSPropertyOp36
 70
     1
102
RTVSPropertyOp37
 70
     1
102
RTVSPropertyOp38
 70
     1
102
RTVSPropertyOp39
 70
     1
102
RTVSPropertyOp40
 70
     1
102
RTVSPropertyOp41
 70
     1
102
RTVSPropertyOp42
 70
     1
102
RTVSPropertyOp43
 70
     1
102
RTVSPropertyOp44
 70
     1
102
RTVSPropertyOp45
 70
     1
102
RTVSPropertyOp46
 70
     1
102
RTVSPropertyOp47
 70
     1
102
RTVSPropertyOp48
 70
     1
102
RTVSPropertyOp49
 70
     1
102
RTVSPropertyOp50
 70
     1
102
RTVSPropertyOp51
 70
     0
102
RTVSPropertyOp52
 70
     0
102
RTVSPropertyOp53
 70
     1
102
RTVSPropertyOp54
 70
     1
102
RTVSPropertyOp55
 70
     1
102
RTVSPropertyOp56
 70
     1
102
RTVSPropertyOp57
 70
     1
102
RTVSPropertyOp58
 70
     1
102
RTVSPropertyOp59
 70
     1
102
RTVSPropertyOp60
 70
     1
102
RTVSPropertyOp61
 70
     1
102
RTVSPropertyOp62
 70
     1
  0
XRECORD
  5
2F41
102
{ACAD_REACTORS
330
2F40
102
}
330
2F40
100
AcDbXrecord
280
     1
102
RTVSPost2010Prop28
280
     0
102
RTVSPost2010PropOp28
 70
     1
102
RTVSPost2010Prop29
280
     1
102
RTVSPost2010PropOp29
 70
     1
102
RTVSPost2010Prop30
280
     1
102
RTVSPost2010PropOp30
 70
     1
102
RTVSPost2010Prop31
280
     0
102
RTVSPost2010PropOp31
 70
     1
102
RTVSPost2010Prop32
280
     0
102
RTVSPost2010PropOp32
 70
     1
102
RTVSPost2010Prop33
280
     0
102
RTVSPost2010PropOp33
 70
     1
102
RTVSPost2010Prop34
280
     0
102
RTVSPost2010PropOp34
 70
     1
102
RTVSPost2010Prop35
280
     0
102
RTVSPost2010PropOp35
 70
     1
102
RTVSPost2010Prop36
280
     0
102
RTVSPost2010PropOp36
 70
     1
102
RTVSPost2010Prop37
 90
       50
102
RTVSPost2010PropOp37
 70
     1
102
RTVSPost2010Prop38
140
0.0
102
RTVSPost2010PropOp38
 70
     1
102
RTVSPost2010Prop39
140
1.0
102
RTVSPost2010PropOp39
 70
     1
102
RTVSPost2010Prop40
 90
        0
102
RTVSPost2010PropOp40
 70
     1
102
RTVSPost2010Prop41ColorIndex
 90
       18
102
RTVSPost2010Prop41ColorRGB
 90
        0
102
RTVSPost2010PropOp41
 70
     1
102
RTVSPost2010Prop42
 90
       50
102
RTVSPost2010PropOp42
 70
     1
102
RTVSPost2010Prop43
 90
        3
102
RTVSPost2010PropOp43
 70
     1
102
RTVSPost2010Prop44ColorIndex
 90
        5
102
RTVSPost2010Prop44ColorRGB
 90
      255
102
RTVSPost2010PropOp44
 70
     1
102
RTVSPost2010Prop45
280
     0
102
RTVSPost2010PropOp45
 70
     1
102
RTVSPost2010Prop46
 90
       50
102
RTVSPost2010PropOp46
 70
     1
102
RTVSPost2010Prop47
 90
       50
102
RTVSPost2010PropOp47
 70
     1
102
RTVSPost2010Prop48
 90
       50
102
RTVSPost2010PropOp48
 70
     1
102
RTVSPost2010Prop49
280
     0
102
RTVSPost2010PropOp49
 70
     1
102
RTVSPost2010Prop50
 90
       50
102
RTVSPost2010PropOp50
 70
     1
102
RTVSPost2010Prop51ColorIndex
 90
      256
102
RTVSPost2010Prop51ColorRGB
 90
-16777216
102
RTVSPost2010PropOp51
 70
     0
102
RTVSPost2010Prop52
140
1.0
102
RTVSPost2010PropOp52
 70
     0
102
RTVSPost2010Prop53
 90
        2
102
RTVSPost2010PropOp53
 70
     1
102
RTVSPost2010Prop54
  1
strokes_ogs.tif
102
RTVSPost2010PropOp54
 70
     1
102
RTVSPost2010Prop55
280
     0
102
RTVSPost2010PropOp55
 70
     1
102
RTVSPost2010Prop56
140
1.0
102
RTVSPost2010PropOp56
 70
     1
102
RTVSPost2010Prop57
140
1.0
102
RTVSPost2010PropOp57
 70
     1
102
RTVSPropertyOp0
 70
     1
102
RTVSPropertyOp1
 70
     1
102
RTVSPropertyOp2
 70
     1
102
RTVSPropertyOp3
 70
     1
102
RTVSPropertyOp4
 70
     1
102
RTVSPropertyOp5
 70
     1
102
RTVSPropertyOp6
 70
     1
102
RTVSPropertyOp7
 70
     1
102
RTVSPropertyOp8
 70
     1
102
RTVSPropertyOp9
 70
     1
102
RTVSPropertyOp10
 70
     1
102
RTVSPropertyOp11
 70
     1
102
RTVSPropertyOp12
 70
     1
102
RTVSPropertyOp13
 70
     1
102
RTVSPropertyOp14
 70
     1
102
RTVSPropertyOp15
 70
     1
102
RTVSPropertyOp16
 70
     1
102
RTVSPropertyOp17
 70
     1
102
RTVSPropertyOp18
 70
     1
102
RTVSPropertyOp19
 70
     1
102
RTVSPropertyOp20
 70
     1
102
RTVSPropertyOp21
 70
     1
102
RTVSPropertyOp22
 70
     1
102
RTVSPropertyOp23
 70
     1
102
RTVSPropertyOp24
 70
     1
102
RTVSPropertyOp25
 70
     1
102
RTVSPropertyOp26
 70
     1
102
RTVSPropertyOp27
 70
     1
102
RTVSPropertyOp28
 70
     1
102
RTVSPropertyOp29
 70
     1
102
RTVSPropertyOp30
 70
     1
102
RTVSPropertyOp31
 70
     1
102
RTVSPropertyOp32
 70
     1
102
RTVSPropertyOp33
 70
     1
102
RTVSPropertyOp34
 70
     1
102
RTVSPropertyOp35
 70
     1
102
RTVSPropertyOp36
 70
     1
102
RTVSPropertyOp37
 70
     1
102
RTVSPropertyOp38
 70
     1
102
RTVSPropertyOp39
 70
     1
102
RTVSPropertyOp40
 70
     1
102
RTVSPropertyOp41
 70
     1
102
RTVSPropertyOp42
 70
     1
102
RTVSPropertyOp43
 70
     1
102
RTVSPropertyOp44
 70
     1
102
RTVSPropertyOp45
 70
     1
102
RTVSPropertyOp46
 70
     1
102
RTVSPropertyOp47
 70
     1
102
RTVSPropertyOp48
 70
     1
102
RTVSPropertyOp49
 70
     1
102
RTVSPropertyOp50
 70
     1
102
RTVSPropertyOp51
 70
     0
102
RTVSPropertyOp52
 70
     0
102
RTVSPropertyOp53
 70
     1
102
RTVSPropertyOp54
 70
     1
102
RTVSPropertyOp55
 70
     1
102
RTVSPropertyOp56
 70
     1
102
RTVSPropertyOp57
 70
     1
102
RTVSPropertyOp58
 70
     1
102
RTVSPropertyOp59
 70
     1
102
RTVSPropertyOp60
 70
     1
102
RTVSPropertyOp61
 70
     1
102
RTVSPropertyOp62
 70
     1
  0
XRECORD
  5
2F35
102
{ACAD_REACTORS
330
2F34
102
}
330
2F34
100
AcDbXrecord
280
     1
102
RTVSPost2010Prop28
280
     0
102
RTVSPost2010PropOp28
 70
     1
102
RTVSPost2010Prop29
280
     1
102
RTVSPost2010PropOp29
 70
     1
102
RTVSPost2010Prop30
280
     1
102
RTVSPost2010PropOp30
 70
     1
102
RTVSPost2010Prop31
280
     0
102
RTVSPost2010PropOp31
 70
     1
102
RTVSPost2010Prop32
280
     0
102
RTVSPost2010PropOp32
 70
     1
102
RTVSPost2010Prop33
280
     0
102
RTVSPost2010PropOp33
 70
     1
102
RTVSPost2010Prop34
280
     0
102
RTVSPost2010PropOp34
 70
     1
102
RTVSPost2010Prop35
280
     0
102
RTVSPost2010PropOp35
 70
     1
102
RTVSPost2010Prop36
280
     0
102
RTVSPost2010PropOp36
 70
     1
102
RTVSPost2010Prop37
 90
       50
102
RTVSPost2010PropOp37
 70
     1
102
RTVSPost2010Prop38
140
0.0
102
RTVSPost2010PropOp38
 70
     1
102
RTVSPost2010Prop39
140
1.0
102
RTVSPost2010PropOp39
 70
     1
102
RTVSPost2010Prop40
 90
        0
102
RTVSPost2010PropOp40
 70
     1
102
RTVSPost2010Prop41ColorIndex
 90
       18
102
RTVSPost2010Prop41ColorRGB
 90
        0
102
RTVSPost2010PropOp41
 70
     1
102
RTVSPost2010Prop42
 90
       50
102
RTVSPost2010PropOp42
 70
     1
102
RTVSPost2010Prop43
 90
        3
102
RTVSPost2010PropOp43
 70
     1
102
RTVSPost2010Prop44ColorIndex
 90
        5
102
RTVSPost2010Prop44ColorRGB
 90
      255
102
RTVSPost2010PropOp44
 70
     1
102
RTVSPost2010Prop45
280
     0
102
RTVSPost2010PropOp45
 70
     1
102
RTVSPost2010Prop46
 90
       50
102
RTVSPost2010PropOp46
 70
     1
102
RTVSPost2010Prop47
 90
       50
102
RTVSPost2010PropOp47
 70
     1
102
RTVSPost2010Prop48
 90
       50
102
RTVSPost2010PropOp48
 70
     1
102
RTVSPost2010Prop49
280
     0
102
RTVSPost2010PropOp49
 70
     1
102
RTVSPost2010Prop50
 90
       50
102
RTVSPost2010PropOp50
 70
     1
102
RTVSPost2010Prop51ColorIndex
 90
      256
102
RTVSPost2010Prop51ColorRGB
 90
-16777216
102
RTVSPost2010PropOp51
 70
     0
102
RTVSPost2010Prop52
140
1.0
102
RTVSPost2010PropOp52
 70
     0
102
RTVSPost2010Prop53
 90
        2
102
RTVSPost2010PropOp53
 70
     1
102
RTVSPost2010Prop54
  1
strokes_ogs.tif
102
RTVSPost2010PropOp54
 70
     1
102
RTVSPost2010Prop55
280
     0
102
RTVSPost2010PropOp55
 70
     1
102
RTVSPost2010Prop56
140
1.0
102
RTVSPost2010PropOp56
 70
     1
102
RTVSPost2010Prop57
140
1.0
102
RTVSPost2010PropOp57
 70
     1
102
RTVSPropertyOp0
 70
     1
102
RTVSPropertyOp1
 70
     1
102
RTVSPropertyOp2
 70
     1
102
RTVSPropertyOp3
 70
     1
102
RTVSPropertyOp4
 70
     1
102
RTVSPropertyOp5
 70
     1
102
RTVSPropertyOp6
 70
     1
102
RTVSPropertyOp7
 70
     1
102
RTVSPropertyOp8
 70
     1
102
RTVSPropertyOp9
 70
     1
102
RTVSPropertyOp10
 70
     1
102
RTVSPropertyOp11
 70
     1
102
RTVSPropertyOp12
 70
     1
102
RTVSPropertyOp13
 70
     1
102
RTVSPropertyOp14
 70
     1
102
RTVSPropertyOp15
 70
     1
102
RTVSPropertyOp16
 70
     1
102
RTVSPropertyOp17
 70
     1
102
RTVSPropertyOp18
 70
     1
102
RTVSPropertyOp19
 70
     1
102
RTVSPropertyOp20
 70
     1
102
RTVSPropertyOp21
 70
     1
102
RTVSPropertyOp22
 70
     1
102
RTVSPropertyOp23
 70
     1
102
RTVSPropertyOp24
 70
     1
102
RTVSPropertyOp25
 70
     1
102
RTVSPropertyOp26
 70
     1
102
RTVSPropertyOp27
 70
     1
102
RTVSPropertyOp28
 70
     1
102
RTVSPropertyOp29
 70
     1
102
RTVSPropertyOp30
 70
     1
102
RTVSPropertyOp31
 70
     1
102
RTVSPropertyOp32
 70
     1
102
RTVSPropertyOp33
 70
     1
102
RTVSPropertyOp34
 70
     1
102
RTVSPropertyOp35
 70
     1
102
RTVSPropertyOp36
 70
     1
102
RTVSPropertyOp37
 70
     1
102
RTVSPropertyOp38
 70
     1
102
RTVSPropertyOp39
 70
     1
102
RTVSPropertyOp40
 70
     1
102
RTVSPropertyOp41
 70
     1
102
RTVSPropertyOp42
 70
     1
102
RTVSPropertyOp43
 70
     1
102
RTVSPropertyOp44
 70
     1
102
RTVSPropertyOp45
 70
     1
102
RTVSPropertyOp46
 70
     1
102
RTVSPropertyOp47
 70
     1
102
RTVSPropertyOp48
 70
     1
102
RTVSPropertyOp49
 70
     1
102
RTVSPropertyOp50
 70
     1
102
RTVSPropertyOp51
 70
     0
102
RTVSPropertyOp52
 70
     0
102
RTVSPropertyOp53
 70
     1
102
RTVSPropertyOp54
 70
     1
102
RTVSPropertyOp55
 70
     1
102
RTVSPropertyOp56
 70
     1
102
RTVSPropertyOp57
 70
     1
102
RTVSPropertyOp58
 70
     1
102
RTVSPropertyOp59
 70
     1
102
RTVSPropertyOp60
 70
     1
102
RTVSPropertyOp61
 70
     1
102
RTVSPropertyOp62
 70
     1
  0
XRECORD
  5
2F4D
102
{ACAD_REACTORS
330
2F4C
102
}
330
2F4C
100
AcDbXrecord
280
     1
102
RTVSPost2010Prop28
280
     0
102
RTVSPost2010PropOp28
 70
     1
102
RTVSPost2010Prop29
280
     1
102
RTVSPost2010PropOp29
 70
     1
102
RTVSPost2010Prop30
280
     1
102
RTVSPost2010PropOp30
 70
     1
102
RTVSPost2010Prop31
280
     0
102
RTVSPost2010PropOp31
 70
     1
102
RTVSPost2010Prop32
280
     0
102
RTVSPost2010PropOp32
 70
     1
102
RTVSPost2010Prop33
280
     0
102
RTVSPost2010PropOp33
 70
     1
102
RTVSPost2010Prop34
280
     0
102
RTVSPost2010PropOp34
 70
     1
102
RTVSPost2010Prop35
280
     0
102
RTVSPost2010PropOp35
 70
     1
102
RTVSPost2010Prop36
280
     0
102
RTVSPost2010PropOp36
 70
     1
102
RTVSPost2010Prop37
 90
       50
102
RTVSPost2010PropOp37
 70
     1
102
RTVSPost2010Prop38
140
0.0
102
RTVSPost2010PropOp38
 70
     1
102
RTVSPost2010Prop39
140
1.0
102
RTVSPost2010PropOp39
 70
     1
102
RTVSPost2010Prop40
 90
        0
102
RTVSPost2010PropOp40
 70
     1
102
RTVSPost2010Prop41ColorIndex
 90
       18
102
RTVSPost2010Prop41ColorRGB
 90
        0
102
RTVSPost2010PropOp41
 70
     1
102
RTVSPost2010Prop42
 90
       50
102
RTVSPost2010PropOp42
 70
     1
102
RTVSPost2010Prop43
 90
        3
102
RTVSPost2010PropOp43
 70
     1
102
RTVSPost2010Prop44ColorIndex
 90
        5
102
RTVSPost2010Prop44ColorRGB
 90
      255
102
RTVSPost2010PropOp44
 70
     1
102
RTVSPost2010Prop45
280
     0
102
RTVSPost2010PropOp45
 70
     1
102
RTVSPost2010Prop46
 90
       50
102
RTVSPost2010PropOp46
 70
     1
102
RTVSPost2010Prop47
 90
       50
102
RTVSPost2010PropOp47
 70
     1
102
RTVSPost2010Prop48
 90
       50
102
RTVSPost2010PropOp48
 70
     1
102
RTVSPost2010Prop49
280
     0
102
RTVSPost2010PropOp49
 70
     1
102
RTVSPost2010Prop50
 90
       50
102
RTVSPost2010PropOp50
 70
     1
102
RTVSPost2010Prop51ColorIndex
 90
      256
102
RTVSPost2010Prop51ColorRGB
 90
-16777216
102
RTVSPost2010PropOp51
 70
     0
102
RTVSPost2010Prop52
140
1.0
102
RTVSPost2010PropOp52
 70
     0
102
RTVSPost2010Prop53
 90
        2
102
RTVSPost2010PropOp53
 70
     1
102
RTVSPost2010Prop54
  1
strokes_ogs.tif
102
RTVSPost2010PropOp54
 70
     1
102
RTVSPost2010Prop55
280
     0
102
RTVSPost2010PropOp55
 70
     1
102
RTVSPost2010Prop56
140
1.0
102
RTVSPost2010PropOp56
 70
     1
102
RTVSPost2010Prop57
140
1.0
102
RTVSPost2010PropOp57
 70
     1
102
RTVSPropertyOp0
 70
     1
102
RTVSPropertyOp1
 70
     1
102
RTVSPropertyOp2
 70
     1
102
RTVSPropertyOp3
 70
     1
102
RTVSPropertyOp4
 70
     1
102
RTVSPropertyOp5
 70
     1
102
RTVSPropertyOp6
 70
     1
102
RTVSPropertyOp7
 70
     1
102
RTVSPropertyOp8
 70
     1
102
RTVSPropertyOp9
 70
     1
102
RTVSPropertyOp10
 70
     1
102
RTVSPropertyOp11
 70
     1
102
RTVSPropertyOp12
 70
     1
102
RTVSPropertyOp13
 70
     1
102
RTVSPropertyOp14
 70
     1
102
RTVSPropertyOp15
 70
     1
102
RTVSPropertyOp16
 70
     1
102
RTVSPropertyOp17
 70
     1
102
RTVSPropertyOp18
 70
     1
102
RTVSPropertyOp19
 70
     1
102
RTVSPropertyOp20
 70
     1
102
RTVSPropertyOp21
 70
     1
102
RTVSPropertyOp22
 70
     1
102
RTVSPropertyOp23
 70
     1
102
RTVSPropertyOp24
 70
     1
102
RTVSPropertyOp25
 70
     1
102
RTVSPropertyOp26
 70
     1
102
RTVSPropertyOp27
 70
     1
102
RTVSPropertyOp28
 70
     1
102
RTVSPropertyOp29
 70
     1
102
RTVSPropertyOp30
 70
     1
102
RTVSPropertyOp31
 70
     1
102
RTVSPropertyOp32
 70
     1
102
RTVSPropertyOp33
 70
     1
102
RTVSPropertyOp34
 70
     1
102
RTVSPropertyOp35
 70
     1
102
RTVSPropertyOp36
 70
     1
102
RTVSPropertyOp37
 70
     1
102
RTVSPropertyOp38
 70
     1
102
RTVSPropertyOp39
 70
     1
102
RTVSPropertyOp40
 70
     1
102
RTVSPropertyOp41
 70
     1
102
RTVSPropertyOp42
 70
     1
102
RTVSPropertyOp43
 70
     1
102
RTVSPropertyOp44
 70
     1
102
RTVSPropertyOp45
 70
     1
102
RTVSPropertyOp46
 70
     1
102
RTVSPropertyOp47
 70
     1
102
RTVSPropertyOp48
 70
     1
102
RTVSPropertyOp49
 70
     1
102
RTVSPropertyOp50
 70
     1
102
RTVSPropertyOp51
 70
     0
102
RTVSPropertyOp52
 70
     0
102
RTVSPropertyOp53
 70
     1
102
RTVSPropertyOp54
 70
     1
102
RTVSPropertyOp55
 70
     1
102
RTVSPropertyOp56
 70
     1
102
RTVSPropertyOp57
 70
     1
102
RTVSPropertyOp58
 70
     1
102
RTVSPropertyOp59
 70
     1
102
RTVSPropertyOp60
 70
     1
102
RTVSPropertyOp61
 70
     1
102
RTVSPropertyOp62
 70
     1
  0
ENDSEC
  0
EOF
