0
SECTION
2
HEADER
9
$ACADVER
1
AC1015
9
$DWGCODEPAGE
3
ANSI_1252
9
$HANDSEED
5
1a8
9
$ANGBASE
50
0
9
$ANGDIR
70
0
9
$ATTMODE
70
1
9
$AUNITS
70
0
9
$AUPREC
70
0
9
$CECOLOR
62
256
9
$CELTSCALE
40
1
9
$CELTYPE
6
ByLayer
9
$CELWEIGHT
370
18
9
$CLAYER
8
0
9
$CMLJUST
70
0
9
$CMLSCALE
40
1
9
$CMLSTYLE
2
Standard
9
$DIMSTYLE
2
Standard
9
$TEXTSIZE
40
0.2
9
$TEXTSTYLE
7
Standard
9
$LUNITS
70
2
9
$LUPREC
70
4
9
$EXTNAMES
290
1
9
$INSUNITS
70
4
9
$LTSCALE
40
1
9
$LWDISPLAY
290
1
9
$PDMODE
70
0
9
$PDSIZE
40
0
9
$PLINEGEN
70
0
0
ENDSEC
0
SECTION
2
CLASSES
0
CLASS
1
RASTERVARIABLES
2
AcDbRasterVariables
3
ISM
90
0
280
0
281
0
0
ENDSEC
0
SECTION
2
TABLES
0
TABLE
2
VPORT
5
19e
100
AcDbSymbolTable
0
VPORT
5
1
100
AcDbSymbolTableRecord
100
AcDbViewportTableRecord
2
*Active
70
0
10
0
20
0
11
1
21
1
12
-1
22
1
13
0
23
0
14
0.5
24
0.5
15
10
25
10
16
0
26
0
36
1
17
0
27
0
37
0
0
ENDTAB
0
TABLE
2
LTYPE
5
19f
100
AcDbSymbolTable
0
LTYPE
5
14
100
AcDbSymbolTableRecord
100
AcDbLinetypeTableRecord
70
0
2
ByBlock
3

72
65
73
0
40
0
0
LTYPE
5
15
100
AcDbSymbolTableRecord
100
AcDbLinetypeTableRecord
70
0
2
ByLayer
3

72
65
73
0
40
0
0
LTYPE
5
16
100
AcDbSymbolTableRecord
100
AcDbLinetypeTableRecord
70
0
2
CONTINUOUS
3
Solid line
72
65
73
0
40
0
0
LTYPE
5
6A
100
AcDbSymbolTableRecord
100
AcDbLinetypeTableRecord
70
0
2
CENTER
3
____ _ ____ _ ____ _ ____
72
65
73
4
40
47.5
49
22
74
0
49
-8.5
74
0
49
8.5
74
0
49
-8.5
74
0
0
LTYPE
5
6B
100
AcDbSymbolTableRecord
100
AcDbLinetypeTableRecord
70
0
2
DASHED
3
__ __ __ __ __ __ __ __ __
72
65
73
2
40
25.72
49
12.86
74
0
49
-12.86
74
0
0
ENDTAB
0
TABLE
2
LAYER
5
1a0
100
AcDbSymbolTable
0
LAYER
5
10
100
AcDbSymbolTableRecord
100
AcDbLayerTableRecord
2
0
70
0
62
7
6
CONTINUOUS
290
1
370
-3
390
0
0
LAYER
5
6D
100
AcDbSymbolTableRecord
100
AcDbLayerTableRecord
2
81
70
0
62
-3
6
CONTINUOUS
290
1
370
-3
390
0
0
LAYER
5
6F
100
AcDbSymbolTableRecord
100
AcDbLayerTableRecord
2
80
70
0
62
-6
6
CONTINUOUS
290
1
370
-3
390
0
0
LAYER
5
74
100
AcDbSymbolTableRecord
100
AcDbLayerTableRecord
2
2
70
0
62
7
6
CONTINUOUS
290
1
370
-3
390
0
0
LAYER
5
78
100
AcDbSymbolTableRecord
100
AcDbLayerTableRecord
2
1
70
0
62
4
6
CONTINUOUS
290
1
370
-3
390
0
0
LAYER
5
88
100
AcDbSymbolTableRecord
100
AcDbLayerTableRecord
2
4
70
0
62
-2
6
CENTER
290
1
370
-3
390
0
0
LAYER
5
18a
100
AcDbSymbolTableRecord
100
AcDbLayerTableRecord
2
SK2
70
0
62
7
6
CONTINUOUS
290
1
370
-3
390
0
0
LAYER
5
18b
100
AcDbSymbolTableRecord
100
AcDbLayerTableRecord
2
SK1
70
0
62
4
6
CONTINUOUS
290
1
370
-3
390
0
0
LAYER
5
18c
100
AcDbSymbolTableRecord
100
AcDbLayerTableRecord
2
SK4
70
0
62
2
6
CENTER
290
1
370
-3
390
0
0
LAYER
5
18d
100
AcDbSymbolTableRecord
100
AcDbLayerTableRecord
2
SK6
70
0
62
5
6
CONTINUOUS
290
1
370
-3
390
0
0
ENDTAB
0
TABLE
2
STYLE
5
1a1
100
AcDbSymbolTable
0
STYLE
5
11
100
AcDbSymbolTableRecord
100
AcDbTextStyleTableRecord
2
Standard
3
txt
70
0
71
0
40
0
41
1
42
0
50
0
0
STYLE
5
E6
100
AcDbSymbolTableRecord
100
AcDbTextStyleTableRecord
2
iso_b_vert
3
simplex.shx
70
0
71
0
40
0
41
1
42
0
50
0
0
STYLE
5
E7
100
AcDbSymbolTableRecord
100
AcDbTextStyleTableRecord
2
DWGDirectTextStyle
3
simplex
70
0
71
0
40
0
41
1
42
0
50
0
0
ENDTAB
0
TABLE
2
DIMSTYLE
5
1a2
100
AcDbSymbolTable
100
AcDbDimStyleTable
0
DIMSTYLE
105
27
100
AcDbSymbolTableRecord
100
AcDbDimStyleTableRecord
2
Standard
70
0
3
<>
41
0.18
42
0.0625
44
0.18
140
0.18
147
0.09
73
0
74
0
77
1
271
2
275
0
278
52
280
0
340
11
0
ENDTAB
0
TABLE
2
VIEW
5
1a3
100
AcDbSymbolTable
0
ENDTAB
0
TABLE
2
UCS
5
1a4
100
AcDbSymbolTable
0
ENDTAB
0
TABLE
2
APPID
5
1a5
100
AcDbSymbolTable
0
APPID
5
12
100
AcDbSymbolTableRecord
100
AcDbRegAppTableRecord
2
ACAD
70
0
0
ENDTAB
0
TABLE
2
BLOCK_RECORD
5
1a6
100
AcDbSymbolTable
0
BLOCK_RECORD
5
1F
100
AcDbSymbolTableRecord
100
AcDbBlockTableRecord
2
*Model_Space
340
0
70
0
0
BLOCK_RECORD
5
1B
100
AcDbSymbolTableRecord
100
AcDbBlockTableRecord
2
*Paper_Space
340
0
70
0
0
BLOCK_RECORD
5
23
100
AcDbSymbolTableRecord
100
AcDbBlockTableRecord
2
*Paper_Space0
340
0
70
0
0
BLOCK_RECORD
5
E9
100
AcDbSymbolTableRecord
100
AcDbBlockTableRecord
2
DimnDraft3D1
340
0
70
0
0
BLOCK_RECORD
5
F3
100
AcDbSymbolTableRecord
100
AcDbBlockTableRecord
2
DimnDraft3D2
340
0
70
0
0
BLOCK_RECORD
5
FD
100
AcDbSymbolTableRecord
100
AcDbBlockTableRecord
2
DimnDraft3D3
340
0
70
0
0
BLOCK_RECORD
5
107
100
AcDbSymbolTableRecord
100
AcDbBlockTableRecord
2
DimnDraft3D4
340
0
70
0
0
BLOCK_RECORD
5
111
100
AcDbSymbolTableRecord
100
AcDbBlockTableRecord
2
DimnDraft3D5
340
0
70
0
0
BLOCK_RECORD
5
11B
100
AcDbSymbolTableRecord
100
AcDbBlockTableRecord
2
DimnDraft3D6
340
0
70
0
0
BLOCK_RECORD
5
126
100
AcDbSymbolTableRecord
100
AcDbBlockTableRecord
2
DimnDraft3D7
340
0
70
0
0
ENDTAB
0
ENDSEC
0
SECTION
2
BLOCKS
0
BLOCK
5
20
100
AcDbEntity
8
0
100
AcDbBlockBegin
2
*Model_Space
70
0
10
0
20
0
30
0
3
*Model_Space
0
ENDBLK
5
21
100
AcDbEntity
8
0
100
AcDbBlockEnd
0
BLOCK
5
1C
100
AcDbEntity
8
0
100
AcDbBlockBegin
2
*Paper_Space
70
0
10
0
20
0
30
0
3
*Paper_Space
0
ENDBLK
5
1D
100
AcDbEntity
8
0
100
AcDbBlockEnd
0
BLOCK
5
24
100
AcDbEntity
8
0
100
AcDbBlockBegin
2
*Paper_Space0
70
0
10
0
20
0
30
0
3
*Paper_Space0
0
ENDBLK
5
25
100
AcDbEntity
8
0
100
AcDbBlockEnd
0
BLOCK
5
F0
100
AcDbEntity
8
0
100
AcDbBlockBegin
2
DimnDraft3D1
70
0
10
0
20
0
30
0
3
DimnDraft3D1
0
MTEXT
5
EA
100
AcDbEntity
8
SK2
62
256
6
ByLayer
370
13
48
1
60
0
100
AcDbMText
10
8.953864
20
-12.088398
30
0
210
0
220
0
230
1
1
\W0.7495;29,34
40
3.5
41
0
44
1.084337
50
0
71
7
72
5
7
iso_b_vert
0
LINE
5
EB
100
AcDbEntity
8
SK2
62
256
6
ByLayer
370
13
48
1
60
0
100
AcDbLine
10
0
20
-1.5875
30
0
11
0
21
-14.963398
31
0
39
0
210
0
220
0
230
1
0
LINE
5
EC
100
AcDbEntity
8
SK2
62
256
6
ByLayer
370
13
48
1
60
0
100
AcDbLine
10
29.3367
20
-4.3375
30
0
11
29.3367
21
-14.963398
31
0
39
0
210
0
220
0
230
1
0
LINE
5
ED
100
AcDbEntity
8
SK2
62
256
6
ByLayer
370
13
48
1
60
0
100
AcDbLine
10
0
20
-12.963398
30
0
11
29.3367
21
-12.963398
31
0
39
0
210
0
220
0
230
1
0
SOLID
5
EE
100
AcDbEntity
8
SK2
62
256
6
ByLayer
370
13
48
1
60
0
100
AcDbTrace
10
0
20
-12.963398
30
0
11
3.499998
21
-12.502615
31
0
12
3.500002
22
-13.424182
32
0
13
0
23
-12.963398
33
0
39
0
210
0
220
0
230
1
0
SOLID
5
EF
100
AcDbEntity
8
SK2
62
256
6
ByLayer
370
13
48
1
60
0
100
AcDbTrace
10
29.3367
20
-12.963398
30
0
11
25.836702
21
-13.424182
31
0
12
25.836698
22
-12.502615
32
0
13
29.3367
23
-12.963398
33
0
39
0
210
0
220
0
230
1
0
ENDBLK
5
F1
100
AcDbEntity
8
0
100
AcDbBlockEnd
0
BLOCK
5
FA
100
AcDbEntity
8
0
100
AcDbBlockBegin
2
DimnDraft3D2
70
0
10
0
20
0
30
0
3
DimnDraft3D2
0
MTEXT
5
F4
100
AcDbEntity
8
SK2
62
256
6
ByLayer
370
13
48
1
60
0
100
AcDbMText
10
-6.770684
20
-30.817985
30
0
210
0
220
0
230
1
1
\W0.7317;66,00
40
3.5
41
0
44
1.084337
50
0
71
7
72
5
7
iso_b_vert
0
LINE
5
F5
100
AcDbEntity
8
SK2
62
256
6
ByLayer
370
13
48
1
60
0
100
AcDbLine
10
-36
20
-4.5875
30
0
11
-36
21
-33.692985
31
0
39
0
210
0
220
0
230
1
0
LINE
5
F6
100
AcDbEntity
8
SK2
62
256
6
ByLayer
370
13
48
1
60
0
100
AcDbLine
10
30
20
-1.5875
30
0
11
30
21
-33.692985
31
0
39
0
210
0
220
0
230
1
0
LINE
5
F7
100
AcDbEntity
8
SK2
62
256
6
ByLayer
370
13
48
1
60
0
100
AcDbLine
10
-36
20
-31.692985
30
0
11
30
21
-31.692985
31
0
39
0
210
0
220
0
230
1
0
SOLID
5
F8
100
AcDbEntity
8
SK2
62
256
6
ByLayer
370
13
48
1
60
0
100
AcDbTrace
10
-36
20
-31.692985
30
0
11
-32.500002
21
-31.232202
31
0
12
-32.499998
22
-32.153769
32
0
13
-36
23
-31.692985
33
0
39
0
210
0
220
0
230
1
0
SOLID
5
F9
100
AcDbEntity
8
SK2
62
256
6
ByLayer
370
13
48
1
60
0
100
AcDbTrace
10
30
20
-31.692985
30
0
11
26.500002
21
-32.153769
31
0
12
26.499998
22
-31.232202
32
0
13
30
23
-31.692985
33
0
39
0
210
0
220
0
230
1
0
ENDBLK
5
FB
100
AcDbEntity
8
0
100
AcDbBlockEnd
0
BLOCK
5
104
100
AcDbEntity
8
0
100
AcDbBlockBegin
2
DimnDraft3D3
70
0
10
0
20
0
30
0
3
DimnDraft3D3
0
MTEXT
5
FE
100
AcDbEntity
8
SK2
62
256
6
ByLayer
370
13
48
1
60
0
100
AcDbMText
10
17.658816
20
15.234119
30
0
210
0
220
0
230
1
1
\W0.6713;16,66
40
3.5
41
0
44
1.084337
50
0
71
7
72
5
7
iso_b_vert
0
LINE
5
FF
100
AcDbEntity
8
SK2
62
256
6
ByLayer
370
13
48
1
60
0
100
AcDbLine
10
13.34
20
4.3375
30
0
11
13.34
21
16.359119
31
0
39
0
210
0
220
0
230
1
0
LINE
5
100
100
AcDbEntity
8
SK2
62
256
6
ByLayer
370
13
48
1
60
0
100
AcDbLine
10
30
20
1.5875
30
0
11
30
21
16.359119
31
0
39
0
210
0
220
0
230
1
0
LINE
5
101
100
AcDbEntity
8
SK2
62
256
6
ByLayer
370
13
48
1
60
0
100
AcDbLine
10
13.34
20
14.359119
30
0
11
30
21
14.359119
31
0
39
0
210
0
220
0
230
1
0
SOLID
5
102
100
AcDbEntity
8
SK2
62
256
6
ByLayer
370
13
48
1
60
0
100
AcDbTrace
10
13.34
20
14.359119
30
0
11
16.839998
21
14.819903
31
0
12
16.840002
22
13.898335
32
0
13
13.34
23
14.359119
33
0
39
0
210
0
220
0
230
1
0
SOLID
5
103
100
AcDbEntity
8
SK2
62
256
6
ByLayer
370
13
48
1
60
0
100
AcDbTrace
10
30
20
14.359119
30
0
11
26.500002
21
13.898335
31
0
12
26.499998
22
14.819903
32
0
13
30
23
14.359119
33
0
39
0
210
0
220
0
230
1
0
ENDBLK
5
105
100
AcDbEntity
8
0
100
AcDbBlockEnd
0
BLOCK
5
10E
100
AcDbEntity
8
0
100
AcDbBlockBegin
2
DimnDraft3D4
70
0
10
0
20
0
30
0
3
DimnDraft3D4
0
MTEXT
5
108
100
AcDbEntity
8
SK2
62
256
6
ByLayer
370
13
48
1
60
0
100
AcDbMText
10
36.840636
20
-14.677503
30
0
210
0
220
0
230
1
1
\W0.7150;0,66
40
3.5
41
0
44
1.084337
50
0
71
7
72
5
7
iso_b_vert
0
LINE
5
109
100
AcDbEntity
8
SK2
62
256
6
ByLayer
370
13
48
1
60
0
100
AcDbLine
10
30
20
-1.5875
30
0
11
30
21
-17.552503
31
0
39
0
210
0
220
0
230
1
0
LINE
5
10A
100
AcDbEntity
8
SK2
62
256
6
ByLayer
370
13
48
1
60
0
100
AcDbLine
10
29.3367
20
-4.3375
30
0
11
29.3367
21
-17.552503
31
0
39
0
210
0
220
0
230
1
0
LINE
5
10B
100
AcDbEntity
8
SK2
62
256
6
ByLayer
370
13
48
1
60
0
100
AcDbLine
10
20.5867
20
-15.552503
30
0
11
43.997215
21
-15.552503
31
0
39
0
210
0
220
0
230
1
0
SOLID
5
10C
100
AcDbEntity
8
SK2
62
256
6
ByLayer
370
13
48
1
60
0
100
AcDbTrace
10
30
20
-15.552503
30
0
11
33.499998
21
-15.091719
31
0
12
33.500002
22
-16.013287
32
0
13
30
23
-15.552503
33
0
39
0
210
0
220
0
230
1
0
SOLID
5
10D
100
AcDbEntity
8
SK2
62
256
6
ByLayer
370
13
48
1
60
0
100
AcDbTrace
10
29.3367
20
-15.552503
30
0
11
25.836702
21
-16.013287
31
0
12
25.836698
22
-15.091719
32
0
13
29.3367
23
-15.552503
33
0
39
0
210
0
220
0
230
1
0
ENDBLK
5
10F
100
AcDbEntity
8
0
100
AcDbBlockEnd
0
BLOCK
5
118
100
AcDbEntity
8
0
100
AcDbBlockBegin
2
DimnDraft3D5
70
0
10
0
20
0
30
0
3
DimnDraft3D5
0
MTEXT
5
112
100
AcDbEntity
8
SK2
62
256
6
ByLayer
370
13
48
1
60
0
100
AcDbMText
10
-10.035518
20
-20.468428
30
0
210
0
220
0
230
1
1
\W0.7495;65,34
40
3.5
41
0
44
1.084337
50
0
71
7
72
5
7
iso_b_vert
0
LINE
5
113
100
AcDbEntity
8
SK2
62
256
6
ByLayer
370
13
48
1
60
0
100
AcDbLine
10
-36
20
-4.5875
30
0
11
-36
21
-23.343428
31
0
39
0
210
0
220
0
230
1
0
LINE
5
114
100
AcDbEntity
8
SK2
62
256
6
ByLayer
370
13
48
1
60
0
100
AcDbLine
10
29.3367
20
-4.3375
30
0
11
29.3367
21
-23.343428
31
0
39
0
210
0
220
0
230
1
0
LINE
5
115
100
AcDbEntity
8
SK2
62
256
6
ByLayer
370
13
48
1
60
0
100
AcDbLine
10
-36
20
-21.343428
30
0
11
29.3367
21
-21.343428
31
0
39
0
210
0
220
0
230
1
0
SOLID
5
116
100
AcDbEntity
8
SK2
62
256
6
ByLayer
370
13
48
1
60
0
100
AcDbTrace
10
-36
20
-21.343428
30
0
11
-32.500002
21
-20.882645
31
0
12
-32.499998
22
-21.804212
32
0
13
-36
23
-21.343428
33
0
39
0
210
0
220
0
230
1
0
SOLID
5
117
100
AcDbEntity
8
SK2
62
256
6
ByLayer
370
13
48
1
60
0
100
AcDbTrace
10
29.3367
20
-21.343428
30
0
11
25.836702
21
-21.804212
31
0
12
25.836698
22
-20.882645
32
0
13
29.3367
23
-21.343428
33
0
39
0
210
0
220
0
230
1
0
ENDBLK
5
119
100
AcDbEntity
8
0
100
AcDbBlockEnd
0
BLOCK
5
123
100
AcDbEntity
8
0
100
AcDbBlockBegin
2
DimnDraft3D6
70
0
10
0
20
0
30
0
3
DimnDraft3D6
0
MTEXT
5
11C
100
AcDbEntity
8
SK2
62
256
6
ByLayer
370
13
48
1
60
0
100
AcDbMText
10
-46.375163
20
22.34918
30
0
210
0
220
0
230
1
1
\W0.7317;6,000
40
3.5
41
0
44
1.084337
50
90
71
7
72
5
7
iso_b_vert
0
MTEXT
5
11D
100
AcDbEntity
8
SK2
62
256
6
ByLayer
370
13
48
1
60
0
100
AcDbMText
10
-46.375163
20
17.126524
30
0
210
0
220
0
230
1
1
%%c
40
3.5
41
0
44
1.084337
50
90
71
7
72
5
7
iso_b_vert
0
LINE
5
11E
100
AcDbEntity
8
SK2
62
256
6
ByLayer
370
13
48
1
60
0
100
AcDbLine
10
-37.5875
20
-3
30
0
11
-46.625163
21
-3
31
0
39
0
210
0
220
0
230
1
0
LINE
5
11F
100
AcDbEntity
8
SK2
62
256
6
ByLayer
370
13
48
1
60
0
100
AcDbLine
10
-37.5875
20
3
30
0
11
-46.625163
21
3
31
0
39
0
210
0
220
0
230
1
0
LINE
5
120
100
AcDbEntity
8
SK2
62
256
6
ByLayer
370
13
48
1
60
0
100
AcDbLine
10
-44.625163
20
32.121549
30
0
11
-44.625163
21
-11.75
31
0
39
0
210
0
220
0
230
1
0
SOLID
5
121
100
AcDbEntity
8
SK2
62
256
6
ByLayer
370
13
48
1
60
0
100
AcDbTrace
10
-44.625163
20
-3
30
0
11
-44.164379
21
-6.499998
31
0
12
-45.085946
22
-6.500002
32
0
13
-44.625163
23
-3
33
0
39
0
210
0
220
0
230
1
0
SOLID
5
122
100
AcDbEntity
8
SK2
62
256
6
ByLayer
370
13
48
1
60
0
100
AcDbTrace
10
-44.625163
20
3
30
0
11
-45.085946
21
6.499998
31
0
12
-44.164379
22
6.500002
32
0
13
-44.625163
23
3
33
0
39
0
210
0
220
0
230
1
0
ENDBLK
5
124
100
AcDbEntity
8
0
100
AcDbBlockEnd
0
BLOCK
5
12E
100
AcDbEntity
8
0
100
AcDbBlockBegin
2
DimnDraft3D7
70
0
10
0
20
0
30
0
3
DimnDraft3D7
0
MTEXT
5
127
100
AcDbEntity
8
2
62
256
6
ByLayer
370
13
48
1
60
0
100
AcDbMText
10
40.333343
20
20.692266
30
0
210
0
220
0
230
1
1
\W0.7317;5,500
40
3.5
41
0
44
1.084337
50
90
71
7
72
5
7
iso_b_vert
0
MTEXT
5
128
100
AcDbEntity
8
2
62
256
6
ByLayer
370
13
48
1
60
0
100
AcDbMText
10
40.333343
20
15.46961
30
0
210
0
220
0
230
1
1
%%c
40
3.5
41
0
44
1.084337
50
90
71
7
72
5
7
iso_b_vert
0
LINE
5
129
100
AcDbEntity
8
2
62
256
6
ByLayer
370
13
48
1
60
0
100
AcDbLine
10
30.9242
20
-2.75
30
0
11
44.083343
21
-2.75
31
0
39
0
210
0
220
0
230
1
0
LINE
5
12A
100
AcDbEntity
8
2
62
256
6
ByLayer
370
13
48
1
60
0
100
AcDbLine
10
30.9242
20
2.75
30
0
11
44.083343
21
2.75
31
0
39
0
210
0
220
0
230
1
0
LINE
5
12B
100
AcDbEntity
8
2
62
256
6
ByLayer
370
13
48
1
60
0
100
AcDbLine
10
42.083343
20
30.464635
30
0
11
42.083343
21
-11.5
31
0
39
0
210
0
220
0
230
1
0
SOLID
5
12C
100
AcDbEntity
8
2
62
256
6
ByLayer
370
13
48
1
60
0
100
AcDbTrace
10
42.083343
20
-2.75
30
0
11
42.544126
21
-6.249998
31
0
12
41.622559
22
-6.250002
32
0
13
42.083343
23
-2.75
33
0
39
0
210
0
220
0
230
1
0
SOLID
5
12D
100
AcDbEntity
8
2
62
256
6
ByLayer
370
13
48
1
60
0
100
AcDbTrace
10
42.083343
20
2.75
30
0
11
41.622559
21
6.249998
31
0
12
42.544126
22
6.250002
32
0
13
42.083343
23
2.75
33
0
39
0
210
0
220
0
230
1
0
ENDBLK
5
12F
100
AcDbEntity
8
0
100
AcDbBlockEnd
0
ENDSEC
0
SECTION
2
ENTITIES
0
ARC
5
9B
100
AcDbEntity
8
1
62
256
6
ByLayer
370
18
48
1
60
0
100
AcDbCircle
39
0
10
0
20
2.2
30
0
40
0.799999999999999
210
0
220
0
230
1
100
AcDbArc
50
56.410684
51
90
0
ARC
5
9C
100
AcDbEntity
8
1
62
256
6
ByLayer
370
18
48
1
60
0
100
AcDbCircle
39
0
10
0
20
-2.2
30
0
40
0.799999999999999
210
0
220
0
230
1
100
AcDbArc
50
270
51
303.589316
0
ARC
5
9D
100
AcDbEntity
8
1
62
256
6
ByLayer
370
18
48
1
60
0
100
AcDbCircle
39
0
10
-0.885178
20
3.532839
30
0
40
0.799999999999999
210
0
220
0
230
-1
100
AcDbArc
50
270
51
303.589316
0
ARC
5
9E
100
AcDbEntity
8
1
62
256
6
ByLayer
370
18
48
1
60
0
100
AcDbCircle
39
0
10
-0.885178
20
-3.532839
30
0
40
0.799999999999999
210
0
220
0
230
-1
100
AcDbArc
50
56.410684
51
90
0
ELLIPSE
5
9F
100
AcDbEntity
8
1
62
256
6
ByLayer
370
18
48
1
60
0
100
AcDbEllipse
10
4.25
20
-2.848044
30
0
11
0.25
21
0
31
0
210
0
220
0
230
1
40
1
41
1.56840362072504
42
2.66465251876503
0
ELLIPSE
5
A0
100
AcDbEntity
8
1
62
256
6
ByLayer
370
18
48
1
60
0
100
AcDbEllipse
10
4.25
20
2.848044
30
0
11
0.25
21
0
31
0
210
0
220
0
230
1
40
1
41
-2.6649287983579
42
-1.56370815367998
0
ELLIPSE
5
A1
100
AcDbEntity
8
1
62
256
6
ByLayer
370
13
48
1
60
0
100
AcDbEllipse
10
4.250224
20
0.147655
30
0
11
0.0459292569263478
21
0.0888285053245496
31
0
210
0
220
0
230
1
40
0.026273
41
3.12277084656693
42
-1.61833084068951
0
ELLIPSE
5
A2
100
AcDbEntity
8
1
62
256
6
ByLayer
370
13
48
1
60
0
100
AcDbEllipse
10
4.180694
20
0.184187
30
0
11
-0.0473927344438123
21
-0.0880563951223209
31
0
210
0
220
0
230
1
40
0.393317
41
-1.29573948077044
42
0.0335541036875973
0
POINT
5
6C
100
AcDbEntity
8
81
62
256
6
ByLayer
370
18
48
1
60
0
100
AcDbPoint
10
30
20
0
30
0
39
0
210
0
220
0
230
1
50
360
0
POINT
5
6E
100
AcDbEntity
8
80
62
256
6
ByLayer
370
18
48
1
60
0
100
AcDbPoint
10
0
20
0
30
0
39
0
210
0
220
0
230
1
50
360
0
POINT
5
70
100
AcDbEntity
8
SK2
62
256
6
ByLayer
370
18
48
1
60
1
100
AcDbPoint
10
-36
20
-3
30
0
39
0
210
0
220
0
230
1
50
360
0
POINT
5
72
100
AcDbEntity
8
SK2
62
256
6
ByLayer
370
18
48
1
60
1
100
AcDbPoint
10
-36
20
3
30
0
39
0
210
0
220
0
230
1
50
360
0
POINT
5
73
100
AcDbEntity
8
2
62
256
6
ByLayer
370
18
48
1
60
1
100
AcDbPoint
10
29.3367
20
-2.75
30
0
39
0
210
0
220
0
230
1
50
360
0
POINT
5
75
100
AcDbEntity
8
2
62
256
6
ByLayer
370
18
48
1
60
1
100
AcDbPoint
10
29.3367
20
2.75
30
0
39
0
210
0
220
0
230
1
50
360
0
SPLINE
5
A3
100
AcDbEntity
8
1
62
256
6
ByLayer
370
18
48
1
60
0
100
AcDbSpline
70
4
71
3
72
22
73
18
40
0
40
0
40
0
40
0
40
0.0979899440583232
40
0.17531039842035
40
0.226406147634378
40
0.265025291927355
40
0.305524207391167
40
0.406438235197633
40
0.496875677151651
40
0.555244610631758
40
0.627525390615863
40
0.712386281371406
40
0.761528351487965
40
0.812303375020389
40
0.880144469106993
40
0.966781331556743
40
1
40
1
40
1
40
1
41
1
10
12.7099301164605
20
-2.60212897717022
30
0
41
1
10
12.9628071249632
20
-2.60215354268129
30
0
41
1
10
13.4153077715429
20
-2.60235828897981
30
0
41
1
10
14.0001615125771
20
-2.60263619482885
30
0
41
1
10
14.4314307336781
20
-2.60348071014454
30
0
41
1
10
14.7675812065009
20
-2.60336809462353
30
0
41
1
10
15.2325326421874
20
-2.6030040836404
30
0
41
1
10
15.8313221074622
20
-2.60412502559581
30
0
41
1
10
16.4762601188457
20
-2.60320886227268
30
0
41
1
10
17.0472483624024
20
-2.60402258099362
30
0
41
1
10
17.6038356613792
20
-2.60506696884423
30
0
41
1
10
18.1365891730858
20
-2.60329524728937
30
0
41
1
10
18.6137993861922
20
-2.60454232927734
30
0
41
1
10
19.0470570611195
20
-2.60473333065949
30
0
41
1
10
19.5771312417549
20
-2.60655984314414
30
0
41
1
10
20.061899849843
20
-2.60493144477775
30
0
41
1
10
20.3714223026391
20
-2.60541024302921
30
0
41
1
10
20.4572074321582
20
-2.60555798287996
30
0
0
SPLINE
5
A4
100
AcDbEntity
8
1
62
256
6
ByLayer
370
18
48
1
60
0
100
AcDbSpline
70
4
71
2
72
6
73
3
40
0
40
0
40
0
40
1
40
1
40
1
41
1
10
4.2511856851321
20
-2.59635555663908
30
0
41
1
10
4.37578787228767
20
-2.5974697728424
30
0
41
1
10
4.50046579741121
20
-2.59803974919981
30
0
0
SPLINE
5
A5
100
AcDbEntity
8
1
62
256
6
ByLayer
370
18
48
1
60
0
100
AcDbSpline
70
4
71
2
72
6
73
3
40
0
40
0
40
0
40
1
40
1
40
1
41
1
10
4.55808499893411
20
-2.59827408682384
30
0
41
1
10
4.59605782491445
20
-2.59840936472418
30
0
41
1
10
4.6340376744734
20
-2.59849417241185
30
0
0
SPLINE
5
A6
100
AcDbEntity
8
1
62
256
6
ByLayer
370
18
48
1
60
0
100
AcDbSpline
70
4
71
3
72
19
73
15
40
0
40
0
40
0
40
0
40
0.0215493744086463
40
0.112463232317159
40
0.178304968917038
40
0.252939480189562
40
0.327689841422446
40
0.401671475076057
40
0.471357976279805
40
0.54667889201729
40
0.705012615162839
40
0.870228259628917
40
0.930091226563854
40
1
40
1
40
1
40
1
41
1
10
20.4195901632037
20
2.60520979641612
30
0
41
1
10
20.3742176126698
20
2.60511017974616
30
0
41
1
10
20.1373954813223
20
2.60464830220749
30
0
41
1
10
19.7615556961054
20
2.60608834101041
30
0
41
1
10
19.2736768854329
20
2.60503856632175
30
0
41
1
10
18.8211044808464
20
2.60491646196289
30
0
41
1
10
18.3501645329436
20
2.60356305514395
30
0
41
1
10
17.8898589878905
20
2.60412495131186
30
0
41
1
10
17.42830383024
20
2.60490460827927
30
0
41
1
10
16.7889755466992
20
2.60325487299897
30
0
41
1
10
15.94829694159
20
2.60425948369726
30
0
41
1
10
15.1402042985019
20
2.60295854767324
30
0
41
1
10
14.5184701168549
20
2.6035802169115
30
0
41
1
10
14.2449806891072
20
2.6031401963985
30
0
41
1
10
14.0976417019423
20
2.60295412531823
30
0
0
SPLINE
5
A7
100
AcDbEntity
8
1
62
256
6
ByLayer
370
18
48
1
60
0
100
AcDbSpline
70
4
71
2
72
6
73
3
40
0
40
0
40
0
40
1
40
1
40
1
41
1
10
28.9120976807836
20
-2.61116943098853
30
0
41
1
10
29.0983337196035
20
-2.61102938661622
30
0
41
1
10
29.2844185100424
20
-2.6110385918835
30
0
0
SPLINE
5
A8
100
AcDbEntity
8
1
62
256
6
ByLayer
370
18
48
1
60
0
100
AcDbSpline
70
4
71
2
72
6
73
3
40
0
40
0
40
0
40
1
40
1
40
1
41
1
10
4.64043490714175
20
2.59852000025205
30
0
41
1
10
4.44571950902824
20
2.59809015879517
30
0
41
1
10
4.25118568513216
20
2.59635555663712
30
0
0
SPLINE
5
A9
100
AcDbEntity
8
1
62
256
6
ByLayer
370
18
48
1
60
0
100
AcDbSpline
70
4
71
3
72
8
73
4
40
0
40
0
40
0
40
0
40
1
40
1
40
1
40
1
41
1
10
4.13375295574971
20
0.0966972122779453
30
0
41
1
10
4.11467517518471
20
0.106710656641184
30
0
41
1
10
4.09728470443636
20
0.118930227318487
30
0
41
1
10
4.08152968633021
20
0.133284092890051
30
0
0
SPLINE
5
AA
100
AcDbEntity
8
1
62
256
6
ByLayer
370
18
48
1
60
0
100
AcDbSpline
70
4
71
3
72
14
73
10
40
0
40
0
40
0
40
0
40
0.181235284954164
40
0.181235284954164
40
0.410654217179489
40
0.410654217179489
40
0.640073149404815
40
0.640073149404815
40
1
40
1
40
1
40
1
41
1
10
12.7230359802441
20
-2.60214547707892
30
0
41
1
10
12.5176758514553
20
-2.60228221155882
30
0
41
1
10
12.3122787235809
20
-2.59633668850628
30
0
41
1
10
11.8461858154835
20
-2.56904239548555
30
0
41
1
10
11.5852470838668
20
-2.54400914498763
30
0
41
1
10
11.0612048861455
20
-2.47467508852384
30
0
41
1
10
10.7974673186718
20
-2.43025413081315
30
0
41
1
10
10.1221645278809
20
-2.29293766557348
30
0
41
1
10
9.71068671202781
20
-2.18668799052838
30
0
41
1
10
9.29822918382749
20
-2.06087017265699
30
0
0
SPLINE
5
AB
100
AcDbEntity
8
1
62
256
6
ByLayer
370
13
48
1
60
0
100
AcDbSpline
70
4
71
3
72
16
73
12
40
0
40
0
40
0
40
0
40
0.0670390160466523
40
0.0670390160466523
40
0.378026010697768
40
0.378026010697768
40
0.689013005348884
40
0.689013005348884
40
0.844506502674442
40
0.844506502674442
40
1
40
1
40
1
40
1
41
1
10
9.29822918405864
20
-2.06087017272748
30
0
41
1
10
9.18488228524618
20
-2.02629434735101
30
0
41
1
10
9.07146139875599
20
-1.99024073979695
30
0
41
1
10
8.43125042059026
20
-1.77893508011311
30
0
41
1
10
7.91031334212022
20
-1.57672077271843
30
0
41
1
10
6.86985352501429
20
-1.13326155449221
30
0
41
1
10
6.35049869602841
20
-0.891654067861566
30
0
41
1
10
5.56617898485308
20
-0.511671858597026
30
0
41
1
10
5.30337745755395
20
-0.381928068405017
30
0
41
1
10
4.77671399723815
20
-0.120285076621002
30
0
41
1
10
4.51366165495779
20
0.0111722815112785
30
0
41
1
10
4.25037230786691
20
0.142228878969718
30
0
0
SPLINE
5
AC
100
AcDbEntity
8
1
62
256
6
ByLayer
370
18
48
1
60
0
100
AcDbSpline
70
4
71
3
72
8
73
4
40
0
40
0
40
0
40
0
40
1
40
1
40
1
40
1
41
1
10
29.9986031604847
20
0.311776645670278
30
0
41
1
10
29.9978440153764
20
0.234395881834473
30
0
41
1
10
29.9967981012821
20
0.157039516429364
30
0
41
1
10
29.9954655478468
20
0.0797075384246853
30
0
0
SPLINE
5
AD
100
AcDbEntity
8
1
62
256
6
ByLayer
370
18
48
1
60
0
100
AcDbSpline
70
4
71
3
72
16
73
12
40
0
40
0
40
0
40
0
40
0.125
40
0.125
40
0.250000000000001
40
0.250000000000001
40
0.500000000000001
40
0.500000000000001
40
0.75
40
0.75
40
1
40
1
40
1
40
1
41
1
10
29.4576296281122
20
2.64534231954997
30
0
41
1
10
29.4798802437916
20
2.56401081243763
30
0
41
1
10
29.5018100118469
20
2.48263634827819
30
0
41
1
10
29.5457283020826
20
2.31989209327017
30
0
41
1
10
29.5677802922137
20
2.23853107088991
30
0
41
1
10
29.6342402821378
20
1.99449386801283
30
0
41
1
10
29.6784743255765
20
1.83178059604677
30
0
41
1
10
29.7677633295223
20
1.50652239776525
30
0
41
1
10
29.8128175077791
20
1.34397961942855
30
0
41
1
10
29.9027517305678
20
1.01885876326082
30
0
41
1
10
29.9478504500045
20
0.856331428695427
30
0
41
1
10
29.9930819448256
20
0.693844795172538
30
0
0
SPLINE
5
AE
100
AcDbEntity
8
1
62
256
6
ByLayer
370
18
48
1
60
0
100
AcDbSpline
70
4
71
3
72
29
73
25
40
0
40
0
40
0
40
0
40
0.0668248535360027
40
0.0668248535360027
40
0.133649707072005
40
0.133649707072005
40
0.267299414144011
40
0.267299414144011
40
0.334124267680014
40
0.334124267680014
40
0.400949121216016
40
0.400949121216016
40
0.534598828288021
40
0.534598828288021
40
0.601423681824024
40
0.601423681824024
40
0.668248535360027
40
0.735073388896029
40
0.735073388896029
40
0.801898242432032
40
0.801898242432032
40
0.935547949504038
40
0.935547949504038
40
1
40
1
40
1
40
1
41
1
10
4.02694474756163
20
0.247554650293409
30
0
41
1
10
4.02696595183465
20
0.337865083171181
30
0
41
1
10
4.02698592707804
20
0.427573124467756
30
0
41
1
10
4.02702380145513
20
0.6057821679901
30
0
41
1
10
4.02704170143929
20
0.69433037728021
30
0
41
1
10
4.02709201733654
20
0.953629850720461
30
0
41
1
10
4.027121417584
20
1.11965987723155
30
0
41
1
10
4.02716191738708
20
1.35849055108486
30
0
41
1
10
4.02717487326856
20
1.43676850083912
30
0
41
1
10
4.02719963902629
20
1.58781829016624
30
0
41
1
10
4.02721140607318
20
1.66030459649181
30
0
41
1
10
4.02724548182118
20
1.86890629307339
30
0
41
1
10
4.02726659664214
20
1.99625067758635
30
0
41
1
10
4.02729764465587
20
2.16913424710086
30
0
41
1
10
4.02730781719887
20
2.22332619232273
30
0
41
1
10
4.02732770996528
20
2.32336757591963
30
0
41
1
10
4.02734724408452
20
2.41559727292059
30
0
41
1
10
4.02736629846137
20
2.49238112915441
30
0
41
1
10
4.02738513853211
20
2.56130328292201
30
0
41
1
10
4.0273944999845
20
2.5919532977432
30
0
41
1
10
4.02742163905225
20
2.67016868290435
30
0
41
1
10
4.02743861106683
20
2.70463130391212
30
0
41
1
10
4.02746104374484
20
2.72996708077733
30
0
41
1
10
4.02746792604179
20
2.73406690529703
30
0
41
1
10
4.02747417208266
20
2.73402692889874
30
0
0
SPLINE
5
AF
100
AcDbEntity
8
1
62
256
6
ByLayer
370
18
48
1
60
0
100
AcDbSpline
70
4
71
3
72
8
73
4
40
0
40
0
40
0
40
0
40
1
40
1
40
1
40
1
41
1
10
29.9986031604849
20
-0.311776645655385
30
0
41
1
10
29.9974618258274
20
-0.439150437430698
30
0
41
1
10
29.9956212258873
20
-0.566506482327895
30
0
41
1
10
29.9930819448256
20
-0.69384479517251
30
0
0
SPLINE
5
B0
100
AcDbEntity
8
1
62
256
6
ByLayer
370
18
48
1
60
0
100
AcDbSpline
70
4
71
3
72
10
73
6
40
0
40
0
40
0
40
0
40
0.750893293010871
40
0.750893293010871
40
1
40
1
40
1
40
1
41
1
10
8.87743411871938
20
2.35387726269957
30
0
41
1
10
8.5882516811354
20
2.27581520920515
30
0
41
1
10
8.29588204096038
20
2.18865953813889
30
0
41
1
10
7.90541944707635
20
2.0667233860091
30
0
41
1
10
7.8079961721879
20
2.03585157088958
30
0
41
1
10
7.71037311538024
20
2.00463632605297
30
0
0
SPLINE
5
B1
100
AcDbEntity
8
1
62
256
6
ByLayer
370
18
48
1
60
0
100
AcDbSpline
70
4
71
3
72
8
73
4
40
0
40
0
40
0
40
0
40
1
40
1
40
1
40
1
41
1
10
29.4576296281122
20
2.64534231954997
30
0
41
1
10
29.4089722331219
20
2.6913036557242
30
0
41
1
10
29.3637599354201
20
2.72257201631683
30
0
41
1
10
29.3218946042155
20
2.73829277756786
30
0
0
SPLINE
5
B2
100
AcDbEntity
8
1
62
256
6
ByLayer
370
18
48
1
60
0
100
AcDbSpline
70
4
71
3
72
14
73
10
40
0
40
0
40
0
40
0
40
0.25
40
0.25
40
0.5
40
0.5
40
0.75
40
0.75
40
1
40
1
40
1
40
1
41
1
10
29.3311979513361
20
-2.60889823037886
30
0
41
1
10
29.3344745353471
20
-2.60817980786274
30
0
41
1
10
29.3372752684232
20
-2.60915076631713
30
0
41
1
10
29.3416951553727
20
-2.61526391842801
30
0
41
1
10
29.343270855646
20
-2.62039949321539
30
0
41
1
10
29.3443640156874
20
-2.63604058020164
30
0
41
1
10
29.3438025049148
20
-2.64652187784975
30
0
41
1
10
29.3401140768783
20
-2.67109604877476
30
0
41
1
10
29.3369593388749
20
-2.6852282537366
30
0
41
1
10
29.3330412097403
20
-2.69904768261813
30
0
0
SPLINE
5
B3
100
AcDbEntity
8
1
62
256
6
ByLayer
370
18
48
1
60
0
100
AcDbSpline
70
4
71
3
72
40
73
36
40
0
40
0
40
0
40
0
40
0.0935261714579299
40
0.0935261714579299
40
0.140289257186894
40
0.140289257186894
40
0.187052342915858
40
0.187052342915858
40
0.280578514373786
40
0.280578514373786
40
0.327341600102749
40
0.327341600102749
40
0.374104685831713
40
0.374104685831713
40
0.467630857289641
40
0.467630857289641
40
0.514393943018605
40
0.514393943018605
40
0.537775485883087
40
0.537775485883087
40
0.56115702874757
40
0.56115702874757
40
0.748209371663424
40
0.748209371663424
40
0.771590914527906
40
0.771590914527906
40
0.794972457392388
40
0.794972457392388
40
0.841735543121353
40
0.841735543121353
40
0.935261714579283
40
0.935261714579283
40
0.982024800308247
40
0.982024800308247
40
1
40
1
40
1
40
1
41
1
10
29.3218946042155
20
-2.73829277756781
30
0
41
1
10
28.7942207126643
20
-2.7636363457585
30
0
41
1
10
28.2684687606201
20
-2.74639531680822
30
0
41
1
10
27.4755487650648
20
-2.65784476186096
30
0
41
1
10
27.2114277953014
20
-2.61788349747252
30
0
41
1
10
26.6865540491976
20
-2.51881616201919
30
0
41
1
10
26.4251024151583
20
-2.45968529923232
30
0
41
1
10
25.6417879034577
20
-2.25556535702501
30
0
41
1
10
25.1210016909549
20
-2.08378384840518
30
0
41
1
10
24.334344027882
20
-1.78117886959859
30
0
41
1
10
24.0711738125332
20
-1.67267616972583
30
0
41
1
10
23.5420868506022
20
-1.44249109477235
30
0
41
1
10
23.2790608395066
20
-1.32210914020584
30
0
41
1
10
22.4926615078589
20
-0.948596043925875
30
0
41
1
10
21.9720173250268
20
-0.682989005078923
30
0
41
1
10
21.1886358205697
20
-0.274420457651331
30
0
41
1
10
20.9271147453977
20
-0.136525805939271
30
0
41
1
10
20.5333153150476
20
0.0711154778552441
30
0
41
1
10
20.4017972695345
20
0.140465349173923
30
0
41
1
10
20.1380821658264
20
0.279100607152998
30
0
41
1
10
20.0056258628765
20
0.348521140884571
30
0
41
1
10
18.8170922358281
20
0.967758297190045
30
0
41
1
10
17.783388226667
20
1.47918905364528
30
0
41
1
10
16.6003853266402
20
1.93222018803411
30
0
41
1
10
16.4686475461538
20
1.98084243912322
30
0
41
1
10
16.2044299879121
20
2.07440191126773
30
0
41
1
10
16.0719614130867
20
2.11932412485859
30
0
41
1
10
15.6763307917218
20
2.24722380248187
30
0
41
1
10
15.4139477127164
20
2.32376545651076
30
0
41
1
10
14.6288534015963
20
2.52559234725237
30
0
41
1
10
14.1079871617636
20
2.62293496488704
30
0
41
1
10
13.3235077541627
20
2.70852223840151
30
0
41
1
10
13.0613572581107
20
2.72692654462278
30
0
41
1
10
12.6967693308665
20
2.73793889684353
30
0
41
1
10
12.5952474440696
20
2.73943567364933
30
0
41
1
10
12.4936581142564
20
2.73937450877062
30
0
0
SPLINE
5
B4
100
AcDbEntity
8
1
62
256
6
ByLayer
370
18
48
1
60
0
100
AcDbSpline
70
4
71
3
72
10
73
6
40
0
40
0
40
0
40
0
40
0.5
40
0.5
40
1
40
1
40
1
40
1
41
1
10
29.9999902698618
20
0.0260213512422638
30
0
41
1
10
29.9980729830783
20
0.0151697391544587
30
0
41
1
10
29.9954084311947
20
0.0035787363672455
30
0
41
1
10
29.9886301706607
20
-0.01887449056116
30
0
41
1
10
29.9846628983767
20
-0.02919758976509
30
0
41
1
10
29.9805433323045
20
-0.0375118769516689
30
0
0
SPLINE
5
B5
100
AcDbEntity
8
1
62
256
6
ByLayer
370
18
48
1
60
0
100
AcDbSpline
70
4
71
3
72
34
73
30
40
0
40
0
40
0
40
0
40
0.0625000000000011
40
0.0625000000000011
40
0.125000000000002
40
0.125000000000002
40
0.187500000000003
40
0.187500000000003
40
0.250000000000004
40
0.250000000000004
40
0.312500000000005
40
0.312500000000005
40
0.375000000000006
40
0.375000000000006
40
0.5
40
0.5
40
0.624999999999994
40
0.624999999999994
40
0.687499999999995
40
0.687499999999995
40
0.749999999999996
40
0.749999999999996
40
0.812499999999997
40
0.812499999999997
40
0.874999999999998
40
0.874999999999998
40
0.937499999999999
40
0.937499999999999
40
1
40
1
40
1
40
1
41
1
10
29.6396451882897
20
-0.741046994689441
30
0
41
1
10
29.645844091412
20
-0.748498998274897
30
0
41
1
10
29.650840403878
20
-0.759493419854522
30
0
41
1
10
29.6582126737677
20
-0.789131189669973
30
0
41
1
10
29.6605318034982
20
-0.807960174959277
30
0
41
1
10
29.6619073751449
20
-0.851670900541677
30
0
41
1
10
29.6609926106839
20
-0.877263572211234
30
0
41
1
10
29.6557894876722
20
-0.933428025863691
30
0
41
1
10
29.6515859570537
20
-0.96364257564224
30
0
41
1
10
29.6398944221908
20
-1.02826385294051
30
0
41
1
10
29.6326968308268
20
-1.06108894141008
30
0
41
1
10
29.6157784088716
20
-1.12772014094946
30
0
41
1
10
29.6062349177646
20
-1.16073612285064
30
0
41
1
10
29.5755313331556
20
-1.25599224327803
30
0
41
1
10
29.552247717901
20
-1.3143987568514
30
0
41
1
10
29.5065631871596
20
-1.40861318310317
30
0
41
1
10
29.4838189238551
20
-1.44531741275148
30
0
41
1
10
29.4529993020218
20
-1.48059906959568
30
0
41
1
10
29.4431128925804
20
-1.4892224304096
30
0
41
1
10
29.4250995911831
20
-1.49928092148397
30
0
41
1
10
29.4168556753762
20
-1.50088854074247
30
0
41
1
10
29.401987018943
20
-1.49671112340488
30
0
41
1
10
29.3955999417304
20
-1.49095880737386
30
0
41
1
10
29.38510854135
20
-1.47209038341831
30
0
41
1
10
29.3809386335113
20
-1.45866258144861
30
0
41
1
10
29.3754826567583
20
-1.42483048157195
30
0
41
1
10
29.3741316313533
20
-1.40454809309767
30
0
41
1
10
29.3744821839161
20
-1.35650269502605
30
0
41
1
10
29.3762053554733
20
-1.32951291808055
30
0
41
1
10
29.3794721811751
20
-1.30019726896438
30
0
0
SPLINE
5
B6
100
AcDbEntity
8
1
62
256
6
ByLayer
370
18
48
1
60
0
100
AcDbSpline
70
4
71
3
72
16
73
12
40
0
40
0
40
0
40
0
40
0.230729674132144
40
0.230729674132144
40
0.461459348264289
40
0.461459348264289
40
0.692189022396433
40
0.692189022396433
40
0.922918696528577
40
0.922918696528577
40
1
40
1
40
1
40
1
41
1
10
8.87743635446037
20
-2.35387118632926
30
0
41
1
10
9.09357758274763
20
-2.41237043966302
30
0
41
1
10
9.30920738997048
20
-2.46391683013414
30
0
41
1
10
9.73884297195806
20
-2.55431009409469
30
0
41
1
10
9.9525263390793
20
-2.59328658156667
30
0
41
1
10
10.3800109950001
20
-2.65732432093751
30
0
41
1
10
10.5936728503371
20
-2.68258185943958
30
0
41
1
10
11.0202330327305
20
-2.71978301697266
30
0
41
1
10
11.2335367140172
20
-2.73152715852146
30
0
41
1
10
11.5189230461006
20
-2.73796145747264
30
0
41
1
10
11.5903974207145
20
-2.73880476785774
30
0
41
1
10
11.6619047864482
20
-2.73887342250708
30
0
0
SPLINE
5
B7
100
AcDbEntity
8
1
62
256
6
ByLayer
370
18
48
1
60
0
100
AcDbSpline
70
4
71
3
72
24
73
20
40
0
40
0
40
0
40
0
40
0.0425567294920331
40
0.0425567294920331
40
0.162237138305529
40
0.162237138305529
40
0.281917547119025
40
0.281917547119025
40
0.401597955932521
40
0.401597955932521
40
0.521278364746016
40
0.521278364746016
40
0.640958773559512
40
0.640958773559512
40
0.760639182373008
40
0.760639182373008
40
0.880319591186504
40
0.880319591186504
40
1
40
1
40
1
40
1
41
1
10
24.0797253479826
20
1.99739803343019
30
0
41
1
10
24.1565178609952
20
2.02525538656511
30
0
41
1
10
24.2332665541898
20
2.05249029525368
30
0
41
1
10
24.5251979938055
20
2.15372492396591
30
0
41
1
10
24.7400306434304
20
2.22222774237582
30
0
41
1
10
25.1683523800183
20
2.34770524561986
30
0
41
1
10
25.3815347236126
20
2.40491584867698
30
0
41
1
10
25.8082167419411
20
2.50613993807517
30
0
41
1
10
26.0216371073432
20
2.55033526469057
30
0
41
1
10
26.4478468892811
20
2.62638880965454
30
0
41
1
10
26.6611543903723
20
2.65784395256418
30
0
41
1
10
27.0891750793297
20
2.70714118101128
30
0
41
1
10
27.3033686770285
20
2.72519032928247
30
0
41
1
10
27.7335599016881
20
2.74721902558139
30
0
41
1
10
27.9504008384895
20
2.75118906213251
30
0
41
1
10
28.3818475857467
20
2.74496269460477
30
0
41
1
10
28.5967846722025
20
2.7346935864698
30
0
41
1
10
29.0273720266005
20
2.70044485443418
30
0
41
1
10
29.2424749632922
20
2.67637571133432
30
0
41
1
10
29.4576296281122
20
2.64534231954997
30
0
0
SPLINE
5
B8
100
AcDbEntity
8
1
62
256
6
ByLayer
370
13
48
1
60
0
100
AcDbSpline
70
4
71
3
72
29
73
25
40
0
40
0
40
0
40
0
40
0.133772103951051
40
0.133772103951051
40
0.200658155926576
40
0.200658155926576
40
0.267544207902102
40
0.334430259877628
40
0.334430259877628
40
0.401316311853153
40
0.401316311853153
40
0.468202363828679
40
0.468202363828679
40
0.535088415804205
40
0.535088415804205
40
0.668860519755256
40
0.668860519755256
40
0.735746571730781
40
0.735746571730781
40
0.802632623706307
40
0.802632623706307
40
0.936404727657358
40
0.936404727657358
40
1
40
1
40
1
40
1
41
1
10
4.25037230786694
20
0.142228878969689
30
0
41
1
10
4.25044070564149
20
0.314873623301338
30
0
41
1
10
4.25050015324956
20
0.484528071447471
30
0
41
1
10
4.25058006859692
20
0.734580490721584
30
0
41
1
10
4.25060519217732
20
0.817346300722875
30
0
41
1
10
4.25065212283016
20
0.978289540688451
30
0
41
1
10
4.25069599693742
20
1.13542227256465
30
0
41
1
10
4.25073527748521
20
1.28507183758893
30
0
41
1
10
4.2507729243662
20
1.43093860187969
30
0
41
1
10
4.25079098641257
20
1.50220334137029
30
0
41
1
10
4.25082580486867
20
1.63974711177215
30
0
41
1
10
4.25084248085946
20
1.7056967795514
30
0
41
1
10
4.25087494421425
20
1.83197922159164
30
0
41
1
10
4.25089077683611
20
1.8924688368806
30
0
41
1
10
4.2509369022907
20
2.06270895831136
30
0
41
1
10
4.25096611756265
20
2.16223441047842
30
0
41
1
10
4.25100930722846
20
2.29081896988456
30
0
41
1
10
4.25102360298089
20
2.33026242547044
30
0
41
1
10
4.2510519124265
20
2.4016795538011
30
0
41
1
10
4.25106587202185
20
2.433494138051
30
0
41
1
10
4.25110645290499
20
2.51607083472828
30
0
41
1
10
4.25113197172399
20
2.55446737565555
30
0
41
1
10
4.25116578045794
20
2.58691131542162
30
0
41
1
10
4.25117609912118
20
2.59356942527319
30
0
41
1
10
4.2511855196
20
2.59640671650402
30
0
0
SPLINE
5
B9
100
AcDbEntity
8
1
62
256
6
ByLayer
370
18
48
1
60
0
100
AcDbSpline
70
4
71
3
72
64
73
60
40
0
40
0
40
0
40
0
40
0.024303319177569
40
0.024303319177569
40
0.0604402332821035
40
0.0604402332821035
40
0.0965771473866379
40
0.0965771473866379
40
0.132714061491172
40
0.132714061491172
40
0.168850975595707
40
0.168850975595707
40
0.204987889700241
40
0.204987889700241
40
0.241124803804776
40
0.241124803804776
40
0.27726171790931
40
0.27726171790931
40
0.313398632013845
40
0.313398632013845
40
0.349535546118379
40
0.349535546118379
40
0.385672460222914
40
0.385672460222914
40
0.421809374327448
40
0.421809374327448
40
0.457946288431983
40
0.457946288431983
40
0.494083202536517
40
0.494083202536517
40
0.530220116641052
40
0.530220116641052
40
0.566357030745586
40
0.566357030745586
40
0.602493944850121
40
0.602493944850121
40
0.620562401902388
40
0.620562401902388
40
0.638630858954655
40
0.638630858954655
40
0.67476777305919
40
0.67476777305919
40
0.710904687163724
40
0.710904687163724
40
0.747041601268259
40
0.747041601268259
40
0.783178515372793
40
0.783178515372793
40
0.819315429477328
40
0.819315429477328
40
0.855452343581862
40
0.855452343581862
40
0.891589257686397
40
0.891589257686397
40
0.927726171790931
40
0.927726171790931
40
0.963863085895466
40
0.963863085895466
40
1
40
1
40
1
40
1
41
1
10
24.0809028159366
20
-2.00425143835625
30
0
41
1
10
23.9497245205861
20
-2.04570340335363
30
0
41
1
10
23.818643272139
20
-2.0851664933206
30
0
41
1
10
23.4926360508713
20
-2.17959048147841
30
0
41
1
10
23.2977951065145
20
-2.23240713252122
30
0
41
1
10
22.9082219176752
20
-2.3282676355409
30
0
41
1
10
22.7132024920481
20
-2.37077645326798
30
0
41
1
10
22.3219894497834
20
-2.44420528974376
30
0
41
1
10
22.1261076658384
20
-2.47625474958707
30
0
41
1
10
21.7332633226461
20
-2.5311573274752
30
0
41
1
10
21.5357481743695
20
-2.55368169127419
30
0
41
1
10
21.1410579654747
20
-2.58686806476393
30
0
41
1
10
20.9442683754182
20
-2.59679906583841
30
0
41
1
10
20.5505111567274
20
-2.60628156333152
30
0
41
1
10
20.3536261874513
20
-2.60626977811123
30
0
41
1
10
19.9599336627112
20
-2.59507670760968
30
0
41
1
10
19.7630039792465
20
-2.58392978834331
30
0
41
1
10
19.367971895896
20
-2.54953363776079
30
0
41
1
10
19.17065034677
20
-2.52628409360975
30
0
41
1
10
18.7768832081909
20
-2.46992990230751
30
0
41
1
10
18.5800485673212
20
-2.43623066154501
30
0
41
1
10
18.1861461913273
20
-2.3589982695014
30
0
41
1
10
17.9893117081602
20
-2.31574638840107
30
0
41
1
10
17.594920458613
20
-2.21907748558175
30
0
41
1
10
17.3972216561771
20
-2.16563511564195
30
0
41
1
10
17.002977849779
20
-2.04923646904601
30
0
41
1
10
16.8062685836097
20
-1.98607598293228
30
0
41
1
10
16.4125268062354
20
-1.85311145933485
30
0
41
1
10
16.215596504061
20
-1.78293155797562
30
0
41
1
10
15.8214813186098
20
-1.63399467504658
30
0
41
1
10
15.6238642801908
20
-1.55530618782544
30
0
41
1
10
15.2292231539097
20
-1.39256572983962
30
0
41
1
10
15.0321794432592
20
-1.30837593510489
30
0
41
1
10
14.6385896062242
20
-1.13432042317126
30
0
41
1
10
14.4417342242873
20
-1.0450110517273
30
0
41
1
10
14.1460916948807
20
-0.907494559322942
30
0
41
1
10
14.0474629932056
20
-0.860887247132155
30
0
41
1
10
13.8501078667794
20
-0.766851116441387
30
0
41
1
10
13.7513285419831
20
-0.719408423229453
30
0
41
1
10
13.4551773521238
20
-0.576300073077192
30
0
41
1
10
13.2579862714091
20
-0.479927803818669
30
0
41
1
10
12.8640506930193
20
-0.285196442132218
30
0
41
1
10
12.6673948091553
20
-0.18662161383844
30
0
41
1
10
12.2732821164989
20
0.0100882686749628
30
0
41
1
10
12.0760795874681
20
0.108604289185649
30
0
41
1
10
11.6810113556252
20
0.305501842921842
30
0
41
1
10
11.4836281591189
20
0.403351605980731
30
0
41
1
10
11.0893459416438
20
0.596685963379912
30
0
41
1
10
10.892452055393
20
0.692319079229634
30
0
41
1
10
10.4988092939279
20
0.880560822860815
30
0
41
1
10
10.3016992983592
20
0.972324086022354
30
0
41
1
10
9.90685527019309
20
1.15146577219804
30
0
41
1
10
9.70913058514441
20
1.23951216351568
30
0
41
1
10
9.31455086992651
20
1.40977581288362
30
0
41
1
10
9.11748348150033
20
1.49184782954086
30
0
41
1
10
8.72362299813727
20
1.64838924873305
30
0
41
1
10
8.52686899864614
20
1.72285052340888
30
0
41
1
10
8.13267799033287
20
1.86488378394009
30
0
41
1
10
7.9352850757964
20
1.93233179012665
30
0
41
1
10
7.73762125595402
20
1.99581594610487
30
0
0
SPLINE
5
BA
100
AcDbEntity
8
1
62
256
6
ByLayer
370
18
48
1
60
0
100
AcDbSpline
70
4
71
3
72
8
73
4
40
0
40
0
40
0
40
0
40
1
40
1
40
1
40
1
41
1
10
29.4576296281122
20
-2.64534231954997
30
0
41
1
10
29.4089722331219
20
-2.6913036557242
30
0
41
1
10
29.36375993542
20
-2.72257201631683
30
0
41
1
10
29.3218946042154
20
-2.73829277756786
30
0
0
SPLINE
5
BB
100
AcDbEntity
8
1
62
256
6
ByLayer
370
18
48
1
60
0
100
AcDbSpline
70
4
71
3
72
45
73
41
40
0
40
0
40
0
40
0
40
0.125000000000014
40
0.125000000000014
40
0.250000000000028
40
0.250000000000028
40
0.500000000000053
40
0.500000000000053
40
0.625000000000065
40
0.625000000000065
40
0.750000000000076
40
0.750000000000076
40
0.781250000000079
40
0.781250000000079
40
0.796875000000083
40
0.804687500000084
40
0.804687500000084
40
0.808593750000084
40
0.808593750000084
40
0.812500000000083
40
0.812500000000083
40
0.816406250000082
40
0.816406250000082
40
0.820312500000082
40
0.820312500000082
40
0.828125000000078
40
0.828125000000078
40
0.843750000000071
40
0.843750000000071
40
0.875000000000057
40
0.875000000000057
40
0.906250000000043
40
0.906250000000043
40
0.937500000000029
40
0.937500000000029
40
0.968750000000015
40
0.968750000000015
40
0.984375000000008
40
0.984375000000008
40
1
40
1
40
1
40
1
41
1
10
8.87743411871941
20
-2.35387726269957
30
0
41
1
10
8.58825168113546
20
-2.27581520920515
30
0
41
1
10
8.29588204096041
20
-2.18865953813892
30
0
41
1
10
7.70949055512216
20
-2.00553746051929
30
0
41
1
10
7.4148735022932
20
-1.9094632553485
30
0
41
1
10
6.52319579929423
20
-1.62029511283538
30
0
41
1
10
5.9179679970795
20
-1.42681033056232
30
0
41
1
10
4.98390840160283
20
-1.18342863055057
30
0
41
1
10
4.66826838501169
20
-1.10999602861028
30
0
41
1
10
4.02759818389896
20
-0.984538545973606
30
0
41
1
10
3.70444122608504
20
-0.932900785778003
30
0
41
1
10
3.29819433775992
20
-0.884652564203634
30
0
41
1
10
3.21678827173264
20
-0.875808621335409
30
0
41
1
10
3.09454285016423
20
-0.863794678477262
30
0
41
1
10
3.03339194717157
20
-0.858101084360868
30
0
41
1
10
2.97219848442495
20
-0.852882660028797
30
0
41
1
10
2.94159463595955
20
-0.85035306477846
30
0
41
1
10
2.93141408928656
20
-0.849275353173908
30
0
41
1
10
2.91090946412035
20
-0.848741935901387
30
0
41
1
10
2.90042777158462
20
-0.849250658892487
30
0
41
1
10
2.88009070047048
20
-0.85225324666601
30
0
41
1
10
2.87036092328998
20
-0.854668714757338
30
0
41
1
10
2.85227813522576
20
-0.862360535773462
30
0
41
1
10
2.84355666109246
20
-0.86686896275603
30
0
41
1
10
2.81703802516188
20
-0.879645885191422
30
0
41
1
10
2.79943415699805
20
-0.888305800646663
30
0
41
1
10
2.74686264176867
20
-0.914736379378382
30
0
41
1
10
2.71214224067913
20
-0.932956031179515
30
0
41
1
10
2.6097214440542
20
-0.989280129758271
30
0
41
1
10
2.54353401305713
20
-1.02912901087652
30
0
41
1
10
2.41663349389498
20
-1.1146716567581
30
0
41
1
10
2.35589191211204
20
-1.16033798661641
30
0
41
1
10
2.24215934832967
20
-1.25972005474478
30
0
41
1
10
2.18936773028588
20
-1.31345605785631
30
0
41
1
10
2.10004828208417
20
-1.42709307712172
30
0
41
1
10
2.06285684290464
20
-1.48828654875771
30
0
41
1
10
2.02555897484831
20
-1.58083010697192
30
0
41
1
10
2.01603070543936
20
-1.61196723768469
30
0
41
1
10
2.00320863041037
20
-1.6747909092482
30
0
41
1
10
2.00000109834457
20
-1.70649822251664
30
0
41
1
10
2.00000109834463
20
-1.73716450956201
30
0
0
SPLINE
5
BC
100
AcDbEntity
8
1
62
256
6
ByLayer
370
18
48
1
60
0
100
AcDbSpline
70
4
71
3
72
8
73
4
40
0
40
0
40
0
40
0
40
1
40
1
40
1
40
1
41
1
10
29.9954655478468
20
-0.0797075384246568
30
0
41
1
10
29.9952073011245
20
-0.0647207248979953
30
0
41
1
10
29.9969493767973
20
-0.0460225051818952
30
0
41
1
10
29.9999902698621
20
-0.0260213512304404
30
0
0
SPLINE
5
BD
100
AcDbEntity
8
1
62
256
6
ByLayer
370
18
48
1
60
0
100
AcDbSpline
70
4
71
3
72
8
73
4
40
0
40
0
40
0
40
0
40
1
40
1
40
1
40
1
41
1
10
29.33304120974
20
-2.69904768261924
30
0
41
1
10
29.3293312953767
20
-2.71213272804209
30
0
41
1
10
29.3256157278338
20
-2.7252144968738
30
0
41
1
10
29.3218946042154
20
-2.73829277756781
30
0
0
SPLINE
5
BE
100
AcDbEntity
8
1
62
256
6
ByLayer
370
18
48
1
60
0
100
AcDbSpline
70
4
71
3
72
8
73
4
40
0
40
0
40
0
40
0
40
1
40
1
40
1
40
1
41
1
10
4.08152968632976
20
0.133284092889937
30
0
41
1
10
4.09720250409967
20
0.118710068356904
30
0
41
1
10
4.11475630762772
20
0.106037657546011
30
0
41
1
10
4.13449007801176
20
0.0955550740287947
30
0
0
SPLINE
5
BF
100
AcDbEntity
8
1
62
256
6
ByLayer
370
18
48
1
60
0
100
AcDbSpline
70
4
71
3
72
14
73
10
40
0
40
0
40
0
40
0
40
0.153377567998954
40
0.153377567998954
40
0.451385818756088
40
0.451385818756088
40
0.74939406951322
40
0.74939406951322
40
1
40
1
40
1
40
1
41
1
10
8.87743635174789
20
2.35387118470052
30
0
41
1
10
8.83900298938727
20
2.33079218300944
30
0
41
1
10
8.80060240631624
20
2.30725273863095
30
0
41
1
10
8.68763962415935
20
2.23662998328001
30
0
41
1
10
8.61311110618954
20
2.18829786348314
30
0
41
1
10
8.46375282112595
20
2.0885680703783
30
0
41
1
10
8.38945076195046
20
2.0375174567005
30
0
41
1
10
8.2547749358481
20
1.94333948496094
30
0
41
1
10
8.19384455309347
20
1.90009705540757
30
0
41
1
10
8.13332318547995
20
1.85687486794831
30
0
0
SPLINE
5
C0
100
AcDbEntity
8
1
62
256
6
ByLayer
370
18
48
1
60
0
100
AcDbSpline
70
4
71
3
72
16
73
12
40
0
40
0
40
0
40
0
40
0.165699834435749
40
0.165699834435749
40
0.331399668871499
40
0.331399668871499
40
0.662799337742997
40
0.662799337742997
40
0.994199006614496
40
0.994199006614496
40
1
40
1
40
1
40
1
41
1
10
4.20425852996863
20
0.0588649743260987
30
0
41
1
10
4.46822361999492
20
-0.077716322780077
30
0
41
1
10
4.73193102608553
20
-0.214320756358745
30
0
41
1
10
5.25991614003777
20
-0.485487630524006
30
0
41
1
10
5.5233247984898
20
-0.61955941158547
30
0
41
1
10
6.30919947503267
20
-1.01110851724741
30
0
41
1
10
6.8293206270987
20
-1.25856994825116
30
0
41
1
10
7.87158006014835
20
-1.70967950010606
30
0
41
1
10
8.39344704010404
20
-1.91381434226778
30
0
41
1
10
8.93072977336578
20
-2.09047249412703
30
0
41
1
10
8.93997199394681
20
-2.09350154420321
30
0
41
1
10
8.94921337727141
20
-2.0965204956961
30
0
0
SPLINE
5
C1
100
AcDbEntity
8
1
62
256
6
ByLayer
370
13
48
1
60
0
100
AcDbSpline
70
4
71
3
72
16
73
12
40
0
40
0
40
0
40
0
40
0.314198441603581
40
0.314198441603581
40
0.474096587186356
40
0.474096587186356
40
0.633994732769132
40
0.633994732769132
40
0.953791023934684
40
0.953791023934684
40
1
40
1
40
1
40
1
41
1
10
8.9492132176857
20
-2.09652044356309
30
0
41
1
10
9.46791446105954
20
-2.26596844682462
30
0
41
1
10
9.98397804215293
20
-2.40360224678656
30
0
41
1
10
10.7653036562615
20
-2.55522706220015
30
0
41
1
10
11.0296993019193
20
-2.59682546390778
30
0
41
1
10
11.5547805399596
20
-2.65948551214149
30
0
41
1
10
11.8161522599327
20
-2.6806887822776
30
0
41
1
10
12.5986111703798
20
-2.71361558395813
30
0
41
1
10
13.1182446016288
20
-2.69485729648341
30
0
41
1
10
13.7159235386843
20
-2.62733130615533
30
0
41
1
10
13.7914405406584
20
-2.61797487677916
30
0
41
1
10
13.8670331781868
20
-2.60778782279934
30
0
0
SPLINE
5
C2
100
AcDbEntity
8
1
62
256
6
ByLayer
370
18
48
1
60
0
100
AcDbSpline
70
4
71
3
72
8
73
4
40
0
40
0
40
0
40
0
40
1
40
1
40
1
40
1
41
1
10
29.3794721811751
20
-1.30019726896441
30
0
41
1
10
29.2770533191813
20
-1.52433990125033
30
0
41
1
10
29.1762412112158
20
-1.74985968941681
30
0
41
1
10
29.0770468344934
20
-1.97676604208277
30
0
0
SPLINE
5
C3
100
AcDbEntity
8
1
62
256
6
ByLayer
370
18
48
1
60
0
100
AcDbSpline
70
4
71
3
72
26
73
22
40
0
40
0
40
0
40
0
40
0.0498830817664113
40
0.0498830817664113
40
0.144894773589771
40
0.144894773589771
40
0.239906465413131
40
0.239906465413131
40
0.42992984905985
40
0.42992984905985
40
0.524941540883209
40
0.524941540883209
40
0.619953232706567
40
0.619953232706567
40
0.714964924529925
40
0.714964924529925
40
0.809976616353283
40
0.809976616353283
40
0.904988308176642
40
0.904988308176642
40
1
40
1
40
1
40
1
41
1
10
20.4087344736245
20
2.60484514366004
30
0
41
1
10
20.5121028360927
20
2.60535943418179
30
0
41
1
10
20.6154862734344
20
2.60443392619229
30
0
41
1
10
20.9158194819591
20
2.59792323388191
30
0
41
1
10
21.1126809044748
20
2.58863783676043
30
0
41
1
10
21.5075861529129
20
2.5565836570656
30
0
41
1
10
21.7049333153048
20
2.53460413013139
30
0
41
1
10
22.2957667226172
20
2.45346756165043
30
0
41
1
10
22.6892808890846
20
2.38144481476348
30
0
41
1
10
23.2808573746734
20
2.23689831839209
30
0
41
1
10
23.4785717095545
20
2.18350736317956
30
0
41
1
10
23.8730634185999
20
2.06955200126424
30
0
41
1
10
24.0700574106747
20
2.00924794694871
30
0
41
1
10
24.4639556697215
20
1.87891561887608
30
0
41
1
10
24.661014285609
20
1.8089371924678
30
0
41
1
10
25.0554825527884
20
1.66062329908817
30
0
41
1
10
25.2530975981066
20
1.58208962359203
30
0
41
1
10
25.6479173683099
20
1.42002030788504
30
0
41
1
10
25.8451190112247
20
1.33614836127001
30
0
41
1
10
26.2392415294137
20
1.16317791299241
30
0
41
1
10
26.4362698101039
20
1.07443876496274
30
0
41
1
10
26.6335753922267
20
0.98330959592252
30
0
0
SPLINE
5
C4
100
AcDbEntity
8
1
62
256
6
ByLayer
370
18
48
1
60
0
100
AcDbSpline
70
4
71
3
72
8
73
4
40
0
40
0
40
0
40
0
40
1
40
1
40
1
40
1
41
1
10
29.9986031604846
20
-0.311776645655925
30
0
41
1
10
29.9978440418276
20
-0.234398578044392
30
0
41
1
10
29.9967981477091
20
-0.15704221072582
30
0
41
1
10
29.9954655478468
20
-0.0797075384246853
30
0
0
SPLINE
5
C5
100
AcDbEntity
8
1
62
256
6
ByLayer
370
13
48
1
60
0
100
AcDbSpline
70
4
71
3
72
8
73
4
40
0
40
0
40
0
40
0
40
1
40
1
40
1
40
1
41
1
10
4.02694474755327
20
0.24755465026837
30
0
41
1
10
4.04940586273739
20
0.2188672811468
30
0
41
1
10
4.0859941557263
20
0.194073682333254
30
0
41
1
10
4.13449007801176
20
0.178210679712294
30
0
0
SPLINE
5
C6
100
AcDbEntity
8
1
62
256
6
ByLayer
370
18
48
1
60
0
100
AcDbSpline
70
4
71
3
72
8
73
4
40
0
40
0
40
0
40
0
40
1
40
1
40
1
40
1
41
1
10
29.9805433323045
20
-0.0375118769516689
30
0
41
1
10
29.8651114525522
20
-0.270481510631953
30
0
41
1
10
29.7514740716015
20
-0.504989217056533
30
0
41
1
10
29.6396451882896
20
-0.741046994689498
30
0
0
SPLINE
5
C7
100
AcDbEntity
8
1
62
256
6
ByLayer
370
18
48
1
60
0
100
AcDbSpline
70
4
71
3
72
8
73
4
40
0
40
0
40
0
40
0
40
1
40
1
40
1
40
1
41
1
10
29.9930819448256
20
0.69384479517251
30
0
41
1
10
29.9956212239796
20
0.566506577995995
30
0
41
1
10
29.9974618249696
20
0.439150533157232
30
0
41
1
10
29.9986031604847
20
0.311776645670278
30
0
0
SPLINE
5
C8
100
AcDbEntity
8
1
62
256
6
ByLayer
370
18
48
1
60
0
100
AcDbSpline
70
4
71
3
72
16
73
12
40
0
40
0
40
0
40
0
40
0.124999999999998
40
0.124999999999998
40
0.249999999999996
40
0.249999999999996
40
0.499999999999997
40
0.499999999999997
40
0.749999999999999
40
0.749999999999999
40
1
40
1
40
1
40
1
41
1
10
29.4576296281123
20
-2.64534231954997
30
0
41
1
10
29.4798802407602
20
-2.56401082351817
30
0
41
1
10
29.5018100058722
20
-2.48263637045119
30
0
41
1
10
29.5457282901072
20
-2.31989213761378
30
0
41
1
10
29.5677802771467
20
-2.23853112630565
30
0
41
1
10
29.6342402579452
20
-1.99449395666639
30
0
41
1
10
29.6784742953954
20
-1.83178070687768
30
0
41
1
10
29.7677632867152
20
-1.5065225528125
30
0
41
1
10
29.8128174587928
20
-1.3439797966119
30
0
41
1
10
29.9027516692808
20
-1.01885898472625
30
0
41
1
10
29.9478503695896
20
-0.856331717572402
30
0
41
1
10
29.9930819448257
20
-0.69384479517251
30
0
0
SPLINE
5
C9
100
AcDbEntity
8
1
62
256
6
ByLayer
370
18
48
1
60
0
100
AcDbSpline
70
4
71
3
72
8
73
4
40
0
40
0
40
0
40
0
40
1
40
1
40
1
40
1
41
1
10
4.02747397907518
20
-2.73402684801906
30
0
41
1
10
4.02748076344773
20
-2.73407585938301
30
0
41
1
10
4.02748680295582
20
-2.7292610550349
30
0
41
1
10
4.02749181727967
20
-2.71958666800398
30
0
0
SPLINE
5
CA
100
AcDbEntity
8
1
62
256
6
ByLayer
370
18
48
1
60
0
100
AcDbSpline
70
4
71
3
72
16
73
12
40
0
40
0
40
0
40
0
40
0.28138066549799
40
0.28138066549799
40
0.562761330995979
40
0.562761330995979
40
0.703451663744973
40
0.703451663744973
40
0.844141996493968
40
0.844141996493968
40
1
40
1
40
1
40
1
41
1
10
29.0770468344937
20
-1.97676604208201
30
0
41
1
10
29.0795371297839
20
-2.08663977195002
30
0
41
1
10
29.0867995390954
20
-2.18308610167043
30
0
41
1
10
29.11095641502
20
-2.34949039990713
30
0
41
1
10
29.1280129375248
20
-2.41940422570795
30
0
41
1
10
29.1605202451283
20
-2.50036463783513
30
0
41
1
10
29.1725798386885
20
-2.52356751510035
30
0
41
1
10
29.1986932918379
20
-2.56171817149541
30
0
41
1
10
29.2127797889385
20
-2.57678529801225
30
0
41
1
10
29.2446413236661
20
-2.60038808248413
30
0
41
1
10
29.2626416750668
20
-2.60807435972137
30
0
41
1
10
29.281954126307
20
-2.61101953236621
30
0
0
SPLINE
5
CB
100
AcDbEntity
8
1
62
256
6
ByLayer
370
18
48
1
60
0
100
AcDbSpline
70
4
71
3
72
8
73
4
40
0
40
0
40
0
40
0
40
1
40
1
40
1
40
1
41
1
10
29.987088027977
20
0.668852366951086
30
0
41
1
10
29.9915545900497
20
0.549784519689666
30
0
41
1
10
29.9953929482509
20
0.430759280571863
30
0
41
1
10
29.9986031604847
20
0.31177664567025
30
0
0
SPLINE
5
CC
100
AcDbEntity
8
1
62
256
6
ByLayer
370
18
48
1
60
0
100
AcDbSpline
70
4
71
3
72
8
73
4
40
0
40
0
40
0
40
0
40
1
40
1
40
1
40
1
41
1
10
29.999990269861
20
0.0260213512379721
30
0
41
1
10
30.0000032433672
20
0.0086738002102891
30
0
41
1
10
30.0000032431807
20
-0.0086740496288655
30
0
41
1
10
29.999990269861
20
-0.026021351222056
30
0
0
SPLINE
5
CD
100
AcDbEntity
8
1
62
256
6
ByLayer
370
18
48
1
60
0
100
AcDbSpline
70
4
71
3
72
68
73
64
40
0
40
0
40
0
40
0
40
0.0336038080345959
40
0.0336038080345959
40
0.0672076160691917
40
0.0672076160691917
40
0.100811424103788
40
0.100811424103788
40
0.134415232138383
40
0.134415232138383
40
0.168019040172979
40
0.168019040172979
40
0.201622848207575
40
0.201622848207575
40
0.235226656242171
40
0.235226656242171
40
0.268830464276767
40
0.268830464276767
40
0.302434272311363
40
0.302434272311363
40
0.336038080345959
40
0.336038080345959
40
0.369641888380555
40
0.369641888380555
40
0.386443792397852
40
0.386443792397852
40
0.40324569641515
40
0.40324569641515
40
0.436849504449745
40
0.436849504449745
40
0.47045331248434
40
0.47045331248434
40
0.504057120518935
40
0.504057120518935
40
0.53766092855353
40
0.53766092855353
40
0.571264736588125
40
0.571264736588125
40
0.60486854462272
40
0.60486854462272
40
0.638472352657315
40
0.638472352657315
40
0.67207616069191
40
0.67207616069191
40
0.705679968726505
40
0.705679968726505
40
0.7392837767611
40
0.7392837767611
40
0.772887584795695
40
0.772887584795695
40
0.80649139283029
40
0.80649139283029
40
0.840095200864885
40
0.840095200864885
40
0.87369900889948
40
0.87369900889948
40
0.907302816934075
40
0.907302816934075
40
0.94090662496867
40
0.94090662496867
40
0.974510433003265
40
0.974510433003265
40
1
40
1
40
1
40
1
41
1
10
8.87743635446037
20
2.35387118632926
30
0
41
1
10
9.09357758274763
20
2.41237043966302
30
0
41
1
10
9.30920738997048
20
2.46391683013411
30
0
41
1
10
9.73884297195806
20
2.55431009409469
30
0
41
1
10
9.9525263390793
20
2.5932865815667
30
0
41
1
10
10.3800109950001
20
2.65732432093751
30
0
41
1
10
10.5936728503371
20
2.68258185943958
30
0
41
1
10
11.0202330327305
20
2.71978301697266
30
0
41
1
10
11.2335367140172
20
2.73152715852146
30
0
41
1
10
11.6613778255723
20
2.7411732323024
30
0
41
1
10
11.87537542233
20
2.73911540957542
30
0
41
1
10
12.3048331415969
20
2.72087843542721
30
0
41
1
10
12.5211322286947
20
2.70482100638935
30
0
41
1
10
12.953405238831
20
2.65855985711707
30
0
41
1
10
13.1682584193384
20
2.62841873157896
30
0
41
1
10
13.5975310033773
20
2.5556267460658
30
0
41
1
10
13.8115382938438
20
2.51278285385723
30
0
41
1
10
14.2383419107404
20
2.41418951558026
30
0
41
1
10
14.4518330529436
20
2.35904439303192
30
0
41
1
10
14.8787496612051
20
2.2370319675633
30
0
41
1
10
15.0918418543614
20
2.16972863049452
30
0
41
1
10
15.5195052405409
20
2.02496027396629
30
0
41
1
10
15.7340492266098
20
1.94756656670629
30
0
41
1
10
16.0563218379976
20
1.82290652951414
30
0
41
1
10
16.1638599742737
20
1.77995967710484
30
0
41
1
10
16.3796538421982
20
1.69200800801255
30
0
41
1
10
16.4880242609052
20
1.64690194034389
30
0
41
1
10
16.8120520554297
20
1.5088824679506
30
0
41
1
10
17.0268198117032
20
1.41266100184731
30
0
41
1
10
17.4552369236266
20
1.21419679084187
30
0
41
1
10
17.669258547292
20
1.11262833499413
30
0
41
1
10
18.0961690799924
20
0.903537937439665
30
0
41
1
10
18.3090305033645
20
0.795931466238159
30
0
41
1
10
18.735849478369
20
0.57884490808712
30
0
41
1
10
18.9492984453241
20
0.468430816278584
30
0
41
1
10
19.3766048992298
20
0.24440439073004
30
0
41
1
10
19.5909867719589
20
0.131817147821209
30
0
41
1
10
20.0212344955228
20
-0.0944695193957159
30
0
41
1
10
20.2373787743917
20
-0.209387366913177
30
0
41
1
10
20.6688966448519
20
-0.435128559476482
30
0
41
1
10
20.8839358696774
20
-0.546274084529074
30
0
41
1
10
21.3120839672434
20
-0.766159779468978
30
0
41
1
10
21.5256224081677
20
-0.874046448792711
30
0
41
1
10
21.9526814835976
20
-1.0838889868576
30
0
41
1
10
22.1656605158124
20
-1.18682185309331
30
0
41
1
10
22.5919779929968
20
-1.3860619656721
30
0
41
1
10
22.8057040377434
20
-1.48174635984384
30
0
41
1
10
23.233324476664
20
-1.66682561753771
30
0
41
1
10
23.447324576652
20
-1.75599671729012
30
0
41
1
10
23.8777777298708
20
-1.92430929222098
30
0
41
1
10
24.0944892867408
20
-2.00436575901875
30
0
41
1
10
24.5251979938054
20
-2.15372492396591
30
0
41
1
10
24.7400306434303
20
-2.22222774237579
30
0
41
1
10
25.1683523800182
20
-2.34770524561984
30
0
41
1
10
25.3815347236126
20
-2.40491584867698
30
0
41
1
10
25.8082167419411
20
-2.50613993807514
30
0
41
1
10
26.0216371073431
20
-2.55033526469055
30
0
41
1
10
26.4478468892811
20
-2.62638880965451
30
0
41
1
10
26.6611543903722
20
-2.65784395256415
30
0
41
1
10
27.0891750793297
20
-2.70714118101125
30
0
41
1
10
27.3033686770284
20
-2.72519032928247
30
0
41
1
10
27.6816212153691
20
-2.74455941403772
30
0
41
1
10
27.8457823503672
20
-2.74886105843547
30
0
41
1
10
28.0096982233176
20
-2.74909262940883
30
0
0
SPLINE
5
CE
100
AcDbEntity
8
1
62
256
6
ByLayer
370
18
48
1
60
0
100
AcDbSpline
70
4
71
3
72
8
73
4
40
0
40
0
40
0
40
0
40
1
40
1
40
1
40
1
41
1
10
29.9954655478468
20
0.0797075384247137
30
0
41
1
10
29.9952073011245
20
0.0647207249006954
30
0
41
1
10
29.9969493767967
20
0.046022505188489
30
0
41
1
10
29.9999902698605
20
0.0260213512410985
30
0
0
SPLINE
5
CF
100
AcDbEntity
8
1
62
256
6
ByLayer
370
18
48
1
60
0
100
AcDbSpline
70
4
71
3
72
20
73
16
40
0
40
0
40
0
40
0
40
0.125000000000001
40
0.125000000000001
40
0.250000000000002
40
0.250000000000002
40
0.375000000000003
40
0.375000000000003
40
0.500000000000005
40
0.500000000000005
40
0.750000000000002
40
0.750000000000002
40
0.875000000000001
40
0.875000000000001
40
1
40
1
40
1
40
1
41
1
10
7.73757631830642
20
-1.99582915138086
30
0
41
1
10
7.5873983508597
20
-2.04380992358514
30
0
41
1
10
7.43806317107317
20
-2.09033929591078
30
0
41
1
10
7.1405131722139
20
-2.17898173919292
30
0
41
1
10
6.9920749998731
20
-2.22112756053497
30
0
41
1
10
6.69710457693787
20
-2.29979985895054
30
0
41
1
10
6.55057347552182
20
-2.33634077201464
30
0
41
1
10
6.25897343671133
20
-2.40240815374688
30
0
41
1
10
6.11388997316283
20
-2.43204977293095
30
0
41
1
10
5.68008025392237
20
-2.51209513097956
30
0
41
1
10
5.39282722846852
20
-2.55253772243904
30
0
41
1
10
4.96333487027152
20
-2.58755038268126
30
0
41
1
10
4.82040889562617
20
-2.59502217160968
30
0
41
1
10
4.5349354512739
20
-2.60066738327393
30
0
41
1
10
4.39242127789538
20
-2.59882676187743
30
0
41
1
10
4.25121299130623
20
-2.59180826293195
30
0
0
SPLINE
5
D0
100
AcDbEntity
8
1
62
256
6
ByLayer
370
18
48
1
60
0
100
AcDbSpline
70
4
71
3
72
28
73
24
40
0
40
0
40
0
40
0
40
0.249999999999992
40
0.249999999999992
40
0.374999999999989
40
0.374999999999989
40
0.499999999999985
40
0.499999999999985
40
0.624999999999981
40
0.624999999999981
40
0.687499999999984
40
0.687499999999984
40
0.749999999999987
40
0.749999999999987
40
0.812499999999989
40
0.812499999999989
40
0.874999999999992
40
0.874999999999992
40
0.937499999999995
40
0.937499999999995
40
0.968749999999998
40
0.968749999999998
40
1
40
1
40
1
40
1
41
1
10
26.6335753922267
20
0.98330959592252
30
0
41
1
10
26.8398192110502
20
0.812112646753064
30
0
41
1
10
27.0521355928538
20
0.661450714904163
30
0
41
1
10
27.3801975358072
20
0.46787852890526
30
0
41
1
10
27.4911635554985
20
0.408805747176928
30
0
41
1
10
27.7166554484592
20
0.302698207059507
30
0
41
1
10
27.8305092274019
20
0.256018828873209
30
0
41
1
10
28.0579233147115
20
0.177772055517551
30
0
41
1
10
28.1720911024042
20
0.146047226880455
30
0
41
1
10
28.3422089805647
20
0.111213770257962
30
0
41
1
10
28.3984583049756
20
0.104386194002984
30
0
41
1
10
28.5088116493313
20
0.0992754364379778
30
0
41
1
10
28.5634287777218
20
0.10150852488249
30
0
41
1
10
28.667367925754
20
0.119977687304214
30
0
41
1
10
28.7165408696003
20
0.135893789258745
30
0
41
1
10
28.8071425642827
20
0.186227898356691
30
0
41
1
10
28.8472640190295
20
0.219699035565668
30
0
41
1
10
28.9103382996803
20
0.309392334581048
30
0
41
1
10
28.9310457210062
20
0.363414491301654
30
0
41
1
10
28.9469776499047
20
0.454977189894777
30
0
41
1
10
28.9496054048734
20
0.486550842657976
30
0
41
1
10
28.9501730728525
20
0.55153763636909
30
0
41
1
10
28.9480281597822
20
0.585249738201952
30
0
41
1
10
28.943906305887
20
0.61870419125836
30
0
0
SPLINE
5
D1
100
AcDbEntity
8
1
62
256
6
ByLayer
370
18
48
1
60
0
100
AcDbSpline
70
4
71
3
72
8
73
4
40
0
40
0
40
0
40
0
40
1
40
1
40
1
40
1
41
1
10
29.0328828444785
20
0.689045446326503
30
0
41
1
10
29.351231854098
20
0.68005401488108
30
0
41
1
10
29.6695002294542
20
0.67171210685072
30
0
41
1
10
29.987088027977
20
0.668852366951086
30
0
0
SPLINE
5
D2
100
AcDbEntity
8
1
62
256
6
ByLayer
370
18
48
1
60
0
100
AcDbSpline
70
4
71
3
72
14
73
10
40
0
40
0
40
0
40
0
40
0.25
40
0.25
40
0.5
40
0.5
40
0.75
40
0.75
40
1
40
1
40
1
40
1
41
1
10
4.25121299059526
20
-2.59180826289847
30
0
41
1
10
4.23046355084441
20
-2.59077695004197
30
0
41
1
10
4.20958255202027
20
-2.59223440470265
30
0
41
1
10
4.16752560114682
20
-2.60096065172272
30
0
41
1
10
4.14627440342738
20
-2.60836267479323
30
0
41
1
10
4.10616157972856
20
-2.62957726154286
30
0
41
1
10
4.08680917716458
20
-2.6437350901133
30
0
41
1
10
4.05332510708962
20
-2.67754185089745
30
0
41
1
10
4.03863388535603
20
-2.69780081324521
30
0
41
1
10
4.02749181727972
20
-2.71958666800396
30
0
0
SPLINE
5
D3
100
AcDbEntity
8
1
62
256
6
ByLayer
370
13
48
1
60
0
100
AcDbSpline
70
4
71
3
72
8
73
4
40
0
40
0
40
0
40
0
40
1
40
1
40
1
40
1
41
1
10
4.25037230786694
20
0.142228878969689
30
0
41
1
10
4.21003621034987
20
0.154276860832681
30
0
41
1
10
4.17064069505352
20
0.166385822986428
30
0
41
1
10
4.13449007801176
20
0.178210679712294
30
0
0
SPLINE
5
D4
100
AcDbEntity
8
1
62
256
6
ByLayer
370
18
48
1
60
0
100
AcDbSpline
70
4
71
3
72
8
73
4
40
0
40
0
40
0
40
0
40
1
40
1
40
1
40
1
41
1
10
29.3218946042155
20
2.73829277756781
30
0
41
1
10
29.1618334595946
20
2.74598032966833
30
0
41
1
10
29.0019191674367
20
2.74975102428707
30
0
41
1
10
28.8420179790713
20
2.74962261213676
30
0
0
SPLINE
5
D5
100
AcDbEntity
8
1
62
256
6
ByLayer
370
18
48
1
60
0
100
AcDbSpline
70
4
71
3
72
28
73
24
40
0
40
0
40
0
40
0
40
0.050514739348482
40
0.050514739348482
40
0.129638511069441
40
0.129638511069441
40
0.208762282790401
40
0.208762282790401
40
0.36700982623232
40
0.36700982623232
40
0.525257369674238
40
0.525257369674238
40
0.564819255534719
40
0.564819255534719
40
0.604381141395199
40
0.604381141395199
40
0.68350491311616
40
0.68350491311616
40
0.84175245655808
40
0.84175245655808
40
0.92087622827904
40
0.92087622827904
40
1
40
1
40
1
40
1
41
1
10
14.0865285063317
20
-2.61294923574351
30
0
41
1
10
13.9198315983211
20
-2.63929698469934
30
0
41
1
10
13.753038051923
20
-2.66164358550418
30
0
41
1
10
13.3243513998167
20
-2.70845604784463
30
0
41
1
10
13.0619700584948
20
-2.72690004644733
30
0
41
1
10
12.5346316854742
20
-2.74284423229821
30
0
41
1
10
12.2694272113229
20
-2.74022097419595
30
0
41
1
10
11.4802348689866
20
-2.70093297086504
30
0
41
1
10
10.9585847559595
20
-2.63316297978741
30
0
41
1
10
9.91436698173899
20
-2.42108518087613
30
0
41
1
10
9.39183112065945
20
-2.27669150729338
30
0
41
1
10
8.7314908318159
20
-2.0534539860723
30
0
41
1
10
8.59889540251581
20
-2.00661791782167
30
0
41
1
10
8.3348951446165
20
-1.90948799817161
30
0
41
1
10
8.20327831982794
20
-1.85910741834104
30
0
41
1
10
7.80917545805895
20
-1.70315513157681
30
0
41
1
10
7.54740068177438
20
-1.59283578741852
30
0
41
1
10
6.76327328231588
20
-1.24578636028878
30
0
41
1
10
6.24221631318758
20
-0.992774943576677
30
0
41
1
10
5.45565764581653
20
-0.593801834371078
30
0
41
1
10
5.19260386431489
20
-0.457642720465571
30
0
41
1
10
4.66337080508424
20
-0.181513685206056
30
0
41
1
10
4.39851839768147
20
-0.0422714698001414
30
0
41
1
10
4.1337529557492
20
0.0966972122782011
30
0
0
SPLINE
5
D6
100
AcDbEntity
8
1
62
256
6
ByLayer
370
18
48
1
60
0
100
AcDbSpline
70
4
71
3
72
8
73
4
40
0
40
0
40
0
40
0
40
1
40
1
40
1
40
1
41
1
10
29.9930819448256
20
0.693844795172538
30
0
41
1
10
29.9910896671943
20
0.685512870881126
30
0
41
1
10
29.9890916848344
20
0.677182063848875
30
0
41
1
10
29.987088027977
20
0.668852366951057
30
0
0
SPLINE
5
D7
100
AcDbEntity
8
1
62
256
6
ByLayer
370
18
48
1
60
0
100
AcDbSpline
70
4
71
3
72
8
73
4
40
0
40
0
40
0
40
0
40
1
40
1
40
1
40
1
41
1
10
4.08152968632987
20
0.133284092890364
30
0
41
1
10
4.04913421395116
20
0.162798515058569
30
0
41
1
10
4.02693445518753
20
0.203718732816043
30
0
41
1
10
4.02694474756163
20
0.247554650293438
30
0
0
SPLINE
5
D8
100
AcDbEntity
8
1
62
256
6
ByLayer
370
18
48
1
60
0
100
AcDbSpline
70
4
71
3
72
26
73
22
40
0
40
0
40
0
40
0
40
0.0625000000000019
40
0.0625000000000019
40
0.125000000000004
40
0.125000000000004
40
0.250000000000007
40
0.250000000000007
40
0.375000000000011
40
0.375000000000011
40
0.43750000000001
40
0.43750000000001
40
0.500000000000009
40
0.500000000000009
40
0.625000000000007
40
0.625000000000007
40
0.750000000000004
40
0.750000000000004
40
0.875000000000002
40
0.875000000000002
40
1
40
1
40
1
40
1
41
1
10
26.6335753922267
20
0.98330959592252
30
0
41
1
10
26.6388399438106
20
0.902972337746633
30
0
41
1
10
26.6495979883858
20
0.821791399569037
30
0
41
1
10
26.6816615732754
20
0.657809659269674
30
0
41
1
10
26.7032242292793
20
0.574295453482677
30
0
41
1
10
26.7813399471543
20
0.327836249559852
30
0
41
1
10
26.8507276152548
20
0.168708811792982
30
0
41
1
10
27.0169679823582
20
-0.141329494731025
30
0
41
1
10
27.1111067343757
20
-0.287298905441219
30
0
41
1
10
27.264032605418
20
-0.495126585041248
30
0
41
1
10
27.3170405213154
20
-0.56257896510246
30
0
41
1
10
27.4267743963853
20
-0.694148186732633
30
0
41
1
10
27.4837309553056
20
-0.758481584420281
30
0
41
1
10
27.6574984050478
20
-0.944503808364516
30
0
41
1
10
27.7774299065364
20
-1.05976327836808
30
0
41
1
10
28.0236471418783
20
-1.27666836146616
30
0
41
1
10
28.1499605313388
20
-1.37825472279621
30
0
41
1
10
28.4080867663652
20
-1.56964493512351
30
0
41
1
10
28.5403328278652
20
-1.65968318564521
30
0
41
1
10
28.806922151788
20
-1.82720864224544
30
0
41
1
10
28.9414234671418
20
-1.90483869265356
30
0
41
1
10
29.0770468344937
20
-1.97676604208201
30
0
0
SPLINE
5
D9
100
AcDbEntity
8
1
62
256
6
ByLayer
370
18
48
1
60
0
100
AcDbSpline
70
4
71
3
72
12
73
8
40
0
40
0
40
0
40
0
40
0.250000000000066
40
0.250000000000066
40
0.500000000000131
40
0.500000000000131
40
1
40
1
40
1
40
1
41
1
10
28.9439063058865
20
0.618704191258161
30
0
41
1
10
28.9426265574424
20
0.629091091263746
30
0
41
1
10
28.9440488564532
20
0.639838225810593
30
0
41
1
10
28.953126518515
20
0.659113100130099
30
0
41
1
10
28.9608613966065
20
0.667545828265247
30
0
41
1
10
28.9881452783724
20
0.685804432051754
30
0
41
1
10
29.0109409564443
20
0.689665171773186
30
0
41
1
10
29.0328828444785
20
0.689045446326929
30
0
0
SPLINE
5
DA
100
AcDbEntity
8
1
62
256
6
ByLayer
370
18
48
1
60
0
100
AcDbSpline
70
4
71
3
72
24
73
20
40
0
40
0
40
0
40
0
40
0.0624999999999995
40
0.0624999999999995
40
0.124999999999999
40
0.124999999999999
40
0.187499999999999
40
0.187499999999999
40
0.249999999999999
40
0.249999999999999
40
0.374999999999998
40
0.374999999999998
40
0.499999999999997
40
0.499999999999997
40
0.749999999999996
40
0.749999999999996
40
0.874999999999998
40
0.874999999999998
40
1
40
1
40
1
40
1
41
1
10
2.00000109834463
20
-1.73716450956201
30
0
41
1
10
2.00000109834474
20
-1.78623131735267
30
0
41
1
10
2.00804349960234
20
-1.83374669343655
30
0
41
1
10
2.03753183547443
20
-1.92430120490664
30
0
41
1
10
2.05847646013873
20
-1.96626355035886
30
0
41
1
10
2.10943358950556
20
-2.04510470633235
30
0
41
1
10
2.13971245612959
20
-2.08219290942532
30
0
41
1
10
2.20607885307555
20
-2.15092566486209
30
0
41
1
10
2.2420810106853
20
-2.18258979695375
30
0
41
1
10
2.3563043451185
20
-2.2713688253001
30
0
41
1
10
2.44082668493309
20
-2.32246038790302
30
0
41
1
10
2.61934960253473
20
-2.41298363295954
30
0
41
1
10
2.71225085208056
20
-2.45181441105606
30
0
41
1
10
2.99801506035044
20
-2.55450160694201
30
0
41
1
10
3.19778913585196
20
-2.60476960693916
30
0
41
1
10
3.50523566928479
20
-2.66152095529557
30
0
41
1
10
3.60928655090197
20
-2.67723863919056
30
0
41
1
10
3.81782063173364
20
-2.70268967640027
30
0
41
1
10
3.92249554268261
20
-2.7124656595455
30
0
41
1
10
4.02749181728191
20
-2.71958666800416
30
0
0
SPLINE
5
DB
100
AcDbEntity
8
1
62
256
6
ByLayer
370
18
48
1
60
0
100
AcDbSpline
70
4
71
3
72
14
73
10
40
0
40
0
40
0
40
0
40
0.420038056411339
40
0.420038056411339
40
0.840076112822678
40
0.840076112822678
40
0.945085626925511
40
0.945085626925511
40
1
40
1
40
1
40
1
41
1
10
29.3311980050806
20
-2.60889822899213
30
0
41
1
10
28.8075008108752
20
-2.62241080101765
30
0
41
1
10
28.2885322744211
20
-2.59572083287148
30
0
41
1
10
27.2513323480139
20
-2.46750228542607
30
0
41
1
10
26.7332644537329
20
-2.36572173712088
30
0
41
1
10
26.0801892654624
20
-2.19481669668872
30
0
41
1
10
25.9493129739262
20
-2.15845053290079
30
0
41
1
10
25.7494779220685
20
-2.09984915821005
30
0
41
1
10
25.6807053253231
20
-2.0791281915285
30
0
41
1
10
25.6119286141147
20
-2.05787270497606
30
0
0
SPLINE
5
DC
100
AcDbEntity
8
1
62
256
6
ByLayer
370
13
48
1
60
0
100
AcDbSpline
70
4
71
3
72
22
73
18
40
0
40
0
40
0
40
0
40
0.022412208738424
40
0.022412208738424
40
0.116373021509152
40
0.116373021509152
40
0.304294647050608
40
0.304294647050608
40
0.492216272592065
40
0.492216272592065
40
0.680137898133521
40
0.680137898133521
40
0.868059523674977
40
0.868059523674977
40
0.962020336445705
40
0.962020336445705
40
1
40
1
40
1
40
1
41
1
10
25.6119290192852
20
-2.0578728301943
30
0
41
1
10
25.5491879504117
20
-2.03848266467324
30
0
41
1
10
25.4864434572906
20
-2.01864767846766
30
0
41
1
10
25.1612207891623
20
-1.91359925897203
30
0
41
1
10
24.899981671537
20
-1.82167573888606
30
0
41
1
10
24.1186090465273
20
-1.52740267428737
30
0
41
1
10
23.6008896270489
20
-1.30624168775
30
0
41
1
10
22.562527015634
20
-0.831225230502213
30
0
41
1
10
22.0415787909998
20
-0.57689835640528
30
0
41
1
10
20.9887995232874
20
-0.0530947676663516
30
0
41
1
10
20.4682949611333
20
0.210326225471363
30
0
41
1
10
19.4299182151545
20
0.722014867436428
30
0
41
1
10
18.9119788392889
20
0.970060425337266
30
0
41
1
10
18.1302181223919
20
1.31731168721387
30
0
41
1
10
17.8687947804486
20
1.42887710772362
30
0
41
1
10
17.4996808707185
20
1.57799814906221
30
0
41
1
10
17.3933187396662
20
1.61999607244201
30
0
41
1
10
17.286906352895
20
1.6609751139402
30
0
0
SPLINE
5
DD
100
AcDbEntity
8
1
62
256
6
ByLayer
370
18
48
1
60
0
100
AcDbSpline
70
4
71
3
72
22
73
18
40
0
40
0
40
0
40
0
40
0.0495086061322821
40
0.0495086061322821
40
0.143780005132004
40
0.143780005132004
40
0.238051404131726
40
0.238051404131726
40
0.426594202131172
40
0.426594202131172
40
0.615137000130619
40
0.615137000130619
40
0.803679798130065
40
0.803679798130065
40
0.992222596129511
40
0.992222596129511
40
1
40
1
40
1
40
1
41
1
10
16.3811744620884
20
1.98326157386015
30
0
41
1
10
16.519474097016
20
1.93452772650309
30
0
41
1
10
16.6578900033323
20
1.88363539154852
30
0
41
1
10
17.0604041304944
20
1.72986269200891
30
0
41
1
10
17.3246507504185
20
1.62188211274403
30
0
41
1
10
17.8513992588187
20
1.39505036159338
30
0
41
1
10
18.1132762500242
20
1.27645056788216
30
0
41
1
10
18.8962279039168
20
0.908539566659442
30
0
41
1
10
19.4148356316835
20
0.647481555469113
30
0
41
1
10
20.4549813815302
20
0.112265523617367
30
0
41
1
10
20.9767028057839
20
-0.162001522229332
30
0
41
1
10
22.032246977389
20
-0.703829180321662
30
0
41
1
10
22.5535108920322
20
-0.964865409839916
30
0
41
1
10
23.5934134642565
20
-1.44923823612277
30
0
41
1
10
24.1118562712222
20
-1.67302019264866
30
0
41
1
10
24.6554231816383
20
-1.87768062582072
30
0
41
1
10
24.6769629742102
20
-1.88574285081972
30
0
41
1
10
24.6985089983434
20
-1.89375895210887
30
0
0
SPLINE
5
DE
100
AcDbEntity
8
1
62
256
6
ByLayer
370
13
48
1
60
0
100
AcDbSpline
70
4
71
3
72
16
73
12
40
0
40
0
40
0
40
0
40
0.155048564322981
40
0.155048564322981
40
0.239543707890683
40
0.239543707890683
40
0.324038851458385
40
0.324038851458385
40
0.662019425729193
40
0.662019425729193
40
1
40
1
40
1
40
1
41
1
10
24.6985089983803
20
-1.89375895212268
30
0
41
1
10
24.9381264513715
20
-1.98290754686783
30
0
41
1
10
25.1785146294197
20
-2.06635152000141
30
0
41
1
10
25.5518134830868
20
-2.1853103089957
30
0
41
1
10
25.6838699696916
20
-2.22534791499308
30
0
41
1
10
25.946719769718
20
-2.3007247574914
30
0
41
1
10
26.0777840363829
20
-2.33615322991949
30
0
41
1
10
26.731705595371
20
-2.50164618296321
30
0
41
1
10
27.2502291539334
20
-2.59683478431378
30
0
41
1
10
28.2886923111763
20
-2.70820425852679
30
0
41
1
10
28.8083420017216
20
-2.72468284954866
30
0
41
1
10
29.3330412097371
20
-2.69904768261827
30
0
0
SPLINE
5
DF
100
AcDbEntity
8
1
62
256
6
ByLayer
370
18
48
1
60
0
100
AcDbSpline
70
4
71
3
72
28
73
24
40
0
40
0
40
0
40
0
40
0.125000000000015
40
0.125000000000015
40
0.187500000000012
40
0.187500000000012
40
0.250000000000009
40
0.250000000000009
40
0.312500000000007
40
0.312500000000007
40
0.375000000000004
40
0.375000000000004
40
0.437500000000002
40
0.437500000000002
40
0.499999999999999
40
0.499999999999999
40
0.562499999999997
40
0.562499999999997
40
0.624999999999994
40
0.624999999999994
40
0.749999999999989
40
0.749999999999989
40
1
40
1
40
1
40
1
41
1
10
29.3794721811751
20
-1.30019726896438
30
0
41
1
10
29.3330490225146
20
-1.26817972630661
30
0
41
1
10
29.2879012179205
20
-1.23352347846438
30
0
41
1
10
29.2229954479448
20
-1.17571293847658
30
0
41
1
10
29.2018351167181
20
-1.15546013864807
30
0
41
1
10
29.1608341175869
20
-1.11222415803945
30
0
41
1
10
29.1408072389037
20
-1.08901955066833
30
0
41
1
10
29.1041276339306
20
-1.03996363355174
30
0
41
1
10
29.0872071656379
20
-1.01385453443197
30
0
41
1
10
29.0595496543397
20
-0.95814660481895
30
0
41
1
10
29.0489831877511
20
-0.928457763769245
30
0
41
1
10
29.0407880814074
20
-0.870393973059606
30
0
41
1
10
29.0436426036635
20
-0.842209148606202
30
0
41
1
10
29.0619589748137
20
-0.795570382005707
30
0
41
1
10
29.0766889413256
20
-0.777144666081739
30
0
41
1
10
29.1108041458925
20
-0.748051732840707
30
0
41
1
10
29.1303053116135
20
-0.737146089954621
30
0
41
1
10
29.1715403430243
20
-0.720062382485992
30
0
41
1
10
29.1930450794263
20
-0.713988020862558
30
0
41
1
10
29.2592710626997
20
-0.700525633103695
30
0
41
1
10
29.305985048775
20
-0.697858500400855
30
0
41
1
10
29.4469351139516
20
-0.700803904314398
30
0
41
1
10
29.542754619527
20
-0.71685391670232
30
0
41
1
10
29.6396451882897
20
-0.741046994689469
30
0
0
SPLINE
5
E0
100
AcDbEntity
8
1
62
256
6
ByLayer
370
18
48
1
60
0
100
AcDbSpline
70
4
71
3
72
18
73
14
40
0
40
0
40
0
40
0
40
0.249999999999997
40
0.249999999999997
40
0.374999999999997
40
0.374999999999997
40
0.499999999999998
40
0.499999999999998
40
0.624999999999998
40
0.624999999999998
40
0.749999999999999
40
0.749999999999999
40
1
40
1
40
1
40
1
41
1
10
4.2512129917348
20
2.59180826295324
30
0
41
1
10
4.53368861299487
20
2.60584819569962
30
0
41
1
10
4.81933004702043
20
2.5993429871973
30
0
41
1
10
5.25211885790191
20
2.56398163460511
30
0
41
1
10
5.39723977255497
20
2.54785161249711
30
0
41
1
10
5.68686693368287
20
2.5080070723071
30
0
41
1
10
5.8316604302247
20
2.48422543445031
30
0
41
1
10
6.12158699822396
20
2.43052491602253
30
0
41
1
10
6.26672195739994
20
2.40076047051264
30
0
41
1
10
6.55767311469762
20
2.33461868216457
30
0
41
1
10
6.70349305426768
20
2.29815538391662
30
0
41
1
10
7.14273561597787
20
2.18082237009747
30
0
41
1
10
7.43792777113995
20
2.09156469054443
30
0
41
1
10
7.73757631898471
20
1.99582915116417
30
0
0
SPLINE
5
E1
100
AcDbEntity
8
SK1
62
256
6
ByLayer
370
18
48
1
60
0
100
AcDbSpline
70
4
71
3
72
8
73
4
40
0
40
0
40
0
40
0
40
1
40
1
40
1
40
1
41
1
10
-35.4
20
-2.02327221130366
30
0
41
1
10
-35.6037677514972
20
-1.69943442798422
30
0
41
1
10
-35.8060920028057
20
-1.37491146372685
30
0
41
1
10
-36
20
-1.0463935870111
30
0
0
SPLINE
5
E2
100
AcDbEntity
8
SK1
62
256
6
ByLayer
370
18
48
1
60
0
100
AcDbSpline
70
4
71
3
72
14
73
10
40
0
40
0
40
0
40
0
40
0.125000000000002
40
0.125000000000002
40
0.250000000000004
40
0.250000000000004
40
0.500000000000004
40
0.500000000000004
40
1
40
1
40
1
40
1
41
1
10
-35.3
20
-2.25012519643593
30
0
41
1
10
-35.3
20
-2.24295009977706
30
0
41
1
10
-35.3017593723636
20
-2.23352117967727
30
0
41
1
10
-35.3069353411979
20
-2.21389347102149
30
0
41
1
10
-35.3102739075535
20
-2.20379096812169
30
0
41
1
10
-35.3215583577555
20
-2.17299549494956
30
0
41
1
10
-35.3303095934912
20
-2.15297591379692
30
0
41
1
10
-35.358391202053
20
-2.09372218731855
30
0
41
1
10
-35.378655954467
20
-2.05719322354284
30
0
41
1
10
-35.4
20
-2.02327221130366
30
0
0
SPLINE
5
E3
100
AcDbEntity
8
SK1
62
256
6
ByLayer
370
18
48
1
60
0
100
AcDbSpline
70
4
71
3
72
14
73
10
40
0
40
0
40
0
40
0
40
0.500000000000002
40
0.500000000000002
40
0.750000000000001
40
0.750000000000001
40
0.875
40
0.875
40
1
40
1
40
1
40
1
41
1
10
-35.4
20
-2.72518130413866
30
0
41
1
10
-35.3787677796885
20
-2.75892459820801
30
0
41
1
10
-35.3584290958895
20
-2.78987729636083
30
0
41
1
10
-35.3303626450498
20
-2.82923587286018
30
0
41
1
10
-35.3215171954455
20
-2.84102547099522
30
0
41
1
10
-35.3102812516991
20
-2.85399274690829
30
0
41
1
10
-35.3068890218584
20
-2.85749292973489
30
0
41
1
10
-35.3017585680987
20
-2.86118713631154
30
0
41
1
10
-35.3
20
-2.86135569411258
30
0
41
1
10
-35.3
20
-2.85844641022589
30
0
0
SPLINE
5
E4
100
AcDbEntity
8
SK1
62
256
6
ByLayer
370
18
48
1
60
0
100
AcDbSpline
70
4
71
3
72
8
73
4
40
0
40
0
40
0
40
0
40
1
40
1
40
1
40
1
41
1
10
-36
20
-1.74830267984564
30
0
41
1
10
-35.8061102942199
20
-2.07678956734657
30
0
41
1
10
-35.6037796413228
20
-2.40132462492019
30
0
41
1
10
-35.4
20
-2.7251813041382
30
0
0
LINE
5
76
100
AcDbEntity
8
81
62
256
6
ByLayer
370
18
48
1
60
0
100
AcDbLine
10
30
20
0
30
0
11
35
21
0
31
0
39
0
210
0
220
0
230
1
0
LINE
5
77
100
AcDbEntity
8
1
62
256
6
ByLayer
370
18
48
1
60
0
100
AcDbLine
10
28.016239
20
-2.749099
30
0
11
28.84356
21
-2.749616
31
0
39
0
210
0
220
0
230
1
0
LINE
5
79
100
AcDbEntity
8
1
62
256
6
ByLayer
370
18
48
1
60
0
100
AcDbLine
10
2
20
-2.732839
30
0
11
4.027473
21
-2.734106
31
0
39
0
210
0
220
0
230
1
0
LINE
5
7A
100
AcDbEntity
8
1
62
256
6
ByLayer
370
18
48
1
60
0
100
AcDbLine
10
4.027473
20
2.734106
30
0
11
2
21
2.732839
31
0
39
0
210
0
220
0
230
1
0
LINE
5
7B
100
AcDbEntity
8
1
62
256
6
ByLayer
370
18
48
1
60
0
100
AcDbLine
10
28.844272
20
2.749617
30
0
11
28.016239
21
2.749099
31
0
39
0
210
0
220
0
230
1
0
LINE
5
7C
100
AcDbEntity
8
1
62
256
6
ByLayer
370
18
48
1
60
0
100
AcDbLine
10
0.885178
20
-2.732839
30
0
11
2
21
-2.732839
31
0
39
0
210
0
220
0
230
1
0
LINE
5
7D
100
AcDbEntity
8
1
62
256
6
ByLayer
370
18
48
1
60
0
100
AcDbLine
10
2
20
2.732839
30
0
11
0.885178
21
2.732839
31
0
39
0
210
0
220
0
230
1
0
LINE
5
7E
100
AcDbEntity
8
SK1
62
256
6
ByLayer
370
18
48
1
60
0
100
AcDbLine
10
-35.278312
20
3
30
0
11
-36
21
1.75
31
0
39
0
210
0
220
0
230
1
0
LINE
5
80
100
AcDbEntity
8
SK1
62
256
6
ByLayer
370
18
48
1
60
0
100
AcDbLine
10
-36
20
-1.75
30
0
11
-35.278312
21
-3
31
0
39
0
210
0
220
0
230
1
0
LINE
5
81
100
AcDbEntity
8
1
62
256
6
ByLayer
370
18
48
1
60
0
100
AcDbLine
10
12.492702
20
2.739397
30
0
11
11.665729
21
2.73888
31
0
39
0
210
0
220
0
230
1
0
LINE
5
82
100
AcDbEntity
8
1
62
256
6
ByLayer
370
18
48
1
60
0
100
AcDbLine
10
11.665729
20
-2.73888
30
0
11
12.492864
21
-2.739397
31
0
39
0
210
0
220
0
230
1
0
LINE
5
83
100
AcDbEntity
8
SK1
62
256
6
ByLayer
370
18
48
1
60
0
100
AcDbLine
10
0
20
3
30
0
11
-35.278312
21
3
31
0
39
0
210
0
220
0
230
1
0
LINE
5
84
100
AcDbEntity
8
SK1
62
256
6
ByLayer
370
18
48
1
60
0
100
AcDbLine
10
-35.278312
20
-3
30
0
11
0
21
-3
31
0
39
0
210
0
220
0
230
1
0
LINE
5
85
100
AcDbEntity
8
SK4
62
256
6
ByLayer
370
18
48
0.05
60
0
100
AcDbLine
10
35
20
0
30
0
11
-41
21
0
31
0
39
0
210
0
220
0
230
1
0
LINE
5
87
100
AcDbEntity
8
4
62
256
6
ByLayer
370
18
48
0.05
60
0
100
AcDbLine
10
30
20
0
30
0
11
0
21
0
31
0
39
0
210
0
220
0
230
1
0
LINE
5
89
100
AcDbEntity
8
80
62
256
6
ByLayer
370
18
48
1
60
0
100
AcDbLine
10
0
20
0
30
0
11
-5
21
0
31
0
39
0
210
0
220
0
230
1
0
LINE
5
8A
100
AcDbEntity
8
1
62
256
6
ByLayer
370
18
48
1
60
0
100
AcDbLine
10
4.351713
20
-0.017434
30
0
11
4.351711
21
-0.017578
31
0
39
0
210
0
220
0
230
1
0
LINE
5
8B
100
AcDbEntity
8
1
62
256
6
ByLayer
370
18
48
1
60
0
100
AcDbLine
10
0
20
-3
30
0
11
0
21
3
31
0
39
0
210
0
220
0
230
1
0
LINE
5
8C
100
AcDbEntity
8
1
62
256
6
ByLayer
370
13
48
1
60
0
100
AcDbLine
10
4.251205
20
-2.596482
30
0
11
4.251213
21
-2.591808
31
0
39
0
210
0
220
0
230
1
0
LINE
5
8D
100
AcDbEntity
8
1
62
256
6
ByLayer
370
13
48
1
60
0
100
AcDbLine
10
4.251195
20
2.597984
30
0
11
4.251213
21
2.591808
31
0
39
0
210
0
220
0
230
1
0
LINE
5
8E
100
AcDbEntity
8
1
62
256
6
ByLayer
370
13
48
1
60
0
100
AcDbLine
10
0.885178
20
-2.732839
30
0
11
0.885178
21
2.732839
31
0
39
0
210
0
220
0
230
1
0
LINE
5
8F
100
AcDbEntity
8
1
62
256
6
ByLayer
370
18
48
1
60
0
100
AcDbLine
10
2
20
-2.732839
30
0
11
2
21
-1.737165
31
0
39
0
210
0
220
0
230
1
0
LINE
5
90
100
AcDbEntity
8
1
62
256
6
ByLayer
370
18
48
1
60
0
100
AcDbLine
10
2
20
-1.737165
30
0
11
2
21
2.732839
31
0
39
0
210
0
220
0
230
1
0
LINE
5
91
100
AcDbEntity
8
1
62
256
6
ByLayer
370
13
48
1
60
0
100
AcDbLine
10
28.943906
20
0.618704
30
0
11
29.980543
21
-0.037512
31
0
39
0
210
0
220
0
230
1
0
LINE
5
92
100
AcDbEntity
8
1
62
256
6
ByLayer
370
13
48
1
60
0
100
AcDbLine
10
29.032883
20
0.689045
30
0
11
29.995466
21
0.079708
31
0
39
0
210
0
220
0
230
1
0
LINE
5
93
100
AcDbEntity
8
1
62
256
6
ByLayer
370
13
48
1
60
0
100
AcDbLine
10
0.442589
20
2.86642
30
0
11
0.442589
21
-2.86642
31
0
39
0
210
0
220
0
230
1
0
LINE
5
94
100
AcDbEntity
8
SK1
62
256
6
ByLayer
370
18
48
1
60
0
100
AcDbLine
10
-36
20
1.75
30
0
11
-36
21
-1.046394
31
0
39
0
210
0
220
0
230
1
0
LINE
5
95
100
AcDbEntity
8
SK1
62
256
6
ByLayer
370
18
48
1
60
0
100
AcDbLine
10
-36
20
-1.75
30
0
11
-36
21
-1.748303
31
0
39
0
210
0
220
0
230
1
0
LINE
5
96
100
AcDbEntity
8
SK1
62
256
6
ByLayer
370
18
48
1
60
0
100
AcDbLine
10
-35.3
20
-2.858446
30
0
11
-35.3
21
-2.250125
31
0
39
0
210
0
220
0
230
1
0
LINE
5
97
100
AcDbEntity
8
SK1
62
256
6
ByLayer
370
18
48
1
60
0
100
AcDbLine
10
-36
20
-1.046354
30
0
11
-36
21
-1.748303
31
0
39
0
210
0
220
0
230
1
0
LINE
5
98
100
AcDbEntity
8
SK1
62
256
6
ByLayer
370
18
48
1
60
0
100
AcDbLine
10
-35.278312
20
3
30
0
11
-35.278312
21
-3
31
0
39
0
210
0
220
0
230
1
0
LINE
5
99
100
AcDbEntity
8
SK1
62
256
6
ByLayer
370
13
48
1
60
0
100
AcDbLine
10
-35.4
20
-2.023226
30
0
11
-35.4
21
-2.725181
31
0
39
0
210
0
220
0
230
1
0
LINE
5
9A
100
AcDbEntity
8
SK1
62
256
6
ByLayer
370
18
48
1
60
0
100
AcDbLine
10
0
20
-3
30
0
11
0
21
3
31
0
39
0
210
0
220
0
230
1
0
MTEXT
5
E5
100
AcDbEntity
8
SK6
62
256
6
ByLayer
370
13
48
1
60
0
100
AcDbMText
10
-0.870831
20
35.132694
30
0
210
0
220
0
230
1
1
\W0.7207;861.1-0550-017A1-GP GC34
40
3.5
41
0
44
1.084337
50
0
71
8
72
5
7
iso_b_vert
0
DIMENSION
5
F2
100
AcDbEntity
8
SK2
62
256
6
ByLayer
370
13
48
1
60
0
100
AcDbDimension
2
DimnDraft3D1
10
29.3367
20
-12.963398
30
0
11
13.586759
21
-12.963398
31
0
70
32
71
5
72
1
41
1
210
0
220
0
230
1
3
Standard
100
AcDbAlignedDimension
13
0
23
-1.5875
33
0
14
29.3367
24
-4.3375
34
0
50
0
100
AcDbRotatedDimension
1001
ACAD
1000
DSTYLE
1002
{
1070
   279
1070
     0
1070
   172
1070
     1
1070
   173
1070
     1
1070
   340
1005
E6
1070
   271
1070
     2
1070
   272
1070
     2
1070
    77
1070
     1
1070
    73
1070
     0
1070
   171
1070
     3
1070
   274
1070
     4
1070
   177
1070
    35
1070
   176
1070
    35
1070
   178
1070
    35
1070
    48
1040
-0.005
1070
    41
1041
3.5
1070
   147
1041
1.75
1070
    42
1041
1.5875
1070
    44
1041
2.0
1070
   140
1041
3.5
1070
   343
1005
0
1070
   344
1005
0
1002
}
0
DIMENSION
5
FC
100
AcDbEntity
8
SK2
62
256
6
ByLayer
370
13
48
1
60
0
100
AcDbDimension
2
DimnDraft3D2
10
30
20
-31.692985
30
0
11
-2.322
21
-31.692985
31
0
70
32
71
5
72
1
41
1
210
0
220
0
230
1
3
Standard
100
AcDbAlignedDimension
13
-36
23
-4.5875
33
0
14
30
24
-1.5875
34
0
50
0
100
AcDbRotatedDimension
1001
ACAD
1000
DSTYLE
1002
{
1070
   279
1070
     0
1070
   172
1070
     1
1070
   173
1070
     1
1070
   340
1005
E6
1070
   271
1070
     2
1070
   272
1070
     2
1070
    77
1070
     1
1070
    73
1070
     0
1070
   171
1070
     3
1070
   274
1070
     4
1070
   177
1070
    35
1070
   176
1070
    35
1070
   178
1070
    35
1070
    48
1040
-0.005
1070
    41
1041
3.5
1070
   147
1041
1.75
1070
    42
1041
1.5875
1070
    44
1041
2.0
1070
   140
1041
3.5
1070
   343
1005
0
1070
   344
1005
0
1002
}
0
DIMENSION
5
106
100
AcDbEntity
8
SK2
62
256
6
ByLayer
370
13
48
1
60
0
100
AcDbDimension
2
DimnDraft3D3
10
30
20
14.359119
30
0
11
21.67
21
14.359119
31
0
70
32
71
5
72
1
41
1
210
0
220
0
230
1
3
Standard
100
AcDbAlignedDimension
13
13.34
23
4.3375
33
0
14
30
24
1.5875
34
0
50
0
100
AcDbRotatedDimension
1001
ACAD
1000
DSTYLE
1002
{
1070
   279
1070
     0
1070
   172
1070
     1
1070
   173
1070
     1
1070
   340
1005
E6
1070
   271
1070
     2
1070
   272
1070
     2
1070
    77
1070
     1
1070
    73
1070
     0
1070
   171
1070
     3
1070
   274
1070
     4
1070
   177
1070
    35
1070
   176
1070
    35
1070
   178
1070
    35
1070
    48
1040
-0.005
1070
    41
1041
3.5
1070
   147
1041
1.75
1070
    42
1041
1.5875
1070
    44
1041
2.0
1070
   140
1041
3.5
1070
   343
1005
0
1070
   344
1005
0
1002
}
0
DIMENSION
5
110
100
AcDbEntity
8
SK2
62
256
6
ByLayer
370
13
48
1
60
0
100
AcDbDimension
2
DimnDraft3D4
10
29.3367
20
-15.552503
30
0
11
39.981425
21
-15.552503
31
0
70
32
71
5
72
1
41
1
210
0
220
0
230
1
3
Standard
100
AcDbAlignedDimension
13
30
23
-1.5875
33
0
14
29.3367
24
-4.3375
34
0
50
0
100
AcDbRotatedDimension
1001
ACAD
1000
DSTYLE
1002
{
1070
   279
1070
     0
1070
   172
1070
     1
1070
   173
1070
     1
1070
   340
1005
E6
1070
   271
1070
     2
1070
   272
1070
     2
1070
    77
1070
     1
1070
    73
1070
     0
1070
   171
1070
     3
1070
   274
1070
     4
1070
   177
1070
    35
1070
   176
1070
    35
1070
   178
1070
    35
1070
    48
1040
-0.005
1070
    41
1041
3.5
1070
   147
1041
1.75
1070
    42
1041
1.5875
1070
    44
1041
2.0
1070
   140
1041
3.5
1070
   343
1005
0
1070
   344
1005
0
1002
}
0
DIMENSION
5
11A
100
AcDbEntity
8
SK2
62
256
6
ByLayer
370
13
48
1
60
0
100
AcDbDimension
2
DimnDraft3D5
10
29.3367
20
-21.343428
30
0
11
-5.402624
21
-21.343428
31
0
70
32
71
5
72
1
41
1
210
0
220
0
230
1
3
Standard
100
AcDbAlignedDimension
13
-36
23
-4.5875
33
0
14
29.3367
24
-4.3375
34
0
50
0
100
AcDbRotatedDimension
1001
ACAD
1000
DSTYLE
1002
{
1070
   279
1070
     0
1070
   172
1070
     1
1070
   173
1070
     1
1070
   340
1005
E6
1070
   271
1070
     2
1070
   272
1070
     2
1070
    77
1070
     1
1070
    73
1070
     0
1070
   171
1070
     3
1070
   274
1070
     4
1070
   177
1070
    35
1070
   176
1070
    35
1070
   178
1070
    35
1070
    48
1040
-0.005
1070
    41
1041
3.5
1070
   147
1041
1.75
1070
    42
1041
1.5875
1070
    44
1041
2.0
1070
   140
1041
3.5
1070
   343
1005
0
1070
   344
1005
0
1002
}
0
DIMENSION
5
125
100
AcDbEntity
8
SK2
62
256
6
ByLayer
370
13
48
1
60
0
100
AcDbDimension
2
DimnDraft3D6
10
-46.625163
20
3
30
0
11
-47.250163
21
21.47418
31
0
70
33
71
5
72
1
41
1
210
0
220
0
230
1
3
Standard
100
AcDbAlignedDimension
13
-37.5875
23
-3
33
0
14
-37.5875
24
3
34
0
1001
ACAD
1000
DSTYLE
1002
{
1070
   279
1070
     0
1070
    74
1070
     0
1070
   173
1070
     1
1070
   340
1005
E6
1070
   271
1070
     3
1070
   272
1070
     2
1070
    77
1070
     1
1070
    73
1070
     0
1070
   171
1070
     3
1070
   274
1070
     4
1070
   177
1070
    35
1070
   176
1070
    35
1070
   178
1070
    35
1070
    48
1040
-0.005
1070
    41
1041
3.5
1070
   147
1041
1.75
1070
    42
1041
1.5875
1070
    44
1041
2.0
1070
   140
1041
3.5
1070
   343
1005
0
1070
   344
1005
0
1002
}
0
DIMENSION
5
130
100
AcDbEntity
8
2
62
256
6
ByLayer
370
13
48
1
60
0
100
AcDbDimension
2
DimnDraft3D7
10
44.083343
20
2.75
30
0
11
39.458343
21
19.817266
31
0
70
33
71
5
72
1
41
1
210
0
220
0
230
1
3
Standard
100
AcDbAlignedDimension
13
30.9242
23
-2.75
33
0
14
30.9242
24
2.75
34
0
1001
ACAD
1000
DSTYLE
1002
{
1070
   279
1070
     0
1070
    74
1070
     0
1070
   173
1070
     1
1070
   340
1005
E6
1070
   271
1070
     3
1070
   272
1070
     2
1070
    77
1070
     1
1070
    73
1070
     0
1070
   171
1070
     3
1070
   274
1070
     4
1070
   177
1070
    35
1070
   176
1070
    35
1070
   178
1070
    35
1070
    48
1040
-0.005
1070
    41
1041
3.5
1070
   147
1041
1.75
1070
    42
1041
1.5875
1070
    44
1041
2.0
1070
   140
1041
3.5
1070
   343
1005
0
1070
   344
1005
0
1002
}
0
ENDSEC
0
SECTION
2
OBJECTS
0
DICTIONARY
5
19b
330
0
100
AcDbDictionary
280
0
281
1
3
ACAD_GROUP
350
19c
3
ACAD_MLINESTYLE
350
19d
0
DICTIONARY
5
19c
330
0
100
AcDbDictionary
280
0
281
1
0
DICTIONARY
5
19d
330
0
100
AcDbDictionary
280
0
281
1
3
Standard
350
18
0
MLINESTYLE
5
18
330
19d
100
AcDbMlineStyle
2
Standard
70
0
3

62
256
51
90
52
90
71
2
49
-0.5
62
256
6
ByLayer
49
0.5
62
256
6
ByLayer
0
RASTERVARIABLES
5
189
330

100
AcDbRasterVariables
90
0
70
1
71
1
72
1
0
ENDSEC
0
EOF
