0
SECTION
2
HEADER
9
$ACADVER
1
AC1015
9
$DWGCODEPAGE
3
ANSI_1252
9
$HANDSEED
5
1a7
9
$ANGBASE
50
0
9
$ANGDIR
70
0
9
$ATTMODE
70
1
9
$AUNITS
70
0
9
$AUPREC
70
0
9
$CECOLOR
62
256
9
$CELTSCALE
40
1
9
$CELTYPE
6
ByLayer
9
$CELWEIGHT
370
18
9
$CLAYER
8
0
9
$CMLJUST
70
0
9
$CMLSCALE
40
1
9
$CMLSTYLE
2
Standard
9
$DIMSTYLE
2
Standard
9
$TEXTSIZE
40
0.2
9
$TEXTSTYLE
7
Standard
9
$LUNITS
70
2
9
$LUPREC
70
4
9
$EXTNAMES
290
1
9
$INSUNITS
70
4
9
$LTSCALE
40
1
9
$LWDISPLAY
290
1
9
$PDMODE
70
0
9
$PDSIZE
40
0
9
$PLINEGEN
70
0
0
ENDSEC
0
SECTION
2
CLASSES
0
CLASS
1
RASTERVARIABLES
2
AcDbRasterVariables
3
ISM
90
0
280
0
281
0
0
ENDSEC
0
SECTION
2
TABLES
0
TABLE
2
VPORT
5
19d
100
AcDbSymbolTable
0
VPORT
5
1
100
AcDbSymbolTableRecord
100
AcDbViewportTableRecord
2
*Active
70
0
10
0
20
0
11
1
21
1
12
-1
22
1
13
0
23
0
14
0.5
24
0.5
15
10
25
10
16
0
26
0
36
1
17
0
27
0
37
0
0
ENDTAB
0
TABLE
2
LTYPE
5
19e
100
AcDbSymbolTable
0
LTYPE
5
14
100
AcDbSymbolTableRecord
100
AcDbLinetypeTableRecord
70
0
2
ByBlock
3

72
65
73
0
40
0
0
LTYPE
5
15
100
AcDbSymbolTableRecord
100
AcDbLinetypeTableRecord
70
0
2
ByLayer
3

72
65
73
0
40
0
0
LTYPE
5
16
100
AcDbSymbolTableRecord
100
AcDbLinetypeTableRecord
70
0
2
CONTINUOUS
3
Solid line
72
65
73
0
40
0
0
LTYPE
5
6A
100
AcDbSymbolTableRecord
100
AcDbLinetypeTableRecord
70
0
2
CENTER
3
____ _ ____ _ ____ _ ____
72
65
73
4
40
47.5
49
22
74
0
49
-8.5
74
0
49
8.5
74
0
49
-8.5
74
0
0
LTYPE
5
6B
100
AcDbSymbolTableRecord
100
AcDbLinetypeTableRecord
70
0
2
DASHED
3
__ __ __ __ __ __ __ __ __
72
65
73
2
40
25.72
49
12.86
74
0
49
-12.86
74
0
0
ENDTAB
0
TABLE
2
LAYER
5
19f
100
AcDbSymbolTable
0
LAYER
5
10
100
AcDbSymbolTableRecord
100
AcDbLayerTableRecord
2
0
70
0
62
7
6
CONTINUOUS
290
1
370
-3
390
0
0
LAYER
5
6D
100
AcDbSymbolTableRecord
100
AcDbLayerTableRecord
2
81
70
0
62
-3
6
CONTINUOUS
290
1
370
-3
390
0
0
LAYER
5
6F
100
AcDbSymbolTableRecord
100
AcDbLayerTableRecord
2
80
70
0
62
-6
6
CONTINUOUS
290
1
370
-3
390
0
0
LAYER
5
74
100
AcDbSymbolTableRecord
100
AcDbLayerTableRecord
2
2
70
0
62
7
6
CONTINUOUS
290
1
370
-3
390
0
0
LAYER
5
78
100
AcDbSymbolTableRecord
100
AcDbLayerTableRecord
2
1
70
0
62
4
6
CONTINUOUS
290
1
370
-3
390
0
0
LAYER
5
88
100
AcDbSymbolTableRecord
100
AcDbLayerTableRecord
2
4
70
0
62
-2
6
CENTER
290
1
370
-3
390
0
0
LAYER
5
189
100
AcDbSymbolTableRecord
100
AcDbLayerTableRecord
2
SK2
70
0
62
7
6
CONTINUOUS
290
1
370
-3
390
0
0
LAYER
5
18a
100
AcDbSymbolTableRecord
100
AcDbLayerTableRecord
2
SK1
70
0
62
4
6
CONTINUOUS
290
1
370
-3
390
0
0
LAYER
5
18b
100
AcDbSymbolTableRecord
100
AcDbLayerTableRecord
2
SK4
70
0
62
2
6
CENTER
290
1
370
-3
390
0
0
LAYER
5
18c
100
AcDbSymbolTableRecord
100
AcDbLayerTableRecord
2
SK6
70
0
62
5
6
CONTINUOUS
290
1
370
-3
390
0
0
ENDTAB
0
TABLE
2
STYLE
5
1a0
100
AcDbSymbolTable
0
STYLE
5
11
100
AcDbSymbolTableRecord
100
AcDbTextStyleTableRecord
2
Standard
3
txt
70
0
71
0
40
0
41
1
42
0
50
0
0
STYLE
5
E5
100
AcDbSymbolTableRecord
100
AcDbTextStyleTableRecord
2
iso_b_vert
3
simplex.shx
70
0
71
0
40
0
41
1
42
0
50
0
0
STYLE
5
E6
100
AcDbSymbolTableRecord
100
AcDbTextStyleTableRecord
2
DWGDirectTextStyle
3
simplex
70
0
71
0
40
0
41
1
42
0
50
0
0
ENDTAB
0
TABLE
2
DIMSTYLE
5
1a1
100
AcDbSymbolTable
100
AcDbDimStyleTable
0
DIMSTYLE
105
27
100
AcDbSymbolTableRecord
100
AcDbDimStyleTableRecord
2
Standard
70
0
3
<>
41
0.18
42
0.0625
44
0.18
140
0.18
147
0.09
73
0
74
0
77
1
271
2
275
0
278
52
280
0
340
11
0
ENDTAB
0
TABLE
2
VIEW
5
1a2
100
AcDbSymbolTable
0
ENDTAB
0
TABLE
2
UCS
5
1a3
100
AcDbSymbolTable
0
ENDTAB
0
TABLE
2
APPID
5
1a4
100
AcDbSymbolTable
0
APPID
5
12
100
AcDbSymbolTableRecord
100
AcDbRegAppTableRecord
2
ACAD
70
0
0
ENDTAB
0
TABLE
2
BLOCK_RECORD
5
1a5
100
AcDbSymbolTable
0
BLOCK_RECORD
5
1F
100
AcDbSymbolTableRecord
100
AcDbBlockTableRecord
2
*Model_Space
340
0
70
0
0
BLOCK_RECORD
5
1B
100
AcDbSymbolTableRecord
100
AcDbBlockTableRecord
2
*Paper_Space
340
0
70
0
0
BLOCK_RECORD
5
23
100
AcDbSymbolTableRecord
100
AcDbBlockTableRecord
2
*Paper_Space0
340
0
70
0
0
BLOCK_RECORD
5
E8
100
AcDbSymbolTableRecord
100
AcDbBlockTableRecord
2
DimnDraft3D1
340
0
70
0
0
BLOCK_RECORD
5
F2
100
AcDbSymbolTableRecord
100
AcDbBlockTableRecord
2
DimnDraft3D2
340
0
70
0
0
BLOCK_RECORD
5
FC
100
AcDbSymbolTableRecord
100
AcDbBlockTableRecord
2
DimnDraft3D3
340
0
70
0
0
BLOCK_RECORD
5
106
100
AcDbSymbolTableRecord
100
AcDbBlockTableRecord
2
DimnDraft3D4
340
0
70
0
0
BLOCK_RECORD
5
110
100
AcDbSymbolTableRecord
100
AcDbBlockTableRecord
2
DimnDraft3D5
340
0
70
0
0
BLOCK_RECORD
5
11A
100
AcDbSymbolTableRecord
100
AcDbBlockTableRecord
2
DimnDraft3D6
340
0
70
0
0
BLOCK_RECORD
5
125
100
AcDbSymbolTableRecord
100
AcDbBlockTableRecord
2
DimnDraft3D7
340
0
70
0
0
ENDTAB
0
ENDSEC
0
SECTION
2
BLOCKS
0
BLOCK
5
20
100
AcDbEntity
8
0
100
AcDbBlockBegin
2
*Model_Space
70
0
10
0
20
0
30
0
3
*Model_Space
0
ENDBLK
5
21
100
AcDbEntity
8
0
100
AcDbBlockEnd
0
BLOCK
5
1C
100
AcDbEntity
8
0
100
AcDbBlockBegin
2
*Paper_Space
70
0
10
0
20
0
30
0
3
*Paper_Space
0
ENDBLK
5
1D
100
AcDbEntity
8
0
100
AcDbBlockEnd
0
BLOCK
5
24
100
AcDbEntity
8
0
100
AcDbBlockBegin
2
*Paper_Space0
70
0
10
0
20
0
30
0
3
*Paper_Space0
0
ENDBLK
5
25
100
AcDbEntity
8
0
100
AcDbBlockEnd
0
BLOCK
5
EF
100
AcDbEntity
8
0
100
AcDbBlockBegin
2
DimnDraft3D1
70
0
10
0
20
0
30
0
3
DimnDraft3D1
0
MTEXT
5
E9
100
AcDbEntity
8
SK2
62
256
6
ByLayer
370
13
48
1
60
0
100
AcDbMText
10
9.014164
20
-11.838398
30
0
210
0
220
0
230
1
1
\W0.7581;29,40
40
3.5
41
0
44
1.084337
50
0
71
7
72
5
7
iso_b_vert
0
LINE
5
EA
100
AcDbEntity
8
SK2
62
256
6
ByLayer
370
13
48
1
60
0
100
AcDbLine
10
0
20
-1.5875
30
0
11
0
21
-14.713398
31
0
39
0
210
0
220
0
230
1
0
LINE
5
EB
100
AcDbEntity
8
SK2
62
256
6
ByLayer
370
13
48
1
60
0
100
AcDbLine
10
29.397
20
-4.0875
30
0
11
29.397
21
-14.713398
31
0
39
0
210
0
220
0
230
1
0
LINE
5
EC
100
AcDbEntity
8
SK2
62
256
6
ByLayer
370
13
48
1
60
0
100
AcDbLine
10
0
20
-12.713398
30
0
11
29.397
21
-12.713398
31
0
39
0
210
0
220
0
230
1
0
SOLID
5
ED
100
AcDbEntity
8
SK2
62
256
6
ByLayer
370
13
48
1
60
0
100
AcDbTrace
10
0
20
-12.713398
30
0
11
3.499998
21
-12.252615
31
0
12
3.500002
22
-13.174182
32
0
13
0
23
-12.713398
33
0
39
0
210
0
220
0
230
1
0
SOLID
5
EE
100
AcDbEntity
8
SK2
62
256
6
ByLayer
370
13
48
1
60
0
100
AcDbTrace
10
29.397
20
-12.713398
30
0
11
25.897002
21
-13.174182
31
0
12
25.896998
22
-12.252615
32
0
13
29.397
23
-12.713398
33
0
39
0
210
0
220
0
230
1
0
ENDBLK
5
F0
100
AcDbEntity
8
0
100
AcDbBlockEnd
0
BLOCK
5
F9
100
AcDbEntity
8
0
100
AcDbBlockBegin
2
DimnDraft3D2
70
0
10
0
20
0
30
0
3
DimnDraft3D2
0
MTEXT
5
F3
100
AcDbEntity
8
SK2
62
256
6
ByLayer
370
13
48
1
60
0
100
AcDbMText
10
-6.710384
20
-30.817985
30
0
210
0
220
0
230
1
1
\W0.7317;66,00
40
3.5
41
0
44
1.084337
50
0
71
7
72
5
7
iso_b_vert
0
LINE
5
F4
100
AcDbEntity
8
SK2
62
256
6
ByLayer
370
13
48
1
60
0
100
AcDbLine
10
-36
20
-4.5875
30
0
11
-36
21
-33.692985
31
0
39
0
210
0
220
0
230
1
0
LINE
5
F5
100
AcDbEntity
8
SK2
62
256
6
ByLayer
370
13
48
1
60
0
100
AcDbLine
10
30
20
-1.5875
30
0
11
30
21
-33.692985
31
0
39
0
210
0
220
0
230
1
0
LINE
5
F6
100
AcDbEntity
8
SK2
62
256
6
ByLayer
370
13
48
1
60
0
100
AcDbLine
10
-36
20
-31.692985
30
0
11
30
21
-31.692985
31
0
39
0
210
0
220
0
230
1
0
SOLID
5
F7
100
AcDbEntity
8
SK2
62
256
6
ByLayer
370
13
48
1
60
0
100
AcDbTrace
10
-36
20
-31.692985
30
0
11
-32.500002
21
-31.232202
31
0
12
-32.499998
22
-32.153769
32
0
13
-36
23
-31.692985
33
0
39
0
210
0
220
0
230
1
0
SOLID
5
F8
100
AcDbEntity
8
SK2
62
256
6
ByLayer
370
13
48
1
60
0
100
AcDbTrace
10
30
20
-31.692985
30
0
11
26.500002
21
-32.153769
31
0
12
26.499998
22
-31.232202
32
0
13
30
23
-31.692985
33
0
39
0
210
0
220
0
230
1
0
ENDBLK
5
FA
100
AcDbEntity
8
0
100
AcDbBlockEnd
0
BLOCK
5
103
100
AcDbEntity
8
0
100
AcDbBlockBegin
2
DimnDraft3D3
70
0
10
0
20
0
30
0
3
DimnDraft3D3
0
MTEXT
5
FD
100
AcDbEntity
8
SK2
62
256
6
ByLayer
370
13
48
1
60
0
100
AcDbMText
10
18.188816
20
14.984119
30
0
210
0
220
0
230
1
1
\W0.6713;15,60
40
3.5
41
0
44
1.084337
50
0
71
7
72
5
7
iso_b_vert
0
LINE
5
FE
100
AcDbEntity
8
SK2
62
256
6
ByLayer
370
13
48
1
60
0
100
AcDbLine
10
14.4
20
4.0875
30
0
11
14.4
21
16.109119
31
0
39
0
210
0
220
0
230
1
0
LINE
5
FF
100
AcDbEntity
8
SK2
62
256
6
ByLayer
370
13
48
1
60
0
100
AcDbLine
10
30
20
1.5875
30
0
11
30
21
16.109119
31
0
39
0
210
0
220
0
230
1
0
LINE
5
100
100
AcDbEntity
8
SK2
62
256
6
ByLayer
370
13
48
1
60
0
100
AcDbLine
10
14.4
20
14.109119
30
0
11
30
21
14.109119
31
0
39
0
210
0
220
0
230
1
0
SOLID
5
101
100
AcDbEntity
8
SK2
62
256
6
ByLayer
370
13
48
1
60
0
100
AcDbTrace
10
14.4
20
14.109119
30
0
11
17.899998
21
14.569903
31
0
12
17.900002
22
13.648335
32
0
13
14.4
23
14.109119
33
0
39
0
210
0
220
0
230
1
0
SOLID
5
102
100
AcDbEntity
8
SK2
62
256
6
ByLayer
370
13
48
1
60
0
100
AcDbTrace
10
30
20
14.109119
30
0
11
26.500002
21
13.648335
31
0
12
26.499998
22
14.569903
32
0
13
30
23
14.109119
33
0
39
0
210
0
220
0
230
1
0
ENDBLK
5
104
100
AcDbEntity
8
0
100
AcDbBlockEnd
0
BLOCK
5
10D
100
AcDbEntity
8
0
100
AcDbBlockBegin
2
DimnDraft3D4
70
0
10
0
20
0
30
0
3
DimnDraft3D4
0
MTEXT
5
107
100
AcDbEntity
8
SK2
62
256
6
ByLayer
370
13
48
1
60
0
100
AcDbMText
10
36.840636
20
-14.427503
30
0
210
0
220
0
230
1
1
\W0.7150;0,60
40
3.5
41
0
44
1.084337
50
0
71
7
72
5
7
iso_b_vert
0
LINE
5
108
100
AcDbEntity
8
SK2
62
256
6
ByLayer
370
13
48
1
60
0
100
AcDbLine
10
30
20
-1.5875
30
0
11
30
21
-17.302503
31
0
39
0
210
0
220
0
230
1
0
LINE
5
109
100
AcDbEntity
8
SK2
62
256
6
ByLayer
370
13
48
1
60
0
100
AcDbLine
10
29.397
20
-4.0875
30
0
11
29.397
21
-17.302503
31
0
39
0
210
0
220
0
230
1
0
LINE
5
10A
100
AcDbEntity
8
SK2
62
256
6
ByLayer
370
13
48
1
60
0
100
AcDbLine
10
20.647
20
-15.302503
30
0
11
43.997215
21
-15.302503
31
0
39
0
210
0
220
0
230
1
0
SOLID
5
10B
100
AcDbEntity
8
SK2
62
256
6
ByLayer
370
13
48
1
60
0
100
AcDbTrace
10
30
20
-15.302503
30
0
11
33.499998
21
-14.841719
31
0
12
33.500002
22
-15.763287
32
0
13
30
23
-15.302503
33
0
39
0
210
0
220
0
230
1
0
SOLID
5
10C
100
AcDbEntity
8
SK2
62
256
6
ByLayer
370
13
48
1
60
0
100
AcDbTrace
10
29.397
20
-15.302503
30
0
11
25.897002
21
-15.763287
31
0
12
25.896998
22
-14.841719
32
0
13
29.397
23
-15.302503
33
0
39
0
210
0
220
0
230
1
0
ENDBLK
5
10E
100
AcDbEntity
8
0
100
AcDbBlockEnd
0
BLOCK
5
117
100
AcDbEntity
8
0
100
AcDbBlockBegin
2
DimnDraft3D5
70
0
10
0
20
0
30
0
3
DimnDraft3D5
0
MTEXT
5
111
100
AcDbEntity
8
SK2
62
256
6
ByLayer
370
13
48
1
60
0
100
AcDbMText
10
-9.975218
20
-20.468428
30
0
210
0
220
0
230
1
1
\W0.7581;65,40
40
3.5
41
0
44
1.084337
50
0
71
7
72
5
7
iso_b_vert
0
LINE
5
112
100
AcDbEntity
8
SK2
62
256
6
ByLayer
370
13
48
1
60
0
100
AcDbLine
10
-36
20
-4.5875
30
0
11
-36
21
-23.343428
31
0
39
0
210
0
220
0
230
1
0
LINE
5
113
100
AcDbEntity
8
SK2
62
256
6
ByLayer
370
13
48
1
60
0
100
AcDbLine
10
29.397
20
-4.0875
30
0
11
29.397
21
-23.343428
31
0
39
0
210
0
220
0
230
1
0
LINE
5
114
100
AcDbEntity
8
SK2
62
256
6
ByLayer
370
13
48
1
60
0
100
AcDbLine
10
-36
20
-21.343428
30
0
11
29.397
21
-21.343428
31
0
39
0
210
0
220
0
230
1
0
SOLID
5
115
100
AcDbEntity
8
SK2
62
256
6
ByLayer
370
13
48
1
60
0
100
AcDbTrace
10
-36
20
-21.343428
30
0
11
-32.500002
21
-20.882645
31
0
12
-32.499998
22
-21.804212
32
0
13
-36
23
-21.343428
33
0
39
0
210
0
220
0
230
1
0
SOLID
5
116
100
AcDbEntity
8
SK2
62
256
6
ByLayer
370
13
48
1
60
0
100
AcDbTrace
10
29.397
20
-21.343428
30
0
11
25.897002
21
-21.804212
31
0
12
25.896998
22
-20.882645
32
0
13
29.397
23
-21.343428
33
0
39
0
210
0
220
0
230
1
0
ENDBLK
5
118
100
AcDbEntity
8
0
100
AcDbBlockEnd
0
BLOCK
5
122
100
AcDbEntity
8
0
100
AcDbBlockBegin
2
DimnDraft3D6
70
0
10
0
20
0
30
0
3
DimnDraft3D6
0
MTEXT
5
11B
100
AcDbEntity
8
SK2
62
256
6
ByLayer
370
13
48
1
60
0
100
AcDbMText
10
-46.375163
20
22.34918
30
0
210
0
220
0
230
1
1
\W0.7317;6,000
40
3.5
41
0
44
1.084337
50
90
71
7
72
5
7
iso_b_vert
0
MTEXT
5
11C
100
AcDbEntity
8
SK2
62
256
6
ByLayer
370
13
48
1
60
0
100
AcDbMText
10
-46.375163
20
17.126524
30
0
210
0
220
0
230
1
1
%%c
40
3.5
41
0
44
1.084337
50
90
71
7
72
5
7
iso_b_vert
0
LINE
5
11D
100
AcDbEntity
8
SK2
62
256
6
ByLayer
370
13
48
1
60
0
100
AcDbLine
10
-37.5875
20
-3
30
0
11
-46.625163
21
-3
31
0
39
0
210
0
220
0
230
1
0
LINE
5
11E
100
AcDbEntity
8
SK2
62
256
6
ByLayer
370
13
48
1
60
0
100
AcDbLine
10
-37.5875
20
3
30
0
11
-46.625163
21
3
31
0
39
0
210
0
220
0
230
1
0
LINE
5
11F
100
AcDbEntity
8
SK2
62
256
6
ByLayer
370
13
48
1
60
0
100
AcDbLine
10
-44.625163
20
32.121549
30
0
11
-44.625163
21
-11.75
31
0
39
0
210
0
220
0
230
1
0
SOLID
5
120
100
AcDbEntity
8
SK2
62
256
6
ByLayer
370
13
48
1
60
0
100
AcDbTrace
10
-44.625163
20
-3
30
0
11
-44.164379
21
-6.499998
31
0
12
-45.085946
22
-6.500002
32
0
13
-44.625163
23
-3
33
0
39
0
210
0
220
0
230
1
0
SOLID
5
121
100
AcDbEntity
8
SK2
62
256
6
ByLayer
370
13
48
1
60
0
100
AcDbTrace
10
-44.625163
20
3
30
0
11
-45.085946
21
6.499998
31
0
12
-44.164379
22
6.500002
32
0
13
-44.625163
23
3
33
0
39
0
210
0
220
0
230
1
0
ENDBLK
5
123
100
AcDbEntity
8
0
100
AcDbBlockEnd
0
BLOCK
5
12D
100
AcDbEntity
8
0
100
AcDbBlockBegin
2
DimnDraft3D7
70
0
10
0
20
0
30
0
3
DimnDraft3D7
0
MTEXT
5
126
100
AcDbEntity
8
2
62
256
6
ByLayer
370
13
48
1
60
0
100
AcDbMText
10
40.333343
20
20.442266
30
0
210
0
220
0
230
1
1
\W0.7317;5,000
40
3.5
41
0
44
1.084337
50
90
71
7
72
5
7
iso_b_vert
0
MTEXT
5
127
100
AcDbEntity
8
2
62
256
6
ByLayer
370
13
48
1
60
0
100
AcDbMText
10
40.333343
20
15.21961
30
0
210
0
220
0
230
1
1
%%c
40
3.5
41
0
44
1.084337
50
90
71
7
72
5
7
iso_b_vert
0
LINE
5
128
100
AcDbEntity
8
2
62
256
6
ByLayer
370
13
48
1
60
0
100
AcDbLine
10
30.9845
20
-2.5
30
0
11
44.083343
21
-2.5
31
0
39
0
210
0
220
0
230
1
0
LINE
5
129
100
AcDbEntity
8
2
62
256
6
ByLayer
370
13
48
1
60
0
100
AcDbLine
10
30.9845
20
2.5
30
0
11
44.083343
21
2.5
31
0
39
0
210
0
220
0
230
1
0
LINE
5
12A
100
AcDbEntity
8
2
62
256
6
ByLayer
370
13
48
1
60
0
100
AcDbLine
10
42.083343
20
30.214635
30
0
11
42.083343
21
-11.25
31
0
39
0
210
0
220
0
230
1
0
SOLID
5
12B
100
AcDbEntity
8
2
62
256
6
ByLayer
370
13
48
1
60
0
100
AcDbTrace
10
42.083343
20
-2.5
30
0
11
42.544126
21
-5.999998
31
0
12
41.622559
22
-6.000002
32
0
13
42.083343
23
-2.5
33
0
39
0
210
0
220
0
230
1
0
SOLID
5
12C
100
AcDbEntity
8
2
62
256
6
ByLayer
370
13
48
1
60
0
100
AcDbTrace
10
42.083343
20
2.5
30
0
11
41.622559
21
5.999998
31
0
12
42.544126
22
6.000002
32
0
13
42.083343
23
2.5
33
0
39
0
210
0
220
0
230
1
0
ENDBLK
5
12E
100
AcDbEntity
8
0
100
AcDbBlockEnd
0
ENDSEC
0
SECTION
2
ENTITIES
0
ARC
5
9A
100
AcDbEntity
8
1
62
256
6
ByLayer
370
18
48
1
60
0
100
AcDbCircle
39
0
10
0
20
2.2
30
0
40
0.799999999999999
210
0
220
0
230
1
100
AcDbArc
50
42.590755
51
90
0
ARC
5
9B
100
AcDbEntity
8
1
62
256
6
ByLayer
370
18
48
1
60
0
100
AcDbCircle
39
0
10
0
20
-2.2
30
0
40
0.799999999999999
210
0
220
0
230
1
100
AcDbArc
50
270
51
317.409245
0
ARC
5
9C
100
AcDbEntity
8
1
62
256
6
ByLayer
370
18
48
1
60
0
100
AcDbCircle
39
0
10
-1.17793
20
-3.282811
30
0
40
0.799999999999999
210
0
220
0
230
-1
100
AcDbArc
50
42.590755
51
90
0
ARC
5
9D
100
AcDbEntity
8
1
62
256
6
ByLayer
370
18
48
1
60
0
100
AcDbCircle
39
0
10
-1.17793
20
3.282811
30
0
40
0.799999999999999
210
0
220
0
230
-1
100
AcDbArc
50
270
51
317.409245
0
ELLIPSE
5
9E
100
AcDbEntity
8
1
62
256
6
ByLayer
370
18
48
1
60
0
100
AcDbEllipse
10
4.25
20
2.610597
30
0
11
0.25
21
0
31
0
210
0
220
0
230
1
40
1
41
-2.5897935079304
42
-1.56323333692717
0
ELLIPSE
5
9F
100
AcDbEntity
8
1
62
256
6
ByLayer
370
18
48
1
60
0
100
AcDbEllipse
10
4.25
20
-2.610597
30
0
11
0.25
21
0
31
0
210
0
220
0
230
1
40
1
41
1.5684385074517
42
2.58851470322678
0
ELLIPSE
5
A0
100
AcDbEntity
8
1
62
256
6
ByLayer
370
13
48
1
60
0
100
AcDbEllipse
10
4.250223
20
0.173628
30
0
11
0.0426183053557274
21
0.0904636946437961
31
0
210
0
220
0
230
1
40
0.031251
41
3.11156984880628
42
-1.63354972960431
0
ELLIPSE
5
A1
100
AcDbEntity
8
1
62
256
6
ByLayer
370
13
48
1
60
0
100
AcDbEllipse
10
4.18565
20
0.204706
30
0
11
-0.0443913915936166
21
-0.0896069436616504
31
0
210
0
220
0
230
1
40
0.363673
41
-1.31092183441675
42
0.0444314358002433
0
POINT
5
6C
100
AcDbEntity
8
81
62
256
6
ByLayer
370
18
48
1
60
0
100
AcDbPoint
10
30
20
0
30
0
39
0
210
0
220
0
230
1
50
360
0
POINT
5
6E
100
AcDbEntity
8
80
62
256
6
ByLayer
370
18
48
1
60
0
100
AcDbPoint
10
0
20
0
30
0
39
0
210
0
220
0
230
1
50
360
0
POINT
5
70
100
AcDbEntity
8
SK2
62
256
6
ByLayer
370
18
48
1
60
1
100
AcDbPoint
10
-36
20
-3
30
0
39
0
210
0
220
0
230
1
50
360
0
POINT
5
72
100
AcDbEntity
8
SK2
62
256
6
ByLayer
370
18
48
1
60
1
100
AcDbPoint
10
-36
20
3
30
0
39
0
210
0
220
0
230
1
50
360
0
POINT
5
73
100
AcDbEntity
8
2
62
256
6
ByLayer
370
18
48
1
60
1
100
AcDbPoint
10
29.397
20
-2.5
30
0
39
0
210
0
220
0
230
1
50
360
0
POINT
5
75
100
AcDbEntity
8
2
62
256
6
ByLayer
370
18
48
1
60
1
100
AcDbPoint
10
29.397
20
2.5
30
0
39
0
210
0
220
0
230
1
50
360
0
SPLINE
5
A2
100
AcDbEntity
8
1
62
256
6
ByLayer
370
18
48
1
60
0
100
AcDbSpline
70
4
71
2
72
6
73
3
40
0
40
0
40
0
40
1
40
1
40
1
41
1
10
4.25123876542361
20
-2.35938593479113
30
0
41
1
10
4.44222633390183
20
-2.36101968640298
30
0
41
1
10
4.63335026523279
20
-2.36133492926021
30
0
0
SPLINE
5
A3
100
AcDbEntity
8
1
62
256
6
ByLayer
370
18
48
1
60
0
100
AcDbSpline
70
4
71
3
72
22
73
18
40
0
40
0
40
0
40
0
40
0.0957161324140529
40
0.172375232392143
40
0.224041679641833
40
0.263783092710874
40
0.305451949282529
40
0.409400445789221
40
0.503804654594185
40
0.56614709137555
40
0.641601040368034
40
0.728613444872759
40
0.77885850786013
40
0.830795570826223
40
0.900162386825118
40
0.988664445498209
40
1
40
1
40
1
40
1
41
1
10
12.7950052647884
20
-2.36468023395577
30
0
41
1
10
13.0354114213463
20
-2.36464897952166
30
0
41
1
10
13.4685024537262
20
-2.36479354108352
30
0
41
1
10
14.0320873051572
20
-2.3648294111774
30
0
41
1
10
14.4546180424406
20
-2.36590011944594
30
0
41
1
10
14.7888417059346
20
-2.36599142117814
30
0
41
1
10
15.2549981100844
20
-2.36569261320173
30
0
41
1
10
15.8586140638772
20
-2.36664722728202
30
0
41
1
10
16.5142264394632
20
-2.36586400366056
30
0
41
1
10
17.0981764782908
20
-2.36670554123649
30
0
41
1
10
17.6635388293681
20
-2.36759034789142
30
0
41
1
10
18.1984748547763
20
-2.36601414854849
30
0
41
1
10
18.6742678444075
20
-2.36726364003641
30
0
41
1
10
19.1056876548166
20
-2.36732160120889
30
0
41
1
10
19.6333015888316
20
-2.36919310097261
30
0
41
1
10
20.0588394984563
20
-2.36712444406635
30
0
41
1
10
20.3099028998091
20
-2.36755134364393
30
0
41
1
10
20.3384085327529
20
-2.36760298434908
30
0
0
SPLINE
5
A4
100
AcDbEntity
8
1
62
256
6
ByLayer
370
18
48
1
60
0
100
AcDbSpline
70
4
71
2
72
6
73
3
40
0
40
0
40
0
40
1
40
1
40
1
41
1
10
28.9825563404498
20
-2.37358718021415
30
0
41
1
10
29.1654742087687
20
-2.37344792897113
30
0
41
1
10
29.348270022439
20
-2.37351012860486
30
0
0
SPLINE
5
A5
100
AcDbEntity
8
1
62
256
6
ByLayer
370
18
48
1
60
0
100
AcDbSpline
70
4
71
3
72
18
73
14
40
0
40
0
40
0
40
0
40
0.089102411330813
40
0.157638587116766
40
0.235143942526811
40
0.312745084995591
40
0.389616113272984
40
0.461887328115928
40
0.538610370299964
40
0.698107247797382
40
0.86796691138243
40
0.929615925341888
40
1
40
1
40
1
40
1
41
1
10
20.2937592190198
20
2.36727925456174
30
0
41
1
10
20.1122552286382
20
2.36775885581042
30
0
41
1
10
19.7911930619886
20
2.3682874576848
30
0
41
1
10
19.311971672501
20
2.36775674339728
30
0
41
1
10
18.8572041763684
20
2.36747074115101
30
0
41
1
10
18.384485679057
20
2.36630870926854
30
0
41
1
10
17.9225935081383
20
2.36677963323137
30
0
41
1
10
17.462472588166
20
2.36746418406258
30
0
41
1
10
16.8340103015708
20
2.36596260063561
30
0
41
1
10
16.0067372776802
20
2.36679146880167
30
0
41
1
10
15.2101776992156
20
2.36564235629558
30
0
41
1
10
14.5951518825232
20
2.36612300603025
30
0
41
1
10
14.3261919331538
20
2.36566381007359
30
0
41
1
10
14.1828082758959
20
2.36546649314988
30
0
0
SPLINE
5
A6
100
AcDbEntity
8
1
62
256
6
ByLayer
370
18
48
1
60
0
100
AcDbSpline
70
4
71
2
72
6
73
3
40
0
40
0
40
0
40
1
40
1
40
1
41
1
10
4.63899675809967
20
2.36135404620978
30
0
41
1
10
4.44504857301979
20
2.36103898500585
30
0
41
1
10
4.25123876548042
20
2.35938593478983
30
0
0
SPLINE
5
A7
100
AcDbEntity
8
1
62
256
6
ByLayer
370
18
48
1
60
0
100
AcDbSpline
70
4
71
3
72
8
73
4
40
0
40
0
40
0
40
0
40
1
40
1
40
1
40
1
41
1
10
4.1427495661809
20
0.114470463419906
30
0
41
1
10
4.16330034387346
20
0.104275964178697
30
0
41
1
10
4.18517429626371
20
0.0937948382476179
30
0
41
1
10
4.20753914581547
20
0.0832454683250887
30
0
0
SPLINE
5
A8
100
AcDbEntity
8
1
62
256
6
ByLayer
370
18
48
1
60
0
100
AcDbSpline
70
4
71
3
72
8
73
4
40
0
40
0
40
0
40
0
40
1
40
1
40
1
40
1
41
1
10
29.3813781560298
20
-1.30164030392405
30
0
41
1
10
29.3069436614738
20
-1.46594142596686
30
0
41
1
10
29.2334556026472
20
-1.63105361640549
30
0
41
1
10
29.1609191539882
20
-1.79698130958582
30
0
0
SPLINE
5
A9
100
AcDbEntity
8
1
62
256
6
ByLayer
370
18
48
1
60
0
100
AcDbSpline
70
4
71
3
72
8
73
4
40
0
40
0
40
0
40
0
40
1
40
1
40
1
40
1
41
1
10
29.9984606897676
20
-0.312059249479887
30
0
41
1
10
29.9977759971065
20
-0.234586274559632
30
0
41
1
10
29.9967751146693
20
-0.157137271976296
30
0
41
1
10
29.9954581282211
20
-0.0797122352275323
30
0
0
SPLINE
5
AA
100
AcDbEntity
8
1
62
256
6
ByLayer
370
18
48
1
60
0
100
AcDbSpline
70
4
71
3
72
8
73
4
40
0
40
0
40
0
40
0
40
1
40
1
40
1
40
1
41
1
10
7.89090640087471
20
1.83442945357689
30
0
41
1
10
7.83730686192175
20
1.81702759607518
30
0
41
1
10
7.78360956706999
20
1.79945972059909
30
0
41
1
10
7.7298109006729
20
1.7817538215098
30
0
0
SPLINE
5
AB
100
AcDbEntity
8
1
62
256
6
ByLayer
370
18
48
1
60
0
100
AcDbSpline
70
4
71
3
72
10
73
6
40
0
40
0
40
0
40
0
40
0.5
40
0.5
40
1
40
1
40
1
40
1
41
1
10
4.10752226533148
20
0.13538840212982
30
0
41
1
10
4.08644080936307
20
0.149988062544423
30
0
41
1
10
4.0683937891618
20
0.168373991894583
30
0
41
1
10
4.04195712054923
20
0.211775309314021
30
0
41
1
10
4.03371338205645
20
0.236642700170762
30
0
41
1
10
4.03372162551051
20
0.26227584376781
30
0
0
SPLINE
5
AC
100
AcDbEntity
8
1
62
256
6
ByLayer
370
18
48
1
60
0
100
AcDbSpline
70
4
71
3
72
34
73
30
40
0
40
0
40
0
40
0
40
0.0624999999999979
40
0.0624999999999979
40
0.124999999999996
40
0.124999999999996
40
0.187499999999994
40
0.187499999999994
40
0.249999999999992
40
0.249999999999992
40
0.31249999999999
40
0.31249999999999
40
0.374999999999987
40
0.374999999999987
40
0.49999999999999
40
0.49999999999999
40
0.624999999999992
40
0.624999999999992
40
0.687499999999994
40
0.687499999999994
40
0.749999999999995
40
0.749999999999995
40
0.812499999999997
40
0.812499999999997
40
0.874999999999998
40
0.874999999999998
40
0.937499999999999
40
0.937499999999999
40
1
40
1
40
1
40
1
41
1
10
29.640446799968
20
-0.741145367818604
30
0
41
1
10
29.6465899698235
20
-0.748636568282848
30
0
41
1
10
29.6515381908656
20
-0.759659581297342
30
0
41
1
10
29.658824403811
20
-0.789343936052973
30
0
41
1
10
29.6611029077552
20
-0.808172188709307
30
0
41
1
10
29.6624167594785
20
-0.851863200193662
30
0
41
1
10
29.6614775196887
20
-0.877445153026855
30
0
41
1
10
29.6562491782245
20
-0.933522764952357
30
0
41
1
10
29.6520399573709
20
-0.963707933300014
30
0
41
1
10
29.6403689258754
20
-1.02820066839706
30
0
41
1
10
29.6331916699083
20
-1.06096656419172
30
0
41
1
10
29.6163331692804
20
-1.12749088438673
30
0
41
1
10
29.6068321143494
20
-1.16044929517551
30
0
41
1
10
29.5762747067137
20
-1.25558212982418
30
0
41
1
10
29.5531208363566
20
-1.31395112370052
30
0
41
1
10
29.5077142989451
20
-1.40819925582377
30
0
41
1
10
29.4851217181544
20
-1.44496760679561
30
0
41
1
10
29.4545256434811
20
-1.48039124389913
30
0
41
1
10
29.4447121848385
20
-1.4890727796207
30
0
41
1
10
29.4268348353348
20
-1.49925927346524
30
0
41
1
10
29.4186558838458
20
-1.50093660179323
30
0
41
1
10
29.4039057758768
20
-1.4969204372691
30
0
41
1
10
29.3975648912425
20
-1.49125279242708
30
0
41
1
10
29.3871492342129
20
-1.47257519783116
30
0
41
1
10
29.3830060866938
20
-1.45925699624456
30
0
41
1
10
29.3775670606221
20
-1.4256468660904
30
0
41
1
10
29.3762089045248
20
-1.40548319199553
30
0
41
1
10
29.376502589661
20
-1.35770960463108
30
0
41
1
10
29.3781785152053
20
-1.33082985713497
30
0
41
1
10
29.3813781560298
20
-1.30164030392402
30
0
0
SPLINE
5
AD
100
AcDbEntity
8
1
62
256
6
ByLayer
370
18
48
1
60
0
100
AcDbSpline
70
4
71
3
72
16
73
12
40
0
40
0
40
0
40
0
40
0.280576799929377
40
0.280576799929377
40
0.561153599858754
40
0.561153599858754
40
0.701441999823443
40
0.701441999823443
40
0.841730399788132
40
0.841730399788132
40
1
40
1
40
1
40
1
41
1
10
29.1609191539882
20
-1.79698130958582
30
0
41
1
10
29.1631678499853
20
-1.89624794606146
30
0
41
1
10
29.1697017505067
20
-1.98345677408372
30
0
41
1
10
29.1914133091515
20
-2.13409754509882
30
0
41
1
10
29.2067400605104
20
-2.19751721967003
30
0
41
1
10
29.2359451419472
20
-2.27118515853434
30
0
41
1
10
29.2467811835945
20
-2.29235434046223
30
0
41
1
10
29.270257629997
20
-2.32728719968509
30
0
41
1
10
29.2829226228473
20
-2.34115123574625
30
0
41
1
10
29.3118472156039
20
-2.36325464699439
30
0
41
1
10
29.3283515208605
20
-2.37057288607159
30
0
41
1
10
29.3460805164408
20
-2.37347236868951
30
0
0
SPLINE
5
AE
100
AcDbEntity
8
1
62
256
6
ByLayer
370
18
48
1
60
0
100
AcDbSpline
70
4
71
3
72
10
73
6
40
0
40
0
40
0
40
0
40
0.5
40
0.5
40
1
40
1
40
1
40
1
41
1
10
29.9999892964661
20
0.0260218167534845
30
0
41
1
10
29.9980725750695
20
0.0151700968214072
30
0
41
1
10
29.9954083160649
20
0.0035788842863553
30
0
41
1
10
29.9886308730975
20
-0.0188745664191856
30
0
41
1
10
29.9846640509823
20
-0.0291980913073928
30
0
41
1
10
29.9805451815478
20
-0.0375130475648007
30
0
0
SPLINE
5
AF
100
AcDbEntity
8
1
62
256
6
ByLayer
370
18
48
1
60
0
100
AcDbSpline
70
4
71
3
72
12
73
8
40
0
40
0
40
0
40
0
40
0.249999999999985
40
0.249999999999985
40
0.499999999999969
40
0.499999999999969
40
1
40
1
40
1
40
1
41
1
10
4.25126233725968
20
-2.35330604317718
30
0
41
1
10
4.23140344924551
20
-2.35222730115228
30
0
41
1
10
4.21145002476948
20
-2.35343534967066
30
0
41
1
10
4.17134408465347
20
-2.36108224128424
30
0
41
1
10
4.15103564001595
20
-2.36765796861678
30
0
41
1
10
4.09335953962679
20
-2.3959499893069
30
0
41
1
10
4.05797444215963
20
-2.42764212577862
30
0
41
1
10
4.03439007807162
20
-2.46763076061123
30
0
0
SPLINE
5
B0
100
AcDbEntity
8
1
62
256
6
ByLayer
370
18
48
1
60
0
100
AcDbSpline
70
4
71
3
72
8
73
4
40
0
40
0
40
0
40
0
40
1
40
1
40
1
40
1
41
1
10
29.5016086579535
20
2.4098402908466
30
0
41
1
10
29.4589678108274
20
2.4492986922094
30
0
41
1
10
29.419474824733
20
2.47599050247234
30
0
41
1
10
29.3829725696331
20
2.48957232014053
30
0
0
SPLINE
5
B1
100
AcDbEntity
8
1
62
256
6
ByLayer
370
18
48
1
60
0
100
AcDbSpline
70
4
71
3
72
8
73
4
40
0
40
0
40
0
40
0
40
1
40
1
40
1
40
1
41
1
10
29.989149267143
20
0.598330423145256
30
0
41
1
10
29.9926972087951
20
0.502876120837527
30
0
41
1
10
29.9958010000701
20
0.407452397406303
30
0
41
1
10
29.9984606897677
20
0.312059249491853
30
0
0
SPLINE
5
B2
100
AcDbEntity
8
1
62
256
6
ByLayer
370
18
48
1
60
0
100
AcDbSpline
70
4
71
3
72
58
73
54
40
0
40
0
40
0
40
0
40
0.0076791888731135
40
0.0076791888731135
40
0.0444318115074419
40
0.0444318115074419
40
0.0811844341417705
40
0.0811844341417705
40
0.117937056776099
40
0.117937056776099
40
0.191442302044755
40
0.191442302044755
40
0.228194924679084
40
0.228194924679084
40
0.264947547313412
40
0.264947547313412
40
0.301700169947741
40
0.301700169947741
40
0.338452792582069
40
0.338452792582069
40
0.411958037850727
40
0.411958037850727
40
0.448710660485057
40
0.448710660485057
40
0.485463283119386
40
0.485463283119386
40
0.522215905753716
40
0.522215905753716
40
0.558968528388045
40
0.558968528388045
40
0.595721151022375
40
0.595721151022375
40
0.632473773656704
40
0.632473773656704
40
0.669226396291034
40
0.669226396291034
40
0.705979018925364
40
0.705979018925364
40
0.742731641559693
40
0.742731641559693
40
0.779484264194023
40
0.779484264194023
40
0.816236886828352
40
0.816236886828352
40
0.852989509462682
40
0.852989509462682
40
0.889742132097011
40
0.889742132097011
40
0.926494754731341
40
0.926494754731341
40
0.96324737736567
40
0.96324737736567
40
1
40
1
40
1
40
1
41
1
10
24.079956116977
20
-1.7878905309563
30
0
41
1
10
24.037994708365
20
-1.8002554478586
30
0
41
1
10
23.9960460162162
20
-1.81244843964652
30
0
41
1
10
23.7534536813095
20
-1.88204392089301
30
0
41
1
10
23.5529167502653
20
-1.93640705445597
30
0
41
1
10
23.1518665503149
20
-2.03690867957212
30
0
41
1
10
22.9514939932687
20
-2.0829350401479
30
0
41
1
10
22.5499841852817
20
-2.16358465169802
30
0
41
1
10
22.3486325861267
20
-2.198222912527
30
0
41
1
10
21.7462269958833
20
-2.29045850615285
30
0
41
1
10
21.3455161212427
20
-2.33392087625376
30
0
41
1
10
20.7429409665888
20
-2.36263053167994
30
0
41
1
10
20.5416750432818
20
-2.36733679523306
30
0
41
1
10
20.1398687355667
20
-2.36738220976389
30
0
41
1
10
19.9393082018603
20
-2.36241381970163
30
0
41
1
10
19.5381383999558
20
-2.34116983528682
30
0
41
1
10
19.3373844631267
20
-2.32458161971749
30
0
41
1
10
18.9355069764463
20
-2.28159335083149
30
0
41
1
10
18.7343452048984
20
-2.25501123756155
30
0
41
1
10
18.1315998966524
20
-2.16004357647825
30
0
41
1
10
17.7308849499875
20
-2.078949174126
30
0
41
1
10
17.1279788062881
20
-1.92796757577193
30
0
41
1
10
16.926606765312
20
-1.87265708533988
30
0
41
1
10
16.5247812732066
20
-1.7549396269371
30
0
41
1
10
16.3239528728243
20
-1.69271001638845
30
0
41
1
10
15.9224470776045
20
-1.56033696224003
30
0
41
1
10
15.7217970859661
20
-1.48997309880787
30
0
41
1
10
15.3198090897507
20
-1.34341443890256
30
0
41
1
10
15.1183323743717
20
-1.267171189311
30
0
41
1
10
14.716448897324
20
-1.10929566461087
30
0
41
1
10
14.5158259026995
20
-1.02769718016901
30
0
41
1
10
14.1142529684609
20
-0.860240765567596
30
0
41
1
10
13.9134395803603
20
-0.774184984262007
30
0
41
1
10
13.5116044218325
20
-0.599261590515056
30
0
41
1
10
13.3102387837226
20
-0.510385814369045
30
0
41
1
10
12.908318358291
20
-0.33090149357281
30
0
41
1
10
12.7077581678555
20
-0.239941786654043
30
0
41
1
10
12.3063933179252
20
-0.0579444447480455
30
0
41
1
10
12.1056398896618
20
0.0331594374750637
30
0
41
1
10
11.7038374438554
20
0.215395489023507
30
0
41
1
10
11.5025518599078
20
0.306475731904328
30
0
41
1
10
11.1005958135169
20
0.48643348637853
30
0
41
1
10
10.8998785096604
20
0.575446171440746
30
0
41
1
10
10.498779100155
20
0.750870727127534
30
0
41
1
10
10.298126372592
20
0.836548098465954
30
0
41
1
10
9.89632361572467
20
1.00369642432091
30
0
41
1
10
9.69515655356341
20
1.08587314859389
30
0
41
1
10
9.29313475637812
20
1.24511256172471
30
0
41
1
10
9.0923425769048
20
1.32195930628904
30
0
41
1
10
8.69107866306166
20
1.46870916895145
30
0
41
1
10
8.4906047780859
20
1.53850404425984
30
0
41
1
10
8.08914766329988
20
1.67187491062515
30
0
41
1
10
7.88821662186717
20
1.73525334622201
30
0
41
1
10
7.68707817056711
20
1.79490072802344
30
0
0
SPLINE
5
B3
100
AcDbEntity
8
1
62
256
6
ByLayer
370
18
48
1
60
0
100
AcDbSpline
70
4
71
3
72
8
73
4
40
0
40
0
40
0
40
0
40
1
40
1
40
1
40
1
41
1
10
29.3905018212619
20
-2.46277697785376
30
0
41
1
10
29.3879947264235
20
-2.47171011928634
30
0
41
1
10
29.3854849654892
20
-2.480641921711
30
0
41
1
10
29.3829725696331
20
-2.48957232014053
30
0
0
SPLINE
5
B4
100
AcDbEntity
8
1
62
256
6
ByLayer
370
18
48
1
60
0
100
AcDbSpline
70
4
71
3
72
14
73
10
40
0
40
0
40
0
40
0
40
0.254984173591914
40
0.254984173591914
40
0.463729725828154
40
0.463729725828154
40
0.672475278064393
40
0.672475278064393
40
1
40
1
40
1
40
1
41
1
10
13.0547908684165
20
-2.36179486837597
30
0
41
1
10
12.7366660525189
20
-2.3689036902272
30
0
41
1
10
12.4188925197465
20
-2.36277928696291
30
0
41
1
10
11.8400514538714
20
-2.32747056112083
30
0
41
1
10
11.5791216846881
20
-2.30271430857351
30
0
41
1
10
11.0555833299691
20
-2.23585665224857
30
0
41
1
10
10.7926724136812
20
-2.19373104873614
30
0
41
1
10
10.1154374069561
20
-2.0638117440823
30
0
41
1
10
9.70340794936308
20
-1.96430369766162
30
0
41
1
10
9.29085089748995
20
-1.84738516501892
30
0
0
SPLINE
5
B5
100
AcDbEntity
8
1
62
256
6
ByLayer
370
13
48
1
60
0
100
AcDbSpline
70
4
71
3
72
14
73
10
40
0
40
0
40
0
40
0
40
0.0670172525025281
40
0.0670172525025281
40
0.222514377085442
40
0.222514377085442
40
0.378011501668356
40
0.378011501668356
40
1
40
1
40
1
40
1
41
1
10
9.29085185958408
20
-1.84738543767605
30
0
41
1
10
9.17752798500598
20
-1.81526949631035
30
0
41
1
10
9.06416430213758
20
-1.78183988654067
30
0
41
1
10
8.68749013391664
20
-1.66667257415705
30
0
41
1
10
8.42326046962052
20
-1.57912798900904
30
0
41
1
10
7.89836105938309
20
-1.39362441503602
30
0
41
1
10
7.63704117589668
20
-1.29572977134748
30
0
41
1
10
6.33376197068182
20
-0.785377759808995
30
0
41
1
10
5.30244066465312
20
-0.308700719047607
30
0
41
1
10
4.25037189554783
20
0.166626012067951
30
0
0
SPLINE
5
B6
100
AcDbEntity
8
1
62
256
6
ByLayer
370
18
48
1
60
0
100
AcDbSpline
70
4
71
3
72
8
73
4
40
0
40
0
40
0
40
0
40
1
40
1
40
1
40
1
41
1
10
29.3829725696331
20
2.48957232014053
30
0
41
1
10
29.2245115656766
20
2.49641183982695
30
0
41
1
10
29.0661806896728
20
2.49975836937259
30
0
41
1
10
28.9078682804698
20
2.49963081992237
30
0
0
SPLINE
5
B7
100
AcDbEntity
8
1
62
256
6
ByLayer
370
18
48
1
60
0
100
AcDbSpline
70
4
71
3
72
24
73
20
40
0
40
0
40
0
40
0
40
0.0548178999460346
40
0.0548178999460346
40
0.212348249955027
40
0.212348249955027
40
0.291113424959524
40
0.291113424959524
40
0.369878599964021
40
0.369878599964021
40
0.527408949973016
40
0.527408949973016
40
0.68493929998201
40
0.68493929998201
40
0.763704474986508
40
0.763704474986508
40
0.842469649991006
40
0.842469649991006
40
1
40
1
40
1
40
1
41
1
10
14.1585664251341
20
-2.37370243387895
30
0
41
1
10
13.9761937794823
20
-2.40000119890797
30
0
41
1
10
13.7940956316503
20
-2.42189024342699
30
0
41
1
10
13.0890593631434
20
-2.48927128259189
30
0
41
1
10
12.5666140038763
20
-2.50209431836441
30
0
41
1
10
11.7776203988148
20
-2.46407656087001
30
0
41
1
10
11.513461599873
20
-2.44183499673147
30
0
41
1
10
10.9832092873687
20
-2.3783448931556
30
0
41
1
10
10.719487854503
20
-2.33740149475599
30
0
41
1
10
9.93092085086761
20
-2.18877819335725
30
0
41
1
10
9.40873127438903
20
-2.05514400114234
30
0
41
1
10
8.36204734823366
20
-1.73042281330797
30
0
41
1
10
7.83796752213235
20
-1.53874512919188
30
0
41
1
10
7.04356631302616
20
-1.21754574665064
30
0
41
1
10
6.77833213569903
20
-1.10513561616705
30
0
41
1
10
6.25060568893605
20
-0.873778103259383
30
0
41
1
10
5.9874092024923
20
-0.754570251618418
30
0
41
1
10
5.19816930604981
20
-0.389743896486806
30
0
41
1
10
4.67224337401672
20
-0.137397351231272
30
0
41
1
10
4.14232208991453
20
0.115219132306692
30
0
0
SPLINE
5
B8
100
AcDbEntity
8
1
62
256
6
ByLayer
370
18
48
1
60
0
100
AcDbSpline
70
4
71
3
72
8
73
4
40
0
40
0
40
0
40
0
40
1
40
1
40
1
40
1
41
1
10
29.1305782487024
20
0.627201915364282
30
0
41
1
10
29.4168668929995
20
0.616369598117757
30
0
41
1
10
29.7030664300017
20
0.606700191496742
30
0
41
1
10
29.9891492671409
20
0.598330423145399
30
0
0
SPLINE
5
B9
100
AcDbEntity
8
1
62
256
6
ByLayer
370
18
48
1
60
0
100
AcDbSpline
70
4
71
3
72
14
73
10
40
0
40
0
40
0
40
0
40
0.425541253662612
40
0.425541253662612
40
0.638311880493918
40
0.638311880493918
40
0.851082507325224
40
0.851082507325224
40
1
40
1
40
1
40
1
41
1
10
29.3894011510209
20
-2.3722688042437
30
0
41
1
10
28.8638477506607
20
-2.3834242662889
30
0
41
1
10
28.3408492263953
20
-2.35780490610091
30
0
41
1
10
27.5544579287037
20
-2.26701623366199
30
0
41
1
10
27.2920442321918
20
-2.22802880979032
30
0
41
1
10
26.7655763176357
20
-2.13284808704682
30
0
41
1
10
26.5021353600993
20
-2.07683916492058
30
0
41
1
10
26.0555061413572
20
-1.96877485610079
30
0
41
1
10
25.8717212354537
20
-1.92053477034443
30
0
41
1
10
25.6879025701666
20
-1.8688093246887
30
0
0
SPLINE
5
BA
100
AcDbEntity
8
1
62
256
6
ByLayer
370
13
48
1
60
0
100
AcDbSpline
70
4
71
3
72
18
73
14
40
0
40
0
40
0
40
0
40
0.123688399043016
40
0.123688399043016
40
0.313963036248869
40
0.313963036248869
40
0.504237673454721
40
0.504237673454721
40
0.599374992057647
40
0.599374992057647
40
0.694512310660574
40
0.694512310660574
40
1
40
1
40
1
40
1
41
1
10
25.6879031662406
20
-1.86880949242024
30
0
41
1
10
25.3464480477947
20
-1.77272612907026
30
0
41
1
10
25.004876441503
20
-1.66461636408698
30
0
41
1
10
24.1352938728327
20
-1.36392488048912
30
0
41
1
10
23.6135064639168
20
-1.15946204998187
30
0
41
1
10
22.572062781851
20
-0.723785620779239
30
0
41
1
10
22.052452806021
20
-0.492326451631016
30
0
41
1
10
21.2688512066331
20
-0.137350311447307
30
0
41
1
10
21.006923083914
20
-0.0177948939022485
30
0
41
1
10
20.4806227535572
20
0.221547509573838
30
0
41
1
10
20.2171372033428
20
0.341018850667581
30
0
41
1
10
19.1137853307864
20
0.833622510246357
30
0
41
1
10
18.2806753379126
20
1.1869381874393
30
0
41
1
10
17.4393178326913
20
1.4848599986253
30
0
0
SPLINE
5
BB
100
AcDbEntity
8
1
62
256
6
ByLayer
370
18
48
1
60
0
100
AcDbSpline
70
4
71
3
72
27
73
23
40
0
40
0
40
0
40
0
40
0.067348276854747
40
0.067348276854747
40
0.134696553709494
40
0.134696553709494
40
0.269393107418988
40
0.269393107418988
40
0.404089661128482
40
0.404089661128482
40
0.538786214837976
40
0.538786214837976
40
0.606134491692723
40
0.606134491692723
40
0.67348276854747
40
0.740831045402217
40
0.740831045402217
40
0.808179322256964
40
0.808179322256964
40
0.942875875966458
40
0.942875875966458
40
1
40
1
40
1
40
1
41
1
10
4.03372162551062
20
0.262275843767839
30
0
41
1
10
4.03374791086034
20
0.344010531215361
30
0
41
1
10
4.03377301358964
20
0.425098347791163
30
0
41
1
10
4.03382118638868
20
0.585981794814813
30
0
41
1
10
4.03384434036417
20
0.666090528225396
30
0
41
1
10
4.0339102004308
20
0.900699827731614
30
0
41
1
10
4.03394960726482
20
1.05036203977434
30
0
41
1
10
4.03402256313254
20
1.33641026132051
30
0
41
1
10
4.03405631713059
20
1.47368948521108
30
0
41
1
10
4.03411787999846
20
1.72327420458905
30
0
41
1
10
4.03414605581742
20
1.8370136642331
30
0
41
1
10
4.03418600583092
20
1.99073924966149
30
0
41
1
10
4.03419894727807
20
2.03919769369926
30
0
41
1
10
4.03422365413593
20
2.12827432925059
30
0
41
1
10
4.0342473352475
20
2.21010631471307
30
0
41
1
10
4.03426922827842
20
2.27770302871323
30
0
41
1
10
4.0342902566241
20
2.33810025131265
30
0
41
1
10
4.03430038143421
20
2.36479829820294
30
0
41
1
10
4.0343290430657
20
2.43293690002813
30
0
41
1
10
4.03434570225414
20
2.4621311343825
30
0
41
1
10
4.03436520444461
20
2.48129349508579
30
0
41
1
10
4.03437046973477
20
2.48414863503552
30
0
41
1
10
4.03437510157005
20
2.48408242490453
30
0
0
SPLINE
5
BC
100
AcDbEntity
8
1
62
256
6
ByLayer
370
18
48
1
60
0
100
AcDbSpline
70
4
71
3
72
18
73
14
40
0
40
0
40
0
40
0
40
0.175116195245549
40
0.175116195245549
40
0.350232390491098
40
0.350232390491098
40
0.525348585736646
40
0.525348585736646
40
0.700464780982195
40
0.700464780982195
40
0.875580976227744
40
0.875580976227744
40
1
40
1
40
1
40
1
41
1
10
7.89064105572578
20
-1.83434402357176
30
0
41
1
10
8.11613666695149
20
-1.90763405669381
30
0
41
1
10
8.34163726074138
20
-1.97481349273599
30
0
41
1
10
8.79190936476149
20
-2.09828197940462
30
0
41
1
10
9.01643712853036
20
-2.15474031306465
30
0
41
1
10
9.46673865110625
20
-2.25441502512837
30
0
41
1
10
9.69216569896309
20
-2.29812069023563
30
0
41
1
10
10.1433073741826
20
-2.37291190653579
30
0
41
1
10
10.3686332022208
20
-2.40342700642978
30
0
41
1
10
10.818868904933
20
-2.45096051393003
30
0
41
1
10
11.0433728106369
20
-2.4680580101853
30
0
41
1
10
11.4284565642189
20
-2.48518550966915
30
0
41
1
10
11.5885929206214
20
-2.48881623066313
30
0
41
1
10
11.7487939830332
20
-2.48890797359272
30
0
0
SPLINE
5
BD
100
AcDbEntity
8
1
62
256
6
ByLayer
370
18
48
1
60
0
100
AcDbSpline
70
4
71
3
72
24
73
20
40
0
40
0
40
0
40
0
40
0.0039842685809598
40
0.0039842685809598
40
0.12848623500834
40
0.12848623500834
40
0.25298820143572
40
0.25298820143572
40
0.3774901678631
40
0.3774901678631
40
0.50199213429048
40
0.50199213429048
40
0.62649410071786
40
0.62649410071786
40
0.75099606714524
40
0.75099606714524
40
0.87549803357262
40
0.87549803357262
40
1
40
1
40
1
40
1
41
1
10
24.08044801134
20
1.78827165089206
30
0
41
1
10
24.0876579472574
20
1.79069343279724
30
0
41
1
10
24.0948673722433
20
1.79311059904194
30
0
41
1
10
24.3273418011409
20
1.870911505469
30
0
41
1
10
24.5522379879222
20
1.94095303315854
30
0
41
1
10
25.00215765248
20
2.06940973406674
30
0
41
1
10
25.2265957273838
20
2.1285091685528
30
0
41
1
10
25.676560232709
20
2.23390809312627
30
0
41
1
10
25.9024067778047
20
2.2803736538248
30
0
41
1
10
26.352850586822
20
2.36083325156349
30
0
41
1
10
26.5776696507176
20
2.39438016026199
30
0
41
1
10
27.0274929953598
20
2.44775516031046
30
0
41
1
10
27.2518989540624
20
2.46784645523496
30
0
41
1
10
27.7017248650209
20
2.49390584228124
30
0
41
1
10
27.9275163685433
20
2.49997844006833
30
0
41
1
10
28.3779783174991
20
2.49808370582764
30
0
41
1
10
28.602744841031
20
2.49006431494308
30
0
41
1
10
29.0524690742424
20
2.46035903141112
30
0
41
1
10
29.2768195649853
20
2.4384601081434
30
0
41
1
10
29.5016086579535
20
2.40984029084663
30
0
0
SPLINE
5
BE
100
AcDbEntity
8
1
62
256
6
ByLayer
370
18
48
1
60
0
100
AcDbSpline
70
4
71
3
72
8
73
4
40
0
40
0
40
0
40
0
40
1
40
1
40
1
40
1
41
1
10
29.9939783864045
20
0.617206403671332
30
0
41
1
10
29.9959628615523
20
0.515503533690207
30
0
41
1
10
29.9974570865865
20
0.413787818876955
30
0
41
1
10
29.9984606897677
20
0.312059249491824
30
0
0
SPLINE
5
BF
100
AcDbEntity
8
1
62
256
6
ByLayer
370
13
48
1
60
0
100
AcDbSpline
70
4
71
3
72
26
73
22
40
0
40
0
40
0
40
0
40
0.134264050019662
40
0.134264050019662
40
0.201396075029493
40
0.201396075029493
40
0.268528100039324
40
0.268528100039324
40
0.402792150058986
40
0.402792150058986
40
0.469924175068817
40
0.469924175068817
40
0.537056200078648
40
0.537056200078648
40
0.671320250098311
40
0.671320250098311
40
0.805584300117973
40
0.805584300117973
40
0.939848350137635
40
0.939848350137635
40
1
40
1
40
1
40
1
41
1
10
4.25037189554783
20
0.166626012067951
30
0
41
1
10
4.25044594926965
20
0.322699437429918
30
0
41
1
10
4.25051244499952
20
0.475844626811465
30
0
41
1
10
4.25060388226612
20
0.701224407015872
30
0
41
1
10
4.25063301431504
20
0.775762741682087
30
0
41
1
10
4.25068794641044
20
0.920605451081286
30
0
41
1
10
4.25071389244812
20
0.991258976518139
30
0
41
1
10
4.25078804593289
20
1.1980122957481
30
0
41
1
10
4.25083274557025
20
1.32939470642069
30
0
41
1
10
4.25089476735866
20
1.51419048062132
30
0
41
1
10
4.25091442134561
20
1.57320169480065
30
0
41
1
10
4.25095214765366
20
1.68607681513691
30
0
41
1
10
4.25097027287029
20
1.74009305092105
30
0
41
1
10
4.25102201236706
20
1.89196234266936
30
0
41
1
10
4.25105330519526
20
1.98048138826252
30
0
41
1
10
4.25111147816332
20
2.13240264793157
30
0
41
1
10
4.25113858263092
20
2.19614153238021
30
0
41
1
10
4.25118631269743
20
2.29238246757862
30
0
41
1
10
4.25120712560403
20
2.32557400643628
30
0
41
1
10
4.25123191070196
20
2.35216643831615
30
0
41
1
10
4.25123884453186
20
2.35739961182389
30
0
41
1
10
4.25124483685664
20
2.35951882517236
30
0
0
SPLINE
5
C0
100
AcDbEntity
8
1
62
256
6
ByLayer
370
18
48
1
60
0
100
AcDbSpline
70
4
71
3
72
8
73
4
40
0
40
0
40
0
40
0
40
1
40
1
40
1
40
1
41
1
10
4.14232208991385
20
0.115219132307033
30
0
41
1
10
4.13009147266973
20
0.121049536958395
30
0
41
1
10
4.11850041955634
20
0.12778563864461
30
0
41
1
10
4.10752226533742
20
0.135388402125727
30
0
0
SPLINE
5
C1
100
AcDbEntity
8
1
62
256
6
ByLayer
370
13
48
1
60
0
100
AcDbSpline
70
4
71
3
72
8
73
4
40
0
40
0
40
0
40
0
40
1
40
1
40
1
40
1
41
1
10
4.03372162550218
20
0.262275843743993
30
0
41
1
10
4.05787165126924
20
0.234935682200302
30
0
41
1
10
4.0950603299263
20
0.211725235020452
30
0
41
1
10
4.1427495661809
20
0.197282553114036
30
0
0
SPLINE
5
C2
100
AcDbEntity
8
1
62
256
6
ByLayer
370
18
48
1
60
0
100
AcDbSpline
70
4
71
3
72
8
73
4
40
0
40
0
40
0
40
0
40
1
40
1
40
1
40
1
41
1
10
4.10752226533168
20
0.135388402125216
30
0
41
1
10
4.1185051910233
20
0.127577615172754
30
0
41
1
10
4.13021813332739
20
0.12057351296562
30
0
41
1
10
4.1427495661809
20
0.114470463419906
30
0
0
SPLINE
5
C3
100
AcDbEntity
8
1
62
256
6
ByLayer
370
18
48
1
60
0
100
AcDbSpline
70
4
71
3
72
66
73
62
40
0
40
0
40
0
40
0
40
0.0334179978463519
40
0.0334179978463519
40
0.0668359956927037
40
0.0668359956927037
40
0.100253993539056
40
0.100253993539056
40
0.133671991385407
40
0.133671991385407
40
0.167089989231759
40
0.167089989231759
40
0.200507987078111
40
0.200507987078111
40
0.233925984924463
40
0.233925984924463
40
0.267343982770815
40
0.267343982770815
40
0.300761980617167
40
0.300761980617167
40
0.334179978463519
40
0.334179978463519
40
0.367597976309871
40
0.367597976309871
40
0.401015974156222
40
0.401015974156222
40
0.434433972002574
40
0.434433972002574
40
0.467851969848926
40
0.467851969848926
40
0.501269967695278
40
0.501269967695278
40
0.53468796554163
40
0.53468796554163
40
0.568105963387982
40
0.568105963387982
40
0.601523961234333
40
0.601523961234333
40
0.634941959080685
40
0.634941959080685
40
0.668359956927037
40
0.668359956927037
40
0.701777954773389
40
0.701777954773389
40
0.735195952619741
40
0.735195952619741
40
0.768613950466093
40
0.768613950466093
40
0.802031948312445
40
0.802031948312445
40
0.835449946158797
40
0.835449946158797
40
0.868867944005148
40
0.868867944005148
40
0.9022859418515
40
0.9022859418515
40
0.935703939697852
40
0.935703939697852
40
0.969121937544204
40
0.969121937544204
40
1
40
1
40
1
40
1
41
1
10
7.89064105572578
20
1.83434402357176
30
0
41
1
10
8.11613666695149
20
1.90763405669381
30
0
41
1
10
8.34163726074141
20
1.97481349273599
30
0
41
1
10
8.79190936476149
20
2.09828197940462
30
0
41
1
10
9.01643712853036
20
2.15474031306465
30
0
41
1
10
9.46673865110625
20
2.25441502512837
30
0
41
1
10
9.69216569896309
20
2.29812069023563
30
0
41
1
10
10.1433073741826
20
2.37291190653579
30
0
41
1
10
10.3686332022208
20
2.40342700642978
30
0
41
1
10
10.818868904933
20
2.45096051393003
30
0
41
1
10
11.0433728106369
20
2.4680580101853
30
0
41
1
10
11.4936330638337
20
2.48808438673973
30
0
41
1
10
11.7191251728859
20
2.49119666907114
30
0
41
1
10
12.1701752182687
20
2.48331056083299
30
0
41
1
10
12.3954414866795
20
2.47236721530743
30
0
41
1
10
12.8456328917685
20
2.4368244854183
30
0
41
1
10
13.0701188003517
20
2.41196799903509
30
0
41
1
10
13.5203388451984
20
2.34925055865705
30
0
41
1
10
13.7458934710518
20
2.31128057413991
30
0
41
1
10
14.1968521240027
20
2.22186245873496
30
0
41
1
10
14.4220576537904
20
2.17104010933332
30
0
41
1
10
14.8722042201323
20
2.05770989155585
30
0
41
1
10
15.0966748789173
20
1.99459708096225
30
0
41
1
10
15.5468543553994
20
1.85842963766939
30
0
41
1
10
15.7724682745484
20
1.78504127049268
30
0
41
1
10
16.2233369896191
20
1.62744643701538
30
0
41
1
10
16.4484811858026
20
1.54429844767446
30
0
41
1
10
16.8985826370859
20
1.37011432785056
30
0
41
1
10
17.1230407853598
20
1.27817587592472
30
0
41
1
10
17.5731790747069
20
1.08885816611206
30
0
41
1
10
17.7988483954258
20
0.991021107445192
30
0
41
1
10
18.2496290476835
20
0.788815849253012
30
0
41
1
10
18.4747114859628
20
0.68574558385086
30
0
41
1
10
18.924767619454
20
0.476752461592525
30
0
41
1
10
19.1492161131731
20
0.36973960400087
30
0
41
1
10
19.5993124142293
20
0.155548856258235
30
0
41
1
10
19.8250326874303
20
0.0478970398367835
30
0
41
1
10
20.2757275502892
20
-0.168669849507921
30
0
41
1
10
20.500747975222
20
-0.276260051664138
30
0
41
1
10
20.950758662945
20
-0.488802100008712
30
0
41
1
10
21.175200486166
20
-0.594877836208326
30
0
41
1
10
21.6252538459411
20
-0.801910674093989
30
0
41
1
10
21.8510202216244
20
-0.90326928081933
30
0
41
1
10
22.3016318838043
20
-1.10179481556969
30
0
41
1
10
22.5265902022444
20
-1.19780518990814
30
0
41
1
10
22.9765554196435
20
-1.38209645866141
30
0
41
1
10
23.2009937303568
20
-1.47136224246955
30
0
41
1
10
23.6510031865115
20
-1.64024068557794
30
0
41
1
10
23.876810683314
20
-1.7201347963628
30
0
41
1
10
24.3273418011409
20
-1.870911505469
30
0
41
1
10
24.5522379879222
20
-1.94095303315854
30
0
41
1
10
25.00215765248
20
-2.06940973406674
30
0
41
1
10
25.2265957273838
20
-2.1285091685528
30
0
41
1
10
25.676560232709
20
-2.23390809312627
30
0
41
1
10
25.9024067778047
20
-2.2803736538248
30
0
41
1
10
26.352850586822
20
-2.36083325156349
30
0
41
1
10
26.5776696507176
20
-2.39438016026199
30
0
41
1
10
27.0274929953598
20
-2.44775516031046
30
0
41
1
10
27.2518989540623
20
-2.46784645523496
30
0
41
1
10
27.6846303527152
20
-2.492915520244
30
0
41
1
10
27.8931988709825
20
-2.49901515482279
30
0
41
1
10
28.1013822107053
20
-2.4991254565025
30
0
0
SPLINE
5
C4
100
AcDbEntity
8
1
62
256
6
ByLayer
370
18
48
1
60
0
100
AcDbSpline
70
4
71
3
72
8
73
4
40
0
40
0
40
0
40
0
40
1
40
1
40
1
40
1
41
1
10
29.9939783864045
20
0.617206403671304
30
0
41
1
10
29.9923836993945
20
0.610911126394143
30
0
41
1
10
29.9907733574188
20
0.604616196744303
30
0
41
1
10
29.9891492671429
20
0.598330423144859
30
0
0
SPLINE
5
C5
100
AcDbEntity
8
1
62
256
6
ByLayer
370
18
48
1
60
0
100
AcDbSpline
70
4
71
3
72
18
73
14
40
0
40
0
40
0
40
0
40
0.250000000000002
40
0.250000000000002
40
0.500000000000003
40
0.500000000000003
40
0.750000000000004
40
0.750000000000004
40
0.875000000000005
40
0.875000000000005
40
0.937500000000003
40
0.937500000000003
40
1
40
1
40
1
40
1
41
1
10
29.5016086579535
20
-2.4098402908466
30
0
41
1
10
29.5416220822429
20
-2.26030486783742
30
0
41
1
10
29.5816367876893
20
-2.11076171069533
30
0
41
1
10
29.6628899330085
20
-1.81181218886903
30
0
41
1
10
29.7037927244346
20
-1.66235656075091
30
0
41
1
10
29.7859263149281
20
-1.36353762733594
30
0
41
1
10
29.8273848479759
20
-1.21422491360082
30
0
41
1
10
29.8897010413442
20
-0.990288876144405
30
0
41
1
10
29.9104841793715
20
-0.915646762296859
30
0
41
1
10
29.9416842953609
20
-0.803691001332908
30
0
41
1
10
29.9520889056898
20
-0.766373779842468
30
0
41
1
10
29.9729143863452
20
-0.691744217506056
30
0
41
1
10
29.9832395841489
20
-0.654381433820276
30
0
41
1
10
29.9939783864045
20
-0.617206403671332
30
0
0
SPLINE
5
C6
100
AcDbEntity
8
1
62
256
6
ByLayer
370
18
48
1
60
0
100
AcDbSpline
70
4
71
3
72
8
73
4
40
0
40
0
40
0
40
0
40
1
40
1
40
1
40
1
41
1
10
29.9999892964641
20
0.0260218167468622
30
0
41
1
10
30.0000035678272
20
0.0086739607370703
30
0
41
1
10
30.0000035675994
20
-0.0086742377069697
30
0
41
1
10
29.9999892964642
20
-0.0260218167265123
30
0
0
SPLINE
5
C7
100
AcDbEntity
8
1
62
256
6
ByLayer
370
18
48
1
60
0
100
AcDbSpline
70
4
71
3
72
37
73
33
40
0
40
0
40
0
40
0
40
0.124999999999973
40
0.124999999999973
40
0.249999999999946
40
0.249999999999946
40
0.499999999999895
40
0.499999999999895
40
0.749999999999844
40
0.749999999999844
40
0.781249999999838
40
0.781249999999838
40
0.789062499999839
40
0.789062499999839
40
0.79687499999984
40
0.79687499999984
40
0.800781249999842
40
0.800781249999842
40
0.804687499999844
40
0.81249999999985
40
0.81249999999985
40
0.8749999999999
40
0.8749999999999
40
0.906249999999925
40
0.906249999999925
40
0.937499999999949
40
0.937499999999949
40
0.968749999999974
40
0.968749999999974
40
0.984374999999987
40
0.984374999999987
40
1
40
1
40
1
40
1
41
1
10
7.89090640087471
20
-1.83442945357689
30
0
41
1
10
7.63982779622557
20
-1.75291319084064
30
0
41
1
10
7.38660412745975
20
-1.66775398477373
30
0
41
1
10
6.87512336548434
20
-1.49590470170472
30
0
41
1
10
6.6182859926576
20
-1.40972814069485
30
0
41
1
10
5.84275311932532
20
-1.1588477936152
30
0
41
1
10
5.31887990175321
20
-1.00232619080094
30
0
41
1
10
4.25152079998375
20
-0.746631176689789
30
0
41
1
10
3.70814703462003
20
-0.647314043088272
30
0
41
1
10
3.08453946276848
20
-0.579520228648647
30
0
41
1
10
3.01504553108174
20
-0.572588731016367
30
0
41
1
10
2.92806610184863
20
-0.564709736558939
30
0
41
1
10
2.9107282916267
20
-0.562389778709729
30
0
41
1
10
2.87571122957857
20
-0.561939314708695
30
0
41
1
10
2.85799829587319
20
-0.563983034717324
30
0
41
1
10
2.83413450058225
20
-0.574121588118032
30
0
41
1
10
2.82649382989697
20
-0.578104386436848
30
0
41
1
10
2.81097596856202
20
-0.585609402899109
30
0
41
1
10
2.78774626146645
20
-0.596951048412592
30
0
41
1
10
2.76466150718255
20
-0.608551227016335
30
0
41
1
10
2.62676568924769
20
-0.679241341661395
30
0
41
1
10
2.50936074485941
20
-0.749053390012136
30
0
41
1
10
2.34775738749414
20
-0.869330583581359
30
0
41
1
10
2.29627310566832
20
-0.912082973097512
30
0
41
1
10
2.20013964271865
20
-1.00506000291233
30
0
41
1
10
2.15621008874882
20
-1.05471706969647
30
0
41
1
10
2.08195714892514
20
-1.15978995512569
30
0
41
1
10
2.05141828716859
20
-1.21597886468862
30
0
41
1
10
2.02087166679394
20
-1.30084083135944
30
0
41
1
10
2.01308350543852
20
-1.32939938335136
30
0
41
1
10
2.00261431250695
20
-1.38704542870624
30
0
41
1
10
2.00000015220016
20
-1.41613907005089
30
0
41
1
10
2.00000015219828
20
-1.44437838392707
30
0
0
SPLINE
5
C8
100
AcDbEntity
8
1
62
256
6
ByLayer
370
18
48
1
60
0
100
AcDbSpline
70
4
71
3
72
16
73
12
40
0
40
0
40
0
40
0
40
0.176177453365331
40
0.176177453365331
40
0.352354906730662
40
0.352354906730662
40
0.704709813461328
40
0.704709813461328
40
0.880887266826661
40
0.880887266826661
40
1
40
1
40
1
40
1
41
1
10
4.20753914581547
20
0.0832454683250887
30
0
41
1
10
4.47181927403653
20
-0.0414139365736617
30
0
41
1
10
4.73572323874038
20
-0.166147421671298
30
0
41
1
10
5.26055450957912
20
-0.412303668618847
30
0
41
1
10
5.52195271729181
20
-0.53392087851671
30
0
41
1
10
6.30481212966922
20
-0.890862841359933
30
0
41
1
10
6.8250083658983
20
-1.11804543839531
30
0
41
1
10
7.6089778160308
20
-1.43013733819504
30
0
41
1
10
7.87088861658469
20
-1.52944440020238
30
0
41
1
10
8.31168438809854
20
-1.68636395466433
30
0
41
1
10
8.49026628910903
20
-1.74701602735098
30
0
41
1
10
8.66877700192336
20
-1.80444792981086
30
0
0
SPLINE
5
C9
100
AcDbEntity
8
1
62
256
6
ByLayer
370
13
48
1
60
0
100
AcDbSpline
70
4
71
3
72
16
73
12
40
0
40
0
40
0
40
0
40
0.0482833810910892
40
0.0482833810910892
40
0.346417009652813
40
0.346417009652813
40
0.644550638214536
40
0.644550638214536
40
0.94268426677626
40
0.94268426677626
40
1
40
1
40
1
40
1
41
1
10
8.66877739179571
20
-1.80444805524371
30
0
41
1
10
8.75429846180339
20
-1.83196257958451
30
0
41
1
10
8.83980319266203
20
-1.858738015211
30
0
41
1
10
9.45248541349588
20
-2.04508658453463
30
0
41
1
10
9.97786328863782
20
-2.17625032740625
30
0
41
1
10
11.0343233466833
20
-2.36874988038821
30
0
41
1
10
11.5578764923963
20
-2.42905453071461
30
0
41
1
10
12.6010165745395
20
-2.4751826327028
30
0
41
1
10
13.121203245823
20
-2.46105239450273
30
0
41
1
10
13.7445339309002
20
-2.40036651744816
30
0
41
1
10
13.845145109184
20
-2.38922399016244
30
0
41
1
10
13.9458908965936
20
-2.37672953074625
30
0
0
SPLINE
5
CA
100
AcDbEntity
8
1
62
256
6
ByLayer
370
18
48
1
60
0
100
AcDbSpline
70
4
71
3
72
14
73
10
40
0
40
0
40
0
40
0
40
0.25
40
0.25
40
0.5
40
0.5
40
0.75
40
0.75
40
1
40
1
40
1
40
1
41
1
10
29.389401103476
20
-2.3722688052529
30
0
41
1
10
29.3926094793406
20
-2.37162534693016
30
0
41
1
10
29.3953204633407
20
-2.3727266809677
30
0
41
1
10
29.3995272962723
20
-2.37916637039248
30
0
41
1
10
29.4009797020382
20
-2.38452420360642
30
0
41
1
10
29.4018251728827
20
-2.40045004423561
30
0
41
1
10
29.4011526512858
20
-2.41099858261086
30
0
41
1
10
29.3974029993843
20
-2.43536160243883
30
0
41
1
10
29.394320880926
20
-2.44916911603832
30
0
41
1
10
29.3905018212619
20
-2.46277697785379
30
0
0
SPLINE
5
CB
100
AcDbEntity
8
1
62
256
6
ByLayer
370
18
48
1
60
0
100
AcDbSpline
70
4
71
3
72
8
73
4
40
0
40
0
40
0
40
0
40
1
40
1
40
1
40
1
41
1
10
29.9984606897677
20
0.312059249491853
30
0
41
1
10
29.9977759681615
20
0.234582999432661
30
0
41
1
10
29.9967750590041
20
0.157133999444568
30
0
41
1
10
29.9954581282211
20
0.0797122352275608
30
0
0
SPLINE
5
CC
100
AcDbEntity
8
1
62
256
6
ByLayer
370
18
48
1
60
0
100
AcDbSpline
70
4
71
3
72
38
73
34
40
0
40
0
40
0
40
0
40
0.0937448341243566
40
0.0937448341243566
40
0.140617251186536
40
0.140617251186536
40
0.187489668248715
40
0.187489668248715
40
0.281234502373073
40
0.281234502373073
40
0.328106919435251
40
0.328106919435251
40
0.37497933649743
40
0.37497933649743
40
0.468724170621788
40
0.468724170621788
40
0.562469004746145
40
0.562469004746145
40
0.609341421808324
40
0.609341421808324
40
0.656213838870504
40
0.656213838870504
40
0.749958672994862
40
0.749958672994862
40
0.796831090057042
40
0.796831090057042
40
0.820267298588132
40
0.820267298588132
40
0.843703507119222
40
0.843703507119222
40
0.93744834124358
40
0.93744834124358
40
1
40
1
40
1
40
1
41
1
10
29.3829725696331
20
-2.48957232014053
30
0
41
1
10
28.8541028868427
20
-2.51239947960991
30
0
41
1
10
28.3269619373043
20
-2.49630602317976
30
0
41
1
10
27.5326252239771
20
-2.41502135056598
30
0
41
1
10
27.2678407404781
20
-2.37837886335689
30
0
41
1
10
26.7415966167632
20
-2.28758912737766
30
0
41
1
10
26.4794389966514
20
-2.23342990521215
30
0
41
1
10
25.6942152541557
20
-2.04663172913953
30
0
41
1
10
25.1724456593352
20
-1.88957116743734
30
0
41
1
10
24.3858032745751
20
-1.61375959696386
30
0
41
1
10
24.1229846487479
20
-1.51502928146945
30
0
41
1
10
23.5948835267857
20
-1.30578621386536
30
0
41
1
10
23.3293004252765
20
-1.19513588603985
30
0
41
1
10
22.5386531786869
20
-0.853236615421054
30
0
41
1
10
22.0159747620129
20
-0.61056110223376
30
0
41
1
10
20.9705196506535
20
-0.114516091387031
30
0
41
1
10
20.4477903713634
20
0.138953543741252
30
0
41
1
10
19.6570133322211
20
0.51304875594667
30
0
41
1
10
19.3913895092513
20
0.637198386065279
30
0
41
1
10
18.8631772179188
20
0.87821866974673
30
0
41
1
10
18.6003155042754
20
0.995263497440561
30
0
41
1
10
17.8136852795671
20
1.33272510688394
30
0
41
1
10
17.2917981154246
20
1.53933401254909
30
0
41
1
10
16.5066184111624
20
1.81110988136024
30
0
41
1
10
16.2444306115874
20
1.895239431406
30
0
41
1
10
15.8496823984638
20
2.01049307594414
30
0
41
1
10
15.7178550997519
20
2.04708755102712
30
0
41
1
10
15.4535848471742
20
2.11642555195419
30
0
41
1
10
15.3209020861908
20
2.14922255135727
30
0
41
1
10
14.6590292097944
20
2.30219942193153
30
0
41
1
10
14.1348935287462
20
2.38933424233531
30
0
41
1
10
13.2627386133197
20
2.47266296081653
30
0
41
1
10
12.9140704637224
20
2.48944923399094
30
0
41
1
10
12.5645539876873
20
2.48940867343859
30
0
0
SPLINE
5
CD
100
AcDbEntity
8
1
62
256
6
ByLayer
370
18
48
1
60
0
100
AcDbSpline
70
4
71
3
72
8
73
4
40
0
40
0
40
0
40
0
40
1
40
1
40
1
40
1
41
1
10
29.9954581282211
20
-0.0797122352274471
30
0
41
1
10
29.9952031789128
20
-0.0647238808708153
30
0
41
1
10
29.9969471787158
20
-0.0460244355120665
30
0
41
1
10
29.9999892964653
20
-0.0260218167348967
30
0
0
SPLINE
5
CE
100
AcDbEntity
8
1
62
256
6
ByLayer
370
13
48
1
60
0
100
AcDbSpline
70
4
71
3
72
8
73
4
40
0
40
0
40
0
40
0
40
1
40
1
40
1
40
1
41
1
10
4.25037189554783
20
0.166626012067979
30
0
41
1
10
4.21308493046547
20
0.176735356154552
30
0
41
1
10
4.17670344921746
20
0.186999621981983
30
0
41
1
10
4.1427495661809
20
0.197282553114064
30
0
0
SPLINE
5
CF
100
AcDbEntity
8
1
62
256
6
ByLayer
370
18
48
1
60
0
100
AcDbSpline
70
4
71
3
72
24
73
20
40
0
40
0
40
0
40
0
40
0.0337336043785717
40
0.0337336043785717
40
0.225567301807636
40
0.225567301807636
40
0.4174009992367
40
0.4174009992367
40
0.465359423593966
40
0.465359423593966
40
0.513317847951232
40
0.513317847951232
40
0.609234696665767
40
0.609234696665767
40
0.801068394094837
40
0.801068394094837
40
0.992902091523908
40
0.992902091523908
40
1
40
1
40
1
40
1
41
1
10
16.5244691917265
20
1.783796368651
30
0
41
1
10
16.6171953147688
20
1.75351703430567
30
0
41
1
10
16.7099663944187
20
1.72236426061954
30
0
41
1
10
17.3307028012431
20
1.50841641668387
30
0
41
1
10
17.8536713679516
20
1.30233448012461
30
0
41
1
10
18.8978198563835
20
0.857530794551394
30
0
41
1
10
19.4191532145336
20
0.619094948224358
30
0
41
1
10
20.0752517048942
20
0.311786267689484
30
0
41
1
10
20.2066859283301
20
0.249850271950891
30
0
41
1
10
20.4701263389173
20
0.12532577209322
30
0
41
1
10
20.6023218372441
20
0.0626473375532726
30
0
41
1
10
20.9975043249053
20
-0.124738088808783
30
0
41
1
10
21.2596562207344
20
-0.249123118688999
30
0
41
1
10
22.043950074384
20
-0.616988861441627
30
0
41
1
10
22.5638482412368
20
-0.85529849916
30
0
41
1
10
23.6063441357968
20
-1.3005105675764
30
0
41
1
10
24.1288259795852
20
-1.50784347907614
30
0
41
1
10
24.6764882586578
20
-1.69743007624282
30
0
41
1
10
24.6960246530578
20
-1.70415765043333
30
0
41
1
10
24.7155569974501
20
-1.71084802931665
30
0
0
SPLINE
5
D0
100
AcDbEntity
8
1
62
256
6
ByLayer
370
13
48
1
60
0
100
AcDbSpline
70
4
71
3
72
14
73
10
40
0
40
0
40
0
40
0
40
0.325008500210029
40
0.325008500210029
40
0.493756375157522
40
0.493756375157522
40
0.662504250105015
40
0.662504250105015
40
1
40
1
40
1
40
1
41
1
10
24.7155560516341
20
-1.71084770534804
30
0
41
1
10
25.2239206389618
20
-1.88497694551623
30
0
41
1
10
25.7295417699171
20
-2.03391028297594
30
0
41
1
10
26.4995436069076
20
-2.21406484794116
30
0
41
1
10
26.7635450433804
20
-2.26752261794496
30
0
41
1
10
27.2906799886997
20
-2.35642516547202
30
0
41
1
10
27.5533958970399
20
-2.39177317782151
30
0
41
1
10
28.3406975777868
20
-2.47021116437111
30
0
41
1
10
28.8642349585023
20
-2.48580359029773
30
0
41
1
10
29.3905018212619
20
-2.46277697785379
30
0
0
SPLINE
5
D1
100
AcDbEntity
8
1
62
256
6
ByLayer
370
18
48
1
60
0
100
AcDbSpline
70
4
71
3
72
8
73
4
40
0
40
0
40
0
40
0
40
1
40
1
40
1
40
1
41
1
10
29.9805451815478
20
-0.0375130475648575
30
0
41
1
10
29.8652016176641
20
-0.270362547535598
30
0
41
1
10
29.7518298666149
20
-0.504901834802951
30
0
41
1
10
29.6404467999679
20
-0.74114536781866
30
0
0
SPLINE
5
D2
100
AcDbEntity
8
1
62
256
6
ByLayer
370
18
48
1
60
0
100
AcDbSpline
70
4
71
3
72
28
73
24
40
0
40
0
40
0
40
0
40
0.124999999999993
40
0.124999999999993
40
0.187499999999989
40
0.187499999999989
40
0.249999999999985
40
0.249999999999985
40
0.312499999999981
40
0.312499999999981
40
0.374999999999977
40
0.374999999999977
40
0.437499999999973
40
0.437499999999973
40
0.499999999999969
40
0.499999999999969
40
0.562499999999965
40
0.562499999999965
40
0.624999999999962
40
0.624999999999962
40
0.749999999999974
40
0.749999999999974
40
1
40
1
40
1
40
1
41
1
10
29.3813781560298
20
-1.30164030392402
30
0
41
1
10
29.3347438875163
20
-1.26960331924286
30
0
41
1
10
29.2893942502993
20
-1.2349237751086
30
0
41
1
10
29.2241948244042
20
-1.17709321207926
30
0
41
1
10
29.202938135488
20
-1.1568362667858
30
0
41
1
10
29.161744506582
20
-1.11360757778925
30
0
41
1
10
29.1416111118534
20
-1.09040755045487
30
0
41
1
10
29.10465074537
20
-1.0412931870712
30
0
41
1
10
29.0876121910064
20
-1.01520802367423
30
0
41
1
10
29.0595886011869
20
-0.959377518557176
30
0
41
1
10
29.0488241969759
20
-0.929639287575412
30
0
41
1
10
29.0402076548633
20
-0.871332495731991
30
0
41
1
10
29.0428472639572
20
-0.84298298098642
30
0
41
1
10
29.0609682100416
20
-0.795912742132884
30
0
41
1
10
29.0756671451921
20
-0.777350652620214
30
0
41
1
10
29.1098214621774
20
-0.748023729541387
30
0
41
1
10
29.1293544871281
20
-0.737053122140168
30
0
41
1
10
29.1707227486311
20
-0.719856268107236
30
0
41
1
10
29.1922993672968
20
-0.713751209714957
30
0
41
1
10
29.2587457273786
20
-0.70023148034818
30
0
41
1
10
29.3056178787884
20
-0.697571685198454
30
0
41
1
10
29.4470825477457
20
-0.700598673050422
30
0
41
1
10
29.5432331518392
20
-0.716781925617028
30
0
41
1
10
29.6404467999679
20
-0.741145367818632
30
0
0
SPLINE
5
D3
100
AcDbEntity
8
1
62
256
6
ByLayer
370
18
48
1
60
0
100
AcDbSpline
70
4
71
3
72
16
73
12
40
0
40
0
40
0
40
0
40
0.250000000000002
40
0.250000000000002
40
0.375000000000004
40
0.375000000000004
40
0.500000000000005
40
0.500000000000005
40
0.750000000000002
40
0.750000000000002
40
1
40
1
40
1
40
1
41
1
10
7.68676940772906
20
-1.79498963261787
30
0
41
1
10
7.38841925792366
20
-1.88274012172621
30
0
41
1
10
7.09399877532513
20
-1.96626956353353
30
0
41
1
10
6.65526951087347
20
-2.07759851311653
30
0
41
1
10
6.50995345010733
20
-2.11228843075983
30
0
41
1
10
6.22155530891024
20
-2.17513811649678
30
0
41
1
10
6.07831883860646
20
-2.20353018634609
30
0
41
1
10
5.65072082241954
20
-2.28027668852639
30
0
41
1
10
5.3685602117327
20
-2.31899979846457
30
0
41
1
10
4.80764929084941
20
-2.3628268089692
30
0
41
1
10
4.52883380812722
20
-2.36838382647045
30
0
41
1
10
4.25126233779332
20
-2.3533060432043
30
0
0
SPLINE
5
D4
100
AcDbEntity
8
1
62
256
6
ByLayer
370
18
48
1
60
0
100
AcDbSpline
70
4
71
3
72
22
73
18
40
0
40
0
40
0
40
0
40
0.0625
40
0.0625
40
0.125
40
0.125
40
0.1875
40
0.1875
40
0.25
40
0.25
40
0.375
40
0.375
40
0.5
40
0.5
40
0.75
40
0.75
40
1
40
1
40
1
40
1
41
1
10
2.00000015219828
20
-1.4443783839271
30
0
41
1
10
2.00000015219487
20
-1.49550484829905
30
0
41
1
10
2.00844072104667
20
-1.545129313205
30
0
41
1
10
2.0390298236336
20
-1.63932078211067
30
0
41
1
10
2.06067544026405
20
-1.68293671446472
30
0
41
1
10
2.11313743889423
20
-1.76490274947591
30
0
41
1
10
2.14423169707828
20
-1.80344621448822
30
0
41
1
10
2.21180258156707
20
-1.87455591616424
30
0
41
1
10
2.24836724502973
20
-1.90733971098683
30
0
41
1
10
2.36417136998901
20
-1.99934284089369
30
0
41
1
10
2.44991097792661
20
-2.05255515060858
30
0
41
1
10
2.62904351652358
20
-2.14625389273107
30
0
41
1
10
2.72210637196144
20
-2.18658362248425
30
0
41
1
10
3.00814784704295
20
-2.29350132053341
30
0
41
1
10
3.20783484164741
20
-2.34623432640285
30
0
41
1
10
3.61772480668134
20
-2.4259971373809
30
0
41
1
10
3.82556554614556
20
-2.45224901805011
30
0
41
1
10
4.03439007796817
20
-2.46763076060358
30
0
0
SPLINE
5
D5
100
AcDbEntity
8
1
62
256
6
ByLayer
370
18
48
1
60
0
100
AcDbSpline
70
4
71
3
72
22
73
18
40
0
40
0
40
0
40
0
40
0.124999999999995
40
0.124999999999995
40
0.249999999999991
40
0.249999999999991
40
0.312499999999989
40
0.312499999999989
40
0.374999999999986
40
0.374999999999986
40
0.499999999999989
40
0.499999999999989
40
0.624999999999992
40
0.624999999999992
40
0.749999999999994
40
0.749999999999994
40
1
40
1
40
1
40
1
41
1
10
26.9629476523904
20
0.703661721181788
30
0
41
1
10
26.9881548161329
20
0.562454642810081
30
0
41
1
10
27.0300241867
20
0.42190343830643
30
0
41
1
10
27.1425834474574
20
0.141935490410503
30
0
41
1
10
27.2111078391783
20
0.0078230353870765
30
0
41
1
10
27.3274936235548
20
-0.185461272525856
30
0
41
1
10
27.3688044344759
20
-0.248883645397598
30
0
41
1
10
27.4548064005281
20
-0.372123404768899
30
0
41
1
10
27.4993451072021
20
-0.431760458832315
30
0
41
1
10
27.6369673522041
20
-0.605505902679255
30
0
41
1
10
27.7340139004912
20
-0.714504169002993
30
0
41
1
10
27.9365570338836
20
-0.92160475845975
30
0
41
1
10
28.0427037431825
20
-1.02019608537177
30
0
41
1
10
28.258154694871
20
-1.20444363042759
30
0
41
1
10
28.3676346322619
20
-1.29038009040502
30
0
41
1
10
28.70049656519
20
-1.53259434754898
30
0
41
1
10
28.9282219427767
20
-1.67355470312305
30
0
41
1
10
29.1609191539882
20
-1.79698130958579
30
0
0
SPLINE
5
D6
100
AcDbEntity
8
1
62
256
6
ByLayer
370
18
48
1
60
0
100
AcDbSpline
70
4
71
3
72
28
73
24
40
0
40
0
40
0
40
0
40
0.0066824625647519
40
0.0066824625647519
40
0.0969840568770468
40
0.0969840568770468
40
0.277587245501637
40
0.277587245501637
40
0.367888839813932
40
0.367888839813932
40
0.458190434126227
40
0.458190434126227
40
0.548492028438522
40
0.548492028438522
40
0.638793622750818
40
0.638793622750818
40
0.729095217063112
40
0.729095217063112
40
0.819396811375408
40
0.819396811375408
40
0.909698405687702
40
0.909698405687702
40
1
40
1
40
1
40
1
41
1
10
20.2954732161373
20
2.36727974826877
30
0
41
1
10
20.3103424429649
20
2.36733389105998
30
0
41
1
10
20.3252136152501
20
2.36736040662291
30
0
41
1
10
20.5410725937327
20
2.36734812942811
30
0
41
1
10
20.7423432701207
20
2.36264755044783
30
0
41
1
10
21.3447819146074
20
2.33397871939931
30
0
41
1
10
21.7455547214306
20
2.29054730730144
30
0
41
1
10
22.3482294290986
20
2.19829169386554
30
0
41
1
10
22.5496170083213
20
2.16365092216742
30
0
41
1
10
22.9510797088188
20
2.08302572404253
30
0
41
1
10
23.1514583294245
20
2.03700571101507
30
0
41
1
10
23.5525714163039
20
1.93649885105111
30
0
41
1
10
23.7531635946809
20
1.88212473154323
30
0
41
1
10
24.1546424003404
20
1.76695232933139
30
0
41
1
10
24.3558375149957
20
1.70559878518944
30
0
41
1
10
24.7571778488596
20
1.57382075545343
30
0
41
1
10
24.9574074644012
20
1.50362910266972
30
0
41
1
10
25.3581237167938
20
1.35729223318253
30
0
41
1
10
25.5586120796499
20
1.28120468985557
30
0
41
1
10
25.95982586917
20
1.12366465901096
30
0
41
1
10
26.1607599172572
20
1.04214277791405
30
0
41
1
10
26.5622128924337
20
0.876061160358091
30
0
41
1
10
26.7626723795393
20
0.790907474737338
30
0
41
1
10
26.9629476523893
20
0.703661721182584
30
0
0
SPLINE
5
D7
100
AcDbEntity
8
1
62
256
6
ByLayer
370
18
48
1
60
0
100
AcDbSpline
70
4
71
3
72
18
73
14
40
0
40
0
40
0
40
0
40
0.250000000000002
40
0.250000000000002
40
0.500000000000003
40
0.500000000000003
40
0.750000000000004
40
0.750000000000004
40
0.875000000000002
40
0.875000000000002
40
0.937500000000001
40
0.937500000000001
40
1
40
1
40
1
40
1
41
1
10
29.5016086579535
20
2.4098402908466
30
0
41
1
10
29.5416220058258
20
2.26030515341833
30
0
41
1
10
29.5816366339734
20
2.11076228178527
30
0
41
1
10
29.6628896211956
20
1.81181333056932
30
0
41
1
10
29.703792309413
20
1.66235807832729
30
0
41
1
10
29.7859258223144
20
1.36353941192399
30
0
41
1
10
29.8273844683212
20
1.21422627846914
30
0
41
1
10
29.8897007555103
20
0.990289903020596
30
0
41
1
10
29.9104839314997
20
0.915647652257064
30
0
41
1
10
29.9416840918718
20
0.803691731255924
30
0
41
1
10
29.9520887177529
20
0.766374453677884
30
0
41
1
10
29.9729142356059
20
0.69174475734016
30
0
41
1
10
29.9832393840005
20
0.654382126683601
30
0
41
1
10
29.9939783864045
20
0.617206403671332
30
0
0
SPLINE
5
D8
100
AcDbEntity
8
1
62
256
6
ByLayer
370
18
48
1
60
0
100
AcDbSpline
70
4
71
3
72
10
73
6
40
0
40
0
40
0
40
0
40
0.132886618120577
40
0.132886618120577
40
1
40
1
40
1
40
1
41
1
10
4.03437507794814
20
-2.48408273717604
30
0
41
1
10
4.03437591522143
20
-2.48407256840898
30
0
41
1
10
4.03437673182023
20
-2.48396703431067
30
0
41
1
10
4.03438271728052
20
-2.48245211876287
30
0
41
1
10
4.03438697129215
20
-2.47701596634846
30
0
41
1
10
4.0343900780716
20
-2.4676307606112
30
0
0
SPLINE
5
D9
100
AcDbEntity
8
1
62
256
6
ByLayer
370
18
48
1
60
0
100
AcDbSpline
70
4
71
3
72
8
73
4
40
0
40
0
40
0
40
0
40
1
40
1
40
1
40
1
41
1
10
29.5016086579535
20
-2.4098402908466
30
0
41
1
10
29.4589678108274
20
-2.4492986922094
30
0
41
1
10
29.419474824733
20
-2.47599050247234
30
0
41
1
10
29.3829725696331
20
-2.48957232014053
30
0
0
SPLINE
5
DA
100
AcDbEntity
8
1
62
256
6
ByLayer
370
18
48
1
60
0
100
AcDbSpline
70
4
71
3
72
8
73
4
40
0
40
0
40
0
40
0
40
1
40
1
40
1
40
1
41
1
10
29.9984606897679
20
-0.312059249479461
30
0
41
1
10
29.9974570873036
20
-0.413787746194146
30
0
41
1
10
29.9959628629698
20
-0.515503461048155
30
0
41
1
10
29.9939783864045
20
-0.617206403671361
30
0
0
SPLINE
5
DB
100
AcDbEntity
8
1
62
256
6
ByLayer
370
18
48
1
60
0
100
AcDbSpline
70
4
71
3
72
12
73
8
40
0
40
0
40
0
40
0
40
0.25
40
0.25
40
0.500000000000001
40
0.500000000000001
40
1
40
1
40
1
40
1
41
1
10
29.0386817249069
20
0.558709080871978
30
0
41
1
10
29.0375562336798
20
0.569164923026278
30
0
41
1
10
29.0392931125664
20
0.579932237105282
30
0
41
1
10
29.049163300264
20
0.598992984272201
30
0
41
1
10
29.0573129030246
20
0.607142885882695
30
0
41
1
10
29.0854088591062
20
0.624569909585915
30
0
41
1
10
29.1084264272898
20
0.628040074899985
30
0
41
1
10
29.1305782487024
20
0.627201915364481
30
0
0
SPLINE
5
DC
100
AcDbEntity
8
1
62
256
6
ByLayer
370
18
48
1
60
0
100
AcDbSpline
70
4
71
3
72
8
73
4
40
0
40
0
40
0
40
0
40
1
40
1
40
1
40
1
41
1
10
29.9954581282211
20
0.0797122352275608
30
0
41
1
10
29.9952031789128
20
0.0647238808751069
30
0
41
1
10
29.9969471787148
20
0.0460244355225257
30
0
41
1
10
29.9999892964627
20
0.0260218167518076
30
0
0
SPLINE
5
DD
100
AcDbEntity
8
1
62
256
6
ByLayer
370
18
48
1
60
0
100
AcDbSpline
70
4
71
3
72
30
73
26
40
0
40
0
40
0
40
0
40
0.249999999999997
40
0.249999999999997
40
0.374999999999991
40
0.374999999999991
40
0.499999999999984
40
0.499999999999984
40
0.562499999999986
40
0.562499999999986
40
0.624999999999988
40
0.624999999999988
40
0.68749999999999
40
0.68749999999999
40
0.749999999999992
40
0.749999999999992
40
0.812499999999994
40
0.812499999999994
40
0.843749999999995
40
0.843749999999995
40
0.874999999999996
40
0.874999999999996
40
0.937499999999998
40
0.937499999999998
40
1
40
1
40
1
40
1
41
1
10
26.9629476523906
20
0.703661721181987
30
0
41
1
10
27.1562181111957
20
0.56384010872398
30
0
41
1
10
27.3534533595741
20
0.442132079157687
30
0
41
1
10
27.6556500149071
20
0.288552313147903
30
0
41
1
10
27.757456554707
20
0.242267214616732
30
0
41
1
10
27.9634159513939
20
0.16041642857536
30
0
41
1
10
28.0669131511681
20
0.125148346868684
30
0
41
1
10
28.2218631842756
20
0.0818909123347851
30
0
41
1
10
28.2734452463882
20
0.069083229510909
30
0
41
1
10
28.3763805885054
20
0.0468706842545998
30
0
41
1
10
28.4275974796015
20
0.0386319806090398
30
0
41
1
10
28.5287496923738
20
0.0297073080213295
30
0
41
1
10
28.5787039138243
20
0.028989291661361
30
0
41
1
10
28.6753024072519
20
0.0368473943987624
30
0
41
1
10
28.7221913068374
20
0.0452801937796323
30
0
41
1
10
28.8121160596685
20
0.0744499618091083
30
0
41
1
10
28.8544124323124
20
0.0952207354197299
30
0
41
1
10
28.9104317838748
20
0.138009489447484
30
0
41
1
10
28.9281371834611
20
0.154330906928777
30
0
41
1
10
28.9600516726981
20
0.190445135459669
30
0
41
1
10
28.9742965902183
20
0.210211500550315
30
0
41
1
10
29.0115268345566
20
0.275005214947356
30
0
41
1
10
29.0288964887179
20
0.326731385282045
30
0
41
1
10
29.0454552363998
20
0.437677930499547
30
0
41
1
10
29.0451994891798
20
0.498158884838347
30
0
41
1
10
29.038681724907
20
0.558709080872006
30
0
0
SPLINE
5
DE
100
AcDbEntity
8
1
62
256
6
ByLayer
370
18
48
1
60
0
100
AcDbSpline
70
4
71
3
72
8
73
4
40
0
40
0
40
0
40
0
40
1
40
1
40
1
40
1
41
1
10
7.89074452492355
20
1.834419332858
30
0
41
1
10
7.85651479356827
20
1.80950565044395
30
0
41
1
10
7.82235324111491
20
1.78446982955745
30
0
41
1
10
7.78840724107582
20
1.75949162641939
30
0
0
SPLINE
5
DF
100
AcDbEntity
8
1
62
256
6
ByLayer
370
18
48
1
60
0
100
AcDbSpline
70
4
71
3
72
18
73
14
40
0
40
0
40
0
40
0
40
0.249999999999998
40
0.249999999999998
40
0.374999999999999
40
0.374999999999999
40
0.5
40
0.5
40
0.625000000000001
40
0.625000000000001
40
0.750000000000002
40
0.750000000000002
40
1
40
1
40
1
40
1
41
1
10
4.2512623382284
20
2.3533060432278
30
0
41
1
10
4.52737565125199
20
2.3683046188365
30
0
41
1
10
4.8063585448474
20
2.36293935846803
30
0
41
1
10
5.2294254614514
20
2.32986529309892
30
0
41
1
10
5.37132125125228
20
2.31460748292255
30
0
41
1
10
5.65541410900244
20
2.27667796330616
30
0
41
1
10
5.79780406879033
20
2.25394255492608
30
0
41
1
10
6.08363713102412
20
2.20250858278536
30
0
41
1
10
6.22706994342454
20
2.17400810742342
30
0
41
1
10
6.51542911065968
20
2.11102057166047
30
0
41
1
10
6.66049837319412
20
2.07631413265591
30
0
41
1
10
7.0968705624592
20
1.965453941025
30
0
41
1
10
7.38982006865692
20
1.88232811647973
30
0
41
1
10
7.68676940772457
20
1.79498963261912
30
0
0
SPLINE
5
E0
100
AcDbEntity
8
SK1
62
256
6
ByLayer
370
18
48
1
60
0
100
AcDbSpline
70
4
71
3
72
14
73
10
40
0
40
0
40
0
40
0
40
0.499999999999997
40
0.499999999999997
40
0.749999999999997
40
0.749999999999997
40
0.874999999999999
40
0.874999999999999
40
1
40
1
40
1
40
1
41
1
10
-35.4
20
-2.72504707906168
30
0
41
1
10
-35.3787677796885
20
-2.7587863391152
30
0
41
1
10
-35.3584290958895
20
-2.78973378500837
30
0
41
1
10
-35.3303626450498
20
-2.82908223984828
30
0
41
1
10
-35.3215171954455
20
-2.84086812040792
30
0
41
1
10
-35.3102812516991
20
-2.85382901504121
30
0
41
1
10
-35.3068890218584
20
-2.85732692892807
30
0
41
1
10
-35.3017585680987
20
-2.86101638337706
30
0
41
1
10
-35.3
20
-2.86118240718079
30
0
41
1
10
-35.3
20
-2.85827071051838
30
0
0
SPLINE
5
E1
100
AcDbEntity
8
SK1
62
256
6
ByLayer
370
18
48
1
60
0
100
AcDbSpline
70
4
71
3
72
8
73
4
40
0
40
0
40
0
40
0
40
1
40
1
40
1
40
1
41
1
10
-36
20
-1.74828524075386
30
0
41
1
10
-35.806110354854
20
-2.07673275488475
30
0
41
1
10
-35.6037796807424
20
-2.40122905431753
30
0
41
1
10
-35.4
20
-2.72504707906125
30
0
0
SPLINE
5
E2
100
AcDbEntity
8
SK1
62
256
6
ByLayer
370
18
48
1
60
0
100
AcDbSpline
70
4
71
3
72
8
73
4
40
0
40
0
40
0
40
0
40
1
40
1
40
1
40
1
41
1
10
-35.4
20
-2.02283875805483
30
0
41
1
10
-35.6037677453442
20
-1.6990396993682
30
0
41
1
10
-35.8060919933384
20
-1.37455553813962
30
0
41
1
10
-36
20
-1.04607691974746
30
0
0
SPLINE
5
E3
100
AcDbEntity
8
SK1
62
256
6
ByLayer
370
18
48
1
60
0
100
AcDbSpline
70
4
71
3
72
14
73
10
40
0
40
0
40
0
40
0
40
0.125000000000001
40
0.125000000000001
40
0.250000000000002
40
0.250000000000002
40
0.500000000000002
40
0.500000000000002
40
1
40
1
40
1
40
1
41
1
10
-35.3
20
-2.24969016564617
30
0
41
1
10
-35.3
20
-2.24251317779877
30
0
41
1
10
-35.3017593723636
20
-2.23308285252213
30
0
41
1
10
-35.3069353411979
20
-2.21345315424406
30
0
41
1
10
-35.3102739075535
20
-2.20335004371384
30
0
41
1
10
-35.3215583577555
20
-2.17255340215746
30
0
41
1
10
-35.3303095934912
20
-2.15253393515158
30
0
41
1
10
-35.358391202053
20
-2.09328186642136
30
0
41
1
10
-35.378655954467
20
-2.05675571503195
30
0
41
1
10
-35.4
20
-2.02283875805483
30
0
0
LINE
5
76
100
AcDbEntity
8
81
62
256
6
ByLayer
370
18
48
1
60
0
100
AcDbLine
10
30
20
0
30
0
11
35
21
0
31
0
39
0
210
0
220
0
230
1
0
LINE
5
77
100
AcDbEntity
8
1
62
256
6
ByLayer
370
18
48
1
60
0
100
AcDbLine
10
4.03437
20
2.484083
30
0
11
2
21
2.482811
31
0
39
0
210
0
220
0
230
1
0
LINE
5
79
100
AcDbEntity
8
1
62
256
6
ByLayer
370
18
48
1
60
0
100
AcDbLine
10
28.910277
20
2.49963
30
0
11
28.100074
21
2.499124
31
0
39
0
210
0
220
0
230
1
0
LINE
5
7A
100
AcDbEntity
8
1
62
256
6
ByLayer
370
18
48
1
60
0
100
AcDbLine
10
11.748522
20
-2.488904
30
0
11
12.558689
21
-2.489411
31
0
39
0
210
0
220
0
230
1
0
LINE
5
7B
100
AcDbEntity
8
1
62
256
6
ByLayer
370
18
48
1
60
0
100
AcDbLine
10
12.55874
20
2.489411
30
0
11
11.748522
21
2.488904
31
0
39
0
210
0
220
0
230
1
0
LINE
5
7C
100
AcDbEntity
8
1
62
256
6
ByLayer
370
18
48
1
60
0
100
AcDbLine
10
28.100074
20
-2.499124
30
0
11
28.909489
21
-2.49963
31
0
39
0
210
0
220
0
230
1
0
LINE
5
7D
100
AcDbEntity
8
1
62
256
6
ByLayer
370
18
48
1
60
0
100
AcDbLine
10
2
20
-2.482811
30
0
11
4.03437
21
-2.484083
31
0
39
0
210
0
220
0
230
1
0
LINE
5
7E
100
AcDbEntity
8
1
62
256
6
ByLayer
370
18
48
1
60
0
100
AcDbLine
10
1.17793
20
-2.482811
30
0
11
2
21
-2.482811
31
0
39
0
210
0
220
0
230
1
0
LINE
5
7F
100
AcDbEntity
8
1
62
256
6
ByLayer
370
18
48
1
60
0
100
AcDbLine
10
2
20
2.482811
30
0
11
1.17793
21
2.482811
31
0
39
0
210
0
220
0
230
1
0
LINE
5
80
100
AcDbEntity
8
SK1
62
256
6
ByLayer
370
18
48
1
60
0
100
AcDbLine
10
-35.278312
20
3
30
0
11
-36
21
1.75
31
0
39
0
210
0
220
0
230
1
0
LINE
5
82
100
AcDbEntity
8
SK1
62
256
6
ByLayer
370
18
48
1
60
0
100
AcDbLine
10
-36
20
-1.75
30
0
11
-35.278312
21
-3
31
0
39
0
210
0
220
0
230
1
0
LINE
5
83
100
AcDbEntity
8
SK1
62
256
6
ByLayer
370
18
48
1
60
0
100
AcDbLine
10
0
20
3
30
0
11
-35.278312
21
3
31
0
39
0
210
0
220
0
230
1
0
LINE
5
84
100
AcDbEntity
8
SK1
62
256
6
ByLayer
370
18
48
1
60
0
100
AcDbLine
10
-35.278312
20
-3
30
0
11
0
21
-3
31
0
39
0
210
0
220
0
230
1
0
LINE
5
85
100
AcDbEntity
8
SK4
62
256
6
ByLayer
370
18
48
0.05
60
0
100
AcDbLine
10
35
20
0
30
0
11
-41
21
0
31
0
39
0
210
0
220
0
230
1
0
LINE
5
87
100
AcDbEntity
8
4
62
256
6
ByLayer
370
18
48
0.05
60
0
100
AcDbLine
10
30
20
0
30
0
11
0
21
0
31
0
39
0
210
0
220
0
230
1
0
LINE
5
89
100
AcDbEntity
8
80
62
256
6
ByLayer
370
18
48
1
60
0
100
AcDbLine
10
0
20
0
30
0
11
-5
21
0
31
0
39
0
210
0
220
0
230
1
0
LINE
5
8A
100
AcDbEntity
8
1
62
256
6
ByLayer
370
13
48
1
60
0
100
AcDbLine
10
29.038682
20
0.558709
30
0
11
29.980545
21
-0.037513
31
0
39
0
210
0
220
0
230
1
0
LINE
5
8B
100
AcDbEntity
8
1
62
256
6
ByLayer
370
13
48
1
60
0
100
AcDbLine
10
4.251256
20
-2.359519
30
0
11
4.251262
21
-2.353306
31
0
39
0
210
0
220
0
230
1
0
LINE
5
8C
100
AcDbEntity
8
1
62
256
6
ByLayer
370
18
48
1
60
0
100
AcDbLine
10
2
20
-2.482811
30
0
11
2
21
-1.444378
31
0
39
0
210
0
220
0
230
1
0
LINE
5
8D
100
AcDbEntity
8
1
62
256
6
ByLayer
370
13
48
1
60
0
100
AcDbLine
10
4.25125
20
2.3606
30
0
11
4.251262
21
2.353306
31
0
39
0
210
0
220
0
230
1
0
LINE
5
8E
100
AcDbEntity
8
1
62
256
6
ByLayer
370
13
48
1
60
0
100
AcDbLine
10
29.130578
20
0.627202
30
0
11
29.995458
21
0.079712
31
0
39
0
210
0
220
0
230
1
0
LINE
5
8F
100
AcDbEntity
8
1
62
256
6
ByLayer
370
18
48
1
60
0
100
AcDbLine
10
0
20
-3
30
0
11
0
21
3
31
0
39
0
210
0
220
0
230
1
0
LINE
5
90
100
AcDbEntity
8
1
62
256
6
ByLayer
370
13
48
1
60
0
100
AcDbLine
10
1.17793
20
-2.482811
30
0
11
1.17793
21
2.482811
31
0
39
0
210
0
220
0
230
1
0
LINE
5
91
100
AcDbEntity
8
1
62
256
6
ByLayer
370
18
48
1
60
0
100
AcDbLine
10
2
20
-1.444378
30
0
11
2
21
2.482811
31
0
39
0
210
0
220
0
230
1
0
LINE
5
92
100
AcDbEntity
8
1
62
256
6
ByLayer
370
13
48
1
60
0
100
AcDbLine
10
0.588965
20
2.741406
30
0
11
0.588965
21
-2.741406
31
0
39
0
210
0
220
0
230
1
0
LINE
5
93
100
AcDbEntity
8
SK1
62
256
6
ByLayer
370
18
48
1
60
0
100
AcDbLine
10
-36
20
1.75
30
0
11
-36
21
-1.046077
31
0
39
0
210
0
220
0
230
1
0
LINE
5
94
100
AcDbEntity
8
SK1
62
256
6
ByLayer
370
18
48
1
60
0
100
AcDbLine
10
-36
20
-1.046071
30
0
11
-36
21
-1.748285
31
0
39
0
210
0
220
0
230
1
0
LINE
5
95
100
AcDbEntity
8
SK1
62
256
6
ByLayer
370
18
48
1
60
0
100
AcDbLine
10
-35.278312
20
3
30
0
11
-35.278312
21
-3
31
0
39
0
210
0
220
0
230
1
0
LINE
5
96
100
AcDbEntity
8
SK1
62
256
6
ByLayer
370
18
48
1
60
0
100
AcDbLine
10
-35.3
20
-2.858271
30
0
11
-35.3
21
-2.24969
31
0
39
0
210
0
220
0
230
1
0
LINE
5
97
100
AcDbEntity
8
SK1
62
256
6
ByLayer
370
13
48
1
60
0
100
AcDbLine
10
-35.4
20
-2.022805
30
0
11
-35.4
21
-2.725047
31
0
39
0
210
0
220
0
230
1
0
LINE
5
98
100
AcDbEntity
8
SK1
62
256
6
ByLayer
370
18
48
1
60
0
100
AcDbLine
10
0
20
-3
30
0
11
0
21
3
31
0
39
0
210
0
220
0
230
1
0
LINE
5
99
100
AcDbEntity
8
SK1
62
256
6
ByLayer
370
18
48
1
60
0
100
AcDbLine
10
-36
20
-1.75
30
0
11
-36
21
-1.748285
31
0
39
0
210
0
220
0
230
1
0
MTEXT
5
E4
100
AcDbEntity
8
SK6
62
256
6
ByLayer
370
13
48
1
60
0
100
AcDbMText
10
-0.870831
20
34.882694
30
0
210
0
220
0
230
1
1
\W0.7207;861.1-0500-015A1-GP GC34
40
3.5
41
0
44
1.084337
50
0
71
8
72
5
7
iso_b_vert
0
DIMENSION
5
F1
100
AcDbEntity
8
SK2
62
256
6
ByLayer
370
13
48
1
60
0
100
AcDbDimension
2
DimnDraft3D1
10
29.397
20
-12.713398
30
0
11
13.647059
21
-12.713398
31
0
70
32
71
5
72
1
41
1
210
0
220
0
230
1
3
Standard
100
AcDbAlignedDimension
13
0
23
-1.5875
33
0
14
29.397
24
-4.0875
34
0
50
0
100
AcDbRotatedDimension
1001
ACAD
1000
DSTYLE
1002
{
1070
   279
1070
     0
1070
   172
1070
     1
1070
   173
1070
     1
1070
   340
1005
E5
1070
   271
1070
     2
1070
   272
1070
     2
1070
    77
1070
     1
1070
    73
1070
     0
1070
   171
1070
     3
1070
   274
1070
     4
1070
   177
1070
    35
1070
   176
1070
    35
1070
   178
1070
    35
1070
    48
1040
-0.005
1070
    41
1041
3.5
1070
   147
1041
1.75
1070
    42
1041
1.5875
1070
    44
1041
2.0
1070
   140
1041
3.5
1070
   343
1005
0
1070
   344
1005
0
1002
}
0
DIMENSION
5
FB
100
AcDbEntity
8
SK2
62
256
6
ByLayer
370
13
48
1
60
0
100
AcDbDimension
2
DimnDraft3D2
10
30
20
-31.692985
30
0
11
-2.2617
21
-31.692985
31
0
70
32
71
5
72
1
41
1
210
0
220
0
230
1
3
Standard
100
AcDbAlignedDimension
13
-36
23
-4.5875
33
0
14
30
24
-1.5875
34
0
50
0
100
AcDbRotatedDimension
1001
ACAD
1000
DSTYLE
1002
{
1070
   279
1070
     0
1070
   172
1070
     1
1070
   173
1070
     1
1070
   340
1005
E5
1070
   271
1070
     2
1070
   272
1070
     2
1070
    77
1070
     1
1070
    73
1070
     0
1070
   171
1070
     3
1070
   274
1070
     4
1070
   177
1070
    35
1070
   176
1070
    35
1070
   178
1070
    35
1070
    48
1040
-0.005
1070
    41
1041
3.5
1070
   147
1041
1.75
1070
    42
1041
1.5875
1070
    44
1041
2.0
1070
   140
1041
3.5
1070
   343
1005
0
1070
   344
1005
0
1002
}
0
DIMENSION
5
105
100
AcDbEntity
8
SK2
62
256
6
ByLayer
370
13
48
1
60
0
100
AcDbDimension
2
DimnDraft3D3
10
30
20
14.109119
30
0
11
22.2
21
14.109119
31
0
70
32
71
5
72
1
41
1
210
0
220
0
230
1
3
Standard
100
AcDbAlignedDimension
13
14.4
23
4.0875
33
0
14
30
24
1.5875
34
0
50
0
100
AcDbRotatedDimension
1001
ACAD
1000
DSTYLE
1002
{
1070
   279
1070
     0
1070
   172
1070
     1
1070
   173
1070
     1
1070
   340
1005
E5
1070
   271
1070
     2
1070
   272
1070
     2
1070
    77
1070
     1
1070
    73
1070
     0
1070
   171
1070
     3
1070
   274
1070
     4
1070
   177
1070
    35
1070
   176
1070
    35
1070
   178
1070
    35
1070
    48
1040
-0.005
1070
    41
1041
3.5
1070
   147
1041
1.75
1070
    42
1041
1.5875
1070
    44
1041
2.0
1070
   140
1041
3.5
1070
   343
1005
0
1070
   344
1005
0
1002
}
0
DIMENSION
5
10F
100
AcDbEntity
8
SK2
62
256
6
ByLayer
370
13
48
1
60
0
100
AcDbDimension
2
DimnDraft3D4
10
29.397
20
-15.302503
30
0
11
39.981425
21
-15.302503
31
0
70
32
71
5
72
1
41
1
210
0
220
0
230
1
3
Standard
100
AcDbAlignedDimension
13
30
23
-1.5875
33
0
14
29.397
24
-4.0875
34
0
50
0
100
AcDbRotatedDimension
1001
ACAD
1000
DSTYLE
1002
{
1070
   279
1070
     0
1070
   172
1070
     1
1070
   173
1070
     1
1070
   340
1005
E5
1070
   271
1070
     2
1070
   272
1070
     2
1070
    77
1070
     1
1070
    73
1070
     0
1070
   171
1070
     3
1070
   274
1070
     4
1070
   177
1070
    35
1070
   176
1070
    35
1070
   178
1070
    35
1070
    48
1040
-0.005
1070
    41
1041
3.5
1070
   147
1041
1.75
1070
    42
1041
1.5875
1070
    44
1041
2.0
1070
   140
1041
3.5
1070
   343
1005
0
1070
   344
1005
0
1002
}
0
DIMENSION
5
119
100
AcDbEntity
8
SK2
62
256
6
ByLayer
370
13
48
1
60
0
100
AcDbDimension
2
DimnDraft3D5
10
29.397
20
-21.343428
30
0
11
-5.342324
21
-21.343428
31
0
70
32
71
5
72
1
41
1
210
0
220
0
230
1
3
Standard
100
AcDbAlignedDimension
13
-36
23
-4.5875
33
0
14
29.397
24
-4.0875
34
0
50
0
100
AcDbRotatedDimension
1001
ACAD
1000
DSTYLE
1002
{
1070
   279
1070
     0
1070
   172
1070
     1
1070
   173
1070
     1
1070
   340
1005
E5
1070
   271
1070
     2
1070
   272
1070
     2
1070
    77
1070
     1
1070
    73
1070
     0
1070
   171
1070
     3
1070
   274
1070
     4
1070
   177
1070
    35
1070
   176
1070
    35
1070
   178
1070
    35
1070
    48
1040
-0.005
1070
    41
1041
3.5
1070
   147
1041
1.75
1070
    42
1041
1.5875
1070
    44
1041
2.0
1070
   140
1041
3.5
1070
   343
1005
0
1070
   344
1005
0
1002
}
0
DIMENSION
5
124
100
AcDbEntity
8
SK2
62
256
6
ByLayer
370
13
48
1
60
0
100
AcDbDimension
2
DimnDraft3D6
10
-46.625163
20
3
30
0
11
-47.250163
21
21.47418
31
0
70
33
71
5
72
1
41
1
210
0
220
0
230
1
3
Standard
100
AcDbAlignedDimension
13
-37.5875
23
-3
33
0
14
-37.5875
24
3
34
0
1001
ACAD
1000
DSTYLE
1002
{
1070
   279
1070
     0
1070
    74
1070
     0
1070
   173
1070
     1
1070
   340
1005
E5
1070
   271
1070
     3
1070
   272
1070
     2
1070
    77
1070
     1
1070
    73
1070
     0
1070
   171
1070
     3
1070
   274
1070
     4
1070
   177
1070
    35
1070
   176
1070
    35
1070
   178
1070
    35
1070
    48
1040
-0.005
1070
    41
1041
3.5
1070
   147
1041
1.75
1070
    42
1041
1.5875
1070
    44
1041
2.0
1070
   140
1041
3.5
1070
   343
1005
0
1070
   344
1005
0
1002
}
0
DIMENSION
5
12F
100
AcDbEntity
8
2
62
256
6
ByLayer
370
13
48
1
60
0
100
AcDbDimension
2
DimnDraft3D7
10
44.083343
20
2.5
30
0
11
39.458343
21
19.567266
31
0
70
33
71
5
72
1
41
1
210
0
220
0
230
1
3
Standard
100
AcDbAlignedDimension
13
30.9845
23
-2.5
33
0
14
30.9845
24
2.5
34
0
1001
ACAD
1000
DSTYLE
1002
{
1070
   279
1070
     0
1070
    74
1070
     0
1070
   173
1070
     1
1070
   340
1005
E5
1070
   271
1070
     3
1070
   272
1070
     2
1070
    77
1070
     1
1070
    73
1070
     0
1070
   171
1070
     3
1070
   274
1070
     4
1070
   177
1070
    35
1070
   176
1070
    35
1070
   178
1070
    35
1070
    48
1040
-0.005
1070
    41
1041
3.5
1070
   147
1041
1.75
1070
    42
1041
1.5875
1070
    44
1041
2.0
1070
   140
1041
3.5
1070
   343
1005
0
1070
   344
1005
0
1002
}
0
ENDSEC
0
SECTION
2
OBJECTS
0
DICTIONARY
5
19a
330
0
100
AcDbDictionary
280
0
281
1
3
ACAD_GROUP
350
19b
3
ACAD_MLINESTYLE
350
19c
0
DICTIONARY
5
19b
330
0
100
AcDbDictionary
280
0
281
1
0
DICTIONARY
5
19c
330
0
100
AcDbDictionary
280
0
281
1
3
Standard
350
18
0
MLINESTYLE
5
18
330
19c
100
AcDbMlineStyle
2
Standard
70
0
3

62
256
51
90
52
90
71
2
49
-0.5
62
256
6
ByLayer
49
0.5
62
256
6
ByLayer
0
RASTERVARIABLES
5
188
330

100
AcDbRasterVariables
90
0
70
1
71
1
72
1
0
ENDSEC
0
EOF
