  0
SECTION
  2
HEADER
  9
$ACADVER
  1
AC1015
  9
$ACADMAINTVER
 70
    20
  9
$DWGCODEPAGE
  3
ANSI_1252
  9
$INSBASE
 10
0.0
 20
0.0
 30
0.0
  9
$EXTMIN
 10
-45.85644746951664
 20
-29.77729978696162
 30
-0.0000000349181948
  9
$EXTMAX
 10
100.3334494573075
 20
28.0035266079604
 30
0.0000000814935747
  9
$LIMMIN
 10
0.0
 20
0.0
  9
$LIMMAX
 10
12.0
 20
9.0
  9
$ORTHOMODE
 70
     0
  9
$REGENMODE
 70
     1
  9
$FILLMODE
 70
     1
  9
$QTEXTMODE
 70
     0
  9
$MIRRTEXT
 70
     1
  9
$LTSCALE
 40
1.0
  9
$ATTMODE
 70
     1
  9
$TEXTSIZE
 40
3.0
  9
$TRACEWID
 40
10.0
  9
$TEXTSTYLE
  7
SANDVIK_STYLE
  9
$CLAYER
  8
SK2
  9
$CELTYPE
  6
ByLayer
  9
$CECOLOR
 62
   256
  9
$CELTSCALE
 40
1.0
  9
$DISPSILH
 70
     0
  9
$DIMSCALE
 40
0.0
  9
$DIMASZ
 40
4.57
  9
$DIMEXO
 40
0.0
  9
$DIMDLI
 40
0.38
  9
$DIMRND
 40
0.0
  9
$DIMDLE
 40
0.0
  9
$DIMEXE
 40
5.0
  9
$DIMTP
 40
0.0
  9
$DIMTM
 40
0.0
  9
$DIMTXT
 40
4.5
  9
$DIMCEN
 40
0.09
  9
$DIMTSZ
 40
0.0
  9
$DIMTOL
 70
     0
  9
$DIMLIM
 70
     0
  9
$DIMTIH
 70
     0
  9
$DIMTOH
 70
     0
  9
$DIMSE1
 70
     0
  9
$DIMSE2
 70
     0
  9
$DIMTAD
 70
     1
  9
$DIMZIN
 70
     8
  9
$DIMBLK
  1

  9
$DIMASO
 70
     1
  9
$DIMSHO
 70
     1
  9
$DIMPOST
  1
 
  9
$DIMAPOST
  1
 
  9
$DIMALT
 70
     0
  9
$DIMALTD
 70
     2
  9
$DIMALTF
 40
25.4
  9
$DIMLFAC
 40
1.0
  9
$DIMTOFL
 70
     0
  9
$DIMTVP
 40
0.0
  9
$DIMTIX
 70
     0
  9
$DIMSOXD
 70
     0
  9
$DIMSAH
 70
     0
  9
$DIMBLK1
  1

  9
$DIMBLK2
  1

  9
$DIMSTYLE
  2
SANDVIK_DIM
  9
$DIMCLRD
 70
   256
  9
$DIMCLRE
 70
   256
  9
$DIMCLRT
 70
   256
  9
$DIMTFAC
 40
1.0
  9
$DIMGAP
 40
2.299999999999998
  9
$DIMJUST
 70
     0
  9
$DIMSD1
 70
     0
  9
$DIMSD2
 70
     0
  9
$DIMTOLJ
 70
     1
  9
$DIMTZIN
 70
     0
  9
$DIMALTZ
 70
     0
  9
$DIMALTTZ
 70
     0
  9
$DIMUPT
 70
     0
  9
$DIMDEC
 70
     2
  9
$DIMTDEC
 70
     2
  9
$DIMALTU
 70
     2
  9
$DIMALTTD
 70
     2
  9
$DIMTXSTY
  7
SANDVIK_STYLE
  9
$DIMAUNIT
 70
     0
  9
$DIMADEC
 70
     0
  9
$DIMALTRND
 40
0.0
  9
$DIMAZIN
 70
     0
  9
$DIMDSEP
 70
    46
  9
$DIMATFIT
 70
     3
  9
$DIMFRAC
 70
     0
  9
$DIMLDRBLK
  1

  9
$DIMLUNIT
 70
     2
  9
$DIMLWD
 70
    -2
  9
$DIMLWE
 70
    -2
  9
$DIMTMOVE
 70
     2
  9
$LUNITS
 70
     2
  9
$LUPREC
 70
     2
  9
$SKETCHINC
 40
0.0
  9
$FILLETRAD
 40
0.0
  9
$AUNITS
 70
     0
  9
$AUPREC
 70
     2
  9
$MENU
  1
acad
  9
$ELEVATION
 40
0.0
  9
$PELEVATION
 40
0.0
  9
$THICKNESS
 40
0.0
  9
$LIMCHECK
 70
     0
  9
$CHAMFERA
 40
0.0
  9
$CHAMFERB
 40
0.0
  9
$CHAMFERC
 40
0.0
  9
$CHAMFERD
 40
0.0
  9
$SKPOLY
 70
     0
  9
$TDCREATE
 40
2455817.646292060
  9
$TDUCREATE
 40
2455817.562958727
  9
$TDUPDATE
 40
2456818.535345868
  9
$TDUUPDATE
 40
2456818.452012535
  9
$TDINDWG
 40
0.0913727662
  9
$TDUSRTIMER
 40
0.0913727083
  9
$USRTIMER
 70
     1
  9
$ANGBASE
 50
0.0
  9
$ANGDIR
 70
     0
  9
$PDMODE
 70
     0
  9
$PDSIZE
 40
0.0
  9
$PLINEWID
 40
0.0
  9
$SPLFRAME
 70
     0
  9
$SPLINETYPE
 70
     6
  9
$SPLINESEGS
 70
     8
  9
$HANDSEED
  5
3097
  9
$SURFTAB1
 70
     6
  9
$SURFTAB2
 70
     6
  9
$SURFTYPE
 70
     6
  9
$SURFU
 70
     6
  9
$SURFV
 70
     6
  9
$UCSBASE
  2

  9
$UCSNAME
  2

  9
$UCSORG
 10
0.0
 20
0.0
 30
0.0
  9
$UCSXDIR
 10
1.0
 20
0.0
 30
0.0
  9
$UCSYDIR
 10
0.0
 20
1.0
 30
0.0
  9
$UCSORTHOREF
  2

  9
$UCSORTHOVIEW
 70
     0
  9
$UCSORGTOP
 10
0.0
 20
0.0
 30
0.0
  9
$UCSORGBOTTOM
 10
0.0
 20
0.0
 30
0.0
  9
$UCSORGLEFT
 10
0.0
 20
0.0
 30
0.0
  9
$UCSORGRIGHT
 10
0.0
 20
0.0
 30
0.0
  9
$UCSORGFRONT
 10
0.0
 20
0.0
 30
0.0
  9
$UCSORGBACK
 10
0.0
 20
0.0
 30
0.0
  9
$PUCSBASE
  2

  9
$PUCSNAME
  2

  9
$PUCSORG
 10
0.0
 20
0.0
 30
0.0
  9
$PUCSXDIR
 10
1.0
 20
0.0
 30
0.0
  9
$PUCSYDIR
 10
0.0
 20
1.0
 30
0.0
  9
$PUCSORTHOREF
  2

  9
$PUCSORTHOVIEW
 70
     0
  9
$PUCSORGTOP
 10
0.0
 20
0.0
 30
0.0
  9
$PUCSORGBOTTOM
 10
0.0
 20
0.0
 30
0.0
  9
$PUCSORGLEFT
 10
0.0
 20
0.0
 30
0.0
  9
$PUCSORGRIGHT
 10
0.0
 20
0.0
 30
0.0
  9
$PUCSORGFRONT
 10
0.0
 20
0.0
 30
0.0
  9
$PUCSORGBACK
 10
0.0
 20
0.0
 30
0.0
  9
$USERI1
 70
     0
  9
$USERI2
 70
     0
  9
$USERI3
 70
     0
  9
$USERI4
 70
     0
  9
$USERI5
 70
     0
  9
$USERR1
 40
0.0
  9
$USERR2
 40
0.0
  9
$USERR3
 40
0.0
  9
$USERR4
 40
0.0
  9
$USERR5
 40
0.0
  9
$WORLDVIEW
 70
     1
  9
$SHADEDGE
 70
     3
  9
$SHADEDIF
 70
    70
  9
$TILEMODE
 70
     1
  9
$MAXACTVP
 70
    16
  9
$PINSBASE
 10
0.0
 20
0.0
 30
0.0
  9
$PLIMCHECK
 70
     0
  9
$PEXTMIN
 10
1.000000000000000E+20
 20
1.000000000000000E+20
 30
1.000000000000000E+20
  9
$PEXTMAX
 10
-1.000000000000000E+20
 20
-1.000000000000000E+20
 30
-1.000000000000000E+20
  9
$PLIMMIN
 10
0.0
 20
0.0
  9
$PLIMMAX
 10
12.0
 20
9.0
  9
$UNITMODE
 70
     0
  9
$VISRETAIN
 70
     0
  9
$PLINEGEN
 70
     0
  9
$PSLTSCALE
 70
     1
  9
$TREEDEPTH
 70
  3020
  9
$CMLSTYLE
  2
Standard
  9
$CMLJUST
 70
     0
  9
$CMLSCALE
 40
1.0
  9
$PROXYGRAPHICS
 70
     1
  9
$MEASUREMENT
 70
     0
  9
$CELWEIGHT
370
    -1
  9
$ENDCAPS
280
     0
  9
$JOINSTYLE
280
     0
  9
$LWDISPLAY
290
     0
  9
$INSUNITS
 70
     0
  9
$HYPERLINKBASE
  1

  9
$STYLESHEET
  1

  9
$XEDIT
290
     1
  9
$CEPSNTYPE
380
     0
  9
$PSTYLEMODE
290
     1
  9
$FINGERPRINTGUID
  2
{BC6BEBD7-5C89-4B2E-99DC-E3119A1637E9}
  9
$VERSIONGUID
  2
{A846D762-B54D-4F13-B904-84840C77E6A0}
  9
$EXTNAMES
290
     1
  9
$PSVPSCALE
 40
0.0
  9
$OLESTARTUP
290
     0
  0
ENDSEC
  0
SECTION
  2
CLASSES
  0
CLASS
  1
ACDBDICTIONARYWDFLT
  2
AcDbDictionaryWithDefault
  3
ObjectDBX Classes
 90
        0
280
     0
281
     0
  0
CLASS
  1
MATERIAL
  2
AcDbMaterial
  3
ObjectDBX Classes
 90
     1153
280
     0
281
     0
  0
CLASS
  1
VISUALSTYLE
  2
AcDbVisualStyle
  3
ObjectDBX Classes
 90
     4095
280
     0
281
     0
  0
CLASS
  1
TABLESTYLE
  2
AcDbTableStyle
  3
ObjectDBX Classes
 90
     4095
280
     0
281
     0
  0
CLASS
  1
SCALE
  2
AcDbScale
  3
ObjectDBX Classes
 90
     1153
280
     0
281
     0
  0
CLASS
  1
MLEADERSTYLE
  2
AcDbMLeaderStyle
  3
ACDB_MLEADERSTYLE_CLASS
 90
     4095
280
     0
281
     0
  0
CLASS
  1
ACDBSECTIONVIEWSTYLE
  2
AcDbSectionViewStyle
  3
ObjectDBX Classes
 90
     1025
280
     0
281
     0
  0
CLASS
  1
ACDBDETAILVIEWSTYLE
  2
AcDbDetailViewStyle
  3
ObjectDBX Classes
 90
     1025
280
     0
281
     0
  0
CLASS
  1
EXACXREFPANELOBJECT
  2
ExAcXREFPanelObject
  3
EXAC_ESW
 90
     1025
280
     0
281
     0
  0
CLASS
  1
NPOCOLLECTION
  2
AcDbImpNonPersistentObjectsCollection
  3
ObjectDBX Classes
 90
     1153
280
     0
281
     0
  0
CLASS
  1
DICTIONARYVAR
  2
AcDbDictionaryVar
  3
ObjectDBX Classes
 90
        0
280
     0
281
     0
  0
CLASS
  1
CELLSTYLEMAP
  2
AcDbCellStyleMap
  3
ObjectDBX Classes
 90
     1152
280
     0
281
     0
  0
CLASS
  1
ACDBPLACEHOLDER
  2
AcDbPlaceHolder
  3
ObjectDBX Classes
 90
        0
280
     0
281
     0
  0
CLASS
  1
LAYOUT
  2
AcDbLayout
  3
ObjectDBX Classes
 90
        0
280
     0
281
     0
  0
ENDSEC
  0
SECTION
  2
TABLES
  0
TABLE
  2
VPORT
  5
BDF
330
0
100
AcDbSymbolTable
 70
     1
  0
VPORT
  5
2FA9
330
BDF
100
AcDbSymbolTableRecord
100
AcDbViewportTableRecord
  2
*Active
 70
     0
 10
0.0
 20
0.0
 11
1.0
 21
1.0
 12
27.23850099389546
 22
-0.8868865895006123
 13
0.0
 23
0.0
 14
1.0
 24
1.0
 15
0.0
 25
0.0
 16
0.0
 26
0.0
 36
1.0
 17
0.0
 27
0.0
 37
0.0
 40
74.07414670008479
 41
2.2
 42
50.0
 43
0.0
 44
0.0
 50
0.0
 51
0.0
 71
     0
 72
   100
 73
     1
 74
     1
 75
     0
 76
     0
 77
     0
 78
     0
281
     0
 65
     1
110
0.0
120
0.0
130
0.0
111
1.0
121
0.0
131
0.0
112
0.0
122
1.0
132
0.0
 79
     0
146
0.0
1001
ACAD_NAV_VCDISPLAY
1070
     3
  0
ENDTAB
  0
TABLE
  2
LTYPE
  5
BDC
330
0
100
AcDbSymbolTable
 70
     4
  0
LTYPE
  5
BEA
330
BDC
100
AcDbSymbolTableRecord
100
AcDbLinetypeTableRecord
  2
ByBlock
 70
     0
  3

 72
    65
 73
     0
 40
0.0
  0
LTYPE
  5
BEB
330
BDC
100
AcDbSymbolTableRecord
100
AcDbLinetypeTableRecord
  2
ByLayer
 70
     0
  3

 72
    65
 73
     0
 40
0.0
  0
LTYPE
  5
BEC
330
BDC
100
AcDbSymbolTableRecord
100
AcDbLinetypeTableRecord
  2
CONTINUOUS
 70
     0
  3
Solid line
 72
    65
 73
     0
 40
0.0
  0
LTYPE
  5
BFE
330
BDC
100
AcDbSymbolTableRecord
100
AcDbLinetypeTableRecord
  2
CENTER
 70
     0
  3
____ _ ____ _ ____ _ ____ _ ____ _ ____ _ ____
 72
    65
 73
     4
 40
5.059897
 49
3.162434999999998
 74
     0
 49
-0.6324870000000004
 74
     0
 49
0.6324870000000004
 74
     0
 49
-0.6324870000000004
 74
     0
  0
LTYPE
  5
BFF
330
BDC
100
AcDbSymbolTableRecord
100
AcDbLinetypeTableRecord
  2
DASHED
 70
     0
  3
__ __ __ __ __ __ __ __ __ __ __ __ __ __ __ __
 72
    65
 73
     2
 40
7.589844999999997
 49
5.059897
 74
     0
 49
-2.529948
 74
     0
  0
LTYPE
  5
2FF5
330
BDC
100
AcDbSymbolTableRecord
100
AcDbLinetypeTableRecord
  2
PHANTOM2
 70
     0
  3
Phantom (.5x) ___ _ _ ___ _ _ ___ _ _ ___ _ _
 72
    65
 73
     6
 40
1.25
 49
0.625
 74
     0
 49
-0.125
 74
     0
 49
0.125
 74
     0
 49
-0.125
 74
     0
 49
0.125
 74
     0
 49
-0.125
 74
     0
  0
ENDTAB
  0
TABLE
  2
LAYER
  5
BD9
330
0
100
AcDbSymbolTable
 70
    40
  0
LAYER
  5
BE7
102
{ACAD_XDICTIONARY
360
2FFD
102
}
330
BD9
100
AcDbSymbolTableRecord
100
AcDbLayerTableRecord
  2
0
 70
     0
 62
     7
  6
CONTINUOUS
370
    -3
390
BE6
  0
LAYER
  5
BFB
102
{ACAD_XDICTIONARY
360
2FFF
102
}
330
BD9
100
AcDbSymbolTableRecord
100
AcDbLayerTableRecord
  2
3
 70
     0
 62
     1
  6
DASHED
370
    -3
390
BE6
  0
LAYER
  5
C00
102
{ACAD_XDICTIONARY
360
3001
102
}
330
BD9
100
AcDbSymbolTableRecord
100
AcDbLayerTableRecord
  2
1
 70
     0
 62
     4
  6
CONTINUOUS
370
    -3
390
BE6
  0
LAYER
  5
C01
102
{ACAD_XDICTIONARY
360
3003
102
}
330
BD9
100
AcDbSymbolTableRecord
100
AcDbLayerTableRecord
  2
61
 70
     0
 62
     5
  6
CONTINUOUS
370
    -3
390
BE6
  0
LAYER
  5
C02
102
{ACAD_XDICTIONARY
360
3005
102
}
330
BD9
100
AcDbSymbolTableRecord
100
AcDbLayerTableRecord
  2
62
 70
     0
 62
    -5
  6
CONTINUOUS
370
    -3
390
BE6
  0
LAYER
  5
C03
102
{ACAD_XDICTIONARY
360
3007
102
}
330
BD9
100
AcDbSymbolTableRecord
100
AcDbLayerTableRecord
  2
63
 70
     0
 62
    -5
  6
CONTINUOUS
370
    -3
390
BE6
  0
LAYER
  5
C04
102
{ACAD_XDICTIONARY
360
3009
102
}
330
BD9
100
AcDbSymbolTableRecord
100
AcDbLayerTableRecord
  2
64
 70
     0
 62
    -5
  6
CONTINUOUS
370
    -3
390
BE6
  0
LAYER
  5
C05
102
{ACAD_XDICTIONARY
360
300B
102
}
330
BD9
100
AcDbSymbolTableRecord
100
AcDbLayerTableRecord
  2
65
 70
     0
 62
    -5
  6
CONTINUOUS
370
    -3
390
BE6
  0
LAYER
  5
C06
102
{ACAD_XDICTIONARY
360
300D
102
}
330
BD9
100
AcDbSymbolTableRecord
100
AcDbLayerTableRecord
  2
66
 70
     0
 62
    -5
  6
CONTINUOUS
370
    -3
390
BE6
  0
LAYER
  5
C07
102
{ACAD_XDICTIONARY
360
300F
102
}
330
BD9
100
AcDbSymbolTableRecord
100
AcDbLayerTableRecord
  2
67
 70
     0
 62
    -5
  6
CONTINUOUS
370
    -3
390
BE6
  0
LAYER
  5
C08
102
{ACAD_XDICTIONARY
360
3011
102
}
330
BD9
100
AcDbSymbolTableRecord
100
AcDbLayerTableRecord
  2
68
 70
     0
 62
    -5
  6
CONTINUOUS
370
    -3
390
BE6
  0
LAYER
  5
C09
102
{ACAD_XDICTIONARY
360
3013
102
}
330
BD9
100
AcDbSymbolTableRecord
100
AcDbLayerTableRecord
  2
69
 70
     0
 62
    -5
  6
CONTINUOUS
370
    -3
390
BE6
  0
LAYER
  5
C0A
102
{ACAD_XDICTIONARY
360
3015
102
}
330
BD9
100
AcDbSymbolTableRecord
100
AcDbLayerTableRecord
  2
70
 70
     0
 62
     5
  6
CONTINUOUS
370
    -3
390
BE6
  0
LAYER
  5
C0B
102
{ACAD_XDICTIONARY
360
3017
102
}
330
BD9
100
AcDbSymbolTableRecord
100
AcDbLayerTableRecord
  2
2
 70
     0
 62
     7
  6
CONTINUOUS
370
    -3
390
BE6
  0
LAYER
  5
C0C
102
{ACAD_XDICTIONARY
360
3019
102
}
330
BD9
100
AcDbSymbolTableRecord
100
AcDbLayerTableRecord
  2
4
 70
     0
 62
    -2
  6
CENTER
370
    -3
390
BE6
  0
LAYER
  5
C0D
102
{ACAD_XDICTIONARY
360
301B
102
}
330
BD9
100
AcDbSymbolTableRecord
100
AcDbLayerTableRecord
  2
5
 70
     0
 62
    -7
  6
CONTINUOUS
370
    -3
390
BE6
  0
LAYER
  5
C0E
102
{ACAD_XDICTIONARY
360
301D
102
}
330
BD9
100
AcDbSymbolTableRecord
100
AcDbLayerTableRecord
  2
SK1
 70
     0
 62
     4
  6
CONTINUOUS
370
    -3
390
BE6
  0
LAYER
  5
C0F
102
{ACAD_XDICTIONARY
360
301F
102
}
330
BD9
100
AcDbSymbolTableRecord
100
AcDbLayerTableRecord
  2
6
 70
     0
 62
     5
  6
CONTINUOUS
370
    -3
390
BE6
  0
LAYER
  5
C10
102
{ACAD_XDICTIONARY
360
3021
102
}
330
BD9
100
AcDbSymbolTableRecord
100
AcDbLayerTableRecord
  2
SK2
 70
     0
 62
     7
  6
CONTINUOUS
370
    -3
390
BE6
  0
LAYER
  5
C11
102
{ACAD_XDICTIONARY
360
3023
102
}
330
BD9
100
AcDbSymbolTableRecord
100
AcDbLayerTableRecord
  2
SK3
 70
     0
 62
     1
  6
DASHED
370
    -3
390
BE6
  0
LAYER
  5
C12
102
{ACAD_XDICTIONARY
360
3025
102
}
330
BD9
100
AcDbSymbolTableRecord
100
AcDbLayerTableRecord
  2
SK4
 70
     0
 62
     2
  6
CENTER
370
    -3
390
BE6
  0
LAYER
  5
C13
102
{ACAD_XDICTIONARY
360
3027
102
}
330
BD9
100
AcDbSymbolTableRecord
100
AcDbLayerTableRecord
  2
CUT
 70
     0
 62
     1
  6
CONTINUOUS
370
    -3
390
BE6
  0
LAYER
  5
C14
102
{ACAD_XDICTIONARY
360
3029
102
}
330
BD9
100
AcDbSymbolTableRecord
100
AcDbLayerTableRecord
  2
SK6
 70
     0
 62
     5
  6
CONTINUOUS
370
    -3
390
BE6
  0
LAYER
  5
C15
102
{ACAD_XDICTIONARY
360
302B
102
}
330
BD9
100
AcDbSymbolTableRecord
100
AcDbLayerTableRecord
  2
80
 70
     0
 62
    -2
  6
CENTER
370
    -3
390
BE6
  0
LAYER
  5
C16
102
{ACAD_XDICTIONARY
360
302D
102
}
330
BD9
100
AcDbSymbolTableRecord
100
AcDbLayerTableRecord
  2
81
 70
     0
 62
    -2
  6
CENTER
370
    -3
390
BE6
  0
LAYER
  5
C17
102
{ACAD_XDICTIONARY
360
302F
102
}
330
BD9
100
AcDbSymbolTableRecord
100
AcDbLayerTableRecord
  2
82
 70
     0
 62
    -2
  6
CENTER
370
    -3
390
BE6
  0
LAYER
  5
C18
102
{ACAD_XDICTIONARY
360
3031
102
}
330
BD9
100
AcDbSymbolTableRecord
100
AcDbLayerTableRecord
  2
NOCUT
 70
     0
 62
     7
  6
CONTINUOUS
370
    -3
390
BE6
  0
LAYER
  5
C19
102
{ACAD_XDICTIONARY
360
3033
102
}
330
BD9
100
AcDbSymbolTableRecord
100
AcDbLayerTableRecord
  2
50
 70
     0
 62
    -7
  6
CONTINUOUS
370
    -3
390
BE6
  0
LAYER
  5
C1A
102
{ACAD_XDICTIONARY
360
3035
102
}
330
BD9
100
AcDbSymbolTableRecord
100
AcDbLayerTableRecord
  2
51
 70
     0
 62
     7
  6
CONTINUOUS
370
    -3
390
BE6
  0
LAYER
  5
C1B
102
{ACAD_XDICTIONARY
360
3037
102
}
330
BD9
100
AcDbSymbolTableRecord
100
AcDbLayerTableRecord
  2
52
 70
     0
 62
    -7
  6
CONTINUOUS
370
    -3
390
BE6
  0
LAYER
  5
C1C
102
{ACAD_XDICTIONARY
360
3039
102
}
330
BD9
100
AcDbSymbolTableRecord
100
AcDbLayerTableRecord
  2
53
 70
     0
 62
    -7
  6
CONTINUOUS
370
    -3
390
BE6
  0
LAYER
  5
C1D
102
{ACAD_XDICTIONARY
360
303B
102
}
330
BD9
100
AcDbSymbolTableRecord
100
AcDbLayerTableRecord
  2
54
 70
     0
 62
    -7
  6
CONTINUOUS
370
    -3
390
BE6
  0
LAYER
  5
C1E
102
{ACAD_XDICTIONARY
360
303D
102
}
330
BD9
100
AcDbSymbolTableRecord
100
AcDbLayerTableRecord
  2
55
 70
     0
 62
    -7
  6
CONTINUOUS
370
    -3
390
BE6
  0
LAYER
  5
C1F
102
{ACAD_XDICTIONARY
360
303F
102
}
330
BD9
100
AcDbSymbolTableRecord
100
AcDbLayerTableRecord
  2
56
 70
     0
 62
    -7
  6
CONTINUOUS
370
    -3
390
BE6
  0
LAYER
  5
C20
102
{ACAD_XDICTIONARY
360
3041
102
}
330
BD9
100
AcDbSymbolTableRecord
100
AcDbLayerTableRecord
  2
57
 70
     0
 62
    -7
  6
CONTINUOUS
370
    -3
390
BE6
  0
LAYER
  5
C21
102
{ACAD_XDICTIONARY
360
3043
102
}
330
BD9
100
AcDbSymbolTableRecord
100
AcDbLayerTableRecord
  2
58
 70
     0
 62
    -7
  6
CONTINUOUS
370
    -3
390
BE6
  0
LAYER
  5
C22
102
{ACAD_XDICTIONARY
360
3045
102
}
330
BD9
100
AcDbSymbolTableRecord
100
AcDbLayerTableRecord
  2
2L
 70
     0
 62
     7
  6
CONTINUOUS
370
    -3
390
BE6
  0
LAYER
  5
C23
102
{ACAD_XDICTIONARY
360
3047
102
}
330
BD9
100
AcDbSymbolTableRecord
100
AcDbLayerTableRecord
  2
59
 70
     0
 62
    -7
  6
CONTINUOUS
370
    -3
390
BE6
  0
LAYER
  5
C24
330
BD9
100
AcDbSymbolTableRecord
100
AcDbLayerTableRecord
  2
DEFPOINTS
 70
     0
 62
     7
  6
CONTINUOUS
290
     0
370
    -3
390
BE6
  0
LAYER
  5
C42
102
{ACAD_XDICTIONARY
360
3049
102
}
330
BD9
100
AcDbSymbolTableRecord
100
AcDbLayerTableRecord
  2
TFR-TRI
 70
     0
 62
     7
  6
CONTINUOUS
370
    -3
390
BE6
  0
ENDTAB
  0
TABLE
  2
STYLE
  5
BDA
330
0
100
AcDbSymbolTable
 70
     2
  0
STYLE
  5
BE8
330
BDA
100
AcDbSymbolTableRecord
100
AcDbTextStyleTableRecord
  2
STANDARD
 70
     0
 40
0.0
 41
1.0
 50
0.0
 71
     0
 42
4.5
  3
simplex.shx
  4

  0
STYLE
  5
BFC
330
BDA
100
AcDbSymbolTableRecord
100
AcDbTextStyleTableRecord
  2
SANDVIK_STYLE
 70
     0
 40
3.0
 41
1.0
 50
0.0
 71
     0
 42
3.0
  3
simplex.shx
  4

  0
ENDTAB
  0
TABLE
  2
VIEW
  5
BDD
330
0
100
AcDbSymbolTable
 70
     0
  0
ENDTAB
  0
TABLE
  2
UCS
  5
BDE
330
0
100
AcDbSymbolTable
 70
     0
  0
ENDTAB
  0
TABLE
  2
APPID
  5
BE0
330
0
100
AcDbSymbolTable
 70
     4
  0
APPID
  5
BE9
330
BE0
100
AcDbSymbolTableRecord
100
AcDbRegAppTableRecord
  2
ACAD
 70
     0
  0
APPID
  5
304D
330
BE0
100
AcDbSymbolTableRecord
100
AcDbRegAppTableRecord
  2
DCO15
 70
     0
  0
APPID
  5
3059
330
BE0
100
AcDbSymbolTableRecord
100
AcDbRegAppTableRecord
  2
ACAD_NAV_VCDISPLAY
 70
     0
  0
APPID
  5
3096
330
BE0
100
AcDbSymbolTableRecord
100
AcDbRegAppTableRecord
  2
ACAD_MLEADERVER
 70
     0
  0
ENDTAB
  0
TABLE
  2
DIMSTYLE
  5
BE1
330
0
100
AcDbSymbolTable
 70
     2
100
AcDbDimStyleTable
 71
     1
340
C26
  0
DIMSTYLE
105
C25
330
BE1
100
AcDbSymbolTableRecord
100
AcDbDimStyleTableRecord
  2
STANDARD
 70
     0
  3
 
  4
 
 41
3.0
 42
2.5
 43
10.0
 44
2.5
 46
1.25
 73
     0
 74
     0
140
3.0
141
-3.0
143
0.039
145
1.5
146
0.75
147
1.5
271
     2
272
     2
279
     2
340
BFC
  0
DIMSTYLE
105
C26
102
{ACAD_REACTORS
330
2EE8
330
2EF6
330
2F04
330
2F11
330
2F1E
330
2F2B
330
2F38
102
}
330
BE1
100
AcDbSymbolTableRecord
100
AcDbDimStyleTableRecord
  2
SANDVIK_DIM
 70
     0
  3
 
  4
 
 40
0.0
 41
4.57
 42
0.0
 44
5.0
 73
     0
 74
     0
 77
     1
 78
     8
140
4.5
147
2.299999999999998
176
   256
177
   256
178
   256
271
     2
272
     2
279
     2
340
BFC
  0
ENDTAB
  0
TABLE
  2
BLOCK_RECORD
  5
BD8
330
0
100
AcDbSymbolTable
 70
     9
  0
BLOCK_RECORD
  5
BF7
330
BD8
100
AcDbSymbolTableRecord
100
AcDbBlockTableRecord
  2
*Model_Space
340
BFA
  0
BLOCK_RECORD
  5
BF3
330
BD8
100
AcDbSymbolTableRecord
100
AcDbBlockTableRecord
  2
*Paper_Space
340
BF6
  0
BLOCK_RECORD
  5
C28
330
BD8
100
AcDbSymbolTableRecord
100
AcDbBlockTableRecord
  2
$MODEL_SPACE
340
0
  0
BLOCK_RECORD
  5
C2A
330
BD8
100
AcDbSymbolTableRecord
100
AcDbBlockTableRecord
  2
$PAPER_SPACE
340
0
  0
BLOCK_RECORD
  5
2EE9
330
BD8
100
AcDbSymbolTableRecord
100
AcDbBlockTableRecord
  2
*D2
340
0
  0
BLOCK_RECORD
  5
2EF7
330
BD8
100
AcDbSymbolTableRecord
100
AcDbBlockTableRecord
  2
*D3
340
0
  0
BLOCK_RECORD
  5
2F05
330
BD8
100
AcDbSymbolTableRecord
100
AcDbBlockTableRecord
  2
*D4
340
0
  0
BLOCK_RECORD
  5
2F12
330
BD8
100
AcDbSymbolTableRecord
100
AcDbBlockTableRecord
  2
*D5
340
0
  0
BLOCK_RECORD
  5
2F1F
330
BD8
100
AcDbSymbolTableRecord
100
AcDbBlockTableRecord
  2
*D6
340
0
  0
BLOCK_RECORD
  5
2F2C
330
BD8
100
AcDbSymbolTableRecord
100
AcDbBlockTableRecord
  2
*D7
340
0
  0
BLOCK_RECORD
  5
2F39
330
BD8
100
AcDbSymbolTableRecord
100
AcDbBlockTableRecord
  2
*D8
340
0
  0
ENDTAB
  0
ENDSEC
  0
SECTION
  2
BLOCKS
  0
BLOCK
  5
BF8
330
BF7
100
AcDbEntity
  8
0
100
AcDbBlockBegin
  2
*Model_Space
 70
     0
 10
0.0
 20
0.0
 30
0.0
  3
*Model_Space
  1

  0
ENDBLK
  5
BF9
330
BF7
100
AcDbEntity
  8
0
100
AcDbBlockEnd
  0
BLOCK
  5
BF4
330
BF3
100
AcDbEntity
 67
     1
  8
0
100
AcDbBlockBegin
  2
*Paper_Space
 70
     0
 10
0.0
 20
0.0
 30
0.0
  3
*Paper_Space
  1

  0
ENDBLK
  5
BF5
330
BF3
100
AcDbEntity
 67
     1
  8
0
100
AcDbBlockEnd
  0
BLOCK
  5
C29
330
C28
100
AcDbEntity
  8
0
100
AcDbBlockBegin
  2
$MODEL_SPACE
 70
     0
 10
0.0
 20
0.0
 30
0.0
  3
$MODEL_SPACE
  1

  0
ENDBLK
  5
AEF
330
C28
100
AcDbEntity
  8
0
100
AcDbBlockEnd
  0
BLOCK
  5
C2B
330
C2A
100
AcDbEntity
  8
0
100
AcDbBlockBegin
  2
$PAPER_SPACE
 70
     0
 10
0.0
 20
0.0
 30
0.0
  3
$PAPER_SPACE
  1

  0
ENDBLK
  5
AEB
330
C2A
100
AcDbEntity
  8
0
100
AcDbBlockEnd
  0
BLOCK
  5
2EF4
330
2EE9
100
AcDbEntity
  8
0
100
AcDbBlockBegin
  2
*D2
 70
     1
 10
0.0
 20
0.0
 30
0.0
  3
*D2
  1

  0
LINE
  5
2F59
330
2EE9
100
AcDbEntity
  8
SK2
370
    -2
100
AcDbLine
 10
-35.35047600000001
 20
2.999998999999998
 30
0.0
 11
-45.85088961494387
 21
2.999999000000001
 31
0.0
  0
LINE
  5
2F5A
330
2EE9
100
AcDbEntity
  8
SK2
370
    -2
100
AcDbLine
 10
-35.35047600000001
 20
-2.999998999999998
 30
0.0
 11
-45.85088961494387
 21
-2.999998999999995
 31
0.0
  0
LINE
  5
2F5B
330
2EE9
100
AcDbEntity
  8
SK2
370
    -2
100
AcDbLine
 10
-40.85088961494387
 20
7.569999000000001
 30
0.0
 11
-40.85088961494387
 21
12.139999
 31
0.0
  0
LINE
  5
2F5C
330
2EE9
100
AcDbEntity
  8
SK2
370
    -2
100
AcDbLine
 10
-40.85088961494387
 20
-7.569998999999997
 30
0.0
 11
-40.85088961494387
 21
-12.139999
 31
0.0
  0
MTEXT
  5
2F5D
330
2EE9
100
AcDbEntity
  8
SK2
100
AcDbMText
 10
-40.23755230160714
 20
-17.53213463461037
 30
0.0
 40
3.0
 41
0.0
 71
     5
 72
     1
  1
\A1;%%C 6 
  7
SANDVIK_STYLE
 11
0.0000000000000001
 21
1.0
 31
0.0
 73
     1
 44
1.0
1001
ACAD
1000
MTEXTBEGIN
1070
    73
1070
     1
1070
    44
1040
1.0
1070
    74
1070
     0
1000
MTEXTEND
  0
SOLID
  5
2F5E
330
2EE9
100
AcDbEntity
  8
SK2
100
AcDbTrace
 10
-41.61255628161053
 20
7.569999000000001
 30
0.0
 11
-40.08922294827717
 21
7.569999000000001
 31
0.0
 12
-40.85088961494387
 22
2.999999
 32
0.0
 13
-40.85088961494387
 23
2.999999
 33
0.0
  0
SOLID
  5
2F5F
330
2EE9
100
AcDbEntity
  8
SK2
100
AcDbTrace
 10
-41.61255628161053
 20
-7.569998999999997
 30
0.0
 11
-40.08922294827717
 21
-7.569998999999997
 31
0.0
 12
-40.85088961494387
 22
-2.999998999999997
 32
0.0
 13
-40.85088961494387
 23
-2.999998999999997
 33
0.0
  0
POINT
  5
2F60
330
2EE9
100
AcDbEntity
  8
DEFPOINTS
 62
     0
100
AcDbPoint
 10
-35.35047600000001
 20
2.999998999999998
 30
0.0
  0
POINT
  5
2F61
330
2EE9
100
AcDbEntity
  8
DEFPOINTS
 62
     0
100
AcDbPoint
 10
-35.35047600000001
 20
-2.999998999999998
 30
0.0
  0
POINT
  5
2F62
330
2EE9
100
AcDbEntity
  8
DEFPOINTS
 62
     0
100
AcDbPoint
 10
-40.85088961494387
 20
-2.999998999999997
 30
0.0
  0
ENDBLK
  5
2EF5
330
2EE9
100
AcDbEntity
  8
0
100
AcDbBlockEnd
  0
BLOCK
  5
2F02
330
2EF7
100
AcDbEntity
  8
0
100
AcDbBlockBegin
  2
*D3
 70
     1
 10
0.0
 20
0.0
 30
0.0
  3
*D3
  1

  0
LINE
  5
2F89
330
2EF7
100
AcDbEntity
  8
2
370
    -2
100
AcDbLine
 10
91.10500599999999
 20
2.381498999999998
 30
0.0
 11
100.3278278905958
 21
2.381498999999995
 31
0.0
  0
LINE
  5
2F8A
330
2EF7
100
AcDbEntity
  8
2
370
    -2
100
AcDbLine
 10
91.10500599999999
 20
-2.381498999999998
 30
0.0
 11
100.3278278905958
 21
-2.381499
 31
0.0
  0
LINE
  5
2F8B
330
2EF7
100
AcDbEntity
  8
2
370
    -2
100
AcDbLine
 10
95.32782789059579
 20
6.951498999999996
 30
0.0
 11
95.32782789059579
 21
11.52149899999999
 31
0.0
  0
LINE
  5
2F8C
330
2EF7
100
AcDbEntity
  8
2
370
    -2
100
AcDbLine
 10
95.32782789059579
 20
-6.951499
 30
0.0
 11
95.32782789059579
 21
-11.521499
 31
0.0
  0
MTEXT
  5
2F8D
330
2EF7
100
AcDbEntity
  8
2
100
AcDbMText
 10
95.69390477063246
 20
-20.08457135042687
 30
0.0
 40
3.0
 41
0.0
 71
     5
 72
     1
  1
\A1;%%C 4.76 
  7
SANDVIK_STYLE
 11
0.0000000000000001
 21
1.0
 31
0.0
 73
     1
 44
1.0
1001
ACAD
1000
MTEXTBEGIN
1070
    73
1070
     1
1070
    44
1040
1.0
1070
    74
1070
     0
1000
MTEXTEND
  0
SOLID
  5
2F8E
330
2EF7
100
AcDbEntity
  8
2
100
AcDbTrace
 10
94.56616122392912
 20
6.951498999999996
 30
0.0
 11
96.08949455726248
 21
6.951498999999996
 31
0.0
 12
95.32782789059579
 22
2.381498999999996
 32
0.0
 13
95.32782789059579
 23
2.381498999999996
 33
0.0
  0
SOLID
  5
2F8F
330
2EF7
100
AcDbEntity
  8
2
100
AcDbTrace
 10
94.56616122392912
 20
-6.951499
 30
0.0
 11
96.08949455726248
 21
-6.951499
 31
0.0
 12
95.32782789059579
 22
-2.381498999999998
 32
0.0
 13
95.32782789059579
 23
-2.381498999999998
 33
0.0
  0
POINT
  5
2F90
330
2EF7
100
AcDbEntity
  8
DEFPOINTS
 62
     0
100
AcDbPoint
 10
91.10500599999999
 20
2.381498999999998
 30
0.0
  0
POINT
  5
2F91
330
2EF7
100
AcDbEntity
  8
DEFPOINTS
 62
     0
100
AcDbPoint
 10
91.10500599999999
 20
-2.381498999999998
 30
0.0
  0
POINT
  5
2F92
330
2EF7
100
AcDbEntity
  8
DEFPOINTS
 62
     0
100
AcDbPoint
 10
95.32782789059579
 20
-2.381498999999998
 30
0.0
  0
ENDBLK
  5
2F03
330
2EF7
100
AcDbEntity
  8
0
100
AcDbBlockEnd
  0
BLOCK
  5
2F0F
330
2F05
100
AcDbEntity
  8
0
100
AcDbBlockBegin
  2
*D4
 70
     1
 10
0.0
 20
0.0
 30
0.0
  3
*D4
  1

  0
LINE
  5
2F06
330
2F05
100
AcDbEntity
  8
SK2
370
    -2
100
AcDbLine
 10
91.10500599999999
 20
2.381498999999998
 30
0.0
 11
91.10500599999999
 21
10.53732797729634
 31
0.0
  0
LINE
  5
2F07
330
2F05
100
AcDbEntity
  8
SK2
370
    -2
100
AcDbLine
 10
34.10500599999999
 20
2.381499000000008
 30
0.0
 11
34.10500599999999
 21
10.53732797729634
 31
0.0
  0
LINE
  5
2F08
330
2F05
100
AcDbEntity
  8
SK2
370
    -2
100
AcDbLine
 10
86.53500599999999
 20
5.53732797729634
 30
0.0
 11
38.67500599999999
 21
5.53732797729634
 31
0.0
  0
SOLID
  5
2F09
330
2F05
100
AcDbEntity
  8
SK2
100
AcDbTrace
 10
86.53500599999999
 20
6.298994643963007
 30
0.0
 11
86.53500599999999
 21
4.775661310629676
 31
0.0
 12
91.10500599999999
 22
5.53732797729634
 32
0.0
 13
91.10500599999999
 23
5.53732797729634
 33
0.0
  0
SOLID
  5
2F0A
330
2F05
100
AcDbEntity
  8
SK2
100
AcDbTrace
 10
38.67500599999999
 20
6.298994643963007
 30
0.0
 11
38.67500599999999
 21
4.775661310629676
 31
0.0
 12
34.10500599999999
 22
5.53732797729634
 32
0.0
 13
34.10500599999999
 23
5.53732797729634
 33
0.0
  0
MTEXT
  5
2F0B
330
2F05
100
AcDbEntity
  8
SK2
100
AcDbMText
 10
62.60500599999999
 20
9.33732797729634
 30
0.0
 40
3.0
 41
0.0
 71
     5
 72
     1
  1
\A1;57 
  7
SANDVIK_STYLE
 73
     1
 44
1.0
1001
ACAD
1000
MTEXTBEGIN
1070
    73
1070
     1
1070
    44
1040
1.0
1070
    74
1070
     0
1000
MTEXTEND
  0
POINT
  5
2F0C
330
2F05
100
AcDbEntity
  8
DEFPOINTS
 62
     0
100
AcDbPoint
 10
91.10500599999999
 20
2.381498999999998
 30
0.0
  0
POINT
  5
2F0D
330
2F05
100
AcDbEntity
  8
DEFPOINTS
 62
     0
100
AcDbPoint
 10
34.10500599999999
 20
2.381499000000008
 30
0.0
  0
POINT
  5
2F0E
330
2F05
100
AcDbEntity
  8
DEFPOINTS
 62
     0
100
AcDbPoint
 10
34.10500599999999
 20
5.53732797729634
 30
0.0
  0
ENDBLK
  5
2F10
330
2F05
100
AcDbEntity
  8
0
100
AcDbBlockEnd
  0
BLOCK
  5
2F1C
330
2F12
100
AcDbEntity
  8
0
100
AcDbBlockBegin
  2
*D5
 70
     1
 10
0.0
 20
0.0
 30
0.0
  3
*D5
  1

  0
LINE
  5
2F9C
330
2F12
100
AcDbEntity
  8
2
370
    -2
100
AcDbLine
 10
91.99997299999999
 20
-0.0000004999999987
 30
0.0
 11
91.99997299999999
 21
-13.82816379278506
 31
0.0
  0
LINE
  5
2F9D
330
2F12
100
AcDbEntity
  8
2
370
    -2
100
AcDbLine
 10
5.999972999999998
 20
-0.0000004999999882
 30
0.0
 11
5.999972999999996
 21
-13.82816379278506
 31
0.0
  0
LINE
  5
2F9E
330
2F12
100
AcDbEntity
  8
2
370
    -2
100
AcDbLine
 10
87.42997299999997
 20
-8.828163792785062
 30
0.0
 11
10.56997299999999
 21
-8.828163792785062
 31
0.0
  0
SOLID
  5
2F9F
330
2F12
100
AcDbEntity
  8
2
100
AcDbTrace
 10
87.42997299999997
 20
-8.066497126118392
 30
0.0
 11
87.42997299999997
 21
-9.589830459451727
 31
0.0
 12
91.99997299999999
 22
-8.828163792785062
 32
0.0
 13
91.99997299999999
 23
-8.828163792785062
 33
0.0
  0
SOLID
  5
2FA0
330
2F12
100
AcDbEntity
  8
2
100
AcDbTrace
 10
10.56997299999999
 20
-8.066497126118392
 30
0.0
 11
10.56997299999999
 21
-9.589830459451727
 31
0.0
 12
5.999972999999996
 22
-8.828163792785062
 32
0.0
 13
5.999972999999996
 23
-8.828163792785062
 33
0.0
  0
MTEXT
  5
2FA1
330
2F12
100
AcDbEntity
  8
2
100
AcDbMText
 10
48.99997299999999
 20
-5.028163792785063
 30
0.0
 40
3.0
 41
0.0
 71
     5
 72
     1
  1
\A1;86 
  7
SANDVIK_STYLE
 73
     1
 44
1.0
1001
ACAD
1000
MTEXTBEGIN
1070
    73
1070
     1
1070
    44
1040
1.0
1070
    74
1070
     0
1000
MTEXTEND
  0
POINT
  5
2FA2
330
2F12
100
AcDbEntity
  8
DEFPOINTS
 62
     0
100
AcDbPoint
 10
91.99997299999999
 20
-0.0000004999999987
 30
0.0
  0
POINT
  5
2FA3
330
2F12
100
AcDbEntity
  8
DEFPOINTS
 62
     0
100
AcDbPoint
 10
5.999972999999998
 20
-0.0000004999999882
 30
0.0
  0
POINT
  5
2FA4
330
2F12
100
AcDbEntity
  8
DEFPOINTS
 62
     0
100
AcDbPoint
 10
5.999972999999996
 20
-8.828163792785062
 30
0.0
  0
ENDBLK
  5
2F1D
330
2F12
100
AcDbEntity
  8
0
100
AcDbBlockEnd
  0
BLOCK
  5
2F29
330
2F1F
100
AcDbEntity
  8
0
100
AcDbBlockBegin
  2
*D6
 70
     1
 10
0.0
 20
0.0
 30
0.0
  3
*D6
  1

  0
LINE
  5
2F93
330
2F1F
100
AcDbEntity
  8
2
370
    -2
100
AcDbLine
 10
91.99997299999999
 20
0.0
 30
0.0
 11
91.99997299999999
 21
-21.84632639288287
 31
0.0
  0
LINE
  5
2F94
330
2F1F
100
AcDbEntity
  8
2
370
    -2
100
AcDbLine
 10
0.0
 20
-2.999998999999998
 30
0.0
 11
-0.0000000000000012
 21
-21.84632639288287
 31
0.0
  0
LINE
  5
2F95
330
2F1F
100
AcDbEntity
  8
2
370
    -2
100
AcDbLine
 10
87.42997299999997
 20
-16.84632639288287
 30
0.0
 11
4.569999999999998
 21
-16.84632639288287
 31
0.0
  0
SOLID
  5
2F96
330
2F1F
100
AcDbEntity
  8
2
100
AcDbTrace
 10
87.42997299999997
 20
-16.0846597262162
 30
0.0
 11
87.42997299999997
 21
-17.60799305954954
 31
0.0
 12
91.99997299999999
 22
-16.84632639288287
 32
0.0
 13
91.99997299999999
 23
-16.84632639288287
 33
0.0
  0
SOLID
  5
2F97
330
2F1F
100
AcDbEntity
  8
2
100
AcDbTrace
 10
4.569999999999998
 20
-16.0846597262162
 30
0.0
 11
4.569999999999998
 21
-17.60799305954954
 31
0.0
 12
-0.0000000000000008
 22
-16.84632639288287
 32
0.0
 13
-0.0000000000000008
 23
-16.84632639288287
 33
0.0
  0
MTEXT
  5
2F98
330
2F1F
100
AcDbEntity
  8
2
100
AcDbMText
 10
45.99998649999998
 20
-13.04632639288287
 30
0.0
 40
3.0
 41
0.0
 71
     5
 72
     1
  1
\A1;92 
  7
SANDVIK_STYLE
 73
     1
 44
1.0
1001
ACAD
1000
MTEXTBEGIN
1070
    73
1070
     1
1070
    44
1040
1.0
1070
    74
1070
     0
1000
MTEXTEND
  0
POINT
  5
2F99
330
2F1F
100
AcDbEntity
  8
DEFPOINTS
 62
     0
100
AcDbPoint
 10
91.99997299999999
 20
0.0
 30
0.0
  0
POINT
  5
2F9A
330
2F1F
100
AcDbEntity
  8
DEFPOINTS
 62
     0
100
AcDbPoint
 10
0.0
 20
-2.999998999999998
 30
0.0
  0
POINT
  5
2F9B
330
2F1F
100
AcDbEntity
  8
DEFPOINTS
 62
     0
100
AcDbPoint
 10
-0.0000000000000008
 20
-16.84632639288287
 30
0.0
  0
ENDBLK
  5
2F2A
330
2F1F
100
AcDbEntity
  8
0
100
AcDbBlockEnd
  0
BLOCK
  5
2F36
330
2F2C
100
AcDbEntity
  8
0
100
AcDbBlockBegin
  2
*D7
 70
     1
 10
0.0
 20
0.0
 30
0.0
  3
*D7
  1

  0
LINE
  5
2F2D
330
2F2C
100
AcDbEntity
  8
SK2
370
    -2
100
AcDbLine
 10
91.99997299999999
 20
-0.0000004999999987
 30
0.0
 11
91.99997299999999
 21
-29.7737737170778
 31
0.0
  0
LINE
  5
2F2E
330
2F2C
100
AcDbEntity
  8
SK2
370
    -2
100
AcDbLine
 10
-35.99999400000001
 20
-2.624998999999998
 30
0.0
 11
-35.99999400000001
 21
-29.7737737170778
 31
0.0
  0
LINE
  5
2F2F
330
2F2C
100
AcDbEntity
  8
SK2
370
    -2
100
AcDbLine
 10
87.42997299999997
 20
-24.7737737170778
 30
0.0
 11
-31.42999400000002
 21
-24.7737737170778
 31
0.0
  0
SOLID
  5
2F30
330
2F2C
100
AcDbEntity
  8
SK2
100
AcDbTrace
 10
87.42997299999997
 20
-24.01210705041114
 30
0.0
 11
87.42997299999997
 21
-25.53544038374447
 31
0.0
 12
91.99997299999999
 22
-24.7737737170778
 32
0.0
 13
91.99997299999999
 23
-24.7737737170778
 33
0.0
  0
SOLID
  5
2F31
330
2F2C
100
AcDbEntity
  8
SK2
100
AcDbTrace
 10
-31.42999400000002
 20
-24.01210705041114
 30
0.0
 11
-31.42999400000002
 21
-25.53544038374447
 31
0.0
 12
-35.99999400000001
 22
-24.7737737170778
 32
0.0
 13
-35.99999400000001
 23
-24.7737737170778
 33
0.0
  0
MTEXT
  5
2F32
330
2F2C
100
AcDbEntity
  8
SK2
100
AcDbMText
 10
27.99998949999999
 20
-20.9737737170778
 30
0.0
 40
3.0
 41
0.0
 71
     5
 72
     1
  1
\A1;128 
  7
SANDVIK_STYLE
 73
     1
 44
1.0
1001
ACAD
1000
MTEXTBEGIN
1070
    73
1070
     1
1070
    44
1040
1.0
1070
    74
1070
     0
1000
MTEXTEND
  0
POINT
  5
2F33
330
2F2C
100
AcDbEntity
  8
DEFPOINTS
 62
     0
100
AcDbPoint
 10
91.99997299999999
 20
-0.0000004999999987
 30
0.0
  0
POINT
  5
2F34
330
2F2C
100
AcDbEntity
  8
DEFPOINTS
 62
     0
100
AcDbPoint
 10
-35.99999400000001
 20
-2.624998999999998
 30
0.0
  0
POINT
  5
2F35
330
2F2C
100
AcDbEntity
  8
DEFPOINTS
 62
     0
100
AcDbPoint
 10
-35.99999400000001
 20
-24.7737737170778
 30
0.0
  0
ENDBLK
  5
2F37
330
2F2C
100
AcDbEntity
  8
0
100
AcDbBlockEnd
  0
BLOCK
  5
2F43
330
2F39
100
AcDbEntity
  8
0
100
AcDbBlockBegin
  2
*D8
 70
     1
 10
0.0
 20
0.0
 30
0.0
  3
*D8
  1

  0
LINE
  5
2F3A
330
2F39
100
AcDbEntity
  8
SK2
370
    -2
100
AcDbLine
 10
-35.99999400000001
 20
-2.471607999999998
 30
0.0
 11
-35.99999400000001
 21
-21.84632639288287
 31
0.0
  0
LINE
  5
2F3B
330
2F39
100
AcDbEntity
  8
SK2
370
    -2
100
AcDbLine
 10
0.0
 20
-2.999998999999998
 30
0.0
 11
-0.0000000000000012
 21
-21.84632639288287
 31
0.0
  0
LINE
  5
2F3C
330
2F39
100
AcDbEntity
  8
SK2
370
    -2
100
AcDbLine
 10
-31.42999400000002
 20
-16.84632639288287
 30
0.0
 11
-4.570000000000001
 21
-16.84632639288287
 31
0.0
  0
SOLID
  5
2F3D
330
2F39
100
AcDbEntity
  8
SK2
100
AcDbTrace
 10
-31.42999400000002
 20
-16.0846597262162
 30
0.0
 11
-31.42999400000002
 21
-17.60799305954954
 31
0.0
 12
-35.99999400000001
 22
-16.84632639288287
 32
0.0
 13
-35.99999400000001
 23
-16.84632639288287
 33
0.0
  0
SOLID
  5
2F3E
330
2F39
100
AcDbEntity
  8
SK2
100
AcDbTrace
 10
-4.570000000000001
 20
-16.0846597262162
 30
0.0
 11
-4.570000000000001
 21
-17.60799305954954
 31
0.0
 12
-0.0000000000000008
 22
-16.84632639288287
 32
0.0
 13
-0.0000000000000008
 23
-16.84632639288287
 33
0.0
  0
MTEXT
  5
2F3F
330
2F39
100
AcDbEntity
  8
SK2
100
AcDbMText
 10
-17.999997
 20
-13.04632639288287
 30
0.0
 40
3.0
 41
0.0
 71
     5
 72
     1
  1
\A1;36 
  7
SANDVIK_STYLE
 73
     1
 44
1.0
1001
ACAD
1000
MTEXTBEGIN
1070
    73
1070
     1
1070
    44
1040
1.0
1070
    74
1070
     0
1000
MTEXTEND
  0
POINT
  5
2F40
330
2F39
100
AcDbEntity
  8
DEFPOINTS
 62
     0
100
AcDbPoint
 10
-35.99999400000001
 20
-2.471607999999998
 30
0.0
  0
POINT
  5
2F41
330
2F39
100
AcDbEntity
  8
DEFPOINTS
 62
     0
100
AcDbPoint
 10
0.0
 20
-2.999998999999998
 30
0.0
  0
POINT
  5
2F42
330
2F39
100
AcDbEntity
  8
DEFPOINTS
 62
     0
100
AcDbPoint
 10
-0.0000000000000008
 20
-16.84632639288287
 30
0.0
  0
ENDBLK
  5
2F44
330
2F39
100
AcDbEntity
  8
0
100
AcDbBlockEnd
  0
ENDSEC
  0
SECTION
  2
ENTITIES
  0
TEXT
  5
62
330
BF7
100
AcDbEntity
  8
SK6
100
AcDbText
 10
-18.5
 20
25.0
 30
0.0
 40
3.0
  1
861.1-0476-057A1-GM
 41
0.7540842026666673
  7
SANDVIK_STYLE
 72
     5
 11
21.897368
 21
25.0
 31
0.0
100
AcDbText
  0
LINE
  5
2C57
330
BF7
100
AcDbEntity
  8
SK1
100
AcDbLine
 10
0.0
 20
2.999998999999998
 30
0.0
 11
0.0
 21
-2.999998999999998
 31
0.0
  0
ARC
  5
2C58
330
BF7
100
AcDbEntity
  8
1
100
AcDbCircle
 10
0.5
 20
2.881498999999998
 30
0.0
 40
0.4999999906281083
100
AcDbArc
 50
180.0
 51
270.0
  0
ARC
  5
2C59
330
BF7
100
AcDbEntity
  8
1
100
AcDbCircle
 10
0.5
 20
-2.881499999999995
 30
0.0
 40
0.4999999906281083
100
AcDbArc
 50
90.0
 51
180.0
  0
LINE
  5
2C5A
330
BF7
100
AcDbEntity
  8
1
100
AcDbLine
 10
17.122459
 20
1.067644000000001
 30
0.0
 11
15.07551499999998
 21
1.952522
 31
0.0
  0
LINE
  5
2C5B
330
BF7
100
AcDbEntity
  8
1
100
AcDbLine
 10
18.34332599999999
 20
0.3392549999999979
 30
0.0
 11
17.122459
 21
1.067644000000001
 31
0.0
  0
LINE
  5
2C5C
330
BF7
100
AcDbEntity
  8
1
100
AcDbLine
 10
19.56419399999998
 20
-0.4281859999999968
 30
0.0
 11
18.34332599999999
 21
0.3392549999999979
 31
0.0
  0
LINE
  5
2C5D
330
BF7
100
AcDbEntity
  8
1
100
AcDbLine
 10
20.78505
 20
-1.146334999999994
 30
0.0
 11
19.56419399999998
 21
-0.4281859999999968
 31
0.0
  0
LINE
  5
2C5E
330
BF7
100
AcDbEntity
  8
1
100
AcDbLine
 10
22.00591799999999
 20
-1.732546999999995
 30
0.0
 11
20.78505
 21
-1.146334999999994
 31
0.0
  0
LINE
  5
2C5F
330
BF7
100
AcDbEntity
  8
1
100
AcDbLine
 10
23.226773
 20
-2.119296999999995
 30
0.0
 11
22.00591799999999
 21
-1.732546999999995
 31
0.0
  0
LINE
  5
2C60
330
BF7
100
AcDbEntity
  8
1
100
AcDbLine
 10
24.44764099999999
 20
-2.262107999999996
 30
0.0
 11
23.226773
 21
-2.119296999999995
 31
0.0
  0
LINE
  5
2C61
330
BF7
100
AcDbEntity
  8
1
100
AcDbLine
 10
24.51555099999999
 20
-2.255565999999996
 30
0.0
 11
24.44764099999999
 21
-2.262107999999996
 31
0.0
  0
LINE
  5
2C62
330
BF7
100
AcDbEntity
  8
1
100
AcDbLine
 10
39.09799399999999
 20
1.347307999999999
 30
0.0
 11
37.75019599999999
 21
1.910116000000002
 31
0.0
  0
LINE
  5
2C63
330
BF7
100
AcDbEntity
  8
1
100
AcDbLine
 10
40.31884999999998
 20
0.6620670000000041
 30
0.0
 11
39.09799399999999
 21
1.347307999999999
 31
0.0
  0
LINE
  5
2C64
330
BF7
100
AcDbEntity
  8
1
100
AcDbLine
 10
41.53971799999998
 20
-0.0993969999999962
 30
0.0
 11
40.31884999999998
 21
0.6620670000000041
 31
0.0
  0
LINE
  5
2C65
330
BF7
100
AcDbEntity
  8
1
100
AcDbLine
 10
42.760574
 20
-0.8494139999999994
 30
0.0
 11
41.53971799999998
 21
-0.0993969999999962
 31
0.0
  0
LINE
  5
2C66
330
BF7
100
AcDbEntity
  8
1
100
AcDbLine
 10
43.98144099999997
 20
-1.501657999999999
 30
0.0
 11
42.760574
 21
-0.8494139999999994
 31
0.0
  0
LINE
  5
2C67
330
BF7
100
AcDbEntity
  8
1
100
AcDbLine
 10
45.20229699999998
 20
-1.981038999999999
 30
0.0
 11
43.98144099999997
 21
-1.501657999999999
 31
0.0
  0
LINE
  5
2C68
330
BF7
100
AcDbEntity
  8
1
100
AcDbLine
 10
46.42316499999998
 20
-2.232378999999998
 30
0.0
 11
45.20229699999998
 21
-1.981038999999999
 31
0.0
  0
LINE
  5
2C69
330
BF7
100
AcDbEntity
  8
1
100
AcDbLine
 10
47.00700799999999
 20
-2.229681999999995
 30
0.0
 11
46.42316499999998
 21
-2.232378999999998
 31
0.0
  0
LINE
  5
2C6A
330
BF7
100
AcDbEntity
  8
1
100
AcDbLine
 10
47.26060199999999
 20
-2.228509999999995
 30
0.0
 11
47.00700799999999
 21
-2.229681999999995
 31
0.0
  0
LINE
  5
2C6B
330
BF7
100
AcDbEntity
  8
1
100
AcDbLine
 10
62.29437399999999
 20
0.9706960000000036
 30
0.0
 11
60.353177
 21
1.859783
 31
0.0
  0
LINE
  5
2C6C
330
BF7
100
AcDbEntity
  8
1
100
AcDbLine
 10
63.51524099999998
 20
0.2315210000000007
 30
0.0
 11
62.29437399999999
 21
0.9706960000000036
 31
0.0
  0
LINE
  5
2C6D
330
BF7
100
AcDbEntity
  8
1
100
AcDbLine
 10
64.73609699999999
 20
-0.5343009999999993
 30
0.0
 11
63.51524099999998
 21
0.2315210000000007
 31
0.0
  0
LINE
  5
2C6E
330
BF7
100
AcDbEntity
  8
1
100
AcDbLine
 10
65.95696499999998
 20
-1.238623999999997
 30
0.0
 11
64.73609699999999
 21
-0.5343009999999993
 31
0.0
  0
LINE
  5
2C6F
330
BF7
100
AcDbEntity
  8
1
100
AcDbLine
 10
67.17782099999998
 20
-1.800362999999995
 30
0.0
 11
65.95696499999998
 21
-1.238623999999997
 31
0.0
  0
LINE
  5
2C70
330
BF7
100
AcDbEntity
  8
1
100
AcDbLine
 10
68.39868799999996
 20
-2.154878999999995
 30
0.0
 11
67.17782099999998
 21
-1.800362999999995
 31
0.0
  0
LINE
  5
2C71
330
BF7
100
AcDbEntity
  8
1
100
AcDbLine
 10
69.50508899999999
 20
-2.251331999999997
 30
0.0
 11
68.39868799999996
 21
-2.154878999999995
 31
0.0
  0
LINE
  5
2C72
330
BF7
100
AcDbEntity
  8
1
100
AcDbLine
 10
69.619556
 20
-2.261309999999996
 30
0.0
 11
69.50508899999999
 21
-2.251331999999997
 31
0.0
  0
LINE
  5
2C73
330
BF7
100
AcDbEntity
  8
1
100
AcDbLine
 10
69.85162799999999
 20
-2.232063999999997
 30
0.0
 11
69.619556
 21
-2.261309999999996
 31
0.0
  0
LINE
  5
2C74
330
BF7
100
AcDbEntity
  8
1
100
AcDbLine
 10
82.63748699999998
 20
1.931796000000002
 30
0.0
 11
82.34672299999997
 21
2.014507
 31
0.0
  0
LINE
  5
2C75
330
BF7
100
AcDbEntity
  8
1
100
AcDbLine
 10
84.269897
 20
1.258539
 30
0.0
 11
82.787527
 21
1.889117999999999
 31
0.0
  0
LINE
  5
2C76
330
BF7
100
AcDbEntity
  8
1
100
AcDbLine
 10
85.49076499999998
 20
0.5574830000000013
 30
0.0
 11
84.269897
 21
1.258539
 31
0.0
  0
LINE
  5
2C77
330
BF7
100
AcDbEntity
  8
1
100
AcDbLine
 10
86.89576699999998
 20
-0.3232719999999958
 30
0.0
 11
85.49076499999998
 21
0.5574830000000013
 31
0.0
  0
LINE
  5
2C78
330
BF7
100
AcDbEntity
  8
1
100
AcDbLine
 10
88.30077999999998
 20
-1.154895999999997
 30
0.0
 11
86.89576699999998
 21
-0.3232719999999958
 31
0.0
  0
LINE
  5
2C79
330
BF7
100
AcDbEntity
  8
1
100
AcDbLine
 10
89.70579399999998
 20
-1.811002999999995
 30
0.0
 11
88.30077999999998
 21
-1.154895999999997
 31
0.0
  0
LINE
  5
2C7A
330
BF7
100
AcDbEntity
  8
1
100
AcDbLine
 10
91.11079499999998
 20
-2.191881999999995
 30
0.0
 11
89.70579399999998
 21
-1.811002999999995
 31
0.0
  0
LINE
  5
2C7B
330
BF7
100
AcDbEntity
  8
1
100
AcDbLine
 10
7.355564999999997
 20
0.1746870000000023
 30
0.0
 11
6.134703
 21
0.918846000000002
 31
0.0
  0
LINE
  5
2C7C
330
BF7
100
AcDbEntity
  8
1
100
AcDbLine
 10
8.576425999999997
 20
-0.5895739999999991
 30
0.0
 11
7.355564999999997
 21
0.1746870000000023
 31
0.0
  0
LINE
  5
2C7D
330
BF7
100
AcDbEntity
  8
1
100
AcDbLine
 10
9.797287999999994
 20
-1.285971999999997
 30
0.0
 11
8.576425999999997
 21
-0.5895739999999991
 31
0.0
  0
LINE
  5
2C7E
330
BF7
100
AcDbEntity
  8
1
100
AcDbLine
 10
11.01814999999999
 20
-1.834331999999995
 30
0.0
 11
9.797287999999994
 21
-1.285971999999997
 31
0.0
  0
LINE
  5
2C7F
330
BF7
100
AcDbEntity
  8
1
100
AcDbLine
 10
12.23901199999999
 20
-2.171557999999995
 30
0.0
 11
11.01814999999999
 21
-1.834331999999995
 31
0.0
  0
LINE
  5
2C80
330
BF7
100
AcDbEntity
  8
1
100
AcDbLine
 10
13.26053399999999
 20
-2.244571
 30
0.0
 11
12.23901199999999
 21
-2.171557999999995
 31
0.0
  0
LINE
  5
2C81
330
BF7
100
AcDbEntity
  8
1
100
AcDbLine
 10
13.459879
 20
-2.258816999999996
 30
0.0
 11
13.26053399999999
 21
-2.244571
 31
0.0
  0
LINE
  5
2C82
330
BF7
100
AcDbEntity
  8
1
100
AcDbLine
 10
13.8912
 20
-2.197773999999999
 30
0.0
 11
13.459879
 21
-2.258816999999996
 31
0.0
  0
LINE
  5
2C83
330
BF7
100
AcDbEntity
  8
1
100
AcDbLine
 10
28.11023300000001
 20
1.210722000000004
 30
0.0
 11
25.94948799999999
 21
2.060631
 31
0.0
  0
LINE
  5
2C84
330
BF7
100
AcDbEntity
  8
1
100
AcDbLine
 10
29.33108799999998
 20
0.5019989999999979
 30
0.0
 11
28.11023300000001
 21
1.210722000000004
 31
0.0
  0
LINE
  5
2C85
330
BF7
100
AcDbEntity
  8
1
100
AcDbLine
 10
30.55195600000001
 20
-0.2645029999999977
 30
0.0
 11
29.33108799999998
 21
0.5019989999999979
 31
0.0
  0
LINE
  5
2C86
330
BF7
100
AcDbEntity
  8
1
100
AcDbLine
 10
31.77281199999999
 20
-1.000556999999997
 30
0.0
 11
30.55195600000001
 21
-0.2645029999999977
 31
0.0
  0
LINE
  5
2C87
330
BF7
100
AcDbEntity
  8
1
100
AcDbLine
 10
32.99368
 20
-1.621449999999995
 30
0.0
 11
31.77281199999999
 21
-1.000556999999997
 31
0.0
  0
LINE
  5
2C88
330
BF7
100
AcDbEntity
  8
1
100
AcDbLine
 10
34.214535
 20
-2.055671999999995
 30
0.0
 11
32.99368
 21
-1.621449999999995
 31
0.0
  0
LINE
  5
2C89
330
BF7
100
AcDbEntity
  8
1
100
AcDbLine
 10
35.435403
 20
-2.253278999999999
 30
0.0
 11
34.214535
 21
-2.055671999999995
 31
0.0
  0
LINE
  5
2C8A
330
BF7
100
AcDbEntity
  8
1
100
AcDbLine
 10
35.78782799999999
 20
-2.235445999999999
 30
0.0
 11
35.435403
 21
-2.253278999999999
 31
0.0
  0
LINE
  5
2C8B
330
BF7
100
AcDbEntity
  8
1
100
AcDbLine
 10
50.08575599999999
 20
1.476673000000004
 30
0.0
 11
48.67461399999998
 21
2.005629000000002
 31
0.0
  0
LINE
  5
2C8C
330
BF7
100
AcDbEntity
  8
1
100
AcDbLine
 10
51.30661199999998
 20
0.8185710000000019
 30
0.0
 11
50.08575599999999
 21
1.476673000000004
 31
0.0
  0
LINE
  5
2C8D
330
BF7
100
AcDbEntity
  8
1
100
AcDbLine
 10
52.52748000000001
 20
0.0662400000000041
 30
0.0
 11
51.30661199999998
 21
0.8185710000000019
 31
0.0
  0
LINE
  5
2C8E
330
BF7
100
AcDbEntity
  8
1
100
AcDbLine
 10
53.74833500000001
 20
-0.6937140000000001
 30
0.0
 11
52.52748000000001
 21
0.0662400000000041
 31
0.0
  0
LINE
  5
2C8F
330
BF7
100
AcDbEntity
  8
1
100
AcDbLine
 10
54.96920300000001
 20
-1.373817999999999
 30
0.0
 11
53.74833500000001
 21
-0.6937140000000001
 31
0.0
  0
LINE
  5
2C90
330
BF7
100
AcDbEntity
  8
1
100
AcDbLine
 10
56.19007100000001
 20
-1.895787999999995
 30
0.0
 11
54.96920300000001
 21
-1.373817999999999
 31
0.0
  0
LINE
  5
2C91
330
BF7
100
AcDbEntity
  8
1
100
AcDbLine
 10
57.410927
 20
-2.199514999999998
 30
0.0
 11
56.19007100000001
 21
-1.895787999999995
 31
0.0
  0
LINE
  5
2C92
330
BF7
100
AcDbEntity
  8
1
100
AcDbLine
 10
58.29389099999999
 20
-2.236069999999998
 30
0.0
 11
57.410927
 21
-2.199514999999998
 31
0.0
  0
LINE
  5
2C93
330
BF7
100
AcDbEntity
  8
1
100
AcDbLine
 10
58.445251
 20
-2.242335999999998
 30
0.0
 11
58.29389099999999
 21
-2.236069999999998
 31
0.0
  0
LINE
  5
2C94
330
BF7
100
AcDbEntity
  8
1
100
AcDbLine
 10
73.282135
 20
1.117611000000003
 30
0.0
 11
71.37318
 21
1.934454999999999
 31
0.0
  0
LINE
  5
2C95
330
BF7
100
AcDbEntity
  8
1
100
AcDbLine
 10
74.50300299999998
 20
0.3955650000000013
 30
0.0
 11
73.282135
 21
1.117611000000003
 31
0.0
  0
LINE
  5
2C96
330
BF7
100
AcDbEntity
  8
1
100
AcDbLine
 10
75.72385899999997
 20
-0.3720239999999997
 30
0.0
 11
74.50300299999998
 21
0.3955650000000013
 31
0.0
  0
LINE
  5
2C97
330
BF7
100
AcDbEntity
  8
1
100
AcDbLine
 10
76.94472699999998
 20
-1.096779999999996
 30
0.0
 11
75.72385899999997
 21
-0.3720239999999997
 31
0.0
  0
LINE
  5
2C98
330
BF7
100
AcDbEntity
  8
1
100
AcDbLine
 10
78.16558199999999
 20
-1.695290999999995
 30
0.0
 11
76.94472699999998
 21
-1.096779999999996
 31
0.0
  0
LINE
  5
2C99
330
BF7
100
AcDbEntity
  8
1
100
AcDbLine
 10
79.38644999999998
 20
-2.098650999999995
 30
0.0
 11
78.16558199999999
 21
-1.695290999999995
 31
0.0
  0
LINE
  5
2C9A
330
BF7
100
AcDbEntity
  8
1
100
AcDbLine
 10
80.60731799999997
 20
-2.260431999999997
 30
0.0
 11
79.38644999999998
 21
-2.098650999999995
 31
0.0
  0
LINE
  5
2C9B
330
BF7
100
AcDbEntity
  8
1
100
AcDbLine
 10
80.75346999999998
 20
-2.248649
 30
0.0
 11
80.60731799999997
 21
-2.260431999999997
 31
0.0
  0
LINE
  5
2C9C
330
BF7
100
AcDbEntity
  8
1
100
AcDbLine
 10
80.82782299999998
 20
-2.242654999999999
 30
0.0
 11
80.75346999999998
 21
-2.248649
 31
0.0
  0
LINE
  5
2C9D
330
BF7
100
AcDbEntity
  8
1
100
AcDbLine
 10
10.02291599999999
 20
0.918846000000002
 30
0.0
 11
6.134703
 21
0.918846000000002
 31
0.0
  0
LINE
  5
2C9E
330
BF7
100
AcDbEntity
  8
1
100
AcDbLine
 10
5.962165999999996
 20
0.9313180000000008
 30
0.0
 11
5.810824999999994
 21
0.9672080000000027
 31
0.0
  0
LINE
  5
2C9F
330
BF7
100
AcDbEntity
  8
1
100
AcDbLine
 10
6.134703
 20
0.918846000000002
 30
0.0
 11
5.962165999999996
 21
0.9313180000000008
 31
0.0
  0
LINE
  5
2CA0
330
BF7
100
AcDbEntity
  8
1
100
AcDbLine
 10
6.134703
 20
1.598382999999999
 30
0.0
 11
6.134703
 21
0.918846000000002
 31
0.0
  0
LINE
  5
2CA1
330
BF7
100
AcDbEntity
  8
SK1
100
AcDbLine
 10
-35.35047600000001
 20
-0.4855249999999958
 30
0.0
 11
-35.99999400000001
 21
-0.4873909999999988
 31
0.0
  0
LINE
  5
2CA2
330
BF7
100
AcDbEntity
  8
SK1
100
AcDbLine
 10
-35.99999400000001
 20
-0.512597999999997
 30
0.0
 11
-35.35047600000001
 21
-0.5144599999999963
 31
0.0
  0
LINE
  5
2CA3
330
BF7
100
AcDbEntity
  8
1
100
AcDbLine
 10
91.97048100000001
 20
0.1122940000000021
 30
0.0
 11
91.44915899999999
 21
0.478378000000003
 31
0.0
  0
LINE
  5
2CA4
330
BF7
100
AcDbEntity
  8
1
100
AcDbLine
 10
91.92255499999999
 20
0.3065290000000047
 30
0.0
 11
91.87542900000002
 21
0.4634929999999997
 31
0.0
  0
LINE
  5
2CA5
330
BF7
100
AcDbEntity
  8
1
100
AcDbLine
 10
91.33906399999998
 20
0.4199910000000032
 30
0.0
 11
91.336799
 21
0.4089570000000009
 31
0.0
  0
LINE
  5
2CA6
330
BF7
100
AcDbEntity
  8
1
100
AcDbLine
 10
91.350885
 20
0.4422340000000027
 30
0.0
 11
91.33906399999998
 21
0.4199910000000032
 31
0.0
  0
LINE
  5
2CA7
330
BF7
100
AcDbEntity
  8
1
100
AcDbLine
 10
91.37011799999998
 20
0.4593989999999978
 30
0.0
 11
91.350885
 21
0.4422340000000027
 31
0.0
  0
LINE
  5
2CA8
330
BF7
100
AcDbEntity
  8
1
100
AcDbLine
 10
91.398883
 20
0.4724590000000042
 30
0.0
 11
91.37011799999998
 21
0.4593989999999978
 31
0.0
  0
LINE
  5
2CA9
330
BF7
100
AcDbEntity
  8
1
100
AcDbLine
 10
91.44915899999999
 20
0.478378000000003
 30
0.0
 11
91.398883
 21
0.4724590000000042
 31
0.0
  0
LINE
  5
2CAA
330
BF7
100
AcDbEntity
  8
1
100
AcDbLine
 10
89.734099
 20
0.5443230000000057
 30
0.0
 11
91.33574499999999
 21
0.3999009999999998
 31
0.0
  0
LINE
  5
2CAB
330
BF7
100
AcDbEntity
  8
1
100
AcDbLine
 10
71.206317
 20
0.0232980000000005
 30
0.0
 11
75.00474099999998
 21
-0.5115139999999983
 31
0.0
  0
LINE
  5
2CAC
330
BF7
100
AcDbEntity
  8
1
100
AcDbLine
 10
69.005531
 20
0.3770309999999988
 30
0.0
 11
71.206317
 21
0.0232980000000005
 31
0.0
  0
LINE
  5
2CAD
330
BF7
100
AcDbEntity
  8
1
100
AcDbLine
 10
67.23030099999999
 20
0.5508999999999987
 30
0.0
 11
69.005531
 21
0.3770309999999988
 31
0.0
  0
LINE
  5
2CAE
330
BF7
100
AcDbEntity
  8
1
100
AcDbLine
 10
48.98960200000001
 20
-0.0253189999999961
 30
0.0
 11
52.49718799999998
 21
-0.5059519999999971
 31
0.0
  0
LINE
  5
2CAF
330
BF7
100
AcDbEntity
  8
1
100
AcDbLine
 10
46.78969999999998
 20
0.3368810000000018
 30
0.0
 11
48.98960200000001
 21
-0.0253189999999961
 31
0.0
  0
LINE
  5
2CB0
330
BF7
100
AcDbEntity
  8
1
100
AcDbLine
 10
44.73029299999997
 20
0.5588239999999978
 30
0.0
 11
46.78969999999998
 21
0.3368810000000018
 31
0.0
  0
LINE
  5
2CB1
330
BF7
100
AcDbEntity
  8
1
100
AcDbLine
 10
26.61338799999999
 20
-0.047309999999996
 30
0.0
 11
30.035224
 21
-0.5072930000000007
 31
0.0
  0
LINE
  5
2CB2
330
BF7
100
AcDbEntity
  8
1
100
AcDbLine
 10
24.37160399999999
 20
0.3245240000000003
 30
0.0
 11
26.61338799999999
 21
-0.047309999999996
 31
0.0
  0
LINE
  5
2CB3
330
BF7
100
AcDbEntity
  8
1
100
AcDbLine
 10
22.214795
 20
0.5581180000000005
 30
0.0
 11
24.37160399999999
 21
0.3245240000000003
 31
0.0
  0
LINE
  5
2CB4
330
BF7
100
AcDbEntity
  8
1
100
AcDbLine
 10
91.87542900000002
 20
0.4634929999999997
 30
0.0
 11
91.87907399999998
 21
0.4751170000000047
 31
0.0
  0
LINE
  5
2CB5
330
BF7
100
AcDbEntity
  8
1
100
AcDbLine
 10
91.87542900000002
 20
0.4634929999999997
 30
0.0
 11
91.44915899999999
 21
0.478378000000003
 31
0.0
  0
LINE
  5
2CB6
330
BF7
100
AcDbEntity
  8
1
100
AcDbLine
 10
82.348709
 20
0.0423700000000018
 30
0.0
 11
86.27194299999997
 21
-0.513290999999999
 31
0.0
  0
LINE
  5
2CB7
330
BF7
100
AcDbEntity
  8
1
100
AcDbLine
 10
80.10279500000001
 20
0.3980110000000039
 30
0.0
 11
82.348709
 21
0.0423700000000018
 31
0.0
  0
LINE
  5
2CB8
330
BF7
100
AcDbEntity
  8
1
100
AcDbLine
 10
78.40728299999998
 20
0.5519379999999999
 30
0.0
 11
80.10279500000001
 21
0.3980110000000039
 31
0.0
  0
LINE
  5
2CB9
330
BF7
100
AcDbEntity
  8
1
100
AcDbLine
 10
60.07807199999998
 20
0.0023050000000033
 30
0.0
 11
63.746611
 21
-0.5063759999999995
 31
0.0
  0
LINE
  5
2CBA
330
BF7
100
AcDbEntity
  8
1
100
AcDbLine
 10
57.83780199999998
 20
0.3653460000000024
 30
0.0
 11
60.07807199999998
 21
0.0023050000000033
 31
0.0
  0
LINE
  5
2CBB
330
BF7
100
AcDbEntity
  8
1
100
AcDbLine
 10
55.93131699999999
 20
0.5565530000000046
 30
0.0
 11
57.83780199999998
 21
0.3653460000000024
 31
0.0
  0
LINE
  5
2CBC
330
BF7
100
AcDbEntity
  8
1
100
AcDbLine
 10
37.82190899999999
 20
-0.0398560000000003
 30
0.0
 11
41.24272799999999
 21
-0.5035869999999996
 31
0.0
  0
LINE
  5
2CBD
330
BF7
100
AcDbEntity
  8
1
100
AcDbLine
 10
35.58128799999999
 20
0.3308100000000032
 30
0.0
 11
37.82190899999999
 21
-0.0398560000000003
 31
0.0
  0
LINE
  5
2CBE
330
BF7
100
AcDbEntity
  8
1
100
AcDbLine
 10
33.46948600000001
 20
0.5619670000000028
 30
0.0
 11
35.58128799999999
 21
0.3308100000000032
 31
0.0
  0
LINE
  5
2CBF
330
BF7
100
AcDbEntity
  8
1
100
AcDbLine
 10
14.86197399999999
 20
0.0399000000000029
 30
0.0
 11
18.78294299999999
 21
-0.5072509999999966
 31
0.0
  0
LINE
  5
2CC0
330
BF7
100
AcDbEntity
  8
1
100
AcDbLine
 10
12.48636799999998
 20
0.4129570000000025
 30
0.0
 11
14.86197399999999
 21
0.0399000000000029
 31
0.0
  0
LINE
  5
2CC1
330
BF7
100
AcDbEntity
  8
1
100
AcDbLine
 10
10.96060699999998
 20
0.5392640000000029
 30
0.0
 11
12.48636799999998
 21
0.4129570000000025
 31
0.0
  0
LINE
  5
2CC2
330
BF7
100
AcDbEntity
  8
1
100
AcDbLine
 10
10.76944899999999
 20
1.076052
 30
0.0
 11
10.37695199999999
 21
0.7835129999999994
 31
0.0
  0
LINE
  5
2CC3
330
BF7
100
AcDbEntity
  8
1
100
AcDbLine
 10
10.925617
 20
1.223942000000004
 30
0.0
 11
10.76944899999999
 21
1.076052
 31
0.0
  0
LINE
  5
2CC4
330
BF7
100
AcDbEntity
  8
1
100
AcDbLine
 10
11.06534899999999
 20
1.365181999999999
 30
0.0
 11
10.925617
 21
1.223942000000004
 31
0.0
  0
LINE
  5
2CC5
330
BF7
100
AcDbEntity
  8
1
100
AcDbLine
 10
11.31215399999999
 20
1.625329000000004
 30
0.0
 11
11.06534899999999
 21
1.365181999999999
 31
0.0
  0
LINE
  5
2CC6
330
BF7
100
AcDbEntity
  8
1
100
AcDbLine
 10
11.52953499999999
 20
1.849643
 30
0.0
 11
11.31215399999999
 21
1.625329000000004
 31
0.0
  0
LINE
  5
2CC7
330
BF7
100
AcDbEntity
  8
1
100
AcDbLine
 10
11.654866
 20
1.967789000000003
 30
0.0
 11
11.52953499999999
 21
1.849643
 31
0.0
  0
LINE
  5
2CC8
330
BF7
100
AcDbEntity
  8
1
100
AcDbLine
 10
11.77908299999998
 20
2.072564000000003
 30
0.0
 11
11.654866
 21
1.967789000000003
 31
0.0
  0
LINE
  5
2CC9
330
BF7
100
AcDbEntity
  8
1
100
AcDbLine
 10
12.02854699999999
 20
2.238717999999996
 30
0.0
 11
11.77908299999998
 21
2.072564000000003
 31
0.0
  0
LINE
  5
2CCA
330
BF7
100
AcDbEntity
  8
1
100
AcDbLine
 10
12.41033099999998
 20
2.380998999999999
 30
0.0
 11
12.02854699999999
 21
2.238717999999996
 31
0.0
  0
LINE
  5
2CCB
330
BF7
100
AcDbEntity
  8
SK1
100
AcDbLine
 10
-35.99999400000001
 20
-1.349849999999995
 30
0.0
 11
-35.99999400000001
 21
-0.512597999999997
 31
0.0
  0
LINE
  5
2CCC
330
BF7
100
AcDbEntity
  8
SK1
100
AcDbLine
 10
-35.99999400000001
 20
-2.029326999999998
 30
0.0
 11
-35.99999400000001
 21
-1.349849999999995
 31
0.0
  0
LINE
  5
2CCD
330
BF7
100
AcDbEntity
  8
SK1
100
AcDbLine
 10
-35.99999400000001
 20
-2.471607999999998
 30
0.0
 11
-35.99999400000001
 21
-2.029326999999998
 31
0.0
  0
LINE
  5
2CCE
330
BF7
100
AcDbEntity
  8
SK1
100
AcDbLine
 10
-35.99999400000001
 20
-2.624998999999998
 30
0.0
 11
-35.99999400000001
 21
-2.471607999999998
 31
0.0
  0
LINE
  5
2CCF
330
BF7
100
AcDbEntity
  8
SK1
100
AcDbLine
 10
-35.99999400000001
 20
-0.4873909999999988
 30
0.0
 11
-35.99999400000001
 21
-0.512597999999997
 31
0.0
  0
LINE
  5
2CD0
330
BF7
100
AcDbEntity
  8
SK1
100
AcDbLine
 10
-35.35047600000001
 20
-2.883436999999998
 30
0.0
 11
-35.35047600000001
 21
-2.999998999999998
 31
0.0
  0
LINE
  5
2CD1
330
BF7
100
AcDbEntity
  8
SK1
100
AcDbLine
 10
-35.35047600000001
 20
-2.542769999999995
 30
0.0
 11
-35.35047600000001
 21
-2.883436999999998
 31
0.0
  0
LINE
  5
2CD2
330
BF7
100
AcDbEntity
  8
SK1
100
AcDbLine
 10
-35.35047600000001
 20
-2.004474999999995
 30
0.0
 11
-35.35047600000001
 21
-2.542769999999995
 31
0.0
  0
LINE
  5
2CD3
330
BF7
100
AcDbEntity
  8
SK1
100
AcDbLine
 10
-35.35047600000001
 20
-1.310389999999998
 30
0.0
 11
-35.35047600000001
 21
-2.004474999999995
 31
0.0
  0
LINE
  5
2CD4
330
BF7
100
AcDbEntity
  8
SK1
100
AcDbLine
 10
-35.35047600000001
 20
-0.5144599999999963
 30
0.0
 11
-35.35047600000001
 21
-1.310389999999998
 31
0.0
  0
LINE
  5
2CD5
330
BF7
100
AcDbEntity
  8
SK1
100
AcDbLine
 10
-35.35047600000001
 20
1.289209000000002
 30
0.0
 11
-35.35047600000001
 21
0.4855270000000014
 31
0.0
  0
LINE
  5
2CD6
330
BF7
100
AcDbEntity
  8
SK1
100
AcDbLine
 10
-35.35047600000001
 20
1.991300999999999
 30
0.0
 11
-35.35047600000001
 21
1.289209000000002
 31
0.0
  0
LINE
  5
2CD7
330
BF7
100
AcDbEntity
  8
SK1
100
AcDbLine
 10
-35.35047600000001
 20
2.536477
 30
0.0
 11
-35.35047600000001
 21
1.991300999999999
 31
0.0
  0
LINE
  5
2CD8
330
BF7
100
AcDbEntity
  8
SK1
100
AcDbLine
 10
-35.35047600000001
 20
2.881779999999998
 30
0.0
 11
-35.35047600000001
 21
2.536477
 31
0.0
  0
LINE
  5
2CD9
330
BF7
100
AcDbEntity
  8
SK1
100
AcDbLine
 10
-35.35047600000001
 20
2.999998999999998
 30
0.0
 11
-35.35047600000001
 21
2.881779999999998
 31
0.0
  0
LINE
  5
2CDA
330
BF7
100
AcDbEntity
  8
SK1
100
AcDbLine
 10
-35.35047600000001
 20
0.4855270000000014
 30
0.0
 11
-35.99999400000001
 21
0.4873920000000034
 31
0.0
  0
LINE
  5
2CDB
330
BF7
100
AcDbEntity
  8
SK1
100
AcDbLine
 10
-35.99999400000001
 20
2.469411999999997
 30
0.0
 11
-35.99999400000001
 21
2.625001000000001
 31
0.0
  0
LINE
  5
2CDC
330
BF7
100
AcDbEntity
  8
SK1
100
AcDbLine
 10
-35.99999400000001
 20
2.021126000000001
 30
0.0
 11
-35.99999400000001
 21
2.469411999999997
 31
0.0
  0
LINE
  5
2CDD
330
BF7
100
AcDbEntity
  8
SK1
100
AcDbLine
 10
-35.99999400000001
 20
1.333273999999998
 30
0.0
 11
-35.99999400000001
 21
2.021126000000001
 31
0.0
  0
LINE
  5
2CDE
330
BF7
100
AcDbEntity
  8
SK1
100
AcDbLine
 10
-35.99999400000001
 20
0.4873920000000034
 30
0.0
 11
-35.99999400000001
 21
1.333273999999998
 31
0.0
  0
LINE
  5
2CDF
330
BF7
100
AcDbEntity
  8
1
100
AcDbLine
 10
91.993445
 20
0.0316700000000019
 30
0.0
 11
91.97048100000001
 21
0.1122940000000021
 31
0.0
  0
LINE
  5
2CE0
330
BF7
100
AcDbEntity
  8
1
100
AcDbLine
 10
91.97048100000001
 20
0.1122940000000021
 30
0.0
 11
91.92255499999999
 21
0.3065290000000047
 31
0.0
  0
LINE
  5
2CE1
330
BF7
100
AcDbEntity
  8
1
100
AcDbLine
 10
91.87907399999998
 20
0.4751170000000047
 30
0.0
 11
91.92255499999999
 21
0.3065290000000047
 31
0.0
  0
LINE
  5
2CE2
330
BF7
100
AcDbEntity
  8
1
100
AcDbLine
 10
91.20089400000001
 20
2.143441000000001
 30
0.0
 11
91.10500599999999
 21
2.381498999999998
 31
0.0
  0
LINE
  5
2CE3
330
BF7
100
AcDbEntity
  8
1
100
AcDbLine
 10
91.30702799999999
 20
1.880805999999999
 30
0.0
 11
91.20089400000001
 21
2.143441000000001
 31
0.0
  0
LINE
  5
2CE4
330
BF7
100
AcDbEntity
  8
1
100
AcDbLine
 10
91.51941800000001
 20
1.358960000000003
 30
0.0
 11
91.30702799999999
 21
1.880805999999999
 31
0.0
  0
LINE
  5
2CE5
330
BF7
100
AcDbEntity
  8
1
100
AcDbLine
 10
91.87907399999998
 20
0.4751170000000047
 30
0.0
 11
91.51941800000001
 21
1.358960000000003
 31
0.0
  0
LINE
  5
2CE6
330
BF7
100
AcDbEntity
  8
1
100
AcDbLine
 10
9.075813999999994
 20
1.425933999999999
 30
0.0
 11
8.732666999999992
 21
1.598382999999999
 31
0.0
  0
LINE
  5
2CE7
330
BF7
100
AcDbEntity
  8
1
100
AcDbLine
 10
9.475844999999992
 20
1.219228000000004
 30
0.0
 11
9.075813999999994
 21
1.425933999999999
 31
0.0
  0
LINE
  5
2CE8
330
BF7
100
AcDbEntity
  8
1
100
AcDbLine
 10
9.751057999999986
 20
1.071467999999997
 30
0.0
 11
9.475844999999992
 21
1.219228000000004
 31
0.0
  0
LINE
  5
2CE9
330
BF7
100
AcDbEntity
  8
1
100
AcDbLine
 10
10.02291599999999
 20
0.918846000000002
 30
0.0
 11
9.751057999999986
 21
1.071467999999997
 31
0.0
  0
LINE
  5
2CEA
330
BF7
100
AcDbEntity
  8
1
100
AcDbLine
 10
11.96516699999999
 20
0.0979270000000021
 30
0.0
 11
11.29473199999998
 21
0.3873139999999999
 31
0.0
  0
LINE
  5
2CEB
330
BF7
100
AcDbEntity
  8
1
100
AcDbLine
 10
85.556786
 20
-1.428259999999996
 30
0.0
 11
87.32972700000003
 21
-1.203212999999998
 31
0.0
  0
LINE
  5
2CEC
330
BF7
100
AcDbEntity
  8
1
100
AcDbLine
 10
83.973925
 20
-1.328988999999997
 30
0.0
 11
85.556786
 21
-1.428259999999996
 31
0.0
  0
LINE
  5
2CED
330
BF7
100
AcDbEntity
  8
1
100
AcDbLine
 10
82.39079699999997
 20
-0.9742369999999983
 30
0.0
 11
83.973925
 21
-1.328988999999997
 31
0.0
  0
LINE
  5
2CEE
330
BF7
100
AcDbEntity
  8
1
100
AcDbLine
 10
80.71271399999998
 20
-0.395980999999999
 30
0.0
 11
82.39079699999997
 21
-0.9742369999999983
 31
0.0
  0
LINE
  5
2CEF
330
BF7
100
AcDbEntity
  8
1
100
AcDbLine
 10
79.974375
 20
-0.1039199999999987
 30
0.0
 11
80.71271399999998
 21
-0.395980999999999
 31
0.0
  0
LINE
  5
2CF0
330
BF7
100
AcDbEntity
  8
1
100
AcDbLine
 10
62.26731599999998
 20
-1.413388999999996
 30
0.0
 11
64.883169
 21
-1.170130999999995
 31
0.0
  0
LINE
  5
2CF1
330
BF7
100
AcDbEntity
  8
1
100
AcDbLine
 10
60.59193399999998
 20
-1.159925999999998
 30
0.0
 11
62.26731599999998
 21
-1.413388999999996
 31
0.0
  0
LINE
  5
2CF2
330
BF7
100
AcDbEntity
  8
1
100
AcDbLine
 10
58.91464999999998
 20
-0.6563819999999973
 30
0.0
 11
60.59193399999998
 21
-1.159925999999998
 31
0.0
  0
LINE
  5
2CF3
330
BF7
100
AcDbEntity
  8
1
100
AcDbLine
 10
57.36093000000001
 20
-0.0589039999999983
 30
0.0
 11
58.91464999999998
 21
-0.6563819999999973
 31
0.0
  0
LINE
  5
2CF4
330
BF7
100
AcDbEntity
  8
1
100
AcDbLine
 10
40.46790800000001
 20
-1.430240999999996
 30
0.0
 11
42.32967699999997
 21
-1.202994999999995
 31
0.0
  0
LINE
  5
2CF5
330
BF7
100
AcDbEntity
  8
1
100
AcDbLine
 10
38.79206599999999
 20
-1.300550999999998
 30
0.0
 11
40.46790800000001
 21
-1.430240999999996
 31
0.0
  0
LINE
  5
2CF6
330
BF7
100
AcDbEntity
  8
1
100
AcDbLine
 10
37.11526699999999
 20
-0.8908120000000002
 30
0.0
 11
38.79206599999999
 21
-1.300550999999998
 31
0.0
  0
LINE
  5
2CF7
330
BF7
100
AcDbEntity
  8
1
100
AcDbLine
 10
35.43797099999999
 20
-0.2894129999999961
 30
0.0
 11
37.11526699999999
 21
-0.8908120000000002
 31
0.0
  0
LINE
  5
2CF8
330
BF7
100
AcDbEntity
  8
1
100
AcDbLine
 10
34.96639099999999
 20
-0.1027999999999984
 30
0.0
 11
35.43797099999999
 21
-0.2894129999999961
 31
0.0
  0
LINE
  5
2CF9
330
BF7
100
AcDbEntity
  8
1
100
AcDbLine
 10
16.99187099999999
 20
-1.391680999999997
 30
0.0
 11
19.883748
 21
-1.175456
 31
0.0
  0
LINE
  5
2CFA
330
BF7
100
AcDbEntity
  8
1
100
AcDbLine
 10
15.31491399999999
 20
-1.091533999999998
 30
0.0
 11
16.99187099999999
 21
-1.391680999999997
 31
0.0
  0
LINE
  5
2CFB
330
BF7
100
AcDbEntity
  8
1
100
AcDbLine
 10
13.641227
 20
-0.5573899999999981
 30
0.0
 11
15.31491399999999
 21
-1.091533999999998
 31
0.0
  0
LINE
  5
2CFC
330
BF7
100
AcDbEntity
  8
1
100
AcDbLine
 10
11.96516699999999
 20
0.0979270000000021
 30
0.0
 11
13.641227
 21
-0.5573899999999981
 31
0.0
  0
LINE
  5
2CFD
330
BF7
100
AcDbEntity
  8
1
100
AcDbLine
 10
11.048986
 20
0.2971910000000051
 30
0.0
 11
10.02291599999999
 21
0.918846000000002
 31
0.0
  0
LINE
  5
2CFE
330
BF7
100
AcDbEntity
  8
1
100
AcDbLine
 10
12.05181399999999
 20
-0.3346199999999975
 30
0.0
 11
11.048986
 21
0.2971910000000051
 31
0.0
  0
LINE
  5
2CFF
330
BF7
100
AcDbEntity
  8
1
100
AcDbLine
 10
13.20828399999999
 20
-1.027400999999997
 30
0.0
 11
12.05181399999999
 21
-0.3346199999999975
 31
0.0
  0
LINE
  5
2D00
330
BF7
100
AcDbEntity
  8
1
100
AcDbLine
 10
14.33218599999999
 20
-1.599433999999996
 30
0.0
 11
13.20828399999999
 21
-1.027400999999997
 31
0.0
  0
LINE
  5
2D01
330
BF7
100
AcDbEntity
  8
1
100
AcDbLine
 10
15.48838899999998
 20
-2.024501999999996
 30
0.0
 11
14.33218599999999
 21
-1.599433999999996
 31
0.0
  0
LINE
  5
2D02
330
BF7
100
AcDbEntity
  8
1
100
AcDbLine
 10
16.612085
 20
-2.237339999999999
 30
0.0
 11
15.48838899999998
 21
-2.024501999999996
 31
0.0
  0
LINE
  5
2D03
330
BF7
100
AcDbEntity
  8
1
100
AcDbLine
 10
17.76863999999999
 20
-2.228219999999996
 30
0.0
 11
16.612085
 21
-2.237339999999999
 31
0.0
  0
LINE
  5
2D04
330
BF7
100
AcDbEntity
  8
1
100
AcDbLine
 10
18.89269899999999
 20
-1.998364999999999
 30
0.0
 11
17.76863999999999
 21
-2.228219999999996
 31
0.0
  0
LINE
  5
2D05
330
BF7
100
AcDbEntity
  8
1
100
AcDbLine
 10
20.049036
 20
-1.558527999999995
 30
0.0
 11
18.89269899999999
 21
-1.998364999999999
 31
0.0
  0
LINE
  5
2D06
330
BF7
100
AcDbEntity
  8
1
100
AcDbLine
 10
20.409273
 20
-1.371851999999995
 30
0.0
 11
20.049036
 21
-1.558527999999995
 31
0.0
  0
LINE
  5
2D07
330
BF7
100
AcDbEntity
  8
1
100
AcDbLine
 10
30.29401399999999
 20
1.951747000000004
 30
0.0
 11
28.394227
 21
2.236447
 31
0.0
  0
LINE
  5
2D08
330
BF7
100
AcDbEntity
  8
1
100
AcDbLine
 10
31.450811
 20
1.487882000000002
 30
0.0
 11
30.29401399999999
 21
1.951747000000004
 31
0.0
  0
LINE
  5
2D09
330
BF7
100
AcDbEntity
  8
1
100
AcDbLine
 10
32.57462799999999
 20
0.8887150000000012
 30
0.0
 11
31.450811
 21
1.487882000000002
 31
0.0
  0
LINE
  5
2D0A
330
BF7
100
AcDbEntity
  8
1
100
AcDbLine
 10
33.730674
 20
0.1826420000000013
 30
0.0
 11
32.57462799999999
 21
0.8887150000000012
 31
0.0
  0
LINE
  5
2D0B
330
BF7
100
AcDbEntity
  8
1
100
AcDbLine
 10
34.85436999999999
 20
-0.5219939999999959
 30
0.0
 11
33.730674
 21
0.1826420000000013
 31
0.0
  0
LINE
  5
2D0C
330
BF7
100
AcDbEntity
  8
1
100
AcDbLine
 10
36.01103399999999
 20
-1.193863999999995
 30
0.0
 11
34.85436999999999
 21
-0.5219939999999959
 31
0.0
  0
LINE
  5
2D0D
330
BF7
100
AcDbEntity
  8
1
100
AcDbLine
 10
37.13503300000001
 20
-1.729015999999995
 30
0.0
 11
36.01103399999999
 21
-1.193863999999995
 31
0.0
  0
LINE
  5
2D0E
330
BF7
100
AcDbEntity
  8
1
100
AcDbLine
 10
38.29140600000001
 20
-2.102601999999995
 30
0.0
 11
37.13503300000001
 21
-1.729015999999995
 31
0.0
  0
LINE
  5
2D0F
330
BF7
100
AcDbEntity
  8
1
100
AcDbLine
 10
39.41511399999998
 20
-2.257736999999996
 30
0.0
 11
38.29140600000001
 21
-2.102601999999995
 31
0.0
  0
LINE
  5
2D10
330
BF7
100
AcDbEntity
  8
1
100
AcDbLine
 10
40.57159599999996
 20
-2.187162999999996
 30
0.0
 11
39.41511399999998
 21
-2.257736999999996
 31
0.0
  0
LINE
  5
2D11
330
BF7
100
AcDbEntity
  8
1
100
AcDbLine
 10
41.69548599999998
 20
-1.901679999999996
 30
0.0
 11
40.57159599999996
 21
-2.187162999999996
 31
0.0
  0
LINE
  5
2D12
330
BF7
100
AcDbEntity
  8
1
100
AcDbLine
 10
42.85181100000001
 20
-1.414435999999996
 30
0.0
 11
41.69548599999998
 21
-1.901679999999996
 31
0.0
  0
LINE
  5
2D13
330
BF7
100
AcDbEntity
  8
1
100
AcDbLine
 10
42.87516199999998
 20
-1.401675999999997
 30
0.0
 11
42.85181100000001
 21
-1.414435999999996
 31
0.0
  0
LINE
  5
2D14
330
BF7
100
AcDbEntity
  8
1
100
AcDbLine
 10
53.09674000000001
 20
1.848226
 30
0.0
 11
50.89231999999999
 21
2.255235000000002
 31
0.0
  0
LINE
  5
2D15
330
BF7
100
AcDbEntity
  8
1
100
AcDbLine
 10
54.25321000000001
 20
1.338533000000001
 30
0.0
 11
53.09674000000001
 21
1.848226
 31
0.0
  0
LINE
  5
2D16
330
BF7
100
AcDbEntity
  8
1
100
AcDbLine
 10
55.377136
 20
0.7101140000000008
 30
0.0
 11
54.25321000000001
 21
1.338533000000001
 31
0.0
  0
LINE
  5
2D17
330
BF7
100
AcDbEntity
  8
1
100
AcDbLine
 10
56.53359399999998
 20
-0.0083439999999975
 30
0.0
 11
55.377136
 21
0.7101140000000008
 31
0.0
  0
LINE
  5
2D18
330
BF7
100
AcDbEntity
  8
1
100
AcDbLine
 10
57.65746
 20
-0.7063639999999971
 30
0.0
 11
56.53359399999998
 21
-0.0083439999999975
 31
0.0
  0
LINE
  5
2D19
330
BF7
100
AcDbEntity
  8
1
100
AcDbLine
 10
58.81385699999999
 20
-1.351946999999995
 30
0.0
 11
57.65746
 21
-0.7063639999999971
 31
0.0
  0
LINE
  5
2D1A
330
BF7
100
AcDbEntity
  8
1
100
AcDbLine
 10
59.93764999999999
 20
-1.845940999999995
 30
0.0
 11
58.81385699999999
 21
-1.351946999999995
 31
0.0
  0
LINE
  5
2D1B
330
BF7
100
AcDbEntity
  8
1
100
AcDbLine
 10
61.09402299999998
 20
-2.165601999999998
 30
0.0
 11
59.93764999999999
 21
-1.845940999999995
 31
0.0
  0
LINE
  5
2D1C
330
BF7
100
AcDbEntity
  8
1
100
AcDbLine
 10
62.21775499999999
 20
-2.261954999999995
 30
0.0
 11
61.09402299999998
 21
-2.165601999999998
 31
0.0
  0
LINE
  5
2D1D
330
BF7
100
AcDbEntity
  8
1
100
AcDbLine
 10
63.37438300000001
 20
-2.130490999999995
 30
0.0
 11
62.21775499999999
 21
-2.261954999999995
 31
0.0
  0
LINE
  5
2D1E
330
BF7
100
AcDbEntity
  8
1
100
AcDbLine
 10
64.49836899999998
 20
-1.791328999999995
 30
0.0
 11
63.37438300000001
 21
-2.130490999999995
 31
0.0
  0
LINE
  5
2D1F
330
BF7
100
AcDbEntity
  8
1
100
AcDbLine
 10
65.40176599999999
 20
-1.37639
 30
0.0
 11
64.49836899999998
 21
-1.791328999999995
 31
0.0
  0
LINE
  5
2D20
330
BF7
100
AcDbEntity
  8
1
100
AcDbLine
 10
74.77602399999998
 20
2.096351000000002
 30
0.0
 11
73.39662700000002
 21
2.244777000000002
 31
0.0
  0
LINE
  5
2D21
330
BF7
100
AcDbEntity
  8
1
100
AcDbLine
 10
75.899805
 20
1.731293999999999
 30
0.0
 11
74.77602399999998
 21
2.096351000000002
 31
0.0
  0
LINE
  5
2D22
330
BF7
100
AcDbEntity
  8
1
100
AcDbLine
 10
77.05614199999998
 20
1.179641000000003
 30
0.0
 11
75.899805
 21
1.731293999999999
 31
0.0
  0
LINE
  5
2D23
330
BF7
100
AcDbEntity
  8
1
100
AcDbLine
 10
78.17993500000001
 20
0.5261650000000026
 30
0.0
 11
77.05614199999998
 21
1.179641000000003
 31
0.0
  0
LINE
  5
2D24
330
BF7
100
AcDbEntity
  8
1
100
AcDbLine
 10
79.336393
 20
-0.1993930000000006
 30
0.0
 11
78.17993500000001
 21
0.5261650000000026
 31
0.0
  0
LINE
  5
2D25
330
BF7
100
AcDbEntity
  8
1
100
AcDbLine
 10
80.46027
 20
-0.8853629999999981
 30
0.0
 11
79.336393
 21
-0.1993930000000006
 31
0.0
  0
LINE
  5
2D26
330
BF7
100
AcDbEntity
  8
1
100
AcDbLine
 10
81.616607
 20
-1.500324999999995
 30
0.0
 11
80.46027
 21
-0.8853629999999981
 31
0.0
  0
LINE
  5
2D27
330
BF7
100
AcDbEntity
  8
1
100
AcDbLine
 10
82.74037599999997
 20
-1.949775999999995
 30
0.0
 11
81.616607
 21
-1.500324999999995
 31
0.0
  0
LINE
  5
2D28
330
BF7
100
AcDbEntity
  8
1
100
AcDbLine
 10
83.89633699999997
 20
-2.213099999999997
 30
0.0
 11
82.74037599999997
 21
-1.949775999999995
 31
0.0
  0
LINE
  5
2D29
330
BF7
100
AcDbEntity
  8
1
100
AcDbLine
 10
85.01970599999998
 20
-2.250056
 30
0.0
 11
83.89633699999997
 21
-2.213099999999997
 31
0.0
  0
LINE
  5
2D2A
330
BF7
100
AcDbEntity
  8
1
100
AcDbLine
 10
86.13910199999997
 20
-2.068437999999996
 30
0.0
 11
85.01970599999998
 21
-2.250056
 31
0.0
  0
LINE
  5
2D2B
330
BF7
100
AcDbEntity
  8
1
100
AcDbLine
 10
87.22877699999996
 20
-1.698757999999995
 30
0.0
 11
86.13910199999997
 21
-2.068437999999996
 31
0.0
  0
LINE
  5
2D2C
330
BF7
100
AcDbEntity
  8
1
100
AcDbLine
 10
87.79428199999998
 20
-1.427146999999995
 30
0.0
 11
87.22877699999996
 21
-1.698757999999995
 31
0.0
  0
LINE
  5
2D2D
330
BF7
100
AcDbEntity
  8
1
100
AcDbLine
 10
8.475063999999987
 20
-1.659522999999995
 30
0.0
 11
7.639994999999982
 21
-2.055270999999995
 31
0.0
  0
LINE
  5
2D2E
330
BF7
100
AcDbEntity
  8
1
100
AcDbLine
 10
74.00537099999998
 20
-1.431124999999995
 30
0.0
 11
76.10368100000002
 21
-1.186181000000001
 31
0.0
  0
LINE
  5
2D2F
330
BF7
100
AcDbEntity
  8
1
100
AcDbLine
 10
72.32968599999998
 20
-1.263049999999995
 30
0.0
 11
74.00537099999998
 21
-1.431124999999995
 31
0.0
  0
LINE
  5
2D30
330
BF7
100
AcDbEntity
  8
1
100
AcDbLine
 10
70.65282699999999
 20
-0.8229909999999982
 30
0.0
 11
72.32968599999998
 21
-1.263049999999995
 31
0.0
  0
LINE
  5
2D31
330
BF7
100
AcDbEntity
  8
1
100
AcDbLine
 10
68.974441
 20
-0.2054069999999974
 30
0.0
 11
70.65282699999999
 21
-0.8229909999999982
 31
0.0
  0
LINE
  5
2D32
330
BF7
100
AcDbEntity
  8
1
100
AcDbLine
 10
68.86171699999998
 20
-0.1609569999999962
 30
0.0
 11
68.974441
 21
-0.2054069999999974
 31
0.0
  0
LINE
  5
2D33
330
BF7
100
AcDbEntity
  8
1
100
AcDbLine
 10
50.52935799999999
 20
-1.369313999999999
 30
0.0
 11
53.58567599999999
 21
-1.192603999999997
 31
0.0
  0
LINE
  5
2D34
330
BF7
100
AcDbEntity
  8
1
100
AcDbLine
 10
48.85385499999999
 20
-1.034893999999997
 30
0.0
 11
50.52935799999999
 21
-1.369313999999999
 31
0.0
  0
LINE
  5
2D35
330
BF7
100
AcDbEntity
  8
1
100
AcDbLine
 10
47.17596499999998
 20
-0.4771809999999981
 30
0.0
 11
48.85385499999999
 21
-1.034893999999997
 31
0.0
  0
LINE
  5
2D36
330
BF7
100
AcDbEntity
  8
1
100
AcDbLine
 10
45.94323999999999
 20
0.0083370000000045
 30
0.0
 11
47.17596499999998
 21
-0.4771809999999981
 31
0.0
  0
LINE
  5
2D37
330
BF7
100
AcDbEntity
  8
1
100
AcDbLine
 10
28.73018
 20
-1.424481999999995
 30
0.0
 11
31.10172899999999
 21
-1.178611999999997
 31
0.0
  0
LINE
  5
2D38
330
BF7
100
AcDbEntity
  8
1
100
AcDbLine
 10
27.05122499999999
 20
-1.206988999999994
 30
0.0
 11
28.73018
 21
-1.424481999999995
 31
0.0
  0
LINE
  5
2D39
330
BF7
100
AcDbEntity
  8
1
100
AcDbLine
 10
25.377708
 20
-0.7308409999999981
 30
0.0
 11
27.05122499999999
 21
-1.206988999999994
 31
0.0
  0
LINE
  5
2D3A
330
BF7
100
AcDbEntity
  8
1
100
AcDbLine
 10
23.86597899999999
 20
-0.1590859999999985
 30
0.0
 11
25.377708
 21
-0.7308409999999981
 31
0.0
  0
LINE
  5
2D3B
330
BF7
100
AcDbEntity
  8
1
100
AcDbLine
 10
18.89269899999999
 20
1.998365000000003
 30
0.0
 11
17.14766299999998
 21
2.233116000000002
 31
0.0
  0
LINE
  5
2D3C
330
BF7
100
AcDbEntity
  8
1
100
AcDbLine
 10
20.049036
 20
1.558526999999999
 30
0.0
 11
18.89269899999999
 21
1.998365000000003
 31
0.0
  0
LINE
  5
2D3D
330
BF7
100
AcDbEntity
  8
1
100
AcDbLine
 10
21.172781
 20
0.9762009999999996
 30
0.0
 11
20.049036
 21
1.558526999999999
 31
0.0
  0
LINE
  5
2D3E
330
BF7
100
AcDbEntity
  8
1
100
AcDbLine
 10
22.329432
 20
0.2780850000000008
 30
0.0
 11
21.172781
 21
0.9762009999999996
 31
0.0
  0
LINE
  5
2D3F
330
BF7
100
AcDbEntity
  8
1
100
AcDbLine
 10
23.45320099999999
 20
-0.4289609999999975
 30
0.0
 11
22.329432
 21
0.2780850000000008
 31
0.0
  0
LINE
  5
2D40
330
BF7
100
AcDbEntity
  8
1
100
AcDbLine
 10
24.609477
 20
-1.111588999999998
 30
0.0
 11
23.45320099999999
 21
-0.4289609999999975
 31
0.0
  0
LINE
  5
2D41
330
BF7
100
AcDbEntity
  8
1
100
AcDbLine
 10
25.733234
 20
-1.665444999999996
 30
0.0
 11
24.609477
 21
-1.111588999999998
 31
0.0
  0
LINE
  5
2D42
330
BF7
100
AcDbEntity
  8
1
100
AcDbLine
 10
26.88981299999999
 20
-2.065394999999996
 30
0.0
 11
25.733234
 21
-1.665444999999996
 31
0.0
  0
LINE
  5
2D43
330
BF7
100
AcDbEntity
  8
1
100
AcDbLine
 10
28.01386000000001
 20
-2.249591999999998
 30
0.0
 11
26.88981299999999
 21
-2.065394999999996
 31
0.0
  0
LINE
  5
2D44
330
BF7
100
AcDbEntity
  8
1
100
AcDbLine
 10
29.170148
 20
-2.209629999999997
 30
0.0
 11
28.01386000000001
 21
-2.249591999999998
 31
0.0
  0
LINE
  5
2D45
330
BF7
100
AcDbEntity
  8
1
100
AcDbLine
 10
30.29401399999999
 20
-1.951747999999996
 30
0.0
 11
29.170148
 21
-2.209629999999997
 31
0.0
  0
LINE
  5
2D46
330
BF7
100
AcDbEntity
  8
1
100
AcDbLine
 10
31.450811
 20
-1.487881999999999
 30
0.0
 11
30.29401399999999
 21
-1.951747999999996
 31
0.0
  0
LINE
  5
2D47
330
BF7
100
AcDbEntity
  8
1
100
AcDbLine
 10
31.648534
 20
-1.382466999999997
 30
0.0
 11
31.450811
 21
-1.487881999999999
 31
0.0
  0
LINE
  5
2D48
330
BF7
100
AcDbEntity
  8
1
100
AcDbLine
 10
41.69548599999998
 20
1.901679999999996
 30
0.0
 11
39.64575599999999
 21
2.243662
 31
0.0
  0
LINE
  5
2D49
330
BF7
100
AcDbEntity
  8
1
100
AcDbLine
 10
42.85181100000001
 20
1.414436999999999
 30
0.0
 11
41.69548599999998
 21
1.901679999999996
 31
0.0
  0
LINE
  5
2D4A
330
BF7
100
AcDbEntity
  8
1
100
AcDbLine
 10
43.97559099999997
 20
0.8003180000000007
 30
0.0
 11
42.85181100000001
 21
1.414436999999999
 31
0.0
  0
LINE
  5
2D4B
330
BF7
100
AcDbEntity
  8
1
100
AcDbLine
 10
45.13206199999998
 20
0.0873470000000047
 30
0.0
 11
43.97559099999997
 21
0.8003180000000007
 31
0.0
  0
LINE
  5
2D4C
330
BF7
100
AcDbEntity
  8
1
100
AcDbLine
 10
46.25595099999999
 20
-0.6148139999999991
 30
0.0
 11
45.13206199999998
 21
0.0873470000000047
 31
0.0
  0
LINE
  5
2D4D
330
BF7
100
AcDbEntity
  8
1
100
AcDbLine
 10
47.41242099999998
 20
-1.274041999999997
 30
0.0
 11
46.25595099999999
 21
-0.6148139999999991
 31
0.0
  0
LINE
  5
2D4E
330
BF7
100
AcDbEntity
  8
1
100
AcDbLine
 10
48.536275
 20
-1.789021999999995
 30
0.0
 11
47.41242099999998
 21
-1.274041999999997
 31
0.0
  0
LINE
  5
2D4F
330
BF7
100
AcDbEntity
  8
1
100
AcDbLine
 10
49.69274499999999
 20
-2.136014999999999
 30
0.0
 11
48.536275
 21
-1.789021999999995
 31
0.0
  0
LINE
  5
2D50
330
BF7
100
AcDbEntity
  8
1
100
AcDbLine
 10
50.81657399999999
 20
-2.261854999999997
 30
0.0
 11
49.69274499999999
 21
-2.136014999999999
 31
0.0
  0
LINE
  5
2D51
330
BF7
100
AcDbEntity
  8
1
100
AcDbLine
 10
51.97295899999999
 20
-2.160761999999996
 30
0.0
 11
50.81657399999999
 21
-2.261854999999997
 31
0.0
  0
LINE
  5
2D52
330
BF7
100
AcDbEntity
  8
1
100
AcDbLine
 10
53.09674000000001
 20
-1.848226999999995
 30
0.0
 11
51.97295899999999
 21
-2.160761999999996
 31
0.0
  0
LINE
  5
2D53
330
BF7
100
AcDbEntity
  8
1
100
AcDbLine
 10
54.13906999999999
 20
-1.388835999999997
 30
0.0
 11
53.09674000000001
 21
-1.848226999999995
 31
0.0
  0
LINE
  5
2D54
330
BF7
100
AcDbEntity
  8
1
100
AcDbLine
 10
63.37438300000001
 20
2.130491000000001
 30
0.0
 11
62.14508499999999
 21
2.255726000000001
 31
0.0
  0
LINE
  5
2D55
330
BF7
100
AcDbEntity
  8
1
100
AcDbLine
 10
64.49836899999998
 20
1.791328000000003
 30
0.0
 11
63.37438300000001
 21
2.130491000000001
 31
0.0
  0
LINE
  5
2D56
330
BF7
100
AcDbEntity
  8
1
100
AcDbLine
 10
65.65469399999999
 20
1.260218999999997
 30
0.0
 11
64.49836899999998
 21
1.791328000000003
 31
0.0
  0
LINE
  5
2D57
330
BF7
100
AcDbEntity
  8
1
100
AcDbLine
 10
66.778451
 20
0.6187129999999998
 30
0.0
 11
65.65469399999999
 21
1.260218999999997
 31
0.0
  0
LINE
  5
2D58
330
BF7
100
AcDbEntity
  8
1
100
AcDbLine
 10
67.934884
 20
-0.1038989999999984
 30
0.0
 11
66.778451
 21
0.6187129999999998
 31
0.0
  0
LINE
  5
2D59
330
BF7
100
AcDbEntity
  8
1
100
AcDbLine
 10
69.05874999999999
 20
-0.7964639999999969
 30
0.0
 11
67.934884
 21
-0.1038989999999984
 31
0.0
  0
LINE
  5
2D5A
330
BF7
100
AcDbEntity
  8
1
100
AcDbLine
 10
70.21529299999999
 20
-1.427459999999995
 30
0.0
 11
69.05874999999999
 21
-0.7964639999999969
 31
0.0
  0
LINE
  5
2D5B
330
BF7
100
AcDbEntity
  8
1
100
AcDbLine
 10
71.33924300000002
 20
-1.899643999999996
 30
0.0
 11
70.21529299999999
 21
-1.427459999999995
 31
0.0
  0
LINE
  5
2D5C
330
BF7
100
AcDbEntity
  8
1
100
AcDbLine
 10
72.495761
 20
-2.191402
 30
0.0
 11
71.33924300000002
 21
-1.899643999999996
 31
0.0
  0
LINE
  5
2D5D
330
BF7
100
AcDbEntity
  8
1
100
AcDbLine
 10
73.61960299999998
 20
-2.257985999999998
 30
0.0
 11
72.495761
 21
-2.191402
 31
0.0
  0
LINE
  5
2D5E
330
BF7
100
AcDbEntity
  8
1
100
AcDbLine
 10
74.77602399999998
 20
-2.096349999999995
 30
0.0
 11
73.61960299999998
 21
-2.257985999999998
 31
0.0
  0
LINE
  5
2D5F
330
BF7
100
AcDbEntity
  8
1
100
AcDbLine
 10
75.899805
 20
-1.731292999999995
 30
0.0
 11
74.77602399999998
 21
-2.096349999999995
 31
0.0
  0
LINE
  5
2D60
330
BF7
100
AcDbEntity
  8
1
100
AcDbLine
 10
76.53559499999999
 20
-1.427974999999995
 30
0.0
 11
75.899805
 21
-1.731292999999995
 31
0.0
  0
LINE
  5
2D61
330
BF7
100
AcDbEntity
  8
1
100
AcDbLine
 10
86.13910199999997
 20
2.068436999999998
 30
0.0
 11
84.64444999999997
 21
2.237711999999997
 31
0.0
  0
LINE
  5
2D62
330
BF7
100
AcDbEntity
  8
1
100
AcDbLine
 10
87.22877699999996
 20
1.698759000000002
 30
0.0
 11
86.13910199999997
 21
2.068436999999998
 31
0.0
  0
LINE
  5
2D63
330
BF7
100
AcDbEntity
  8
1
100
AcDbLine
 10
88.277417
 20
1.195098000000004
 30
0.0
 11
87.22877699999996
 21
1.698759000000002
 31
0.0
  0
LINE
  5
2D64
330
BF7
100
AcDbEntity
  8
1
100
AcDbLine
 10
89.30153
 20
0.6046850000000035
 30
0.0
 11
88.277417
 21
1.195098000000004
 31
0.0
  0
LINE
  5
2D65
330
BF7
100
AcDbEntity
  8
1
100
AcDbLine
 10
91.11021399999996
 20
-2.137574999999996
 30
0.0
 11
91.11362900000001
 21
-2.089280999999999
 31
0.0
  0
LINE
  5
2D66
330
BF7
100
AcDbEntity
  8
1
100
AcDbLine
 10
91.11079499999998
 20
-2.191881999999995
 30
0.0
 11
91.11021399999996
 21
-2.137574999999996
 31
0.0
  0
LINE
  5
2D67
330
BF7
100
AcDbEntity
  8
1
100
AcDbLine
 10
91.99997299999999
 20
0.0063780000000016
 30
0.0
 11
91.99997299999999
 21
-0.006378999999999
 31
0.0
  0
LINE
  5
2D68
330
BF7
100
AcDbEntity
  8
1
100
AcDbLine
 10
91.993445
 20
-0.0316709999999994
 30
0.0
 11
91.97048100000001
 21
-0.1122949999999996
 31
0.0
  0
LINE
  5
2D69
330
BF7
100
AcDbEntity
  8
1
100
AcDbLine
 10
91.97048100000001
 20
-0.1122949999999996
 30
0.0
 11
91.92255499999999
 21
-0.3065299999999986
 31
0.0
  0
LINE
  5
2D6A
330
BF7
100
AcDbEntity
  8
1
100
AcDbLine
 10
91.87907399999998
 20
-0.4751159999999964
 30
0.0
 11
91.92255499999999
 21
-0.3065299999999986
 31
0.0
  0
LINE
  5
2D6B
330
BF7
100
AcDbEntity
  8
1
100
AcDbLine
 10
91.20089400000001
 20
-2.143442999999995
 30
0.0
 11
91.10500599999999
 21
-2.381498999999998
 31
0.0
  0
LINE
  5
2D6C
330
BF7
100
AcDbEntity
  8
1
100
AcDbLine
 10
91.30702799999999
 20
-1.880803999999995
 30
0.0
 11
91.20089400000001
 21
-2.143442999999995
 31
0.0
  0
LINE
  5
2D6D
330
BF7
100
AcDbEntity
  8
1
100
AcDbLine
 10
91.51941800000001
 20
-1.358959999999995
 30
0.0
 11
91.30702799999999
 21
-1.880803999999995
 31
0.0
  0
LINE
  5
2D6E
330
BF7
100
AcDbEntity
  8
1
100
AcDbLine
 10
91.87907399999998
 20
-0.4751159999999964
 30
0.0
 11
91.51941800000001
 21
-1.358959999999995
 31
0.0
  0
LINE
  5
2D6F
330
BF7
100
AcDbEntity
  8
1
100
AcDbLine
 10
91.11088
 20
-2.196494999999996
 30
0.0
 11
91.11079499999998
 21
-2.191881999999995
 31
0.0
  0
LINE
  5
2D70
330
BF7
100
AcDbEntity
  8
1
100
AcDbLine
 10
91.10562299999999
 20
-2.229263999999997
 30
0.0
 11
91.11088
 21
-2.196494999999996
 31
0.0
  0
LINE
  5
2D71
330
BF7
100
AcDbEntity
  8
1
100
AcDbLine
 10
91.09222800000001
 20
-2.279014999999997
 30
0.0
 11
91.10562299999999
 21
-2.229263999999997
 31
0.0
  0
LINE
  5
2D72
330
BF7
100
AcDbEntity
  8
1
100
AcDbLine
 10
91.07060899999998
 20
-2.346709999999998
 30
0.0
 11
91.09222800000001
 21
-2.279014999999997
 31
0.0
  0
LINE
  5
2D73
330
BF7
100
AcDbEntity
  8
1
100
AcDbLine
 10
91.10500599999999
 20
-2.381498999999998
 30
0.0
 11
91.07060899999998
 21
-2.346709999999998
 31
0.0
  0
LINE
  5
2D74
330
BF7
100
AcDbEntity
  8
1
100
AcDbLine
 10
89.81696699999998
 20
-2.230056
 30
0.0
 11
91.10500599999999
 21
-2.381498999999998
 31
0.0
  0
LINE
  5
2D75
330
BF7
100
AcDbEntity
  8
1
100
AcDbLine
 10
88.70233
 20
-1.867085999999995
 30
0.0
 11
89.81696699999998
 21
-2.230056
 31
0.0
  0
LINE
  5
2D76
330
BF7
100
AcDbEntity
  8
1
100
AcDbLine
 10
87.61930500000003
 20
-1.341893999999995
 30
0.0
 11
88.70233
 21
-1.867085999999995
 31
0.0
  0
LINE
  5
2D77
330
BF7
100
AcDbEntity
  8
1
100
AcDbLine
 10
86.50468099999995
 20
-0.6744099999999982
 30
0.0
 11
87.61930500000003
 21
-1.341893999999995
 31
0.0
  0
LINE
  5
2D78
330
BF7
100
AcDbEntity
  8
1
100
AcDbLine
 10
85.42104999999997
 20
0.0363570000000024
 30
0.0
 11
86.50468099999995
 21
-0.6744099999999982
 31
0.0
  0
LINE
  5
2D79
330
BF7
100
AcDbEntity
  8
1
100
AcDbLine
 10
84.306789
 20
0.7636960000000032
 30
0.0
 11
85.42104999999997
 21
0.0363570000000024
 31
0.0
  0
LINE
  5
2D7A
330
BF7
100
AcDbEntity
  8
1
100
AcDbLine
 10
83.22388600000001
 20
1.400790000000004
 30
0.0
 11
84.306789
 21
0.7636960000000032
 31
0.0
  0
LINE
  5
2D7B
330
BF7
100
AcDbEntity
  8
1
100
AcDbLine
 10
82.10917700000001
 20
1.923360000000002
 30
0.0
 11
83.22388600000001
 21
1.400790000000004
 31
0.0
  0
LINE
  5
2D7C
330
BF7
100
AcDbEntity
  8
1
100
AcDbLine
 10
81.02613899999999
 20
2.254507999999999
 30
0.0
 11
82.10917700000001
 21
1.923360000000002
 31
0.0
  0
LINE
  5
2D7D
330
BF7
100
AcDbEntity
  8
1
100
AcDbLine
 10
79.91153899999997
 20
2.381156999999999
 30
0.0
 11
81.02613899999999
 21
2.254507999999999
 31
0.0
  0
LINE
  5
2D7E
330
BF7
100
AcDbEntity
  8
1
100
AcDbLine
 10
78.82856299999997
 20
2.285102000000001
 30
0.0
 11
79.91153899999997
 21
2.381156999999999
 31
0.0
  0
LINE
  5
2D7F
330
BF7
100
AcDbEntity
  8
1
100
AcDbLine
 10
77.71404799999998
 20
1.970023000000004
 30
0.0
 11
78.82856299999997
 21
2.285102000000001
 31
0.0
  0
LINE
  5
2D80
330
BF7
100
AcDbEntity
  8
1
100
AcDbLine
 10
76.63100999999997
 20
1.482096000000002
 30
0.0
 11
77.71404799999998
 21
1.970023000000004
 31
0.0
  0
LINE
  5
2D81
330
BF7
100
AcDbEntity
  8
1
100
AcDbLine
 10
76.53613999999997
 20
1.427393999999999
 30
0.0
 11
76.63100999999997
 21
1.482096000000002
 31
0.0
  0
LINE
  5
2D82
330
BF7
100
AcDbEntity
  8
1
100
AcDbLine
 10
66.725971
 20
-2.062474999999995
 30
0.0
 11
68.60163200000001
 21
-2.358828999999996
 31
0.0
  0
LINE
  5
2D83
330
BF7
100
AcDbEntity
  8
1
100
AcDbLine
 10
65.64289699999999
 20
-1.614384
 30
0.0
 11
66.725971
 21
-2.062474999999995
 31
0.0
  0
LINE
  5
2D84
330
BF7
100
AcDbEntity
  8
1
100
AcDbLine
 10
64.528225
 20
-1.000078999999993
 30
0.0
 11
65.64289699999999
 21
-1.614384
 31
0.0
  0
LINE
  5
2D85
330
BF7
100
AcDbEntity
  8
1
100
AcDbLine
 10
63.44473899999998
 20
-0.3107209999999974
 30
0.0
 11
64.528225
 21
-1.000078999999993
 31
0.0
  0
LINE
  5
2D86
330
BF7
100
AcDbEntity
  8
1
100
AcDbLine
 10
62.33047900000001
 20
0.4267280000000043
 30
0.0
 11
63.44473899999998
 21
-0.3107209999999974
 31
0.0
  0
LINE
  5
2D87
330
BF7
100
AcDbEntity
  8
1
100
AcDbLine
 10
61.247853
 20
1.105133000000001
 30
0.0
 11
62.33047900000001
 21
0.4267280000000043
 31
0.0
  0
LINE
  5
2D88
330
BF7
100
AcDbEntity
  8
1
100
AcDbLine
 10
60.13324099999998
 20
1.697877
 30
0.0
 11
61.247853
 21
1.105133000000001
 31
0.0
  0
LINE
  5
2D89
330
BF7
100
AcDbEntity
  8
1
100
AcDbLine
 10
59.05045799999999
 20
2.118379000000004
 30
0.0
 11
60.13324099999998
 21
1.697877
 31
0.0
  0
LINE
  5
2D8A
330
BF7
100
AcDbEntity
  8
1
100
AcDbLine
 10
57.93570100000001
 20
2.349854000000002
 30
0.0
 11
59.05045799999999
 21
2.118379000000004
 31
0.0
  0
LINE
  5
2D8B
330
BF7
100
AcDbEntity
  8
1
100
AcDbLine
 10
56.85221599999998
 20
2.358457
 30
0.0
 11
57.93570100000001
 21
2.349854000000002
 31
0.0
  0
LINE
  5
2D8C
330
BF7
100
AcDbEntity
  8
1
100
AcDbLine
 10
55.73812399999997
 20
2.144014000000002
 30
0.0
 11
56.85221599999998
 21
2.358457
 31
0.0
  0
LINE
  5
2D8D
330
BF7
100
AcDbEntity
  8
1
100
AcDbLine
 10
54.65516
 20
1.738254999999996
 30
0.0
 11
55.73812399999997
 21
2.144014000000002
 31
0.0
  0
LINE
  5
2D8E
330
BF7
100
AcDbEntity
  8
1
100
AcDbLine
 10
54.05546299999999
 20
1.424817000000004
 30
0.0
 11
54.65516
 21
1.738254999999996
 31
0.0
  0
LINE
  5
2D8F
330
BF7
100
AcDbEntity
  8
1
100
AcDbLine
 10
44.75018100000001
 20
-2.214044999999996
 30
0.0
 11
46.10127299999997
 21
-2.362923999999999
 31
0.0
  0
LINE
  5
2D90
330
BF7
100
AcDbEntity
  8
1
100
AcDbLine
 10
43.66761599999999
 20
-1.852833999999995
 30
0.0
 11
44.75018100000001
 21
-2.214044999999996
 31
0.0
  0
LINE
  5
2D91
330
BF7
100
AcDbEntity
  8
1
100
AcDbLine
 10
42.55214399999998
 20
-1.304824999999997
 30
0.0
 11
43.66761599999999
 21
-1.852833999999995
 31
0.0
  0
LINE
  5
2D92
330
BF7
100
AcDbEntity
  8
1
100
AcDbLine
 10
41.468598
 20
-0.6508210000000007
 30
0.0
 11
42.55214399999998
 21
-1.304824999999997
 31
0.0
  0
LINE
  5
2D93
330
BF7
100
AcDbEntity
  8
1
100
AcDbLine
 10
40.35433699999996
 20
0.080407000000001
 30
0.0
 11
41.468598
 21
-0.6508210000000007
 31
0.0
  0
LINE
  5
2D94
330
BF7
100
AcDbEntity
  8
1
100
AcDbLine
 10
39.27168799999997
 20
0.7847790000000039
 30
0.0
 11
40.35433699999996
 21
0.080407000000001
 31
0.0
  0
LINE
  5
2D95
330
BF7
100
AcDbEntity
  8
1
100
AcDbLine
 10
38.15796000000002
 20
1.437022000000002
 30
0.0
 11
39.27168799999997
 21
0.7847790000000039
 31
0.0
  0
LINE
  5
2D96
330
BF7
100
AcDbEntity
  8
1
100
AcDbLine
 10
37.07447399999999
 20
1.937354999999999
 30
0.0
 11
38.15796000000002
 21
1.437022000000002
 31
0.0
  0
LINE
  5
2D97
330
BF7
100
AcDbEntity
  8
1
100
AcDbLine
 10
35.95962
 20
2.267746000000002
 30
0.0
 11
37.07447399999999
 21
1.937354999999999
 31
0.0
  0
LINE
  5
2D98
330
BF7
100
AcDbEntity
  8
1
100
AcDbLine
 10
34.878085
 20
2.381431999999999
 30
0.0
 11
35.95962
 21
2.267746000000002
 31
0.0
  0
LINE
  5
2D99
330
BF7
100
AcDbEntity
  8
1
100
AcDbLine
 10
33.76273400000001
 20
2.272054999999996
 30
0.0
 11
34.878085
 21
2.381431999999999
 31
0.0
  0
LINE
  5
2D9A
330
BF7
100
AcDbEntity
  8
1
100
AcDbLine
 10
32.67786799999999
 20
1.956440000000004
 30
0.0
 11
33.76273400000001
 21
2.272054999999996
 31
0.0
  0
LINE
  5
2D9B
330
BF7
100
AcDbEntity
  8
1
100
AcDbLine
 10
31.63277699999999
 20
1.478042000000004
 30
0.0
 11
32.67786799999999
 21
1.956440000000004
 31
0.0
  0
LINE
  5
2D9C
330
BF7
100
AcDbEntity
  8
1
100
AcDbLine
 10
21.69096599999999
 20
-2.050843999999995
 30
0.0
 11
23.602199
 21
-2.359400999999996
 31
0.0
  0
LINE
  5
2D9D
330
BF7
100
AcDbEntity
  8
1
100
AcDbLine
 10
20.57704399999999
 20
-1.582263999999996
 30
0.0
 11
21.69096599999999
 21
-2.050843999999995
 31
0.0
  0
LINE
  5
2D9E
330
BF7
100
AcDbEntity
  8
1
100
AcDbLine
 10
19.495085
 20
-0.980209999999996
 30
0.0
 11
20.57704399999999
 21
-1.582263999999996
 31
0.0
  0
LINE
  5
2D9F
330
BF7
100
AcDbEntity
  8
1
100
AcDbLine
 10
18.37841399999998
 20
-0.2673939999999959
 30
0.0
 11
19.495085
 21
-0.980209999999996
 31
0.0
  0
LINE
  5
2DA0
330
BF7
100
AcDbEntity
  8
1
100
AcDbLine
 10
17.29406899999999
 20
0.4515630000000004
 30
0.0
 11
18.37841399999998
 21
-0.2673939999999959
 31
0.0
  0
LINE
  5
2DA1
330
BF7
100
AcDbEntity
  8
1
100
AcDbLine
 10
16.19732099999999
 20
1.134858000000001
 30
0.0
 11
17.29406899999999
 21
0.4515630000000004
 31
0.0
  0
LINE
  5
2DA2
330
BF7
100
AcDbEntity
  8
1
100
AcDbLine
 10
15.129751
 20
1.698192000000004
 30
0.0
 11
16.19732099999999
 21
1.134858000000001
 31
0.0
  0
LINE
  5
2DA3
330
BF7
100
AcDbEntity
  8
1
100
AcDbLine
 10
14.03450499999999
 20
2.123804999999999
 30
0.0
 11
15.129751
 21
1.698192000000004
 31
0.0
  0
LINE
  5
2DA4
330
BF7
100
AcDbEntity
  8
1
100
AcDbLine
 10
12.97043499999999
 20
2.347163
 30
0.0
 11
14.03450499999999
 21
2.123804999999999
 31
0.0
  0
LINE
  5
2DA5
330
BF7
100
AcDbEntity
  8
1
100
AcDbLine
 10
12.41106999999999
 20
2.381166000000003
 30
0.0
 11
12.97043499999999
 21
2.347163
 31
0.0
  0
LINE
  5
2DA6
330
BF7
100
AcDbEntity
  8
1
100
AcDbLine
 10
11.342252
 20
2.293655999999996
 30
0.0
 11
12.41030699999999
 21
2.381172000000002
 31
0.0
  0
LINE
  5
2DA7
330
BF7
100
AcDbEntity
  8
1
100
AcDbLine
 10
10.25820399999999
 20
2.058281
 30
0.0
 11
11.342252
 21
2.293655999999996
 31
0.0
  0
LINE
  5
2DA8
330
BF7
100
AcDbEntity
  8
1
100
AcDbLine
 10
9.259893999999988
 20
1.811279000000002
 30
0.0
 11
10.25820399999999
 21
2.058281
 31
0.0
  0
LINE
  5
2DA9
330
BF7
100
AcDbEntity
  8
1
100
AcDbLine
 10
8.565095999999996
 20
1.676963999999999
 30
0.0
 11
9.259893999999988
 21
1.811279000000002
 31
0.0
  0
LINE
  5
2DAA
330
BF7
100
AcDbEntity
  8
1
100
AcDbLine
 10
6.637039999999998
 20
2.332411000000004
 30
0.0
 11
6.245257999999991
 21
2.375807
 31
0.0
  0
LINE
  5
2DAB
330
BF7
100
AcDbEntity
  8
1
100
AcDbLine
 10
7.012713999999986
 20
2.243573999999997
 30
0.0
 11
6.637039999999998
 21
2.332411000000004
 31
0.0
  0
LINE
  5
2DAC
330
BF7
100
AcDbEntity
  8
1
100
AcDbLine
 10
7.639830999999986
 20
2.055265000000002
 30
0.0
 11
7.012713999999986
 21
2.243573999999997
 31
0.0
  0
LINE
  5
2DAD
330
BF7
100
AcDbEntity
  8
1
100
AcDbLine
 10
7.98558899999999
 20
1.929371000000003
 30
0.0
 11
7.640327999999996
 21
2.055098999999998
 31
0.0
  0
LINE
  5
2DAE
330
BF7
100
AcDbEntity
  8
1
100
AcDbLine
 10
8.359675999999991
 20
1.773167000000004
 30
0.0
 11
7.98558899999999
 21
1.929371000000003
 31
0.0
  0
LINE
  5
2DAF
330
BF7
100
AcDbEntity
  8
1
100
AcDbLine
 10
8.732666999999992
 20
1.598382999999999
 30
0.0
 11
8.359675999999991
 21
1.773167000000004
 31
0.0
  0
LINE
  5
2DB0
330
BF7
100
AcDbEntity
  8
1
100
AcDbLine
 10
8.732666999999992
 20
1.598382999999999
 30
0.0
 11
6.134703
 21
1.598382999999999
 31
0.0
  0
LINE
  5
2DB1
330
BF7
100
AcDbEntity
  8
1
100
AcDbLine
 10
5.815390999999991
 20
1.089148000000005
 30
0.0
 11
5.810824999999994
 21
0.9672080000000027
 31
0.0
  0
LINE
  5
2DB2
330
BF7
100
AcDbEntity
  8
1
100
AcDbLine
 10
5.880430999999987
 20
1.388879000000002
 30
0.0
 11
5.815390999999991
 21
1.089148000000005
 31
0.0
  0
LINE
  5
2DB3
330
BF7
100
AcDbEntity
  8
1
100
AcDbLine
 10
5.959022999999986
 20
1.515285000000002
 30
0.0
 11
5.880430999999987
 21
1.388879000000002
 31
0.0
  0
LINE
  5
2DB4
330
BF7
100
AcDbEntity
  8
1
100
AcDbLine
 10
6.026950999999996
 20
1.569576
 30
0.0
 11
5.959022999999986
 21
1.515285000000002
 31
0.0
  0
LINE
  5
2DB5
330
BF7
100
AcDbEntity
  8
1
100
AcDbLine
 10
6.077523999999996
 20
1.590526
 30
0.0
 11
6.026950999999996
 21
1.569576
 31
0.0
  0
LINE
  5
2DB6
330
BF7
100
AcDbEntity
  8
1
100
AcDbLine
 10
6.134703
 20
1.598382999999999
 30
0.0
 11
6.077523999999996
 21
1.590526
 31
0.0
  0
LINE
  5
2DB7
330
BF7
100
AcDbEntity
  8
1
100
AcDbLine
 10
79.479528
 20
-2.297499999999995
 30
0.0
 11
81.52318999999998
 21
-2.262436999999998
 31
0.0
  0
LINE
  5
2DB8
330
BF7
100
AcDbEntity
  8
1
100
AcDbLine
 10
78.402487
 20
-2.008639999999999
 30
0.0
 11
79.479528
 21
-2.297499999999995
 31
0.0
  0
LINE
  5
2DB9
330
BF7
100
AcDbEntity
  8
1
100
AcDbLine
 10
77.32545700000001
 20
-1.539441999999995
 30
0.0
 11
78.402487
 21
-2.008639999999999
 31
0.0
  0
LINE
  5
2DBA
330
BF7
100
AcDbEntity
  8
1
100
AcDbLine
 10
76.24842700000002
 20
-0.9320419999999991
 30
0.0
 11
77.32545700000001
 21
-1.539441999999995
 31
0.0
  0
LINE
  5
2DBB
330
BF7
100
AcDbEntity
  8
1
100
AcDbLine
 10
75.17139799999998
 20
-0.2409579999999991
 30
0.0
 11
76.24842700000002
 21
-0.9320419999999991
 31
0.0
  0
LINE
  5
2DBC
330
BF7
100
AcDbEntity
  8
1
100
AcDbLine
 10
74.09435599999998
 20
0.4717619999999985
 30
0.0
 11
75.17139799999998
 21
-0.2409579999999991
 31
0.0
  0
LINE
  5
2DBD
330
BF7
100
AcDbEntity
  8
1
100
AcDbLine
 10
73.01732599999998
 20
1.142122000000004
 30
0.0
 11
74.09435599999998
 21
0.4717619999999985
 31
0.0
  0
LINE
  5
2DBE
330
BF7
100
AcDbEntity
  8
1
100
AcDbLine
 10
71.94029599999997
 20
1.709947000000003
 30
0.0
 11
73.01732599999998
 21
1.142122000000004
 31
0.0
  0
LINE
  5
2DBF
330
BF7
100
AcDbEntity
  8
1
100
AcDbLine
 10
70.863255
 20
2.124247000000003
 30
0.0
 11
71.94029599999997
 21
1.709947000000003
 31
0.0
  0
LINE
  5
2DC0
330
BF7
100
AcDbEntity
  8
1
100
AcDbLine
 10
69.78622499999999
 20
2.347841000000002
 30
0.0
 11
70.863255
 21
2.124247000000003
 31
0.0
  0
LINE
  5
2DC1
330
BF7
100
AcDbEntity
  8
1
100
AcDbLine
 10
69.183125
 20
2.355011000000002
 30
0.0
 11
69.78622499999999
 21
2.347841000000002
 31
0.0
  0
LINE
  5
2DC2
330
BF7
100
AcDbEntity
  8
1
100
AcDbLine
 10
57.93886199999999
 20
-2.381496999999995
 30
0.0
 11
59.05315900000001
 21
-2.262731999999996
 31
0.0
  0
LINE
  5
2DC3
330
BF7
100
AcDbEntity
  8
1
100
AcDbLine
 10
56.86183200000001
 20
-2.275657999999999
 30
0.0
 11
57.93886199999999
 21
-2.381496999999995
 31
0.0
  0
LINE
  5
2DC4
330
BF7
100
AcDbEntity
  8
1
100
AcDbLine
 10
55.78480299999998
 20
-1.965512999999995
 30
0.0
 11
56.86183200000001
 21
-2.275657999999999
 31
0.0
  0
LINE
  5
2DC5
330
BF7
100
AcDbEntity
  8
1
100
AcDbLine
 10
54.70776099999999
 20
-1.478906999999995
 30
0.0
 11
55.78480299999998
 21
-1.965512999999995
 31
0.0
  0
LINE
  5
2DC6
330
BF7
100
AcDbEntity
  8
1
100
AcDbLine
 10
53.63073100000001
 20
-0.8595249999999976
 30
0.0
 11
54.70776099999999
 21
-1.478906999999995
 31
0.0
  0
LINE
  5
2DC7
330
BF7
100
AcDbEntity
  8
1
100
AcDbLine
 10
52.553701
 20
-0.1629769999999979
 30
0.0
 11
53.63073100000001
 21
-0.8595249999999976
 31
0.0
  0
LINE
  5
2DC8
330
BF7
100
AcDbEntity
  8
1
100
AcDbLine
 10
51.47667199999999
 20
0.5482080000000025
 30
0.0
 11
52.553701
 21
-0.1629769999999979
 31
0.0
  0
LINE
  5
2DC9
330
BF7
100
AcDbEntity
  8
1
100
AcDbLine
 10
50.399642
 20
1.210183
 30
0.0
 11
51.47667199999999
 21
0.5482080000000025
 31
0.0
  0
LINE
  5
2DCA
330
BF7
100
AcDbEntity
  8
1
100
AcDbLine
 10
49.32259999999998
 20
1.763489000000003
 30
0.0
 11
50.399642
 21
1.210183
 31
0.0
  0
LINE
  5
2DCB
330
BF7
100
AcDbEntity
  8
1
100
AcDbLine
 10
48.24557099999999
 20
2.158480999999996
 30
0.0
 11
49.32259999999998
 21
1.763489000000003
 31
0.0
  0
LINE
  5
2DCC
330
BF7
100
AcDbEntity
  8
1
100
AcDbLine
 10
47.16854099999999
 20
2.359682999999999
 30
0.0
 11
48.24557099999999
 21
2.158480999999996
 31
0.0
  0
LINE
  5
2DCD
330
BF7
100
AcDbEntity
  8
1
100
AcDbLine
 10
46.68377199999999
 20
2.354893
 30
0.0
 11
47.16854099999999
 21
2.359682999999999
 31
0.0
  0
LINE
  5
2DCE
330
BF7
100
AcDbEntity
  8
1
100
AcDbLine
 10
35.321178
 20
-2.380329999999997
 30
0.0
 11
36.52183100000003
 21
-2.262212999999995
 31
0.0
  0
LINE
  5
2DCF
330
BF7
100
AcDbEntity
  8
1
100
AcDbLine
 10
34.244136
 20
-2.251360999999999
 30
0.0
 11
35.321178
 21
-2.380329999999997
 31
0.0
  0
LINE
  5
2DD0
330
BF7
100
AcDbEntity
  8
1
100
AcDbLine
 10
33.167119
 20
-1.920262999999996
 30
0.0
 11
34.244136
 21
-2.251360999999999
 31
0.0
  0
LINE
  5
2DD1
330
BF7
100
AcDbEntity
  8
1
100
AcDbLine
 10
32.09007699999999
 20
-1.416769999999999
 30
0.0
 11
33.167119
 21
-1.920262999999996
 31
0.0
  0
LINE
  5
2DD2
330
BF7
100
AcDbEntity
  8
1
100
AcDbLine
 10
31.013035
 20
-0.7860729999999983
 30
0.0
 11
32.09007699999999
 21
-1.416769999999999
 31
0.0
  0
LINE
  5
2DD3
330
BF7
100
AcDbEntity
  8
1
100
AcDbLine
 10
29.93599299999998
 20
-0.084813999999998
 30
0.0
 11
31.013035
 21
-0.7860729999999983
 31
0.0
  0
LINE
  5
2DD4
330
BF7
100
AcDbEntity
  8
1
100
AcDbLine
 10
28.85896299999999
 20
0.6240690000000022
 30
0.0
 11
29.93599299999998
 21
-0.084813999999998
 31
0.0
  0
LINE
  5
2DD5
330
BF7
100
AcDbEntity
  8
1
100
AcDbLine
 10
27.78193400000001
 20
1.276927
 30
0.0
 11
28.85896299999999
 21
0.6240690000000022
 31
0.0
  0
LINE
  5
2DD6
330
BF7
100
AcDbEntity
  8
1
100
AcDbLine
 10
26.70486799999999
 20
1.815148999999996
 30
0.0
 11
27.78193400000001
 21
1.276927
 31
0.0
  0
LINE
  5
2DD7
330
BF7
100
AcDbEntity
  8
1
100
AcDbLine
 10
25.62780200000001
 20
2.190398000000004
 30
0.0
 11
26.70486799999999
 21
1.815148999999996
 31
0.0
  0
LINE
  5
2DD8
330
BF7
100
AcDbEntity
  8
1
100
AcDbLine
 10
24.550736
 20
2.368985000000002
 30
0.0
 11
25.62780200000001
 21
2.190398000000004
 31
0.0
  0
LINE
  5
2DD9
330
BF7
100
AcDbEntity
  8
1
100
AcDbLine
 10
24.184418
 20
2.357381999999999
 30
0.0
 11
24.550736
 21
2.368985000000002
 31
0.0
  0
LINE
  5
2DDA
330
BF7
100
AcDbEntity
  8
1
100
AcDbLine
 10
12.70305799999998
 20
-2.376572999999996
 30
0.0
 11
13.99183599999999
 21
-2.262328999999997
 31
0.0
  0
LINE
  5
2DDB
330
BF7
100
AcDbEntity
  8
1
100
AcDbLine
 10
11.62599199999999
 20
-2.224523999999997
 30
0.0
 11
12.70305799999998
 21
-2.376572999999996
 31
0.0
  0
LINE
  5
2DDC
330
BF7
100
AcDbEntity
  8
1
100
AcDbLine
 10
10.54893799999999
 20
-1.872746999999995
 30
0.0
 11
11.62599199999999
 21
-2.224523999999997
 31
0.0
  0
LINE
  5
2DDD
330
BF7
100
AcDbEntity
  8
1
100
AcDbLine
 10
9.471859999999992
 20
-1.352820999999996
 30
0.0
 11
10.54893799999999
 21
-1.872746999999995
 31
0.0
  0
LINE
  5
2DDE
330
BF7
100
AcDbEntity
  8
1
100
AcDbLine
 10
8.394763999999995
 20
-0.7114259999999995
 30
0.0
 11
9.471859999999992
 21
-1.352820999999996
 31
0.0
  0
LINE
  5
2DDF
330
BF7
100
AcDbEntity
  8
1
100
AcDbLine
 10
7.317218999999994
 20
-0.0058279999999975
 30
0.0
 11
8.394763999999995
 21
-0.7114259999999995
 31
0.0
  0
LINE
  5
2DE0
330
BF7
100
AcDbEntity
  8
1
100
AcDbLine
 10
6.110793999999982
 20
0.7817270000000037
 30
0.0
 11
7.317218999999994
 21
-0.0058279999999975
 31
0.0
  0
LINE
  5
2DE1
330
BF7
100
AcDbEntity
  8
1
100
AcDbLine
 10
5.810824999999994
 20
0.9672080000000027
 30
0.0
 11
6.110793999999982
 21
0.7817270000000037
 31
0.0
  0
LINE
  5
2DE2
330
BF7
100
AcDbEntity
  8
1
100
AcDbLine
 10
89.81696699999998
 20
2.230055
 30
0.0
 11
91.10500599999999
 21
2.381498999999998
 31
0.0
  0
LINE
  5
2DE3
330
BF7
100
AcDbEntity
  8
1
100
AcDbLine
 10
88.70233
 20
1.867086000000004
 30
0.0
 11
89.81696699999998
 21
2.230055
 31
0.0
  0
LINE
  5
2DE4
330
BF7
100
AcDbEntity
  8
1
100
AcDbLine
 10
87.79434299999998
 20
1.426779000000003
 30
0.0
 11
88.70233
 21
1.867086000000004
 31
0.0
  0
LINE
  5
2DE5
330
BF7
100
AcDbEntity
  8
1
100
AcDbLine
 10
77.71404799999998
 20
-1.970022999999995
 30
0.0
 11
79.851151
 21
-2.375802
 31
0.0
  0
LINE
  5
2DE6
330
BF7
100
AcDbEntity
  8
1
100
AcDbLine
 10
76.63100999999997
 20
-1.482093999999995
 30
0.0
 11
77.71404799999998
 21
-1.970022999999995
 31
0.0
  0
LINE
  5
2DE7
330
BF7
100
AcDbEntity
  8
1
100
AcDbLine
 10
75.51636199999997
 20
-0.8393809999999993
 30
0.0
 11
76.63100999999997
 21
-1.482093999999995
 31
0.0
  0
LINE
  5
2DE8
330
BF7
100
AcDbEntity
  8
1
100
AcDbLine
 10
74.432731
 20
-0.1374420000000001
 30
0.0
 11
75.51636199999997
 21
-0.8393809999999993
 31
0.0
  0
LINE
  5
2DE9
330
BF7
100
AcDbEntity
  8
1
100
AcDbLine
 10
73.318495
 20
0.596858000000001
 30
0.0
 11
74.432731
 21
-0.1374420000000001
 31
0.0
  0
LINE
  5
2DEA
330
BF7
100
AcDbEntity
  8
1
100
AcDbLine
 10
72.23579700000001
 20
1.256377
 30
0.0
 11
73.318495
 21
0.596858000000001
 31
0.0
  0
LINE
  5
2DEB
330
BF7
100
AcDbEntity
  8
1
100
AcDbLine
 10
71.12101499999998
 20
1.815556999999999
 30
0.0
 11
72.23579700000001
 21
1.256377
 31
0.0
  0
LINE
  5
2DEC
330
BF7
100
AcDbEntity
  8
1
100
AcDbLine
 10
70.03803799999999
 20
2.192412
 30
0.0
 11
71.12101499999998
 21
1.815556999999999
 31
0.0
  0
LINE
  5
2DED
330
BF7
100
AcDbEntity
  8
1
100
AcDbLine
 10
68.92346299999998
 20
2.371855
 30
0.0
 11
70.03803799999999
 21
2.192412
 31
0.0
  0
LINE
  5
2DEE
330
BF7
100
AcDbEntity
  8
1
100
AcDbLine
 10
67.84027999999999
 20
2.328017000000004
 30
0.0
 11
68.92346299999998
 21
2.371855
 31
0.0
  0
LINE
  5
2DEF
330
BF7
100
AcDbEntity
  8
1
100
AcDbLine
 10
66.725971
 20
2.062474999999999
 30
0.0
 11
67.84027999999999
 21
2.328017000000004
 31
0.0
  0
LINE
  5
2DF0
330
BF7
100
AcDbEntity
  8
1
100
AcDbLine
 10
65.64289699999999
 20
1.614382999999999
 30
0.0
 11
66.725971
 21
2.062474999999999
 31
0.0
  0
LINE
  5
2DF1
330
BF7
100
AcDbEntity
  8
1
100
AcDbLine
 10
65.29765400000001
 20
1.424121000000003
 30
0.0
 11
65.64289699999999
 21
1.614382999999999
 31
0.0
  0
LINE
  5
2DF2
330
BF7
100
AcDbEntity
  8
1
100
AcDbLine
 10
55.73812399999997
 20
-2.144012
 30
0.0
 11
57.34963
 21
-2.354506999999998
 31
0.0
  0
LINE
  5
2DF3
330
BF7
100
AcDbEntity
  8
1
100
AcDbLine
 10
54.65516
 20
-1.738252999999995
 30
0.0
 11
55.73812399999997
 21
-2.144012
 31
0.0
  0
LINE
  5
2DF4
330
BF7
100
AcDbEntity
  8
1
100
AcDbLine
 10
53.54036599999999
 20
-1.155596999999995
 30
0.0
 11
54.65516
 21
-1.738252999999995
 31
0.0
  0
LINE
  5
2DF5
330
BF7
100
AcDbEntity
  8
1
100
AcDbLine
 10
52.45697800000001
 20
-0.4823699999999996
 30
0.0
 11
53.54036599999999
 21
-1.155596999999995
 31
0.0
  0
LINE
  5
2DF6
330
BF7
100
AcDbEntity
  8
1
100
AcDbLine
 10
51.34252299999999
 20
0.2541879999999992
 30
0.0
 11
52.45697800000001
 21
-0.4823699999999996
 31
0.0
  0
LINE
  5
2DF7
330
BF7
100
AcDbEntity
  8
1
100
AcDbLine
 10
50.25988600000001
 20
0.9478780000000027
 30
0.0
 11
51.34252299999999
 21
0.2541879999999992
 31
0.0
  0
LINE
  5
2DF8
330
BF7
100
AcDbEntity
  8
1
100
AcDbLine
 10
49.14539399999998
 20
1.57132
 30
0.0
 11
50.25988600000001
 21
0.9478780000000027
 31
0.0
  0
LINE
  5
2DF9
330
BF7
100
AcDbEntity
  8
1
100
AcDbLine
 10
48.06242999999999
 20
2.033062000000001
 30
0.0
 11
49.14539399999998
 21
1.57132
 31
0.0
  0
LINE
  5
2DFA
330
BF7
100
AcDbEntity
  8
1
100
AcDbLine
 10
46.94751499999997
 20
2.315333000000002
 30
0.0
 11
48.06242999999999
 21
2.033062000000001
 31
0.0
  0
LINE
  5
2DFB
330
BF7
100
AcDbEntity
  8
1
100
AcDbLine
 10
45.863703
 20
2.376285000000001
 30
0.0
 11
46.94751499999997
 21
2.315333000000002
 31
0.0
  0
LINE
  5
2DFC
330
BF7
100
AcDbEntity
  8
1
100
AcDbLine
 10
44.75018100000001
 20
2.214043
 30
0.0
 11
45.863703
 21
2.376285000000001
 31
0.0
  0
LINE
  5
2DFD
330
BF7
100
AcDbEntity
  8
1
100
AcDbLine
 10
43.66761599999999
 20
1.852834000000001
 30
0.0
 11
44.75018100000001
 21
2.214043
 31
0.0
  0
LINE
  5
2DFE
330
BF7
100
AcDbEntity
  8
1
100
AcDbLine
 10
42.86485499999999
 20
1.458454000000003
 30
0.0
 11
43.66761599999999
 21
1.852834000000001
 31
0.0
  0
LINE
  5
2DFF
330
BF7
100
AcDbEntity
  8
1
100
AcDbLine
 10
32.67786799999999
 20
-1.956438999999999
 30
0.0
 11
34.85180299999999
 21
-2.378855999999998
 31
0.0
  0
LINE
  5
2E00
330
BF7
100
AcDbEntity
  8
1
100
AcDbLine
 10
31.56529099999999
 20
-1.447148999999999
 30
0.0
 11
32.67786799999999
 21
-1.956438999999999
 31
0.0
  0
LINE
  5
2E01
330
BF7
100
AcDbEntity
  8
1
100
AcDbLine
 10
30.48289499999999
 20
-0.8200739999999978
 30
0.0
 11
31.56529099999999
 21
-1.447148999999999
 31
0.0
  0
LINE
  5
2E02
330
BF7
100
AcDbEntity
  8
1
100
AcDbLine
 10
29.36742299999999
 20
-0.0942849999999958
 30
0.0
 11
30.48289499999999
 21
-0.8200739999999978
 31
0.0
  0
LINE
  5
2E03
330
BF7
100
AcDbEntity
  8
1
100
AcDbLine
 10
28.28401100000001
 20
0.6209050000000005
 30
0.0
 11
29.36742299999999
 21
-0.0942849999999958
 31
0.0
  0
LINE
  5
2E04
330
BF7
100
AcDbEntity
  8
1
100
AcDbLine
 10
27.16975
 20
1.292957000000001
 30
0.0
 11
28.28401100000001
 21
0.6209050000000005
 31
0.0
  0
LINE
  5
2E05
330
BF7
100
AcDbEntity
  8
1
100
AcDbLine
 10
26.087875
 20
1.829510000000002
 30
0.0
 11
27.16975
 21
1.292957000000001
 31
0.0
  0
LINE
  5
2E06
330
BF7
100
AcDbEntity
  8
1
100
AcDbLine
 10
24.97316599999999
 20
2.208698999999999
 30
0.0
 11
26.087875
 21
1.829510000000002
 31
0.0
  0
LINE
  5
2E07
330
BF7
100
AcDbEntity
  8
1
100
AcDbLine
 10
23.88971699999999
 20
2.373731999999999
 30
0.0
 11
24.97316599999999
 21
2.208698999999999
 31
0.0
  0
LINE
  5
2E08
330
BF7
100
AcDbEntity
  8
1
100
AcDbLine
 10
22.77536000000001
 20
2.318191000000001
 30
0.0
 11
23.88971699999999
 21
2.373731999999999
 31
0.0
  0
LINE
  5
2E09
330
BF7
100
AcDbEntity
  8
1
100
AcDbLine
 10
21.69096599999999
 20
2.050845000000002
 30
0.0
 11
22.77536000000001
 21
2.318191000000001
 31
0.0
  0
LINE
  5
2E0A
330
BF7
100
AcDbEntity
  8
1
100
AcDbLine
 10
20.57704399999999
 20
1.582263
 30
0.0
 11
21.69096599999999
 21
2.050845000000002
 31
0.0
  0
LINE
  5
2E0B
330
BF7
100
AcDbEntity
  8
1
100
AcDbLine
 10
20.300426
 20
1.428341000000003
 30
0.0
 11
20.57704399999999
 21
1.582263
 31
0.0
  0
LINE
  5
2E0C
330
BF7
100
AcDbEntity
  8
1
100
AcDbLine
 10
11.342252
 20
-2.293655999999996
 30
0.0
 11
12.41030699999999
 21
-2.381171999999995
 31
0.0
  0
LINE
  5
2E0D
330
BF7
100
AcDbEntity
  8
1
100
AcDbLine
 10
10.25820399999999
 20
-2.058279999999998
 30
0.0
 11
11.342252
 21
-2.293655999999996
 31
0.0
  0
LINE
  5
2E0E
330
BF7
100
AcDbEntity
  8
1
100
AcDbLine
 10
9.259893999999988
 20
-1.81128
 30
0.0
 11
10.25820399999999
 21
-2.058279999999998
 31
0.0
  0
LINE
  5
2E0F
330
BF7
100
AcDbEntity
  8
1
100
AcDbLine
 10
8.234883999999992
 20
-1.613128999999995
 30
0.0
 11
9.259893999999988
 21
-1.81128
 31
0.0
  0
LINE
  5
2E10
330
BF7
100
AcDbEntity
  8
1
100
AcDbLine
 10
6.926453999999991
 20
-1.511644999999995
 30
0.0
 11
8.234883999999992
 21
-1.613128999999995
 31
0.0
  0
LINE
  5
2E11
330
BF7
100
AcDbEntity
  8
1
100
AcDbLine
 10
6.631141999999996
 20
-1.688658999999995
 30
0.0
 11
6.926453999999991
 21
-1.511644999999995
 31
0.0
  0
LINE
  5
2E12
330
BF7
100
AcDbEntity
  8
1
100
AcDbLine
 10
6.213948999999997
 20
-1.987218999999995
 30
0.0
 11
6.631141999999996
 21
-1.688658999999995
 31
0.0
  0
LINE
  5
2E13
330
BF7
100
AcDbEntity
  8
1
100
AcDbLine
 10
6.042108999999996
 20
-2.165963999999998
 30
0.0
 11
6.213948999999997
 21
-1.987218999999995
 31
0.0
  0
LINE
  5
2E14
330
BF7
100
AcDbEntity
  8
1
100
AcDbLine
 10
6.001419999999995
 20
-2.293766999999999
 30
0.0
 11
6.042108999999996
 21
-2.165963999999998
 31
0.0
  0
LINE
  5
2E15
330
BF7
100
AcDbEntity
  8
1
100
AcDbLine
 10
6.102067999999986
 20
-2.368950999999999
 30
0.0
 11
6.001419999999995
 21
-2.293766999999999
 31
0.0
  0
LINE
  5
2E16
330
BF7
100
AcDbEntity
  8
1
100
AcDbLine
 10
6.309273999999986
 20
-2.378870999999999
 30
0.0
 11
6.102067999999986
 21
-2.368950999999999
 31
0.0
  0
LINE
  5
2E17
330
BF7
100
AcDbEntity
  8
1
100
AcDbLine
 10
6.637039999999998
 20
-2.332411999999997
 30
0.0
 11
6.309273999999986
 21
-2.378870999999999
 31
0.0
  0
LINE
  5
2E18
330
BF7
100
AcDbEntity
  8
1
100
AcDbLine
 10
7.012713999999986
 20
-2.243573999999997
 30
0.0
 11
6.637039999999998
 21
-2.332411999999997
 31
0.0
  0
LINE
  5
2E19
330
BF7
100
AcDbEntity
  8
1
100
AcDbLine
 10
7.639830999999986
 20
-2.055264999999998
 30
0.0
 11
7.012713999999986
 21
-2.243573999999997
 31
0.0
  0
LINE
  5
2E1A
330
BF7
100
AcDbEntity
  8
1
100
AcDbLine
 10
7.98558899999999
 20
-1.929371999999995
 30
0.0
 11
7.640327999999996
 21
-2.055098999999998
 31
0.0
  0
LINE
  5
2E1B
330
BF7
100
AcDbEntity
  8
1
100
AcDbLine
 10
8.55827099999999
 20
-1.675647999999996
 30
0.0
 11
7.98558899999999
 21
-1.929371999999995
 31
0.0
  0
LINE
  5
2E1C
330
BF7
100
AcDbEntity
  8
1
100
AcDbLine
 10
90.24984999999999
 20
-2.193198999999999
 30
0.0
 11
91.07060899999998
 21
-2.346709999999998
 31
0.0
  0
LINE
  5
2E1D
330
BF7
100
AcDbEntity
  8
1
100
AcDbLine
 10
89.17281999999998
 20
-1.819780999999996
 30
0.0
 11
90.24984999999999
 21
-2.193198999999999
 31
0.0
  0
LINE
  5
2E1E
330
BF7
100
AcDbEntity
  8
1
100
AcDbLine
 10
88.09578999999997
 20
-1.282988999999997
 30
0.0
 11
89.17281999999998
 21
-1.819780999999996
 31
0.0
  0
LINE
  5
2E1F
330
BF7
100
AcDbEntity
  8
1
100
AcDbLine
 10
87.01876
 20
-0.6310049999999983
 30
0.0
 11
88.09578999999997
 21
-1.282988999999997
 31
0.0
  0
LINE
  5
2E20
330
BF7
100
AcDbEntity
  8
1
100
AcDbLine
 10
85.94171899999997
 20
0.0776210000000006
 30
0.0
 11
87.01876
 21
-0.6310049999999983
 31
0.0
  0
LINE
  5
2E21
330
BF7
100
AcDbEntity
  8
1
100
AcDbLine
 10
84.86470099999998
 20
0.7792890000000022
 30
0.0
 11
85.94171899999997
 21
0.0776210000000006
 31
0.0
  0
LINE
  5
2E22
330
BF7
100
AcDbEntity
  8
1
100
AcDbLine
 10
83.78765900000002
 20
1.410975999999999
 30
0.0
 11
84.86470099999998
 21
0.7792890000000022
 31
0.0
  0
LINE
  5
2E23
330
BF7
100
AcDbEntity
  8
1
100
AcDbLine
 10
82.71062999999998
 20
1.915998999999999
 30
0.0
 11
83.78765900000002
 21
1.410975999999999
 31
0.0
  0
LINE
  5
2E24
330
BF7
100
AcDbEntity
  8
1
100
AcDbLine
 10
81.63358799999997
 20
2.249000999999998
 30
0.0
 11
82.71062999999998
 21
1.915998999999999
 31
0.0
  0
LINE
  5
2E25
330
BF7
100
AcDbEntity
  8
1
100
AcDbLine
 10
80.55655800000002
 20
2.380093999999999
 30
0.0
 11
81.63358799999997
 21
2.249000999999998
 31
0.0
  0
LINE
  5
2E26
330
BF7
100
AcDbEntity
  8
1
100
AcDbLine
 10
80.43346699999998
 20
2.370653000000003
 30
0.0
 11
80.55655800000002
 21
2.380093999999999
 31
0.0
  0
LINE
  5
2E27
330
BF7
100
AcDbEntity
  8
1
100
AcDbLine
 10
68.70919499999998
 20
-2.360645999999999
 30
0.0
 11
70.19691899999999
 21
-2.262580999999999
 31
0.0
  0
LINE
  5
2E28
330
BF7
100
AcDbEntity
  8
1
100
AcDbLine
 10
67.63216599999998
 20
-2.161509999999995
 30
0.0
 11
68.70919499999998
 21
-2.360645999999999
 31
0.0
  0
LINE
  5
2E29
330
BF7
100
AcDbEntity
  8
1
100
AcDbLine
 10
66.55512399999999
 20
-1.768319999999999
 30
0.0
 11
67.63216599999998
 21
-2.161509999999995
 31
0.0
  0
LINE
  5
2E2A
330
BF7
100
AcDbEntity
  8
1
100
AcDbLine
 10
65.47809399999998
 20
-1.216368999999995
 30
0.0
 11
66.55512399999999
 21
-1.768319999999999
 31
0.0
  0
LINE
  5
2E2B
330
BF7
100
AcDbEntity
  8
1
100
AcDbLine
 10
64.40106399999997
 20
-0.5552129999999984
 30
0.0
 11
65.47809399999998
 21
-1.216368999999995
 31
0.0
  0
LINE
  5
2E2C
330
BF7
100
AcDbEntity
  8
1
100
AcDbLine
 10
63.32403499999998
 20
0.1557900000000032
 30
0.0
 11
64.40106399999997
 21
-0.5552129999999984
 31
0.0
  0
LINE
  5
2E2D
330
BF7
100
AcDbEntity
  8
1
100
AcDbLine
 10
62.24699299999999
 20
0.8528040000000023
 30
0.0
 11
63.32403499999998
 21
0.1557900000000032
 31
0.0
  0
LINE
  5
2E2E
330
BF7
100
AcDbEntity
  8
1
100
AcDbLine
 10
61.16996299999998
 20
1.473257999999999
 30
0.0
 11
62.24699299999999
 21
0.8528040000000023
 31
0.0
  0
LINE
  5
2E2F
330
BF7
100
AcDbEntity
  8
1
100
AcDbLine
 10
60.09293299999999
 20
1.961439000000002
 30
0.0
 11
61.16996299999998
 21
1.473257999999999
 31
0.0
  0
LINE
  5
2E30
330
BF7
100
AcDbEntity
  8
1
100
AcDbLine
 10
59.01590399999999
 20
2.273529999999996
 30
0.0
 11
60.09293299999999
 21
1.961439000000002
 31
0.0
  0
LINE
  5
2E31
330
BF7
100
AcDbEntity
  8
1
100
AcDbLine
 10
57.93886199999999
 20
2.381496000000002
 30
0.0
 11
59.01590399999999
 21
2.273529999999996
 31
0.0
  0
LINE
  5
2E32
330
BF7
100
AcDbEntity
  8
1
100
AcDbLine
 10
57.93278199999999
 20
2.3809
 30
0.0
 11
57.93886199999999
 21
2.381496000000002
 31
0.0
  0
LINE
  5
2E33
330
BF7
100
AcDbEntity
  8
1
100
AcDbLine
 10
46.09149899999997
 20
-2.349036999999999
 30
0.0
 11
47.68957299999998
 21
-2.262346999999996
 31
0.0
  0
LINE
  5
2E34
330
BF7
100
AcDbEntity
  8
1
100
AcDbLine
 10
45.01446899999996
 20
-2.127492999999995
 30
0.0
 11
46.09149899999997
 21
-2.349036999999999
 31
0.0
  0
LINE
  5
2E35
330
BF7
100
AcDbEntity
  8
1
100
AcDbLine
 10
43.93743999999998
 20
-1.714946999999996
 30
0.0
 11
45.01446899999996
 21
-2.127492999999995
 31
0.0
  0
LINE
  5
2E36
330
BF7
100
AcDbEntity
  8
1
100
AcDbLine
 10
42.86040999999999
 20
-1.148434999999994
 30
0.0
 11
43.93743999999998
 21
-1.714946999999996
 31
0.0
  0
LINE
  5
2E37
330
BF7
100
AcDbEntity
  8
1
100
AcDbLine
 10
41.78338
 20
-0.4788069999999962
 30
0.0
 11
42.86040999999999
 21
-1.148434999999994
 31
0.0
  0
LINE
  5
2E38
330
BF7
100
AcDbEntity
  8
1
100
AcDbLine
 10
40.70633899999996
 20
0.2337920000000011
 30
0.0
 11
41.78338
 21
-0.4788069999999962
 31
0.0
  0
LINE
  5
2E39
330
BF7
100
AcDbEntity
  8
1
100
AcDbLine
 10
39.62930899999999
 20
0.9254139999999999
 30
0.0
 11
40.70633899999996
 21
0.2337920000000011
 31
0.0
  0
LINE
  5
2E3A
330
BF7
100
AcDbEntity
  8
1
100
AcDbLine
 10
38.55227899999999
 20
1.533943
 30
0.0
 11
39.62930899999999
 21
0.9254139999999999
 31
0.0
  0
LINE
  5
2E3B
330
BF7
100
AcDbEntity
  8
1
100
AcDbLine
 10
37.47523699999998
 20
2.004760000000004
 30
0.0
 11
38.55227899999999
 21
1.533943
 31
0.0
  0
LINE
  5
2E3C
330
BF7
100
AcDbEntity
  8
1
100
AcDbLine
 10
36.39820800000001
 20
2.295593999999999
 30
0.0
 11
37.47523699999998
 21
2.004760000000004
 31
0.0
  0
LINE
  5
2E3D
330
BF7
100
AcDbEntity
  8
1
100
AcDbLine
 10
35.43342900000001
 20
2.371498000000002
 30
0.0
 11
36.39820800000001
 21
2.295593999999999
 31
0.0
  0
LINE
  5
2E3E
330
BF7
100
AcDbEntity
  8
1
100
AcDbLine
 10
23.473682
 20
-2.334871999999997
 30
0.0
 11
25.19421599999998
 21
-2.26229
 31
0.0
  0
LINE
  5
2E3F
330
BF7
100
AcDbEntity
  8
1
100
AcDbLine
 10
22.39661599999998
 20
-2.091127999999995
 30
0.0
 11
23.473682
 21
-2.334871999999997
 31
0.0
  0
LINE
  5
2E40
330
BF7
100
AcDbEntity
  8
1
100
AcDbLine
 10
21.31956199999998
 20
-1.659629999999999
 30
0.0
 11
22.39661599999998
 21
-2.091127999999995
 31
0.0
  0
LINE
  5
2E41
330
BF7
100
AcDbEntity
  8
1
100
AcDbLine
 10
20.24249599999999
 20
-1.079129999999999
 30
0.0
 11
21.31956199999998
 21
-1.659629999999999
 31
0.0
  0
LINE
  5
2E42
330
BF7
100
AcDbEntity
  8
1
100
AcDbLine
 10
19.16543
 20
-0.4017400000000002
 30
0.0
 11
20.24249599999999
 21
-1.079129999999999
 31
0.0
  0
LINE
  5
2E43
330
BF7
100
AcDbEntity
  8
1
100
AcDbLine
 10
18.088376
 20
0.3117249999999991
 30
0.0
 11
19.16543
 21
-0.4017400000000002
 31
0.0
  0
LINE
  5
2E44
330
BF7
100
AcDbEntity
  8
1
100
AcDbLine
 10
17.01131000000001
 20
0.9971999999999994
 30
0.0
 11
18.088376
 21
0.3117249999999991
 31
0.0
  0
LINE
  5
2E45
330
BF7
100
AcDbEntity
  8
1
100
AcDbLine
 10
15.93424399999999
 20
1.593142000000003
 30
0.0
 11
17.01131000000001
 21
0.9971999999999994
 31
0.0
  0
LINE
  5
2E46
330
BF7
100
AcDbEntity
  8
1
100
AcDbLine
 10
14.85718999999999
 20
2.046045000000003
 30
0.0
 11
15.93424399999999
 21
1.593142000000003
 31
0.0
  0
LINE
  5
2E47
330
BF7
100
AcDbEntity
  8
1
100
AcDbLine
 10
13.78012399999998
 20
2.315244999999999
 30
0.0
 11
14.85718999999999
 21
2.046045000000003
 31
0.0
  0
LINE
  5
2E48
330
BF7
100
AcDbEntity
  8
1
100
AcDbLine
 10
12.93274299999999
 20
2.363494999999999
 30
0.0
 11
13.78012399999998
 21
2.315244999999999
 31
0.0
  0
LINE
  5
2E49
330
BF7
100
AcDbEntity
  8
1
100
AcDbLine
 10
0.5
 20
0.7756290000000057
 30
0.0
 11
0.5
 21
0.0522930000000024
 31
0.0
  0
LINE
  5
2E4A
330
BF7
100
AcDbEntity
  8
1
100
AcDbLine
 10
0.5
 20
1.425123000000002
 30
0.0
 11
0.5
 21
0.7756290000000057
 31
0.0
  0
LINE
  5
2E4B
330
BF7
100
AcDbEntity
  8
1
100
AcDbLine
 10
0.5
 20
1.938950999999999
 30
0.0
 11
0.5
 21
1.425123000000002
 31
0.0
  0
LINE
  5
2E4C
330
BF7
100
AcDbEntity
  8
1
100
AcDbLine
 10
0.5
 20
2.268188000000002
 30
0.0
 11
0.5
 21
1.938950999999999
 31
0.0
  0
LINE
  5
2E4D
330
BF7
100
AcDbEntity
  8
1
100
AcDbLine
 10
0.5
 20
2.381498999999998
 30
0.0
 11
0.5
 21
2.268188000000002
 31
0.0
  0
LINE
  5
2E4E
330
BF7
100
AcDbEntity
  8
1
100
AcDbLine
 10
0.5
 20
-2.261706
 30
0.0
 11
0.5
 21
-2.381499999999995
 31
0.0
  0
LINE
  5
2E4F
330
BF7
100
AcDbEntity
  8
1
100
AcDbLine
 10
0.5
 20
-1.914331
 30
0.0
 11
0.5
 21
-2.261706
 31
0.0
  0
LINE
  5
2E50
330
BF7
100
AcDbEntity
  8
1
100
AcDbLine
 10
0.5
 20
-1.374328999999995
 30
0.0
 11
0.5
 21
-1.914331
 31
0.0
  0
LINE
  5
2E51
330
BF7
100
AcDbEntity
  8
1
100
AcDbLine
 10
0.5
 20
-0.696037999999998
 30
0.0
 11
0.5
 21
-1.374328999999995
 31
0.0
  0
LINE
  5
2E52
330
BF7
100
AcDbEntity
  8
1
100
AcDbLine
 10
0.5
 20
0.0522930000000024
 30
0.0
 11
0.5
 21
-0.696037999999998
 31
0.0
  0
LINE
  5
2E53
330
BF7
100
AcDbEntity
  8
1
100
AcDbLine
 10
91.993445
 20
-0.0316709999999994
 30
0.0
 11
91.99997299999999
 21
-0.006378999999999
 31
0.0
  0
LINE
  5
2E54
330
BF7
100
AcDbEntity
  8
1
100
AcDbLine
 10
90.095244
 20
-1.080075999999996
 30
0.0
 11
90.90952299999999
 21
-1.719882999999999
 31
0.0
  0
LINE
  5
2E55
330
BF7
100
AcDbEntity
  8
1
100
AcDbLine
 10
89.60582399999998
 20
-0.4302509999999984
 30
0.0
 11
90.095244
 21
-1.080075999999996
 31
0.0
  0
LINE
  5
2E56
330
BF7
100
AcDbEntity
  8
1
100
AcDbLine
 10
89.38424099999997
 20
0.0878070000000015
 30
0.0
 11
89.60582399999998
 21
-0.4302509999999984
 31
0.0
  0
LINE
  5
2E57
330
BF7
100
AcDbEntity
  8
1
100
AcDbLine
 10
89.30153
 20
0.6046850000000035
 30
0.0
 11
89.38424099999997
 21
0.0878070000000015
 31
0.0
  0
LINE
  5
2E58
330
BF7
100
AcDbEntity
  8
1
100
AcDbLine
 10
89.686572
 20
0.5123999999999997
 30
0.0
 11
89.30153
 21
0.6046850000000035
 31
0.0
  0
LINE
  5
2E59
330
BF7
100
AcDbEntity
  8
1
100
AcDbLine
 10
90.16868899999998
 20
0.3348820000000003
 30
0.0
 11
89.686572
 21
0.5123999999999997
 31
0.0
  0
LINE
  5
2E5A
330
BF7
100
AcDbEntity
  8
1
100
AcDbLine
 10
90.28648699999996
 20
0.2724070000000012
 30
0.0
 11
90.16868899999998
 21
0.3348820000000003
 31
0.0
  0
LINE
  5
2E5B
330
BF7
100
AcDbEntity
  8
1
100
AcDbLine
 10
90.30883300000001
 20
0.2584360000000032
 30
0.0
 11
90.28648699999996
 21
0.2724070000000012
 31
0.0
  0
LINE
  5
2E5C
330
BF7
100
AcDbEntity
  8
1
100
AcDbLine
 10
90.37204399999998
 20
0.2200390000000034
 30
0.0
 11
90.30883300000001
 21
0.2584360000000032
 31
0.0
  0
LINE
  5
2E5D
330
BF7
100
AcDbEntity
  8
1
100
AcDbLine
 10
90.780595
 20
0.0629540000000013
 30
0.0
 11
90.37204399999998
 21
0.2200390000000034
 31
0.0
  0
LINE
  5
2E5E
330
BF7
100
AcDbEntity
  8
1
100
AcDbLine
 10
91.039857
 20
0.0663850000000004
 30
0.0
 11
90.780595
 21
0.0629540000000013
 31
0.0
  0
LINE
  5
2E5F
330
BF7
100
AcDbEntity
  8
1
100
AcDbLine
 10
91.19442600000001
 20
0.1402570000000018
 30
0.0
 11
91.039857
 21
0.0663850000000004
 31
0.0
  0
LINE
  5
2E60
330
BF7
100
AcDbEntity
  8
1
100
AcDbLine
 10
91.285833
 20
0.2495530000000024
 30
0.0
 11
91.19442600000001
 21
0.1402570000000018
 31
0.0
  0
LINE
  5
2E61
330
BF7
100
AcDbEntity
  8
1
100
AcDbLine
 10
91.33574499999999
 20
0.3999009999999998
 30
0.0
 11
91.285833
 21
0.2495530000000024
 31
0.0
  0
LINE
  5
2E62
330
BF7
100
AcDbEntity
  8
1
100
AcDbLine
 10
91.336799
 20
0.4089570000000009
 30
0.0
 11
91.33574499999999
 21
0.3999009999999998
 31
0.0
  0
LINE
  5
2E63
330
BF7
100
AcDbEntity
  8
1
100
AcDbLine
 10
91.97568899999998
 20
-0.0396799999999971
 30
0.0
 11
91.336799
 21
0.4089570000000009
 31
0.0
  0
LINE
  5
2E64
330
BF7
100
AcDbEntity
  8
1
100
AcDbLine
 10
91.36710200000001
 20
-0.6326639999999985
 30
0.0
 11
91.549177
 21
-0.7118319999999976
 31
0.0
  0
LINE
  5
2E65
330
BF7
100
AcDbEntity
  8
1
100
AcDbLine
 10
91.13745299999999
 20
-0.5804049999999991
 30
0.0
 11
91.36710200000001
 21
-0.6326639999999985
 31
0.0
  0
LINE
  5
2E66
330
BF7
100
AcDbEntity
  8
1
100
AcDbLine
 10
91.01808
 20
-0.5903289999999971
 30
0.0
 11
91.13745299999999
 21
-0.5804049999999991
 31
0.0
  0
LINE
  5
2E67
330
BF7
100
AcDbEntity
  8
1
100
AcDbLine
 10
90.96807099999999
 20
-0.6161770000000005
 30
0.0
 11
91.01808
 21
-0.5903289999999971
 31
0.0
  0
LINE
  5
2E68
330
BF7
100
AcDbEntity
  8
1
100
AcDbLine
 10
90.944962
 20
-0.6441549999999979
 30
0.0
 11
90.96807099999999
 21
-0.6161770000000005
 31
0.0
  0
LINE
  5
2E69
330
BF7
100
AcDbEntity
  8
1
100
AcDbLine
 10
90.93477599999998
 20
-0.6742430000000006
 30
0.0
 11
90.944962
 21
-0.6441549999999979
 31
0.0
  0
LINE
  5
2E6A
330
BF7
100
AcDbEntity
  8
1
100
AcDbLine
 10
90.93492199999998
 20
-0.7145650000000005
 30
0.0
 11
90.93477599999998
 21
-0.6742430000000006
 31
0.0
  0
LINE
  5
2E6B
330
BF7
100
AcDbEntity
  8
1
100
AcDbLine
 10
90.94574900000001
 20
-0.7546769999999974
 30
0.0
 11
90.93492199999998
 21
-0.7145650000000005
 31
0.0
  0
LINE
  5
2E6C
330
BF7
100
AcDbEntity
  8
1
100
AcDbLine
 10
90.97830599999999
 20
-0.8170289999999978
 30
0.0
 11
90.94574900000001
 21
-0.7546769999999974
 31
0.0
  0
LINE
  5
2E6D
330
BF7
100
AcDbEntity
  8
1
100
AcDbLine
 10
91.01937599999999
 20
-0.8709899999999988
 30
0.0
 11
90.97830599999999
 21
-0.8170289999999978
 31
0.0
  0
LINE
  5
2E6E
330
BF7
100
AcDbEntity
  8
1
100
AcDbLine
 10
91.15799399999998
 20
-0.9956849999999979
 30
0.0
 11
91.01937599999999
 21
-0.8709899999999988
 31
0.0
  0
LINE
  5
2E6F
330
BF7
100
AcDbEntity
  8
1
100
AcDbLine
 10
91.21574299999997
 20
-1.034704999999997
 30
0.0
 11
91.15799399999998
 21
-0.9956849999999979
 31
0.0
  0
LINE
  5
2E70
330
BF7
100
AcDbEntity
  8
1
100
AcDbLine
 10
91.31039499999998
 20
-1.088137999999996
 30
0.0
 11
91.21574299999997
 21
-1.034704999999997
 31
0.0
  0
LINE
  5
2E71
330
BF7
100
AcDbEntity
  8
1
100
AcDbLine
 10
91.549177
 20
-0.7118319999999976
 30
0.0
 11
91.97568899999998
 21
-0.0396799999999971
 31
0.0
  0
LINE
  5
2E72
330
BF7
100
AcDbEntity
  8
1
100
AcDbLine
 10
91.97568899999998
 20
-0.0396799999999971
 30
0.0
 11
91.993445
 21
0.0316700000000019
 31
0.0
  0
LINE
  5
2E73
330
BF7
100
AcDbEntity
  8
1
100
AcDbLine
 10
91.993445
 20
0.0316700000000019
 30
0.0
 11
91.99997299999999
 21
0.0063780000000016
 31
0.0
  0
LINE
  5
2E74
330
BF7
100
AcDbEntity
  8
1
100
AcDbLine
 10
91.99997299999999
 20
0.0063780000000016
 30
0.0
 11
91.11362900000001
 21
-2.089280999999999
 31
0.0
  0
LINE
  5
2E75
330
BF7
100
AcDbEntity
  8
1
100
AcDbLine
 10
90.94103799999997
 20
-1.805564999999995
 30
0.0
 11
90.90952299999999
 21
-1.719882999999999
 31
0.0
  0
LINE
  5
2E76
330
BF7
100
AcDbEntity
  8
1
100
AcDbLine
 10
91.01269099999996
 20
-1.951841999999999
 30
0.0
 11
90.94103799999997
 21
-1.805564999999995
 31
0.0
  0
LINE
  5
2E77
330
BF7
100
AcDbEntity
  8
1
100
AcDbLine
 10
91.11362900000001
 20
-2.089280999999999
 30
0.0
 11
91.01269099999996
 21
-1.951841999999999
 31
0.0
  0
LINE
  5
2E78
330
BF7
100
AcDbEntity
  8
1
100
AcDbLine
 10
90.90952299999999
 20
-1.719882999999999
 30
0.0
 11
91.31039499999998
 21
-1.088137999999996
 31
0.0
  0
LINE
  5
2E79
330
BF7
100
AcDbEntity
  8
1
100
AcDbLine
 10
91.55059399999997
 20
-0.7149189999999983
 30
0.0
 11
91.549177
 21
-0.7118319999999976
 31
0.0
  0
LINE
  5
2E7A
330
BF7
100
AcDbEntity
  8
1
100
AcDbLine
 10
91.568325
 20
-0.7796269999999979
 30
0.0
 11
91.55059399999997
 21
-0.7149189999999983
 31
0.0
  0
LINE
  5
2E7B
330
BF7
100
AcDbEntity
  8
1
100
AcDbLine
 10
91.57127999999998
 20
-0.8377179999999988
 30
0.0
 11
91.568325
 21
-0.7796269999999979
 31
0.0
  0
LINE
  5
2E7C
330
BF7
100
AcDbEntity
  8
1
100
AcDbLine
 10
91.56461899999998
 20
-0.9010859999999992
 30
0.0
 11
91.57127999999998
 21
-0.8377179999999988
 31
0.0
  0
LINE
  5
2E7D
330
BF7
100
AcDbEntity
  8
1
100
AcDbLine
 10
91.54599099999996
 20
-0.9716039999999992
 30
0.0
 11
91.56461899999998
 21
-0.9010859999999992
 31
0.0
  0
LINE
  5
2E7E
330
BF7
100
AcDbEntity
  8
1
100
AcDbLine
 10
91.51858299999998
 20
-1.033062000000001
 30
0.0
 11
91.54599099999996
 21
-0.9716039999999992
 31
0.0
  0
LINE
  5
2E7F
330
BF7
100
AcDbEntity
  8
1
100
AcDbLine
 10
91.47957099999997
 20
-1.088849999999995
 30
0.0
 11
91.51858299999998
 21
-1.033062000000001
 31
0.0
  0
LINE
  5
2E80
330
BF7
100
AcDbEntity
  8
1
100
AcDbLine
 10
91.415936
 20
-1.134755999999998
 30
0.0
 11
91.47957099999997
 21
-1.088849999999995
 31
0.0
  0
LINE
  5
2E81
330
BF7
100
AcDbEntity
  8
1
100
AcDbLine
 10
91.359799
 20
-1.135094999999997
 30
0.0
 11
91.415936
 21
-1.134755999999998
 31
0.0
  0
LINE
  5
2E82
330
BF7
100
AcDbEntity
  8
1
100
AcDbLine
 10
91.320484
 20
-1.103811999999997
 30
0.0
 11
91.359799
 21
-1.135094999999997
 31
0.0
  0
LINE
  5
2E83
330
BF7
100
AcDbEntity
  8
1
100
AcDbLine
 10
91.31039499999998
 20
-1.088137999999996
 30
0.0
 11
91.320484
 21
-1.103811999999997
 31
0.0
  0
LINE
  5
2E84
330
BF7
100
AcDbEntity
  8
SK1
100
AcDbLine
 10
-35.35047600000001
 20
-0.0146719999999974
 30
0.0
 11
-35.35047600000001
 21
-0.5144599999999963
 31
0.0
  0
LINE
  5
2E85
330
BF7
100
AcDbEntity
  8
SK1
100
AcDbLine
 10
-35.35047600000001
 20
0.4855270000000014
 30
0.0
 11
-35.35047600000001
 21
-0.0146719999999974
 31
0.0
  0
LINE
  5
2E86
330
BF7
100
AcDbEntity
  8
1
100
AcDbLine
 10
91.367574
 20
-1.102206999999995
 30
0.0
 11
91.39489799999999
 21
-1.108218999999998
 31
0.0
  0
LINE
  5
2E87
330
BF7
100
AcDbEntity
  8
1
100
AcDbLine
 10
91.34023799999999
 20
-1.096193999999997
 30
0.0
 11
91.367574
 21
-1.102206999999995
 31
0.0
  0
LINE
  5
2E88
330
BF7
100
AcDbEntity
  8
1
100
AcDbLine
 10
17.17117199999998
 20
2.262429000000004
 30
0.0
 11
13.991485
 21
2.262429000000004
 31
0.0
  0
LINE
  5
2E89
330
BF7
100
AcDbEntity
  8
1
100
AcDbLine
 10
39.67068200000002
 20
2.262417000000001
 30
0.0
 11
36.52108
 21
2.262417000000001
 31
0.0
  0
LINE
  5
2E8A
330
BF7
100
AcDbEntity
  8
1
100
AcDbLine
 10
62.16946599999999
 20
2.26242
 30
0.0
 11
59.054274
 21
2.26242
 31
0.0
  0
LINE
  5
2E8B
330
BF7
100
AcDbEntity
  8
1
100
AcDbLine
 10
84.66823799999998
 20
2.262417000000001
 30
0.0
 11
81.52339599999997
 21
2.262417000000001
 31
0.0
  0
LINE
  5
2E8C
330
BF7
100
AcDbEntity
  8
1
100
AcDbLine
 10
71.464151
 20
-2.262421999999995
 30
0.0
 11
73.42020799999997
 21
-2.262421999999995
 31
0.0
  0
LINE
  5
2E8D
330
BF7
100
AcDbEntity
  8
1
100
AcDbLine
 10
69.50810499999999
 20
-2.262421999999995
 30
0.0
 11
71.464151
 21
-2.262421999999995
 31
0.0
  0
LINE
  5
2E8E
330
BF7
100
AcDbEntity
  8
1
100
AcDbLine
 10
48.96205999999999
 20
-2.262404999999997
 30
0.0
 11
50.91810600000001
 21
-2.262404999999997
 31
0.0
  0
LINE
  5
2E8F
330
BF7
100
AcDbEntity
  8
1
100
AcDbLine
 10
47.00601399999998
 20
-2.262404999999997
 30
0.0
 11
48.96205999999999
 21
-2.262404999999997
 31
0.0
  0
LINE
  5
2E90
330
BF7
100
AcDbEntity
  8
1
100
AcDbLine
 10
26.462029
 20
-2.262418999999995
 30
0.0
 11
28.41807499999999
 21
-2.262418999999995
 31
0.0
  0
LINE
  5
2E91
330
BF7
100
AcDbEntity
  8
1
100
AcDbLine
 10
24.505983
 20
-2.262418999999995
 30
0.0
 11
26.462029
 21
-2.262418999999995
 31
0.0
  0
LINE
  5
2E92
330
BF7
100
AcDbEntity
  8
1
100
AcDbLine
 10
28.41807499999999
 20
2.26242
 30
0.0
 11
25.19346499999999
 21
2.26242
 31
0.0
  0
LINE
  5
2E93
330
BF7
100
AcDbEntity
  8
1
100
AcDbLine
 10
50.91810600000001
 20
2.262404999999997
 30
0.0
 11
47.689282
 21
2.262404999999997
 31
0.0
  0
LINE
  5
2E94
330
BF7
100
AcDbEntity
  8
1
100
AcDbLine
 10
73.42020799999997
 20
2.262423000000004
 30
0.0
 11
70.19774299999999
 21
2.262423000000004
 31
0.0
  0
LINE
  5
2E95
330
BF7
100
AcDbEntity
  8
1
100
AcDbLine
 10
82.71218000000002
 20
-2.262416999999999
 30
0.0
 11
84.66823799999998
 21
-2.262416999999999
 31
0.0
  0
LINE
  5
2E96
330
BF7
100
AcDbEntity
  8
1
100
AcDbLine
 10
80.75613399999998
 20
-2.262416999999999
 30
0.0
 11
82.71218000000002
 21
-2.262416999999999
 31
0.0
  0
LINE
  5
2E97
330
BF7
100
AcDbEntity
  8
1
100
AcDbLine
 10
60.21341999999999
 20
-2.262418999999995
 30
0.0
 11
62.16946599999999
 21
-2.262418999999995
 31
0.0
  0
LINE
  5
2E98
330
BF7
100
AcDbEntity
  8
1
100
AcDbLine
 10
58.25737499999998
 20
-2.262418999999995
 30
0.0
 11
60.21341999999999
 21
-2.262418999999995
 31
0.0
  0
LINE
  5
2E99
330
BF7
100
AcDbEntity
  8
1
100
AcDbLine
 10
37.714636
 20
-2.262416999999999
 30
0.0
 11
39.67068200000002
 21
-2.262416999999999
 31
0.0
  0
LINE
  5
2E9A
330
BF7
100
AcDbEntity
  8
1
100
AcDbLine
 10
35.75859099999997
 20
-2.262416999999999
 30
0.0
 11
37.714636
 21
-2.262416999999999
 31
0.0
  0
LINE
  5
2E9B
330
BF7
100
AcDbEntity
  8
1
100
AcDbLine
 10
15.21511399999998
 20
-2.262428999999996
 30
0.0
 11
17.17117199999998
 21
-2.262428999999996
 31
0.0
  0
LINE
  5
2E9C
330
BF7
100
AcDbEntity
  8
1
100
AcDbLine
 10
13.25906799999998
 20
-2.262428999999996
 30
0.0
 11
15.21511399999998
 21
-2.262428999999996
 31
0.0
  0
LINE
  5
2E9D
330
BF7
100
AcDbEntity
  8
1
100
AcDbLine
 10
83.60668699999996
 20
1.495836999999996
 30
0.0
 11
83.69571999999998
 21
1.459755999999996
 31
0.0
  0
LINE
  5
2E9E
330
BF7
100
AcDbEntity
  8
1
100
AcDbLine
 10
27.28919499999999
 20
1.523152000000003
 30
0.0
 11
27.44605299999999
 21
1.459586000000004
 31
0.0
  0
LINE
  5
2E9F
330
BF7
100
AcDbEntity
  8
1
100
AcDbLine
 10
49.037625
 20
1.872113000000002
 30
0.0
 11
49.76099399999998
 21
1.544724999999997
 31
0.0
  0
LINE
  5
2EA0
330
BF7
100
AcDbEntity
  8
1
100
AcDbLine
 10
49.85227999999999
 20
1.502806999999999
 30
0.0
 11
49.94356499999999
 21
1.460887999999999
 31
0.0
  0
LINE
  5
2EA1
330
BF7
100
AcDbEntity
  8
1
100
AcDbLine
 10
49.76099399999998
 20
1.544724999999997
 30
0.0
 11
49.85227999999999
 21
1.502806999999999
 31
0.0
  0
LINE
  5
2EA2
330
BF7
100
AcDbEntity
  8
1
100
AcDbLine
 10
72.38028899999997
 20
1.48672
 30
0.0
 11
72.44186499999996
 21
1.461779000000003
 31
0.0
  0
LINE
  5
2EA3
330
BF7
100
AcDbEntity
  8
1
100
AcDbLine
 10
72.31870099999998
 20
1.511664000000003
 30
0.0
 11
72.38028899999997
 21
1.48672
 31
0.0
  0
LINE
  5
2EA4
330
BF7
100
AcDbEntity
  8
1
100
AcDbLine
 10
80.99904599999998
 20
-2.279195999999998
 30
0.0
 11
80.75568600000002
 21
-2.262416999999999
 31
0.0
  0
LINE
  5
2EA5
330
BF7
100
AcDbEntity
  8
1
100
AcDbLine
 10
35.97046000000001
 20
-2.245641999999996
 30
0.0
 11
35.758203
 21
-2.262416999999999
 31
0.0
  0
LINE
  5
2EA6
330
BF7
100
AcDbEntity
  8
1
100
AcDbLine
 10
36.182729
 20
-2.228867999999998
 30
0.0
 11
35.97046000000001
 21
-2.245641999999996
 31
0.0
  0
LINE
  5
2EA7
330
BF7
100
AcDbEntity
  8
1
100
AcDbLine
 10
13.506788
 20
-2.228181999999996
 30
0.0
 11
13.259153
 21
-2.262428999999996
 31
0.0
  0
LINE
  5
2EA8
330
BF7
100
AcDbEntity
  8
1
100
AcDbLine
 10
88.13999800000003
 20
1.273354999999998
 30
0.0
 11
87.93075700000001
 21
1.377342000000004
 31
0.0
  0
LINE
  5
2EA9
330
BF7
100
AcDbEntity
  8
1
100
AcDbLine
 10
88.349857
 20
1.170574999999999
 30
0.0
 11
88.13999800000003
 21
1.273354999999998
 31
0.0
  0
LINE
  5
2EAA
330
BF7
100
AcDbEntity
  8
1
100
AcDbLine
 10
88.80705999999998
 20
0.9518840000000031
 30
0.0
 11
88.349857
 21
1.170574999999999
 31
0.0
  0
LINE
  5
2EAB
330
BF7
100
AcDbEntity
  8
1
100
AcDbLine
 10
89.266915
 20
0.738728000000002
 30
0.0
 11
88.80705999999998
 21
0.9518840000000031
 31
0.0
  0
LINE
  5
2EAC
330
BF7
100
AcDbEntity
  8
1
100
AcDbLine
 10
89.68559099999998
 20
0.5502059999999993
 30
0.0
 11
89.266915
 21
0.738728000000002
 31
0.0
  0
LINE
  5
2EAD
330
BF7
100
AcDbEntity
  8
1
100
AcDbLine
 10
90.10622899999999
 20
0.3660790000000027
 30
0.0
 11
89.68559099999998
 21
0.5502059999999993
 31
0.0
  0
LINE
  5
2EAE
330
BF7
100
AcDbEntity
  8
1
100
AcDbLine
 10
67.20105099999999
 20
0.5419799999999988
 30
0.0
 11
65.41057099999999
 21
1.393142000000004
 31
0.0
  0
LINE
  5
2EAF
330
BF7
100
AcDbEntity
  8
1
100
AcDbLine
 10
69.02747799999999
 20
-0.2263599999999961
 30
0.0
 11
67.20105099999999
 21
0.5419799999999988
 31
0.0
  0
LINE
  5
2EB0
330
BF7
100
AcDbEntity
  8
1
100
AcDbLine
 10
44.68071999999999
 20
0.5511270000000012
 30
0.0
 11
42.87811699999998
 21
1.408598999999996
 31
0.0
  0
LINE
  5
2EB1
330
BF7
100
AcDbEntity
  8
1
100
AcDbLine
 10
46.51961
 20
-0.2232629999999958
 30
0.0
 11
44.68071999999999
 21
0.5511270000000012
 31
0.0
  0
LINE
  5
2EB2
330
BF7
100
AcDbEntity
  8
1
100
AcDbLine
 10
20.81289499999998
 20
1.189892999999995
 30
0.0
 11
20.41641899999999
 21
1.386365
 31
0.0
  0
LINE
  5
2EB3
330
BF7
100
AcDbEntity
  8
1
100
AcDbLine
 10
21.21134399999998
 20
0.9976960000000012
 30
0.0
 11
20.81289499999998
 21
1.189892999999995
 31
0.0
  0
LINE
  5
2EB4
330
BF7
100
AcDbEntity
  8
1
100
AcDbLine
 10
21.73794699999999
 20
0.7517230000000055
 30
0.0
 11
21.21134399999998
 21
0.9976960000000012
 31
0.0
  0
LINE
  5
2EB5
330
BF7
100
AcDbEntity
  8
1
100
AcDbLine
 10
22.26762699999999
 20
0.512633000000001
 30
0.0
 11
21.73794699999999
 21
0.7517230000000055
 31
0.0
  0
LINE
  5
2EB6
330
BF7
100
AcDbEntity
  8
1
100
AcDbLine
 10
22.73669899999999
 20
0.307144000000001
 30
0.0
 11
22.26762699999999
 21
0.512633000000001
 31
0.0
  0
LINE
  5
2EB7
330
BF7
100
AcDbEntity
  8
1
100
AcDbLine
 10
23.20787899999999
 20
0.1068560000000041
 30
0.0
 11
22.73669899999999
 21
0.307144000000001
 31
0.0
  0
LINE
  5
2EB8
330
BF7
100
AcDbEntity
  8
1
100
AcDbLine
 10
23.61771399999998
 20
-0.062104999999999
 30
0.0
 11
23.20787899999999
 21
0.1068560000000041
 31
0.0
  0
LINE
  5
2EB9
330
BF7
100
AcDbEntity
  8
1
100
AcDbLine
 10
24.029183
 20
-0.226937999999997
 30
0.0
 11
23.61771399999998
 21
-0.062104999999999
 31
0.0
  0
LINE
  5
2EBA
330
BF7
100
AcDbEntity
  8
1
100
AcDbLine
 10
77.06521399999998
 20
1.188748999999995
 30
0.0
 11
76.67124499999999
 21
1.383976
 31
0.0
  0
LINE
  5
2EBB
330
BF7
100
AcDbEntity
  8
1
100
AcDbLine
 10
77.46111999999998
 20
0.997754000000004
 30
0.0
 11
77.06521399999998
 21
1.188748999999995
 31
0.0
  0
LINE
  5
2EBC
330
BF7
100
AcDbEntity
  8
1
100
AcDbLine
 10
77.98788
 20
0.7516929999999995
 30
0.0
 11
77.46111999999998
 21
0.997754000000004
 31
0.0
  0
LINE
  5
2EBD
330
BF7
100
AcDbEntity
  8
1
100
AcDbLine
 10
78.51770499999997
 20
0.5125299999999982
 30
0.0
 11
77.98788
 21
0.7516929999999995
 31
0.0
  0
LINE
  5
2EBE
330
BF7
100
AcDbEntity
  8
1
100
AcDbLine
 10
78.98701999999999
 20
0.3069350000000028
 30
0.0
 11
78.51770499999997
 21
0.5125299999999982
 31
0.0
  0
LINE
  5
2EBF
330
BF7
100
AcDbEntity
  8
1
100
AcDbLine
 10
79.458454
 20
0.106541
 30
0.0
 11
78.98701999999999
 21
0.3069350000000028
 31
0.0
  0
LINE
  5
2EC0
330
BF7
100
AcDbEntity
  8
1
100
AcDbLine
 10
79.86861599999997
 20
-0.0625499999999981
 30
0.0
 11
79.458454
 21
0.106541
 31
0.0
  0
LINE
  5
2EC1
330
BF7
100
AcDbEntity
  8
1
100
AcDbLine
 10
80.28041199999995
 20
-0.2275049999999972
 30
0.0
 11
79.86861599999997
 21
-0.0625499999999981
 31
0.0
  0
LINE
  5
2EC2
330
BF7
100
AcDbEntity
  8
1
100
AcDbLine
 10
55.93679199999998
 20
0.5483869999999982
 30
0.0
 11
54.14479899999999
 21
1.400611999999997
 31
0.0
  0
LINE
  5
2EC3
330
BF7
100
AcDbEntity
  8
1
100
AcDbLine
 10
57.76488999999997
 20
-0.2213759999999993
 30
0.0
 11
55.93679199999998
 21
0.5483869999999982
 31
0.0
  0
LINE
  5
2EC4
330
BF7
100
AcDbEntity
  8
1
100
AcDbLine
 10
31.87006799999999
 20
1.283371000000002
 30
0.0
 11
31.652107
 21
1.391854999999999
 31
0.0
  0
LINE
  5
2EC5
330
BF7
100
AcDbEntity
  8
1
100
AcDbLine
 10
32.088684
 20
1.176224999999998
 30
0.0
 11
31.87006799999999
 21
1.283371000000002
 31
0.0
  0
LINE
  5
2EC6
330
BF7
100
AcDbEntity
  8
1
100
AcDbLine
 10
32.55133699999998
 20
0.954975000000001
 30
0.0
 11
32.088684
 21
1.176224999999998
 31
0.0
  0
LINE
  5
2EC7
330
BF7
100
AcDbEntity
  8
1
100
AcDbLine
 10
33.016498
 20
0.7391030000000037
 30
0.0
 11
32.55133699999998
 21
0.954975000000001
 31
0.0
  0
LINE
  5
2EC8
330
BF7
100
AcDbEntity
  8
1
100
AcDbLine
 10
33.54696499999999
 20
0.4997730000000047
 30
0.0
 11
33.016498
 21
0.7391030000000037
 31
0.0
  0
LINE
  5
2EC9
330
BF7
100
AcDbEntity
  8
1
100
AcDbLine
 10
34.08011999999999
 20
0.266918000000004
 30
0.0
 11
33.54696499999999
 21
0.4997730000000047
 31
0.0
  0
LINE
  5
2ECA
330
BF7
100
AcDbEntity
  8
1
100
AcDbLine
 10
34.68099199999999
 20
0.0143500000000039
 30
0.0
 11
34.08011999999999
 21
0.266918000000004
 31
0.0
  0
LINE
  5
2ECB
330
BF7
100
AcDbEntity
  8
1
100
AcDbLine
 10
35.2854
 20
-0.2294579999999975
 30
0.0
 11
34.68099199999999
 21
0.0143500000000039
 31
0.0
  0
LINE
  5
2ECC
330
BF7
100
AcDbEntity
  8
1
100
AcDbLine
 10
12.39958799999999
 20
-0.0630400000000009
 30
0.0
 11
11.83565699999998
 21
0.1732010000000024
 31
0.0
  0
LINE
  5
2ECD
330
BF7
100
AcDbEntity
  8
1
100
AcDbLine
 10
12.96350699999999
 20
-0.2992810000000006
 30
0.0
 11
12.39958799999999
 21
-0.0630400000000009
 31
0.0
  0
LINE
  5
2ECE
330
BF7
100
AcDbEntity
  8
1
100
AcDbLine
 10
10.372102
 20
0.800633000000001
 30
0.0
 11
8.936675999999991
 21
1.499007
 31
0.0
  0
LINE
  5
2ECF
330
BF7
100
AcDbEntity
  8
1
100
AcDbLine
 10
11.83565699999998
 20
0.1732010000000024
 30
0.0
 11
10.372102
 21
0.800633000000001
 31
0.0
  0
LINE
  5
2ED0
330
BF7
100
AcDbEntity
  8
1
100
AcDbLine
 10
0.5
 20
-2.381499999999995
 30
0.0
 11
6.244252999999998
 21
-2.381499999999995
 31
0.0
  0
LINE
  5
2ED1
330
BF7
100
AcDbEntity
  8
1
100
AcDbLine
 10
12.414897
 20
-2.381499999999995
 30
0.0
 11
12.93267099999998
 21
-2.381499999999995
 31
0.0
  0
LINE
  5
2ED2
330
BF7
100
AcDbEntity
  8
1
100
AcDbLine
 10
23.60187199999999
 20
-2.381499999999995
 30
0.0
 11
24.18403100000001
 21
-2.381499999999995
 31
0.0
  0
LINE
  5
2ED3
330
BF7
100
AcDbEntity
  8
1
100
AcDbLine
 10
34.851354
 20
-2.381499999999995
 30
0.0
 11
35.432847
 21
-2.381499999999995
 31
0.0
  0
LINE
  5
2ED4
330
BF7
100
AcDbEntity
  8
1
100
AcDbLine
 10
46.10009799999999
 20
-2.381499999999995
 30
0.0
 11
46.68364999999996
 21
-2.381499999999995
 31
0.0
  0
LINE
  5
2ED5
330
BF7
100
AcDbEntity
  8
1
100
AcDbLine
 10
57.35082899999999
 20
-2.381499999999995
 30
0.0
 11
57.933497
 21
-2.381499999999995
 31
0.0
  0
LINE
  5
2ED6
330
BF7
100
AcDbEntity
  8
1
100
AcDbLine
 10
68.60163200000001
 20
-2.381499999999995
 30
0.0
 11
69.18320899999999
 21
-2.381499999999995
 31
0.0
  0
LINE
  5
2ED7
330
BF7
100
AcDbEntity
  8
1
100
AcDbLine
 10
79.85123500000002
 20
-2.381499999999995
 30
0.0
 11
80.43408499999998
 21
-2.381499999999995
 31
0.0
  0
LINE
  5
2ED8
330
BF7
100
AcDbEntity
  8
1
100
AcDbLine
 10
80.43408499999998
 20
2.381498999999998
 30
0.0
 11
79.85123500000002
 21
2.381498999999998
 31
0.0
  0
LINE
  5
2ED9
330
BF7
100
AcDbEntity
  8
1
100
AcDbLine
 10
69.18320899999999
 20
2.381498999999998
 30
0.0
 11
68.60163200000001
 21
2.381498999999998
 31
0.0
  0
LINE
  5
2EDA
330
BF7
100
AcDbEntity
  8
1
100
AcDbLine
 10
57.933497
 20
2.381498999999998
 30
0.0
 11
57.35082899999999
 21
2.381498999999998
 31
0.0
  0
LINE
  5
2EDB
330
BF7
100
AcDbEntity
  8
1
100
AcDbLine
 10
46.68364999999996
 20
2.381498999999998
 30
0.0
 11
46.10009799999999
 21
2.381498999999998
 31
0.0
  0
LINE
  5
2EDC
330
BF7
100
AcDbEntity
  8
1
100
AcDbLine
 10
35.432847
 20
2.381498999999998
 30
0.0
 11
34.851354
 21
2.381498999999998
 31
0.0
  0
LINE
  5
2EDD
330
BF7
100
AcDbEntity
  8
1
100
AcDbLine
 10
24.18403100000001
 20
2.381498999999998
 30
0.0
 11
23.60187199999999
 21
2.381498999999998
 31
0.0
  0
LINE
  5
2EDE
330
BF7
100
AcDbEntity
  8
1
100
AcDbLine
 10
12.93267099999998
 20
2.381498999999998
 30
0.0
 11
12.349385
 21
2.381498999999998
 31
0.0
  0
LINE
  5
2EDF
330
BF7
100
AcDbEntity
  8
1
100
AcDbLine
 10
6.244252999999998
 20
2.381498999999998
 30
0.0
 11
0.5
 21
2.381498999999998
 31
0.0
  0
LINE
  5
2EE0
330
BF7
100
AcDbEntity
  8
SK1
100
AcDbLine
 10
-35.35047600000001
 20
2.999998999999998
 30
0.0
 11
-35.99999400000001
 21
2.625001000000001
 31
0.0
  0
LINE
  5
2EE1
330
BF7
100
AcDbEntity
  8
SK1
100
AcDbLine
 10
-35.99999400000001
 20
-2.624998999999998
 30
0.0
 11
-35.35047600000001
 21
-2.999998999999998
 31
0.0
  0
LINE
  5
2EE2
330
BF7
100
AcDbEntity
  8
SK1
100
AcDbLine
 10
0.0
 20
2.999998999999998
 30
0.0
 11
-35.35047600000001
 21
2.999998999999998
 31
0.0
  0
LINE
  5
2EE3
330
BF7
100
AcDbEntity
  8
SK1
100
AcDbLine
 10
-35.35047600000001
 20
-2.999998999999998
 30
0.0
 11
0.0
 21
-2.999998999999998
 31
0.0
  0
LINE
  5
2EE5
330
BF7
100
AcDbEntity
  8
SK4
100
AcDbLine
 10
0.0
 20
0.0
 30
0.0
 11
-36.91552462492302
 21
0.0000000000000045
 31
0.0
  0
LINE
  5
2EE6
330
BF7
100
AcDbEntity
  8
SK4
100
AcDbLine
 10
0.0
 20
0.0
 30
0.0
 11
92.83378080628256
 21
0.0
 31
0.0
  0
LINE
  5
2EE7
330
BF7
100
AcDbEntity
  8
1
100
AcDbLine
 10
0.0000000093718917
 20
2.881498999999998
 30
0.0
 11
0.0000000093718906
 21
-2.881499999999995
 31
0.0
  0
DIMENSION
  5
2EE8
330
BF7
100
AcDbEntity
  8
SK2
100
AcDbDimension
  2
*D2
 10
-40.85088961494387
 20
-2.999998999999997
 30
0.0
 11
-40.23755230160714
 21
-17.53213463461037
 31
0.0
 70
   160
  1
%%C <>
 71
     5
 42
5.999997999999997
  3
SANDVIK_DIM
100
AcDbAlignedDimension
 13
-35.35047600000001
 23
2.999998999999998
 33
0.0
 14
-35.35047600000001
 24
-2.999998999999998
 34
0.0
 50
90.0
100
AcDbRotatedDimension
1001
ACAD
1000
DSTYLE
1002
{
1070
    40
1040
1.0
1002
}
  0
DIMENSION
  5
2EF6
330
BF7
100
AcDbEntity
  8
2
100
AcDbDimension
  2
*D3
 10
95.32782789059579
 20
-2.381498999999998
 30
0.0
 11
95.69390477063246
 21
-20.08457135042687
 31
0.0
 70
   160
  1
%%C <>
 71
     5
 42
4.762997999999996
  3
SANDVIK_DIM
100
AcDbAlignedDimension
 13
91.10500599999999
 23
2.381498999999998
 33
0.0
 14
91.10500599999999
 24
-2.381498999999998
 34
0.0
 50
90.0
100
AcDbRotatedDimension
1001
ACAD
1000
DSTYLE
1002
{
1070
    40
1040
1.0
1002
}
  0
DIMENSION
  5
2F04
330
BF7
100
AcDbEntity
  8
SK2
100
AcDbDimension
  2
*D4
 10
34.10500599999999
 20
5.53732797729634
 30
0.0
 11
62.60500599999999
 21
9.33732797729634
 31
0.0
 70
    32
 71
     5
 42
57.0
  3
SANDVIK_DIM
100
AcDbAlignedDimension
 13
91.10500599999999
 23
2.381498999999998
 33
0.0
 14
34.10500599999999
 24
2.381499000000008
 34
0.0
100
AcDbRotatedDimension
1001
ACAD
1000
DSTYLE
1002
{
1070
    40
1040
1.0
1002
}
  0
DIMENSION
  5
2F11
330
BF7
100
AcDbEntity
  8
2
100
AcDbDimension
  2
*D5
 10
5.999972999999996
 20
-8.828163792785062
 30
0.0
 11
48.99997299999999
 21
-5.028163792785063
 31
0.0
 70
    32
 71
     5
 42
86.0
  3
SANDVIK_DIM
100
AcDbAlignedDimension
 13
91.99997299999999
 23
-0.0000004999999987
 33
0.0
 14
5.999972999999998
 24
-0.0000004999999882
 34
0.0
100
AcDbRotatedDimension
1001
ACAD
1000
DSTYLE
1002
{
1070
    40
1040
1.0
1002
}
  0
DIMENSION
  5
2F1E
330
BF7
100
AcDbEntity
  8
2
100
AcDbDimension
  2
*D6
 10
-0.0000000000000008
 20
-16.84632639288287
 30
0.0
 11
45.99998649999998
 21
-13.04632639288287
 31
0.0
 70
    32
 71
     5
 42
91.99997299999999
  3
SANDVIK_DIM
100
AcDbAlignedDimension
 13
91.99997299999999
 23
0.0
 33
0.0
 14
0.0
 24
-2.999998999999998
 34
0.0
100
AcDbRotatedDimension
1001
ACAD
1000
DSTYLE
1002
{
1070
    40
1040
1.0
1002
}
  0
DIMENSION
  5
2F2B
330
BF7
100
AcDbEntity
  8
SK2
100
AcDbDimension
  2
*D7
 10
-35.99999400000001
 20
-24.7737737170778
 30
0.0
 11
27.99998949999999
 21
-20.9737737170778
 31
0.0
 70
    32
 71
     5
 42
127.999967
  3
SANDVIK_DIM
100
AcDbAlignedDimension
 13
91.99997299999999
 23
-0.0000004999999987
 33
0.0
 14
-35.99999400000001
 24
-2.624998999999998
 34
0.0
100
AcDbRotatedDimension
1001
ACAD
1000
DSTYLE
1002
{
1070
    40
1040
1.0
1002
}
  0
DIMENSION
  5
2F38
330
BF7
100
AcDbEntity
  8
SK2
100
AcDbDimension
  2
*D8
 10
-0.0000000000000008
 20
-16.84632639288287
 30
0.0
 11
-17.999997
 21
-13.04632639288287
 31
0.0
 70
    32
 71
     5
 42
35.99999400000001
  3
SANDVIK_DIM
100
AcDbAlignedDimension
 13
-35.99999400000001
 23
-2.471607999999998
 33
0.0
 14
0.0
 24
-2.999998999999998
 34
0.0
100
AcDbRotatedDimension
1001
ACAD
1000
DSTYLE
1002
{
1070
    40
1040
1.0
1002
}
  0
ENDSEC
  0
SECTION
  2
OBJECTS
  0
DICTIONARY
  5
BE3
330
0
100
AcDbDictionary
281
     1
  3
ACAD_CIP_PREVIOUS_PRODUCT_INFO
350
2FFA
  3
ACAD_COLOR
350
BF2
  3
ACAD_DETAILVIEWSTYLE
350
2FF7
  3
ACAD_GROUP
350
BE4
  3
ACAD_LAYOUT
350
BF0
  3
ACAD_MATERIAL
350
BF1
  3
ACAD_MLEADERSTYLE
350
2FF2
  3
ACAD_MLINESTYLE
350
BED
  3
ACAD_PLOTSETTINGS
350
BEF
  3
ACAD_PLOTSTYLENAME
350
BE5
  3
ACAD_SCALELIST
350
2FE0
  3
ACAD_SECTIONVIEWSTYLE
350
2FF4
  3
ACAD_TABLESTYLE
350
2FDE
  3
ACAD_VISUALSTYLE
350
2FC5
  3
ACDB_RECOMPOSE_DATA
350
305C
  3
AcDbVariableDictionary
350
304F
  3
ASE_INDEX_DICTIONARY
350
304C
  3
DWGPROPS
350
305D
  0
DICTIONARY
  5
2FFD
330
BE7
100
AcDbDictionary
280
     1
281
     1
  3
ADSK_XREC_LAYER_RECONCILED
360
2FFE
  0
DICTIONARY
  5
2FFF
330
BFB
100
AcDbDictionary
280
     1
281
     1
  3
ADSK_XREC_LAYER_RECONCILED
360
3000
  0
DICTIONARY
  5
3001
330
C00
100
AcDbDictionary
280
     1
281
     1
  3
ADSK_XREC_LAYER_RECONCILED
360
3002
  0
DICTIONARY
  5
3003
330
C01
100
AcDbDictionary
280
     1
281
     1
  3
ADSK_XREC_LAYER_RECONCILED
360
3004
  0
DICTIONARY
  5
3005
330
C02
100
AcDbDictionary
280
     1
281
     1
  3
ADSK_XREC_LAYER_RECONCILED
360
3006
  0
DICTIONARY
  5
3007
330
C03
100
AcDbDictionary
280
     1
281
     1
  3
ADSK_XREC_LAYER_RECONCILED
360
3008
  0
DICTIONARY
  5
3009
330
C04
100
AcDbDictionary
280
     1
281
     1
  3
ADSK_XREC_LAYER_RECONCILED
360
300A
  0
DICTIONARY
  5
300B
330
C05
100
AcDbDictionary
280
     1
281
     1
  3
ADSK_XREC_LAYER_RECONCILED
360
300C
  0
DICTIONARY
  5
300D
330
C06
100
AcDbDictionary
280
     1
281
     1
  3
ADSK_XREC_LAYER_RECONCILED
360
300E
  0
DICTIONARY
  5
300F
330
C07
100
AcDbDictionary
280
     1
281
     1
  3
ADSK_XREC_LAYER_RECONCILED
360
3010
  0
DICTIONARY
  5
3011
330
C08
100
AcDbDictionary
280
     1
281
     1
  3
ADSK_XREC_LAYER_RECONCILED
360
3012
  0
DICTIONARY
  5
3013
330
C09
100
AcDbDictionary
280
     1
281
     1
  3
ADSK_XREC_LAYER_RECONCILED
360
3014
  0
DICTIONARY
  5
3015
330
C0A
100
AcDbDictionary
280
     1
281
     1
  3
ADSK_XREC_LAYER_RECONCILED
360
3016
  0
DICTIONARY
  5
3017
330
C0B
100
AcDbDictionary
280
     1
281
     1
  3
ADSK_XREC_LAYER_RECONCILED
360
3018
  0
DICTIONARY
  5
3019
330
C0C
100
AcDbDictionary
280
     1
281
     1
  3
ADSK_XREC_LAYER_RECONCILED
360
301A
  0
DICTIONARY
  5
301B
330
C0D
100
AcDbDictionary
280
     1
281
     1
  3
ADSK_XREC_LAYER_RECONCILED
360
301C
  0
DICTIONARY
  5
301D
330
C0E
100
AcDbDictionary
280
     1
281
     1
  3
ADSK_XREC_LAYER_RECONCILED
360
301E
  0
DICTIONARY
  5
301F
330
C0F
100
AcDbDictionary
280
     1
281
     1
  3
ADSK_XREC_LAYER_RECONCILED
360
3020
  0
DICTIONARY
  5
3021
330
C10
100
AcDbDictionary
280
     1
281
     1
  3
ADSK_XREC_LAYER_RECONCILED
360
3022
  0
DICTIONARY
  5
3023
330
C11
100
AcDbDictionary
280
     1
281
     1
  3
ADSK_XREC_LAYER_RECONCILED
360
3024
  0
DICTIONARY
  5
3025
330
C12
100
AcDbDictionary
280
     1
281
     1
  3
ADSK_XREC_LAYER_RECONCILED
360
3026
  0
DICTIONARY
  5
3027
330
C13
100
AcDbDictionary
280
     1
281
     1
  3
ADSK_XREC_LAYER_RECONCILED
360
3028
  0
DICTIONARY
  5
3029
330
C14
100
AcDbDictionary
280
     1
281
     1
  3
ADSK_XREC_LAYER_RECONCILED
360
302A
  0
DICTIONARY
  5
302B
330
C15
100
AcDbDictionary
280
     1
281
     1
  3
ADSK_XREC_LAYER_RECONCILED
360
302C
  0
DICTIONARY
  5
302D
330
C16
100
AcDbDictionary
280
     1
281
     1
  3
ADSK_XREC_LAYER_RECONCILED
360
302E
  0
DICTIONARY
  5
302F
330
C17
100
AcDbDictionary
280
     1
281
     1
  3
ADSK_XREC_LAYER_RECONCILED
360
3030
  0
DICTIONARY
  5
3031
330
C18
100
AcDbDictionary
280
     1
281
     1
  3
ADSK_XREC_LAYER_RECONCILED
360
3032
  0
DICTIONARY
  5
3033
330
C19
100
AcDbDictionary
280
     1
281
     1
  3
ADSK_XREC_LAYER_RECONCILED
360
3034
  0
DICTIONARY
  5
3035
330
C1A
100
AcDbDictionary
280
     1
281
     1
  3
ADSK_XREC_LAYER_RECONCILED
360
3036
  0
DICTIONARY
  5
3037
330
C1B
100
AcDbDictionary
280
     1
281
     1
  3
ADSK_XREC_LAYER_RECONCILED
360
3038
  0
DICTIONARY
  5
3039
330
C1C
100
AcDbDictionary
280
     1
281
     1
  3
ADSK_XREC_LAYER_RECONCILED
360
303A
  0
DICTIONARY
  5
303B
330
C1D
100
AcDbDictionary
280
     1
281
     1
  3
ADSK_XREC_LAYER_RECONCILED
360
303C
  0
DICTIONARY
  5
303D
330
C1E
100
AcDbDictionary
280
     1
281
     1
  3
ADSK_XREC_LAYER_RECONCILED
360
303E
  0
DICTIONARY
  5
303F
330
C1F
100
AcDbDictionary
280
     1
281
     1
  3
ADSK_XREC_LAYER_RECONCILED
360
3040
  0
DICTIONARY
  5
3041
330
C20
100
AcDbDictionary
280
     1
281
     1
  3
ADSK_XREC_LAYER_RECONCILED
360
3042
  0
DICTIONARY
  5
3043
330
C21
100
AcDbDictionary
280
     1
281
     1
  3
ADSK_XREC_LAYER_RECONCILED
360
3044
  0
DICTIONARY
  5
3045
330
C22
100
AcDbDictionary
280
     1
281
     1
  3
ADSK_XREC_LAYER_RECONCILED
360
3046
  0
DICTIONARY
  5
3047
330
C23
100
AcDbDictionary
280
     1
281
     1
  3
ADSK_XREC_LAYER_RECONCILED
360
3048
  0
DICTIONARY
  5
3049
330
C42
100
AcDbDictionary
280
     1
281
     1
  3
ADSK_XREC_LAYER_RECONCILED
360
304A
  0
XRECORD
  5
2FFA
102
{ACAD_REACTORS
330
BE3
102
}
330
BE3
100
AcDbXrecord
280
     1
300
AMECH_PP
300
2013
300
PDSU_F_S
  0
DICTIONARY
  5
BF2
102
{ACAD_REACTORS
330
BE3
102
}
330
BE3
100
AcDbDictionary
281
     1
  0
DICTIONARY
  5
2FF7
102
{ACAD_REACTORS
330
BE3
102
}
330
BE3
100
AcDbDictionary
281
     1
  3
Imperial24
350
2FF8
  0
DICTIONARY
  5
BE4
102
{ACAD_REACTORS
330
BE3
102
}
330
BE3
100
AcDbDictionary
281
     1
  0
DICTIONARY
  5
BF0
102
{ACAD_REACTORS
330
BE3
102
}
330
BE3
100
AcDbDictionary
281
     1
  3
Layout1
350
BF6
  3
Model
350
BFA
  0
DICTIONARY
  5
BF1
102
{ACAD_REACTORS
330
BE3
102
}
330
BE3
100
AcDbDictionary
281
     1
  3
ByBlock
350
2FB5
  3
ByLayer
350
2FAD
  3
Global
350
2FBD
  0
DICTIONARY
  5
2FF2
102
{ACAD_REACTORS
330
BE3
102
}
330
BE3
100
AcDbDictionary
281
     1
  3
Standard
350
2FF3
  0
DICTIONARY
  5
BED
102
{ACAD_REACTORS
330
BE3
102
}
330
BE3
100
AcDbDictionary
281
     1
  3
Standard
350
BEE
  0
DICTIONARY
  5
BEF
102
{ACAD_REACTORS
330
BE3
102
}
330
BE3
100
AcDbDictionary
281
     1
  0
ACDBDICTIONARYWDFLT
  5
BE5
102
{ACAD_REACTORS
330
BE3
102
}
330
BE3
100
AcDbDictionary
281
     1
  3
Normal
350
BE6
100
AcDbDictionaryWithDefault
340
BE6
  0
DICTIONARY
  5
2FE0
102
{ACAD_REACTORS
330
BE3
102
}
330
BE3
100
AcDbDictionary
281
     1
  3
A0
350
2FE1
  3
A1
350
2FE2
  3
A2
350
2FE3
  3
A3
350
2FE4
  3
A4
350
2FE5
  3
A5
350
2FE6
  3
A6
350
2FE7
  3
A7
350
2FE8
  3
A8
350
2FE9
  3
A9
350
2FEA
  3
B0
350
2FEB
  3
B1
350
2FEC
  3
B2
350
2FED
  3
B3
350
2FEE
  3
B4
350
2FEF
  3
B5
350
2FF0
  3
B6
350
2FF1
  0
DICTIONARY
  5
2FF4
102
{ACAD_REACTORS
330
BE3
102
}
330
BE3
100
AcDbDictionary
281
     1
  3
Imperial24
350
2FF6
  0
DICTIONARY
  5
2FDE
102
{ACAD_REACTORS
330
BE3
102
}
330
BE3
100
AcDbDictionary
281
     1
  3
Standard
350
2FDF
  0
DICTIONARY
  5
2FC5
102
{ACAD_REACTORS
330
BE3
102
}
330
BE3
100
AcDbDictionary
281
     1
  3
2dWireframe
350
2FCB
  3
Basic
350
2FCA
  3
Brighten
350
2FD1
  3
ColorChange
350
2FD5
  3
Conceptual
350
2FCE
  3
Dim
350
2FD0
  3
EdgeColorOff
350
2FDD
  3
Facepattern
350
2FD4
  3
Flat
350
2FC6
  3
FlatWithEdges
350
2FC7
  3
Gouraud
350
2FC8
  3
GouraudWithEdges
350
2FC9
  3
Hidden
350
2FCD
  3
JitterOff
350
2FDB
  3
Linepattern
350
2FD3
  3
OverhangOff
350
2FDC
  3
Realistic
350
2FCF
  3
Shaded
350
2FDA
  3
Shaded with edges
350
2FD9
  3
Shades of Gray
350
2FD6
  3
Sketchy
350
2FD7
  3
Thicken
350
2FD2
  3
Wireframe
350
2FCC
  3
X-Ray
350
2FD8
  0
XRECORD
  5
305C
102
{ACAD_REACTORS
330
BE3
102
}
330
BE3
100
AcDbXrecord
280
     1
 90
        1
330
2FDF
  0
DICTIONARY
  5
304F
102
{ACAD_REACTORS
330
BE3
102
}
330
BE3
100
AcDbDictionary
281
     1
  3
CANNOSCALE
350
3054
  3
CMLEADERSTYLE
350
3051
  3
CTABLESTYLE
350
3050
  3
CVIEWDETAILSTYLE
350
3052
  3
CVIEWSECTIONSTYLE
350
3053
  3
DIMASSOC
350
3058
  3
INDEXCTL
350
3056
  3
SORTENTS
350
3055
  3
XCLIPFRAME
350
3057
  0
DICTIONARY
  5
304C
102
{ACAD_REACTORS
330
BE3
102
}
330
BE3
100
AcDbDictionary
281
     1
  3
ASEBlockHierarchyIndexRecord
350
304E
1001
DCO15
1040
1815723949.883
  0
XRECORD
  5
305D
102
{ACAD_REACTORS
330
BE3
102
}
330
BE3
100
AcDbXrecord
280
     1
  1
DWGPROPS COOKIE
  2

  3

  4

  6

  7

  8
Micke
  9

300
=
301
=
302
=
303
=
304
=
305
=
306
=
307
=
308
=
309
=
 40
0.0913720486111111
 41
2455817.64629206
 42
2456818.535345868
  1

 90
        0
  0
XRECORD
  5
2FFE
102
{ACAD_REACTORS
330
2FFD
102
}
330
2FFD
100
AcDbXrecord
280
     1
290
     1
  0
XRECORD
  5
3000
102
{ACAD_REACTORS
330
2FFF
102
}
330
2FFF
100
AcDbXrecord
280
     1
290
     1
  0
XRECORD
  5
3002
102
{ACAD_REACTORS
330
3001
102
}
330
3001
100
AcDbXrecord
280
     1
290
     1
  0
XRECORD
  5
3004
102
{ACAD_REACTORS
330
3003
102
}
330
3003
100
AcDbXrecord
280
     1
290
     1
  0
XRECORD
  5
3006
102
{ACAD_REACTORS
330
3005
102
}
330
3005
100
AcDbXrecord
280
     1
290
     1
  0
XRECORD
  5
3008
102
{ACAD_REACTORS
330
3007
102
}
330
3007
100
AcDbXrecord
280
     1
290
     1
  0
XRECORD
  5
300A
102
{ACAD_REACTORS
330
3009
102
}
330
3009
100
AcDbXrecord
280
     1
290
     1
  0
XRECORD
  5
300C
102
{ACAD_REACTORS
330
300B
102
}
330
300B
100
AcDbXrecord
280
     1
290
     1
  0
XRECORD
  5
300E
102
{ACAD_REACTORS
330
300D
102
}
330
300D
100
AcDbXrecord
280
     1
290
     1
  0
XRECORD
  5
3010
102
{ACAD_REACTORS
330
300F
102
}
330
300F
100
AcDbXrecord
280
     1
290
     1
  0
XRECORD
  5
3012
102
{ACAD_REACTORS
330
3011
102
}
330
3011
100
AcDbXrecord
280
     1
290
     1
  0
XRECORD
  5
3014
102
{ACAD_REACTORS
330
3013
102
}
330
3013
100
AcDbXrecord
280
     1
290
     1
  0
XRECORD
  5
3016
102
{ACAD_REACTORS
330
3015
102
}
330
3015
100
AcDbXrecord
280
     1
290
     1
  0
XRECORD
  5
3018
102
{ACAD_REACTORS
330
3017
102
}
330
3017
100
AcDbXrecord
280
     1
290
     1
  0
XRECORD
  5
301A
102
{ACAD_REACTORS
330
3019
102
}
330
3019
100
AcDbXrecord
280
     1
290
     1
  0
XRECORD
  5
301C
102
{ACAD_REACTORS
330
301B
102
}
330
301B
100
AcDbXrecord
280
     1
290
     1
  0
XRECORD
  5
301E
102
{ACAD_REACTORS
330
301D
102
}
330
301D
100
AcDbXrecord
280
     1
290
     1
  0
XRECORD
  5
3020
102
{ACAD_REACTORS
330
301F
102
}
330
301F
100
AcDbXrecord
280
     1
290
     1
  0
XRECORD
  5
3022
102
{ACAD_REACTORS
330
3021
102
}
330
3021
100
AcDbXrecord
280
     1
290
     1
  0
XRECORD
  5
3024
102
{ACAD_REACTORS
330
3023
102
}
330
3023
100
AcDbXrecord
280
     1
290
     1
  0
XRECORD
  5
3026
102
{ACAD_REACTORS
330
3025
102
}
330
3025
100
AcDbXrecord
280
     1
290
     1
  0
XRECORD
  5
3028
102
{ACAD_REACTORS
330
3027
102
}
330
3027
100
AcDbXrecord
280
     1
290
     1
  0
XRECORD
  5
302A
102
{ACAD_REACTORS
330
3029
102
}
330
3029
100
AcDbXrecord
280
     1
290
     1
  0
XRECORD
  5
302C
102
{ACAD_REACTORS
330
302B
102
}
330
302B
100
AcDbXrecord
280
     1
290
     1
  0
XRECORD
  5
302E
102
{ACAD_REACTORS
330
302D
102
}
330
302D
100
AcDbXrecord
280
     1
290
     1
  0
XRECORD
  5
3030
102
{ACAD_REACTORS
330
302F
102
}
330
302F
100
AcDbXrecord
280
     1
290
     1
  0
XRECORD
  5
3032
102
{ACAD_REACTORS
330
3031
102
}
330
3031
100
AcDbXrecord
280
     1
290
     1
  0
XRECORD
  5
3034
102
{ACAD_REACTORS
330
3033
102
}
330
3033
100
AcDbXrecord
280
     1
290
     1
  0
XRECORD
  5
3036
102
{ACAD_REACTORS
330
3035
102
}
330
3035
100
AcDbXrecord
280
     1
290
     1
  0
XRECORD
  5
3038
102
{ACAD_REACTORS
330
3037
102
}
330
3037
100
AcDbXrecord
280
     1
290
     1
  0
XRECORD
  5
303A
102
{ACAD_REACTORS
330
3039
102
}
330
3039
100
AcDbXrecord
280
     1
290
     1
  0
XRECORD
  5
303C
102
{ACAD_REACTORS
330
303B
102
}
330
303B
100
AcDbXrecord
280
     1
290
     1
  0
XRECORD
  5
303E
102
{ACAD_REACTORS
330
303D
102
}
330
303D
100
AcDbXrecord
280
     1
290
     1
  0
XRECORD
  5
3040
102
{ACAD_REACTORS
330
303F
102
}
330
303F
100
AcDbXrecord
280
     1
290
     1
  0
XRECORD
  5
3042
102
{ACAD_REACTORS
330
3041
102
}
330
3041
100
AcDbXrecord
280
     1
290
     1
  0
XRECORD
  5
3044
102
{ACAD_REACTORS
330
3043
102
}
330
3043
100
AcDbXrecord
280
     1
290
     1
  0
XRECORD
  5
3046
102
{ACAD_REACTORS
330
3045
102
}
330
3045
100
AcDbXrecord
280
     1
290
     1
  0
XRECORD
  5
3048
102
{ACAD_REACTORS
330
3047
102
}
330
3047
100
AcDbXrecord
280
     1
290
     1
  0
XRECORD
  5
304A
102
{ACAD_REACTORS
330
3049
102
}
330
3049
100
AcDbXrecord
280
     1
290
     1
  0
ACDBDETAILVIEWSTYLE
  5
2FF8
102
{ACAD_REACTORS
330
2FF7
102
}
330
2FF7
100
AcDbModelDocViewStyle
 70
     0
  3
Imperial24
290
     0
100
AcDbDetailViewStyle
 70
     0
 71
     0
 90
        3
 71
     1
340
BE8
 40
0.24
340
0
 40
0.24
300

 40
0.36
280
     3
 71
     2
340
BEC
 90
       25
 71
     3
340
BE8
 40
0.24
 90
        1
 40
0.75
 90
        1
300
%<\AcVar ViewType \f "%tc1">% %<\AcVar ViewDetailId>%\PSCALE %<\AcVar ViewScale \f "%sn">%
 71
     4
340
BEC
 90
       25
340
BEC
 90
       25
280
     0
  0
LAYOUT
  5
BF6
102
{ACAD_XDICTIONARY
360
305E
102
}
102
{ACAD_REACTORS
330
BF0
102
}
330
BF0
100
AcDbPlotSettings
  1

  2
\\GBCFS501\GBCPR502
  4

  6

 40
0.0
 41
0.0
 42
0.0
 43
0.0
 44
0.0
 45
0.0
 46
0.0
 47
0.0
 48
0.0
 49
0.0
140
0.0
141
0.0
142
1.0
143
1.0
 70
   688
 72
     0
 73
     0
 74
     5
  7

 75
    16
147
1.0
148
0.0
149
0.0
100
AcDbLayout
  1
Layout1
 70
     1
 71
     1
 10
0.0
 20
0.0
 11
12.0
 21
9.0
 12
0.0
 22
0.0
 32
0.0
 14
1.000000000000000E+20
 24
1.000000000000000E+20
 34
1.000000000000000E+20
 15
-1.000000000000000E+20
 25
-1.000000000000000E+20
 35
-1.000000000000000E+20
146
0.0
 13
0.0
 23
0.0
 33
0.0
 16
1.0
 26
0.0
 36
0.0
 17
0.0
 27
1.0
 37
0.0
 76
     0
330
BF3
  0
LAYOUT
  5
BFA
102
{ACAD_XDICTIONARY
360
3060
102
}
102
{ACAD_REACTORS
330
BF0
102
}
330
BF0
100
AcDbPlotSettings
  1

  2
\\GBCFS501\GBCPR502
  4

  6

 40
0.0
 41
0.0
 42
0.0
 43
0.0
 44
0.0
 45
0.0
 46
0.0
 47
0.0
 48
0.0
 49
0.0
140
0.0
141
0.0
142
1.0
143
1.0
 70
  1712
 72
     0
 73
     0
 74
     0
  7

 75
     0
147
1.0
148
0.0
149
0.0
100
AcDbLayout
  1
Model
 70
     1
 71
     0
 10
0.0
 20
0.0
 11
12.0
 21
9.0
 12
0.0
 22
0.0
 32
0.0
 14
0.0
 24
0.0
 34
0.0
 15
0.0
 25
0.0
 35
0.0
146
0.0
 13
0.0
 23
0.0
 33
0.0
 16
1.0
 26
0.0
 36
0.0
 17
0.0
 27
1.0
 37
0.0
 76
     0
330
BF7
331
2FA9
  0
MATERIAL
  5
2FB5
102
{ACAD_XDICTIONARY
360
2FB6
102
}
102
{ACAD_REACTORS
330
BF1
102
}
330
BF1
100
AcDbMaterial
  1
ByBlock
 72
     0
 43
0.0208333333333333
 43
0.0
 43
0.0
 43
0.0
 43
0.0
 43
0.0208333333333333
 43
0.0
 43
0.0
 43
0.0
 43
0.0
 43
1.0
 43
0.0
 43
0.0
 43
0.0
 43
0.0
 43
1.0
 77
     0
 47
0.0208333333333333
 47
0.0
 47
0.0
 47
0.0
 47
0.0
 47
0.0208333333333333
 47
0.0
 47
0.0
 47
0.0
 47
0.0
 47
1.0
 47
0.0
 47
0.0
 47
0.0
 47
0.0
 47
1.0
171
     0
 49
0.0208333333333333
 49
0.0
 49
0.0
 49
0.0
 49
0.0
 49
0.0208333333333333
 49
0.0
 49
0.0
 49
0.0
 49
0.0
 49
1.0
 49
0.0
 49
0.0
 49
0.0
 49
0.0
 49
1.0
175
     0
142
0.0208333333333333
142
0.0
142
0.0
142
0.0
142
0.0
142
0.0208333333333333
142
0.0
142
0.0
142
0.0
142
0.0
142
1.0
142
0.0
142
0.0
142
0.0
142
0.0
142
1.0
179
     0
144
0.0208333333333333
144
0.0
144
0.0
144
0.0
144
0.0
144
0.0208333333333333
144
0.0
144
0.0
144
0.0
144
0.0
144
1.0
144
0.0
144
0.0
144
0.0
144
0.0
144
1.0
147
0.0208333333333333
147
0.0
147
0.0
147
0.0
147
0.0
147
0.0208333333333333
147
0.0
147
0.0
147
0.0
147
0.0
147
1.0
147
0.0
147
0.0
147
0.0
147
0.0
147
1.0
  0
MATERIAL
  5
2FAD
102
{ACAD_XDICTIONARY
360
2FAE
102
}
102
{ACAD_REACTORS
330
BF1
102
}
330
BF1
100
AcDbMaterial
  1
ByLayer
 72
     0
 43
0.0208333333333333
 43
0.0
 43
0.0
 43
0.0
 43
0.0
 43
0.0208333333333333
 43
0.0
 43
0.0
 43
0.0
 43
0.0
 43
1.0
 43
0.0
 43
0.0
 43
0.0
 43
0.0
 43
1.0
 77
     0
 47
0.0208333333333333
 47
0.0
 47
0.0
 47
0.0
 47
0.0
 47
0.0208333333333333
 47
0.0
 47
0.0
 47
0.0
 47
0.0
 47
1.0
 47
0.0
 47
0.0
 47
0.0
 47
0.0
 47
1.0
171
     0
 49
0.0208333333333333
 49
0.0
 49
0.0
 49
0.0
 49
0.0
 49
0.0208333333333333
 49
0.0
 49
0.0
 49
0.0
 49
0.0
 49
1.0
 49
0.0
 49
0.0
 49
0.0
 49
0.0
 49
1.0
175
     0
142
0.0208333333333333
142
0.0
142
0.0
142
0.0
142
0.0
142
0.0208333333333333
142
0.0
142
0.0
142
0.0
142
0.0
142
1.0
142
0.0
142
0.0
142
0.0
142
0.0
142
1.0
179
     0
144
0.0208333333333333
144
0.0
144
0.0
144
0.0
144
0.0
144
0.0208333333333333
144
0.0
144
0.0
144
0.0
144
0.0
144
1.0
144
0.0
144
0.0
144
0.0
144
0.0
144
1.0
147
0.0208333333333333
147
0.0
147
0.0
147
0.0
147
0.0
147
0.0208333333333333
147
0.0
147
0.0
147
0.0
147
0.0
147
1.0
147
0.0
147
0.0
147
0.0
147
0.0
147
1.0
  0
MATERIAL
  5
2FBD
102
{ACAD_XDICTIONARY
360
2FBE
102
}
102
{ACAD_REACTORS
330
BF1
102
}
330
BF1
100
AcDbMaterial
  1
Global
 72
     0
 43
0.0208333333333333
 43
0.0
 43
0.0
 43
0.0
 43
0.0
 43
0.0208333333333333
 43
0.0
 43
0.0
 43
0.0
 43
0.0
 43
1.0
 43
0.0
 43
0.0
 43
0.0
 43
0.0
 43
1.0
 77
     0
 47
0.0208333333333333
 47
0.0
 47
0.0
 47
0.0
 47
0.0
 47
0.0208333333333333
 47
0.0
 47
0.0
 47
0.0
 47
0.0
 47
1.0
 47
0.0
 47
0.0
 47
0.0
 47
0.0
 47
1.0
171
     0
 49
0.0208333333333333
 49
0.0
 49
0.0
 49
0.0
 49
0.0
 49
0.0208333333333333
 49
0.0
 49
0.0
 49
0.0
 49
0.0
 49
1.0
 49
0.0
 49
0.0
 49
0.0
 49
0.0
 49
1.0
175
     0
142
0.0208333333333333
142
0.0
142
0.0
142
0.0
142
0.0
142
0.0208333333333333
142
0.0
142
0.0
142
0.0
142
0.0
142
1.0
142
0.0
142
0.0
142
0.0
142
0.0
142
1.0
179
     0
144
0.0208333333333333
144
0.0
144
0.0
144
0.0
144
0.0
144
0.0208333333333333
144
0.0
144
0.0
144
0.0
144
0.0
144
1.0
144
0.0
144
0.0
144
0.0
144
0.0
144
1.0
147
0.0208333333333333
147
0.0
147
0.0
147
0.0
147
0.0
147
0.0208333333333333
147
0.0
147
0.0
147
0.0
147
0.0
147
1.0
147
0.0
147
0.0
147
0.0
147
0.0
147
1.0
  0
MLEADERSTYLE
  5
2FF3
102
{ACAD_REACTORS
330
2FF2
102
}
330
2FF2
100
AcDbMLeaderStyle
170
     2
171
     1
172
     0
 90
        2
 40
0.0
 41
0.0
173
     1
 91
-1056964608
340
BEA
 92
       -2
290
     1
 42
0.09
291
     1
 43
0.36
  3
Standard
 44
0.18
300

342
BE8
174
     1
178
     6
175
     1
176
     0
 93
-1056964608
 45
0.18
292
     0
297
     0
 46
0.18
 94
-1056964608
 47
1.0
 49
1.0
140
1.0
293
     1
141
0.0
294
     1
177
     0
142
1.0
295
     0
296
     0
143
0.125
1001
ACAD_MLEADERVER
1070
     2
  0
MLINESTYLE
  5
BEE
102
{ACAD_REACTORS
330
BED
102
}
330
BED
100
AcDbMlineStyle
  2
STANDARD
 70
     0
  3

 62
   256
 51
90.0
 52
90.0
 71
     2
 49
0.5
 62
   256
  6
BYLAYER
 49
-0.5
 62
   256
  6
BYLAYER
  0
ACDBPLACEHOLDER
  5
BE6
102
{ACAD_REACTORS
330
BE5
102
}
330
BE5
  0
SCALE
  5
2FE1
102
{ACAD_REACTORS
330
2FE0
102
}
330
2FE0
100
AcDbScale
 70
     0
300
1:1
140
1.0
141
1.0
290
     1
  0
SCALE
  5
2FE2
102
{ACAD_REACTORS
330
2FE0
102
}
330
2FE0
100
AcDbScale
 70
     0
300
1/128" = 1'-0"
140
0.0078125
141
12.0
290
     0
  0
SCALE
  5
2FE3
102
{ACAD_REACTORS
330
2FE0
102
}
330
2FE0
100
AcDbScale
 70
     0
300
1/64" = 1'-0"
140
0.015625
141
12.0
290
     0
  0
SCALE
  5
2FE4
102
{ACAD_REACTORS
330
2FE0
102
}
330
2FE0
100
AcDbScale
 70
     0
300
1/32" = 1'-0"
140
0.03125
141
12.0
290
     0
  0
SCALE
  5
2FE5
102
{ACAD_REACTORS
330
2FE0
102
}
330
2FE0
100
AcDbScale
 70
     0
300
1/16" = 1'-0"
140
0.0625
141
12.0
290
     0
  0
SCALE
  5
2FE6
102
{ACAD_REACTORS
330
2FE0
102
}
330
2FE0
100
AcDbScale
 70
     0
300
3/32" = 1'-0"
140
0.09375
141
12.0
290
     0
  0
SCALE
  5
2FE7
102
{ACAD_REACTORS
330
2FE0
102
}
330
2FE0
100
AcDbScale
 70
     0
300
1/8" = 1'-0"
140
0.125
141
12.0
290
     0
  0
SCALE
  5
2FE8
102
{ACAD_REACTORS
330
2FE0
102
}
330
2FE0
100
AcDbScale
 70
     0
300
3/16" = 1'-0"
140
0.1875
141
12.0
290
     0
  0
SCALE
  5
2FE9
102
{ACAD_REACTORS
330
2FE0
102
}
330
2FE0
100
AcDbScale
 70
     0
300
1/4" = 1'-0"
140
0.25
141
12.0
290
     0
  0
SCALE
  5
2FEA
102
{ACAD_REACTORS
330
2FE0
102
}
330
2FE0
100
AcDbScale
 70
     0
300
3/8" = 1'-0"
140
0.375
141
12.0
290
     0
  0
SCALE
  5
2FEB
102
{ACAD_REACTORS
330
2FE0
102
}
330
2FE0
100
AcDbScale
 70
     0
300
1/2" = 1'-0"
140
0.5
141
12.0
290
     0
  0
SCALE
  5
2FEC
102
{ACAD_REACTORS
330
2FE0
102
}
330
2FE0
100
AcDbScale
 70
     0
300
3/4" = 1'-0"
140
0.75
141
12.0
290
     0
  0
SCALE
  5
2FED
102
{ACAD_REACTORS
330
2FE0
102
}
330
2FE0
100
AcDbScale
 70
     0
300
1" = 1'-0"
140
1.0
141
12.0
290
     0
  0
SCALE
  5
2FEE
102
{ACAD_REACTORS
330
2FE0
102
}
330
2FE0
100
AcDbScale
 70
     0
300
1-1/2" = 1'-0"
140
1.5
141
12.0
290
     0
  0
SCALE
  5
2FEF
102
{ACAD_REACTORS
330
2FE0
102
}
330
2FE0
100
AcDbScale
 70
     0
300
3" = 1'-0"
140
3.0
141
12.0
290
     0
  0
SCALE
  5
2FF0
102
{ACAD_REACTORS
330
2FE0
102
}
330
2FE0
100
AcDbScale
 70
     0
300
6" = 1'-0"
140
6.0
141
12.0
290
     0
  0
SCALE
  5
2FF1
102
{ACAD_REACTORS
330
2FE0
102
}
330
2FE0
100
AcDbScale
 70
     0
300
1'-0" = 1'-0"
140
12.0
141
12.0
290
     0
  0
ACDBSECTIONVIEWSTYLE
  5
2FF6
102
{ACAD_REACTORS
330
2FF4
102
}
330
2FF4
100
AcDbModelDocViewStyle
 70
     0
  3
Imperial24
290
     0
100
AcDbSectionViewStyle
 70
     0
 71
     0
 90
       78
 71
     1
340
BE8
 40
0.24
340
0
340
0
 40
0.24
300
I, O, Q, S, X, Z
 40
0.48
 90
        3
 40
0.18
 90
        1
 71
     2
340
2FF5
 90
       25
340
BEC
 90
       50
 40
0.24
 40
0.0
 40
0.24
 71
     3
340
BE8
 40
0.24
 90
        1
 40
0.75
 90
        1
300
%<\AcVar ViewType \f "%tc1">% %<\AcVar ViewSectionStartId>%-%<\AcVar ViewSectionEndId>%\PSCALE %<\AcVar ViewScale \f "%sn">%
 71
     4
300
ANSI31
 40
1.0
 90
        0
290
     0
290
     0
 90
        6
 40
0.0
 40
1.570796326794896
 40
0.2617993877991494
 40
1.308996938995747
 40
-0.2617993877991494
 40
1.832595714594046
  0
TABLESTYLE
  5
2FDF
102
{ACAD_XDICTIONARY
360
305A
102
}
102
{ACAD_REACTORS
330
2FDE
102
}
330
2FDE
100
AcDbTableStyle
  3
Standard
 70
     0
 71
     0
 40
0.06
 41
0.06
280
     0
281
     0
  7
STANDARD
140
0.18
170
     2
 62
     0
 63
     7
283
     0
274
    -2
284
     1
 64
     0
275
    -2
285
     1
 65
     0
276
    -2
286
     1
 66
     0
277
    -2
287
     1
 67
     0
278
    -2
288
     1
 68
     0
279
    -2
289
     1
 69
     0
  7
STANDARD
140
0.25
170
     5
 62
     0
 63
     7
283
     0
274
    -2
284
     1
 64
     0
275
    -2
285
     1
 65
     0
276
    -2
286
     1
 66
     0
277
    -2
287
     1
 67
     0
278
    -2
288
     1
 68
     0
279
    -2
289
     1
 69
     0
  7
STANDARD
140
0.18
170
     5
 62
     0
 63
     7
283
     0
274
    -2
284
     1
 64
     0
275
    -2
285
     1
 65
     0
276
    -2
286
     1
 66
     0
277
    -2
287
     1
 67
     0
278
    -2
288
     1
 68
     0
279
    -2
289
     1
 69
     0
  0
VISUALSTYLE
  5
2FCB
102
{ACAD_XDICTIONARY
360
306F
102
}
102
{ACAD_REACTORS
330
2FC5
102
}
330
2FC5
100
AcDbVisualStyle
  2
2dWireframe
 70
     4
 71
     0
 72
     2
 73
     0
 90
        0
 40
-0.6
 41
-30.0
 62
     5
 63
     7
 74
     1
 91
        4
 64
     7
 65
   257
 75
     1
175
     1
 42
1.0
 92
        0
 66
   257
 43
1.0
 76
     1
 77
     6
 78
     2
 67
     7
 79
     5
170
     0
171
     0
290
     0
174
     0
 93
        1
 44
0.0
173
     0
291
     0
 45
0.0
1001
ACAD
1000
AcDbSavedByObjectVersion
1070
     0
  0
VISUALSTYLE
  5
2FCA
102
{ACAD_XDICTIONARY
360
306D
102
}
102
{ACAD_REACTORS
330
2FC5
102
}
330
2FC5
100
AcDbVisualStyle
  2
Basic
 70
     7
 71
     1
 72
     0
 73
     1
 90
        0
 40
-0.6
 41
-30.0
 62
     5
 63
     7
 74
     0
 91
        4
 64
     7
 65
   257
 75
     1
175
     1
 42
1.0
 92
        8
 66
     7
 43
1.0
 76
     1
 77
     6
 78
     2
 67
     7
 79
     5
170
     0
171
     0
290
     0
174
     0
 93
        1
 44
0.0
173
     0
291
     1
 45
0.0
1001
ACAD
1000
AcDbSavedByObjectVersion
1070
     0
  0
VISUALSTYLE
  5
2FD1
102
{ACAD_XDICTIONARY
360
307B
102
}
102
{ACAD_REACTORS
330
2FC5
102
}
330
2FC5
100
AcDbVisualStyle
  2
Brighten
 70
    12
 71
     2
 72
     2
 73
     0
 90
        0
 40
-0.6
 41
-30.0
 62
     5
 63
     7
 74
     1
 91
        4
 64
     7
 65
   257
 75
     1
175
     1
 42
1.0
 92
        8
 66
     7
 43
1.0
 76
     1
 77
     6
 78
     2
 67
     7
 79
     5
170
     0
171
     0
290
     0
174
     0
 93
        1
 44
50.0
173
     0
291
     1
 45
0.0
1001
ACAD
1000
AcDbSavedByObjectVersion
1070
     0
  0
VISUALSTYLE
  5
2FD5
102
{ACAD_XDICTIONARY
360
3083
102
}
102
{ACAD_REACTORS
330
2FC5
102
}
330
2FC5
100
AcDbVisualStyle
  2
ColorChange
 70
    16
 71
     2
 72
     2
 73
     3
 90
        0
 40
-0.6
 41
-30.0
 62
     5
 63
     8
 74
     1
 91
        4
 64
     7
 65
   257
 75
     1
175
     1
 42
1.0
 92
        8
 66
     8
 43
1.0
 76
     1
 77
     6
 78
     2
 67
     7
 79
     5
170
     0
171
     0
290
     0
174
     0
 93
        1
 44
0.0
173
     0
291
     1
 45
0.0
1001
ACAD
1000
AcDbSavedByObjectVersion
1070
     0
  0
VISUALSTYLE
  5
2FCE
102
{ACAD_XDICTIONARY
360
3075
102
}
102
{ACAD_REACTORS
330
2FC5
102
}
330
2FC5
100
AcDbVisualStyle
  2
Conceptual
 70
     9
 71
     3
 72
     2
 73
     0
 90
        0
 40
-0.6
 41
-30.0
 62
     5
 63
     7
 74
     2
 91
        2
 64
     7
 65
   257
 75
     1
175
     1
 42
179.0
 92
        8
 66
     7
 43
1.0
 76
     1
 77
     6
 78
     2
 67
     7
 79
     3
170
     0
171
     0
290
     0
174
     0
 93
        1
 44
0.0
173
     0
291
     0
 45
0.0
1001
ACAD
1000
AcDbSavedByObjectVersion
1070
     0
  0
VISUALSTYLE
  5
2FD0
102
{ACAD_XDICTIONARY
360
3079
102
}
102
{ACAD_REACTORS
330
2FC5
102
}
330
2FC5
100
AcDbVisualStyle
  2
Dim
 70
    11
 71
     2
 72
     2
 73
     0
 90
        0
 40
-0.6
 41
-30.0
 62
     5
 63
     7
 74
     1
 91
        4
 64
     7
 65
   257
 75
     1
175
     1
 42
1.0
 92
        8
 66
     7
 43
1.0
 76
     1
 77
     6
 78
     2
 67
     7
 79
     5
170
     0
171
     0
290
     0
174
     0
 93
        1
 44
-50.0
173
     0
291
     1
 45
0.0
1001
ACAD
1000
AcDbSavedByObjectVersion
1070
     0
  0
VISUALSTYLE
  5
2FDD
102
{ACAD_XDICTIONARY
360
3093
102
}
102
{ACAD_REACTORS
330
2FC5
102
}
330
2FC5
100
AcDbVisualStyle
  2
EdgeColorOff
 70
    22
 71
     2
 72
     2
 73
     0
 90
        0
 40
-0.6
 41
-30.0
 62
     5
 63
     7
 74
     1
 91
        4
 64
     7
 65
   257
 75
     1
175
     1
 42
1.0
 92
        8
 66
     7
 43
1.0
 76
     1
 77
     6
 78
     2
 67
     7
 79
     5
170
     0
171
     0
290
     0
174
     0
 93
        1
 44
0.0
173
     0
291
     1
 45
0.0
1001
ACAD
1000
AcDbSavedByObjectVersion
1070
     0
  0
VISUALSTYLE
  5
2FD4
102
{ACAD_XDICTIONARY
360
3081
102
}
102
{ACAD_REACTORS
330
2FC5
102
}
330
2FC5
100
AcDbVisualStyle
  2
Facepattern
 70
    15
 71
     2
 72
     2
 73
     0
 90
        0
 40
-0.6
 41
-30.0
 62
     5
 63
     7
 74
     1
 91
        4
 64
     7
 65
   257
 75
     1
175
     1
 42
1.0
 92
        8
 66
     7
 43
1.0
 76
     1
 77
     6
 78
     2
 67
     7
 79
     5
170
     0
171
     0
290
     0
174
     0
 93
        1
 44
0.0
173
     0
291
     1
 45
0.0
1001
ACAD
1000
AcDbSavedByObjectVersion
1070
     0
  0
VISUALSTYLE
  5
2FC6
102
{ACAD_XDICTIONARY
360
3065
102
}
102
{ACAD_REACTORS
330
2FC5
102
}
330
2FC5
100
AcDbVisualStyle
  2
Flat
 70
     0
 71
     2
 72
     1
 73
     1
 90
        2
 40
-0.6
 41
30.0
 62
     5
 63
     7
 74
     0
 91
        0
 64
     7
 65
   257
 75
     1
175
     1
 42
1.0
 92
        8
 66
     7
 43
1.0
 76
     1
 77
     6
 78
     2
 67
     7
 79
     5
170
     0
171
     0
290
     0
174
     0
 93
       13
 44
0.0
173
     0
291
     1
 45
0.0
1001
ACAD
1000
AcDbSavedByObjectVersion
1070
     0
  0
VISUALSTYLE
  5
2FC7
102
{ACAD_XDICTIONARY
360
3067
102
}
102
{ACAD_REACTORS
330
2FC5
102
}
330
2FC5
100
AcDbVisualStyle
  2
FlatWithEdges
 70
     1
 71
     2
 72
     1
 73
     1
 90
        2
 40
-0.6
 41
30.0
 62
     5
 63
     7
 74
     1
 91
        0
 64
     7
 65
   257
 75
     1
175
     1
 42
1.0
 92
        0
 66
   257
 43
1.0
 76
     1
 77
     6
 78
     2
 67
     7
 79
     5
170
     0
171
     0
290
     0
174
     0
 93
       13
 44
0.0
173
     0
291
     1
 45
0.0
1001
ACAD
1000
AcDbSavedByObjectVersion
1070
     0
  0
VISUALSTYLE
  5
2FC8
102
{ACAD_XDICTIONARY
360
3069
102
}
102
{ACAD_REACTORS
330
2FC5
102
}
330
2FC5
100
AcDbVisualStyle
  2
Gouraud
 70
     2
 71
     2
 72
     2
 73
     1
 90
        2
 40
-0.6
 41
30.0
 62
     5
 63
     7
 74
     0
 91
        0
 64
     7
 65
   257
 75
     1
175
     1
 42
1.0
 92
        0
 66
     7
 43
1.0
 76
     1
 77
     6
 78
     2
 67
     7
 79
     5
170
     0
171
     0
290
     0
174
     0
 93
       13
 44
0.0
173
     0
291
     1
 45
0.0
1001
ACAD
1000
AcDbSavedByObjectVersion
1070
     0
  0
VISUALSTYLE
  5
2FC9
102
{ACAD_XDICTIONARY
360
306B
102
}
102
{ACAD_REACTORS
330
2FC5
102
}
330
2FC5
100
AcDbVisualStyle
  2
GouraudWithEdges
 70
     3
 71
     2
 72
     2
 73
     1
 90
        2
 40
-0.6
 41
30.0
 62
     5
 63
     7
 74
     1
 91
        0
 64
     7
 65
   257
 75
     1
175
     1
 42
1.0
 92
        0
 66
   257
 43
1.0
 76
     1
 77
     6
 78
     2
 67
     7
 79
     5
170
     0
171
     0
290
     0
174
     0
 93
       13
 44
0.0
173
     0
291
     1
 45
0.0
1001
ACAD
1000
AcDbSavedByObjectVersion
1070
     0
  0
VISUALSTYLE
  5
2FCD
102
{ACAD_XDICTIONARY
360
3073
102
}
102
{ACAD_REACTORS
330
2FC5
102
}
330
2FC5
100
AcDbVisualStyle
  2
Hidden
 70
     6
 71
     1
 72
     2
 73
     2
 90
        0
 40
-0.6
 41
-30.0
 62
     5
 63
     7
 74
     2
 91
        2
 64
     7
 65
   257
 75
     2
175
     1
 42
40.0
 92
        0
 66
   257
 43
1.0
 76
     1
 77
     6
 78
     2
 67
     7
 79
     3
170
     0
171
     0
290
     0
174
     0
 93
        1
 44
0.0
173
     0
291
     0
 45
0.0
1001
ACAD
1000
AcDbSavedByObjectVersion
1070
     0
  0
VISUALSTYLE
  5
2FDB
102
{ACAD_XDICTIONARY
360
308F
102
}
102
{ACAD_REACTORS
330
2FC5
102
}
330
2FC5
100
AcDbVisualStyle
  2
JitterOff
 70
    20
 71
     2
 72
     2
 73
     0
 90
        0
 40
-0.6
 41
-30.0
 62
     5
 63
     7
 74
     1
 91
        4
 64
     7
 65
   257
 75
     1
175
     1
 42
1.0
 92
       10
 66
     7
 43
1.0
 76
     1
 77
     6
 78
     2
 67
     7
 79
     5
170
     0
171
     0
290
     0
174
     0
 93
        1
 44
0.0
173
     0
291
     1
 45
0.0
1001
ACAD
1000
AcDbSavedByObjectVersion
1070
     0
  0
VISUALSTYLE
  5
2FD3
102
{ACAD_XDICTIONARY
360
307F
102
}
102
{ACAD_REACTORS
330
2FC5
102
}
330
2FC5
100
AcDbVisualStyle
  2
Linepattern
 70
    14
 71
     2
 72
     2
 73
     0
 90
        0
 40
-0.6
 41
-30.0
 62
     5
 63
     7
 74
     1
 91
        4
 64
     7
 65
   257
 75
     7
175
     7
 42
1.0
 92
        8
 66
     7
 43
1.0
 76
     1
 77
     6
 78
     2
 67
     7
 79
     5
170
     0
171
     0
290
     0
174
     0
 93
        1
 44
0.0
173
     0
291
     1
 45
0.0
1001
ACAD
1000
AcDbSavedByObjectVersion
1070
     0
  0
VISUALSTYLE
  5
2FDC
102
{ACAD_XDICTIONARY
360
3091
102
}
102
{ACAD_REACTORS
330
2FC5
102
}
330
2FC5
100
AcDbVisualStyle
  2
OverhangOff
 70
    21
 71
     2
 72
     2
 73
     0
 90
        0
 40
-0.6
 41
-30.0
 62
     5
 63
     7
 74
     1
 91
        4
 64
     7
 65
   257
 75
     1
175
     1
 42
1.0
 92
        9
 66
     7
 43
1.0
 76
     1
 77
     6
 78
     2
 67
     7
 79
     5
170
     0
171
     0
290
     0
174
     0
 93
        1
 44
0.0
173
     0
291
     1
 45
0.0
1001
ACAD
1000
AcDbSavedByObjectVersion
1070
     0
  0
VISUALSTYLE
  5
2FCF
102
{ACAD_XDICTIONARY
360
3077
102
}
102
{ACAD_REACTORS
330
2FC5
102
}
330
2FC5
100
AcDbVisualStyle
  2
Realistic
 70
     8
 71
     2
 72
     3
 73
     0
 90
        2
 40
-0.6
 41
30.0
 62
     5
 63
     7
 74
     0
 91
        0
 64
     7
 65
   257
 75
     1
175
     1
 42
1.0
 92
        8
 66
   257
 43
1.0
 76
     1
 77
     6
 78
     2
 67
     7
 79
     3
170
     0
171
     0
290
     0
174
     0
 93
       13
 44
0.0
173
     0
291
     0
 45
0.0
1001
ACAD
1000
AcDbSavedByObjectVersion
1070
     0
  0
VISUALSTYLE
  5
2FDA
102
{ACAD_XDICTIONARY
360
308D
102
}
102
{ACAD_REACTORS
330
2FC5
102
}
330
2FC5
100
AcDbVisualStyle
  2
Shaded
 70
    27
 71
     2
 72
     2
 73
     1
 90
        2
 40
-0.6
 41
30.0
 62
     5
 63
     7
 74
     0
 91
        4
 64
     7
 65
   257
 75
     1
175
     1
 42
1.0
 92
        8
 66
   257
 43
1.0
 76
     1
 77
     6
 78
     2
 67
     8
 79
     3
170
     0
171
     0
290
     0
174
     0
 93
        5
 44
0.0
173
     0
291
     0
 45
0.0
1001
ACAD
1000
AcDbSavedByObjectVersion
1070
     0
  0
VISUALSTYLE
  5
2FD9
102
{ACAD_XDICTIONARY
360
308B
102
}
102
{ACAD_REACTORS
330
2FC5
102
}
330
2FC5
100
AcDbVisualStyle
  2
Shaded with edges
 70
    26
 71
     2
 72
     2
 73
     1
 90
        2
 40
-0.6
 41
30.0
 62
     5
 63
     7
 74
     1
 91
       10
 64
     7
 65
   257
 75
     2
175
     1
 42
1.0
 92
        8
 66
   257
 43
1.0
 76
     1
 77
     6
 78
     2
 67
     7
 79
     3
170
     0
171
     0
290
     0
174
     0
 93
        5
 44
0.0
173
     0
291
     0
 45
0.0
1001
ACAD
1000
AcDbSavedByObjectVersion
1070
     0
  0
VISUALSTYLE
  5
2FD6
102
{ACAD_XDICTIONARY
360
3085
102
}
102
{ACAD_REACTORS
330
2FC5
102
}
330
2FC5
100
AcDbVisualStyle
  2
Shades of Gray
 70
    23
 71
     2
 72
     2
 73
     3
 90
        0
 40
-0.6
 41
-30.0
 62
     5
 63
     7
 74
     2
 91
        2
 64
     7
 65
     7
 75
     1
175
     1
 42
40.0
 92
        8
 66
     7
 43
1.0
 76
     1
 77
     6
 78
     2
 67
     7
 79
     3
170
     0
171
     0
290
     0
174
     0
 93
        1
 44
0.0
173
     0
291
     0
 45
0.0
1001
ACAD
1000
AcDbSavedByObjectVersion
1070
     0
  0
VISUALSTYLE
  5
2FD7
102
{ACAD_XDICTIONARY
360
3087
102
}
102
{ACAD_REACTORS
330
2FC5
102
}
330
2FC5
100
AcDbVisualStyle
  2
Sketchy
 70
    24
 71
     1
 72
     2
 73
     2
 90
        0
 40
-0.6
 41
-30.0
 62
     5
 63
     7
 74
     2
 91
        2
 64
     7
 65
     7
 75
     1
175
     1
 42
40.0
 92
       11
 66
     7
 43
1.0
 76
     1
 77
     6
 78
     2
 67
     7
 79
     6
170
     0
171
     0
290
     0
174
     0
 93
        1
 44
0.0
173
     0
291
     0
 45
0.0
1001
ACAD
1000
AcDbSavedByObjectVersion
1070
     0
  0
VISUALSTYLE
  5
2FD2
102
{ACAD_XDICTIONARY
360
307D
102
}
102
{ACAD_REACTORS
330
2FC5
102
}
330
2FC5
100
AcDbVisualStyle
  2
Thicken
 70
    13
 71
     2
 72
     2
 73
     0
 90
        0
 40
-0.6
 41
-30.0
 62
     5
 63
     7
 74
     1
 91
        4
 64
     7
 65
   257
 75
     1
175
     1
 42
1.0
 92
       12
 66
     7
 43
1.0
 76
     1
 77
     6
 78
     2
 67
     7
 79
     5
170
     0
171
     0
290
     0
174
     0
 93
        1
 44
0.0
173
     0
291
     1
 45
0.0
1001
ACAD
1000
AcDbSavedByObjectVersion
1070
     0
  0
VISUALSTYLE
  5
2FCC
102
{ACAD_XDICTIONARY
360
3071
102
}
102
{ACAD_REACTORS
330
2FC5
102
}
330
2FC5
100
AcDbVisualStyle
  2
Wireframe
 70
     5
 71
     0
 72
     2
 73
     0
 90
        0
 40
-0.6
 41
-30.0
 62
     5
 63
     7
 74
     1
 91
        4
 64
     7
 65
   257
 75
     1
175
     1
 42
1.0
 92
        0
 66
   257
 43
1.0
 76
     1
 77
     6
 78
     2
 67
     7
 79
     3
170
     0
171
     0
290
     0
174
     0
 93
        1
 44
0.0
173
     0
291
     0
 45
0.0
1001
ACAD
1000
AcDbSavedByObjectVersion
1070
     0
  0
VISUALSTYLE
  5
2FD8
102
{ACAD_XDICTIONARY
360
3089
102
}
102
{ACAD_REACTORS
330
2FC5
102
}
330
2FC5
100
AcDbVisualStyle
  2
X-Ray
 70
    25
 71
     2
 72
     2
 73
     1
 90
        1
 40
0.5
 41
-30.0
 62
     5
 63
     7
 74
     1
 91
        0
 64
     7
 65
   257
 75
     1
175
     1
 42
1.0
 92
        8
 66
     7
 43
1.0
 76
     1
 77
     6
 78
     2
 67
     7
 79
     3
170
     0
171
     0
290
     0
174
     0
 93
       13
 44
0.0
173
     0
291
     0
 45
0.0
1001
ACAD
1000
AcDbSavedByObjectVersion
1070
     0
  0
DICTIONARYVAR
  5
3054
102
{ACAD_REACTORS
330
304F
102
}
330
304F
100
DictionaryVariables
280
     0
  1
1:1
  0
DICTIONARYVAR
  5
3051
102
{ACAD_REACTORS
330
304F
102
}
330
304F
100
DictionaryVariables
280
     0
  1
STANDARD
  0
DICTIONARYVAR
  5
3050
102
{ACAD_REACTORS
330
304F
102
}
330
304F
100
DictionaryVariables
280
     0
  1
STANDARD
  0
DICTIONARYVAR
  5
3052
102
{ACAD_REACTORS
330
304F
102
}
330
304F
100
DictionaryVariables
280
     0
  1
Imperial24
  0
DICTIONARYVAR
  5
3053
102
{ACAD_REACTORS
330
304F
102
}
330
304F
100
DictionaryVariables
280
     0
  1
Imperial24
  0
DICTIONARYVAR
  5
3058
102
{ACAD_REACTORS
330
304F
102
}
330
304F
100
DictionaryVariables
280
     0
  1
1
  0
DICTIONARYVAR
  5
3056
102
{ACAD_REACTORS
330
304F
102
}
330
304F
100
DictionaryVariables
280
     0
  1
0
  0
DICTIONARYVAR
  5
3055
102
{ACAD_REACTORS
330
304F
102
}
330
304F
100
DictionaryVariables
280
     0
  1
127
  0
DICTIONARYVAR
  5
3057
102
{ACAD_REACTORS
330
304F
102
}
330
304F
100
DictionaryVariables
280
     0
  1
0
  0
XRECORD
  5
304E
102
{ACAD_REACTORS
330
304C
102
}
330
304C
100
AcDbXrecord
280
     1
  0
DICTIONARY
  5
305E
330
BF6
100
AcDbDictionary
280
     1
281
     1
  3
ACAD_XREC_ROUNDTRIP
360
305F
  0
DICTIONARY
  5
3060
330
BFA
100
AcDbDictionary
280
     1
281
     1
  3
ACAD_XREC_ROUNDTRIP
360
3061
  0
DICTIONARY
  5
2FB6
330
2FB5
100
AcDbDictionary
280
     1
281
     1
  3
ACAD_XREC_ROUNDTRIP
360
3063
  3
BUMPTILE
360
2FB8
  3
DIFFUSETILE
360
2FB7
  3
OPACITYTILE
360
2FBB
  3
REFLECTIONTILE
360
2FBA
  3
REFRACTIONTILE
360
2FBC
  3
SPECULARTILE
360
2FB9
  0
DICTIONARY
  5
2FAE
330
2FAD
100
AcDbDictionary
280
     1
281
     1
  3
ACAD_XREC_ROUNDTRIP
360
3062
  3
BUMPTILE
360
2FB0
  3
DIFFUSETILE
360
2FAF
  3
OPACITYTILE
360
2FB3
  3
REFLECTIONTILE
360
2FB2
  3
REFRACTIONTILE
360
2FB4
  3
SPECULARTILE
360
2FB1
  0
DICTIONARY
  5
2FBE
330
2FBD
100
AcDbDictionary
280
     1
281
     1
  3
ACAD_XREC_ROUNDTRIP
360
3064
  3
BUMPTILE
360
2FC0
  3
DIFFUSETILE
360
2FBF
  3
OPACITYTILE
360
2FC3
  3
REFLECTIONTILE
360
2FC2
  3
REFRACTIONTILE
360
2FC4
  3
SPECULARTILE
360
2FC1
  0
DICTIONARY
  5
305A
330
2FDF
100
AcDbDictionary
280
     1
281
     1
  3
ACAD_ROUNDTRIP_2008_TABLESTYLE_CELLSTYLEMAP
360
305B
  3
ACAD_XREC_ROUNDTRIP
360
3095
  0
DICTIONARY
  5
306F
330
2FCB
100
AcDbDictionary
280
     1
281
     1
  3
ACAD_XREC_ROUNDTRIP
360
3070
  0
DICTIONARY
  5
306D
330
2FCA
100
AcDbDictionary
280
     1
281
     1
  3
ACAD_XREC_ROUNDTRIP
360
306E
  0
DICTIONARY
  5
307B
330
2FD1
100
AcDbDictionary
280
     1
281
     1
  3
ACAD_XREC_ROUNDTRIP
360
307C
  0
DICTIONARY
  5
3083
330
2FD5
100
AcDbDictionary
280
     1
281
     1
  3
ACAD_XREC_ROUNDTRIP
360
3084
  0
DICTIONARY
  5
3075
330
2FCE
100
AcDbDictionary
280
     1
281
     1
  3
ACAD_XREC_ROUNDTRIP
360
3076
  0
DICTIONARY
  5
3079
330
2FD0
100
AcDbDictionary
280
     1
281
     1
  3
ACAD_XREC_ROUNDTRIP
360
307A
  0
DICTIONARY
  5
3093
330
2FDD
100
AcDbDictionary
280
     1
281
     1
  3
ACAD_XREC_ROUNDTRIP
360
3094
  0
DICTIONARY
  5
3081
330
2FD4
100
AcDbDictionary
280
     1
281
     1
  3
ACAD_XREC_ROUNDTRIP
360
3082
  0
DICTIONARY
  5
3065
330
2FC6
100
AcDbDictionary
280
     1
281
     1
  3
ACAD_XREC_ROUNDTRIP
360
3066
  0
DICTIONARY
  5
3067
330
2FC7
100
AcDbDictionary
280
     1
281
     1
  3
ACAD_XREC_ROUNDTRIP
360
3068
  0
DICTIONARY
  5
3069
330
2FC8
100
AcDbDictionary
280
     1
281
     1
  3
ACAD_XREC_ROUNDTRIP
360
306A
  0
DICTIONARY
  5
306B
330
2FC9
100
AcDbDictionary
280
     1
281
     1
  3
ACAD_XREC_ROUNDTRIP
360
306C
  0
DICTIONARY
  5
3073
330
2FCD
100
AcDbDictionary
280
     1
281
     1
  3
ACAD_XREC_ROUNDTRIP
360
3074
  0
DICTIONARY
  5
308F
330
2FDB
100
AcDbDictionary
280
     1
281
     1
  3
ACAD_XREC_ROUNDTRIP
360
3090
  0
DICTIONARY
  5
307F
330
2FD3
100
AcDbDictionary
280
     1
281
     1
  3
ACAD_XREC_ROUNDTRIP
360
3080
  0
DICTIONARY
  5
3091
330
2FDC
100
AcDbDictionary
280
     1
281
     1
  3
ACAD_XREC_ROUNDTRIP
360
3092
  0
DICTIONARY
  5
3077
330
2FCF
100
AcDbDictionary
280
     1
281
     1
  3
ACAD_XREC_ROUNDTRIP
360
3078
  0
DICTIONARY
  5
308D
330
2FDA
100
AcDbDictionary
280
     1
281
     1
  3
ACAD_XREC_ROUNDTRIP
360
308E
  0
DICTIONARY
  5
308B
330
2FD9
100
AcDbDictionary
280
     1
281
     1
  3
ACAD_XREC_ROUNDTRIP
360
308C
  0
DICTIONARY
  5
3085
330
2FD6
100
AcDbDictionary
280
     1
281
     1
  3
ACAD_XREC_ROUNDTRIP
360
3086
  0
DICTIONARY
  5
3087
330
2FD7
100
AcDbDictionary
280
     1
281
     1
  3
ACAD_XREC_ROUNDTRIP
360
3088
  0
DICTIONARY
  5
307D
330
2FD2
100
AcDbDictionary
280
     1
281
     1
  3
ACAD_XREC_ROUNDTRIP
360
307E
  0
DICTIONARY
  5
3071
330
2FCC
100
AcDbDictionary
280
     1
281
     1
  3
ACAD_XREC_ROUNDTRIP
360
3072
  0
DICTIONARY
  5
3089
330
2FD8
100
AcDbDictionary
280
     1
281
     1
  3
ACAD_XREC_ROUNDTRIP
360
308A
  0
XRECORD
  5
305F
102
{ACAD_REACTORS
330
305E
102
}
330
305E
100
AcDbXrecord
280
     1
102
SHADEPLOT
 70
     0
102
SHADEPLOTRESLEVEL
 70
     2
102
SHADEPLOTCUSTOMDPI
 70
   300
  0
XRECORD
  5
3061
102
{ACAD_REACTORS
330
3060
102
}
330
3060
100
AcDbXrecord
280
     1
102
SHADEPLOT
 70
     0
102
SHADEPLOTRESLEVEL
 70
     2
102
SHADEPLOTCUSTOMDPI
 70
   300
  0
XRECORD
  5
3063
102
{ACAD_REACTORS
330
2FB6
102
}
330
2FB6
100
AcDbXrecord
280
     1
102
MATERIAL
148
0.0
149
0.0
149
0.0
 93
        0
 94
      127
282
     0
 72
     0
 77
     0
171
     0
175
     0
179
     0
273
     0
  0
XRECORD
  5
2FB8
102
{ACAD_REACTORS
330
2FB6
102
}
330
2FB6
100
AcDbXrecord
280
     1
270
     1
271
     1
  0
XRECORD
  5
2FB7
102
{ACAD_REACTORS
330
2FB6
102
}
330
2FB6
100
AcDbXrecord
280
     1
270
     1
271
     1
  0
XRECORD
  5
2FBB
102
{ACAD_REACTORS
330
2FB6
102
}
330
2FB6
100
AcDbXrecord
280
     1
270
     1
271
     1
  0
XRECORD
  5
2FBA
102
{ACAD_REACTORS
330
2FB6
102
}
330
2FB6
100
AcDbXrecord
280
     1
270
     1
271
     1
  0
XRECORD
  5
2FBC
102
{ACAD_REACTORS
330
2FB6
102
}
330
2FB6
100
AcDbXrecord
280
     1
270
     1
271
     1
  0
XRECORD
  5
2FB9
102
{ACAD_REACTORS
330
2FB6
102
}
330
2FB6
100
AcDbXrecord
280
     1
270
     1
271
     1
  0
XRECORD
  5
3062
102
{ACAD_REACTORS
330
2FAE
102
}
330
2FAE
100
AcDbXrecord
280
     1
102
MATERIAL
148
0.0
149
0.0
149
0.0
 93
        0
 94
      127
282
     0
 72
     0
 77
     0
171
     0
175
     0
179
     0
273
     0
  0
XRECORD
  5
2FB0
102
{ACAD_REACTORS
330
2FAE
102
}
330
2FAE
100
AcDbXrecord
280
     1
270
     1
271
     1
  0
XRECORD
  5
2FAF
102
{ACAD_REACTORS
330
2FAE
102
}
330
2FAE
100
AcDbXrecord
280
     1
270
     1
271
     1
  0
XRECORD
  5
2FB3
102
{ACAD_REACTORS
330
2FAE
102
}
330
2FAE
100
AcDbXrecord
280
     1
270
     1
271
     1
  0
XRECORD
  5
2FB2
102
{ACAD_REACTORS
330
2FAE
102
}
330
2FAE
100
AcDbXrecord
280
     1
270
     1
271
     1
  0
XRECORD
  5
2FB4
102
{ACAD_REACTORS
330
2FAE
102
}
330
2FAE
100
AcDbXrecord
280
     1
270
     1
271
     1
  0
XRECORD
  5
2FB1
102
{ACAD_REACTORS
330
2FAE
102
}
330
2FAE
100
AcDbXrecord
280
     1
270
     1
271
     1
  0
XRECORD
  5
3064
102
{ACAD_REACTORS
330
2FBE
102
}
330
2FBE
100
AcDbXrecord
280
     1
102
MATERIAL
148
0.0
149
0.0
149
0.0
 93
        0
 94
      127
282
     0
 72
     0
 77
     0
171
     0
175
     0
179
     0
273
     0
  0
XRECORD
  5
2FC0
102
{ACAD_REACTORS
330
2FBE
102
}
330
2FBE
100
AcDbXrecord
280
     1
270
     1
271
     1
  0
XRECORD
  5
2FBF
102
{ACAD_REACTORS
330
2FBE
102
}
330
2FBE
100
AcDbXrecord
280
     1
270
     1
271
     1
  0
XRECORD
  5
2FC3
102
{ACAD_REACTORS
330
2FBE
102
}
330
2FBE
100
AcDbXrecord
280
     1
270
     1
271
     1
  0
XRECORD
  5
2FC2
102
{ACAD_REACTORS
330
2FBE
102
}
330
2FBE
100
AcDbXrecord
280
     1
270
     1
271
     1
  0
XRECORD
  5
2FC4
102
{ACAD_REACTORS
330
2FBE
102
}
330
2FBE
100
AcDbXrecord
280
     1
270
     1
271
     1
  0
XRECORD
  5
2FC1
102
{ACAD_REACTORS
330
2FBE
102
}
330
2FBE
100
AcDbXrecord
280
     1
270
     1
271
     1
  0
CELLSTYLEMAP
  5
305B
102
{ACAD_REACTORS
330
305A
102
}
330
305A
100
AcDbCellStyleMap
 90
        3
300
CELLSTYLE
  1
TABLEFORMAT_BEGIN
 90
        5
170
     1
 91
        0
 92
    32768
 62
   257
 93
        1
300
CONTENTFORMAT
  1
CONTENTFORMAT_BEGIN
 90
        0
 91
        0
 92
      512
 93
        0
300

 40
0.0
140
1.0
 94
        5
 62
     0
340
BE8
144
0.25
309
CONTENTFORMAT_END
171
     0
 94
        0
309
TABLEFORMAT_END
  1
CELLSTYLE_BEGIN
 90
        1
 91
        1
300
_TITLE
309
CELLSTYLE_END
300
CELLSTYLE
  1
TABLEFORMAT_BEGIN
 90
        5
170
     1
 91
        0
 92
        0
 62
   257
 93
        1
300
CONTENTFORMAT
  1
CONTENTFORMAT_BEGIN
 90
        0
 91
        0
 92
      512
 93
        0
300

 40
0.0
140
1.0
 94
        5
 62
     0
340
BE8
144
0.18
309
CONTENTFORMAT_END
171
     0
 94
        0
309
TABLEFORMAT_END
  1
CELLSTYLE_BEGIN
 90
        2
 91
        1
300
_HEADER
309
CELLSTYLE_END
300
CELLSTYLE
  1
TABLEFORMAT_BEGIN
 90
        5
170
     1
 91
        0
 92
        0
 62
   257
 93
        1
300
CONTENTFORMAT
  1
CONTENTFORMAT_BEGIN
 90
        0
 91
        0
 92
      512
 93
        0
300

 40
0.0
140
1.0
 94
        2
 62
     0
340
BE8
144
0.18
309
CONTENTFORMAT_END
171
     0
 94
        0
309
TABLEFORMAT_END
  1
CELLSTYLE_BEGIN
 90
        3
 91
        2
300
_DATA
309
CELLSTYLE_END
  0
XRECORD
  5
3095
102
{ACAD_REACTORS
330
305A
102
}
330
305A
100
AcDbXrecord
280
     1
102
ACAD_ROUNDTRIP_PRE2007_TABLESTYLE
 90
      512
 91
        0
  1

 92
      512
 93
        0
  2

 94
      512
 95
        0
  3

  0
XRECORD
  5
3070
102
{ACAD_REACTORS
330
306F
102
}
330
306F
100
AcDbXrecord
280
     1
102
RTVSPost2010Prop28
280
     1
102
RTVSPost2010PropOp28
 70
     1
102
RTVSPost2010Prop29
280
     1
102
RTVSPost2010PropOp29
 70
     1
102
RTVSPost2010Prop30
280
     0
102
RTVSPost2010PropOp30
 70
     1
102
RTVSPost2010Prop31
280
     0
102
RTVSPost2010PropOp31
 70
     1
102
RTVSPost2010Prop32
280
     0
102
RTVSPost2010PropOp32
 70
     1
102
RTVSPost2010Prop33
280
     0
102
RTVSPost2010PropOp33
 70
     1
102
RTVSPost2010Prop34
280
     0
102
RTVSPost2010PropOp34
 70
     1
102
RTVSPost2010Prop35
280
     0
102
RTVSPost2010PropOp35
 70
     1
102
RTVSPost2010Prop36
280
     0
102
RTVSPost2010PropOp36
 70
     1
102
RTVSPost2010Prop37
 90
       50
102
RTVSPost2010PropOp37
 70
     1
102
RTVSPost2010Prop38
140
0.0
102
RTVSPost2010PropOp38
 70
     1
102
RTVSPost2010Prop39
140
1.0
102
RTVSPost2010PropOp39
 70
     1
102
RTVSPost2010Prop40
 90
        0
102
RTVSPost2010PropOp40
 70
     1
102
RTVSPost2010Prop41ColorIndex
 90
       18
102
RTVSPost2010Prop41ColorRGB
 90
        0
102
RTVSPost2010PropOp41
 70
     1
102
RTVSPost2010Prop42
 90
       50
102
RTVSPost2010PropOp42
 70
     1
102
RTVSPost2010Prop43
 90
        3
102
RTVSPost2010PropOp43
 70
     1
102
RTVSPost2010Prop44ColorIndex
 90
        5
102
RTVSPost2010Prop44ColorRGB
 90
      255
102
RTVSPost2010PropOp44
 70
     1
102
RTVSPost2010Prop45
280
     0
102
RTVSPost2010PropOp45
 70
     1
102
RTVSPost2010Prop46
 90
       50
102
RTVSPost2010PropOp46
 70
     1
102
RTVSPost2010Prop47
 90
       50
102
RTVSPost2010PropOp47
 70
     1
102
RTVSPost2010Prop48
 90
       50
102
RTVSPost2010PropOp48
 70
     1
102
RTVSPost2010Prop49
280
     0
102
RTVSPost2010PropOp49
 70
     1
102
RTVSPost2010Prop50
 90
       50
102
RTVSPost2010PropOp50
 70
     1
102
RTVSPost2010Prop51ColorIndex
 90
      256
102
RTVSPost2010Prop51ColorRGB
 90
-16777216
102
RTVSPost2010PropOp51
 70
     0
102
RTVSPost2010Prop52
140
1.0
102
RTVSPost2010PropOp52
 70
     0
102
RTVSPost2010Prop53
 90
        2
102
RTVSPost2010PropOp53
 70
     1
102
RTVSPost2010Prop54
  1
strokes_ogs.tif
102
RTVSPost2010PropOp54
 70
     1
102
RTVSPost2010Prop55
280
     0
102
RTVSPost2010PropOp55
 70
     1
102
RTVSPost2010Prop56
140
1.0
102
RTVSPost2010PropOp56
 70
     1
102
RTVSPost2010Prop57
140
1.0
102
RTVSPost2010PropOp57
 70
     1
102
RTVSPropertyOp0
 70
     1
102
RTVSPropertyOp1
 70
     1
102
RTVSPropertyOp2
 70
     1
102
RTVSPropertyOp3
 70
     1
102
RTVSPropertyOp4
 70
     1
102
RTVSPropertyOp5
 70
     1
102
RTVSPropertyOp6
 70
     1
102
RTVSPropertyOp7
 70
     1
102
RTVSPropertyOp8
 70
     1
102
RTVSPropertyOp9
 70
     1
102
RTVSPropertyOp10
 70
     1
102
RTVSPropertyOp11
 70
     1
102
RTVSPropertyOp12
 70
     1
102
RTVSPropertyOp13
 70
     1
102
RTVSPropertyOp14
 70
     1
102
RTVSPropertyOp15
 70
     1
102
RTVSPropertyOp16
 70
     1
102
RTVSPropertyOp17
 70
     1
102
RTVSPropertyOp18
 70
     1
102
RTVSPropertyOp19
 70
     1
102
RTVSPropertyOp20
 70
     1
102
RTVSPropertyOp21
 70
     1
102
RTVSPropertyOp22
 70
     1
102
RTVSPropertyOp23
 70
     1
102
RTVSPropertyOp24
 70
     1
102
RTVSPropertyOp25
 70
     1
102
RTVSPropertyOp26
 70
     1
102
RTVSPropertyOp27
 70
     1
102
RTVSPropertyOp28
 70
     1
102
RTVSPropertyOp29
 70
     1
102
RTVSPropertyOp30
 70
     1
102
RTVSPropertyOp31
 70
     1
102
RTVSPropertyOp32
 70
     1
102
RTVSPropertyOp33
 70
     1
102
RTVSPropertyOp34
 70
     1
102
RTVSPropertyOp35
 70
     1
102
RTVSPropertyOp36
 70
     1
102
RTVSPropertyOp37
 70
     1
102
RTVSPropertyOp38
 70
     1
102
RTVSPropertyOp39
 70
     1
102
RTVSPropertyOp40
 70
     1
102
RTVSPropertyOp41
 70
     1
102
RTVSPropertyOp42
 70
     1
102
RTVSPropertyOp43
 70
     1
102
RTVSPropertyOp44
 70
     1
102
RTVSPropertyOp45
 70
     1
102
RTVSPropertyOp46
 70
     1
102
RTVSPropertyOp47
 70
     1
102
RTVSPropertyOp48
 70
     1
102
RTVSPropertyOp49
 70
     1
102
RTVSPropertyOp50
 70
     1
102
RTVSPropertyOp51
 70
     0
102
RTVSPropertyOp52
 70
     0
102
RTVSPropertyOp53
 70
     1
102
RTVSPropertyOp54
 70
     1
102
RTVSPropertyOp55
 70
     1
102
RTVSPropertyOp56
 70
     1
102
RTVSPropertyOp57
 70
     1
102
RTVSPropertyOp58
 70
     1
102
RTVSPropertyOp59
 70
     1
102
RTVSPropertyOp60
 70
     1
102
RTVSPropertyOp61
 70
     1
102
RTVSPropertyOp62
 70
     1
  0
XRECORD
  5
306E
102
{ACAD_REACTORS
330
306D
102
}
330
306D
100
AcDbXrecord
280
     1
102
RTVSPost2010Prop28
280
     0
102
RTVSPost2010PropOp28
 70
     1
102
RTVSPost2010Prop29
280
     1
102
RTVSPost2010PropOp29
 70
     1
102
RTVSPost2010Prop30
280
     1
102
RTVSPost2010PropOp30
 70
     1
102
RTVSPost2010Prop31
280
     0
102
RTVSPost2010PropOp31
 70
     1
102
RTVSPost2010Prop32
280
     0
102
RTVSPost2010PropOp32
 70
     1
102
RTVSPost2010Prop33
280
     0
102
RTVSPost2010PropOp33
 70
     1
102
RTVSPost2010Prop34
280
     0
102
RTVSPost2010PropOp34
 70
     1
102
RTVSPost2010Prop35
280
     0
102
RTVSPost2010PropOp35
 70
     1
102
RTVSPost2010Prop36
280
     0
102
RTVSPost2010PropOp36
 70
     1
102
RTVSPost2010Prop37
 90
       50
102
RTVSPost2010PropOp37
 70
     1
102
RTVSPost2010Prop38
140
0.0
102
RTVSPost2010PropOp38
 70
     1
102
RTVSPost2010Prop39
140
1.0
102
RTVSPost2010PropOp39
 70
     1
102
RTVSPost2010Prop40
 90
        0
102
RTVSPost2010PropOp40
 70
     1
102
RTVSPost2010Prop41ColorIndex
 90
       18
102
RTVSPost2010Prop41ColorRGB
 90
        0
102
RTVSPost2010PropOp41
 70
     1
102
RTVSPost2010Prop42
 90
       50
102
RTVSPost2010PropOp42
 70
     1
102
RTVSPost2010Prop43
 90
        3
102
RTVSPost2010PropOp43
 70
     1
102
RTVSPost2010Prop44ColorIndex
 90
        5
102
RTVSPost2010Prop44ColorRGB
 90
      255
102
RTVSPost2010PropOp44
 70
     1
102
RTVSPost2010Prop45
280
     0
102
RTVSPost2010PropOp45
 70
     1
102
RTVSPost2010Prop46
 90
       50
102
RTVSPost2010PropOp46
 70
     1
102
RTVSPost2010Prop47
 90
       50
102
RTVSPost2010PropOp47
 70
     1
102
RTVSPost2010Prop48
 90
       50
102
RTVSPost2010PropOp48
 70
     1
102
RTVSPost2010Prop49
280
     0
102
RTVSPost2010PropOp49
 70
     1
102
RTVSPost2010Prop50
 90
       50
102
RTVSPost2010PropOp50
 70
     1
102
RTVSPost2010Prop51ColorIndex
 90
      256
102
RTVSPost2010Prop51ColorRGB
 90
-16777216
102
RTVSPost2010PropOp51
 70
     0
102
RTVSPost2010Prop52
140
1.0
102
RTVSPost2010PropOp52
 70
     0
102
RTVSPost2010Prop53
 90
        2
102
RTVSPost2010PropOp53
 70
     1
102
RTVSPost2010Prop54
  1
strokes_ogs.tif
102
RTVSPost2010PropOp54
 70
     1
102
RTVSPost2010Prop55
280
     0
102
RTVSPost2010PropOp55
 70
     1
102
RTVSPost2010Prop56
140
1.0
102
RTVSPost2010PropOp56
 70
     1
102
RTVSPost2010Prop57
140
1.0
102
RTVSPost2010PropOp57
 70
     1
102
RTVSPropertyOp0
 70
     1
102
RTVSPropertyOp1
 70
     1
102
RTVSPropertyOp2
 70
     1
102
RTVSPropertyOp3
 70
     1
102
RTVSPropertyOp4
 70
     1
102
RTVSPropertyOp5
 70
     1
102
RTVSPropertyOp6
 70
     1
102
RTVSPropertyOp7
 70
     1
102
RTVSPropertyOp8
 70
     1
102
RTVSPropertyOp9
 70
     1
102
RTVSPropertyOp10
 70
     1
102
RTVSPropertyOp11
 70
     1
102
RTVSPropertyOp12
 70
     1
102
RTVSPropertyOp13
 70
     1
102
RTVSPropertyOp14
 70
     1
102
RTVSPropertyOp15
 70
     1
102
RTVSPropertyOp16
 70
     1
102
RTVSPropertyOp17
 70
     1
102
RTVSPropertyOp18
 70
     1
102
RTVSPropertyOp19
 70
     1
102
RTVSPropertyOp20
 70
     1
102
RTVSPropertyOp21
 70
     1
102
RTVSPropertyOp22
 70
     1
102
RTVSPropertyOp23
 70
     1
102
RTVSPropertyOp24
 70
     1
102
RTVSPropertyOp25
 70
     1
102
RTVSPropertyOp26
 70
     1
102
RTVSPropertyOp27
 70
     1
102
RTVSPropertyOp28
 70
     1
102
RTVSPropertyOp29
 70
     1
102
RTVSPropertyOp30
 70
     1
102
RTVSPropertyOp31
 70
     1
102
RTVSPropertyOp32
 70
     1
102
RTVSPropertyOp33
 70
     1
102
RTVSPropertyOp34
 70
     1
102
RTVSPropertyOp35
 70
     1
102
RTVSPropertyOp36
 70
     1
102
RTVSPropertyOp37
 70
     1
102
RTVSPropertyOp38
 70
     1
102
RTVSPropertyOp39
 70
     1
102
RTVSPropertyOp40
 70
     1
102
RTVSPropertyOp41
 70
     1
102
RTVSPropertyOp42
 70
     1
102
RTVSPropertyOp43
 70
     1
102
RTVSPropertyOp44
 70
     1
102
RTVSPropertyOp45
 70
     1
102
RTVSPropertyOp46
 70
     1
102
RTVSPropertyOp47
 70
     1
102
RTVSPropertyOp48
 70
     1
102
RTVSPropertyOp49
 70
     1
102
RTVSPropertyOp50
 70
     1
102
RTVSPropertyOp51
 70
     0
102
RTVSPropertyOp52
 70
     0
102
RTVSPropertyOp53
 70
     1
102
RTVSPropertyOp54
 70
     1
102
RTVSPropertyOp55
 70
     1
102
RTVSPropertyOp56
 70
     1
102
RTVSPropertyOp57
 70
     1
102
RTVSPropertyOp58
 70
     1
102
RTVSPropertyOp59
 70
     1
102
RTVSPropertyOp60
 70
     1
102
RTVSPropertyOp61
 70
     1
102
RTVSPropertyOp62
 70
     1
  0
XRECORD
  5
307C
102
{ACAD_REACTORS
330
307B
102
}
330
307B
100
AcDbXrecord
280
     1
102
RTVSPost2010Prop28
280
     0
102
RTVSPost2010PropOp28
 70
     1
102
RTVSPost2010Prop29
280
     1
102
RTVSPost2010PropOp29
 70
     1
102
RTVSPost2010Prop30
280
     1
102
RTVSPost2010PropOp30
 70
     1
102
RTVSPost2010Prop31
280
     0
102
RTVSPost2010PropOp31
 70
     1
102
RTVSPost2010Prop32
280
     0
102
RTVSPost2010PropOp32
 70
     1
102
RTVSPost2010Prop33
280
     0
102
RTVSPost2010PropOp33
 70
     1
102
RTVSPost2010Prop34
280
     0
102
RTVSPost2010PropOp34
 70
     1
102
RTVSPost2010Prop35
280
     0
102
RTVSPost2010PropOp35
 70
     1
102
RTVSPost2010Prop36
280
     0
102
RTVSPost2010PropOp36
 70
     1
102
RTVSPost2010Prop37
 90
       50
102
RTVSPost2010PropOp37
 70
     1
102
RTVSPost2010Prop38
140
0.0
102
RTVSPost2010PropOp38
 70
     1
102
RTVSPost2010Prop39
140
1.0
102
RTVSPost2010PropOp39
 70
     1
102
RTVSPost2010Prop40
 90
        0
102
RTVSPost2010PropOp40
 70
     1
102
RTVSPost2010Prop41ColorIndex
 90
       18
102
RTVSPost2010Prop41ColorRGB
 90
        0
102
RTVSPost2010PropOp41
 70
     1
102
RTVSPost2010Prop42
 90
       50
102
RTVSPost2010PropOp42
 70
     1
102
RTVSPost2010Prop43
 90
        3
102
RTVSPost2010PropOp43
 70
     1
102
RTVSPost2010Prop44ColorIndex
 90
        5
102
RTVSPost2010Prop44ColorRGB
 90
      255
102
RTVSPost2010PropOp44
 70
     1
102
RTVSPost2010Prop45
280
     0
102
RTVSPost2010PropOp45
 70
     1
102
RTVSPost2010Prop46
 90
       50
102
RTVSPost2010PropOp46
 70
     1
102
RTVSPost2010Prop47
 90
       50
102
RTVSPost2010PropOp47
 70
     1
102
RTVSPost2010Prop48
 90
       50
102
RTVSPost2010PropOp48
 70
     1
102
RTVSPost2010Prop49
280
     0
102
RTVSPost2010PropOp49
 70
     1
102
RTVSPost2010Prop50
 90
       50
102
RTVSPost2010PropOp50
 70
     1
102
RTVSPost2010Prop51ColorIndex
 90
      256
102
RTVSPost2010Prop51ColorRGB
 90
-16777216
102
RTVSPost2010PropOp51
 70
     0
102
RTVSPost2010Prop52
140
1.0
102
RTVSPost2010PropOp52
 70
     0
102
RTVSPost2010Prop53
 90
        2
102
RTVSPost2010PropOp53
 70
     1
102
RTVSPost2010Prop54
  1
strokes_ogs.tif
102
RTVSPost2010PropOp54
 70
     1
102
RTVSPost2010Prop55
280
     0
102
RTVSPost2010PropOp55
 70
     1
102
RTVSPost2010Prop56
140
1.0
102
RTVSPost2010PropOp56
 70
     1
102
RTVSPost2010Prop57
140
1.0
102
RTVSPost2010PropOp57
 70
     1
102
RTVSPropertyOp0
 70
     1
102
RTVSPropertyOp1
 70
     1
102
RTVSPropertyOp2
 70
     1
102
RTVSPropertyOp3
 70
     1
102
RTVSPropertyOp4
 70
     1
102
RTVSPropertyOp5
 70
     1
102
RTVSPropertyOp6
 70
     1
102
RTVSPropertyOp7
 70
     1
102
RTVSPropertyOp8
 70
     1
102
RTVSPropertyOp9
 70
     1
102
RTVSPropertyOp10
 70
     1
102
RTVSPropertyOp11
 70
     1
102
RTVSPropertyOp12
 70
     1
102
RTVSPropertyOp13
 70
     1
102
RTVSPropertyOp14
 70
     1
102
RTVSPropertyOp15
 70
     1
102
RTVSPropertyOp16
 70
     1
102
RTVSPropertyOp17
 70
     1
102
RTVSPropertyOp18
 70
     1
102
RTVSPropertyOp19
 70
     1
102
RTVSPropertyOp20
 70
     1
102
RTVSPropertyOp21
 70
     1
102
RTVSPropertyOp22
 70
     1
102
RTVSPropertyOp23
 70
     1
102
RTVSPropertyOp24
 70
     1
102
RTVSPropertyOp25
 70
     1
102
RTVSPropertyOp26
 70
     1
102
RTVSPropertyOp27
 70
     1
102
RTVSPropertyOp28
 70
     1
102
RTVSPropertyOp29
 70
     1
102
RTVSPropertyOp30
 70
     1
102
RTVSPropertyOp31
 70
     1
102
RTVSPropertyOp32
 70
     1
102
RTVSPropertyOp33
 70
     1
102
RTVSPropertyOp34
 70
     1
102
RTVSPropertyOp35
 70
     1
102
RTVSPropertyOp36
 70
     1
102
RTVSPropertyOp37
 70
     1
102
RTVSPropertyOp38
 70
     1
102
RTVSPropertyOp39
 70
     1
102
RTVSPropertyOp40
 70
     1
102
RTVSPropertyOp41
 70
     1
102
RTVSPropertyOp42
 70
     1
102
RTVSPropertyOp43
 70
     1
102
RTVSPropertyOp44
 70
     1
102
RTVSPropertyOp45
 70
     1
102
RTVSPropertyOp46
 70
     1
102
RTVSPropertyOp47
 70
     1
102
RTVSPropertyOp48
 70
     1
102
RTVSPropertyOp49
 70
     1
102
RTVSPropertyOp50
 70
     1
102
RTVSPropertyOp51
 70
     0
102
RTVSPropertyOp52
 70
     0
102
RTVSPropertyOp53
 70
     1
102
RTVSPropertyOp54
 70
     1
102
RTVSPropertyOp55
 70
     1
102
RTVSPropertyOp56
 70
     1
102
RTVSPropertyOp57
 70
     1
102
RTVSPropertyOp58
 70
     1
102
RTVSPropertyOp59
 70
     1
102
RTVSPropertyOp60
 70
     1
102
RTVSPropertyOp61
 70
     1
102
RTVSPropertyOp62
 70
     1
  0
XRECORD
  5
3084
102
{ACAD_REACTORS
330
3083
102
}
330
3083
100
AcDbXrecord
280
     1
102
RTVSPost2010Prop28
280
     0
102
RTVSPost2010PropOp28
 70
     1
102
RTVSPost2010Prop29
280
     1
102
RTVSPost2010PropOp29
 70
     1
102
RTVSPost2010Prop30
280
     1
102
RTVSPost2010PropOp30
 70
     1
102
RTVSPost2010Prop31
280
     0
102
RTVSPost2010PropOp31
 70
     1
102
RTVSPost2010Prop32
280
     0
102
RTVSPost2010PropOp32
 70
     1
102
RTVSPost2010Prop33
280
     0
102
RTVSPost2010PropOp33
 70
     1
102
RTVSPost2010Prop34
280
     0
102
RTVSPost2010PropOp34
 70
     1
102
RTVSPost2010Prop35
280
     0
102
RTVSPost2010PropOp35
 70
     1
102
RTVSPost2010Prop36
280
     0
102
RTVSPost2010PropOp36
 70
     1
102
RTVSPost2010Prop37
 90
       50
102
RTVSPost2010PropOp37
 70
     1
102
RTVSPost2010Prop38
140
0.0
102
RTVSPost2010PropOp38
 70
     1
102
RTVSPost2010Prop39
140
1.0
102
RTVSPost2010PropOp39
 70
     1
102
RTVSPost2010Prop40
 90
        0
102
RTVSPost2010PropOp40
 70
     1
102
RTVSPost2010Prop41ColorIndex
 90
       18
102
RTVSPost2010Prop41ColorRGB
 90
        0
102
RTVSPost2010PropOp41
 70
     1
102
RTVSPost2010Prop42
 90
       50
102
RTVSPost2010PropOp42
 70
     1
102
RTVSPost2010Prop43
 90
        3
102
RTVSPost2010PropOp43
 70
     1
102
RTVSPost2010Prop44ColorIndex
 90
        5
102
RTVSPost2010Prop44ColorRGB
 90
      255
102
RTVSPost2010PropOp44
 70
     1
102
RTVSPost2010Prop45
280
     0
102
RTVSPost2010PropOp45
 70
     1
102
RTVSPost2010Prop46
 90
       50
102
RTVSPost2010PropOp46
 70
     1
102
RTVSPost2010Prop47
 90
       50
102
RTVSPost2010PropOp47
 70
     1
102
RTVSPost2010Prop48
 90
       50
102
RTVSPost2010PropOp48
 70
     1
102
RTVSPost2010Prop49
280
     0
102
RTVSPost2010PropOp49
 70
     1
102
RTVSPost2010Prop50
 90
       50
102
RTVSPost2010PropOp50
 70
     1
102
RTVSPost2010Prop51ColorIndex
 90
      256
102
RTVSPost2010Prop51ColorRGB
 90
-16777216
102
RTVSPost2010PropOp51
 70
     0
102
RTVSPost2010Prop52
140
1.0
102
RTVSPost2010PropOp52
 70
     0
102
RTVSPost2010Prop53
 90
        2
102
RTVSPost2010PropOp53
 70
     1
102
RTVSPost2010Prop54
  1
strokes_ogs.tif
102
RTVSPost2010PropOp54
 70
     1
102
RTVSPost2010Prop55
280
     0
102
RTVSPost2010PropOp55
 70
     1
102
RTVSPost2010Prop56
140
1.0
102
RTVSPost2010PropOp56
 70
     1
102
RTVSPost2010Prop57
140
1.0
102
RTVSPost2010PropOp57
 70
     1
102
RTVSPropertyOp0
 70
     1
102
RTVSPropertyOp1
 70
     1
102
RTVSPropertyOp2
 70
     1
102
RTVSPropertyOp3
 70
     1
102
RTVSPropertyOp4
 70
     1
102
RTVSPropertyOp5
 70
     1
102
RTVSPropertyOp6
 70
     1
102
RTVSPropertyOp7
 70
     1
102
RTVSPropertyOp8
 70
     1
102
RTVSPropertyOp9
 70
     1
102
RTVSPropertyOp10
 70
     1
102
RTVSPropertyOp11
 70
     1
102
RTVSPropertyOp12
 70
     1
102
RTVSPropertyOp13
 70
     1
102
RTVSPropertyOp14
 70
     1
102
RTVSPropertyOp15
 70
     1
102
RTVSPropertyOp16
 70
     1
102
RTVSPropertyOp17
 70
     1
102
RTVSPropertyOp18
 70
     1
102
RTVSPropertyOp19
 70
     1
102
RTVSPropertyOp20
 70
     1
102
RTVSPropertyOp21
 70
     1
102
RTVSPropertyOp22
 70
     1
102
RTVSPropertyOp23
 70
     1
102
RTVSPropertyOp24
 70
     1
102
RTVSPropertyOp25
 70
     1
102
RTVSPropertyOp26
 70
     1
102
RTVSPropertyOp27
 70
     1
102
RTVSPropertyOp28
 70
     1
102
RTVSPropertyOp29
 70
     1
102
RTVSPropertyOp30
 70
     1
102
RTVSPropertyOp31
 70
     1
102
RTVSPropertyOp32
 70
     1
102
RTVSPropertyOp33
 70
     1
102
RTVSPropertyOp34
 70
     1
102
RTVSPropertyOp35
 70
     1
102
RTVSPropertyOp36
 70
     1
102
RTVSPropertyOp37
 70
     1
102
RTVSPropertyOp38
 70
     1
102
RTVSPropertyOp39
 70
     1
102
RTVSPropertyOp40
 70
     1
102
RTVSPropertyOp41
 70
     1
102
RTVSPropertyOp42
 70
     1
102
RTVSPropertyOp43
 70
     1
102
RTVSPropertyOp44
 70
     1
102
RTVSPropertyOp45
 70
     1
102
RTVSPropertyOp46
 70
     1
102
RTVSPropertyOp47
 70
     1
102
RTVSPropertyOp48
 70
     1
102
RTVSPropertyOp49
 70
     1
102
RTVSPropertyOp50
 70
     1
102
RTVSPropertyOp51
 70
     0
102
RTVSPropertyOp52
 70
     0
102
RTVSPropertyOp53
 70
     1
102
RTVSPropertyOp54
 70
     1
102
RTVSPropertyOp55
 70
     1
102
RTVSPropertyOp56
 70
     1
102
RTVSPropertyOp57
 70
     1
102
RTVSPropertyOp58
 70
     1
102
RTVSPropertyOp59
 70
     1
102
RTVSPropertyOp60
 70
     1
102
RTVSPropertyOp61
 70
     1
102
RTVSPropertyOp62
 70
     1
  0
XRECORD
  5
3076
102
{ACAD_REACTORS
330
3075
102
}
330
3075
100
AcDbXrecord
280
     1
102
RTVSPost2010Prop28
280
     0
102
RTVSPost2010PropOp28
 70
     1
102
RTVSPost2010Prop29
280
     1
102
RTVSPost2010PropOp29
 70
     1
102
RTVSPost2010Prop30
280
     1
102
RTVSPost2010PropOp30
 70
     1
102
RTVSPost2010Prop31
280
     0
102
RTVSPost2010PropOp31
 70
     1
102
RTVSPost2010Prop32
280
     0
102
RTVSPost2010PropOp32
 70
     1
102
RTVSPost2010Prop33
280
     0
102
RTVSPost2010PropOp33
 70
     1
102
RTVSPost2010Prop34
280
     0
102
RTVSPost2010PropOp34
 70
     1
102
RTVSPost2010Prop35
280
     0
102
RTVSPost2010PropOp35
 70
     1
102
RTVSPost2010Prop36
280
     0
102
RTVSPost2010PropOp36
 70
     1
102
RTVSPost2010Prop37
 90
       50
102
RTVSPost2010PropOp37
 70
     1
102
RTVSPost2010Prop38
140
0.0
102
RTVSPost2010PropOp38
 70
     1
102
RTVSPost2010Prop39
140
1.0
102
RTVSPost2010PropOp39
 70
     1
102
RTVSPost2010Prop40
 90
        0
102
RTVSPost2010PropOp40
 70
     1
102
RTVSPost2010Prop41ColorIndex
 90
       18
102
RTVSPost2010Prop41ColorRGB
 90
        0
102
RTVSPost2010PropOp41
 70
     1
102
RTVSPost2010Prop42
 90
       50
102
RTVSPost2010PropOp42
 70
     1
102
RTVSPost2010Prop43
 90
        3
102
RTVSPost2010PropOp43
 70
     1
102
RTVSPost2010Prop44ColorIndex
 90
        5
102
RTVSPost2010Prop44ColorRGB
 90
      255
102
RTVSPost2010PropOp44
 70
     1
102
RTVSPost2010Prop45
280
     0
102
RTVSPost2010PropOp45
 70
     1
102
RTVSPost2010Prop46
 90
       50
102
RTVSPost2010PropOp46
 70
     1
102
RTVSPost2010Prop47
 90
       50
102
RTVSPost2010PropOp47
 70
     1
102
RTVSPost2010Prop48
 90
       50
102
RTVSPost2010PropOp48
 70
     1
102
RTVSPost2010Prop49
280
     0
102
RTVSPost2010PropOp49
 70
     1
102
RTVSPost2010Prop50
 90
       50
102
RTVSPost2010PropOp50
 70
     1
102
RTVSPost2010Prop51ColorIndex
 90
      256
102
RTVSPost2010Prop51ColorRGB
 90
-16777216
102
RTVSPost2010PropOp51
 70
     0
102
RTVSPost2010Prop52
140
1.0
102
RTVSPost2010PropOp52
 70
     0
102
RTVSPost2010Prop53
 90
        2
102
RTVSPost2010PropOp53
 70
     1
102
RTVSPost2010Prop54
  1
strokes_ogs.tif
102
RTVSPost2010PropOp54
 70
     1
102
RTVSPost2010Prop55
280
     0
102
RTVSPost2010PropOp55
 70
     1
102
RTVSPost2010Prop56
140
1.0
102
RTVSPost2010PropOp56
 70
     1
102
RTVSPost2010Prop57
140
1.0
102
RTVSPost2010PropOp57
 70
     1
102
RTVSPropertyOp0
 70
     1
102
RTVSPropertyOp1
 70
     1
102
RTVSPropertyOp2
 70
     1
102
RTVSPropertyOp3
 70
     1
102
RTVSPropertyOp4
 70
     1
102
RTVSPropertyOp5
 70
     1
102
RTVSPropertyOp6
 70
     1
102
RTVSPropertyOp7
 70
     1
102
RTVSPropertyOp8
 70
     1
102
RTVSPropertyOp9
 70
     1
102
RTVSPropertyOp10
 70
     1
102
RTVSPropertyOp11
 70
     1
102
RTVSPropertyOp12
 70
     1
102
RTVSPropertyOp13
 70
     1
102
RTVSPropertyOp14
 70
     1
102
RTVSPropertyOp15
 70
     1
102
RTVSPropertyOp16
 70
     1
102
RTVSPropertyOp17
 70
     1
102
RTVSPropertyOp18
 70
     1
102
RTVSPropertyOp19
 70
     1
102
RTVSPropertyOp20
 70
     1
102
RTVSPropertyOp21
 70
     1
102
RTVSPropertyOp22
 70
     1
102
RTVSPropertyOp23
 70
     1
102
RTVSPropertyOp24
 70
     1
102
RTVSPropertyOp25
 70
     1
102
RTVSPropertyOp26
 70
     1
102
RTVSPropertyOp27
 70
     1
102
RTVSPropertyOp28
 70
     1
102
RTVSPropertyOp29
 70
     1
102
RTVSPropertyOp30
 70
     1
102
RTVSPropertyOp31
 70
     1
102
RTVSPropertyOp32
 70
     1
102
RTVSPropertyOp33
 70
     1
102
RTVSPropertyOp34
 70
     1
102
RTVSPropertyOp35
 70
     1
102
RTVSPropertyOp36
 70
     1
102
RTVSPropertyOp37
 70
     1
102
RTVSPropertyOp38
 70
     1
102
RTVSPropertyOp39
 70
     1
102
RTVSPropertyOp40
 70
     1
102
RTVSPropertyOp41
 70
     1
102
RTVSPropertyOp42
 70
     1
102
RTVSPropertyOp43
 70
     1
102
RTVSPropertyOp44
 70
     1
102
RTVSPropertyOp45
 70
     1
102
RTVSPropertyOp46
 70
     1
102
RTVSPropertyOp47
 70
     1
102
RTVSPropertyOp48
 70
     1
102
RTVSPropertyOp49
 70
     1
102
RTVSPropertyOp50
 70
     1
102
RTVSPropertyOp51
 70
     0
102
RTVSPropertyOp52
 70
     0
102
RTVSPropertyOp53
 70
     1
102
RTVSPropertyOp54
 70
     1
102
RTVSPropertyOp55
 70
     1
102
RTVSPropertyOp56
 70
     1
102
RTVSPropertyOp57
 70
     1
102
RTVSPropertyOp58
 70
     1
102
RTVSPropertyOp59
 70
     1
102
RTVSPropertyOp60
 70
     1
102
RTVSPropertyOp61
 70
     1
102
RTVSPropertyOp62
 70
     1
  0
XRECORD
  5
307A
102
{ACAD_REACTORS
330
3079
102
}
330
3079
100
AcDbXrecord
280
     1
102
RTVSPost2010Prop28
280
     0
102
RTVSPost2010PropOp28
 70
     1
102
RTVSPost2010Prop29
280
     1
102
RTVSPost2010PropOp29
 70
     1
102
RTVSPost2010Prop30
280
     1
102
RTVSPost2010PropOp30
 70
     1
102
RTVSPost2010Prop31
280
     0
102
RTVSPost2010PropOp31
 70
     1
102
RTVSPost2010Prop32
280
     0
102
RTVSPost2010PropOp32
 70
     1
102
RTVSPost2010Prop33
280
     0
102
RTVSPost2010PropOp33
 70
     1
102
RTVSPost2010Prop34
280
     0
102
RTVSPost2010PropOp34
 70
     1
102
RTVSPost2010Prop35
280
     0
102
RTVSPost2010PropOp35
 70
     1
102
RTVSPost2010Prop36
280
     0
102
RTVSPost2010PropOp36
 70
     1
102
RTVSPost2010Prop37
 90
       50
102
RTVSPost2010PropOp37
 70
     1
102
RTVSPost2010Prop38
140
0.0
102
RTVSPost2010PropOp38
 70
     1
102
RTVSPost2010Prop39
140
1.0
102
RTVSPost2010PropOp39
 70
     1
102
RTVSPost2010Prop40
 90
        0
102
RTVSPost2010PropOp40
 70
     1
102
RTVSPost2010Prop41ColorIndex
 90
       18
102
RTVSPost2010Prop41ColorRGB
 90
        0
102
RTVSPost2010PropOp41
 70
     1
102
RTVSPost2010Prop42
 90
       50
102
RTVSPost2010PropOp42
 70
     1
102
RTVSPost2010Prop43
 90
        3
102
RTVSPost2010PropOp43
 70
     1
102
RTVSPost2010Prop44ColorIndex
 90
        5
102
RTVSPost2010Prop44ColorRGB
 90
      255
102
RTVSPost2010PropOp44
 70
     1
102
RTVSPost2010Prop45
280
     0
102
RTVSPost2010PropOp45
 70
     1
102
RTVSPost2010Prop46
 90
       50
102
RTVSPost2010PropOp46
 70
     1
102
RTVSPost2010Prop47
 90
       50
102
RTVSPost2010PropOp47
 70
     1
102
RTVSPost2010Prop48
 90
       50
102
RTVSPost2010PropOp48
 70
     1
102
RTVSPost2010Prop49
280
     0
102
RTVSPost2010PropOp49
 70
     1
102
RTVSPost2010Prop50
 90
       50
102
RTVSPost2010PropOp50
 70
     1
102
RTVSPost2010Prop51ColorIndex
 90
      256
102
RTVSPost2010Prop51ColorRGB
 90
-16777216
102
RTVSPost2010PropOp51
 70
     0
102
RTVSPost2010Prop52
140
1.0
102
RTVSPost2010PropOp52
 70
     0
102
RTVSPost2010Prop53
 90
        2
102
RTVSPost2010PropOp53
 70
     1
102
RTVSPost2010Prop54
  1
strokes_ogs.tif
102
RTVSPost2010PropOp54
 70
     1
102
RTVSPost2010Prop55
280
     0
102
RTVSPost2010PropOp55
 70
     1
102
RTVSPost2010Prop56
140
1.0
102
RTVSPost2010PropOp56
 70
     1
102
RTVSPost2010Prop57
140
1.0
102
RTVSPost2010PropOp57
 70
     1
102
RTVSPropertyOp0
 70
     1
102
RTVSPropertyOp1
 70
     1
102
RTVSPropertyOp2
 70
     1
102
RTVSPropertyOp3
 70
     1
102
RTVSPropertyOp4
 70
     1
102
RTVSPropertyOp5
 70
     1
102
RTVSPropertyOp6
 70
     1
102
RTVSPropertyOp7
 70
     1
102
RTVSPropertyOp8
 70
     1
102
RTVSPropertyOp9
 70
     1
102
RTVSPropertyOp10
 70
     1
102
RTVSPropertyOp11
 70
     1
102
RTVSPropertyOp12
 70
     1
102
RTVSPropertyOp13
 70
     1
102
RTVSPropertyOp14
 70
     1
102
RTVSPropertyOp15
 70
     1
102
RTVSPropertyOp16
 70
     1
102
RTVSPropertyOp17
 70
     1
102
RTVSPropertyOp18
 70
     1
102
RTVSPropertyOp19
 70
     1
102
RTVSPropertyOp20
 70
     1
102
RTVSPropertyOp21
 70
     1
102
RTVSPropertyOp22
 70
     1
102
RTVSPropertyOp23
 70
     1
102
RTVSPropertyOp24
 70
     1
102
RTVSPropertyOp25
 70
     1
102
RTVSPropertyOp26
 70
     1
102
RTVSPropertyOp27
 70
     1
102
RTVSPropertyOp28
 70
     1
102
RTVSPropertyOp29
 70
     1
102
RTVSPropertyOp30
 70
     1
102
RTVSPropertyOp31
 70
     1
102
RTVSPropertyOp32
 70
     1
102
RTVSPropertyOp33
 70
     1
102
RTVSPropertyOp34
 70
     1
102
RTVSPropertyOp35
 70
     1
102
RTVSPropertyOp36
 70
     1
102
RTVSPropertyOp37
 70
     1
102
RTVSPropertyOp38
 70
     1
102
RTVSPropertyOp39
 70
     1
102
RTVSPropertyOp40
 70
     1
102
RTVSPropertyOp41
 70
     1
102
RTVSPropertyOp42
 70
     1
102
RTVSPropertyOp43
 70
     1
102
RTVSPropertyOp44
 70
     1
102
RTVSPropertyOp45
 70
     1
102
RTVSPropertyOp46
 70
     1
102
RTVSPropertyOp47
 70
     1
102
RTVSPropertyOp48
 70
     1
102
RTVSPropertyOp49
 70
     1
102
RTVSPropertyOp50
 70
     1
102
RTVSPropertyOp51
 70
     0
102
RTVSPropertyOp52
 70
     0
102
RTVSPropertyOp53
 70
     1
102
RTVSPropertyOp54
 70
     1
102
RTVSPropertyOp55
 70
     1
102
RTVSPropertyOp56
 70
     1
102
RTVSPropertyOp57
 70
     1
102
RTVSPropertyOp58
 70
     1
102
RTVSPropertyOp59
 70
     1
102
RTVSPropertyOp60
 70
     1
102
RTVSPropertyOp61
 70
     1
102
RTVSPropertyOp62
 70
     1
  0
XRECORD
  5
3094
102
{ACAD_REACTORS
330
3093
102
}
330
3093
100
AcDbXrecord
280
     1
102
RTVSPost2010Prop28
280
     0
102
RTVSPost2010PropOp28
 70
     1
102
RTVSPost2010Prop29
280
     1
102
RTVSPost2010PropOp29
 70
     1
102
RTVSPost2010Prop30
280
     1
102
RTVSPost2010PropOp30
 70
     1
102
RTVSPost2010Prop31
280
     0
102
RTVSPost2010PropOp31
 70
     1
102
RTVSPost2010Prop32
280
     0
102
RTVSPost2010PropOp32
 70
     1
102
RTVSPost2010Prop33
280
     0
102
RTVSPost2010PropOp33
 70
     1
102
RTVSPost2010Prop34
280
     0
102
RTVSPost2010PropOp34
 70
     1
102
RTVSPost2010Prop35
280
     0
102
RTVSPost2010PropOp35
 70
     1
102
RTVSPost2010Prop36
280
     0
102
RTVSPost2010PropOp36
 70
     1
102
RTVSPost2010Prop37
 90
       50
102
RTVSPost2010PropOp37
 70
     0
102
RTVSPost2010Prop38
140
0.0
102
RTVSPost2010PropOp38
 70
     0
102
RTVSPost2010Prop39
140
1.0
102
RTVSPost2010PropOp39
 70
     0
102
RTVSPost2010Prop40
 90
        0
102
RTVSPost2010PropOp40
 70
     0
102
RTVSPost2010Prop41ColorIndex
 90
       18
102
RTVSPost2010Prop41ColorRGB
 90
        0
102
RTVSPost2010PropOp41
 70
     0
102
RTVSPost2010Prop42
 90
       50
102
RTVSPost2010PropOp42
 70
     0
102
RTVSPost2010Prop43
 90
        3
102
RTVSPost2010PropOp43
 70
     0
102
RTVSPost2010Prop44ColorIndex
 90
        5
102
RTVSPost2010Prop44ColorRGB
 90
      255
102
RTVSPost2010PropOp44
 70
     0
102
RTVSPost2010Prop45
280
     0
102
RTVSPost2010PropOp45
 70
     1
102
RTVSPost2010Prop46
 90
       50
102
RTVSPost2010PropOp46
 70
     0
102
RTVSPost2010Prop47
 90
       50
102
RTVSPost2010PropOp47
 70
     0
102
RTVSPost2010Prop48
 90
       50
102
RTVSPost2010PropOp48
 70
     0
102
RTVSPost2010Prop49
280
     0
102
RTVSPost2010PropOp49
 70
     1
102
RTVSPost2010Prop50
 90
       50
102
RTVSPost2010PropOp50
 70
     0
102
RTVSPost2010Prop51ColorIndex
 90
      256
102
RTVSPost2010Prop51ColorRGB
 90
-16777216
102
RTVSPost2010PropOp51
 70
     0
102
RTVSPost2010Prop52
140
1.0
102
RTVSPost2010PropOp52
 70
     0
102
RTVSPost2010Prop53
 90
        2
102
RTVSPost2010PropOp53
 70
     0
102
RTVSPost2010Prop54
  1
strokes_ogs.tif
102
RTVSPost2010PropOp54
 70
     0
102
RTVSPost2010Prop55
280
     0
102
RTVSPost2010PropOp55
 70
     1
102
RTVSPost2010Prop56
140
1.0
102
RTVSPost2010PropOp56
 70
     0
102
RTVSPost2010Prop57
140
1.0
102
RTVSPost2010PropOp57
 70
     0
102
RTVSPropertyOp0
 70
     0
102
RTVSPropertyOp1
 70
     0
102
RTVSPropertyOp2
 70
     0
102
RTVSPropertyOp3
 70
     0
102
RTVSPropertyOp4
 70
     0
102
RTVSPropertyOp5
 70
     0
102
RTVSPropertyOp6
 70
     0
102
RTVSPropertyOp7
 70
     0
102
RTVSPropertyOp8
 70
     0
102
RTVSPropertyOp9
 70
     0
102
RTVSPropertyOp10
 70
     0
102
RTVSPropertyOp11
 70
     0
102
RTVSPropertyOp12
 70
     0
102
RTVSPropertyOp13
 70
     0
102
RTVSPropertyOp14
 70
     2
102
RTVSPropertyOp15
 70
     0
102
RTVSPropertyOp16
 70
     0
102
RTVSPropertyOp17
 70
     0
102
RTVSPropertyOp18
 70
     0
102
RTVSPropertyOp19
 70
     0
102
RTVSPropertyOp20
 70
     0
102
RTVSPropertyOp21
 70
     0
102
RTVSPropertyOp22
 70
     0
102
RTVSPropertyOp23
 70
     0
102
RTVSPropertyOp24
 70
     0
102
RTVSPropertyOp25
 70
     0
102
RTVSPropertyOp26
 70
     0
102
RTVSPropertyOp27
 70
     0
102
RTVSPropertyOp28
 70
     1
102
RTVSPropertyOp29
 70
     1
102
RTVSPropertyOp30
 70
     1
102
RTVSPropertyOp31
 70
     1
102
RTVSPropertyOp32
 70
     1
102
RTVSPropertyOp33
 70
     1
102
RTVSPropertyOp34
 70
     1
102
RTVSPropertyOp35
 70
     1
102
RTVSPropertyOp36
 70
     1
102
RTVSPropertyOp37
 70
     0
102
RTVSPropertyOp38
 70
     0
102
RTVSPropertyOp39
 70
     0
102
RTVSPropertyOp40
 70
     0
102
RTVSPropertyOp41
 70
     0
102
RTVSPropertyOp42
 70
     0
102
RTVSPropertyOp43
 70
     0
102
RTVSPropertyOp44
 70
     0
102
RTVSPropertyOp45
 70
     1
102
RTVSPropertyOp46
 70
     0
102
RTVSPropertyOp47
 70
     0
102
RTVSPropertyOp48
 70
     0
102
RTVSPropertyOp49
 70
     1
102
RTVSPropertyOp50
 70
     0
102
RTVSPropertyOp51
 70
     0
102
RTVSPropertyOp52
 70
     0
102
RTVSPropertyOp53
 70
     0
102
RTVSPropertyOp54
 70
     0
102
RTVSPropertyOp55
 70
     1
102
RTVSPropertyOp56
 70
     0
102
RTVSPropertyOp57
 70
     0
102
RTVSPropertyOp58
 70
     0
102
RTVSPropertyOp59
 70
     0
102
RTVSPropertyOp60
 70
     0
102
RTVSPropertyOp61
 70
     0
102
RTVSPropertyOp62
 70
     0
  0
XRECORD
  5
3082
102
{ACAD_REACTORS
330
3081
102
}
330
3081
100
AcDbXrecord
280
     1
102
RTVSPost2010Prop28
280
     0
102
RTVSPost2010PropOp28
 70
     1
102
RTVSPost2010Prop29
280
     1
102
RTVSPost2010PropOp29
 70
     1
102
RTVSPost2010Prop30
280
     1
102
RTVSPost2010PropOp30
 70
     1
102
RTVSPost2010Prop31
280
     0
102
RTVSPost2010PropOp31
 70
     1
102
RTVSPost2010Prop32
280
     0
102
RTVSPost2010PropOp32
 70
     1
102
RTVSPost2010Prop33
280
     0
102
RTVSPost2010PropOp33
 70
     1
102
RTVSPost2010Prop34
280
     0
102
RTVSPost2010PropOp34
 70
     1
102
RTVSPost2010Prop35
280
     0
102
RTVSPost2010PropOp35
 70
     1
102
RTVSPost2010Prop36
280
     0
102
RTVSPost2010PropOp36
 70
     1
102
RTVSPost2010Prop37
 90
       50
102
RTVSPost2010PropOp37
 70
     1
102
RTVSPost2010Prop38
140
0.0
102
RTVSPost2010PropOp38
 70
     1
102
RTVSPost2010Prop39
140
1.0
102
RTVSPost2010PropOp39
 70
     1
102
RTVSPost2010Prop40
 90
        0
102
RTVSPost2010PropOp40
 70
     1
102
RTVSPost2010Prop41ColorIndex
 90
       18
102
RTVSPost2010Prop41ColorRGB
 90
        0
102
RTVSPost2010PropOp41
 70
     1
102
RTVSPost2010Prop42
 90
       50
102
RTVSPost2010PropOp42
 70
     1
102
RTVSPost2010Prop43
 90
        3
102
RTVSPost2010PropOp43
 70
     1
102
RTVSPost2010Prop44ColorIndex
 90
        5
102
RTVSPost2010Prop44ColorRGB
 90
      255
102
RTVSPost2010PropOp44
 70
     1
102
RTVSPost2010Prop45
280
     0
102
RTVSPost2010PropOp45
 70
     1
102
RTVSPost2010Prop46
 90
       50
102
RTVSPost2010PropOp46
 70
     1
102
RTVSPost2010Prop47
 90
       50
102
RTVSPost2010PropOp47
 70
     1
102
RTVSPost2010Prop48
 90
       50
102
RTVSPost2010PropOp48
 70
     1
102
RTVSPost2010Prop49
280
     0
102
RTVSPost2010PropOp49
 70
     1
102
RTVSPost2010Prop50
 90
       50
102
RTVSPost2010PropOp50
 70
     1
102
RTVSPost2010Prop51ColorIndex
 90
      256
102
RTVSPost2010Prop51ColorRGB
 90
-16777216
102
RTVSPost2010PropOp51
 70
     0
102
RTVSPost2010Prop52
140
1.0
102
RTVSPost2010PropOp52
 70
     0
102
RTVSPost2010Prop53
 90
        2
102
RTVSPost2010PropOp53
 70
     1
102
RTVSPost2010Prop54
  1
strokes_ogs.tif
102
RTVSPost2010PropOp54
 70
     1
102
RTVSPost2010Prop55
280
     0
102
RTVSPost2010PropOp55
 70
     1
102
RTVSPost2010Prop56
140
1.0
102
RTVSPost2010PropOp56
 70
     1
102
RTVSPost2010Prop57
140
1.0
102
RTVSPost2010PropOp57
 70
     1
102
RTVSPropertyOp0
 70
     1
102
RTVSPropertyOp1
 70
     1
102
RTVSPropertyOp2
 70
     1
102
RTVSPropertyOp3
 70
     1
102
RTVSPropertyOp4
 70
     1
102
RTVSPropertyOp5
 70
     1
102
RTVSPropertyOp6
 70
     1
102
RTVSPropertyOp7
 70
     1
102
RTVSPropertyOp8
 70
     1
102
RTVSPropertyOp9
 70
     1
102
RTVSPropertyOp10
 70
     1
102
RTVSPropertyOp11
 70
     1
102
RTVSPropertyOp12
 70
     1
102
RTVSPropertyOp13
 70
     1
102
RTVSPropertyOp14
 70
     1
102
RTVSPropertyOp15
 70
     1
102
RTVSPropertyOp16
 70
     1
102
RTVSPropertyOp17
 70
     1
102
RTVSPropertyOp18
 70
     1
102
RTVSPropertyOp19
 70
     1
102
RTVSPropertyOp20
 70
     1
102
RTVSPropertyOp21
 70
     1
102
RTVSPropertyOp22
 70
     1
102
RTVSPropertyOp23
 70
     1
102
RTVSPropertyOp24
 70
     1
102
RTVSPropertyOp25
 70
     1
102
RTVSPropertyOp26
 70
     1
102
RTVSPropertyOp27
 70
     1
102
RTVSPropertyOp28
 70
     1
102
RTVSPropertyOp29
 70
     1
102
RTVSPropertyOp30
 70
     1
102
RTVSPropertyOp31
 70
     1
102
RTVSPropertyOp32
 70
     1
102
RTVSPropertyOp33
 70
     1
102
RTVSPropertyOp34
 70
     1
102
RTVSPropertyOp35
 70
     1
102
RTVSPropertyOp36
 70
     1
102
RTVSPropertyOp37
 70
     1
102
RTVSPropertyOp38
 70
     1
102
RTVSPropertyOp39
 70
     1
102
RTVSPropertyOp40
 70
     1
102
RTVSPropertyOp41
 70
     1
102
RTVSPropertyOp42
 70
     1
102
RTVSPropertyOp43
 70
     1
102
RTVSPropertyOp44
 70
     1
102
RTVSPropertyOp45
 70
     1
102
RTVSPropertyOp46
 70
     1
102
RTVSPropertyOp47
 70
     1
102
RTVSPropertyOp48
 70
     1
102
RTVSPropertyOp49
 70
     1
102
RTVSPropertyOp50
 70
     1
102
RTVSPropertyOp51
 70
     0
102
RTVSPropertyOp52
 70
     0
102
RTVSPropertyOp53
 70
     1
102
RTVSPropertyOp54
 70
     1
102
RTVSPropertyOp55
 70
     1
102
RTVSPropertyOp56
 70
     1
102
RTVSPropertyOp57
 70
     1
102
RTVSPropertyOp58
 70
     1
102
RTVSPropertyOp59
 70
     1
102
RTVSPropertyOp60
 70
     1
102
RTVSPropertyOp61
 70
     1
102
RTVSPropertyOp62
 70
     1
  0
XRECORD
  5
3066
102
{ACAD_REACTORS
330
3065
102
}
330
3065
100
AcDbXrecord
280
     1
102
RTVSPost2010Prop28
280
     0
102
RTVSPost2010PropOp28
 70
     1
102
RTVSPost2010Prop29
280
     1
102
RTVSPost2010PropOp29
 70
     1
102
RTVSPost2010Prop30
280
     1
102
RTVSPost2010PropOp30
 70
     1
102
RTVSPost2010Prop31
280
     0
102
RTVSPost2010PropOp31
 70
     1
102
RTVSPost2010Prop32
280
     0
102
RTVSPost2010PropOp32
 70
     1
102
RTVSPost2010Prop33
280
     0
102
RTVSPost2010PropOp33
 70
     1
102
RTVSPost2010Prop34
280
     0
102
RTVSPost2010PropOp34
 70
     1
102
RTVSPost2010Prop35
280
     0
102
RTVSPost2010PropOp35
 70
     1
102
RTVSPost2010Prop36
280
     0
102
RTVSPost2010PropOp36
 70
     1
102
RTVSPost2010Prop37
 90
       50
102
RTVSPost2010PropOp37
 70
     1
102
RTVSPost2010Prop38
140
0.0
102
RTVSPost2010PropOp38
 70
     1
102
RTVSPost2010Prop39
140
1.0
102
RTVSPost2010PropOp39
 70
     1
102
RTVSPost2010Prop40
 90
        0
102
RTVSPost2010PropOp40
 70
     1
102
RTVSPost2010Prop41ColorIndex
 90
       18
102
RTVSPost2010Prop41ColorRGB
 90
        0
102
RTVSPost2010PropOp41
 70
     1
102
RTVSPost2010Prop42
 90
       50
102
RTVSPost2010PropOp42
 70
     1
102
RTVSPost2010Prop43
 90
        3
102
RTVSPost2010PropOp43
 70
     1
102
RTVSPost2010Prop44ColorIndex
 90
        5
102
RTVSPost2010Prop44ColorRGB
 90
      255
102
RTVSPost2010PropOp44
 70
     1
102
RTVSPost2010Prop45
280
     0
102
RTVSPost2010PropOp45
 70
     1
102
RTVSPost2010Prop46
 90
       50
102
RTVSPost2010PropOp46
 70
     1
102
RTVSPost2010Prop47
 90
       50
102
RTVSPost2010PropOp47
 70
     1
102
RTVSPost2010Prop48
 90
       50
102
RTVSPost2010PropOp48
 70
     1
102
RTVSPost2010Prop49
280
     0
102
RTVSPost2010PropOp49
 70
     1
102
RTVSPost2010Prop50
 90
       50
102
RTVSPost2010PropOp50
 70
     1
102
RTVSPost2010Prop51ColorIndex
 90
      256
102
RTVSPost2010Prop51ColorRGB
 90
-16777216
102
RTVSPost2010PropOp51
 70
     0
102
RTVSPost2010Prop52
140
1.0
102
RTVSPost2010PropOp52
 70
     0
102
RTVSPost2010Prop53
 90
        2
102
RTVSPost2010PropOp53
 70
     1
102
RTVSPost2010Prop54
  1
strokes_ogs.tif
102
RTVSPost2010PropOp54
 70
     1
102
RTVSPost2010Prop55
280
     0
102
RTVSPost2010PropOp55
 70
     1
102
RTVSPost2010Prop56
140
1.0
102
RTVSPost2010PropOp56
 70
     1
102
RTVSPost2010Prop57
140
1.0
102
RTVSPost2010PropOp57
 70
     1
102
RTVSPropertyOp0
 70
     1
102
RTVSPropertyOp1
 70
     1
102
RTVSPropertyOp2
 70
     1
102
RTVSPropertyOp3
 70
     1
102
RTVSPropertyOp4
 70
     1
102
RTVSPropertyOp5
 70
     1
102
RTVSPropertyOp6
 70
     1
102
RTVSPropertyOp7
 70
     1
102
RTVSPropertyOp8
 70
     1
102
RTVSPropertyOp9
 70
     1
102
RTVSPropertyOp10
 70
     1
102
RTVSPropertyOp11
 70
     1
102
RTVSPropertyOp12
 70
     1
102
RTVSPropertyOp13
 70
     1
102
RTVSPropertyOp14
 70
     1
102
RTVSPropertyOp15
 70
     1
102
RTVSPropertyOp16
 70
     1
102
RTVSPropertyOp17
 70
     1
102
RTVSPropertyOp18
 70
     1
102
RTVSPropertyOp19
 70
     1
102
RTVSPropertyOp20
 70
     1
102
RTVSPropertyOp21
 70
     1
102
RTVSPropertyOp22
 70
     1
102
RTVSPropertyOp23
 70
     1
102
RTVSPropertyOp24
 70
     1
102
RTVSPropertyOp25
 70
     1
102
RTVSPropertyOp26
 70
     1
102
RTVSPropertyOp27
 70
     1
102
RTVSPropertyOp28
 70
     1
102
RTVSPropertyOp29
 70
     1
102
RTVSPropertyOp30
 70
     1
102
RTVSPropertyOp31
 70
     1
102
RTVSPropertyOp32
 70
     1
102
RTVSPropertyOp33
 70
     1
102
RTVSPropertyOp34
 70
     1
102
RTVSPropertyOp35
 70
     1
102
RTVSPropertyOp36
 70
     1
102
RTVSPropertyOp37
 70
     1
102
RTVSPropertyOp38
 70
     1
102
RTVSPropertyOp39
 70
     1
102
RTVSPropertyOp40
 70
     1
102
RTVSPropertyOp41
 70
     1
102
RTVSPropertyOp42
 70
     1
102
RTVSPropertyOp43
 70
     1
102
RTVSPropertyOp44
 70
     1
102
RTVSPropertyOp45
 70
     1
102
RTVSPropertyOp46
 70
     1
102
RTVSPropertyOp47
 70
     1
102
RTVSPropertyOp48
 70
     1
102
RTVSPropertyOp49
 70
     1
102
RTVSPropertyOp50
 70
     1
102
RTVSPropertyOp51
 70
     0
102
RTVSPropertyOp52
 70
     0
102
RTVSPropertyOp53
 70
     1
102
RTVSPropertyOp54
 70
     1
102
RTVSPropertyOp55
 70
     1
102
RTVSPropertyOp56
 70
     1
102
RTVSPropertyOp57
 70
     1
102
RTVSPropertyOp58
 70
     1
102
RTVSPropertyOp59
 70
     1
102
RTVSPropertyOp60
 70
     1
102
RTVSPropertyOp61
 70
     1
102
RTVSPropertyOp62
 70
     1
  0
XRECORD
  5
3068
102
{ACAD_REACTORS
330
3067
102
}
330
3067
100
AcDbXrecord
280
     1
102
RTVSPost2010Prop28
280
     0
102
RTVSPost2010PropOp28
 70
     1
102
RTVSPost2010Prop29
280
     1
102
RTVSPost2010PropOp29
 70
     1
102
RTVSPost2010Prop30
280
     1
102
RTVSPost2010PropOp30
 70
     1
102
RTVSPost2010Prop31
280
     0
102
RTVSPost2010PropOp31
 70
     1
102
RTVSPost2010Prop32
280
     0
102
RTVSPost2010PropOp32
 70
     1
102
RTVSPost2010Prop33
280
     0
102
RTVSPost2010PropOp33
 70
     1
102
RTVSPost2010Prop34
280
     0
102
RTVSPost2010PropOp34
 70
     1
102
RTVSPost2010Prop35
280
     0
102
RTVSPost2010PropOp35
 70
     1
102
RTVSPost2010Prop36
280
     0
102
RTVSPost2010PropOp36
 70
     1
102
RTVSPost2010Prop37
 90
       50
102
RTVSPost2010PropOp37
 70
     1
102
RTVSPost2010Prop38
140
0.0
102
RTVSPost2010PropOp38
 70
     1
102
RTVSPost2010Prop39
140
1.0
102
RTVSPost2010PropOp39
 70
     1
102
RTVSPost2010Prop40
 90
        0
102
RTVSPost2010PropOp40
 70
     1
102
RTVSPost2010Prop41ColorIndex
 90
       18
102
RTVSPost2010Prop41ColorRGB
 90
        0
102
RTVSPost2010PropOp41
 70
     1
102
RTVSPost2010Prop42
 90
       50
102
RTVSPost2010PropOp42
 70
     1
102
RTVSPost2010Prop43
 90
        3
102
RTVSPost2010PropOp43
 70
     1
102
RTVSPost2010Prop44ColorIndex
 90
        5
102
RTVSPost2010Prop44ColorRGB
 90
      255
102
RTVSPost2010PropOp44
 70
     1
102
RTVSPost2010Prop45
280
     0
102
RTVSPost2010PropOp45
 70
     1
102
RTVSPost2010Prop46
 90
       50
102
RTVSPost2010PropOp46
 70
     1
102
RTVSPost2010Prop47
 90
       50
102
RTVSPost2010PropOp47
 70
     1
102
RTVSPost2010Prop48
 90
       50
102
RTVSPost2010PropOp48
 70
     1
102
RTVSPost2010Prop49
280
     0
102
RTVSPost2010PropOp49
 70
     1
102
RTVSPost2010Prop50
 90
       50
102
RTVSPost2010PropOp50
 70
     1
102
RTVSPost2010Prop51ColorIndex
 90
      256
102
RTVSPost2010Prop51ColorRGB
 90
-16777216
102
RTVSPost2010PropOp51
 70
     0
102
RTVSPost2010Prop52
140
1.0
102
RTVSPost2010PropOp52
 70
     0
102
RTVSPost2010Prop53
 90
        2
102
RTVSPost2010PropOp53
 70
     1
102
RTVSPost2010Prop54
  1
strokes_ogs.tif
102
RTVSPost2010PropOp54
 70
     1
102
RTVSPost2010Prop55
280
     0
102
RTVSPost2010PropOp55
 70
     1
102
RTVSPost2010Prop56
140
1.0
102
RTVSPost2010PropOp56
 70
     1
102
RTVSPost2010Prop57
140
1.0
102
RTVSPost2010PropOp57
 70
     1
102
RTVSPropertyOp0
 70
     1
102
RTVSPropertyOp1
 70
     1
102
RTVSPropertyOp2
 70
     1
102
RTVSPropertyOp3
 70
     1
102
RTVSPropertyOp4
 70
     1
102
RTVSPropertyOp5
 70
     1
102
RTVSPropertyOp6
 70
     1
102
RTVSPropertyOp7
 70
     1
102
RTVSPropertyOp8
 70
     1
102
RTVSPropertyOp9
 70
     1
102
RTVSPropertyOp10
 70
     1
102
RTVSPropertyOp11
 70
     1
102
RTVSPropertyOp12
 70
     1
102
RTVSPropertyOp13
 70
     1
102
RTVSPropertyOp14
 70
     1
102
RTVSPropertyOp15
 70
     1
102
RTVSPropertyOp16
 70
     1
102
RTVSPropertyOp17
 70
     1
102
RTVSPropertyOp18
 70
     1
102
RTVSPropertyOp19
 70
     1
102
RTVSPropertyOp20
 70
     1
102
RTVSPropertyOp21
 70
     1
102
RTVSPropertyOp22
 70
     1
102
RTVSPropertyOp23
 70
     1
102
RTVSPropertyOp24
 70
     1
102
RTVSPropertyOp25
 70
     1
102
RTVSPropertyOp26
 70
     1
102
RTVSPropertyOp27
 70
     1
102
RTVSPropertyOp28
 70
     1
102
RTVSPropertyOp29
 70
     1
102
RTVSPropertyOp30
 70
     1
102
RTVSPropertyOp31
 70
     1
102
RTVSPropertyOp32
 70
     1
102
RTVSPropertyOp33
 70
     1
102
RTVSPropertyOp34
 70
     1
102
RTVSPropertyOp35
 70
     1
102
RTVSPropertyOp36
 70
     1
102
RTVSPropertyOp37
 70
     1
102
RTVSPropertyOp38
 70
     1
102
RTVSPropertyOp39
 70
     1
102
RTVSPropertyOp40
 70
     1
102
RTVSPropertyOp41
 70
     1
102
RTVSPropertyOp42
 70
     1
102
RTVSPropertyOp43
 70
     1
102
RTVSPropertyOp44
 70
     1
102
RTVSPropertyOp45
 70
     1
102
RTVSPropertyOp46
 70
     1
102
RTVSPropertyOp47
 70
     1
102
RTVSPropertyOp48
 70
     1
102
RTVSPropertyOp49
 70
     1
102
RTVSPropertyOp50
 70
     1
102
RTVSPropertyOp51
 70
     0
102
RTVSPropertyOp52
 70
     0
102
RTVSPropertyOp53
 70
     1
102
RTVSPropertyOp54
 70
     1
102
RTVSPropertyOp55
 70
     1
102
RTVSPropertyOp56
 70
     1
102
RTVSPropertyOp57
 70
     1
102
RTVSPropertyOp58
 70
     1
102
RTVSPropertyOp59
 70
     1
102
RTVSPropertyOp60
 70
     1
102
RTVSPropertyOp61
 70
     1
102
RTVSPropertyOp62
 70
     1
  0
XRECORD
  5
306A
102
{ACAD_REACTORS
330
3069
102
}
330
3069
100
AcDbXrecord
280
     1
102
RTVSPost2010Prop28
280
     0
102
RTVSPost2010PropOp28
 70
     1
102
RTVSPost2010Prop29
280
     1
102
RTVSPost2010PropOp29
 70
     1
102
RTVSPost2010Prop30
280
     1
102
RTVSPost2010PropOp30
 70
     1
102
RTVSPost2010Prop31
280
     0
102
RTVSPost2010PropOp31
 70
     1
102
RTVSPost2010Prop32
280
     0
102
RTVSPost2010PropOp32
 70
     1
102
RTVSPost2010Prop33
280
     0
102
RTVSPost2010PropOp33
 70
     1
102
RTVSPost2010Prop34
280
     0
102
RTVSPost2010PropOp34
 70
     1
102
RTVSPost2010Prop35
280
     0
102
RTVSPost2010PropOp35
 70
     1
102
RTVSPost2010Prop36
280
     0
102
RTVSPost2010PropOp36
 70
     1
102
RTVSPost2010Prop37
 90
       50
102
RTVSPost2010PropOp37
 70
     1
102
RTVSPost2010Prop38
140
0.0
102
RTVSPost2010PropOp38
 70
     1
102
RTVSPost2010Prop39
140
1.0
102
RTVSPost2010PropOp39
 70
     1
102
RTVSPost2010Prop40
 90
        0
102
RTVSPost2010PropOp40
 70
     1
102
RTVSPost2010Prop41ColorIndex
 90
       18
102
RTVSPost2010Prop41ColorRGB
 90
        0
102
RTVSPost2010PropOp41
 70
     1
102
RTVSPost2010Prop42
 90
       50
102
RTVSPost2010PropOp42
 70
     1
102
RTVSPost2010Prop43
 90
        3
102
RTVSPost2010PropOp43
 70
     1
102
RTVSPost2010Prop44ColorIndex
 90
        5
102
RTVSPost2010Prop44ColorRGB
 90
      255
102
RTVSPost2010PropOp44
 70
     1
102
RTVSPost2010Prop45
280
     0
102
RTVSPost2010PropOp45
 70
     1
102
RTVSPost2010Prop46
 90
       50
102
RTVSPost2010PropOp46
 70
     1
102
RTVSPost2010Prop47
 90
       50
102
RTVSPost2010PropOp47
 70
     1
102
RTVSPost2010Prop48
 90
       50
102
RTVSPost2010PropOp48
 70
     1
102
RTVSPost2010Prop49
280
     0
102
RTVSPost2010PropOp49
 70
     1
102
RTVSPost2010Prop50
 90
       50
102
RTVSPost2010PropOp50
 70
     1
102
RTVSPost2010Prop51ColorIndex
 90
      256
102
RTVSPost2010Prop51ColorRGB
 90
-16777216
102
RTVSPost2010PropOp51
 70
     0
102
RTVSPost2010Prop52
140
1.0
102
RTVSPost2010PropOp52
 70
     0
102
RTVSPost2010Prop53
 90
        2
102
RTVSPost2010PropOp53
 70
     1
102
RTVSPost2010Prop54
  1
strokes_ogs.tif
102
RTVSPost2010PropOp54
 70
     1
102
RTVSPost2010Prop55
280
     0
102
RTVSPost2010PropOp55
 70
     1
102
RTVSPost2010Prop56
140
1.0
102
RTVSPost2010PropOp56
 70
     1
102
RTVSPost2010Prop57
140
1.0
102
RTVSPost2010PropOp57
 70
     1
102
RTVSPropertyOp0
 70
     1
102
RTVSPropertyOp1
 70
     1
102
RTVSPropertyOp2
 70
     1
102
RTVSPropertyOp3
 70
     1
102
RTVSPropertyOp4
 70
     1
102
RTVSPropertyOp5
 70
     1
102
RTVSPropertyOp6
 70
     1
102
RTVSPropertyOp7
 70
     1
102
RTVSPropertyOp8
 70
     1
102
RTVSPropertyOp9
 70
     1
102
RTVSPropertyOp10
 70
     1
102
RTVSPropertyOp11
 70
     1
102
RTVSPropertyOp12
 70
     1
102
RTVSPropertyOp13
 70
     1
102
RTVSPropertyOp14
 70
     1
102
RTVSPropertyOp15
 70
     1
102
RTVSPropertyOp16
 70
     1
102
RTVSPropertyOp17
 70
     1
102
RTVSPropertyOp18
 70
     1
102
RTVSPropertyOp19
 70
     1
102
RTVSPropertyOp20
 70
     1
102
RTVSPropertyOp21
 70
     1
102
RTVSPropertyOp22
 70
     1
102
RTVSPropertyOp23
 70
     1
102
RTVSPropertyOp24
 70
     1
102
RTVSPropertyOp25
 70
     1
102
RTVSPropertyOp26
 70
     1
102
RTVSPropertyOp27
 70
     1
102
RTVSPropertyOp28
 70
     1
102
RTVSPropertyOp29
 70
     1
102
RTVSPropertyOp30
 70
     1
102
RTVSPropertyOp31
 70
     1
102
RTVSPropertyOp32
 70
     1
102
RTVSPropertyOp33
 70
     1
102
RTVSPropertyOp34
 70
     1
102
RTVSPropertyOp35
 70
     1
102
RTVSPropertyOp36
 70
     1
102
RTVSPropertyOp37
 70
     1
102
RTVSPropertyOp38
 70
     1
102
RTVSPropertyOp39
 70
     1
102
RTVSPropertyOp40
 70
     1
102
RTVSPropertyOp41
 70
     1
102
RTVSPropertyOp42
 70
     1
102
RTVSPropertyOp43
 70
     1
102
RTVSPropertyOp44
 70
     1
102
RTVSPropertyOp45
 70
     1
102
RTVSPropertyOp46
 70
     1
102
RTVSPropertyOp47
 70
     1
102
RTVSPropertyOp48
 70
     1
102
RTVSPropertyOp49
 70
     1
102
RTVSPropertyOp50
 70
     1
102
RTVSPropertyOp51
 70
     0
102
RTVSPropertyOp52
 70
     0
102
RTVSPropertyOp53
 70
     1
102
RTVSPropertyOp54
 70
     1
102
RTVSPropertyOp55
 70
     1
102
RTVSPropertyOp56
 70
     1
102
RTVSPropertyOp57
 70
     1
102
RTVSPropertyOp58
 70
     1
102
RTVSPropertyOp59
 70
     1
102
RTVSPropertyOp60
 70
     1
102
RTVSPropertyOp61
 70
     1
102
RTVSPropertyOp62
 70
     1
  0
XRECORD
  5
306C
102
{ACAD_REACTORS
330
306B
102
}
330
306B
100
AcDbXrecord
280
     1
102
RTVSPost2010Prop28
280
     0
102
RTVSPost2010PropOp28
 70
     1
102
RTVSPost2010Prop29
280
     1
102
RTVSPost2010PropOp29
 70
     1
102
RTVSPost2010Prop30
280
     1
102
RTVSPost2010PropOp30
 70
     1
102
RTVSPost2010Prop31
280
     0
102
RTVSPost2010PropOp31
 70
     1
102
RTVSPost2010Prop32
280
     0
102
RTVSPost2010PropOp32
 70
     1
102
RTVSPost2010Prop33
280
     0
102
RTVSPost2010PropOp33
 70
     1
102
RTVSPost2010Prop34
280
     0
102
RTVSPost2010PropOp34
 70
     1
102
RTVSPost2010Prop35
280
     0
102
RTVSPost2010PropOp35
 70
     1
102
RTVSPost2010Prop36
280
     0
102
RTVSPost2010PropOp36
 70
     1
102
RTVSPost2010Prop37
 90
       50
102
RTVSPost2010PropOp37
 70
     1
102
RTVSPost2010Prop38
140
0.0
102
RTVSPost2010PropOp38
 70
     1
102
RTVSPost2010Prop39
140
1.0
102
RTVSPost2010PropOp39
 70
     1
102
RTVSPost2010Prop40
 90
        0
102
RTVSPost2010PropOp40
 70
     1
102
RTVSPost2010Prop41ColorIndex
 90
       18
102
RTVSPost2010Prop41ColorRGB
 90
        0
102
RTVSPost2010PropOp41
 70
     1
102
RTVSPost2010Prop42
 90
       50
102
RTVSPost2010PropOp42
 70
     1
102
RTVSPost2010Prop43
 90
        3
102
RTVSPost2010PropOp43
 70
     1
102
RTVSPost2010Prop44ColorIndex
 90
        5
102
RTVSPost2010Prop44ColorRGB
 90
      255
102
RTVSPost2010PropOp44
 70
     1
102
RTVSPost2010Prop45
280
     0
102
RTVSPost2010PropOp45
 70
     1
102
RTVSPost2010Prop46
 90
       50
102
RTVSPost2010PropOp46
 70
     1
102
RTVSPost2010Prop47
 90
       50
102
RTVSPost2010PropOp47
 70
     1
102
RTVSPost2010Prop48
 90
       50
102
RTVSPost2010PropOp48
 70
     1
102
RTVSPost2010Prop49
280
     0
102
RTVSPost2010PropOp49
 70
     1
102
RTVSPost2010Prop50
 90
       50
102
RTVSPost2010PropOp50
 70
     1
102
RTVSPost2010Prop51ColorIndex
 90
      256
102
RTVSPost2010Prop51ColorRGB
 90
-16777216
102
RTVSPost2010PropOp51
 70
     0
102
RTVSPost2010Prop52
140
1.0
102
RTVSPost2010PropOp52
 70
     0
102
RTVSPost2010Prop53
 90
        2
102
RTVSPost2010PropOp53
 70
     1
102
RTVSPost2010Prop54
  1
strokes_ogs.tif
102
RTVSPost2010PropOp54
 70
     1
102
RTVSPost2010Prop55
280
     0
102
RTVSPost2010PropOp55
 70
     1
102
RTVSPost2010Prop56
140
1.0
102
RTVSPost2010PropOp56
 70
     1
102
RTVSPost2010Prop57
140
1.0
102
RTVSPost2010PropOp57
 70
     1
102
RTVSPropertyOp0
 70
     1
102
RTVSPropertyOp1
 70
     1
102
RTVSPropertyOp2
 70
     1
102
RTVSPropertyOp3
 70
     1
102
RTVSPropertyOp4
 70
     1
102
RTVSPropertyOp5
 70
     1
102
RTVSPropertyOp6
 70
     1
102
RTVSPropertyOp7
 70
     1
102
RTVSPropertyOp8
 70
     1
102
RTVSPropertyOp9
 70
     1
102
RTVSPropertyOp10
 70
     1
102
RTVSPropertyOp11
 70
     1
102
RTVSPropertyOp12
 70
     1
102
RTVSPropertyOp13
 70
     1
102
RTVSPropertyOp14
 70
     1
102
RTVSPropertyOp15
 70
     1
102
RTVSPropertyOp16
 70
     1
102
RTVSPropertyOp17
 70
     1
102
RTVSPropertyOp18
 70
     1
102
RTVSPropertyOp19
 70
     1
102
RTVSPropertyOp20
 70
     1
102
RTVSPropertyOp21
 70
     1
102
RTVSPropertyOp22
 70
     1
102
RTVSPropertyOp23
 70
     1
102
RTVSPropertyOp24
 70
     1
102
RTVSPropertyOp25
 70
     1
102
RTVSPropertyOp26
 70
     1
102
RTVSPropertyOp27
 70
     1
102
RTVSPropertyOp28
 70
     1
102
RTVSPropertyOp29
 70
     1
102
RTVSPropertyOp30
 70
     1
102
RTVSPropertyOp31
 70
     1
102
RTVSPropertyOp32
 70
     1
102
RTVSPropertyOp33
 70
     1
102
RTVSPropertyOp34
 70
     1
102
RTVSPropertyOp35
 70
     1
102
RTVSPropertyOp36
 70
     1
102
RTVSPropertyOp37
 70
     1
102
RTVSPropertyOp38
 70
     1
102
RTVSPropertyOp39
 70
     1
102
RTVSPropertyOp40
 70
     1
102
RTVSPropertyOp41
 70
     1
102
RTVSPropertyOp42
 70
     1
102
RTVSPropertyOp43
 70
     1
102
RTVSPropertyOp44
 70
     1
102
RTVSPropertyOp45
 70
     1
102
RTVSPropertyOp46
 70
     1
102
RTVSPropertyOp47
 70
     1
102
RTVSPropertyOp48
 70
     1
102
RTVSPropertyOp49
 70
     1
102
RTVSPropertyOp50
 70
     1
102
RTVSPropertyOp51
 70
     0
102
RTVSPropertyOp52
 70
     0
102
RTVSPropertyOp53
 70
     1
102
RTVSPropertyOp54
 70
     1
102
RTVSPropertyOp55
 70
     1
102
RTVSPropertyOp56
 70
     1
102
RTVSPropertyOp57
 70
     1
102
RTVSPropertyOp58
 70
     1
102
RTVSPropertyOp59
 70
     1
102
RTVSPropertyOp60
 70
     1
102
RTVSPropertyOp61
 70
     1
102
RTVSPropertyOp62
 70
     1
  0
XRECORD
  5
3074
102
{ACAD_REACTORS
330
3073
102
}
330
3073
100
AcDbXrecord
280
     1
102
RTVSPost2010Prop28
280
     0
102
RTVSPost2010PropOp28
 70
     1
102
RTVSPost2010Prop29
280
     1
102
RTVSPost2010PropOp29
 70
     1
102
RTVSPost2010Prop30
280
     1
102
RTVSPost2010PropOp30
 70
     1
102
RTVSPost2010Prop31
280
     0
102
RTVSPost2010PropOp31
 70
     1
102
RTVSPost2010Prop32
280
     0
102
RTVSPost2010PropOp32
 70
     1
102
RTVSPost2010Prop33
280
     0
102
RTVSPost2010PropOp33
 70
     1
102
RTVSPost2010Prop34
280
     0
102
RTVSPost2010PropOp34
 70
     1
102
RTVSPost2010Prop35
280
     0
102
RTVSPost2010PropOp35
 70
     1
102
RTVSPost2010Prop36
280
     0
102
RTVSPost2010PropOp36
 70
     1
102
RTVSPost2010Prop37
 90
       50
102
RTVSPost2010PropOp37
 70
     1
102
RTVSPost2010Prop38
140
0.0
102
RTVSPost2010PropOp38
 70
     1
102
RTVSPost2010Prop39
140
1.0
102
RTVSPost2010PropOp39
 70
     1
102
RTVSPost2010Prop40
 90
        0
102
RTVSPost2010PropOp40
 70
     1
102
RTVSPost2010Prop41ColorIndex
 90
       18
102
RTVSPost2010Prop41ColorRGB
 90
        0
102
RTVSPost2010PropOp41
 70
     1
102
RTVSPost2010Prop42
 90
       50
102
RTVSPost2010PropOp42
 70
     1
102
RTVSPost2010Prop43
 90
        3
102
RTVSPost2010PropOp43
 70
     1
102
RTVSPost2010Prop44ColorIndex
 90
        5
102
RTVSPost2010Prop44ColorRGB
 90
      255
102
RTVSPost2010PropOp44
 70
     1
102
RTVSPost2010Prop45
280
     0
102
RTVSPost2010PropOp45
 70
     1
102
RTVSPost2010Prop46
 90
       50
102
RTVSPost2010PropOp46
 70
     1
102
RTVSPost2010Prop47
 90
       50
102
RTVSPost2010PropOp47
 70
     1
102
RTVSPost2010Prop48
 90
       50
102
RTVSPost2010PropOp48
 70
     1
102
RTVSPost2010Prop49
280
     0
102
RTVSPost2010PropOp49
 70
     1
102
RTVSPost2010Prop50
 90
       50
102
RTVSPost2010PropOp50
 70
     1
102
RTVSPost2010Prop51ColorIndex
 90
      256
102
RTVSPost2010Prop51ColorRGB
 90
-16777216
102
RTVSPost2010PropOp51
 70
     0
102
RTVSPost2010Prop52
140
1.0
102
RTVSPost2010PropOp52
 70
     0
102
RTVSPost2010Prop53
 90
        2
102
RTVSPost2010PropOp53
 70
     1
102
RTVSPost2010Prop54
  1
strokes_ogs.tif
102
RTVSPost2010PropOp54
 70
     1
102
RTVSPost2010Prop55
280
     0
102
RTVSPost2010PropOp55
 70
     1
102
RTVSPost2010Prop56
140
1.0
102
RTVSPost2010PropOp56
 70
     1
102
RTVSPost2010Prop57
140
1.0
102
RTVSPost2010PropOp57
 70
     1
102
RTVSPropertyOp0
 70
     1
102
RTVSPropertyOp1
 70
     1
102
RTVSPropertyOp2
 70
     1
102
RTVSPropertyOp3
 70
     1
102
RTVSPropertyOp4
 70
     1
102
RTVSPropertyOp5
 70
     1
102
RTVSPropertyOp6
 70
     1
102
RTVSPropertyOp7
 70
     1
102
RTVSPropertyOp8
 70
     1
102
RTVSPropertyOp9
 70
     1
102
RTVSPropertyOp10
 70
     1
102
RTVSPropertyOp11
 70
     1
102
RTVSPropertyOp12
 70
     1
102
RTVSPropertyOp13
 70
     1
102
RTVSPropertyOp14
 70
     1
102
RTVSPropertyOp15
 70
     1
102
RTVSPropertyOp16
 70
     1
102
RTVSPropertyOp17
 70
     1
102
RTVSPropertyOp18
 70
     1
102
RTVSPropertyOp19
 70
     1
102
RTVSPropertyOp20
 70
     1
102
RTVSPropertyOp21
 70
     1
102
RTVSPropertyOp22
 70
     1
102
RTVSPropertyOp23
 70
     1
102
RTVSPropertyOp24
 70
     1
102
RTVSPropertyOp25
 70
     1
102
RTVSPropertyOp26
 70
     1
102
RTVSPropertyOp27
 70
     1
102
RTVSPropertyOp28
 70
     1
102
RTVSPropertyOp29
 70
     1
102
RTVSPropertyOp30
 70
     1
102
RTVSPropertyOp31
 70
     1
102
RTVSPropertyOp32
 70
     1
102
RTVSPropertyOp33
 70
     1
102
RTVSPropertyOp34
 70
     1
102
RTVSPropertyOp35
 70
     1
102
RTVSPropertyOp36
 70
     1
102
RTVSPropertyOp37
 70
     1
102
RTVSPropertyOp38
 70
     1
102
RTVSPropertyOp39
 70
     1
102
RTVSPropertyOp40
 70
     1
102
RTVSPropertyOp41
 70
     1
102
RTVSPropertyOp42
 70
     1
102
RTVSPropertyOp43
 70
     1
102
RTVSPropertyOp44
 70
     1
102
RTVSPropertyOp45
 70
     1
102
RTVSPropertyOp46
 70
     1
102
RTVSPropertyOp47
 70
     1
102
RTVSPropertyOp48
 70
     1
102
RTVSPropertyOp49
 70
     1
102
RTVSPropertyOp50
 70
     1
102
RTVSPropertyOp51
 70
     0
102
RTVSPropertyOp52
 70
     0
102
RTVSPropertyOp53
 70
     1
102
RTVSPropertyOp54
 70
     1
102
RTVSPropertyOp55
 70
     1
102
RTVSPropertyOp56
 70
     1
102
RTVSPropertyOp57
 70
     1
102
RTVSPropertyOp58
 70
     1
102
RTVSPropertyOp59
 70
     1
102
RTVSPropertyOp60
 70
     1
102
RTVSPropertyOp61
 70
     1
102
RTVSPropertyOp62
 70
     1
  0
XRECORD
  5
3090
102
{ACAD_REACTORS
330
308F
102
}
330
308F
100
AcDbXrecord
280
     1
102
RTVSPost2010Prop28
280
     0
102
RTVSPost2010PropOp28
 70
     1
102
RTVSPost2010Prop29
280
     1
102
RTVSPost2010PropOp29
 70
     1
102
RTVSPost2010Prop30
280
     1
102
RTVSPost2010PropOp30
 70
     1
102
RTVSPost2010Prop31
280
     0
102
RTVSPost2010PropOp31
 70
     1
102
RTVSPost2010Prop32
280
     0
102
RTVSPost2010PropOp32
 70
     1
102
RTVSPost2010Prop33
280
     0
102
RTVSPost2010PropOp33
 70
     1
102
RTVSPost2010Prop34
280
     0
102
RTVSPost2010PropOp34
 70
     1
102
RTVSPost2010Prop35
280
     0
102
RTVSPost2010PropOp35
 70
     1
102
RTVSPost2010Prop36
280
     0
102
RTVSPost2010PropOp36
 70
     1
102
RTVSPost2010Prop37
 90
       50
102
RTVSPost2010PropOp37
 70
     0
102
RTVSPost2010Prop38
140
0.0
102
RTVSPost2010PropOp38
 70
     0
102
RTVSPost2010Prop39
140
1.0
102
RTVSPost2010PropOp39
 70
     0
102
RTVSPost2010Prop40
 90
        0
102
RTVSPost2010PropOp40
 70
     0
102
RTVSPost2010Prop41ColorIndex
 90
       18
102
RTVSPost2010Prop41ColorRGB
 90
        0
102
RTVSPost2010PropOp41
 70
     0
102
RTVSPost2010Prop42
 90
       50
102
RTVSPost2010PropOp42
 70
     0
102
RTVSPost2010Prop43
 90
        3
102
RTVSPost2010PropOp43
 70
     0
102
RTVSPost2010Prop44ColorIndex
 90
        5
102
RTVSPost2010Prop44ColorRGB
 90
      255
102
RTVSPost2010PropOp44
 70
     0
102
RTVSPost2010Prop45
280
     0
102
RTVSPost2010PropOp45
 70
     1
102
RTVSPost2010Prop46
 90
       50
102
RTVSPost2010PropOp46
 70
     0
102
RTVSPost2010Prop47
 90
       50
102
RTVSPost2010PropOp47
 70
     0
102
RTVSPost2010Prop48
 90
       50
102
RTVSPost2010PropOp48
 70
     0
102
RTVSPost2010Prop49
280
     0
102
RTVSPost2010PropOp49
 70
     1
102
RTVSPost2010Prop50
 90
       50
102
RTVSPost2010PropOp50
 70
     0
102
RTVSPost2010Prop51ColorIndex
 90
      256
102
RTVSPost2010Prop51ColorRGB
 90
-16777216
102
RTVSPost2010PropOp51
 70
     0
102
RTVSPost2010Prop52
140
1.0
102
RTVSPost2010PropOp52
 70
     0
102
RTVSPost2010Prop53
 90
        2
102
RTVSPost2010PropOp53
 70
     0
102
RTVSPost2010Prop54
  1
strokes_ogs.tif
102
RTVSPost2010PropOp54
 70
     0
102
RTVSPost2010Prop55
280
     0
102
RTVSPost2010PropOp55
 70
     1
102
RTVSPost2010Prop56
140
1.0
102
RTVSPost2010PropOp56
 70
     0
102
RTVSPost2010Prop57
140
1.0
102
RTVSPost2010PropOp57
 70
     0
102
RTVSPropertyOp0
 70
     0
102
RTVSPropertyOp1
 70
     0
102
RTVSPropertyOp2
 70
     0
102
RTVSPropertyOp3
 70
     0
102
RTVSPropertyOp4
 70
     0
102
RTVSPropertyOp5
 70
     0
102
RTVSPropertyOp6
 70
     0
102
RTVSPropertyOp7
 70
     0
102
RTVSPropertyOp8
 70
     0
102
RTVSPropertyOp9
 70
     0
102
RTVSPropertyOp10
 70
     0
102
RTVSPropertyOp11
 70
     0
102
RTVSPropertyOp12
 70
     0
102
RTVSPropertyOp13
 70
     0
102
RTVSPropertyOp14
 70
     2
102
RTVSPropertyOp15
 70
     0
102
RTVSPropertyOp16
 70
     0
102
RTVSPropertyOp17
 70
     0
102
RTVSPropertyOp18
 70
     0
102
RTVSPropertyOp19
 70
     0
102
RTVSPropertyOp20
 70
     0
102
RTVSPropertyOp21
 70
     0
102
RTVSPropertyOp22
 70
     0
102
RTVSPropertyOp23
 70
     0
102
RTVSPropertyOp24
 70
     0
102
RTVSPropertyOp25
 70
     0
102
RTVSPropertyOp26
 70
     0
102
RTVSPropertyOp27
 70
     0
102
RTVSPropertyOp28
 70
     1
102
RTVSPropertyOp29
 70
     1
102
RTVSPropertyOp30
 70
     1
102
RTVSPropertyOp31
 70
     1
102
RTVSPropertyOp32
 70
     1
102
RTVSPropertyOp33
 70
     1
102
RTVSPropertyOp34
 70
     1
102
RTVSPropertyOp35
 70
     1
102
RTVSPropertyOp36
 70
     1
102
RTVSPropertyOp37
 70
     0
102
RTVSPropertyOp38
 70
     0
102
RTVSPropertyOp39
 70
     0
102
RTVSPropertyOp40
 70
     0
102
RTVSPropertyOp41
 70
     0
102
RTVSPropertyOp42
 70
     0
102
RTVSPropertyOp43
 70
     0
102
RTVSPropertyOp44
 70
     0
102
RTVSPropertyOp45
 70
     1
102
RTVSPropertyOp46
 70
     0
102
RTVSPropertyOp47
 70
     0
102
RTVSPropertyOp48
 70
     0
102
RTVSPropertyOp49
 70
     1
102
RTVSPropertyOp50
 70
     0
102
RTVSPropertyOp51
 70
     0
102
RTVSPropertyOp52
 70
     0
102
RTVSPropertyOp53
 70
     0
102
RTVSPropertyOp54
 70
     0
102
RTVSPropertyOp55
 70
     1
102
RTVSPropertyOp56
 70
     0
102
RTVSPropertyOp57
 70
     0
102
RTVSPropertyOp58
 70
     0
102
RTVSPropertyOp59
 70
     0
102
RTVSPropertyOp60
 70
     0
102
RTVSPropertyOp61
 70
     0
102
RTVSPropertyOp62
 70
     0
  0
XRECORD
  5
3080
102
{ACAD_REACTORS
330
307F
102
}
330
307F
100
AcDbXrecord
280
     1
102
RTVSPost2010Prop28
280
     0
102
RTVSPost2010PropOp28
 70
     1
102
RTVSPost2010Prop29
280
     1
102
RTVSPost2010PropOp29
 70
     1
102
RTVSPost2010Prop30
280
     1
102
RTVSPost2010PropOp30
 70
     1
102
RTVSPost2010Prop31
280
     0
102
RTVSPost2010PropOp31
 70
     1
102
RTVSPost2010Prop32
280
     0
102
RTVSPost2010PropOp32
 70
     1
102
RTVSPost2010Prop33
280
     0
102
RTVSPost2010PropOp33
 70
     1
102
RTVSPost2010Prop34
280
     0
102
RTVSPost2010PropOp34
 70
     1
102
RTVSPost2010Prop35
280
     0
102
RTVSPost2010PropOp35
 70
     1
102
RTVSPost2010Prop36
280
     0
102
RTVSPost2010PropOp36
 70
     1
102
RTVSPost2010Prop37
 90
       50
102
RTVSPost2010PropOp37
 70
     1
102
RTVSPost2010Prop38
140
0.0
102
RTVSPost2010PropOp38
 70
     1
102
RTVSPost2010Prop39
140
1.0
102
RTVSPost2010PropOp39
 70
     1
102
RTVSPost2010Prop40
 90
        0
102
RTVSPost2010PropOp40
 70
     1
102
RTVSPost2010Prop41ColorIndex
 90
       18
102
RTVSPost2010Prop41ColorRGB
 90
        0
102
RTVSPost2010PropOp41
 70
     1
102
RTVSPost2010Prop42
 90
       50
102
RTVSPost2010PropOp42
 70
     1
102
RTVSPost2010Prop43
 90
        3
102
RTVSPost2010PropOp43
 70
     1
102
RTVSPost2010Prop44ColorIndex
 90
        5
102
RTVSPost2010Prop44ColorRGB
 90
      255
102
RTVSPost2010PropOp44
 70
     1
102
RTVSPost2010Prop45
280
     0
102
RTVSPost2010PropOp45
 70
     1
102
RTVSPost2010Prop46
 90
       50
102
RTVSPost2010PropOp46
 70
     1
102
RTVSPost2010Prop47
 90
       50
102
RTVSPost2010PropOp47
 70
     1
102
RTVSPost2010Prop48
 90
       50
102
RTVSPost2010PropOp48
 70
     1
102
RTVSPost2010Prop49
280
     0
102
RTVSPost2010PropOp49
 70
     1
102
RTVSPost2010Prop50
 90
       50
102
RTVSPost2010PropOp50
 70
     1
102
RTVSPost2010Prop51ColorIndex
 90
      256
102
RTVSPost2010Prop51ColorRGB
 90
-16777216
102
RTVSPost2010PropOp51
 70
     0
102
RTVSPost2010Prop52
140
1.0
102
RTVSPost2010PropOp52
 70
     0
102
RTVSPost2010Prop53
 90
        2
102
RTVSPost2010PropOp53
 70
     1
102
RTVSPost2010Prop54
  1
strokes_ogs.tif
102
RTVSPost2010PropOp54
 70
     1
102
RTVSPost2010Prop55
280
     0
102
RTVSPost2010PropOp55
 70
     1
102
RTVSPost2010Prop56
140
1.0
102
RTVSPost2010PropOp56
 70
     1
102
RTVSPost2010Prop57
140
1.0
102
RTVSPost2010PropOp57
 70
     1
102
RTVSPropertyOp0
 70
     1
102
RTVSPropertyOp1
 70
     1
102
RTVSPropertyOp2
 70
     1
102
RTVSPropertyOp3
 70
     1
102
RTVSPropertyOp4
 70
     1
102
RTVSPropertyOp5
 70
     1
102
RTVSPropertyOp6
 70
     1
102
RTVSPropertyOp7
 70
     1
102
RTVSPropertyOp8
 70
     1
102
RTVSPropertyOp9
 70
     1
102
RTVSPropertyOp10
 70
     1
102
RTVSPropertyOp11
 70
     1
102
RTVSPropertyOp12
 70
     1
102
RTVSPropertyOp13
 70
     1
102
RTVSPropertyOp14
 70
     1
102
RTVSPropertyOp15
 70
     1
102
RTVSPropertyOp16
 70
     1
102
RTVSPropertyOp17
 70
     1
102
RTVSPropertyOp18
 70
     1
102
RTVSPropertyOp19
 70
     1
102
RTVSPropertyOp20
 70
     1
102
RTVSPropertyOp21
 70
     1
102
RTVSPropertyOp22
 70
     1
102
RTVSPropertyOp23
 70
     1
102
RTVSPropertyOp24
 70
     1
102
RTVSPropertyOp25
 70
     1
102
RTVSPropertyOp26
 70
     1
102
RTVSPropertyOp27
 70
     1
102
RTVSPropertyOp28
 70
     1
102
RTVSPropertyOp29
 70
     1
102
RTVSPropertyOp30
 70
     1
102
RTVSPropertyOp31
 70
     1
102
RTVSPropertyOp32
 70
     1
102
RTVSPropertyOp33
 70
     1
102
RTVSPropertyOp34
 70
     1
102
RTVSPropertyOp35
 70
     1
102
RTVSPropertyOp36
 70
     1
102
RTVSPropertyOp37
 70
     1
102
RTVSPropertyOp38
 70
     1
102
RTVSPropertyOp39
 70
     1
102
RTVSPropertyOp40
 70
     1
102
RTVSPropertyOp41
 70
     1
102
RTVSPropertyOp42
 70
     1
102
RTVSPropertyOp43
 70
     1
102
RTVSPropertyOp44
 70
     1
102
RTVSPropertyOp45
 70
     1
102
RTVSPropertyOp46
 70
     1
102
RTVSPropertyOp47
 70
     1
102
RTVSPropertyOp48
 70
     1
102
RTVSPropertyOp49
 70
     1
102
RTVSPropertyOp50
 70
     1
102
RTVSPropertyOp51
 70
     0
102
RTVSPropertyOp52
 70
     0
102
RTVSPropertyOp53
 70
     1
102
RTVSPropertyOp54
 70
     1
102
RTVSPropertyOp55
 70
     1
102
RTVSPropertyOp56
 70
     1
102
RTVSPropertyOp57
 70
     1
102
RTVSPropertyOp58
 70
     1
102
RTVSPropertyOp59
 70
     1
102
RTVSPropertyOp60
 70
     1
102
RTVSPropertyOp61
 70
     1
102
RTVSPropertyOp62
 70
     1
  0
XRECORD
  5
3092
102
{ACAD_REACTORS
330
3091
102
}
330
3091
100
AcDbXrecord
280
     1
102
RTVSPost2010Prop28
280
     0
102
RTVSPost2010PropOp28
 70
     1
102
RTVSPost2010Prop29
280
     1
102
RTVSPost2010PropOp29
 70
     1
102
RTVSPost2010Prop30
280
     1
102
RTVSPost2010PropOp30
 70
     1
102
RTVSPost2010Prop31
280
     0
102
RTVSPost2010PropOp31
 70
     1
102
RTVSPost2010Prop32
280
     0
102
RTVSPost2010PropOp32
 70
     1
102
RTVSPost2010Prop33
280
     0
102
RTVSPost2010PropOp33
 70
     1
102
RTVSPost2010Prop34
280
     0
102
RTVSPost2010PropOp34
 70
     1
102
RTVSPost2010Prop35
280
     0
102
RTVSPost2010PropOp35
 70
     1
102
RTVSPost2010Prop36
280
     0
102
RTVSPost2010PropOp36
 70
     1
102
RTVSPost2010Prop37
 90
       50
102
RTVSPost2010PropOp37
 70
     0
102
RTVSPost2010Prop38
140
0.0
102
RTVSPost2010PropOp38
 70
     0
102
RTVSPost2010Prop39
140
1.0
102
RTVSPost2010PropOp39
 70
     0
102
RTVSPost2010Prop40
 90
        0
102
RTVSPost2010PropOp40
 70
     0
102
RTVSPost2010Prop41ColorIndex
 90
       18
102
RTVSPost2010Prop41ColorRGB
 90
        0
102
RTVSPost2010PropOp41
 70
     0
102
RTVSPost2010Prop42
 90
       50
102
RTVSPost2010PropOp42
 70
     0
102
RTVSPost2010Prop43
 90
        3
102
RTVSPost2010PropOp43
 70
     0
102
RTVSPost2010Prop44ColorIndex
 90
        5
102
RTVSPost2010Prop44ColorRGB
 90
      255
102
RTVSPost2010PropOp44
 70
     0
102
RTVSPost2010Prop45
280
     0
102
RTVSPost2010PropOp45
 70
     1
102
RTVSPost2010Prop46
 90
       50
102
RTVSPost2010PropOp46
 70
     0
102
RTVSPost2010Prop47
 90
       50
102
RTVSPost2010PropOp47
 70
     0
102
RTVSPost2010Prop48
 90
       50
102
RTVSPost2010PropOp48
 70
     0
102
RTVSPost2010Prop49
280
     0
102
RTVSPost2010PropOp49
 70
     1
102
RTVSPost2010Prop50
 90
       50
102
RTVSPost2010PropOp50
 70
     0
102
RTVSPost2010Prop51ColorIndex
 90
      256
102
RTVSPost2010Prop51ColorRGB
 90
-16777216
102
RTVSPost2010PropOp51
 70
     0
102
RTVSPost2010Prop52
140
1.0
102
RTVSPost2010PropOp52
 70
     0
102
RTVSPost2010Prop53
 90
        2
102
RTVSPost2010PropOp53
 70
     0
102
RTVSPost2010Prop54
  1
strokes_ogs.tif
102
RTVSPost2010PropOp54
 70
     0
102
RTVSPost2010Prop55
280
     0
102
RTVSPost2010PropOp55
 70
     1
102
RTVSPost2010Prop56
140
1.0
102
RTVSPost2010PropOp56
 70
     0
102
RTVSPost2010Prop57
140
1.0
102
RTVSPost2010PropOp57
 70
     0
102
RTVSPropertyOp0
 70
     0
102
RTVSPropertyOp1
 70
     0
102
RTVSPropertyOp2
 70
     0
102
RTVSPropertyOp3
 70
     0
102
RTVSPropertyOp4
 70
     0
102
RTVSPropertyOp5
 70
     0
102
RTVSPropertyOp6
 70
     0
102
RTVSPropertyOp7
 70
     0
102
RTVSPropertyOp8
 70
     0
102
RTVSPropertyOp9
 70
     0
102
RTVSPropertyOp10
 70
     0
102
RTVSPropertyOp11
 70
     0
102
RTVSPropertyOp12
 70
     0
102
RTVSPropertyOp13
 70
     0
102
RTVSPropertyOp14
 70
     2
102
RTVSPropertyOp15
 70
     0
102
RTVSPropertyOp16
 70
     0
102
RTVSPropertyOp17
 70
     0
102
RTVSPropertyOp18
 70
     0
102
RTVSPropertyOp19
 70
     0
102
RTVSPropertyOp20
 70
     0
102
RTVSPropertyOp21
 70
     0
102
RTVSPropertyOp22
 70
     0
102
RTVSPropertyOp23
 70
     0
102
RTVSPropertyOp24
 70
     0
102
RTVSPropertyOp25
 70
     0
102
RTVSPropertyOp26
 70
     0
102
RTVSPropertyOp27
 70
     0
102
RTVSPropertyOp28
 70
     1
102
RTVSPropertyOp29
 70
     1
102
RTVSPropertyOp30
 70
     1
102
RTVSPropertyOp31
 70
     1
102
RTVSPropertyOp32
 70
     1
102
RTVSPropertyOp33
 70
     1
102
RTVSPropertyOp34
 70
     1
102
RTVSPropertyOp35
 70
     1
102
RTVSPropertyOp36
 70
     1
102
RTVSPropertyOp37
 70
     0
102
RTVSPropertyOp38
 70
     0
102
RTVSPropertyOp39
 70
     0
102
RTVSPropertyOp40
 70
     0
102
RTVSPropertyOp41
 70
     0
102
RTVSPropertyOp42
 70
     0
102
RTVSPropertyOp43
 70
     0
102
RTVSPropertyOp44
 70
     0
102
RTVSPropertyOp45
 70
     1
102
RTVSPropertyOp46
 70
     0
102
RTVSPropertyOp47
 70
     0
102
RTVSPropertyOp48
 70
     0
102
RTVSPropertyOp49
 70
     1
102
RTVSPropertyOp50
 70
     0
102
RTVSPropertyOp51
 70
     0
102
RTVSPropertyOp52
 70
     0
102
RTVSPropertyOp53
 70
     0
102
RTVSPropertyOp54
 70
     0
102
RTVSPropertyOp55
 70
     1
102
RTVSPropertyOp56
 70
     0
102
RTVSPropertyOp57
 70
     0
102
RTVSPropertyOp58
 70
     0
102
RTVSPropertyOp59
 70
     0
102
RTVSPropertyOp60
 70
     0
102
RTVSPropertyOp61
 70
     0
102
RTVSPropertyOp62
 70
     0
  0
XRECORD
  5
3078
102
{ACAD_REACTORS
330
3077
102
}
330
3077
100
AcDbXrecord
280
     1
102
RTVSPost2010Prop28
280
     0
102
RTVSPost2010PropOp28
 70
     1
102
RTVSPost2010Prop29
280
     1
102
RTVSPost2010PropOp29
 70
     1
102
RTVSPost2010Prop30
280
     1
102
RTVSPost2010PropOp30
 70
     1
102
RTVSPost2010Prop31
280
     0
102
RTVSPost2010PropOp31
 70
     1
102
RTVSPost2010Prop32
280
     0
102
RTVSPost2010PropOp32
 70
     1
102
RTVSPost2010Prop33
280
     0
102
RTVSPost2010PropOp33
 70
     1
102
RTVSPost2010Prop34
280
     0
102
RTVSPost2010PropOp34
 70
     1
102
RTVSPost2010Prop35
280
     0
102
RTVSPost2010PropOp35
 70
     1
102
RTVSPost2010Prop36
280
     0
102
RTVSPost2010PropOp36
 70
     1
102
RTVSPost2010Prop37
 90
       50
102
RTVSPost2010PropOp37
 70
     1
102
RTVSPost2010Prop38
140
0.0
102
RTVSPost2010PropOp38
 70
     1
102
RTVSPost2010Prop39
140
1.0
102
RTVSPost2010PropOp39
 70
     1
102
RTVSPost2010Prop40
 90
        0
102
RTVSPost2010PropOp40
 70
     1
102
RTVSPost2010Prop41ColorIndex
 90
       18
102
RTVSPost2010Prop41ColorRGB
 90
        0
102
RTVSPost2010PropOp41
 70
     1
102
RTVSPost2010Prop42
 90
       50
102
RTVSPost2010PropOp42
 70
     1
102
RTVSPost2010Prop43
 90
        3
102
RTVSPost2010PropOp43
 70
     1
102
RTVSPost2010Prop44ColorIndex
 90
        5
102
RTVSPost2010Prop44ColorRGB
 90
      255
102
RTVSPost2010PropOp44
 70
     1
102
RTVSPost2010Prop45
280
     0
102
RTVSPost2010PropOp45
 70
     1
102
RTVSPost2010Prop46
 90
       50
102
RTVSPost2010PropOp46
 70
     1
102
RTVSPost2010Prop47
 90
       50
102
RTVSPost2010PropOp47
 70
     1
102
RTVSPost2010Prop48
 90
       50
102
RTVSPost2010PropOp48
 70
     1
102
RTVSPost2010Prop49
280
     0
102
RTVSPost2010PropOp49
 70
     1
102
RTVSPost2010Prop50
 90
       50
102
RTVSPost2010PropOp50
 70
     1
102
RTVSPost2010Prop51ColorIndex
 90
      256
102
RTVSPost2010Prop51ColorRGB
 90
-16777216
102
RTVSPost2010PropOp51
 70
     0
102
RTVSPost2010Prop52
140
1.0
102
RTVSPost2010PropOp52
 70
     0
102
RTVSPost2010Prop53
 90
        2
102
RTVSPost2010PropOp53
 70
     1
102
RTVSPost2010Prop54
  1
strokes_ogs.tif
102
RTVSPost2010PropOp54
 70
     1
102
RTVSPost2010Prop55
280
     0
102
RTVSPost2010PropOp55
 70
     1
102
RTVSPost2010Prop56
140
1.0
102
RTVSPost2010PropOp56
 70
     1
102
RTVSPost2010Prop57
140
1.0
102
RTVSPost2010PropOp57
 70
     1
102
RTVSPropertyOp0
 70
     1
102
RTVSPropertyOp1
 70
     1
102
RTVSPropertyOp2
 70
     1
102
RTVSPropertyOp3
 70
     1
102
RTVSPropertyOp4
 70
     1
102
RTVSPropertyOp5
 70
     1
102
RTVSPropertyOp6
 70
     1
102
RTVSPropertyOp7
 70
     1
102
RTVSPropertyOp8
 70
     1
102
RTVSPropertyOp9
 70
     1
102
RTVSPropertyOp10
 70
     1
102
RTVSPropertyOp11
 70
     1
102
RTVSPropertyOp12
 70
     1
102
RTVSPropertyOp13
 70
     1
102
RTVSPropertyOp14
 70
     1
102
RTVSPropertyOp15
 70
     1
102
RTVSPropertyOp16
 70
     1
102
RTVSPropertyOp17
 70
     1
102
RTVSPropertyOp18
 70
     1
102
RTVSPropertyOp19
 70
     1
102
RTVSPropertyOp20
 70
     1
102
RTVSPropertyOp21
 70
     1
102
RTVSPropertyOp22
 70
     1
102
RTVSPropertyOp23
 70
     1
102
RTVSPropertyOp24
 70
     1
102
RTVSPropertyOp25
 70
     1
102
RTVSPropertyOp26
 70
     1
102
RTVSPropertyOp27
 70
     1
102
RTVSPropertyOp28
 70
     1
102
RTVSPropertyOp29
 70
     1
102
RTVSPropertyOp30
 70
     1
102
RTVSPropertyOp31
 70
     1
102
RTVSPropertyOp32
 70
     1
102
RTVSPropertyOp33
 70
     1
102
RTVSPropertyOp34
 70
     1
102
RTVSPropertyOp35
 70
     1
102
RTVSPropertyOp36
 70
     1
102
RTVSPropertyOp37
 70
     1
102
RTVSPropertyOp38
 70
     1
102
RTVSPropertyOp39
 70
     1
102
RTVSPropertyOp40
 70
     1
102
RTVSPropertyOp41
 70
     1
102
RTVSPropertyOp42
 70
     1
102
RTVSPropertyOp43
 70
     1
102
RTVSPropertyOp44
 70
     1
102
RTVSPropertyOp45
 70
     1
102
RTVSPropertyOp46
 70
     1
102
RTVSPropertyOp47
 70
     1
102
RTVSPropertyOp48
 70
     1
102
RTVSPropertyOp49
 70
     1
102
RTVSPropertyOp50
 70
     1
102
RTVSPropertyOp51
 70
     0
102
RTVSPropertyOp52
 70
     0
102
RTVSPropertyOp53
 70
     1
102
RTVSPropertyOp54
 70
     1
102
RTVSPropertyOp55
 70
     1
102
RTVSPropertyOp56
 70
     1
102
RTVSPropertyOp57
 70
     1
102
RTVSPropertyOp58
 70
     1
102
RTVSPropertyOp59
 70
     1
102
RTVSPropertyOp60
 70
     1
102
RTVSPropertyOp61
 70
     1
102
RTVSPropertyOp62
 70
     1
  0
XRECORD
  5
308E
102
{ACAD_REACTORS
330
308D
102
}
330
308D
100
AcDbXrecord
280
     1
102
RTVSPost2010Prop28
280
     0
102
RTVSPost2010PropOp28
 70
     1
102
RTVSPost2010Prop29
280
     1
102
RTVSPost2010PropOp29
 70
     1
102
RTVSPost2010Prop30
280
     1
102
RTVSPost2010PropOp30
 70
     1
102
RTVSPost2010Prop31
280
     0
102
RTVSPost2010PropOp31
 70
     1
102
RTVSPost2010Prop32
280
     0
102
RTVSPost2010PropOp32
 70
     1
102
RTVSPost2010Prop33
280
     0
102
RTVSPost2010PropOp33
 70
     1
102
RTVSPost2010Prop34
280
     0
102
RTVSPost2010PropOp34
 70
     1
102
RTVSPost2010Prop35
280
     0
102
RTVSPost2010PropOp35
 70
     1
102
RTVSPost2010Prop36
280
     0
102
RTVSPost2010PropOp36
 70
     1
102
RTVSPost2010Prop37
 90
       50
102
RTVSPost2010PropOp37
 70
     1
102
RTVSPost2010Prop38
140
0.0
102
RTVSPost2010PropOp38
 70
     1
102
RTVSPost2010Prop39
140
1.0
102
RTVSPost2010PropOp39
 70
     1
102
RTVSPost2010Prop40
 90
        0
102
RTVSPost2010PropOp40
 70
     1
102
RTVSPost2010Prop41ColorIndex
 90
       18
102
RTVSPost2010Prop41ColorRGB
 90
        0
102
RTVSPost2010PropOp41
 70
     1
102
RTVSPost2010Prop42
 90
       50
102
RTVSPost2010PropOp42
 70
     1
102
RTVSPost2010Prop43
 90
        3
102
RTVSPost2010PropOp43
 70
     1
102
RTVSPost2010Prop44ColorIndex
 90
        5
102
RTVSPost2010Prop44ColorRGB
 90
      255
102
RTVSPost2010PropOp44
 70
     1
102
RTVSPost2010Prop45
280
     0
102
RTVSPost2010PropOp45
 70
     1
102
RTVSPost2010Prop46
 90
       50
102
RTVSPost2010PropOp46
 70
     1
102
RTVSPost2010Prop47
 90
       50
102
RTVSPost2010PropOp47
 70
     1
102
RTVSPost2010Prop48
 90
       50
102
RTVSPost2010PropOp48
 70
     1
102
RTVSPost2010Prop49
280
     0
102
RTVSPost2010PropOp49
 70
     1
102
RTVSPost2010Prop50
 90
       50
102
RTVSPost2010PropOp50
 70
     1
102
RTVSPost2010Prop51ColorIndex
 90
      256
102
RTVSPost2010Prop51ColorRGB
 90
-16777216
102
RTVSPost2010PropOp51
 70
     0
102
RTVSPost2010Prop52
140
1.0
102
RTVSPost2010PropOp52
 70
     0
102
RTVSPost2010Prop53
 90
        2
102
RTVSPost2010PropOp53
 70
     1
102
RTVSPost2010Prop54
  1
strokes_ogs.tif
102
RTVSPost2010PropOp54
 70
     1
102
RTVSPost2010Prop55
280
     0
102
RTVSPost2010PropOp55
 70
     1
102
RTVSPost2010Prop56
140
1.0
102
RTVSPost2010PropOp56
 70
     1
102
RTVSPost2010Prop57
140
1.0
102
RTVSPost2010PropOp57
 70
     1
102
RTVSPropertyOp0
 70
     1
102
RTVSPropertyOp1
 70
     1
102
RTVSPropertyOp2
 70
     1
102
RTVSPropertyOp3
 70
     1
102
RTVSPropertyOp4
 70
     1
102
RTVSPropertyOp5
 70
     1
102
RTVSPropertyOp6
 70
     1
102
RTVSPropertyOp7
 70
     1
102
RTVSPropertyOp8
 70
     1
102
RTVSPropertyOp9
 70
     1
102
RTVSPropertyOp10
 70
     1
102
RTVSPropertyOp11
 70
     1
102
RTVSPropertyOp12
 70
     1
102
RTVSPropertyOp13
 70
     1
102
RTVSPropertyOp14
 70
     1
102
RTVSPropertyOp15
 70
     1
102
RTVSPropertyOp16
 70
     1
102
RTVSPropertyOp17
 70
     1
102
RTVSPropertyOp18
 70
     1
102
RTVSPropertyOp19
 70
     1
102
RTVSPropertyOp20
 70
     1
102
RTVSPropertyOp21
 70
     1
102
RTVSPropertyOp22
 70
     1
102
RTVSPropertyOp23
 70
     1
102
RTVSPropertyOp24
 70
     1
102
RTVSPropertyOp25
 70
     1
102
RTVSPropertyOp26
 70
     1
102
RTVSPropertyOp27
 70
     1
102
RTVSPropertyOp28
 70
     1
102
RTVSPropertyOp29
 70
     1
102
RTVSPropertyOp30
 70
     1
102
RTVSPropertyOp31
 70
     1
102
RTVSPropertyOp32
 70
     1
102
RTVSPropertyOp33
 70
     1
102
RTVSPropertyOp34
 70
     1
102
RTVSPropertyOp35
 70
     1
102
RTVSPropertyOp36
 70
     1
102
RTVSPropertyOp37
 70
     1
102
RTVSPropertyOp38
 70
     1
102
RTVSPropertyOp39
 70
     1
102
RTVSPropertyOp40
 70
     1
102
RTVSPropertyOp41
 70
     1
102
RTVSPropertyOp42
 70
     1
102
RTVSPropertyOp43
 70
     1
102
RTVSPropertyOp44
 70
     1
102
RTVSPropertyOp45
 70
     1
102
RTVSPropertyOp46
 70
     1
102
RTVSPropertyOp47
 70
     1
102
RTVSPropertyOp48
 70
     1
102
RTVSPropertyOp49
 70
     1
102
RTVSPropertyOp50
 70
     1
102
RTVSPropertyOp51
 70
     0
102
RTVSPropertyOp52
 70
     0
102
RTVSPropertyOp53
 70
     1
102
RTVSPropertyOp54
 70
     1
102
RTVSPropertyOp55
 70
     1
102
RTVSPropertyOp56
 70
     1
102
RTVSPropertyOp57
 70
     1
102
RTVSPropertyOp58
 70
     1
102
RTVSPropertyOp59
 70
     1
102
RTVSPropertyOp60
 70
     1
102
RTVSPropertyOp61
 70
     1
102
RTVSPropertyOp62
 70
     1
  0
XRECORD
  5
308C
102
{ACAD_REACTORS
330
308B
102
}
330
308B
100
AcDbXrecord
280
     1
102
RTVSPost2010Prop28
280
     0
102
RTVSPost2010PropOp28
 70
     1
102
RTVSPost2010Prop29
280
     1
102
RTVSPost2010PropOp29
 70
     1
102
RTVSPost2010Prop30
280
     1
102
RTVSPost2010PropOp30
 70
     1
102
RTVSPost2010Prop31
280
     0
102
RTVSPost2010PropOp31
 70
     1
102
RTVSPost2010Prop32
280
     0
102
RTVSPost2010PropOp32
 70
     1
102
RTVSPost2010Prop33
280
     0
102
RTVSPost2010PropOp33
 70
     1
102
RTVSPost2010Prop34
280
     0
102
RTVSPost2010PropOp34
 70
     1
102
RTVSPost2010Prop35
280
     0
102
RTVSPost2010PropOp35
 70
     1
102
RTVSPost2010Prop36
280
     0
102
RTVSPost2010PropOp36
 70
     1
102
RTVSPost2010Prop37
 90
       50
102
RTVSPost2010PropOp37
 70
     1
102
RTVSPost2010Prop38
140
0.0
102
RTVSPost2010PropOp38
 70
     1
102
RTVSPost2010Prop39
140
1.0
102
RTVSPost2010PropOp39
 70
     1
102
RTVSPost2010Prop40
 90
        0
102
RTVSPost2010PropOp40
 70
     1
102
RTVSPost2010Prop41ColorIndex
 90
       18
102
RTVSPost2010Prop41ColorRGB
 90
        0
102
RTVSPost2010PropOp41
 70
     1
102
RTVSPost2010Prop42
 90
       50
102
RTVSPost2010PropOp42
 70
     1
102
RTVSPost2010Prop43
 90
        3
102
RTVSPost2010PropOp43
 70
     1
102
RTVSPost2010Prop44ColorIndex
 90
        5
102
RTVSPost2010Prop44ColorRGB
 90
      255
102
RTVSPost2010PropOp44
 70
     1
102
RTVSPost2010Prop45
280
     0
102
RTVSPost2010PropOp45
 70
     1
102
RTVSPost2010Prop46
 90
       50
102
RTVSPost2010PropOp46
 70
     1
102
RTVSPost2010Prop47
 90
       50
102
RTVSPost2010PropOp47
 70
     1
102
RTVSPost2010Prop48
 90
       50
102
RTVSPost2010PropOp48
 70
     1
102
RTVSPost2010Prop49
280
     0
102
RTVSPost2010PropOp49
 70
     1
102
RTVSPost2010Prop50
 90
       50
102
RTVSPost2010PropOp50
 70
     1
102
RTVSPost2010Prop51ColorIndex
 90
      256
102
RTVSPost2010Prop51ColorRGB
 90
-16777216
102
RTVSPost2010PropOp51
 70
     0
102
RTVSPost2010Prop52
140
1.0
102
RTVSPost2010PropOp52
 70
     0
102
RTVSPost2010Prop53
 90
        2
102
RTVSPost2010PropOp53
 70
     1
102
RTVSPost2010Prop54
  1
strokes_ogs.tif
102
RTVSPost2010PropOp54
 70
     1
102
RTVSPost2010Prop55
280
     0
102
RTVSPost2010PropOp55
 70
     1
102
RTVSPost2010Prop56
140
1.0
102
RTVSPost2010PropOp56
 70
     1
102
RTVSPost2010Prop57
140
1.0
102
RTVSPost2010PropOp57
 70
     1
102
RTVSPropertyOp0
 70
     1
102
RTVSPropertyOp1
 70
     1
102
RTVSPropertyOp2
 70
     1
102
RTVSPropertyOp3
 70
     1
102
RTVSPropertyOp4
 70
     1
102
RTVSPropertyOp5
 70
     1
102
RTVSPropertyOp6
 70
     1
102
RTVSPropertyOp7
 70
     1
102
RTVSPropertyOp8
 70
     1
102
RTVSPropertyOp9
 70
     1
102
RTVSPropertyOp10
 70
     1
102
RTVSPropertyOp11
 70
     1
102
RTVSPropertyOp12
 70
     1
102
RTVSPropertyOp13
 70
     1
102
RTVSPropertyOp14
 70
     1
102
RTVSPropertyOp15
 70
     1
102
RTVSPropertyOp16
 70
     1
102
RTVSPropertyOp17
 70
     1
102
RTVSPropertyOp18
 70
     1
102
RTVSPropertyOp19
 70
     1
102
RTVSPropertyOp20
 70
     1
102
RTVSPropertyOp21
 70
     1
102
RTVSPropertyOp22
 70
     1
102
RTVSPropertyOp23
 70
     1
102
RTVSPropertyOp24
 70
     1
102
RTVSPropertyOp25
 70
     1
102
RTVSPropertyOp26
 70
     1
102
RTVSPropertyOp27
 70
     1
102
RTVSPropertyOp28
 70
     1
102
RTVSPropertyOp29
 70
     1
102
RTVSPropertyOp30
 70
     1
102
RTVSPropertyOp31
 70
     1
102
RTVSPropertyOp32
 70
     1
102
RTVSPropertyOp33
 70
     1
102
RTVSPropertyOp34
 70
     1
102
RTVSPropertyOp35
 70
     1
102
RTVSPropertyOp36
 70
     1
102
RTVSPropertyOp37
 70
     1
102
RTVSPropertyOp38
 70
     1
102
RTVSPropertyOp39
 70
     1
102
RTVSPropertyOp40
 70
     1
102
RTVSPropertyOp41
 70
     1
102
RTVSPropertyOp42
 70
     1
102
RTVSPropertyOp43
 70
     1
102
RTVSPropertyOp44
 70
     1
102
RTVSPropertyOp45
 70
     1
102
RTVSPropertyOp46
 70
     1
102
RTVSPropertyOp47
 70
     1
102
RTVSPropertyOp48
 70
     1
102
RTVSPropertyOp49
 70
     1
102
RTVSPropertyOp50
 70
     1
102
RTVSPropertyOp51
 70
     0
102
RTVSPropertyOp52
 70
     0
102
RTVSPropertyOp53
 70
     1
102
RTVSPropertyOp54
 70
     1
102
RTVSPropertyOp55
 70
     1
102
RTVSPropertyOp56
 70
     1
102
RTVSPropertyOp57
 70
     1
102
RTVSPropertyOp58
 70
     1
102
RTVSPropertyOp59
 70
     1
102
RTVSPropertyOp60
 70
     1
102
RTVSPropertyOp61
 70
     1
102
RTVSPropertyOp62
 70
     1
  0
XRECORD
  5
3086
102
{ACAD_REACTORS
330
3085
102
}
330
3085
100
AcDbXrecord
280
     1
102
RTVSPost2010Prop28
280
     0
102
RTVSPost2010PropOp28
 70
     1
102
RTVSPost2010Prop29
280
     1
102
RTVSPost2010PropOp29
 70
     1
102
RTVSPost2010Prop30
280
     1
102
RTVSPost2010PropOp30
 70
     1
102
RTVSPost2010Prop31
280
     0
102
RTVSPost2010PropOp31
 70
     1
102
RTVSPost2010Prop32
280
     0
102
RTVSPost2010PropOp32
 70
     1
102
RTVSPost2010Prop33
280
     0
102
RTVSPost2010PropOp33
 70
     1
102
RTVSPost2010Prop34
280
     0
102
RTVSPost2010PropOp34
 70
     1
102
RTVSPost2010Prop35
280
     0
102
RTVSPost2010PropOp35
 70
     1
102
RTVSPost2010Prop36
280
     0
102
RTVSPost2010PropOp36
 70
     1
102
RTVSPost2010Prop37
 90
       50
102
RTVSPost2010PropOp37
 70
     1
102
RTVSPost2010Prop38
140
0.0
102
RTVSPost2010PropOp38
 70
     1
102
RTVSPost2010Prop39
140
1.0
102
RTVSPost2010PropOp39
 70
     1
102
RTVSPost2010Prop40
 90
        0
102
RTVSPost2010PropOp40
 70
     1
102
RTVSPost2010Prop41ColorIndex
 90
       18
102
RTVSPost2010Prop41ColorRGB
 90
        0
102
RTVSPost2010PropOp41
 70
     1
102
RTVSPost2010Prop42
 90
       50
102
RTVSPost2010PropOp42
 70
     1
102
RTVSPost2010Prop43
 90
        3
102
RTVSPost2010PropOp43
 70
     1
102
RTVSPost2010Prop44ColorIndex
 90
        5
102
RTVSPost2010Prop44ColorRGB
 90
      255
102
RTVSPost2010PropOp44
 70
     1
102
RTVSPost2010Prop45
280
     0
102
RTVSPost2010PropOp45
 70
     1
102
RTVSPost2010Prop46
 90
       50
102
RTVSPost2010PropOp46
 70
     1
102
RTVSPost2010Prop47
 90
       50
102
RTVSPost2010PropOp47
 70
     1
102
RTVSPost2010Prop48
 90
       50
102
RTVSPost2010PropOp48
 70
     1
102
RTVSPost2010Prop49
280
     0
102
RTVSPost2010PropOp49
 70
     1
102
RTVSPost2010Prop50
 90
       50
102
RTVSPost2010PropOp50
 70
     1
102
RTVSPost2010Prop51ColorIndex
 90
      256
102
RTVSPost2010Prop51ColorRGB
 90
-16777216
102
RTVSPost2010PropOp51
 70
     0
102
RTVSPost2010Prop52
140
1.0
102
RTVSPost2010PropOp52
 70
     0
102
RTVSPost2010Prop53
 90
        2
102
RTVSPost2010PropOp53
 70
     1
102
RTVSPost2010Prop54
  1
strokes_ogs.tif
102
RTVSPost2010PropOp54
 70
     1
102
RTVSPost2010Prop55
280
     0
102
RTVSPost2010PropOp55
 70
     1
102
RTVSPost2010Prop56
140
1.0
102
RTVSPost2010PropOp56
 70
     1
102
RTVSPost2010Prop57
140
1.0
102
RTVSPost2010PropOp57
 70
     1
102
RTVSPropertyOp0
 70
     1
102
RTVSPropertyOp1
 70
     1
102
RTVSPropertyOp2
 70
     1
102
RTVSPropertyOp3
 70
     1
102
RTVSPropertyOp4
 70
     1
102
RTVSPropertyOp5
 70
     1
102
RTVSPropertyOp6
 70
     1
102
RTVSPropertyOp7
 70
     1
102
RTVSPropertyOp8
 70
     1
102
RTVSPropertyOp9
 70
     1
102
RTVSPropertyOp10
 70
     1
102
RTVSPropertyOp11
 70
     1
102
RTVSPropertyOp12
 70
     1
102
RTVSPropertyOp13
 70
     1
102
RTVSPropertyOp14
 70
     1
102
RTVSPropertyOp15
 70
     1
102
RTVSPropertyOp16
 70
     1
102
RTVSPropertyOp17
 70
     1
102
RTVSPropertyOp18
 70
     1
102
RTVSPropertyOp19
 70
     1
102
RTVSPropertyOp20
 70
     1
102
RTVSPropertyOp21
 70
     1
102
RTVSPropertyOp22
 70
     1
102
RTVSPropertyOp23
 70
     1
102
RTVSPropertyOp24
 70
     1
102
RTVSPropertyOp25
 70
     1
102
RTVSPropertyOp26
 70
     1
102
RTVSPropertyOp27
 70
     1
102
RTVSPropertyOp28
 70
     1
102
RTVSPropertyOp29
 70
     1
102
RTVSPropertyOp30
 70
     1
102
RTVSPropertyOp31
 70
     1
102
RTVSPropertyOp32
 70
     1
102
RTVSPropertyOp33
 70
     1
102
RTVSPropertyOp34
 70
     1
102
RTVSPropertyOp35
 70
     1
102
RTVSPropertyOp36
 70
     1
102
RTVSPropertyOp37
 70
     1
102
RTVSPropertyOp38
 70
     1
102
RTVSPropertyOp39
 70
     1
102
RTVSPropertyOp40
 70
     1
102
RTVSPropertyOp41
 70
     1
102
RTVSPropertyOp42
 70
     1
102
RTVSPropertyOp43
 70
     1
102
RTVSPropertyOp44
 70
     1
102
RTVSPropertyOp45
 70
     1
102
RTVSPropertyOp46
 70
     1
102
RTVSPropertyOp47
 70
     1
102
RTVSPropertyOp48
 70
     1
102
RTVSPropertyOp49
 70
     1
102
RTVSPropertyOp50
 70
     1
102
RTVSPropertyOp51
 70
     0
102
RTVSPropertyOp52
 70
     0
102
RTVSPropertyOp53
 70
     1
102
RTVSPropertyOp54
 70
     1
102
RTVSPropertyOp55
 70
     1
102
RTVSPropertyOp56
 70
     1
102
RTVSPropertyOp57
 70
     1
102
RTVSPropertyOp58
 70
     1
102
RTVSPropertyOp59
 70
     1
102
RTVSPropertyOp60
 70
     1
102
RTVSPropertyOp61
 70
     1
102
RTVSPropertyOp62
 70
     1
  0
XRECORD
  5
3088
102
{ACAD_REACTORS
330
3087
102
}
330
3087
100
AcDbXrecord
280
     1
102
RTVSPost2010Prop28
280
     0
102
RTVSPost2010PropOp28
 70
     1
102
RTVSPost2010Prop29
280
     1
102
RTVSPost2010PropOp29
 70
     1
102
RTVSPost2010Prop30
280
     1
102
RTVSPost2010PropOp30
 70
     1
102
RTVSPost2010Prop31
280
     0
102
RTVSPost2010PropOp31
 70
     1
102
RTVSPost2010Prop32
280
     0
102
RTVSPost2010PropOp32
 70
     1
102
RTVSPost2010Prop33
280
     0
102
RTVSPost2010PropOp33
 70
     1
102
RTVSPost2010Prop34
280
     0
102
RTVSPost2010PropOp34
 70
     1
102
RTVSPost2010Prop35
280
     0
102
RTVSPost2010PropOp35
 70
     1
102
RTVSPost2010Prop36
280
     0
102
RTVSPost2010PropOp36
 70
     1
102
RTVSPost2010Prop37
 90
       50
102
RTVSPost2010PropOp37
 70
     1
102
RTVSPost2010Prop38
140
0.0
102
RTVSPost2010PropOp38
 70
     1
102
RTVSPost2010Prop39
140
1.0
102
RTVSPost2010PropOp39
 70
     1
102
RTVSPost2010Prop40
 90
        0
102
RTVSPost2010PropOp40
 70
     1
102
RTVSPost2010Prop41ColorIndex
 90
       18
102
RTVSPost2010Prop41ColorRGB
 90
        0
102
RTVSPost2010PropOp41
 70
     1
102
RTVSPost2010Prop42
 90
       50
102
RTVSPost2010PropOp42
 70
     1
102
RTVSPost2010Prop43
 90
        3
102
RTVSPost2010PropOp43
 70
     1
102
RTVSPost2010Prop44ColorIndex
 90
        5
102
RTVSPost2010Prop44ColorRGB
 90
      255
102
RTVSPost2010PropOp44
 70
     1
102
RTVSPost2010Prop45
280
     0
102
RTVSPost2010PropOp45
 70
     1
102
RTVSPost2010Prop46
 90
       50
102
RTVSPost2010PropOp46
 70
     1
102
RTVSPost2010Prop47
 90
       50
102
RTVSPost2010PropOp47
 70
     1
102
RTVSPost2010Prop48
 90
       50
102
RTVSPost2010PropOp48
 70
     1
102
RTVSPost2010Prop49
280
     0
102
RTVSPost2010PropOp49
 70
     1
102
RTVSPost2010Prop50
 90
       50
102
RTVSPost2010PropOp50
 70
     1
102
RTVSPost2010Prop51ColorIndex
 90
      256
102
RTVSPost2010Prop51ColorRGB
 90
-16777216
102
RTVSPost2010PropOp51
 70
     0
102
RTVSPost2010Prop52
140
1.0
102
RTVSPost2010PropOp52
 70
     0
102
RTVSPost2010Prop53
 90
        2
102
RTVSPost2010PropOp53
 70
     1
102
RTVSPost2010Prop54
  1
strokes_ogs.tif
102
RTVSPost2010PropOp54
 70
     1
102
RTVSPost2010Prop55
280
     0
102
RTVSPost2010PropOp55
 70
     1
102
RTVSPost2010Prop56
140
1.0
102
RTVSPost2010PropOp56
 70
     1
102
RTVSPost2010Prop57
140
1.0
102
RTVSPost2010PropOp57
 70
     1
102
RTVSPropertyOp0
 70
     1
102
RTVSPropertyOp1
 70
     1
102
RTVSPropertyOp2
 70
     1
102
RTVSPropertyOp3
 70
     1
102
RTVSPropertyOp4
 70
     1
102
RTVSPropertyOp5
 70
     1
102
RTVSPropertyOp6
 70
     1
102
RTVSPropertyOp7
 70
     1
102
RTVSPropertyOp8
 70
     1
102
RTVSPropertyOp9
 70
     1
102
RTVSPropertyOp10
 70
     1
102
RTVSPropertyOp11
 70
     1
102
RTVSPropertyOp12
 70
     1
102
RTVSPropertyOp13
 70
     1
102
RTVSPropertyOp14
 70
     1
102
RTVSPropertyOp15
 70
     1
102
RTVSPropertyOp16
 70
     1
102
RTVSPropertyOp17
 70
     1
102
RTVSPropertyOp18
 70
     1
102
RTVSPropertyOp19
 70
     1
102
RTVSPropertyOp20
 70
     1
102
RTVSPropertyOp21
 70
     1
102
RTVSPropertyOp22
 70
     1
102
RTVSPropertyOp23
 70
     1
102
RTVSPropertyOp24
 70
     1
102
RTVSPropertyOp25
 70
     1
102
RTVSPropertyOp26
 70
     1
102
RTVSPropertyOp27
 70
     1
102
RTVSPropertyOp28
 70
     1
102
RTVSPropertyOp29
 70
     1
102
RTVSPropertyOp30
 70
     1
102
RTVSPropertyOp31
 70
     1
102
RTVSPropertyOp32
 70
     1
102
RTVSPropertyOp33
 70
     1
102
RTVSPropertyOp34
 70
     1
102
RTVSPropertyOp35
 70
     1
102
RTVSPropertyOp36
 70
     1
102
RTVSPropertyOp37
 70
     1
102
RTVSPropertyOp38
 70
     1
102
RTVSPropertyOp39
 70
     1
102
RTVSPropertyOp40
 70
     1
102
RTVSPropertyOp41
 70
     1
102
RTVSPropertyOp42
 70
     1
102
RTVSPropertyOp43
 70
     1
102
RTVSPropertyOp44
 70
     1
102
RTVSPropertyOp45
 70
     1
102
RTVSPropertyOp46
 70
     1
102
RTVSPropertyOp47
 70
     1
102
RTVSPropertyOp48
 70
     1
102
RTVSPropertyOp49
 70
     1
102
RTVSPropertyOp50
 70
     1
102
RTVSPropertyOp51
 70
     0
102
RTVSPropertyOp52
 70
     0
102
RTVSPropertyOp53
 70
     1
102
RTVSPropertyOp54
 70
     1
102
RTVSPropertyOp55
 70
     1
102
RTVSPropertyOp56
 70
     1
102
RTVSPropertyOp57
 70
     1
102
RTVSPropertyOp58
 70
     1
102
RTVSPropertyOp59
 70
     1
102
RTVSPropertyOp60
 70
     1
102
RTVSPropertyOp61
 70
     1
102
RTVSPropertyOp62
 70
     1
  0
XRECORD
  5
307E
102
{ACAD_REACTORS
330
307D
102
}
330
307D
100
AcDbXrecord
280
     1
102
RTVSPost2010Prop28
280
     0
102
RTVSPost2010PropOp28
 70
     1
102
RTVSPost2010Prop29
280
     1
102
RTVSPost2010PropOp29
 70
     1
102
RTVSPost2010Prop30
280
     1
102
RTVSPost2010PropOp30
 70
     1
102
RTVSPost2010Prop31
280
     0
102
RTVSPost2010PropOp31
 70
     1
102
RTVSPost2010Prop32
280
     0
102
RTVSPost2010PropOp32
 70
     1
102
RTVSPost2010Prop33
280
     0
102
RTVSPost2010PropOp33
 70
     1
102
RTVSPost2010Prop34
280
     0
102
RTVSPost2010PropOp34
 70
     1
102
RTVSPost2010Prop35
280
     0
102
RTVSPost2010PropOp35
 70
     1
102
RTVSPost2010Prop36
280
     0
102
RTVSPost2010PropOp36
 70
     1
102
RTVSPost2010Prop37
 90
       50
102
RTVSPost2010PropOp37
 70
     1
102
RTVSPost2010Prop38
140
0.0
102
RTVSPost2010PropOp38
 70
     1
102
RTVSPost2010Prop39
140
1.0
102
RTVSPost2010PropOp39
 70
     1
102
RTVSPost2010Prop40
 90
        0
102
RTVSPost2010PropOp40
 70
     1
102
RTVSPost2010Prop41ColorIndex
 90
       18
102
RTVSPost2010Prop41ColorRGB
 90
        0
102
RTVSPost2010PropOp41
 70
     1
102
RTVSPost2010Prop42
 90
       50
102
RTVSPost2010PropOp42
 70
     1
102
RTVSPost2010Prop43
 90
        3
102
RTVSPost2010PropOp43
 70
     1
102
RTVSPost2010Prop44ColorIndex
 90
        5
102
RTVSPost2010Prop44ColorRGB
 90
      255
102
RTVSPost2010PropOp44
 70
     1
102
RTVSPost2010Prop45
280
     0
102
RTVSPost2010PropOp45
 70
     1
102
RTVSPost2010Prop46
 90
       50
102
RTVSPost2010PropOp46
 70
     1
102
RTVSPost2010Prop47
 90
       50
102
RTVSPost2010PropOp47
 70
     1
102
RTVSPost2010Prop48
 90
       50
102
RTVSPost2010PropOp48
 70
     1
102
RTVSPost2010Prop49
280
     0
102
RTVSPost2010PropOp49
 70
     1
102
RTVSPost2010Prop50
 90
       50
102
RTVSPost2010PropOp50
 70
     1
102
RTVSPost2010Prop51ColorIndex
 90
      256
102
RTVSPost2010Prop51ColorRGB
 90
-16777216
102
RTVSPost2010PropOp51
 70
     0
102
RTVSPost2010Prop52
140
1.0
102
RTVSPost2010PropOp52
 70
     0
102
RTVSPost2010Prop53
 90
        2
102
RTVSPost2010PropOp53
 70
     1
102
RTVSPost2010Prop54
  1
strokes_ogs.tif
102
RTVSPost2010PropOp54
 70
     1
102
RTVSPost2010Prop55
280
     0
102
RTVSPost2010PropOp55
 70
     1
102
RTVSPost2010Prop56
140
1.0
102
RTVSPost2010PropOp56
 70
     1
102
RTVSPost2010Prop57
140
1.0
102
RTVSPost2010PropOp57
 70
     1
102
RTVSPropertyOp0
 70
     1
102
RTVSPropertyOp1
 70
     1
102
RTVSPropertyOp2
 70
     1
102
RTVSPropertyOp3
 70
     1
102
RTVSPropertyOp4
 70
     1
102
RTVSPropertyOp5
 70
     1
102
RTVSPropertyOp6
 70
     1
102
RTVSPropertyOp7
 70
     1
102
RTVSPropertyOp8
 70
     1
102
RTVSPropertyOp9
 70
     1
102
RTVSPropertyOp10
 70
     1
102
RTVSPropertyOp11
 70
     1
102
RTVSPropertyOp12
 70
     1
102
RTVSPropertyOp13
 70
     1
102
RTVSPropertyOp14
 70
     1
102
RTVSPropertyOp15
 70
     1
102
RTVSPropertyOp16
 70
     1
102
RTVSPropertyOp17
 70
     1
102
RTVSPropertyOp18
 70
     1
102
RTVSPropertyOp19
 70
     1
102
RTVSPropertyOp20
 70
     1
102
RTVSPropertyOp21
 70
     1
102
RTVSPropertyOp22
 70
     1
102
RTVSPropertyOp23
 70
     1
102
RTVSPropertyOp24
 70
     1
102
RTVSPropertyOp25
 70
     1
102
RTVSPropertyOp26
 70
     1
102
RTVSPropertyOp27
 70
     1
102
RTVSPropertyOp28
 70
     1
102
RTVSPropertyOp29
 70
     1
102
RTVSPropertyOp30
 70
     1
102
RTVSPropertyOp31
 70
     1
102
RTVSPropertyOp32
 70
     1
102
RTVSPropertyOp33
 70
     1
102
RTVSPropertyOp34
 70
     1
102
RTVSPropertyOp35
 70
     1
102
RTVSPropertyOp36
 70
     1
102
RTVSPropertyOp37
 70
     1
102
RTVSPropertyOp38
 70
     1
102
RTVSPropertyOp39
 70
     1
102
RTVSPropertyOp40
 70
     1
102
RTVSPropertyOp41
 70
     1
102
RTVSPropertyOp42
 70
     1
102
RTVSPropertyOp43
 70
     1
102
RTVSPropertyOp44
 70
     1
102
RTVSPropertyOp45
 70
     1
102
RTVSPropertyOp46
 70
     1
102
RTVSPropertyOp47
 70
     1
102
RTVSPropertyOp48
 70
     1
102
RTVSPropertyOp49
 70
     1
102
RTVSPropertyOp50
 70
     1
102
RTVSPropertyOp51
 70
     0
102
RTVSPropertyOp52
 70
     0
102
RTVSPropertyOp53
 70
     1
102
RTVSPropertyOp54
 70
     1
102
RTVSPropertyOp55
 70
     1
102
RTVSPropertyOp56
 70
     1
102
RTVSPropertyOp57
 70
     1
102
RTVSPropertyOp58
 70
     1
102
RTVSPropertyOp59
 70
     1
102
RTVSPropertyOp60
 70
     1
102
RTVSPropertyOp61
 70
     1
102
RTVSPropertyOp62
 70
     1
  0
XRECORD
  5
3072
102
{ACAD_REACTORS
330
3071
102
}
330
3071
100
AcDbXrecord
280
     1
102
RTVSPost2010Prop28
280
     0
102
RTVSPost2010PropOp28
 70
     1
102
RTVSPost2010Prop29
280
     1
102
RTVSPost2010PropOp29
 70
     1
102
RTVSPost2010Prop30
280
     1
102
RTVSPost2010PropOp30
 70
     1
102
RTVSPost2010Prop31
280
     0
102
RTVSPost2010PropOp31
 70
     1
102
RTVSPost2010Prop32
280
     0
102
RTVSPost2010PropOp32
 70
     1
102
RTVSPost2010Prop33
280
     0
102
RTVSPost2010PropOp33
 70
     1
102
RTVSPost2010Prop34
280
     0
102
RTVSPost2010PropOp34
 70
     1
102
RTVSPost2010Prop35
280
     0
102
RTVSPost2010PropOp35
 70
     1
102
RTVSPost2010Prop36
280
     0
102
RTVSPost2010PropOp36
 70
     1
102
RTVSPost2010Prop37
 90
       50
102
RTVSPost2010PropOp37
 70
     1
102
RTVSPost2010Prop38
140
0.0
102
RTVSPost2010PropOp38
 70
     1
102
RTVSPost2010Prop39
140
1.0
102
RTVSPost2010PropOp39
 70
     1
102
RTVSPost2010Prop40
 90
        0
102
RTVSPost2010PropOp40
 70
     1
102
RTVSPost2010Prop41ColorIndex
 90
       18
102
RTVSPost2010Prop41ColorRGB
 90
        0
102
RTVSPost2010PropOp41
 70
     1
102
RTVSPost2010Prop42
 90
       50
102
RTVSPost2010PropOp42
 70
     1
102
RTVSPost2010Prop43
 90
        3
102
RTVSPost2010PropOp43
 70
     1
102
RTVSPost2010Prop44ColorIndex
 90
        5
102
RTVSPost2010Prop44ColorRGB
 90
      255
102
RTVSPost2010PropOp44
 70
     1
102
RTVSPost2010Prop45
280
     0
102
RTVSPost2010PropOp45
 70
     1
102
RTVSPost2010Prop46
 90
       50
102
RTVSPost2010PropOp46
 70
     1
102
RTVSPost2010Prop47
 90
       50
102
RTVSPost2010PropOp47
 70
     1
102
RTVSPost2010Prop48
 90
       50
102
RTVSPost2010PropOp48
 70
     1
102
RTVSPost2010Prop49
280
     0
102
RTVSPost2010PropOp49
 70
     1
102
RTVSPost2010Prop50
 90
       50
102
RTVSPost2010PropOp50
 70
     1
102
RTVSPost2010Prop51ColorIndex
 90
      256
102
RTVSPost2010Prop51ColorRGB
 90
-16777216
102
RTVSPost2010PropOp51
 70
     0
102
RTVSPost2010Prop52
140
1.0
102
RTVSPost2010PropOp52
 70
     0
102
RTVSPost2010Prop53
 90
        2
102
RTVSPost2010PropOp53
 70
     1
102
RTVSPost2010Prop54
  1
strokes_ogs.tif
102
RTVSPost2010PropOp54
 70
     1
102
RTVSPost2010Prop55
280
     0
102
RTVSPost2010PropOp55
 70
     1
102
RTVSPost2010Prop56
140
1.0
102
RTVSPost2010PropOp56
 70
     1
102
RTVSPost2010Prop57
140
1.0
102
RTVSPost2010PropOp57
 70
     1
102
RTVSPropertyOp0
 70
     1
102
RTVSPropertyOp1
 70
     1
102
RTVSPropertyOp2
 70
     1
102
RTVSPropertyOp3
 70
     1
102
RTVSPropertyOp4
 70
     1
102
RTVSPropertyOp5
 70
     1
102
RTVSPropertyOp6
 70
     1
102
RTVSPropertyOp7
 70
     1
102
RTVSPropertyOp8
 70
     1
102
RTVSPropertyOp9
 70
     1
102
RTVSPropertyOp10
 70
     1
102
RTVSPropertyOp11
 70
     1
102
RTVSPropertyOp12
 70
     1
102
RTVSPropertyOp13
 70
     1
102
RTVSPropertyOp14
 70
     1
102
RTVSPropertyOp15
 70
     1
102
RTVSPropertyOp16
 70
     1
102
RTVSPropertyOp17
 70
     1
102
RTVSPropertyOp18
 70
     1
102
RTVSPropertyOp19
 70
     1
102
RTVSPropertyOp20
 70
     1
102
RTVSPropertyOp21
 70
     1
102
RTVSPropertyOp22
 70
     1
102
RTVSPropertyOp23
 70
     1
102
RTVSPropertyOp24
 70
     1
102
RTVSPropertyOp25
 70
     1
102
RTVSPropertyOp26
 70
     1
102
RTVSPropertyOp27
 70
     1
102
RTVSPropertyOp28
 70
     1
102
RTVSPropertyOp29
 70
     1
102
RTVSPropertyOp30
 70
     1
102
RTVSPropertyOp31
 70
     1
102
RTVSPropertyOp32
 70
     1
102
RTVSPropertyOp33
 70
     1
102
RTVSPropertyOp34
 70
     1
102
RTVSPropertyOp35
 70
     1
102
RTVSPropertyOp36
 70
     1
102
RTVSPropertyOp37
 70
     1
102
RTVSPropertyOp38
 70
     1
102
RTVSPropertyOp39
 70
     1
102
RTVSPropertyOp40
 70
     1
102
RTVSPropertyOp41
 70
     1
102
RTVSPropertyOp42
 70
     1
102
RTVSPropertyOp43
 70
     1
102
RTVSPropertyOp44
 70
     1
102
RTVSPropertyOp45
 70
     1
102
RTVSPropertyOp46
 70
     1
102
RTVSPropertyOp47
 70
     1
102
RTVSPropertyOp48
 70
     1
102
RTVSPropertyOp49
 70
     1
102
RTVSPropertyOp50
 70
     1
102
RTVSPropertyOp51
 70
     0
102
RTVSPropertyOp52
 70
     0
102
RTVSPropertyOp53
 70
     1
102
RTVSPropertyOp54
 70
     1
102
RTVSPropertyOp55
 70
     1
102
RTVSPropertyOp56
 70
     1
102
RTVSPropertyOp57
 70
     1
102
RTVSPropertyOp58
 70
     1
102
RTVSPropertyOp59
 70
     1
102
RTVSPropertyOp60
 70
     1
102
RTVSPropertyOp61
 70
     1
102
RTVSPropertyOp62
 70
     1
  0
XRECORD
  5
308A
102
{ACAD_REACTORS
330
3089
102
}
330
3089
100
AcDbXrecord
280
     1
102
RTVSPost2010Prop28
280
     0
102
RTVSPost2010PropOp28
 70
     1
102
RTVSPost2010Prop29
280
     1
102
RTVSPost2010PropOp29
 70
     1
102
RTVSPost2010Prop30
280
     1
102
RTVSPost2010PropOp30
 70
     1
102
RTVSPost2010Prop31
280
     0
102
RTVSPost2010PropOp31
 70
     1
102
RTVSPost2010Prop32
280
     0
102
RTVSPost2010PropOp32
 70
     1
102
RTVSPost2010Prop33
280
     0
102
RTVSPost2010PropOp33
 70
     1
102
RTVSPost2010Prop34
280
     0
102
RTVSPost2010PropOp34
 70
     1
102
RTVSPost2010Prop35
280
     0
102
RTVSPost2010PropOp35
 70
     1
102
RTVSPost2010Prop36
280
     0
102
RTVSPost2010PropOp36
 70
     1
102
RTVSPost2010Prop37
 90
       50
102
RTVSPost2010PropOp37
 70
     1
102
RTVSPost2010Prop38
140
0.0
102
RTVSPost2010PropOp38
 70
     1
102
RTVSPost2010Prop39
140
1.0
102
RTVSPost2010PropOp39
 70
     1
102
RTVSPost2010Prop40
 90
        0
102
RTVSPost2010PropOp40
 70
     1
102
RTVSPost2010Prop41ColorIndex
 90
       18
102
RTVSPost2010Prop41ColorRGB
 90
        0
102
RTVSPost2010PropOp41
 70
     1
102
RTVSPost2010Prop42
 90
       50
102
RTVSPost2010PropOp42
 70
     1
102
RTVSPost2010Prop43
 90
        3
102
RTVSPost2010PropOp43
 70
     1
102
RTVSPost2010Prop44ColorIndex
 90
        5
102
RTVSPost2010Prop44ColorRGB
 90
      255
102
RTVSPost2010PropOp44
 70
     1
102
RTVSPost2010Prop45
280
     0
102
RTVSPost2010PropOp45
 70
     1
102
RTVSPost2010Prop46
 90
       50
102
RTVSPost2010PropOp46
 70
     1
102
RTVSPost2010Prop47
 90
       50
102
RTVSPost2010PropOp47
 70
     1
102
RTVSPost2010Prop48
 90
       50
102
RTVSPost2010PropOp48
 70
     1
102
RTVSPost2010Prop49
280
     0
102
RTVSPost2010PropOp49
 70
     1
102
RTVSPost2010Prop50
 90
       50
102
RTVSPost2010PropOp50
 70
     1
102
RTVSPost2010Prop51ColorIndex
 90
      256
102
RTVSPost2010Prop51ColorRGB
 90
-16777216
102
RTVSPost2010PropOp51
 70
     0
102
RTVSPost2010Prop52
140
1.0
102
RTVSPost2010PropOp52
 70
     0
102
RTVSPost2010Prop53
 90
        2
102
RTVSPost2010PropOp53
 70
     1
102
RTVSPost2010Prop54
  1
strokes_ogs.tif
102
RTVSPost2010PropOp54
 70
     1
102
RTVSPost2010Prop55
280
     0
102
RTVSPost2010PropOp55
 70
     1
102
RTVSPost2010Prop56
140
1.0
102
RTVSPost2010PropOp56
 70
     1
102
RTVSPost2010Prop57
140
1.0
102
RTVSPost2010PropOp57
 70
     1
102
RTVSPropertyOp0
 70
     1
102
RTVSPropertyOp1
 70
     1
102
RTVSPropertyOp2
 70
     1
102
RTVSPropertyOp3
 70
     1
102
RTVSPropertyOp4
 70
     1
102
RTVSPropertyOp5
 70
     1
102
RTVSPropertyOp6
 70
     1
102
RTVSPropertyOp7
 70
     1
102
RTVSPropertyOp8
 70
     1
102
RTVSPropertyOp9
 70
     1
102
RTVSPropertyOp10
 70
     1
102
RTVSPropertyOp11
 70
     1
102
RTVSPropertyOp12
 70
     1
102
RTVSPropertyOp13
 70
     1
102
RTVSPropertyOp14
 70
     1
102
RTVSPropertyOp15
 70
     1
102
RTVSPropertyOp16
 70
     1
102
RTVSPropertyOp17
 70
     1
102
RTVSPropertyOp18
 70
     1
102
RTVSPropertyOp19
 70
     1
102
RTVSPropertyOp20
 70
     1
102
RTVSPropertyOp21
 70
     1
102
RTVSPropertyOp22
 70
     1
102
RTVSPropertyOp23
 70
     1
102
RTVSPropertyOp24
 70
     1
102
RTVSPropertyOp25
 70
     1
102
RTVSPropertyOp26
 70
     1
102
RTVSPropertyOp27
 70
     1
102
RTVSPropertyOp28
 70
     1
102
RTVSPropertyOp29
 70
     1
102
RTVSPropertyOp30
 70
     1
102
RTVSPropertyOp31
 70
     1
102
RTVSPropertyOp32
 70
     1
102
RTVSPropertyOp33
 70
     1
102
RTVSPropertyOp34
 70
     1
102
RTVSPropertyOp35
 70
     1
102
RTVSPropertyOp36
 70
     1
102
RTVSPropertyOp37
 70
     1
102
RTVSPropertyOp38
 70
     1
102
RTVSPropertyOp39
 70
     1
102
RTVSPropertyOp40
 70
     1
102
RTVSPropertyOp41
 70
     1
102
RTVSPropertyOp42
 70
     1
102
RTVSPropertyOp43
 70
     1
102
RTVSPropertyOp44
 70
     1
102
RTVSPropertyOp45
 70
     1
102
RTVSPropertyOp46
 70
     1
102
RTVSPropertyOp47
 70
     1
102
RTVSPropertyOp48
 70
     1
102
RTVSPropertyOp49
 70
     1
102
RTVSPropertyOp50
 70
     1
102
RTVSPropertyOp51
 70
     0
102
RTVSPropertyOp52
 70
     0
102
RTVSPropertyOp53
 70
     1
102
RTVSPropertyOp54
 70
     1
102
RTVSPropertyOp55
 70
     1
102
RTVSPropertyOp56
 70
     1
102
RTVSPropertyOp57
 70
     1
102
RTVSPropertyOp58
 70
     1
102
RTVSPropertyOp59
 70
     1
102
RTVSPropertyOp60
 70
     1
102
RTVSPropertyOp61
 70
     1
102
RTVSPropertyOp62
 70
     1
  0
ENDSEC
  0
EOF
