  0
SECTION
  2
HEADER
  9
$ACADVER
  1
AC1015
  9
$ACADMAINTVER
 70
    20
  9
$DWGCODEPAGE
  3
ANSI_1252
  9
$INSBASE
 10
0.0
 20
0.0
 30
0.0
  9
$EXTMIN
 10
-97.72639488639015
 20
-27.42795011552434
 30
-0.0015258207003583
  9
$EXTMAX
 10
81.65481391900858
 20
28.00169160423346
 30
0.0000000349246037
  9
$LIMMIN
 10
0.0
 20
0.0
  9
$LIMMAX
 10
12.0
 20
9.0
  9
$ORTHOMODE
 70
     0
  9
$REGENMODE
 70
     1
  9
$FILLMODE
 70
     1
  9
$QTEXTMODE
 70
     0
  9
$MIRRTEXT
 70
     1
  9
$LTSCALE
 40
1.0
  9
$ATTMODE
 70
     1
  9
$TEXTSIZE
 40
3.0
  9
$TRACEWID
 40
10.0
  9
$TEXTSTYLE
  7
SANDVIK_STYLE
  9
$CLAYER
  8
SK2
  9
$CELTYPE
  6
ByLayer
  9
$CECOLOR
 62
   256
  9
$CELTSCALE
 40
1.0
  9
$DISPSILH
 70
     0
  9
$DIMSCALE
 40
0.0
  9
$DIMASZ
 40
4.57
  9
$DIMEXO
 40
0.0
  9
$DIMDLI
 40
0.38
  9
$DIMRND
 40
0.0
  9
$DIMDLE
 40
0.0
  9
$DIMEXE
 40
5.0
  9
$DIMTP
 40
0.0
  9
$DIMTM
 40
0.0
  9
$DIMTXT
 40
4.5
  9
$DIMCEN
 40
0.09
  9
$DIMTSZ
 40
0.0
  9
$DIMTOL
 70
     0
  9
$DIMLIM
 70
     0
  9
$DIMTIH
 70
     0
  9
$DIMTOH
 70
     0
  9
$DIMSE1
 70
     0
  9
$DIMSE2
 70
     0
  9
$DIMTAD
 70
     1
  9
$DIMZIN
 70
     8
  9
$DIMBLK
  1

  9
$DIMASO
 70
     1
  9
$DIMSHO
 70
     1
  9
$DIMPOST
  1
 
  9
$DIMAPOST
  1
 
  9
$DIMALT
 70
     0
  9
$DIMALTD
 70
     2
  9
$DIMALTF
 40
25.4
  9
$DIMLFAC
 40
1.0
  9
$DIMTOFL
 70
     0
  9
$DIMTVP
 40
0.0
  9
$DIMTIX
 70
     0
  9
$DIMSOXD
 70
     0
  9
$DIMSAH
 70
     0
  9
$DIMBLK1
  1

  9
$DIMBLK2
  1

  9
$DIMSTYLE
  2
SANDVIK_DIM
  9
$DIMCLRD
 70
   256
  9
$DIMCLRE
 70
   256
  9
$DIMCLRT
 70
   256
  9
$DIMTFAC
 40
1.0
  9
$DIMGAP
 40
2.299999999999998
  9
$DIMJUST
 70
     0
  9
$DIMSD1
 70
     0
  9
$DIMSD2
 70
     0
  9
$DIMTOLJ
 70
     1
  9
$DIMTZIN
 70
     0
  9
$DIMALTZ
 70
     0
  9
$DIMALTTZ
 70
     0
  9
$DIMUPT
 70
     0
  9
$DIMDEC
 70
     2
  9
$DIMTDEC
 70
     2
  9
$DIMALTU
 70
     2
  9
$DIMALTTD
 70
     2
  9
$DIMTXSTY
  7
SANDVIK_STYLE
  9
$DIMAUNIT
 70
     0
  9
$DIMADEC
 70
     0
  9
$DIMALTRND
 40
0.0
  9
$DIMAZIN
 70
     0
  9
$DIMDSEP
 70
    46
  9
$DIMATFIT
 70
     3
  9
$DIMFRAC
 70
     0
  9
$DIMLDRBLK
  1

  9
$DIMLUNIT
 70
     2
  9
$DIMLWD
 70
    -2
  9
$DIMLWE
 70
    -2
  9
$DIMTMOVE
 70
     2
  9
$LUNITS
 70
     2
  9
$LUPREC
 70
     2
  9
$SKETCHINC
 40
0.0
  9
$FILLETRAD
 40
0.0
  9
$AUNITS
 70
     0
  9
$AUPREC
 70
     2
  9
$MENU
  1
acad
  9
$ELEVATION
 40
0.0
  9
$PELEVATION
 40
0.0
  9
$THICKNESS
 40
0.0
  9
$LIMCHECK
 70
     0
  9
$CHAMFERA
 40
0.0
  9
$CHAMFERB
 40
0.0
  9
$CHAMFERC
 40
0.0
  9
$CHAMFERD
 40
0.0
  9
$SKPOLY
 70
     0
  9
$TDCREATE
 40
2455817.646292060
  9
$TDUCREATE
 40
2455817.562958727
  9
$TDUPDATE
 40
2456818.533720509
  9
$TDUUPDATE
 40
2456818.450387176
  9
$TDINDWG
 40
0.0904501852
  9
$TDUSRTIMER
 40
0.0904501273
  9
$USRTIMER
 70
     1
  9
$ANGBASE
 50
0.0
  9
$ANGDIR
 70
     0
  9
$PDMODE
 70
     0
  9
$PDSIZE
 40
0.0
  9
$PLINEWID
 40
0.0
  9
$SPLFRAME
 70
     0
  9
$SPLINETYPE
 70
     6
  9
$SPLINESEGS
 70
     8
  9
$HANDSEED
  5
2F51
  9
$SURFTAB1
 70
     6
  9
$SURFTAB2
 70
     6
  9
$SURFTYPE
 70
     6
  9
$SURFU
 70
     6
  9
$SURFV
 70
     6
  9
$UCSBASE
  2

  9
$UCSNAME
  2

  9
$UCSORG
 10
0.0
 20
0.0
 30
0.0
  9
$UCSXDIR
 10
1.0
 20
0.0
 30
0.0
  9
$UCSYDIR
 10
0.0
 20
1.0
 30
0.0
  9
$UCSORTHOREF
  2

  9
$UCSORTHOVIEW
 70
     0
  9
$UCSORGTOP
 10
0.0
 20
0.0
 30
0.0
  9
$UCSORGBOTTOM
 10
0.0
 20
0.0
 30
0.0
  9
$UCSORGLEFT
 10
0.0
 20
0.0
 30
0.0
  9
$UCSORGRIGHT
 10
0.0
 20
0.0
 30
0.0
  9
$UCSORGFRONT
 10
0.0
 20
0.0
 30
0.0
  9
$UCSORGBACK
 10
0.0
 20
0.0
 30
0.0
  9
$PUCSBASE
  2

  9
$PUCSNAME
  2

  9
$PUCSORG
 10
0.0
 20
0.0
 30
0.0
  9
$PUCSXDIR
 10
1.0
 20
0.0
 30
0.0
  9
$PUCSYDIR
 10
0.0
 20
1.0
 30
0.0
  9
$PUCSORTHOREF
  2

  9
$PUCSORTHOVIEW
 70
     0
  9
$PUCSORGTOP
 10
0.0
 20
0.0
 30
0.0
  9
$PUCSORGBOTTOM
 10
0.0
 20
0.0
 30
0.0
  9
$PUCSORGLEFT
 10
0.0
 20
0.0
 30
0.0
  9
$PUCSORGRIGHT
 10
0.0
 20
0.0
 30
0.0
  9
$PUCSORGFRONT
 10
0.0
 20
0.0
 30
0.0
  9
$PUCSORGBACK
 10
0.0
 20
0.0
 30
0.0
  9
$USERI1
 70
     0
  9
$USERI2
 70
     0
  9
$USERI3
 70
     0
  9
$USERI4
 70
     0
  9
$USERI5
 70
     0
  9
$USERR1
 40
0.0
  9
$USERR2
 40
0.0
  9
$USERR3
 40
0.0
  9
$USERR4
 40
0.0
  9
$USERR5
 40
0.0
  9
$WORLDVIEW
 70
     1
  9
$SHADEDGE
 70
     3
  9
$SHADEDIF
 70
    70
  9
$TILEMODE
 70
     1
  9
$MAXACTVP
 70
    16
  9
$PINSBASE
 10
0.0
 20
0.0
 30
0.0
  9
$PLIMCHECK
 70
     0
  9
$PEXTMIN
 10
1.000000000000000E+20
 20
1.000000000000000E+20
 30
1.000000000000000E+20
  9
$PEXTMAX
 10
-1.000000000000000E+20
 20
-1.000000000000000E+20
 30
-1.000000000000000E+20
  9
$PLIMMIN
 10
0.0
 20
0.0
  9
$PLIMMAX
 10
12.0
 20
9.0
  9
$UNITMODE
 70
     0
  9
$VISRETAIN
 70
     0
  9
$PLINEGEN
 70
     0
  9
$PSLTSCALE
 70
     1
  9
$TREEDEPTH
 70
  3020
  9
$CMLSTYLE
  2
Standard
  9
$CMLJUST
 70
     0
  9
$CMLSCALE
 40
1.0
  9
$PROXYGRAPHICS
 70
     1
  9
$MEASUREMENT
 70
     0
  9
$CELWEIGHT
370
    -1
  9
$ENDCAPS
280
     0
  9
$JOINSTYLE
280
     0
  9
$LWDISPLAY
290
     0
  9
$INSUNITS
 70
     0
  9
$HYPERLINKBASE
  1

  9
$STYLESHEET
  1

  9
$XEDIT
290
     1
  9
$CEPSNTYPE
380
     0
  9
$PSTYLEMODE
290
     1
  9
$FINGERPRINTGUID
  2
{BC6BEBD7-5C89-4B2E-99DC-E3119A1637E9}
  9
$VERSIONGUID
  2
{AE80ED66-AD34-4E65-BDF7-35FD54EB53AF}
  9
$EXTNAMES
290
     1
  9
$PSVPSCALE
 40
0.0
  9
$OLESTARTUP
290
     0
  0
ENDSEC
  0
SECTION
  2
CLASSES
  0
CLASS
  1
ACDBDICTIONARYWDFLT
  2
AcDbDictionaryWithDefault
  3
ObjectDBX Classes
 90
        0
280
     0
281
     0
  0
CLASS
  1
MATERIAL
  2
AcDbMaterial
  3
ObjectDBX Classes
 90
     1153
280
     0
281
     0
  0
CLASS
  1
VISUALSTYLE
  2
AcDbVisualStyle
  3
ObjectDBX Classes
 90
     4095
280
     0
281
     0
  0
CLASS
  1
TABLESTYLE
  2
AcDbTableStyle
  3
ObjectDBX Classes
 90
     4095
280
     0
281
     0
  0
CLASS
  1
SCALE
  2
AcDbScale
  3
ObjectDBX Classes
 90
     1153
280
     0
281
     0
  0
CLASS
  1
MLEADERSTYLE
  2
AcDbMLeaderStyle
  3
ACDB_MLEADERSTYLE_CLASS
 90
     4095
280
     0
281
     0
  0
CLASS
  1
ACDBSECTIONVIEWSTYLE
  2
AcDbSectionViewStyle
  3
ObjectDBX Classes
 90
     1025
280
     0
281
     0
  0
CLASS
  1
ACDBDETAILVIEWSTYLE
  2
AcDbDetailViewStyle
  3
ObjectDBX Classes
 90
     1025
280
     0
281
     0
  0
CLASS
  1
EXACXREFPANELOBJECT
  2
ExAcXREFPanelObject
  3
EXAC_ESW
 90
     1025
280
     0
281
     0
  0
CLASS
  1
NPOCOLLECTION
  2
AcDbImpNonPersistentObjectsCollection
  3
ObjectDBX Classes
 90
     1153
280
     0
281
     0
  0
CLASS
  1
DICTIONARYVAR
  2
AcDbDictionaryVar
  3
ObjectDBX Classes
 90
        0
280
     0
281
     0
  0
CLASS
  1
CELLSTYLEMAP
  2
AcDbCellStyleMap
  3
ObjectDBX Classes
 90
     1152
280
     0
281
     0
  0
CLASS
  1
ACDBPLACEHOLDER
  2
AcDbPlaceHolder
  3
ObjectDBX Classes
 90
        0
280
     0
281
     0
  0
CLASS
  1
LAYOUT
  2
AcDbLayout
  3
ObjectDBX Classes
 90
        0
280
     0
281
     0
  0
ENDSEC
  0
SECTION
  2
TABLES
  0
TABLE
  2
VPORT
  5
BDF
330
0
100
AcDbSymbolTable
 70
     1
  0
VPORT
  5
2E63
330
BDF
100
AcDbSymbolTableRecord
100
AcDbViewportTableRecord
  2
*Active
 70
     0
 10
0.0
 20
0.0
 11
1.0
 21
1.0
 12
-8.035790483690789
 22
0.2868707443545588
 13
0.0
 23
0.0
 14
1.0
 24
1.0
 15
0.0
 25
0.0
 16
0.0
 26
0.0
 36
1.0
 17
0.0
 27
0.0
 37
0.0
 40
90.89212220281373
 41
2.2
 42
50.0
 43
0.0
 44
0.0
 50
0.0
 51
0.0
 71
     0
 72
   100
 73
     1
 74
     1
 75
     0
 76
     0
 77
     0
 78
     0
281
     0
 65
     1
110
0.0
120
0.0
130
0.0
111
1.0
121
0.0
131
0.0
112
0.0
122
1.0
132
0.0
 79
     0
146
0.0
1001
ACAD_NAV_VCDISPLAY
1070
     3
  0
ENDTAB
  0
TABLE
  2
LTYPE
  5
BDC
330
0
100
AcDbSymbolTable
 70
     4
  0
LTYPE
  5
BEA
330
BDC
100
AcDbSymbolTableRecord
100
AcDbLinetypeTableRecord
  2
ByBlock
 70
     0
  3

 72
    65
 73
     0
 40
0.0
  0
LTYPE
  5
BEB
330
BDC
100
AcDbSymbolTableRecord
100
AcDbLinetypeTableRecord
  2
ByLayer
 70
     0
  3

 72
    65
 73
     0
 40
0.0
  0
LTYPE
  5
BEC
330
BDC
100
AcDbSymbolTableRecord
100
AcDbLinetypeTableRecord
  2
CONTINUOUS
 70
     0
  3
Solid line
 72
    65
 73
     0
 40
0.0
  0
LTYPE
  5
BFE
330
BDC
100
AcDbSymbolTableRecord
100
AcDbLinetypeTableRecord
  2
CENTER
 70
     0
  3
____ _ ____ _ ____ _ ____ _ ____ _ ____ _ ____
 72
    65
 73
     4
 40
5.059897
 49
3.162434999999998
 74
     0
 49
-0.6324870000000003
 74
     0
 49
0.6324870000000003
 74
     0
 49
-0.6324870000000003
 74
     0
  0
LTYPE
  5
BFF
330
BDC
100
AcDbSymbolTableRecord
100
AcDbLinetypeTableRecord
  2
DASHED
 70
     0
  3
__ __ __ __ __ __ __ __ __ __ __ __ __ __ __ __
 72
    65
 73
     2
 40
7.589844999999997
 49
5.059897
 74
     0
 49
-2.529948
 74
     0
  0
LTYPE
  5
2EAF
330
BDC
100
AcDbSymbolTableRecord
100
AcDbLinetypeTableRecord
  2
PHANTOM2
 70
     0
  3
Phantom (.5x) ___ _ _ ___ _ _ ___ _ _ ___ _ _
 72
    65
 73
     6
 40
1.25
 49
0.625
 74
     0
 49
-0.125
 74
     0
 49
0.125
 74
     0
 49
-0.125
 74
     0
 49
0.125
 74
     0
 49
-0.125
 74
     0
  0
ENDTAB
  0
TABLE
  2
LAYER
  5
BD9
330
0
100
AcDbSymbolTable
 70
    40
  0
LAYER
  5
BE7
102
{ACAD_XDICTIONARY
360
2EB7
102
}
330
BD9
100
AcDbSymbolTableRecord
100
AcDbLayerTableRecord
  2
0
 70
     0
 62
     7
  6
CONTINUOUS
370
    -3
390
BE6
  0
LAYER
  5
BFB
102
{ACAD_XDICTIONARY
360
2EB9
102
}
330
BD9
100
AcDbSymbolTableRecord
100
AcDbLayerTableRecord
  2
3
 70
     0
 62
     1
  6
DASHED
370
    -3
390
BE6
  0
LAYER
  5
C00
102
{ACAD_XDICTIONARY
360
2EBB
102
}
330
BD9
100
AcDbSymbolTableRecord
100
AcDbLayerTableRecord
  2
1
 70
     0
 62
     4
  6
CONTINUOUS
370
    -3
390
BE6
  0
LAYER
  5
C01
102
{ACAD_XDICTIONARY
360
2EBD
102
}
330
BD9
100
AcDbSymbolTableRecord
100
AcDbLayerTableRecord
  2
61
 70
     0
 62
     5
  6
CONTINUOUS
370
    -3
390
BE6
  0
LAYER
  5
C02
102
{ACAD_XDICTIONARY
360
2EBF
102
}
330
BD9
100
AcDbSymbolTableRecord
100
AcDbLayerTableRecord
  2
62
 70
     0
 62
    -5
  6
CONTINUOUS
370
    -3
390
BE6
  0
LAYER
  5
C03
102
{ACAD_XDICTIONARY
360
2EC1
102
}
330
BD9
100
AcDbSymbolTableRecord
100
AcDbLayerTableRecord
  2
63
 70
     0
 62
    -5
  6
CONTINUOUS
370
    -3
390
BE6
  0
LAYER
  5
C04
102
{ACAD_XDICTIONARY
360
2EC3
102
}
330
BD9
100
AcDbSymbolTableRecord
100
AcDbLayerTableRecord
  2
64
 70
     0
 62
    -5
  6
CONTINUOUS
370
    -3
390
BE6
  0
LAYER
  5
C05
102
{ACAD_XDICTIONARY
360
2EC5
102
}
330
BD9
100
AcDbSymbolTableRecord
100
AcDbLayerTableRecord
  2
65
 70
     0
 62
    -5
  6
CONTINUOUS
370
    -3
390
BE6
  0
LAYER
  5
C06
102
{ACAD_XDICTIONARY
360
2EC7
102
}
330
BD9
100
AcDbSymbolTableRecord
100
AcDbLayerTableRecord
  2
66
 70
     0
 62
    -5
  6
CONTINUOUS
370
    -3
390
BE6
  0
LAYER
  5
C07
102
{ACAD_XDICTIONARY
360
2EC9
102
}
330
BD9
100
AcDbSymbolTableRecord
100
AcDbLayerTableRecord
  2
67
 70
     0
 62
    -5
  6
CONTINUOUS
370
    -3
390
BE6
  0
LAYER
  5
C08
102
{ACAD_XDICTIONARY
360
2ECB
102
}
330
BD9
100
AcDbSymbolTableRecord
100
AcDbLayerTableRecord
  2
68
 70
     0
 62
    -5
  6
CONTINUOUS
370
    -3
390
BE6
  0
LAYER
  5
C09
102
{ACAD_XDICTIONARY
360
2ECD
102
}
330
BD9
100
AcDbSymbolTableRecord
100
AcDbLayerTableRecord
  2
69
 70
     0
 62
    -5
  6
CONTINUOUS
370
    -3
390
BE6
  0
LAYER
  5
C0A
102
{ACAD_XDICTIONARY
360
2ECF
102
}
330
BD9
100
AcDbSymbolTableRecord
100
AcDbLayerTableRecord
  2
70
 70
     0
 62
     5
  6
CONTINUOUS
370
    -3
390
BE6
  0
LAYER
  5
C0B
102
{ACAD_XDICTIONARY
360
2ED1
102
}
330
BD9
100
AcDbSymbolTableRecord
100
AcDbLayerTableRecord
  2
2
 70
     0
 62
     7
  6
CONTINUOUS
370
    -3
390
BE6
  0
LAYER
  5
C0C
102
{ACAD_XDICTIONARY
360
2ED3
102
}
330
BD9
100
AcDbSymbolTableRecord
100
AcDbLayerTableRecord
  2
4
 70
     0
 62
    -2
  6
CENTER
370
    -3
390
BE6
  0
LAYER
  5
C0D
102
{ACAD_XDICTIONARY
360
2ED5
102
}
330
BD9
100
AcDbSymbolTableRecord
100
AcDbLayerTableRecord
  2
5
 70
     0
 62
    -7
  6
CONTINUOUS
370
    -3
390
BE6
  0
LAYER
  5
C0E
102
{ACAD_XDICTIONARY
360
2ED7
102
}
330
BD9
100
AcDbSymbolTableRecord
100
AcDbLayerTableRecord
  2
SK1
 70
     0
 62
     4
  6
CONTINUOUS
370
    -3
390
BE6
  0
LAYER
  5
C0F
102
{ACAD_XDICTIONARY
360
2ED9
102
}
330
BD9
100
AcDbSymbolTableRecord
100
AcDbLayerTableRecord
  2
6
 70
     0
 62
     5
  6
CONTINUOUS
370
    -3
390
BE6
  0
LAYER
  5
C10
102
{ACAD_XDICTIONARY
360
2EDB
102
}
330
BD9
100
AcDbSymbolTableRecord
100
AcDbLayerTableRecord
  2
SK2
 70
     0
 62
     7
  6
CONTINUOUS
370
    -3
390
BE6
  0
LAYER
  5
C11
102
{ACAD_XDICTIONARY
360
2EDD
102
}
330
BD9
100
AcDbSymbolTableRecord
100
AcDbLayerTableRecord
  2
SK3
 70
     0
 62
     1
  6
DASHED
370
    -3
390
BE6
  0
LAYER
  5
C12
102
{ACAD_XDICTIONARY
360
2EDF
102
}
330
BD9
100
AcDbSymbolTableRecord
100
AcDbLayerTableRecord
  2
SK4
 70
     0
 62
     2
  6
CENTER
370
    -3
390
BE6
  0
LAYER
  5
C13
102
{ACAD_XDICTIONARY
360
2EE1
102
}
330
BD9
100
AcDbSymbolTableRecord
100
AcDbLayerTableRecord
  2
CUT
 70
     0
 62
     1
  6
CONTINUOUS
370
    -3
390
BE6
  0
LAYER
  5
C14
102
{ACAD_XDICTIONARY
360
2EE3
102
}
330
BD9
100
AcDbSymbolTableRecord
100
AcDbLayerTableRecord
  2
SK6
 70
     0
 62
     5
  6
CONTINUOUS
370
    -3
390
BE6
  0
LAYER
  5
C15
102
{ACAD_XDICTIONARY
360
2EE5
102
}
330
BD9
100
AcDbSymbolTableRecord
100
AcDbLayerTableRecord
  2
80
 70
     0
 62
    -2
  6
CENTER
370
    -3
390
BE6
  0
LAYER
  5
C16
102
{ACAD_XDICTIONARY
360
2EE7
102
}
330
BD9
100
AcDbSymbolTableRecord
100
AcDbLayerTableRecord
  2
81
 70
     0
 62
    -2
  6
CENTER
370
    -3
390
BE6
  0
LAYER
  5
C17
102
{ACAD_XDICTIONARY
360
2EE9
102
}
330
BD9
100
AcDbSymbolTableRecord
100
AcDbLayerTableRecord
  2
82
 70
     0
 62
    -2
  6
CENTER
370
    -3
390
BE6
  0
LAYER
  5
C18
102
{ACAD_XDICTIONARY
360
2EEB
102
}
330
BD9
100
AcDbSymbolTableRecord
100
AcDbLayerTableRecord
  2
NOCUT
 70
     0
 62
     7
  6
CONTINUOUS
370
    -3
390
BE6
  0
LAYER
  5
C19
102
{ACAD_XDICTIONARY
360
2EED
102
}
330
BD9
100
AcDbSymbolTableRecord
100
AcDbLayerTableRecord
  2
50
 70
     0
 62
    -7
  6
CONTINUOUS
370
    -3
390
BE6
  0
LAYER
  5
C1A
102
{ACAD_XDICTIONARY
360
2EEF
102
}
330
BD9
100
AcDbSymbolTableRecord
100
AcDbLayerTableRecord
  2
51
 70
     0
 62
     7
  6
CONTINUOUS
370
    -3
390
BE6
  0
LAYER
  5
C1B
102
{ACAD_XDICTIONARY
360
2EF1
102
}
330
BD9
100
AcDbSymbolTableRecord
100
AcDbLayerTableRecord
  2
52
 70
     0
 62
    -7
  6
CONTINUOUS
370
    -3
390
BE6
  0
LAYER
  5
C1C
102
{ACAD_XDICTIONARY
360
2EF3
102
}
330
BD9
100
AcDbSymbolTableRecord
100
AcDbLayerTableRecord
  2
53
 70
     0
 62
    -7
  6
CONTINUOUS
370
    -3
390
BE6
  0
LAYER
  5
C1D
102
{ACAD_XDICTIONARY
360
2EF5
102
}
330
BD9
100
AcDbSymbolTableRecord
100
AcDbLayerTableRecord
  2
54
 70
     0
 62
    -7
  6
CONTINUOUS
370
    -3
390
BE6
  0
LAYER
  5
C1E
102
{ACAD_XDICTIONARY
360
2EF7
102
}
330
BD9
100
AcDbSymbolTableRecord
100
AcDbLayerTableRecord
  2
55
 70
     0
 62
    -7
  6
CONTINUOUS
370
    -3
390
BE6
  0
LAYER
  5
C1F
102
{ACAD_XDICTIONARY
360
2EF9
102
}
330
BD9
100
AcDbSymbolTableRecord
100
AcDbLayerTableRecord
  2
56
 70
     0
 62
    -7
  6
CONTINUOUS
370
    -3
390
BE6
  0
LAYER
  5
C20
102
{ACAD_XDICTIONARY
360
2EFB
102
}
330
BD9
100
AcDbSymbolTableRecord
100
AcDbLayerTableRecord
  2
57
 70
     0
 62
    -7
  6
CONTINUOUS
370
    -3
390
BE6
  0
LAYER
  5
C21
102
{ACAD_XDICTIONARY
360
2EFD
102
}
330
BD9
100
AcDbSymbolTableRecord
100
AcDbLayerTableRecord
  2
58
 70
     0
 62
    -7
  6
CONTINUOUS
370
    -3
390
BE6
  0
LAYER
  5
C22
102
{ACAD_XDICTIONARY
360
2EFF
102
}
330
BD9
100
AcDbSymbolTableRecord
100
AcDbLayerTableRecord
  2
2L
 70
     0
 62
     7
  6
CONTINUOUS
370
    -3
390
BE6
  0
LAYER
  5
C23
102
{ACAD_XDICTIONARY
360
2F01
102
}
330
BD9
100
AcDbSymbolTableRecord
100
AcDbLayerTableRecord
  2
59
 70
     0
 62
    -7
  6
CONTINUOUS
370
    -3
390
BE6
  0
LAYER
  5
C24
330
BD9
100
AcDbSymbolTableRecord
100
AcDbLayerTableRecord
  2
DEFPOINTS
 70
     0
 62
     7
  6
CONTINUOUS
290
     0
370
    -3
390
BE6
  0
LAYER
  5
C42
102
{ACAD_XDICTIONARY
360
2F03
102
}
330
BD9
100
AcDbSymbolTableRecord
100
AcDbLayerTableRecord
  2
TFR-TRI
 70
     0
 62
     7
  6
CONTINUOUS
370
    -3
390
BE6
  0
ENDTAB
  0
TABLE
  2
STYLE
  5
BDA
330
0
100
AcDbSymbolTable
 70
     2
  0
STYLE
  5
BE8
330
BDA
100
AcDbSymbolTableRecord
100
AcDbTextStyleTableRecord
  2
STANDARD
 70
     0
 40
0.0
 41
1.0
 50
0.0
 71
     0
 42
4.5
  3
simplex.shx
  4

  0
STYLE
  5
BFC
330
BDA
100
AcDbSymbolTableRecord
100
AcDbTextStyleTableRecord
  2
SANDVIK_STYLE
 70
     0
 40
3.0
 41
1.0
 50
0.0
 71
     0
 42
3.0
  3
simplex.shx
  4

  0
ENDTAB
  0
TABLE
  2
VIEW
  5
BDD
330
0
100
AcDbSymbolTable
 70
     0
  0
ENDTAB
  0
TABLE
  2
UCS
  5
BDE
330
0
100
AcDbSymbolTable
 70
     0
  0
ENDTAB
  0
TABLE
  2
APPID
  5
BE0
330
0
100
AcDbSymbolTable
 70
     4
  0
APPID
  5
BE9
330
BE0
100
AcDbSymbolTableRecord
100
AcDbRegAppTableRecord
  2
ACAD
 70
     0
  0
APPID
  5
2F07
330
BE0
100
AcDbSymbolTableRecord
100
AcDbRegAppTableRecord
  2
DCO15
 70
     0
  0
APPID
  5
2F13
330
BE0
100
AcDbSymbolTableRecord
100
AcDbRegAppTableRecord
  2
ACAD_NAV_VCDISPLAY
 70
     0
  0
APPID
  5
2F50
330
BE0
100
AcDbSymbolTableRecord
100
AcDbRegAppTableRecord
  2
ACAD_MLEADERVER
 70
     0
  0
ENDTAB
  0
TABLE
  2
DIMSTYLE
  5
BE1
330
0
100
AcDbSymbolTable
 70
     2
100
AcDbDimStyleTable
 71
     1
340
C26
  0
DIMSTYLE
105
C25
330
BE1
100
AcDbSymbolTableRecord
100
AcDbDimStyleTableRecord
  2
STANDARD
 70
     0
  3
 
  4
 
 41
3.0
 42
2.5
 43
10.0
 44
2.5
 46
1.25
 73
     0
 74
     0
140
3.0
141
-3.0
143
0.039
145
1.5
146
0.75
147
1.5
271
     2
272
     2
279
     2
340
BFC
  0
DIMSTYLE
105
C26
102
{ACAD_REACTORS
330
2DC2
330
2DD0
330
2DDE
330
2DEB
330
2DF8
330
2E05
330
2E12
102
}
330
BE1
100
AcDbSymbolTableRecord
100
AcDbDimStyleTableRecord
  2
SANDVIK_DIM
 70
     0
  3
 
  4
 
 40
0.0
 41
4.57
 42
0.0
 44
5.0
 73
     0
 74
     0
 77
     1
 78
     8
140
4.5
147
2.299999999999998
176
   256
177
   256
178
   256
271
     2
272
     2
279
     2
340
BFC
  0
ENDTAB
  0
TABLE
  2
BLOCK_RECORD
  5
BD8
330
0
100
AcDbSymbolTable
 70
     9
  0
BLOCK_RECORD
  5
BF7
330
BD8
100
AcDbSymbolTableRecord
100
AcDbBlockTableRecord
  2
*Model_Space
340
BFA
  0
BLOCK_RECORD
  5
BF3
330
BD8
100
AcDbSymbolTableRecord
100
AcDbBlockTableRecord
  2
*Paper_Space
340
BF6
  0
BLOCK_RECORD
  5
C28
330
BD8
100
AcDbSymbolTableRecord
100
AcDbBlockTableRecord
  2
$MODEL_SPACE
340
0
  0
BLOCK_RECORD
  5
C2A
330
BD8
100
AcDbSymbolTableRecord
100
AcDbBlockTableRecord
  2
$PAPER_SPACE
340
0
  0
BLOCK_RECORD
  5
2DC3
330
BD8
100
AcDbSymbolTableRecord
100
AcDbBlockTableRecord
  2
*D2
340
0
  0
BLOCK_RECORD
  5
2DD1
330
BD8
100
AcDbSymbolTableRecord
100
AcDbBlockTableRecord
  2
*D3
340
0
  0
BLOCK_RECORD
  5
2DDF
330
BD8
100
AcDbSymbolTableRecord
100
AcDbBlockTableRecord
  2
*D4
340
0
  0
BLOCK_RECORD
  5
2DEC
330
BD8
100
AcDbSymbolTableRecord
100
AcDbBlockTableRecord
  2
*D5
340
0
  0
BLOCK_RECORD
  5
2DF9
330
BD8
100
AcDbSymbolTableRecord
100
AcDbBlockTableRecord
  2
*D6
340
0
  0
BLOCK_RECORD
  5
2E06
330
BD8
100
AcDbSymbolTableRecord
100
AcDbBlockTableRecord
  2
*D7
340
0
  0
BLOCK_RECORD
  5
2E13
330
BD8
100
AcDbSymbolTableRecord
100
AcDbBlockTableRecord
  2
*D8
340
0
  0
ENDTAB
  0
ENDSEC
  0
SECTION
  2
BLOCKS
  0
BLOCK
  5
BF8
330
BF7
100
AcDbEntity
  8
0
100
AcDbBlockBegin
  2
*Model_Space
 70
     0
 10
0.0
 20
0.0
 30
0.0
  3
*Model_Space
  1

  0
ENDBLK
  5
BF9
330
BF7
100
AcDbEntity
  8
0
100
AcDbBlockEnd
  0
BLOCK
  5
BF4
330
BF3
100
AcDbEntity
 67
     1
  8
0
100
AcDbBlockBegin
  2
*Paper_Space
 70
     0
 10
0.0
 20
0.0
 30
0.0
  3
*Paper_Space
  1

  0
ENDBLK
  5
BF5
330
BF3
100
AcDbEntity
 67
     1
  8
0
100
AcDbBlockEnd
  0
BLOCK
  5
C29
330
C28
100
AcDbEntity
  8
0
100
AcDbBlockBegin
  2
$MODEL_SPACE
 70
     0
 10
0.0
 20
0.0
 30
0.0
  3
$MODEL_SPACE
  1

  0
ENDBLK
  5
AEF
330
C28
100
AcDbEntity
  8
0
100
AcDbBlockEnd
  0
BLOCK
  5
C2B
330
C2A
100
AcDbEntity
  8
0
100
AcDbBlockBegin
  2
$PAPER_SPACE
 70
     0
 10
0.0
 20
0.0
 30
0.0
  3
$PAPER_SPACE
  1

  0
ENDBLK
  5
AEB
330
C2A
100
AcDbEntity
  8
0
100
AcDbBlockEnd
  0
BLOCK
  5
2DCE
330
2DC3
100
AcDbEntity
  8
0
100
AcDbBlockBegin
  2
*D2
 70
     1
 10
0.0
 20
0.0
 30
0.0
  3
*D2
  1

  0
LINE
  5
2E3D
330
2DC3
100
AcDbEntity
  8
SK2
370
    -2
100
AcDbLine
 10
-35.35048299999999
 20
2.999999500000001
 30
0.0
 11
-45.41177272953858
 21
2.999999500000003
 31
0.0
  0
LINE
  5
2E3E
330
2DC3
100
AcDbEntity
  8
SK2
370
    -2
100
AcDbLine
 10
-35.35048299999999
 20
-2.999999500000001
 30
0.0
 11
-45.41177272953858
 21
-2.999999499999998
 31
0.0
  0
LINE
  5
2E3F
330
2DC3
100
AcDbEntity
  8
SK2
370
    -2
100
AcDbLine
 10
-40.41177272953858
 20
7.569999500000002
 30
0.0
 11
-40.41177272953858
 21
12.1399995
 31
0.0
  0
LINE
  5
2E40
330
2DC3
100
AcDbEntity
  8
SK2
370
    -2
100
AcDbLine
 10
-40.41177272953858
 20
-7.569999499999998
 30
0.0
 11
-40.41177272953858
 21
-12.1399995
 31
0.0
  0
MTEXT
  5
2E41
330
2DC3
100
AcDbEntity
  8
SK2
100
AcDbMText
 10
-40.41757894152624
 20
-16.69130160915983
 30
0.0
 40
3.0
 41
0.0
 71
     5
 72
     1
  1
\A1;%%C 6 
  7
SANDVIK_STYLE
 11
0.0000000000000001
 21
1.0
 31
0.0
 73
     1
 44
1.0
1001
ACAD
1000
MTEXTBEGIN
1070
    73
1070
     1
1070
    44
1040
1.0
1070
    74
1070
     0
1000
MTEXTEND
  0
SOLID
  5
2E42
330
2DC3
100
AcDbEntity
  8
SK2
100
AcDbTrace
 10
-41.17343939620528
 20
7.569999500000002
 30
0.0
 11
-39.65010606287193
 21
7.569999500000002
 31
0.0
 12
-40.41177272953858
 22
2.999999500000001
 32
0.0
 13
-40.41177272953858
 23
2.999999500000001
 33
0.0
  0
SOLID
  5
2E43
330
2DC3
100
AcDbEntity
  8
SK2
100
AcDbTrace
 10
-41.17343939620528
 20
-7.569999499999998
 30
0.0
 11
-39.65010606287193
 21
-7.569999499999998
 31
0.0
 12
-40.41177272953858
 22
-2.999999499999998
 32
0.0
 13
-40.41177272953858
 23
-2.999999499999998
 33
0.0
  0
POINT
  5
2E44
330
2DC3
100
AcDbEntity
  8
DEFPOINTS
 62
     0
100
AcDbPoint
 10
-35.35048299999999
 20
2.999999500000001
 30
0.0
  0
POINT
  5
2E45
330
2DC3
100
AcDbEntity
  8
DEFPOINTS
 62
     0
100
AcDbPoint
 10
-35.35048299999999
 20
-2.999999500000001
 30
0.0
  0
POINT
  5
2E46
330
2DC3
100
AcDbEntity
  8
DEFPOINTS
 62
     0
100
AcDbPoint
 10
-40.41177272953858
 20
-2.999999499999998
 30
0.0
  0
ENDBLK
  5
2DCF
330
2DC3
100
AcDbEntity
  8
0
100
AcDbBlockEnd
  0
BLOCK
  5
2DDC
330
2DD1
100
AcDbEntity
  8
0
100
AcDbBlockBegin
  2
*D3
 70
     1
 10
0.0
 20
0.0
 30
0.0
  3
*D3
  1

  0
LINE
  5
2E47
330
2DD1
100
AcDbEntity
  8
2
370
    -2
100
AcDbLine
 10
72.19458700000001
 20
2.149890499999996
 30
0.0
 11
81.64926582734869
 21
2.149890499999995
 31
0.0
  0
LINE
  5
2E48
330
2DD1
100
AcDbEntity
  8
2
370
    -2
100
AcDbLine
 10
72.19458700000001
 20
-2.149887500000001
 30
0.0
 11
81.64926582734869
 21
-2.149887500000004
 31
0.0
  0
LINE
  5
2E49
330
2DD1
100
AcDbEntity
  8
2
370
    -2
100
AcDbLine
 10
76.6492658273487
 20
6.719890499999997
 30
0.0
 11
76.6492658273487
 21
11.28989049999999
 31
0.0
  0
LINE
  5
2E4A
330
2DD1
100
AcDbEntity
  8
2
370
    -2
100
AcDbLine
 10
76.6492658273487
 20
-6.719887500000002
 30
0.0
 11
76.6492658273487
 21
-11.2898875
 31
0.0
  0
MTEXT
  5
2E4B
330
2DD1
100
AcDbEntity
  8
2
100
AcDbMText
 10
76.62241513871845
 20
-18.04331622612898
 30
0.0
 40
3.0
 41
0.0
 71
     5
 72
     1
  1
\A1;%%C 4.3 
  7
SANDVIK_STYLE
 11
0.0000000000000001
 21
1.0
 31
0.0
 73
     1
 44
1.0
1001
ACAD
1000
MTEXTBEGIN
1070
    73
1070
     1
1070
    44
1040
1.0
1070
    74
1070
     0
1000
MTEXTEND
  0
SOLID
  5
2E4C
330
2DD1
100
AcDbEntity
  8
2
100
AcDbTrace
 10
75.88759916068203
 20
6.719890499999997
 30
0.0
 11
77.41093249401536
 21
6.719890499999997
 31
0.0
 12
76.6492658273487
 22
2.149890499999995
 32
0.0
 13
76.6492658273487
 23
2.149890499999995
 33
0.0
  0
SOLID
  5
2E4D
330
2DD1
100
AcDbEntity
  8
2
100
AcDbTrace
 10
75.88759916068203
 20
-6.719887500000002
 30
0.0
 11
77.41093249401536
 21
-6.719887500000002
 31
0.0
 12
76.6492658273487
 22
-2.149887500000003
 32
0.0
 13
76.6492658273487
 23
-2.149887500000003
 33
0.0
  0
POINT
  5
2E4E
330
2DD1
100
AcDbEntity
  8
DEFPOINTS
 62
     0
100
AcDbPoint
 10
72.19458700000001
 20
2.149890499999996
 30
0.0
  0
POINT
  5
2E4F
330
2DD1
100
AcDbEntity
  8
DEFPOINTS
 62
     0
100
AcDbPoint
 10
72.19458700000001
 20
-2.149887500000001
 30
0.0
  0
POINT
  5
2E50
330
2DD1
100
AcDbEntity
  8
DEFPOINTS
 62
     0
100
AcDbPoint
 10
76.6492658273487
 20
-2.149887500000003
 30
0.0
  0
ENDBLK
  5
2DDD
330
2DD1
100
AcDbEntity
  8
0
100
AcDbBlockEnd
  0
BLOCK
  5
2DE9
330
2DDF
100
AcDbEntity
  8
0
100
AcDbBlockBegin
  2
*D4
 70
     1
 10
0.0
 20
0.0
 30
0.0
  3
*D4
  1

  0
LINE
  5
2DE0
330
2DDF
100
AcDbEntity
  8
SK2
370
    -2
100
AcDbLine
 10
72.19458700000001
 20
2.149890499999996
 30
0.0
 11
72.19458700000001
 21
8.726557480210431
 31
0.0
  0
LINE
  5
2DE1
330
2DDF
100
AcDbEntity
  8
SK2
370
    -2
100
AcDbLine
 10
20.19458700000001
 20
2.149890500000006
 30
0.0
 11
20.19458700000001
 21
8.726557480210431
 31
0.0
  0
LINE
  5
2DE2
330
2DDF
100
AcDbEntity
  8
SK2
370
    -2
100
AcDbLine
 10
67.62458700000002
 20
3.726557480210431
 30
0.0
 11
24.76458700000002
 21
3.726557480210431
 31
0.0
  0
SOLID
  5
2DE3
330
2DDF
100
AcDbEntity
  8
SK2
100
AcDbTrace
 10
67.62458700000002
 20
4.488224146877096
 30
0.0
 11
67.62458700000002
 21
2.964890813543764
 31
0.0
 12
72.19458700000001
 22
3.726557480210431
 32
0.0
 13
72.19458700000001
 23
3.726557480210431
 33
0.0
  0
SOLID
  5
2DE4
330
2DDF
100
AcDbEntity
  8
SK2
100
AcDbTrace
 10
24.76458700000002
 20
4.488224146877096
 30
0.0
 11
24.76458700000002
 21
2.964890813543764
 31
0.0
 12
20.19458700000001
 22
3.726557480210431
 32
0.0
 13
20.19458700000001
 23
3.726557480210431
 33
0.0
  0
MTEXT
  5
2DE5
330
2DDF
100
AcDbEntity
  8
SK2
100
AcDbMText
 10
46.19458700000001
 20
7.526557480210429
 30
0.0
 40
3.0
 41
0.0
 71
     5
 72
     1
  1
\A1;52 
  7
SANDVIK_STYLE
 73
     1
 44
1.0
1001
ACAD
1000
MTEXTBEGIN
1070
    73
1070
     1
1070
    44
1040
1.0
1070
    74
1070
     0
1000
MTEXTEND
  0
POINT
  5
2DE6
330
2DDF
100
AcDbEntity
  8
DEFPOINTS
 62
     0
100
AcDbPoint
 10
72.19458700000001
 20
2.149890499999996
 30
0.0
  0
POINT
  5
2DE7
330
2DDF
100
AcDbEntity
  8
DEFPOINTS
 62
     0
100
AcDbPoint
 10
20.19458700000001
 20
2.149890500000006
 30
0.0
  0
POINT
  5
2DE8
330
2DDF
100
AcDbEntity
  8
DEFPOINTS
 62
     0
100
AcDbPoint
 10
20.19458700000001
 20
3.726557480210431
 30
0.0
  0
ENDBLK
  5
2DEA
330
2DDF
100
AcDbEntity
  8
0
100
AcDbBlockEnd
  0
BLOCK
  5
2DF6
330
2DEC
100
AcDbEntity
  8
0
100
AcDbBlockBegin
  2
*D5
 70
     1
 10
0.0
 20
0.0
 30
0.0
  3
*D5
  1

  0
LINE
  5
2E5A
330
2DEC
100
AcDbEntity
  8
2
370
    -2
100
AcDbLine
 10
73.00026600000002
 20
0.000001000000001
 30
0.0
 11
73.00026600000002
 21
-13.52222758975762
 31
0.0
  0
LINE
  5
2E5B
330
2DEC
100
AcDbEntity
  8
2
370
    -2
100
AcDbLine
 10
6.000266000000009
 20
0.0000010000000092
 30
0.0
 11
6.000266000000008
 21
-13.52222758975762
 31
0.0
  0
LINE
  5
2E5C
330
2DEC
100
AcDbEntity
  8
2
370
    -2
100
AcDbLine
 10
68.430266
 20
-8.522227589757619
 30
0.0
 11
10.57026600000001
 21
-8.522227589757619
 31
0.0
  0
SOLID
  5
2E5D
330
2DEC
100
AcDbEntity
  8
2
100
AcDbTrace
 10
68.430266
 20
-7.760560923090952
 30
0.0
 11
68.430266
 21
-9.283894256424288
 31
0.0
 12
73.00026600000002
 22
-8.522227589757619
 32
0.0
 13
73.00026600000002
 23
-8.522227589757619
 33
0.0
  0
SOLID
  5
2E5E
330
2DEC
100
AcDbEntity
  8
2
100
AcDbTrace
 10
10.57026600000001
 20
-7.760560923090952
 30
0.0
 11
10.57026600000001
 21
-9.283894256424288
 31
0.0
 12
6.000266000000008
 22
-8.522227589757619
 32
0.0
 13
6.000266000000008
 23
-8.522227589757619
 33
0.0
  0
MTEXT
  5
2E5F
330
2DEC
100
AcDbEntity
  8
2
100
AcDbMText
 10
39.50026600000001
 20
-4.722227589757619
 30
0.0
 40
3.0
 41
0.0
 71
     5
 72
     1
  1
\A1;67 
  7
SANDVIK_STYLE
 73
     1
 44
1.0
1001
ACAD
1000
MTEXTBEGIN
1070
    73
1070
     1
1070
    44
1040
1.0
1070
    74
1070
     0
1000
MTEXTEND
  0
POINT
  5
2E60
330
2DEC
100
AcDbEntity
  8
DEFPOINTS
 62
     0
100
AcDbPoint
 10
73.00026600000002
 20
0.000001000000001
 30
0.0
  0
POINT
  5
2E61
330
2DEC
100
AcDbEntity
  8
DEFPOINTS
 62
     0
100
AcDbPoint
 10
6.000266000000009
 20
0.0000010000000092
 30
0.0
  0
POINT
  5
2E62
330
2DEC
100
AcDbEntity
  8
DEFPOINTS
 62
     0
100
AcDbPoint
 10
6.000266000000008
 20
-8.522227589757619
 30
0.0
  0
ENDBLK
  5
2DF7
330
2DEC
100
AcDbEntity
  8
0
100
AcDbBlockEnd
  0
BLOCK
  5
2E03
330
2DF9
100
AcDbEntity
  8
0
100
AcDbBlockBegin
  2
*D6
 70
     1
 10
0.0
 20
0.0
 30
0.0
  3
*D6
  1

  0
LINE
  5
2E51
330
2DF9
100
AcDbEntity
  8
2
370
    -2
100
AcDbLine
 10
0.0
 20
-2.999999500000001
 30
0.0
 11
-0.0000000000000011
 21
-20.3383570757706
 31
0.0
  0
LINE
  5
2E52
330
2DF9
100
AcDbEntity
  8
2
370
    -2
100
AcDbLine
 10
73.00026600000002
 20
0.000001000000001
 30
0.0
 11
73.00026600000002
 21
-20.3383570757706
 31
0.0
  0
LINE
  5
2E53
330
2DF9
100
AcDbEntity
  8
2
370
    -2
100
AcDbLine
 10
4.569999999999998
 20
-15.3383570757706
 30
0.0
 11
68.430266
 21
-15.3383570757706
 31
0.0
  0
SOLID
  5
2E54
330
2DF9
100
AcDbEntity
  8
2
100
AcDbTrace
 10
4.569999999999998
 20
-14.57669040910393
 30
0.0
 11
4.569999999999998
 21
-16.10002374243727
 31
0.0
 12
-0.0000000000000008
 22
-15.3383570757706
 32
0.0
 13
-0.0000000000000008
 23
-15.3383570757706
 33
0.0
  0
SOLID
  5
2E55
330
2DF9
100
AcDbEntity
  8
2
100
AcDbTrace
 10
68.430266
 20
-14.57669040910393
 30
0.0
 11
68.430266
 21
-16.10002374243727
 31
0.0
 12
73.00026600000002
 22
-15.3383570757706
 32
0.0
 13
73.00026600000002
 23
-15.3383570757706
 33
0.0
  0
MTEXT
  5
2E56
330
2DF9
100
AcDbEntity
  8
2
100
AcDbMText
 10
36.50013300000001
 20
-11.5383570757706
 30
0.0
 40
3.0
 41
0.0
 71
     5
 72
     1
  1
\A1;73 
  7
SANDVIK_STYLE
 73
     1
 44
1.0
1001
ACAD
1000
MTEXTBEGIN
1070
    73
1070
     1
1070
    44
1040
1.0
1070
    74
1070
     0
1000
MTEXTEND
  0
POINT
  5
2E57
330
2DF9
100
AcDbEntity
  8
DEFPOINTS
 62
     0
100
AcDbPoint
 10
0.0
 20
-2.999999500000001
 30
0.0
  0
POINT
  5
2E58
330
2DF9
100
AcDbEntity
  8
DEFPOINTS
 62
     0
100
AcDbPoint
 10
73.00026600000002
 20
0.000001000000001
 30
0.0
  0
POINT
  5
2E59
330
2DF9
100
AcDbEntity
  8
DEFPOINTS
 62
     0
100
AcDbPoint
 10
73.00026600000002
 20
-15.3383570757706
 30
0.0
  0
ENDBLK
  5
2E04
330
2DF9
100
AcDbEntity
  8
0
100
AcDbBlockEnd
  0
BLOCK
  5
2E10
330
2E06
100
AcDbEntity
  8
0
100
AcDbBlockBegin
  2
*D7
 70
     1
 10
0.0
 20
0.0
 30
0.0
  3
*D7
  1

  0
LINE
  5
2E07
330
2E06
100
AcDbEntity
  8
SK2
370
    -2
100
AcDbLine
 10
73.00026600000002
 20
0.0
 30
0.0
 11
73.00026600000002
 21
-27.42625876938951
 31
0.0
  0
LINE
  5
2E08
330
2E06
100
AcDbEntity
  8
SK2
370
    -2
100
AcDbLine
 10
-36.000001
 20
-2.568681000000001
 30
0.0
 11
-36.000001
 21
-27.42625876938951
 31
0.0
  0
LINE
  5
2E09
330
2E06
100
AcDbEntity
  8
SK2
370
    -2
100
AcDbLine
 10
68.430266
 20
-22.42625876938951
 30
0.0
 11
-31.430001
 21
-22.42625876938951
 31
0.0
  0
SOLID
  5
2E0A
330
2E06
100
AcDbEntity
  8
SK2
100
AcDbTrace
 10
68.430266
 20
-21.66459210272284
 30
0.0
 11
68.430266
 21
-23.18792543605617
 31
0.0
 12
73.00026600000002
 22
-22.42625876938951
 32
0.0
 13
73.00026600000002
 23
-22.42625876938951
 33
0.0
  0
SOLID
  5
2E0B
330
2E06
100
AcDbEntity
  8
SK2
100
AcDbTrace
 10
-31.430001
 20
-21.66459210272284
 30
0.0
 11
-31.430001
 21
-23.18792543605617
 31
0.0
 12
-36.000001
 22
-22.42625876938951
 32
0.0
 13
-36.000001
 23
-22.42625876938951
 33
0.0
  0
MTEXT
  5
2E0C
330
2E06
100
AcDbEntity
  8
SK2
100
AcDbMText
 10
18.50013250000001
 20
-18.6262587693895
 30
0.0
 40
3.0
 41
0.0
 71
     5
 72
     1
  1
\A1;109 
  7
SANDVIK_STYLE
 73
     1
 44
1.0
1001
ACAD
1000
MTEXTBEGIN
1070
    73
1070
     1
1070
    44
1040
1.0
1070
    74
1070
     0
1000
MTEXTEND
  0
POINT
  5
2E0D
330
2E06
100
AcDbEntity
  8
DEFPOINTS
 62
     0
100
AcDbPoint
 10
73.00026600000002
 20
0.0
 30
0.0
  0
POINT
  5
2E0E
330
2E06
100
AcDbEntity
  8
DEFPOINTS
 62
     0
100
AcDbPoint
 10
-36.000001
 20
-2.568681000000001
 30
0.0
  0
POINT
  5
2E0F
330
2E06
100
AcDbEntity
  8
DEFPOINTS
 62
     0
100
AcDbPoint
 10
-36.000001
 20
-22.42625876938951
 30
0.0
  0
ENDBLK
  5
2E11
330
2E06
100
AcDbEntity
  8
0
100
AcDbBlockEnd
  0
BLOCK
  5
2E1D
330
2E13
100
AcDbEntity
  8
0
100
AcDbBlockBegin
  2
*D8
 70
     1
 10
0.0
 20
0.0
 30
0.0
  3
*D8
  1

  0
LINE
  5
2E14
330
2E13
100
AcDbEntity
  8
SK2
370
    -2
100
AcDbLine
 10
-36.000001
 20
-2.3482705
 30
0.0
 11
-36.000001
 21
-20.3383570757706
 31
0.0
  0
LINE
  5
2E15
330
2E13
100
AcDbEntity
  8
SK2
370
    -2
100
AcDbLine
 10
0.0
 20
-2.999999500000001
 30
0.0
 11
-0.0000000000000011
 21
-20.3383570757706
 31
0.0
  0
LINE
  5
2E16
330
2E13
100
AcDbEntity
  8
SK2
370
    -2
100
AcDbLine
 10
-31.430001
 20
-15.3383570757706
 30
0.0
 11
-4.570000000000001
 21
-15.3383570757706
 31
0.0
  0
SOLID
  5
2E17
330
2E13
100
AcDbEntity
  8
SK2
100
AcDbTrace
 10
-31.430001
 20
-14.57669040910393
 30
0.0
 11
-31.430001
 21
-16.10002374243727
 31
0.0
 12
-36.000001
 22
-15.3383570757706
 32
0.0
 13
-36.000001
 23
-15.3383570757706
 33
0.0
  0
SOLID
  5
2E18
330
2E13
100
AcDbEntity
  8
SK2
100
AcDbTrace
 10
-4.570000000000001
 20
-14.57669040910393
 30
0.0
 11
-4.570000000000001
 21
-16.10002374243727
 31
0.0
 12
-0.0000000000000008
 22
-15.3383570757706
 32
0.0
 13
-0.0000000000000008
 23
-15.3383570757706
 33
0.0
  0
MTEXT
  5
2E19
330
2E13
100
AcDbEntity
  8
SK2
100
AcDbMText
 10
-18.0000005
 20
-11.5383570757706
 30
0.0
 40
3.0
 41
0.0
 71
     5
 72
     1
  1
\A1;36 
  7
SANDVIK_STYLE
 73
     1
 44
1.0
1001
ACAD
1000
MTEXTBEGIN
1070
    73
1070
     1
1070
    44
1040
1.0
1070
    74
1070
     0
1000
MTEXTEND
  0
POINT
  5
2E1A
330
2E13
100
AcDbEntity
  8
DEFPOINTS
 62
     0
100
AcDbPoint
 10
-36.000001
 20
-2.3482705
 30
0.0
  0
POINT
  5
2E1B
330
2E13
100
AcDbEntity
  8
DEFPOINTS
 62
     0
100
AcDbPoint
 10
0.0
 20
-2.999999500000001
 30
0.0
  0
POINT
  5
2E1C
330
2E13
100
AcDbEntity
  8
DEFPOINTS
 62
     0
100
AcDbPoint
 10
-0.0000000000000008
 20
-15.3383570757706
 30
0.0
  0
ENDBLK
  5
2E1E
330
2E13
100
AcDbEntity
  8
0
100
AcDbBlockEnd
  0
ENDSEC
  0
SECTION
  2
ENTITIES
  0
TEXT
  5
62
330
BF7
100
AcDbEntity
  8
SK6
100
AcDbText
 10
-18.5
 20
25.0
 30
0.0
 40
3.0
  1
861.1-0430-052A1-GM
 41
0.7540842026666669
  7
SANDVIK_STYLE
 72
     5
 11
21.897368
 21
25.0
 31
0.0
100
AcDbText
  0
LINE
  5
2BC4
330
BF7
100
AcDbEntity
  8
SK1
100
AcDbLine
 10
0.0
 20
2.999999500000001
 30
0.0
 11
0.0
 21
-2.999999500000001
 31
0.0
  0
ARC
  5
2BC5
330
BF7
100
AcDbEntity
  8
1
100
AcDbCircle
 10
0.4999990000000027
 20
2.649999499999998
 30
0.0
 40
0.4999999906281083
100
AcDbArc
 50
180.0
 51
270.0
  0
ARC
  5
2BC6
330
BF7
100
AcDbEntity
  8
1
100
AcDbCircle
 10
0.4999990000000027
 20
-2.649999499999998
 30
0.0
 40
0.4999999906281083
100
AcDbArc
 50
90.0
 51
180.0
  0
LINE
  5
2BC7
330
BF7
100
AcDbEntity
  8
1
100
AcDbLine
 10
20.945559
 20
0.7978444999999966
 30
0.0
 11
18.83687
 21
1.688127499999995
 31
0.0
  0
LINE
  5
2BC8
330
BF7
100
AcDbEntity
  8
1
100
AcDbLine
 10
22.173609
 20
0.1191555000000015
 30
0.0
 11
20.945559
 21
0.7978444999999966
 31
0.0
  0
LINE
  5
2BC9
330
BF7
100
AcDbEntity
  8
1
100
AcDbLine
 10
23.40166000000001
 20
-0.5734074999999983
 30
0.0
 11
22.173609
 21
0.1191555000000015
 31
0.0
  0
LINE
  5
2BCA
330
BF7
100
AcDbEntity
  8
1
100
AcDbLine
 10
24.62969700000001
 20
-1.199193499999998
 30
0.0
 11
23.40166000000001
 21
-0.5734074999999983
 31
0.0
  0
LINE
  5
2BCB
330
BF7
100
AcDbEntity
  8
1
100
AcDbLine
 10
25.85774700000002
 20
-1.685327499999999
 30
0.0
 11
24.62969700000001
 21
-1.199193499999998
 31
0.0
  0
LINE
  5
2BCC
330
BF7
100
AcDbEntity
  8
1
100
AcDbLine
 10
27.08579700000001
 20
-1.975194499999999
 30
0.0
 11
25.85774700000002
 21
-1.685327499999999
 31
0.0
  0
LINE
  5
2BCD
330
BF7
100
AcDbEntity
  8
1
100
AcDbLine
 10
28.04459300000001
 20
-2.0219115
 30
0.0
 11
27.08579700000001
 21
-1.975194499999999
 31
0.0
  0
LINE
  5
2BCE
330
BF7
100
AcDbEntity
  8
1
100
AcDbLine
 10
43.05041099999999
 20
1.000045499999997
 30
0.0
 11
41.572619
 21
1.614113499999997
 31
0.0
  0
LINE
  5
2BCF
330
BF7
100
AcDbEntity
  8
1
100
AcDbLine
 10
44.27844900000001
 20
0.3429754999999979
 30
0.0
 11
43.05041099999999
 21
1.000045499999997
 31
0.0
  0
LINE
  5
2BD0
330
BF7
100
AcDbEntity
  8
1
100
AcDbLine
 10
45.50649900000002
 20
-0.3540384999999979
 30
0.0
 11
44.27844900000001
 21
0.3429754999999979
 31
0.0
  0
LINE
  5
2BD1
330
BF7
100
AcDbEntity
  8
1
100
AcDbLine
 10
46.73454900000002
 20
-1.0098245
 30
0.0
 11
45.50649900000002
 21
-0.3540384999999979
 31
0.0
  0
LINE
  5
2BD2
330
BF7
100
AcDbEntity
  8
1
100
AcDbLine
 10
47.96259900000001
 20
-1.548002499999999
 30
0.0
 11
46.73454900000002
 21
-1.0098245
 31
0.0
  0
LINE
  5
2BD3
330
BF7
100
AcDbEntity
  8
1
100
AcDbLine
 10
49.19063700000001
 20
-1.9059105
 30
0.0
 11
47.96259900000001
 21
-1.548002499999999
 31
0.0
  0
LINE
  5
2BD4
330
BF7
100
AcDbEntity
  8
1
100
AcDbLine
 10
50.41868700000001
 20
-2.041868499999999
 30
0.0
 11
49.19063700000001
 21
-1.9059105
 31
0.0
  0
LINE
  5
2BD5
330
BF7
100
AcDbEntity
  8
1
100
AcDbLine
 10
50.55556100000001
 20
-2.030517499999997
 30
0.0
 11
50.41868700000001
 21
-2.041868499999999
 31
0.0
  0
LINE
  5
2BD6
330
BF7
100
AcDbEntity
  8
1
100
AcDbLine
 10
66.38330100000001
 20
0.5626245000000019
 30
0.0
 11
64.01760300000001
 21
1.642975499999995
 31
0.0
  0
LINE
  5
2BD7
330
BF7
100
AcDbEntity
  8
1
100
AcDbLine
 10
67.61133900000001
 20
-0.1303595000000008
 30
0.0
 11
66.38330100000001
 21
0.5626245000000019
 31
0.0
  0
LINE
  5
2BD8
330
BF7
100
AcDbEntity
  8
1
100
AcDbLine
 10
68.83938900000001
 20
-0.8081644999999999
 30
0.0
 11
67.61133900000001
 21
-0.1303595000000008
 31
0.0
  0
LINE
  5
2BD9
330
BF7
100
AcDbEntity
  8
1
100
AcDbLine
 10
70.067439
 20
-1.391856500000002
 30
0.0
 11
68.83938900000001
 21
-0.8081644999999999
 31
0.0
  0
LINE
  5
2BDA
330
BF7
100
AcDbEntity
  8
1
100
AcDbLine
 10
71.13309600000002
 20
-1.768981500000001
 30
0.0
 11
70.067439
 21
-1.391856500000002
 31
0.0
  0
LINE
  5
2BDB
330
BF7
100
AcDbEntity
  8
1
100
AcDbLine
 10
72.19874100000001
 20
-1.990611499999999
 30
0.0
 11
71.13309600000002
 21
-1.768981500000001
 31
0.0
  0
LINE
  5
2BDC
330
BF7
100
AcDbEntity
  8
1
100
AcDbLine
 10
9.893146000000015
 20
0.6929425000000009
 30
0.0
 11
7.534993000000013
 21
1.7168865
 31
0.0
  0
LINE
  5
2BDD
330
BF7
100
AcDbEntity
  8
1
100
AcDbLine
 10
11.121184
 20
0.0065324999999987
 30
0.0
 11
9.893146000000015
 21
0.6929425000000009
 31
0.0
  0
LINE
  5
2BDE
330
BF7
100
AcDbEntity
  8
1
100
AcDbLine
 10
12.34923399999999
 20
-0.6806415000000037
 30
0.0
 11
11.121184
 21
0.0065324999999987
 31
0.0
  0
LINE
  5
2BDF
330
BF7
100
AcDbEntity
  8
1
100
AcDbLine
 10
13.577284
 20
-1.288546500000002
 30
0.0
 11
12.34923399999999
 21
-0.6806415000000037
 31
0.0
  0
LINE
  5
2BE0
330
BF7
100
AcDbEntity
  8
1
100
AcDbLine
 10
14.805334
 20
-1.7463915
 30
0.0
 11
13.577284
 21
-1.288546500000002
 31
0.0
  0
LINE
  5
2BE1
330
BF7
100
AcDbEntity
  8
1
100
AcDbLine
 10
16.03337100000002
 20
-2.0008625
 30
0.0
 11
14.805334
 21
-1.7463915
 31
0.0
  0
LINE
  5
2BE2
330
BF7
100
AcDbEntity
  8
1
100
AcDbLine
 10
16.79014500000001
 20
-2.014085500000003
 30
0.0
 11
16.03337100000002
 21
-2.0008625
 31
0.0
  0
LINE
  5
2BE3
330
BF7
100
AcDbEntity
  8
1
100
AcDbLine
 10
31.997985
 20
0.9003185000000009
 30
0.0
 11
30.15319700000001
 21
1.6619935
 31
0.0
  0
LINE
  5
2BE4
330
BF7
100
AcDbEntity
  8
1
100
AcDbLine
 10
33.226035
 20
0.2314185000000002
 30
0.0
 11
31.997985
 21
0.9003185000000009
 31
0.0
  0
LINE
  5
2BE5
330
BF7
100
AcDbEntity
  8
1
100
AcDbLine
 10
34.45407300000002
 20
-0.4644264999999983
 30
0.0
 11
33.226035
 21
0.2314185000000002
 31
0.0
  0
LINE
  5
2BE6
330
BF7
100
AcDbEntity
  8
1
100
AcDbLine
 10
35.68212300000003
 20
-1.1061905
 30
0.0
 11
34.45407300000002
 21
-0.4644264999999983
 31
0.0
  0
LINE
  5
2BE7
330
BF7
100
AcDbEntity
  8
1
100
AcDbLine
 10
36.91017300000002
 20
-1.6191315
 30
0.0
 11
35.68212300000003
 21
-1.1061905
 31
0.0
  0
LINE
  5
2BE8
330
BF7
100
AcDbEntity
  8
1
100
AcDbLine
 10
38.13822300000001
 20
-1.943507499999999
 30
0.0
 11
36.91017300000002
 21
-1.6191315
 31
0.0
  0
LINE
  5
2BE9
330
BF7
100
AcDbEntity
  8
1
100
AcDbLine
 10
39.300083
 20
-2.036267500000001
 30
0.0
 11
38.13822300000001
 21
-1.943507499999999
 31
0.0
  0
LINE
  5
2BEA
330
BF7
100
AcDbEntity
  8
1
100
AcDbLine
 10
55.33087500000002
 20
0.4534914999999984
 30
0.0
 11
52.90131199999999
 21
1.601123499999999
 31
0.0
  0
LINE
  5
2BEB
330
BF7
100
AcDbEntity
  8
1
100
AcDbLine
 10
56.55892500000001
 20
-0.2425684999999973
 30
0.0
 11
55.33087500000002
 21
0.4534914999999984
 31
0.0
  0
LINE
  5
2BEC
330
BF7
100
AcDbEntity
  8
1
100
AcDbLine
 10
57.78697500000001
 20
-0.9103785000000002
 30
0.0
 11
56.55892500000001
 21
-0.2425684999999973
 31
0.0
  0
LINE
  5
2BED
330
BF7
100
AcDbEntity
  8
1
100
AcDbLine
 10
59.01501300000001
 20
-1.472167500000001
 30
0.0
 11
57.78697500000001
 21
-0.9103785000000002
 31
0.0
  0
LINE
  5
2BEE
330
BF7
100
AcDbEntity
  8
1
100
AcDbLine
 10
60.24306300000001
 20
-1.8625185
 30
0.0
 11
59.01501300000001
 21
-1.472167500000001
 31
0.0
  0
LINE
  5
2BEF
330
BF7
100
AcDbEntity
  8
1
100
AcDbLine
 10
61.471113
 20
-2.0359625
 30
0.0
 11
60.24306300000001
 21
-1.8625185
 31
0.0
  0
LINE
  5
2BF0
330
BF7
100
AcDbEntity
  8
1
100
AcDbLine
 10
61.75639100000001
 20
-2.021172500000002
 30
0.0
 11
61.471113
 21
-2.0359625
 31
0.0
  0
LINE
  5
2BF1
330
BF7
100
AcDbEntity
  8
1
100
AcDbLine
 10
62.01932400000001
 20
-2.007542499999999
 30
0.0
 11
61.75639100000001
 21
-2.021172500000002
 31
0.0
  0
LINE
  5
2BF2
330
BF7
100
AcDbEntity
  8
1
100
AcDbLine
 10
10.23022500000002
 20
2.003445499999996
 30
0.0
 11
6.445185000000008
 21
2.003445499999996
 31
0.0
  0
LINE
  5
2BF3
330
BF7
100
AcDbEntity
  8
1
100
AcDbLine
 10
6.208996000000013
 20
2.134097499999999
 30
0.0
 11
6.208996000000013
 21
2.003445499999996
 31
0.0
  0
LINE
  5
2BF4
330
BF7
100
AcDbEntity
  8
SK1
100
AcDbLine
 10
-36.000001
 20
1.847889499999996
 30
0.0
 11
-35.35048299999999
 21
2.162810499999999
 31
0.0
  0
LINE
  5
2BF5
330
BF7
100
AcDbEntity
  8
1
100
AcDbLine
 10
72.970787
 20
0.1122975000000004
 30
0.0
 11
72.511282
 21
0.4349644999999961
 31
0.0
  0
LINE
  5
2BF6
330
BF7
100
AcDbEntity
  8
1
100
AcDbLine
 10
9.250137000000007
 20
-0.1757574999999996
 30
0.0
 11
11.614261
 21
-1.260662500000002
 31
0.0
  0
LINE
  5
2BF7
330
BF7
100
AcDbEntity
  8
1
100
AcDbLine
 10
6.885892000000013
 20
0.8215254999999961
 30
0.0
 11
9.250137000000007
 21
-0.1757574999999996
 31
0.0
  0
LINE
  5
2BF8
330
BF7
100
AcDbEntity
  8
1
100
AcDbLine
 10
72.92284900000002
 20
0.3065284999999989
 30
0.0
 11
72.88890000000002
 21
0.419639499999999
 31
0.0
  0
LINE
  5
2BF9
330
BF7
100
AcDbEntity
  8
1
100
AcDbLine
 10
9.728718000000013
 20
-0.3402825000000007
 30
0.0
 11
11.614261
 21
-1.260662500000002
 31
0.0
  0
LINE
  5
2BFA
330
BF7
100
AcDbEntity
  8
1
100
AcDbLine
 10
72.40210799999998
 20
0.3774735000000007
 30
0.0
 11
72.39968499999999
 21
0.3650074999999973
 31
0.0
  0
LINE
  5
2BFB
330
BF7
100
AcDbEntity
  8
1
100
AcDbLine
 10
72.413783
 20
0.3994734999999991
 30
0.0
 11
72.40210799999998
 21
0.3774735000000007
 31
0.0
  0
LINE
  5
2BFC
330
BF7
100
AcDbEntity
  8
1
100
AcDbLine
 10
72.432738
 20
0.4164185000000026
 30
0.0
 11
72.413783
 21
0.3994734999999991
 31
0.0
  0
LINE
  5
2BFD
330
BF7
100
AcDbEntity
  8
1
100
AcDbLine
 10
72.46098299999998
 20
0.4292144999999971
 30
0.0
 11
72.432738
 21
0.4164185000000026
 31
0.0
  0
LINE
  5
2BFE
330
BF7
100
AcDbEntity
  8
1
100
AcDbLine
 10
72.511282
 20
0.4349644999999961
 30
0.0
 11
72.46098299999998
 21
0.4292144999999971
 31
0.0
  0
LINE
  5
2BFF
330
BF7
100
AcDbEntity
  8
1
100
AcDbLine
 10
70.72323700000002
 20
0.4950474999999983
 30
0.0
 11
72.39960100000002
 21
0.3641745000000007
 31
0.0
  0
LINE
  5
2C00
330
BF7
100
AcDbEntity
  8
1
100
AcDbLine
 10
52.54490200000001
 20
-0.0203225000000025
 30
0.0
 11
56.043937
 21
-0.4492085000000011
 31
0.0
  0
LINE
  5
2C01
330
BF7
100
AcDbEntity
  8
1
100
AcDbLine
 10
49.97133099999999
 20
0.3555815000000031
 30
0.0
 11
52.54490200000001
 21
-0.0203225000000025
 31
0.0
  0
LINE
  5
2C02
330
BF7
100
AcDbEntity
  8
1
100
AcDbLine
 10
48.18642300000002
 20
0.4943685000000002
 30
0.0
 11
49.97133099999999
 21
0.3555815000000031
 31
0.0
  0
LINE
  5
2C03
330
BF7
100
AcDbEntity
  8
1
100
AcDbLine
 10
29.381406
 20
0.0838654999999982
 30
0.0
 11
33.54569900000001
 21
-0.4508434999999979
 31
0.0
  0
LINE
  5
2C04
330
BF7
100
AcDbEntity
  8
1
100
AcDbLine
 10
27.21952200000001
 20
0.3855964999999983
 30
0.0
 11
29.381406
 21
0.0838654999999982
 31
0.0
  0
LINE
  5
2C05
330
BF7
100
AcDbEntity
  8
1
100
AcDbLine
 10
25.707381
 20
0.5012574999999977
 30
0.0
 11
27.21952200000001
 21
0.3855964999999983
 31
0.0
  0
LINE
  5
2C06
330
BF7
100
AcDbEntity
  8
1
100
AcDbLine
 10
9.728718000000013
 20
-0.3402825000000007
 30
0.0
 11
10.999982
 21
-0.4404305000000052
 31
0.0
  0
LINE
  5
2C07
330
BF7
100
AcDbEntity
  8
1
100
AcDbLine
 10
10.03144900000001
 20
-0.2189235000000025
 30
0.0
 11
9.728718000000013
 21
-0.3402825000000007
 31
0.0
  0
LINE
  5
2C08
330
BF7
100
AcDbEntity
  8
1
100
AcDbLine
 10
10.269334
 20
-0.1739165000000007
 30
0.0
 11
10.03144900000001
 21
-0.2189235000000025
 31
0.0
  0
LINE
  5
2C09
330
BF7
100
AcDbEntity
  8
1
100
AcDbLine
 10
10.463993
 20
-0.1741895000000007
 30
0.0
 11
10.269334
 21
-0.1739165000000007
 31
0.0
  0
LINE
  5
2C0A
330
BF7
100
AcDbEntity
  8
1
100
AcDbLine
 10
10.53058199999999
 20
-0.1859735000000029
 30
0.0
 11
10.463993
 21
-0.1741895000000007
 31
0.0
  0
LINE
  5
2C0B
330
BF7
100
AcDbEntity
  8
1
100
AcDbLine
 10
72.88890000000002
 20
0.419639499999999
 30
0.0
 11
72.89152800000002
 21
0.4280024999999982
 31
0.0
  0
LINE
  5
2C0C
330
BF7
100
AcDbEntity
  8
1
100
AcDbLine
 10
72.88890000000002
 20
0.419639499999999
 30
0.0
 11
72.511282
 21
0.4349644999999961
 31
0.0
  0
LINE
  5
2C0D
330
BF7
100
AcDbEntity
  8
1
100
AcDbLine
 10
62.69277999999999
 20
0.1511995000000006
 30
0.0
 11
67.27944300000001
 21
-0.4680025000000009
 31
0.0
  0
LINE
  5
2C0E
330
BF7
100
AcDbEntity
  8
1
100
AcDbLine
 10
60.26630599999998
 20
0.4582544999999989
 30
0.0
 11
62.69277999999999
 21
0.1511995000000006
 31
0.0
  0
LINE
  5
2C0F
330
BF7
100
AcDbEntity
  8
1
100
AcDbLine
 10
59.437989
 20
0.4913834999999979
 30
0.0
 11
60.26630599999998
 21
0.4582544999999989
 31
0.0
  0
LINE
  5
2C10
330
BF7
100
AcDbEntity
  8
1
100
AcDbLine
 10
42.25012099999999
 20
-0.1681365000000028
 30
0.0
 11
44.85307500000002
 21
-0.4818374999999975
 31
0.0
  0
LINE
  5
2C11
330
BF7
100
AcDbEntity
  8
1
100
AcDbLine
 10
39.67627200000001
 20
0.2278514999999963
 30
0.0
 11
42.25012099999999
 21
-0.1681365000000028
 31
0.0
  0
LINE
  5
2C12
330
BF7
100
AcDbEntity
  8
1
100
AcDbLine
 10
37.10277300000001
 20
0.5109824999999974
 30
0.0
 11
39.67627200000001
 21
0.2278514999999963
 31
0.0
  0
LINE
  5
2C13
330
BF7
100
AcDbEntity
  8
1
100
AcDbLine
 10
36.889838
 20
0.5135084999999969
 30
0.0
 11
37.10277300000001
 21
0.5109824999999974
 31
0.0
  0
LINE
  5
2C14
330
BF7
100
AcDbEntity
  8
1
100
AcDbLine
 10
17.982162
 20
0.1069744999999997
 30
0.0
 11
22.28343800000001
 21
-0.4611475000000027
 31
0.0
  0
LINE
  5
2C15
330
BF7
100
AcDbEntity
  8
1
100
AcDbLine
 10
15.23059800000001
 20
0.4617365000000008
 30
0.0
 11
17.982162
 21
0.1069744999999997
 31
0.0
  0
LINE
  5
2C16
330
BF7
100
AcDbEntity
  8
1
100
AcDbLine
 10
14.45122500000002
 20
0.4887094999999988
 30
0.0
 11
15.23059800000001
 21
0.4617365000000008
 31
0.0
  0
LINE
  5
2C17
330
BF7
100
AcDbEntity
  8
SK1
100
AcDbLine
 10
-36.000001
 20
1.228420499999998
 30
0.0
 11
-36.000001
 21
1.847889499999996
 31
0.0
  0
LINE
  5
2C18
330
BF7
100
AcDbEntity
  8
SK1
100
AcDbLine
 10
-36.000001
 20
0.503558499999997
 30
0.0
 11
-36.000001
 21
1.228420499999998
 31
0.0
  0
LINE
  5
2C19
330
BF7
100
AcDbEntity
  8
SK1
100
AcDbLine
 10
-36.000001
 20
-0.2645055000000021
 30
0.0
 11
-36.000001
 21
0.503558499999997
 31
0.0
  0
LINE
  5
2C1A
330
BF7
100
AcDbEntity
  8
SK1
100
AcDbLine
 10
-36.000001
 20
-1.009875500000003
 30
0.0
 11
-36.000001
 21
-0.2645055000000021
 31
0.0
  0
LINE
  5
2C1B
330
BF7
100
AcDbEntity
  8
SK1
100
AcDbLine
 10
-36.000001
 20
-1.668606500000002
 30
0.0
 11
-36.000001
 21
-1.009875500000003
 31
0.0
  0
LINE
  5
2C1C
330
BF7
100
AcDbEntity
  8
SK1
100
AcDbLine
 10
-36.000001
 20
-2.1841785
 30
0.0
 11
-36.000001
 21
-1.668606500000002
 31
0.0
  0
LINE
  5
2C1D
330
BF7
100
AcDbEntity
  8
SK1
100
AcDbLine
 10
-36.000001
 20
-2.5123625
 30
0.0
 11
-36.000001
 21
-2.1841785
 31
0.0
  0
LINE
  5
2C1E
330
BF7
100
AcDbEntity
  8
SK1
100
AcDbLine
 10
-36.000001
 20
-2.6249995
 30
0.0
 11
-36.000001
 21
-2.5123625
 31
0.0
  0
LINE
  5
2C1F
330
BF7
100
AcDbEntity
  8
SK1
100
AcDbLine
 10
-35.35048299999999
 20
-2.896038500000003
 30
0.0
 11
-35.35048299999999
 21
-2.999999500000001
 31
0.0
  0
LINE
  5
2C20
330
BF7
100
AcDbEntity
  8
SK1
100
AcDbLine
 10
-35.35048299999999
 20
-2.591421499999999
 30
0.0
 11
-35.35048299999999
 21
-2.896038500000003
 31
0.0
  0
LINE
  5
2C21
330
BF7
100
AcDbEntity
  8
SK1
100
AcDbLine
 10
-35.35048299999999
 20
-2.107251499999999
 30
0.0
 11
-35.35048299999999
 21
-2.591421499999999
 31
0.0
  0
LINE
  5
2C22
330
BF7
100
AcDbEntity
  8
SK1
100
AcDbLine
 10
-35.35048299999999
 20
-1.4770755
 30
0.0
 11
-35.35048299999999
 21
-2.107251499999999
 31
0.0
  0
LINE
  5
2C23
330
BF7
100
AcDbEntity
  8
SK1
100
AcDbLine
 10
-35.35048299999999
 20
-0.7445574999999991
 30
0.0
 11
-35.35048299999999
 21
-1.4770755
 31
0.0
  0
LINE
  5
2C24
330
BF7
100
AcDbEntity
  8
SK1
100
AcDbLine
 10
-35.35048299999999
 20
0.0395484999999987
 30
0.0
 11
-35.35048299999999
 21
-0.7445574999999991
 31
0.0
  0
LINE
  5
2C25
330
BF7
100
AcDbEntity
  8
SK1
100
AcDbLine
 10
-35.35048299999999
 20
0.8209144999999971
 30
0.0
 11
-35.35048299999999
 21
0.0395484999999987
 31
0.0
  0
LINE
  5
2C26
330
BF7
100
AcDbEntity
  8
SK1
100
AcDbLine
 10
-35.35048299999999
 20
1.545400499999995
 30
0.0
 11
-35.35048299999999
 21
0.8209144999999971
 31
0.0
  0
LINE
  5
2C27
330
BF7
100
AcDbEntity
  8
SK1
100
AcDbLine
 10
-35.35048299999999
 20
2.162810499999999
 30
0.0
 11
-35.35048299999999
 21
1.545400499999995
 31
0.0
  0
LINE
  5
2C28
330
BF7
100
AcDbEntity
  8
SK1
100
AcDbLine
 10
-35.35048299999999
 20
2.930702499999998
 30
0.0
 11
-35.35048299999999
 21
2.725963499999995
 31
0.0
  0
LINE
  5
2C29
330
BF7
100
AcDbEntity
  8
SK1
100
AcDbLine
 10
-35.35048299999999
 20
2.999999500000001
 30
0.0
 11
-35.35048299999999
 21
2.930702499999998
 31
0.0
  0
LINE
  5
2C2A
330
BF7
100
AcDbEntity
  8
SK1
100
AcDbLine
 10
-35.35048299999999
 20
2.725963499999995
 30
0.0
 11
-36.000001
 21
2.411042499999999
 31
0.0
  0
LINE
  5
2C2B
330
BF7
100
AcDbEntity
  8
SK1
100
AcDbLine
 10
-36.000001
 20
2.570964499999997
 30
0.0
 11
-36.000001
 21
2.625001499999996
 31
0.0
  0
LINE
  5
2C2C
330
BF7
100
AcDbEntity
  8
SK1
100
AcDbLine
 10
-36.000001
 20
2.411042499999999
 30
0.0
 11
-36.000001
 21
2.570964499999997
 31
0.0
  0
LINE
  5
2C2D
330
BF7
100
AcDbEntity
  8
SK1
100
AcDbLine
 10
-36.000001
 20
2.411042499999999
 30
0.0
 11
-36.000001
 21
1.847865499999996
 31
0.0
  0
LINE
  5
2C2E
330
BF7
100
AcDbEntity
  8
1
100
AcDbLine
 10
72.99373800000002
 20
0.0316724999999991
 30
0.0
 11
72.970787
 21
0.1122975000000004
 31
0.0
  0
LINE
  5
2C2F
330
BF7
100
AcDbEntity
  8
1
100
AcDbLine
 10
72.970787
 20
0.1122975000000004
 30
0.0
 11
72.92284900000002
 21
0.3065284999999989
 31
0.0
  0
LINE
  5
2C30
330
BF7
100
AcDbEntity
  8
1
100
AcDbLine
 10
72.89152800000002
 20
0.4280024999999982
 30
0.0
 11
72.92284900000002
 21
0.3065284999999989
 31
0.0
  0
LINE
  5
2C31
330
BF7
100
AcDbEntity
  8
1
100
AcDbLine
 10
72.36832800000001
 20
1.717268500000002
 30
0.0
 11
72.19458700000001
 21
2.149890499999996
 31
0.0
  0
LINE
  5
2C32
330
BF7
100
AcDbEntity
  8
1
100
AcDbLine
 10
72.56063700000002
 20
1.243211500000001
 30
0.0
 11
72.36832800000001
 21
1.717268500000002
 31
0.0
  0
LINE
  5
2C33
330
BF7
100
AcDbEntity
  8
1
100
AcDbLine
 10
72.89152800000002
 20
0.4280024999999982
 30
0.0
 11
72.56063700000002
 21
1.243211500000001
 31
0.0
  0
LINE
  5
2C34
330
BF7
100
AcDbEntity
  8
1
100
AcDbLine
 10
9.335463999999999
 20
2.097380499999998
 30
0.0
 11
8.969583
 21
2.134097499999999
 31
0.0
  0
LINE
  5
2C35
330
BF7
100
AcDbEntity
  8
1
100
AcDbLine
 10
9.745759000000006
 20
2.055356500000002
 30
0.0
 11
9.335463999999999
 21
2.097380499999998
 31
0.0
  0
LINE
  5
2C36
330
BF7
100
AcDbEntity
  8
1
100
AcDbLine
 10
10.23022500000002
 20
2.003445499999996
 30
0.0
 11
9.745759000000006
 21
2.055356500000002
 31
0.0
  0
LINE
  5
2C37
330
BF7
100
AcDbEntity
  8
1
100
AcDbLine
 10
66.51487
 20
-1.4022025
 30
0.0
 11
68.49438800000001
 21
-1.1085405
 31
0.0
  0
LINE
  5
2C38
330
BF7
100
AcDbEntity
  8
1
100
AcDbLine
 10
64.94619199999999
 20
-1.321705499999999
 30
0.0
 11
66.51487
 21
-1.4022025
 31
0.0
  0
LINE
  5
2C39
330
BF7
100
AcDbEntity
  8
1
100
AcDbLine
 10
63.377586
 20
-0.9915445000000032
 30
0.0
 11
64.94619199999999
 21
-1.321705499999999
 31
0.0
  0
LINE
  5
2C3A
330
BF7
100
AcDbEntity
  8
1
100
AcDbLine
 10
61.80916200000002
 20
-0.4741405000000009
 30
0.0
 11
63.377586
 21
-0.9915445000000032
 31
0.0
  0
LINE
  5
2C3B
330
BF7
100
AcDbEntity
  8
1
100
AcDbLine
 10
60.89515499999999
 20
-0.1204464999999999
 30
0.0
 11
61.80916200000002
 21
-0.4741405000000009
 31
0.0
  0
LINE
  5
2C3C
330
BF7
100
AcDbEntity
  8
1
100
AcDbLine
 10
42.98548099999999
 20
-1.3792295
 30
0.0
 11
45.986049
 21
-1.1220295
 31
0.0
  0
LINE
  5
2C3D
330
BF7
100
AcDbEntity
  8
1
100
AcDbLine
 10
41.41686299999999
 20
-1.130077500000001
 30
0.0
 11
42.98548099999999
 21
-1.3792295
 31
0.0
  0
LINE
  5
2C3E
330
BF7
100
AcDbEntity
  8
1
100
AcDbLine
 10
39.848342
 20
-0.667557500000001
 30
0.0
 11
41.41686299999999
 21
-1.130077500000001
 31
0.0
  0
LINE
  5
2C3F
330
BF7
100
AcDbEntity
  8
1
100
AcDbLine
 10
38.353193
 20
-0.1064245000000028
 30
0.0
 11
39.848342
 21
-0.667557500000001
 31
0.0
  0
LINE
  5
2C40
330
BF7
100
AcDbEntity
  8
1
100
AcDbLine
 10
21.02497600000001
 20
-1.405857499999999
 30
0.0
 11
23.48143900000001
 21
-1.105597500000001
 31
0.0
  0
LINE
  5
2C41
330
BF7
100
AcDbEntity
  8
1
100
AcDbLine
 10
19.45624900000001
 20
-1.243188500000002
 30
0.0
 11
21.02497600000001
 21
-1.405857499999999
 31
0.0
  0
LINE
  5
2C42
330
BF7
100
AcDbEntity
  8
1
100
AcDbLine
 10
17.88764300000001
 20
-0.8458445000000017
 30
0.0
 11
19.45624900000001
 21
-1.243188500000002
 31
0.0
  0
LINE
  5
2C43
330
BF7
100
AcDbEntity
  8
1
100
AcDbLine
 10
16.31900100000001
 20
-0.288822500000002
 30
0.0
 11
17.88764300000001
 21
-0.8458445000000017
 31
0.0
  0
LINE
  5
2C44
330
BF7
100
AcDbEntity
  8
1
100
AcDbLine
 10
15.81217600000002
 20
-0.0911995000000055
 30
0.0
 11
16.31900100000001
 21
-0.288822500000002
 31
0.0
  0
LINE
  5
2C45
330
BF7
100
AcDbEntity
  8
1
100
AcDbLine
 10
11.16665100000001
 20
1.832571499999995
 30
0.0
 11
10.23022500000002
 21
2.003445499999996
 31
0.0
  0
LINE
  5
2C46
330
BF7
100
AcDbEntity
  8
1
100
AcDbLine
 10
12.08786400000001
 20
1.542790499999997
 30
0.0
 11
11.16665100000001
 21
1.832571499999995
 31
0.0
  0
LINE
  5
2C47
330
BF7
100
AcDbEntity
  8
1
100
AcDbLine
 10
13.33690300000002
 20
0.9924424999999992
 30
0.0
 11
12.08786400000001
 21
1.542790499999997
 31
0.0
  0
LINE
  5
2C48
330
BF7
100
AcDbEntity
  8
1
100
AcDbLine
 10
14.55074600000002
 20
0.3423704999999977
 30
0.0
 11
13.33690300000002
 21
0.9924424999999992
 31
0.0
  0
LINE
  5
2C49
330
BF7
100
AcDbEntity
  8
1
100
AcDbLine
 10
15.79979800000001
 20
-0.3664345000000004
 30
0.0
 11
14.55074600000002
 21
0.3423704999999977
 31
0.0
  0
LINE
  5
2C4A
330
BF7
100
AcDbEntity
  8
1
100
AcDbLine
 10
17.01364100000001
 20
-1.013724500000002
 30
0.0
 11
15.79979800000001
 21
-0.3664345000000004
 31
0.0
  0
LINE
  5
2C4B
330
BF7
100
AcDbEntity
  8
1
100
AcDbLine
 10
18.262669
 20
-1.558689499999999
 30
0.0
 11
17.01364100000001
 21
-1.013724500000002
 31
0.0
  0
LINE
  5
2C4C
330
BF7
100
AcDbEntity
  8
1
100
AcDbLine
 10
19.47649900000001
 20
-1.908895499999999
 30
0.0
 11
18.262669
 21
-1.558689499999999
 31
0.0
  0
LINE
  5
2C4D
330
BF7
100
AcDbEntity
  8
1
100
AcDbLine
 10
20.72557500000002
 20
-2.042272500000001
 30
0.0
 11
19.47649900000001
 21
-1.908895499999999
 31
0.0
  0
LINE
  5
2C4E
330
BF7
100
AcDbEntity
  8
1
100
AcDbLine
 10
21.93944300000001
 20
-1.936159500000002
 30
0.0
 11
20.72557500000002
 21
-2.042272500000001
 31
0.0
  0
LINE
  5
2C4F
330
BF7
100
AcDbEntity
  8
1
100
AcDbLine
 10
23.18861500000001
 20
-1.597220499999997
 30
0.0
 11
21.93944300000001
 21
-1.936159500000002
 31
0.0
  0
LINE
  5
2C50
330
BF7
100
AcDbEntity
  8
1
100
AcDbLine
 10
23.89178199999999
 20
-1.299347500000002
 30
0.0
 11
23.18861500000001
 21
-1.597220499999997
 31
0.0
  0
LINE
  5
2C51
330
BF7
100
AcDbEntity
  8
1
100
AcDbLine
 10
34.25386800000001
 20
1.6607495
 30
0.0
 11
32.02837400000002
 21
2.0234935
 31
0.0
  0
LINE
  5
2C52
330
BF7
100
AcDbEntity
  8
1
100
AcDbLine
 10
35.50296800000001
 20
1.154360499999999
 30
0.0
 11
34.25386800000001
 21
1.6607495
 31
0.0
  0
LINE
  5
2C53
330
BF7
100
AcDbEntity
  8
1
100
AcDbLine
 10
36.716859
 20
0.5283574999999985
 30
0.0
 11
35.50296800000001
 21
1.154360499999999
 31
0.0
  0
LINE
  5
2C54
330
BF7
100
AcDbEntity
  8
1
100
AcDbLine
 10
37.96586200000002
 20
-0.1777344999999997
 30
0.0
 11
36.716859
 21
0.5283574999999985
 31
0.0
  0
LINE
  5
2C55
330
BF7
100
AcDbEntity
  8
1
100
AcDbLine
 10
39.17965699999999
 20
-0.8441824999999987
 30
0.0
 11
37.96586200000002
 21
-0.1777344999999997
 31
0.0
  0
LINE
  5
2C56
330
BF7
100
AcDbEntity
  8
1
100
AcDbLine
 10
40.42882999999999
 20
-1.429051499999999
 30
0.0
 11
39.17965699999999
 21
-0.8441824999999987
 31
0.0
  0
LINE
  5
2C57
330
BF7
100
AcDbEntity
  8
1
100
AcDbLine
 10
41.642782
 20
-1.8330035
 30
0.0
 11
40.42882999999999
 21
-1.429051499999999
 31
0.0
  0
LINE
  5
2C58
330
BF7
100
AcDbEntity
  8
1
100
AcDbLine
 10
42.89171200000001
 20
-2.030566500000002
 30
0.0
 11
41.642782
 21
-1.8330035
 31
0.0
  0
LINE
  5
2C59
330
BF7
100
AcDbEntity
  8
1
100
AcDbLine
 10
44.105458
 20
-1.9883205
 30
0.0
 11
42.89171200000001
 21
-2.030566500000002
 31
0.0
  0
LINE
  5
2C5A
330
BF7
100
AcDbEntity
  8
1
100
AcDbLine
 10
45.35455899999998
 20
-1.708870499999999
 30
0.0
 11
44.105458
 21
-1.9883205
 31
0.0
  0
LINE
  5
2C5B
330
BF7
100
AcDbEntity
  8
1
100
AcDbLine
 10
46.401769
 20
-1.304040500000001
 30
0.0
 11
45.35455899999998
 21
-1.708870499999999
 31
0.0
  0
LINE
  5
2C5C
330
BF7
100
AcDbEntity
  8
1
100
AcDbLine
 10
56.41998
 20
1.764237499999999
 30
0.0
 11
54.527073
 21
2.011757499999998
 31
0.0
  0
LINE
  5
2C5D
330
BF7
100
AcDbEntity
  8
1
100
AcDbLine
 10
57.66904400000001
 20
1.306243499999999
 30
0.0
 11
56.41998
 21
1.764237499999999
 31
0.0
  0
LINE
  5
2C5E
330
BF7
100
AcDbEntity
  8
1
100
AcDbLine
 10
58.88289900000001
 20
0.7097894999999994
 30
0.0
 11
57.66904400000001
 21
1.306243499999999
 31
0.0
  0
LINE
  5
2C5F
330
BF7
100
AcDbEntity
  8
1
100
AcDbLine
 10
60.13214500000001
 20
0.0123855000000006
 30
0.0
 11
58.88289900000001
 21
0.7097894999999994
 31
0.0
  0
LINE
  5
2C60
330
BF7
100
AcDbEntity
  8
1
100
AcDbLine
 10
61.34615700000001
 20
-0.667557500000001
 30
0.0
 11
60.13214500000001
 21
0.0123855000000006
 31
0.0
  0
LINE
  5
2C61
330
BF7
100
AcDbEntity
  8
1
100
AcDbLine
 10
62.59506400000001
 20
-1.2870235
 30
0.0
 11
61.34615700000001
 21
-0.667557500000001
 31
0.0
  0
LINE
  5
2C62
330
BF7
100
AcDbEntity
  8
1
100
AcDbLine
 10
63.80877299999999
 20
-1.7411235
 30
0.0
 11
62.59506400000001
 21
-1.2870235
 31
0.0
  0
LINE
  5
2C63
330
BF7
100
AcDbEntity
  8
1
100
AcDbLine
 10
65.05776399999999
 20
-2.001234500000002
 30
0.0
 11
63.80877299999999
 21
-1.7411235
 31
0.0
  0
LINE
  5
2C64
330
BF7
100
AcDbEntity
  8
1
100
AcDbLine
 10
66.27155899999999
 20
-2.023185500000003
 30
0.0
 11
65.05776399999999
 21
-2.001234500000002
 31
0.0
  0
LINE
  5
2C65
330
BF7
100
AcDbEntity
  8
1
100
AcDbLine
 10
67.51565699999999
 20
-1.806936499999999
 30
0.0
 11
66.27155899999999
 21
-2.023185500000003
 31
0.0
  0
LINE
  5
2C66
330
BF7
100
AcDbEntity
  8
1
100
AcDbLine
 10
68.72493399999999
 20
-1.389388500000002
 30
0.0
 11
67.51565699999999
 21
-1.806936499999999
 31
0.0
  0
LINE
  5
2C67
330
BF7
100
AcDbEntity
  8
1
100
AcDbLine
 10
68.90410200000002
 20
-1.306347500000001
 30
0.0
 11
68.72493399999999
 21
-1.389388500000002
 31
0.0
  0
LINE
  5
2C68
330
BF7
100
AcDbEntity
  8
1
100
AcDbLine
 10
9.335463999999999
 20
-2.0973785
 30
0.0
 11
8.969583
 21
-2.1340955
 31
0.0
  0
LINE
  5
2C69
330
BF7
100
AcDbEntity
  8
1
100
AcDbLine
 10
9.745759000000006
 20
-2.055354499999999
 30
0.0
 11
9.335463999999999
 21
-2.0973785
 31
0.0
  0
LINE
  5
2C6A
330
BF7
100
AcDbEntity
  8
1
100
AcDbLine
 10
10.23022500000002
 20
-2.003445500000001
 30
0.0
 11
9.745759000000006
 21
-2.055354499999999
 31
0.0
  0
LINE
  5
2C6B
330
BF7
100
AcDbEntity
  8
1
100
AcDbLine
 10
9.696634000000003
 20
-1.639029499999999
 30
0.0
 11
7.819120000000013
 21
-1.942493500000001
 31
0.0
  0
LINE
  5
2C6C
330
BF7
100
AcDbEntity
  8
1
100
AcDbLine
 10
11.614261
 20
-1.260662500000002
 30
0.0
 11
9.696634000000003
 21
-1.639029499999999
 31
0.0
  0
LINE
  5
2C6D
330
BF7
100
AcDbEntity
  8
1
100
AcDbLine
 10
55.534424
 20
-1.388997500000002
 30
0.0
 11
57.23367800000001
 21
-1.124349500000001
 31
0.0
  0
LINE
  5
2C6E
330
BF7
100
AcDbEntity
  8
1
100
AcDbLine
 10
53.965867
 20
-1.3542795
 30
0.0
 11
55.534424
 21
-1.388997500000002
 31
0.0
  0
LINE
  5
2C6F
330
BF7
100
AcDbEntity
  8
1
100
AcDbLine
 10
52.39729700000001
 20
-1.063854499999997
 30
0.0
 11
53.965867
 21
-1.3542795
 31
0.0
  0
LINE
  5
2C70
330
BF7
100
AcDbEntity
  8
1
100
AcDbLine
 10
50.82882500000001
 20
-0.5725115000000045
 30
0.0
 11
52.39729700000001
 21
-1.063854499999997
 31
0.0
  0
LINE
  5
2C71
330
BF7
100
AcDbEntity
  8
1
100
AcDbLine
 10
49.62417400000001
 20
-0.1120535000000018
 30
0.0
 11
50.82882500000001
 21
-0.5725115000000045
 31
0.0
  0
LINE
  5
2C72
330
BF7
100
AcDbEntity
  8
1
100
AcDbLine
 10
32.005192
 20
-1.396467499999999
 30
0.0
 11
34.73189100000002
 21
-1.110453500000001
 31
0.0
  0
LINE
  5
2C73
330
BF7
100
AcDbEntity
  8
1
100
AcDbLine
 10
30.43655000000001
 20
-1.189963500000001
 30
0.0
 11
32.005192
 21
-1.396467499999999
 31
0.0
  0
LINE
  5
2C74
330
BF7
100
AcDbEntity
  8
1
100
AcDbLine
 10
28.86801700000001
 20
-0.7588554999999994
 30
0.0
 11
30.43655000000001
 21
-1.189963500000001
 31
0.0
  0
LINE
  5
2C75
330
BF7
100
AcDbEntity
  8
1
100
AcDbLine
 10
27.29945900000001
 20
-0.184411500000003
 30
0.0
 11
28.86801700000001
 21
-0.7588554999999994
 31
0.0
  0
LINE
  5
2C76
330
BF7
100
AcDbEntity
  8
1
100
AcDbLine
 10
27.08407800000002
 20
-0.1007314999999984
 30
0.0
 11
27.29945900000001
 21
-0.184411500000003
 31
0.0
  0
LINE
  5
2C77
330
BF7
100
AcDbEntity
  8
1
100
AcDbLine
 10
11.614261
 20
-1.260662500000002
 30
0.0
 11
12.22924300000001
 21
-1.108791500000001
 31
0.0
  0
LINE
  5
2C78
330
BF7
100
AcDbEntity
  8
1
100
AcDbLine
 10
11.16665100000001
 20
-1.8325695
 30
0.0
 11
10.23022500000002
 21
-2.003445500000001
 31
0.0
  0
LINE
  5
2C79
330
BF7
100
AcDbEntity
  8
1
100
AcDbLine
 10
12.08786400000001
 20
-1.542788500000003
 30
0.0
 11
11.16665100000001
 21
-1.8325695
 31
0.0
  0
LINE
  5
2C7A
330
BF7
100
AcDbEntity
  8
1
100
AcDbLine
 10
12.629715
 20
-1.304040500000001
 30
0.0
 11
12.08786400000001
 21
-1.542788500000003
 31
0.0
  0
LINE
  5
2C7B
330
BF7
100
AcDbEntity
  8
1
100
AcDbLine
 10
23.18861500000001
 20
1.5972235
 30
0.0
 11
20.779533
 21
2.037555499999998
 31
0.0
  0
LINE
  5
2C7C
330
BF7
100
AcDbEntity
  8
1
100
AcDbLine
 10
24.40258
 20
1.082971499999998
 30
0.0
 11
23.18861500000001
 21
1.5972235
 31
0.0
  0
LINE
  5
2C7D
330
BF7
100
AcDbEntity
  8
1
100
AcDbLine
 10
25.65144900000002
 20
0.4260014999999983
 30
0.0
 11
24.40258
 21
1.082971499999998
 31
0.0
  0
LINE
  5
2C7E
330
BF7
100
AcDbEntity
  8
1
100
AcDbLine
 10
26.86512300000001
 20
-0.2623805000000026
 30
0.0
 11
25.65144900000002
 21
0.4260014999999983
 31
0.0
  0
LINE
  5
2C7F
330
BF7
100
AcDbEntity
  8
1
100
AcDbLine
 10
28.114138
 20
-0.9388285000000031
 30
0.0
 11
26.86512300000001
 21
-0.2623805000000026
 31
0.0
  0
LINE
  5
2C80
330
BF7
100
AcDbEntity
  8
1
100
AcDbLine
 10
29.32794500000002
 20
-1.488558499999999
 30
0.0
 11
28.114138
 21
-0.9388285000000031
 31
0.0
  0
LINE
  5
2C81
330
BF7
100
AcDbEntity
  8
1
100
AcDbLine
 10
30.57721499999999
 20
-1.8769615
 30
0.0
 11
29.32794500000002
 21
-1.488558499999999
 31
0.0
  0
LINE
  5
2C82
330
BF7
100
AcDbEntity
  8
1
100
AcDbLine
 10
31.79126400000001
 20
-2.0379985
 30
0.0
 11
30.57721499999999
 21
-1.8769615
 31
0.0
  0
LINE
  5
2C83
330
BF7
100
AcDbEntity
  8
1
100
AcDbLine
 10
33.04015799999999
 20
-1.961579499999999
 30
0.0
 11
31.79126400000001
 21
-2.0379985
 31
0.0
  0
LINE
  5
2C84
330
BF7
100
AcDbEntity
  8
1
100
AcDbLine
 10
34.25386800000001
 20
-1.660748499999999
 30
0.0
 11
33.04015799999999
 21
-1.961579499999999
 31
0.0
  0
LINE
  5
2C85
330
BF7
100
AcDbEntity
  8
1
100
AcDbLine
 10
35.131236
 20
-1.305058500000001
 30
0.0
 11
34.25386800000001
 21
-1.660748499999999
 31
0.0
  0
LINE
  5
2C86
330
BF7
100
AcDbEntity
  8
1
100
AcDbLine
 10
45.35455899999998
 20
1.708871499999996
 30
0.0
 11
43.27726300000001
 21
2.017150499999995
 31
0.0
  0
LINE
  5
2C87
330
BF7
100
AcDbEntity
  8
1
100
AcDbLine
 10
46.56845000000001
 20
1.239608499999999
 30
0.0
 11
45.35455899999998
 21
1.708871499999996
 31
0.0
  0
LINE
  5
2C88
330
BF7
100
AcDbEntity
  8
1
100
AcDbLine
 10
47.81758599999999
 20
0.6101194999999962
 30
0.0
 11
46.56845000000001
 21
1.239608499999999
 31
0.0
  0
LINE
  5
2C89
330
BF7
100
AcDbEntity
  8
1
100
AcDbLine
 10
49.03151400000002
 20
-0.0728055000000048
 30
0.0
 11
47.81758599999999
 21
0.6101194999999962
 31
0.0
  0
LINE
  5
2C8A
330
BF7
100
AcDbEntity
  8
1
100
AcDbLine
 10
50.28046900000001
 20
-0.765995499999999
 30
0.0
 11
49.03151400000002
 21
-0.0728055000000048
 31
0.0
  0
LINE
  5
2C8B
330
BF7
100
AcDbEntity
  8
1
100
AcDbLine
 10
51.49422700000002
 20
-1.351954499999997
 30
0.0
 11
50.28046900000001
 21
-0.765995499999999
 31
0.0
  0
LINE
  5
2C8C
330
BF7
100
AcDbEntity
  8
1
100
AcDbLine
 10
52.74335200000002
 20
-1.7938185
 30
0.0
 11
51.49422700000002
 21
-1.351954499999997
 31
0.0
  0
LINE
  5
2C8D
330
BF7
100
AcDbEntity
  8
1
100
AcDbLine
 10
53.95727900000003
 20
-2.0165305
 30
0.0
 11
52.74335200000002
 21
-1.7938185
 31
0.0
  0
LINE
  5
2C8E
330
BF7
100
AcDbEntity
  8
1
100
AcDbLine
 10
55.20622200000001
 20
-2.006066500000001
 30
0.0
 11
53.95727900000003
 21
-2.0165305
 31
0.0
  0
LINE
  5
2C8F
330
BF7
100
AcDbEntity
  8
1
100
AcDbLine
 10
56.41998
 20
-1.764236499999999
 30
0.0
 11
55.20622200000001
 21
-2.006066500000001
 31
0.0
  0
LINE
  5
2C90
330
BF7
100
AcDbEntity
  8
1
100
AcDbLine
 10
57.65068299999999
 20
-1.312973499999998
 30
0.0
 11
56.41998
 21
-1.764236499999999
 31
0.0
  0
LINE
  5
2C91
330
BF7
100
AcDbEntity
  8
1
100
AcDbLine
 10
67.51565699999999
 20
1.8069375
 30
0.0
 11
65.77875999999999
 21
2.014276499999996
 31
0.0
  0
LINE
  5
2C92
330
BF7
100
AcDbEntity
  8
1
100
AcDbLine
 10
68.72493399999999
 20
1.389390499999997
 30
0.0
 11
67.51565699999999
 21
1.8069375
 31
0.0
  0
LINE
  5
2C93
330
BF7
100
AcDbEntity
  8
1
100
AcDbLine
 10
69.65450400000003
 20
0.9585605000000008
 30
0.0
 11
68.72493399999999
 21
1.389390499999997
 31
0.0
  0
LINE
  5
2C94
330
BF7
100
AcDbEntity
  8
1
100
AcDbLine
 10
70.56920100000002
 20
0.4717714999999992
 30
0.0
 11
69.65450400000003
 21
0.9585605000000008
 31
0.0
  0
LINE
  5
2C95
330
BF7
100
AcDbEntity
  8
1
100
AcDbLine
 10
72.196742
 20
-1.9376125
 30
0.0
 11
72.20015799999998
 21
-1.885394499999999
 31
0.0
  0
LINE
  5
2C96
330
BF7
100
AcDbEntity
  8
1
100
AcDbLine
 10
72.19874100000001
 20
-1.990611499999999
 30
0.0
 11
72.196742
 21
-1.9376125
 31
0.0
  0
LINE
  5
2C97
330
BF7
100
AcDbEntity
  8
1
100
AcDbLine
 10
73.00026600000002
 20
0.0063805000000023
 30
0.0
 11
73.00026600000002
 21
-0.0063785000000003
 31
0.0
  0
LINE
  5
2C98
330
BF7
100
AcDbEntity
  8
1
100
AcDbLine
 10
72.99373800000002
 20
-0.0316715000000016
 30
0.0
 11
72.970787
 21
-0.1122954999999983
 31
0.0
  0
LINE
  5
2C99
330
BF7
100
AcDbEntity
  8
1
100
AcDbLine
 10
72.970787
 20
-0.1122954999999983
 30
0.0
 11
72.92284900000002
 21
-0.3065275000000014
 31
0.0
  0
LINE
  5
2C9A
330
BF7
100
AcDbEntity
  8
1
100
AcDbLine
 10
72.89152800000002
 20
-0.4280015000000006
 30
0.0
 11
72.92284900000002
 21
-0.3065275000000014
 31
0.0
  0
LINE
  5
2C9B
330
BF7
100
AcDbEntity
  8
1
100
AcDbLine
 10
72.36832800000001
 20
-1.717264499999997
 30
0.0
 11
72.19458700000001
 21
-2.149887500000001
 31
0.0
  0
LINE
  5
2C9C
330
BF7
100
AcDbEntity
  8
1
100
AcDbLine
 10
72.56063700000002
 20
-1.243209500000001
 30
0.0
 11
72.36832800000001
 21
-1.717264499999997
 31
0.0
  0
LINE
  5
2C9D
330
BF7
100
AcDbEntity
  8
1
100
AcDbLine
 10
72.89152800000002
 20
-0.4280015000000006
 30
0.0
 11
72.56063700000002
 21
-1.243209500000001
 31
0.0
  0
LINE
  5
2C9E
330
BF7
100
AcDbEntity
  8
1
100
AcDbLine
 10
72.19892200000002
 20
-1.992829499999999
 30
0.0
 11
72.19874100000001
 21
-1.990611499999999
 31
0.0
  0
LINE
  5
2C9F
330
BF7
100
AcDbEntity
  8
1
100
AcDbLine
 10
72.19558000000002
 20
-2.017906500000002
 30
0.0
 11
72.19892200000002
 21
-1.992829499999999
 31
0.0
  0
LINE
  5
2CA0
330
BF7
100
AcDbEntity
  8
1
100
AcDbLine
 10
72.18529700000002
 20
-2.057800500000002
 30
0.0
 11
72.19558000000002
 21
-2.017906500000002
 31
0.0
  0
LINE
  5
2CA1
330
BF7
100
AcDbEntity
  8
1
100
AcDbLine
 10
72.16383499999999
 20
-2.126135500000003
 30
0.0
 11
72.18529700000002
 21
-2.057800500000002
 31
0.0
  0
LINE
  5
2CA2
330
BF7
100
AcDbEntity
  8
1
100
AcDbLine
 10
72.19458700000001
 20
-2.149887500000001
 30
0.0
 11
72.16383499999999
 21
-2.126135500000003
 31
0.0
  0
LINE
  5
2CA3
330
BF7
100
AcDbEntity
  8
1
100
AcDbLine
 10
71.379581
 20
-2.099077499999999
 30
0.0
 11
72.19458700000001
 21
-2.149887500000001
 31
0.0
  0
LINE
  5
2CA4
330
BF7
100
AcDbEntity
  8
1
100
AcDbLine
 10
70.56463500000003
 20
-1.9407265
 30
0.0
 11
71.379581
 21
-2.099077499999999
 31
0.0
  0
LINE
  5
2CA5
330
BF7
100
AcDbEntity
  8
1
100
AcDbLine
 10
69.36366700000002
 20
-1.5278615
 30
0.0
 11
70.56463500000003
 21
-1.9407265
 31
0.0
  0
LINE
  5
2CA6
330
BF7
100
AcDbEntity
  8
1
100
AcDbLine
 10
68.19630799999998
 20
-0.9632305000000016
 30
0.0
 11
69.36366700000002
 21
-1.5278615
 31
0.0
  0
LINE
  5
2CA7
330
BF7
100
AcDbEntity
  8
1
100
AcDbLine
 10
66.99530400000003
 20
-0.2767835000000005
 30
0.0
 11
68.19630799999998
 21
-0.9632305000000016
 31
0.0
  0
LINE
  5
2CA8
330
BF7
100
AcDbEntity
  8
1
100
AcDbLine
 10
65.828115
 20
0.4205264999999976
 30
0.0
 11
66.99530400000003
 21
-0.2767835000000005
 31
0.0
  0
LINE
  5
2CA9
330
BF7
100
AcDbEntity
  8
1
100
AcDbLine
 10
64.627037
 20
1.090952499999995
 30
0.0
 11
65.828115
 21
0.4205264999999976
 31
0.0
  0
LINE
  5
2CAA
330
BF7
100
AcDbEntity
  8
1
100
AcDbLine
 10
63.459982
 20
1.6268245
 30
0.0
 11
64.627037
 21
1.090952499999995
 31
0.0
  0
LINE
  5
2CAB
330
BF7
100
AcDbEntity
  8
1
100
AcDbLine
 10
62.258989
 20
1.998773499999997
 30
0.0
 11
63.459982
 21
1.6268245
 31
0.0
  0
LINE
  5
2CAC
330
BF7
100
AcDbEntity
  8
1
100
AcDbLine
 10
61.09194600000001
 20
2.147162499999999
 30
0.0
 11
62.258989
 21
1.998773499999997
 31
0.0
  0
LINE
  5
2CAD
330
BF7
100
AcDbEntity
  8
1
100
AcDbLine
 10
59.89106200000001
 20
2.063879499999997
 30
0.0
 11
61.09194600000001
 21
2.147162499999999
 31
0.0
  0
LINE
  5
2CAE
330
BF7
100
AcDbEntity
  8
1
100
AcDbLine
 10
58.72399399999999
 20
1.762396499999996
 30
0.0
 11
59.89106200000001
 21
2.063879499999997
 31
0.0
  0
LINE
  5
2CAF
330
BF7
100
AcDbEntity
  8
1
100
AcDbLine
 10
57.65277800000001
 20
1.313317499999999
 30
0.0
 11
58.72399399999999
 21
1.762396499999996
 31
0.0
  0
LINE
  5
2CB0
330
BF7
100
AcDbEntity
  8
1
100
AcDbLine
 10
48.049694
 20
-1.9368595
 30
0.0
 11
49.65868
 21
-2.1241045
 31
0.0
  0
LINE
  5
2CB1
330
BF7
100
AcDbEntity
  8
1
100
AcDbLine
 10
46.88267500000001
 20
-1.535874500000002
 30
0.0
 11
48.049694
 21
-1.9368595
 31
0.0
  0
LINE
  5
2CB2
330
BF7
100
AcDbEntity
  8
1
100
AcDbLine
 10
45.68160999999999
 20
-0.9553035000000027
 30
0.0
 11
46.88267500000001
 21
-1.535874500000002
 31
0.0
  0
LINE
  5
2CB3
330
BF7
100
AcDbEntity
  8
1
100
AcDbLine
 10
44.51452999999999
 20
-0.2882564999999992
 30
0.0
 11
45.68160999999999
 21
-0.9553035000000027
 31
0.0
  0
LINE
  5
2CB4
330
BF7
100
AcDbEntity
  8
1
100
AcDbLine
 10
43.313489
 20
0.429132499999998
 30
0.0
 11
44.51452999999999
 21
-0.2882564999999992
 31
0.0
  0
LINE
  5
2CB5
330
BF7
100
AcDbEntity
  8
1
100
AcDbLine
 10
42.14622700000001
 20
1.081033499999995
 30
0.0
 11
43.313489
 21
0.429132499999998
 31
0.0
  0
LINE
  5
2CB6
330
BF7
100
AcDbEntity
  8
1
100
AcDbLine
 10
40.94518599999999
 20
1.6325985
 30
0.0
 11
42.14622700000001
 21
1.081033499999995
 31
0.0
  0
LINE
  5
2CB7
330
BF7
100
AcDbEntity
  8
1
100
AcDbLine
 10
39.77788799999999
 20
1.994576499999996
 30
0.0
 11
40.94518599999999
 21
1.6325985
 31
0.0
  0
LINE
  5
2CB8
330
BF7
100
AcDbEntity
  8
1
100
AcDbLine
 10
38.57672600000001
 20
2.147613499999998
 30
0.0
 11
39.77788799999999
 21
1.994576499999996
 31
0.0
  0
LINE
  5
2CB9
330
BF7
100
AcDbEntity
  8
1
100
AcDbLine
 10
37.40944000000002
 20
2.066944499999997
 30
0.0
 11
38.57672600000001
 21
2.147613499999998
 31
0.0
  0
LINE
  5
2CBA
330
BF7
100
AcDbEntity
  8
1
100
AcDbLine
 10
36.20832700000003
 20
1.756985499999997
 30
0.0
 11
37.40944000000002
 21
2.066944499999997
 31
0.0
  0
LINE
  5
2CBB
330
BF7
100
AcDbEntity
  8
1
100
AcDbLine
 10
35.13212100000001
 20
1.305856499999999
 30
0.0
 11
36.20832700000003
 21
1.756985499999997
 31
0.0
  0
LINE
  5
2CBC
330
BF7
100
AcDbEntity
  8
1
100
AcDbLine
 10
25.568606
 20
-1.941766500000003
 30
0.0
 11
27.15890300000002
 21
-2.122484500000001
 31
0.0
  0
LINE
  5
2CBD
330
BF7
100
AcDbEntity
  8
1
100
AcDbLine
 10
24.36762500000002
 20
-1.529540499999999
 30
0.0
 11
25.568606
 21
-1.941766500000003
 31
0.0
  0
LINE
  5
2CBE
330
BF7
100
AcDbEntity
  8
1
100
AcDbLine
 10
23.200255
 20
-0.9653014999999987
 30
0.0
 11
24.36762500000002
 21
-1.529540499999999
 31
0.0
  0
LINE
  5
2CBF
330
BF7
100
AcDbEntity
  8
1
100
AcDbLine
 10
21.99911700000001
 20
-0.2791064999999975
 30
0.0
 11
23.200255
 21
-0.9653014999999987
 31
0.0
  0
LINE
  5
2CC0
330
BF7
100
AcDbEntity
  8
1
100
AcDbLine
 10
20.831867
 20
0.4183224999999986
 30
0.0
 11
21.99911700000001
 21
-0.2791064999999975
 31
0.0
  0
LINE
  5
2CC1
330
BF7
100
AcDbEntity
  8
1
100
AcDbLine
 10
19.63076600000001
 20
1.089078499999998
 30
0.0
 11
20.831867
 21
0.4183224999999986
 31
0.0
  0
LINE
  5
2CC2
330
BF7
100
AcDbEntity
  8
1
100
AcDbLine
 10
18.463589
 20
1.625343500000003
 30
0.0
 11
19.63076600000001
 21
1.089078499999998
 31
0.0
  0
LINE
  5
2CC3
330
BF7
100
AcDbEntity
  8
1
100
AcDbLine
 10
17.26256000000001
 20
1.998007499999995
 30
0.0
 11
18.463589
 21
1.625343500000003
 31
0.0
  0
LINE
  5
2CC4
330
BF7
100
AcDbEntity
  8
1
100
AcDbLine
 10
16.095383
 20
2.147059499999996
 30
0.0
 11
17.26256000000001
 21
1.998007499999995
 31
0.0
  0
LINE
  5
2CC5
330
BF7
100
AcDbEntity
  8
1
100
AcDbLine
 10
14.89439100000001
 20
2.064458499999996
 30
0.0
 11
16.095383
 21
2.147059499999996
 31
0.0
  0
LINE
  5
2CC6
330
BF7
100
AcDbEntity
  8
1
100
AcDbLine
 10
13.72729900000001
 20
1.763504499999999
 30
0.0
 11
14.89439100000001
 21
2.064458499999996
 31
0.0
  0
LINE
  5
2CC7
330
BF7
100
AcDbEntity
  8
1
100
AcDbLine
 10
12.630418
 20
1.3043815
 30
0.0
 11
13.72729900000001
 21
1.763504499999999
 31
0.0
  0
LINE
  5
2CC8
330
BF7
100
AcDbEntity
  8
1
100
AcDbLine
 10
8.969583
 20
2.134097499999999
 30
0.0
 11
6.208996000000013
 21
2.134097499999999
 31
0.0
  0
LINE
  5
2CC9
330
BF7
100
AcDbEntity
  8
1
100
AcDbLine
 10
5.902159000000011
 20
2.1259185
 30
0.0
 11
5.899252000000003
 21
2.108895499999999
 31
0.0
  0
LINE
  5
2CCA
330
BF7
100
AcDbEntity
  8
1
100
AcDbLine
 10
5.960113000000005
 20
2.149999499999998
 30
0.0
 11
5.902159000000011
 21
2.1259185
 31
0.0
  0
LINE
  5
2CCB
330
BF7
100
AcDbEntity
  8
1
100
AcDbLine
 10
6.035108000000008
 20
2.144534499999998
 30
0.0
 11
5.960113000000005
 21
2.149999499999998
 31
0.0
  0
LINE
  5
2CCC
330
BF7
100
AcDbEntity
  8
1
100
AcDbLine
 10
6.101685999999999
 20
2.138415499999996
 30
0.0
 11
6.035108000000008
 21
2.144534499999998
 31
0.0
  0
LINE
  5
2CCD
330
BF7
100
AcDbEntity
  8
1
100
AcDbLine
 10
6.152059000000008
 20
2.135344499999995
 30
0.0
 11
6.101685999999999
 21
2.138415499999996
 31
0.0
  0
LINE
  5
2CCE
330
BF7
100
AcDbEntity
  8
1
100
AcDbLine
 10
6.208996000000013
 20
2.134097499999999
 30
0.0
 11
6.152059000000008
 21
2.135344499999995
 31
0.0
  0
LINE
  5
2CCF
330
BF7
100
AcDbEntity
  8
1
100
AcDbLine
 10
60.59615500000001
 20
-2.089469500000003
 30
0.0
 11
62.46175100000002
 21
-2.0426125
 31
0.0
  0
LINE
  5
2CD0
330
BF7
100
AcDbEntity
  8
1
100
AcDbLine
 10
59.48552700000002
 20
-1.835178500000001
 30
0.0
 11
60.59615500000001
 21
-2.089469500000003
 31
0.0
  0
LINE
  5
2CD1
330
BF7
100
AcDbEntity
  8
1
100
AcDbLine
 10
58.37491199999998
 20
-1.4057785
 30
0.0
 11
59.48552700000002
 21
-1.835178500000001
 31
0.0
  0
LINE
  5
2CD2
330
BF7
100
AcDbEntity
  8
1
100
AcDbLine
 10
57.26428399999999
 20
-0.842235500000001
 30
0.0
 11
58.37491199999998
 21
-1.4057785
 31
0.0
  0
LINE
  5
2CD3
330
BF7
100
AcDbEntity
  8
1
100
AcDbLine
 10
56.15366900000001
 20
-0.1983215000000022
 30
0.0
 11
57.26428399999999
 21
-0.842235500000001
 31
0.0
  0
LINE
  5
2CD4
330
BF7
100
AcDbEntity
  8
1
100
AcDbLine
 10
55.04305400000001
 20
0.4645164999999986
 30
0.0
 11
56.15366900000001
 21
-0.1983215000000022
 31
0.0
  0
LINE
  5
2CD5
330
BF7
100
AcDbEntity
  8
1
100
AcDbLine
 10
53.93242600000002
 20
1.083022499999998
 30
0.0
 11
55.04305400000001
 21
0.4645164999999986
 31
0.0
  0
LINE
  5
2CD6
330
BF7
100
AcDbEntity
  8
1
100
AcDbLine
 10
52.82181099999998
 20
1.598186499999999
 30
0.0
 11
53.93242600000002
 21
1.083022499999998
 31
0.0
  0
LINE
  5
2CD7
330
BF7
100
AcDbEntity
  8
1
100
AcDbLine
 10
51.711196
 20
1.960858499999995
 30
0.0
 11
52.82181099999998
 21
1.598186499999999
 31
0.0
  0
LINE
  5
2CD8
330
BF7
100
AcDbEntity
  8
1
100
AcDbLine
 10
50.60058000000001
 20
2.136419499999995
 30
0.0
 11
51.711196
 21
1.960858499999995
 31
0.0
  0
LINE
  5
2CD9
330
BF7
100
AcDbEntity
  8
1
100
AcDbLine
 10
50.197468
 20
2.126152499999999
 30
0.0
 11
50.60058000000001
 21
2.136419499999995
 31
0.0
  0
LINE
  5
2CDA
330
BF7
100
AcDbEntity
  8
1
100
AcDbLine
 10
38.38376300000002
 20
-2.123376499999999
 30
0.0
 11
40.00913600000001
 21
-2.031786499999999
 31
0.0
  0
LINE
  5
2CDB
330
BF7
100
AcDbEntity
  8
1
100
AcDbLine
 10
37.27314800000002
 20
-1.919130500000001
 30
0.0
 11
38.38376300000002
 21
-2.123376499999999
 31
0.0
  0
LINE
  5
2CDC
330
BF7
100
AcDbEntity
  8
1
100
AcDbLine
 10
36.16252
 20
-1.531758499999997
 30
0.0
 11
37.27314800000002
 21
-1.919130500000001
 31
0.0
  0
LINE
  5
2CDD
330
BF7
100
AcDbEntity
  8
1
100
AcDbLine
 10
35.05190500000001
 20
-0.998227500000002
 30
0.0
 11
36.16252
 21
-1.531758499999997
 31
0.0
  0
LINE
  5
2CDE
330
BF7
100
AcDbEntity
  8
1
100
AcDbLine
 10
33.94127800000001
 20
-0.3694475000000033
 30
0.0
 11
35.05190500000001
 21
-0.998227500000002
 31
0.0
  0
LINE
  5
2CDF
330
BF7
100
AcDbEntity
  8
1
100
AcDbLine
 10
32.83066199999999
 20
0.2945925000000002
 30
0.0
 11
33.94127800000001
 21
-0.3694475000000033
 31
0.0
  0
LINE
  5
2CE0
330
BF7
100
AcDbEntity
  8
1
100
AcDbLine
 10
31.72004700000002
 20
0.9305214999999975
 30
0.0
 11
32.83066199999999
 21
0.2945925000000002
 31
0.0
  0
LINE
  5
2CE1
330
BF7
100
AcDbEntity
  8
1
100
AcDbLine
 10
30.609432
 20
1.477654499999999
 30
0.0
 11
31.72004700000002
 21
0.9305214999999975
 31
0.0
  0
LINE
  5
2CE2
330
BF7
100
AcDbEntity
  8
1
100
AcDbLine
 10
29.49880400000002
 20
1.8837915
 30
0.0
 11
30.609432
 21
1.477654499999999
 31
0.0
  0
LINE
  5
2CE3
330
BF7
100
AcDbEntity
  8
1
100
AcDbLine
 10
28.38818900000001
 20
2.110176499999996
 30
0.0
 11
29.49880400000002
 21
1.8837915
 31
0.0
  0
LINE
  5
2CE4
330
BF7
100
AcDbEntity
  8
1
100
AcDbLine
 10
27.69824800000001
 20
2.125725499999996
 30
0.0
 11
28.38818900000001
 21
2.110176499999996
 31
0.0
  0
LINE
  5
2CE5
330
BF7
100
AcDbEntity
  8
1
100
AcDbLine
 10
16.17137200000002
 20
-2.1435925
 30
0.0
 11
17.70044500000001
 21
-1.997266500000002
 31
0.0
  0
LINE
  5
2CE6
330
BF7
100
AcDbEntity
  8
1
100
AcDbLine
 10
15.060756
 20
-1.990705499999999
 30
0.0
 11
16.17137200000002
 21
-2.1435925
 31
0.0
  0
LINE
  5
2CE7
330
BF7
100
AcDbEntity
  8
1
100
AcDbLine
 10
13.95012900000002
 20
-1.6478655
 30
0.0
 11
15.060756
 21
-1.990705499999999
 31
0.0
  0
LINE
  5
2CE8
330
BF7
100
AcDbEntity
  8
1
100
AcDbLine
 10
12.83951400000001
 20
-1.147782499999998
 30
0.0
 11
13.95012900000002
 21
-1.6478655
 31
0.0
  0
LINE
  5
2CE9
330
BF7
100
AcDbEntity
  8
1
100
AcDbLine
 10
11.72889800000001
 20
-0.538180500000003
 30
0.0
 11
12.83951400000001
 21
-1.147782499999998
 31
0.0
  0
LINE
  5
2CEA
330
BF7
100
AcDbEntity
  8
1
100
AcDbLine
 10
10.61827100000001
 20
0.122773500000001
 30
0.0
 11
11.72889800000001
 21
-0.538180500000003
 31
0.0
  0
LINE
  5
2CEB
330
BF7
100
AcDbEntity
  8
1
100
AcDbLine
 10
9.507655999999997
 20
0.7720164999999996
 30
0.0
 11
10.61827100000001
 21
0.122773500000001
 31
0.0
  0
LINE
  5
2CEC
330
BF7
100
AcDbEntity
  8
1
100
AcDbLine
 10
8.397040000000004
 20
1.347593500000002
 30
0.0
 11
9.507655999999997
 21
0.7720164999999996
 31
0.0
  0
LINE
  5
2CED
330
BF7
100
AcDbEntity
  8
1
100
AcDbLine
 10
7.286425000000008
 20
1.794580500000002
 30
0.0
 11
8.397040000000004
 21
1.347593500000002
 31
0.0
  0
LINE
  5
2CEE
330
BF7
100
AcDbEntity
  8
1
100
AcDbLine
 10
6.175797000000017
 20
2.070329499999999
 30
0.0
 11
7.286425000000008
 21
1.794580500000002
 31
0.0
  0
LINE
  5
2CEF
330
BF7
100
AcDbEntity
  8
1
100
AcDbLine
 10
5.899252000000003
 20
2.108895499999999
 30
0.0
 11
6.175797000000017
 21
2.070329499999999
 31
0.0
  0
LINE
  5
2CF0
330
BF7
100
AcDbEntity
  8
1
100
AcDbLine
 10
71.379581
 20
2.099079499999997
 30
0.0
 11
72.19458700000001
 21
2.149890499999996
 31
0.0
  0
LINE
  5
2CF1
330
BF7
100
AcDbEntity
  8
1
100
AcDbLine
 10
70.56463500000003
 20
1.940728499999997
 30
0.0
 11
71.379581
 21
2.099079499999997
 31
0.0
  0
LINE
  5
2CF2
330
BF7
100
AcDbEntity
  8
1
100
AcDbLine
 10
69.36366700000002
 20
1.527863499999995
 30
0.0
 11
70.56463500000003
 21
1.940728499999997
 31
0.0
  0
LINE
  5
2CF3
330
BF7
100
AcDbEntity
  8
1
100
AcDbLine
 10
68.90699700000002
 20
1.306976499999997
 30
0.0
 11
69.36366700000002
 21
1.527863499999995
 31
0.0
  0
LINE
  5
2CF4
330
BF7
100
AcDbEntity
  8
1
100
AcDbLine
 10
58.72399399999999
 20
-1.7623965
 30
0.0
 11
60.91092500000002
 21
-2.134608499999997
 31
0.0
  0
LINE
  5
2CF5
330
BF7
100
AcDbEntity
  8
1
100
AcDbLine
 10
57.52298999999999
 20
-1.258906500000001
 30
0.0
 11
58.72399399999999
 21
-1.7623965
 31
0.0
  0
LINE
  5
2CF6
330
BF7
100
AcDbEntity
  8
1
100
AcDbLine
 10
56.355873
 20
-0.6345475000000036
 30
0.0
 11
57.52298999999999
 21
-1.258906500000001
 31
0.0
  0
LINE
  5
2CF7
330
BF7
100
AcDbEntity
  8
1
100
AcDbLine
 10
55.15479599999999
 20
0.0769704999999981
 30
0.0
 11
56.355873
 21
-0.6345475000000036
 31
0.0
  0
LINE
  5
2CF8
330
BF7
100
AcDbEntity
  8
1
100
AcDbLine
 10
53.98752200000001
 20
0.7608435
 30
0.0
 11
55.15479599999999
 21
0.0769704999999981
 31
0.0
  0
LINE
  5
2CF9
330
BF7
100
AcDbEntity
  8
1
100
AcDbLine
 10
52.78646900000001
 20
1.380479499999999
 30
0.0
 11
53.98752200000001
 21
0.7608435
 31
0.0
  0
LINE
  5
2CFA
330
BF7
100
AcDbEntity
  8
1
100
AcDbLine
 10
51.61909900000001
 20
1.835514499999997
 30
0.0
 11
52.78646900000001
 21
1.380479499999999
 31
0.0
  0
LINE
  5
2CFB
330
BF7
100
AcDbEntity
  8
1
100
AcDbLine
 10
50.418058
 20
2.1017595
 30
0.0
 11
51.61909900000001
 21
1.835514499999997
 31
0.0
  0
LINE
  5
2CFC
330
BF7
100
AcDbEntity
  8
1
100
AcDbLine
 10
49.250832
 20
2.1361105
 30
0.0
 11
50.418058
 21
2.1017595
 31
0.0
  0
LINE
  5
2CFD
330
BF7
100
AcDbEntity
  8
1
100
AcDbLine
 10
48.049694
 20
1.936861499999999
 30
0.0
 11
49.250832
 21
2.1361105
 31
0.0
  0
LINE
  5
2CFE
330
BF7
100
AcDbEntity
  8
1
100
AcDbLine
 10
46.88267500000001
 20
1.535877499999998
 30
0.0
 11
48.049694
 21
1.936861499999999
 31
0.0
  0
LINE
  5
2CFF
330
BF7
100
AcDbEntity
  8
1
100
AcDbLine
 10
46.40341700000002
 20
1.304218500000001
 30
0.0
 11
46.88267500000001
 21
1.535877499999998
 31
0.0
  0
LINE
  5
2D00
330
BF7
100
AcDbEntity
  8
1
100
AcDbLine
 10
36.20832700000003
 20
-1.756982499999999
 30
0.0
 11
38.410167
 21
-2.136101499999997
 31
0.0
  0
LINE
  5
2D01
330
BF7
100
AcDbEntity
  8
1
100
AcDbLine
 10
35.04107700000004
 20
-1.2676905
 30
0.0
 11
36.20832700000003
 21
-1.756982499999999
 31
0.0
  0
LINE
  5
2D02
330
BF7
100
AcDbEntity
  8
1
100
AcDbLine
 10
33.84010900000002
 20
-0.6255084999999987
 30
0.0
 11
35.04107700000004
 21
-1.2676905
 31
0.0
  0
LINE
  5
2D03
330
BF7
100
AcDbEntity
  8
1
100
AcDbLine
 10
32.67299300000002
 20
0.0660704999999986
 30
0.0
 11
33.84010900000002
 21
-0.6255084999999987
 31
0.0
  0
LINE
  5
2D04
330
BF7
100
AcDbEntity
  8
1
100
AcDbLine
 10
31.47201200000001
 20
0.7695305000000019
 30
0.0
 11
32.67299300000002
 21
0.0660704999999986
 31
0.0
  0
LINE
  5
2D05
330
BF7
100
AcDbEntity
  8
1
100
AcDbLine
 10
30.30505300000001
 20
1.371925499999995
 30
0.0
 11
31.47201200000001
 21
0.7695305000000019
 31
0.0
  0
LINE
  5
2D06
330
BF7
100
AcDbEntity
  8
1
100
AcDbLine
 10
29.103988
 20
1.840219499999995
 30
0.0
 11
30.30505300000001
 21
1.371925499999995
 31
0.0
  0
LINE
  5
2D07
330
BF7
100
AcDbEntity
  8
1
100
AcDbLine
 10
27.93692000000002
 20
2.099336499999999
 30
0.0
 11
29.103988
 21
1.840219499999995
 31
0.0
  0
LINE
  5
2D08
330
BF7
100
AcDbEntity
  8
1
100
AcDbLine
 10
26.73592800000001
 20
2.135072499999999
 30
0.0
 11
27.93692000000002
 21
2.099336499999999
 31
0.0
  0
LINE
  5
2D09
330
BF7
100
AcDbEntity
  8
1
100
AcDbLine
 10
25.568606
 20
1.941767499999999
 30
0.0
 11
26.73592800000001
 21
2.135072499999999
 31
0.0
  0
LINE
  5
2D0A
330
BF7
100
AcDbEntity
  8
1
100
AcDbLine
 10
24.36762500000002
 20
1.529543500000002
 30
0.0
 11
25.568606
 21
1.941767499999999
 31
0.0
  0
LINE
  5
2D0B
330
BF7
100
AcDbEntity
  8
1
100
AcDbLine
 10
23.89223
 20
1.299767500000001
 30
0.0
 11
24.36762500000002
 21
1.529543500000002
 31
0.0
  0
LINE
  5
2D0C
330
BF7
100
AcDbEntity
  8
1
100
AcDbLine
 10
13.72729900000001
 20
-1.763501499999999
 30
0.0
 11
15.909481
 21
-2.1342715
 31
0.0
  0
LINE
  5
2D0D
330
BF7
100
AcDbEntity
  8
1
100
AcDbLine
 10
12.530545
 20
-1.262576499999997
 30
0.0
 11
13.72729900000001
 21
-1.763501499999999
 31
0.0
  0
LINE
  5
2D0E
330
BF7
100
AcDbEntity
  8
1
100
AcDbLine
 10
11.36735300000002
 20
-0.6411295000000017
 30
0.0
 11
12.530545
 21
-1.262576499999997
 31
0.0
  0
LINE
  5
2D0F
330
BF7
100
AcDbEntity
  8
1
100
AcDbLine
 10
11.28253499999999
 20
-0.592114500000001
 30
0.0
 11
11.36737700000002
 21
-0.6411395000000013
 31
0.0
  0
LINE
  5
2D10
330
BF7
100
AcDbEntity
  8
1
100
AcDbLine
 10
10.14660599999999
 20
0.0218984999999989
 30
0.0
 11
11.28253499999999
 21
-0.592114500000001
 31
0.0
  0
LINE
  5
2D11
330
BF7
100
AcDbEntity
  8
1
100
AcDbLine
 10
9.148763000000002
 20
0.4361024999999971
 30
0.0
 11
10.14660599999999
 21
0.0218984999999989
 31
0.0
  0
LINE
  5
2D12
330
BF7
100
AcDbEntity
  8
1
100
AcDbLine
 10
8.125763000000006
 20
0.7037065000000027
 30
0.0
 11
9.148763000000002
 21
0.4361024999999971
 31
0.0
  0
LINE
  5
2D13
330
BF7
100
AcDbEntity
  8
1
100
AcDbLine
 10
7.098706000000007
 20
0.8168724999999986
 30
0.0
 11
8.125763000000006
 21
0.7037065000000027
 31
0.0
  0
LINE
  5
2D14
330
BF7
100
AcDbEntity
  8
1
100
AcDbLine
 10
6.885892000000013
 20
0.8215254999999961
 30
0.0
 11
7.098706000000007
 21
0.8168724999999986
 31
0.0
  0
LINE
  5
2D15
330
BF7
100
AcDbEntity
  8
1
100
AcDbLine
 10
6.349697000000006
 20
0.3773185000000012
 30
0.0
 11
6.885892000000013
 21
0.8215254999999961
 31
0.0
  0
LINE
  5
2D16
330
BF7
100
AcDbEntity
  8
1
100
AcDbLine
 10
6.094601000000011
 20
0.0084304999999993
 30
0.0
 11
6.349697000000006
 21
0.3773185000000012
 31
0.0
  0
LINE
  5
2D17
330
BF7
100
AcDbEntity
  8
1
100
AcDbLine
 10
6.002600999999997
 20
-0.2715515000000011
 30
0.0
 11
6.094601000000011
 21
0.0084304999999993
 31
0.0
  0
LINE
  5
2D18
330
BF7
100
AcDbEntity
  8
1
100
AcDbLine
 10
6.001971000000011
 20
-0.591402500000001
 30
0.0
 11
6.002600999999997
 21
-0.2715515000000011
 31
0.0
  0
LINE
  5
2D19
330
BF7
100
AcDbEntity
  8
1
100
AcDbLine
 10
6.102316
 20
-0.8812014999999995
 30
0.0
 11
6.001971000000011
 21
-0.591402500000001
 31
0.0
  0
LINE
  5
2D1A
330
BF7
100
AcDbEntity
  8
1
100
AcDbLine
 10
6.464939000000001
 20
-1.314686499999999
 30
0.0
 11
6.102316
 21
-0.8812014999999995
 31
0.0
  0
LINE
  5
2D1B
330
BF7
100
AcDbEntity
  8
1
100
AcDbLine
 10
6.924273999999996
 20
-1.6144585
 30
0.0
 11
6.464939000000001
 21
-1.314686499999999
 31
0.0
  0
LINE
  5
2D1C
330
BF7
100
AcDbEntity
  8
1
100
AcDbLine
 10
7.819131999999996
 20
-1.9424905
 30
0.0
 11
6.924273999999996
 21
-1.6144585
 31
0.0
  0
LINE
  5
2D1D
330
BF7
100
AcDbEntity
  8
1
100
AcDbLine
 10
8.969583
 20
-2.1340955
 30
0.0
 11
7.819107999999999
 21
-1.942488500000003
 31
0.0
  0
LINE
  5
2D1E
330
BF7
100
AcDbEntity
  8
1
100
AcDbLine
 10
8.969583
 20
-2.1340955
 30
0.0
 11
6.208996000000013
 21
-2.1340955
 31
0.0
  0
LINE
  5
2D1F
330
BF7
100
AcDbEntity
  8
1
100
AcDbLine
 10
6.035108000000008
 20
-2.144531500000002
 30
0.0
 11
5.960065
 21
-2.149978500000003
 31
0.0
  0
LINE
  5
2D20
330
BF7
100
AcDbEntity
  8
1
100
AcDbLine
 10
6.101685999999999
 20
-2.1384115
 30
0.0
 11
6.035108000000008
 21
-2.144531500000002
 31
0.0
  0
LINE
  5
2D21
330
BF7
100
AcDbEntity
  8
1
100
AcDbLine
 10
6.152059000000008
 20
-2.1353425
 30
0.0
 11
6.101685999999999
 21
-2.1384115
 31
0.0
  0
LINE
  5
2D22
330
BF7
100
AcDbEntity
  8
1
100
AcDbLine
 10
6.208996000000013
 20
-2.1340955
 30
0.0
 11
6.152059000000008
 21
-2.1353425
 31
0.0
  0
LINE
  5
2D23
330
BF7
100
AcDbEntity
  8
1
100
AcDbLine
 10
71.59749400000002
 20
-2.049288500000002
 30
0.0
 11
72.16383499999999
 21
-2.126135500000003
 31
0.0
  0
LINE
  5
2D24
330
BF7
100
AcDbEntity
  8
1
100
AcDbLine
 10
70.59171700000002
 20
-1.788731499999999
 30
0.0
 11
71.59749400000002
 21
-2.049288500000002
 31
0.0
  0
LINE
  5
2D25
330
BF7
100
AcDbEntity
  8
1
100
AcDbLine
 10
69.48110200000002
 20
-1.339328499999999
 30
0.0
 11
70.59171700000002
 21
-1.788731499999999
 31
0.0
  0
LINE
  5
2D26
330
BF7
100
AcDbEntity
  8
1
100
AcDbLine
 10
68.370486
 20
-0.7621315000000024
 30
0.0
 11
69.48110200000002
 21
-1.339328499999999
 31
0.0
  0
LINE
  5
2D27
330
BF7
100
AcDbEntity
  8
1
100
AcDbLine
 10
67.25985900000001
 20
-0.1122134999999993
 30
0.0
 11
68.370486
 21
-0.7621315000000024
 31
0.0
  0
LINE
  5
2D28
330
BF7
100
AcDbEntity
  8
1
100
AcDbLine
 10
66.14924300000001
 20
0.5484174999999995
 30
0.0
 11
67.25985900000001
 21
-0.1122134999999993
 31
0.0
  0
LINE
  5
2D29
330
BF7
100
AcDbEntity
  8
1
100
AcDbLine
 10
65.03862800000002
 20
1.1567225
 30
0.0
 11
66.14924300000001
 21
0.5484174999999995
 31
0.0
  0
LINE
  5
2D2A
330
BF7
100
AcDbEntity
  8
1
100
AcDbLine
 10
63.92801299999999
 20
1.6546415
 30
0.0
 11
65.03862800000002
 21
1.1567225
 31
0.0
  0
LINE
  5
2D2B
330
BF7
100
AcDbEntity
  8
1
100
AcDbLine
 10
62.81738499999999
 20
1.994676499999996
 30
0.0
 11
63.92801299999999
 21
1.6546415
 31
0.0
  0
LINE
  5
2D2C
330
BF7
100
AcDbEntity
  8
1
100
AcDbLine
 10
61.70677000000001
 20
2.144386499999999
 30
0.0
 11
62.81738499999999
 21
1.994676499999996
 31
0.0
  0
LINE
  5
2D2D
330
BF7
100
AcDbEntity
  8
1
100
AcDbLine
 10
61.448101
 20
2.131596499999996
 30
0.0
 11
61.70677000000001
 21
2.144386499999999
 31
0.0
  0
LINE
  5
2D2E
330
BF7
100
AcDbEntity
  8
1
100
AcDbLine
 10
49.489953
 20
-2.1081235
 30
0.0
 11
51.19454800000003
 21
-2.042526500000001
 31
0.0
  0
LINE
  5
2D2F
330
BF7
100
AcDbEntity
  8
1
100
AcDbLine
 10
48.37933799999999
 20
-1.878671499999999
 30
0.0
 11
49.489953
 21
-2.1081235
 31
0.0
  0
LINE
  5
2D30
330
BF7
100
AcDbEntity
  8
1
100
AcDbLine
 10
47.26872200000001
 20
-1.469950500000003
 30
0.0
 11
48.37933799999999
 21
-1.878671499999999
 31
0.0
  0
LINE
  5
2D31
330
BF7
100
AcDbEntity
  8
1
100
AcDbLine
 10
46.158095
 20
-0.9209665000000022
 30
0.0
 11
47.26872200000001
 21
-1.469950500000003
 31
0.0
  0
LINE
  5
2D32
330
BF7
100
AcDbEntity
  8
1
100
AcDbLine
 10
45.04747899999999
 20
-0.2841115000000016
 30
0.0
 11
46.158095
 21
-0.9209665000000022
 31
0.0
  0
LINE
  5
2D33
330
BF7
100
AcDbEntity
  8
1
100
AcDbLine
 10
43.936864
 20
0.3798594999999985
 30
0.0
 11
45.04747899999999
 21
-0.2841115000000016
 31
0.0
  0
LINE
  5
2D34
330
BF7
100
AcDbEntity
  8
1
100
AcDbLine
 10
42.82623699999999
 20
1.007582499999997
 30
0.0
 11
43.936864
 21
0.3798594999999985
 31
0.0
  0
LINE
  5
2D35
330
BF7
100
AcDbEntity
  8
1
100
AcDbLine
 10
41.715621
 20
1.539163499999996
 30
0.0
 11
42.82623699999999
 21
1.007582499999997
 31
0.0
  0
LINE
  5
2D36
330
BF7
100
AcDbEntity
  8
1
100
AcDbLine
 10
40.605006
 20
1.923875499999996
 30
0.0
 11
41.715621
 21
1.539163499999996
 31
0.0
  0
LINE
  5
2D37
330
BF7
100
AcDbEntity
  8
1
100
AcDbLine
 10
39.49437900000001
 20
2.125013499999996
 30
0.0
 11
40.605006
 21
1.923875499999996
 31
0.0
  0
LINE
  5
2D38
330
BF7
100
AcDbEntity
  8
1
100
AcDbLine
 10
38.948893
 20
2.1242115
 30
0.0
 11
39.49437900000001
 21
2.125013499999996
 31
0.0
  0
LINE
  5
2D39
330
BF7
100
AcDbEntity
  8
1
100
AcDbLine
 10
27.27757400000001
 20
-2.135206500000002
 30
0.0
 11
28.72122300000001
 21
-2.042288500000001
 31
0.0
  0
LINE
  5
2D3A
330
BF7
100
AcDbEntity
  8
1
100
AcDbLine
 10
26.16694600000001
 20
-1.9564945
 30
0.0
 11
27.27757400000001
 21
-2.135206500000002
 31
0.0
  0
LINE
  5
2D3B
330
BF7
100
AcDbEntity
  8
1
100
AcDbLine
 10
25.056331
 20
-1.5910945
 30
0.0
 11
26.16694600000001
 21
-1.9564945
 31
0.0
  0
LINE
  5
2D3C
330
BF7
100
AcDbEntity
  8
1
100
AcDbLine
 10
23.94570300000002
 20
-1.073873500000001
 30
0.0
 11
25.056331
 21
-1.5910945
 31
0.0
  0
LINE
  5
2D3D
330
BF7
100
AcDbEntity
  8
1
100
AcDbLine
 10
22.835088
 20
-0.4541745000000043
 30
0.0
 11
23.94570300000002
 21
-1.073873500000001
 31
0.0
  0
LINE
  5
2D3E
330
BF7
100
AcDbEntity
  8
1
100
AcDbLine
 10
21.72447300000002
 20
0.208857499999997
 30
0.0
 11
22.835088
 21
-0.4541745000000043
 31
0.0
  0
LINE
  5
2D3F
330
BF7
100
AcDbEntity
  8
1
100
AcDbLine
 10
20.613857
 20
0.8519565000000033
 30
0.0
 11
21.72447300000002
 21
0.208857499999997
 31
0.0
  0
LINE
  5
2D40
330
BF7
100
AcDbEntity
  8
1
100
AcDbLine
 10
19.50323
 20
1.413762499999999
 30
0.0
 11
20.613857
 21
0.8519565000000033
 31
0.0
  0
LINE
  5
2D41
330
BF7
100
AcDbEntity
  8
1
100
AcDbLine
 10
18.392615
 20
1.840671499999999
 30
0.0
 11
19.50323
 21
1.413762499999999
 31
0.0
  0
LINE
  5
2D42
330
BF7
100
AcDbEntity
  8
1
100
AcDbLine
 10
17.28199900000001
 20
2.091939499999997
 30
0.0
 11
18.392615
 21
1.840671499999999
 31
0.0
  0
LINE
  5
2D43
330
BF7
100
AcDbEntity
  8
1
100
AcDbLine
 10
16.447615
 20
2.130748499999999
 30
0.0
 11
17.28199900000001
 21
2.091939499999997
 31
0.0
  0
LINE
  5
2D44
330
BF7
100
AcDbEntity
  8
1
100
AcDbLine
 10
0.4999990000000027
 20
0.7002305
 30
0.0
 11
0.4999990000000027
 21
0.0472094999999975
 31
0.0
  0
LINE
  5
2D45
330
BF7
100
AcDbEntity
  8
1
100
AcDbLine
 10
0.4999990000000027
 20
1.286592500000001
 30
0.0
 11
0.4999990000000027
 21
0.7002305
 31
0.0
  0
LINE
  5
2D46
330
BF7
100
AcDbEntity
  8
1
100
AcDbLine
 10
0.4999990000000027
 20
1.750469499999996
 30
0.0
 11
0.4999990000000027
 21
1.286592500000001
 31
0.0
  0
LINE
  5
2D47
330
BF7
100
AcDbEntity
  8
1
100
AcDbLine
 10
0.4999990000000027
 20
2.047704499999997
 30
0.0
 11
0.4999990000000027
 21
1.750469499999996
 31
0.0
  0
LINE
  5
2D48
330
BF7
100
AcDbEntity
  8
1
100
AcDbLine
 10
0.4999990000000027
 20
2.149999499999998
 30
0.0
 11
0.4999990000000027
 21
2.047704499999997
 31
0.0
  0
LINE
  5
2D49
330
BF7
100
AcDbEntity
  8
1
100
AcDbLine
 10
0.4999990000000027
 20
-2.0418495
 30
0.0
 11
0.4999990000000027
 21
-2.149999499999998
 31
0.0
  0
LINE
  5
2D4A
330
BF7
100
AcDbEntity
  8
1
100
AcDbLine
 10
0.4999990000000027
 20
-1.728242499999999
 30
0.0
 11
0.4999990000000027
 21
-2.0418495
 31
0.0
  0
LINE
  5
2D4B
330
BF7
100
AcDbEntity
  8
1
100
AcDbLine
 10
0.4999990000000027
 20
-1.240733500000001
 30
0.0
 11
0.4999990000000027
 21
-1.728242499999999
 31
0.0
  0
LINE
  5
2D4C
330
BF7
100
AcDbEntity
  8
1
100
AcDbLine
 10
0.4999990000000027
 20
-0.6283764999999982
 30
0.0
 11
0.4999990000000027
 21
-1.240733500000001
 31
0.0
  0
LINE
  5
2D4D
330
BF7
100
AcDbEntity
  8
1
100
AcDbLine
 10
0.4999990000000027
 20
0.0472094999999975
 30
0.0
 11
0.4999990000000027
 21
-0.6283764999999982
 31
0.0
  0
LINE
  5
2D4E
330
BF7
100
AcDbEntity
  8
1
100
AcDbLine
 10
72.99373800000002
 20
-0.0316715000000016
 30
0.0
 11
73.00026600000002
 21
-0.0063785000000003
 31
0.0
  0
LINE
  5
2D4F
330
BF7
100
AcDbEntity
  8
1
100
AcDbLine
 10
71.38319000000001
 20
-1.074891500000002
 30
0.0
 11
72.01638800000002
 21
-1.5519375
 31
0.0
  0
LINE
  5
2D50
330
BF7
100
AcDbEntity
  8
1
100
AcDbLine
 10
70.89168599999998
 20
-0.4750035000000034
 30
0.0
 11
71.38319000000001
 21
-1.074891500000002
 31
0.0
  0
LINE
  5
2D51
330
BF7
100
AcDbEntity
  8
1
100
AcDbLine
 10
70.66729399999998
 20
-0.0043384999999994
 30
0.0
 11
70.89168599999998
 21
-0.4750035000000034
 31
0.0
  0
LINE
  5
2D52
330
BF7
100
AcDbEntity
  8
1
100
AcDbLine
 10
70.56920100000002
 20
0.4717714999999992
 30
0.0
 11
70.66729399999998
 21
-0.0043384999999994
 31
0.0
  0
LINE
  5
2D53
330
BF7
100
AcDbEntity
  8
1
100
AcDbLine
 10
70.85627200000002
 20
0.3944414999999992
 30
0.0
 11
70.56920100000002
 21
0.4717714999999992
 31
0.0
  0
LINE
  5
2D54
330
BF7
100
AcDbEntity
  8
1
100
AcDbLine
 10
71.27882400000001
 20
0.227627499999997
 30
0.0
 11
70.85627200000002
 21
0.3944414999999992
 31
0.0
  0
LINE
  5
2D55
330
BF7
100
AcDbEntity
  8
1
100
AcDbLine
 10
71.33033499999998
 20
0.1992375000000024
 30
0.0
 11
71.27882400000001
 21
0.227627499999997
 31
0.0
  0
LINE
  5
2D56
330
BF7
100
AcDbEntity
  8
1
100
AcDbLine
 10
71.34788399999997
 20
0.1885464999999975
 30
0.0
 11
71.33033499999998
 21
0.1992375000000024
 31
0.0
  0
LINE
  5
2D57
330
BF7
100
AcDbEntity
  8
1
100
AcDbLine
 10
71.44669100000001
 20
0.1318365000000021
 30
0.0
 11
71.34788399999997
 21
0.1885464999999975
 31
0.0
  0
LINE
  5
2D58
330
BF7
100
AcDbEntity
  8
1
100
AcDbLine
 10
71.85642900000002
 20
-0.0073325000000004
 30
0.0
 11
71.44669100000001
 21
0.1318365000000021
 31
0.0
  0
LINE
  5
2D59
330
BF7
100
AcDbEntity
  8
1
100
AcDbLine
 10
72.11274800000002
 20
0.0079914999999993
 30
0.0
 11
71.85642900000002
 21
-0.0073325000000004
 31
0.0
  0
LINE
  5
2D5A
330
BF7
100
AcDbEntity
  8
1
100
AcDbLine
 10
72.26448300000001
 20
0.0898184999999998
 30
0.0
 11
72.11274800000002
 21
0.0079914999999993
 31
0.0
  0
LINE
  5
2D5B
330
BF7
100
AcDbEntity
  8
1
100
AcDbLine
 10
72.35378199999998
 20
0.2069495000000003
 30
0.0
 11
72.26448300000001
 21
0.0898184999999998
 31
0.0
  0
LINE
  5
2D5C
330
BF7
100
AcDbEntity
  8
1
100
AcDbLine
 10
72.39960100000002
 20
0.3641745000000007
 30
0.0
 11
72.35378199999998
 21
0.2069495000000003
 31
0.0
  0
LINE
  5
2D5D
330
BF7
100
AcDbEntity
  8
1
100
AcDbLine
 10
72.39968499999999
 20
0.3650074999999973
 30
0.0
 11
72.39960100000002
 21
0.3641745000000007
 31
0.0
  0
LINE
  5
2D5E
330
BF7
100
AcDbEntity
  8
1
100
AcDbLine
 10
72.97598299999998
 20
-0.0396795000000019
 30
0.0
 11
72.39968499999999
 21
0.3650074999999973
 31
0.0
  0
LINE
  5
2D5F
330
BF7
100
AcDbEntity
  8
1
100
AcDbLine
 10
72.368898
 20
-0.541211500000003
 30
0.0
 11
72.60470000000002
 21
-0.6248004999999992
 31
0.0
  0
LINE
  5
2D60
330
BF7
100
AcDbEntity
  8
1
100
AcDbLine
 10
72.17796900000002
 20
-0.5266024999999992
 30
0.0
 11
72.368898
 21
-0.541211500000003
 31
0.0
  0
LINE
  5
2D61
330
BF7
100
AcDbEntity
  8
1
100
AcDbLine
 10
72.10011600000001
 20
-0.5507135000000006
 30
0.0
 11
72.17796900000002
 21
-0.5266024999999992
 31
0.0
  0
LINE
  5
2D62
330
BF7
100
AcDbEntity
  8
1
100
AcDbLine
 10
72.065379
 20
-0.5803775000000009
 30
0.0
 11
72.10011600000001
 21
-0.5507135000000006
 31
0.0
  0
LINE
  5
2D63
330
BF7
100
AcDbEntity
  8
1
100
AcDbLine
 10
72.05092999999997
 20
-0.6066175000000023
 30
0.0
 11
72.065379
 21
-0.5803775000000009
 31
0.0
  0
LINE
  5
2D64
330
BF7
100
AcDbEntity
  8
1
100
AcDbLine
 10
72.044475
 20
-0.6412025000000022
 30
0.0
 11
72.05092999999997
 21
-0.6066175000000023
 31
0.0
  0
LINE
  5
2D65
330
BF7
100
AcDbEntity
  8
1
100
AcDbLine
 10
72.04825300000002
 20
-0.6786215000000021
 30
0.0
 11
72.044475
 21
-0.6412025000000022
 31
0.0
  0
LINE
  5
2D66
330
BF7
100
AcDbEntity
  8
1
100
AcDbLine
 10
72.07210100000001
 20
-0.740560500000001
 30
0.0
 11
72.04825300000002
 21
-0.6786215000000021
 31
0.0
  0
LINE
  5
2D67
330
BF7
100
AcDbEntity
  8
1
100
AcDbLine
 10
72.10710400000002
 20
-0.7943575000000003
 30
0.0
 11
72.07210100000001
 21
-0.740560500000001
 31
0.0
  0
LINE
  5
2D68
330
BF7
100
AcDbEntity
  8
1
100
AcDbLine
 10
72.210114
 20
-0.8993114999999994
 30
0.0
 11
72.10710400000002
 21
-0.7943575000000003
 31
0.0
  0
LINE
  5
2D69
330
BF7
100
AcDbEntity
  8
1
100
AcDbLine
 10
72.364961
 20
-1.002614499999998
 30
0.0
 11
72.210114
 21
-0.8993114999999994
 31
0.0
  0
LINE
  5
2D6A
330
BF7
100
AcDbEntity
  8
1
100
AcDbLine
 10
72.60470000000002
 20
-0.6248004999999992
 30
0.0
 11
72.97598299999998
 21
-0.0396795000000019
 31
0.0
  0
LINE
  5
2D6B
330
BF7
100
AcDbEntity
  8
1
100
AcDbLine
 10
72.97598299999998
 20
-0.0396795000000019
 30
0.0
 11
72.99373800000002
 21
0.0316724999999991
 31
0.0
  0
LINE
  5
2D6C
330
BF7
100
AcDbEntity
  8
1
100
AcDbLine
 10
72.99373800000002
 20
0.0316724999999991
 30
0.0
 11
73.00026600000002
 21
0.0063805000000023
 31
0.0
  0
LINE
  5
2D6D
330
BF7
100
AcDbEntity
  8
1
100
AcDbLine
 10
73.00026600000002
 20
0.0063805000000023
 30
0.0
 11
72.20015799999998
 21
-1.885394499999999
 31
0.0
  0
LINE
  5
2D6E
330
BF7
100
AcDbEntity
  8
1
100
AcDbLine
 10
72.048811
 20
-1.639099499999999
 30
0.0
 11
72.01638800000002
 21
-1.5519375
 31
0.0
  0
LINE
  5
2D6F
330
BF7
100
AcDbEntity
  8
1
100
AcDbLine
 10
72.118864
 20
-1.777176499999999
 30
0.0
 11
72.048811
 21
-1.639099499999999
 31
0.0
  0
LINE
  5
2D70
330
BF7
100
AcDbEntity
  8
1
100
AcDbLine
 10
72.20015799999998
 20
-1.885394499999999
 30
0.0
 11
72.118864
 21
-1.777176499999999
 31
0.0
  0
LINE
  5
2D71
330
BF7
100
AcDbEntity
  8
1
100
AcDbLine
 10
72.01638800000002
 20
-1.5519375
 30
0.0
 11
72.364961
 21
-1.002614499999998
 31
0.0
  0
LINE
  5
2D72
330
BF7
100
AcDbEntity
  8
1
100
AcDbLine
 10
72.61901600000001
 20
-0.6584494999999997
 30
0.0
 11
72.60470000000002
 21
-0.6248004999999992
 31
0.0
  0
LINE
  5
2D73
330
BF7
100
AcDbEntity
  8
1
100
AcDbLine
 10
72.629952
 20
-0.7157135000000033
 30
0.0
 11
72.61901600000001
 21
-0.6584494999999997
 31
0.0
  0
LINE
  5
2D74
330
BF7
100
AcDbEntity
  8
1
100
AcDbLine
 10
72.62926200000002
 20
-0.7860395000000012
 30
0.0
 11
72.629952
 21
-0.7157135000000033
 31
0.0
  0
LINE
  5
2D75
330
BF7
100
AcDbEntity
  8
1
100
AcDbLine
 10
72.615273
 20
-0.8611834999999992
 30
0.0
 11
72.62926200000002
 21
-0.7860395000000012
 31
0.0
  0
LINE
  5
2D76
330
BF7
100
AcDbEntity
  8
1
100
AcDbLine
 10
72.586714
 20
-0.9376744999999999
 30
0.0
 11
72.615273
 21
-0.8611834999999992
 31
0.0
  0
LINE
  5
2D77
330
BF7
100
AcDbEntity
  8
1
100
AcDbLine
 10
72.55040300000001
 20
-0.9972734999999984
 30
0.0
 11
72.586714
 21
-0.9376744999999999
 31
0.0
  0
LINE
  5
2D78
330
BF7
100
AcDbEntity
  8
1
100
AcDbLine
 10
72.48877900000002
 20
-1.0525485
 30
0.0
 11
72.55040300000001
 21
-0.9972734999999984
 31
0.0
  0
LINE
  5
2D79
330
BF7
100
AcDbEntity
  8
1
100
AcDbLine
 10
72.431466
 20
-1.063387500000001
 30
0.0
 11
72.48877900000002
 21
-1.0525485
 31
0.0
  0
LINE
  5
2D7A
330
BF7
100
AcDbEntity
  8
1
100
AcDbLine
 10
72.38877300000002
 20
-1.039306500000002
 30
0.0
 11
72.431466
 21
-1.063387500000001
 31
0.0
  0
LINE
  5
2D7B
330
BF7
100
AcDbEntity
  8
1
100
AcDbLine
 10
72.364961
 20
-1.002614499999998
 30
0.0
 11
72.38877300000002
 21
-1.039306500000002
 31
0.0
  0
LINE
  5
2D7C
330
BF7
100
AcDbEntity
  8
SK1
100
AcDbLine
 10
-35.35048299999999
 20
2.4790615
 30
0.0
 11
-35.35048299999999
 21
2.162810499999999
 31
0.0
  0
LINE
  5
2D7D
330
BF7
100
AcDbEntity
  8
SK1
100
AcDbLine
 10
-35.35048299999999
 20
2.725963499999995
 30
0.0
 11
-35.35048299999999
 21
2.4790615
 31
0.0
  0
LINE
  5
2D81
330
BF7
100
AcDbEntity
  8
1
100
AcDbLine
 10
20.80368299999999
 20
2.0424995
 30
0.0
 11
17.500566
 21
2.0424995
 31
0.0
  0
LINE
  5
2D82
330
BF7
100
AcDbEntity
  8
1
100
AcDbLine
 10
43.30258800000001
 20
2.042493500000002
 30
0.0
 11
39.950031
 21
2.042493500000002
 31
0.0
  0
LINE
  5
2D83
330
BF7
100
AcDbEntity
  8
1
100
AcDbLine
 10
65.80254700000001
 20
2.0424875
 30
0.0
 11
62.462707
 21
2.0424875
 31
0.0
  0
LINE
  5
2D84
330
BF7
100
AcDbEntity
  8
1
100
AcDbLine
 10
52.52975000000001
 20
-2.042496500000002
 30
0.0
 11
54.55244699999999
 21
-2.042496500000002
 31
0.0
  0
LINE
  5
2D85
330
BF7
100
AcDbEntity
  8
1
100
AcDbLine
 10
50.50705400000001
 20
-2.042496500000002
 30
0.0
 11
52.52975000000001
 21
-2.042496500000002
 31
0.0
  0
LINE
  5
2D86
330
BF7
100
AcDbEntity
  8
1
100
AcDbLine
 10
30.030361
 20
-2.042485500000001
 30
0.0
 11
32.053057
 21
-2.042485500000001
 31
0.0
  0
LINE
  5
2D87
330
BF7
100
AcDbEntity
  8
1
100
AcDbLine
 10
28.007665
 20
-2.042485500000001
 30
0.0
 11
30.030361
 21
-2.042485500000001
 31
0.0
  0
LINE
  5
2D88
330
BF7
100
AcDbEntity
  8
1
100
AcDbLine
 10
32.053057
 20
2.0424875
 30
0.0
 11
28.72029100000001
 21
2.0424875
 31
0.0
  0
LINE
  5
2D89
330
BF7
100
AcDbEntity
  8
1
100
AcDbLine
 10
54.55244699999999
 20
2.0424995
 30
0.0
 11
51.19476600000002
 21
2.0424995
 31
0.0
  0
LINE
  5
2D8A
330
BF7
100
AcDbEntity
  8
1
100
AcDbLine
 10
63.77986299999999
 20
-2.0424875
 30
0.0
 11
65.80254700000001
 21
-2.0424875
 31
0.0
  0
LINE
  5
2D8B
330
BF7
100
AcDbEntity
  8
1
100
AcDbLine
 10
61.75716700000001
 20
-2.0424875
 30
0.0
 11
63.77986299999999
 21
-2.0424875
 31
0.0
  0
LINE
  5
2D8C
330
BF7
100
AcDbEntity
  8
1
100
AcDbLine
 10
41.279892
 20
-2.0424915
 30
0.0
 11
43.30258800000001
 21
-2.0424915
 31
0.0
  0
LINE
  5
2D8D
330
BF7
100
AcDbEntity
  8
1
100
AcDbLine
 10
39.25719600000002
 20
-2.0424915
 30
0.0
 11
41.279892
 21
-2.0424915
 31
0.0
  0
LINE
  5
2D8E
330
BF7
100
AcDbEntity
  8
1
100
AcDbLine
 10
18.78098699999999
 20
-2.042496500000002
 30
0.0
 11
20.80368299999999
 21
-2.042496500000002
 31
0.0
  0
LINE
  5
2D8F
330
BF7
100
AcDbEntity
  8
1
100
AcDbLine
 10
16.75830300000001
 20
-2.042496500000002
 30
0.0
 11
18.78098699999999
 21
-2.042496500000002
 31
0.0
  0
LINE
  5
2D90
330
BF7
100
AcDbEntity
  8
1
100
AcDbLine
 10
19.34083700000001
 20
1.482662499999999
 30
0.0
 11
19.75703
 21
1.295500499999995
 31
0.0
  0
LINE
  5
2D91
330
BF7
100
AcDbEntity
  8
1
100
AcDbLine
 10
18.92380799999999
 20
1.646100499999995
 30
0.0
 11
19.34083700000001
 21
1.482662499999999
 31
0.0
  0
LINE
  5
2D92
330
BF7
100
AcDbEntity
  8
1
100
AcDbLine
 10
18.812381
 20
1.686577499999997
 30
0.0
 11
18.92380799999999
 21
1.646100499999995
 31
0.0
  0
LINE
  5
2D93
330
BF7
100
AcDbEntity
  8
1
100
AcDbLine
 10
42.18726199999999
 20
1.3219555
 30
0.0
 11
42.255341
 21
1.296315499999997
 31
0.0
  0
LINE
  5
2D94
330
BF7
100
AcDbEntity
  8
1
100
AcDbLine
 10
42.11916999999998
 20
1.347596499999997
 30
0.0
 11
42.18726199999999
 21
1.3219555
 31
0.0
  0
LINE
  5
2D95
330
BF7
100
AcDbEntity
  8
1
100
AcDbLine
 10
63.272311
 20
1.840925499999996
 30
0.0
 11
64.56436
 21
1.375598499999997
 31
0.0
  0
LINE
  5
2D96
330
BF7
100
AcDbEntity
  8
1
100
AcDbLine
 10
64.660066
 20
1.335853499999998
 30
0.0
 11
64.75576000000001
 21
1.296112500000002
 31
0.0
  0
LINE
  5
2D97
330
BF7
100
AcDbEntity
  8
1
100
AcDbLine
 10
64.56436
 20
1.375598499999997
 30
0.0
 11
64.660066
 21
1.335853499999998
 31
0.0
  0
LINE
  5
2D98
330
BF7
100
AcDbEntity
  8
1
100
AcDbLine
 10
28.27232900000002
 20
-2.008792499999997
 30
0.0
 11
28.007507
 21
-2.042485500000001
 31
0.0
  0
LINE
  5
2D99
330
BF7
100
AcDbEntity
  8
1
100
AcDbLine
 10
30.895994
 20
1.356707499999995
 30
0.0
 11
31.00653700000001
 21
1.295743499999999
 31
0.0
  0
LINE
  5
2D9A
330
BF7
100
AcDbEntity
  8
1
100
AcDbLine
 10
52.954397
 20
1.538497499999997
 30
0.0
 11
53.310214
 21
1.381463499999995
 31
0.0
  0
LINE
  5
2D9B
330
BF7
100
AcDbEntity
  8
1
100
AcDbLine
 10
53.407507
 20
1.3390185
 30
0.0
 11
53.50480000000001
 21
1.296572499999999
 31
0.0
  0
LINE
  5
2D9C
330
BF7
100
AcDbEntity
  8
1
100
AcDbLine
 10
53.310214
 20
1.381463499999995
 30
0.0
 11
53.407507
 21
1.3390185
 31
0.0
  0
LINE
  5
2D9D
330
BF7
100
AcDbEntity
  8
1
100
AcDbLine
 10
62.02200000000002
 20
-2.0436155
 30
0.0
 11
61.758208
 21
-2.0424875
 31
0.0
  0
LINE
  5
2D9E
330
BF7
100
AcDbEntity
  8
1
100
AcDbLine
 10
17.04168
 20
-2.0088015
 30
0.0
 11
16.75812100000001
 21
-2.042496500000002
 31
0.0
  0
LINE
  5
2D9F
330
BF7
100
AcDbEntity
  8
1
100
AcDbLine
 10
7.433751000000014
 20
1.720877499999995
 30
0.0
 11
7.584007999999997
 21
1.659065499999995
 31
0.0
  0
LINE
  5
2DA0
330
BF7
100
AcDbEntity
  8
1
100
AcDbLine
 10
8.044918000000008
 20
1.477572499999999
 30
0.0
 11
8.505827000000008
 21
1.2960795
 31
0.0
  0
LINE
  5
2DA1
330
BF7
100
AcDbEntity
  8
1
100
AcDbLine
 10
7.584007999999997
 20
1.659065499999995
 30
0.0
 11
8.044918000000008
 21
1.477572499999999
 31
0.0
  0
LINE
  5
2DA2
330
BF7
100
AcDbEntity
  8
1
100
AcDbLine
 10
59.69908000000001
 20
0.3743665000000007
 30
0.0
 11
58.18670899999999
 21
1.0739665
 31
0.0
  0
LINE
  5
2DA3
330
BF7
100
AcDbEntity
  8
1
100
AcDbLine
 10
61.23969600000001
 20
-0.258246500000002
 30
0.0
 11
59.69908000000001
 21
0.3743665000000007
 31
0.0
  0
LINE
  5
2DA4
330
BF7
100
AcDbEntity
  8
1
100
AcDbLine
 10
37.181184
 20
0.3822384999999961
 30
0.0
 11
35.64984600000002
 21
1.0911435
 31
0.0
  0
LINE
  5
2DA5
330
BF7
100
AcDbEntity
  8
1
100
AcDbLine
 10
38.741118
 20
-0.258798500000001
 30
0.0
 11
37.181184
 21
0.3822384999999961
 31
0.0
  0
LINE
  5
2DA6
330
BF7
100
AcDbEntity
  8
1
100
AcDbLine
 10
14.68860100000002
 20
0.3789935
 30
0.0
 11
13.16061800000001
 21
1.086126499999997
 31
0.0
  0
LINE
  5
2DA7
330
BF7
100
AcDbEntity
  8
1
100
AcDbLine
 10
16.24507100000001
 20
-0.2603274999999989
 30
0.0
 11
14.68860100000002
 21
0.3789935
 31
0.0
  0
LINE
  5
2DA8
330
BF7
100
AcDbEntity
  8
1
100
AcDbLine
 10
70.279236
 20
0.6688615000000021
 30
0.0
 11
69.40569400000001
 21
1.088400499999995
 31
0.0
  0
LINE
  5
2DA9
330
BF7
100
AcDbEntity
  8
1
100
AcDbLine
 10
71.16917700000001
 20
0.2882855000000006
 30
0.0
 11
70.279236
 21
0.6688615000000021
 31
0.0
  0
LINE
  5
2DAA
330
BF7
100
AcDbEntity
  8
1
100
AcDbLine
 10
48.44585499999999
 20
0.3754014999999988
 30
0.0
 11
46.928784
 21
1.076449500000002
 31
0.0
  0
LINE
  5
2DAB
330
BF7
100
AcDbEntity
  8
1
100
AcDbLine
 10
49.99142400000001
 20
-0.2589165000000015
 30
0.0
 11
48.44585499999999
 21
0.3754014999999988
 31
0.0
  0
LINE
  5
2DAC
330
BF7
100
AcDbEntity
  8
1
100
AcDbLine
 10
25.92387700000002
 20
0.3851574999999983
 30
0.0
 11
24.38073
 21
1.099019499999996
 31
0.0
  0
LINE
  5
2DAD
330
BF7
100
AcDbEntity
  8
1
100
AcDbLine
 10
27.49589800000001
 20
-0.260645499999999
 30
0.0
 11
25.92387700000002
 21
0.3851574999999983
 31
0.0
  0
LINE
  5
2DAE
330
BF7
100
AcDbEntity
  8
SK1
100
AcDbLine
 10
-35.35048299999999
 20
2.999999500000001
 30
0.0
 11
-36.000001
 21
2.625001499999996
 31
0.0
  0
LINE
  5
2DAF
330
BF7
100
AcDbEntity
  8
1
100
AcDbLine
 10
0.4999990000000027
 20
-2.149999499999998
 30
0.0
 11
5.960065
 21
-2.149999499999998
 31
0.0
  0
LINE
  5
2DB0
330
BF7
100
AcDbEntity
  8
1
100
AcDbLine
 10
15.90902100000001
 20
-2.149999499999998
 30
0.0
 11
16.44704500000002
 21
-2.149999499999998
 31
0.0
  0
LINE
  5
2DB1
330
BF7
100
AcDbEntity
  8
1
100
AcDbLine
 10
27.15734100000001
 20
-2.149999499999998
 30
0.0
 11
27.69737600000002
 21
-2.149999499999998
 31
0.0
  0
LINE
  5
2DB2
330
BF7
100
AcDbEntity
  8
1
100
AcDbLine
 10
38.40887100000001
 20
-2.149999499999998
 30
0.0
 11
38.947912
 21
-2.149999499999998
 31
0.0
  0
LINE
  5
2DB3
330
BF7
100
AcDbEntity
  8
1
100
AcDbLine
 10
49.657385
 20
-2.149999499999998
 30
0.0
 11
50.19844900000001
 21
-2.149999499999998
 31
0.0
  0
LINE
  5
2DB4
330
BF7
100
AcDbEntity
  8
1
100
AcDbLine
 10
60.908987
 20
-2.149999499999998
 30
0.0
 11
61.44873100000001
 21
-2.149999499999998
 31
0.0
  0
LINE
  5
2DB5
330
BF7
100
AcDbEntity
  8
1
100
AcDbLine
 10
61.44873100000001
 20
2.149999499999998
 30
0.0
 11
60.908987
 21
2.149999499999998
 31
0.0
  0
LINE
  5
2DB6
330
BF7
100
AcDbEntity
  8
1
100
AcDbLine
 10
50.19844900000001
 20
2.149999499999998
 30
0.0
 11
49.657385
 21
2.149999499999998
 31
0.0
  0
LINE
  5
2DB7
330
BF7
100
AcDbEntity
  8
1
100
AcDbLine
 10
38.947912
 20
2.149999499999998
 30
0.0
 11
38.40887100000001
 21
2.149999499999998
 31
0.0
  0
LINE
  5
2DB8
330
BF7
100
AcDbEntity
  8
1
100
AcDbLine
 10
27.69737600000002
 20
2.149999499999998
 30
0.0
 11
27.15734100000001
 21
2.149999499999998
 31
0.0
  0
LINE
  5
2DB9
330
BF7
100
AcDbEntity
  8
1
100
AcDbLine
 10
16.44704500000002
 20
2.149999499999998
 30
0.0
 11
15.90902100000001
 21
2.149999499999998
 31
0.0
  0
LINE
  5
2DBA
330
BF7
100
AcDbEntity
  8
1
100
AcDbLine
 10
5.960065
 20
2.149999499999998
 30
0.0
 11
0.4999990000000027
 21
2.149999499999998
 31
0.0
  0
LINE
  5
2DBB
330
BF7
100
AcDbEntity
  8
SK1
100
AcDbLine
 10
0.0
 20
2.999999500000001
 30
0.0
 11
-35.35048299999999
 21
2.999999500000001
 31
0.0
  0
LINE
  5
2DBC
330
BF7
100
AcDbEntity
  8
SK1
100
AcDbLine
 10
-35.35048299999999
 20
-2.999999500000001
 30
0.0
 11
0.0
 21
-2.999999500000001
 31
0.0
  0
LINE
  5
2DBD
330
BF7
100
AcDbEntity
  8
SK1
100
AcDbLine
 10
-36.000001
 20
-2.6249995
 30
0.0
 11
-35.35048299999999
 21
-2.999999500000001
 31
0.0
  0
POINT
  5
2DBE
330
BF7
100
AcDbEntity
  8
61
  6
Continuous
 62
    43
100
AcDbPoint
 10
-97.72063300000001
 20
-26.8566715
 30
0.0
  0
LINE
  5
2DBF
330
BF7
100
AcDbEntity
  8
SK4
100
AcDbLine
 10
0.0
 20
0.0
 30
0.0
 11
-37.58704573064233
 21
0.0000000000000046
 31
0.0
  0
LINE
  5
2DC0
330
BF7
100
AcDbEntity
  8
SK4
100
AcDbLine
 10
0.0
 20
0.0
 30
0.0
 11
73.81940181524794
 21
0.0
 31
0.0
  0
LINE
  5
2DC1
330
BF7
100
AcDbEntity
  8
1
100
AcDbLine
 10
-0.0000009906281058
 20
2.649999499999998
 30
0.0
 11
-0.0000009906281058
 21
-2.649999499999998
 31
0.0
  0
DIMENSION
  5
2DC2
330
BF7
100
AcDbEntity
  8
SK2
100
AcDbDimension
  2
*D2
 10
-40.41177272953858
 20
-2.999999499999998
 30
0.0
 11
-40.41757894152624
 21
-16.69130160915983
 31
0.0
 70
   160
  1
%%C <>
 71
     5
 42
5.999999000000002
  3
SANDVIK_DIM
100
AcDbAlignedDimension
 13
-35.35048299999999
 23
2.999999500000001
 33
0.0
 14
-35.35048299999999
 24
-2.999999500000001
 34
0.0
 50
90.0
100
AcDbRotatedDimension
1001
ACAD
1000
DSTYLE
1002
{
1070
    40
1040
1.0
1002
}
  0
DIMENSION
  5
2DD0
330
BF7
100
AcDbEntity
  8
2
100
AcDbDimension
  2
*D3
 10
76.6492658273487
 20
-2.149887500000003
 30
0.0
 11
76.62241513871845
 21
-18.04331622612898
 31
0.0
 70
   160
  1
%%C <>
 71
     5
 42
4.299777999999998
  3
SANDVIK_DIM
100
AcDbAlignedDimension
 13
72.19458700000001
 23
2.149890499999996
 33
0.0
 14
72.19458700000001
 24
-2.149887500000001
 34
0.0
 50
90.0
100
AcDbRotatedDimension
1001
ACAD
1000
DSTYLE
1002
{
1070
    40
1040
1.0
1002
}
  0
DIMENSION
  5
2DDE
330
BF7
100
AcDbEntity
  8
SK2
100
AcDbDimension
  2
*D4
 10
20.19458700000001
 20
3.726557480210431
 30
0.0
 11
46.19458700000001
 21
7.526557480210429
 31
0.0
 70
    32
 71
     5
 42
52.0
  3
SANDVIK_DIM
100
AcDbAlignedDimension
 13
72.19458700000001
 23
2.149890499999996
 33
0.0
 14
20.19458700000001
 24
2.149890500000006
 34
0.0
100
AcDbRotatedDimension
1001
ACAD
1000
DSTYLE
1002
{
1070
    40
1040
1.0
1002
}
  0
DIMENSION
  5
2DEB
330
BF7
100
AcDbEntity
  8
2
100
AcDbDimension
  2
*D5
 10
6.000266000000008
 20
-8.522227589757619
 30
0.0
 11
39.50026600000001
 21
-4.722227589757619
 31
0.0
 70
    32
 71
     5
 42
67.0
  3
SANDVIK_DIM
100
AcDbAlignedDimension
 13
73.00026600000002
 23
0.000001000000001
 33
0.0
 14
6.000266000000009
 24
0.0000010000000092
 34
0.0
100
AcDbRotatedDimension
1001
ACAD
1000
DSTYLE
1002
{
1070
    40
1040
1.0
1002
}
  0
DIMENSION
  5
2DF8
330
BF7
100
AcDbEntity
  8
2
100
AcDbDimension
  2
*D6
 10
73.00026600000002
 20
-15.3383570757706
 30
0.0
 11
36.50013300000001
 21
-11.5383570757706
 31
0.0
 70
    32
 71
     5
 42
73.00026600000002
  3
SANDVIK_DIM
100
AcDbAlignedDimension
 13
0.0
 23
-2.999999500000001
 33
0.0
 14
73.00026600000002
 24
0.000001000000001
 34
0.0
100
AcDbRotatedDimension
1001
ACAD
1000
DSTYLE
1002
{
1070
    40
1040
1.0
1002
}
  0
DIMENSION
  5
2E05
330
BF7
100
AcDbEntity
  8
SK2
100
AcDbDimension
  2
*D7
 10
-36.000001
 20
-22.42625876938951
 30
0.0
 11
18.50013250000001
 21
-18.6262587693895
 31
0.0
 70
    32
 71
     5
 42
109.000267
  3
SANDVIK_DIM
100
AcDbAlignedDimension
 13
73.00026600000002
 23
0.0
 33
0.0
 14
-36.000001
 24
-2.568681000000001
 34
0.0
100
AcDbRotatedDimension
1001
ACAD
1000
DSTYLE
1002
{
1070
    40
1040
1.0
1002
}
  0
DIMENSION
  5
2E12
330
BF7
100
AcDbEntity
  8
SK2
100
AcDbDimension
  2
*D8
 10
-0.0000000000000008
 20
-15.3383570757706
 30
0.0
 11
-18.0000005
 21
-11.5383570757706
 31
0.0
 70
    32
 71
     5
 42
36.000001
  3
SANDVIK_DIM
100
AcDbAlignedDimension
 13
-36.000001
 23
-2.3482705
 33
0.0
 14
0.0
 24
-2.999999500000001
 34
0.0
100
AcDbRotatedDimension
1001
ACAD
1000
DSTYLE
1002
{
1070
    40
1040
1.0
1002
}
  0
ENDSEC
  0
SECTION
  2
OBJECTS
  0
DICTIONARY
  5
BE3
330
0
100
AcDbDictionary
281
     1
  3
ACAD_CIP_PREVIOUS_PRODUCT_INFO
350
2EB4
  3
ACAD_COLOR
350
BF2
  3
ACAD_DETAILVIEWSTYLE
350
2EB1
  3
ACAD_GROUP
350
BE4
  3
ACAD_LAYOUT
350
BF0
  3
ACAD_MATERIAL
350
BF1
  3
ACAD_MLEADERSTYLE
350
2EAC
  3
ACAD_MLINESTYLE
350
BED
  3
ACAD_PLOTSETTINGS
350
BEF
  3
ACAD_PLOTSTYLENAME
350
BE5
  3
ACAD_SCALELIST
350
2E9A
  3
ACAD_SECTIONVIEWSTYLE
350
2EAE
  3
ACAD_TABLESTYLE
350
2E98
  3
ACAD_VISUALSTYLE
350
2E7F
  3
ACDB_RECOMPOSE_DATA
350
2F16
  3
AcDbVariableDictionary
350
2F09
  3
ASE_INDEX_DICTIONARY
350
2F06
  3
DWGPROPS
350
2F17
  0
DICTIONARY
  5
2EB7
330
BE7
100
AcDbDictionary
280
     1
281
     1
  3
ADSK_XREC_LAYER_RECONCILED
360
2EB8
  0
DICTIONARY
  5
2EB9
330
BFB
100
AcDbDictionary
280
     1
281
     1
  3
ADSK_XREC_LAYER_RECONCILED
360
2EBA
  0
DICTIONARY
  5
2EBB
330
C00
100
AcDbDictionary
280
     1
281
     1
  3
ADSK_XREC_LAYER_RECONCILED
360
2EBC
  0
DICTIONARY
  5
2EBD
330
C01
100
AcDbDictionary
280
     1
281
     1
  3
ADSK_XREC_LAYER_RECONCILED
360
2EBE
  0
DICTIONARY
  5
2EBF
330
C02
100
AcDbDictionary
280
     1
281
     1
  3
ADSK_XREC_LAYER_RECONCILED
360
2EC0
  0
DICTIONARY
  5
2EC1
330
C03
100
AcDbDictionary
280
     1
281
     1
  3
ADSK_XREC_LAYER_RECONCILED
360
2EC2
  0
DICTIONARY
  5
2EC3
330
C04
100
AcDbDictionary
280
     1
281
     1
  3
ADSK_XREC_LAYER_RECONCILED
360
2EC4
  0
DICTIONARY
  5
2EC5
330
C05
100
AcDbDictionary
280
     1
281
     1
  3
ADSK_XREC_LAYER_RECONCILED
360
2EC6
  0
DICTIONARY
  5
2EC7
330
C06
100
AcDbDictionary
280
     1
281
     1
  3
ADSK_XREC_LAYER_RECONCILED
360
2EC8
  0
DICTIONARY
  5
2EC9
330
C07
100
AcDbDictionary
280
     1
281
     1
  3
ADSK_XREC_LAYER_RECONCILED
360
2ECA
  0
DICTIONARY
  5
2ECB
330
C08
100
AcDbDictionary
280
     1
281
     1
  3
ADSK_XREC_LAYER_RECONCILED
360
2ECC
  0
DICTIONARY
  5
2ECD
330
C09
100
AcDbDictionary
280
     1
281
     1
  3
ADSK_XREC_LAYER_RECONCILED
360
2ECE
  0
DICTIONARY
  5
2ECF
330
C0A
100
AcDbDictionary
280
     1
281
     1
  3
ADSK_XREC_LAYER_RECONCILED
360
2ED0
  0
DICTIONARY
  5
2ED1
330
C0B
100
AcDbDictionary
280
     1
281
     1
  3
ADSK_XREC_LAYER_RECONCILED
360
2ED2
  0
DICTIONARY
  5
2ED3
330
C0C
100
AcDbDictionary
280
     1
281
     1
  3
ADSK_XREC_LAYER_RECONCILED
360
2ED4
  0
DICTIONARY
  5
2ED5
330
C0D
100
AcDbDictionary
280
     1
281
     1
  3
ADSK_XREC_LAYER_RECONCILED
360
2ED6
  0
DICTIONARY
  5
2ED7
330
C0E
100
AcDbDictionary
280
     1
281
     1
  3
ADSK_XREC_LAYER_RECONCILED
360
2ED8
  0
DICTIONARY
  5
2ED9
330
C0F
100
AcDbDictionary
280
     1
281
     1
  3
ADSK_XREC_LAYER_RECONCILED
360
2EDA
  0
DICTIONARY
  5
2EDB
330
C10
100
AcDbDictionary
280
     1
281
     1
  3
ADSK_XREC_LAYER_RECONCILED
360
2EDC
  0
DICTIONARY
  5
2EDD
330
C11
100
AcDbDictionary
280
     1
281
     1
  3
ADSK_XREC_LAYER_RECONCILED
360
2EDE
  0
DICTIONARY
  5
2EDF
330
C12
100
AcDbDictionary
280
     1
281
     1
  3
ADSK_XREC_LAYER_RECONCILED
360
2EE0
  0
DICTIONARY
  5
2EE1
330
C13
100
AcDbDictionary
280
     1
281
     1
  3
ADSK_XREC_LAYER_RECONCILED
360
2EE2
  0
DICTIONARY
  5
2EE3
330
C14
100
AcDbDictionary
280
     1
281
     1
  3
ADSK_XREC_LAYER_RECONCILED
360
2EE4
  0
DICTIONARY
  5
2EE5
330
C15
100
AcDbDictionary
280
     1
281
     1
  3
ADSK_XREC_LAYER_RECONCILED
360
2EE6
  0
DICTIONARY
  5
2EE7
330
C16
100
AcDbDictionary
280
     1
281
     1
  3
ADSK_XREC_LAYER_RECONCILED
360
2EE8
  0
DICTIONARY
  5
2EE9
330
C17
100
AcDbDictionary
280
     1
281
     1
  3
ADSK_XREC_LAYER_RECONCILED
360
2EEA
  0
DICTIONARY
  5
2EEB
330
C18
100
AcDbDictionary
280
     1
281
     1
  3
ADSK_XREC_LAYER_RECONCILED
360
2EEC
  0
DICTIONARY
  5
2EED
330
C19
100
AcDbDictionary
280
     1
281
     1
  3
ADSK_XREC_LAYER_RECONCILED
360
2EEE
  0
DICTIONARY
  5
2EEF
330
C1A
100
AcDbDictionary
280
     1
281
     1
  3
ADSK_XREC_LAYER_RECONCILED
360
2EF0
  0
DICTIONARY
  5
2EF1
330
C1B
100
AcDbDictionary
280
     1
281
     1
  3
ADSK_XREC_LAYER_RECONCILED
360
2EF2
  0
DICTIONARY
  5
2EF3
330
C1C
100
AcDbDictionary
280
     1
281
     1
  3
ADSK_XREC_LAYER_RECONCILED
360
2EF4
  0
DICTIONARY
  5
2EF5
330
C1D
100
AcDbDictionary
280
     1
281
     1
  3
ADSK_XREC_LAYER_RECONCILED
360
2EF6
  0
DICTIONARY
  5
2EF7
330
C1E
100
AcDbDictionary
280
     1
281
     1
  3
ADSK_XREC_LAYER_RECONCILED
360
2EF8
  0
DICTIONARY
  5
2EF9
330
C1F
100
AcDbDictionary
280
     1
281
     1
  3
ADSK_XREC_LAYER_RECONCILED
360
2EFA
  0
DICTIONARY
  5
2EFB
330
C20
100
AcDbDictionary
280
     1
281
     1
  3
ADSK_XREC_LAYER_RECONCILED
360
2EFC
  0
DICTIONARY
  5
2EFD
330
C21
100
AcDbDictionary
280
     1
281
     1
  3
ADSK_XREC_LAYER_RECONCILED
360
2EFE
  0
DICTIONARY
  5
2EFF
330
C22
100
AcDbDictionary
280
     1
281
     1
  3
ADSK_XREC_LAYER_RECONCILED
360
2F00
  0
DICTIONARY
  5
2F01
330
C23
100
AcDbDictionary
280
     1
281
     1
  3
ADSK_XREC_LAYER_RECONCILED
360
2F02
  0
DICTIONARY
  5
2F03
330
C42
100
AcDbDictionary
280
     1
281
     1
  3
ADSK_XREC_LAYER_RECONCILED
360
2F04
  0
XRECORD
  5
2EB4
102
{ACAD_REACTORS
330
BE3
102
}
330
BE3
100
AcDbXrecord
280
     1
300
AMECH_PP
300
2013
300
PDSU_F_S
  0
DICTIONARY
  5
BF2
102
{ACAD_REACTORS
330
BE3
102
}
330
BE3
100
AcDbDictionary
281
     1
  0
DICTIONARY
  5
2EB1
102
{ACAD_REACTORS
330
BE3
102
}
330
BE3
100
AcDbDictionary
281
     1
  3
Imperial24
350
2EB2
  0
DICTIONARY
  5
BE4
102
{ACAD_REACTORS
330
BE3
102
}
330
BE3
100
AcDbDictionary
281
     1
  0
DICTIONARY
  5
BF0
102
{ACAD_REACTORS
330
BE3
102
}
330
BE3
100
AcDbDictionary
281
     1
  3
Layout1
350
BF6
  3
Model
350
BFA
  0
DICTIONARY
  5
BF1
102
{ACAD_REACTORS
330
BE3
102
}
330
BE3
100
AcDbDictionary
281
     1
  3
ByBlock
350
2E6F
  3
ByLayer
350
2E67
  3
Global
350
2E77
  0
DICTIONARY
  5
2EAC
102
{ACAD_REACTORS
330
BE3
102
}
330
BE3
100
AcDbDictionary
281
     1
  3
Standard
350
2EAD
  0
DICTIONARY
  5
BED
102
{ACAD_REACTORS
330
BE3
102
}
330
BE3
100
AcDbDictionary
281
     1
  3
Standard
350
BEE
  0
DICTIONARY
  5
BEF
102
{ACAD_REACTORS
330
BE3
102
}
330
BE3
100
AcDbDictionary
281
     1
  0
ACDBDICTIONARYWDFLT
  5
BE5
102
{ACAD_REACTORS
330
BE3
102
}
330
BE3
100
AcDbDictionary
281
     1
  3
Normal
350
BE6
100
AcDbDictionaryWithDefault
340
BE6
  0
DICTIONARY
  5
2E9A
102
{ACAD_REACTORS
330
BE3
102
}
330
BE3
100
AcDbDictionary
281
     1
  3
A0
350
2E9B
  3
A1
350
2E9C
  3
A2
350
2E9D
  3
A3
350
2E9E
  3
A4
350
2E9F
  3
A5
350
2EA0
  3
A6
350
2EA1
  3
A7
350
2EA2
  3
A8
350
2EA3
  3
A9
350
2EA4
  3
B0
350
2EA5
  3
B1
350
2EA6
  3
B2
350
2EA7
  3
B3
350
2EA8
  3
B4
350
2EA9
  3
B5
350
2EAA
  3
B6
350
2EAB
  0
DICTIONARY
  5
2EAE
102
{ACAD_REACTORS
330
BE3
102
}
330
BE3
100
AcDbDictionary
281
     1
  3
Imperial24
350
2EB0
  0
DICTIONARY
  5
2E98
102
{ACAD_REACTORS
330
BE3
102
}
330
BE3
100
AcDbDictionary
281
     1
  3
Standard
350
2E99
  0
DICTIONARY
  5
2E7F
102
{ACAD_REACTORS
330
BE3
102
}
330
BE3
100
AcDbDictionary
281
     1
  3
2dWireframe
350
2E85
  3
Basic
350
2E84
  3
Brighten
350
2E8B
  3
ColorChange
350
2E8F
  3
Conceptual
350
2E88
  3
Dim
350
2E8A
  3
EdgeColorOff
350
2E97
  3
Facepattern
350
2E8E
  3
Flat
350
2E80
  3
FlatWithEdges
350
2E81
  3
Gouraud
350
2E82
  3
GouraudWithEdges
350
2E83
  3
Hidden
350
2E87
  3
JitterOff
350
2E95
  3
Linepattern
350
2E8D
  3
OverhangOff
350
2E96
  3
Realistic
350
2E89
  3
Shaded
350
2E94
  3
Shaded with edges
350
2E93
  3
Shades of Gray
350
2E90
  3
Sketchy
350
2E91
  3
Thicken
350
2E8C
  3
Wireframe
350
2E86
  3
X-Ray
350
2E92
  0
XRECORD
  5
2F16
102
{ACAD_REACTORS
330
BE3
102
}
330
BE3
100
AcDbXrecord
280
     1
 90
        1
330
2E99
  0
DICTIONARY
  5
2F09
102
{ACAD_REACTORS
330
BE3
102
}
330
BE3
100
AcDbDictionary
281
     1
  3
CANNOSCALE
350
2F0E
  3
CMLEADERSTYLE
350
2F0B
  3
CTABLESTYLE
350
2F0A
  3
CVIEWDETAILSTYLE
350
2F0C
  3
CVIEWSECTIONSTYLE
350
2F0D
  3
DIMASSOC
350
2F12
  3
INDEXCTL
350
2F10
  3
SORTENTS
350
2F0F
  3
XCLIPFRAME
350
2F11
  0
DICTIONARY
  5
2F06
102
{ACAD_REACTORS
330
BE3
102
}
330
BE3
100
AcDbDictionary
281
     1
  3
ASEBlockHierarchyIndexRecord
350
2F08
1001
DCO15
1040
1815723809.452
  0
XRECORD
  5
2F17
102
{ACAD_REACTORS
330
BE3
102
}
330
BE3
100
AcDbXrecord
280
     1
  1
DWGPROPS COOKIE
  2

  3

  4

  6

  7

  8
Micke
  9

300
=
301
=
302
=
303
=
304
=
305
=
306
=
307
=
308
=
309
=
 40
0.0904494675925926
 41
2455817.64629206
 42
2456818.533720509
  1

 90
        0
  0
XRECORD
  5
2EB8
102
{ACAD_REACTORS
330
2EB7
102
}
330
2EB7
100
AcDbXrecord
280
     1
290
     1
  0
XRECORD
  5
2EBA
102
{ACAD_REACTORS
330
2EB9
102
}
330
2EB9
100
AcDbXrecord
280
     1
290
     1
  0
XRECORD
  5
2EBC
102
{ACAD_REACTORS
330
2EBB
102
}
330
2EBB
100
AcDbXrecord
280
     1
290
     1
  0
XRECORD
  5
2EBE
102
{ACAD_REACTORS
330
2EBD
102
}
330
2EBD
100
AcDbXrecord
280
     1
290
     1
  0
XRECORD
  5
2EC0
102
{ACAD_REACTORS
330
2EBF
102
}
330
2EBF
100
AcDbXrecord
280
     1
290
     1
  0
XRECORD
  5
2EC2
102
{ACAD_REACTORS
330
2EC1
102
}
330
2EC1
100
AcDbXrecord
280
     1
290
     1
  0
XRECORD
  5
2EC4
102
{ACAD_REACTORS
330
2EC3
102
}
330
2EC3
100
AcDbXrecord
280
     1
290
     1
  0
XRECORD
  5
2EC6
102
{ACAD_REACTORS
330
2EC5
102
}
330
2EC5
100
AcDbXrecord
280
     1
290
     1
  0
XRECORD
  5
2EC8
102
{ACAD_REACTORS
330
2EC7
102
}
330
2EC7
100
AcDbXrecord
280
     1
290
     1
  0
XRECORD
  5
2ECA
102
{ACAD_REACTORS
330
2EC9
102
}
330
2EC9
100
AcDbXrecord
280
     1
290
     1
  0
XRECORD
  5
2ECC
102
{ACAD_REACTORS
330
2ECB
102
}
330
2ECB
100
AcDbXrecord
280
     1
290
     1
  0
XRECORD
  5
2ECE
102
{ACAD_REACTORS
330
2ECD
102
}
330
2ECD
100
AcDbXrecord
280
     1
290
     1
  0
XRECORD
  5
2ED0
102
{ACAD_REACTORS
330
2ECF
102
}
330
2ECF
100
AcDbXrecord
280
     1
290
     1
  0
XRECORD
  5
2ED2
102
{ACAD_REACTORS
330
2ED1
102
}
330
2ED1
100
AcDbXrecord
280
     1
290
     1
  0
XRECORD
  5
2ED4
102
{ACAD_REACTORS
330
2ED3
102
}
330
2ED3
100
AcDbXrecord
280
     1
290
     1
  0
XRECORD
  5
2ED6
102
{ACAD_REACTORS
330
2ED5
102
}
330
2ED5
100
AcDbXrecord
280
     1
290
     1
  0
XRECORD
  5
2ED8
102
{ACAD_REACTORS
330
2ED7
102
}
330
2ED7
100
AcDbXrecord
280
     1
290
     1
  0
XRECORD
  5
2EDA
102
{ACAD_REACTORS
330
2ED9
102
}
330
2ED9
100
AcDbXrecord
280
     1
290
     1
  0
XRECORD
  5
2EDC
102
{ACAD_REACTORS
330
2EDB
102
}
330
2EDB
100
AcDbXrecord
280
     1
290
     1
  0
XRECORD
  5
2EDE
102
{ACAD_REACTORS
330
2EDD
102
}
330
2EDD
100
AcDbXrecord
280
     1
290
     1
  0
XRECORD
  5
2EE0
102
{ACAD_REACTORS
330
2EDF
102
}
330
2EDF
100
AcDbXrecord
280
     1
290
     1
  0
XRECORD
  5
2EE2
102
{ACAD_REACTORS
330
2EE1
102
}
330
2EE1
100
AcDbXrecord
280
     1
290
     1
  0
XRECORD
  5
2EE4
102
{ACAD_REACTORS
330
2EE3
102
}
330
2EE3
100
AcDbXrecord
280
     1
290
     1
  0
XRECORD
  5
2EE6
102
{ACAD_REACTORS
330
2EE5
102
}
330
2EE5
100
AcDbXrecord
280
     1
290
     1
  0
XRECORD
  5
2EE8
102
{ACAD_REACTORS
330
2EE7
102
}
330
2EE7
100
AcDbXrecord
280
     1
290
     1
  0
XRECORD
  5
2EEA
102
{ACAD_REACTORS
330
2EE9
102
}
330
2EE9
100
AcDbXrecord
280
     1
290
     1
  0
XRECORD
  5
2EEC
102
{ACAD_REACTORS
330
2EEB
102
}
330
2EEB
100
AcDbXrecord
280
     1
290
     1
  0
XRECORD
  5
2EEE
102
{ACAD_REACTORS
330
2EED
102
}
330
2EED
100
AcDbXrecord
280
     1
290
     1
  0
XRECORD
  5
2EF0
102
{ACAD_REACTORS
330
2EEF
102
}
330
2EEF
100
AcDbXrecord
280
     1
290
     1
  0
XRECORD
  5
2EF2
102
{ACAD_REACTORS
330
2EF1
102
}
330
2EF1
100
AcDbXrecord
280
     1
290
     1
  0
XRECORD
  5
2EF4
102
{ACAD_REACTORS
330
2EF3
102
}
330
2EF3
100
AcDbXrecord
280
     1
290
     1
  0
XRECORD
  5
2EF6
102
{ACAD_REACTORS
330
2EF5
102
}
330
2EF5
100
AcDbXrecord
280
     1
290
     1
  0
XRECORD
  5
2EF8
102
{ACAD_REACTORS
330
2EF7
102
}
330
2EF7
100
AcDbXrecord
280
     1
290
     1
  0
XRECORD
  5
2EFA
102
{ACAD_REACTORS
330
2EF9
102
}
330
2EF9
100
AcDbXrecord
280
     1
290
     1
  0
XRECORD
  5
2EFC
102
{ACAD_REACTORS
330
2EFB
102
}
330
2EFB
100
AcDbXrecord
280
     1
290
     1
  0
XRECORD
  5
2EFE
102
{ACAD_REACTORS
330
2EFD
102
}
330
2EFD
100
AcDbXrecord
280
     1
290
     1
  0
XRECORD
  5
2F00
102
{ACAD_REACTORS
330
2EFF
102
}
330
2EFF
100
AcDbXrecord
280
     1
290
     1
  0
XRECORD
  5
2F02
102
{ACAD_REACTORS
330
2F01
102
}
330
2F01
100
AcDbXrecord
280
     1
290
     1
  0
XRECORD
  5
2F04
102
{ACAD_REACTORS
330
2F03
102
}
330
2F03
100
AcDbXrecord
280
     1
290
     1
  0
ACDBDETAILVIEWSTYLE
  5
2EB2
102
{ACAD_REACTORS
330
2EB1
102
}
330
2EB1
100
AcDbModelDocViewStyle
 70
     0
  3
Imperial24
290
     0
100
AcDbDetailViewStyle
 70
     0
 71
     0
 90
        3
 71
     1
340
BE8
 40
0.24
340
0
 40
0.24
300

 40
0.36
280
     3
 71
     2
340
BEC
 90
       25
 71
     3
340
BE8
 40
0.24
 90
        1
 40
0.75
 90
        1
300
%<\AcVar ViewType \f "%tc1">% %<\AcVar ViewDetailId>%\PSCALE %<\AcVar ViewScale \f "%sn">%
 71
     4
340
BEC
 90
       25
340
BEC
 90
       25
280
     0
  0
LAYOUT
  5
BF6
102
{ACAD_XDICTIONARY
360
2F18
102
}
102
{ACAD_REACTORS
330
BF0
102
}
330
BF0
100
AcDbPlotSettings
  1

  2
\\GBCFS501\GBCPR502
  4

  6

 40
0.0
 41
0.0
 42
0.0
 43
0.0
 44
0.0
 45
0.0
 46
0.0
 47
0.0
 48
0.0
 49
0.0
140
0.0
141
0.0
142
1.0
143
1.0
 70
   688
 72
     0
 73
     0
 74
     5
  7

 75
    16
147
1.0
148
0.0
149
0.0
100
AcDbLayout
  1
Layout1
 70
     1
 71
     1
 10
0.0
 20
0.0
 11
12.0
 21
9.0
 12
0.0
 22
0.0
 32
0.0
 14
1.000000000000000E+20
 24
1.000000000000000E+20
 34
1.000000000000000E+20
 15
-1.000000000000000E+20
 25
-1.000000000000000E+20
 35
-1.000000000000000E+20
146
0.0
 13
0.0
 23
0.0
 33
0.0
 16
1.0
 26
0.0
 36
0.0
 17
0.0
 27
1.0
 37
0.0
 76
     0
330
BF3
  0
LAYOUT
  5
BFA
102
{ACAD_XDICTIONARY
360
2F1A
102
}
102
{ACAD_REACTORS
330
BF0
102
}
330
BF0
100
AcDbPlotSettings
  1

  2
\\GBCFS501\GBCPR502
  4

  6

 40
0.0
 41
0.0
 42
0.0
 43
0.0
 44
0.0
 45
0.0
 46
0.0
 47
0.0
 48
0.0
 49
0.0
140
0.0
141
0.0
142
1.0
143
1.0
 70
  1712
 72
     0
 73
     0
 74
     0
  7

 75
     0
147
1.0
148
0.0
149
0.0
100
AcDbLayout
  1
Model
 70
     1
 71
     0
 10
0.0
 20
0.0
 11
12.0
 21
9.0
 12
0.0
 22
0.0
 32
0.0
 14
0.0
 24
0.0
 34
0.0
 15
0.0
 25
0.0
 35
0.0
146
0.0
 13
0.0
 23
0.0
 33
0.0
 16
1.0
 26
0.0
 36
0.0
 17
0.0
 27
1.0
 37
0.0
 76
     0
330
BF7
331
2E63
  0
MATERIAL
  5
2E6F
102
{ACAD_XDICTIONARY
360
2E70
102
}
102
{ACAD_REACTORS
330
BF1
102
}
330
BF1
100
AcDbMaterial
  1
ByBlock
 72
     0
 43
0.0208333333333333
 43
0.0
 43
0.0
 43
0.0
 43
0.0
 43
0.0208333333333333
 43
0.0
 43
0.0
 43
0.0
 43
0.0
 43
1.0
 43
0.0
 43
0.0
 43
0.0
 43
0.0
 43
1.0
 77
     0
 47
0.0208333333333333
 47
0.0
 47
0.0
 47
0.0
 47
0.0
 47
0.0208333333333333
 47
0.0
 47
0.0
 47
0.0
 47
0.0
 47
1.0
 47
0.0
 47
0.0
 47
0.0
 47
0.0
 47
1.0
171
     0
 49
0.0208333333333333
 49
0.0
 49
0.0
 49
0.0
 49
0.0
 49
0.0208333333333333
 49
0.0
 49
0.0
 49
0.0
 49
0.0
 49
1.0
 49
0.0
 49
0.0
 49
0.0
 49
0.0
 49
1.0
175
     0
142
0.0208333333333333
142
0.0
142
0.0
142
0.0
142
0.0
142
0.0208333333333333
142
0.0
142
0.0
142
0.0
142
0.0
142
1.0
142
0.0
142
0.0
142
0.0
142
0.0
142
1.0
179
     0
144
0.0208333333333333
144
0.0
144
0.0
144
0.0
144
0.0
144
0.0208333333333333
144
0.0
144
0.0
144
0.0
144
0.0
144
1.0
144
0.0
144
0.0
144
0.0
144
0.0
144
1.0
147
0.0208333333333333
147
0.0
147
0.0
147
0.0
147
0.0
147
0.0208333333333333
147
0.0
147
0.0
147
0.0
147
0.0
147
1.0
147
0.0
147
0.0
147
0.0
147
0.0
147
1.0
  0
MATERIAL
  5
2E67
102
{ACAD_XDICTIONARY
360
2E68
102
}
102
{ACAD_REACTORS
330
BF1
102
}
330
BF1
100
AcDbMaterial
  1
ByLayer
 72
     0
 43
0.0208333333333333
 43
0.0
 43
0.0
 43
0.0
 43
0.0
 43
0.0208333333333333
 43
0.0
 43
0.0
 43
0.0
 43
0.0
 43
1.0
 43
0.0
 43
0.0
 43
0.0
 43
0.0
 43
1.0
 77
     0
 47
0.0208333333333333
 47
0.0
 47
0.0
 47
0.0
 47
0.0
 47
0.0208333333333333
 47
0.0
 47
0.0
 47
0.0
 47
0.0
 47
1.0
 47
0.0
 47
0.0
 47
0.0
 47
0.0
 47
1.0
171
     0
 49
0.0208333333333333
 49
0.0
 49
0.0
 49
0.0
 49
0.0
 49
0.0208333333333333
 49
0.0
 49
0.0
 49
0.0
 49
0.0
 49
1.0
 49
0.0
 49
0.0
 49
0.0
 49
0.0
 49
1.0
175
     0
142
0.0208333333333333
142
0.0
142
0.0
142
0.0
142
0.0
142
0.0208333333333333
142
0.0
142
0.0
142
0.0
142
0.0
142
1.0
142
0.0
142
0.0
142
0.0
142
0.0
142
1.0
179
     0
144
0.0208333333333333
144
0.0
144
0.0
144
0.0
144
0.0
144
0.0208333333333333
144
0.0
144
0.0
144
0.0
144
0.0
144
1.0
144
0.0
144
0.0
144
0.0
144
0.0
144
1.0
147
0.0208333333333333
147
0.0
147
0.0
147
0.0
147
0.0
147
0.0208333333333333
147
0.0
147
0.0
147
0.0
147
0.0
147
1.0
147
0.0
147
0.0
147
0.0
147
0.0
147
1.0
  0
MATERIAL
  5
2E77
102
{ACAD_XDICTIONARY
360
2E78
102
}
102
{ACAD_REACTORS
330
BF1
102
}
330
BF1
100
AcDbMaterial
  1
Global
 72
     0
 43
0.0208333333333333
 43
0.0
 43
0.0
 43
0.0
 43
0.0
 43
0.0208333333333333
 43
0.0
 43
0.0
 43
0.0
 43
0.0
 43
1.0
 43
0.0
 43
0.0
 43
0.0
 43
0.0
 43
1.0
 77
     0
 47
0.0208333333333333
 47
0.0
 47
0.0
 47
0.0
 47
0.0
 47
0.0208333333333333
 47
0.0
 47
0.0
 47
0.0
 47
0.0
 47
1.0
 47
0.0
 47
0.0
 47
0.0
 47
0.0
 47
1.0
171
     0
 49
0.0208333333333333
 49
0.0
 49
0.0
 49
0.0
 49
0.0
 49
0.0208333333333333
 49
0.0
 49
0.0
 49
0.0
 49
0.0
 49
1.0
 49
0.0
 49
0.0
 49
0.0
 49
0.0
 49
1.0
175
     0
142
0.0208333333333333
142
0.0
142
0.0
142
0.0
142
0.0
142
0.0208333333333333
142
0.0
142
0.0
142
0.0
142
0.0
142
1.0
142
0.0
142
0.0
142
0.0
142
0.0
142
1.0
179
     0
144
0.0208333333333333
144
0.0
144
0.0
144
0.0
144
0.0
144
0.0208333333333333
144
0.0
144
0.0
144
0.0
144
0.0
144
1.0
144
0.0
144
0.0
144
0.0
144
0.0
144
1.0
147
0.0208333333333333
147
0.0
147
0.0
147
0.0
147
0.0
147
0.0208333333333333
147
0.0
147
0.0
147
0.0
147
0.0
147
1.0
147
0.0
147
0.0
147
0.0
147
0.0
147
1.0
  0
MLEADERSTYLE
  5
2EAD
102
{ACAD_REACTORS
330
2EAC
102
}
330
2EAC
100
AcDbMLeaderStyle
170
     2
171
     1
172
     0
 90
        2
 40
0.0
 41
0.0
173
     1
 91
-1056964608
340
BEA
 92
       -2
290
     1
 42
0.09
291
     1
 43
0.36
  3
Standard
 44
0.18
300

342
BE8
174
     1
178
     6
175
     1
176
     0
 93
-1056964608
 45
0.18
292
     0
297
     0
 46
0.18
 94
-1056964608
 47
1.0
 49
1.0
140
1.0
293
     1
141
0.0
294
     1
177
     0
142
1.0
295
     0
296
     0
143
0.125
1001
ACAD_MLEADERVER
1070
     2
  0
MLINESTYLE
  5
BEE
102
{ACAD_REACTORS
330
BED
102
}
330
BED
100
AcDbMlineStyle
  2
STANDARD
 70
     0
  3

 62
   256
 51
90.0
 52
90.0
 71
     2
 49
0.5
 62
   256
  6
BYLAYER
 49
-0.5
 62
   256
  6
BYLAYER
  0
ACDBPLACEHOLDER
  5
BE6
102
{ACAD_REACTORS
330
BE5
102
}
330
BE5
  0
SCALE
  5
2E9B
102
{ACAD_REACTORS
330
2E9A
102
}
330
2E9A
100
AcDbScale
 70
     0
300
1:1
140
1.0
141
1.0
290
     1
  0
SCALE
  5
2E9C
102
{ACAD_REACTORS
330
2E9A
102
}
330
2E9A
100
AcDbScale
 70
     0
300
1/128" = 1'-0"
140
0.0078125
141
12.0
290
     0
  0
SCALE
  5
2E9D
102
{ACAD_REACTORS
330
2E9A
102
}
330
2E9A
100
AcDbScale
 70
     0
300
1/64" = 1'-0"
140
0.015625
141
12.0
290
     0
  0
SCALE
  5
2E9E
102
{ACAD_REACTORS
330
2E9A
102
}
330
2E9A
100
AcDbScale
 70
     0
300
1/32" = 1'-0"
140
0.03125
141
12.0
290
     0
  0
SCALE
  5
2E9F
102
{ACAD_REACTORS
330
2E9A
102
}
330
2E9A
100
AcDbScale
 70
     0
300
1/16" = 1'-0"
140
0.0625
141
12.0
290
     0
  0
SCALE
  5
2EA0
102
{ACAD_REACTORS
330
2E9A
102
}
330
2E9A
100
AcDbScale
 70
     0
300
3/32" = 1'-0"
140
0.09375
141
12.0
290
     0
  0
SCALE
  5
2EA1
102
{ACAD_REACTORS
330
2E9A
102
}
330
2E9A
100
AcDbScale
 70
     0
300
1/8" = 1'-0"
140
0.125
141
12.0
290
     0
  0
SCALE
  5
2EA2
102
{ACAD_REACTORS
330
2E9A
102
}
330
2E9A
100
AcDbScale
 70
     0
300
3/16" = 1'-0"
140
0.1875
141
12.0
290
     0
  0
SCALE
  5
2EA3
102
{ACAD_REACTORS
330
2E9A
102
}
330
2E9A
100
AcDbScale
 70
     0
300
1/4" = 1'-0"
140
0.25
141
12.0
290
     0
  0
SCALE
  5
2EA4
102
{ACAD_REACTORS
330
2E9A
102
}
330
2E9A
100
AcDbScale
 70
     0
300
3/8" = 1'-0"
140
0.375
141
12.0
290
     0
  0
SCALE
  5
2EA5
102
{ACAD_REACTORS
330
2E9A
102
}
330
2E9A
100
AcDbScale
 70
     0
300
1/2" = 1'-0"
140
0.5
141
12.0
290
     0
  0
SCALE
  5
2EA6
102
{ACAD_REACTORS
330
2E9A
102
}
330
2E9A
100
AcDbScale
 70
     0
300
3/4" = 1'-0"
140
0.75
141
12.0
290
     0
  0
SCALE
  5
2EA7
102
{ACAD_REACTORS
330
2E9A
102
}
330
2E9A
100
AcDbScale
 70
     0
300
1" = 1'-0"
140
1.0
141
12.0
290
     0
  0
SCALE
  5
2EA8
102
{ACAD_REACTORS
330
2E9A
102
}
330
2E9A
100
AcDbScale
 70
     0
300
1-1/2" = 1'-0"
140
1.5
141
12.0
290
     0
  0
SCALE
  5
2EA9
102
{ACAD_REACTORS
330
2E9A
102
}
330
2E9A
100
AcDbScale
 70
     0
300
3" = 1'-0"
140
3.0
141
12.0
290
     0
  0
SCALE
  5
2EAA
102
{ACAD_REACTORS
330
2E9A
102
}
330
2E9A
100
AcDbScale
 70
     0
300
6" = 1'-0"
140
6.0
141
12.0
290
     0
  0
SCALE
  5
2EAB
102
{ACAD_REACTORS
330
2E9A
102
}
330
2E9A
100
AcDbScale
 70
     0
300
1'-0" = 1'-0"
140
12.0
141
12.0
290
     0
  0
ACDBSECTIONVIEWSTYLE
  5
2EB0
102
{ACAD_REACTORS
330
2EAE
102
}
330
2EAE
100
AcDbModelDocViewStyle
 70
     0
  3
Imperial24
290
     0
100
AcDbSectionViewStyle
 70
     0
 71
     0
 90
       78
 71
     1
340
BE8
 40
0.24
340
0
340
0
 40
0.24
300
I, O, Q, S, X, Z
 40
0.48
 90
        3
 40
0.18
 90
        1
 71
     2
340
2EAF
 90
       25
340
BEC
 90
       50
 40
0.24
 40
0.0
 40
0.24
 71
     3
340
BE8
 40
0.24
 90
        1
 40
0.75
 90
        1
300
%<\AcVar ViewType \f "%tc1">% %<\AcVar ViewSectionStartId>%-%<\AcVar ViewSectionEndId>%\PSCALE %<\AcVar ViewScale \f "%sn">%
 71
     4
300
ANSI31
 40
1.0
 90
        0
290
     0
290
     0
 90
        6
 40
0.0
 40
1.570796326794896
 40
0.2617993877991494
 40
1.308996938995747
 40
-0.2617993877991494
 40
1.832595714594046
  0
TABLESTYLE
  5
2E99
102
{ACAD_XDICTIONARY
360
2F14
102
}
102
{ACAD_REACTORS
330
2E98
102
}
330
2E98
100
AcDbTableStyle
  3
Standard
 70
     0
 71
     0
 40
0.06
 41
0.06
280
     0
281
     0
  7
STANDARD
140
0.18
170
     2
 62
     0
 63
     7
283
     0
274
    -2
284
     1
 64
     0
275
    -2
285
     1
 65
     0
276
    -2
286
     1
 66
     0
277
    -2
287
     1
 67
     0
278
    -2
288
     1
 68
     0
279
    -2
289
     1
 69
     0
  7
STANDARD
140
0.25
170
     5
 62
     0
 63
     7
283
     0
274
    -2
284
     1
 64
     0
275
    -2
285
     1
 65
     0
276
    -2
286
     1
 66
     0
277
    -2
287
     1
 67
     0
278
    -2
288
     1
 68
     0
279
    -2
289
     1
 69
     0
  7
STANDARD
140
0.18
170
     5
 62
     0
 63
     7
283
     0
274
    -2
284
     1
 64
     0
275
    -2
285
     1
 65
     0
276
    -2
286
     1
 66
     0
277
    -2
287
     1
 67
     0
278
    -2
288
     1
 68
     0
279
    -2
289
     1
 69
     0
  0
VISUALSTYLE
  5
2E85
102
{ACAD_XDICTIONARY
360
2F29
102
}
102
{ACAD_REACTORS
330
2E7F
102
}
330
2E7F
100
AcDbVisualStyle
  2
2dWireframe
 70
     4
 71
     0
 72
     2
 73
     0
 90
        0
 40
-0.6
 41
-30.0
 62
     5
 63
     7
 74
     1
 91
        4
 64
     7
 65
   257
 75
     1
175
     1
 42
1.0
 92
        0
 66
   257
 43
1.0
 76
     1
 77
     6
 78
     2
 67
     7
 79
     5
170
     0
171
     0
290
     0
174
     0
 93
        1
 44
0.0
173
     0
291
     0
 45
0.0
1001
ACAD
1000
AcDbSavedByObjectVersion
1070
     0
  0
VISUALSTYLE
  5
2E84
102
{ACAD_XDICTIONARY
360
2F27
102
}
102
{ACAD_REACTORS
330
2E7F
102
}
330
2E7F
100
AcDbVisualStyle
  2
Basic
 70
     7
 71
     1
 72
     0
 73
     1
 90
        0
 40
-0.6
 41
-30.0
 62
     5
 63
     7
 74
     0
 91
        4
 64
     7
 65
   257
 75
     1
175
     1
 42
1.0
 92
        8
 66
     7
 43
1.0
 76
     1
 77
     6
 78
     2
 67
     7
 79
     5
170
     0
171
     0
290
     0
174
     0
 93
        1
 44
0.0
173
     0
291
     1
 45
0.0
1001
ACAD
1000
AcDbSavedByObjectVersion
1070
     0
  0
VISUALSTYLE
  5
2E8B
102
{ACAD_XDICTIONARY
360
2F35
102
}
102
{ACAD_REACTORS
330
2E7F
102
}
330
2E7F
100
AcDbVisualStyle
  2
Brighten
 70
    12
 71
     2
 72
     2
 73
     0
 90
        0
 40
-0.6
 41
-30.0
 62
     5
 63
     7
 74
     1
 91
        4
 64
     7
 65
   257
 75
     1
175
     1
 42
1.0
 92
        8
 66
     7
 43
1.0
 76
     1
 77
     6
 78
     2
 67
     7
 79
     5
170
     0
171
     0
290
     0
174
     0
 93
        1
 44
50.0
173
     0
291
     1
 45
0.0
1001
ACAD
1000
AcDbSavedByObjectVersion
1070
     0
  0
VISUALSTYLE
  5
2E8F
102
{ACAD_XDICTIONARY
360
2F3D
102
}
102
{ACAD_REACTORS
330
2E7F
102
}
330
2E7F
100
AcDbVisualStyle
  2
ColorChange
 70
    16
 71
     2
 72
     2
 73
     3
 90
        0
 40
-0.6
 41
-30.0
 62
     5
 63
     8
 74
     1
 91
        4
 64
     7
 65
   257
 75
     1
175
     1
 42
1.0
 92
        8
 66
     8
 43
1.0
 76
     1
 77
     6
 78
     2
 67
     7
 79
     5
170
     0
171
     0
290
     0
174
     0
 93
        1
 44
0.0
173
     0
291
     1
 45
0.0
1001
ACAD
1000
AcDbSavedByObjectVersion
1070
     0
  0
VISUALSTYLE
  5
2E88
102
{ACAD_XDICTIONARY
360
2F2F
102
}
102
{ACAD_REACTORS
330
2E7F
102
}
330
2E7F
100
AcDbVisualStyle
  2
Conceptual
 70
     9
 71
     3
 72
     2
 73
     0
 90
        0
 40
-0.6
 41
-30.0
 62
     5
 63
     7
 74
     2
 91
        2
 64
     7
 65
   257
 75
     1
175
     1
 42
179.0
 92
        8
 66
     7
 43
1.0
 76
     1
 77
     6
 78
     2
 67
     7
 79
     3
170
     0
171
     0
290
     0
174
     0
 93
        1
 44
0.0
173
     0
291
     0
 45
0.0
1001
ACAD
1000
AcDbSavedByObjectVersion
1070
     0
  0
VISUALSTYLE
  5
2E8A
102
{ACAD_XDICTIONARY
360
2F33
102
}
102
{ACAD_REACTORS
330
2E7F
102
}
330
2E7F
100
AcDbVisualStyle
  2
Dim
 70
    11
 71
     2
 72
     2
 73
     0
 90
        0
 40
-0.6
 41
-30.0
 62
     5
 63
     7
 74
     1
 91
        4
 64
     7
 65
   257
 75
     1
175
     1
 42
1.0
 92
        8
 66
     7
 43
1.0
 76
     1
 77
     6
 78
     2
 67
     7
 79
     5
170
     0
171
     0
290
     0
174
     0
 93
        1
 44
-50.0
173
     0
291
     1
 45
0.0
1001
ACAD
1000
AcDbSavedByObjectVersion
1070
     0
  0
VISUALSTYLE
  5
2E97
102
{ACAD_XDICTIONARY
360
2F4D
102
}
102
{ACAD_REACTORS
330
2E7F
102
}
330
2E7F
100
AcDbVisualStyle
  2
EdgeColorOff
 70
    22
 71
     2
 72
     2
 73
     0
 90
        0
 40
-0.6
 41
-30.0
 62
     5
 63
     7
 74
     1
 91
        4
 64
     7
 65
   257
 75
     1
175
     1
 42
1.0
 92
        8
 66
     7
 43
1.0
 76
     1
 77
     6
 78
     2
 67
     7
 79
     5
170
     0
171
     0
290
     0
174
     0
 93
        1
 44
0.0
173
     0
291
     1
 45
0.0
1001
ACAD
1000
AcDbSavedByObjectVersion
1070
     0
  0
VISUALSTYLE
  5
2E8E
102
{ACAD_XDICTIONARY
360
2F3B
102
}
102
{ACAD_REACTORS
330
2E7F
102
}
330
2E7F
100
AcDbVisualStyle
  2
Facepattern
 70
    15
 71
     2
 72
     2
 73
     0
 90
        0
 40
-0.6
 41
-30.0
 62
     5
 63
     7
 74
     1
 91
        4
 64
     7
 65
   257
 75
     1
175
     1
 42
1.0
 92
        8
 66
     7
 43
1.0
 76
     1
 77
     6
 78
     2
 67
     7
 79
     5
170
     0
171
     0
290
     0
174
     0
 93
        1
 44
0.0
173
     0
291
     1
 45
0.0
1001
ACAD
1000
AcDbSavedByObjectVersion
1070
     0
  0
VISUALSTYLE
  5
2E80
102
{ACAD_XDICTIONARY
360
2F1F
102
}
102
{ACAD_REACTORS
330
2E7F
102
}
330
2E7F
100
AcDbVisualStyle
  2
Flat
 70
     0
 71
     2
 72
     1
 73
     1
 90
        2
 40
-0.6
 41
30.0
 62
     5
 63
     7
 74
     0
 91
        0
 64
     7
 65
   257
 75
     1
175
     1
 42
1.0
 92
        8
 66
     7
 43
1.0
 76
     1
 77
     6
 78
     2
 67
     7
 79
     5
170
     0
171
     0
290
     0
174
     0
 93
       13
 44
0.0
173
     0
291
     1
 45
0.0
1001
ACAD
1000
AcDbSavedByObjectVersion
1070
     0
  0
VISUALSTYLE
  5
2E81
102
{ACAD_XDICTIONARY
360
2F21
102
}
102
{ACAD_REACTORS
330
2E7F
102
}
330
2E7F
100
AcDbVisualStyle
  2
FlatWithEdges
 70
     1
 71
     2
 72
     1
 73
     1
 90
        2
 40
-0.6
 41
30.0
 62
     5
 63
     7
 74
     1
 91
        0
 64
     7
 65
   257
 75
     1
175
     1
 42
1.0
 92
        0
 66
   257
 43
1.0
 76
     1
 77
     6
 78
     2
 67
     7
 79
     5
170
     0
171
     0
290
     0
174
     0
 93
       13
 44
0.0
173
     0
291
     1
 45
0.0
1001
ACAD
1000
AcDbSavedByObjectVersion
1070
     0
  0
VISUALSTYLE
  5
2E82
102
{ACAD_XDICTIONARY
360
2F23
102
}
102
{ACAD_REACTORS
330
2E7F
102
}
330
2E7F
100
AcDbVisualStyle
  2
Gouraud
 70
     2
 71
     2
 72
     2
 73
     1
 90
        2
 40
-0.6
 41
30.0
 62
     5
 63
     7
 74
     0
 91
        0
 64
     7
 65
   257
 75
     1
175
     1
 42
1.0
 92
        0
 66
     7
 43
1.0
 76
     1
 77
     6
 78
     2
 67
     7
 79
     5
170
     0
171
     0
290
     0
174
     0
 93
       13
 44
0.0
173
     0
291
     1
 45
0.0
1001
ACAD
1000
AcDbSavedByObjectVersion
1070
     0
  0
VISUALSTYLE
  5
2E83
102
{ACAD_XDICTIONARY
360
2F25
102
}
102
{ACAD_REACTORS
330
2E7F
102
}
330
2E7F
100
AcDbVisualStyle
  2
GouraudWithEdges
 70
     3
 71
     2
 72
     2
 73
     1
 90
        2
 40
-0.6
 41
30.0
 62
     5
 63
     7
 74
     1
 91
        0
 64
     7
 65
   257
 75
     1
175
     1
 42
1.0
 92
        0
 66
   257
 43
1.0
 76
     1
 77
     6
 78
     2
 67
     7
 79
     5
170
     0
171
     0
290
     0
174
     0
 93
       13
 44
0.0
173
     0
291
     1
 45
0.0
1001
ACAD
1000
AcDbSavedByObjectVersion
1070
     0
  0
VISUALSTYLE
  5
2E87
102
{ACAD_XDICTIONARY
360
2F2D
102
}
102
{ACAD_REACTORS
330
2E7F
102
}
330
2E7F
100
AcDbVisualStyle
  2
Hidden
 70
     6
 71
     1
 72
     2
 73
     2
 90
        0
 40
-0.6
 41
-30.0
 62
     5
 63
     7
 74
     2
 91
        2
 64
     7
 65
   257
 75
     2
175
     1
 42
40.0
 92
        0
 66
   257
 43
1.0
 76
     1
 77
     6
 78
     2
 67
     7
 79
     3
170
     0
171
     0
290
     0
174
     0
 93
        1
 44
0.0
173
     0
291
     0
 45
0.0
1001
ACAD
1000
AcDbSavedByObjectVersion
1070
     0
  0
VISUALSTYLE
  5
2E95
102
{ACAD_XDICTIONARY
360
2F49
102
}
102
{ACAD_REACTORS
330
2E7F
102
}
330
2E7F
100
AcDbVisualStyle
  2
JitterOff
 70
    20
 71
     2
 72
     2
 73
     0
 90
        0
 40
-0.6
 41
-30.0
 62
     5
 63
     7
 74
     1
 91
        4
 64
     7
 65
   257
 75
     1
175
     1
 42
1.0
 92
       10
 66
     7
 43
1.0
 76
     1
 77
     6
 78
     2
 67
     7
 79
     5
170
     0
171
     0
290
     0
174
     0
 93
        1
 44
0.0
173
     0
291
     1
 45
0.0
1001
ACAD
1000
AcDbSavedByObjectVersion
1070
     0
  0
VISUALSTYLE
  5
2E8D
102
{ACAD_XDICTIONARY
360
2F39
102
}
102
{ACAD_REACTORS
330
2E7F
102
}
330
2E7F
100
AcDbVisualStyle
  2
Linepattern
 70
    14
 71
     2
 72
     2
 73
     0
 90
        0
 40
-0.6
 41
-30.0
 62
     5
 63
     7
 74
     1
 91
        4
 64
     7
 65
   257
 75
     7
175
     7
 42
1.0
 92
        8
 66
     7
 43
1.0
 76
     1
 77
     6
 78
     2
 67
     7
 79
     5
170
     0
171
     0
290
     0
174
     0
 93
        1
 44
0.0
173
     0
291
     1
 45
0.0
1001
ACAD
1000
AcDbSavedByObjectVersion
1070
     0
  0
VISUALSTYLE
  5
2E96
102
{ACAD_XDICTIONARY
360
2F4B
102
}
102
{ACAD_REACTORS
330
2E7F
102
}
330
2E7F
100
AcDbVisualStyle
  2
OverhangOff
 70
    21
 71
     2
 72
     2
 73
     0
 90
        0
 40
-0.6
 41
-30.0
 62
     5
 63
     7
 74
     1
 91
        4
 64
     7
 65
   257
 75
     1
175
     1
 42
1.0
 92
        9
 66
     7
 43
1.0
 76
     1
 77
     6
 78
     2
 67
     7
 79
     5
170
     0
171
     0
290
     0
174
     0
 93
        1
 44
0.0
173
     0
291
     1
 45
0.0
1001
ACAD
1000
AcDbSavedByObjectVersion
1070
     0
  0
VISUALSTYLE
  5
2E89
102
{ACAD_XDICTIONARY
360
2F31
102
}
102
{ACAD_REACTORS
330
2E7F
102
}
330
2E7F
100
AcDbVisualStyle
  2
Realistic
 70
     8
 71
     2
 72
     3
 73
     0
 90
        2
 40
-0.6
 41
30.0
 62
     5
 63
     7
 74
     0
 91
        0
 64
     7
 65
   257
 75
     1
175
     1
 42
1.0
 92
        8
 66
   257
 43
1.0
 76
     1
 77
     6
 78
     2
 67
     7
 79
     3
170
     0
171
     0
290
     0
174
     0
 93
       13
 44
0.0
173
     0
291
     0
 45
0.0
1001
ACAD
1000
AcDbSavedByObjectVersion
1070
     0
  0
VISUALSTYLE
  5
2E94
102
{ACAD_XDICTIONARY
360
2F47
102
}
102
{ACAD_REACTORS
330
2E7F
102
}
330
2E7F
100
AcDbVisualStyle
  2
Shaded
 70
    27
 71
     2
 72
     2
 73
     1
 90
        2
 40
-0.6
 41
30.0
 62
     5
 63
     7
 74
     0
 91
        4
 64
     7
 65
   257
 75
     1
175
     1
 42
1.0
 92
        8
 66
   257
 43
1.0
 76
     1
 77
     6
 78
     2
 67
     8
 79
     3
170
     0
171
     0
290
     0
174
     0
 93
        5
 44
0.0
173
     0
291
     0
 45
0.0
1001
ACAD
1000
AcDbSavedByObjectVersion
1070
     0
  0
VISUALSTYLE
  5
2E93
102
{ACAD_XDICTIONARY
360
2F45
102
}
102
{ACAD_REACTORS
330
2E7F
102
}
330
2E7F
100
AcDbVisualStyle
  2
Shaded with edges
 70
    26
 71
     2
 72
     2
 73
     1
 90
        2
 40
-0.6
 41
30.0
 62
     5
 63
     7
 74
     1
 91
       10
 64
     7
 65
   257
 75
     2
175
     1
 42
1.0
 92
        8
 66
   257
 43
1.0
 76
     1
 77
     6
 78
     2
 67
     7
 79
     3
170
     0
171
     0
290
     0
174
     0
 93
        5
 44
0.0
173
     0
291
     0
 45
0.0
1001
ACAD
1000
AcDbSavedByObjectVersion
1070
     0
  0
VISUALSTYLE
  5
2E90
102
{ACAD_XDICTIONARY
360
2F3F
102
}
102
{ACAD_REACTORS
330
2E7F
102
}
330
2E7F
100
AcDbVisualStyle
  2
Shades of Gray
 70
    23
 71
     2
 72
     2
 73
     3
 90
        0
 40
-0.6
 41
-30.0
 62
     5
 63
     7
 74
     2
 91
        2
 64
     7
 65
     7
 75
     1
175
     1
 42
40.0
 92
        8
 66
     7
 43
1.0
 76
     1
 77
     6
 78
     2
 67
     7
 79
     3
170
     0
171
     0
290
     0
174
     0
 93
        1
 44
0.0
173
     0
291
     0
 45
0.0
1001
ACAD
1000
AcDbSavedByObjectVersion
1070
     0
  0
VISUALSTYLE
  5
2E91
102
{ACAD_XDICTIONARY
360
2F41
102
}
102
{ACAD_REACTORS
330
2E7F
102
}
330
2E7F
100
AcDbVisualStyle
  2
Sketchy
 70
    24
 71
     1
 72
     2
 73
     2
 90
        0
 40
-0.6
 41
-30.0
 62
     5
 63
     7
 74
     2
 91
        2
 64
     7
 65
     7
 75
     1
175
     1
 42
40.0
 92
       11
 66
     7
 43
1.0
 76
     1
 77
     6
 78
     2
 67
     7
 79
     6
170
     0
171
     0
290
     0
174
     0
 93
        1
 44
0.0
173
     0
291
     0
 45
0.0
1001
ACAD
1000
AcDbSavedByObjectVersion
1070
     0
  0
VISUALSTYLE
  5
2E8C
102
{ACAD_XDICTIONARY
360
2F37
102
}
102
{ACAD_REACTORS
330
2E7F
102
}
330
2E7F
100
AcDbVisualStyle
  2
Thicken
 70
    13
 71
     2
 72
     2
 73
     0
 90
        0
 40
-0.6
 41
-30.0
 62
     5
 63
     7
 74
     1
 91
        4
 64
     7
 65
   257
 75
     1
175
     1
 42
1.0
 92
       12
 66
     7
 43
1.0
 76
     1
 77
     6
 78
     2
 67
     7
 79
     5
170
     0
171
     0
290
     0
174
     0
 93
        1
 44
0.0
173
     0
291
     1
 45
0.0
1001
ACAD
1000
AcDbSavedByObjectVersion
1070
     0
  0
VISUALSTYLE
  5
2E86
102
{ACAD_XDICTIONARY
360
2F2B
102
}
102
{ACAD_REACTORS
330
2E7F
102
}
330
2E7F
100
AcDbVisualStyle
  2
Wireframe
 70
     5
 71
     0
 72
     2
 73
     0
 90
        0
 40
-0.6
 41
-30.0
 62
     5
 63
     7
 74
     1
 91
        4
 64
     7
 65
   257
 75
     1
175
     1
 42
1.0
 92
        0
 66
   257
 43
1.0
 76
     1
 77
     6
 78
     2
 67
     7
 79
     3
170
     0
171
     0
290
     0
174
     0
 93
        1
 44
0.0
173
     0
291
     0
 45
0.0
1001
ACAD
1000
AcDbSavedByObjectVersion
1070
     0
  0
VISUALSTYLE
  5
2E92
102
{ACAD_XDICTIONARY
360
2F43
102
}
102
{ACAD_REACTORS
330
2E7F
102
}
330
2E7F
100
AcDbVisualStyle
  2
X-Ray
 70
    25
 71
     2
 72
     2
 73
     1
 90
        1
 40
0.5
 41
-30.0
 62
     5
 63
     7
 74
     1
 91
        0
 64
     7
 65
   257
 75
     1
175
     1
 42
1.0
 92
        8
 66
     7
 43
1.0
 76
     1
 77
     6
 78
     2
 67
     7
 79
     3
170
     0
171
     0
290
     0
174
     0
 93
       13
 44
0.0
173
     0
291
     0
 45
0.0
1001
ACAD
1000
AcDbSavedByObjectVersion
1070
     0
  0
DICTIONARYVAR
  5
2F0E
102
{ACAD_REACTORS
330
2F09
102
}
330
2F09
100
DictionaryVariables
280
     0
  1
1:1
  0
DICTIONARYVAR
  5
2F0B
102
{ACAD_REACTORS
330
2F09
102
}
330
2F09
100
DictionaryVariables
280
     0
  1
STANDARD
  0
DICTIONARYVAR
  5
2F0A
102
{ACAD_REACTORS
330
2F09
102
}
330
2F09
100
DictionaryVariables
280
     0
  1
STANDARD
  0
DICTIONARYVAR
  5
2F0C
102
{ACAD_REACTORS
330
2F09
102
}
330
2F09
100
DictionaryVariables
280
     0
  1
Imperial24
  0
DICTIONARYVAR
  5
2F0D
102
{ACAD_REACTORS
330
2F09
102
}
330
2F09
100
DictionaryVariables
280
     0
  1
Imperial24
  0
DICTIONARYVAR
  5
2F12
102
{ACAD_REACTORS
330
2F09
102
}
330
2F09
100
DictionaryVariables
280
     0
  1
1
  0
DICTIONARYVAR
  5
2F10
102
{ACAD_REACTORS
330
2F09
102
}
330
2F09
100
DictionaryVariables
280
     0
  1
0
  0
DICTIONARYVAR
  5
2F0F
102
{ACAD_REACTORS
330
2F09
102
}
330
2F09
100
DictionaryVariables
280
     0
  1
127
  0
DICTIONARYVAR
  5
2F11
102
{ACAD_REACTORS
330
2F09
102
}
330
2F09
100
DictionaryVariables
280
     0
  1
0
  0
XRECORD
  5
2F08
102
{ACAD_REACTORS
330
2F06
102
}
330
2F06
100
AcDbXrecord
280
     1
  0
DICTIONARY
  5
2F18
330
BF6
100
AcDbDictionary
280
     1
281
     1
  3
ACAD_XREC_ROUNDTRIP
360
2F19
  0
DICTIONARY
  5
2F1A
330
BFA
100
AcDbDictionary
280
     1
281
     1
  3
ACAD_XREC_ROUNDTRIP
360
2F1B
  0
DICTIONARY
  5
2E70
330
2E6F
100
AcDbDictionary
280
     1
281
     1
  3
ACAD_XREC_ROUNDTRIP
360
2F1D
  3
BUMPTILE
360
2E72
  3
DIFFUSETILE
360
2E71
  3
OPACITYTILE
360
2E75
  3
REFLECTIONTILE
360
2E74
  3
REFRACTIONTILE
360
2E76
  3
SPECULARTILE
360
2E73
  0
DICTIONARY
  5
2E68
330
2E67
100
AcDbDictionary
280
     1
281
     1
  3
ACAD_XREC_ROUNDTRIP
360
2F1C
  3
BUMPTILE
360
2E6A
  3
DIFFUSETILE
360
2E69
  3
OPACITYTILE
360
2E6D
  3
REFLECTIONTILE
360
2E6C
  3
REFRACTIONTILE
360
2E6E
  3
SPECULARTILE
360
2E6B
  0
DICTIONARY
  5
2E78
330
2E77
100
AcDbDictionary
280
     1
281
     1
  3
ACAD_XREC_ROUNDTRIP
360
2F1E
  3
BUMPTILE
360
2E7A
  3
DIFFUSETILE
360
2E79
  3
OPACITYTILE
360
2E7D
  3
REFLECTIONTILE
360
2E7C
  3
REFRACTIONTILE
360
2E7E
  3
SPECULARTILE
360
2E7B
  0
DICTIONARY
  5
2F14
330
2E99
100
AcDbDictionary
280
     1
281
     1
  3
ACAD_ROUNDTRIP_2008_TABLESTYLE_CELLSTYLEMAP
360
2F15
  3
ACAD_XREC_ROUNDTRIP
360
2F4F
  0
DICTIONARY
  5
2F29
330
2E85
100
AcDbDictionary
280
     1
281
     1
  3
ACAD_XREC_ROUNDTRIP
360
2F2A
  0
DICTIONARY
  5
2F27
330
2E84
100
AcDbDictionary
280
     1
281
     1
  3
ACAD_XREC_ROUNDTRIP
360
2F28
  0
DICTIONARY
  5
2F35
330
2E8B
100
AcDbDictionary
280
     1
281
     1
  3
ACAD_XREC_ROUNDTRIP
360
2F36
  0
DICTIONARY
  5
2F3D
330
2E8F
100
AcDbDictionary
280
     1
281
     1
  3
ACAD_XREC_ROUNDTRIP
360
2F3E
  0
DICTIONARY
  5
2F2F
330
2E88
100
AcDbDictionary
280
     1
281
     1
  3
ACAD_XREC_ROUNDTRIP
360
2F30
  0
DICTIONARY
  5
2F33
330
2E8A
100
AcDbDictionary
280
     1
281
     1
  3
ACAD_XREC_ROUNDTRIP
360
2F34
  0
DICTIONARY
  5
2F4D
330
2E97
100
AcDbDictionary
280
     1
281
     1
  3
ACAD_XREC_ROUNDTRIP
360
2F4E
  0
DICTIONARY
  5
2F3B
330
2E8E
100
AcDbDictionary
280
     1
281
     1
  3
ACAD_XREC_ROUNDTRIP
360
2F3C
  0
DICTIONARY
  5
2F1F
330
2E80
100
AcDbDictionary
280
     1
281
     1
  3
ACAD_XREC_ROUNDTRIP
360
2F20
  0
DICTIONARY
  5
2F21
330
2E81
100
AcDbDictionary
280
     1
281
     1
  3
ACAD_XREC_ROUNDTRIP
360
2F22
  0
DICTIONARY
  5
2F23
330
2E82
100
AcDbDictionary
280
     1
281
     1
  3
ACAD_XREC_ROUNDTRIP
360
2F24
  0
DICTIONARY
  5
2F25
330
2E83
100
AcDbDictionary
280
     1
281
     1
  3
ACAD_XREC_ROUNDTRIP
360
2F26
  0
DICTIONARY
  5
2F2D
330
2E87
100
AcDbDictionary
280
     1
281
     1
  3
ACAD_XREC_ROUNDTRIP
360
2F2E
  0
DICTIONARY
  5
2F49
330
2E95
100
AcDbDictionary
280
     1
281
     1
  3
ACAD_XREC_ROUNDTRIP
360
2F4A
  0
DICTIONARY
  5
2F39
330
2E8D
100
AcDbDictionary
280
     1
281
     1
  3
ACAD_XREC_ROUNDTRIP
360
2F3A
  0
DICTIONARY
  5
2F4B
330
2E96
100
AcDbDictionary
280
     1
281
     1
  3
ACAD_XREC_ROUNDTRIP
360
2F4C
  0
DICTIONARY
  5
2F31
330
2E89
100
AcDbDictionary
280
     1
281
     1
  3
ACAD_XREC_ROUNDTRIP
360
2F32
  0
DICTIONARY
  5
2F47
330
2E94
100
AcDbDictionary
280
     1
281
     1
  3
ACAD_XREC_ROUNDTRIP
360
2F48
  0
DICTIONARY
  5
2F45
330
2E93
100
AcDbDictionary
280
     1
281
     1
  3
ACAD_XREC_ROUNDTRIP
360
2F46
  0
DICTIONARY
  5
2F3F
330
2E90
100
AcDbDictionary
280
     1
281
     1
  3
ACAD_XREC_ROUNDTRIP
360
2F40
  0
DICTIONARY
  5
2F41
330
2E91
100
AcDbDictionary
280
     1
281
     1
  3
ACAD_XREC_ROUNDTRIP
360
2F42
  0
DICTIONARY
  5
2F37
330
2E8C
100
AcDbDictionary
280
     1
281
     1
  3
ACAD_XREC_ROUNDTRIP
360
2F38
  0
DICTIONARY
  5
2F2B
330
2E86
100
AcDbDictionary
280
     1
281
     1
  3
ACAD_XREC_ROUNDTRIP
360
2F2C
  0
DICTIONARY
  5
2F43
330
2E92
100
AcDbDictionary
280
     1
281
     1
  3
ACAD_XREC_ROUNDTRIP
360
2F44
  0
XRECORD
  5
2F19
102
{ACAD_REACTORS
330
2F18
102
}
330
2F18
100
AcDbXrecord
280
     1
102
SHADEPLOT
 70
     0
102
SHADEPLOTRESLEVEL
 70
     2
102
SHADEPLOTCUSTOMDPI
 70
   300
  0
XRECORD
  5
2F1B
102
{ACAD_REACTORS
330
2F1A
102
}
330
2F1A
100
AcDbXrecord
280
     1
102
SHADEPLOT
 70
     0
102
SHADEPLOTRESLEVEL
 70
     2
102
SHADEPLOTCUSTOMDPI
 70
   300
  0
XRECORD
  5
2F1D
102
{ACAD_REACTORS
330
2E70
102
}
330
2E70
100
AcDbXrecord
280
     1
102
MATERIAL
148
0.0
149
0.0
149
0.0
 93
        0
 94
      127
282
     0
 72
     0
 77
     0
171
     0
175
     0
179
     0
273
     0
  0
XRECORD
  5
2E72
102
{ACAD_REACTORS
330
2E70
102
}
330
2E70
100
AcDbXrecord
280
     1
270
     1
271
     1
  0
XRECORD
  5
2E71
102
{ACAD_REACTORS
330
2E70
102
}
330
2E70
100
AcDbXrecord
280
     1
270
     1
271
     1
  0
XRECORD
  5
2E75
102
{ACAD_REACTORS
330
2E70
102
}
330
2E70
100
AcDbXrecord
280
     1
270
     1
271
     1
  0
XRECORD
  5
2E74
102
{ACAD_REACTORS
330
2E70
102
}
330
2E70
100
AcDbXrecord
280
     1
270
     1
271
     1
  0
XRECORD
  5
2E76
102
{ACAD_REACTORS
330
2E70
102
}
330
2E70
100
AcDbXrecord
280
     1
270
     1
271
     1
  0
XRECORD
  5
2E73
102
{ACAD_REACTORS
330
2E70
102
}
330
2E70
100
AcDbXrecord
280
     1
270
     1
271
     1
  0
XRECORD
  5
2F1C
102
{ACAD_REACTORS
330
2E68
102
}
330
2E68
100
AcDbXrecord
280
     1
102
MATERIAL
148
0.0
149
0.0
149
0.0
 93
        0
 94
      127
282
     0
 72
     0
 77
     0
171
     0
175
     0
179
     0
273
     0
  0
XRECORD
  5
2E6A
102
{ACAD_REACTORS
330
2E68
102
}
330
2E68
100
AcDbXrecord
280
     1
270
     1
271
     1
  0
XRECORD
  5
2E69
102
{ACAD_REACTORS
330
2E68
102
}
330
2E68
100
AcDbXrecord
280
     1
270
     1
271
     1
  0
XRECORD
  5
2E6D
102
{ACAD_REACTORS
330
2E68
102
}
330
2E68
100
AcDbXrecord
280
     1
270
     1
271
     1
  0
XRECORD
  5
2E6C
102
{ACAD_REACTORS
330
2E68
102
}
330
2E68
100
AcDbXrecord
280
     1
270
     1
271
     1
  0
XRECORD
  5
2E6E
102
{ACAD_REACTORS
330
2E68
102
}
330
2E68
100
AcDbXrecord
280
     1
270
     1
271
     1
  0
XRECORD
  5
2E6B
102
{ACAD_REACTORS
330
2E68
102
}
330
2E68
100
AcDbXrecord
280
     1
270
     1
271
     1
  0
XRECORD
  5
2F1E
102
{ACAD_REACTORS
330
2E78
102
}
330
2E78
100
AcDbXrecord
280
     1
102
MATERIAL
148
0.0
149
0.0
149
0.0
 93
        0
 94
      127
282
     0
 72
     0
 77
     0
171
     0
175
     0
179
     0
273
     0
  0
XRECORD
  5
2E7A
102
{ACAD_REACTORS
330
2E78
102
}
330
2E78
100
AcDbXrecord
280
     1
270
     1
271
     1
  0
XRECORD
  5
2E79
102
{ACAD_REACTORS
330
2E78
102
}
330
2E78
100
AcDbXrecord
280
     1
270
     1
271
     1
  0
XRECORD
  5
2E7D
102
{ACAD_REACTORS
330
2E78
102
}
330
2E78
100
AcDbXrecord
280
     1
270
     1
271
     1
  0
XRECORD
  5
2E7C
102
{ACAD_REACTORS
330
2E78
102
}
330
2E78
100
AcDbXrecord
280
     1
270
     1
271
     1
  0
XRECORD
  5
2E7E
102
{ACAD_REACTORS
330
2E78
102
}
330
2E78
100
AcDbXrecord
280
     1
270
     1
271
     1
  0
XRECORD
  5
2E7B
102
{ACAD_REACTORS
330
2E78
102
}
330
2E78
100
AcDbXrecord
280
     1
270
     1
271
     1
  0
CELLSTYLEMAP
  5
2F15
102
{ACAD_REACTORS
330
2F14
102
}
330
2F14
100
AcDbCellStyleMap
 90
        3
300
CELLSTYLE
  1
TABLEFORMAT_BEGIN
 90
        5
170
     1
 91
        0
 92
    32768
 62
   257
 93
        1
300
CONTENTFORMAT
  1
CONTENTFORMAT_BEGIN
 90
        0
 91
        0
 92
      512
 93
        0
300

 40
0.0
140
1.0
 94
        5
 62
     0
340
BE8
144
0.25
309
CONTENTFORMAT_END
171
     0
 94
        0
309
TABLEFORMAT_END
  1
CELLSTYLE_BEGIN
 90
        1
 91
        1
300
_TITLE
309
CELLSTYLE_END
300
CELLSTYLE
  1
TABLEFORMAT_BEGIN
 90
        5
170
     1
 91
        0
 92
        0
 62
   257
 93
        1
300
CONTENTFORMAT
  1
CONTENTFORMAT_BEGIN
 90
        0
 91
        0
 92
      512
 93
        0
300

 40
0.0
140
1.0
 94
        5
 62
     0
340
BE8
144
0.18
309
CONTENTFORMAT_END
171
     0
 94
        0
309
TABLEFORMAT_END
  1
CELLSTYLE_BEGIN
 90
        2
 91
        1
300
_HEADER
309
CELLSTYLE_END
300
CELLSTYLE
  1
TABLEFORMAT_BEGIN
 90
        5
170
     1
 91
        0
 92
        0
 62
   257
 93
        1
300
CONTENTFORMAT
  1
CONTENTFORMAT_BEGIN
 90
        0
 91
        0
 92
      512
 93
        0
300

 40
0.0
140
1.0
 94
        2
 62
     0
340
BE8
144
0.18
309
CONTENTFORMAT_END
171
     0
 94
        0
309
TABLEFORMAT_END
  1
CELLSTYLE_BEGIN
 90
        3
 91
        2
300
_DATA
309
CELLSTYLE_END
  0
XRECORD
  5
2F4F
102
{ACAD_REACTORS
330
2F14
102
}
330
2F14
100
AcDbXrecord
280
     1
102
ACAD_ROUNDTRIP_PRE2007_TABLESTYLE
 90
      512
 91
        0
  1

 92
      512
 93
        0
  2

 94
      512
 95
        0
  3

  0
XRECORD
  5
2F2A
102
{ACAD_REACTORS
330
2F29
102
}
330
2F29
100
AcDbXrecord
280
     1
102
RTVSPost2010Prop28
280
     1
102
RTVSPost2010PropOp28
 70
     1
102
RTVSPost2010Prop29
280
     1
102
RTVSPost2010PropOp29
 70
     1
102
RTVSPost2010Prop30
280
     0
102
RTVSPost2010PropOp30
 70
     1
102
RTVSPost2010Prop31
280
     0
102
RTVSPost2010PropOp31
 70
     1
102
RTVSPost2010Prop32
280
     0
102
RTVSPost2010PropOp32
 70
     1
102
RTVSPost2010Prop33
280
     0
102
RTVSPost2010PropOp33
 70
     1
102
RTVSPost2010Prop34
280
     0
102
RTVSPost2010PropOp34
 70
     1
102
RTVSPost2010Prop35
280
     0
102
RTVSPost2010PropOp35
 70
     1
102
RTVSPost2010Prop36
280
     0
102
RTVSPost2010PropOp36
 70
     1
102
RTVSPost2010Prop37
 90
       50
102
RTVSPost2010PropOp37
 70
     1
102
RTVSPost2010Prop38
140
0.0
102
RTVSPost2010PropOp38
 70
     1
102
RTVSPost2010Prop39
140
1.0
102
RTVSPost2010PropOp39
 70
     1
102
RTVSPost2010Prop40
 90
        0
102
RTVSPost2010PropOp40
 70
     1
102
RTVSPost2010Prop41ColorIndex
 90
       18
102
RTVSPost2010Prop41ColorRGB
 90
        0
102
RTVSPost2010PropOp41
 70
     1
102
RTVSPost2010Prop42
 90
       50
102
RTVSPost2010PropOp42
 70
     1
102
RTVSPost2010Prop43
 90
        3
102
RTVSPost2010PropOp43
 70
     1
102
RTVSPost2010Prop44ColorIndex
 90
        5
102
RTVSPost2010Prop44ColorRGB
 90
      255
102
RTVSPost2010PropOp44
 70
     1
102
RTVSPost2010Prop45
280
     0
102
RTVSPost2010PropOp45
 70
     1
102
RTVSPost2010Prop46
 90
       50
102
RTVSPost2010PropOp46
 70
     1
102
RTVSPost2010Prop47
 90
       50
102
RTVSPost2010PropOp47
 70
     1
102
RTVSPost2010Prop48
 90
       50
102
RTVSPost2010PropOp48
 70
     1
102
RTVSPost2010Prop49
280
     0
102
RTVSPost2010PropOp49
 70
     1
102
RTVSPost2010Prop50
 90
       50
102
RTVSPost2010PropOp50
 70
     1
102
RTVSPost2010Prop51ColorIndex
 90
      256
102
RTVSPost2010Prop51ColorRGB
 90
-16777216
102
RTVSPost2010PropOp51
 70
     0
102
RTVSPost2010Prop52
140
1.0
102
RTVSPost2010PropOp52
 70
     0
102
RTVSPost2010Prop53
 90
        2
102
RTVSPost2010PropOp53
 70
     1
102
RTVSPost2010Prop54
  1
strokes_ogs.tif
102
RTVSPost2010PropOp54
 70
     1
102
RTVSPost2010Prop55
280
     0
102
RTVSPost2010PropOp55
 70
     1
102
RTVSPost2010Prop56
140
1.0
102
RTVSPost2010PropOp56
 70
     1
102
RTVSPost2010Prop57
140
1.0
102
RTVSPost2010PropOp57
 70
     1
102
RTVSPropertyOp0
 70
     1
102
RTVSPropertyOp1
 70
     1
102
RTVSPropertyOp2
 70
     1
102
RTVSPropertyOp3
 70
     1
102
RTVSPropertyOp4
 70
     1
102
RTVSPropertyOp5
 70
     1
102
RTVSPropertyOp6
 70
     1
102
RTVSPropertyOp7
 70
     1
102
RTVSPropertyOp8
 70
     1
102
RTVSPropertyOp9
 70
     1
102
RTVSPropertyOp10
 70
     1
102
RTVSPropertyOp11
 70
     1
102
RTVSPropertyOp12
 70
     1
102
RTVSPropertyOp13
 70
     1
102
RTVSPropertyOp14
 70
     1
102
RTVSPropertyOp15
 70
     1
102
RTVSPropertyOp16
 70
     1
102
RTVSPropertyOp17
 70
     1
102
RTVSPropertyOp18
 70
     1
102
RTVSPropertyOp19
 70
     1
102
RTVSPropertyOp20
 70
     1
102
RTVSPropertyOp21
 70
     1
102
RTVSPropertyOp22
 70
     1
102
RTVSPropertyOp23
 70
     1
102
RTVSPropertyOp24
 70
     1
102
RTVSPropertyOp25
 70
     1
102
RTVSPropertyOp26
 70
     1
102
RTVSPropertyOp27
 70
     1
102
RTVSPropertyOp28
 70
     1
102
RTVSPropertyOp29
 70
     1
102
RTVSPropertyOp30
 70
     1
102
RTVSPropertyOp31
 70
     1
102
RTVSPropertyOp32
 70
     1
102
RTVSPropertyOp33
 70
     1
102
RTVSPropertyOp34
 70
     1
102
RTVSPropertyOp35
 70
     1
102
RTVSPropertyOp36
 70
     1
102
RTVSPropertyOp37
 70
     1
102
RTVSPropertyOp38
 70
     1
102
RTVSPropertyOp39
 70
     1
102
RTVSPropertyOp40
 70
     1
102
RTVSPropertyOp41
 70
     1
102
RTVSPropertyOp42
 70
     1
102
RTVSPropertyOp43
 70
     1
102
RTVSPropertyOp44
 70
     1
102
RTVSPropertyOp45
 70
     1
102
RTVSPropertyOp46
 70
     1
102
RTVSPropertyOp47
 70
     1
102
RTVSPropertyOp48
 70
     1
102
RTVSPropertyOp49
 70
     1
102
RTVSPropertyOp50
 70
     1
102
RTVSPropertyOp51
 70
     0
102
RTVSPropertyOp52
 70
     0
102
RTVSPropertyOp53
 70
     1
102
RTVSPropertyOp54
 70
     1
102
RTVSPropertyOp55
 70
     1
102
RTVSPropertyOp56
 70
     1
102
RTVSPropertyOp57
 70
     1
102
RTVSPropertyOp58
 70
     1
102
RTVSPropertyOp59
 70
     1
102
RTVSPropertyOp60
 70
     1
102
RTVSPropertyOp61
 70
     1
102
RTVSPropertyOp62
 70
     1
  0
XRECORD
  5
2F28
102
{ACAD_REACTORS
330
2F27
102
}
330
2F27
100
AcDbXrecord
280
     1
102
RTVSPost2010Prop28
280
     0
102
RTVSPost2010PropOp28
 70
     1
102
RTVSPost2010Prop29
280
     1
102
RTVSPost2010PropOp29
 70
     1
102
RTVSPost2010Prop30
280
     1
102
RTVSPost2010PropOp30
 70
     1
102
RTVSPost2010Prop31
280
     0
102
RTVSPost2010PropOp31
 70
     1
102
RTVSPost2010Prop32
280
     0
102
RTVSPost2010PropOp32
 70
     1
102
RTVSPost2010Prop33
280
     0
102
RTVSPost2010PropOp33
 70
     1
102
RTVSPost2010Prop34
280
     0
102
RTVSPost2010PropOp34
 70
     1
102
RTVSPost2010Prop35
280
     0
102
RTVSPost2010PropOp35
 70
     1
102
RTVSPost2010Prop36
280
     0
102
RTVSPost2010PropOp36
 70
     1
102
RTVSPost2010Prop37
 90
       50
102
RTVSPost2010PropOp37
 70
     1
102
RTVSPost2010Prop38
140
0.0
102
RTVSPost2010PropOp38
 70
     1
102
RTVSPost2010Prop39
140
1.0
102
RTVSPost2010PropOp39
 70
     1
102
RTVSPost2010Prop40
 90
        0
102
RTVSPost2010PropOp40
 70
     1
102
RTVSPost2010Prop41ColorIndex
 90
       18
102
RTVSPost2010Prop41ColorRGB
 90
        0
102
RTVSPost2010PropOp41
 70
     1
102
RTVSPost2010Prop42
 90
       50
102
RTVSPost2010PropOp42
 70
     1
102
RTVSPost2010Prop43
 90
        3
102
RTVSPost2010PropOp43
 70
     1
102
RTVSPost2010Prop44ColorIndex
 90
        5
102
RTVSPost2010Prop44ColorRGB
 90
      255
102
RTVSPost2010PropOp44
 70
     1
102
RTVSPost2010Prop45
280
     0
102
RTVSPost2010PropOp45
 70
     1
102
RTVSPost2010Prop46
 90
       50
102
RTVSPost2010PropOp46
 70
     1
102
RTVSPost2010Prop47
 90
       50
102
RTVSPost2010PropOp47
 70
     1
102
RTVSPost2010Prop48
 90
       50
102
RTVSPost2010PropOp48
 70
     1
102
RTVSPost2010Prop49
280
     0
102
RTVSPost2010PropOp49
 70
     1
102
RTVSPost2010Prop50
 90
       50
102
RTVSPost2010PropOp50
 70
     1
102
RTVSPost2010Prop51ColorIndex
 90
      256
102
RTVSPost2010Prop51ColorRGB
 90
-16777216
102
RTVSPost2010PropOp51
 70
     0
102
RTVSPost2010Prop52
140
1.0
102
RTVSPost2010PropOp52
 70
     0
102
RTVSPost2010Prop53
 90
        2
102
RTVSPost2010PropOp53
 70
     1
102
RTVSPost2010Prop54
  1
strokes_ogs.tif
102
RTVSPost2010PropOp54
 70
     1
102
RTVSPost2010Prop55
280
     0
102
RTVSPost2010PropOp55
 70
     1
102
RTVSPost2010Prop56
140
1.0
102
RTVSPost2010PropOp56
 70
     1
102
RTVSPost2010Prop57
140
1.0
102
RTVSPost2010PropOp57
 70
     1
102
RTVSPropertyOp0
 70
     1
102
RTVSPropertyOp1
 70
     1
102
RTVSPropertyOp2
 70
     1
102
RTVSPropertyOp3
 70
     1
102
RTVSPropertyOp4
 70
     1
102
RTVSPropertyOp5
 70
     1
102
RTVSPropertyOp6
 70
     1
102
RTVSPropertyOp7
 70
     1
102
RTVSPropertyOp8
 70
     1
102
RTVSPropertyOp9
 70
     1
102
RTVSPropertyOp10
 70
     1
102
RTVSPropertyOp11
 70
     1
102
RTVSPropertyOp12
 70
     1
102
RTVSPropertyOp13
 70
     1
102
RTVSPropertyOp14
 70
     1
102
RTVSPropertyOp15
 70
     1
102
RTVSPropertyOp16
 70
     1
102
RTVSPropertyOp17
 70
     1
102
RTVSPropertyOp18
 70
     1
102
RTVSPropertyOp19
 70
     1
102
RTVSPropertyOp20
 70
     1
102
RTVSPropertyOp21
 70
     1
102
RTVSPropertyOp22
 70
     1
102
RTVSPropertyOp23
 70
     1
102
RTVSPropertyOp24
 70
     1
102
RTVSPropertyOp25
 70
     1
102
RTVSPropertyOp26
 70
     1
102
RTVSPropertyOp27
 70
     1
102
RTVSPropertyOp28
 70
     1
102
RTVSPropertyOp29
 70
     1
102
RTVSPropertyOp30
 70
     1
102
RTVSPropertyOp31
 70
     1
102
RTVSPropertyOp32
 70
     1
102
RTVSPropertyOp33
 70
     1
102
RTVSPropertyOp34
 70
     1
102
RTVSPropertyOp35
 70
     1
102
RTVSPropertyOp36
 70
     1
102
RTVSPropertyOp37
 70
     1
102
RTVSPropertyOp38
 70
     1
102
RTVSPropertyOp39
 70
     1
102
RTVSPropertyOp40
 70
     1
102
RTVSPropertyOp41
 70
     1
102
RTVSPropertyOp42
 70
     1
102
RTVSPropertyOp43
 70
     1
102
RTVSPropertyOp44
 70
     1
102
RTVSPropertyOp45
 70
     1
102
RTVSPropertyOp46
 70
     1
102
RTVSPropertyOp47
 70
     1
102
RTVSPropertyOp48
 70
     1
102
RTVSPropertyOp49
 70
     1
102
RTVSPropertyOp50
 70
     1
102
RTVSPropertyOp51
 70
     0
102
RTVSPropertyOp52
 70
     0
102
RTVSPropertyOp53
 70
     1
102
RTVSPropertyOp54
 70
     1
102
RTVSPropertyOp55
 70
     1
102
RTVSPropertyOp56
 70
     1
102
RTVSPropertyOp57
 70
     1
102
RTVSPropertyOp58
 70
     1
102
RTVSPropertyOp59
 70
     1
102
RTVSPropertyOp60
 70
     1
102
RTVSPropertyOp61
 70
     1
102
RTVSPropertyOp62
 70
     1
  0
XRECORD
  5
2F36
102
{ACAD_REACTORS
330
2F35
102
}
330
2F35
100
AcDbXrecord
280
     1
102
RTVSPost2010Prop28
280
     0
102
RTVSPost2010PropOp28
 70
     1
102
RTVSPost2010Prop29
280
     1
102
RTVSPost2010PropOp29
 70
     1
102
RTVSPost2010Prop30
280
     1
102
RTVSPost2010PropOp30
 70
     1
102
RTVSPost2010Prop31
280
     0
102
RTVSPost2010PropOp31
 70
     1
102
RTVSPost2010Prop32
280
     0
102
RTVSPost2010PropOp32
 70
     1
102
RTVSPost2010Prop33
280
     0
102
RTVSPost2010PropOp33
 70
     1
102
RTVSPost2010Prop34
280
     0
102
RTVSPost2010PropOp34
 70
     1
102
RTVSPost2010Prop35
280
     0
102
RTVSPost2010PropOp35
 70
     1
102
RTVSPost2010Prop36
280
     0
102
RTVSPost2010PropOp36
 70
     1
102
RTVSPost2010Prop37
 90
       50
102
RTVSPost2010PropOp37
 70
     1
102
RTVSPost2010Prop38
140
0.0
102
RTVSPost2010PropOp38
 70
     1
102
RTVSPost2010Prop39
140
1.0
102
RTVSPost2010PropOp39
 70
     1
102
RTVSPost2010Prop40
 90
        0
102
RTVSPost2010PropOp40
 70
     1
102
RTVSPost2010Prop41ColorIndex
 90
       18
102
RTVSPost2010Prop41ColorRGB
 90
        0
102
RTVSPost2010PropOp41
 70
     1
102
RTVSPost2010Prop42
 90
       50
102
RTVSPost2010PropOp42
 70
     1
102
RTVSPost2010Prop43
 90
        3
102
RTVSPost2010PropOp43
 70
     1
102
RTVSPost2010Prop44ColorIndex
 90
        5
102
RTVSPost2010Prop44ColorRGB
 90
      255
102
RTVSPost2010PropOp44
 70
     1
102
RTVSPost2010Prop45
280
     0
102
RTVSPost2010PropOp45
 70
     1
102
RTVSPost2010Prop46
 90
       50
102
RTVSPost2010PropOp46
 70
     1
102
RTVSPost2010Prop47
 90
       50
102
RTVSPost2010PropOp47
 70
     1
102
RTVSPost2010Prop48
 90
       50
102
RTVSPost2010PropOp48
 70
     1
102
RTVSPost2010Prop49
280
     0
102
RTVSPost2010PropOp49
 70
     1
102
RTVSPost2010Prop50
 90
       50
102
RTVSPost2010PropOp50
 70
     1
102
RTVSPost2010Prop51ColorIndex
 90
      256
102
RTVSPost2010Prop51ColorRGB
 90
-16777216
102
RTVSPost2010PropOp51
 70
     0
102
RTVSPost2010Prop52
140
1.0
102
RTVSPost2010PropOp52
 70
     0
102
RTVSPost2010Prop53
 90
        2
102
RTVSPost2010PropOp53
 70
     1
102
RTVSPost2010Prop54
  1
strokes_ogs.tif
102
RTVSPost2010PropOp54
 70
     1
102
RTVSPost2010Prop55
280
     0
102
RTVSPost2010PropOp55
 70
     1
102
RTVSPost2010Prop56
140
1.0
102
RTVSPost2010PropOp56
 70
     1
102
RTVSPost2010Prop57
140
1.0
102
RTVSPost2010PropOp57
 70
     1
102
RTVSPropertyOp0
 70
     1
102
RTVSPropertyOp1
 70
     1
102
RTVSPropertyOp2
 70
     1
102
RTVSPropertyOp3
 70
     1
102
RTVSPropertyOp4
 70
     1
102
RTVSPropertyOp5
 70
     1
102
RTVSPropertyOp6
 70
     1
102
RTVSPropertyOp7
 70
     1
102
RTVSPropertyOp8
 70
     1
102
RTVSPropertyOp9
 70
     1
102
RTVSPropertyOp10
 70
     1
102
RTVSPropertyOp11
 70
     1
102
RTVSPropertyOp12
 70
     1
102
RTVSPropertyOp13
 70
     1
102
RTVSPropertyOp14
 70
     1
102
RTVSPropertyOp15
 70
     1
102
RTVSPropertyOp16
 70
     1
102
RTVSPropertyOp17
 70
     1
102
RTVSPropertyOp18
 70
     1
102
RTVSPropertyOp19
 70
     1
102
RTVSPropertyOp20
 70
     1
102
RTVSPropertyOp21
 70
     1
102
RTVSPropertyOp22
 70
     1
102
RTVSPropertyOp23
 70
     1
102
RTVSPropertyOp24
 70
     1
102
RTVSPropertyOp25
 70
     1
102
RTVSPropertyOp26
 70
     1
102
RTVSPropertyOp27
 70
     1
102
RTVSPropertyOp28
 70
     1
102
RTVSPropertyOp29
 70
     1
102
RTVSPropertyOp30
 70
     1
102
RTVSPropertyOp31
 70
     1
102
RTVSPropertyOp32
 70
     1
102
RTVSPropertyOp33
 70
     1
102
RTVSPropertyOp34
 70
     1
102
RTVSPropertyOp35
 70
     1
102
RTVSPropertyOp36
 70
     1
102
RTVSPropertyOp37
 70
     1
102
RTVSPropertyOp38
 70
     1
102
RTVSPropertyOp39
 70
     1
102
RTVSPropertyOp40
 70
     1
102
RTVSPropertyOp41
 70
     1
102
RTVSPropertyOp42
 70
     1
102
RTVSPropertyOp43
 70
     1
102
RTVSPropertyOp44
 70
     1
102
RTVSPropertyOp45
 70
     1
102
RTVSPropertyOp46
 70
     1
102
RTVSPropertyOp47
 70
     1
102
RTVSPropertyOp48
 70
     1
102
RTVSPropertyOp49
 70
     1
102
RTVSPropertyOp50
 70
     1
102
RTVSPropertyOp51
 70
     0
102
RTVSPropertyOp52
 70
     0
102
RTVSPropertyOp53
 70
     1
102
RTVSPropertyOp54
 70
     1
102
RTVSPropertyOp55
 70
     1
102
RTVSPropertyOp56
 70
     1
102
RTVSPropertyOp57
 70
     1
102
RTVSPropertyOp58
 70
     1
102
RTVSPropertyOp59
 70
     1
102
RTVSPropertyOp60
 70
     1
102
RTVSPropertyOp61
 70
     1
102
RTVSPropertyOp62
 70
     1
  0
XRECORD
  5
2F3E
102
{ACAD_REACTORS
330
2F3D
102
}
330
2F3D
100
AcDbXrecord
280
     1
102
RTVSPost2010Prop28
280
     0
102
RTVSPost2010PropOp28
 70
     1
102
RTVSPost2010Prop29
280
     1
102
RTVSPost2010PropOp29
 70
     1
102
RTVSPost2010Prop30
280
     1
102
RTVSPost2010PropOp30
 70
     1
102
RTVSPost2010Prop31
280
     0
102
RTVSPost2010PropOp31
 70
     1
102
RTVSPost2010Prop32
280
     0
102
RTVSPost2010PropOp32
 70
     1
102
RTVSPost2010Prop33
280
     0
102
RTVSPost2010PropOp33
 70
     1
102
RTVSPost2010Prop34
280
     0
102
RTVSPost2010PropOp34
 70
     1
102
RTVSPost2010Prop35
280
     0
102
RTVSPost2010PropOp35
 70
     1
102
RTVSPost2010Prop36
280
     0
102
RTVSPost2010PropOp36
 70
     1
102
RTVSPost2010Prop37
 90
       50
102
RTVSPost2010PropOp37
 70
     1
102
RTVSPost2010Prop38
140
0.0
102
RTVSPost2010PropOp38
 70
     1
102
RTVSPost2010Prop39
140
1.0
102
RTVSPost2010PropOp39
 70
     1
102
RTVSPost2010Prop40
 90
        0
102
RTVSPost2010PropOp40
 70
     1
102
RTVSPost2010Prop41ColorIndex
 90
       18
102
RTVSPost2010Prop41ColorRGB
 90
        0
102
RTVSPost2010PropOp41
 70
     1
102
RTVSPost2010Prop42
 90
       50
102
RTVSPost2010PropOp42
 70
     1
102
RTVSPost2010Prop43
 90
        3
102
RTVSPost2010PropOp43
 70
     1
102
RTVSPost2010Prop44ColorIndex
 90
        5
102
RTVSPost2010Prop44ColorRGB
 90
      255
102
RTVSPost2010PropOp44
 70
     1
102
RTVSPost2010Prop45
280
     0
102
RTVSPost2010PropOp45
 70
     1
102
RTVSPost2010Prop46
 90
       50
102
RTVSPost2010PropOp46
 70
     1
102
RTVSPost2010Prop47
 90
       50
102
RTVSPost2010PropOp47
 70
     1
102
RTVSPost2010Prop48
 90
       50
102
RTVSPost2010PropOp48
 70
     1
102
RTVSPost2010Prop49
280
     0
102
RTVSPost2010PropOp49
 70
     1
102
RTVSPost2010Prop50
 90
       50
102
RTVSPost2010PropOp50
 70
     1
102
RTVSPost2010Prop51ColorIndex
 90
      256
102
RTVSPost2010Prop51ColorRGB
 90
-16777216
102
RTVSPost2010PropOp51
 70
     0
102
RTVSPost2010Prop52
140
1.0
102
RTVSPost2010PropOp52
 70
     0
102
RTVSPost2010Prop53
 90
        2
102
RTVSPost2010PropOp53
 70
     1
102
RTVSPost2010Prop54
  1
strokes_ogs.tif
102
RTVSPost2010PropOp54
 70
     1
102
RTVSPost2010Prop55
280
     0
102
RTVSPost2010PropOp55
 70
     1
102
RTVSPost2010Prop56
140
1.0
102
RTVSPost2010PropOp56
 70
     1
102
RTVSPost2010Prop57
140
1.0
102
RTVSPost2010PropOp57
 70
     1
102
RTVSPropertyOp0
 70
     1
102
RTVSPropertyOp1
 70
     1
102
RTVSPropertyOp2
 70
     1
102
RTVSPropertyOp3
 70
     1
102
RTVSPropertyOp4
 70
     1
102
RTVSPropertyOp5
 70
     1
102
RTVSPropertyOp6
 70
     1
102
RTVSPropertyOp7
 70
     1
102
RTVSPropertyOp8
 70
     1
102
RTVSPropertyOp9
 70
     1
102
RTVSPropertyOp10
 70
     1
102
RTVSPropertyOp11
 70
     1
102
RTVSPropertyOp12
 70
     1
102
RTVSPropertyOp13
 70
     1
102
RTVSPropertyOp14
 70
     1
102
RTVSPropertyOp15
 70
     1
102
RTVSPropertyOp16
 70
     1
102
RTVSPropertyOp17
 70
     1
102
RTVSPropertyOp18
 70
     1
102
RTVSPropertyOp19
 70
     1
102
RTVSPropertyOp20
 70
     1
102
RTVSPropertyOp21
 70
     1
102
RTVSPropertyOp22
 70
     1
102
RTVSPropertyOp23
 70
     1
102
RTVSPropertyOp24
 70
     1
102
RTVSPropertyOp25
 70
     1
102
RTVSPropertyOp26
 70
     1
102
RTVSPropertyOp27
 70
     1
102
RTVSPropertyOp28
 70
     1
102
RTVSPropertyOp29
 70
     1
102
RTVSPropertyOp30
 70
     1
102
RTVSPropertyOp31
 70
     1
102
RTVSPropertyOp32
 70
     1
102
RTVSPropertyOp33
 70
     1
102
RTVSPropertyOp34
 70
     1
102
RTVSPropertyOp35
 70
     1
102
RTVSPropertyOp36
 70
     1
102
RTVSPropertyOp37
 70
     1
102
RTVSPropertyOp38
 70
     1
102
RTVSPropertyOp39
 70
     1
102
RTVSPropertyOp40
 70
     1
102
RTVSPropertyOp41
 70
     1
102
RTVSPropertyOp42
 70
     1
102
RTVSPropertyOp43
 70
     1
102
RTVSPropertyOp44
 70
     1
102
RTVSPropertyOp45
 70
     1
102
RTVSPropertyOp46
 70
     1
102
RTVSPropertyOp47
 70
     1
102
RTVSPropertyOp48
 70
     1
102
RTVSPropertyOp49
 70
     1
102
RTVSPropertyOp50
 70
     1
102
RTVSPropertyOp51
 70
     0
102
RTVSPropertyOp52
 70
     0
102
RTVSPropertyOp53
 70
     1
102
RTVSPropertyOp54
 70
     1
102
RTVSPropertyOp55
 70
     1
102
RTVSPropertyOp56
 70
     1
102
RTVSPropertyOp57
 70
     1
102
RTVSPropertyOp58
 70
     1
102
RTVSPropertyOp59
 70
     1
102
RTVSPropertyOp60
 70
     1
102
RTVSPropertyOp61
 70
     1
102
RTVSPropertyOp62
 70
     1
  0
XRECORD
  5
2F30
102
{ACAD_REACTORS
330
2F2F
102
}
330
2F2F
100
AcDbXrecord
280
     1
102
RTVSPost2010Prop28
280
     0
102
RTVSPost2010PropOp28
 70
     1
102
RTVSPost2010Prop29
280
     1
102
RTVSPost2010PropOp29
 70
     1
102
RTVSPost2010Prop30
280
     1
102
RTVSPost2010PropOp30
 70
     1
102
RTVSPost2010Prop31
280
     0
102
RTVSPost2010PropOp31
 70
     1
102
RTVSPost2010Prop32
280
     0
102
RTVSPost2010PropOp32
 70
     1
102
RTVSPost2010Prop33
280
     0
102
RTVSPost2010PropOp33
 70
     1
102
RTVSPost2010Prop34
280
     0
102
RTVSPost2010PropOp34
 70
     1
102
RTVSPost2010Prop35
280
     0
102
RTVSPost2010PropOp35
 70
     1
102
RTVSPost2010Prop36
280
     0
102
RTVSPost2010PropOp36
 70
     1
102
RTVSPost2010Prop37
 90
       50
102
RTVSPost2010PropOp37
 70
     1
102
RTVSPost2010Prop38
140
0.0
102
RTVSPost2010PropOp38
 70
     1
102
RTVSPost2010Prop39
140
1.0
102
RTVSPost2010PropOp39
 70
     1
102
RTVSPost2010Prop40
 90
        0
102
RTVSPost2010PropOp40
 70
     1
102
RTVSPost2010Prop41ColorIndex
 90
       18
102
RTVSPost2010Prop41ColorRGB
 90
        0
102
RTVSPost2010PropOp41
 70
     1
102
RTVSPost2010Prop42
 90
       50
102
RTVSPost2010PropOp42
 70
     1
102
RTVSPost2010Prop43
 90
        3
102
RTVSPost2010PropOp43
 70
     1
102
RTVSPost2010Prop44ColorIndex
 90
        5
102
RTVSPost2010Prop44ColorRGB
 90
      255
102
RTVSPost2010PropOp44
 70
     1
102
RTVSPost2010Prop45
280
     0
102
RTVSPost2010PropOp45
 70
     1
102
RTVSPost2010Prop46
 90
       50
102
RTVSPost2010PropOp46
 70
     1
102
RTVSPost2010Prop47
 90
       50
102
RTVSPost2010PropOp47
 70
     1
102
RTVSPost2010Prop48
 90
       50
102
RTVSPost2010PropOp48
 70
     1
102
RTVSPost2010Prop49
280
     0
102
RTVSPost2010PropOp49
 70
     1
102
RTVSPost2010Prop50
 90
       50
102
RTVSPost2010PropOp50
 70
     1
102
RTVSPost2010Prop51ColorIndex
 90
      256
102
RTVSPost2010Prop51ColorRGB
 90
-16777216
102
RTVSPost2010PropOp51
 70
     0
102
RTVSPost2010Prop52
140
1.0
102
RTVSPost2010PropOp52
 70
     0
102
RTVSPost2010Prop53
 90
        2
102
RTVSPost2010PropOp53
 70
     1
102
RTVSPost2010Prop54
  1
strokes_ogs.tif
102
RTVSPost2010PropOp54
 70
     1
102
RTVSPost2010Prop55
280
     0
102
RTVSPost2010PropOp55
 70
     1
102
RTVSPost2010Prop56
140
1.0
102
RTVSPost2010PropOp56
 70
     1
102
RTVSPost2010Prop57
140
1.0
102
RTVSPost2010PropOp57
 70
     1
102
RTVSPropertyOp0
 70
     1
102
RTVSPropertyOp1
 70
     1
102
RTVSPropertyOp2
 70
     1
102
RTVSPropertyOp3
 70
     1
102
RTVSPropertyOp4
 70
     1
102
RTVSPropertyOp5
 70
     1
102
RTVSPropertyOp6
 70
     1
102
RTVSPropertyOp7
 70
     1
102
RTVSPropertyOp8
 70
     1
102
RTVSPropertyOp9
 70
     1
102
RTVSPropertyOp10
 70
     1
102
RTVSPropertyOp11
 70
     1
102
RTVSPropertyOp12
 70
     1
102
RTVSPropertyOp13
 70
     1
102
RTVSPropertyOp14
 70
     1
102
RTVSPropertyOp15
 70
     1
102
RTVSPropertyOp16
 70
     1
102
RTVSPropertyOp17
 70
     1
102
RTVSPropertyOp18
 70
     1
102
RTVSPropertyOp19
 70
     1
102
RTVSPropertyOp20
 70
     1
102
RTVSPropertyOp21
 70
     1
102
RTVSPropertyOp22
 70
     1
102
RTVSPropertyOp23
 70
     1
102
RTVSPropertyOp24
 70
     1
102
RTVSPropertyOp25
 70
     1
102
RTVSPropertyOp26
 70
     1
102
RTVSPropertyOp27
 70
     1
102
RTVSPropertyOp28
 70
     1
102
RTVSPropertyOp29
 70
     1
102
RTVSPropertyOp30
 70
     1
102
RTVSPropertyOp31
 70
     1
102
RTVSPropertyOp32
 70
     1
102
RTVSPropertyOp33
 70
     1
102
RTVSPropertyOp34
 70
     1
102
RTVSPropertyOp35
 70
     1
102
RTVSPropertyOp36
 70
     1
102
RTVSPropertyOp37
 70
     1
102
RTVSPropertyOp38
 70
     1
102
RTVSPropertyOp39
 70
     1
102
RTVSPropertyOp40
 70
     1
102
RTVSPropertyOp41
 70
     1
102
RTVSPropertyOp42
 70
     1
102
RTVSPropertyOp43
 70
     1
102
RTVSPropertyOp44
 70
     1
102
RTVSPropertyOp45
 70
     1
102
RTVSPropertyOp46
 70
     1
102
RTVSPropertyOp47
 70
     1
102
RTVSPropertyOp48
 70
     1
102
RTVSPropertyOp49
 70
     1
102
RTVSPropertyOp50
 70
     1
102
RTVSPropertyOp51
 70
     0
102
RTVSPropertyOp52
 70
     0
102
RTVSPropertyOp53
 70
     1
102
RTVSPropertyOp54
 70
     1
102
RTVSPropertyOp55
 70
     1
102
RTVSPropertyOp56
 70
     1
102
RTVSPropertyOp57
 70
     1
102
RTVSPropertyOp58
 70
     1
102
RTVSPropertyOp59
 70
     1
102
RTVSPropertyOp60
 70
     1
102
RTVSPropertyOp61
 70
     1
102
RTVSPropertyOp62
 70
     1
  0
XRECORD
  5
2F34
102
{ACAD_REACTORS
330
2F33
102
}
330
2F33
100
AcDbXrecord
280
     1
102
RTVSPost2010Prop28
280
     0
102
RTVSPost2010PropOp28
 70
     1
102
RTVSPost2010Prop29
280
     1
102
RTVSPost2010PropOp29
 70
     1
102
RTVSPost2010Prop30
280
     1
102
RTVSPost2010PropOp30
 70
     1
102
RTVSPost2010Prop31
280
     0
102
RTVSPost2010PropOp31
 70
     1
102
RTVSPost2010Prop32
280
     0
102
RTVSPost2010PropOp32
 70
     1
102
RTVSPost2010Prop33
280
     0
102
RTVSPost2010PropOp33
 70
     1
102
RTVSPost2010Prop34
280
     0
102
RTVSPost2010PropOp34
 70
     1
102
RTVSPost2010Prop35
280
     0
102
RTVSPost2010PropOp35
 70
     1
102
RTVSPost2010Prop36
280
     0
102
RTVSPost2010PropOp36
 70
     1
102
RTVSPost2010Prop37
 90
       50
102
RTVSPost2010PropOp37
 70
     1
102
RTVSPost2010Prop38
140
0.0
102
RTVSPost2010PropOp38
 70
     1
102
RTVSPost2010Prop39
140
1.0
102
RTVSPost2010PropOp39
 70
     1
102
RTVSPost2010Prop40
 90
        0
102
RTVSPost2010PropOp40
 70
     1
102
RTVSPost2010Prop41ColorIndex
 90
       18
102
RTVSPost2010Prop41ColorRGB
 90
        0
102
RTVSPost2010PropOp41
 70
     1
102
RTVSPost2010Prop42
 90
       50
102
RTVSPost2010PropOp42
 70
     1
102
RTVSPost2010Prop43
 90
        3
102
RTVSPost2010PropOp43
 70
     1
102
RTVSPost2010Prop44ColorIndex
 90
        5
102
RTVSPost2010Prop44ColorRGB
 90
      255
102
RTVSPost2010PropOp44
 70
     1
102
RTVSPost2010Prop45
280
     0
102
RTVSPost2010PropOp45
 70
     1
102
RTVSPost2010Prop46
 90
       50
102
RTVSPost2010PropOp46
 70
     1
102
RTVSPost2010Prop47
 90
       50
102
RTVSPost2010PropOp47
 70
     1
102
RTVSPost2010Prop48
 90
       50
102
RTVSPost2010PropOp48
 70
     1
102
RTVSPost2010Prop49
280
     0
102
RTVSPost2010PropOp49
 70
     1
102
RTVSPost2010Prop50
 90
       50
102
RTVSPost2010PropOp50
 70
     1
102
RTVSPost2010Prop51ColorIndex
 90
      256
102
RTVSPost2010Prop51ColorRGB
 90
-16777216
102
RTVSPost2010PropOp51
 70
     0
102
RTVSPost2010Prop52
140
1.0
102
RTVSPost2010PropOp52
 70
     0
102
RTVSPost2010Prop53
 90
        2
102
RTVSPost2010PropOp53
 70
     1
102
RTVSPost2010Prop54
  1
strokes_ogs.tif
102
RTVSPost2010PropOp54
 70
     1
102
RTVSPost2010Prop55
280
     0
102
RTVSPost2010PropOp55
 70
     1
102
RTVSPost2010Prop56
140
1.0
102
RTVSPost2010PropOp56
 70
     1
102
RTVSPost2010Prop57
140
1.0
102
RTVSPost2010PropOp57
 70
     1
102
RTVSPropertyOp0
 70
     1
102
RTVSPropertyOp1
 70
     1
102
RTVSPropertyOp2
 70
     1
102
RTVSPropertyOp3
 70
     1
102
RTVSPropertyOp4
 70
     1
102
RTVSPropertyOp5
 70
     1
102
RTVSPropertyOp6
 70
     1
102
RTVSPropertyOp7
 70
     1
102
RTVSPropertyOp8
 70
     1
102
RTVSPropertyOp9
 70
     1
102
RTVSPropertyOp10
 70
     1
102
RTVSPropertyOp11
 70
     1
102
RTVSPropertyOp12
 70
     1
102
RTVSPropertyOp13
 70
     1
102
RTVSPropertyOp14
 70
     1
102
RTVSPropertyOp15
 70
     1
102
RTVSPropertyOp16
 70
     1
102
RTVSPropertyOp17
 70
     1
102
RTVSPropertyOp18
 70
     1
102
RTVSPropertyOp19
 70
     1
102
RTVSPropertyOp20
 70
     1
102
RTVSPropertyOp21
 70
     1
102
RTVSPropertyOp22
 70
     1
102
RTVSPropertyOp23
 70
     1
102
RTVSPropertyOp24
 70
     1
102
RTVSPropertyOp25
 70
     1
102
RTVSPropertyOp26
 70
     1
102
RTVSPropertyOp27
 70
     1
102
RTVSPropertyOp28
 70
     1
102
RTVSPropertyOp29
 70
     1
102
RTVSPropertyOp30
 70
     1
102
RTVSPropertyOp31
 70
     1
102
RTVSPropertyOp32
 70
     1
102
RTVSPropertyOp33
 70
     1
102
RTVSPropertyOp34
 70
     1
102
RTVSPropertyOp35
 70
     1
102
RTVSPropertyOp36
 70
     1
102
RTVSPropertyOp37
 70
     1
102
RTVSPropertyOp38
 70
     1
102
RTVSPropertyOp39
 70
     1
102
RTVSPropertyOp40
 70
     1
102
RTVSPropertyOp41
 70
     1
102
RTVSPropertyOp42
 70
     1
102
RTVSPropertyOp43
 70
     1
102
RTVSPropertyOp44
 70
     1
102
RTVSPropertyOp45
 70
     1
102
RTVSPropertyOp46
 70
     1
102
RTVSPropertyOp47
 70
     1
102
RTVSPropertyOp48
 70
     1
102
RTVSPropertyOp49
 70
     1
102
RTVSPropertyOp50
 70
     1
102
RTVSPropertyOp51
 70
     0
102
RTVSPropertyOp52
 70
     0
102
RTVSPropertyOp53
 70
     1
102
RTVSPropertyOp54
 70
     1
102
RTVSPropertyOp55
 70
     1
102
RTVSPropertyOp56
 70
     1
102
RTVSPropertyOp57
 70
     1
102
RTVSPropertyOp58
 70
     1
102
RTVSPropertyOp59
 70
     1
102
RTVSPropertyOp60
 70
     1
102
RTVSPropertyOp61
 70
     1
102
RTVSPropertyOp62
 70
     1
  0
XRECORD
  5
2F4E
102
{ACAD_REACTORS
330
2F4D
102
}
330
2F4D
100
AcDbXrecord
280
     1
102
RTVSPost2010Prop28
280
     0
102
RTVSPost2010PropOp28
 70
     1
102
RTVSPost2010Prop29
280
     1
102
RTVSPost2010PropOp29
 70
     1
102
RTVSPost2010Prop30
280
     1
102
RTVSPost2010PropOp30
 70
     1
102
RTVSPost2010Prop31
280
     0
102
RTVSPost2010PropOp31
 70
     1
102
RTVSPost2010Prop32
280
     0
102
RTVSPost2010PropOp32
 70
     1
102
RTVSPost2010Prop33
280
     0
102
RTVSPost2010PropOp33
 70
     1
102
RTVSPost2010Prop34
280
     0
102
RTVSPost2010PropOp34
 70
     1
102
RTVSPost2010Prop35
280
     0
102
RTVSPost2010PropOp35
 70
     1
102
RTVSPost2010Prop36
280
     0
102
RTVSPost2010PropOp36
 70
     1
102
RTVSPost2010Prop37
 90
       50
102
RTVSPost2010PropOp37
 70
     0
102
RTVSPost2010Prop38
140
0.0
102
RTVSPost2010PropOp38
 70
     0
102
RTVSPost2010Prop39
140
1.0
102
RTVSPost2010PropOp39
 70
     0
102
RTVSPost2010Prop40
 90
        0
102
RTVSPost2010PropOp40
 70
     0
102
RTVSPost2010Prop41ColorIndex
 90
       18
102
RTVSPost2010Prop41ColorRGB
 90
        0
102
RTVSPost2010PropOp41
 70
     0
102
RTVSPost2010Prop42
 90
       50
102
RTVSPost2010PropOp42
 70
     0
102
RTVSPost2010Prop43
 90
        3
102
RTVSPost2010PropOp43
 70
     0
102
RTVSPost2010Prop44ColorIndex
 90
        5
102
RTVSPost2010Prop44ColorRGB
 90
      255
102
RTVSPost2010PropOp44
 70
     0
102
RTVSPost2010Prop45
280
     0
102
RTVSPost2010PropOp45
 70
     1
102
RTVSPost2010Prop46
 90
       50
102
RTVSPost2010PropOp46
 70
     0
102
RTVSPost2010Prop47
 90
       50
102
RTVSPost2010PropOp47
 70
     0
102
RTVSPost2010Prop48
 90
       50
102
RTVSPost2010PropOp48
 70
     0
102
RTVSPost2010Prop49
280
     0
102
RTVSPost2010PropOp49
 70
     1
102
RTVSPost2010Prop50
 90
       50
102
RTVSPost2010PropOp50
 70
     0
102
RTVSPost2010Prop51ColorIndex
 90
      256
102
RTVSPost2010Prop51ColorRGB
 90
-16777216
102
RTVSPost2010PropOp51
 70
     0
102
RTVSPost2010Prop52
140
1.0
102
RTVSPost2010PropOp52
 70
     0
102
RTVSPost2010Prop53
 90
        2
102
RTVSPost2010PropOp53
 70
     0
102
RTVSPost2010Prop54
  1
strokes_ogs.tif
102
RTVSPost2010PropOp54
 70
     0
102
RTVSPost2010Prop55
280
     0
102
RTVSPost2010PropOp55
 70
     1
102
RTVSPost2010Prop56
140
1.0
102
RTVSPost2010PropOp56
 70
     0
102
RTVSPost2010Prop57
140
1.0
102
RTVSPost2010PropOp57
 70
     0
102
RTVSPropertyOp0
 70
     0
102
RTVSPropertyOp1
 70
     0
102
RTVSPropertyOp2
 70
     0
102
RTVSPropertyOp3
 70
     0
102
RTVSPropertyOp4
 70
     0
102
RTVSPropertyOp5
 70
     0
102
RTVSPropertyOp6
 70
     0
102
RTVSPropertyOp7
 70
     0
102
RTVSPropertyOp8
 70
     0
102
RTVSPropertyOp9
 70
     0
102
RTVSPropertyOp10
 70
     0
102
RTVSPropertyOp11
 70
     0
102
RTVSPropertyOp12
 70
     0
102
RTVSPropertyOp13
 70
     0
102
RTVSPropertyOp14
 70
     2
102
RTVSPropertyOp15
 70
     0
102
RTVSPropertyOp16
 70
     0
102
RTVSPropertyOp17
 70
     0
102
RTVSPropertyOp18
 70
     0
102
RTVSPropertyOp19
 70
     0
102
RTVSPropertyOp20
 70
     0
102
RTVSPropertyOp21
 70
     0
102
RTVSPropertyOp22
 70
     0
102
RTVSPropertyOp23
 70
     0
102
RTVSPropertyOp24
 70
     0
102
RTVSPropertyOp25
 70
     0
102
RTVSPropertyOp26
 70
     0
102
RTVSPropertyOp27
 70
     0
102
RTVSPropertyOp28
 70
     1
102
RTVSPropertyOp29
 70
     1
102
RTVSPropertyOp30
 70
     1
102
RTVSPropertyOp31
 70
     1
102
RTVSPropertyOp32
 70
     1
102
RTVSPropertyOp33
 70
     1
102
RTVSPropertyOp34
 70
     1
102
RTVSPropertyOp35
 70
     1
102
RTVSPropertyOp36
 70
     1
102
RTVSPropertyOp37
 70
     0
102
RTVSPropertyOp38
 70
     0
102
RTVSPropertyOp39
 70
     0
102
RTVSPropertyOp40
 70
     0
102
RTVSPropertyOp41
 70
     0
102
RTVSPropertyOp42
 70
     0
102
RTVSPropertyOp43
 70
     0
102
RTVSPropertyOp44
 70
     0
102
RTVSPropertyOp45
 70
     1
102
RTVSPropertyOp46
 70
     0
102
RTVSPropertyOp47
 70
     0
102
RTVSPropertyOp48
 70
     0
102
RTVSPropertyOp49
 70
     1
102
RTVSPropertyOp50
 70
     0
102
RTVSPropertyOp51
 70
     0
102
RTVSPropertyOp52
 70
     0
102
RTVSPropertyOp53
 70
     0
102
RTVSPropertyOp54
 70
     0
102
RTVSPropertyOp55
 70
     1
102
RTVSPropertyOp56
 70
     0
102
RTVSPropertyOp57
 70
     0
102
RTVSPropertyOp58
 70
     0
102
RTVSPropertyOp59
 70
     0
102
RTVSPropertyOp60
 70
     0
102
RTVSPropertyOp61
 70
     0
102
RTVSPropertyOp62
 70
     0
  0
XRECORD
  5
2F3C
102
{ACAD_REACTORS
330
2F3B
102
}
330
2F3B
100
AcDbXrecord
280
     1
102
RTVSPost2010Prop28
280
     0
102
RTVSPost2010PropOp28
 70
     1
102
RTVSPost2010Prop29
280
     1
102
RTVSPost2010PropOp29
 70
     1
102
RTVSPost2010Prop30
280
     1
102
RTVSPost2010PropOp30
 70
     1
102
RTVSPost2010Prop31
280
     0
102
RTVSPost2010PropOp31
 70
     1
102
RTVSPost2010Prop32
280
     0
102
RTVSPost2010PropOp32
 70
     1
102
RTVSPost2010Prop33
280
     0
102
RTVSPost2010PropOp33
 70
     1
102
RTVSPost2010Prop34
280
     0
102
RTVSPost2010PropOp34
 70
     1
102
RTVSPost2010Prop35
280
     0
102
RTVSPost2010PropOp35
 70
     1
102
RTVSPost2010Prop36
280
     0
102
RTVSPost2010PropOp36
 70
     1
102
RTVSPost2010Prop37
 90
       50
102
RTVSPost2010PropOp37
 70
     1
102
RTVSPost2010Prop38
140
0.0
102
RTVSPost2010PropOp38
 70
     1
102
RTVSPost2010Prop39
140
1.0
102
RTVSPost2010PropOp39
 70
     1
102
RTVSPost2010Prop40
 90
        0
102
RTVSPost2010PropOp40
 70
     1
102
RTVSPost2010Prop41ColorIndex
 90
       18
102
RTVSPost2010Prop41ColorRGB
 90
        0
102
RTVSPost2010PropOp41
 70
     1
102
RTVSPost2010Prop42
 90
       50
102
RTVSPost2010PropOp42
 70
     1
102
RTVSPost2010Prop43
 90
        3
102
RTVSPost2010PropOp43
 70
     1
102
RTVSPost2010Prop44ColorIndex
 90
        5
102
RTVSPost2010Prop44ColorRGB
 90
      255
102
RTVSPost2010PropOp44
 70
     1
102
RTVSPost2010Prop45
280
     0
102
RTVSPost2010PropOp45
 70
     1
102
RTVSPost2010Prop46
 90
       50
102
RTVSPost2010PropOp46
 70
     1
102
RTVSPost2010Prop47
 90
       50
102
RTVSPost2010PropOp47
 70
     1
102
RTVSPost2010Prop48
 90
       50
102
RTVSPost2010PropOp48
 70
     1
102
RTVSPost2010Prop49
280
     0
102
RTVSPost2010PropOp49
 70
     1
102
RTVSPost2010Prop50
 90
       50
102
RTVSPost2010PropOp50
 70
     1
102
RTVSPost2010Prop51ColorIndex
 90
      256
102
RTVSPost2010Prop51ColorRGB
 90
-16777216
102
RTVSPost2010PropOp51
 70
     0
102
RTVSPost2010Prop52
140
1.0
102
RTVSPost2010PropOp52
 70
     0
102
RTVSPost2010Prop53
 90
        2
102
RTVSPost2010PropOp53
 70
     1
102
RTVSPost2010Prop54
  1
strokes_ogs.tif
102
RTVSPost2010PropOp54
 70
     1
102
RTVSPost2010Prop55
280
     0
102
RTVSPost2010PropOp55
 70
     1
102
RTVSPost2010Prop56
140
1.0
102
RTVSPost2010PropOp56
 70
     1
102
RTVSPost2010Prop57
140
1.0
102
RTVSPost2010PropOp57
 70
     1
102
RTVSPropertyOp0
 70
     1
102
RTVSPropertyOp1
 70
     1
102
RTVSPropertyOp2
 70
     1
102
RTVSPropertyOp3
 70
     1
102
RTVSPropertyOp4
 70
     1
102
RTVSPropertyOp5
 70
     1
102
RTVSPropertyOp6
 70
     1
102
RTVSPropertyOp7
 70
     1
102
RTVSPropertyOp8
 70
     1
102
RTVSPropertyOp9
 70
     1
102
RTVSPropertyOp10
 70
     1
102
RTVSPropertyOp11
 70
     1
102
RTVSPropertyOp12
 70
     1
102
RTVSPropertyOp13
 70
     1
102
RTVSPropertyOp14
 70
     1
102
RTVSPropertyOp15
 70
     1
102
RTVSPropertyOp16
 70
     1
102
RTVSPropertyOp17
 70
     1
102
RTVSPropertyOp18
 70
     1
102
RTVSPropertyOp19
 70
     1
102
RTVSPropertyOp20
 70
     1
102
RTVSPropertyOp21
 70
     1
102
RTVSPropertyOp22
 70
     1
102
RTVSPropertyOp23
 70
     1
102
RTVSPropertyOp24
 70
     1
102
RTVSPropertyOp25
 70
     1
102
RTVSPropertyOp26
 70
     1
102
RTVSPropertyOp27
 70
     1
102
RTVSPropertyOp28
 70
     1
102
RTVSPropertyOp29
 70
     1
102
RTVSPropertyOp30
 70
     1
102
RTVSPropertyOp31
 70
     1
102
RTVSPropertyOp32
 70
     1
102
RTVSPropertyOp33
 70
     1
102
RTVSPropertyOp34
 70
     1
102
RTVSPropertyOp35
 70
     1
102
RTVSPropertyOp36
 70
     1
102
RTVSPropertyOp37
 70
     1
102
RTVSPropertyOp38
 70
     1
102
RTVSPropertyOp39
 70
     1
102
RTVSPropertyOp40
 70
     1
102
RTVSPropertyOp41
 70
     1
102
RTVSPropertyOp42
 70
     1
102
RTVSPropertyOp43
 70
     1
102
RTVSPropertyOp44
 70
     1
102
RTVSPropertyOp45
 70
     1
102
RTVSPropertyOp46
 70
     1
102
RTVSPropertyOp47
 70
     1
102
RTVSPropertyOp48
 70
     1
102
RTVSPropertyOp49
 70
     1
102
RTVSPropertyOp50
 70
     1
102
RTVSPropertyOp51
 70
     0
102
RTVSPropertyOp52
 70
     0
102
RTVSPropertyOp53
 70
     1
102
RTVSPropertyOp54
 70
     1
102
RTVSPropertyOp55
 70
     1
102
RTVSPropertyOp56
 70
     1
102
RTVSPropertyOp57
 70
     1
102
RTVSPropertyOp58
 70
     1
102
RTVSPropertyOp59
 70
     1
102
RTVSPropertyOp60
 70
     1
102
RTVSPropertyOp61
 70
     1
102
RTVSPropertyOp62
 70
     1
  0
XRECORD
  5
2F20
102
{ACAD_REACTORS
330
2F1F
102
}
330
2F1F
100
AcDbXrecord
280
     1
102
RTVSPost2010Prop28
280
     0
102
RTVSPost2010PropOp28
 70
     1
102
RTVSPost2010Prop29
280
     1
102
RTVSPost2010PropOp29
 70
     1
102
RTVSPost2010Prop30
280
     1
102
RTVSPost2010PropOp30
 70
     1
102
RTVSPost2010Prop31
280
     0
102
RTVSPost2010PropOp31
 70
     1
102
RTVSPost2010Prop32
280
     0
102
RTVSPost2010PropOp32
 70
     1
102
RTVSPost2010Prop33
280
     0
102
RTVSPost2010PropOp33
 70
     1
102
RTVSPost2010Prop34
280
     0
102
RTVSPost2010PropOp34
 70
     1
102
RTVSPost2010Prop35
280
     0
102
RTVSPost2010PropOp35
 70
     1
102
RTVSPost2010Prop36
280
     0
102
RTVSPost2010PropOp36
 70
     1
102
RTVSPost2010Prop37
 90
       50
102
RTVSPost2010PropOp37
 70
     1
102
RTVSPost2010Prop38
140
0.0
102
RTVSPost2010PropOp38
 70
     1
102
RTVSPost2010Prop39
140
1.0
102
RTVSPost2010PropOp39
 70
     1
102
RTVSPost2010Prop40
 90
        0
102
RTVSPost2010PropOp40
 70
     1
102
RTVSPost2010Prop41ColorIndex
 90
       18
102
RTVSPost2010Prop41ColorRGB
 90
        0
102
RTVSPost2010PropOp41
 70
     1
102
RTVSPost2010Prop42
 90
       50
102
RTVSPost2010PropOp42
 70
     1
102
RTVSPost2010Prop43
 90
        3
102
RTVSPost2010PropOp43
 70
     1
102
RTVSPost2010Prop44ColorIndex
 90
        5
102
RTVSPost2010Prop44ColorRGB
 90
      255
102
RTVSPost2010PropOp44
 70
     1
102
RTVSPost2010Prop45
280
     0
102
RTVSPost2010PropOp45
 70
     1
102
RTVSPost2010Prop46
 90
       50
102
RTVSPost2010PropOp46
 70
     1
102
RTVSPost2010Prop47
 90
       50
102
RTVSPost2010PropOp47
 70
     1
102
RTVSPost2010Prop48
 90
       50
102
RTVSPost2010PropOp48
 70
     1
102
RTVSPost2010Prop49
280
     0
102
RTVSPost2010PropOp49
 70
     1
102
RTVSPost2010Prop50
 90
       50
102
RTVSPost2010PropOp50
 70
     1
102
RTVSPost2010Prop51ColorIndex
 90
      256
102
RTVSPost2010Prop51ColorRGB
 90
-16777216
102
RTVSPost2010PropOp51
 70
     0
102
RTVSPost2010Prop52
140
1.0
102
RTVSPost2010PropOp52
 70
     0
102
RTVSPost2010Prop53
 90
        2
102
RTVSPost2010PropOp53
 70
     1
102
RTVSPost2010Prop54
  1
strokes_ogs.tif
102
RTVSPost2010PropOp54
 70
     1
102
RTVSPost2010Prop55
280
     0
102
RTVSPost2010PropOp55
 70
     1
102
RTVSPost2010Prop56
140
1.0
102
RTVSPost2010PropOp56
 70
     1
102
RTVSPost2010Prop57
140
1.0
102
RTVSPost2010PropOp57
 70
     1
102
RTVSPropertyOp0
 70
     1
102
RTVSPropertyOp1
 70
     1
102
RTVSPropertyOp2
 70
     1
102
RTVSPropertyOp3
 70
     1
102
RTVSPropertyOp4
 70
     1
102
RTVSPropertyOp5
 70
     1
102
RTVSPropertyOp6
 70
     1
102
RTVSPropertyOp7
 70
     1
102
RTVSPropertyOp8
 70
     1
102
RTVSPropertyOp9
 70
     1
102
RTVSPropertyOp10
 70
     1
102
RTVSPropertyOp11
 70
     1
102
RTVSPropertyOp12
 70
     1
102
RTVSPropertyOp13
 70
     1
102
RTVSPropertyOp14
 70
     1
102
RTVSPropertyOp15
 70
     1
102
RTVSPropertyOp16
 70
     1
102
RTVSPropertyOp17
 70
     1
102
RTVSPropertyOp18
 70
     1
102
RTVSPropertyOp19
 70
     1
102
RTVSPropertyOp20
 70
     1
102
RTVSPropertyOp21
 70
     1
102
RTVSPropertyOp22
 70
     1
102
RTVSPropertyOp23
 70
     1
102
RTVSPropertyOp24
 70
     1
102
RTVSPropertyOp25
 70
     1
102
RTVSPropertyOp26
 70
     1
102
RTVSPropertyOp27
 70
     1
102
RTVSPropertyOp28
 70
     1
102
RTVSPropertyOp29
 70
     1
102
RTVSPropertyOp30
 70
     1
102
RTVSPropertyOp31
 70
     1
102
RTVSPropertyOp32
 70
     1
102
RTVSPropertyOp33
 70
     1
102
RTVSPropertyOp34
 70
     1
102
RTVSPropertyOp35
 70
     1
102
RTVSPropertyOp36
 70
     1
102
RTVSPropertyOp37
 70
     1
102
RTVSPropertyOp38
 70
     1
102
RTVSPropertyOp39
 70
     1
102
RTVSPropertyOp40
 70
     1
102
RTVSPropertyOp41
 70
     1
102
RTVSPropertyOp42
 70
     1
102
RTVSPropertyOp43
 70
     1
102
RTVSPropertyOp44
 70
     1
102
RTVSPropertyOp45
 70
     1
102
RTVSPropertyOp46
 70
     1
102
RTVSPropertyOp47
 70
     1
102
RTVSPropertyOp48
 70
     1
102
RTVSPropertyOp49
 70
     1
102
RTVSPropertyOp50
 70
     1
102
RTVSPropertyOp51
 70
     0
102
RTVSPropertyOp52
 70
     0
102
RTVSPropertyOp53
 70
     1
102
RTVSPropertyOp54
 70
     1
102
RTVSPropertyOp55
 70
     1
102
RTVSPropertyOp56
 70
     1
102
RTVSPropertyOp57
 70
     1
102
RTVSPropertyOp58
 70
     1
102
RTVSPropertyOp59
 70
     1
102
RTVSPropertyOp60
 70
     1
102
RTVSPropertyOp61
 70
     1
102
RTVSPropertyOp62
 70
     1
  0
XRECORD
  5
2F22
102
{ACAD_REACTORS
330
2F21
102
}
330
2F21
100
AcDbXrecord
280
     1
102
RTVSPost2010Prop28
280
     0
102
RTVSPost2010PropOp28
 70
     1
102
RTVSPost2010Prop29
280
     1
102
RTVSPost2010PropOp29
 70
     1
102
RTVSPost2010Prop30
280
     1
102
RTVSPost2010PropOp30
 70
     1
102
RTVSPost2010Prop31
280
     0
102
RTVSPost2010PropOp31
 70
     1
102
RTVSPost2010Prop32
280
     0
102
RTVSPost2010PropOp32
 70
     1
102
RTVSPost2010Prop33
280
     0
102
RTVSPost2010PropOp33
 70
     1
102
RTVSPost2010Prop34
280
     0
102
RTVSPost2010PropOp34
 70
     1
102
RTVSPost2010Prop35
280
     0
102
RTVSPost2010PropOp35
 70
     1
102
RTVSPost2010Prop36
280
     0
102
RTVSPost2010PropOp36
 70
     1
102
RTVSPost2010Prop37
 90
       50
102
RTVSPost2010PropOp37
 70
     1
102
RTVSPost2010Prop38
140
0.0
102
RTVSPost2010PropOp38
 70
     1
102
RTVSPost2010Prop39
140
1.0
102
RTVSPost2010PropOp39
 70
     1
102
RTVSPost2010Prop40
 90
        0
102
RTVSPost2010PropOp40
 70
     1
102
RTVSPost2010Prop41ColorIndex
 90
       18
102
RTVSPost2010Prop41ColorRGB
 90
        0
102
RTVSPost2010PropOp41
 70
     1
102
RTVSPost2010Prop42
 90
       50
102
RTVSPost2010PropOp42
 70
     1
102
RTVSPost2010Prop43
 90
        3
102
RTVSPost2010PropOp43
 70
     1
102
RTVSPost2010Prop44ColorIndex
 90
        5
102
RTVSPost2010Prop44ColorRGB
 90
      255
102
RTVSPost2010PropOp44
 70
     1
102
RTVSPost2010Prop45
280
     0
102
RTVSPost2010PropOp45
 70
     1
102
RTVSPost2010Prop46
 90
       50
102
RTVSPost2010PropOp46
 70
     1
102
RTVSPost2010Prop47
 90
       50
102
RTVSPost2010PropOp47
 70
     1
102
RTVSPost2010Prop48
 90
       50
102
RTVSPost2010PropOp48
 70
     1
102
RTVSPost2010Prop49
280
     0
102
RTVSPost2010PropOp49
 70
     1
102
RTVSPost2010Prop50
 90
       50
102
RTVSPost2010PropOp50
 70
     1
102
RTVSPost2010Prop51ColorIndex
 90
      256
102
RTVSPost2010Prop51ColorRGB
 90
-16777216
102
RTVSPost2010PropOp51
 70
     0
102
RTVSPost2010Prop52
140
1.0
102
RTVSPost2010PropOp52
 70
     0
102
RTVSPost2010Prop53
 90
        2
102
RTVSPost2010PropOp53
 70
     1
102
RTVSPost2010Prop54
  1
strokes_ogs.tif
102
RTVSPost2010PropOp54
 70
     1
102
RTVSPost2010Prop55
280
     0
102
RTVSPost2010PropOp55
 70
     1
102
RTVSPost2010Prop56
140
1.0
102
RTVSPost2010PropOp56
 70
     1
102
RTVSPost2010Prop57
140
1.0
102
RTVSPost2010PropOp57
 70
     1
102
RTVSPropertyOp0
 70
     1
102
RTVSPropertyOp1
 70
     1
102
RTVSPropertyOp2
 70
     1
102
RTVSPropertyOp3
 70
     1
102
RTVSPropertyOp4
 70
     1
102
RTVSPropertyOp5
 70
     1
102
RTVSPropertyOp6
 70
     1
102
RTVSPropertyOp7
 70
     1
102
RTVSPropertyOp8
 70
     1
102
RTVSPropertyOp9
 70
     1
102
RTVSPropertyOp10
 70
     1
102
RTVSPropertyOp11
 70
     1
102
RTVSPropertyOp12
 70
     1
102
RTVSPropertyOp13
 70
     1
102
RTVSPropertyOp14
 70
     1
102
RTVSPropertyOp15
 70
     1
102
RTVSPropertyOp16
 70
     1
102
RTVSPropertyOp17
 70
     1
102
RTVSPropertyOp18
 70
     1
102
RTVSPropertyOp19
 70
     1
102
RTVSPropertyOp20
 70
     1
102
RTVSPropertyOp21
 70
     1
102
RTVSPropertyOp22
 70
     1
102
RTVSPropertyOp23
 70
     1
102
RTVSPropertyOp24
 70
     1
102
RTVSPropertyOp25
 70
     1
102
RTVSPropertyOp26
 70
     1
102
RTVSPropertyOp27
 70
     1
102
RTVSPropertyOp28
 70
     1
102
RTVSPropertyOp29
 70
     1
102
RTVSPropertyOp30
 70
     1
102
RTVSPropertyOp31
 70
     1
102
RTVSPropertyOp32
 70
     1
102
RTVSPropertyOp33
 70
     1
102
RTVSPropertyOp34
 70
     1
102
RTVSPropertyOp35
 70
     1
102
RTVSPropertyOp36
 70
     1
102
RTVSPropertyOp37
 70
     1
102
RTVSPropertyOp38
 70
     1
102
RTVSPropertyOp39
 70
     1
102
RTVSPropertyOp40
 70
     1
102
RTVSPropertyOp41
 70
     1
102
RTVSPropertyOp42
 70
     1
102
RTVSPropertyOp43
 70
     1
102
RTVSPropertyOp44
 70
     1
102
RTVSPropertyOp45
 70
     1
102
RTVSPropertyOp46
 70
     1
102
RTVSPropertyOp47
 70
     1
102
RTVSPropertyOp48
 70
     1
102
RTVSPropertyOp49
 70
     1
102
RTVSPropertyOp50
 70
     1
102
RTVSPropertyOp51
 70
     0
102
RTVSPropertyOp52
 70
     0
102
RTVSPropertyOp53
 70
     1
102
RTVSPropertyOp54
 70
     1
102
RTVSPropertyOp55
 70
     1
102
RTVSPropertyOp56
 70
     1
102
RTVSPropertyOp57
 70
     1
102
RTVSPropertyOp58
 70
     1
102
RTVSPropertyOp59
 70
     1
102
RTVSPropertyOp60
 70
     1
102
RTVSPropertyOp61
 70
     1
102
RTVSPropertyOp62
 70
     1
  0
XRECORD
  5
2F24
102
{ACAD_REACTORS
330
2F23
102
}
330
2F23
100
AcDbXrecord
280
     1
102
RTVSPost2010Prop28
280
     0
102
RTVSPost2010PropOp28
 70
     1
102
RTVSPost2010Prop29
280
     1
102
RTVSPost2010PropOp29
 70
     1
102
RTVSPost2010Prop30
280
     1
102
RTVSPost2010PropOp30
 70
     1
102
RTVSPost2010Prop31
280
     0
102
RTVSPost2010PropOp31
 70
     1
102
RTVSPost2010Prop32
280
     0
102
RTVSPost2010PropOp32
 70
     1
102
RTVSPost2010Prop33
280
     0
102
RTVSPost2010PropOp33
 70
     1
102
RTVSPost2010Prop34
280
     0
102
RTVSPost2010PropOp34
 70
     1
102
RTVSPost2010Prop35
280
     0
102
RTVSPost2010PropOp35
 70
     1
102
RTVSPost2010Prop36
280
     0
102
RTVSPost2010PropOp36
 70
     1
102
RTVSPost2010Prop37
 90
       50
102
RTVSPost2010PropOp37
 70
     1
102
RTVSPost2010Prop38
140
0.0
102
RTVSPost2010PropOp38
 70
     1
102
RTVSPost2010Prop39
140
1.0
102
RTVSPost2010PropOp39
 70
     1
102
RTVSPost2010Prop40
 90
        0
102
RTVSPost2010PropOp40
 70
     1
102
RTVSPost2010Prop41ColorIndex
 90
       18
102
RTVSPost2010Prop41ColorRGB
 90
        0
102
RTVSPost2010PropOp41
 70
     1
102
RTVSPost2010Prop42
 90
       50
102
RTVSPost2010PropOp42
 70
     1
102
RTVSPost2010Prop43
 90
        3
102
RTVSPost2010PropOp43
 70
     1
102
RTVSPost2010Prop44ColorIndex
 90
        5
102
RTVSPost2010Prop44ColorRGB
 90
      255
102
RTVSPost2010PropOp44
 70
     1
102
RTVSPost2010Prop45
280
     0
102
RTVSPost2010PropOp45
 70
     1
102
RTVSPost2010Prop46
 90
       50
102
RTVSPost2010PropOp46
 70
     1
102
RTVSPost2010Prop47
 90
       50
102
RTVSPost2010PropOp47
 70
     1
102
RTVSPost2010Prop48
 90
       50
102
RTVSPost2010PropOp48
 70
     1
102
RTVSPost2010Prop49
280
     0
102
RTVSPost2010PropOp49
 70
     1
102
RTVSPost2010Prop50
 90
       50
102
RTVSPost2010PropOp50
 70
     1
102
RTVSPost2010Prop51ColorIndex
 90
      256
102
RTVSPost2010Prop51ColorRGB
 90
-16777216
102
RTVSPost2010PropOp51
 70
     0
102
RTVSPost2010Prop52
140
1.0
102
RTVSPost2010PropOp52
 70
     0
102
RTVSPost2010Prop53
 90
        2
102
RTVSPost2010PropOp53
 70
     1
102
RTVSPost2010Prop54
  1
strokes_ogs.tif
102
RTVSPost2010PropOp54
 70
     1
102
RTVSPost2010Prop55
280
     0
102
RTVSPost2010PropOp55
 70
     1
102
RTVSPost2010Prop56
140
1.0
102
RTVSPost2010PropOp56
 70
     1
102
RTVSPost2010Prop57
140
1.0
102
RTVSPost2010PropOp57
 70
     1
102
RTVSPropertyOp0
 70
     1
102
RTVSPropertyOp1
 70
     1
102
RTVSPropertyOp2
 70
     1
102
RTVSPropertyOp3
 70
     1
102
RTVSPropertyOp4
 70
     1
102
RTVSPropertyOp5
 70
     1
102
RTVSPropertyOp6
 70
     1
102
RTVSPropertyOp7
 70
     1
102
RTVSPropertyOp8
 70
     1
102
RTVSPropertyOp9
 70
     1
102
RTVSPropertyOp10
 70
     1
102
RTVSPropertyOp11
 70
     1
102
RTVSPropertyOp12
 70
     1
102
RTVSPropertyOp13
 70
     1
102
RTVSPropertyOp14
 70
     1
102
RTVSPropertyOp15
 70
     1
102
RTVSPropertyOp16
 70
     1
102
RTVSPropertyOp17
 70
     1
102
RTVSPropertyOp18
 70
     1
102
RTVSPropertyOp19
 70
     1
102
RTVSPropertyOp20
 70
     1
102
RTVSPropertyOp21
 70
     1
102
RTVSPropertyOp22
 70
     1
102
RTVSPropertyOp23
 70
     1
102
RTVSPropertyOp24
 70
     1
102
RTVSPropertyOp25
 70
     1
102
RTVSPropertyOp26
 70
     1
102
RTVSPropertyOp27
 70
     1
102
RTVSPropertyOp28
 70
     1
102
RTVSPropertyOp29
 70
     1
102
RTVSPropertyOp30
 70
     1
102
RTVSPropertyOp31
 70
     1
102
RTVSPropertyOp32
 70
     1
102
RTVSPropertyOp33
 70
     1
102
RTVSPropertyOp34
 70
     1
102
RTVSPropertyOp35
 70
     1
102
RTVSPropertyOp36
 70
     1
102
RTVSPropertyOp37
 70
     1
102
RTVSPropertyOp38
 70
     1
102
RTVSPropertyOp39
 70
     1
102
RTVSPropertyOp40
 70
     1
102
RTVSPropertyOp41
 70
     1
102
RTVSPropertyOp42
 70
     1
102
RTVSPropertyOp43
 70
     1
102
RTVSPropertyOp44
 70
     1
102
RTVSPropertyOp45
 70
     1
102
RTVSPropertyOp46
 70
     1
102
RTVSPropertyOp47
 70
     1
102
RTVSPropertyOp48
 70
     1
102
RTVSPropertyOp49
 70
     1
102
RTVSPropertyOp50
 70
     1
102
RTVSPropertyOp51
 70
     0
102
RTVSPropertyOp52
 70
     0
102
RTVSPropertyOp53
 70
     1
102
RTVSPropertyOp54
 70
     1
102
RTVSPropertyOp55
 70
     1
102
RTVSPropertyOp56
 70
     1
102
RTVSPropertyOp57
 70
     1
102
RTVSPropertyOp58
 70
     1
102
RTVSPropertyOp59
 70
     1
102
RTVSPropertyOp60
 70
     1
102
RTVSPropertyOp61
 70
     1
102
RTVSPropertyOp62
 70
     1
  0
XRECORD
  5
2F26
102
{ACAD_REACTORS
330
2F25
102
}
330
2F25
100
AcDbXrecord
280
     1
102
RTVSPost2010Prop28
280
     0
102
RTVSPost2010PropOp28
 70
     1
102
RTVSPost2010Prop29
280
     1
102
RTVSPost2010PropOp29
 70
     1
102
RTVSPost2010Prop30
280
     1
102
RTVSPost2010PropOp30
 70
     1
102
RTVSPost2010Prop31
280
     0
102
RTVSPost2010PropOp31
 70
     1
102
RTVSPost2010Prop32
280
     0
102
RTVSPost2010PropOp32
 70
     1
102
RTVSPost2010Prop33
280
     0
102
RTVSPost2010PropOp33
 70
     1
102
RTVSPost2010Prop34
280
     0
102
RTVSPost2010PropOp34
 70
     1
102
RTVSPost2010Prop35
280
     0
102
RTVSPost2010PropOp35
 70
     1
102
RTVSPost2010Prop36
280
     0
102
RTVSPost2010PropOp36
 70
     1
102
RTVSPost2010Prop37
 90
       50
102
RTVSPost2010PropOp37
 70
     1
102
RTVSPost2010Prop38
140
0.0
102
RTVSPost2010PropOp38
 70
     1
102
RTVSPost2010Prop39
140
1.0
102
RTVSPost2010PropOp39
 70
     1
102
RTVSPost2010Prop40
 90
        0
102
RTVSPost2010PropOp40
 70
     1
102
RTVSPost2010Prop41ColorIndex
 90
       18
102
RTVSPost2010Prop41ColorRGB
 90
        0
102
RTVSPost2010PropOp41
 70
     1
102
RTVSPost2010Prop42
 90
       50
102
RTVSPost2010PropOp42
 70
     1
102
RTVSPost2010Prop43
 90
        3
102
RTVSPost2010PropOp43
 70
     1
102
RTVSPost2010Prop44ColorIndex
 90
        5
102
RTVSPost2010Prop44ColorRGB
 90
      255
102
RTVSPost2010PropOp44
 70
     1
102
RTVSPost2010Prop45
280
     0
102
RTVSPost2010PropOp45
 70
     1
102
RTVSPost2010Prop46
 90
       50
102
RTVSPost2010PropOp46
 70
     1
102
RTVSPost2010Prop47
 90
       50
102
RTVSPost2010PropOp47
 70
     1
102
RTVSPost2010Prop48
 90
       50
102
RTVSPost2010PropOp48
 70
     1
102
RTVSPost2010Prop49
280
     0
102
RTVSPost2010PropOp49
 70
     1
102
RTVSPost2010Prop50
 90
       50
102
RTVSPost2010PropOp50
 70
     1
102
RTVSPost2010Prop51ColorIndex
 90
      256
102
RTVSPost2010Prop51ColorRGB
 90
-16777216
102
RTVSPost2010PropOp51
 70
     0
102
RTVSPost2010Prop52
140
1.0
102
RTVSPost2010PropOp52
 70
     0
102
RTVSPost2010Prop53
 90
        2
102
RTVSPost2010PropOp53
 70
     1
102
RTVSPost2010Prop54
  1
strokes_ogs.tif
102
RTVSPost2010PropOp54
 70
     1
102
RTVSPost2010Prop55
280
     0
102
RTVSPost2010PropOp55
 70
     1
102
RTVSPost2010Prop56
140
1.0
102
RTVSPost2010PropOp56
 70
     1
102
RTVSPost2010Prop57
140
1.0
102
RTVSPost2010PropOp57
 70
     1
102
RTVSPropertyOp0
 70
     1
102
RTVSPropertyOp1
 70
     1
102
RTVSPropertyOp2
 70
     1
102
RTVSPropertyOp3
 70
     1
102
RTVSPropertyOp4
 70
     1
102
RTVSPropertyOp5
 70
     1
102
RTVSPropertyOp6
 70
     1
102
RTVSPropertyOp7
 70
     1
102
RTVSPropertyOp8
 70
     1
102
RTVSPropertyOp9
 70
     1
102
RTVSPropertyOp10
 70
     1
102
RTVSPropertyOp11
 70
     1
102
RTVSPropertyOp12
 70
     1
102
RTVSPropertyOp13
 70
     1
102
RTVSPropertyOp14
 70
     1
102
RTVSPropertyOp15
 70
     1
102
RTVSPropertyOp16
 70
     1
102
RTVSPropertyOp17
 70
     1
102
RTVSPropertyOp18
 70
     1
102
RTVSPropertyOp19
 70
     1
102
RTVSPropertyOp20
 70
     1
102
RTVSPropertyOp21
 70
     1
102
RTVSPropertyOp22
 70
     1
102
RTVSPropertyOp23
 70
     1
102
RTVSPropertyOp24
 70
     1
102
RTVSPropertyOp25
 70
     1
102
RTVSPropertyOp26
 70
     1
102
RTVSPropertyOp27
 70
     1
102
RTVSPropertyOp28
 70
     1
102
RTVSPropertyOp29
 70
     1
102
RTVSPropertyOp30
 70
     1
102
RTVSPropertyOp31
 70
     1
102
RTVSPropertyOp32
 70
     1
102
RTVSPropertyOp33
 70
     1
102
RTVSPropertyOp34
 70
     1
102
RTVSPropertyOp35
 70
     1
102
RTVSPropertyOp36
 70
     1
102
RTVSPropertyOp37
 70
     1
102
RTVSPropertyOp38
 70
     1
102
RTVSPropertyOp39
 70
     1
102
RTVSPropertyOp40
 70
     1
102
RTVSPropertyOp41
 70
     1
102
RTVSPropertyOp42
 70
     1
102
RTVSPropertyOp43
 70
     1
102
RTVSPropertyOp44
 70
     1
102
RTVSPropertyOp45
 70
     1
102
RTVSPropertyOp46
 70
     1
102
RTVSPropertyOp47
 70
     1
102
RTVSPropertyOp48
 70
     1
102
RTVSPropertyOp49
 70
     1
102
RTVSPropertyOp50
 70
     1
102
RTVSPropertyOp51
 70
     0
102
RTVSPropertyOp52
 70
     0
102
RTVSPropertyOp53
 70
     1
102
RTVSPropertyOp54
 70
     1
102
RTVSPropertyOp55
 70
     1
102
RTVSPropertyOp56
 70
     1
102
RTVSPropertyOp57
 70
     1
102
RTVSPropertyOp58
 70
     1
102
RTVSPropertyOp59
 70
     1
102
RTVSPropertyOp60
 70
     1
102
RTVSPropertyOp61
 70
     1
102
RTVSPropertyOp62
 70
     1
  0
XRECORD
  5
2F2E
102
{ACAD_REACTORS
330
2F2D
102
}
330
2F2D
100
AcDbXrecord
280
     1
102
RTVSPost2010Prop28
280
     0
102
RTVSPost2010PropOp28
 70
     1
102
RTVSPost2010Prop29
280
     1
102
RTVSPost2010PropOp29
 70
     1
102
RTVSPost2010Prop30
280
     1
102
RTVSPost2010PropOp30
 70
     1
102
RTVSPost2010Prop31
280
     0
102
RTVSPost2010PropOp31
 70
     1
102
RTVSPost2010Prop32
280
     0
102
RTVSPost2010PropOp32
 70
     1
102
RTVSPost2010Prop33
280
     0
102
RTVSPost2010PropOp33
 70
     1
102
RTVSPost2010Prop34
280
     0
102
RTVSPost2010PropOp34
 70
     1
102
RTVSPost2010Prop35
280
     0
102
RTVSPost2010PropOp35
 70
     1
102
RTVSPost2010Prop36
280
     0
102
RTVSPost2010PropOp36
 70
     1
102
RTVSPost2010Prop37
 90
       50
102
RTVSPost2010PropOp37
 70
     1
102
RTVSPost2010Prop38
140
0.0
102
RTVSPost2010PropOp38
 70
     1
102
RTVSPost2010Prop39
140
1.0
102
RTVSPost2010PropOp39
 70
     1
102
RTVSPost2010Prop40
 90
        0
102
RTVSPost2010PropOp40
 70
     1
102
RTVSPost2010Prop41ColorIndex
 90
       18
102
RTVSPost2010Prop41ColorRGB
 90
        0
102
RTVSPost2010PropOp41
 70
     1
102
RTVSPost2010Prop42
 90
       50
102
RTVSPost2010PropOp42
 70
     1
102
RTVSPost2010Prop43
 90
        3
102
RTVSPost2010PropOp43
 70
     1
102
RTVSPost2010Prop44ColorIndex
 90
        5
102
RTVSPost2010Prop44ColorRGB
 90
      255
102
RTVSPost2010PropOp44
 70
     1
102
RTVSPost2010Prop45
280
     0
102
RTVSPost2010PropOp45
 70
     1
102
RTVSPost2010Prop46
 90
       50
102
RTVSPost2010PropOp46
 70
     1
102
RTVSPost2010Prop47
 90
       50
102
RTVSPost2010PropOp47
 70
     1
102
RTVSPost2010Prop48
 90
       50
102
RTVSPost2010PropOp48
 70
     1
102
RTVSPost2010Prop49
280
     0
102
RTVSPost2010PropOp49
 70
     1
102
RTVSPost2010Prop50
 90
       50
102
RTVSPost2010PropOp50
 70
     1
102
RTVSPost2010Prop51ColorIndex
 90
      256
102
RTVSPost2010Prop51ColorRGB
 90
-16777216
102
RTVSPost2010PropOp51
 70
     0
102
RTVSPost2010Prop52
140
1.0
102
RTVSPost2010PropOp52
 70
     0
102
RTVSPost2010Prop53
 90
        2
102
RTVSPost2010PropOp53
 70
     1
102
RTVSPost2010Prop54
  1
strokes_ogs.tif
102
RTVSPost2010PropOp54
 70
     1
102
RTVSPost2010Prop55
280
     0
102
RTVSPost2010PropOp55
 70
     1
102
RTVSPost2010Prop56
140
1.0
102
RTVSPost2010PropOp56
 70
     1
102
RTVSPost2010Prop57
140
1.0
102
RTVSPost2010PropOp57
 70
     1
102
RTVSPropertyOp0
 70
     1
102
RTVSPropertyOp1
 70
     1
102
RTVSPropertyOp2
 70
     1
102
RTVSPropertyOp3
 70
     1
102
RTVSPropertyOp4
 70
     1
102
RTVSPropertyOp5
 70
     1
102
RTVSPropertyOp6
 70
     1
102
RTVSPropertyOp7
 70
     1
102
RTVSPropertyOp8
 70
     1
102
RTVSPropertyOp9
 70
     1
102
RTVSPropertyOp10
 70
     1
102
RTVSPropertyOp11
 70
     1
102
RTVSPropertyOp12
 70
     1
102
RTVSPropertyOp13
 70
     1
102
RTVSPropertyOp14
 70
     1
102
RTVSPropertyOp15
 70
     1
102
RTVSPropertyOp16
 70
     1
102
RTVSPropertyOp17
 70
     1
102
RTVSPropertyOp18
 70
     1
102
RTVSPropertyOp19
 70
     1
102
RTVSPropertyOp20
 70
     1
102
RTVSPropertyOp21
 70
     1
102
RTVSPropertyOp22
 70
     1
102
RTVSPropertyOp23
 70
     1
102
RTVSPropertyOp24
 70
     1
102
RTVSPropertyOp25
 70
     1
102
RTVSPropertyOp26
 70
     1
102
RTVSPropertyOp27
 70
     1
102
RTVSPropertyOp28
 70
     1
102
RTVSPropertyOp29
 70
     1
102
RTVSPropertyOp30
 70
     1
102
RTVSPropertyOp31
 70
     1
102
RTVSPropertyOp32
 70
     1
102
RTVSPropertyOp33
 70
     1
102
RTVSPropertyOp34
 70
     1
102
RTVSPropertyOp35
 70
     1
102
RTVSPropertyOp36
 70
     1
102
RTVSPropertyOp37
 70
     1
102
RTVSPropertyOp38
 70
     1
102
RTVSPropertyOp39
 70
     1
102
RTVSPropertyOp40
 70
     1
102
RTVSPropertyOp41
 70
     1
102
RTVSPropertyOp42
 70
     1
102
RTVSPropertyOp43
 70
     1
102
RTVSPropertyOp44
 70
     1
102
RTVSPropertyOp45
 70
     1
102
RTVSPropertyOp46
 70
     1
102
RTVSPropertyOp47
 70
     1
102
RTVSPropertyOp48
 70
     1
102
RTVSPropertyOp49
 70
     1
102
RTVSPropertyOp50
 70
     1
102
RTVSPropertyOp51
 70
     0
102
RTVSPropertyOp52
 70
     0
102
RTVSPropertyOp53
 70
     1
102
RTVSPropertyOp54
 70
     1
102
RTVSPropertyOp55
 70
     1
102
RTVSPropertyOp56
 70
     1
102
RTVSPropertyOp57
 70
     1
102
RTVSPropertyOp58
 70
     1
102
RTVSPropertyOp59
 70
     1
102
RTVSPropertyOp60
 70
     1
102
RTVSPropertyOp61
 70
     1
102
RTVSPropertyOp62
 70
     1
  0
XRECORD
  5
2F4A
102
{ACAD_REACTORS
330
2F49
102
}
330
2F49
100
AcDbXrecord
280
     1
102
RTVSPost2010Prop28
280
     0
102
RTVSPost2010PropOp28
 70
     1
102
RTVSPost2010Prop29
280
     1
102
RTVSPost2010PropOp29
 70
     1
102
RTVSPost2010Prop30
280
     1
102
RTVSPost2010PropOp30
 70
     1
102
RTVSPost2010Prop31
280
     0
102
RTVSPost2010PropOp31
 70
     1
102
RTVSPost2010Prop32
280
     0
102
RTVSPost2010PropOp32
 70
     1
102
RTVSPost2010Prop33
280
     0
102
RTVSPost2010PropOp33
 70
     1
102
RTVSPost2010Prop34
280
     0
102
RTVSPost2010PropOp34
 70
     1
102
RTVSPost2010Prop35
280
     0
102
RTVSPost2010PropOp35
 70
     1
102
RTVSPost2010Prop36
280
     0
102
RTVSPost2010PropOp36
 70
     1
102
RTVSPost2010Prop37
 90
       50
102
RTVSPost2010PropOp37
 70
     0
102
RTVSPost2010Prop38
140
0.0
102
RTVSPost2010PropOp38
 70
     0
102
RTVSPost2010Prop39
140
1.0
102
RTVSPost2010PropOp39
 70
     0
102
RTVSPost2010Prop40
 90
        0
102
RTVSPost2010PropOp40
 70
     0
102
RTVSPost2010Prop41ColorIndex
 90
       18
102
RTVSPost2010Prop41ColorRGB
 90
        0
102
RTVSPost2010PropOp41
 70
     0
102
RTVSPost2010Prop42
 90
       50
102
RTVSPost2010PropOp42
 70
     0
102
RTVSPost2010Prop43
 90
        3
102
RTVSPost2010PropOp43
 70
     0
102
RTVSPost2010Prop44ColorIndex
 90
        5
102
RTVSPost2010Prop44ColorRGB
 90
      255
102
RTVSPost2010PropOp44
 70
     0
102
RTVSPost2010Prop45
280
     0
102
RTVSPost2010PropOp45
 70
     1
102
RTVSPost2010Prop46
 90
       50
102
RTVSPost2010PropOp46
 70
     0
102
RTVSPost2010Prop47
 90
       50
102
RTVSPost2010PropOp47
 70
     0
102
RTVSPost2010Prop48
 90
       50
102
RTVSPost2010PropOp48
 70
     0
102
RTVSPost2010Prop49
280
     0
102
RTVSPost2010PropOp49
 70
     1
102
RTVSPost2010Prop50
 90
       50
102
RTVSPost2010PropOp50
 70
     0
102
RTVSPost2010Prop51ColorIndex
 90
      256
102
RTVSPost2010Prop51ColorRGB
 90
-16777216
102
RTVSPost2010PropOp51
 70
     0
102
RTVSPost2010Prop52
140
1.0
102
RTVSPost2010PropOp52
 70
     0
102
RTVSPost2010Prop53
 90
        2
102
RTVSPost2010PropOp53
 70
     0
102
RTVSPost2010Prop54
  1
strokes_ogs.tif
102
RTVSPost2010PropOp54
 70
     0
102
RTVSPost2010Prop55
280
     0
102
RTVSPost2010PropOp55
 70
     1
102
RTVSPost2010Prop56
140
1.0
102
RTVSPost2010PropOp56
 70
     0
102
RTVSPost2010Prop57
140
1.0
102
RTVSPost2010PropOp57
 70
     0
102
RTVSPropertyOp0
 70
     0
102
RTVSPropertyOp1
 70
     0
102
RTVSPropertyOp2
 70
     0
102
RTVSPropertyOp3
 70
     0
102
RTVSPropertyOp4
 70
     0
102
RTVSPropertyOp5
 70
     0
102
RTVSPropertyOp6
 70
     0
102
RTVSPropertyOp7
 70
     0
102
RTVSPropertyOp8
 70
     0
102
RTVSPropertyOp9
 70
     0
102
RTVSPropertyOp10
 70
     0
102
RTVSPropertyOp11
 70
     0
102
RTVSPropertyOp12
 70
     0
102
RTVSPropertyOp13
 70
     0
102
RTVSPropertyOp14
 70
     2
102
RTVSPropertyOp15
 70
     0
102
RTVSPropertyOp16
 70
     0
102
RTVSPropertyOp17
 70
     0
102
RTVSPropertyOp18
 70
     0
102
RTVSPropertyOp19
 70
     0
102
RTVSPropertyOp20
 70
     0
102
RTVSPropertyOp21
 70
     0
102
RTVSPropertyOp22
 70
     0
102
RTVSPropertyOp23
 70
     0
102
RTVSPropertyOp24
 70
     0
102
RTVSPropertyOp25
 70
     0
102
RTVSPropertyOp26
 70
     0
102
RTVSPropertyOp27
 70
     0
102
RTVSPropertyOp28
 70
     1
102
RTVSPropertyOp29
 70
     1
102
RTVSPropertyOp30
 70
     1
102
RTVSPropertyOp31
 70
     1
102
RTVSPropertyOp32
 70
     1
102
RTVSPropertyOp33
 70
     1
102
RTVSPropertyOp34
 70
     1
102
RTVSPropertyOp35
 70
     1
102
RTVSPropertyOp36
 70
     1
102
RTVSPropertyOp37
 70
     0
102
RTVSPropertyOp38
 70
     0
102
RTVSPropertyOp39
 70
     0
102
RTVSPropertyOp40
 70
     0
102
RTVSPropertyOp41
 70
     0
102
RTVSPropertyOp42
 70
     0
102
RTVSPropertyOp43
 70
     0
102
RTVSPropertyOp44
 70
     0
102
RTVSPropertyOp45
 70
     1
102
RTVSPropertyOp46
 70
     0
102
RTVSPropertyOp47
 70
     0
102
RTVSPropertyOp48
 70
     0
102
RTVSPropertyOp49
 70
     1
102
RTVSPropertyOp50
 70
     0
102
RTVSPropertyOp51
 70
     0
102
RTVSPropertyOp52
 70
     0
102
RTVSPropertyOp53
 70
     0
102
RTVSPropertyOp54
 70
     0
102
RTVSPropertyOp55
 70
     1
102
RTVSPropertyOp56
 70
     0
102
RTVSPropertyOp57
 70
     0
102
RTVSPropertyOp58
 70
     0
102
RTVSPropertyOp59
 70
     0
102
RTVSPropertyOp60
 70
     0
102
RTVSPropertyOp61
 70
     0
102
RTVSPropertyOp62
 70
     0
  0
XRECORD
  5
2F3A
102
{ACAD_REACTORS
330
2F39
102
}
330
2F39
100
AcDbXrecord
280
     1
102
RTVSPost2010Prop28
280
     0
102
RTVSPost2010PropOp28
 70
     1
102
RTVSPost2010Prop29
280
     1
102
RTVSPost2010PropOp29
 70
     1
102
RTVSPost2010Prop30
280
     1
102
RTVSPost2010PropOp30
 70
     1
102
RTVSPost2010Prop31
280
     0
102
RTVSPost2010PropOp31
 70
     1
102
RTVSPost2010Prop32
280
     0
102
RTVSPost2010PropOp32
 70
     1
102
RTVSPost2010Prop33
280
     0
102
RTVSPost2010PropOp33
 70
     1
102
RTVSPost2010Prop34
280
     0
102
RTVSPost2010PropOp34
 70
     1
102
RTVSPost2010Prop35
280
     0
102
RTVSPost2010PropOp35
 70
     1
102
RTVSPost2010Prop36
280
     0
102
RTVSPost2010PropOp36
 70
     1
102
RTVSPost2010Prop37
 90
       50
102
RTVSPost2010PropOp37
 70
     1
102
RTVSPost2010Prop38
140
0.0
102
RTVSPost2010PropOp38
 70
     1
102
RTVSPost2010Prop39
140
1.0
102
RTVSPost2010PropOp39
 70
     1
102
RTVSPost2010Prop40
 90
        0
102
RTVSPost2010PropOp40
 70
     1
102
RTVSPost2010Prop41ColorIndex
 90
       18
102
RTVSPost2010Prop41ColorRGB
 90
        0
102
RTVSPost2010PropOp41
 70
     1
102
RTVSPost2010Prop42
 90
       50
102
RTVSPost2010PropOp42
 70
     1
102
RTVSPost2010Prop43
 90
        3
102
RTVSPost2010PropOp43
 70
     1
102
RTVSPost2010Prop44ColorIndex
 90
        5
102
RTVSPost2010Prop44ColorRGB
 90
      255
102
RTVSPost2010PropOp44
 70
     1
102
RTVSPost2010Prop45
280
     0
102
RTVSPost2010PropOp45
 70
     1
102
RTVSPost2010Prop46
 90
       50
102
RTVSPost2010PropOp46
 70
     1
102
RTVSPost2010Prop47
 90
       50
102
RTVSPost2010PropOp47
 70
     1
102
RTVSPost2010Prop48
 90
       50
102
RTVSPost2010PropOp48
 70
     1
102
RTVSPost2010Prop49
280
     0
102
RTVSPost2010PropOp49
 70
     1
102
RTVSPost2010Prop50
 90
       50
102
RTVSPost2010PropOp50
 70
     1
102
RTVSPost2010Prop51ColorIndex
 90
      256
102
RTVSPost2010Prop51ColorRGB
 90
-16777216
102
RTVSPost2010PropOp51
 70
     0
102
RTVSPost2010Prop52
140
1.0
102
RTVSPost2010PropOp52
 70
     0
102
RTVSPost2010Prop53
 90
        2
102
RTVSPost2010PropOp53
 70
     1
102
RTVSPost2010Prop54
  1
strokes_ogs.tif
102
RTVSPost2010PropOp54
 70
     1
102
RTVSPost2010Prop55
280
     0
102
RTVSPost2010PropOp55
 70
     1
102
RTVSPost2010Prop56
140
1.0
102
RTVSPost2010PropOp56
 70
     1
102
RTVSPost2010Prop57
140
1.0
102
RTVSPost2010PropOp57
 70
     1
102
RTVSPropertyOp0
 70
     1
102
RTVSPropertyOp1
 70
     1
102
RTVSPropertyOp2
 70
     1
102
RTVSPropertyOp3
 70
     1
102
RTVSPropertyOp4
 70
     1
102
RTVSPropertyOp5
 70
     1
102
RTVSPropertyOp6
 70
     1
102
RTVSPropertyOp7
 70
     1
102
RTVSPropertyOp8
 70
     1
102
RTVSPropertyOp9
 70
     1
102
RTVSPropertyOp10
 70
     1
102
RTVSPropertyOp11
 70
     1
102
RTVSPropertyOp12
 70
     1
102
RTVSPropertyOp13
 70
     1
102
RTVSPropertyOp14
 70
     1
102
RTVSPropertyOp15
 70
     1
102
RTVSPropertyOp16
 70
     1
102
RTVSPropertyOp17
 70
     1
102
RTVSPropertyOp18
 70
     1
102
RTVSPropertyOp19
 70
     1
102
RTVSPropertyOp20
 70
     1
102
RTVSPropertyOp21
 70
     1
102
RTVSPropertyOp22
 70
     1
102
RTVSPropertyOp23
 70
     1
102
RTVSPropertyOp24
 70
     1
102
RTVSPropertyOp25
 70
     1
102
RTVSPropertyOp26
 70
     1
102
RTVSPropertyOp27
 70
     1
102
RTVSPropertyOp28
 70
     1
102
RTVSPropertyOp29
 70
     1
102
RTVSPropertyOp30
 70
     1
102
RTVSPropertyOp31
 70
     1
102
RTVSPropertyOp32
 70
     1
102
RTVSPropertyOp33
 70
     1
102
RTVSPropertyOp34
 70
     1
102
RTVSPropertyOp35
 70
     1
102
RTVSPropertyOp36
 70
     1
102
RTVSPropertyOp37
 70
     1
102
RTVSPropertyOp38
 70
     1
102
RTVSPropertyOp39
 70
     1
102
RTVSPropertyOp40
 70
     1
102
RTVSPropertyOp41
 70
     1
102
RTVSPropertyOp42
 70
     1
102
RTVSPropertyOp43
 70
     1
102
RTVSPropertyOp44
 70
     1
102
RTVSPropertyOp45
 70
     1
102
RTVSPropertyOp46
 70
     1
102
RTVSPropertyOp47
 70
     1
102
RTVSPropertyOp48
 70
     1
102
RTVSPropertyOp49
 70
     1
102
RTVSPropertyOp50
 70
     1
102
RTVSPropertyOp51
 70
     0
102
RTVSPropertyOp52
 70
     0
102
RTVSPropertyOp53
 70
     1
102
RTVSPropertyOp54
 70
     1
102
RTVSPropertyOp55
 70
     1
102
RTVSPropertyOp56
 70
     1
102
RTVSPropertyOp57
 70
     1
102
RTVSPropertyOp58
 70
     1
102
RTVSPropertyOp59
 70
     1
102
RTVSPropertyOp60
 70
     1
102
RTVSPropertyOp61
 70
     1
102
RTVSPropertyOp62
 70
     1
  0
XRECORD
  5
2F4C
102
{ACAD_REACTORS
330
2F4B
102
}
330
2F4B
100
AcDbXrecord
280
     1
102
RTVSPost2010Prop28
280
     0
102
RTVSPost2010PropOp28
 70
     1
102
RTVSPost2010Prop29
280
     1
102
RTVSPost2010PropOp29
 70
     1
102
RTVSPost2010Prop30
280
     1
102
RTVSPost2010PropOp30
 70
     1
102
RTVSPost2010Prop31
280
     0
102
RTVSPost2010PropOp31
 70
     1
102
RTVSPost2010Prop32
280
     0
102
RTVSPost2010PropOp32
 70
     1
102
RTVSPost2010Prop33
280
     0
102
RTVSPost2010PropOp33
 70
     1
102
RTVSPost2010Prop34
280
     0
102
RTVSPost2010PropOp34
 70
     1
102
RTVSPost2010Prop35
280
     0
102
RTVSPost2010PropOp35
 70
     1
102
RTVSPost2010Prop36
280
     0
102
RTVSPost2010PropOp36
 70
     1
102
RTVSPost2010Prop37
 90
       50
102
RTVSPost2010PropOp37
 70
     0
102
RTVSPost2010Prop38
140
0.0
102
RTVSPost2010PropOp38
 70
     0
102
RTVSPost2010Prop39
140
1.0
102
RTVSPost2010PropOp39
 70
     0
102
RTVSPost2010Prop40
 90
        0
102
RTVSPost2010PropOp40
 70
     0
102
RTVSPost2010Prop41ColorIndex
 90
       18
102
RTVSPost2010Prop41ColorRGB
 90
        0
102
RTVSPost2010PropOp41
 70
     0
102
RTVSPost2010Prop42
 90
       50
102
RTVSPost2010PropOp42
 70
     0
102
RTVSPost2010Prop43
 90
        3
102
RTVSPost2010PropOp43
 70
     0
102
RTVSPost2010Prop44ColorIndex
 90
        5
102
RTVSPost2010Prop44ColorRGB
 90
      255
102
RTVSPost2010PropOp44
 70
     0
102
RTVSPost2010Prop45
280
     0
102
RTVSPost2010PropOp45
 70
     1
102
RTVSPost2010Prop46
 90
       50
102
RTVSPost2010PropOp46
 70
     0
102
RTVSPost2010Prop47
 90
       50
102
RTVSPost2010PropOp47
 70
     0
102
RTVSPost2010Prop48
 90
       50
102
RTVSPost2010PropOp48
 70
     0
102
RTVSPost2010Prop49
280
     0
102
RTVSPost2010PropOp49
 70
     1
102
RTVSPost2010Prop50
 90
       50
102
RTVSPost2010PropOp50
 70
     0
102
RTVSPost2010Prop51ColorIndex
 90
      256
102
RTVSPost2010Prop51ColorRGB
 90
-16777216
102
RTVSPost2010PropOp51
 70
     0
102
RTVSPost2010Prop52
140
1.0
102
RTVSPost2010PropOp52
 70
     0
102
RTVSPost2010Prop53
 90
        2
102
RTVSPost2010PropOp53
 70
     0
102
RTVSPost2010Prop54
  1
strokes_ogs.tif
102
RTVSPost2010PropOp54
 70
     0
102
RTVSPost2010Prop55
280
     0
102
RTVSPost2010PropOp55
 70
     1
102
RTVSPost2010Prop56
140
1.0
102
RTVSPost2010PropOp56
 70
     0
102
RTVSPost2010Prop57
140
1.0
102
RTVSPost2010PropOp57
 70
     0
102
RTVSPropertyOp0
 70
     0
102
RTVSPropertyOp1
 70
     0
102
RTVSPropertyOp2
 70
     0
102
RTVSPropertyOp3
 70
     0
102
RTVSPropertyOp4
 70
     0
102
RTVSPropertyOp5
 70
     0
102
RTVSPropertyOp6
 70
     0
102
RTVSPropertyOp7
 70
     0
102
RTVSPropertyOp8
 70
     0
102
RTVSPropertyOp9
 70
     0
102
RTVSPropertyOp10
 70
     0
102
RTVSPropertyOp11
 70
     0
102
RTVSPropertyOp12
 70
     0
102
RTVSPropertyOp13
 70
     0
102
RTVSPropertyOp14
 70
     2
102
RTVSPropertyOp15
 70
     0
102
RTVSPropertyOp16
 70
     0
102
RTVSPropertyOp17
 70
     0
102
RTVSPropertyOp18
 70
     0
102
RTVSPropertyOp19
 70
     0
102
RTVSPropertyOp20
 70
     0
102
RTVSPropertyOp21
 70
     0
102
RTVSPropertyOp22
 70
     0
102
RTVSPropertyOp23
 70
     0
102
RTVSPropertyOp24
 70
     0
102
RTVSPropertyOp25
 70
     0
102
RTVSPropertyOp26
 70
     0
102
RTVSPropertyOp27
 70
     0
102
RTVSPropertyOp28
 70
     1
102
RTVSPropertyOp29
 70
     1
102
RTVSPropertyOp30
 70
     1
102
RTVSPropertyOp31
 70
     1
102
RTVSPropertyOp32
 70
     1
102
RTVSPropertyOp33
 70
     1
102
RTVSPropertyOp34
 70
     1
102
RTVSPropertyOp35
 70
     1
102
RTVSPropertyOp36
 70
     1
102
RTVSPropertyOp37
 70
     0
102
RTVSPropertyOp38
 70
     0
102
RTVSPropertyOp39
 70
     0
102
RTVSPropertyOp40
 70
     0
102
RTVSPropertyOp41
 70
     0
102
RTVSPropertyOp42
 70
     0
102
RTVSPropertyOp43
 70
     0
102
RTVSPropertyOp44
 70
     0
102
RTVSPropertyOp45
 70
     1
102
RTVSPropertyOp46
 70
     0
102
RTVSPropertyOp47
 70
     0
102
RTVSPropertyOp48
 70
     0
102
RTVSPropertyOp49
 70
     1
102
RTVSPropertyOp50
 70
     0
102
RTVSPropertyOp51
 70
     0
102
RTVSPropertyOp52
 70
     0
102
RTVSPropertyOp53
 70
     0
102
RTVSPropertyOp54
 70
     0
102
RTVSPropertyOp55
 70
     1
102
RTVSPropertyOp56
 70
     0
102
RTVSPropertyOp57
 70
     0
102
RTVSPropertyOp58
 70
     0
102
RTVSPropertyOp59
 70
     0
102
RTVSPropertyOp60
 70
     0
102
RTVSPropertyOp61
 70
     0
102
RTVSPropertyOp62
 70
     0
  0
XRECORD
  5
2F32
102
{ACAD_REACTORS
330
2F31
102
}
330
2F31
100
AcDbXrecord
280
     1
102
RTVSPost2010Prop28
280
     0
102
RTVSPost2010PropOp28
 70
     1
102
RTVSPost2010Prop29
280
     1
102
RTVSPost2010PropOp29
 70
     1
102
RTVSPost2010Prop30
280
     1
102
RTVSPost2010PropOp30
 70
     1
102
RTVSPost2010Prop31
280
     0
102
RTVSPost2010PropOp31
 70
     1
102
RTVSPost2010Prop32
280
     0
102
RTVSPost2010PropOp32
 70
     1
102
RTVSPost2010Prop33
280
     0
102
RTVSPost2010PropOp33
 70
     1
102
RTVSPost2010Prop34
280
     0
102
RTVSPost2010PropOp34
 70
     1
102
RTVSPost2010Prop35
280
     0
102
RTVSPost2010PropOp35
 70
     1
102
RTVSPost2010Prop36
280
     0
102
RTVSPost2010PropOp36
 70
     1
102
RTVSPost2010Prop37
 90
       50
102
RTVSPost2010PropOp37
 70
     1
102
RTVSPost2010Prop38
140
0.0
102
RTVSPost2010PropOp38
 70
     1
102
RTVSPost2010Prop39
140
1.0
102
RTVSPost2010PropOp39
 70
     1
102
RTVSPost2010Prop40
 90
        0
102
RTVSPost2010PropOp40
 70
     1
102
RTVSPost2010Prop41ColorIndex
 90
       18
102
RTVSPost2010Prop41ColorRGB
 90
        0
102
RTVSPost2010PropOp41
 70
     1
102
RTVSPost2010Prop42
 90
       50
102
RTVSPost2010PropOp42
 70
     1
102
RTVSPost2010Prop43
 90
        3
102
RTVSPost2010PropOp43
 70
     1
102
RTVSPost2010Prop44ColorIndex
 90
        5
102
RTVSPost2010Prop44ColorRGB
 90
      255
102
RTVSPost2010PropOp44
 70
     1
102
RTVSPost2010Prop45
280
     0
102
RTVSPost2010PropOp45
 70
     1
102
RTVSPost2010Prop46
 90
       50
102
RTVSPost2010PropOp46
 70
     1
102
RTVSPost2010Prop47
 90
       50
102
RTVSPost2010PropOp47
 70
     1
102
RTVSPost2010Prop48
 90
       50
102
RTVSPost2010PropOp48
 70
     1
102
RTVSPost2010Prop49
280
     0
102
RTVSPost2010PropOp49
 70
     1
102
RTVSPost2010Prop50
 90
       50
102
RTVSPost2010PropOp50
 70
     1
102
RTVSPost2010Prop51ColorIndex
 90
      256
102
RTVSPost2010Prop51ColorRGB
 90
-16777216
102
RTVSPost2010PropOp51
 70
     0
102
RTVSPost2010Prop52
140
1.0
102
RTVSPost2010PropOp52
 70
     0
102
RTVSPost2010Prop53
 90
        2
102
RTVSPost2010PropOp53
 70
     1
102
RTVSPost2010Prop54
  1
strokes_ogs.tif
102
RTVSPost2010PropOp54
 70
     1
102
RTVSPost2010Prop55
280
     0
102
RTVSPost2010PropOp55
 70
     1
102
RTVSPost2010Prop56
140
1.0
102
RTVSPost2010PropOp56
 70
     1
102
RTVSPost2010Prop57
140
1.0
102
RTVSPost2010PropOp57
 70
     1
102
RTVSPropertyOp0
 70
     1
102
RTVSPropertyOp1
 70
     1
102
RTVSPropertyOp2
 70
     1
102
RTVSPropertyOp3
 70
     1
102
RTVSPropertyOp4
 70
     1
102
RTVSPropertyOp5
 70
     1
102
RTVSPropertyOp6
 70
     1
102
RTVSPropertyOp7
 70
     1
102
RTVSPropertyOp8
 70
     1
102
RTVSPropertyOp9
 70
     1
102
RTVSPropertyOp10
 70
     1
102
RTVSPropertyOp11
 70
     1
102
RTVSPropertyOp12
 70
     1
102
RTVSPropertyOp13
 70
     1
102
RTVSPropertyOp14
 70
     1
102
RTVSPropertyOp15
 70
     1
102
RTVSPropertyOp16
 70
     1
102
RTVSPropertyOp17
 70
     1
102
RTVSPropertyOp18
 70
     1
102
RTVSPropertyOp19
 70
     1
102
RTVSPropertyOp20
 70
     1
102
RTVSPropertyOp21
 70
     1
102
RTVSPropertyOp22
 70
     1
102
RTVSPropertyOp23
 70
     1
102
RTVSPropertyOp24
 70
     1
102
RTVSPropertyOp25
 70
     1
102
RTVSPropertyOp26
 70
     1
102
RTVSPropertyOp27
 70
     1
102
RTVSPropertyOp28
 70
     1
102
RTVSPropertyOp29
 70
     1
102
RTVSPropertyOp30
 70
     1
102
RTVSPropertyOp31
 70
     1
102
RTVSPropertyOp32
 70
     1
102
RTVSPropertyOp33
 70
     1
102
RTVSPropertyOp34
 70
     1
102
RTVSPropertyOp35
 70
     1
102
RTVSPropertyOp36
 70
     1
102
RTVSPropertyOp37
 70
     1
102
RTVSPropertyOp38
 70
     1
102
RTVSPropertyOp39
 70
     1
102
RTVSPropertyOp40
 70
     1
102
RTVSPropertyOp41
 70
     1
102
RTVSPropertyOp42
 70
     1
102
RTVSPropertyOp43
 70
     1
102
RTVSPropertyOp44
 70
     1
102
RTVSPropertyOp45
 70
     1
102
RTVSPropertyOp46
 70
     1
102
RTVSPropertyOp47
 70
     1
102
RTVSPropertyOp48
 70
     1
102
RTVSPropertyOp49
 70
     1
102
RTVSPropertyOp50
 70
     1
102
RTVSPropertyOp51
 70
     0
102
RTVSPropertyOp52
 70
     0
102
RTVSPropertyOp53
 70
     1
102
RTVSPropertyOp54
 70
     1
102
RTVSPropertyOp55
 70
     1
102
RTVSPropertyOp56
 70
     1
102
RTVSPropertyOp57
 70
     1
102
RTVSPropertyOp58
 70
     1
102
RTVSPropertyOp59
 70
     1
102
RTVSPropertyOp60
 70
     1
102
RTVSPropertyOp61
 70
     1
102
RTVSPropertyOp62
 70
     1
  0
XRECORD
  5
2F48
102
{ACAD_REACTORS
330
2F47
102
}
330
2F47
100
AcDbXrecord
280
     1
102
RTVSPost2010Prop28
280
     0
102
RTVSPost2010PropOp28
 70
     1
102
RTVSPost2010Prop29
280
     1
102
RTVSPost2010PropOp29
 70
     1
102
RTVSPost2010Prop30
280
     1
102
RTVSPost2010PropOp30
 70
     1
102
RTVSPost2010Prop31
280
     0
102
RTVSPost2010PropOp31
 70
     1
102
RTVSPost2010Prop32
280
     0
102
RTVSPost2010PropOp32
 70
     1
102
RTVSPost2010Prop33
280
     0
102
RTVSPost2010PropOp33
 70
     1
102
RTVSPost2010Prop34
280
     0
102
RTVSPost2010PropOp34
 70
     1
102
RTVSPost2010Prop35
280
     0
102
RTVSPost2010PropOp35
 70
     1
102
RTVSPost2010Prop36
280
     0
102
RTVSPost2010PropOp36
 70
     1
102
RTVSPost2010Prop37
 90
       50
102
RTVSPost2010PropOp37
 70
     1
102
RTVSPost2010Prop38
140
0.0
102
RTVSPost2010PropOp38
 70
     1
102
RTVSPost2010Prop39
140
1.0
102
RTVSPost2010PropOp39
 70
     1
102
RTVSPost2010Prop40
 90
        0
102
RTVSPost2010PropOp40
 70
     1
102
RTVSPost2010Prop41ColorIndex
 90
       18
102
RTVSPost2010Prop41ColorRGB
 90
        0
102
RTVSPost2010PropOp41
 70
     1
102
RTVSPost2010Prop42
 90
       50
102
RTVSPost2010PropOp42
 70
     1
102
RTVSPost2010Prop43
 90
        3
102
RTVSPost2010PropOp43
 70
     1
102
RTVSPost2010Prop44ColorIndex
 90
        5
102
RTVSPost2010Prop44ColorRGB
 90
      255
102
RTVSPost2010PropOp44
 70
     1
102
RTVSPost2010Prop45
280
     0
102
RTVSPost2010PropOp45
 70
     1
102
RTVSPost2010Prop46
 90
       50
102
RTVSPost2010PropOp46
 70
     1
102
RTVSPost2010Prop47
 90
       50
102
RTVSPost2010PropOp47
 70
     1
102
RTVSPost2010Prop48
 90
       50
102
RTVSPost2010PropOp48
 70
     1
102
RTVSPost2010Prop49
280
     0
102
RTVSPost2010PropOp49
 70
     1
102
RTVSPost2010Prop50
 90
       50
102
RTVSPost2010PropOp50
 70
     1
102
RTVSPost2010Prop51ColorIndex
 90
      256
102
RTVSPost2010Prop51ColorRGB
 90
-16777216
102
RTVSPost2010PropOp51
 70
     0
102
RTVSPost2010Prop52
140
1.0
102
RTVSPost2010PropOp52
 70
     0
102
RTVSPost2010Prop53
 90
        2
102
RTVSPost2010PropOp53
 70
     1
102
RTVSPost2010Prop54
  1
strokes_ogs.tif
102
RTVSPost2010PropOp54
 70
     1
102
RTVSPost2010Prop55
280
     0
102
RTVSPost2010PropOp55
 70
     1
102
RTVSPost2010Prop56
140
1.0
102
RTVSPost2010PropOp56
 70
     1
102
RTVSPost2010Prop57
140
1.0
102
RTVSPost2010PropOp57
 70
     1
102
RTVSPropertyOp0
 70
     1
102
RTVSPropertyOp1
 70
     1
102
RTVSPropertyOp2
 70
     1
102
RTVSPropertyOp3
 70
     1
102
RTVSPropertyOp4
 70
     1
102
RTVSPropertyOp5
 70
     1
102
RTVSPropertyOp6
 70
     1
102
RTVSPropertyOp7
 70
     1
102
RTVSPropertyOp8
 70
     1
102
RTVSPropertyOp9
 70
     1
102
RTVSPropertyOp10
 70
     1
102
RTVSPropertyOp11
 70
     1
102
RTVSPropertyOp12
 70
     1
102
RTVSPropertyOp13
 70
     1
102
RTVSPropertyOp14
 70
     1
102
RTVSPropertyOp15
 70
     1
102
RTVSPropertyOp16
 70
     1
102
RTVSPropertyOp17
 70
     1
102
RTVSPropertyOp18
 70
     1
102
RTVSPropertyOp19
 70
     1
102
RTVSPropertyOp20
 70
     1
102
RTVSPropertyOp21
 70
     1
102
RTVSPropertyOp22
 70
     1
102
RTVSPropertyOp23
 70
     1
102
RTVSPropertyOp24
 70
     1
102
RTVSPropertyOp25
 70
     1
102
RTVSPropertyOp26
 70
     1
102
RTVSPropertyOp27
 70
     1
102
RTVSPropertyOp28
 70
     1
102
RTVSPropertyOp29
 70
     1
102
RTVSPropertyOp30
 70
     1
102
RTVSPropertyOp31
 70
     1
102
RTVSPropertyOp32
 70
     1
102
RTVSPropertyOp33
 70
     1
102
RTVSPropertyOp34
 70
     1
102
RTVSPropertyOp35
 70
     1
102
RTVSPropertyOp36
 70
     1
102
RTVSPropertyOp37
 70
     1
102
RTVSPropertyOp38
 70
     1
102
RTVSPropertyOp39
 70
     1
102
RTVSPropertyOp40
 70
     1
102
RTVSPropertyOp41
 70
     1
102
RTVSPropertyOp42
 70
     1
102
RTVSPropertyOp43
 70
     1
102
RTVSPropertyOp44
 70
     1
102
RTVSPropertyOp45
 70
     1
102
RTVSPropertyOp46
 70
     1
102
RTVSPropertyOp47
 70
     1
102
RTVSPropertyOp48
 70
     1
102
RTVSPropertyOp49
 70
     1
102
RTVSPropertyOp50
 70
     1
102
RTVSPropertyOp51
 70
     0
102
RTVSPropertyOp52
 70
     0
102
RTVSPropertyOp53
 70
     1
102
RTVSPropertyOp54
 70
     1
102
RTVSPropertyOp55
 70
     1
102
RTVSPropertyOp56
 70
     1
102
RTVSPropertyOp57
 70
     1
102
RTVSPropertyOp58
 70
     1
102
RTVSPropertyOp59
 70
     1
102
RTVSPropertyOp60
 70
     1
102
RTVSPropertyOp61
 70
     1
102
RTVSPropertyOp62
 70
     1
  0
XRECORD
  5
2F46
102
{ACAD_REACTORS
330
2F45
102
}
330
2F45
100
AcDbXrecord
280
     1
102
RTVSPost2010Prop28
280
     0
102
RTVSPost2010PropOp28
 70
     1
102
RTVSPost2010Prop29
280
     1
102
RTVSPost2010PropOp29
 70
     1
102
RTVSPost2010Prop30
280
     1
102
RTVSPost2010PropOp30
 70
     1
102
RTVSPost2010Prop31
280
     0
102
RTVSPost2010PropOp31
 70
     1
102
RTVSPost2010Prop32
280
     0
102
RTVSPost2010PropOp32
 70
     1
102
RTVSPost2010Prop33
280
     0
102
RTVSPost2010PropOp33
 70
     1
102
RTVSPost2010Prop34
280
     0
102
RTVSPost2010PropOp34
 70
     1
102
RTVSPost2010Prop35
280
     0
102
RTVSPost2010PropOp35
 70
     1
102
RTVSPost2010Prop36
280
     0
102
RTVSPost2010PropOp36
 70
     1
102
RTVSPost2010Prop37
 90
       50
102
RTVSPost2010PropOp37
 70
     1
102
RTVSPost2010Prop38
140
0.0
102
RTVSPost2010PropOp38
 70
     1
102
RTVSPost2010Prop39
140
1.0
102
RTVSPost2010PropOp39
 70
     1
102
RTVSPost2010Prop40
 90
        0
102
RTVSPost2010PropOp40
 70
     1
102
RTVSPost2010Prop41ColorIndex
 90
       18
102
RTVSPost2010Prop41ColorRGB
 90
        0
102
RTVSPost2010PropOp41
 70
     1
102
RTVSPost2010Prop42
 90
       50
102
RTVSPost2010PropOp42
 70
     1
102
RTVSPost2010Prop43
 90
        3
102
RTVSPost2010PropOp43
 70
     1
102
RTVSPost2010Prop44ColorIndex
 90
        5
102
RTVSPost2010Prop44ColorRGB
 90
      255
102
RTVSPost2010PropOp44
 70
     1
102
RTVSPost2010Prop45
280
     0
102
RTVSPost2010PropOp45
 70
     1
102
RTVSPost2010Prop46
 90
       50
102
RTVSPost2010PropOp46
 70
     1
102
RTVSPost2010Prop47
 90
       50
102
RTVSPost2010PropOp47
 70
     1
102
RTVSPost2010Prop48
 90
       50
102
RTVSPost2010PropOp48
 70
     1
102
RTVSPost2010Prop49
280
     0
102
RTVSPost2010PropOp49
 70
     1
102
RTVSPost2010Prop50
 90
       50
102
RTVSPost2010PropOp50
 70
     1
102
RTVSPost2010Prop51ColorIndex
 90
      256
102
RTVSPost2010Prop51ColorRGB
 90
-16777216
102
RTVSPost2010PropOp51
 70
     0
102
RTVSPost2010Prop52
140
1.0
102
RTVSPost2010PropOp52
 70
     0
102
RTVSPost2010Prop53
 90
        2
102
RTVSPost2010PropOp53
 70
     1
102
RTVSPost2010Prop54
  1
strokes_ogs.tif
102
RTVSPost2010PropOp54
 70
     1
102
RTVSPost2010Prop55
280
     0
102
RTVSPost2010PropOp55
 70
     1
102
RTVSPost2010Prop56
140
1.0
102
RTVSPost2010PropOp56
 70
     1
102
RTVSPost2010Prop57
140
1.0
102
RTVSPost2010PropOp57
 70
     1
102
RTVSPropertyOp0
 70
     1
102
RTVSPropertyOp1
 70
     1
102
RTVSPropertyOp2
 70
     1
102
RTVSPropertyOp3
 70
     1
102
RTVSPropertyOp4
 70
     1
102
RTVSPropertyOp5
 70
     1
102
RTVSPropertyOp6
 70
     1
102
RTVSPropertyOp7
 70
     1
102
RTVSPropertyOp8
 70
     1
102
RTVSPropertyOp9
 70
     1
102
RTVSPropertyOp10
 70
     1
102
RTVSPropertyOp11
 70
     1
102
RTVSPropertyOp12
 70
     1
102
RTVSPropertyOp13
 70
     1
102
RTVSPropertyOp14
 70
     1
102
RTVSPropertyOp15
 70
     1
102
RTVSPropertyOp16
 70
     1
102
RTVSPropertyOp17
 70
     1
102
RTVSPropertyOp18
 70
     1
102
RTVSPropertyOp19
 70
     1
102
RTVSPropertyOp20
 70
     1
102
RTVSPropertyOp21
 70
     1
102
RTVSPropertyOp22
 70
     1
102
RTVSPropertyOp23
 70
     1
102
RTVSPropertyOp24
 70
     1
102
RTVSPropertyOp25
 70
     1
102
RTVSPropertyOp26
 70
     1
102
RTVSPropertyOp27
 70
     1
102
RTVSPropertyOp28
 70
     1
102
RTVSPropertyOp29
 70
     1
102
RTVSPropertyOp30
 70
     1
102
RTVSPropertyOp31
 70
     1
102
RTVSPropertyOp32
 70
     1
102
RTVSPropertyOp33
 70
     1
102
RTVSPropertyOp34
 70
     1
102
RTVSPropertyOp35
 70
     1
102
RTVSPropertyOp36
 70
     1
102
RTVSPropertyOp37
 70
     1
102
RTVSPropertyOp38
 70
     1
102
RTVSPropertyOp39
 70
     1
102
RTVSPropertyOp40
 70
     1
102
RTVSPropertyOp41
 70
     1
102
RTVSPropertyOp42
 70
     1
102
RTVSPropertyOp43
 70
     1
102
RTVSPropertyOp44
 70
     1
102
RTVSPropertyOp45
 70
     1
102
RTVSPropertyOp46
 70
     1
102
RTVSPropertyOp47
 70
     1
102
RTVSPropertyOp48
 70
     1
102
RTVSPropertyOp49
 70
     1
102
RTVSPropertyOp50
 70
     1
102
RTVSPropertyOp51
 70
     0
102
RTVSPropertyOp52
 70
     0
102
RTVSPropertyOp53
 70
     1
102
RTVSPropertyOp54
 70
     1
102
RTVSPropertyOp55
 70
     1
102
RTVSPropertyOp56
 70
     1
102
RTVSPropertyOp57
 70
     1
102
RTVSPropertyOp58
 70
     1
102
RTVSPropertyOp59
 70
     1
102
RTVSPropertyOp60
 70
     1
102
RTVSPropertyOp61
 70
     1
102
RTVSPropertyOp62
 70
     1
  0
XRECORD
  5
2F40
102
{ACAD_REACTORS
330
2F3F
102
}
330
2F3F
100
AcDbXrecord
280
     1
102
RTVSPost2010Prop28
280
     0
102
RTVSPost2010PropOp28
 70
     1
102
RTVSPost2010Prop29
280
     1
102
RTVSPost2010PropOp29
 70
     1
102
RTVSPost2010Prop30
280
     1
102
RTVSPost2010PropOp30
 70
     1
102
RTVSPost2010Prop31
280
     0
102
RTVSPost2010PropOp31
 70
     1
102
RTVSPost2010Prop32
280
     0
102
RTVSPost2010PropOp32
 70
     1
102
RTVSPost2010Prop33
280
     0
102
RTVSPost2010PropOp33
 70
     1
102
RTVSPost2010Prop34
280
     0
102
RTVSPost2010PropOp34
 70
     1
102
RTVSPost2010Prop35
280
     0
102
RTVSPost2010PropOp35
 70
     1
102
RTVSPost2010Prop36
280
     0
102
RTVSPost2010PropOp36
 70
     1
102
RTVSPost2010Prop37
 90
       50
102
RTVSPost2010PropOp37
 70
     1
102
RTVSPost2010Prop38
140
0.0
102
RTVSPost2010PropOp38
 70
     1
102
RTVSPost2010Prop39
140
1.0
102
RTVSPost2010PropOp39
 70
     1
102
RTVSPost2010Prop40
 90
        0
102
RTVSPost2010PropOp40
 70
     1
102
RTVSPost2010Prop41ColorIndex
 90
       18
102
RTVSPost2010Prop41ColorRGB
 90
        0
102
RTVSPost2010PropOp41
 70
     1
102
RTVSPost2010Prop42
 90
       50
102
RTVSPost2010PropOp42
 70
     1
102
RTVSPost2010Prop43
 90
        3
102
RTVSPost2010PropOp43
 70
     1
102
RTVSPost2010Prop44ColorIndex
 90
        5
102
RTVSPost2010Prop44ColorRGB
 90
      255
102
RTVSPost2010PropOp44
 70
     1
102
RTVSPost2010Prop45
280
     0
102
RTVSPost2010PropOp45
 70
     1
102
RTVSPost2010Prop46
 90
       50
102
RTVSPost2010PropOp46
 70
     1
102
RTVSPost2010Prop47
 90
       50
102
RTVSPost2010PropOp47
 70
     1
102
RTVSPost2010Prop48
 90
       50
102
RTVSPost2010PropOp48
 70
     1
102
RTVSPost2010Prop49
280
     0
102
RTVSPost2010PropOp49
 70
     1
102
RTVSPost2010Prop50
 90
       50
102
RTVSPost2010PropOp50
 70
     1
102
RTVSPost2010Prop51ColorIndex
 90
      256
102
RTVSPost2010Prop51ColorRGB
 90
-16777216
102
RTVSPost2010PropOp51
 70
     0
102
RTVSPost2010Prop52
140
1.0
102
RTVSPost2010PropOp52
 70
     0
102
RTVSPost2010Prop53
 90
        2
102
RTVSPost2010PropOp53
 70
     1
102
RTVSPost2010Prop54
  1
strokes_ogs.tif
102
RTVSPost2010PropOp54
 70
     1
102
RTVSPost2010Prop55
280
     0
102
RTVSPost2010PropOp55
 70
     1
102
RTVSPost2010Prop56
140
1.0
102
RTVSPost2010PropOp56
 70
     1
102
RTVSPost2010Prop57
140
1.0
102
RTVSPost2010PropOp57
 70
     1
102
RTVSPropertyOp0
 70
     1
102
RTVSPropertyOp1
 70
     1
102
RTVSPropertyOp2
 70
     1
102
RTVSPropertyOp3
 70
     1
102
RTVSPropertyOp4
 70
     1
102
RTVSPropertyOp5
 70
     1
102
RTVSPropertyOp6
 70
     1
102
RTVSPropertyOp7
 70
     1
102
RTVSPropertyOp8
 70
     1
102
RTVSPropertyOp9
 70
     1
102
RTVSPropertyOp10
 70
     1
102
RTVSPropertyOp11
 70
     1
102
RTVSPropertyOp12
 70
     1
102
RTVSPropertyOp13
 70
     1
102
RTVSPropertyOp14
 70
     1
102
RTVSPropertyOp15
 70
     1
102
RTVSPropertyOp16
 70
     1
102
RTVSPropertyOp17
 70
     1
102
RTVSPropertyOp18
 70
     1
102
RTVSPropertyOp19
 70
     1
102
RTVSPropertyOp20
 70
     1
102
RTVSPropertyOp21
 70
     1
102
RTVSPropertyOp22
 70
     1
102
RTVSPropertyOp23
 70
     1
102
RTVSPropertyOp24
 70
     1
102
RTVSPropertyOp25
 70
     1
102
RTVSPropertyOp26
 70
     1
102
RTVSPropertyOp27
 70
     1
102
RTVSPropertyOp28
 70
     1
102
RTVSPropertyOp29
 70
     1
102
RTVSPropertyOp30
 70
     1
102
RTVSPropertyOp31
 70
     1
102
RTVSPropertyOp32
 70
     1
102
RTVSPropertyOp33
 70
     1
102
RTVSPropertyOp34
 70
     1
102
RTVSPropertyOp35
 70
     1
102
RTVSPropertyOp36
 70
     1
102
RTVSPropertyOp37
 70
     1
102
RTVSPropertyOp38
 70
     1
102
RTVSPropertyOp39
 70
     1
102
RTVSPropertyOp40
 70
     1
102
RTVSPropertyOp41
 70
     1
102
RTVSPropertyOp42
 70
     1
102
RTVSPropertyOp43
 70
     1
102
RTVSPropertyOp44
 70
     1
102
RTVSPropertyOp45
 70
     1
102
RTVSPropertyOp46
 70
     1
102
RTVSPropertyOp47
 70
     1
102
RTVSPropertyOp48
 70
     1
102
RTVSPropertyOp49
 70
     1
102
RTVSPropertyOp50
 70
     1
102
RTVSPropertyOp51
 70
     0
102
RTVSPropertyOp52
 70
     0
102
RTVSPropertyOp53
 70
     1
102
RTVSPropertyOp54
 70
     1
102
RTVSPropertyOp55
 70
     1
102
RTVSPropertyOp56
 70
     1
102
RTVSPropertyOp57
 70
     1
102
RTVSPropertyOp58
 70
     1
102
RTVSPropertyOp59
 70
     1
102
RTVSPropertyOp60
 70
     1
102
RTVSPropertyOp61
 70
     1
102
RTVSPropertyOp62
 70
     1
  0
XRECORD
  5
2F42
102
{ACAD_REACTORS
330
2F41
102
}
330
2F41
100
AcDbXrecord
280
     1
102
RTVSPost2010Prop28
280
     0
102
RTVSPost2010PropOp28
 70
     1
102
RTVSPost2010Prop29
280
     1
102
RTVSPost2010PropOp29
 70
     1
102
RTVSPost2010Prop30
280
     1
102
RTVSPost2010PropOp30
 70
     1
102
RTVSPost2010Prop31
280
     0
102
RTVSPost2010PropOp31
 70
     1
102
RTVSPost2010Prop32
280
     0
102
RTVSPost2010PropOp32
 70
     1
102
RTVSPost2010Prop33
280
     0
102
RTVSPost2010PropOp33
 70
     1
102
RTVSPost2010Prop34
280
     0
102
RTVSPost2010PropOp34
 70
     1
102
RTVSPost2010Prop35
280
     0
102
RTVSPost2010PropOp35
 70
     1
102
RTVSPost2010Prop36
280
     0
102
RTVSPost2010PropOp36
 70
     1
102
RTVSPost2010Prop37
 90
       50
102
RTVSPost2010PropOp37
 70
     1
102
RTVSPost2010Prop38
140
0.0
102
RTVSPost2010PropOp38
 70
     1
102
RTVSPost2010Prop39
140
1.0
102
RTVSPost2010PropOp39
 70
     1
102
RTVSPost2010Prop40
 90
        0
102
RTVSPost2010PropOp40
 70
     1
102
RTVSPost2010Prop41ColorIndex
 90
       18
102
RTVSPost2010Prop41ColorRGB
 90
        0
102
RTVSPost2010PropOp41
 70
     1
102
RTVSPost2010Prop42
 90
       50
102
RTVSPost2010PropOp42
 70
     1
102
RTVSPost2010Prop43
 90
        3
102
RTVSPost2010PropOp43
 70
     1
102
RTVSPost2010Prop44ColorIndex
 90
        5
102
RTVSPost2010Prop44ColorRGB
 90
      255
102
RTVSPost2010PropOp44
 70
     1
102
RTVSPost2010Prop45
280
     0
102
RTVSPost2010PropOp45
 70
     1
102
RTVSPost2010Prop46
 90
       50
102
RTVSPost2010PropOp46
 70
     1
102
RTVSPost2010Prop47
 90
       50
102
RTVSPost2010PropOp47
 70
     1
102
RTVSPost2010Prop48
 90
       50
102
RTVSPost2010PropOp48
 70
     1
102
RTVSPost2010Prop49
280
     0
102
RTVSPost2010PropOp49
 70
     1
102
RTVSPost2010Prop50
 90
       50
102
RTVSPost2010PropOp50
 70
     1
102
RTVSPost2010Prop51ColorIndex
 90
      256
102
RTVSPost2010Prop51ColorRGB
 90
-16777216
102
RTVSPost2010PropOp51
 70
     0
102
RTVSPost2010Prop52
140
1.0
102
RTVSPost2010PropOp52
 70
     0
102
RTVSPost2010Prop53
 90
        2
102
RTVSPost2010PropOp53
 70
     1
102
RTVSPost2010Prop54
  1
strokes_ogs.tif
102
RTVSPost2010PropOp54
 70
     1
102
RTVSPost2010Prop55
280
     0
102
RTVSPost2010PropOp55
 70
     1
102
RTVSPost2010Prop56
140
1.0
102
RTVSPost2010PropOp56
 70
     1
102
RTVSPost2010Prop57
140
1.0
102
RTVSPost2010PropOp57
 70
     1
102
RTVSPropertyOp0
 70
     1
102
RTVSPropertyOp1
 70
     1
102
RTVSPropertyOp2
 70
     1
102
RTVSPropertyOp3
 70
     1
102
RTVSPropertyOp4
 70
     1
102
RTVSPropertyOp5
 70
     1
102
RTVSPropertyOp6
 70
     1
102
RTVSPropertyOp7
 70
     1
102
RTVSPropertyOp8
 70
     1
102
RTVSPropertyOp9
 70
     1
102
RTVSPropertyOp10
 70
     1
102
RTVSPropertyOp11
 70
     1
102
RTVSPropertyOp12
 70
     1
102
RTVSPropertyOp13
 70
     1
102
RTVSPropertyOp14
 70
     1
102
RTVSPropertyOp15
 70
     1
102
RTVSPropertyOp16
 70
     1
102
RTVSPropertyOp17
 70
     1
102
RTVSPropertyOp18
 70
     1
102
RTVSPropertyOp19
 70
     1
102
RTVSPropertyOp20
 70
     1
102
RTVSPropertyOp21
 70
     1
102
RTVSPropertyOp22
 70
     1
102
RTVSPropertyOp23
 70
     1
102
RTVSPropertyOp24
 70
     1
102
RTVSPropertyOp25
 70
     1
102
RTVSPropertyOp26
 70
     1
102
RTVSPropertyOp27
 70
     1
102
RTVSPropertyOp28
 70
     1
102
RTVSPropertyOp29
 70
     1
102
RTVSPropertyOp30
 70
     1
102
RTVSPropertyOp31
 70
     1
102
RTVSPropertyOp32
 70
     1
102
RTVSPropertyOp33
 70
     1
102
RTVSPropertyOp34
 70
     1
102
RTVSPropertyOp35
 70
     1
102
RTVSPropertyOp36
 70
     1
102
RTVSPropertyOp37
 70
     1
102
RTVSPropertyOp38
 70
     1
102
RTVSPropertyOp39
 70
     1
102
RTVSPropertyOp40
 70
     1
102
RTVSPropertyOp41
 70
     1
102
RTVSPropertyOp42
 70
     1
102
RTVSPropertyOp43
 70
     1
102
RTVSPropertyOp44
 70
     1
102
RTVSPropertyOp45
 70
     1
102
RTVSPropertyOp46
 70
     1
102
RTVSPropertyOp47
 70
     1
102
RTVSPropertyOp48
 70
     1
102
RTVSPropertyOp49
 70
     1
102
RTVSPropertyOp50
 70
     1
102
RTVSPropertyOp51
 70
     0
102
RTVSPropertyOp52
 70
     0
102
RTVSPropertyOp53
 70
     1
102
RTVSPropertyOp54
 70
     1
102
RTVSPropertyOp55
 70
     1
102
RTVSPropertyOp56
 70
     1
102
RTVSPropertyOp57
 70
     1
102
RTVSPropertyOp58
 70
     1
102
RTVSPropertyOp59
 70
     1
102
RTVSPropertyOp60
 70
     1
102
RTVSPropertyOp61
 70
     1
102
RTVSPropertyOp62
 70
     1
  0
XRECORD
  5
2F38
102
{ACAD_REACTORS
330
2F37
102
}
330
2F37
100
AcDbXrecord
280
     1
102
RTVSPost2010Prop28
280
     0
102
RTVSPost2010PropOp28
 70
     1
102
RTVSPost2010Prop29
280
     1
102
RTVSPost2010PropOp29
 70
     1
102
RTVSPost2010Prop30
280
     1
102
RTVSPost2010PropOp30
 70
     1
102
RTVSPost2010Prop31
280
     0
102
RTVSPost2010PropOp31
 70
     1
102
RTVSPost2010Prop32
280
     0
102
RTVSPost2010PropOp32
 70
     1
102
RTVSPost2010Prop33
280
     0
102
RTVSPost2010PropOp33
 70
     1
102
RTVSPost2010Prop34
280
     0
102
RTVSPost2010PropOp34
 70
     1
102
RTVSPost2010Prop35
280
     0
102
RTVSPost2010PropOp35
 70
     1
102
RTVSPost2010Prop36
280
     0
102
RTVSPost2010PropOp36
 70
     1
102
RTVSPost2010Prop37
 90
       50
102
RTVSPost2010PropOp37
 70
     1
102
RTVSPost2010Prop38
140
0.0
102
RTVSPost2010PropOp38
 70
     1
102
RTVSPost2010Prop39
140
1.0
102
RTVSPost2010PropOp39
 70
     1
102
RTVSPost2010Prop40
 90
        0
102
RTVSPost2010PropOp40
 70
     1
102
RTVSPost2010Prop41ColorIndex
 90
       18
102
RTVSPost2010Prop41ColorRGB
 90
        0
102
RTVSPost2010PropOp41
 70
     1
102
RTVSPost2010Prop42
 90
       50
102
RTVSPost2010PropOp42
 70
     1
102
RTVSPost2010Prop43
 90
        3
102
RTVSPost2010PropOp43
 70
     1
102
RTVSPost2010Prop44ColorIndex
 90
        5
102
RTVSPost2010Prop44ColorRGB
 90
      255
102
RTVSPost2010PropOp44
 70
     1
102
RTVSPost2010Prop45
280
     0
102
RTVSPost2010PropOp45
 70
     1
102
RTVSPost2010Prop46
 90
       50
102
RTVSPost2010PropOp46
 70
     1
102
RTVSPost2010Prop47
 90
       50
102
RTVSPost2010PropOp47
 70
     1
102
RTVSPost2010Prop48
 90
       50
102
RTVSPost2010PropOp48
 70
     1
102
RTVSPost2010Prop49
280
     0
102
RTVSPost2010PropOp49
 70
     1
102
RTVSPost2010Prop50
 90
       50
102
RTVSPost2010PropOp50
 70
     1
102
RTVSPost2010Prop51ColorIndex
 90
      256
102
RTVSPost2010Prop51ColorRGB
 90
-16777216
102
RTVSPost2010PropOp51
 70
     0
102
RTVSPost2010Prop52
140
1.0
102
RTVSPost2010PropOp52
 70
     0
102
RTVSPost2010Prop53
 90
        2
102
RTVSPost2010PropOp53
 70
     1
102
RTVSPost2010Prop54
  1
strokes_ogs.tif
102
RTVSPost2010PropOp54
 70
     1
102
RTVSPost2010Prop55
280
     0
102
RTVSPost2010PropOp55
 70
     1
102
RTVSPost2010Prop56
140
1.0
102
RTVSPost2010PropOp56
 70
     1
102
RTVSPost2010Prop57
140
1.0
102
RTVSPost2010PropOp57
 70
     1
102
RTVSPropertyOp0
 70
     1
102
RTVSPropertyOp1
 70
     1
102
RTVSPropertyOp2
 70
     1
102
RTVSPropertyOp3
 70
     1
102
RTVSPropertyOp4
 70
     1
102
RTVSPropertyOp5
 70
     1
102
RTVSPropertyOp6
 70
     1
102
RTVSPropertyOp7
 70
     1
102
RTVSPropertyOp8
 70
     1
102
RTVSPropertyOp9
 70
     1
102
RTVSPropertyOp10
 70
     1
102
RTVSPropertyOp11
 70
     1
102
RTVSPropertyOp12
 70
     1
102
RTVSPropertyOp13
 70
     1
102
RTVSPropertyOp14
 70
     1
102
RTVSPropertyOp15
 70
     1
102
RTVSPropertyOp16
 70
     1
102
RTVSPropertyOp17
 70
     1
102
RTVSPropertyOp18
 70
     1
102
RTVSPropertyOp19
 70
     1
102
RTVSPropertyOp20
 70
     1
102
RTVSPropertyOp21
 70
     1
102
RTVSPropertyOp22
 70
     1
102
RTVSPropertyOp23
 70
     1
102
RTVSPropertyOp24
 70
     1
102
RTVSPropertyOp25
 70
     1
102
RTVSPropertyOp26
 70
     1
102
RTVSPropertyOp27
 70
     1
102
RTVSPropertyOp28
 70
     1
102
RTVSPropertyOp29
 70
     1
102
RTVSPropertyOp30
 70
     1
102
RTVSPropertyOp31
 70
     1
102
RTVSPropertyOp32
 70
     1
102
RTVSPropertyOp33
 70
     1
102
RTVSPropertyOp34
 70
     1
102
RTVSPropertyOp35
 70
     1
102
RTVSPropertyOp36
 70
     1
102
RTVSPropertyOp37
 70
     1
102
RTVSPropertyOp38
 70
     1
102
RTVSPropertyOp39
 70
     1
102
RTVSPropertyOp40
 70
     1
102
RTVSPropertyOp41
 70
     1
102
RTVSPropertyOp42
 70
     1
102
RTVSPropertyOp43
 70
     1
102
RTVSPropertyOp44
 70
     1
102
RTVSPropertyOp45
 70
     1
102
RTVSPropertyOp46
 70
     1
102
RTVSPropertyOp47
 70
     1
102
RTVSPropertyOp48
 70
     1
102
RTVSPropertyOp49
 70
     1
102
RTVSPropertyOp50
 70
     1
102
RTVSPropertyOp51
 70
     0
102
RTVSPropertyOp52
 70
     0
102
RTVSPropertyOp53
 70
     1
102
RTVSPropertyOp54
 70
     1
102
RTVSPropertyOp55
 70
     1
102
RTVSPropertyOp56
 70
     1
102
RTVSPropertyOp57
 70
     1
102
RTVSPropertyOp58
 70
     1
102
RTVSPropertyOp59
 70
     1
102
RTVSPropertyOp60
 70
     1
102
RTVSPropertyOp61
 70
     1
102
RTVSPropertyOp62
 70
     1
  0
XRECORD
  5
2F2C
102
{ACAD_REACTORS
330
2F2B
102
}
330
2F2B
100
AcDbXrecord
280
     1
102
RTVSPost2010Prop28
280
     0
102
RTVSPost2010PropOp28
 70
     1
102
RTVSPost2010Prop29
280
     1
102
RTVSPost2010PropOp29
 70
     1
102
RTVSPost2010Prop30
280
     1
102
RTVSPost2010PropOp30
 70
     1
102
RTVSPost2010Prop31
280
     0
102
RTVSPost2010PropOp31
 70
     1
102
RTVSPost2010Prop32
280
     0
102
RTVSPost2010PropOp32
 70
     1
102
RTVSPost2010Prop33
280
     0
102
RTVSPost2010PropOp33
 70
     1
102
RTVSPost2010Prop34
280
     0
102
RTVSPost2010PropOp34
 70
     1
102
RTVSPost2010Prop35
280
     0
102
RTVSPost2010PropOp35
 70
     1
102
RTVSPost2010Prop36
280
     0
102
RTVSPost2010PropOp36
 70
     1
102
RTVSPost2010Prop37
 90
       50
102
RTVSPost2010PropOp37
 70
     1
102
RTVSPost2010Prop38
140
0.0
102
RTVSPost2010PropOp38
 70
     1
102
RTVSPost2010Prop39
140
1.0
102
RTVSPost2010PropOp39
 70
     1
102
RTVSPost2010Prop40
 90
        0
102
RTVSPost2010PropOp40
 70
     1
102
RTVSPost2010Prop41ColorIndex
 90
       18
102
RTVSPost2010Prop41ColorRGB
 90
        0
102
RTVSPost2010PropOp41
 70
     1
102
RTVSPost2010Prop42
 90
       50
102
RTVSPost2010PropOp42
 70
     1
102
RTVSPost2010Prop43
 90
        3
102
RTVSPost2010PropOp43
 70
     1
102
RTVSPost2010Prop44ColorIndex
 90
        5
102
RTVSPost2010Prop44ColorRGB
 90
      255
102
RTVSPost2010PropOp44
 70
     1
102
RTVSPost2010Prop45
280
     0
102
RTVSPost2010PropOp45
 70
     1
102
RTVSPost2010Prop46
 90
       50
102
RTVSPost2010PropOp46
 70
     1
102
RTVSPost2010Prop47
 90
       50
102
RTVSPost2010PropOp47
 70
     1
102
RTVSPost2010Prop48
 90
       50
102
RTVSPost2010PropOp48
 70
     1
102
RTVSPost2010Prop49
280
     0
102
RTVSPost2010PropOp49
 70
     1
102
RTVSPost2010Prop50
 90
       50
102
RTVSPost2010PropOp50
 70
     1
102
RTVSPost2010Prop51ColorIndex
 90
      256
102
RTVSPost2010Prop51ColorRGB
 90
-16777216
102
RTVSPost2010PropOp51
 70
     0
102
RTVSPost2010Prop52
140
1.0
102
RTVSPost2010PropOp52
 70
     0
102
RTVSPost2010Prop53
 90
        2
102
RTVSPost2010PropOp53
 70
     1
102
RTVSPost2010Prop54
  1
strokes_ogs.tif
102
RTVSPost2010PropOp54
 70
     1
102
RTVSPost2010Prop55
280
     0
102
RTVSPost2010PropOp55
 70
     1
102
RTVSPost2010Prop56
140
1.0
102
RTVSPost2010PropOp56
 70
     1
102
RTVSPost2010Prop57
140
1.0
102
RTVSPost2010PropOp57
 70
     1
102
RTVSPropertyOp0
 70
     1
102
RTVSPropertyOp1
 70
     1
102
RTVSPropertyOp2
 70
     1
102
RTVSPropertyOp3
 70
     1
102
RTVSPropertyOp4
 70
     1
102
RTVSPropertyOp5
 70
     1
102
RTVSPropertyOp6
 70
     1
102
RTVSPropertyOp7
 70
     1
102
RTVSPropertyOp8
 70
     1
102
RTVSPropertyOp9
 70
     1
102
RTVSPropertyOp10
 70
     1
102
RTVSPropertyOp11
 70
     1
102
RTVSPropertyOp12
 70
     1
102
RTVSPropertyOp13
 70
     1
102
RTVSPropertyOp14
 70
     1
102
RTVSPropertyOp15
 70
     1
102
RTVSPropertyOp16
 70
     1
102
RTVSPropertyOp17
 70
     1
102
RTVSPropertyOp18
 70
     1
102
RTVSPropertyOp19
 70
     1
102
RTVSPropertyOp20
 70
     1
102
RTVSPropertyOp21
 70
     1
102
RTVSPropertyOp22
 70
     1
102
RTVSPropertyOp23
 70
     1
102
RTVSPropertyOp24
 70
     1
102
RTVSPropertyOp25
 70
     1
102
RTVSPropertyOp26
 70
     1
102
RTVSPropertyOp27
 70
     1
102
RTVSPropertyOp28
 70
     1
102
RTVSPropertyOp29
 70
     1
102
RTVSPropertyOp30
 70
     1
102
RTVSPropertyOp31
 70
     1
102
RTVSPropertyOp32
 70
     1
102
RTVSPropertyOp33
 70
     1
102
RTVSPropertyOp34
 70
     1
102
RTVSPropertyOp35
 70
     1
102
RTVSPropertyOp36
 70
     1
102
RTVSPropertyOp37
 70
     1
102
RTVSPropertyOp38
 70
     1
102
RTVSPropertyOp39
 70
     1
102
RTVSPropertyOp40
 70
     1
102
RTVSPropertyOp41
 70
     1
102
RTVSPropertyOp42
 70
     1
102
RTVSPropertyOp43
 70
     1
102
RTVSPropertyOp44
 70
     1
102
RTVSPropertyOp45
 70
     1
102
RTVSPropertyOp46
 70
     1
102
RTVSPropertyOp47
 70
     1
102
RTVSPropertyOp48
 70
     1
102
RTVSPropertyOp49
 70
     1
102
RTVSPropertyOp50
 70
     1
102
RTVSPropertyOp51
 70
     0
102
RTVSPropertyOp52
 70
     0
102
RTVSPropertyOp53
 70
     1
102
RTVSPropertyOp54
 70
     1
102
RTVSPropertyOp55
 70
     1
102
RTVSPropertyOp56
 70
     1
102
RTVSPropertyOp57
 70
     1
102
RTVSPropertyOp58
 70
     1
102
RTVSPropertyOp59
 70
     1
102
RTVSPropertyOp60
 70
     1
102
RTVSPropertyOp61
 70
     1
102
RTVSPropertyOp62
 70
     1
  0
XRECORD
  5
2F44
102
{ACAD_REACTORS
330
2F43
102
}
330
2F43
100
AcDbXrecord
280
     1
102
RTVSPost2010Prop28
280
     0
102
RTVSPost2010PropOp28
 70
     1
102
RTVSPost2010Prop29
280
     1
102
RTVSPost2010PropOp29
 70
     1
102
RTVSPost2010Prop30
280
     1
102
RTVSPost2010PropOp30
 70
     1
102
RTVSPost2010Prop31
280
     0
102
RTVSPost2010PropOp31
 70
     1
102
RTVSPost2010Prop32
280
     0
102
RTVSPost2010PropOp32
 70
     1
102
RTVSPost2010Prop33
280
     0
102
RTVSPost2010PropOp33
 70
     1
102
RTVSPost2010Prop34
280
     0
102
RTVSPost2010PropOp34
 70
     1
102
RTVSPost2010Prop35
280
     0
102
RTVSPost2010PropOp35
 70
     1
102
RTVSPost2010Prop36
280
     0
102
RTVSPost2010PropOp36
 70
     1
102
RTVSPost2010Prop37
 90
       50
102
RTVSPost2010PropOp37
 70
     1
102
RTVSPost2010Prop38
140
0.0
102
RTVSPost2010PropOp38
 70
     1
102
RTVSPost2010Prop39
140
1.0
102
RTVSPost2010PropOp39
 70
     1
102
RTVSPost2010Prop40
 90
        0
102
RTVSPost2010PropOp40
 70
     1
102
RTVSPost2010Prop41ColorIndex
 90
       18
102
RTVSPost2010Prop41ColorRGB
 90
        0
102
RTVSPost2010PropOp41
 70
     1
102
RTVSPost2010Prop42
 90
       50
102
RTVSPost2010PropOp42
 70
     1
102
RTVSPost2010Prop43
 90
        3
102
RTVSPost2010PropOp43
 70
     1
102
RTVSPost2010Prop44ColorIndex
 90
        5
102
RTVSPost2010Prop44ColorRGB
 90
      255
102
RTVSPost2010PropOp44
 70
     1
102
RTVSPost2010Prop45
280
     0
102
RTVSPost2010PropOp45
 70
     1
102
RTVSPost2010Prop46
 90
       50
102
RTVSPost2010PropOp46
 70
     1
102
RTVSPost2010Prop47
 90
       50
102
RTVSPost2010PropOp47
 70
     1
102
RTVSPost2010Prop48
 90
       50
102
RTVSPost2010PropOp48
 70
     1
102
RTVSPost2010Prop49
280
     0
102
RTVSPost2010PropOp49
 70
     1
102
RTVSPost2010Prop50
 90
       50
102
RTVSPost2010PropOp50
 70
     1
102
RTVSPost2010Prop51ColorIndex
 90
      256
102
RTVSPost2010Prop51ColorRGB
 90
-16777216
102
RTVSPost2010PropOp51
 70
     0
102
RTVSPost2010Prop52
140
1.0
102
RTVSPost2010PropOp52
 70
     0
102
RTVSPost2010Prop53
 90
        2
102
RTVSPost2010PropOp53
 70
     1
102
RTVSPost2010Prop54
  1
strokes_ogs.tif
102
RTVSPost2010PropOp54
 70
     1
102
RTVSPost2010Prop55
280
     0
102
RTVSPost2010PropOp55
 70
     1
102
RTVSPost2010Prop56
140
1.0
102
RTVSPost2010PropOp56
 70
     1
102
RTVSPost2010Prop57
140
1.0
102
RTVSPost2010PropOp57
 70
     1
102
RTVSPropertyOp0
 70
     1
102
RTVSPropertyOp1
 70
     1
102
RTVSPropertyOp2
 70
     1
102
RTVSPropertyOp3
 70
     1
102
RTVSPropertyOp4
 70
     1
102
RTVSPropertyOp5
 70
     1
102
RTVSPropertyOp6
 70
     1
102
RTVSPropertyOp7
 70
     1
102
RTVSPropertyOp8
 70
     1
102
RTVSPropertyOp9
 70
     1
102
RTVSPropertyOp10
 70
     1
102
RTVSPropertyOp11
 70
     1
102
RTVSPropertyOp12
 70
     1
102
RTVSPropertyOp13
 70
     1
102
RTVSPropertyOp14
 70
     1
102
RTVSPropertyOp15
 70
     1
102
RTVSPropertyOp16
 70
     1
102
RTVSPropertyOp17
 70
     1
102
RTVSPropertyOp18
 70
     1
102
RTVSPropertyOp19
 70
     1
102
RTVSPropertyOp20
 70
     1
102
RTVSPropertyOp21
 70
     1
102
RTVSPropertyOp22
 70
     1
102
RTVSPropertyOp23
 70
     1
102
RTVSPropertyOp24
 70
     1
102
RTVSPropertyOp25
 70
     1
102
RTVSPropertyOp26
 70
     1
102
RTVSPropertyOp27
 70
     1
102
RTVSPropertyOp28
 70
     1
102
RTVSPropertyOp29
 70
     1
102
RTVSPropertyOp30
 70
     1
102
RTVSPropertyOp31
 70
     1
102
RTVSPropertyOp32
 70
     1
102
RTVSPropertyOp33
 70
     1
102
RTVSPropertyOp34
 70
     1
102
RTVSPropertyOp35
 70
     1
102
RTVSPropertyOp36
 70
     1
102
RTVSPropertyOp37
 70
     1
102
RTVSPropertyOp38
 70
     1
102
RTVSPropertyOp39
 70
     1
102
RTVSPropertyOp40
 70
     1
102
RTVSPropertyOp41
 70
     1
102
RTVSPropertyOp42
 70
     1
102
RTVSPropertyOp43
 70
     1
102
RTVSPropertyOp44
 70
     1
102
RTVSPropertyOp45
 70
     1
102
RTVSPropertyOp46
 70
     1
102
RTVSPropertyOp47
 70
     1
102
RTVSPropertyOp48
 70
     1
102
RTVSPropertyOp49
 70
     1
102
RTVSPropertyOp50
 70
     1
102
RTVSPropertyOp51
 70
     0
102
RTVSPropertyOp52
 70
     0
102
RTVSPropertyOp53
 70
     1
102
RTVSPropertyOp54
 70
     1
102
RTVSPropertyOp55
 70
     1
102
RTVSPropertyOp56
 70
     1
102
RTVSPropertyOp57
 70
     1
102
RTVSPropertyOp58
 70
     1
102
RTVSPropertyOp59
 70
     1
102
RTVSPropertyOp60
 70
     1
102
RTVSPropertyOp61
 70
     1
102
RTVSPropertyOp62
 70
     1
  0
ENDSEC
  0
EOF
