  0
SECTION
  2
HEADER
  9
$ACADVER
  1
AC1015
  9
$ACADMAINTVER
 70
    20
  9
$DWGCODEPAGE
  3
ANSI_1252
  9
$INSBASE
 10
0.0
 20
0.0
 30
0.0
  9
$EXTMIN
 10
-49.94687280211491
 20
-29.13652263460361
 30
-0.0000000000112498
  9
$EXTMAX
 10
151.7302015231088
 20
28.00087200710974
 30
0.0000000000002956
  9
$LIMMIN
 10
0.0
 20
0.0
  9
$LIMMAX
 10
12.0
 20
9.0
  9
$ORTHOMODE
 70
     0
  9
$REGENMODE
 70
     1
  9
$FILLMODE
 70
     1
  9
$QTEXTMODE
 70
     0
  9
$MIRRTEXT
 70
     1
  9
$LTSCALE
 40
1.0
  9
$ATTMODE
 70
     1
  9
$TEXTSIZE
 40
3.0
  9
$TRACEWID
 40
10.0
  9
$TEXTSTYLE
  7
SANDVIK_STYLE
  9
$CLAYER
  8
SK2
  9
$CELTYPE
  6
ByLayer
  9
$CECOLOR
 62
   256
  9
$CELTSCALE
 40
1.0
  9
$DISPSILH
 70
     0
  9
$DIMSCALE
 40
0.0
  9
$DIMASZ
 40
4.57
  9
$DIMEXO
 40
0.0
  9
$DIMDLI
 40
0.38
  9
$DIMRND
 40
0.0
  9
$DIMDLE
 40
0.0
  9
$DIMEXE
 40
5.0
  9
$DIMTP
 40
0.0
  9
$DIMTM
 40
0.0
  9
$DIMTXT
 40
4.5
  9
$DIMCEN
 40
0.09
  9
$DIMTSZ
 40
0.0
  9
$DIMTOL
 70
     0
  9
$DIMLIM
 70
     0
  9
$DIMTIH
 70
     0
  9
$DIMTOH
 70
     0
  9
$DIMSE1
 70
     0
  9
$DIMSE2
 70
     0
  9
$DIMTAD
 70
     1
  9
$DIMZIN
 70
     8
  9
$DIMBLK
  1

  9
$DIMASO
 70
     1
  9
$DIMSHO
 70
     1
  9
$DIMPOST
  1
 
  9
$DIMAPOST
  1
 
  9
$DIMALT
 70
     0
  9
$DIMALTD
 70
     2
  9
$DIMALTF
 40
25.4
  9
$DIMLFAC
 40
1.0
  9
$DIMTOFL
 70
     0
  9
$DIMTVP
 40
0.0
  9
$DIMTIX
 70
     0
  9
$DIMSOXD
 70
     0
  9
$DIMSAH
 70
     0
  9
$DIMBLK1
  1

  9
$DIMBLK2
  1

  9
$DIMSTYLE
  2
SANDVIK_DIM
  9
$DIMCLRD
 70
   256
  9
$DIMCLRE
 70
   256
  9
$DIMCLRT
 70
   256
  9
$DIMTFAC
 40
1.0
  9
$DIMGAP
 40
2.299999999999998
  9
$DIMJUST
 70
     0
  9
$DIMSD1
 70
     0
  9
$DIMSD2
 70
     0
  9
$DIMTOLJ
 70
     1
  9
$DIMTZIN
 70
     0
  9
$DIMALTZ
 70
     0
  9
$DIMALTTZ
 70
     0
  9
$DIMUPT
 70
     0
  9
$DIMDEC
 70
     2
  9
$DIMTDEC
 70
     2
  9
$DIMALTU
 70
     2
  9
$DIMALTTD
 70
     2
  9
$DIMTXSTY
  7
SANDVIK_STYLE
  9
$DIMAUNIT
 70
     0
  9
$DIMADEC
 70
     0
  9
$DIMALTRND
 40
0.0
  9
$DIMAZIN
 70
     0
  9
$DIMDSEP
 70
    46
  9
$DIMATFIT
 70
     3
  9
$DIMFRAC
 70
     0
  9
$DIMLDRBLK
  1

  9
$DIMLUNIT
 70
     2
  9
$DIMLWD
 70
    -2
  9
$DIMLWE
 70
    -2
  9
$DIMTMOVE
 70
     2
  9
$LUNITS
 70
     2
  9
$LUPREC
 70
     2
  9
$SKETCHINC
 40
0.0
  9
$FILLETRAD
 40
0.0
  9
$AUNITS
 70
     0
  9
$AUPREC
 70
     2
  9
$MENU
  1
acad
  9
$ELEVATION
 40
0.0
  9
$PELEVATION
 40
0.0
  9
$THICKNESS
 40
0.0
  9
$LIMCHECK
 70
     0
  9
$CHAMFERA
 40
0.0
  9
$CHAMFERB
 40
0.0
  9
$CHAMFERC
 40
0.0
  9
$CHAMFERD
 40
0.0
  9
$SKPOLY
 70
     0
  9
$TDCREATE
 40
2455817.646292060
  9
$TDUCREATE
 40
2455817.562958727
  9
$TDUPDATE
 40
2456818.533837419
  9
$TDUUPDATE
 40
2456818.450504086
  9
$TDINDWG
 40
0.0999876505
  9
$TDUSRTIMER
 40
0.0999876042
  9
$USRTIMER
 70
     1
  9
$ANGBASE
 50
0.0
  9
$ANGDIR
 70
     0
  9
$PDMODE
 70
     0
  9
$PDSIZE
 40
0.0
  9
$PLINEWID
 40
0.0
  9
$SPLFRAME
 70
     0
  9
$SPLINETYPE
 70
     6
  9
$SPLINESEGS
 70
     8
  9
$HANDSEED
  5
37B8
  9
$SURFTAB1
 70
     6
  9
$SURFTAB2
 70
     6
  9
$SURFTYPE
 70
     6
  9
$SURFU
 70
     6
  9
$SURFV
 70
     6
  9
$UCSBASE
  2

  9
$UCSNAME
  2

  9
$UCSORG
 10
0.0
 20
0.0
 30
0.0
  9
$UCSXDIR
 10
1.0
 20
0.0
 30
0.0
  9
$UCSYDIR
 10
0.0
 20
1.0
 30
0.0
  9
$UCSORTHOREF
  2

  9
$UCSORTHOVIEW
 70
     0
  9
$UCSORGTOP
 10
0.0
 20
0.0
 30
0.0
  9
$UCSORGBOTTOM
 10
0.0
 20
0.0
 30
0.0
  9
$UCSORGLEFT
 10
0.0
 20
0.0
 30
0.0
  9
$UCSORGRIGHT
 10
0.0
 20
0.0
 30
0.0
  9
$UCSORGFRONT
 10
0.0
 20
0.0
 30
0.0
  9
$UCSORGBACK
 10
0.0
 20
0.0
 30
0.0
  9
$PUCSBASE
  2

  9
$PUCSNAME
  2

  9
$PUCSORG
 10
0.0
 20
0.0
 30
0.0
  9
$PUCSXDIR
 10
1.0
 20
0.0
 30
0.0
  9
$PUCSYDIR
 10
0.0
 20
1.0
 30
0.0
  9
$PUCSORTHOREF
  2

  9
$PUCSORTHOVIEW
 70
     0
  9
$PUCSORGTOP
 10
0.0
 20
0.0
 30
0.0
  9
$PUCSORGBOTTOM
 10
0.0
 20
0.0
 30
0.0
  9
$PUCSORGLEFT
 10
0.0
 20
0.0
 30
0.0
  9
$PUCSORGRIGHT
 10
0.0
 20
0.0
 30
0.0
  9
$PUCSORGFRONT
 10
0.0
 20
0.0
 30
0.0
  9
$PUCSORGBACK
 10
0.0
 20
0.0
 30
0.0
  9
$USERI1
 70
     0
  9
$USERI2
 70
     0
  9
$USERI3
 70
     0
  9
$USERI4
 70
     0
  9
$USERI5
 70
     0
  9
$USERR1
 40
0.0
  9
$USERR2
 40
0.0
  9
$USERR3
 40
0.0
  9
$USERR4
 40
0.0
  9
$USERR5
 40
0.0
  9
$WORLDVIEW
 70
     1
  9
$SHADEDGE
 70
     3
  9
$SHADEDIF
 70
    70
  9
$TILEMODE
 70
     1
  9
$MAXACTVP
 70
    16
  9
$PINSBASE
 10
0.0
 20
0.0
 30
0.0
  9
$PLIMCHECK
 70
     0
  9
$PEXTMIN
 10
1.000000000000000E+20
 20
1.000000000000000E+20
 30
1.000000000000000E+20
  9
$PEXTMAX
 10
-1.000000000000000E+20
 20
-1.000000000000000E+20
 30
-1.000000000000000E+20
  9
$PLIMMIN
 10
0.0
 20
0.0
  9
$PLIMMAX
 10
12.0
 20
9.0
  9
$UNITMODE
 70
     0
  9
$VISRETAIN
 70
     0
  9
$PLINEGEN
 70
     0
  9
$PSLTSCALE
 70
     1
  9
$TREEDEPTH
 70
  3020
  9
$CMLSTYLE
  2
Standard
  9
$CMLJUST
 70
     0
  9
$CMLSCALE
 40
1.0
  9
$PROXYGRAPHICS
 70
     1
  9
$MEASUREMENT
 70
     0
  9
$CELWEIGHT
370
    -1
  9
$ENDCAPS
280
     0
  9
$JOINSTYLE
280
     0
  9
$LWDISPLAY
290
     0
  9
$INSUNITS
 70
     0
  9
$HYPERLINKBASE
  1

  9
$STYLESHEET
  1

  9
$XEDIT
290
     1
  9
$CEPSNTYPE
380
     0
  9
$PSTYLEMODE
290
     1
  9
$FINGERPRINTGUID
  2
{BC6BEBD7-5C89-4B2E-99DC-E3119A1637E9}
  9
$VERSIONGUID
  2
{E63E5AB1-020E-4BC2-876E-FF7BCFCC0567}
  9
$EXTNAMES
290
     1
  9
$PSVPSCALE
 40
0.0
  9
$OLESTARTUP
290
     0
  0
ENDSEC
  0
SECTION
  2
CLASSES
  0
CLASS
  1
ACDBDICTIONARYWDFLT
  2
AcDbDictionaryWithDefault
  3
ObjectDBX Classes
 90
        0
280
     0
281
     0
  0
CLASS
  1
MATERIAL
  2
AcDbMaterial
  3
ObjectDBX Classes
 90
     1153
280
     0
281
     0
  0
CLASS
  1
VISUALSTYLE
  2
AcDbVisualStyle
  3
ObjectDBX Classes
 90
     4095
280
     0
281
     0
  0
CLASS
  1
TABLESTYLE
  2
AcDbTableStyle
  3
ObjectDBX Classes
 90
     4095
280
     0
281
     0
  0
CLASS
  1
SCALE
  2
AcDbScale
  3
ObjectDBX Classes
 90
     1153
280
     0
281
     0
  0
CLASS
  1
MLEADERSTYLE
  2
AcDbMLeaderStyle
  3
ACDB_MLEADERSTYLE_CLASS
 90
     4095
280
     0
281
     0
  0
CLASS
  1
ACDBSECTIONVIEWSTYLE
  2
AcDbSectionViewStyle
  3
ObjectDBX Classes
 90
     1025
280
     0
281
     0
  0
CLASS
  1
ACDBDETAILVIEWSTYLE
  2
AcDbDetailViewStyle
  3
ObjectDBX Classes
 90
     1025
280
     0
281
     0
  0
CLASS
  1
EXACXREFPANELOBJECT
  2
ExAcXREFPanelObject
  3
EXAC_ESW
 90
     1025
280
     0
281
     0
  0
CLASS
  1
NPOCOLLECTION
  2
AcDbImpNonPersistentObjectsCollection
  3
ObjectDBX Classes
 90
     1153
280
     0
281
     0
  0
CLASS
  1
DICTIONARYVAR
  2
AcDbDictionaryVar
  3
ObjectDBX Classes
 90
        0
280
     0
281
     0
  0
CLASS
  1
CELLSTYLEMAP
  2
AcDbCellStyleMap
  3
ObjectDBX Classes
 90
     1152
280
     0
281
     0
  0
CLASS
  1
ACDBPLACEHOLDER
  2
AcDbPlaceHolder
  3
ObjectDBX Classes
 90
        0
280
     0
281
     0
  0
CLASS
  1
LAYOUT
  2
AcDbLayout
  3
ObjectDBX Classes
 90
        0
280
     0
281
     0
  0
ENDSEC
  0
SECTION
  2
TABLES
  0
TABLE
  2
VPORT
  5
BDF
330
0
100
AcDbSymbolTable
 70
     1
  0
VPORT
  5
36CA
330
BDF
100
AcDbSymbolTableRecord
100
AcDbViewportTableRecord
  2
*Active
 70
     0
 10
0.0
 20
0.0
 11
1.0
 21
1.0
 12
50.89166436049694
 22
-0.5678253137469369
 13
0.0
 23
0.0
 14
1.0
 24
1.0
 15
0.0
 25
0.0
 16
0.0
 26
0.0
 36
1.0
 17
0.0
 27
0.0
 37
0.0
 40
102.1893954620428
 41
2.2
 42
50.0
 43
0.0
 44
0.0
 50
0.0
 51
0.0
 71
     0
 72
   100
 73
     1
 74
     1
 75
     0
 76
     0
 77
     0
 78
     0
281
     0
 65
     1
110
0.0
120
0.0
130
0.0
111
1.0
121
0.0
131
0.0
112
0.0
122
1.0
132
0.0
 79
     0
146
0.0
1001
ACAD_NAV_VCDISPLAY
1070
     3
  0
ENDTAB
  0
TABLE
  2
LTYPE
  5
BDC
330
0
100
AcDbSymbolTable
 70
     4
  0
LTYPE
  5
BEA
330
BDC
100
AcDbSymbolTableRecord
100
AcDbLinetypeTableRecord
  2
ByBlock
 70
     0
  3

 72
    65
 73
     0
 40
0.0
  0
LTYPE
  5
BEB
330
BDC
100
AcDbSymbolTableRecord
100
AcDbLinetypeTableRecord
  2
ByLayer
 70
     0
  3

 72
    65
 73
     0
 40
0.0
  0
LTYPE
  5
BEC
330
BDC
100
AcDbSymbolTableRecord
100
AcDbLinetypeTableRecord
  2
CONTINUOUS
 70
     0
  3
Solid line
 72
    65
 73
     0
 40
0.0
  0
LTYPE
  5
BFE
330
BDC
100
AcDbSymbolTableRecord
100
AcDbLinetypeTableRecord
  2
CENTER
 70
     0
  3
____ _ ____ _ ____ _ ____ _ ____ _ ____ _ ____
 72
    65
 73
     4
 40
5.059897
 49
3.162434999999998
 74
     0
 49
-0.6324870000000004
 74
     0
 49
0.6324870000000004
 74
     0
 49
-0.6324870000000004
 74
     0
  0
LTYPE
  5
BFF
330
BDC
100
AcDbSymbolTableRecord
100
AcDbLinetypeTableRecord
  2
DASHED
 70
     0
  3
__ __ __ __ __ __ __ __ __ __ __ __ __ __ __ __
 72
    65
 73
     2
 40
7.589844999999997
 49
5.059897
 74
     0
 49
-2.529948
 74
     0
  0
LTYPE
  5
3716
330
BDC
100
AcDbSymbolTableRecord
100
AcDbLinetypeTableRecord
  2
PHANTOM2
 70
     0
  3
Phantom (.5x) ___ _ _ ___ _ _ ___ _ _ ___ _ _
 72
    65
 73
     6
 40
1.25
 49
0.625
 74
     0
 49
-0.125
 74
     0
 49
0.125
 74
     0
 49
-0.125
 74
     0
 49
0.125
 74
     0
 49
-0.125
 74
     0
  0
ENDTAB
  0
TABLE
  2
LAYER
  5
BD9
330
0
100
AcDbSymbolTable
 70
    40
  0
LAYER
  5
BE7
102
{ACAD_XDICTIONARY
360
371E
102
}
330
BD9
100
AcDbSymbolTableRecord
100
AcDbLayerTableRecord
  2
0
 70
     0
 62
     7
  6
CONTINUOUS
370
    -3
390
BE6
  0
LAYER
  5
BFB
102
{ACAD_XDICTIONARY
360
3720
102
}
330
BD9
100
AcDbSymbolTableRecord
100
AcDbLayerTableRecord
  2
3
 70
     0
 62
     1
  6
DASHED
370
    -3
390
BE6
  0
LAYER
  5
C00
102
{ACAD_XDICTIONARY
360
3722
102
}
330
BD9
100
AcDbSymbolTableRecord
100
AcDbLayerTableRecord
  2
1
 70
     0
 62
     4
  6
CONTINUOUS
370
    -3
390
BE6
  0
LAYER
  5
C01
102
{ACAD_XDICTIONARY
360
3724
102
}
330
BD9
100
AcDbSymbolTableRecord
100
AcDbLayerTableRecord
  2
61
 70
     0
 62
     5
  6
CONTINUOUS
370
    -3
390
BE6
  0
LAYER
  5
C02
102
{ACAD_XDICTIONARY
360
3726
102
}
330
BD9
100
AcDbSymbolTableRecord
100
AcDbLayerTableRecord
  2
62
 70
     0
 62
    -5
  6
CONTINUOUS
370
    -3
390
BE6
  0
LAYER
  5
C03
102
{ACAD_XDICTIONARY
360
3728
102
}
330
BD9
100
AcDbSymbolTableRecord
100
AcDbLayerTableRecord
  2
63
 70
     0
 62
    -5
  6
CONTINUOUS
370
    -3
390
BE6
  0
LAYER
  5
C04
102
{ACAD_XDICTIONARY
360
372A
102
}
330
BD9
100
AcDbSymbolTableRecord
100
AcDbLayerTableRecord
  2
64
 70
     0
 62
    -5
  6
CONTINUOUS
370
    -3
390
BE6
  0
LAYER
  5
C05
102
{ACAD_XDICTIONARY
360
372C
102
}
330
BD9
100
AcDbSymbolTableRecord
100
AcDbLayerTableRecord
  2
65
 70
     0
 62
    -5
  6
CONTINUOUS
370
    -3
390
BE6
  0
LAYER
  5
C06
102
{ACAD_XDICTIONARY
360
372E
102
}
330
BD9
100
AcDbSymbolTableRecord
100
AcDbLayerTableRecord
  2
66
 70
     0
 62
    -5
  6
CONTINUOUS
370
    -3
390
BE6
  0
LAYER
  5
C07
102
{ACAD_XDICTIONARY
360
3730
102
}
330
BD9
100
AcDbSymbolTableRecord
100
AcDbLayerTableRecord
  2
67
 70
     0
 62
    -5
  6
CONTINUOUS
370
    -3
390
BE6
  0
LAYER
  5
C08
102
{ACAD_XDICTIONARY
360
3732
102
}
330
BD9
100
AcDbSymbolTableRecord
100
AcDbLayerTableRecord
  2
68
 70
     0
 62
    -5
  6
CONTINUOUS
370
    -3
390
BE6
  0
LAYER
  5
C09
102
{ACAD_XDICTIONARY
360
3734
102
}
330
BD9
100
AcDbSymbolTableRecord
100
AcDbLayerTableRecord
  2
69
 70
     0
 62
    -5
  6
CONTINUOUS
370
    -3
390
BE6
  0
LAYER
  5
C0A
102
{ACAD_XDICTIONARY
360
3736
102
}
330
BD9
100
AcDbSymbolTableRecord
100
AcDbLayerTableRecord
  2
70
 70
     0
 62
     5
  6
CONTINUOUS
370
    -3
390
BE6
  0
LAYER
  5
C0B
102
{ACAD_XDICTIONARY
360
3738
102
}
330
BD9
100
AcDbSymbolTableRecord
100
AcDbLayerTableRecord
  2
2
 70
     0
 62
     7
  6
CONTINUOUS
370
    -3
390
BE6
  0
LAYER
  5
C0C
102
{ACAD_XDICTIONARY
360
373A
102
}
330
BD9
100
AcDbSymbolTableRecord
100
AcDbLayerTableRecord
  2
4
 70
     0
 62
    -2
  6
CENTER
370
    -3
390
BE6
  0
LAYER
  5
C0D
102
{ACAD_XDICTIONARY
360
373C
102
}
330
BD9
100
AcDbSymbolTableRecord
100
AcDbLayerTableRecord
  2
5
 70
     0
 62
    -7
  6
CONTINUOUS
370
    -3
390
BE6
  0
LAYER
  5
C0E
102
{ACAD_XDICTIONARY
360
373E
102
}
330
BD9
100
AcDbSymbolTableRecord
100
AcDbLayerTableRecord
  2
SK1
 70
     0
 62
     4
  6
CONTINUOUS
370
    -3
390
BE6
  0
LAYER
  5
C0F
102
{ACAD_XDICTIONARY
360
3740
102
}
330
BD9
100
AcDbSymbolTableRecord
100
AcDbLayerTableRecord
  2
6
 70
     0
 62
     5
  6
CONTINUOUS
370
    -3
390
BE6
  0
LAYER
  5
C10
102
{ACAD_XDICTIONARY
360
3742
102
}
330
BD9
100
AcDbSymbolTableRecord
100
AcDbLayerTableRecord
  2
SK2
 70
     0
 62
     7
  6
CONTINUOUS
370
    -3
390
BE6
  0
LAYER
  5
C11
102
{ACAD_XDICTIONARY
360
3744
102
}
330
BD9
100
AcDbSymbolTableRecord
100
AcDbLayerTableRecord
  2
SK3
 70
     0
 62
     1
  6
DASHED
370
    -3
390
BE6
  0
LAYER
  5
C12
102
{ACAD_XDICTIONARY
360
3746
102
}
330
BD9
100
AcDbSymbolTableRecord
100
AcDbLayerTableRecord
  2
SK4
 70
     0
 62
     2
  6
CENTER
370
    -3
390
BE6
  0
LAYER
  5
C13
102
{ACAD_XDICTIONARY
360
3748
102
}
330
BD9
100
AcDbSymbolTableRecord
100
AcDbLayerTableRecord
  2
CUT
 70
     0
 62
     1
  6
CONTINUOUS
370
    -3
390
BE6
  0
LAYER
  5
C14
102
{ACAD_XDICTIONARY
360
374A
102
}
330
BD9
100
AcDbSymbolTableRecord
100
AcDbLayerTableRecord
  2
SK6
 70
     0
 62
     5
  6
CONTINUOUS
370
    -3
390
BE6
  0
LAYER
  5
C15
102
{ACAD_XDICTIONARY
360
374C
102
}
330
BD9
100
AcDbSymbolTableRecord
100
AcDbLayerTableRecord
  2
80
 70
     0
 62
    -2
  6
CENTER
370
    -3
390
BE6
  0
LAYER
  5
C16
102
{ACAD_XDICTIONARY
360
374E
102
}
330
BD9
100
AcDbSymbolTableRecord
100
AcDbLayerTableRecord
  2
81
 70
     0
 62
    -2
  6
CENTER
370
    -3
390
BE6
  0
LAYER
  5
C17
102
{ACAD_XDICTIONARY
360
3750
102
}
330
BD9
100
AcDbSymbolTableRecord
100
AcDbLayerTableRecord
  2
82
 70
     0
 62
    -2
  6
CENTER
370
    -3
390
BE6
  0
LAYER
  5
C18
102
{ACAD_XDICTIONARY
360
3752
102
}
330
BD9
100
AcDbSymbolTableRecord
100
AcDbLayerTableRecord
  2
NOCUT
 70
     0
 62
     7
  6
CONTINUOUS
370
    -3
390
BE6
  0
LAYER
  5
C19
102
{ACAD_XDICTIONARY
360
3754
102
}
330
BD9
100
AcDbSymbolTableRecord
100
AcDbLayerTableRecord
  2
50
 70
     0
 62
    -7
  6
CONTINUOUS
370
    -3
390
BE6
  0
LAYER
  5
C1A
102
{ACAD_XDICTIONARY
360
3756
102
}
330
BD9
100
AcDbSymbolTableRecord
100
AcDbLayerTableRecord
  2
51
 70
     0
 62
     7
  6
CONTINUOUS
370
    -3
390
BE6
  0
LAYER
  5
C1B
102
{ACAD_XDICTIONARY
360
3758
102
}
330
BD9
100
AcDbSymbolTableRecord
100
AcDbLayerTableRecord
  2
52
 70
     0
 62
    -7
  6
CONTINUOUS
370
    -3
390
BE6
  0
LAYER
  5
C1C
102
{ACAD_XDICTIONARY
360
375A
102
}
330
BD9
100
AcDbSymbolTableRecord
100
AcDbLayerTableRecord
  2
53
 70
     0
 62
    -7
  6
CONTINUOUS
370
    -3
390
BE6
  0
LAYER
  5
C1D
102
{ACAD_XDICTIONARY
360
375C
102
}
330
BD9
100
AcDbSymbolTableRecord
100
AcDbLayerTableRecord
  2
54
 70
     0
 62
    -7
  6
CONTINUOUS
370
    -3
390
BE6
  0
LAYER
  5
C1E
102
{ACAD_XDICTIONARY
360
375E
102
}
330
BD9
100
AcDbSymbolTableRecord
100
AcDbLayerTableRecord
  2
55
 70
     0
 62
    -7
  6
CONTINUOUS
370
    -3
390
BE6
  0
LAYER
  5
C1F
102
{ACAD_XDICTIONARY
360
3760
102
}
330
BD9
100
AcDbSymbolTableRecord
100
AcDbLayerTableRecord
  2
56
 70
     0
 62
    -7
  6
CONTINUOUS
370
    -3
390
BE6
  0
LAYER
  5
C20
102
{ACAD_XDICTIONARY
360
3762
102
}
330
BD9
100
AcDbSymbolTableRecord
100
AcDbLayerTableRecord
  2
57
 70
     0
 62
    -7
  6
CONTINUOUS
370
    -3
390
BE6
  0
LAYER
  5
C21
102
{ACAD_XDICTIONARY
360
3764
102
}
330
BD9
100
AcDbSymbolTableRecord
100
AcDbLayerTableRecord
  2
58
 70
     0
 62
    -7
  6
CONTINUOUS
370
    -3
390
BE6
  0
LAYER
  5
C22
102
{ACAD_XDICTIONARY
360
3766
102
}
330
BD9
100
AcDbSymbolTableRecord
100
AcDbLayerTableRecord
  2
2L
 70
     0
 62
     7
  6
CONTINUOUS
370
    -3
390
BE6
  0
LAYER
  5
C23
102
{ACAD_XDICTIONARY
360
3768
102
}
330
BD9
100
AcDbSymbolTableRecord
100
AcDbLayerTableRecord
  2
59
 70
     0
 62
    -7
  6
CONTINUOUS
370
    -3
390
BE6
  0
LAYER
  5
C24
330
BD9
100
AcDbSymbolTableRecord
100
AcDbLayerTableRecord
  2
DEFPOINTS
 70
     0
 62
     7
  6
CONTINUOUS
290
     0
370
    -3
390
BE6
  0
LAYER
  5
C42
102
{ACAD_XDICTIONARY
360
376A
102
}
330
BD9
100
AcDbSymbolTableRecord
100
AcDbLayerTableRecord
  2
TFR-TRI
 70
     0
 62
     7
  6
CONTINUOUS
370
    -3
390
BE6
  0
ENDTAB
  0
TABLE
  2
STYLE
  5
BDA
330
0
100
AcDbSymbolTable
 70
     2
  0
STYLE
  5
BE8
330
BDA
100
AcDbSymbolTableRecord
100
AcDbTextStyleTableRecord
  2
STANDARD
 70
     0
 40
0.0
 41
1.0
 50
0.0
 71
     0
 42
4.5
  3
simplex.shx
  4

  0
STYLE
  5
BFC
330
BDA
100
AcDbSymbolTableRecord
100
AcDbTextStyleTableRecord
  2
SANDVIK_STYLE
 70
     0
 40
3.0
 41
1.0
 50
0.0
 71
     0
 42
3.0
  3
simplex.shx
  4

  0
ENDTAB
  0
TABLE
  2
VIEW
  5
BDD
330
0
100
AcDbSymbolTable
 70
     0
  0
ENDTAB
  0
TABLE
  2
UCS
  5
BDE
330
0
100
AcDbSymbolTable
 70
     0
  0
ENDTAB
  0
TABLE
  2
APPID
  5
BE0
330
0
100
AcDbSymbolTable
 70
     4
  0
APPID
  5
BE9
330
BE0
100
AcDbSymbolTableRecord
100
AcDbRegAppTableRecord
  2
ACAD
 70
     0
  0
APPID
  5
376E
330
BE0
100
AcDbSymbolTableRecord
100
AcDbRegAppTableRecord
  2
DCO15
 70
     0
  0
APPID
  5
377A
330
BE0
100
AcDbSymbolTableRecord
100
AcDbRegAppTableRecord
  2
ACAD_NAV_VCDISPLAY
 70
     0
  0
APPID
  5
37B7
330
BE0
100
AcDbSymbolTableRecord
100
AcDbRegAppTableRecord
  2
ACAD_MLEADERVER
 70
     0
  0
ENDTAB
  0
TABLE
  2
DIMSTYLE
  5
BE1
330
0
100
AcDbSymbolTable
 70
     2
100
AcDbDimStyleTable
 71
     1
340
C26
  0
DIMSTYLE
105
C25
330
BE1
100
AcDbSymbolTableRecord
100
AcDbDimStyleTableRecord
  2
STANDARD
 70
     0
  3
 
  4
 
 41
3.0
 42
2.5
 43
10.0
 44
2.5
 46
1.25
 73
     0
 74
     0
140
3.0
141
-3.0
143
0.039
145
1.5
146
0.75
147
1.5
271
     2
272
     2
279
     2
340
BFC
  0
DIMSTYLE
105
C26
102
{ACAD_REACTORS
330
35A3
330
35C5
330
35D3
330
35EA
330
3600
330
360D
330
361A
102
}
330
BE1
100
AcDbSymbolTableRecord
100
AcDbDimStyleTableRecord
  2
SANDVIK_DIM
 70
     0
  3
 
  4
 
 40
0.0
 41
4.57
 42
0.0
 44
5.0
 73
     0
 74
     0
 77
     1
 78
     8
140
4.5
147
2.299999999999998
176
   256
177
   256
178
   256
271
     2
272
     2
279
     2
340
BFC
  0
ENDTAB
  0
TABLE
  2
BLOCK_RECORD
  5
BD8
330
0
100
AcDbSymbolTable
 70
    13
  0
BLOCK_RECORD
  5
BF7
330
BD8
100
AcDbSymbolTableRecord
100
AcDbBlockTableRecord
  2
*Model_Space
340
BFA
  0
BLOCK_RECORD
  5
BF3
330
BD8
100
AcDbSymbolTableRecord
100
AcDbBlockTableRecord
  2
*Paper_Space
340
BF6
  0
BLOCK_RECORD
  5
C28
330
BD8
100
AcDbSymbolTableRecord
100
AcDbBlockTableRecord
  2
$MODEL_SPACE
340
0
  0
BLOCK_RECORD
  5
C2A
330
BD8
100
AcDbSymbolTableRecord
100
AcDbBlockTableRecord
  2
$PAPER_SPACE
340
0
  0
BLOCK_RECORD
  5
25ED
330
BD8
100
AcDbSymbolTableRecord
100
AcDbBlockTableRecord
  2
*D2
340
0
  0
BLOCK_RECORD
  5
25FB
330
BD8
100
AcDbSymbolTableRecord
100
AcDbBlockTableRecord
  2
*D3
340
0
  0
BLOCK_RECORD
  5
2F19
330
BD8
100
AcDbSymbolTableRecord
100
AcDbBlockTableRecord
  2
*D4
340
0
  0
BLOCK_RECORD
  5
2F27
330
BD8
100
AcDbSymbolTableRecord
100
AcDbBlockTableRecord
  2
*D5
340
0
  0
BLOCK_RECORD
  5
35A4
330
BD8
100
AcDbSymbolTableRecord
100
AcDbBlockTableRecord
  2
*D6
340
0
  0
BLOCK_RECORD
  5
35C6
330
BD8
100
AcDbSymbolTableRecord
100
AcDbBlockTableRecord
  2
*D7
340
0
  0
BLOCK_RECORD
  5
35D4
330
BD8
100
AcDbSymbolTableRecord
100
AcDbBlockTableRecord
  2
*D8
340
0
  0
BLOCK_RECORD
  5
35EB
330
BD8
100
AcDbSymbolTableRecord
100
AcDbBlockTableRecord
  2
*D9
340
0
  0
BLOCK_RECORD
  5
3601
330
BD8
100
AcDbSymbolTableRecord
100
AcDbBlockTableRecord
  2
*D10
340
0
  0
BLOCK_RECORD
  5
360E
330
BD8
100
AcDbSymbolTableRecord
100
AcDbBlockTableRecord
  2
*D11
340
0
  0
BLOCK_RECORD
  5
361B
330
BD8
100
AcDbSymbolTableRecord
100
AcDbBlockTableRecord
  2
*D12
340
0
  0
ENDTAB
  0
ENDSEC
  0
SECTION
  2
BLOCKS
  0
BLOCK
  5
BF8
330
BF7
100
AcDbEntity
  8
0
100
AcDbBlockBegin
  2
*Model_Space
 70
     0
 10
0.0
 20
0.0
 30
0.0
  3
*Model_Space
  1

  0
ENDBLK
  5
BF9
330
BF7
100
AcDbEntity
  8
0
100
AcDbBlockEnd
  0
BLOCK
  5
BF4
330
BF3
100
AcDbEntity
 67
     1
  8
0
100
AcDbBlockBegin
  2
*Paper_Space
 70
     0
 10
0.0
 20
0.0
 30
0.0
  3
*Paper_Space
  1

  0
ENDBLK
  5
BF5
330
BF3
100
AcDbEntity
 67
     1
  8
0
100
AcDbBlockEnd
  0
BLOCK
  5
C29
330
C28
100
AcDbEntity
  8
0
100
AcDbBlockBegin
  2
$MODEL_SPACE
 70
     0
 10
0.0
 20
0.0
 30
0.0
  3
$MODEL_SPACE
  1

  0
ENDBLK
  5
AEF
330
C28
100
AcDbEntity
  8
0
100
AcDbBlockEnd
  0
BLOCK
  5
C2B
330
C2A
100
AcDbEntity
  8
0
100
AcDbBlockBegin
  2
$PAPER_SPACE
 70
     0
 10
0.0
 20
0.0
 30
0.0
  3
$PAPER_SPACE
  1

  0
ENDBLK
  5
AEB
330
C2A
100
AcDbEntity
  8
0
100
AcDbBlockEnd
  0
BLOCK
  5
25F8
330
25ED
100
AcDbEntity
  8
0
100
AcDbBlockBegin
  2
*D2
 70
     1
 10
0.0
 20
0.0
 30
0.0
  3
*D2
  1

  0
LINE
  5
25EE
330
25ED
100
AcDbEntity
  8
SK2
370
    -2
100
AcDbLine
 10
-35.350479
 20
2.999999500000001
 30
0.0
 11
-43.99431572169828
 21
2.999999500000003
 31
0.0
  0
LINE
  5
25EF
330
25ED
100
AcDbEntity
  8
SK2
370
    -2
100
AcDbLine
 10
-35.350479
 20
-2.999999500000001
 30
0.0
 11
-43.99431572169828
 21
-2.999999499999998
 31
0.0
  0
LINE
  5
25F0
330
25ED
100
AcDbEntity
  8
SK2
370
    -2
100
AcDbLine
 10
-38.99431572169829
 20
7.569999500000002
 30
0.0
 11
-38.99431572169829
 21
12.1399995
 31
0.0
  0
LINE
  5
25F1
330
25ED
100
AcDbEntity
  8
SK2
370
    -2
100
AcDbLine
 10
-38.99431572169829
 20
-7.569999499999997
 30
0.0
 11
-38.99431572169829
 21
-12.1399995
 31
0.0
  0
MTEXT
  5
25F2
330
25ED
100
AcDbEntity
  8
SK2
100
AcDbMText
 10
-48.94431572169828
 20
-0.0000000000000046
 30
0.0
 40
3.0
 41
0.0
 71
     5
 72
     1
  1
\A1;6 
  7
SANDVIK_STYLE
 11
0.0000000000000001
 21
1.0
 31
0.0
 73
     1
 44
1.0
1001
ACAD
1000
MTEXTBEGIN
1070
    73
1070
     1
1070
    44
1040
1.0
1070
    74
1070
     0
1000
MTEXTEND
  0
SOLID
  5
25F3
330
25ED
100
AcDbEntity
  8
SK2
100
AcDbTrace
 10
-39.75598238836496
 20
7.569999500000002
 30
0.0
 11
-38.23264905503162
 21
7.569999500000002
 31
0.0
 12
-38.99431572169829
 22
2.999999500000001
 32
0.0
 13
-38.99431572169829
 23
2.999999500000001
 33
0.0
  0
SOLID
  5
25F4
330
25ED
100
AcDbEntity
  8
SK2
100
AcDbTrace
 10
-39.75598238836496
 20
-7.569999499999997
 30
0.0
 11
-38.23264905503162
 21
-7.569999499999997
 31
0.0
 12
-38.99431572169829
 22
-2.999999499999998
 32
0.0
 13
-38.99431572169829
 23
-2.999999499999998
 33
0.0
  0
POINT
  5
25F5
330
25ED
100
AcDbEntity
  8
DEFPOINTS
 62
     0
100
AcDbPoint
 10
-35.350479
 20
2.999999500000001
 30
0.0
  0
POINT
  5
25F6
330
25ED
100
AcDbEntity
  8
DEFPOINTS
 62
     0
100
AcDbPoint
 10
-35.350479
 20
-2.999999500000001
 30
0.0
  0
POINT
  5
25F7
330
25ED
100
AcDbEntity
  8
DEFPOINTS
 62
     0
100
AcDbPoint
 10
-38.99431572169829
 20
-2.999999499999998
 30
0.0
  0
ENDBLK
  5
25F9
330
25ED
100
AcDbEntity
  8
0
100
AcDbBlockEnd
  0
BLOCK
  5
2606
330
25FB
100
AcDbEntity
  8
0
100
AcDbBlockBegin
  2
*D3
 70
     1
 10
0.0
 20
0.0
 30
0.0
  3
*D3
  1

  0
LINE
  5
2608
330
25FB
100
AcDbEntity
  8
SK2
370
    -2
100
AcDbLine
 10
149.2566122748819
 20
1.997555632125292
 30
0.0
 11
157.5170053861609
 21
1.997555632125289
 31
0.0
  0
LINE
  5
2609
330
25FB
100
AcDbEntity
  8
SK2
370
    -2
100
AcDbLine
 10
149.181711
 20
-2.182999500000001
 30
0.0
 11
157.5170053861609
 21
-2.182999500000003
 31
0.0
  0
LINE
  5
260A
330
25FB
100
AcDbEntity
  8
SK2
370
    -2
100
AcDbLine
 10
152.5170053861609
 20
6.56755563212529
 30
0.0
 11
152.5170053861609
 21
11.13755563212529
 31
0.0
  0
LINE
  5
260B
330
25FB
100
AcDbEntity
  8
SK2
370
    -2
100
AcDbLine
 10
152.5170053861609
 20
-6.752999500000001
 30
0.0
 11
152.5170053861609
 21
-11.3229995
 31
0.0
  0
MTEXT
  5
260C
330
25FB
100
AcDbEntity
  8
SK2
100
AcDbMText
 10
165.4670053861609
 20
-0.0927219339373315
 30
0.0
 40
3.0
 41
0.0
 71
     5
 72
     1
  1
\A1;4.18 
  7
SANDVIK_STYLE
 11
0.0000000000000001
 21
1.0
 31
0.0
 73
     1
 44
1.0
1001
ACAD
1000
MTEXTBEGIN
1070
    73
1070
     1
1070
    44
1040
1.0
1070
    74
1070
     0
1000
MTEXTEND
  0
SOLID
  5
260D
330
25FB
100
AcDbEntity
  8
SK2
100
AcDbTrace
 10
151.7553387194942
 20
6.56755563212529
 30
0.0
 11
153.2786720528275
 21
6.56755563212529
 31
0.0
 12
152.5170053861609
 22
1.99755563212529
 32
0.0
 13
152.5170053861609
 23
1.99755563212529
 33
0.0
  0
SOLID
  5
260E
330
25FB
100
AcDbEntity
  8
SK2
100
AcDbTrace
 10
151.7553387194942
 20
-6.752999500000001
 30
0.0
 11
153.2786720528275
 21
-6.752999500000001
 31
0.0
 12
152.5170053861609
 22
-2.182999500000001
 32
0.0
 13
152.5170053861609
 23
-2.182999500000001
 33
0.0
  0
POINT
  5
260F
330
25FB
100
AcDbEntity
  8
DEFPOINTS
 62
     0
100
AcDbPoint
 10
149.2566122748819
 20
1.997555632125292
 30
0.0
  0
POINT
  5
2610
330
25FB
100
AcDbEntity
  8
DEFPOINTS
 62
     0
100
AcDbPoint
 10
149.181711
 20
-2.182999500000001
 30
0.0
  0
POINT
  5
2611
330
25FB
100
AcDbEntity
  8
DEFPOINTS
 62
     0
100
AcDbPoint
 10
152.5170053861609
 20
-2.182999500000001
 30
0.0
  0
ENDBLK
  5
2607
330
25FB
100
AcDbEntity
  8
0
100
AcDbBlockEnd
  0
BLOCK
  5
2F24
330
2F19
100
AcDbEntity
  8
0
100
AcDbBlockBegin
  2
*D4
 70
     1
 10
0.0
 20
0.0
 30
0.0
  3
*D4
  1

  0
LINE
  5
2F1A
330
2F19
100
AcDbEntity
  8
SK2
370
    -2
100
AcDbLine
 10
-35.350479
 20
2.999999500000001
 30
0.0
 11
-43.61729390589959
 21
2.999999500000003
 31
0.0
  0
LINE
  5
2F1B
330
2F19
100
AcDbEntity
  8
SK2
370
    -2
100
AcDbLine
 10
-35.350479
 20
-2.999999500000001
 30
0.0
 11
-43.61729390589959
 21
-2.999999499999998
 31
0.0
  0
LINE
  5
2F1C
330
2F19
100
AcDbEntity
  8
SK2
370
    -2
100
AcDbLine
 10
-38.6172939058996
 20
7.569999500000002
 30
0.0
 11
-38.6172939058996
 21
12.1399995
 31
0.0
  0
LINE
  5
2F1D
330
2F19
100
AcDbEntity
  8
SK2
370
    -2
100
AcDbLine
 10
-38.6172939058996
 20
-7.569999499999997
 30
0.0
 11
-38.6172939058996
 21
-12.1399995
 31
0.0
  0
MTEXT
  5
2F1E
330
2F19
100
AcDbEntity
  8
SK2
100
AcDbMText
 10
-48.5672939058996
 20
-0.000000000000005
 30
0.0
 40
3.0
 41
0.0
 71
     5
 72
     1
  1
\A1;6 
  7
SANDVIK_STYLE
 11
0.0000000000000001
 21
1.0
 31
0.0
 73
     1
 44
1.0
1001
ACAD
1000
MTEXTBEGIN
1070
    73
1070
     1
1070
    44
1040
1.0
1070
    74
1070
     0
1000
MTEXTEND
  0
SOLID
  5
2F1F
330
2F19
100
AcDbEntity
  8
SK2
100
AcDbTrace
 10
-39.37896057256628
 20
7.569999500000002
 30
0.0
 11
-37.85562723923293
 21
7.569999500000001
 31
0.0
 12
-38.6172939058996
 22
2.999999500000001
 32
0.0
 13
-38.6172939058996
 23
2.999999500000001
 33
0.0
  0
SOLID
  5
2F20
330
2F19
100
AcDbEntity
  8
SK2
100
AcDbTrace
 10
-39.37896057256628
 20
-7.569999499999997
 30
0.0
 11
-37.85562723923293
 21
-7.569999500000001
 31
0.0
 12
-38.6172939058996
 22
-2.999999499999998
 32
0.0
 13
-38.6172939058996
 23
-2.999999499999998
 33
0.0
  0
POINT
  5
2F21
330
2F19
100
AcDbEntity
  8
DEFPOINTS
 62
     0
100
AcDbPoint
 10
-35.350479
 20
2.999999500000001
 30
0.0
  0
POINT
  5
2F22
330
2F19
100
AcDbEntity
  8
DEFPOINTS
 62
     0
100
AcDbPoint
 10
-35.350479
 20
-2.999999500000001
 30
0.0
  0
POINT
  5
2F23
330
2F19
100
AcDbEntity
  8
DEFPOINTS
 62
     0
100
AcDbPoint
 10
-38.6172939058996
 20
-2.999999499999998
 30
0.0
  0
ENDBLK
  5
2F25
330
2F19
100
AcDbEntity
  8
0
100
AcDbBlockEnd
  0
BLOCK
  5
2F32
330
2F27
100
AcDbEntity
  8
0
100
AcDbBlockBegin
  2
*D5
 70
     1
 10
0.0
 20
0.0
 30
0.0
  3
*D5
  1

  0
LINE
  5
2F28
330
2F27
100
AcDbEntity
  8
SK2
370
    -2
100
AcDbLine
 10
149.181711
 20
2.183000499999995
 30
0.0
 11
158.4520208556978
 21
2.183000499999991
 31
0.0
  0
LINE
  5
2F29
330
2F27
100
AcDbEntity
  8
SK2
370
    -2
100
AcDbLine
 10
149.181711
 20
-2.182999500000001
 30
0.0
 11
158.4520208556978
 21
-2.182999500000003
 31
0.0
  0
LINE
  5
2F2A
330
2F27
100
AcDbEntity
  8
SK2
370
    -2
100
AcDbLine
 10
153.4520208556978
 20
6.753000499999994
 30
0.0
 11
153.4520208556978
 21
11.32300049999999
 31
0.0
  0
LINE
  5
2F2B
330
2F27
100
AcDbEntity
  8
SK2
370
    -2
100
AcDbLine
 10
153.4520208556978
 20
-6.752999500000002
 30
0.0
 11
153.4520208556978
 21
-11.3229995
 31
0.0
  0
MTEXT
  5
2F2C
330
2F27
100
AcDbEntity
  8
SK2
100
AcDbMText
 10
166.4020208556978
 20
0.0000005000000196
 30
0.0
 40
3.0
 41
0.0
 71
     5
 72
     1
  1
\A1;4.37 
  7
SANDVIK_STYLE
 11
0.0000000000000001
 21
1.0
 31
0.0
 73
     1
 44
1.0
1001
ACAD
1000
MTEXTBEGIN
1070
    73
1070
     1
1070
    44
1040
1.0
1070
    74
1070
     0
1000
MTEXTEND
  0
SOLID
  5
2F2D
330
2F27
100
AcDbEntity
  8
SK2
100
AcDbTrace
 10
152.6903541890311
 20
6.753000499999994
 30
0.0
 11
154.2136875223644
 21
6.753000499999991
 31
0.0
 12
153.4520208556978
 22
2.183000499999993
 32
0.0
 13
153.4520208556978
 23
2.183000499999993
 33
0.0
  0
SOLID
  5
2F2E
330
2F27
100
AcDbEntity
  8
SK2
100
AcDbTrace
 10
152.6903541890311
 20
-6.752999500000002
 30
0.0
 11
154.2136875223644
 21
-6.752999500000002
 31
0.0
 12
153.4520208556978
 22
-2.182999500000001
 32
0.0
 13
153.4520208556978
 23
-2.182999500000001
 33
0.0
  0
POINT
  5
2F2F
330
2F27
100
AcDbEntity
  8
DEFPOINTS
 62
     0
100
AcDbPoint
 10
149.181711
 20
2.183000499999995
 30
0.0
  0
POINT
  5
2F30
330
2F27
100
AcDbEntity
  8
DEFPOINTS
 62
     0
100
AcDbPoint
 10
149.181711
 20
-2.182999500000001
 30
0.0
  0
POINT
  5
2F31
330
2F27
100
AcDbEntity
  8
DEFPOINTS
 62
     0
100
AcDbPoint
 10
153.4520208556978
 20
-2.182999500000001
 30
0.0
  0
ENDBLK
  5
2F33
330
2F27
100
AcDbEntity
  8
0
100
AcDbBlockEnd
  0
BLOCK
  5
35AF
330
35A4
100
AcDbEntity
  8
0
100
AcDbBlockBegin
  2
*D6
 70
     1
 10
0.0
 20
0.0
 30
0.0
  3
*D6
  1

  0
LINE
  5
36C0
330
35A4
100
AcDbEntity
  8
2
370
    -2
100
AcDbLine
 10
137.242893
 20
1.975980499999995
 30
0.0
 11
151.7202032309469
 21
1.975980499999991
 31
0.0
  0
LINE
  5
36C1
330
35A4
100
AcDbEntity
  8
2
370
    -2
100
AcDbLine
 10
137.248537
 20
-1.995982500000004
 30
0.0
 11
151.7202032309469
 21
-1.995982500000008
 31
0.0
  0
LINE
  5
36C2
330
35A4
100
AcDbEntity
  8
2
370
    -2
100
AcDbLine
 10
146.7202032309469
 20
6.545980499999994
 30
0.0
 11
146.7202032309469
 21
11.11598049999999
 31
0.0
  0
LINE
  5
36C3
330
35A4
100
AcDbEntity
  8
2
370
    -2
100
AcDbLine
 10
146.7202032309469
 20
-6.565982500000008
 30
0.0
 11
146.7202032309469
 21
-11.13598250000001
 31
0.0
  0
MTEXT
  5
36C4
330
35A4
100
AcDbEntity
  8
2
100
AcDbMText
 10
146.4340315422034
 20
-16.55060413818728
 30
0.0
 40
3.0
 41
0.0
 71
     5
 72
     1
  1
\A1;%%c 4
  7
SANDVIK_STYLE
 11
0.0000000000000001
 21
1.0
 31
0.0
 73
     1
 44
1.0
1001
ACAD
1000
MTEXTBEGIN
1070
    73
1070
     1
1070
    44
1040
1.0
1070
    74
1070
     0
1000
MTEXTEND
  0
SOLID
  5
36C5
330
35A4
100
AcDbEntity
  8
2
100
AcDbTrace
 10
145.9585365642802
 20
6.545980499999995
 30
0.0
 11
147.4818698976135
 21
6.545980499999994
 31
0.0
 12
146.7202032309469
 22
1.975980499999993
 32
0.0
 13
146.7202032309469
 23
1.975980499999993
 33
0.0
  0
SOLID
  5
36C6
330
35A4
100
AcDbEntity
  8
2
100
AcDbTrace
 10
145.9585365642802
 20
-6.565982500000005
 30
0.0
 11
147.4818698976135
 21
-6.565982500000008
 31
0.0
 12
146.7202032309469
 22
-1.995982500000006
 32
0.0
 13
146.7202032309469
 23
-1.995982500000006
 33
0.0
  0
POINT
  5
36C7
330
35A4
100
AcDbEntity
  8
DEFPOINTS
 62
     0
100
AcDbPoint
 10
137.242893
 20
1.975980499999995
 30
0.0
  0
POINT
  5
36C8
330
35A4
100
AcDbEntity
  8
DEFPOINTS
 62
     0
100
AcDbPoint
 10
137.248537
 20
-1.995982500000004
 30
0.0
  0
POINT
  5
36C9
330
35A4
100
AcDbEntity
  8
DEFPOINTS
 62
     0
100
AcDbPoint
 10
146.7202032309469
 20
-1.995982500000006
 30
0.0
  0
ENDBLK
  5
35B0
330
35A4
100
AcDbEntity
  8
0
100
AcDbBlockEnd
  0
BLOCK
  5
35D1
330
35C6
100
AcDbEntity
  8
0
100
AcDbBlockBegin
  2
*D7
 70
     1
 10
0.0
 20
0.0
 30
0.0
  3
*D7
  1

  0
LINE
  5
3694
330
35C6
100
AcDbEntity
  8
SK2
370
    -2
100
AcDbLine
 10
-35.349007
 20
3.000000499999998
 30
0.0
 11
-49.93434713927904
 21
3.000000500000001
 31
0.0
  0
LINE
  5
3695
330
35C6
100
AcDbEntity
  8
SK2
370
    -2
100
AcDbLine
 10
-35.349007
 20
-3.000000500000001
 30
0.0
 11
-49.93434713927904
 21
-3.000000499999995
 31
0.0
  0
LINE
  5
3696
330
35C6
100
AcDbEntity
  8
SK2
370
    -2
100
AcDbLine
 10
-44.93434713927903
 20
7.5700005
 30
0.0
 11
-44.93434713927903
 21
12.1400005
 31
0.0
  0
LINE
  5
3697
330
35C6
100
AcDbEntity
  8
SK2
370
    -2
100
AcDbLine
 10
-44.93434713927903
 20
-7.570000499999999
 30
0.0
 11
-44.93434713927903
 21
-12.1400005
 31
0.0
  0
MTEXT
  5
3698
330
35C6
100
AcDbEntity
  8
SK2
100
AcDbMText
 10
-44.94925177383016
 20
-18.08713991469244
 30
0.0
 40
3.0
 41
0.0
 71
     5
 72
     1
  1
\A1;%%c 6 
  7
SANDVIK_STYLE
 11
0.0000000000000001
 21
1.0
 31
0.0
 73
     1
 44
1.0
1001
ACAD
1000
MTEXTBEGIN
1070
    73
1070
     1
1070
    44
1040
1.0
1070
    74
1070
     0
1000
MTEXTEND
  0
SOLID
  5
3699
330
35C6
100
AcDbEntity
  8
SK2
100
AcDbTrace
 10
-45.69601380594568
 20
7.5700005
 30
0.0
 11
-44.17268047261234
 21
7.5700005
 31
0.0
 12
-44.93434713927903
 22
3.0000005
 32
0.0
 13
-44.93434713927903
 23
3.0000005
 33
0.0
  0
SOLID
  5
369A
330
35C6
100
AcDbEntity
  8
SK2
100
AcDbTrace
 10
-45.69601380594568
 20
-7.570000499999999
 30
0.0
 11
-44.17268047261234
 21
-7.570000499999999
 31
0.0
 12
-44.93434713927903
 22
-3.000000499999998
 32
0.0
 13
-44.93434713927903
 23
-3.000000499999998
 33
0.0
  0
POINT
  5
369B
330
35C6
100
AcDbEntity
  8
DEFPOINTS
 62
     0
100
AcDbPoint
 10
-35.349007
 20
3.000000499999998
 30
0.0
  0
POINT
  5
369C
330
35C6
100
AcDbEntity
  8
DEFPOINTS
 62
     0
100
AcDbPoint
 10
-35.349007
 20
-3.000000500000001
 30
0.0
  0
POINT
  5
369D
330
35C6
100
AcDbEntity
  8
DEFPOINTS
 62
     0
100
AcDbPoint
 10
-44.93434713927903
 20
-3.000000499999998
 30
0.0
  0
ENDBLK
  5
35D2
330
35C6
100
AcDbEntity
  8
0
100
AcDbBlockEnd
  0
BLOCK
  5
35DE
330
35D4
100
AcDbEntity
  8
0
100
AcDbBlockBegin
  2
*D8
 70
     1
 10
0.0
 20
0.0
 30
0.0
  3
*D8
  1

  0
LINE
  5
3659
330
35D4
100
AcDbEntity
  8
SK2
370
    -2
100
AcDbLine
 10
137.242893
 20
1.975980499999995
 30
0.0
 11
137.242893
 21
12.47046894986051
 31
0.0
  0
LINE
  5
365A
330
35D4
100
AcDbEntity
  8
SK2
370
    -2
100
AcDbLine
 10
17.24024290072408
 20
5.357019139505106
 30
0.0
 11
17.24024290072408
 21
12.47046894986051
 31
0.0
  0
LINE
  5
365B
330
35D4
100
AcDbEntity
  8
SK2
370
    -2
100
AcDbLine
 10
132.672893
 20
7.470468949860513
 30
0.0
 11
21.81024290072409
 21
7.470468949860513
 31
0.0
  0
SOLID
  5
365C
330
35D4
100
AcDbEntity
  8
SK2
100
AcDbTrace
 10
132.672893
 20
8.232135616527179
 30
0.0
 11
132.672893
 21
6.708802283193846
 31
0.0
 12
137.242893
 22
7.470468949860513
 32
0.0
 13
137.242893
 23
7.470468949860513
 33
0.0
  0
SOLID
  5
365D
330
35D4
100
AcDbEntity
  8
SK2
100
AcDbTrace
 10
21.81024290072409
 20
8.232135616527179
 30
0.0
 11
21.81024290072409
 21
6.708802283193846
 31
0.0
 12
17.24024290072408
 22
7.470468949860513
 32
0.0
 13
17.24024290072408
 23
7.470468949860513
 33
0.0
  0
MTEXT
  5
365E
330
35D4
100
AcDbEntity
  8
SK2
100
AcDbMText
 10
77.24156795036204
 20
11.27046894986051
 30
0.0
 40
3.0
 41
0.0
 71
     5
 72
     1
  1
\A1;120 
  7
SANDVIK_STYLE
 73
     1
 44
1.0
1001
ACAD
1000
MTEXTBEGIN
1070
    73
1070
     1
1070
    44
1040
1.0
1070
    74
1070
     0
1000
MTEXTEND
  0
POINT
  5
365F
330
35D4
100
AcDbEntity
  8
DEFPOINTS
 62
     0
100
AcDbPoint
 10
137.242893
 20
1.975980499999995
 30
0.0
  0
POINT
  5
3660
330
35D4
100
AcDbEntity
  8
DEFPOINTS
 62
     0
100
AcDbPoint
 10
17.24024290072408
 20
5.357019139505106
 30
0.0
  0
POINT
  5
3661
330
35D4
100
AcDbEntity
  8
DEFPOINTS
 62
     0
100
AcDbPoint
 10
17.24024290072408
 20
7.470468949860513
 30
0.0
  0
ENDBLK
  5
35DF
330
35D4
100
AcDbEntity
  8
0
100
AcDbBlockEnd
  0
BLOCK
  5
35F5
330
35EB
100
AcDbEntity
  8
0
100
AcDbBlockBegin
  2
*D9
 70
     1
 10
0.0
 20
0.0
 30
0.0
  3
*D9
  1

  0
LINE
  5
3643
330
35EB
100
AcDbEntity
  8
2
370
    -2
100
AcDbLine
 10
137.9942155
 20
-0.0000005000000023
 30
0.0
 11
137.9942155
 21
-13.64964505118888
 31
0.0
  0
LINE
  5
3644
330
35EB
100
AcDbEntity
  8
2
370
    -2
100
AcDbLine
 10
5.993847000000013
 20
-1.300099500000001
 30
0.0
 11
5.993847000000013
 21
-13.64964505118888
 31
0.0
  0
LINE
  5
3645
330
35EB
100
AcDbEntity
  8
2
370
    -2
100
AcDbLine
 10
133.4242155
 20
-8.649645051188882
 30
0.0
 11
10.56384700000001
 21
-8.649645051188882
 31
0.0
  0
SOLID
  5
3646
330
35EB
100
AcDbEntity
  8
2
100
AcDbTrace
 10
133.4242155
 20
-7.887978384522217
 30
0.0
 11
133.4242155
 21
-9.41131171785555
 31
0.0
 12
137.9942155
 22
-8.649645051188882
 32
0.0
 13
137.9942155
 23
-8.649645051188882
 33
0.0
  0
SOLID
  5
3647
330
35EB
100
AcDbEntity
  8
2
100
AcDbTrace
 10
10.56384700000001
 20
-7.887978384522217
 30
0.0
 11
10.56384700000001
 21
-9.41131171785555
 31
0.0
 12
5.993847000000013
 22
-8.649645051188882
 32
0.0
 13
5.993847000000013
 23
-8.649645051188882
 33
0.0
  0
MTEXT
  5
3648
330
35EB
100
AcDbEntity
  8
2
100
AcDbMText
 10
71.99403125
 20
-4.849645051188884
 30
0.0
 40
3.0
 41
0.0
 71
     5
 72
     1
  1
\A1;132 
  7
SANDVIK_STYLE
 73
     1
 44
1.0
1001
ACAD
1000
MTEXTBEGIN
1070
    73
1070
     1
1070
    44
1040
1.0
1070
    74
1070
     0
1000
MTEXTEND
  0
POINT
  5
3649
330
35EB
100
AcDbEntity
  8
DEFPOINTS
 62
     0
100
AcDbPoint
 10
137.9942155
 20
-0.0000005000000023
 30
0.0
  0
POINT
  5
364A
330
35EB
100
AcDbEntity
  8
DEFPOINTS
 62
     0
100
AcDbPoint
 10
5.993847000000013
 20
-1.300099500000001
 30
0.0
  0
POINT
  5
364B
330
35EB
100
AcDbEntity
  8
DEFPOINTS
 62
     0
100
AcDbPoint
 10
5.993847000000013
 20
-8.649645051188882
 30
0.0
  0
ENDBLK
  5
35F6
330
35EB
100
AcDbEntity
  8
0
100
AcDbBlockEnd
  0
BLOCK
  5
360B
330
3601
100
AcDbEntity
  8
0
100
AcDbBlockBegin
  2
*D10
 70
     1
 10
0.0
 20
0.0
 30
0.0
  3
*D10
  1

  0
LINE
  5
3602
330
3601
100
AcDbEntity
  8
SK2
370
    -2
100
AcDbLine
 10
-35.99862499999999
 20
-2.624964500000003
 30
0.0
 11
-35.99862499999999
 21
-21.89836779403362
 31
0.0
  0
LINE
  5
3603
330
3601
100
AcDbEntity
  8
SK2
370
    -2
100
AcDbLine
 10
0.0
 20
-3.000000500000001
 30
0.0
 11
-0.0000000000000012
 21
-21.89836779403362
 31
0.0
  0
LINE
  5
3604
330
3601
100
AcDbEntity
  8
SK2
370
    -2
100
AcDbLine
 10
-31.42862499999999
 20
-16.89836779403362
 30
0.0
 11
-4.570000000000001
 21
-16.89836779403362
 31
0.0
  0
SOLID
  5
3605
330
3601
100
AcDbEntity
  8
SK2
100
AcDbTrace
 10
-31.42862499999999
 20
-16.13670112736695
 30
0.0
 11
-31.42862499999999
 21
-17.66003446070028
 31
0.0
 12
-35.99862499999999
 22
-16.89836779403362
 32
0.0
 13
-35.99862499999999
 23
-16.89836779403362
 33
0.0
  0
SOLID
  5
3606
330
3601
100
AcDbEntity
  8
SK2
100
AcDbTrace
 10
-4.570000000000001
 20
-16.13670112736695
 30
0.0
 11
-4.570000000000001
 21
-17.66003446070028
 31
0.0
 12
-0.0000000000000009
 22
-16.89836779403362
 32
0.0
 13
-0.0000000000000009
 23
-16.89836779403362
 33
0.0
  0
MTEXT
  5
3607
330
3601
100
AcDbEntity
  8
SK2
100
AcDbMText
 10
-17.99931249999999
 20
-13.09836779403362
 30
0.0
 40
3.0
 41
0.0
 71
     5
 72
     1
  1
\A1;36 
  7
SANDVIK_STYLE
 73
     1
 44
1.0
1001
ACAD
1000
MTEXTBEGIN
1070
    73
1070
     1
1070
    44
1040
1.0
1070
    74
1070
     0
1000
MTEXTEND
  0
POINT
  5
3608
330
3601
100
AcDbEntity
  8
DEFPOINTS
 62
     0
100
AcDbPoint
 10
-35.99862499999999
 20
-2.624964500000003
 30
0.0
  0
POINT
  5
3609
330
3601
100
AcDbEntity
  8
DEFPOINTS
 62
     0
100
AcDbPoint
 10
0.0
 20
-3.000000500000001
 30
0.0
  0
POINT
  5
360A
330
3601
100
AcDbEntity
  8
DEFPOINTS
 62
     0
100
AcDbPoint
 10
-0.0000000000000009
 20
-16.89836779403362
 30
0.0
  0
ENDBLK
  5
360C
330
3601
100
AcDbEntity
  8
0
100
AcDbBlockEnd
  0
BLOCK
  5
3618
330
360E
100
AcDbEntity
  8
0
100
AcDbBlockBegin
  2
*D11
 70
     1
 10
0.0
 20
0.0
 30
0.0
  3
*D11
  1

  0
LINE
  5
364C
330
360E
100
AcDbEntity
  8
2
370
    -2
100
AcDbLine
 10
0.0
 20
-3.000000500000001
 30
0.0
 11
-0.0000000000000012
 21
-21.89836779403362
 31
0.0
  0
LINE
  5
364D
330
360E
100
AcDbEntity
  8
2
370
    -2
100
AcDbLine
 10
138.0042155
 20
-0.0000005000000023
 30
0.0
 11
138.0042155
 21
-21.89836779403362
 31
0.0
  0
LINE
  5
364E
330
360E
100
AcDbEntity
  8
2
370
    -2
100
AcDbLine
 10
4.569999999999998
 20
-16.89836779403362
 30
0.0
 11
133.4342155
 21
-16.89836779403362
 31
0.0
  0
SOLID
  5
364F
330
360E
100
AcDbEntity
  8
2
100
AcDbTrace
 10
4.569999999999998
 20
-16.13670112736695
 30
0.0
 11
4.569999999999998
 21
-17.66003446070028
 31
0.0
 12
-0.0000000000000009
 22
-16.89836779403362
 32
0.0
 13
-0.0000000000000009
 23
-16.89836779403362
 33
0.0
  0
SOLID
  5
3650
330
360E
100
AcDbEntity
  8
2
100
AcDbTrace
 10
133.4342155
 20
-16.13670112736695
 30
0.0
 11
133.4342155
 21
-17.66003446070028
 31
0.0
 12
138.0042155
 22
-16.89836779403362
 32
0.0
 13
138.0042155
 23
-16.89836779403362
 33
0.0
  0
MTEXT
  5
3651
330
360E
100
AcDbEntity
  8
2
100
AcDbMText
 10
69.00210774999999
 20
-13.09836779403362
 30
0.0
 40
3.0
 41
0.0
 71
     5
 72
     1
  1
\A1;138 
  7
SANDVIK_STYLE
 73
     1
 44
1.0
1001
ACAD
1000
MTEXTBEGIN
1070
    73
1070
     1
1070
    44
1040
1.0
1070
    74
1070
     0
1000
MTEXTEND
  0
POINT
  5
3652
330
360E
100
AcDbEntity
  8
DEFPOINTS
 62
     0
100
AcDbPoint
 10
0.0
 20
-3.000000500000001
 30
0.0
  0
POINT
  5
3653
330
360E
100
AcDbEntity
  8
DEFPOINTS
 62
     0
100
AcDbPoint
 10
138.0042155
 20
-0.0000005000000023
 30
0.0
  0
POINT
  5
3654
330
360E
100
AcDbEntity
  8
DEFPOINTS
 62
     0
100
AcDbPoint
 10
138.0042155
 20
-16.89836779403362
 30
0.0
  0
ENDBLK
  5
3619
330
360E
100
AcDbEntity
  8
0
100
AcDbBlockEnd
  0
BLOCK
  5
3625
330
361B
100
AcDbEntity
  8
0
100
AcDbBlockBegin
  2
*D12
 70
     1
 10
0.0
 20
0.0
 30
0.0
  3
*D12
  1

  0
LINE
  5
3630
330
361B
100
AcDbEntity
  8
SK2
370
    -2
100
AcDbLine
 10
-35.99862499999999
 20
-2.624964500000003
 30
0.0
 11
-35.99862499999999
 21
-29.13565142571844
 31
0.0
  0
LINE
  5
3631
330
361B
100
AcDbEntity
  8
SK2
370
    -2
100
AcDbLine
 10
138.0042155092962
 20
-0.0000000000000018
 30
0.0
 11
138.0042155092962
 21
-29.13565142571844
 31
0.0
  0
LINE
  5
3632
330
361B
100
AcDbEntity
  8
SK2
370
    -2
100
AcDbLine
 10
-31.42862499999999
 20
-24.13565142571844
 30
0.0
 11
133.4342155092962
 21
-24.13565142571844
 31
0.0
  0
SOLID
  5
3633
330
361B
100
AcDbEntity
  8
SK2
100
AcDbTrace
 10
-31.42862499999999
 20
-23.37398475905177
 30
0.0
 11
-31.42862499999999
 21
-24.8973180923851
 31
0.0
 12
-35.99862499999999
 22
-24.13565142571844
 32
0.0
 13
-35.99862499999999
 23
-24.13565142571844
 33
0.0
  0
SOLID
  5
3634
330
361B
100
AcDbEntity
  8
SK2
100
AcDbTrace
 10
133.4342155092962
 20
-23.37398475905177
 30
0.0
 11
133.4342155092962
 21
-24.8973180923851
 31
0.0
 12
138.0042155092962
 22
-24.13565142571844
 32
0.0
 13
138.0042155092962
 23
-24.13565142571844
 33
0.0
  0
MTEXT
  5
3635
330
361B
100
AcDbEntity
  8
SK2
100
AcDbMText
 10
51.00279525464813
 20
-20.33565142571844
 30
0.0
 40
3.0
 41
0.0
 71
     5
 72
     1
  1
\A1;174 
  7
SANDVIK_STYLE
 73
     1
 44
1.0
1001
ACAD
1000
MTEXTBEGIN
1070
    73
1070
     1
1070
    44
1040
1.0
1070
    74
1070
     0
1000
MTEXTEND
  0
POINT
  5
3636
330
361B
100
AcDbEntity
  8
DEFPOINTS
 62
     0
100
AcDbPoint
 10
-35.99862499999999
 20
-2.624964500000003
 30
0.0
  0
POINT
  5
3637
330
361B
100
AcDbEntity
  8
DEFPOINTS
 62
     0
100
AcDbPoint
 10
138.0042155092962
 20
-0.0000000000000018
 30
0.0
  0
POINT
  5
3638
330
361B
100
AcDbEntity
  8
DEFPOINTS
 62
     0
100
AcDbPoint
 10
138.0042155092962
 20
-24.13565142571844
 30
0.0
  0
ENDBLK
  5
3626
330
361B
100
AcDbEntity
  8
0
100
AcDbBlockEnd
  0
ENDSEC
  0
SECTION
  2
ENTITIES
  0
TEXT
  5
62
330
BF7
100
AcDbEntity
  8
SK6
100
AcDbText
 10
-18.5
 20
25.0
 30
0.0
 40
3.0
  1
861.1-0400-120A1-GM
 41
0.7622144905660377
  7
SANDVIK_STYLE
 72
     5
 11
21.897368
 21
25.0
 31
0.0
100
AcDbText
  0
LINE
  5
326C
330
BF7
100
AcDbEntity
  8
SK1
100
AcDbLine
 10
0.0
 20
3.000000499999998
 30
0.0
 11
0.0
 21
-3.000000500000001
 31
0.0
  0
LINE
  5
326D
330
BF7
100
AcDbEntity
  8
1
100
AcDbLine
 10
0.5009150000000063
 20
-2.008017500000004
 30
0.0
 11
0.5009150000000063
 21
1.999998499999995
 31
0.0
  0
LINE
  5
326E
330
BF7
100
AcDbEntity
  8
SK1
100
AcDbLine
 10
-35.99862499999999
 20
-2.624964500000003
 30
0.0
 11
-35.99862499999999
 21
2.624963499999998
 31
0.0
  0
LINE
  5
326F
330
BF7
100
AcDbEntity
  8
1
100
AcDbLine
 10
18.391192
 20
1.056206499999996
 30
0.0
 11
16.64573800000001
 21
1.650528499999995
 31
0.0
  0
LINE
  5
3270
330
BF7
100
AcDbEntity
  8
1
100
AcDbLine
 10
19.887279
 20
0.3259184999999967
 30
0.0
 11
18.391192
 21
1.056206499999996
 31
0.0
  0
LINE
  5
3271
330
BF7
100
AcDbEntity
  8
1
100
AcDbLine
 10
21.38043600000002
 20
-0.4602465000000038
 30
0.0
 11
19.887279
 21
0.3259184999999967
 31
0.0
  0
LINE
  5
3272
330
BF7
100
AcDbEntity
  8
1
100
AcDbLine
 10
22.87070900000002
 20
-1.1675135
 30
0.0
 11
21.38043600000002
 21
-0.4602465000000038
 31
0.0
  0
LINE
  5
3273
330
BF7
100
AcDbEntity
  8
1
100
AcDbLine
 10
24.35863900000001
 20
-1.674625500000001
 30
0.0
 11
22.87070900000002
 21
-1.1675135
 31
0.0
  0
LINE
  5
3274
330
BF7
100
AcDbEntity
  8
1
100
AcDbLine
 10
25.84515800000001
 20
-1.894664500000004
 30
0.0
 11
24.35863900000001
 21
-1.674625500000001
 31
0.0
  0
LINE
  5
3275
330
BF7
100
AcDbEntity
  8
1
100
AcDbLine
 10
26.166826
 20
-1.871988500000004
 30
0.0
 11
25.84515800000001
 21
-1.894664500000004
 31
0.0
  0
LINE
  5
3276
330
BF7
100
AcDbEntity
  8
1
100
AcDbLine
 10
40.79218
 20
1.098945499999999
 30
0.0
 11
39.04433400000001
 21
1.674730499999999
 31
0.0
  0
LINE
  5
3277
330
BF7
100
AcDbEntity
  8
1
100
AcDbLine
 10
42.288443
 20
0.3769174999999976
 30
0.0
 11
40.79218
 21
1.098945499999999
 31
0.0
  0
LINE
  5
3278
330
BF7
100
AcDbEntity
  8
1
100
AcDbLine
 10
43.78179900000001
 20
-0.4097325000000043
 30
0.0
 11
42.288443
 21
0.3769174999999976
 31
0.0
  0
LINE
  5
3279
330
BF7
100
AcDbEntity
  8
1
100
AcDbLine
 10
45.27224799999999
 20
-1.126137500000002
 30
0.0
 11
43.78179900000001
 21
-0.4097325000000043
 31
0.0
  0
LINE
  5
327A
330
BF7
100
AcDbEntity
  8
1
100
AcDbLine
 10
46.76031199999999
 20
-1.649488500000003
 30
0.0
 11
45.27224799999999
 21
-1.126137500000002
 31
0.0
  0
LINE
  5
327B
330
BF7
100
AcDbEntity
  8
1
100
AcDbLine
 10
48.24688500000002
 20
-1.890071500000004
 30
0.0
 11
46.76031199999999
 21
-1.649488500000003
 31
0.0
  0
LINE
  5
327C
330
BF7
100
AcDbEntity
  8
1
100
AcDbLine
 10
48.66194000000001
 20
-1.866768500000002
 30
0.0
 11
48.24688500000002
 21
-1.890071500000004
 31
0.0
  0
LINE
  5
327D
330
BF7
100
AcDbEntity
  8
1
100
AcDbLine
 10
61.69431999999999
 20
1.658525499999999
 30
0.0
 11
61.55381300000001
 21
1.680377499999995
 31
0.0
  0
LINE
  5
327E
330
BF7
100
AcDbEntity
  8
1
100
AcDbLine
 10
61.90886600000003
 20
1.584429499999995
 30
0.0
 11
61.69431999999999
 21
1.658525499999999
 31
0.0
  0
LINE
  5
327F
330
BF7
100
AcDbEntity
  8
1
100
AcDbLine
 10
64.68959500000001
 20
0.4276385000000005
 30
0.0
 11
62.03810999999999
 21
1.539791499999995
 31
0.0
  0
LINE
  5
3280
330
BF7
100
AcDbEntity
  8
1
100
AcDbLine
 10
66.18314500000001
 20
-0.3589025000000028
 30
0.0
 11
64.68959500000001
 21
0.4276385000000005
 31
0.0
  0
LINE
  5
3281
330
BF7
100
AcDbEntity
  8
1
100
AcDbLine
 10
67.67377600000002
 20
-1.083927500000005
 30
0.0
 11
66.18314500000001
 21
-0.3589025000000028
 31
0.0
  0
LINE
  5
3282
330
BF7
100
AcDbEntity
  8
1
100
AcDbLine
 10
69.16196000000001
 20
-1.623120500000002
 30
0.0
 11
67.67377600000002
 21
-1.083927500000005
 31
0.0
  0
LINE
  5
3283
330
BF7
100
AcDbEntity
  8
1
100
AcDbLine
 10
70.64860600000002
 20
-1.884063500000003
 30
0.0
 11
69.16196000000001
 21
-1.623120500000002
 31
0.0
  0
LINE
  5
3284
330
BF7
100
AcDbEntity
  8
1
100
AcDbLine
 10
71.15908899999998
 20
-1.862756500000003
 30
0.0
 11
70.64860600000002
 21
-1.884063500000003
 31
0.0
  0
LINE
  5
3285
330
BF7
100
AcDbEntity
  8
1
100
AcDbLine
 10
84.09515700000001
 20
1.6832205
 30
0.0
 11
83.95651500000003
 21
1.702878499999995
 31
0.0
  0
LINE
  5
3286
330
BF7
100
AcDbEntity
  8
1
100
AcDbLine
 10
84.28901600000001
 20
1.618393499999995
 30
0.0
 11
84.09515700000001
 21
1.6832205
 31
0.0
  0
LINE
  5
3287
330
BF7
100
AcDbEntity
  8
1
100
AcDbLine
 10
87.090735
 20
0.4780374999999994
 30
0.0
 11
84.557774
 21
1.528512499999995
 31
0.0
  0
LINE
  5
3288
330
BF7
100
AcDbEntity
  8
1
100
AcDbLine
 10
88.584478
 20
-0.3078155000000038
 30
0.0
 11
87.090735
 21
0.4780374999999994
 31
0.0
  0
LINE
  5
3289
330
BF7
100
AcDbEntity
  8
1
100
AcDbLine
 10
90.07529100000001
 20
-1.040898499999999
 30
0.0
 11
88.584478
 21
-0.3078155000000038
 31
0.0
  0
LINE
  5
328A
330
BF7
100
AcDbEntity
  8
1
100
AcDbLine
 10
91.56361999999999
 20
-1.595542499999999
 30
0.0
 11
90.07529100000001
 21
-1.040898499999999
 31
0.0
  0
LINE
  5
328B
330
BF7
100
AcDbEntity
  8
1
100
AcDbLine
 10
93.05032699999999
 20
-1.876654499999999
 30
0.0
 11
91.56361999999999
 21
-1.595542499999999
 31
0.0
  0
LINE
  5
328C
330
BF7
100
AcDbEntity
  8
1
100
AcDbLine
 10
93.65419000000001
 20
-1.8601615
 30
0.0
 11
93.05032699999999
 21
-1.876654499999999
 31
0.0
  0
LINE
  5
328D
330
BF7
100
AcDbEntity
  8
1
100
AcDbLine
 10
109.491862
 20
0.528080499999998
 30
0.0
 11
107.067204
 21
1.522029499999995
 31
0.0
  0
LINE
  5
328E
330
BF7
100
AcDbEntity
  8
1
100
AcDbLine
 10
110.985811
 20
-0.2564955000000033
 30
0.0
 11
109.491862
 21
0.528080499999998
 31
0.0
  0
LINE
  5
328F
330
BF7
100
AcDbEntity
  8
1
100
AcDbLine
 10
112.476806
 20
-0.9970995000000007
 30
0.0
 11
110.985811
 21
-0.2564955000000033
 31
0.0
  0
LINE
  5
3290
330
BF7
100
AcDbEntity
  8
1
100
AcDbLine
 10
113.965269
 20
-1.5667745
 30
0.0
 11
112.476806
 21
-0.9970995000000007
 31
0.0
  0
LINE
  5
3291
330
BF7
100
AcDbEntity
  8
1
100
AcDbLine
 10
115.452048
 20
-1.867846500000004
 30
0.0
 11
113.965269
 21
-1.5667745
 31
0.0
  0
LINE
  5
3292
330
BF7
100
AcDbEntity
  8
1
100
AcDbLine
 10
116.153374
 20
-1.858823499999999
 30
0.0
 11
115.452048
 21
-1.867846500000004
 31
0.0
  0
LINE
  5
3293
330
BF7
100
AcDbEntity
  8
1
100
AcDbLine
 10
131.892977
 20
0.5777314999999989
 30
0.0
 11
129.539705
 21
1.528382499999999
 31
0.0
  0
LINE
  5
3294
330
BF7
100
AcDbEntity
  8
1
100
AcDbLine
 10
133.387109
 20
-0.2049815000000024
 30
0.0
 11
131.892977
 21
0.5777314999999989
 31
0.0
  0
LINE
  5
3295
330
BF7
100
AcDbEntity
  8
1
100
AcDbLine
 10
134.878284
 20
-0.952552500000003
 30
0.0
 11
133.387109
 21
-0.2049815000000024
 31
0.0
  0
LINE
  5
3296
330
BF7
100
AcDbEntity
  8
1
100
AcDbLine
 10
136.366905
 20
-1.536834500000004
 30
0.0
 11
134.878284
 21
-0.952552500000003
 31
0.0
  0
LINE
  5
3297
330
BF7
100
AcDbEntity
  8
1
100
AcDbLine
 10
137.256046
 20
-1.765000500000002
 30
0.0
 11
136.366905
 21
-1.536834500000004
 31
0.0
  0
LINE
  5
3298
330
BF7
100
AcDbEntity
  8
1
100
AcDbLine
 10
7.939038000000008
 20
0.6822104999999965
 30
0.0
 11
6.441716000000012
 21
1.342053499999995
 31
0.0
  0
LINE
  5
3299
330
BF7
100
AcDbEntity
  8
1
100
AcDbLine
 10
9.433594000000011
 20
-0.0945745000000002
 30
0.0
 11
7.939038000000008
 21
0.6822104999999965
 31
0.0
  0
LINE
  5
329A
330
BF7
100
AcDbEntity
  8
1
100
AcDbLine
 10
10.92517500000001
 20
-0.8551475000000046
 30
0.0
 11
9.433594000000011
 21
-0.0945745000000002
 31
0.0
  0
LINE
  5
329B
330
BF7
100
AcDbEntity
  8
1
100
AcDbLine
 10
12.41410400000001
 20
-1.469127500000002
 30
0.0
 11
10.92517500000001
 21
-0.8551475000000046
 31
0.0
  0
LINE
  5
329C
330
BF7
100
AcDbEntity
  8
1
100
AcDbLine
 10
13.90114400000001
 20
-1.831244500000003
 30
0.0
 11
12.41410400000001
 21
-1.469127500000002
 31
0.0
  0
LINE
  5
329D
330
BF7
100
AcDbEntity
  8
1
100
AcDbLine
 10
15.13181000000001
 20
-1.871152500000004
 30
0.0
 11
13.90114400000001
 21
-1.831244500000003
 31
0.0
  0
LINE
  5
329E
330
BF7
100
AcDbEntity
  8
1
100
AcDbLine
 10
30.340124
 20
0.730384499999996
 30
0.0
 11
28.38679700000002
 21
1.503402499999991
 31
0.0
  0
LINE
  5
329F
330
BF7
100
AcDbEntity
  8
1
100
AcDbLine
 10
31.83487200000002
 20
-0.0427155000000035
 30
0.0
 11
30.340124
 21
0.730384499999996
 31
0.0
  0
LINE
  5
32A0
330
BF7
100
AcDbEntity
  8
1
100
AcDbLine
 10
33.32664800000002
 20
-0.8084965000000039
 30
0.0
 11
31.83487200000002
 21
-0.0427155000000035
 31
0.0
  0
LINE
  5
32A1
330
BF7
100
AcDbEntity
  8
1
100
AcDbLine
 10
34.81572800000001
 20
-1.4356745
 30
0.0
 11
33.32664800000002
 21
-0.8084965000000039
 31
0.0
  0
LINE
  5
32A2
330
BF7
100
AcDbEntity
  8
1
100
AcDbLine
 10
36.30285900000001
 20
-1.816731500000003
 30
0.0
 11
34.81572800000001
 21
-1.4356745
 31
0.0
  0
LINE
  5
32A3
330
BF7
100
AcDbEntity
  8
1
100
AcDbLine
 10
37.57200400000001
 20
-1.876179499999999
 30
0.0
 11
36.30285900000001
 21
-1.816731500000003
 31
0.0
  0
LINE
  5
32A4
330
BF7
100
AcDbEntity
  8
1
100
AcDbLine
 10
52.74118400000002
 20
0.7780164999999962
 30
0.0
 11
50.844958
 21
1.517975499999995
 31
0.0
  0
LINE
  5
32A5
330
BF7
100
AcDbEntity
  8
1
100
AcDbLine
 10
54.23612700000001
 20
0.0091774999999963
 30
0.0
 11
52.74118400000002
 21
0.7780164999999962
 31
0.0
  0
LINE
  5
32A6
330
BF7
100
AcDbEntity
  8
1
100
AcDbLine
 10
55.72809000000003
 20
-0.7612365000000027
 30
0.0
 11
54.23612700000001
 21
0.0091774999999963
 31
0.0
  0
LINE
  5
32A7
330
BF7
100
AcDbEntity
  8
1
100
AcDbLine
 10
57.21732800000001
 20
-1.401147500000002
 30
0.0
 11
55.72809000000003
 21
-0.7612365000000027
 31
0.0
  0
LINE
  5
32A8
330
BF7
100
AcDbEntity
  8
1
100
AcDbLine
 10
58.70455600000001
 20
-1.8008625
 30
0.0
 11
57.21732800000001
 21
-1.401147500000002
 31
0.0
  0
LINE
  5
32A9
330
BF7
100
AcDbEntity
  8
1
100
AcDbLine
 10
60.016261
 20
-1.881162500000002
 30
0.0
 11
58.70455600000001
 21
-1.8008625
 31
0.0
  0
LINE
  5
32AA
330
BF7
100
AcDbEntity
  8
1
100
AcDbLine
 10
75.14223900000001
 20
0.8250734999999949
 30
0.0
 11
73.29696700000003
 21
1.534371499999995
 31
0.0
  0
LINE
  5
32AB
330
BF7
100
AcDbEntity
  8
1
100
AcDbLine
 10
76.63736400000002
 20
0.0610664999999955
 30
0.0
 11
75.14223900000001
 21
0.8250734999999949
 31
0.0
  0
LINE
  5
32AC
330
BF7
100
AcDbEntity
  8
1
100
AcDbLine
 10
78.12952
 20
-0.7134075000000025
 30
0.0
 11
76.63736400000002
 21
0.0610664999999955
 31
0.0
  0
LINE
  5
32AD
330
BF7
100
AcDbEntity
  8
1
100
AcDbLine
 10
79.618928
 20
-1.365575500000002
 30
0.0
 11
78.12952
 21
-0.7134075000000025
 31
0.0
  0
LINE
  5
32AE
330
BF7
100
AcDbEntity
  8
1
100
AcDbLine
 10
81.106253
 20
-1.783651500000004
 30
0.0
 11
79.618928
 21
-1.365575500000002
 31
0.0
  0
LINE
  5
32AF
330
BF7
100
AcDbEntity
  8
1
100
AcDbLine
 10
82.464588
 20
-1.886277500000004
 30
0.0
 11
81.106253
 21
-1.783651500000004
 31
0.0
  0
LINE
  5
32B0
330
BF7
100
AcDbEntity
  8
1
100
AcDbLine
 10
97.54328200000003
 20
0.8715034999999955
 30
0.0
 11
95.74896300000002
 21
1.550916499999995
 31
0.0
  0
LINE
  5
32B1
330
BF7
100
AcDbEntity
  8
1
100
AcDbLine
 10
99.03860000000001
 20
0.1129074999999986
 30
0.0
 11
97.54328200000003
 21
0.8715034999999955
 31
0.0
  0
LINE
  5
32B2
330
BF7
100
AcDbEntity
  8
1
100
AcDbLine
 10
100.530951
 20
-0.6650455000000051
 30
0.0
 11
99.03860000000001
 21
0.1129074999999986
 31
0.0
  0
LINE
  5
32B3
330
BF7
100
AcDbEntity
  8
1
100
AcDbLine
 10
102.020516
 20
-1.3289865
 30
0.0
 11
100.530951
 21
-0.6650455000000051
 31
0.0
  0
LINE
  5
32B4
330
BF7
100
AcDbEntity
  8
1
100
AcDbLine
 10
103.507949
 20
-1.765106499999999
 30
0.0
 11
102.020516
 21
-1.3289865
 31
0.0
  0
LINE
  5
32B5
330
BF7
100
AcDbEntity
  8
1
100
AcDbLine
 10
104.994293
 20
-1.8986245
 30
0.0
 11
103.507949
 21
-1.765106499999999
 31
0.0
  0
LINE
  5
32B6
330
BF7
100
AcDbEntity
  8
1
100
AcDbLine
 10
105.134679
 20
-1.880496500000003
 30
0.0
 11
104.994293
 21
-1.8986245
 31
0.0
  0
LINE
  5
32B7
330
BF7
100
AcDbEntity
  8
1
100
AcDbLine
 10
119.944312
 20
0.917294499999997
 30
0.0
 11
118.198913
 21
1.568066499999995
 31
0.0
  0
LINE
  5
32B8
330
BF7
100
AcDbEntity
  8
1
100
AcDbLine
 10
121.439812
 20
0.1646634999999996
 30
0.0
 11
119.944312
 21
0.917294499999997
 31
0.0
  0
LINE
  5
32B9
330
BF7
100
AcDbEntity
  8
1
100
AcDbLine
 10
122.932357
 20
-0.6161905000000055
 30
0.0
 11
121.439812
 21
0.1646634999999996
 31
0.0
  0
LINE
  5
32BA
330
BF7
100
AcDbEntity
  8
1
100
AcDbLine
 10
124.422091
 20
-1.2914065
 30
0.0
 11
122.932357
 21
-0.6161905000000055
 31
0.0
  0
LINE
  5
32BB
330
BF7
100
AcDbEntity
  8
1
100
AcDbLine
 10
125.909646
 20
-1.745239500000003
 30
0.0
 11
124.422091
 21
-1.2914065
 31
0.0
  0
LINE
  5
32BC
330
BF7
100
AcDbEntity
  8
1
100
AcDbLine
 10
127.396014
 20
-1.899890500000004
 30
0.0
 11
125.909646
 21
-1.745239500000003
 31
0.0
  0
LINE
  5
32BD
330
BF7
100
AcDbEntity
  8
1
100
AcDbLine
 10
127.462967
 20
-1.892184500000004
 30
0.0
 11
127.396014
 21
-1.899890500000004
 31
0.0
  0
LINE
  5
32BE
330
BF7
100
AcDbEntity
  8
1
100
AcDbLine
 10
10.52728300000001
 20
1.342053499999995
 30
0.0
 11
6.441704000000001
 21
1.342053499999995
 31
0.0
  0
LINE
  5
32BF
330
BF7
100
AcDbEntity
  8
1
100
AcDbLine
 10
6.283768000000008
 20
1.360178499999995
 30
0.0
 11
6.142370000000012
 21
1.412685499999994
 31
0.0
  0
LINE
  5
32C0
330
BF7
100
AcDbEntity
  8
1
100
AcDbLine
 10
6.441704000000001
 20
1.342053499999995
 30
0.0
 11
6.283768000000008
 21
1.360178499999995
 31
0.0
  0
LINE
  5
32C1
330
BF7
100
AcDbEntity
  8
1
100
AcDbLine
 10
6.437683000000006
 20
1.784117499999995
 30
0.0
 11
6.441716000000012
 21
1.342053499999995
 31
0.0
  0
LINE
  5
32C2
330
BF7
100
AcDbEntity
  8
SK1
100
AcDbLine
 10
-35.97528599999999
 20
0.6543804999999985
 30
0.0
 11
-35.32265199999999
 21
0.8179424999999973
 31
0.0
  0
LINE
  5
32C3
330
BF7
100
AcDbEntity
  8
1
100
AcDbLine
 10
137.948712
 20
0.1619024999999929
 30
0.0
 11
137.44632
 21
0.6197504999999987
 31
0.0
  0
LINE
  5
32C4
330
BF7
100
AcDbEntity
  8
1
100
AcDbLine
 10
7.701661999999998
 20
-0.2378075000000024
 30
0.0
 11
8.507499000000008
 21
-0.3376225000000055
 31
0.0
  0
LINE
  5
32C5
330
BF7
100
AcDbEntity
  8
1
100
AcDbLine
 10
6.896073000000012
 20
-0.1509215000000061
 30
0.0
 11
7.701661999999998
 21
-0.2378075000000024
 31
0.0
  0
LINE
  5
32C6
330
BF7
100
AcDbEntity
  8
1
100
AcDbLine
 10
137.361708
 20
0.5540624999999971
 30
0.0
 11
137.363767
 21
0.5363854999999944
 31
0.0
  0
LINE
  5
32C7
330
BF7
100
AcDbEntity
  8
1
100
AcDbLine
 10
137.364809
 20
0.5724934999999967
 30
0.0
 11
137.361708
 21
0.5540624999999971
 31
0.0
  0
LINE
  5
32C8
330
BF7
100
AcDbEntity
  8
1
100
AcDbLine
 10
137.374377
 20
0.5898194999999973
 30
0.0
 11
137.364809
 21
0.5724934999999967
 31
0.0
  0
LINE
  5
32C9
330
BF7
100
AcDbEntity
  8
1
100
AcDbLine
 10
137.389783
 20
0.6036784999999938
 30
0.0
 11
137.374377
 21
0.5898194999999973
 31
0.0
  0
LINE
  5
32CA
330
BF7
100
AcDbEntity
  8
1
100
AcDbLine
 10
137.4126989999999
 20
0.6142994999999978
 30
0.0
 11
137.389783
 21
0.6036784999999938
 31
0.0
  0
LINE
  5
32CB
330
BF7
100
AcDbEntity
  8
1
100
AcDbLine
 10
137.44632
 20
0.6197504999999987
 30
0.0
 11
137.4126989999999
 21
0.6142994999999978
 31
0.0
  0
LINE
  5
32CC
330
BF7
100
AcDbEntity
  8
1
100
AcDbLine
 10
136.129686
 20
0.4810984999999981
 30
0.0
 11
137.387264
 21
0.4353804999999973
 31
0.0
  0
LINE
  5
32CD
330
BF7
100
AcDbEntity
  8
1
100
AcDbLine
 10
117.268592
 20
0.1468774999999951
 30
0.0
 11
121.701836
 21
-0.4366535000000056
 31
0.0
  0
LINE
  5
32CE
330
BF7
100
AcDbEntity
  8
1
100
AcDbLine
 10
114.957977
 20
0.4291304999999961
 30
0.0
 11
117.268592
 21
0.1468774999999951
 31
0.0
  0
LINE
  5
32CF
330
BF7
100
AcDbEntity
  8
1
100
AcDbLine
 10
113.750856
 20
0.4864674999999963
 30
0.0
 11
114.957977
 21
0.4291304999999961
 31
0.0
  0
LINE
  5
32D0
330
BF7
100
AcDbEntity
  8
1
100
AcDbLine
 10
96.27887300000001
 20
-0.0781265000000033
 30
0.0
 11
99.22237
 21
-0.4290835000000044
 31
0.0
  0
LINE
  5
32D1
330
BF7
100
AcDbEntity
  8
1
100
AcDbLine
 10
93.75919899999999
 20
0.285401499999999
 30
0.0
 11
96.27887300000001
 21
-0.0781265000000033
 31
0.0
  0
LINE
  5
32D2
330
BF7
100
AcDbEntity
  8
1
100
AcDbLine
 10
91.274999
 20
0.5100395000000014
 30
0.0
 11
93.75919899999999
 21
0.285401499999999
 31
0.0
  0
LINE
  5
32D3
330
BF7
100
AcDbEntity
  8
1
100
AcDbLine
 10
74.23924200000003
 20
-0.1457345000000032
 30
0.0
 11
76.69585100000002
 21
-0.4355174999999998
 31
0.0
  0
LINE
  5
32D4
330
BF7
100
AcDbEntity
  8
1
100
AcDbLine
 10
71.93008100000001
 20
0.1954084999999992
 30
0.0
 11
74.23924200000003
 21
-0.1457345000000032
 31
0.0
  0
LINE
  5
32D5
330
BF7
100
AcDbEntity
  8
1
100
AcDbLine
 10
69.61924800000002
 20
0.4581444999999995
 30
0.0
 11
71.93008100000001
 21
0.1954084999999992
 31
0.0
  0
LINE
  5
32D6
330
BF7
100
AcDbEntity
  8
1
100
AcDbLine
 10
68.760846
 20
0.4873395000000011
 30
0.0
 11
69.61924800000002
 21
0.4581444999999995
 31
0.0
  0
LINE
  5
32D7
330
BF7
100
AcDbEntity
  8
1
100
AcDbLine
 10
49.68083299999999
 20
0.159973499999996
 30
0.0
 11
54.18944899999999
 21
-0.4250535000000042
 31
0.0
  0
LINE
  5
32D8
330
BF7
100
AcDbEntity
  8
1
100
AcDbLine
 10
47.15998400000001
 20
0.4548835000000011
 30
0.0
 11
49.68083299999999
 21
0.159973499999996
 31
0.0
  0
LINE
  5
32D9
330
BF7
100
AcDbEntity
  8
1
100
AcDbLine
 10
46.23196500000001
 20
0.483978499999996
 30
0.0
 11
47.15998400000001
 21
0.4548835000000011
 31
0.0
  0
LINE
  5
32DA
330
BF7
100
AcDbEntity
  8
1
100
AcDbLine
 10
27.11237100000001
 20
0.1698895
 30
0.0
 11
31.74635400000001
 21
-0.4361055000000003
 31
0.0
  0
LINE
  5
32DB
330
BF7
100
AcDbEntity
  8
1
100
AcDbLine
 10
24.64187600000001
 20
0.4564664999999978
 30
0.0
 11
27.11237100000001
 21
0.1698895
 31
0.0
  0
LINE
  5
32DC
330
BF7
100
AcDbEntity
  8
1
100
AcDbLine
 10
23.67715200000001
 20
0.4869304999999964
 30
0.0
 11
24.64187600000001
 21
0.4564664999999978
 31
0.0
  0
LINE
  5
32DD
330
BF7
100
AcDbEntity
  8
1
100
AcDbLine
 10
137.821443
 20
0.636321499999994
 30
0.0
 11
137.44632
 21
0.6197504999999987
 31
0.0
  0
LINE
  5
32DE
330
BF7
100
AcDbEntity
  8
1
100
AcDbLine
 10
129.225735
 20
0.0422784999999948
 30
0.0
 11
132.946353
 21
-0.4113125000000011
 31
0.0
  0
LINE
  5
32DF
330
BF7
100
AcDbEntity
  8
1
100
AcDbLine
 10
126.502839
 20
0.4007744999999975
 30
0.0
 11
129.225735
 21
0.0422784999999948
 31
0.0
  0
LINE
  5
32E0
330
BF7
100
AcDbEntity
  8
1
100
AcDbLine
 10
124.996548
 20
0.4894834999999988
 30
0.0
 11
126.502839
 21
0.4007744999999975
 31
0.0
  0
LINE
  5
32E1
330
BF7
100
AcDbEntity
  8
1
100
AcDbLine
 10
108.033133
 20
-0.1522955000000046
 30
0.0
 11
110.462139
 21
-0.4381095000000066
 31
0.0
  0
LINE
  5
32E2
330
BF7
100
AcDbEntity
  8
1
100
AcDbLine
 10
105.723972
 20
0.1890864999999984
 30
0.0
 11
108.033133
 21
-0.1522955000000046
 31
0.0
  0
LINE
  5
32E3
330
BF7
100
AcDbEntity
  8
1
100
AcDbLine
 10
103.413175
 20
0.4544294999999964
 30
0.0
 11
105.723972
 21
0.1890864999999984
 31
0.0
  0
LINE
  5
32E4
330
BF7
100
AcDbEntity
  8
1
100
AcDbLine
 10
102.495184
 20
0.4873844999999939
 30
0.0
 11
103.413175
 21
0.4544294999999964
 31
0.0
  0
LINE
  5
32E5
330
BF7
100
AcDbEntity
  8
1
100
AcDbLine
 10
83.68472900000002
 20
0.1228664999999971
 30
0.0
 11
87.941906
 21
-0.4198485000000006
 31
0.0
  0
LINE
  5
32E6
330
BF7
100
AcDbEntity
  8
1
100
AcDbLine
 10
81.16404899999997
 20
0.4331944999999993
 30
0.0
 11
83.68472900000002
 21
0.1228664999999971
 31
0.0
  0
LINE
  5
32E7
330
BF7
100
AcDbEntity
  8
1
100
AcDbLine
 10
79.998532
 20
0.4865344999999941
 30
0.0
 11
81.16404899999997
 21
0.4331944999999993
 31
0.0
  0
LINE
  5
32E8
330
BF7
100
AcDbEntity
  8
1
100
AcDbLine
 10
62.275086
 20
-0.0399505000000033
 30
0.0
 11
65.44194700000002
 21
-0.4191095000000047
 31
0.0
  0
LINE
  5
32E9
330
BF7
100
AcDbEntity
  8
1
100
AcDbLine
 10
59.75526700000002
 20
0.3172404999999934
 30
0.0
 11
62.275086
 21
-0.0399505000000033
 31
0.0
  0
LINE
  5
32EA
330
BF7
100
AcDbEntity
  8
1
100
AcDbLine
 10
57.51446400000002
 20
0.5007894999999998
 30
0.0
 11
59.75526700000002
 21
0.3172404999999934
 31
0.0
  0
LINE
  5
32EB
330
BF7
100
AcDbEntity
  8
1
100
AcDbLine
 10
39.60591600000002
 20
-0.0143805000000015
 30
0.0
 11
42.96089499999999
 21
-0.4175354999999997
 31
0.0
  0
LINE
  5
32EC
330
BF7
100
AcDbEntity
  8
1
100
AcDbLine
 10
37.08601100000001
 20
0.3375484999999969
 30
0.0
 11
39.60591600000002
 21
-0.0143805000000015
 31
0.0
  0
LINE
  5
32ED
330
BF7
100
AcDbEntity
  8
1
100
AcDbLine
 10
34.93149200000001
 20
0.501322499999997
 30
0.0
 11
37.08601100000001
 21
0.3375484999999969
 31
0.0
  0
LINE
  5
32EE
330
BF7
100
AcDbEntity
  8
1
100
AcDbLine
 10
17.149129
 20
-0.0207755000000027
 30
0.0
 11
20.49399500000001
 21
-0.4202935000000032
 31
0.0
  0
LINE
  5
32EF
330
BF7
100
AcDbEntity
  8
1
100
AcDbLine
 10
14.63469300000001
 20
0.3319984999999974
 30
0.0
 11
17.149129
 21
-0.0207755000000027
 31
0.0
  0
LINE
  5
32F0
330
BF7
100
AcDbEntity
  8
1
100
AcDbLine
 10
12.41873100000001
 20
0.5042234999999984
 30
0.0
 11
14.63469300000001
 21
0.3319984999999974
 31
0.0
  0
LINE
  5
32F1
330
BF7
100
AcDbEntity
  8
1
100
AcDbLine
 10
10.914862
 20
1.239591499999995
 30
0.0
 11
10.868081
 21
1.188332499999997
 31
0.0
  0
LINE
  5
32F2
330
BF7
100
AcDbEntity
  8
1
100
AcDbLine
 10
10.980513
 20
1.312061499999997
 30
0.0
 11
10.914862
 21
1.239591499999995
 31
0.0
  0
LINE
  5
32F3
330
BF7
100
AcDbEntity
  8
SK1
100
AcDbLine
 10
-35.341982
 20
-2.899679500000003
 30
0.0
 11
-35.34914999999999
 21
-2.999958500000003
 31
0.0
  0
LINE
  5
32F4
330
BF7
100
AcDbEntity
  8
SK1
100
AcDbLine
 10
-35.33530300000001
 20
-2.597564500000002
 30
0.0
 11
-35.341982
 21
-2.899679500000003
 31
0.0
  0
LINE
  5
32F5
330
BF7
100
AcDbEntity
  8
SK1
100
AcDbLine
 10
-35.32957699999999
 20
-2.114645500000003
 30
0.0
 11
-35.33530300000001
 21
-2.597564500000002
 31
0.0
  0
LINE
  5
32F6
330
BF7
100
AcDbEntity
  8
SK1
100
AcDbLine
 10
-35.32520199999999
 20
-1.484536499999999
 30
0.0
 11
-35.32957699999999
 21
-2.114645500000003
 31
0.0
  0
LINE
  5
32F7
330
BF7
100
AcDbEntity
  8
SK1
100
AcDbLine
 10
-35.32248599999999
 20
-0.7510935000000032
 30
0.0
 11
-35.32520199999999
 21
-1.484536499999999
 31
0.0
  0
LINE
  5
32F8
330
BF7
100
AcDbEntity
  8
SK1
100
AcDbLine
 10
-35.32161699999999
 20
0.0346294999999977
 30
0.0
 11
-35.32248599999999
 21
-0.7510935000000032
 31
0.0
  0
LINE
  5
32F9
330
BF7
100
AcDbEntity
  8
SK1
100
AcDbLine
 10
-35.32265199999999
 20
0.8179424999999973
 30
0.0
 11
-35.32161699999999
 21
0.0346294999999977
 31
0.0
  0
LINE
  5
32FA
330
BF7
100
AcDbEntity
  8
SK1
100
AcDbLine
 10
0.0070920000000143
 20
2.8977395
 30
0.0
 11
0.0
 21
3.000000499999998
 31
0.0
  0
LINE
  5
32FB
330
BF7
100
AcDbEntity
  8
SK1
100
AcDbLine
 10
0.0136990000000026
 20
2.598014500000001
 30
0.0
 11
0.0070920000000143
 21
2.8977395
 31
0.0
  0
LINE
  5
32FC
330
BF7
100
AcDbEntity
  8
SK1
100
AcDbLine
 10
0.0
 20
-3.000000500000001
 30
0.0
 11
0.0070920000000143
 21
-2.897752500000001
 31
0.0
  0
LINE
  5
32FD
330
BF7
100
AcDbEntity
  8
SK1
100
AcDbLine
 10
-35.33265
 20
2.40657749999999
 30
0.0
 11
-35.32656999999999
 21
1.7211575
 31
0.0
  0
LINE
  5
32FE
330
BF7
100
AcDbEntity
  8
SK1
100
AcDbLine
 10
-35.34039299999999
 20
2.847784499999995
 30
0.0
 11
-35.33265
 21
2.40657749999999
 31
0.0
  0
LINE
  5
32FF
330
BF7
100
AcDbEntity
  8
SK1
100
AcDbLine
 10
-35.349007
 20
3.000000499999998
 30
0.0
 11
-35.34039299999999
 21
2.847784499999995
 31
0.0
  0
LINE
  5
3300
330
BF7
100
AcDbEntity
  8
SK1
100
AcDbLine
 10
-35.32656999999999
 20
1.7211575
 30
0.0
 11
-35.979204
 21
1.557595499999995
 31
0.0
  0
LINE
  5
3301
330
BF7
100
AcDbEntity
  8
1
100
AcDbLine
 10
10.095127
 20
1.500480499999995
 30
0.0
 11
9.288114000000009
 21
1.784117499999995
 31
0.0
  0
LINE
  5
3302
330
BF7
100
AcDbEntity
  8
1
100
AcDbLine
 10
10.52728300000001
 20
1.342053499999995
 30
0.0
 11
10.095127
 21
1.500480499999995
 31
0.0
  0
LINE
  5
3303
330
BF7
100
AcDbEntity
  8
1
100
AcDbLine
 10
132.467179
 20
-1.361375499999999
 30
0.0
 11
134.22641
 21
-1.061484500000005
 31
0.0
  0
LINE
  5
3304
330
BF7
100
AcDbEntity
  8
1
100
AcDbLine
 10
130.718776
 20
-1.337924499999997
 30
0.0
 11
132.467179
 21
-1.361375499999999
 31
0.0
  0
LINE
  5
3305
330
BF7
100
AcDbEntity
  8
1
100
AcDbLine
 10
128.969476
 20
-0.999624500000003
 30
0.0
 11
130.718776
 21
-1.337924499999997
 31
0.0
  0
LINE
  5
3306
330
BF7
100
AcDbEntity
  8
1
100
AcDbLine
 10
127.218287
 20
-0.4261105000000003
 30
0.0
 11
128.969476
 21
-0.999624500000003
 31
0.0
  0
LINE
  5
3307
330
BF7
100
AcDbEntity
  8
1
100
AcDbLine
 10
126.456415
 20
-0.1335435000000018
 30
0.0
 11
127.218287
 21
-0.4261105000000003
 31
0.0
  0
LINE
  5
3308
330
BF7
100
AcDbEntity
  8
1
100
AcDbLine
 10
109.659136
 20
-1.381384500000006
 30
0.0
 11
111.705523
 21
-1.051177500000004
 31
0.0
  0
LINE
  5
3309
330
BF7
100
AcDbEntity
  8
1
100
AcDbLine
 10
107.910587
 20
-1.299539500000004
 30
0.0
 11
109.659136
 21
-1.381384500000006
 31
0.0
  0
LINE
  5
330A
330
BF7
100
AcDbEntity
  8
1
100
AcDbLine
 10
106.161045
 20
-0.9121695000000007
 30
0.0
 11
107.910587
 21
-1.299539500000004
 31
0.0
  0
LINE
  5
330B
330
BF7
100
AcDbEntity
  8
1
100
AcDbLine
 10
104.409445
 20
-0.3099895000000039
 30
0.0
 11
106.161045
 21
-0.9121695000000007
 31
0.0
  0
LINE
  5
330C
330
BF7
100
AcDbEntity
  8
1
100
AcDbLine
 10
104.074182
 20
-0.1809854999999985
 30
0.0
 11
104.409445
 21
-0.3099895000000039
 31
0.0
  0
LINE
  5
330D
330
BF7
100
AcDbEntity
  8
1
100
AcDbLine
 10
86.851129
 20
-1.391046500000004
 30
0.0
 11
89.19236300000001
 21
-1.043547500000006
 31
0.0
  0
LINE
  5
330E
330
BF7
100
AcDbEntity
  8
1
100
AcDbLine
 10
85.10252000000001
 20
-1.251613500000001
 30
0.0
 11
86.851129
 21
-1.391046500000004
 31
0.0
  0
LINE
  5
330F
330
BF7
100
AcDbEntity
  8
1
100
AcDbLine
 10
83.35267499999998
 20
-0.8178775000000051
 30
0.0
 11
85.10252000000001
 21
-1.251613500000001
 31
0.0
  0
LINE
  5
3310
330
BF7
100
AcDbEntity
  8
1
100
AcDbLine
 10
81.68807299999997
 20
-0.2227585000000047
 30
0.0
 11
83.35267499999998
 21
-0.8178775000000051
 31
0.0
  0
LINE
  5
3311
330
BF7
100
AcDbEntity
  8
1
100
AcDbLine
 10
64.043086
 20
-1.390392499999999
 30
0.0
 11
66.68688100000001
 21
-1.040356500000001
 31
0.0
  0
LINE
  5
3312
330
BF7
100
AcDbEntity
  8
1
100
AcDbLine
 10
62.29435600000001
 20
-1.194349500000001
 30
0.0
 11
64.043086
 21
-1.390392499999999
 31
0.0
  0
LINE
  5
3313
330
BF7
100
AcDbEntity
  8
1
100
AcDbLine
 10
60.54419600000001
 20
-0.7172865000000002
 30
0.0
 11
62.29435600000001
 21
-1.194349500000001
 31
0.0
  0
LINE
  5
3314
330
BF7
100
AcDbEntity
  8
1
100
AcDbLine
 10
59.08478900000002
 20
-0.1795565000000039
 30
0.0
 11
60.54419600000001
 21
-0.7172865000000002
 31
0.0
  0
LINE
  5
3315
330
BF7
100
AcDbEntity
  8
1
100
AcDbLine
 10
41.23509200000002
 20
-1.379264500000004
 30
0.0
 11
44.19308700000001
 21
-1.042484500000004
 31
0.0
  0
LINE
  5
3316
330
BF7
100
AcDbEntity
  8
1
100
AcDbLine
 10
39.48626500000003
 20
-1.128047500000004
 30
0.0
 11
41.23509200000002
 21
-1.379264500000004
 31
0.0
  0
LINE
  5
3317
330
BF7
100
AcDbEntity
  8
1
100
AcDbLine
 10
37.73565700000001
 20
-0.6113455000000024
 30
0.0
 11
39.48626500000003
 21
-1.128047500000004
 31
0.0
  0
LINE
  5
3318
330
BF7
100
AcDbEntity
  8
1
100
AcDbLine
 10
36.389651
 20
-0.1044635000000014
 30
0.0
 11
37.73565700000001
 21
-0.6113455000000024
 31
0.0
  0
LINE
  5
3319
330
BF7
100
AcDbEntity
  8
1
100
AcDbLine
 10
18.42697600000001
 20
-1.357139500000002
 30
0.0
 11
21.71289500000002
 21
-1.051759500000005
 31
0.0
  0
LINE
  5
331A
330
BF7
100
AcDbEntity
  8
1
100
AcDbLine
 10
16.677864
 20
-1.053542500000002
 30
0.0
 11
18.42697600000001
 21
-1.357139500000002
 31
0.0
  0
LINE
  5
331B
330
BF7
100
AcDbEntity
  8
1
100
AcDbLine
 10
14.926826
 20
-0.5019235000000002
 30
0.0
 11
16.677864
 21
-1.053542500000002
 31
0.0
  0
LINE
  5
331C
330
BF7
100
AcDbEntity
  8
1
100
AcDbLine
 10
13.69131000000001
 20
-0.0271125000000012
 30
0.0
 11
14.926826
 21
-0.5019235000000002
 31
0.0
  0
LINE
  5
331D
330
BF7
100
AcDbEntity
  8
1
100
AcDbLine
 10
11.40435500000001
 20
0.9756364999999963
 30
0.0
 11
10.52728300000001
 21
1.342053499999995
 31
0.0
  0
LINE
  5
331E
330
BF7
100
AcDbEntity
  8
1
100
AcDbLine
 10
12.281112
 20
0.5523604999999954
 30
0.0
 11
11.40435500000001
 21
0.9756364999999963
 31
0.0
  0
LINE
  5
331F
330
BF7
100
AcDbEntity
  8
1
100
AcDbLine
 10
13.60499
 20
-0.1412195000000018
 30
0.0
 11
12.281112
 21
0.5523604999999954
 31
0.0
  0
LINE
  5
3320
330
BF7
100
AcDbEntity
  8
1
100
AcDbLine
 10
14.888929
 20
-0.7984015000000042
 30
0.0
 11
13.60499
 21
-0.1412195000000018
 31
0.0
  0
LINE
  5
3321
330
BF7
100
AcDbEntity
  8
1
100
AcDbLine
 10
16.20712000000002
 20
-1.366692499999999
 30
0.0
 11
14.888929
 21
-0.7984015000000042
 31
0.0
  0
LINE
  5
3322
330
BF7
100
AcDbEntity
  8
1
100
AcDbLine
 10
17.486954
 20
-1.742902500000003
 30
0.0
 11
16.20712000000002
 21
-1.366692499999999
 31
0.0
  0
LINE
  5
3323
330
BF7
100
AcDbEntity
  8
1
100
AcDbLine
 10
18.803419
 20
-1.898476500000004
 30
0.0
 11
17.486954
 21
-1.742902500000003
 31
0.0
  0
LINE
  5
3324
330
BF7
100
AcDbEntity
  8
1
100
AcDbLine
 10
20.08251300000001
 20
-1.804123499999999
 30
0.0
 11
18.803419
 21
-1.898476500000004
 31
0.0
  0
LINE
  5
3325
330
BF7
100
AcDbEntity
  8
1
100
AcDbLine
 10
21.399178
 20
-1.467401500000004
 30
0.0
 11
20.08251300000001
 21
-1.804123499999999
 31
0.0
  0
LINE
  5
3326
330
BF7
100
AcDbEntity
  8
1
100
AcDbLine
 10
22.03852900000001
 20
-1.209274500000002
 30
0.0
 11
21.399178
 21
-1.467401500000004
 31
0.0
  0
LINE
  5
3327
330
BF7
100
AcDbEntity
  8
1
100
AcDbLine
 10
31.84814100000001
 20
1.702896499999994
 30
0.0
 11
30.19496500000001
 21
1.877080499999996
 31
0.0
  0
LINE
  5
3328
330
BF7
100
AcDbEntity
  8
1
100
AcDbLine
 10
33.13849300000001
 20
1.298372499999995
 30
0.0
 11
31.84814100000001
 21
1.702896499999994
 31
0.0
  0
LINE
  5
3329
330
BF7
100
AcDbEntity
  8
1
100
AcDbLine
 10
34.46441800000001
 20
0.710269499999999
 30
0.0
 11
33.13849300000001
 21
1.298372499999995
 31
0.0
  0
LINE
  5
332A
330
BF7
100
AcDbEntity
  8
1
100
AcDbLine
 10
35.75079700000003
 20
0.0459664999999951
 30
0.0
 11
34.46441800000001
 21
0.710269499999999
 31
0.0
  0
LINE
  5
332B
330
BF7
100
AcDbEntity
  8
1
100
AcDbLine
 10
37.07196200000002
 20
-0.6426335000000023
 30
0.0
 11
35.75079700000003
 21
0.0459664999999951
 31
0.0
  0
LINE
  5
332C
330
BF7
100
AcDbEntity
  8
1
100
AcDbLine
 10
38.35381200000004
 20
-1.229631500000001
 30
0.0
 11
37.07196200000002
 21
-0.6426335000000023
 31
0.0
  0
LINE
  5
332D
330
BF7
100
AcDbEntity
  8
1
100
AcDbLine
 10
39.67141600000002
 20
-1.6696175
 30
0.0
 11
38.35381200000004
 21
-1.229631500000001
 31
0.0
  0
LINE
  5
332E
330
BF7
100
AcDbEntity
  8
1
100
AcDbLine
 10
40.95079499999999
 20
-1.881777500000004
 30
0.0
 11
39.67141600000002
 21
-1.6696175
 31
0.0
  0
LINE
  5
332F
330
BF7
100
AcDbEntity
  8
1
100
AcDbLine
 10
42.266727
 20
-1.849696500000003
 30
0.0
 11
40.95079499999999
 21
-1.881777500000004
 31
0.0
  0
LINE
  5
3330
330
BF7
100
AcDbEntity
  8
1
100
AcDbLine
 10
43.54607
 20
-1.579349500000002
 30
0.0
 11
42.266727
 21
-1.849696500000003
 31
0.0
  0
LINE
  5
3331
330
BF7
100
AcDbEntity
  8
1
100
AcDbLine
 10
44.542933
 20
-1.210373499999997
 30
0.0
 11
43.54607
 21
-1.579349500000002
 31
0.0
  0
LINE
  5
3332
330
BF7
100
AcDbEntity
  8
1
100
AcDbLine
 10
55.31960000000001
 20
1.415916499999994
 30
0.0
 11
52.70724799999999
 21
1.899353499999995
 31
0.0
  0
LINE
  5
3333
330
BF7
100
AcDbEntity
  8
1
100
AcDbLine
 10
56.60856000000001
 20
0.8808174999999954
 30
0.0
 11
55.31960000000001
 21
1.415916499999994
 31
0.0
  0
LINE
  5
3334
330
BF7
100
AcDbEntity
  8
1
100
AcDbLine
 10
57.93274000000002
 20
0.2138734999999983
 30
0.0
 11
56.60856000000001
 21
0.8808174999999954
 31
0.0
  0
LINE
  5
3335
330
BF7
100
AcDbEntity
  8
1
100
AcDbLine
 10
59.217279
 20
-0.4629505000000016
 30
0.0
 11
57.93274000000002
 21
0.2138734999999983
 31
0.0
  0
LINE
  5
3336
330
BF7
100
AcDbEntity
  8
1
100
AcDbLine
 10
60.53694100000003
 20
-1.096881500000002
 30
0.0
 11
59.217279
 21
-0.4629505000000016
 31
0.0
  0
LINE
  5
3337
330
BF7
100
AcDbEntity
  8
1
100
AcDbLine
 10
61.81762899999998
 20
-1.571858500000004
 30
0.0
 11
60.53694100000003
 21
-1.096881500000002
 31
0.0
  0
LINE
  5
3338
330
BF7
100
AcDbEntity
  8
1
100
AcDbLine
 10
63.13433599999999
 20
-1.851207500000004
 30
0.0
 11
61.81762899999998
 21
-1.571858500000004
 31
0.0
  0
LINE
  5
3339
330
BF7
100
AcDbEntity
  8
1
100
AcDbLine
 10
64.41351000000001
 20
-1.883515500000004
 30
0.0
 11
63.13433599999999
 21
-1.851207500000004
 31
0.0
  0
LINE
  5
333A
330
BF7
100
AcDbEntity
  8
1
100
AcDbLine
 10
65.72989000000003
 20
-1.666405499999999
 30
0.0
 11
64.41351000000001
 21
-1.883515500000004
 31
0.0
  0
LINE
  5
333B
330
BF7
100
AcDbEntity
  8
1
100
AcDbLine
 10
67.01026200000002
 20
-1.2396115
 30
0.0
 11
65.72989000000003
 21
-1.666405499999999
 31
0.0
  0
LINE
  5
333C
330
BF7
100
AcDbEntity
  8
1
100
AcDbLine
 10
67.06084100000002
 20
-1.216483499999999
 30
0.0
 11
67.01026200000002
 21
-1.2396115
 31
0.0
  0
LINE
  5
333D
330
BF7
100
AcDbEntity
  8
1
100
AcDbLine
 10
77.46388800000002
 20
1.533956499999995
 30
0.0
 11
75.19005600000001
 21
1.875169499999998
 31
0.0
  0
LINE
  5
333E
330
BF7
100
AcDbEntity
  8
1
100
AcDbLine
 10
78.790272
 20
1.025942499999992
 30
0.0
 11
77.46388800000002
 21
1.533956499999995
 31
0.0
  0
LINE
  5
333F
330
BF7
100
AcDbEntity
  8
1
100
AcDbLine
 10
80.07748799999998
 20
0.3990635000000004
 30
0.0
 11
78.790272
 21
1.025942499999992
 31
0.0
  0
LINE
  5
3340
330
BF7
100
AcDbEntity
  8
1
100
AcDbLine
 10
81.400287
 20
-0.2985165000000016
 30
0.0
 11
80.07748799999998
 21
0.3990635000000004
 31
0.0
  0
LINE
  5
3341
330
BF7
100
AcDbEntity
  8
1
100
AcDbLine
 10
82.68350600000003
 20
-0.938815500000004
 30
0.0
 11
81.400287
 21
-0.2985165000000016
 31
0.0
  0
LINE
  5
3342
330
BF7
100
AcDbEntity
  8
1
100
AcDbLine
 10
84.00161799999997
 20
-1.471604499999999
 30
0.0
 11
82.68350600000003
 21
-0.938815500000004
 31
0.0
  0
LINE
  5
3343
330
BF7
100
AcDbEntity
  8
1
100
AcDbLine
 10
85.28120400000002
 20
-1.799893500000003
 30
0.0
 11
84.00161799999997
 21
-1.471604499999999
 31
0.0
  0
LINE
  5
3344
330
BF7
100
AcDbEntity
  8
1
100
AcDbLine
 10
86.59739
 20
-1.8982105
 30
0.0
 11
85.28120400000002
 21
-1.799893500000003
 31
0.0
  0
LINE
  5
3345
330
BF7
100
AcDbEntity
  8
1
100
AcDbLine
 10
87.876588
 20
-1.748334500000004
 30
0.0
 11
86.59739
 21
-1.8982105
 31
0.0
  0
LINE
  5
3346
330
BF7
100
AcDbEntity
  8
1
100
AcDbLine
 10
89.193574
 20
-1.361996500000002
 30
0.0
 11
87.876588
 21
-1.748334500000004
 31
0.0
  0
LINE
  5
3347
330
BF7
100
AcDbEntity
  8
1
100
AcDbLine
 10
89.545902
 20
-1.210222500000003
 30
0.0
 11
89.193574
 21
-1.361996500000002
 31
0.0
  0
LINE
  5
3348
330
BF7
100
AcDbEntity
  8
1
100
AcDbLine
 10
99.64466800000003
 20
1.627046499999995
 30
0.0
 11
97.69057199999998
 21
1.869516499999995
 31
0.0
  0
LINE
  5
3349
330
BF7
100
AcDbEntity
  8
1
100
AcDbLine
 10
100.934342
 20
1.178791499999995
 30
0.0
 11
99.64466800000003
 21
1.627046499999995
 31
0.0
  0
LINE
  5
334A
330
BF7
100
AcDbEntity
  8
1
100
AcDbLine
 10
102.259842
 20
0.5612324999999993
 30
0.0
 11
100.934342
 21
1.178791499999995
 31
0.0
  0
LINE
  5
334B
330
BF7
100
AcDbEntity
  8
1
100
AcDbLine
 10
103.545956
 20
-0.1121335000000023
 30
0.0
 11
102.259842
 21
0.5612324999999993
 31
0.0
  0
LINE
  5
334C
330
BF7
100
AcDbEntity
  8
1
100
AcDbLine
 10
104.866805
 20
-0.7891235000000023
 30
0.0
 11
103.545956
 21
-0.1121335000000023
 31
0.0
  0
LINE
  5
334D
330
BF7
100
AcDbEntity
  8
1
100
AcDbLine
 10
106.148352
 20
-1.345936499999999
 30
0.0
 11
104.866805
 21
-0.7891235000000023
 31
0.0
  0
LINE
  5
334E
330
BF7
100
AcDbEntity
  8
1
100
AcDbLine
 10
107.465302
 20
-1.739190500000004
 30
0.0
 11
106.148352
 21
-1.345936499999999
 31
0.0
  0
LINE
  5
334F
330
BF7
100
AcDbEntity
  8
1
100
AcDbLine
 10
108.744233
 20
-1.897059500000004
 30
0.0
 11
107.465302
 21
-1.739190500000004
 31
0.0
  0
LINE
  5
3350
330
BF7
100
AcDbEntity
  8
1
100
AcDbLine
 10
110.060614
 20
-1.8071485
 30
0.0
 11
108.744233
 21
-1.897059500000004
 31
0.0
  0
LINE
  5
3351
330
BF7
100
AcDbEntity
  8
1
100
AcDbLine
 10
111.340598
 20
-1.4857955
 30
0.0
 11
110.060614
 21
-1.8071485
 31
0.0
  0
LINE
  5
3352
330
BF7
100
AcDbEntity
  8
1
100
AcDbLine
 10
112.03668
 20
-1.207297500000005
 30
0.0
 11
111.340598
 21
-1.4857955
 31
0.0
  0
LINE
  5
3353
330
BF7
100
AcDbEntity
  8
1
100
AcDbLine
 10
121.788325
 20
1.7158075
 30
0.0
 11
120.19116
 21
1.877137499999995
 31
0.0
  0
LINE
  5
3354
330
BF7
100
AcDbEntity
  8
1
100
AcDbLine
 10
123.115958
 20
1.305618499999997
 30
0.0
 11
121.788325
 21
1.7158075
 31
0.0
  0
LINE
  5
3355
330
BF7
100
AcDbEntity
  8
1
100
AcDbLine
 10
124.404614
 20
0.7377204999999984
 30
0.0
 11
123.115958
 21
1.305618499999997
 31
0.0
  0
LINE
  5
3356
330
BF7
100
AcDbEntity
  8
1
100
AcDbLine
 10
125.728359
 20
0.0558644999999984
 30
0.0
 11
124.404614
 21
0.7377204999999984
 31
0.0
  0
LINE
  5
3357
330
BF7
100
AcDbEntity
  8
1
100
AcDbLine
 10
127.012631
 20
-0.6147285000000055
 30
0.0
 11
125.728359
 21
0.0558644999999984
 31
0.0
  0
LINE
  5
3358
330
BF7
100
AcDbEntity
  8
1
100
AcDbLine
 10
128.331615
 20
-1.222106500000001
 30
0.0
 11
127.012631
 21
-0.6147285000000055
 31
0.0
  0
LINE
  5
3359
330
BF7
100
AcDbEntity
  8
1
100
AcDbLine
 10
129.611709
 20
-1.655177500000004
 30
0.0
 11
128.331615
 21
-1.222106500000001
 31
0.0
  0
LINE
  5
335A
330
BF7
100
AcDbEntity
  8
1
100
AcDbLine
 10
130.92832
 20
-1.8803425
 30
0.0
 11
129.611709
 21
-1.655177500000004
 31
0.0
  0
LINE
  5
335B
330
BF7
100
AcDbEntity
  8
1
100
AcDbLine
 10
132.20736
 20
-1.856231500000003
 30
0.0
 11
130.92832
 21
-1.8803425
 31
0.0
  0
LINE
  5
335C
330
BF7
100
AcDbEntity
  8
1
100
AcDbLine
 10
133.515153
 20
-1.587149499999999
 30
0.0
 11
132.20736
 21
-1.856231500000003
 31
0.0
  0
LINE
  5
335D
330
BF7
100
AcDbEntity
  8
1
100
AcDbLine
 10
134.546788
 20
-1.210788500000002
 30
0.0
 11
133.515153
 21
-1.587149499999999
 31
0.0
  0
LINE
  5
335E
330
BF7
100
AcDbEntity
  8
1
100
AcDbLine
 10
136.840786
 20
0.1530694999999973
 30
0.0
 11
136.5364919999999
 21
0.3148634999999977
 31
0.0
  0
LINE
  5
335F
330
BF7
100
AcDbEntity
  8
1
100
AcDbLine
 10
137.113516
 20
0.0800994999999993
 30
0.0
 11
136.840786
 21
0.1530694999999973
 31
0.0
  0
LINE
  5
3360
330
BF7
100
AcDbEntity
  8
1
100
AcDbLine
 10
137.266705
 20
0.0994484999999976
 30
0.0
 11
137.113516
 21
0.0800994999999993
 31
0.0
  0
LINE
  5
3361
330
BF7
100
AcDbEntity
  8
1
100
AcDbLine
 10
137.349694
 20
0.1630895000000017
 30
0.0
 11
137.266705
 21
0.0994484999999976
 31
0.0
  0
LINE
  5
3362
330
BF7
100
AcDbEntity
  8
1
100
AcDbLine
 10
137.393732
 20
0.2827034999999967
 30
0.0
 11
137.349694
 21
0.1630895000000017
 31
0.0
  0
LINE
  5
3363
330
BF7
100
AcDbEntity
  8
1
100
AcDbLine
 10
137.387264
 20
0.4353804999999973
 30
0.0
 11
137.393732
 21
0.2827034999999967
 31
0.0
  0
LINE
  5
3364
330
BF7
100
AcDbEntity
  8
1
100
AcDbLine
 10
137.363767
 20
0.5363854999999944
 30
0.0
 11
137.387264
 21
0.4353804999999973
 31
0.0
  0
LINE
  5
3365
330
BF7
100
AcDbEntity
  8
1
100
AcDbLine
 10
137.969544
 20
-0.0156885000000031
 30
0.0
 11
137.363767
 21
0.5363854999999944
 31
0.0
  0
LINE
  5
3366
330
BF7
100
AcDbEntity
  8
1
100
AcDbLine
 10
136.560982
 20
-0.3235275000000044
 30
0.0
 11
137.017955
 21
-0.7600685000000027
 31
0.0
  0
LINE
  5
3367
330
BF7
100
AcDbEntity
  8
1
100
AcDbLine
 10
136.07528
 20
0.2991784999999964
 30
0.0
 11
136.560982
 21
-0.3235275000000044
 31
0.0
  0
LINE
  5
3368
330
BF7
100
AcDbEntity
  8
1
100
AcDbLine
 10
135.902253
 20
0.6150624999999971
 30
0.0
 11
136.07528
 21
0.2991784999999964
 31
0.0
  0
LINE
  5
3369
330
BF7
100
AcDbEntity
  8
1
100
AcDbLine
 10
10.073453
 20
-1.500481500000002
 30
0.0
 11
9.271612000000002
 21
-1.7841185
 31
0.0
  0
LINE
  5
336A
330
BF7
100
AcDbEntity
  8
1
100
AcDbLine
 10
10.50272000000001
 20
-1.342051500000003
 30
0.0
 11
10.073453
 21
-1.500481500000002
 31
0.0
  0
LINE
  5
336B
330
BF7
100
AcDbEntity
  8
1
100
AcDbLine
 10
9.713004000000012
 20
-1.400423500000002
 30
0.0
 11
8.077487000000003
 21
-1.981465500000002
 31
0.0
  0
LINE
  5
336C
330
BF7
100
AcDbEntity
  8
1
100
AcDbLine
 10
10.53192800000001
 20
-1.109650499999998
 30
0.0
 11
9.713004000000012
 21
-1.400423500000002
 31
0.0
  0
LINE
  5
336D
330
BF7
100
AcDbEntity
  8
1
100
AcDbLine
 10
120.188956
 20
-1.3876735
 30
0.0
 11
122.934937
 21
-1.040480500000001
 31
0.0
  0
LINE
  5
336E
330
BF7
100
AcDbEntity
  8
1
100
AcDbLine
 10
118.440068
 20
-1.173372500000004
 30
0.0
 11
120.188956
 21
-1.3876735
 31
0.0
  0
LINE
  5
336F
330
BF7
100
AcDbEntity
  8
1
100
AcDbLine
 10
116.68986
 20
-0.6830405000000042
 30
0.0
 11
118.440068
 21
-1.173372500000004
 31
0.0
  0
LINE
  5
3370
330
BF7
100
AcDbEntity
  8
1
100
AcDbLine
 10
115.233166
 20
-0.1418465000000033
 30
0.0
 11
116.68986
 21
-0.6830405000000042
 31
0.0
  0
LINE
  5
3371
330
BF7
100
AcDbEntity
  8
1
100
AcDbLine
 10
97.380913
 20
-1.373272500000004
 30
0.0
 11
100.445006
 21
-1.044710499999997
 31
0.0
  0
LINE
  5
3372
330
BF7
100
AcDbEntity
  8
1
100
AcDbLine
 10
95.63188000000002
 20
-1.104278500000004
 30
0.0
 11
97.380913
 21
-1.373272500000004
 31
0.0
  0
LINE
  5
3373
330
BF7
100
AcDbEntity
  8
1
100
AcDbLine
 10
93.88129599999999
 20
-0.5754895000000034
 30
0.0
 11
95.63188000000002
 21
-1.104278500000004
 31
0.0
  0
LINE
  5
3374
330
BF7
100
AcDbEntity
  8
1
100
AcDbLine
 10
92.581012
 20
-0.0829955000000027
 30
0.0
 11
93.88129599999999
 21
-0.5754895000000034
 31
0.0
  0
LINE
  5
3375
330
BF7
100
AcDbEntity
  8
1
100
AcDbLine
 10
74.57285800000002
 20
-1.348240500000004
 30
0.0
 11
77.97064000000002
 21
-1.056301500000002
 31
0.0
  0
LINE
  5
3376
330
BF7
100
AcDbEntity
  8
1
100
AcDbLine
 10
72.82367900000001
 20
-1.026903500000005
 30
0.0
 11
74.57285800000002
 21
-1.348240500000004
 31
0.0
  0
LINE
  5
3377
330
BF7
100
AcDbEntity
  8
1
100
AcDbLine
 10
71.07261100000002
 20
-0.4638255000000023
 30
0.0
 11
72.82367900000001
 21
-1.026903500000005
 31
0.0
  0
LINE
  5
3378
330
BF7
100
AcDbEntity
  8
1
100
AcDbLine
 10
69.93281900000001
 20
-0.0269244999999998
 30
0.0
 11
71.07261100000002
 21
-0.4638255000000023
 31
0.0
  0
LINE
  5
3379
330
BF7
100
AcDbEntity
  8
1
100
AcDbLine
 10
53.51325500000001
 20
-1.375927500000003
 30
0.0
 11
55.467157
 21
-1.0532915
 31
0.0
  0
LINE
  5
337A
330
BF7
100
AcDbEntity
  8
1
100
AcDbLine
 10
51.76481500000001
 20
-1.313440500000004
 30
0.0
 11
53.51325500000001
 21
-1.375927500000003
 31
0.0
  0
LINE
  5
337B
330
BF7
100
AcDbEntity
  8
1
100
AcDbLine
 10
50.01538200000002
 20
-0.9417125000000011
 30
0.0
 11
51.76481500000001
 21
-1.313440500000004
 31
0.0
  0
LINE
  5
337C
330
BF7
100
AcDbEntity
  8
1
100
AcDbLine
 10
48.263829
 20
-0.3485375000000026
 30
0.0
 11
50.01538200000002
 21
-0.9417125000000011
 31
0.0
  0
LINE
  5
337D
330
BF7
100
AcDbEntity
  8
1
100
AcDbLine
 10
47.53676600000001
 20
-0.0687105000000017
 30
0.0
 11
48.263829
 21
-0.3485375000000026
 31
0.0
  0
LINE
  5
337E
330
BF7
100
AcDbEntity
  8
1
100
AcDbLine
 10
30.70519300000001
 20
-1.388987500000002
 30
0.0
 11
32.95207000000001
 21
-1.044719500000002
 31
0.0
  0
LINE
  5
337F
330
BF7
100
AcDbEntity
  8
1
100
AcDbLine
 10
28.95672300000001
 20
-1.268488500000003
 30
0.0
 11
30.70519300000001
 21
-1.388987500000002
 31
0.0
  0
LINE
  5
3380
330
BF7
100
AcDbEntity
  8
1
100
AcDbLine
 10
27.20701200000001
 20
-0.8496335000000028
 30
0.0
 11
28.95672300000001
 21
-1.268488500000003
 31
0.0
  0
LINE
  5
3381
330
BF7
100
AcDbEntity
  8
1
100
AcDbLine
 10
25.45489000000001
 20
-0.2306795000000008
 30
0.0
 11
27.20701200000001
 21
-0.8496335000000028
 31
0.0
  0
LINE
  5
3382
330
BF7
100
AcDbEntity
  8
1
100
AcDbLine
 10
25.37359100000001
 20
-0.1994975000000068
 30
0.0
 11
25.45489000000001
 21
-0.2306795000000008
 31
0.0
  0
LINE
  5
3383
330
BF7
100
AcDbEntity
  8
1
100
AcDbLine
 10
136.173724
 20
0.5066034999999971
 30
0.0
 11
135.902253
 21
0.6150624999999971
 31
0.0
  0
LINE
  5
3384
330
BF7
100
AcDbEntity
  8
1
100
AcDbLine
 10
136.372961
 20
0.4098974999999962
 30
0.0
 11
136.173724
 21
0.5066034999999971
 31
0.0
  0
LINE
  5
3385
330
BF7
100
AcDbEntity
  8
1
100
AcDbLine
 10
136.496693
 20
0.3399404999999938
 30
0.0
 11
136.372961
 21
0.4098974999999962
 31
0.0
  0
LINE
  5
3386
330
BF7
100
AcDbEntity
  8
1
100
AcDbLine
 10
136.5364919999999
 20
0.3148634999999977
 30
0.0
 11
136.496693
 21
0.3399404999999938
 31
0.0
  0
LINE
  5
3387
330
BF7
100
AcDbEntity
  8
1
100
AcDbLine
 10
10.78555200000001
 20
-1.2231875
 30
0.0
 11
10.50272000000001
 21
-1.342051500000003
 31
0.0
  0
LINE
  5
3388
330
BF7
100
AcDbEntity
  8
1
100
AcDbLine
 10
21.421216
 20
1.467403499999995
 30
0.0
 11
18.94476800000001
 21
1.888047499999995
 31
0.0
  0
LINE
  5
3389
330
BF7
100
AcDbEntity
  8
1
100
AcDbLine
 10
22.710345
 20
0.9501714999999959
 30
0.0
 11
21.421216
 21
1.467403499999995
 31
0.0
  0
LINE
  5
338A
330
BF7
100
AcDbEntity
  8
1
100
AcDbLine
 10
24.03490700000001
 20
0.2922054999999979
 30
0.0
 11
22.710345
 21
0.9501714999999959
 31
0.0
  0
LINE
  5
338B
330
BF7
100
AcDbEntity
  8
1
100
AcDbLine
 10
25.31989300000001
 20
-0.3858875000000026
 30
0.0
 11
24.03490700000001
 21
0.2922054999999979
 31
0.0
  0
LINE
  5
338C
330
BF7
100
AcDbEntity
  8
1
100
AcDbLine
 10
26.63998600000001
 20
-1.031541499999999
 30
0.0
 11
25.31989300000001
 21
-0.3858875000000026
 31
0.0
  0
LINE
  5
338D
330
BF7
100
AcDbEntity
  8
1
100
AcDbLine
 10
27.92106700000001
 20
-1.5262545
 30
0.0
 11
26.63998600000001
 21
-1.031541499999999
 31
0.0
  0
LINE
  5
338E
330
BF7
100
AcDbEntity
  8
1
100
AcDbLine
 10
29.237593
 20
-1.831759500000003
 30
0.0
 11
27.92106700000001
 21
-1.5262545
 31
0.0
  0
LINE
  5
338F
330
BF7
100
AcDbEntity
  8
1
100
AcDbLine
 10
30.51635400000001
 20
-1.892296500000004
 30
0.0
 11
29.237593
 21
-1.831759500000003
 31
0.0
  0
LINE
  5
3390
330
BF7
100
AcDbEntity
  8
1
100
AcDbLine
 10
31.83275300000001
 20
-1.702897500000004
 30
0.0
 11
30.51635400000001
 21
-1.892296500000004
 31
0.0
  0
LINE
  5
3391
330
BF7
100
AcDbEntity
  8
1
100
AcDbLine
 10
33.113156
 20
-1.2983735
 30
0.0
 11
31.83275300000001
 21
-1.702897500000004
 31
0.0
  0
LINE
  5
3392
330
BF7
100
AcDbEntity
  8
1
100
AcDbLine
 10
33.30234
 20
-1.2140315
 30
0.0
 11
33.113156
 21
-1.2983735
 31
0.0
  0
LINE
  5
3393
330
BF7
100
AcDbEntity
  8
1
100
AcDbLine
 10
43.56536400000002
 20
1.579348499999995
 30
0.0
 11
41.44319399999999
 21
1.8697705
 31
0.0
  0
LINE
  5
3394
330
BF7
100
AcDbEntity
  8
1
100
AcDbLine
 10
44.89241500000001
 20
1.091529499999996
 30
0.0
 11
43.56536400000002
 21
1.579348499999995
 31
0.0
  0
LINE
  5
3395
330
BF7
100
AcDbEntity
  8
1
100
AcDbLine
 10
46.180224
 20
0.4756394999999999
 30
0.0
 11
44.89241500000001
 21
1.091529499999996
 31
0.0
  0
LINE
  5
3396
330
BF7
100
AcDbEntity
  8
1
100
AcDbLine
 10
47.502745
 20
-0.2202055000000023
 30
0.0
 11
46.180224
 21
0.4756394999999999
 31
0.0
  0
LINE
  5
3397
330
BF7
100
AcDbEntity
  8
1
100
AcDbLine
 10
48.78582999999999
 20
-0.8688395000000035
 30
0.0
 11
47.502745
 21
-0.2202055000000023
 31
0.0
  0
LINE
  5
3398
330
BF7
100
AcDbEntity
  8
1
100
AcDbLine
 10
50.104403
 20
-1.420226499999999
 30
0.0
 11
48.78582999999999
 21
-0.8688395000000035
 31
0.0
  0
LINE
  5
3399
330
BF7
100
AcDbEntity
  8
1
100
AcDbLine
 10
51.38427800000001
 20
-1.773096500000004
 30
0.0
 11
50.104403
 21
-1.420226499999999
 31
0.0
  0
LINE
  5
339A
330
BF7
100
AcDbEntity
  8
1
100
AcDbLine
 10
52.70045300000001
 20
-1.899990500000004
 30
0.0
 11
51.38427800000001
 21
-1.773096500000004
 31
0.0
  0
LINE
  5
339B
330
BF7
100
AcDbEntity
  8
1
100
AcDbLine
 10
53.97960199999999
 20
-1.777789500000004
 30
0.0
 11
52.70045300000001
 21
-1.899990500000004
 31
0.0
  0
LINE
  5
339C
330
BF7
100
AcDbEntity
  8
1
100
AcDbLine
 10
55.29646700000002
 20
-1.415917499999999
 30
0.0
 11
53.97960199999999
 21
-1.777789500000004
 31
0.0
  0
LINE
  5
339D
330
BF7
100
AcDbEntity
  8
1
100
AcDbLine
 10
55.79321500000002
 20
-1.2084695
 30
0.0
 11
55.29646700000002
 21
-1.415917499999999
 31
0.0
  0
LINE
  5
339E
330
BF7
100
AcDbEntity
  8
1
100
AcDbLine
 10
65.74656800000001
 20
1.666403499999993
 30
0.0
 11
63.94372199999999
 21
1.871651499999995
 31
0.0
  0
LINE
  5
339F
330
BF7
100
AcDbEntity
  8
1
100
AcDbLine
 10
67.036557
 20
1.239610499999997
 30
0.0
 11
65.74656800000001
 21
1.666403499999993
 31
0.0
  0
LINE
  5
33A0
330
BF7
100
AcDbEntity
  8
1
100
AcDbLine
 10
68.36187600000001
 20
0.6365584999999996
 30
0.0
 11
67.036557
 21
1.239610499999997
 31
0.0
  0
LINE
  5
33A1
330
BF7
100
AcDbEntity
  8
1
100
AcDbLine
 10
69.64771
 20
-0.0326415000000004
 30
0.0
 11
68.36187600000001
 21
0.6365584999999996
 31
0.0
  0
LINE
  5
33A2
330
BF7
100
AcDbEntity
  8
1
100
AcDbLine
 10
70.96914100000002
 20
-0.7165535000000072
 30
0.0
 11
69.64771
 21
-0.0326415000000004
 31
0.0
  0
LINE
  5
33A3
330
BF7
100
AcDbEntity
  8
1
100
AcDbLine
 10
72.25130600000001
 20
-1.289111499999997
 30
0.0
 11
70.96914100000002
 21
-0.7165535000000072
 31
0.0
  0
LINE
  5
33A4
330
BF7
100
AcDbEntity
  8
1
100
AcDbLine
 10
73.568607
 20
-1.705904499999999
 30
0.0
 11
72.25130600000001
 21
-1.289111499999997
 31
0.0
  0
LINE
  5
33A5
330
BF7
100
AcDbEntity
  8
1
100
AcDbLine
 10
74.84767099999998
 20
-1.8910555
 30
0.0
 11
73.568607
 21
-1.705904499999999
 31
0.0
  0
LINE
  5
33A6
330
BF7
100
AcDbEntity
  8
1
100
AcDbLine
 10
76.16377299999998
 20
-1.830006500000003
 30
0.0
 11
74.84767099999998
 21
-1.8910555
 31
0.0
  0
LINE
  5
33A7
330
BF7
100
AcDbEntity
  8
1
100
AcDbLine
 10
77.44340700000002
 20
-1.533957500000003
 30
0.0
 11
76.16377299999998
 21
-1.830006500000003
 31
0.0
  0
LINE
  5
33A8
330
BF7
100
AcDbEntity
  8
1
100
AcDbLine
 10
78.28983
 20
-1.207627500000004
 30
0.0
 11
77.44340700000002
 21
-1.533957500000003
 31
0.0
  0
LINE
  5
33A9
330
BF7
100
AcDbEntity
  8
1
100
AcDbLine
 10
87.890165
 20
1.7483335
 30
0.0
 11
86.44232399999998
 21
1.886624499999996
 31
0.0
  0
LINE
  5
33AA
330
BF7
100
AcDbEntity
  8
1
100
AcDbLine
 10
89.217761
 20
1.361995499999999
 30
0.0
 11
87.890165
 21
1.7483335
 31
0.0
  0
LINE
  5
33AB
330
BF7
100
AcDbEntity
  8
1
100
AcDbLine
 10
90.50641699999999
 20
0.8099824999999999
 30
0.0
 11
89.217761
 21
1.361995499999999
 31
0.0
  0
LINE
  5
33AC
330
BF7
100
AcDbEntity
  8
1
100
AcDbLine
 10
91.83036800000001
 20
0.1349994999999993
 30
0.0
 11
90.50641699999999
 21
0.8099824999999999
 31
0.0
  0
LINE
  5
33AD
330
BF7
100
AcDbEntity
  8
1
100
AcDbLine
 10
93.11481000000002
 20
-0.5392335000000053
 30
0.0
 11
91.83036800000001
 21
0.1349994999999993
 31
0.0
  0
LINE
  5
33AE
330
BF7
100
AcDbEntity
  8
1
100
AcDbLine
 10
94.434424
 20
-1.1605825
 30
0.0
 11
93.11481000000002
 21
-0.5392335000000053
 31
0.0
  0
LINE
  5
33AF
330
BF7
100
AcDbEntity
  8
1
100
AcDbLine
 10
95.71511100000002
 20
-1.615039500000004
 30
0.0
 11
94.434424
 21
-1.1605825
 31
0.0
  0
LINE
  5
33B0
330
BF7
100
AcDbEntity
  8
1
100
AcDbLine
 10
97.031504
 20
-1.867404499999999
 30
0.0
 11
95.71511100000002
 21
-1.615039500000004
 31
0.0
  0
LINE
  5
33B1
330
BF7
100
AcDbEntity
  8
1
100
AcDbLine
 10
98.310423
 20
-1.871503500000006
 30
0.0
 11
97.031504
 21
-1.867404499999999
 31
0.0
  0
LINE
  5
33B2
330
BF7
100
AcDbEntity
  8
1
100
AcDbLine
 10
99.62674200000002
 20
-1.6270485
 30
0.0
 11
98.310423
 21
-1.871503500000006
 31
0.0
  0
LINE
  5
33B3
330
BF7
100
AcDbEntity
  8
1
100
AcDbLine
 10
100.803827
 20
-1.214954500000001
 30
0.0
 11
99.62674200000002
 21
-1.6270485
 31
0.0
  0
LINE
  5
33B4
330
BF7
100
AcDbEntity
  8
1
100
AcDbLine
 10
111.362218
 20
1.485794499999995
 30
0.0
 11
108.938856
 21
1.883762499999999
 31
0.0
  0
LINE
  5
33B5
330
BF7
100
AcDbEntity
  8
1
100
AcDbLine
 10
112.688384
 20
0.9585374999999983
 30
0.0
 11
111.362218
 21
1.485794499999995
 31
0.0
  0
LINE
  5
33B6
330
BF7
100
AcDbEntity
  8
1
100
AcDbLine
 10
113.975237
 20
0.3215304999999979
 30
0.0
 11
112.688384
 21
0.9585374999999983
 31
0.0
  0
LINE
  5
33B7
330
BF7
100
AcDbEntity
  8
1
100
AcDbLine
 10
115.297891
 20
-0.3764185000000033
 30
0.0
 11
113.975237
 21
0.3215304999999979
 31
0.0
  0
LINE
  5
33B8
330
BF7
100
AcDbEntity
  8
1
100
AcDbLine
 10
116.581037
 20
-1.006818499999998
 30
0.0
 11
115.297891
 21
-0.3764185000000033
 31
0.0
  0
LINE
  5
33B9
330
BF7
100
AcDbEntity
  8
1
100
AcDbLine
 10
117.898737
 20
-1.520332500000002
 30
0.0
 11
116.581037
 21
-1.006818499999998
 31
0.0
  0
LINE
  5
33BA
330
BF7
100
AcDbEntity
  8
1
100
AcDbLine
 10
119.17802
 20
-1.823617500000001
 30
0.0
 11
117.898737
 21
-1.520332500000002
 31
0.0
  0
LINE
  5
33BB
330
BF7
100
AcDbEntity
  8
1
100
AcDbLine
 10
120.494218
 20
-1.8931505
 30
0.0
 11
119.17802
 21
-1.823617500000001
 31
0.0
  0
LINE
  5
33BC
330
BF7
100
AcDbEntity
  8
1
100
AcDbLine
 10
121.773416
 20
-1.715808500000004
 30
0.0
 11
120.494218
 21
-1.8931505
 31
0.0
  0
LINE
  5
33BD
330
BF7
100
AcDbEntity
  8
1
100
AcDbLine
 10
123.090753
 20
-1.305619500000001
 30
0.0
 11
121.773416
 21
-1.715808500000004
 31
0.0
  0
LINE
  5
33BE
330
BF7
100
AcDbEntity
  8
1
100
AcDbLine
 10
123.300503
 20
-1.212699500000002
 30
0.0
 11
123.090753
 21
-1.305619500000001
 31
0.0
  0
LINE
  5
33BF
330
BF7
100
AcDbEntity
  8
1
100
AcDbLine
 10
133.534229
 20
1.587148499999995
 30
0.0
 11
131.439396
 21
1.870706499999995
 31
0.0
  0
LINE
  5
33C0
330
BF7
100
AcDbEntity
  8
1
100
AcDbLine
 10
134.816006
 20
1.122777499999994
 30
0.0
 11
133.534229
 21
1.587148499999995
 31
0.0
  0
LINE
  5
33C1
330
BF7
100
AcDbEntity
  8
1
100
AcDbLine
 10
135.902253
 20
0.6150624999999971
 30
0.0
 11
134.816006
 21
1.122777499999994
 31
0.0
  0
LINE
  5
33C2
330
BF7
100
AcDbEntity
  8
1
100
AcDbLine
 10
136.1122209999999
 20
-1.779540500000003
 30
0.0
 11
137.248537
 21
-1.975982500000004
 31
0.0
  0
LINE
  5
33C3
330
BF7
100
AcDbEntity
  8
1
100
AcDbLine
 10
134.84769
 20
-1.351853500000004
 30
0.0
 11
136.1122209999999
 21
-1.779540500000003
 31
0.0
  0
LINE
  5
33C4
330
BF7
100
AcDbEntity
  8
1
100
AcDbLine
 10
133.617157
 20
-0.7744835000000025
 30
0.0
 11
134.84769
 21
-1.351853500000004
 31
0.0
  0
LINE
  5
33C5
330
BF7
100
AcDbEntity
  8
1
100
AcDbLine
 10
132.3491629999999
 20
-0.0862355000000008
 30
0.0
 11
133.617157
 21
-0.7744835000000025
 31
0.0
  0
LINE
  5
33C6
330
BF7
100
AcDbEntity
  8
1
100
AcDbLine
 10
131.114694
 20
0.5936704999999983
 30
0.0
 11
132.3491629999999
 21
-0.0862355000000008
 31
0.0
  0
LINE
  5
33C7
330
BF7
100
AcDbEntity
  8
1
100
AcDbLine
 10
129.841891
 20
1.21983449999999
 30
0.0
 11
131.114694
 21
0.5936704999999983
 31
0.0
  0
LINE
  5
33C8
330
BF7
100
AcDbEntity
  8
1
100
AcDbLine
 10
128.603353
 20
1.683626499999999
 30
0.0
 11
129.841891
 21
1.21983449999999
 31
0.0
  0
LINE
  5
33C9
330
BF7
100
AcDbEntity
  8
1
100
AcDbLine
 10
127.327764
 20
1.953747499999995
 30
0.0
 11
128.603353
 21
1.683626499999999
 31
0.0
  0
LINE
  5
33CA
330
BF7
100
AcDbEntity
  8
1
100
AcDbLine
 10
126.087409
 20
1.983378499999995
 30
0.0
 11
127.327764
 21
1.953747499999995
 31
0.0
  0
LINE
  5
33CB
330
BF7
100
AcDbEntity
  8
1
100
AcDbLine
 10
124.811712
 20
1.770827499999995
 30
0.0
 11
126.087409
 21
1.983378499999995
 31
0.0
  0
LINE
  5
33CC
330
BF7
100
AcDbEntity
  8
1
100
AcDbLine
 10
123.573161
 20
1.352675499999999
 30
0.0
 11
124.811712
 21
1.770827499999995
 31
0.0
  0
LINE
  5
33CD
330
BF7
100
AcDbEntity
  8
1
100
AcDbLine
 10
123.298638
 20
1.224213499999995
 30
0.0
 11
123.573161
 21
1.352675499999999
 31
0.0
  0
LINE
  5
33CE
330
BF7
100
AcDbEntity
  8
1
100
AcDbLine
 10
113.58128
 20
-1.771231500000002
 30
0.0
 11
115.299768
 21
-1.970220500000003
 31
0.0
  0
LINE
  5
33CF
330
BF7
100
AcDbEntity
  8
1
100
AcDbLine
 10
112.316762
 20
-1.338617500000001
 30
0.0
 11
113.58128
 21
-1.771231500000002
 31
0.0
  0
LINE
  5
33D0
330
BF7
100
AcDbEntity
  8
1
100
AcDbLine
 10
111.086278
 20
-0.7580185000000022
 30
0.0
 11
112.316762
 21
-1.338617500000001
 31
0.0
  0
LINE
  5
33D1
330
BF7
100
AcDbEntity
  8
1
100
AcDbLine
 10
109.817969
 20
-0.0682775000000042
 30
0.0
 11
111.086278
 21
-0.7580185000000022
 31
0.0
  0
LINE
  5
33D2
330
BF7
100
AcDbEntity
  8
1
100
AcDbLine
 10
108.583221
 20
0.6109294999999975
 30
0.0
 11
109.817969
 21
-0.0682775000000042
 31
0.0
  0
LINE
  5
33D3
330
BF7
100
AcDbEntity
  8
1
100
AcDbLine
 10
107.310539
 20
1.234147499999995
 30
0.0
 11
108.583221
 21
0.6109294999999975
 31
0.0
  0
LINE
  5
33D4
330
BF7
100
AcDbEntity
  8
1
100
AcDbLine
 10
106.071952
 20
1.693219499999995
 30
0.0
 11
107.310539
 21
1.234147499999995
 31
0.0
  0
LINE
  5
33D5
330
BF7
100
AcDbEntity
  8
1
100
AcDbLine
 10
104.796364
 20
1.9574505
 30
0.0
 11
106.071952
 21
1.693219499999995
 31
0.0
  0
LINE
  5
33D6
330
BF7
100
AcDbEntity
  8
1
100
AcDbLine
 10
103.556251
 20
1.9810075
 30
0.0
 11
104.796364
 21
1.9574505
 31
0.0
  0
LINE
  5
33D7
330
BF7
100
AcDbEntity
  8
1
100
AcDbLine
 10
102.280529
 20
1.762367499999995
 30
0.0
 11
103.556251
 21
1.9810075
 31
0.0
  0
LINE
  5
33D8
330
BF7
100
AcDbEntity
  8
1
100
AcDbLine
 10
101.041845
 20
1.339361499999994
 30
0.0
 11
102.280529
 21
1.762367499999995
 31
0.0
  0
LINE
  5
33D9
330
BF7
100
AcDbEntity
  8
1
100
AcDbLine
 10
100.798134
 20
1.2246825
 30
0.0
 11
101.041845
 21
1.339361499999994
 31
0.0
  0
LINE
  5
33DA
330
BF7
100
AcDbEntity
  8
1
100
AcDbLine
 10
91.07065099999999
 20
-1.768242499999999
 30
0.0
 11
92.80126300000002
 21
-1.9701955
 31
0.0
  0
LINE
  5
33DB
330
BF7
100
AcDbEntity
  8
1
100
AcDbLine
 10
89.84181400000002
 20
-1.348652500000002
 30
0.0
 11
91.07065099999999
 21
-1.768242499999999
 31
0.0
  0
LINE
  5
33DC
330
BF7
100
AcDbEntity
  8
1
100
AcDbLine
 10
88.57539399999998
 20
-0.7517535000000068
 30
0.0
 11
89.84181400000002
 21
-1.348652500000002
 31
0.0
  0
LINE
  5
33DD
330
BF7
100
AcDbEntity
  8
1
100
AcDbLine
 10
87.342597
 20
-0.0813725000000041
 30
0.0
 11
88.57539399999998
 21
-0.7517535000000068
 31
0.0
  0
LINE
  5
33DE
330
BF7
100
AcDbEntity
  8
1
100
AcDbLine
 10
86.07260399999999
 20
0.616870500000001
 30
0.0
 11
87.342597
 21
-0.0813725000000041
 31
0.0
  0
LINE
  5
33DF
330
BF7
100
AcDbEntity
  8
1
100
AcDbLine
 10
84.83643900000002
 20
1.222995499999999
 30
0.0
 11
86.07260399999999
 21
0.616870500000001
 31
0.0
  0
LINE
  5
33E0
330
BF7
100
AcDbEntity
  8
1
100
AcDbLine
 10
83.57298700000002
 20
1.693243499999995
 30
0.0
 11
84.83643900000002
 21
1.222995499999999
 31
0.0
  0
LINE
  5
33E1
330
BF7
100
AcDbEntity
  8
1
100
AcDbLine
 10
82.34334999999999
 20
1.952069499999997
 30
0.0
 11
83.57298700000002
 21
1.693243499999995
 31
0.0
  0
LINE
  5
33E2
330
BF7
100
AcDbEntity
  8
1
100
AcDbLine
 10
81.10318799999998
 20
1.984359499999995
 30
0.0
 11
82.34334999999999
 21
1.952069499999997
 31
0.0
  0
LINE
  5
33E3
330
BF7
100
AcDbEntity
  8
1
100
AcDbLine
 10
79.82753900000002
 20
1.774376499999998
 30
0.0
 11
81.10318799999998
 21
1.984359499999995
 31
0.0
  0
LINE
  5
33E4
330
BF7
100
AcDbEntity
  8
1
100
AcDbLine
 10
78.58895199999998
 20
1.358367499999995
 30
0.0
 11
79.82753900000002
 21
1.774376499999998
 31
0.0
  0
LINE
  5
33E5
330
BF7
100
AcDbEntity
  8
1
100
AcDbLine
 10
78.28796500000001
 20
1.217824499999998
 30
0.0
 11
78.58895199999998
 21
1.358367499999995
 31
0.0
  0
LINE
  5
33E6
330
BF7
100
AcDbEntity
  8
1
100
AcDbLine
 10
68.59668400000002
 20
-1.774795500000003
 30
0.0
 11
70.30490100000001
 21
-1.9704805
 31
0.0
  0
LINE
  5
33E7
330
BF7
100
AcDbEntity
  8
1
100
AcDbLine
 10
67.33193600000003
 20
-1.344156499999999
 30
0.0
 11
68.59668400000002
 21
-1.774795500000003
 31
0.0
  0
LINE
  5
33E8
330
BF7
100
AcDbEntity
  8
1
100
AcDbLine
 10
66.10122099999999
 20
-0.7647735000000006
 30
0.0
 11
67.33193600000003
 21
-1.344156499999999
 31
0.0
  0
LINE
  5
33E9
330
BF7
100
AcDbEntity
  8
1
100
AcDbLine
 10
64.83334800000001
 20
-0.0757805000000005
 30
0.0
 11
66.10122099999999
 21
-0.7647735000000006
 31
0.0
  0
LINE
  5
33EA
330
BF7
100
AcDbEntity
  8
1
100
AcDbLine
 10
63.598879
 20
0.6034724999999952
 30
0.0
 11
64.83334800000001
 21
-0.0757805000000005
 31
0.0
  0
LINE
  5
33EB
330
BF7
100
AcDbEntity
  8
1
100
AcDbLine
 10
62.32607600000001
 20
1.227961499999995
 30
0.0
 11
63.598879
 21
0.6034724999999952
 31
0.0
  0
LINE
  5
33EC
330
BF7
100
AcDbEntity
  8
1
100
AcDbLine
 10
61.087622
 20
1.689210499999995
 30
0.0
 11
62.32607600000001
 21
1.227961499999995
 31
0.0
  0
LINE
  5
33ED
330
BF7
100
AcDbEntity
  8
1
100
AcDbLine
 10
59.812022
 20
1.955918499999999
 30
0.0
 11
61.087622
 21
1.689210499999995
 31
0.0
  0
LINE
  5
33EE
330
BF7
100
AcDbEntity
  8
1
100
AcDbLine
 10
58.57173900000002
 20
1.982036499999995
 30
0.0
 11
59.812022
 21
1.955918499999999
 31
0.0
  0
LINE
  5
33EF
330
BF7
100
AcDbEntity
  8
1
100
AcDbLine
 10
57.29598100000001
 20
1.765925499999995
 30
0.0
 11
58.57173900000002
 21
1.982036499999995
 31
0.0
  0
LINE
  5
33F0
330
BF7
100
AcDbEntity
  8
1
100
AcDbLine
 10
56.057249
 20
1.344939499999997
 30
0.0
 11
57.29598100000001
 21
1.765925499999995
 31
0.0
  0
LINE
  5
33F1
330
BF7
100
AcDbEntity
  8
1
100
AcDbLine
 10
55.791398
 20
1.220137499999994
 30
0.0
 11
56.057249
 21
1.344939499999997
 31
0.0
  0
LINE
  5
33F2
330
BF7
100
AcDbEntity
  8
1
100
AcDbLine
 10
46.066059
 20
-1.766644499999999
 30
0.0
 11
47.806372
 21
-1.969811500000002
 31
0.0
  0
LINE
  5
33F3
330
BF7
100
AcDbEntity
  8
1
100
AcDbLine
 10
44.800899
 20
-1.330857500000004
 30
0.0
 11
46.066059
 21
-1.766644499999999
 31
0.0
  0
LINE
  5
33F4
330
BF7
100
AcDbEntity
  8
1
100
AcDbLine
 10
43.56988100000001
 20
-0.7478015000000049
 30
0.0
 11
44.800899
 21
-1.330857500000004
 31
0.0
  0
LINE
  5
33F5
330
BF7
100
AcDbEntity
  8
1
100
AcDbLine
 10
42.302263
 20
-0.0577855000000014
 30
0.0
 11
43.56988100000001
 21
-0.7478015000000049
 31
0.0
  0
LINE
  5
33F6
330
BF7
100
AcDbEntity
  8
1
100
AcDbLine
 10
41.06793900000002
 20
0.6202344999999953
 30
0.0
 11
42.302263
 21
-0.0577855000000014
 31
0.0
  0
LINE
  5
33F7
330
BF7
100
AcDbEntity
  8
1
100
AcDbLine
 10
39.79473600000002
 20
1.242017499999995
 30
0.0
 11
41.06793900000002
 21
0.6202344999999953
 31
0.0
  0
LINE
  5
33F8
330
BF7
100
AcDbEntity
  8
1
100
AcDbLine
 10
38.556004
 20
1.698893499999995
 30
0.0
 11
39.79473600000002
 21
1.242017499999995
 31
0.0
  0
LINE
  5
33F9
330
BF7
100
AcDbEntity
  8
1
100
AcDbLine
 10
37.28058500000003
 20
1.959639499999999
 30
0.0
 11
38.556004
 21
1.698893499999995
 31
0.0
  0
LINE
  5
33FA
330
BF7
100
AcDbEntity
  8
1
100
AcDbLine
 10
36.040278
 20
1.979563499999995
 30
0.0
 11
37.28058500000003
 21
1.959639499999999
 31
0.0
  0
LINE
  5
33FB
330
BF7
100
AcDbEntity
  8
1
100
AcDbLine
 10
34.764605
 20
1.757616499999995
 30
0.0
 11
36.040278
 21
1.979563499999995
 31
0.0
  0
LINE
  5
33FC
330
BF7
100
AcDbEntity
  8
1
100
AcDbLine
 10
33.52626000000001
 20
1.331758499999998
 30
0.0
 11
34.764605
 21
1.757616499999995
 31
0.0
  0
LINE
  5
33FD
330
BF7
100
AcDbEntity
  8
1
100
AcDbLine
 10
33.30276400000001
 20
1.22619649999999
 30
0.0
 11
33.52626000000001
 21
1.331758499999998
 31
0.0
  0
LINE
  5
33FE
330
BF7
100
AcDbEntity
  8
1
100
AcDbLine
 10
23.53513100000001
 20
-1.758208500000004
 30
0.0
 11
25.30588600000001
 21
-1.969323500000004
 31
0.0
  0
LINE
  5
33FF
330
BF7
100
AcDbEntity
  8
1
100
AcDbLine
 10
22.27008000000001
 20
-1.3175045
 30
0.0
 11
23.53513100000001
 21
-1.758208500000004
 31
0.0
  0
LINE
  5
3400
330
BF7
100
AcDbEntity
  8
1
100
AcDbLine
 10
21.03915300000001
 20
-0.7312845000000046
 30
0.0
 11
22.27008000000001
 21
-1.3175045
 31
0.0
  0
LINE
  5
3401
330
BF7
100
AcDbEntity
  8
1
100
AcDbLine
 10
19.770499
 20
-0.0395485000000022
 30
0.0
 11
21.03915300000001
 21
-0.7312845000000046
 31
0.0
  0
LINE
  5
3402
330
BF7
100
AcDbEntity
  8
1
100
AcDbLine
 10
18.53531500000001
 20
0.6380695000000003
 30
0.0
 11
19.770499
 21
-0.0395485000000022
 31
0.0
  0
LINE
  5
3403
330
BF7
100
AcDbEntity
  8
1
100
AcDbLine
 10
17.26515300000001
 20
1.255494499999997
 30
0.0
 11
18.53531500000001
 21
0.6380695000000003
 31
0.0
  0
LINE
  5
3404
330
BF7
100
AcDbEntity
  8
1
100
AcDbLine
 10
16.028806
 20
1.706871499999994
 30
0.0
 11
17.26515300000001
 21
1.255494499999997
 31
0.0
  0
LINE
  5
3405
330
BF7
100
AcDbEntity
  8
1
100
AcDbLine
 10
14.74485500000001
 20
1.963354499999995
 30
0.0
 11
16.028806
 21
1.706871499999994
 31
0.0
  0
LINE
  5
3406
330
BF7
100
AcDbEntity
  8
1
100
AcDbLine
 10
13.498219
 20
1.975875499999995
 30
0.0
 11
14.74485500000001
 21
1.963354499999995
 31
0.0
  0
LINE
  5
3407
330
BF7
100
AcDbEntity
  8
1
100
AcDbLine
 10
12.22319400000001
 20
1.743209499999995
 30
0.0
 11
13.498219
 21
1.975875499999995
 31
0.0
  0
LINE
  5
3408
330
BF7
100
AcDbEntity
  8
1
100
AcDbLine
 10
10.980277
 20
1.312022499999994
 30
0.0
 11
12.22319400000001
 21
1.743209499999995
 31
0.0
  0
LINE
  5
3409
330
BF7
100
AcDbEntity
  8
1
100
AcDbLine
 10
10.783614
 20
1.226614499999999
 30
0.0
 11
10.98061000000001
 21
1.312164500000001
 31
0.0
  0
LINE
  5
340A
330
BF7
100
AcDbEntity
  8
1
100
AcDbLine
 10
7.714682000000008
 20
1.998896499999993
 30
0.0
 11
7.614282000000017
 21
1.991856499999995
 31
0.0
  0
LINE
  5
340B
330
BF7
100
AcDbEntity
  8
1
100
AcDbLine
 10
8.082283000000018
 20
1.981522499999995
 30
0.0
 11
7.714682000000008
 21
1.998896499999993
 31
0.0
  0
LINE
  5
340C
330
BF7
100
AcDbEntity
  8
1
100
AcDbLine
 10
9.288114000000009
 20
1.784117499999995
 30
0.0
 11
8.082610000000016
 21
1.981497499999995
 31
0.0
  0
LINE
  5
340D
330
BF7
100
AcDbEntity
  8
1
100
AcDbLine
 10
9.288114000000009
 20
1.784117499999995
 30
0.0
 11
6.437683000000006
 21
1.784117499999995
 31
0.0
  0
LINE
  5
340E
330
BF7
100
AcDbEntity
  8
1
100
AcDbLine
 10
6.143884000000013
 20
1.466673499999995
 30
0.0
 11
6.142370000000012
 21
1.412685499999994
 31
0.0
  0
LINE
  5
340F
330
BF7
100
AcDbEntity
  8
1
100
AcDbLine
 10
6.194820000000007
 20
1.654446499999995
 30
0.0
 11
6.143884000000013
 21
1.466673499999995
 31
0.0
  0
LINE
  5
3410
330
BF7
100
AcDbEntity
  8
1
100
AcDbLine
 10
6.266018000000002
 20
1.733163499999999
 30
0.0
 11
6.194820000000007
 21
1.654446499999995
 31
0.0
  0
LINE
  5
3411
330
BF7
100
AcDbEntity
  8
1
100
AcDbLine
 10
6.331015000000008
 20
1.766530499999998
 30
0.0
 11
6.266018000000002
 21
1.733163499999999
 31
0.0
  0
LINE
  5
3412
330
BF7
100
AcDbEntity
  8
1
100
AcDbLine
 10
6.381018000000011
 20
1.779378499999995
 30
0.0
 11
6.331015000000008
 21
1.766530499999998
 31
0.0
  0
LINE
  5
3413
330
BF7
100
AcDbEntity
  8
1
100
AcDbLine
 10
6.437683000000006
 20
1.784117499999995
 30
0.0
 11
6.381018000000011
 21
1.779378499999995
 31
0.0
  0
LINE
  5
3414
330
BF7
100
AcDbEntity
  8
1
100
AcDbLine
 10
126.813237
 20
-1.995279500000002
 30
0.0
 11
128.286403
 21
-1.8643855
 31
0.0
  0
LINE
  5
3415
330
BF7
100
AcDbEntity
  8
1
100
AcDbLine
 10
125.549857
 20
-1.823499499999999
 30
0.0
 11
126.813237
 21
-1.995279500000002
 31
0.0
  0
LINE
  5
3416
330
BF7
100
AcDbEntity
  8
1
100
AcDbLine
 10
124.321189
 20
-1.438817500000002
 30
0.0
 11
125.549857
 21
-1.823499499999999
 31
0.0
  0
LINE
  5
3417
330
BF7
100
AcDbEntity
  8
1
100
AcDbLine
 10
123.055557
 20
-0.8671414999999987
 30
0.0
 11
124.321189
 21
-1.438817500000002
 31
0.0
  0
LINE
  5
3418
330
BF7
100
AcDbEntity
  8
1
100
AcDbLine
 10
121.823607
 20
-0.2074975000000059
 30
0.0
 11
123.055557
 21
-0.8671414999999987
 31
0.0
  0
LINE
  5
3419
330
BF7
100
AcDbEntity
  8
1
100
AcDbLine
 10
120.564139
 20
0.4902705000000013
 30
0.0
 11
121.823607
 21
-0.2074975000000059
 31
0.0
  0
LINE
  5
341A
330
BF7
100
AcDbEntity
  8
1
100
AcDbLine
 10
119.33753
 20
1.111901499999998
 30
0.0
 11
120.564139
 21
0.4902705000000013
 31
0.0
  0
LINE
  5
341B
330
BF7
100
AcDbEntity
  8
1
100
AcDbLine
 10
118.099343
 20
1.608101499999999
 30
0.0
 11
119.33753
 21
1.111901499999998
 31
0.0
  0
LINE
  5
341C
330
BF7
100
AcDbEntity
  8
1
100
AcDbLine
 10
116.823948
 20
1.920912499999995
 30
0.0
 11
118.099343
 21
1.608101499999999
 31
0.0
  0
LINE
  5
341D
330
BF7
100
AcDbEntity
  8
1
100
AcDbLine
 10
115.808143
 20
1.982506499999999
 30
0.0
 11
116.823948
 21
1.920912499999995
 31
0.0
  0
LINE
  5
341E
330
BF7
100
AcDbEntity
  8
1
100
AcDbLine
 10
107.644276
 20
-1.278353500000005
 30
0.0
 11
107.723874
 21
-1.246036500000001
 31
0.0
  0
LINE
  5
341F
330
BF7
100
AcDbEntity
  8
1
100
AcDbLine
 10
104.359133
 20
-1.996853500000003
 30
0.0
 11
105.657406
 21
-1.899651500000004
 31
0.0
  0
LINE
  5
3420
330
BF7
100
AcDbEntity
  8
1
100
AcDbLine
 10
103.095777
 20
-1.833718500000003
 30
0.0
 11
104.359133
 21
-1.996853500000003
 31
0.0
  0
LINE
  5
3421
330
BF7
100
AcDbEntity
  8
1
100
AcDbLine
 10
101.867146
 20
-1.456234500000004
 30
0.0
 11
103.095777
 21
-1.833718500000003
 31
0.0
  0
LINE
  5
3422
330
BF7
100
AcDbEntity
  8
1
100
AcDbLine
 10
100.60161
 20
-0.8898325000000042
 30
0.0
 11
101.867146
 21
-1.456234500000004
 31
0.0
  0
LINE
  5
3423
330
BF7
100
AcDbEntity
  8
1
100
AcDbLine
 10
99.36978100000001
 20
-0.232623499999999
 30
0.0
 11
100.60161
 21
-0.8898325000000042
 31
0.0
  0
LINE
  5
3424
330
BF7
100
AcDbEntity
  8
1
100
AcDbLine
 10
98.11042300000003
 20
0.4657044999999977
 30
0.0
 11
99.36978100000001
 21
-0.232623499999999
 31
0.0
  0
LINE
  5
3425
330
BF7
100
AcDbEntity
  8
1
100
AcDbLine
 10
96.883923
 20
1.090763499999997
 30
0.0
 11
98.11042300000003
 21
0.4657044999999977
 31
0.0
  0
LINE
  5
3426
330
BF7
100
AcDbEntity
  8
1
100
AcDbLine
 10
95.64580799999999
 20
1.592913499999995
 30
0.0
 11
96.883923
 21
1.090763499999997
 31
0.0
  0
LINE
  5
3427
330
BF7
100
AcDbEntity
  8
1
100
AcDbLine
 10
94.37045000000001
 20
1.913708499999995
 30
0.0
 11
95.64580799999999
 21
1.592913499999995
 31
0.0
  0
LINE
  5
3428
330
BF7
100
AcDbEntity
  8
1
100
AcDbLine
 10
93.30966200000002
 20
1.985406499999999
 30
0.0
 11
94.37045000000001
 21
1.913708499999995
 31
0.0
  0
LINE
  5
3429
330
BF7
100
AcDbEntity
  8
1
100
AcDbLine
 10
81.90513800000003
 20
-1.998113500000002
 30
0.0
 11
83.17318100000001
 21
-1.899624499999999
 31
0.0
  0
LINE
  5
342A
330
BF7
100
AcDbEntity
  8
1
100
AcDbLine
 10
80.64201200000002
 20
-1.843719500000002
 30
0.0
 11
81.90513800000003
 21
-1.998113500000002
 31
0.0
  0
LINE
  5
342B
330
BF7
100
AcDbEntity
  8
1
100
AcDbLine
 10
79.41364800000002
 20
-1.473623500000002
 30
0.0
 11
80.64201200000002
 21
-1.843719500000002
 31
0.0
  0
LINE
  5
342C
330
BF7
100
AcDbEntity
  8
1
100
AcDbLine
 10
78.15850400000002
 20
-0.9177744999999999
 30
0.0
 11
79.41364800000002
 21
-1.473623500000002
 31
0.0
  0
LINE
  5
342D
330
BF7
100
AcDbEntity
  8
1
100
AcDbLine
 10
76.936279
 20
-0.2689765000000044
 30
0.0
 11
78.15850400000002
 21
-0.9177744999999999
 31
0.0
  0
LINE
  5
342E
330
BF7
100
AcDbEntity
  8
1
100
AcDbLine
 10
75.70218600000003
 20
0.4162955000000004
 30
0.0
 11
76.936279
 21
-0.2689765000000044
 31
0.0
  0
LINE
  5
342F
330
BF7
100
AcDbEntity
  8
1
100
AcDbLine
 10
74.43013400000002
 20
1.069544499999999
 30
0.0
 11
75.70218600000003
 21
0.4162955000000004
 31
0.0
  0
LINE
  5
3430
330
BF7
100
AcDbEntity
  8
1
100
AcDbLine
 10
73.19208000000002
 20
1.577540499999994
 30
0.0
 11
74.43013400000002
 21
1.069544499999999
 31
0.0
  0
LINE
  5
3431
330
BF7
100
AcDbEntity
  8
1
100
AcDbLine
 10
71.91674599999998
 20
1.906229499999994
 30
0.0
 11
73.19208000000002
 21
1.577540499999994
 31
0.0
  0
LINE
  5
3432
330
BF7
100
AcDbEntity
  8
1
100
AcDbLine
 10
70.81119299999997
 20
1.988598499999998
 30
0.0
 11
71.91674599999998
 21
1.906229499999994
 31
0.0
  0
LINE
  5
3433
330
BF7
100
AcDbEntity
  8
1
100
AcDbLine
 10
59.451022
 20
-1.999048500000004
 30
0.0
 11
60.688955
 21
-1.899663500000002
 31
0.0
  0
LINE
  5
3434
330
BF7
100
AcDbEntity
  8
1
100
AcDbLine
 10
58.187703
 20
-1.853306500000002
 30
0.0
 11
59.451022
 21
-1.999048500000004
 31
0.0
  0
LINE
  5
3435
330
BF7
100
AcDbEntity
  8
1
100
AcDbLine
 10
56.95918
 20
-1.490410499999999
 30
0.0
 11
58.187703
 21
-1.853306500000002
 31
0.0
  0
LINE
  5
3436
330
BF7
100
AcDbEntity
  8
1
100
AcDbLine
 10
55.69374200000002
 20
-0.9347935000000012
 30
0.0
 11
56.95918
 21
-1.490410499999999
 31
0.0
  0
LINE
  5
3437
330
BF7
100
AcDbEntity
  8
1
100
AcDbLine
 10
54.46203400000001
 20
-0.2827175000000004
 30
0.0
 11
55.69374200000002
 21
-0.9347935000000012
 31
0.0
  0
LINE
  5
3438
330
BF7
100
AcDbEntity
  8
1
100
AcDbLine
 10
53.202796
 20
0.4164714999999968
 30
0.0
 11
54.46203400000001
 21
-0.2827175000000004
 31
0.0
  0
LINE
  5
3439
330
BF7
100
AcDbEntity
  8
1
100
AcDbLine
 10
51.976369
 20
1.048133499999996
 30
0.0
 11
53.202796
 21
0.4164714999999968
 31
0.0
  0
LINE
  5
343A
330
BF7
100
AcDbEntity
  8
1
100
AcDbLine
 10
50.738388
 20
1.561901499999999
 30
0.0
 11
51.976369
 21
1.048133499999996
 31
0.0
  0
LINE
  5
343B
330
BF7
100
AcDbEntity
  8
1
100
AcDbLine
 10
49.463126
 20
1.898436499999995
 30
0.0
 11
50.738388
 21
1.561901499999999
 31
0.0
  0
LINE
  5
343C
330
BF7
100
AcDbEntity
  8
1
100
AcDbLine
 10
48.31272399999999
 20
1.9921015
 30
0.0
 11
49.463126
 21
1.898436499999995
 31
0.0
  0
LINE
  5
343D
330
BF7
100
AcDbEntity
  8
1
100
AcDbLine
 10
35.73367100000002
 20
-1.862659500000004
 30
0.0
 11
38.16193900000003
 21
-1.8997935
 31
0.0
  0
LINE
  5
343E
330
BF7
100
AcDbEntity
  8
1
100
AcDbLine
 10
34.50519700000001
 20
-1.507145500000003
 30
0.0
 11
35.73367100000002
 21
-1.862659500000004
 31
0.0
  0
LINE
  5
343F
330
BF7
100
AcDbEntity
  8
1
100
AcDbLine
 10
33.23981900000001
 20
-0.9570645000000046
 30
0.0
 11
34.50519700000001
 21
-1.507145500000003
 31
0.0
  0
LINE
  5
3440
330
BF7
100
AcDbEntity
  8
1
100
AcDbLine
 10
32.00819000000001
 20
-0.3077125000000009
 30
0.0
 11
33.23981900000001
 21
-0.9570645000000046
 31
0.0
  0
LINE
  5
3441
330
BF7
100
AcDbEntity
  8
1
100
AcDbLine
 10
30.749013
 20
0.3917265000000007
 30
0.0
 11
32.00819000000001
 21
-0.3077125000000009
 31
0.0
  0
LINE
  5
3442
330
BF7
100
AcDbEntity
  8
1
100
AcDbLine
 10
29.522653
 20
1.026538499999996
 30
0.0
 11
30.749013
 21
0.3917265000000007
 31
0.0
  0
LINE
  5
3443
330
BF7
100
AcDbEntity
  8
1
100
AcDbLine
 10
28.28472600000001
 20
1.546001499999999
 30
0.0
 11
29.522653
 21
1.026538499999996
 31
0.0
  0
LINE
  5
3444
330
BF7
100
AcDbEntity
  8
1
100
AcDbLine
 10
27.00948300000002
 20
1.890339499999999
 30
0.0
 11
28.28472600000001
 21
1.546001499999999
 31
0.0
  0
LINE
  5
3445
330
BF7
100
AcDbEntity
  8
1
100
AcDbLine
 10
25.814249
 20
1.995904499999993
 30
0.0
 11
27.00948300000002
 21
1.890339499999999
 31
0.0
  0
LINE
  5
3446
330
BF7
100
AcDbEntity
  8
1
100
AcDbLine
 10
14.54297100000001
 20
-1.999969500000002
 30
0.0
 11
16.03659400000001
 21
-1.8128865
 31
0.0
  0
LINE
  5
3447
330
BF7
100
AcDbEntity
  8
1
100
AcDbLine
 10
13.27977300000002
 20
-1.871740500000004
 30
0.0
 11
14.54297100000001
 21
-1.999969500000002
 31
0.0
  0
LINE
  5
3448
330
BF7
100
AcDbEntity
  8
1
100
AcDbLine
 10
12.051415
 20
-1.523711499999999
 30
0.0
 11
13.27977300000002
 21
-1.871740500000004
 31
0.0
  0
LINE
  5
3449
330
BF7
100
AcDbEntity
  8
1
100
AcDbLine
 10
10.78996100000002
 20
-0.9811605000000014
 30
0.0
 11
12.051415
 21
-1.523711499999999
 31
0.0
  0
LINE
  5
344A
330
BF7
100
AcDbEntity
  8
1
100
AcDbLine
 10
9.561959000000015
 20
-0.3368535000000037
 30
0.0
 11
10.78996100000002
 21
-0.9811605000000014
 31
0.0
  0
LINE
  5
344B
330
BF7
100
AcDbEntity
  8
1
100
AcDbLine
 10
8.496290000000001
 20
0.2560944999999997
 30
0.0
 11
9.561959000000015
 21
-0.3368535000000037
 31
0.0
  0
LINE
  5
344C
330
BF7
100
AcDbEntity
  8
1
100
AcDbLine
 10
7.450605000000008
 20
0.8155564999999993
 30
0.0
 11
8.496290000000001
 21
0.2560944999999997
 31
0.0
  0
LINE
  5
344D
330
BF7
100
AcDbEntity
  8
1
100
AcDbLine
 10
6.403510000000013
 20
1.306154499999998
 30
0.0
 11
7.450605000000008
 21
0.8155564999999993
 31
0.0
  0
LINE
  5
344E
330
BF7
100
AcDbEntity
  8
1
100
AcDbLine
 10
6.142370000000012
 20
1.412685499999994
 30
0.0
 11
6.403510000000013
 21
1.306154499999998
 31
0.0
  0
LINE
  5
344F
330
BF7
100
AcDbEntity
  8
1
100
AcDbLine
 10
136.095555
 20
1.779538499999995
 30
0.0
 11
137.242893
 21
1.975980499999995
 31
0.0
  0
LINE
  5
3450
330
BF7
100
AcDbEntity
  8
1
100
AcDbLine
 10
134.820778
 20
1.351851499999997
 30
0.0
 11
136.095555
 21
1.779538499999995
 31
0.0
  0
LINE
  5
3451
330
BF7
100
AcDbEntity
  8
1
100
AcDbLine
 10
134.54095
 20
1.221272499999994
 30
0.0
 11
134.820778
 21
1.351851499999997
 31
0.0
  0
LINE
  5
3452
330
BF7
100
AcDbEntity
  8
1
100
AcDbLine
 10
124.828692
 20
-1.770828500000003
 30
0.0
 11
126.550087
 21
-1.972327500000002
 31
0.0
  0
LINE
  5
3453
330
BF7
100
AcDbEntity
  8
1
100
AcDbLine
 10
123.600061
 20
-1.352676500000004
 30
0.0
 11
124.828692
 21
-1.770828500000003
 31
0.0
  0
LINE
  5
3454
330
BF7
100
AcDbEntity
  8
1
100
AcDbLine
 10
122.33392
 20
-0.7569495000000011
 30
0.0
 11
123.600061
 21
-1.352676500000004
 31
0.0
  0
LINE
  5
3455
330
BF7
100
AcDbEntity
  8
1
100
AcDbLine
 10
121.101364
 20
-0.0871565000000025
 30
0.0
 11
122.33392
 21
-0.7569495000000011
 31
0.0
  0
LINE
  5
3456
330
BF7
100
AcDbEntity
  8
1
100
AcDbLine
 10
119.830778
 20
0.6119804999999979
 30
0.0
 11
121.101364
 21
-0.0871565000000025
 31
0.0
  0
LINE
  5
3457
330
BF7
100
AcDbEntity
  8
1
100
AcDbLine
 10
118.593959
 20
1.219259499999995
 30
0.0
 11
119.830778
 21
0.6119804999999979
 31
0.0
  0
LINE
  5
3458
330
BF7
100
AcDbEntity
  8
1
100
AcDbLine
 10
117.319691
 20
1.693736499999995
 30
0.0
 11
118.593959
 21
1.219259499999995
 31
0.0
  0
LINE
  5
3459
330
BF7
100
AcDbEntity
  8
1
100
AcDbLine
 10
116.080183
 20
1.953435499999995
 30
0.0
 11
117.319691
 21
1.693736499999995
 31
0.0
  0
LINE
  5
345A
330
BF7
100
AcDbEntity
  8
1
100
AcDbLine
 10
114.804122
 20
1.980880499999995
 30
0.0
 11
116.080183
 21
1.953435499999995
 31
0.0
  0
LINE
  5
345B
330
BF7
100
AcDbEntity
  8
1
100
AcDbLine
 10
113.564312
 20
1.771230499999995
 30
0.0
 11
114.804122
 21
1.980880499999995
 31
0.0
  0
LINE
  5
345C
330
BF7
100
AcDbEntity
  8
1
100
AcDbLine
 10
112.289632
 20
1.338616499999994
 30
0.0
 11
113.564312
 21
1.771230499999995
 31
0.0
  0
LINE
  5
345D
330
BF7
100
AcDbEntity
  8
1
100
AcDbLine
 10
112.032538
 20
1.217963499999997
 30
0.0
 11
112.289632
 21
1.338616499999994
 31
0.0
  0
LINE
  5
345E
330
BF7
100
AcDbEntity
  8
1
100
AcDbLine
 10
102.2978
 20
-1.7623685
 30
0.0
 11
104.051509
 21
-1.9716005
 31
0.0
  0
LINE
  5
345F
330
BF7
100
AcDbEntity
  8
1
100
AcDbLine
 10
101.068963
 20
-1.339362500000002
 30
0.0
 11
102.2978
 21
-1.7623685
 31
0.0
  0
LINE
  5
3460
330
BF7
100
AcDbEntity
  8
1
100
AcDbLine
 10
99.80273700000005
 20
-0.7403234999999988
 30
0.0
 11
101.068963
 21
-1.339362500000002
 31
0.0
  0
LINE
  5
3461
330
BF7
100
AcDbEntity
  8
1
100
AcDbLine
 10
98.570145
 20
-0.0692065000000035
 30
0.0
 11
99.80273700000005
 21
-0.7403234999999988
 31
0.0
  0
LINE
  5
3462
330
BF7
100
AcDbEntity
  8
1
100
AcDbLine
 10
97.299559
 20
0.6290064999999993
 30
0.0
 11
98.570145
 21
-0.0692065000000035
 31
0.0
  0
LINE
  5
3463
330
BF7
100
AcDbEntity
  8
1
100
AcDbLine
 10
96.06276400000005
 20
1.233369499999998
 30
0.0
 11
97.299559
 21
0.6290064999999993
 31
0.0
  0
LINE
  5
3464
330
BF7
100
AcDbEntity
  8
1
100
AcDbLine
 10
94.78855700000002
 20
1.703162499999995
 30
0.0
 11
96.06276400000005
 21
1.233369499999998
 31
0.0
  0
LINE
  5
3465
330
BF7
100
AcDbEntity
  8
1
100
AcDbLine
 10
93.54912199999999
 20
1.957180499999995
 30
0.0
 11
94.78855700000002
 21
1.703162499999995
 31
0.0
  0
LINE
  5
3466
330
BF7
100
AcDbEntity
  8
1
100
AcDbLine
 10
92.283659
 20
1.979202499999995
 30
0.0
 11
93.54912199999999
 21
1.957180499999995
 31
0.0
  0
LINE
  5
3467
330
BF7
100
AcDbEntity
  8
1
100
AcDbLine
 10
91.053586
 20
1.768241499999994
 30
0.0
 11
92.283659
 21
1.979202499999995
 31
0.0
  0
LINE
  5
3468
330
BF7
100
AcDbEntity
  8
1
100
AcDbLine
 10
89.81485400000002
 20
1.348651499999999
 30
0.0
 11
91.053586
 21
1.768241499999994
 31
0.0
  0
LINE
  5
3469
330
BF7
100
AcDbEntity
  8
1
100
AcDbLine
 10
89.54403700000002
 20
1.221702499999995
 30
0.0
 11
89.81485400000002
 21
1.348651499999999
 31
0.0
  0
LINE
  5
346A
330
BF7
100
AcDbEntity
  8
1
100
AcDbLine
 10
79.84439899999998
 20
-1.774377500000003
 30
0.0
 11
81.551235
 21
-1.972696500000001
 31
0.0
  0
LINE
  5
346B
330
BF7
100
AcDbEntity
  8
1
100
AcDbLine
 10
78.61575500000002
 20
-1.358369500000002
 30
0.0
 11
79.84439899999998
 21
-1.774377500000003
 31
0.0
  0
LINE
  5
346C
330
BF7
100
AcDbEntity
  8
1
100
AcDbLine
 10
77.34927499999997
 20
-0.7637375000000013
 30
0.0
 11
78.61575500000002
 21
-1.358369500000002
 31
0.0
  0
LINE
  5
346D
330
BF7
100
AcDbEntity
  8
1
100
AcDbLine
 10
76.11631999999999
 20
-0.094277500000004
 30
0.0
 11
77.34927499999997
 21
-0.7637375000000013
 31
0.0
  0
LINE
  5
346E
330
BF7
100
AcDbEntity
  8
1
100
AcDbLine
 10
74.84616999999999
 20
0.6045564999999975
 30
0.0
 11
76.11631999999999
 21
-0.094277500000004
 31
0.0
  0
LINE
  5
346F
330
BF7
100
AcDbEntity
  8
1
100
AcDbLine
 10
73.609884
 20
1.212819499999998
 30
0.0
 11
74.84616999999999
 21
0.6045564999999975
 31
0.0
  0
LINE
  5
3470
330
BF7
100
AcDbEntity
  8
1
100
AcDbLine
 10
72.33538500000001
 20
1.689715499999993
 30
0.0
 11
73.609884
 21
1.212819499999998
 31
0.0
  0
LINE
  5
3471
330
BF7
100
AcDbEntity
  8
1
100
AcDbLine
 10
71.09555100000001
 20
1.951866499999993
 30
0.0
 11
72.33538500000001
 21
1.689715499999993
 31
0.0
  0
LINE
  5
3472
330
BF7
100
AcDbEntity
  8
1
100
AcDbLine
 10
69.819563
 20
1.981906499999995
 30
0.0
 11
71.09555100000001
 21
1.951866499999993
 31
0.0
  0
LINE
  5
3473
330
BF7
100
AcDbEntity
  8
1
100
AcDbLine
 10
68.57984900000001
 20
1.774794499999995
 30
0.0
 11
69.819563
 21
1.981906499999995
 31
0.0
  0
LINE
  5
3474
330
BF7
100
AcDbEntity
  8
1
100
AcDbLine
 10
67.30489100000001
 20
1.344157499999997
 30
0.0
 11
68.57984900000001
 21
1.774794499999995
 31
0.0
  0
LINE
  5
3475
330
BF7
100
AcDbEntity
  8
1
100
AcDbLine
 10
67.05942399999999
 20
1.229218499999997
 30
0.0
 11
67.30489100000001
 21
1.344157499999997
 31
0.0
  0
LINE
  5
3476
330
BF7
100
AcDbEntity
  8
1
100
AcDbLine
 10
57.31313200000001
 20
-1.765926500000002
 30
0.0
 11
59.05468
 21
-1.971867500000004
 31
0.0
  0
LINE
  5
3477
330
BF7
100
AcDbEntity
  8
1
100
AcDbLine
 10
56.08428200000002
 20
-1.344940500000002
 30
0.0
 11
57.31313200000001
 21
-1.765926500000002
 31
0.0
  0
LINE
  5
3478
330
BF7
100
AcDbEntity
  8
1
100
AcDbLine
 10
54.81798300000001
 20
-0.7472845000000064
 30
0.0
 11
56.08428200000002
 21
-1.344940500000002
 31
0.0
  0
LINE
  5
3479
330
BF7
100
AcDbEntity
  8
1
100
AcDbLine
 10
53.58534299999998
 20
-0.0766375000000004
 30
0.0
 11
54.81798300000001
 21
-0.7472845000000064
 31
0.0
  0
LINE
  5
347A
330
BF7
100
AcDbEntity
  8
1
100
AcDbLine
 10
52.315072
 20
0.6217034999999953
 30
0.0
 11
53.58534299999998
 21
-0.0766375000000004
 31
0.0
  0
LINE
  5
347B
330
BF7
100
AcDbEntity
  8
1
100
AcDbLine
 10
51.078568
 20
1.227153499999995
 30
0.0
 11
52.315072
 21
0.6217034999999953
 31
0.0
  0
LINE
  5
347C
330
BF7
100
AcDbEntity
  8
1
100
AcDbLine
 10
49.803803
 20
1.699311499999995
 30
0.0
 11
51.078568
 21
1.227153499999995
 31
0.0
  0
LINE
  5
347D
330
BF7
100
AcDbEntity
  8
1
100
AcDbLine
 10
48.563799
 20
1.955748499999995
 30
0.0
 11
49.803803
 21
1.699311499999995
 31
0.0
  0
LINE
  5
347E
330
BF7
100
AcDbEntity
  8
1
100
AcDbLine
 10
47.28827099999999
 20
1.979429499999993
 30
0.0
 11
48.563799
 21
1.955748499999995
 31
0.0
  0
LINE
  5
347F
330
BF7
100
AcDbEntity
  8
1
100
AcDbLine
 10
46.048945
 20
1.766642499999995
 30
0.0
 11
47.28827099999999
 21
1.979429499999993
 31
0.0
  0
LINE
  5
3480
330
BF7
100
AcDbEntity
  8
1
100
AcDbLine
 10
44.77363500000001
 20
1.330856499999998
 30
0.0
 11
46.048945
 21
1.766642499999995
 31
0.0
  0
LINE
  5
3481
330
BF7
100
AcDbEntity
  8
1
100
AcDbLine
 10
44.541116
 20
1.221312499999998
 30
0.0
 11
44.77363500000001
 21
1.330856499999998
 31
0.0
  0
LINE
  5
3482
330
BF7
100
AcDbEntity
  8
1
100
AcDbLine
 10
34.78203400000001
 20
-1.757614500000002
 30
0.0
 11
36.55617500000001
 21
-1.971276499999999
 31
0.0
  0
LINE
  5
3483
330
BF7
100
AcDbEntity
  8
1
100
AcDbLine
 10
33.55351100000002
 20
-1.331759500000001
 30
0.0
 11
34.78203400000001
 21
-1.757614500000002
 31
0.0
  0
LINE
  5
3484
330
BF7
100
AcDbEntity
  8
1
100
AcDbLine
 10
32.28704300000001
 20
-0.7303914999999998
 30
0.0
 11
33.55351100000002
 21
-1.331759500000001
 31
0.0
  0
LINE
  5
3485
330
BF7
100
AcDbEntity
  8
1
100
AcDbLine
 10
31.05400300000001
 20
-0.058502500000003
 30
0.0
 11
32.28704300000001
 21
-0.7303914999999998
 31
0.0
  0
LINE
  5
3486
330
BF7
100
AcDbEntity
  8
1
100
AcDbLine
 10
29.78374400000001
 20
0.6386204999999983
 30
0.0
 11
31.05400300000001
 21
-0.058502500000003
 31
0.0
  0
LINE
  5
3487
330
BF7
100
AcDbEntity
  8
1
100
AcDbLine
 10
28.54738500000002
 20
1.241160499999995
 30
0.0
 11
29.78374400000001
 21
0.6386204999999983
 31
0.0
  0
LINE
  5
3488
330
BF7
100
AcDbEntity
  8
1
100
AcDbLine
 10
27.27253000000001
 20
1.708721499999995
 30
0.0
 11
28.54738500000002
 21
1.241160499999995
 31
0.0
  0
LINE
  5
3489
330
BF7
100
AcDbEntity
  8
1
100
AcDbLine
 10
26.03241700000001
 20
1.959439499999998
 30
0.0
 11
27.27253000000001
 21
1.708721499999995
 31
0.0
  0
LINE
  5
348A
330
BF7
100
AcDbEntity
  8
1
100
AcDbLine
 10
24.75694900000001
 20
1.976789499999995
 30
0.0
 11
26.03241700000001
 21
1.959439499999998
 31
0.0
  0
LINE
  5
348B
330
BF7
100
AcDbEntity
  8
1
100
AcDbLine
 10
23.51772000000001
 20
1.758207499999995
 30
0.0
 11
24.75694900000001
 21
1.976789499999995
 31
0.0
  0
LINE
  5
348C
330
BF7
100
AcDbEntity
  8
1
100
AcDbLine
 10
22.24260400000002
 20
1.31750349999999
 30
0.0
 11
23.51772000000001
 21
1.758207499999995
 31
0.0
  0
LINE
  5
348D
330
BF7
100
AcDbEntity
  8
1
100
AcDbLine
 10
22.03862600000001
 20
1.220873499999995
 30
0.0
 11
22.24260400000002
 21
1.31750349999999
 31
0.0
  0
LINE
  5
348E
330
BF7
100
AcDbEntity
  8
1
100
AcDbLine
 10
12.24109500000001
 20
-1.7432115
 30
0.0
 11
14.057584
 21
-1.970256500000001
 31
0.0
  0
LINE
  5
348F
330
BF7
100
AcDbEntity
  8
1
100
AcDbLine
 10
11.00783700000001
 20
-1.312023500000002
 30
0.0
 11
12.24109500000001
 21
-1.7432115
 31
0.0
  0
LINE
  5
3490
330
BF7
100
AcDbEntity
  8
1
100
AcDbLine
 10
10.10100700000001
 20
-0.9160785000000043
 30
0.0
 11
11.00817000000001
 21
-1.312163500000004
 31
0.0
  0
LINE
  5
3491
330
BF7
100
AcDbEntity
  8
1
100
AcDbLine
 10
9.168281000000009
 20
-0.5562925000000014
 30
0.0
 11
10.10100700000001
 21
-0.9160785000000043
 31
0.0
  0
LINE
  5
3492
330
BF7
100
AcDbEntity
  8
1
100
AcDbLine
 10
8.033346000000008
 20
-0.2601565000000008
 30
0.0
 11
9.168281000000009
 21
-0.5562925000000014
 31
0.0
  0
LINE
  5
3493
330
BF7
100
AcDbEntity
  8
1
100
AcDbLine
 10
6.896073000000012
 20
-0.1509215000000061
 30
0.0
 11
8.033346000000008
 21
-0.2601565000000008
 31
0.0
  0
LINE
  5
3494
330
BF7
100
AcDbEntity
  8
1
100
AcDbLine
 10
6.370669000000003
 20
-0.5806945000000036
 30
0.0
 11
6.896073000000012
 21
-0.1509215000000061
 31
0.0
  0
LINE
  5
3495
330
BF7
100
AcDbEntity
  8
1
100
AcDbLine
 10
6.121623000000012
 20
-0.901928500000004
 30
0.0
 11
6.370669000000003
 21
-0.5806945000000036
 31
0.0
  0
LINE
  5
3496
330
BF7
100
AcDbEntity
  8
1
100
AcDbLine
 10
6.030440000000012
 20
-1.122833500000004
 30
0.0
 11
6.121623000000012
 21
-0.901928500000004
 31
0.0
  0
LINE
  5
3497
330
BF7
100
AcDbEntity
  8
1
100
AcDbLine
 10
6.024318000000008
 20
-1.3720375
 30
0.0
 11
6.030440000000012
 21
-1.122833500000004
 31
0.0
  0
LINE
  5
3498
330
BF7
100
AcDbEntity
  8
1
100
AcDbLine
 10
6.122900999999997
 20
-1.574680499999999
 30
0.0
 11
6.024318000000008
 21
-1.3720375
 31
0.0
  0
LINE
  5
3499
330
BF7
100
AcDbEntity
  8
1
100
AcDbLine
 10
6.334110000000007
 20
-1.752216499999999
 30
0.0
 11
6.122900999999997
 21
-1.574680499999999
 31
0.0
  0
LINE
  5
349A
330
BF7
100
AcDbEntity
  8
1
100
AcDbLine
 10
6.873957000000002
 20
-1.939332500000002
 30
0.0
 11
6.334110000000007
 21
-1.752216499999999
 31
0.0
  0
LINE
  5
349B
330
BF7
100
AcDbEntity
  8
1
100
AcDbLine
 10
7.713464999999997
 20
-1.998894500000002
 30
0.0
 11
6.873957000000002
 21
-1.939332500000002
 31
0.0
  0
LINE
  5
349C
330
BF7
100
AcDbEntity
  8
1
100
AcDbLine
 10
8.077329000000004
 20
-1.981523500000004
 30
0.0
 11
7.713464999999997
 21
-1.998894500000002
 31
0.0
  0
LINE
  5
349D
330
BF7
100
AcDbEntity
  8
1
100
AcDbLine
 10
9.271612000000002
 20
-1.7841185
 30
0.0
 11
8.077650000000005
 21
-1.981499499999999
 31
0.0
  0
LINE
  5
349E
330
BF7
100
AcDbEntity
  8
1
100
AcDbLine
 10
136.386162
 20
-1.715923499999995
 30
0.0
 11
137.223393
 21
-1.908114500000003
 31
0.0
  0
LINE
  5
349F
330
BF7
100
AcDbEntity
  8
1
100
AcDbLine
 10
135.548423
 20
-1.430106499999999
 30
0.0
 11
136.386162
 21
-1.715923499999995
 31
0.0
  0
LINE
  5
34A0
330
BF7
100
AcDbEntity
  8
1
100
AcDbLine
 10
134.282705
 20
-0.8558445000000034
 30
0.0
 11
135.548423
 21
-1.430106499999999
 31
0.0
  0
LINE
  5
34A1
330
BF7
100
AcDbEntity
  8
1
100
AcDbLine
 10
133.050707
 20
-0.1950255000000034
 30
0.0
 11
134.282705
 21
-0.8558445000000034
 31
0.0
  0
LINE
  5
34A2
330
BF7
100
AcDbEntity
  8
1
100
AcDbLine
 10
131.791155
 20
0.5024424999999974
 30
0.0
 11
133.050707
 21
-0.1950255000000034
 31
0.0
  0
LINE
  5
34A3
330
BF7
100
AcDbEntity
  8
1
100
AcDbLine
 10
130.564461
 20
1.122347499999995
 30
0.0
 11
131.791155
 21
0.5024424999999974
 31
0.0
  0
LINE
  5
34A4
330
BF7
100
AcDbEntity
  8
1
100
AcDbLine
 10
129.326249
 20
1.615553499999995
 30
0.0
 11
130.564461
 21
1.122347499999995
 31
0.0
  0
LINE
  5
34A5
330
BF7
100
AcDbEntity
  8
1
100
AcDbLine
 10
128.050819
 20
1.9243825
 30
0.0
 11
129.326249
 21
1.615553499999995
 31
0.0
  0
LINE
  5
34A6
330
BF7
100
AcDbEntity
  8
1
100
AcDbLine
 10
127.057384
 20
1.981179499999995
 30
0.0
 11
128.050819
 21
1.9243825
 31
0.0
  0
LINE
  5
34A7
330
BF7
100
AcDbEntity
  8
1
100
AcDbLine
 10
115.586148
 20
-1.996105500000002
 30
0.0
 11
116.900542
 21
-1.899439500000003
 31
0.0
  0
LINE
  5
34A8
330
BF7
100
AcDbEntity
  8
1
100
AcDbLine
 10
114.322781
 20
-1.828637500000002
 30
0.0
 11
115.586148
 21
-1.996105500000002
 31
0.0
  0
LINE
  5
34A9
330
BF7
100
AcDbEntity
  8
1
100
AcDbLine
 10
113.094137
 20
-1.447541499999999
 30
0.0
 11
114.322781
 21
-1.828637500000002
 31
0.0
  0
LINE
  5
34AA
330
BF7
100
AcDbEntity
  8
1
100
AcDbLine
 10
111.828541
 20
-0.878486500000001
 30
0.0
 11
113.094137
 21
-1.447541499999999
 31
0.0
  0
LINE
  5
34AB
330
BF7
100
AcDbEntity
  8
1
100
AcDbLine
 10
110.596652
 20
-0.2200455000000048
 30
0.0
 11
111.828541
 21
-0.878486500000001
 31
0.0
  0
LINE
  5
34AC
330
BF7
100
AcDbEntity
  8
1
100
AcDbLine
 10
109.337245
 20
0.4780164999999954
 30
0.0
 11
110.596652
 21
-0.2200455000000048
 31
0.0
  0
LINE
  5
34AD
330
BF7
100
AcDbEntity
  8
1
100
AcDbLine
 10
108.110696
 20
1.101370499999998
 30
0.0
 11
109.337245
 21
0.4780164999999954
 31
0.0
  0
LINE
  5
34AE
330
BF7
100
AcDbEntity
  8
1
100
AcDbLine
 10
106.872545
 20
1.600549499999995
 30
0.0
 11
108.110696
 21
1.101370499999998
 31
0.0
  0
LINE
  5
34AF
330
BF7
100
AcDbEntity
  8
1
100
AcDbLine
 10
105.597163
 20
1.917354499999994
 30
0.0
 11
106.872545
 21
1.600549499999995
 31
0.0
  0
LINE
  5
34B0
330
BF7
100
AcDbEntity
  8
1
100
AcDbLine
 10
104.558903
 20
1.983917499999995
 30
0.0
 11
105.597163
 21
1.917354499999994
 31
0.0
  0
LINE
  5
34B1
330
BF7
100
AcDbEntity
  8
1
100
AcDbLine
 10
96.401164
 20
-1.275419500000001
 30
0.0
 11
96.468517
 21
-1.247910499999999
 31
0.0
  0
LINE
  5
34B2
330
BF7
100
AcDbEntity
  8
1
100
AcDbLine
 10
93.13220200000001
 20
-1.9975255
 30
0.0
 11
94.41427
 21
-1.8998935
 31
0.0
  0
LINE
  5
34B3
330
BF7
100
AcDbEntity
  8
1
100
AcDbLine
 10
91.86884599999999
 20
-1.838744500000004
 30
0.0
 11
93.13220200000001
 21
-1.9975255
 31
0.0
  0
LINE
  5
34B4
330
BF7
100
AcDbEntity
  8
1
100
AcDbLine
 10
90.64023900000002
 20
-1.464897500000004
 30
0.0
 11
91.86884599999999
 21
-1.838744500000004
 31
0.0
  0
LINE
  5
34B5
330
BF7
100
AcDbEntity
  8
1
100
AcDbLine
 10
89.374704
 20
-0.9011475000000039
 30
0.0
 11
90.64023900000002
 21
-1.464897500000004
 31
0.0
  0
LINE
  5
34B6
330
BF7
100
AcDbEntity
  8
1
100
AcDbLine
 10
88.14286300000002
 20
-0.2451705000000039
 30
0.0
 11
89.374704
 21
-0.9011475000000039
 31
0.0
  0
LINE
  5
34B7
330
BF7
100
AcDbEntity
  8
1
100
AcDbLine
 10
86.883528
 20
0.4534234999999961
 30
0.0
 11
88.14286300000002
 21
-0.2451705000000039
 31
0.0
  0
LINE
  5
34B8
330
BF7
100
AcDbEntity
  8
1
100
AcDbLine
 10
85.65702800000002
 20
1.080178499999992
 30
0.0
 11
86.883528
 21
0.4534234999999961
 31
0.0
  0
LINE
  5
34B9
330
BF7
100
AcDbEntity
  8
1
100
AcDbLine
 10
84.418938
 20
1.585258499999999
 30
0.0
 11
85.65702800000002
 21
1.080178499999992
 31
0.0
  0
LINE
  5
34BA
330
BF7
100
AcDbEntity
  8
1
100
AcDbLine
 10
83.14360399999998
 20
1.910005499999995
 30
0.0
 11
84.418938
 21
1.585258499999999
 31
0.0
  0
LINE
  5
34BB
330
BF7
100
AcDbEntity
  8
1
100
AcDbLine
 10
82.060434
 20
1.986966499999995
 30
0.0
 11
83.14360399999998
 21
1.910005499999995
 31
0.0
  0
LINE
  5
34BC
330
BF7
100
AcDbEntity
  8
1
100
AcDbLine
 10
70.67804999999999
 20
-1.998621500000002
 30
0.0
 11
71.93004399999998
 21
-1.899899499999999
 31
0.0
  0
LINE
  5
34BD
330
BF7
100
AcDbEntity
  8
1
100
AcDbLine
 10
69.41471800000001
 20
-1.848519499999999
 30
0.0
 11
70.67804999999999
 21
-1.998621500000002
 31
0.0
  0
LINE
  5
34BE
330
BF7
100
AcDbEntity
  8
1
100
AcDbLine
 10
68.18616000000002
 20
-1.481953500000004
 30
0.0
 11
69.41471800000001
 21
-1.848519499999999
 31
0.0
  0
LINE
  5
34BF
330
BF7
100
AcDbEntity
  8
1
100
AcDbLine
 10
66.920709
 20
-0.9236055000000007
 30
0.0
 11
68.18616000000002
 21
-1.481953500000004
 31
0.0
  0
LINE
  5
34C0
330
BF7
100
AcDbEntity
  8
1
100
AcDbLine
 10
65.68896500000001
 20
-0.2702025000000034
 30
0.0
 11
66.920709
 21
-0.9236055000000007
 31
0.0
  0
LINE
  5
34C1
330
BF7
100
AcDbEntity
  8
1
100
AcDbLine
 10
64.429691
 20
0.4288154999999956
 30
0.0
 11
65.68896500000001
 21
-0.2702025000000034
 31
0.0
  0
LINE
  5
34C2
330
BF7
100
AcDbEntity
  8
1
100
AcDbLine
 10
63.20323900000001
 20
1.058867499999996
 30
0.0
 11
64.429691
 21
0.4288154999999956
 31
0.0
  0
LINE
  5
34C3
330
BF7
100
AcDbEntity
  8
1
100
AcDbLine
 10
61.965222
 20
1.569755499999995
 30
0.0
 11
63.20323900000001
 21
1.058867499999996
 31
0.0
  0
LINE
  5
34C4
330
BF7
100
AcDbEntity
  8
1
100
AcDbLine
 10
60.68993599999998
 20
1.902372499999994
 30
0.0
 11
61.965222
 21
1.569755499999995
 31
0.0
  0
LINE
  5
34C5
330
BF7
100
AcDbEntity
  8
1
100
AcDbLine
 10
59.561953
 20
1.990312499999996
 30
0.0
 11
60.68993599999998
 21
1.902372499999994
 31
0.0
  0
LINE
  5
34C6
330
BF7
100
AcDbEntity
  8
1
100
AcDbLine
 10
46.96071100000001
 20
-1.8580235
 30
0.0
 11
49.43359799999999
 21
-1.899917499999999
 31
0.0
  0
LINE
  5
34C7
330
BF7
100
AcDbEntity
  8
1
100
AcDbLine
 10
45.73222499999999
 20
-1.498818500000002
 30
0.0
 11
46.96071100000001
 21
-1.8580235
 31
0.0
  0
LINE
  5
34C8
330
BF7
100
AcDbEntity
  8
1
100
AcDbLine
 10
44.46682299999999
 20
-0.9459605000000015
 30
0.0
 11
45.73222499999999
 21
-1.498818500000002
 31
0.0
  0
LINE
  5
34C9
330
BF7
100
AcDbEntity
  8
1
100
AcDbLine
 10
43.235151
 20
-0.2952405000000056
 30
0.0
 11
44.46682299999999
 21
-0.9459605000000015
 31
0.0
  0
LINE
  5
34CA
330
BF7
100
AcDbEntity
  8
1
100
AcDbLine
 10
41.97593799999999
 20
0.4040864999999985
 30
0.0
 11
43.235151
 21
-0.2952405000000056
 31
0.0
  0
LINE
  5
34CB
330
BF7
100
AcDbEntity
  8
1
100
AcDbLine
 10
40.74954700000001
 20
1.037336499999995
 30
0.0
 11
41.97593799999999
 21
0.4040864999999985
 31
0.0
  0
LINE
  5
34CC
330
BF7
100
AcDbEntity
  8
1
100
AcDbLine
 10
39.51160200000001
 20
1.553968499999995
 30
0.0
 11
40.74954700000001
 21
1.037336499999995
 31
0.0
  0
LINE
  5
34CD
330
BF7
100
AcDbEntity
  8
1
100
AcDbLine
 10
38.23632900000001
 20
1.894421499999995
 30
0.0
 11
39.51160200000001
 21
1.553968499999995
 31
0.0
  0
LINE
  5
34CE
330
BF7
100
AcDbEntity
  8
1
100
AcDbLine
 10
37.06348400000003
 20
1.993966499999995
 30
0.0
 11
38.23632900000001
 21
1.894421499999995
 31
0.0
  0
LINE
  5
34CF
330
BF7
100
AcDbEntity
  8
1
100
AcDbLine
 10
24.50684400000002
 20
-1.867258500000004
 30
0.0
 11
26.89028600000002
 21
-1.8999115
 31
0.0
  0
LINE
  5
34D0
330
BF7
100
AcDbEntity
  8
1
100
AcDbLine
 10
23.278588
 20
-1.515563500000002
 30
0.0
 11
24.50684400000002
 21
-1.867258500000004
 31
0.0
  0
LINE
  5
34D1
330
BF7
100
AcDbEntity
  8
1
100
AcDbLine
 10
22.02362500000001
 20
-0.9734085000000051
 30
0.0
 11
23.278588
 21
-1.515563500000002
 31
0.0
  0
LINE
  5
34D2
330
BF7
100
AcDbEntity
  8
1
100
AcDbLine
 10
20.801607
 20
-0.3314095000000066
 30
0.0
 11
22.02362500000001
 21
-0.9734085000000051
 31
0.0
  0
LINE
  5
34D3
330
BF7
100
AcDbEntity
  8
1
100
AcDbLine
 10
19.56771299999999
 20
0.3543205
 30
0.0
 11
20.801607
 21
-0.3314095000000066
 31
0.0
  0
LINE
  5
34D4
330
BF7
100
AcDbEntity
  8
1
100
AcDbLine
 10
18.295867
 20
1.0156445
 30
0.0
 11
19.56771299999999
 21
0.3543205
 31
0.0
  0
LINE
  5
34D5
330
BF7
100
AcDbEntity
  8
1
100
AcDbLine
 10
17.057983
 20
1.537929499999995
 30
0.0
 11
18.295867
 21
1.0156445
 31
0.0
  0
LINE
  5
34D6
330
BF7
100
AcDbEntity
  8
1
100
AcDbLine
 10
15.78277000000001
 20
1.886160499999995
 30
0.0
 11
17.057983
 21
1.537929499999995
 31
0.0
  0
LINE
  5
34D7
330
BF7
100
AcDbEntity
  8
1
100
AcDbLine
 10
14.56295600000001
 20
1.998115499999993
 30
0.0
 11
15.78277000000001
 21
1.886160499999995
 31
0.0
  0
LINE
  5
34D8
330
BF7
100
AcDbEntity
  8
1
100
AcDbLine
 10
137.9912
 20
0.0244524999999953
 30
0.0
 11
137.948712
 21
0.1619024999999929
 31
0.0
  0
LINE
  5
34D9
330
BF7
100
AcDbEntity
  8
1
100
AcDbLine
 10
137.948712
 20
0.1619024999999929
 30
0.0
 11
137.821443
 21
0.636321499999994
 31
0.0
  0
LINE
  5
34DA
330
BF7
100
AcDbEntity
  8
1
100
AcDbLine
 10
137.398746
 20
1.610723499999995
 30
0.0
 11
137.242893
 21
1.975980499999995
 31
0.0
  0
LINE
  5
34DB
330
BF7
100
AcDbEntity
  8
1
100
AcDbLine
 10
137.576133
 20
1.201082499999998
 30
0.0
 11
137.398746
 21
1.610723499999995
 31
0.0
  0
LINE
  5
34DC
330
BF7
100
AcDbEntity
  8
1
100
AcDbLine
 10
137.821443
 20
0.636321499999994
 30
0.0
 11
137.576133
 21
1.201082499999998
 31
0.0
  0
LINE
  5
34DD
330
BF7
100
AcDbEntity
  8
1
100
AcDbLine
 10
137.042833
 20
-0.9780995000000023
 30
0.0
 11
137.017955
 21
-0.7600685000000027
 31
0.0
  0
LINE
  5
34DE
330
BF7
100
AcDbEntity
  8
1
100
AcDbLine
 10
137.184878
 20
-1.4696695
 30
0.0
 11
137.042833
 21
-0.9780995000000023
 31
0.0
  0
LINE
  5
34DF
330
BF7
100
AcDbEntity
  8
1
100
AcDbLine
 10
137.259292
 20
-1.604932500000003
 30
0.0
 11
137.184878
 21
-1.4696695
 31
0.0
  0
LINE
  5
34E0
330
BF7
100
AcDbEntity
  8
1
100
AcDbLine
 10
137.017955
 20
-0.7600685000000027
 30
0.0
 11
137.969544
 21
-0.0156885000000031
 31
0.0
  0
LINE
  5
34E1
330
BF7
100
AcDbEntity
  8
1
100
AcDbLine
 10
137.969544
 20
-0.0156885000000031
 30
0.0
 11
137.9912
 21
0.0244524999999953
 31
0.0
  0
LINE
  5
34E2
330
BF7
100
AcDbEntity
  8
1
100
AcDbLine
 10
137.9912
 20
0.0244524999999953
 30
0.0
 11
137.994397
 21
0.0097614999999962
 31
0.0
  0
LINE
  5
34E3
330
BF7
100
AcDbEntity
  8
1
100
AcDbLine
 10
137.61133
 20
-0.8294734999999986
 30
0.0
 11
137.614939
 21
-0.8237265000000029
 31
0.0
  0
LINE
  5
34E4
330
BF7
100
AcDbEntity
  8
1
100
AcDbLine
 10
137.570199
 20
-0.8765305000000012
 30
0.0
 11
137.61133
 21
-0.8294734999999986
 31
0.0
  0
LINE
  5
34E5
330
BF7
100
AcDbEntity
  8
1
100
AcDbLine
 10
137.510101
 20
-0.9007265000000046
 30
0.0
 11
137.570199
 21
-0.8765305000000012
 31
0.0
  0
LINE
  5
34E6
330
BF7
100
AcDbEntity
  8
1
100
AcDbLine
 10
137.458287
 20
-0.882713500000001
 30
0.0
 11
137.510101
 21
-0.9007265000000046
 31
0.0
  0
LINE
  5
34E7
330
BF7
100
AcDbEntity
  8
1
100
AcDbLine
 10
137.421395
 20
-0.8378345000000065
 30
0.0
 11
137.458287
 21
-0.882713500000001
 31
0.0
  0
LINE
  5
34E8
330
BF7
100
AcDbEntity
  8
1
100
AcDbLine
 10
137.399061
 20
-0.7801375000000022
 30
0.0
 11
137.421395
 21
-0.8378345000000065
 31
0.0
  0
LINE
  5
34E9
330
BF7
100
AcDbEntity
  8
1
100
AcDbLine
 10
137.388717
 20
-0.7174385000000038
 30
0.0
 11
137.399061
 21
-0.7801375000000022
 31
0.0
  0
LINE
  5
34EA
330
BF7
100
AcDbEntity
  8
1
100
AcDbLine
 10
137.388475
 20
-0.6521315000000029
 30
0.0
 11
137.388717
 21
-0.7174385000000038
 31
0.0
  0
LINE
  5
34EB
330
BF7
100
AcDbEntity
  8
1
100
AcDbLine
 10
137.398722
 20
-0.5825865000000015
 30
0.0
 11
137.388475
 21
-0.6521315000000029
 31
0.0
  0
LINE
  5
34EC
330
BF7
100
AcDbEntity
  8
1
100
AcDbLine
 10
137.422412
 20
-0.5105645000000047
 30
0.0
 11
137.398722
 21
-0.5825865000000015
 31
0.0
  0
LINE
  5
34ED
330
BF7
100
AcDbEntity
  8
1
100
AcDbLine
 10
137.454484
 20
-0.4555115000000002
 30
0.0
 11
137.422412
 21
-0.5105645000000047
 31
0.0
  0
LINE
  5
34EE
330
BF7
100
AcDbEntity
  8
1
100
AcDbLine
 10
137.498643
 20
-0.4144985000000009
 30
0.0
 11
137.454484
 21
-0.4555115000000002
 31
0.0
  0
LINE
  5
34EF
330
BF7
100
AcDbEntity
  8
1
100
AcDbLine
 10
137.558862
 20
-0.4019895000000028
 30
0.0
 11
137.498643
 21
-0.4144985000000009
 31
0.0
  0
LINE
  5
34F0
330
BF7
100
AcDbEntity
  8
1
100
AcDbLine
 10
137.6068
 20
-0.4284085000000033
 30
0.0
 11
137.558862
 21
-0.4019895000000028
 31
0.0
  0
LINE
  5
34F1
330
BF7
100
AcDbEntity
  8
1
100
AcDbLine
 10
137.647447
 20
-0.495028500000004
 30
0.0
 11
137.6068
 21
-0.4284085000000033
 31
0.0
  0
LINE
  5
34F2
330
BF7
100
AcDbEntity
  8
1
100
AcDbLine
 10
137.651783
 20
-0.5075915000000002
 30
0.0
 11
137.647447
 21
-0.495028500000004
 31
0.0
  0
LINE
  5
34F3
330
BF7
100
AcDbEntity
  8
1
100
AcDbLine
 10
137.6647909999999
 20
-0.5683495000000001
 30
0.0
 11
137.651783
 21
-0.5075915000000002
 31
0.0
  0
LINE
  5
34F4
330
BF7
100
AcDbEntity
  8
1
100
AcDbLine
 10
137.667576
 20
-0.6316994999999999
 30
0.0
 11
137.6647909999999
 21
-0.5683495000000001
 31
0.0
  0
LINE
  5
34F5
330
BF7
100
AcDbEntity
  8
1
100
AcDbLine
 10
137.660334
 20
-0.6994585000000058
 30
0.0
 11
137.667576
 21
-0.6316994999999999
 31
0.0
  0
LINE
  5
34F6
330
BF7
100
AcDbEntity
  8
1
100
AcDbLine
 10
137.6459929999999
 20
-0.7555175000000001
 30
0.0
 11
137.660334
 21
-0.6994585000000058
 31
0.0
  0
LINE
  5
34F7
330
BF7
100
AcDbEntity
  8
1
100
AcDbLine
 10
137.994397
 20
0.0097614999999962
 30
0.0
 11
137.6459929999999
 21
-0.7555175000000001
 31
0.0
  0
LINE
  5
34F8
330
BF7
100
AcDbEntity
  8
1
100
AcDbLine
 10
137.994397
 20
0.0097614999999962
 30
0.0
 11
137.994034
 21
-0.0097625000000008
 31
0.0
  0
LINE
  5
34F9
330
BF7
100
AcDbEntity
  8
1
100
AcDbLine
 10
137.990667
 20
-0.0244545000000009
 30
0.0
 11
137.994034
 21
-0.0097625000000008
 31
0.0
  0
LINE
  5
34FA
330
BF7
100
AcDbEntity
  8
1
100
AcDbLine
 10
137.990667
 20
-0.0244545000000009
 30
0.0
 11
137.947598
 21
-0.1619035000000046
 31
0.0
  0
LINE
  5
34FB
330
BF7
100
AcDbEntity
  8
1
100
AcDbLine
 10
137.947598
 20
-0.1619035000000046
 30
0.0
 11
137.816501
 21
-0.6363234999999996
 31
0.0
  0
LINE
  5
34FC
330
BF7
100
AcDbEntity
  8
1
100
AcDbLine
 10
137.401701
 20
-1.610724499999999
 30
0.0
 11
137.248537
 21
-1.975982500000004
 31
0.0
  0
LINE
  5
34FD
330
BF7
100
AcDbEntity
  8
1
100
AcDbLine
 10
137.5757939999999
 20
-1.201083500000001
 30
0.0
 11
137.401701
 21
-1.610724499999999
 31
0.0
  0
LINE
  5
34FE
330
BF7
100
AcDbEntity
  8
1
100
AcDbLine
 10
137.816501
 20
-0.6363234999999996
 30
0.0
 11
137.5757939999999
 21
-1.201083500000001
 31
0.0
  0
LINE
  5
34FF
330
BF7
100
AcDbEntity
  8
1
100
AcDbLine
 10
137.248537
 20
-1.975982500000004
 30
0.0
 11
137.223393
 21
-1.908114500000003
 31
0.0
  0
LINE
  5
3500
330
BF7
100
AcDbEntity
  8
1
100
AcDbLine
 10
137.256167
 20
-1.767461499999999
 30
0.0
 11
137.256046
 21
-1.765000500000002
 31
0.0
  0
LINE
  5
3501
330
BF7
100
AcDbEntity
  8
1
100
AcDbLine
 10
137.253357
 20
-1.7957305
 30
0.0
 11
137.256167
 21
-1.767461499999999
 31
0.0
  0
LINE
  5
3502
330
BF7
100
AcDbEntity
  8
1
100
AcDbLine
 10
137.244589
 20
-1.835253500000003
 30
0.0
 11
137.253357
 21
-1.7957305
 31
0.0
  0
LINE
  5
3503
330
BF7
100
AcDbEntity
  8
1
100
AcDbLine
 10
137.223393
 20
-1.908114500000003
 30
0.0
 11
137.244589
 21
-1.835253500000003
 31
0.0
  0
LINE
  5
3504
330
BF7
100
AcDbEntity
  8
1
100
AcDbLine
 10
137.256046
 20
-1.765000500000002
 30
0.0
 11
137.259292
 21
-1.604932500000003
 31
0.0
  0
LINE
  5
3505
330
BF7
100
AcDbEntity
  8
1
100
AcDbLine
 10
137.614939
 20
-0.8237265000000029
 30
0.0
 11
137.259292
 21
-1.604932500000003
 31
0.0
  0
LINE
  5
3506
330
BF7
100
AcDbEntity
  8
1
100
AcDbLine
 10
137.614939
 20
-0.8237265000000029
 30
0.0
 11
137.6459929999999
 21
-0.7555175000000001
 31
0.0
  0
LINE
  5
3507
330
BF7
100
AcDbEntity
  8
SK1
100
AcDbLine
 10
-35.32426599999999
 20
1.287557499999998
 30
0.0
 11
-35.32265199999999
 21
0.8179424999999973
 31
0.0
  0
LINE
  5
3508
330
BF7
100
AcDbEntity
  8
SK1
100
AcDbLine
 10
-35.32656999999999
 20
1.7211575
 30
0.0
 11
-35.32426599999999
 21
1.287557499999998
 31
0.0
  0
LINE
  5
3509
330
BF7
100
AcDbEntity
  8
1
100
AcDbLine
 10
16.542365
 20
1.679693499999999
 30
0.0
 11
17.687256
 21
1.280417499999997
 31
0.0
  0
LINE
  5
350A
330
BF7
100
AcDbEntity
  8
1
100
AcDbLine
 10
17.81223000000001
 20
1.2314015
 30
0.0
 11
17.937205
 21
1.182385499999994
 31
0.0
  0
LINE
  5
350B
330
BF7
100
AcDbEntity
  8
1
100
AcDbLine
 10
17.687256
 20
1.280417499999997
 30
0.0
 11
17.81223000000001
 21
1.2314015
 31
0.0
  0
LINE
  5
350C
330
BF7
100
AcDbEntity
  8
1
100
AcDbLine
 10
40.35474299999999
 20
1.210166499999995
 30
0.0
 11
40.43680000000001
 21
1.182137499999998
 31
0.0
  0
LINE
  5
350D
330
BF7
100
AcDbEntity
  8
1
100
AcDbLine
 10
40.27267499999999
 20
1.238192499999995
 30
0.0
 11
40.35474299999999
 21
1.210166499999995
 31
0.0
  0
LINE
  5
350E
330
BF7
100
AcDbEntity
  8
1
100
AcDbLine
 10
62.85551400000001
 20
1.210075499999998
 30
0.0
 11
62.935378
 21
1.182358499999998
 31
0.0
  0
LINE
  5
350F
330
BF7
100
AcDbEntity
  8
1
100
AcDbLine
 10
62.775649
 20
1.237793499999997
 30
0.0
 11
62.85551400000001
 21
1.210075499999998
 31
0.0
  0
LINE
  5
3510
330
BF7
100
AcDbEntity
  8
1
100
AcDbLine
 10
85.35788199999997
 20
1.209424499999997
 30
0.0
 11
85.43367700000002
 21
1.182703499999995
 31
0.0
  0
LINE
  5
3511
330
BF7
100
AcDbEntity
  8
1
100
AcDbLine
 10
85.28208800000003
 20
1.236146499999992
 30
0.0
 11
85.35788199999997
 21
1.209424499999997
 31
0.0
  0
LINE
  5
3512
330
BF7
100
AcDbEntity
  8
1
100
AcDbLine
 10
107.719187
 20
1.266522499999997
 30
0.0
 11
107.793443
 21
1.2326455
 31
0.0
  0
LINE
  5
3513
330
BF7
100
AcDbEntity
  8
1
100
AcDbLine
 10
107.86271
 20
1.207844499999997
 30
0.0
 11
107.931977
 21
1.183045499999997
 31
0.0
  0
LINE
  5
3514
330
BF7
100
AcDbEntity
  8
1
100
AcDbLine
 10
107.793443
 20
1.2326455
 30
0.0
 11
107.86271
 21
1.207844499999997
 31
0.0
  0
LINE
  5
3515
330
BF7
100
AcDbEntity
  8
1
100
AcDbLine
 10
129.372782
 20
1.585821499999993
 30
0.0
 11
130.263619
 21
1.247915499999994
 31
0.0
  0
LINE
  5
3516
330
BF7
100
AcDbEntity
  8
1
100
AcDbLine
 10
130.347384
 20
1.215456499999998
 30
0.0
 11
130.431148
 21
1.182997499999995
 31
0.0
  0
LINE
  5
3517
330
BF7
100
AcDbEntity
  8
1
100
AcDbLine
 10
130.263619
 20
1.247915499999994
 30
0.0
 11
130.347384
 21
1.215456499999998
 31
0.0
  0
LINE
  5
3518
330
BF7
100
AcDbEntity
  8
1
100
AcDbLine
 10
116.337241
 20
-1.883240500000002
 30
0.0
 11
116.108827
 21
-1.899996500000003
 31
0.0
  0
LINE
  5
3519
330
BF7
100
AcDbEntity
  8
1
100
AcDbLine
 10
116.565655
 20
-1.8664865
 30
0.0
 11
116.337241
 21
-1.883240500000002
 31
0.0
  0
LINE
  5
351A
330
BF7
100
AcDbEntity
  8
1
100
AcDbLine
 10
96.46875900000004
 20
-1.251383500000001
 30
0.0
 11
96.40069200000001
 21
-1.275610499999997
 31
0.0
  0
LINE
  5
351B
330
BF7
100
AcDbEntity
  8
1
100
AcDbLine
 10
28.33902800000002
 20
1.516606499999998
 30
0.0
 11
28.40431000000001
 21
1.490784499999995
 31
0.0
  0
LINE
  5
351C
330
BF7
100
AcDbEntity
  8
1
100
AcDbLine
 10
28.67167500000001
 20
1.385392499999995
 30
0.0
 11
28.93903400000001
 21
1.279999499999997
 31
0.0
  0
LINE
  5
351D
330
BF7
100
AcDbEntity
  8
1
100
AcDbLine
 10
28.40431000000001
 20
1.490784499999995
 30
0.0
 11
28.67167500000001
 21
1.385392499999995
 31
0.0
  0
LINE
  5
351E
330
BF7
100
AcDbEntity
  8
1
100
AcDbLine
 10
29.06307600000001
 20
1.231104499999995
 30
0.0
 11
29.18711700000002
 21
1.182206499999999
 31
0.0
  0
LINE
  5
351F
330
BF7
100
AcDbEntity
  8
1
100
AcDbLine
 10
28.93903400000001
 20
1.279999499999997
 30
0.0
 11
29.06307600000001
 21
1.231104499999995
 31
0.0
  0
LINE
  5
3520
330
BF7
100
AcDbEntity
  8
1
100
AcDbLine
 10
51.60505
 20
1.210142499999995
 30
0.0
 11
51.68621000000001
 21
1.182194499999995
 31
0.0
  0
LINE
  5
3521
330
BF7
100
AcDbEntity
  8
1
100
AcDbLine
 10
51.523877
 20
1.238086499999994
 30
0.0
 11
51.60505
 21
1.210142499999995
 31
0.0
  0
LINE
  5
3522
330
BF7
100
AcDbEntity
  8
1
100
AcDbLine
 10
74.10642600000001
 20
1.209851499999998
 30
0.0
 11
74.18450899999998
 21
1.182533500000001
 31
0.0
  0
LINE
  5
3523
330
BF7
100
AcDbEntity
  8
1
100
AcDbLine
 10
74.02833000000002
 20
1.2371695
 30
0.0
 11
74.10642600000001
 21
1.209851499999998
 31
0.0
  0
LINE
  5
3524
330
BF7
100
AcDbEntity
  8
1
100
AcDbLine
 10
96.47278
 20
1.257514499999998
 30
0.0
 11
96.53681500000001
 21
1.234765499999994
 31
0.0
  0
LINE
  5
3525
330
BF7
100
AcDbEntity
  8
1
100
AcDbLine
 10
96.60975100000001
 20
1.208852499999995
 30
0.0
 11
96.68269999999999
 21
1.182936499999995
 31
0.0
  0
LINE
  5
3526
330
BF7
100
AcDbEntity
  8
1
100
AcDbLine
 10
96.53681500000001
 20
1.234765499999994
 30
0.0
 11
96.60975100000001
 21
1.208852499999995
 31
0.0
  0
LINE
  5
3527
330
BF7
100
AcDbEntity
  8
1
100
AcDbLine
 10
118.596236
 20
1.421396499999993
 30
0.0
 11
118.998077
 21
1.253768499999995
 31
0.0
  0
LINE
  5
3528
330
BF7
100
AcDbEntity
  8
1
100
AcDbLine
 10
118.193668
 20
1.563884499999995
 30
0.0
 11
118.596236
 21
1.421396499999993
 31
0.0
  0
LINE
  5
3529
330
BF7
100
AcDbEntity
  8
1
100
AcDbLine
 10
118.028974
 20
1.614935499999995
 30
0.0
 11
118.193668
 21
1.563884499999995
 31
0.0
  0
LINE
  5
352A
330
BF7
100
AcDbEntity
  8
1
100
AcDbLine
 10
119.089762
 20
1.218423499999994
 30
0.0
 11
119.181435
 21
1.183078499999997
 31
0.0
  0
LINE
  5
352B
330
BF7
100
AcDbEntity
  8
1
100
AcDbLine
 10
118.998077
 20
1.253768499999995
 30
0.0
 11
119.089762
 21
1.218423499999994
 31
0.0
  0
LINE
  5
352C
330
BF7
100
AcDbEntity
  8
1
100
AcDbLine
 10
127.465304
 20
-1.9026005
 30
0.0
 11
127.358807
 21
-1.899999499999999
 31
0.0
  0
LINE
  5
352D
330
BF7
100
AcDbEntity
  8
1
100
AcDbLine
 10
107.72391
 20
-1.249815500000003
 30
0.0
 11
107.644034
 21
-1.286126500000001
 31
0.0
  0
LINE
  5
352E
330
BF7
100
AcDbEntity
  8
1
100
AcDbLine
 10
104.94329
 20
-1.902506500000001
 30
0.0
 11
104.858848
 21
-1.8999935
 31
0.0
  0
LINE
  5
352F
330
BF7
100
AcDbEntity
  8
1
100
AcDbLine
 10
82.46694900000001
 20
-1.908126499999999
 30
0.0
 11
82.35913100000002
 21
-1.899990500000004
 31
0.0
  0
LINE
  5
3530
330
BF7
100
AcDbEntity
  8
1
100
AcDbLine
 10
60.01708500000002
 20
-1.910258500000004
 30
0.0
 11
59.86050500000001
 21
-1.899990500000004
 31
0.0
  0
LINE
  5
3531
330
BF7
100
AcDbEntity
  8
1
100
AcDbLine
 10
15.13071400000001
 20
-1.905525500000003
 30
0.0
 11
14.86322800000001
 21
-1.899999499999999
 31
0.0
  0
LINE
  5
3532
330
BF7
100
AcDbEntity
  8
1
100
AcDbLine
 10
135.816963
 20
0.677592499999996
 30
0.0
 11
135.472919
 21
0.8331574999999984
 31
0.0
  0
LINE
  5
3533
330
BF7
100
AcDbEntity
  8
1
100
AcDbLine
 10
136.161031
 20
0.522024499999997
 30
0.0
 11
135.816963
 21
0.677592499999996
 31
0.0
  0
LINE
  5
3534
330
BF7
100
AcDbEntity
  8
1
100
AcDbLine
 10
114.209864
 20
0.2729964999999943
 30
0.0
 11
112.90964
 21
0.8621804999999973
 31
0.0
  0
LINE
  5
3535
330
BF7
100
AcDbEntity
  8
1
100
AcDbLine
 10
115.532251
 20
-0.2617365000000014
 30
0.0
 11
114.209864
 21
0.2729964999999943
 31
0.0
  0
LINE
  5
3536
330
BF7
100
AcDbEntity
  8
1
100
AcDbLine
 10
91.70387299999999
 20
0.2763515000000005
 30
0.0
 11
90.392749
 21
0.8713974999999969
 31
0.0
  0
LINE
  5
3537
330
BF7
100
AcDbEntity
  8
1
100
AcDbLine
 10
93.03699200000002
 20
-0.2631745000000016
 30
0.0
 11
91.70387299999999
 21
0.2763515000000005
 31
0.0
  0
LINE
  5
3538
330
BF7
100
AcDbEntity
  8
1
100
AcDbLine
 10
69.22556999999999
 20
0.266985499999997
 30
0.0
 11
67.942097
 21
0.8481794999999967
 31
0.0
  0
LINE
  5
3539
330
BF7
100
AcDbEntity
  8
1
100
AcDbLine
 10
70.53095299999998
 20
-0.2605255000000035
 30
0.0
 11
69.22556999999999
 21
0.266985499999997
 31
0.0
  0
LINE
  5
353A
330
BF7
100
AcDbEntity
  8
1
100
AcDbLine
 10
46.728724
 20
0.2660234999999957
 30
0.0
 11
45.44295
 21
0.8482034999999966
 31
0.0
  0
LINE
  5
353B
330
BF7
100
AcDbEntity
  8
1
100
AcDbLine
 10
48.03636
 20
-0.2622215000000061
 30
0.0
 11
46.728724
 21
0.2660234999999957
 31
0.0
  0
LINE
  5
353C
330
BF7
100
AcDbEntity
  8
1
100
AcDbLine
 10
24.213868
 20
0.2728724999999947
 30
0.0
 11
22.91046000000001
 21
0.8635064999999997
 31
0.0
  0
LINE
  5
353D
330
BF7
100
AcDbEntity
  8
1
100
AcDbLine
 10
25.53946600000001
 20
-0.2630505000000021
 30
0.0
 11
24.213868
 21
0.2728724999999947
 31
0.0
  0
LINE
  5
353E
330
BF7
100
AcDbEntity
  8
1
100
AcDbLine
 10
81.61841800000003
 20
0.2081294999999947
 30
0.0
 11
81.72799299999999
 21
0.250020499999998
 31
0.0
  0
LINE
  5
353F
330
BF7
100
AcDbEntity
  8
1
100
AcDbLine
 10
18.973376
 20
1.899998499999995
 30
0.0
 11
15.63201000000001
 21
1.899998499999995
 31
0.0
  0
LINE
  5
3540
330
BF7
100
AcDbEntity
  8
1
100
AcDbLine
 10
41.47204399999997
 20
1.899995499999999
 30
0.0
 11
38.17068300000001
 21
1.899995499999999
 31
0.0
  0
LINE
  5
3541
330
BF7
100
AcDbEntity
  8
1
100
AcDbLine
 10
63.970768
 20
1.8999895
 30
0.0
 11
60.69907999999998
 21
1.8999895
 31
0.0
  0
LINE
  5
3542
330
BF7
100
AcDbEntity
  8
1
100
AcDbLine
 10
86.46959999999998
 20
1.8999895
 30
0.0
 11
83.18294300000003
 21
1.8999895
 31
0.0
  0
LINE
  5
3543
330
BF7
100
AcDbEntity
  8
1
100
AcDbLine
 10
108.968323
 20
1.899992499999995
 30
0.0
 11
105.667096
 21
1.899992499999995
 31
0.0
  0
LINE
  5
3544
330
BF7
100
AcDbEntity
  8
1
100
AcDbLine
 10
131.467701
 20
1.899998499999995
 30
0.0
 11
128.151563
 21
1.899998499999995
 31
0.0
  0
LINE
  5
3545
330
BF7
100
AcDbEntity
  8
1
100
AcDbLine
 10
118.162917
 20
-1.899996500000003
 30
0.0
 11
120.217951
 21
-1.899996500000003
 31
0.0
  0
LINE
  5
3546
330
BF7
100
AcDbEntity
  8
1
100
AcDbLine
 10
116.10787
 20
-1.899996500000003
 30
0.0
 11
118.162917
 21
-1.899996500000003
 31
0.0
  0
LINE
  5
3547
330
BF7
100
AcDbEntity
  8
1
100
AcDbLine
 10
95.66383
 20
-1.899990500000004
 30
0.0
 11
97.718877
 21
-1.899990500000004
 31
0.0
  0
LINE
  5
3548
330
BF7
100
AcDbEntity
  8
1
100
AcDbLine
 10
93.608796
 20
-1.899990500000004
 30
0.0
 11
95.66383
 21
-1.899990500000004
 31
0.0
  0
LINE
  5
3549
330
BF7
100
AcDbEntity
  8
1
100
AcDbLine
 10
73.16516800000002
 20
-1.899990500000004
 30
0.0
 11
75.22021400000001
 21
-1.899990500000004
 31
0.0
  0
LINE
  5
354A
330
BF7
100
AcDbEntity
  8
1
100
AcDbLine
 10
71.11013299999997
 20
-1.899990500000004
 30
0.0
 11
73.16516800000002
 21
-1.899990500000004
 31
0.0
  0
LINE
  5
354B
330
BF7
100
AcDbEntity
  8
1
100
AcDbLine
 10
50.66628700000001
 20
-1.8999935
 30
0.0
 11
52.721321
 21
-1.8999935
 31
0.0
  0
LINE
  5
354C
330
BF7
100
AcDbEntity
  8
1
100
AcDbLine
 10
48.61124000000001
 20
-1.8999935
 30
0.0
 11
50.66628700000001
 21
-1.8999935
 31
0.0
  0
LINE
  5
354D
330
BF7
100
AcDbEntity
  8
1
100
AcDbLine
 10
28.16784800000002
 20
-1.899999499999999
 30
0.0
 11
30.22288900000001
 21
-1.899999499999999
 31
0.0
  0
LINE
  5
354E
330
BF7
100
AcDbEntity
  8
1
100
AcDbLine
 10
26.11280800000002
 20
-1.899999499999999
 30
0.0
 11
28.16784800000002
 21
-1.899999499999999
 31
0.0
  0
LINE
  5
354F
330
BF7
100
AcDbEntity
  8
1
100
AcDbLine
 10
30.22289500000001
 20
1.899998499999995
 30
0.0
 11
26.90015100000001
 21
1.899998499999995
 31
0.0
  0
LINE
  5
3550
330
BF7
100
AcDbEntity
  8
1
100
AcDbLine
 10
52.721321
 20
1.899992499999995
 30
0.0
 11
49.44404999999999
 21
1.899992499999995
 31
0.0
  0
LINE
  5
3551
330
BF7
100
AcDbEntity
  8
1
100
AcDbLine
 10
75.22021400000001
 20
1.8999895
 30
0.0
 11
71.94100500000002
 21
1.8999895
 31
0.0
  0
LINE
  5
3552
330
BF7
100
AcDbEntity
  8
1
100
AcDbLine
 10
97.718865
 20
1.8999895
 30
0.0
 11
94.42502500000001
 21
1.8999895
 31
0.0
  0
LINE
  5
3553
330
BF7
100
AcDbEntity
  8
1
100
AcDbLine
 10
120.217951
 20
1.899995499999999
 30
0.0
 11
116.909275
 21
1.899995499999999
 31
0.0
  0
LINE
  5
3554
330
BF7
100
AcDbEntity
  8
1
100
AcDbLine
 10
129.412654
 20
-1.899999499999999
 30
0.0
 11
131.467701
 21
-1.899999499999999
 31
0.0
  0
LINE
  5
3555
330
BF7
100
AcDbEntity
  8
1
100
AcDbLine
 10
127.35762
 20
-1.899999499999999
 30
0.0
 11
129.412654
 21
-1.899999499999999
 31
0.0
  0
LINE
  5
3556
330
BF7
100
AcDbEntity
  8
1
100
AcDbLine
 10
106.913289
 20
-1.8999935
 30
0.0
 11
108.968323
 21
-1.8999935
 31
0.0
  0
LINE
  5
3557
330
BF7
100
AcDbEntity
  8
1
100
AcDbLine
 10
104.858242
 20
-1.8999935
 30
0.0
 11
106.913289
 21
-1.8999935
 31
0.0
  0
LINE
  5
3558
330
BF7
100
AcDbEntity
  8
1
100
AcDbLine
 10
84.41456600000002
 20
-1.899990500000004
 30
0.0
 11
86.46959999999998
 21
-1.899990500000004
 31
0.0
  0
LINE
  5
3559
330
BF7
100
AcDbEntity
  8
1
100
AcDbLine
 10
82.35951899999998
 20
-1.899990500000004
 30
0.0
 11
84.41456600000002
 21
-1.899990500000004
 31
0.0
  0
LINE
  5
355A
330
BF7
100
AcDbEntity
  8
1
100
AcDbLine
 10
61.91573299999999
 20
-1.899990500000004
 30
0.0
 11
63.970768
 21
-1.899990500000004
 31
0.0
  0
LINE
  5
355B
330
BF7
100
AcDbEntity
  8
1
100
AcDbLine
 10
59.86068700000003
 20
-1.899990500000004
 30
0.0
 11
61.91573299999999
 21
-1.899990500000004
 31
0.0
  0
LINE
  5
355C
330
BF7
100
AcDbEntity
  8
1
100
AcDbLine
 10
39.41699800000001
 20
-1.899996500000003
 30
0.0
 11
41.47204399999997
 21
-1.899996500000003
 31
0.0
  0
LINE
  5
355D
330
BF7
100
AcDbEntity
  8
1
100
AcDbLine
 10
37.36196300000003
 20
-1.899996500000003
 30
0.0
 11
39.41699800000001
 21
-1.899996500000003
 31
0.0
  0
LINE
  5
355E
330
BF7
100
AcDbEntity
  8
1
100
AcDbLine
 10
16.91832900000001
 20
-1.899999499999999
 30
0.0
 11
18.97337000000002
 21
-1.899999499999999
 31
0.0
  0
LINE
  5
355F
330
BF7
100
AcDbEntity
  8
1
100
AcDbLine
 10
14.86328900000001
 20
-1.899999499999999
 30
0.0
 11
16.91832900000001
 21
-1.899999499999999
 31
0.0
  0
LINE
  5
3560
330
BF7
100
AcDbEntity
  8
1
100
AcDbLine
 10
0.0304010000000119
 20
2.330153499999993
 30
0.0
 11
0.0249320000000068
 21
2.348393499999996
 31
0.0
  0
LINE
  5
3561
330
BF7
100
AcDbEntity
  8
1
100
AcDbLine
 10
0.0370260000000116
 20
2.311758499999998
 30
0.0
 11
0.0304010000000119
 21
2.330153499999993
 31
0.0
  0
LINE
  5
3562
330
BF7
100
AcDbEntity
  8
1
100
AcDbLine
 10
0.0560650000000038
 20
2.270067499999996
 30
0.0
 11
0.0370260000000116
 21
2.311758499999998
 31
0.0
  0
LINE
  5
3563
330
BF7
100
AcDbEntity
  8
1
100
AcDbLine
 10
0.0800280000000129
 20
2.228881499999999
 30
0.0
 11
0.0560650000000038
 21
2.270067499999996
 31
0.0
  0
LINE
  5
3564
330
BF7
100
AcDbEntity
  8
1
100
AcDbLine
 10
0.1137590000000159
 20
2.182572499999995
 30
0.0
 11
0.0800280000000129
 21
2.228881499999999
 31
0.0
  0
LINE
  5
3565
330
BF7
100
AcDbEntity
  8
1
100
AcDbLine
 10
0.1524500000000017
 20
2.140623499999995
 30
0.0
 11
0.1137590000000159
 21
2.182572499999995
 31
0.0
  0
LINE
  5
3566
330
BF7
100
AcDbEntity
  8
1
100
AcDbLine
 10
0.2043600000000083
 20
2.097127499999995
 30
0.0
 11
0.1524500000000017
 21
2.140623499999995
 31
0.0
  0
LINE
  5
3567
330
BF7
100
AcDbEntity
  8
1
100
AcDbLine
 10
0.2619760000000042
 20
2.0603085
 30
0.0
 11
0.2043600000000083
 21
2.097127499999995
 31
0.0
  0
LINE
  5
3568
330
BF7
100
AcDbEntity
  8
1
100
AcDbLine
 10
0.3396900000000045
 20
2.024806499999995
 30
0.0
 11
0.2619760000000042
 21
2.0603085
 31
0.0
  0
LINE
  5
3569
330
BF7
100
AcDbEntity
  8
1
100
AcDbLine
 10
0.4217590000000089
 20
2.0061575
 30
0.0
 11
0.3396900000000045
 21
2.024806499999995
 31
0.0
  0
LINE
  5
356A
330
BF7
100
AcDbEntity
  8
1
100
AcDbLine
 10
0.4600500000000097
 20
2.004927499999993
 30
0.0
 11
0.4217590000000089
 21
2.0061575
 31
0.0
  0
LINE
  5
356B
330
BF7
100
AcDbEntity
  8
1
100
AcDbLine
 10
0.5009150000000063
 20
1.999998499999995
 30
0.0
 11
0.4600500000000097
 21
2.004927499999993
 31
0.0
  0
LINE
  5
356C
330
BF7
100
AcDbEntity
  8
1
100
AcDbLine
 10
0.4473810000000074
 20
-2.005970500000003
 30
0.0
 11
0.5009150000000063
 21
-2.008017500000004
 31
0.0
  0
LINE
  5
356D
330
BF7
100
AcDbEntity
  8
1
100
AcDbLine
 10
0.3951680000000124
 20
-2.011115500000002
 30
0.0
 11
0.4473810000000074
 21
-2.005970500000003
 31
0.0
  0
LINE
  5
356E
330
BF7
100
AcDbEntity
  8
1
100
AcDbLine
 10
0.3115180000000066
 20
-2.035865500000003
 30
0.0
 11
0.3951680000000124
 21
-2.011115500000002
 31
0.0
  0
LINE
  5
356F
330
BF7
100
AcDbEntity
  8
1
100
AcDbLine
 10
0.2335190000000153
 20
-2.076957500000002
 30
0.0
 11
0.3115180000000066
 21
-2.035865500000003
 31
0.0
  0
LINE
  5
3570
330
BF7
100
AcDbEntity
  8
1
100
AcDbLine
 10
0.1650100000000094
 20
-2.129203500000002
 30
0.0
 11
0.2335190000000153
 21
-2.076957500000002
 31
0.0
  0
LINE
  5
3571
330
BF7
100
AcDbEntity
  8
1
100
AcDbLine
 10
0.1060990000000004
 20
-2.192181500000003
 30
0.0
 11
0.1650100000000094
 21
-2.129203500000002
 31
0.0
  0
LINE
  5
3572
330
BF7
100
AcDbEntity
  8
1
100
AcDbLine
 10
0.0684490000000011
 20
-2.246998500000001
 30
0.0
 11
0.1060990000000004
 21
-2.192181500000003
 31
0.0
  0
LINE
  5
3573
330
BF7
100
AcDbEntity
  8
1
100
AcDbLine
 10
0.0402170000000126
 20
-2.304056500000001
 30
0.0
 11
0.0684490000000011
 21
-2.246998500000001
 31
0.0
  0
LINE
  5
3574
330
BF7
100
AcDbEntity
  8
1
100
AcDbLine
 10
0.034749000000005
 20
-2.318942500000002
 30
0.0
 11
0.0402170000000126
 21
-2.304056500000001
 31
0.0
  0
LINE
  5
3575
330
BF7
100
AcDbEntity
  8
1
100
AcDbLine
 10
0.0300550000000044
 20
-2.333827499999999
 30
0.0
 11
0.034749000000005
 21
-2.318942500000002
 31
0.0
  0
LINE
  5
3576
330
BF7
100
AcDbEntity
  8
1
100
AcDbLine
 10
125.466747
 20
0.2694594999999964
 30
0.0
 11
124.164416
 21
0.8586895000000005
 31
0.0
  0
LINE
  5
3577
330
BF7
100
AcDbEntity
  8
1
100
AcDbLine
 10
126.79146
 20
-0.2653975000000059
 30
0.0
 11
125.466747
 21
0.2694594999999964
 31
0.0
  0
LINE
  5
3578
330
BF7
100
AcDbEntity
  8
1
100
AcDbLine
 10
102.976284
 20
0.2660294999999948
 30
0.0
 11
101.695802
 21
0.8457784999999944
 31
0.0
  0
LINE
  5
3579
330
BF7
100
AcDbEntity
  8
1
100
AcDbLine
 10
104.27859
 20
-0.2601625000000034
 30
0.0
 11
102.976284
 21
0.2660294999999948
 31
0.0
  0
LINE
  5
357A
330
BF7
100
AcDbEntity
  8
1
100
AcDbLine
 10
80.46863400000002
 20
0.2693204999999992
 30
0.0
 11
79.18099500000002
 21
0.8518424999999965
 31
0.0
  0
LINE
  5
357B
330
BF7
100
AcDbEntity
  8
1
100
AcDbLine
 10
81.77825600000002
 20
-0.2596835000000048
 30
0.0
 11
80.46863400000002
 21
0.2693204999999992
 31
0.0
  0
LINE
  5
357C
330
BF7
100
AcDbEntity
  8
1
100
AcDbLine
 10
57.94158200000001
 20
0.2818984999999969
 30
0.0
 11
56.62065900000001
 21
0.8810354999999956
 31
0.0
  0
LINE
  5
357D
330
BF7
100
AcDbEntity
  8
1
100
AcDbLine
 10
59.28503100000002
 20
-0.261897500000007
 30
0.0
 11
57.94158200000001
 21
0.2818984999999969
 31
0.0
  0
LINE
  5
357E
330
BF7
100
AcDbEntity
  8
1
100
AcDbLine
 10
35.47523300000003
 20
0.267854499999995
 30
0.0
 11
34.17712900000001
 21
0.8558974999999938
 31
0.0
  0
LINE
  5
357F
330
BF7
100
AcDbEntity
  8
1
100
AcDbLine
 10
36.79535600000001
 20
-0.2654674999999997
 30
0.0
 11
35.47523300000003
 21
0.267854499999995
 31
0.0
  0
LINE
  5
3580
330
BF7
100
AcDbEntity
  8
1
100
AcDbLine
 10
12.91814300000001
 20
0.2919844999999945
 30
0.0
 11
11.73322300000001
 21
0.8296604999999955
 31
0.0
  0
LINE
  5
3581
330
BF7
100
AcDbEntity
  8
1
100
AcDbLine
 10
14.124762
 20
-0.1995035000000058
 30
0.0
 11
12.91814300000001
 21
0.2919844999999945
 31
0.0
  0
LINE
  5
3582
330
BF7
100
AcDbEntity
  8
1
100
AcDbLine
 10
0.4999820000000172
 20
-1.999999499999999
 30
0.0
 11
7.614325000000008
 21
-1.999999499999999
 31
0.0
  0
LINE
  5
3583
330
BF7
100
AcDbEntity
  8
1
100
AcDbLine
 10
14.056143
 20
-1.999999499999999
 30
0.0
 11
14.56254400000001
 21
-1.999999499999999
 31
0.0
  0
LINE
  5
3584
330
BF7
100
AcDbEntity
  8
1
100
AcDbLine
 10
25.30558400000001
 20
-1.999999499999999
 30
0.0
 11
25.81188100000002
 21
-1.999999499999999
 31
0.0
  0
LINE
  5
3585
330
BF7
100
AcDbEntity
  8
1
100
AcDbLine
 10
36.555193
 20
-1.999999499999999
 30
0.0
 11
37.06124299999999
 21
-1.999999499999999
 31
0.0
  0
LINE
  5
3586
330
BF7
100
AcDbEntity
  8
1
100
AcDbLine
 10
47.80446999999997
 20
-1.999999499999999
 30
0.0
 11
48.310629
 21
-1.999999499999999
 31
0.0
  0
LINE
  5
3587
330
BF7
100
AcDbEntity
  8
1
100
AcDbLine
 10
59.05403800000001
 20
-1.999999499999999
 30
0.0
 11
59.560027
 21
-1.999999499999999
 31
0.0
  0
LINE
  5
3588
330
BF7
100
AcDbEntity
  8
1
100
AcDbLine
 10
70.30341200000002
 20
-1.999999499999999
 30
0.0
 11
70.80944900000002
 21
-1.999999499999999
 31
0.0
  0
LINE
  5
3589
330
BF7
100
AcDbEntity
  8
1
100
AcDbLine
 10
81.55289399999999
 20
-1.999999499999999
 30
0.0
 11
82.05889499999997
 21
-1.999999499999999
 31
0.0
  0
LINE
  5
358A
330
BF7
100
AcDbEntity
  8
1
100
AcDbLine
 10
92.80253500000002
 20
-1.999999499999999
 30
0.0
 11
93.30835399999999
 21
-1.999999499999999
 31
0.0
  0
LINE
  5
358B
330
BF7
100
AcDbEntity
  8
1
100
AcDbLine
 10
104.052066
 20
-1.999999499999999
 30
0.0
 11
104.557837
 21
-1.999999499999999
 31
0.0
  0
LINE
  5
358C
330
BF7
100
AcDbEntity
  8
1
100
AcDbLine
 10
115.301439
 20
-1.999999499999999
 30
0.0
 11
115.807344
 21
-1.999999499999999
 31
0.0
  0
LINE
  5
358D
330
BF7
100
AcDbEntity
  8
1
100
AcDbLine
 10
126.551201
 20
-1.999999499999999
 30
0.0
 11
127.056863
 21
-1.999999499999999
 31
0.0
  0
LINE
  5
358E
330
BF7
100
AcDbEntity
  8
1
100
AcDbLine
 10
127.056863
 20
1.999998499999995
 30
0.0
 11
126.551201
 21
1.999998499999995
 31
0.0
  0
LINE
  5
358F
330
BF7
100
AcDbEntity
  8
1
100
AcDbLine
 10
115.807344
 20
1.999998499999995
 30
0.0
 11
115.301439
 21
1.999998499999995
 31
0.0
  0
LINE
  5
3590
330
BF7
100
AcDbEntity
  8
1
100
AcDbLine
 10
104.557837
 20
1.999998499999995
 30
0.0
 11
104.052066
 21
1.999998499999995
 31
0.0
  0
LINE
  5
3591
330
BF7
100
AcDbEntity
  8
1
100
AcDbLine
 10
93.30835399999999
 20
1.999998499999995
 30
0.0
 11
92.80253500000002
 21
1.999998499999995
 31
0.0
  0
LINE
  5
3592
330
BF7
100
AcDbEntity
  8
1
100
AcDbLine
 10
82.05889499999997
 20
1.999998499999995
 30
0.0
 11
81.55289399999999
 21
1.999998499999995
 31
0.0
  0
LINE
  5
3593
330
BF7
100
AcDbEntity
  8
1
100
AcDbLine
 10
70.80944900000002
 20
1.999998499999995
 30
0.0
 11
70.30341200000002
 21
1.999998499999995
 31
0.0
  0
LINE
  5
3594
330
BF7
100
AcDbEntity
  8
1
100
AcDbLine
 10
59.560027
 20
1.999998499999995
 30
0.0
 11
59.05403800000001
 21
1.999998499999995
 31
0.0
  0
LINE
  5
3595
330
BF7
100
AcDbEntity
  8
1
100
AcDbLine
 10
48.310629
 20
1.999998499999995
 30
0.0
 11
47.80446999999997
 21
1.999998499999995
 31
0.0
  0
LINE
  5
3596
330
BF7
100
AcDbEntity
  8
1
100
AcDbLine
 10
37.06124299999999
 20
1.999998499999995
 30
0.0
 11
36.555193
 21
1.999998499999995
 31
0.0
  0
LINE
  5
3597
330
BF7
100
AcDbEntity
  8
1
100
AcDbLine
 10
25.81188100000002
 20
1.999998499999995
 30
0.0
 11
25.30558400000001
 21
1.999998499999995
 31
0.0
  0
LINE
  5
3598
330
BF7
100
AcDbEntity
  8
1
100
AcDbLine
 10
14.56254400000001
 20
1.999998499999995
 30
0.0
 11
14.056143
 21
1.999998499999995
 31
0.0
  0
LINE
  5
3599
330
BF7
100
AcDbEntity
  8
1
100
AcDbLine
 10
7.614325000000008
 20
1.999998499999995
 30
0.0
 11
0.4999820000000172
 21
1.999998499999995
 31
0.0
  0
LINE
  5
359A
330
BF7
100
AcDbEntity
  8
SK1
100
AcDbLine
 10
-35.34914999999999
 20
2.999958500000001
 30
0.0
 11
-35.99862499999999
 21
2.624963499999998
 31
0.0
  0
LINE
  5
359B
330
BF7
100
AcDbEntity
  8
SK1
100
AcDbLine
 10
0.0
 20
3.000000499999998
 30
0.0
 11
-35.349007
 21
3.000000499999998
 31
0.0
  0
LINE
  5
359C
330
BF7
100
AcDbEntity
  8
SK1
100
AcDbLine
 10
-35.349007
 20
-3.000000500000001
 30
0.0
 11
0.0
 21
-3.000000500000001
 31
0.0
  0
LINE
  5
359D
330
BF7
100
AcDbEntity
  8
SK1
100
AcDbLine
 10
-35.99862499999999
 20
-2.624964500000003
 30
0.0
 11
-35.34914999999999
 21
-2.999958500000003
 31
0.0
  0
LINE
  5
35A0
330
BF7
100
AcDbEntity
  8
SK4
100
AcDbLine
 10
0.0
 20
-0.0000000000000018
 30
0.0
 11
141.7202032309469
 21
-0.0000000000000018
 31
0.0
  0
LINE
  5
35A1
330
BF7
100
AcDbEntity
  8
SK4
100
AcDbLine
 10
0.0
 20
-0.0000000000000018
 30
0.0
 11
-38.69822236584344
 21
0.000000000000003
 31
0.0
  0
LINE
  5
35A2
330
BF7
100
AcDbEntity
  8
1
100
AcDbLine
 10
0.0304010000000119
 20
2.330153499999993
 30
0.0
 11
0.0300550000000044
 21
-2.333827499999999
 31
0.0
  0
DIMENSION
  5
35A3
330
BF7
100
AcDbEntity
  8
2
100
AcDbDimension
  2
*D6
 10
146.7202032309469
 20
-1.995982500000006
 30
0.0
 11
146.4340315422034
 21
-16.55060413818728
 31
0.0
 70
   160
  1
%%c 4
 71
     5
 42
3.971962999999999
  3
SANDVIK_DIM
100
AcDbAlignedDimension
 13
137.242893
 23
1.975980499999995
 33
0.0
 14
137.248537
 24
-1.995982500000004
 34
0.0
 50
90.0
100
AcDbRotatedDimension
1001
ACAD
1000
DSTYLE
1002
{
1070
    40
1040
1.0
1002
}
  0
DIMENSION
  5
35C5
330
BF7
100
AcDbEntity
  8
SK2
100
AcDbDimension
  2
*D7
 10
-44.93434713927903
 20
-3.000000499999998
 30
0.0
 11
-44.94925177383016
 21
-18.08713991469244
 31
0.0
 70
   160
  1
%%c <>
 71
     5
 42
6.000001
  3
SANDVIK_DIM
100
AcDbAlignedDimension
 13
-35.349007
 23
3.000000499999998
 33
0.0
 14
-35.349007
 24
-3.000000500000001
 34
0.0
 50
90.0
100
AcDbRotatedDimension
1001
ACAD
1000
DSTYLE
1002
{
1070
    40
1040
1.0
1002
}
  0
DIMENSION
  5
35D3
330
BF7
100
AcDbEntity
  8
SK2
100
AcDbDimension
  2
*D8
 10
17.24024290072408
 20
7.470468949860513
 30
0.0
 11
77.24156795036204
 21
11.27046894986051
 31
0.0
 70
    32
 71
     5
 42
120.0026500992759
  3
SANDVIK_DIM
100
AcDbAlignedDimension
 13
137.242893
 23
1.975980499999995
 33
0.0
 14
17.24024290072408
 24
5.357019139505106
 34
0.0
100
AcDbRotatedDimension
1001
ACAD
1000
DSTYLE
1002
{
1070
    40
1040
1.0
1002
}
  0
DIMENSION
  5
35EA
330
BF7
100
AcDbEntity
  8
2
100
AcDbDimension
  2
*D9
 10
5.993847000000013
 20
-8.649645051188882
 30
0.0
 11
71.99403125
 21
-4.849645051188884
 31
0.0
 70
    32
 71
     5
 42
132.0003685
  3
SANDVIK_DIM
100
AcDbAlignedDimension
 13
137.9942155
 23
-0.0000005000000023
 33
0.0
 14
5.993847000000013
 24
-1.300099500000001
 34
0.0
100
AcDbRotatedDimension
1001
ACAD
1000
DSTYLE
1002
{
1070
    40
1040
1.0
1002
}
  0
DIMENSION
  5
3600
330
BF7
100
AcDbEntity
  8
SK2
100
AcDbDimension
  2
*D10
 10
-0.0000000000000009
 20
-16.89836779403362
 30
0.0
 11
-17.99931249999999
 21
-13.09836779403362
 31
0.0
 70
    32
 71
     5
 42
35.99862499999999
  3
SANDVIK_DIM
100
AcDbAlignedDimension
 13
-35.99862499999999
 23
-2.624964500000003
 33
0.0
 14
0.0
 24
-3.000000500000001
 34
0.0
100
AcDbRotatedDimension
1001
ACAD
1000
DSTYLE
1002
{
1070
    40
1040
1.0
1002
}
  0
DIMENSION
  5
360D
330
BF7
100
AcDbEntity
  8
2
100
AcDbDimension
  2
*D11
 10
138.0042155
 20
-16.89836779403362
 30
0.0
 11
69.00210774999999
 21
-13.09836779403362
 31
0.0
 70
    32
 71
     5
 42
138.0042155
  3
SANDVIK_DIM
100
AcDbAlignedDimension
 13
0.0
 23
-3.000000500000001
 33
0.0
 14
138.0042155
 24
-0.0000005000000023
 34
0.0
100
AcDbRotatedDimension
1001
ACAD
1000
DSTYLE
1002
{
1070
    40
1040
1.0
1002
}
  0
DIMENSION
  5
361A
330
BF7
100
AcDbEntity
  8
SK2
100
AcDbDimension
  2
*D12
 10
138.0042155092962
 20
-24.13565142571844
 30
0.0
 11
51.00279525464813
 21
-20.33565142571844
 31
0.0
 70
    32
 71
     5
 42
174.0028405092962
  3
SANDVIK_DIM
100
AcDbAlignedDimension
 13
-35.99862499999999
 23
-2.624964500000003
 33
0.0
 14
138.0042155092962
 24
-0.0000000000000018
 34
0.0
100
AcDbRotatedDimension
1001
ACAD
1000
DSTYLE
1002
{
1070
    40
1040
1.0
1002
}
  0
ENDSEC
  0
SECTION
  2
OBJECTS
  0
DICTIONARY
  5
BE3
330
0
100
AcDbDictionary
281
     1
  3
ACAD_CIP_PREVIOUS_PRODUCT_INFO
350
371B
  3
ACAD_COLOR
350
BF2
  3
ACAD_DETAILVIEWSTYLE
350
3718
  3
ACAD_GROUP
350
BE4
  3
ACAD_LAYOUT
350
BF0
  3
ACAD_MATERIAL
350
BF1
  3
ACAD_MLEADERSTYLE
350
3713
  3
ACAD_MLINESTYLE
350
BED
  3
ACAD_PLOTSETTINGS
350
BEF
  3
ACAD_PLOTSTYLENAME
350
BE5
  3
ACAD_SCALELIST
350
3701
  3
ACAD_SECTIONVIEWSTYLE
350
3715
  3
ACAD_TABLESTYLE
350
36FF
  3
ACAD_VISUALSTYLE
350
36E6
  3
ACDB_RECOMPOSE_DATA
350
377D
  3
AcDbVariableDictionary
350
3770
  3
ASE_INDEX_DICTIONARY
350
376D
  3
DWGPROPS
350
377E
  0
DICTIONARY
  5
371E
330
BE7
100
AcDbDictionary
280
     1
281
     1
  3
ADSK_XREC_LAYER_RECONCILED
360
371F
  0
DICTIONARY
  5
3720
330
BFB
100
AcDbDictionary
280
     1
281
     1
  3
ADSK_XREC_LAYER_RECONCILED
360
3721
  0
DICTIONARY
  5
3722
330
C00
100
AcDbDictionary
280
     1
281
     1
  3
ADSK_XREC_LAYER_RECONCILED
360
3723
  0
DICTIONARY
  5
3724
330
C01
100
AcDbDictionary
280
     1
281
     1
  3
ADSK_XREC_LAYER_RECONCILED
360
3725
  0
DICTIONARY
  5
3726
330
C02
100
AcDbDictionary
280
     1
281
     1
  3
ADSK_XREC_LAYER_RECONCILED
360
3727
  0
DICTIONARY
  5
3728
330
C03
100
AcDbDictionary
280
     1
281
     1
  3
ADSK_XREC_LAYER_RECONCILED
360
3729
  0
DICTIONARY
  5
372A
330
C04
100
AcDbDictionary
280
     1
281
     1
  3
ADSK_XREC_LAYER_RECONCILED
360
372B
  0
DICTIONARY
  5
372C
330
C05
100
AcDbDictionary
280
     1
281
     1
  3
ADSK_XREC_LAYER_RECONCILED
360
372D
  0
DICTIONARY
  5
372E
330
C06
100
AcDbDictionary
280
     1
281
     1
  3
ADSK_XREC_LAYER_RECONCILED
360
372F
  0
DICTIONARY
  5
3730
330
C07
100
AcDbDictionary
280
     1
281
     1
  3
ADSK_XREC_LAYER_RECONCILED
360
3731
  0
DICTIONARY
  5
3732
330
C08
100
AcDbDictionary
280
     1
281
     1
  3
ADSK_XREC_LAYER_RECONCILED
360
3733
  0
DICTIONARY
  5
3734
330
C09
100
AcDbDictionary
280
     1
281
     1
  3
ADSK_XREC_LAYER_RECONCILED
360
3735
  0
DICTIONARY
  5
3736
330
C0A
100
AcDbDictionary
280
     1
281
     1
  3
ADSK_XREC_LAYER_RECONCILED
360
3737
  0
DICTIONARY
  5
3738
330
C0B
100
AcDbDictionary
280
     1
281
     1
  3
ADSK_XREC_LAYER_RECONCILED
360
3739
  0
DICTIONARY
  5
373A
330
C0C
100
AcDbDictionary
280
     1
281
     1
  3
ADSK_XREC_LAYER_RECONCILED
360
373B
  0
DICTIONARY
  5
373C
330
C0D
100
AcDbDictionary
280
     1
281
     1
  3
ADSK_XREC_LAYER_RECONCILED
360
373D
  0
DICTIONARY
  5
373E
330
C0E
100
AcDbDictionary
280
     1
281
     1
  3
ADSK_XREC_LAYER_RECONCILED
360
373F
  0
DICTIONARY
  5
3740
330
C0F
100
AcDbDictionary
280
     1
281
     1
  3
ADSK_XREC_LAYER_RECONCILED
360
3741
  0
DICTIONARY
  5
3742
330
C10
100
AcDbDictionary
280
     1
281
     1
  3
ADSK_XREC_LAYER_RECONCILED
360
3743
  0
DICTIONARY
  5
3744
330
C11
100
AcDbDictionary
280
     1
281
     1
  3
ADSK_XREC_LAYER_RECONCILED
360
3745
  0
DICTIONARY
  5
3746
330
C12
100
AcDbDictionary
280
     1
281
     1
  3
ADSK_XREC_LAYER_RECONCILED
360
3747
  0
DICTIONARY
  5
3748
330
C13
100
AcDbDictionary
280
     1
281
     1
  3
ADSK_XREC_LAYER_RECONCILED
360
3749
  0
DICTIONARY
  5
374A
330
C14
100
AcDbDictionary
280
     1
281
     1
  3
ADSK_XREC_LAYER_RECONCILED
360
374B
  0
DICTIONARY
  5
374C
330
C15
100
AcDbDictionary
280
     1
281
     1
  3
ADSK_XREC_LAYER_RECONCILED
360
374D
  0
DICTIONARY
  5
374E
330
C16
100
AcDbDictionary
280
     1
281
     1
  3
ADSK_XREC_LAYER_RECONCILED
360
374F
  0
DICTIONARY
  5
3750
330
C17
100
AcDbDictionary
280
     1
281
     1
  3
ADSK_XREC_LAYER_RECONCILED
360
3751
  0
DICTIONARY
  5
3752
330
C18
100
AcDbDictionary
280
     1
281
     1
  3
ADSK_XREC_LAYER_RECONCILED
360
3753
  0
DICTIONARY
  5
3754
330
C19
100
AcDbDictionary
280
     1
281
     1
  3
ADSK_XREC_LAYER_RECONCILED
360
3755
  0
DICTIONARY
  5
3756
330
C1A
100
AcDbDictionary
280
     1
281
     1
  3
ADSK_XREC_LAYER_RECONCILED
360
3757
  0
DICTIONARY
  5
3758
330
C1B
100
AcDbDictionary
280
     1
281
     1
  3
ADSK_XREC_LAYER_RECONCILED
360
3759
  0
DICTIONARY
  5
375A
330
C1C
100
AcDbDictionary
280
     1
281
     1
  3
ADSK_XREC_LAYER_RECONCILED
360
375B
  0
DICTIONARY
  5
375C
330
C1D
100
AcDbDictionary
280
     1
281
     1
  3
ADSK_XREC_LAYER_RECONCILED
360
375D
  0
DICTIONARY
  5
375E
330
C1E
100
AcDbDictionary
280
     1
281
     1
  3
ADSK_XREC_LAYER_RECONCILED
360
375F
  0
DICTIONARY
  5
3760
330
C1F
100
AcDbDictionary
280
     1
281
     1
  3
ADSK_XREC_LAYER_RECONCILED
360
3761
  0
DICTIONARY
  5
3762
330
C20
100
AcDbDictionary
280
     1
281
     1
  3
ADSK_XREC_LAYER_RECONCILED
360
3763
  0
DICTIONARY
  5
3764
330
C21
100
AcDbDictionary
280
     1
281
     1
  3
ADSK_XREC_LAYER_RECONCILED
360
3765
  0
DICTIONARY
  5
3766
330
C22
100
AcDbDictionary
280
     1
281
     1
  3
ADSK_XREC_LAYER_RECONCILED
360
3767
  0
DICTIONARY
  5
3768
330
C23
100
AcDbDictionary
280
     1
281
     1
  3
ADSK_XREC_LAYER_RECONCILED
360
3769
  0
DICTIONARY
  5
376A
330
C42
100
AcDbDictionary
280
     1
281
     1
  3
ADSK_XREC_LAYER_RECONCILED
360
376B
  0
XRECORD
  5
371B
102
{ACAD_REACTORS
330
BE3
102
}
330
BE3
100
AcDbXrecord
280
     1
300
AMECH_PP
300
2013
300
PDSU_F_S
  0
DICTIONARY
  5
BF2
102
{ACAD_REACTORS
330
BE3
102
}
330
BE3
100
AcDbDictionary
281
     1
  0
DICTIONARY
  5
3718
102
{ACAD_REACTORS
330
BE3
102
}
330
BE3
100
AcDbDictionary
281
     1
  3
Imperial24
350
3719
  0
DICTIONARY
  5
BE4
102
{ACAD_REACTORS
330
BE3
102
}
330
BE3
100
AcDbDictionary
281
     1
  0
DICTIONARY
  5
BF0
102
{ACAD_REACTORS
330
BE3
102
}
330
BE3
100
AcDbDictionary
281
     1
  3
Layout1
350
BF6
  3
Model
350
BFA
  0
DICTIONARY
  5
BF1
102
{ACAD_REACTORS
330
BE3
102
}
330
BE3
100
AcDbDictionary
281
     1
  3
ByBlock
350
36D6
  3
ByLayer
350
36CE
  3
Global
350
36DE
  0
DICTIONARY
  5
3713
102
{ACAD_REACTORS
330
BE3
102
}
330
BE3
100
AcDbDictionary
281
     1
  3
Standard
350
3714
  0
DICTIONARY
  5
BED
102
{ACAD_REACTORS
330
BE3
102
}
330
BE3
100
AcDbDictionary
281
     1
  3
Standard
350
BEE
  0
DICTIONARY
  5
BEF
102
{ACAD_REACTORS
330
BE3
102
}
330
BE3
100
AcDbDictionary
281
     1
  0
ACDBDICTIONARYWDFLT
  5
BE5
102
{ACAD_REACTORS
330
BE3
102
}
330
BE3
100
AcDbDictionary
281
     1
  3
Normal
350
BE6
100
AcDbDictionaryWithDefault
340
BE6
  0
DICTIONARY
  5
3701
102
{ACAD_REACTORS
330
BE3
102
}
330
BE3
100
AcDbDictionary
281
     1
  3
A0
350
3702
  3
A1
350
3703
  3
A2
350
3704
  3
A3
350
3705
  3
A4
350
3706
  3
A5
350
3707
  3
A6
350
3708
  3
A7
350
3709
  3
A8
350
370A
  3
A9
350
370B
  3
B0
350
370C
  3
B1
350
370D
  3
B2
350
370E
  3
B3
350
370F
  3
B4
350
3710
  3
B5
350
3711
  3
B6
350
3712
  0
DICTIONARY
  5
3715
102
{ACAD_REACTORS
330
BE3
102
}
330
BE3
100
AcDbDictionary
281
     1
  3
Imperial24
350
3717
  0
DICTIONARY
  5
36FF
102
{ACAD_REACTORS
330
BE3
102
}
330
BE3
100
AcDbDictionary
281
     1
  3
Standard
350
3700
  0
DICTIONARY
  5
36E6
102
{ACAD_REACTORS
330
BE3
102
}
330
BE3
100
AcDbDictionary
281
     1
  3
2dWireframe
350
36EC
  3
Basic
350
36EB
  3
Brighten
350
36F2
  3
ColorChange
350
36F6
  3
Conceptual
350
36EF
  3
Dim
350
36F1
  3
EdgeColorOff
350
36FE
  3
Facepattern
350
36F5
  3
Flat
350
36E7
  3
FlatWithEdges
350
36E8
  3
Gouraud
350
36E9
  3
GouraudWithEdges
350
36EA
  3
Hidden
350
36EE
  3
JitterOff
350
36FC
  3
Linepattern
350
36F4
  3
OverhangOff
350
36FD
  3
Realistic
350
36F0
  3
Shaded
350
36FB
  3
Shaded with edges
350
36FA
  3
Shades of Gray
350
36F7
  3
Sketchy
350
36F8
  3
Thicken
350
36F3
  3
Wireframe
350
36ED
  3
X-Ray
350
36F9
  0
XRECORD
  5
377D
102
{ACAD_REACTORS
330
BE3
102
}
330
BE3
100
AcDbXrecord
280
     1
 90
        1
330
3700
  0
DICTIONARY
  5
3770
102
{ACAD_REACTORS
330
BE3
102
}
330
BE3
100
AcDbDictionary
281
     1
  3
CANNOSCALE
350
3775
  3
CMLEADERSTYLE
350
3772
  3
CTABLESTYLE
350
3771
  3
CVIEWDETAILSTYLE
350
3773
  3
CVIEWSECTIONSTYLE
350
3774
  3
DIMASSOC
350
3779
  3
INDEXCTL
350
3777
  3
SORTENTS
350
3776
  3
XCLIPFRAME
350
3778
  0
DICTIONARY
  5
376D
102
{ACAD_REACTORS
330
BE3
102
}
330
BE3
100
AcDbDictionary
281
     1
  3
ASEBlockHierarchyIndexRecord
350
376F
1001
DCO15
1040
1815723819.553
  0
XRECORD
  5
377E
102
{ACAD_REACTORS
330
BE3
102
}
330
BE3
100
AcDbXrecord
280
     1
  1
DWGPROPS COOKIE
  2

  3

  4

  6

  7

  8
Micke
  9

300
=
301
=
302
=
303
=
304
=
305
=
306
=
307
=
308
=
309
=
 40
0.0999869212962963
 41
2455817.64629206
 42
2456818.533837419
  1

 90
        0
  0
XRECORD
  5
371F
102
{ACAD_REACTORS
330
371E
102
}
330
371E
100
AcDbXrecord
280
     1
290
     1
  0
XRECORD
  5
3721
102
{ACAD_REACTORS
330
3720
102
}
330
3720
100
AcDbXrecord
280
     1
290
     1
  0
XRECORD
  5
3723
102
{ACAD_REACTORS
330
3722
102
}
330
3722
100
AcDbXrecord
280
     1
290
     1
  0
XRECORD
  5
3725
102
{ACAD_REACTORS
330
3724
102
}
330
3724
100
AcDbXrecord
280
     1
290
     1
  0
XRECORD
  5
3727
102
{ACAD_REACTORS
330
3726
102
}
330
3726
100
AcDbXrecord
280
     1
290
     1
  0
XRECORD
  5
3729
102
{ACAD_REACTORS
330
3728
102
}
330
3728
100
AcDbXrecord
280
     1
290
     1
  0
XRECORD
  5
372B
102
{ACAD_REACTORS
330
372A
102
}
330
372A
100
AcDbXrecord
280
     1
290
     1
  0
XRECORD
  5
372D
102
{ACAD_REACTORS
330
372C
102
}
330
372C
100
AcDbXrecord
280
     1
290
     1
  0
XRECORD
  5
372F
102
{ACAD_REACTORS
330
372E
102
}
330
372E
100
AcDbXrecord
280
     1
290
     1
  0
XRECORD
  5
3731
102
{ACAD_REACTORS
330
3730
102
}
330
3730
100
AcDbXrecord
280
     1
290
     1
  0
XRECORD
  5
3733
102
{ACAD_REACTORS
330
3732
102
}
330
3732
100
AcDbXrecord
280
     1
290
     1
  0
XRECORD
  5
3735
102
{ACAD_REACTORS
330
3734
102
}
330
3734
100
AcDbXrecord
280
     1
290
     1
  0
XRECORD
  5
3737
102
{ACAD_REACTORS
330
3736
102
}
330
3736
100
AcDbXrecord
280
     1
290
     1
  0
XRECORD
  5
3739
102
{ACAD_REACTORS
330
3738
102
}
330
3738
100
AcDbXrecord
280
     1
290
     1
  0
XRECORD
  5
373B
102
{ACAD_REACTORS
330
373A
102
}
330
373A
100
AcDbXrecord
280
     1
290
     1
  0
XRECORD
  5
373D
102
{ACAD_REACTORS
330
373C
102
}
330
373C
100
AcDbXrecord
280
     1
290
     1
  0
XRECORD
  5
373F
102
{ACAD_REACTORS
330
373E
102
}
330
373E
100
AcDbXrecord
280
     1
290
     1
  0
XRECORD
  5
3741
102
{ACAD_REACTORS
330
3740
102
}
330
3740
100
AcDbXrecord
280
     1
290
     1
  0
XRECORD
  5
3743
102
{ACAD_REACTORS
330
3742
102
}
330
3742
100
AcDbXrecord
280
     1
290
     1
  0
XRECORD
  5
3745
102
{ACAD_REACTORS
330
3744
102
}
330
3744
100
AcDbXrecord
280
     1
290
     1
  0
XRECORD
  5
3747
102
{ACAD_REACTORS
330
3746
102
}
330
3746
100
AcDbXrecord
280
     1
290
     1
  0
XRECORD
  5
3749
102
{ACAD_REACTORS
330
3748
102
}
330
3748
100
AcDbXrecord
280
     1
290
     1
  0
XRECORD
  5
374B
102
{ACAD_REACTORS
330
374A
102
}
330
374A
100
AcDbXrecord
280
     1
290
     1
  0
XRECORD
  5
374D
102
{ACAD_REACTORS
330
374C
102
}
330
374C
100
AcDbXrecord
280
     1
290
     1
  0
XRECORD
  5
374F
102
{ACAD_REACTORS
330
374E
102
}
330
374E
100
AcDbXrecord
280
     1
290
     1
  0
XRECORD
  5
3751
102
{ACAD_REACTORS
330
3750
102
}
330
3750
100
AcDbXrecord
280
     1
290
     1
  0
XRECORD
  5
3753
102
{ACAD_REACTORS
330
3752
102
}
330
3752
100
AcDbXrecord
280
     1
290
     1
  0
XRECORD
  5
3755
102
{ACAD_REACTORS
330
3754
102
}
330
3754
100
AcDbXrecord
280
     1
290
     1
  0
XRECORD
  5
3757
102
{ACAD_REACTORS
330
3756
102
}
330
3756
100
AcDbXrecord
280
     1
290
     1
  0
XRECORD
  5
3759
102
{ACAD_REACTORS
330
3758
102
}
330
3758
100
AcDbXrecord
280
     1
290
     1
  0
XRECORD
  5
375B
102
{ACAD_REACTORS
330
375A
102
}
330
375A
100
AcDbXrecord
280
     1
290
     1
  0
XRECORD
  5
375D
102
{ACAD_REACTORS
330
375C
102
}
330
375C
100
AcDbXrecord
280
     1
290
     1
  0
XRECORD
  5
375F
102
{ACAD_REACTORS
330
375E
102
}
330
375E
100
AcDbXrecord
280
     1
290
     1
  0
XRECORD
  5
3761
102
{ACAD_REACTORS
330
3760
102
}
330
3760
100
AcDbXrecord
280
     1
290
     1
  0
XRECORD
  5
3763
102
{ACAD_REACTORS
330
3762
102
}
330
3762
100
AcDbXrecord
280
     1
290
     1
  0
XRECORD
  5
3765
102
{ACAD_REACTORS
330
3764
102
}
330
3764
100
AcDbXrecord
280
     1
290
     1
  0
XRECORD
  5
3767
102
{ACAD_REACTORS
330
3766
102
}
330
3766
100
AcDbXrecord
280
     1
290
     1
  0
XRECORD
  5
3769
102
{ACAD_REACTORS
330
3768
102
}
330
3768
100
AcDbXrecord
280
     1
290
     1
  0
XRECORD
  5
376B
102
{ACAD_REACTORS
330
376A
102
}
330
376A
100
AcDbXrecord
280
     1
290
     1
  0
ACDBDETAILVIEWSTYLE
  5
3719
102
{ACAD_REACTORS
330
3718
102
}
330
3718
100
AcDbModelDocViewStyle
 70
     0
  3
Imperial24
290
     0
100
AcDbDetailViewStyle
 70
     0
 71
     0
 90
        3
 71
     1
340
BE8
 40
0.24
340
0
 40
0.24
300

 40
0.36
280
     3
 71
     2
340
BEC
 90
       25
 71
     3
340
BE8
 40
0.24
 90
        1
 40
0.75
 90
        1
300
%<\AcVar ViewType \f "%tc1">% %<\AcVar ViewDetailId>%\PSCALE %<\AcVar ViewScale \f "%sn">%
 71
     4
340
BEC
 90
       25
340
BEC
 90
       25
280
     0
  0
LAYOUT
  5
BF6
102
{ACAD_XDICTIONARY
360
377F
102
}
102
{ACAD_REACTORS
330
BF0
102
}
330
BF0
100
AcDbPlotSettings
  1

  2
\\GBCFS501\GBCPR502
  4

  6

 40
0.0
 41
0.0
 42
0.0
 43
0.0
 44
0.0
 45
0.0
 46
0.0
 47
0.0
 48
0.0
 49
0.0
140
0.0
141
0.0
142
1.0
143
1.0
 70
   688
 72
     0
 73
     0
 74
     5
  7

 75
    16
147
1.0
148
0.0
149
0.0
100
AcDbLayout
  1
Layout1
 70
     1
 71
     1
 10
0.0
 20
0.0
 11
12.0
 21
9.0
 12
0.0
 22
0.0
 32
0.0
 14
1.000000000000000E+20
 24
1.000000000000000E+20
 34
1.000000000000000E+20
 15
-1.000000000000000E+20
 25
-1.000000000000000E+20
 35
-1.000000000000000E+20
146
0.0
 13
0.0
 23
0.0
 33
0.0
 16
1.0
 26
0.0
 36
0.0
 17
0.0
 27
1.0
 37
0.0
 76
     0
330
BF3
  0
LAYOUT
  5
BFA
102
{ACAD_XDICTIONARY
360
3781
102
}
102
{ACAD_REACTORS
330
BF0
102
}
330
BF0
100
AcDbPlotSettings
  1

  2
\\GBCFS501\GBCPR502
  4

  6

 40
0.0
 41
0.0
 42
0.0
 43
0.0
 44
0.0
 45
0.0
 46
0.0
 47
0.0
 48
0.0
 49
0.0
140
0.0
141
0.0
142
1.0
143
1.0
 70
  1712
 72
     0
 73
     0
 74
     0
  7

 75
     0
147
1.0
148
0.0
149
0.0
100
AcDbLayout
  1
Model
 70
     1
 71
     0
 10
0.0
 20
0.0
 11
12.0
 21
9.0
 12
0.0
 22
0.0
 32
0.0
 14
0.0
 24
0.0
 34
0.0
 15
0.0
 25
0.0
 35
0.0
146
0.0
 13
0.0
 23
0.0
 33
0.0
 16
1.0
 26
0.0
 36
0.0
 17
0.0
 27
1.0
 37
0.0
 76
     0
330
BF7
331
36CA
  0
MATERIAL
  5
36D6
102
{ACAD_XDICTIONARY
360
36D7
102
}
102
{ACAD_REACTORS
330
BF1
102
}
330
BF1
100
AcDbMaterial
  1
ByBlock
 72
     0
 43
0.0208333333333333
 43
0.0
 43
0.0
 43
0.0
 43
0.0
 43
0.0208333333333333
 43
0.0
 43
0.0
 43
0.0
 43
0.0
 43
1.0
 43
0.0
 43
0.0
 43
0.0
 43
0.0
 43
1.0
 77
     0
 47
0.0208333333333333
 47
0.0
 47
0.0
 47
0.0
 47
0.0
 47
0.0208333333333333
 47
0.0
 47
0.0
 47
0.0
 47
0.0
 47
1.0
 47
0.0
 47
0.0
 47
0.0
 47
0.0
 47
1.0
171
     0
 49
0.0208333333333333
 49
0.0
 49
0.0
 49
0.0
 49
0.0
 49
0.0208333333333333
 49
0.0
 49
0.0
 49
0.0
 49
0.0
 49
1.0
 49
0.0
 49
0.0
 49
0.0
 49
0.0
 49
1.0
175
     0
142
0.0208333333333333
142
0.0
142
0.0
142
0.0
142
0.0
142
0.0208333333333333
142
0.0
142
0.0
142
0.0
142
0.0
142
1.0
142
0.0
142
0.0
142
0.0
142
0.0
142
1.0
179
     0
144
0.0208333333333333
144
0.0
144
0.0
144
0.0
144
0.0
144
0.0208333333333333
144
0.0
144
0.0
144
0.0
144
0.0
144
1.0
144
0.0
144
0.0
144
0.0
144
0.0
144
1.0
147
0.0208333333333333
147
0.0
147
0.0
147
0.0
147
0.0
147
0.0208333333333333
147
0.0
147
0.0
147
0.0
147
0.0
147
1.0
147
0.0
147
0.0
147
0.0
147
0.0
147
1.0
  0
MATERIAL
  5
36CE
102
{ACAD_XDICTIONARY
360
36CF
102
}
102
{ACAD_REACTORS
330
BF1
102
}
330
BF1
100
AcDbMaterial
  1
ByLayer
 72
     0
 43
0.0208333333333333
 43
0.0
 43
0.0
 43
0.0
 43
0.0
 43
0.0208333333333333
 43
0.0
 43
0.0
 43
0.0
 43
0.0
 43
1.0
 43
0.0
 43
0.0
 43
0.0
 43
0.0
 43
1.0
 77
     0
 47
0.0208333333333333
 47
0.0
 47
0.0
 47
0.0
 47
0.0
 47
0.0208333333333333
 47
0.0
 47
0.0
 47
0.0
 47
0.0
 47
1.0
 47
0.0
 47
0.0
 47
0.0
 47
0.0
 47
1.0
171
     0
 49
0.0208333333333333
 49
0.0
 49
0.0
 49
0.0
 49
0.0
 49
0.0208333333333333
 49
0.0
 49
0.0
 49
0.0
 49
0.0
 49
1.0
 49
0.0
 49
0.0
 49
0.0
 49
0.0
 49
1.0
175
     0
142
0.0208333333333333
142
0.0
142
0.0
142
0.0
142
0.0
142
0.0208333333333333
142
0.0
142
0.0
142
0.0
142
0.0
142
1.0
142
0.0
142
0.0
142
0.0
142
0.0
142
1.0
179
     0
144
0.0208333333333333
144
0.0
144
0.0
144
0.0
144
0.0
144
0.0208333333333333
144
0.0
144
0.0
144
0.0
144
0.0
144
1.0
144
0.0
144
0.0
144
0.0
144
0.0
144
1.0
147
0.0208333333333333
147
0.0
147
0.0
147
0.0
147
0.0
147
0.0208333333333333
147
0.0
147
0.0
147
0.0
147
0.0
147
1.0
147
0.0
147
0.0
147
0.0
147
0.0
147
1.0
  0
MATERIAL
  5
36DE
102
{ACAD_XDICTIONARY
360
36DF
102
}
102
{ACAD_REACTORS
330
BF1
102
}
330
BF1
100
AcDbMaterial
  1
Global
 72
     0
 43
0.0208333333333333
 43
0.0
 43
0.0
 43
0.0
 43
0.0
 43
0.0208333333333333
 43
0.0
 43
0.0
 43
0.0
 43
0.0
 43
1.0
 43
0.0
 43
0.0
 43
0.0
 43
0.0
 43
1.0
 77
     0
 47
0.0208333333333333
 47
0.0
 47
0.0
 47
0.0
 47
0.0
 47
0.0208333333333333
 47
0.0
 47
0.0
 47
0.0
 47
0.0
 47
1.0
 47
0.0
 47
0.0
 47
0.0
 47
0.0
 47
1.0
171
     0
 49
0.0208333333333333
 49
0.0
 49
0.0
 49
0.0
 49
0.0
 49
0.0208333333333333
 49
0.0
 49
0.0
 49
0.0
 49
0.0
 49
1.0
 49
0.0
 49
0.0
 49
0.0
 49
0.0
 49
1.0
175
     0
142
0.0208333333333333
142
0.0
142
0.0
142
0.0
142
0.0
142
0.0208333333333333
142
0.0
142
0.0
142
0.0
142
0.0
142
1.0
142
0.0
142
0.0
142
0.0
142
0.0
142
1.0
179
     0
144
0.0208333333333333
144
0.0
144
0.0
144
0.0
144
0.0
144
0.0208333333333333
144
0.0
144
0.0
144
0.0
144
0.0
144
1.0
144
0.0
144
0.0
144
0.0
144
0.0
144
1.0
147
0.0208333333333333
147
0.0
147
0.0
147
0.0
147
0.0
147
0.0208333333333333
147
0.0
147
0.0
147
0.0
147
0.0
147
1.0
147
0.0
147
0.0
147
0.0
147
0.0
147
1.0
  0
MLEADERSTYLE
  5
3714
102
{ACAD_REACTORS
330
3713
102
}
330
3713
100
AcDbMLeaderStyle
170
     2
171
     1
172
     0
 90
        2
 40
0.0
 41
0.0
173
     1
 91
-1056964608
340
BEA
 92
       -2
290
     1
 42
0.09
291
     1
 43
0.36
  3
Standard
 44
0.18
300

342
BE8
174
     1
178
     6
175
     1
176
     0
 93
-1056964608
 45
0.18
292
     0
297
     0
 46
0.18
 94
-1056964608
 47
1.0
 49
1.0
140
1.0
293
     1
141
0.0
294
     1
177
     0
142
1.0
295
     0
296
     0
143
0.125
1001
ACAD_MLEADERVER
1070
     2
  0
MLINESTYLE
  5
BEE
102
{ACAD_REACTORS
330
BED
102
}
330
BED
100
AcDbMlineStyle
  2
STANDARD
 70
     0
  3

 62
   256
 51
90.0
 52
90.0
 71
     2
 49
0.5
 62
   256
  6
BYLAYER
 49
-0.5
 62
   256
  6
BYLAYER
  0
ACDBPLACEHOLDER
  5
BE6
102
{ACAD_REACTORS
330
BE5
102
}
330
BE5
  0
SCALE
  5
3702
102
{ACAD_REACTORS
330
3701
102
}
330
3701
100
AcDbScale
 70
     0
300
1:1
140
1.0
141
1.0
290
     1
  0
SCALE
  5
3703
102
{ACAD_REACTORS
330
3701
102
}
330
3701
100
AcDbScale
 70
     0
300
1/128" = 1'-0"
140
0.0078125
141
12.0
290
     0
  0
SCALE
  5
3704
102
{ACAD_REACTORS
330
3701
102
}
330
3701
100
AcDbScale
 70
     0
300
1/64" = 1'-0"
140
0.015625
141
12.0
290
     0
  0
SCALE
  5
3705
102
{ACAD_REACTORS
330
3701
102
}
330
3701
100
AcDbScale
 70
     0
300
1/32" = 1'-0"
140
0.03125
141
12.0
290
     0
  0
SCALE
  5
3706
102
{ACAD_REACTORS
330
3701
102
}
330
3701
100
AcDbScale
 70
     0
300
1/16" = 1'-0"
140
0.0625
141
12.0
290
     0
  0
SCALE
  5
3707
102
{ACAD_REACTORS
330
3701
102
}
330
3701
100
AcDbScale
 70
     0
300
3/32" = 1'-0"
140
0.09375
141
12.0
290
     0
  0
SCALE
  5
3708
102
{ACAD_REACTORS
330
3701
102
}
330
3701
100
AcDbScale
 70
     0
300
1/8" = 1'-0"
140
0.125
141
12.0
290
     0
  0
SCALE
  5
3709
102
{ACAD_REACTORS
330
3701
102
}
330
3701
100
AcDbScale
 70
     0
300
3/16" = 1'-0"
140
0.1875
141
12.0
290
     0
  0
SCALE
  5
370A
102
{ACAD_REACTORS
330
3701
102
}
330
3701
100
AcDbScale
 70
     0
300
1/4" = 1'-0"
140
0.25
141
12.0
290
     0
  0
SCALE
  5
370B
102
{ACAD_REACTORS
330
3701
102
}
330
3701
100
AcDbScale
 70
     0
300
3/8" = 1'-0"
140
0.375
141
12.0
290
     0
  0
SCALE
  5
370C
102
{ACAD_REACTORS
330
3701
102
}
330
3701
100
AcDbScale
 70
     0
300
1/2" = 1'-0"
140
0.5
141
12.0
290
     0
  0
SCALE
  5
370D
102
{ACAD_REACTORS
330
3701
102
}
330
3701
100
AcDbScale
 70
     0
300
3/4" = 1'-0"
140
0.75
141
12.0
290
     0
  0
SCALE
  5
370E
102
{ACAD_REACTORS
330
3701
102
}
330
3701
100
AcDbScale
 70
     0
300
1" = 1'-0"
140
1.0
141
12.0
290
     0
  0
SCALE
  5
370F
102
{ACAD_REACTORS
330
3701
102
}
330
3701
100
AcDbScale
 70
     0
300
1-1/2" = 1'-0"
140
1.5
141
12.0
290
     0
  0
SCALE
  5
3710
102
{ACAD_REACTORS
330
3701
102
}
330
3701
100
AcDbScale
 70
     0
300
3" = 1'-0"
140
3.0
141
12.0
290
     0
  0
SCALE
  5
3711
102
{ACAD_REACTORS
330
3701
102
}
330
3701
100
AcDbScale
 70
     0
300
6" = 1'-0"
140
6.0
141
12.0
290
     0
  0
SCALE
  5
3712
102
{ACAD_REACTORS
330
3701
102
}
330
3701
100
AcDbScale
 70
     0
300
1'-0" = 1'-0"
140
12.0
141
12.0
290
     0
  0
ACDBSECTIONVIEWSTYLE
  5
3717
102
{ACAD_REACTORS
330
3715
102
}
330
3715
100
AcDbModelDocViewStyle
 70
     0
  3
Imperial24
290
     0
100
AcDbSectionViewStyle
 70
     0
 71
     0
 90
       78
 71
     1
340
BE8
 40
0.24
340
0
340
0
 40
0.24
300
I, O, Q, S, X, Z
 40
0.48
 90
        3
 40
0.18
 90
        1
 71
     2
340
3716
 90
       25
340
BEC
 90
       50
 40
0.24
 40
0.0
 40
0.24
 71
     3
340
BE8
 40
0.24
 90
        1
 40
0.75
 90
        1
300
%<\AcVar ViewType \f "%tc1">% %<\AcVar ViewSectionStartId>%-%<\AcVar ViewSectionEndId>%\PSCALE %<\AcVar ViewScale \f "%sn">%
 71
     4
300
ANSI31
 40
1.0
 90
        0
290
     0
290
     0
 90
        6
 40
0.0
 40
1.570796326794896
 40
0.2617993877991494
 40
1.308996938995747
 40
-0.2617993877991494
 40
1.832595714594046
  0
TABLESTYLE
  5
3700
102
{ACAD_XDICTIONARY
360
377B
102
}
102
{ACAD_REACTORS
330
36FF
102
}
330
36FF
100
AcDbTableStyle
  3
Standard
 70
     0
 71
     0
 40
0.06
 41
0.06
280
     0
281
     0
  7
STANDARD
140
0.18
170
     2
 62
     0
 63
     7
283
     0
274
    -2
284
     1
 64
     0
275
    -2
285
     1
 65
     0
276
    -2
286
     1
 66
     0
277
    -2
287
     1
 67
     0
278
    -2
288
     1
 68
     0
279
    -2
289
     1
 69
     0
  7
STANDARD
140
0.25
170
     5
 62
     0
 63
     7
283
     0
274
    -2
284
     1
 64
     0
275
    -2
285
     1
 65
     0
276
    -2
286
     1
 66
     0
277
    -2
287
     1
 67
     0
278
    -2
288
     1
 68
     0
279
    -2
289
     1
 69
     0
  7
STANDARD
140
0.18
170
     5
 62
     0
 63
     7
283
     0
274
    -2
284
     1
 64
     0
275
    -2
285
     1
 65
     0
276
    -2
286
     1
 66
     0
277
    -2
287
     1
 67
     0
278
    -2
288
     1
 68
     0
279
    -2
289
     1
 69
     0
  0
VISUALSTYLE
  5
36EC
102
{ACAD_XDICTIONARY
360
3790
102
}
102
{ACAD_REACTORS
330
36E6
102
}
330
36E6
100
AcDbVisualStyle
  2
2dWireframe
 70
     4
 71
     0
 72
     2
 73
     0
 90
        0
 40
-0.6
 41
-30.0
 62
     5
 63
     7
 74
     1
 91
        4
 64
     7
 65
   257
 75
     1
175
     1
 42
1.0
 92
        0
 66
   257
 43
1.0
 76
     1
 77
     6
 78
     2
 67
     7
 79
     5
170
     0
171
     0
290
     0
174
     0
 93
        1
 44
0.0
173
     0
291
     0
 45
0.0
1001
ACAD
1000
AcDbSavedByObjectVersion
1070
     0
  0
VISUALSTYLE
  5
36EB
102
{ACAD_XDICTIONARY
360
378E
102
}
102
{ACAD_REACTORS
330
36E6
102
}
330
36E6
100
AcDbVisualStyle
  2
Basic
 70
     7
 71
     1
 72
     0
 73
     1
 90
        0
 40
-0.6
 41
-30.0
 62
     5
 63
     7
 74
     0
 91
        4
 64
     7
 65
   257
 75
     1
175
     1
 42
1.0
 92
        8
 66
     7
 43
1.0
 76
     1
 77
     6
 78
     2
 67
     7
 79
     5
170
     0
171
     0
290
     0
174
     0
 93
        1
 44
0.0
173
     0
291
     1
 45
0.0
1001
ACAD
1000
AcDbSavedByObjectVersion
1070
     0
  0
VISUALSTYLE
  5
36F2
102
{ACAD_XDICTIONARY
360
379C
102
}
102
{ACAD_REACTORS
330
36E6
102
}
330
36E6
100
AcDbVisualStyle
  2
Brighten
 70
    12
 71
     2
 72
     2
 73
     0
 90
        0
 40
-0.6
 41
-30.0
 62
     5
 63
     7
 74
     1
 91
        4
 64
     7
 65
   257
 75
     1
175
     1
 42
1.0
 92
        8
 66
     7
 43
1.0
 76
     1
 77
     6
 78
     2
 67
     7
 79
     5
170
     0
171
     0
290
     0
174
     0
 93
        1
 44
50.0
173
     0
291
     1
 45
0.0
1001
ACAD
1000
AcDbSavedByObjectVersion
1070
     0
  0
VISUALSTYLE
  5
36F6
102
{ACAD_XDICTIONARY
360
37A4
102
}
102
{ACAD_REACTORS
330
36E6
102
}
330
36E6
100
AcDbVisualStyle
  2
ColorChange
 70
    16
 71
     2
 72
     2
 73
     3
 90
        0
 40
-0.6
 41
-30.0
 62
     5
 63
     8
 74
     1
 91
        4
 64
     7
 65
   257
 75
     1
175
     1
 42
1.0
 92
        8
 66
     8
 43
1.0
 76
     1
 77
     6
 78
     2
 67
     7
 79
     5
170
     0
171
     0
290
     0
174
     0
 93
        1
 44
0.0
173
     0
291
     1
 45
0.0
1001
ACAD
1000
AcDbSavedByObjectVersion
1070
     0
  0
VISUALSTYLE
  5
36EF
102
{ACAD_XDICTIONARY
360
3796
102
}
102
{ACAD_REACTORS
330
36E6
102
}
330
36E6
100
AcDbVisualStyle
  2
Conceptual
 70
     9
 71
     3
 72
     2
 73
     0
 90
        0
 40
-0.6
 41
-30.0
 62
     5
 63
     7
 74
     2
 91
        2
 64
     7
 65
   257
 75
     1
175
     1
 42
179.0
 92
        8
 66
     7
 43
1.0
 76
     1
 77
     6
 78
     2
 67
     7
 79
     3
170
     0
171
     0
290
     0
174
     0
 93
        1
 44
0.0
173
     0
291
     0
 45
0.0
1001
ACAD
1000
AcDbSavedByObjectVersion
1070
     0
  0
VISUALSTYLE
  5
36F1
102
{ACAD_XDICTIONARY
360
379A
102
}
102
{ACAD_REACTORS
330
36E6
102
}
330
36E6
100
AcDbVisualStyle
  2
Dim
 70
    11
 71
     2
 72
     2
 73
     0
 90
        0
 40
-0.6
 41
-30.0
 62
     5
 63
     7
 74
     1
 91
        4
 64
     7
 65
   257
 75
     1
175
     1
 42
1.0
 92
        8
 66
     7
 43
1.0
 76
     1
 77
     6
 78
     2
 67
     7
 79
     5
170
     0
171
     0
290
     0
174
     0
 93
        1
 44
-50.0
173
     0
291
     1
 45
0.0
1001
ACAD
1000
AcDbSavedByObjectVersion
1070
     0
  0
VISUALSTYLE
  5
36FE
102
{ACAD_XDICTIONARY
360
37B4
102
}
102
{ACAD_REACTORS
330
36E6
102
}
330
36E6
100
AcDbVisualStyle
  2
EdgeColorOff
 70
    22
 71
     2
 72
     2
 73
     0
 90
        0
 40
-0.6
 41
-30.0
 62
     5
 63
     7
 74
     1
 91
        4
 64
     7
 65
   257
 75
     1
175
     1
 42
1.0
 92
        8
 66
     7
 43
1.0
 76
     1
 77
     6
 78
     2
 67
     7
 79
     5
170
     0
171
     0
290
     0
174
     0
 93
        1
 44
0.0
173
     0
291
     1
 45
0.0
1001
ACAD
1000
AcDbSavedByObjectVersion
1070
     0
  0
VISUALSTYLE
  5
36F5
102
{ACAD_XDICTIONARY
360
37A2
102
}
102
{ACAD_REACTORS
330
36E6
102
}
330
36E6
100
AcDbVisualStyle
  2
Facepattern
 70
    15
 71
     2
 72
     2
 73
     0
 90
        0
 40
-0.6
 41
-30.0
 62
     5
 63
     7
 74
     1
 91
        4
 64
     7
 65
   257
 75
     1
175
     1
 42
1.0
 92
        8
 66
     7
 43
1.0
 76
     1
 77
     6
 78
     2
 67
     7
 79
     5
170
     0
171
     0
290
     0
174
     0
 93
        1
 44
0.0
173
     0
291
     1
 45
0.0
1001
ACAD
1000
AcDbSavedByObjectVersion
1070
     0
  0
VISUALSTYLE
  5
36E7
102
{ACAD_XDICTIONARY
360
3786
102
}
102
{ACAD_REACTORS
330
36E6
102
}
330
36E6
100
AcDbVisualStyle
  2
Flat
 70
     0
 71
     2
 72
     1
 73
     1
 90
        2
 40
-0.6
 41
30.0
 62
     5
 63
     7
 74
     0
 91
        0
 64
     7
 65
   257
 75
     1
175
     1
 42
1.0
 92
        8
 66
     7
 43
1.0
 76
     1
 77
     6
 78
     2
 67
     7
 79
     5
170
     0
171
     0
290
     0
174
     0
 93
       13
 44
0.0
173
     0
291
     1
 45
0.0
1001
ACAD
1000
AcDbSavedByObjectVersion
1070
     0
  0
VISUALSTYLE
  5
36E8
102
{ACAD_XDICTIONARY
360
3788
102
}
102
{ACAD_REACTORS
330
36E6
102
}
330
36E6
100
AcDbVisualStyle
  2
FlatWithEdges
 70
     1
 71
     2
 72
     1
 73
     1
 90
        2
 40
-0.6
 41
30.0
 62
     5
 63
     7
 74
     1
 91
        0
 64
     7
 65
   257
 75
     1
175
     1
 42
1.0
 92
        0
 66
   257
 43
1.0
 76
     1
 77
     6
 78
     2
 67
     7
 79
     5
170
     0
171
     0
290
     0
174
     0
 93
       13
 44
0.0
173
     0
291
     1
 45
0.0
1001
ACAD
1000
AcDbSavedByObjectVersion
1070
     0
  0
VISUALSTYLE
  5
36E9
102
{ACAD_XDICTIONARY
360
378A
102
}
102
{ACAD_REACTORS
330
36E6
102
}
330
36E6
100
AcDbVisualStyle
  2
Gouraud
 70
     2
 71
     2
 72
     2
 73
     1
 90
        2
 40
-0.6
 41
30.0
 62
     5
 63
     7
 74
     0
 91
        0
 64
     7
 65
   257
 75
     1
175
     1
 42
1.0
 92
        0
 66
     7
 43
1.0
 76
     1
 77
     6
 78
     2
 67
     7
 79
     5
170
     0
171
     0
290
     0
174
     0
 93
       13
 44
0.0
173
     0
291
     1
 45
0.0
1001
ACAD
1000
AcDbSavedByObjectVersion
1070
     0
  0
VISUALSTYLE
  5
36EA
102
{ACAD_XDICTIONARY
360
378C
102
}
102
{ACAD_REACTORS
330
36E6
102
}
330
36E6
100
AcDbVisualStyle
  2
GouraudWithEdges
 70
     3
 71
     2
 72
     2
 73
     1
 90
        2
 40
-0.6
 41
30.0
 62
     5
 63
     7
 74
     1
 91
        0
 64
     7
 65
   257
 75
     1
175
     1
 42
1.0
 92
        0
 66
   257
 43
1.0
 76
     1
 77
     6
 78
     2
 67
     7
 79
     5
170
     0
171
     0
290
     0
174
     0
 93
       13
 44
0.0
173
     0
291
     1
 45
0.0
1001
ACAD
1000
AcDbSavedByObjectVersion
1070
     0
  0
VISUALSTYLE
  5
36EE
102
{ACAD_XDICTIONARY
360
3794
102
}
102
{ACAD_REACTORS
330
36E6
102
}
330
36E6
100
AcDbVisualStyle
  2
Hidden
 70
     6
 71
     1
 72
     2
 73
     2
 90
        0
 40
-0.6
 41
-30.0
 62
     5
 63
     7
 74
     2
 91
        2
 64
     7
 65
   257
 75
     2
175
     1
 42
40.0
 92
        0
 66
   257
 43
1.0
 76
     1
 77
     6
 78
     2
 67
     7
 79
     3
170
     0
171
     0
290
     0
174
     0
 93
        1
 44
0.0
173
     0
291
     0
 45
0.0
1001
ACAD
1000
AcDbSavedByObjectVersion
1070
     0
  0
VISUALSTYLE
  5
36FC
102
{ACAD_XDICTIONARY
360
37B0
102
}
102
{ACAD_REACTORS
330
36E6
102
}
330
36E6
100
AcDbVisualStyle
  2
JitterOff
 70
    20
 71
     2
 72
     2
 73
     0
 90
        0
 40
-0.6
 41
-30.0
 62
     5
 63
     7
 74
     1
 91
        4
 64
     7
 65
   257
 75
     1
175
     1
 42
1.0
 92
       10
 66
     7
 43
1.0
 76
     1
 77
     6
 78
     2
 67
     7
 79
     5
170
     0
171
     0
290
     0
174
     0
 93
        1
 44
0.0
173
     0
291
     1
 45
0.0
1001
ACAD
1000
AcDbSavedByObjectVersion
1070
     0
  0
VISUALSTYLE
  5
36F4
102
{ACAD_XDICTIONARY
360
37A0
102
}
102
{ACAD_REACTORS
330
36E6
102
}
330
36E6
100
AcDbVisualStyle
  2
Linepattern
 70
    14
 71
     2
 72
     2
 73
     0
 90
        0
 40
-0.6
 41
-30.0
 62
     5
 63
     7
 74
     1
 91
        4
 64
     7
 65
   257
 75
     7
175
     7
 42
1.0
 92
        8
 66
     7
 43
1.0
 76
     1
 77
     6
 78
     2
 67
     7
 79
     5
170
     0
171
     0
290
     0
174
     0
 93
        1
 44
0.0
173
     0
291
     1
 45
0.0
1001
ACAD
1000
AcDbSavedByObjectVersion
1070
     0
  0
VISUALSTYLE
  5
36FD
102
{ACAD_XDICTIONARY
360
37B2
102
}
102
{ACAD_REACTORS
330
36E6
102
}
330
36E6
100
AcDbVisualStyle
  2
OverhangOff
 70
    21
 71
     2
 72
     2
 73
     0
 90
        0
 40
-0.6
 41
-30.0
 62
     5
 63
     7
 74
     1
 91
        4
 64
     7
 65
   257
 75
     1
175
     1
 42
1.0
 92
        9
 66
     7
 43
1.0
 76
     1
 77
     6
 78
     2
 67
     7
 79
     5
170
     0
171
     0
290
     0
174
     0
 93
        1
 44
0.0
173
     0
291
     1
 45
0.0
1001
ACAD
1000
AcDbSavedByObjectVersion
1070
     0
  0
VISUALSTYLE
  5
36F0
102
{ACAD_XDICTIONARY
360
3798
102
}
102
{ACAD_REACTORS
330
36E6
102
}
330
36E6
100
AcDbVisualStyle
  2
Realistic
 70
     8
 71
     2
 72
     3
 73
     0
 90
        2
 40
-0.6
 41
30.0
 62
     5
 63
     7
 74
     0
 91
        0
 64
     7
 65
   257
 75
     1
175
     1
 42
1.0
 92
        8
 66
   257
 43
1.0
 76
     1
 77
     6
 78
     2
 67
     7
 79
     3
170
     0
171
     0
290
     0
174
     0
 93
       13
 44
0.0
173
     0
291
     0
 45
0.0
1001
ACAD
1000
AcDbSavedByObjectVersion
1070
     0
  0
VISUALSTYLE
  5
36FB
102
{ACAD_XDICTIONARY
360
37AE
102
}
102
{ACAD_REACTORS
330
36E6
102
}
330
36E6
100
AcDbVisualStyle
  2
Shaded
 70
    27
 71
     2
 72
     2
 73
     1
 90
        2
 40
-0.6
 41
30.0
 62
     5
 63
     7
 74
     0
 91
        4
 64
     7
 65
   257
 75
     1
175
     1
 42
1.0
 92
        8
 66
   257
 43
1.0
 76
     1
 77
     6
 78
     2
 67
     8
 79
     3
170
     0
171
     0
290
     0
174
     0
 93
        5
 44
0.0
173
     0
291
     0
 45
0.0
1001
ACAD
1000
AcDbSavedByObjectVersion
1070
     0
  0
VISUALSTYLE
  5
36FA
102
{ACAD_XDICTIONARY
360
37AC
102
}
102
{ACAD_REACTORS
330
36E6
102
}
330
36E6
100
AcDbVisualStyle
  2
Shaded with edges
 70
    26
 71
     2
 72
     2
 73
     1
 90
        2
 40
-0.6
 41
30.0
 62
     5
 63
     7
 74
     1
 91
       10
 64
     7
 65
   257
 75
     2
175
     1
 42
1.0
 92
        8
 66
   257
 43
1.0
 76
     1
 77
     6
 78
     2
 67
     7
 79
     3
170
     0
171
     0
290
     0
174
     0
 93
        5
 44
0.0
173
     0
291
     0
 45
0.0
1001
ACAD
1000
AcDbSavedByObjectVersion
1070
     0
  0
VISUALSTYLE
  5
36F7
102
{ACAD_XDICTIONARY
360
37A6
102
}
102
{ACAD_REACTORS
330
36E6
102
}
330
36E6
100
AcDbVisualStyle
  2
Shades of Gray
 70
    23
 71
     2
 72
     2
 73
     3
 90
        0
 40
-0.6
 41
-30.0
 62
     5
 63
     7
 74
     2
 91
        2
 64
     7
 65
     7
 75
     1
175
     1
 42
40.0
 92
        8
 66
     7
 43
1.0
 76
     1
 77
     6
 78
     2
 67
     7
 79
     3
170
     0
171
     0
290
     0
174
     0
 93
        1
 44
0.0
173
     0
291
     0
 45
0.0
1001
ACAD
1000
AcDbSavedByObjectVersion
1070
     0
  0
VISUALSTYLE
  5
36F8
102
{ACAD_XDICTIONARY
360
37A8
102
}
102
{ACAD_REACTORS
330
36E6
102
}
330
36E6
100
AcDbVisualStyle
  2
Sketchy
 70
    24
 71
     1
 72
     2
 73
     2
 90
        0
 40
-0.6
 41
-30.0
 62
     5
 63
     7
 74
     2
 91
        2
 64
     7
 65
     7
 75
     1
175
     1
 42
40.0
 92
       11
 66
     7
 43
1.0
 76
     1
 77
     6
 78
     2
 67
     7
 79
     6
170
     0
171
     0
290
     0
174
     0
 93
        1
 44
0.0
173
     0
291
     0
 45
0.0
1001
ACAD
1000
AcDbSavedByObjectVersion
1070
     0
  0
VISUALSTYLE
  5
36F3
102
{ACAD_XDICTIONARY
360
379E
102
}
102
{ACAD_REACTORS
330
36E6
102
}
330
36E6
100
AcDbVisualStyle
  2
Thicken
 70
    13
 71
     2
 72
     2
 73
     0
 90
        0
 40
-0.6
 41
-30.0
 62
     5
 63
     7
 74
     1
 91
        4
 64
     7
 65
   257
 75
     1
175
     1
 42
1.0
 92
       12
 66
     7
 43
1.0
 76
     1
 77
     6
 78
     2
 67
     7
 79
     5
170
     0
171
     0
290
     0
174
     0
 93
        1
 44
0.0
173
     0
291
     1
 45
0.0
1001
ACAD
1000
AcDbSavedByObjectVersion
1070
     0
  0
VISUALSTYLE
  5
36ED
102
{ACAD_XDICTIONARY
360
3792
102
}
102
{ACAD_REACTORS
330
36E6
102
}
330
36E6
100
AcDbVisualStyle
  2
Wireframe
 70
     5
 71
     0
 72
     2
 73
     0
 90
        0
 40
-0.6
 41
-30.0
 62
     5
 63
     7
 74
     1
 91
        4
 64
     7
 65
   257
 75
     1
175
     1
 42
1.0
 92
        0
 66
   257
 43
1.0
 76
     1
 77
     6
 78
     2
 67
     7
 79
     3
170
     0
171
     0
290
     0
174
     0
 93
        1
 44
0.0
173
     0
291
     0
 45
0.0
1001
ACAD
1000
AcDbSavedByObjectVersion
1070
     0
  0
VISUALSTYLE
  5
36F9
102
{ACAD_XDICTIONARY
360
37AA
102
}
102
{ACAD_REACTORS
330
36E6
102
}
330
36E6
100
AcDbVisualStyle
  2
X-Ray
 70
    25
 71
     2
 72
     2
 73
     1
 90
        1
 40
0.5
 41
-30.0
 62
     5
 63
     7
 74
     1
 91
        0
 64
     7
 65
   257
 75
     1
175
     1
 42
1.0
 92
        8
 66
     7
 43
1.0
 76
     1
 77
     6
 78
     2
 67
     7
 79
     3
170
     0
171
     0
290
     0
174
     0
 93
       13
 44
0.0
173
     0
291
     0
 45
0.0
1001
ACAD
1000
AcDbSavedByObjectVersion
1070
     0
  0
DICTIONARYVAR
  5
3775
102
{ACAD_REACTORS
330
3770
102
}
330
3770
100
DictionaryVariables
280
     0
  1
1:1
  0
DICTIONARYVAR
  5
3772
102
{ACAD_REACTORS
330
3770
102
}
330
3770
100
DictionaryVariables
280
     0
  1
STANDARD
  0
DICTIONARYVAR
  5
3771
102
{ACAD_REACTORS
330
3770
102
}
330
3770
100
DictionaryVariables
280
     0
  1
STANDARD
  0
DICTIONARYVAR
  5
3773
102
{ACAD_REACTORS
330
3770
102
}
330
3770
100
DictionaryVariables
280
     0
  1
Imperial24
  0
DICTIONARYVAR
  5
3774
102
{ACAD_REACTORS
330
3770
102
}
330
3770
100
DictionaryVariables
280
     0
  1
Imperial24
  0
DICTIONARYVAR
  5
3779
102
{ACAD_REACTORS
330
3770
102
}
330
3770
100
DictionaryVariables
280
     0
  1
1
  0
DICTIONARYVAR
  5
3777
102
{ACAD_REACTORS
330
3770
102
}
330
3770
100
DictionaryVariables
280
     0
  1
0
  0
DICTIONARYVAR
  5
3776
102
{ACAD_REACTORS
330
3770
102
}
330
3770
100
DictionaryVariables
280
     0
  1
127
  0
DICTIONARYVAR
  5
3778
102
{ACAD_REACTORS
330
3770
102
}
330
3770
100
DictionaryVariables
280
     0
  1
0
  0
XRECORD
  5
376F
102
{ACAD_REACTORS
330
376D
102
}
330
376D
100
AcDbXrecord
280
     1
  0
DICTIONARY
  5
377F
330
BF6
100
AcDbDictionary
280
     1
281
     1
  3
ACAD_XREC_ROUNDTRIP
360
3780
  0
DICTIONARY
  5
3781
330
BFA
100
AcDbDictionary
280
     1
281
     1
  3
ACAD_XREC_ROUNDTRIP
360
3782
  0
DICTIONARY
  5
36D7
330
36D6
100
AcDbDictionary
280
     1
281
     1
  3
ACAD_XREC_ROUNDTRIP
360
3784
  3
BUMPTILE
360
36D9
  3
DIFFUSETILE
360
36D8
  3
OPACITYTILE
360
36DC
  3
REFLECTIONTILE
360
36DB
  3
REFRACTIONTILE
360
36DD
  3
SPECULARTILE
360
36DA
  0
DICTIONARY
  5
36CF
330
36CE
100
AcDbDictionary
280
     1
281
     1
  3
ACAD_XREC_ROUNDTRIP
360
3783
  3
BUMPTILE
360
36D1
  3
DIFFUSETILE
360
36D0
  3
OPACITYTILE
360
36D4
  3
REFLECTIONTILE
360
36D3
  3
REFRACTIONTILE
360
36D5
  3
SPECULARTILE
360
36D2
  0
DICTIONARY
  5
36DF
330
36DE
100
AcDbDictionary
280
     1
281
     1
  3
ACAD_XREC_ROUNDTRIP
360
3785
  3
BUMPTILE
360
36E1
  3
DIFFUSETILE
360
36E0
  3
OPACITYTILE
360
36E4
  3
REFLECTIONTILE
360
36E3
  3
REFRACTIONTILE
360
36E5
  3
SPECULARTILE
360
36E2
  0
DICTIONARY
  5
377B
330
3700
100
AcDbDictionary
280
     1
281
     1
  3
ACAD_ROUNDTRIP_2008_TABLESTYLE_CELLSTYLEMAP
360
377C
  3
ACAD_XREC_ROUNDTRIP
360
37B6
  0
DICTIONARY
  5
3790
330
36EC
100
AcDbDictionary
280
     1
281
     1
  3
ACAD_XREC_ROUNDTRIP
360
3791
  0
DICTIONARY
  5
378E
330
36EB
100
AcDbDictionary
280
     1
281
     1
  3
ACAD_XREC_ROUNDTRIP
360
378F
  0
DICTIONARY
  5
379C
330
36F2
100
AcDbDictionary
280
     1
281
     1
  3
ACAD_XREC_ROUNDTRIP
360
379D
  0
DICTIONARY
  5
37A4
330
36F6
100
AcDbDictionary
280
     1
281
     1
  3
ACAD_XREC_ROUNDTRIP
360
37A5
  0
DICTIONARY
  5
3796
330
36EF
100
AcDbDictionary
280
     1
281
     1
  3
ACAD_XREC_ROUNDTRIP
360
3797
  0
DICTIONARY
  5
379A
330
36F1
100
AcDbDictionary
280
     1
281
     1
  3
ACAD_XREC_ROUNDTRIP
360
379B
  0
DICTIONARY
  5
37B4
330
36FE
100
AcDbDictionary
280
     1
281
     1
  3
ACAD_XREC_ROUNDTRIP
360
37B5
  0
DICTIONARY
  5
37A2
330
36F5
100
AcDbDictionary
280
     1
281
     1
  3
ACAD_XREC_ROUNDTRIP
360
37A3
  0
DICTIONARY
  5
3786
330
36E7
100
AcDbDictionary
280
     1
281
     1
  3
ACAD_XREC_ROUNDTRIP
360
3787
  0
DICTIONARY
  5
3788
330
36E8
100
AcDbDictionary
280
     1
281
     1
  3
ACAD_XREC_ROUNDTRIP
360
3789
  0
DICTIONARY
  5
378A
330
36E9
100
AcDbDictionary
280
     1
281
     1
  3
ACAD_XREC_ROUNDTRIP
360
378B
  0
DICTIONARY
  5
378C
330
36EA
100
AcDbDictionary
280
     1
281
     1
  3
ACAD_XREC_ROUNDTRIP
360
378D
  0
DICTIONARY
  5
3794
330
36EE
100
AcDbDictionary
280
     1
281
     1
  3
ACAD_XREC_ROUNDTRIP
360
3795
  0
DICTIONARY
  5
37B0
330
36FC
100
AcDbDictionary
280
     1
281
     1
  3
ACAD_XREC_ROUNDTRIP
360
37B1
  0
DICTIONARY
  5
37A0
330
36F4
100
AcDbDictionary
280
     1
281
     1
  3
ACAD_XREC_ROUNDTRIP
360
37A1
  0
DICTIONARY
  5
37B2
330
36FD
100
AcDbDictionary
280
     1
281
     1
  3
ACAD_XREC_ROUNDTRIP
360
37B3
  0
DICTIONARY
  5
3798
330
36F0
100
AcDbDictionary
280
     1
281
     1
  3
ACAD_XREC_ROUNDTRIP
360
3799
  0
DICTIONARY
  5
37AE
330
36FB
100
AcDbDictionary
280
     1
281
     1
  3
ACAD_XREC_ROUNDTRIP
360
37AF
  0
DICTIONARY
  5
37AC
330
36FA
100
AcDbDictionary
280
     1
281
     1
  3
ACAD_XREC_ROUNDTRIP
360
37AD
  0
DICTIONARY
  5
37A6
330
36F7
100
AcDbDictionary
280
     1
281
     1
  3
ACAD_XREC_ROUNDTRIP
360
37A7
  0
DICTIONARY
  5
37A8
330
36F8
100
AcDbDictionary
280
     1
281
     1
  3
ACAD_XREC_ROUNDTRIP
360
37A9
  0
DICTIONARY
  5
379E
330
36F3
100
AcDbDictionary
280
     1
281
     1
  3
ACAD_XREC_ROUNDTRIP
360
379F
  0
DICTIONARY
  5
3792
330
36ED
100
AcDbDictionary
280
     1
281
     1
  3
ACAD_XREC_ROUNDTRIP
360
3793
  0
DICTIONARY
  5
37AA
330
36F9
100
AcDbDictionary
280
     1
281
     1
  3
ACAD_XREC_ROUNDTRIP
360
37AB
  0
XRECORD
  5
3780
102
{ACAD_REACTORS
330
377F
102
}
330
377F
100
AcDbXrecord
280
     1
102
SHADEPLOT
 70
     0
102
SHADEPLOTRESLEVEL
 70
     2
102
SHADEPLOTCUSTOMDPI
 70
   300
  0
XRECORD
  5
3782
102
{ACAD_REACTORS
330
3781
102
}
330
3781
100
AcDbXrecord
280
     1
102
SHADEPLOT
 70
     0
102
SHADEPLOTRESLEVEL
 70
     2
102
SHADEPLOTCUSTOMDPI
 70
   300
  0
XRECORD
  5
3784
102
{ACAD_REACTORS
330
36D7
102
}
330
36D7
100
AcDbXrecord
280
     1
102
MATERIAL
148
0.0
149
0.0
149
0.0
 93
        0
 94
      127
282
     0
 72
     0
 77
     0
171
     0
175
     0
179
     0
273
     0
  0
XRECORD
  5
36D9
102
{ACAD_REACTORS
330
36D7
102
}
330
36D7
100
AcDbXrecord
280
     1
270
     1
271
     1
  0
XRECORD
  5
36D8
102
{ACAD_REACTORS
330
36D7
102
}
330
36D7
100
AcDbXrecord
280
     1
270
     1
271
     1
  0
XRECORD
  5
36DC
102
{ACAD_REACTORS
330
36D7
102
}
330
36D7
100
AcDbXrecord
280
     1
270
     1
271
     1
  0
XRECORD
  5
36DB
102
{ACAD_REACTORS
330
36D7
102
}
330
36D7
100
AcDbXrecord
280
     1
270
     1
271
     1
  0
XRECORD
  5
36DD
102
{ACAD_REACTORS
330
36D7
102
}
330
36D7
100
AcDbXrecord
280
     1
270
     1
271
     1
  0
XRECORD
  5
36DA
102
{ACAD_REACTORS
330
36D7
102
}
330
36D7
100
AcDbXrecord
280
     1
270
     1
271
     1
  0
XRECORD
  5
3783
102
{ACAD_REACTORS
330
36CF
102
}
330
36CF
100
AcDbXrecord
280
     1
102
MATERIAL
148
0.0
149
0.0
149
0.0
 93
        0
 94
      127
282
     0
 72
     0
 77
     0
171
     0
175
     0
179
     0
273
     0
  0
XRECORD
  5
36D1
102
{ACAD_REACTORS
330
36CF
102
}
330
36CF
100
AcDbXrecord
280
     1
270
     1
271
     1
  0
XRECORD
  5
36D0
102
{ACAD_REACTORS
330
36CF
102
}
330
36CF
100
AcDbXrecord
280
     1
270
     1
271
     1
  0
XRECORD
  5
36D4
102
{ACAD_REACTORS
330
36CF
102
}
330
36CF
100
AcDbXrecord
280
     1
270
     1
271
     1
  0
XRECORD
  5
36D3
102
{ACAD_REACTORS
330
36CF
102
}
330
36CF
100
AcDbXrecord
280
     1
270
     1
271
     1
  0
XRECORD
  5
36D5
102
{ACAD_REACTORS
330
36CF
102
}
330
36CF
100
AcDbXrecord
280
     1
270
     1
271
     1
  0
XRECORD
  5
36D2
102
{ACAD_REACTORS
330
36CF
102
}
330
36CF
100
AcDbXrecord
280
     1
270
     1
271
     1
  0
XRECORD
  5
3785
102
{ACAD_REACTORS
330
36DF
102
}
330
36DF
100
AcDbXrecord
280
     1
102
MATERIAL
148
0.0
149
0.0
149
0.0
 93
        0
 94
      127
282
     0
 72
     0
 77
     0
171
     0
175
     0
179
     0
273
     0
  0
XRECORD
  5
36E1
102
{ACAD_REACTORS
330
36DF
102
}
330
36DF
100
AcDbXrecord
280
     1
270
     1
271
     1
  0
XRECORD
  5
36E0
102
{ACAD_REACTORS
330
36DF
102
}
330
36DF
100
AcDbXrecord
280
     1
270
     1
271
     1
  0
XRECORD
  5
36E4
102
{ACAD_REACTORS
330
36DF
102
}
330
36DF
100
AcDbXrecord
280
     1
270
     1
271
     1
  0
XRECORD
  5
36E3
102
{ACAD_REACTORS
330
36DF
102
}
330
36DF
100
AcDbXrecord
280
     1
270
     1
271
     1
  0
XRECORD
  5
36E5
102
{ACAD_REACTORS
330
36DF
102
}
330
36DF
100
AcDbXrecord
280
     1
270
     1
271
     1
  0
XRECORD
  5
36E2
102
{ACAD_REACTORS
330
36DF
102
}
330
36DF
100
AcDbXrecord
280
     1
270
     1
271
     1
  0
CELLSTYLEMAP
  5
377C
102
{ACAD_REACTORS
330
377B
102
}
330
377B
100
AcDbCellStyleMap
 90
        3
300
CELLSTYLE
  1
TABLEFORMAT_BEGIN
 90
        5
170
     1
 91
        0
 92
    32768
 62
   257
 93
        1
300
CONTENTFORMAT
  1
CONTENTFORMAT_BEGIN
 90
        0
 91
        0
 92
      512
 93
        0
300

 40
0.0
140
1.0
 94
        5
 62
     0
340
BE8
144
0.25
309
CONTENTFORMAT_END
171
     0
 94
        0
309
TABLEFORMAT_END
  1
CELLSTYLE_BEGIN
 90
        1
 91
        1
300
_TITLE
309
CELLSTYLE_END
300
CELLSTYLE
  1
TABLEFORMAT_BEGIN
 90
        5
170
     1
 91
        0
 92
        0
 62
   257
 93
        1
300
CONTENTFORMAT
  1
CONTENTFORMAT_BEGIN
 90
        0
 91
        0
 92
      512
 93
        0
300

 40
0.0
140
1.0
 94
        5
 62
     0
340
BE8
144
0.18
309
CONTENTFORMAT_END
171
     0
 94
        0
309
TABLEFORMAT_END
  1
CELLSTYLE_BEGIN
 90
        2
 91
        1
300
_HEADER
309
CELLSTYLE_END
300
CELLSTYLE
  1
TABLEFORMAT_BEGIN
 90
        5
170
     1
 91
        0
 92
        0
 62
   257
 93
        1
300
CONTENTFORMAT
  1
CONTENTFORMAT_BEGIN
 90
        0
 91
        0
 92
      512
 93
        0
300

 40
0.0
140
1.0
 94
        2
 62
     0
340
BE8
144
0.18
309
CONTENTFORMAT_END
171
     0
 94
        0
309
TABLEFORMAT_END
  1
CELLSTYLE_BEGIN
 90
        3
 91
        2
300
_DATA
309
CELLSTYLE_END
  0
XRECORD
  5
37B6
102
{ACAD_REACTORS
330
377B
102
}
330
377B
100
AcDbXrecord
280
     1
102
ACAD_ROUNDTRIP_PRE2007_TABLESTYLE
 90
      512
 91
        0
  1

 92
      512
 93
        0
  2

 94
      512
 95
        0
  3

  0
XRECORD
  5
3791
102
{ACAD_REACTORS
330
3790
102
}
330
3790
100
AcDbXrecord
280
     1
102
RTVSPost2010Prop28
280
     1
102
RTVSPost2010PropOp28
 70
     1
102
RTVSPost2010Prop29
280
     1
102
RTVSPost2010PropOp29
 70
     1
102
RTVSPost2010Prop30
280
     0
102
RTVSPost2010PropOp30
 70
     1
102
RTVSPost2010Prop31
280
     0
102
RTVSPost2010PropOp31
 70
     1
102
RTVSPost2010Prop32
280
     0
102
RTVSPost2010PropOp32
 70
     1
102
RTVSPost2010Prop33
280
     0
102
RTVSPost2010PropOp33
 70
     1
102
RTVSPost2010Prop34
280
     0
102
RTVSPost2010PropOp34
 70
     1
102
RTVSPost2010Prop35
280
     0
102
RTVSPost2010PropOp35
 70
     1
102
RTVSPost2010Prop36
280
     0
102
RTVSPost2010PropOp36
 70
     1
102
RTVSPost2010Prop37
 90
       50
102
RTVSPost2010PropOp37
 70
     1
102
RTVSPost2010Prop38
140
0.0
102
RTVSPost2010PropOp38
 70
     1
102
RTVSPost2010Prop39
140
1.0
102
RTVSPost2010PropOp39
 70
     1
102
RTVSPost2010Prop40
 90
        0
102
RTVSPost2010PropOp40
 70
     1
102
RTVSPost2010Prop41ColorIndex
 90
       18
102
RTVSPost2010Prop41ColorRGB
 90
        0
102
RTVSPost2010PropOp41
 70
     1
102
RTVSPost2010Prop42
 90
       50
102
RTVSPost2010PropOp42
 70
     1
102
RTVSPost2010Prop43
 90
        3
102
RTVSPost2010PropOp43
 70
     1
102
RTVSPost2010Prop44ColorIndex
 90
        5
102
RTVSPost2010Prop44ColorRGB
 90
      255
102
RTVSPost2010PropOp44
 70
     1
102
RTVSPost2010Prop45
280
     0
102
RTVSPost2010PropOp45
 70
     1
102
RTVSPost2010Prop46
 90
       50
102
RTVSPost2010PropOp46
 70
     1
102
RTVSPost2010Prop47
 90
       50
102
RTVSPost2010PropOp47
 70
     1
102
RTVSPost2010Prop48
 90
       50
102
RTVSPost2010PropOp48
 70
     1
102
RTVSPost2010Prop49
280
     0
102
RTVSPost2010PropOp49
 70
     1
102
RTVSPost2010Prop50
 90
       50
102
RTVSPost2010PropOp50
 70
     1
102
RTVSPost2010Prop51ColorIndex
 90
      256
102
RTVSPost2010Prop51ColorRGB
 90
-16777216
102
RTVSPost2010PropOp51
 70
     0
102
RTVSPost2010Prop52
140
1.0
102
RTVSPost2010PropOp52
 70
     0
102
RTVSPost2010Prop53
 90
        2
102
RTVSPost2010PropOp53
 70
     1
102
RTVSPost2010Prop54
  1
strokes_ogs.tif
102
RTVSPost2010PropOp54
 70
     1
102
RTVSPost2010Prop55
280
     0
102
RTVSPost2010PropOp55
 70
     1
102
RTVSPost2010Prop56
140
1.0
102
RTVSPost2010PropOp56
 70
     1
102
RTVSPost2010Prop57
140
1.0
102
RTVSPost2010PropOp57
 70
     1
102
RTVSPropertyOp0
 70
     1
102
RTVSPropertyOp1
 70
     1
102
RTVSPropertyOp2
 70
     1
102
RTVSPropertyOp3
 70
     1
102
RTVSPropertyOp4
 70
     1
102
RTVSPropertyOp5
 70
     1
102
RTVSPropertyOp6
 70
     1
102
RTVSPropertyOp7
 70
     1
102
RTVSPropertyOp8
 70
     1
102
RTVSPropertyOp9
 70
     1
102
RTVSPropertyOp10
 70
     1
102
RTVSPropertyOp11
 70
     1
102
RTVSPropertyOp12
 70
     1
102
RTVSPropertyOp13
 70
     1
102
RTVSPropertyOp14
 70
     1
102
RTVSPropertyOp15
 70
     1
102
RTVSPropertyOp16
 70
     1
102
RTVSPropertyOp17
 70
     1
102
RTVSPropertyOp18
 70
     1
102
RTVSPropertyOp19
 70
     1
102
RTVSPropertyOp20
 70
     1
102
RTVSPropertyOp21
 70
     1
102
RTVSPropertyOp22
 70
     1
102
RTVSPropertyOp23
 70
     1
102
RTVSPropertyOp24
 70
     1
102
RTVSPropertyOp25
 70
     1
102
RTVSPropertyOp26
 70
     1
102
RTVSPropertyOp27
 70
     1
102
RTVSPropertyOp28
 70
     1
102
RTVSPropertyOp29
 70
     1
102
RTVSPropertyOp30
 70
     1
102
RTVSPropertyOp31
 70
     1
102
RTVSPropertyOp32
 70
     1
102
RTVSPropertyOp33
 70
     1
102
RTVSPropertyOp34
 70
     1
102
RTVSPropertyOp35
 70
     1
102
RTVSPropertyOp36
 70
     1
102
RTVSPropertyOp37
 70
     1
102
RTVSPropertyOp38
 70
     1
102
RTVSPropertyOp39
 70
     1
102
RTVSPropertyOp40
 70
     1
102
RTVSPropertyOp41
 70
     1
102
RTVSPropertyOp42
 70
     1
102
RTVSPropertyOp43
 70
     1
102
RTVSPropertyOp44
 70
     1
102
RTVSPropertyOp45
 70
     1
102
RTVSPropertyOp46
 70
     1
102
RTVSPropertyOp47
 70
     1
102
RTVSPropertyOp48
 70
     1
102
RTVSPropertyOp49
 70
     1
102
RTVSPropertyOp50
 70
     1
102
RTVSPropertyOp51
 70
     0
102
RTVSPropertyOp52
 70
     0
102
RTVSPropertyOp53
 70
     1
102
RTVSPropertyOp54
 70
     1
102
RTVSPropertyOp55
 70
     1
102
RTVSPropertyOp56
 70
     1
102
RTVSPropertyOp57
 70
     1
102
RTVSPropertyOp58
 70
     1
102
RTVSPropertyOp59
 70
     1
102
RTVSPropertyOp60
 70
     1
102
RTVSPropertyOp61
 70
     1
102
RTVSPropertyOp62
 70
     1
  0
XRECORD
  5
378F
102
{ACAD_REACTORS
330
378E
102
}
330
378E
100
AcDbXrecord
280
     1
102
RTVSPost2010Prop28
280
     0
102
RTVSPost2010PropOp28
 70
     1
102
RTVSPost2010Prop29
280
     1
102
RTVSPost2010PropOp29
 70
     1
102
RTVSPost2010Prop30
280
     1
102
RTVSPost2010PropOp30
 70
     1
102
RTVSPost2010Prop31
280
     0
102
RTVSPost2010PropOp31
 70
     1
102
RTVSPost2010Prop32
280
     0
102
RTVSPost2010PropOp32
 70
     1
102
RTVSPost2010Prop33
280
     0
102
RTVSPost2010PropOp33
 70
     1
102
RTVSPost2010Prop34
280
     0
102
RTVSPost2010PropOp34
 70
     1
102
RTVSPost2010Prop35
280
     0
102
RTVSPost2010PropOp35
 70
     1
102
RTVSPost2010Prop36
280
     0
102
RTVSPost2010PropOp36
 70
     1
102
RTVSPost2010Prop37
 90
       50
102
RTVSPost2010PropOp37
 70
     1
102
RTVSPost2010Prop38
140
0.0
102
RTVSPost2010PropOp38
 70
     1
102
RTVSPost2010Prop39
140
1.0
102
RTVSPost2010PropOp39
 70
     1
102
RTVSPost2010Prop40
 90
        0
102
RTVSPost2010PropOp40
 70
     1
102
RTVSPost2010Prop41ColorIndex
 90
       18
102
RTVSPost2010Prop41ColorRGB
 90
        0
102
RTVSPost2010PropOp41
 70
     1
102
RTVSPost2010Prop42
 90
       50
102
RTVSPost2010PropOp42
 70
     1
102
RTVSPost2010Prop43
 90
        3
102
RTVSPost2010PropOp43
 70
     1
102
RTVSPost2010Prop44ColorIndex
 90
        5
102
RTVSPost2010Prop44ColorRGB
 90
      255
102
RTVSPost2010PropOp44
 70
     1
102
RTVSPost2010Prop45
280
     0
102
RTVSPost2010PropOp45
 70
     1
102
RTVSPost2010Prop46
 90
       50
102
RTVSPost2010PropOp46
 70
     1
102
RTVSPost2010Prop47
 90
       50
102
RTVSPost2010PropOp47
 70
     1
102
RTVSPost2010Prop48
 90
       50
102
RTVSPost2010PropOp48
 70
     1
102
RTVSPost2010Prop49
280
     0
102
RTVSPost2010PropOp49
 70
     1
102
RTVSPost2010Prop50
 90
       50
102
RTVSPost2010PropOp50
 70
     1
102
RTVSPost2010Prop51ColorIndex
 90
      256
102
RTVSPost2010Prop51ColorRGB
 90
-16777216
102
RTVSPost2010PropOp51
 70
     0
102
RTVSPost2010Prop52
140
1.0
102
RTVSPost2010PropOp52
 70
     0
102
RTVSPost2010Prop53
 90
        2
102
RTVSPost2010PropOp53
 70
     1
102
RTVSPost2010Prop54
  1
strokes_ogs.tif
102
RTVSPost2010PropOp54
 70
     1
102
RTVSPost2010Prop55
280
     0
102
RTVSPost2010PropOp55
 70
     1
102
RTVSPost2010Prop56
140
1.0
102
RTVSPost2010PropOp56
 70
     1
102
RTVSPost2010Prop57
140
1.0
102
RTVSPost2010PropOp57
 70
     1
102
RTVSPropertyOp0
 70
     1
102
RTVSPropertyOp1
 70
     1
102
RTVSPropertyOp2
 70
     1
102
RTVSPropertyOp3
 70
     1
102
RTVSPropertyOp4
 70
     1
102
RTVSPropertyOp5
 70
     1
102
RTVSPropertyOp6
 70
     1
102
RTVSPropertyOp7
 70
     1
102
RTVSPropertyOp8
 70
     1
102
RTVSPropertyOp9
 70
     1
102
RTVSPropertyOp10
 70
     1
102
RTVSPropertyOp11
 70
     1
102
RTVSPropertyOp12
 70
     1
102
RTVSPropertyOp13
 70
     1
102
RTVSPropertyOp14
 70
     1
102
RTVSPropertyOp15
 70
     1
102
RTVSPropertyOp16
 70
     1
102
RTVSPropertyOp17
 70
     1
102
RTVSPropertyOp18
 70
     1
102
RTVSPropertyOp19
 70
     1
102
RTVSPropertyOp20
 70
     1
102
RTVSPropertyOp21
 70
     1
102
RTVSPropertyOp22
 70
     1
102
RTVSPropertyOp23
 70
     1
102
RTVSPropertyOp24
 70
     1
102
RTVSPropertyOp25
 70
     1
102
RTVSPropertyOp26
 70
     1
102
RTVSPropertyOp27
 70
     1
102
RTVSPropertyOp28
 70
     1
102
RTVSPropertyOp29
 70
     1
102
RTVSPropertyOp30
 70
     1
102
RTVSPropertyOp31
 70
     1
102
RTVSPropertyOp32
 70
     1
102
RTVSPropertyOp33
 70
     1
102
RTVSPropertyOp34
 70
     1
102
RTVSPropertyOp35
 70
     1
102
RTVSPropertyOp36
 70
     1
102
RTVSPropertyOp37
 70
     1
102
RTVSPropertyOp38
 70
     1
102
RTVSPropertyOp39
 70
     1
102
RTVSPropertyOp40
 70
     1
102
RTVSPropertyOp41
 70
     1
102
RTVSPropertyOp42
 70
     1
102
RTVSPropertyOp43
 70
     1
102
RTVSPropertyOp44
 70
     1
102
RTVSPropertyOp45
 70
     1
102
RTVSPropertyOp46
 70
     1
102
RTVSPropertyOp47
 70
     1
102
RTVSPropertyOp48
 70
     1
102
RTVSPropertyOp49
 70
     1
102
RTVSPropertyOp50
 70
     1
102
RTVSPropertyOp51
 70
     0
102
RTVSPropertyOp52
 70
     0
102
RTVSPropertyOp53
 70
     1
102
RTVSPropertyOp54
 70
     1
102
RTVSPropertyOp55
 70
     1
102
RTVSPropertyOp56
 70
     1
102
RTVSPropertyOp57
 70
     1
102
RTVSPropertyOp58
 70
     1
102
RTVSPropertyOp59
 70
     1
102
RTVSPropertyOp60
 70
     1
102
RTVSPropertyOp61
 70
     1
102
RTVSPropertyOp62
 70
     1
  0
XRECORD
  5
379D
102
{ACAD_REACTORS
330
379C
102
}
330
379C
100
AcDbXrecord
280
     1
102
RTVSPost2010Prop28
280
     0
102
RTVSPost2010PropOp28
 70
     1
102
RTVSPost2010Prop29
280
     1
102
RTVSPost2010PropOp29
 70
     1
102
RTVSPost2010Prop30
280
     1
102
RTVSPost2010PropOp30
 70
     1
102
RTVSPost2010Prop31
280
     0
102
RTVSPost2010PropOp31
 70
     1
102
RTVSPost2010Prop32
280
     0
102
RTVSPost2010PropOp32
 70
     1
102
RTVSPost2010Prop33
280
     0
102
RTVSPost2010PropOp33
 70
     1
102
RTVSPost2010Prop34
280
     0
102
RTVSPost2010PropOp34
 70
     1
102
RTVSPost2010Prop35
280
     0
102
RTVSPost2010PropOp35
 70
     1
102
RTVSPost2010Prop36
280
     0
102
RTVSPost2010PropOp36
 70
     1
102
RTVSPost2010Prop37
 90
       50
102
RTVSPost2010PropOp37
 70
     1
102
RTVSPost2010Prop38
140
0.0
102
RTVSPost2010PropOp38
 70
     1
102
RTVSPost2010Prop39
140
1.0
102
RTVSPost2010PropOp39
 70
     1
102
RTVSPost2010Prop40
 90
        0
102
RTVSPost2010PropOp40
 70
     1
102
RTVSPost2010Prop41ColorIndex
 90
       18
102
RTVSPost2010Prop41ColorRGB
 90
        0
102
RTVSPost2010PropOp41
 70
     1
102
RTVSPost2010Prop42
 90
       50
102
RTVSPost2010PropOp42
 70
     1
102
RTVSPost2010Prop43
 90
        3
102
RTVSPost2010PropOp43
 70
     1
102
RTVSPost2010Prop44ColorIndex
 90
        5
102
RTVSPost2010Prop44ColorRGB
 90
      255
102
RTVSPost2010PropOp44
 70
     1
102
RTVSPost2010Prop45
280
     0
102
RTVSPost2010PropOp45
 70
     1
102
RTVSPost2010Prop46
 90
       50
102
RTVSPost2010PropOp46
 70
     1
102
RTVSPost2010Prop47
 90
       50
102
RTVSPost2010PropOp47
 70
     1
102
RTVSPost2010Prop48
 90
       50
102
RTVSPost2010PropOp48
 70
     1
102
RTVSPost2010Prop49
280
     0
102
RTVSPost2010PropOp49
 70
     1
102
RTVSPost2010Prop50
 90
       50
102
RTVSPost2010PropOp50
 70
     1
102
RTVSPost2010Prop51ColorIndex
 90
      256
102
RTVSPost2010Prop51ColorRGB
 90
-16777216
102
RTVSPost2010PropOp51
 70
     0
102
RTVSPost2010Prop52
140
1.0
102
RTVSPost2010PropOp52
 70
     0
102
RTVSPost2010Prop53
 90
        2
102
RTVSPost2010PropOp53
 70
     1
102
RTVSPost2010Prop54
  1
strokes_ogs.tif
102
RTVSPost2010PropOp54
 70
     1
102
RTVSPost2010Prop55
280
     0
102
RTVSPost2010PropOp55
 70
     1
102
RTVSPost2010Prop56
140
1.0
102
RTVSPost2010PropOp56
 70
     1
102
RTVSPost2010Prop57
140
1.0
102
RTVSPost2010PropOp57
 70
     1
102
RTVSPropertyOp0
 70
     1
102
RTVSPropertyOp1
 70
     1
102
RTVSPropertyOp2
 70
     1
102
RTVSPropertyOp3
 70
     1
102
RTVSPropertyOp4
 70
     1
102
RTVSPropertyOp5
 70
     1
102
RTVSPropertyOp6
 70
     1
102
RTVSPropertyOp7
 70
     1
102
RTVSPropertyOp8
 70
     1
102
RTVSPropertyOp9
 70
     1
102
RTVSPropertyOp10
 70
     1
102
RTVSPropertyOp11
 70
     1
102
RTVSPropertyOp12
 70
     1
102
RTVSPropertyOp13
 70
     1
102
RTVSPropertyOp14
 70
     1
102
RTVSPropertyOp15
 70
     1
102
RTVSPropertyOp16
 70
     1
102
RTVSPropertyOp17
 70
     1
102
RTVSPropertyOp18
 70
     1
102
RTVSPropertyOp19
 70
     1
102
RTVSPropertyOp20
 70
     1
102
RTVSPropertyOp21
 70
     1
102
RTVSPropertyOp22
 70
     1
102
RTVSPropertyOp23
 70
     1
102
RTVSPropertyOp24
 70
     1
102
RTVSPropertyOp25
 70
     1
102
RTVSPropertyOp26
 70
     1
102
RTVSPropertyOp27
 70
     1
102
RTVSPropertyOp28
 70
     1
102
RTVSPropertyOp29
 70
     1
102
RTVSPropertyOp30
 70
     1
102
RTVSPropertyOp31
 70
     1
102
RTVSPropertyOp32
 70
     1
102
RTVSPropertyOp33
 70
     1
102
RTVSPropertyOp34
 70
     1
102
RTVSPropertyOp35
 70
     1
102
RTVSPropertyOp36
 70
     1
102
RTVSPropertyOp37
 70
     1
102
RTVSPropertyOp38
 70
     1
102
RTVSPropertyOp39
 70
     1
102
RTVSPropertyOp40
 70
     1
102
RTVSPropertyOp41
 70
     1
102
RTVSPropertyOp42
 70
     1
102
RTVSPropertyOp43
 70
     1
102
RTVSPropertyOp44
 70
     1
102
RTVSPropertyOp45
 70
     1
102
RTVSPropertyOp46
 70
     1
102
RTVSPropertyOp47
 70
     1
102
RTVSPropertyOp48
 70
     1
102
RTVSPropertyOp49
 70
     1
102
RTVSPropertyOp50
 70
     1
102
RTVSPropertyOp51
 70
     0
102
RTVSPropertyOp52
 70
     0
102
RTVSPropertyOp53
 70
     1
102
RTVSPropertyOp54
 70
     1
102
RTVSPropertyOp55
 70
     1
102
RTVSPropertyOp56
 70
     1
102
RTVSPropertyOp57
 70
     1
102
RTVSPropertyOp58
 70
     1
102
RTVSPropertyOp59
 70
     1
102
RTVSPropertyOp60
 70
     1
102
RTVSPropertyOp61
 70
     1
102
RTVSPropertyOp62
 70
     1
  0
XRECORD
  5
37A5
102
{ACAD_REACTORS
330
37A4
102
}
330
37A4
100
AcDbXrecord
280
     1
102
RTVSPost2010Prop28
280
     0
102
RTVSPost2010PropOp28
 70
     1
102
RTVSPost2010Prop29
280
     1
102
RTVSPost2010PropOp29
 70
     1
102
RTVSPost2010Prop30
280
     1
102
RTVSPost2010PropOp30
 70
     1
102
RTVSPost2010Prop31
280
     0
102
RTVSPost2010PropOp31
 70
     1
102
RTVSPost2010Prop32
280
     0
102
RTVSPost2010PropOp32
 70
     1
102
RTVSPost2010Prop33
280
     0
102
RTVSPost2010PropOp33
 70
     1
102
RTVSPost2010Prop34
280
     0
102
RTVSPost2010PropOp34
 70
     1
102
RTVSPost2010Prop35
280
     0
102
RTVSPost2010PropOp35
 70
     1
102
RTVSPost2010Prop36
280
     0
102
RTVSPost2010PropOp36
 70
     1
102
RTVSPost2010Prop37
 90
       50
102
RTVSPost2010PropOp37
 70
     1
102
RTVSPost2010Prop38
140
0.0
102
RTVSPost2010PropOp38
 70
     1
102
RTVSPost2010Prop39
140
1.0
102
RTVSPost2010PropOp39
 70
     1
102
RTVSPost2010Prop40
 90
        0
102
RTVSPost2010PropOp40
 70
     1
102
RTVSPost2010Prop41ColorIndex
 90
       18
102
RTVSPost2010Prop41ColorRGB
 90
        0
102
RTVSPost2010PropOp41
 70
     1
102
RTVSPost2010Prop42
 90
       50
102
RTVSPost2010PropOp42
 70
     1
102
RTVSPost2010Prop43
 90
        3
102
RTVSPost2010PropOp43
 70
     1
102
RTVSPost2010Prop44ColorIndex
 90
        5
102
RTVSPost2010Prop44ColorRGB
 90
      255
102
RTVSPost2010PropOp44
 70
     1
102
RTVSPost2010Prop45
280
     0
102
RTVSPost2010PropOp45
 70
     1
102
RTVSPost2010Prop46
 90
       50
102
RTVSPost2010PropOp46
 70
     1
102
RTVSPost2010Prop47
 90
       50
102
RTVSPost2010PropOp47
 70
     1
102
RTVSPost2010Prop48
 90
       50
102
RTVSPost2010PropOp48
 70
     1
102
RTVSPost2010Prop49
280
     0
102
RTVSPost2010PropOp49
 70
     1
102
RTVSPost2010Prop50
 90
       50
102
RTVSPost2010PropOp50
 70
     1
102
RTVSPost2010Prop51ColorIndex
 90
      256
102
RTVSPost2010Prop51ColorRGB
 90
-16777216
102
RTVSPost2010PropOp51
 70
     0
102
RTVSPost2010Prop52
140
1.0
102
RTVSPost2010PropOp52
 70
     0
102
RTVSPost2010Prop53
 90
        2
102
RTVSPost2010PropOp53
 70
     1
102
RTVSPost2010Prop54
  1
strokes_ogs.tif
102
RTVSPost2010PropOp54
 70
     1
102
RTVSPost2010Prop55
280
     0
102
RTVSPost2010PropOp55
 70
     1
102
RTVSPost2010Prop56
140
1.0
102
RTVSPost2010PropOp56
 70
     1
102
RTVSPost2010Prop57
140
1.0
102
RTVSPost2010PropOp57
 70
     1
102
RTVSPropertyOp0
 70
     1
102
RTVSPropertyOp1
 70
     1
102
RTVSPropertyOp2
 70
     1
102
RTVSPropertyOp3
 70
     1
102
RTVSPropertyOp4
 70
     1
102
RTVSPropertyOp5
 70
     1
102
RTVSPropertyOp6
 70
     1
102
RTVSPropertyOp7
 70
     1
102
RTVSPropertyOp8
 70
     1
102
RTVSPropertyOp9
 70
     1
102
RTVSPropertyOp10
 70
     1
102
RTVSPropertyOp11
 70
     1
102
RTVSPropertyOp12
 70
     1
102
RTVSPropertyOp13
 70
     1
102
RTVSPropertyOp14
 70
     1
102
RTVSPropertyOp15
 70
     1
102
RTVSPropertyOp16
 70
     1
102
RTVSPropertyOp17
 70
     1
102
RTVSPropertyOp18
 70
     1
102
RTVSPropertyOp19
 70
     1
102
RTVSPropertyOp20
 70
     1
102
RTVSPropertyOp21
 70
     1
102
RTVSPropertyOp22
 70
     1
102
RTVSPropertyOp23
 70
     1
102
RTVSPropertyOp24
 70
     1
102
RTVSPropertyOp25
 70
     1
102
RTVSPropertyOp26
 70
     1
102
RTVSPropertyOp27
 70
     1
102
RTVSPropertyOp28
 70
     1
102
RTVSPropertyOp29
 70
     1
102
RTVSPropertyOp30
 70
     1
102
RTVSPropertyOp31
 70
     1
102
RTVSPropertyOp32
 70
     1
102
RTVSPropertyOp33
 70
     1
102
RTVSPropertyOp34
 70
     1
102
RTVSPropertyOp35
 70
     1
102
RTVSPropertyOp36
 70
     1
102
RTVSPropertyOp37
 70
     1
102
RTVSPropertyOp38
 70
     1
102
RTVSPropertyOp39
 70
     1
102
RTVSPropertyOp40
 70
     1
102
RTVSPropertyOp41
 70
     1
102
RTVSPropertyOp42
 70
     1
102
RTVSPropertyOp43
 70
     1
102
RTVSPropertyOp44
 70
     1
102
RTVSPropertyOp45
 70
     1
102
RTVSPropertyOp46
 70
     1
102
RTVSPropertyOp47
 70
     1
102
RTVSPropertyOp48
 70
     1
102
RTVSPropertyOp49
 70
     1
102
RTVSPropertyOp50
 70
     1
102
RTVSPropertyOp51
 70
     0
102
RTVSPropertyOp52
 70
     0
102
RTVSPropertyOp53
 70
     1
102
RTVSPropertyOp54
 70
     1
102
RTVSPropertyOp55
 70
     1
102
RTVSPropertyOp56
 70
     1
102
RTVSPropertyOp57
 70
     1
102
RTVSPropertyOp58
 70
     1
102
RTVSPropertyOp59
 70
     1
102
RTVSPropertyOp60
 70
     1
102
RTVSPropertyOp61
 70
     1
102
RTVSPropertyOp62
 70
     1
  0
XRECORD
  5
3797
102
{ACAD_REACTORS
330
3796
102
}
330
3796
100
AcDbXrecord
280
     1
102
RTVSPost2010Prop28
280
     0
102
RTVSPost2010PropOp28
 70
     1
102
RTVSPost2010Prop29
280
     1
102
RTVSPost2010PropOp29
 70
     1
102
RTVSPost2010Prop30
280
     1
102
RTVSPost2010PropOp30
 70
     1
102
RTVSPost2010Prop31
280
     0
102
RTVSPost2010PropOp31
 70
     1
102
RTVSPost2010Prop32
280
     0
102
RTVSPost2010PropOp32
 70
     1
102
RTVSPost2010Prop33
280
     0
102
RTVSPost2010PropOp33
 70
     1
102
RTVSPost2010Prop34
280
     0
102
RTVSPost2010PropOp34
 70
     1
102
RTVSPost2010Prop35
280
     0
102
RTVSPost2010PropOp35
 70
     1
102
RTVSPost2010Prop36
280
     0
102
RTVSPost2010PropOp36
 70
     1
102
RTVSPost2010Prop37
 90
       50
102
RTVSPost2010PropOp37
 70
     1
102
RTVSPost2010Prop38
140
0.0
102
RTVSPost2010PropOp38
 70
     1
102
RTVSPost2010Prop39
140
1.0
102
RTVSPost2010PropOp39
 70
     1
102
RTVSPost2010Prop40
 90
        0
102
RTVSPost2010PropOp40
 70
     1
102
RTVSPost2010Prop41ColorIndex
 90
       18
102
RTVSPost2010Prop41ColorRGB
 90
        0
102
RTVSPost2010PropOp41
 70
     1
102
RTVSPost2010Prop42
 90
       50
102
RTVSPost2010PropOp42
 70
     1
102
RTVSPost2010Prop43
 90
        3
102
RTVSPost2010PropOp43
 70
     1
102
RTVSPost2010Prop44ColorIndex
 90
        5
102
RTVSPost2010Prop44ColorRGB
 90
      255
102
RTVSPost2010PropOp44
 70
     1
102
RTVSPost2010Prop45
280
     0
102
RTVSPost2010PropOp45
 70
     1
102
RTVSPost2010Prop46
 90
       50
102
RTVSPost2010PropOp46
 70
     1
102
RTVSPost2010Prop47
 90
       50
102
RTVSPost2010PropOp47
 70
     1
102
RTVSPost2010Prop48
 90
       50
102
RTVSPost2010PropOp48
 70
     1
102
RTVSPost2010Prop49
280
     0
102
RTVSPost2010PropOp49
 70
     1
102
RTVSPost2010Prop50
 90
       50
102
RTVSPost2010PropOp50
 70
     1
102
RTVSPost2010Prop51ColorIndex
 90
      256
102
RTVSPost2010Prop51ColorRGB
 90
-16777216
102
RTVSPost2010PropOp51
 70
     0
102
RTVSPost2010Prop52
140
1.0
102
RTVSPost2010PropOp52
 70
     0
102
RTVSPost2010Prop53
 90
        2
102
RTVSPost2010PropOp53
 70
     1
102
RTVSPost2010Prop54
  1
strokes_ogs.tif
102
RTVSPost2010PropOp54
 70
     1
102
RTVSPost2010Prop55
280
     0
102
RTVSPost2010PropOp55
 70
     1
102
RTVSPost2010Prop56
140
1.0
102
RTVSPost2010PropOp56
 70
     1
102
RTVSPost2010Prop57
140
1.0
102
RTVSPost2010PropOp57
 70
     1
102
RTVSPropertyOp0
 70
     1
102
RTVSPropertyOp1
 70
     1
102
RTVSPropertyOp2
 70
     1
102
RTVSPropertyOp3
 70
     1
102
RTVSPropertyOp4
 70
     1
102
RTVSPropertyOp5
 70
     1
102
RTVSPropertyOp6
 70
     1
102
RTVSPropertyOp7
 70
     1
102
RTVSPropertyOp8
 70
     1
102
RTVSPropertyOp9
 70
     1
102
RTVSPropertyOp10
 70
     1
102
RTVSPropertyOp11
 70
     1
102
RTVSPropertyOp12
 70
     1
102
RTVSPropertyOp13
 70
     1
102
RTVSPropertyOp14
 70
     1
102
RTVSPropertyOp15
 70
     1
102
RTVSPropertyOp16
 70
     1
102
RTVSPropertyOp17
 70
     1
102
RTVSPropertyOp18
 70
     1
102
RTVSPropertyOp19
 70
     1
102
RTVSPropertyOp20
 70
     1
102
RTVSPropertyOp21
 70
     1
102
RTVSPropertyOp22
 70
     1
102
RTVSPropertyOp23
 70
     1
102
RTVSPropertyOp24
 70
     1
102
RTVSPropertyOp25
 70
     1
102
RTVSPropertyOp26
 70
     1
102
RTVSPropertyOp27
 70
     1
102
RTVSPropertyOp28
 70
     1
102
RTVSPropertyOp29
 70
     1
102
RTVSPropertyOp30
 70
     1
102
RTVSPropertyOp31
 70
     1
102
RTVSPropertyOp32
 70
     1
102
RTVSPropertyOp33
 70
     1
102
RTVSPropertyOp34
 70
     1
102
RTVSPropertyOp35
 70
     1
102
RTVSPropertyOp36
 70
     1
102
RTVSPropertyOp37
 70
     1
102
RTVSPropertyOp38
 70
     1
102
RTVSPropertyOp39
 70
     1
102
RTVSPropertyOp40
 70
     1
102
RTVSPropertyOp41
 70
     1
102
RTVSPropertyOp42
 70
     1
102
RTVSPropertyOp43
 70
     1
102
RTVSPropertyOp44
 70
     1
102
RTVSPropertyOp45
 70
     1
102
RTVSPropertyOp46
 70
     1
102
RTVSPropertyOp47
 70
     1
102
RTVSPropertyOp48
 70
     1
102
RTVSPropertyOp49
 70
     1
102
RTVSPropertyOp50
 70
     1
102
RTVSPropertyOp51
 70
     0
102
RTVSPropertyOp52
 70
     0
102
RTVSPropertyOp53
 70
     1
102
RTVSPropertyOp54
 70
     1
102
RTVSPropertyOp55
 70
     1
102
RTVSPropertyOp56
 70
     1
102
RTVSPropertyOp57
 70
     1
102
RTVSPropertyOp58
 70
     1
102
RTVSPropertyOp59
 70
     1
102
RTVSPropertyOp60
 70
     1
102
RTVSPropertyOp61
 70
     1
102
RTVSPropertyOp62
 70
     1
  0
XRECORD
  5
379B
102
{ACAD_REACTORS
330
379A
102
}
330
379A
100
AcDbXrecord
280
     1
102
RTVSPost2010Prop28
280
     0
102
RTVSPost2010PropOp28
 70
     1
102
RTVSPost2010Prop29
280
     1
102
RTVSPost2010PropOp29
 70
     1
102
RTVSPost2010Prop30
280
     1
102
RTVSPost2010PropOp30
 70
     1
102
RTVSPost2010Prop31
280
     0
102
RTVSPost2010PropOp31
 70
     1
102
RTVSPost2010Prop32
280
     0
102
RTVSPost2010PropOp32
 70
     1
102
RTVSPost2010Prop33
280
     0
102
RTVSPost2010PropOp33
 70
     1
102
RTVSPost2010Prop34
280
     0
102
RTVSPost2010PropOp34
 70
     1
102
RTVSPost2010Prop35
280
     0
102
RTVSPost2010PropOp35
 70
     1
102
RTVSPost2010Prop36
280
     0
102
RTVSPost2010PropOp36
 70
     1
102
RTVSPost2010Prop37
 90
       50
102
RTVSPost2010PropOp37
 70
     1
102
RTVSPost2010Prop38
140
0.0
102
RTVSPost2010PropOp38
 70
     1
102
RTVSPost2010Prop39
140
1.0
102
RTVSPost2010PropOp39
 70
     1
102
RTVSPost2010Prop40
 90
        0
102
RTVSPost2010PropOp40
 70
     1
102
RTVSPost2010Prop41ColorIndex
 90
       18
102
RTVSPost2010Prop41ColorRGB
 90
        0
102
RTVSPost2010PropOp41
 70
     1
102
RTVSPost2010Prop42
 90
       50
102
RTVSPost2010PropOp42
 70
     1
102
RTVSPost2010Prop43
 90
        3
102
RTVSPost2010PropOp43
 70
     1
102
RTVSPost2010Prop44ColorIndex
 90
        5
102
RTVSPost2010Prop44ColorRGB
 90
      255
102
RTVSPost2010PropOp44
 70
     1
102
RTVSPost2010Prop45
280
     0
102
RTVSPost2010PropOp45
 70
     1
102
RTVSPost2010Prop46
 90
       50
102
RTVSPost2010PropOp46
 70
     1
102
RTVSPost2010Prop47
 90
       50
102
RTVSPost2010PropOp47
 70
     1
102
RTVSPost2010Prop48
 90
       50
102
RTVSPost2010PropOp48
 70
     1
102
RTVSPost2010Prop49
280
     0
102
RTVSPost2010PropOp49
 70
     1
102
RTVSPost2010Prop50
 90
       50
102
RTVSPost2010PropOp50
 70
     1
102
RTVSPost2010Prop51ColorIndex
 90
      256
102
RTVSPost2010Prop51ColorRGB
 90
-16777216
102
RTVSPost2010PropOp51
 70
     0
102
RTVSPost2010Prop52
140
1.0
102
RTVSPost2010PropOp52
 70
     0
102
RTVSPost2010Prop53
 90
        2
102
RTVSPost2010PropOp53
 70
     1
102
RTVSPost2010Prop54
  1
strokes_ogs.tif
102
RTVSPost2010PropOp54
 70
     1
102
RTVSPost2010Prop55
280
     0
102
RTVSPost2010PropOp55
 70
     1
102
RTVSPost2010Prop56
140
1.0
102
RTVSPost2010PropOp56
 70
     1
102
RTVSPost2010Prop57
140
1.0
102
RTVSPost2010PropOp57
 70
     1
102
RTVSPropertyOp0
 70
     1
102
RTVSPropertyOp1
 70
     1
102
RTVSPropertyOp2
 70
     1
102
RTVSPropertyOp3
 70
     1
102
RTVSPropertyOp4
 70
     1
102
RTVSPropertyOp5
 70
     1
102
RTVSPropertyOp6
 70
     1
102
RTVSPropertyOp7
 70
     1
102
RTVSPropertyOp8
 70
     1
102
RTVSPropertyOp9
 70
     1
102
RTVSPropertyOp10
 70
     1
102
RTVSPropertyOp11
 70
     1
102
RTVSPropertyOp12
 70
     1
102
RTVSPropertyOp13
 70
     1
102
RTVSPropertyOp14
 70
     1
102
RTVSPropertyOp15
 70
     1
102
RTVSPropertyOp16
 70
     1
102
RTVSPropertyOp17
 70
     1
102
RTVSPropertyOp18
 70
     1
102
RTVSPropertyOp19
 70
     1
102
RTVSPropertyOp20
 70
     1
102
RTVSPropertyOp21
 70
     1
102
RTVSPropertyOp22
 70
     1
102
RTVSPropertyOp23
 70
     1
102
RTVSPropertyOp24
 70
     1
102
RTVSPropertyOp25
 70
     1
102
RTVSPropertyOp26
 70
     1
102
RTVSPropertyOp27
 70
     1
102
RTVSPropertyOp28
 70
     1
102
RTVSPropertyOp29
 70
     1
102
RTVSPropertyOp30
 70
     1
102
RTVSPropertyOp31
 70
     1
102
RTVSPropertyOp32
 70
     1
102
RTVSPropertyOp33
 70
     1
102
RTVSPropertyOp34
 70
     1
102
RTVSPropertyOp35
 70
     1
102
RTVSPropertyOp36
 70
     1
102
RTVSPropertyOp37
 70
     1
102
RTVSPropertyOp38
 70
     1
102
RTVSPropertyOp39
 70
     1
102
RTVSPropertyOp40
 70
     1
102
RTVSPropertyOp41
 70
     1
102
RTVSPropertyOp42
 70
     1
102
RTVSPropertyOp43
 70
     1
102
RTVSPropertyOp44
 70
     1
102
RTVSPropertyOp45
 70
     1
102
RTVSPropertyOp46
 70
     1
102
RTVSPropertyOp47
 70
     1
102
RTVSPropertyOp48
 70
     1
102
RTVSPropertyOp49
 70
     1
102
RTVSPropertyOp50
 70
     1
102
RTVSPropertyOp51
 70
     0
102
RTVSPropertyOp52
 70
     0
102
RTVSPropertyOp53
 70
     1
102
RTVSPropertyOp54
 70
     1
102
RTVSPropertyOp55
 70
     1
102
RTVSPropertyOp56
 70
     1
102
RTVSPropertyOp57
 70
     1
102
RTVSPropertyOp58
 70
     1
102
RTVSPropertyOp59
 70
     1
102
RTVSPropertyOp60
 70
     1
102
RTVSPropertyOp61
 70
     1
102
RTVSPropertyOp62
 70
     1
  0
XRECORD
  5
37B5
102
{ACAD_REACTORS
330
37B4
102
}
330
37B4
100
AcDbXrecord
280
     1
102
RTVSPost2010Prop28
280
     0
102
RTVSPost2010PropOp28
 70
     1
102
RTVSPost2010Prop29
280
     1
102
RTVSPost2010PropOp29
 70
     1
102
RTVSPost2010Prop30
280
     1
102
RTVSPost2010PropOp30
 70
     1
102
RTVSPost2010Prop31
280
     0
102
RTVSPost2010PropOp31
 70
     1
102
RTVSPost2010Prop32
280
     0
102
RTVSPost2010PropOp32
 70
     1
102
RTVSPost2010Prop33
280
     0
102
RTVSPost2010PropOp33
 70
     1
102
RTVSPost2010Prop34
280
     0
102
RTVSPost2010PropOp34
 70
     1
102
RTVSPost2010Prop35
280
     0
102
RTVSPost2010PropOp35
 70
     1
102
RTVSPost2010Prop36
280
     0
102
RTVSPost2010PropOp36
 70
     1
102
RTVSPost2010Prop37
 90
       50
102
RTVSPost2010PropOp37
 70
     0
102
RTVSPost2010Prop38
140
0.0
102
RTVSPost2010PropOp38
 70
     0
102
RTVSPost2010Prop39
140
1.0
102
RTVSPost2010PropOp39
 70
     0
102
RTVSPost2010Prop40
 90
        0
102
RTVSPost2010PropOp40
 70
     0
102
RTVSPost2010Prop41ColorIndex
 90
       18
102
RTVSPost2010Prop41ColorRGB
 90
        0
102
RTVSPost2010PropOp41
 70
     0
102
RTVSPost2010Prop42
 90
       50
102
RTVSPost2010PropOp42
 70
     0
102
RTVSPost2010Prop43
 90
        3
102
RTVSPost2010PropOp43
 70
     0
102
RTVSPost2010Prop44ColorIndex
 90
        5
102
RTVSPost2010Prop44ColorRGB
 90
      255
102
RTVSPost2010PropOp44
 70
     0
102
RTVSPost2010Prop45
280
     0
102
RTVSPost2010PropOp45
 70
     1
102
RTVSPost2010Prop46
 90
       50
102
RTVSPost2010PropOp46
 70
     0
102
RTVSPost2010Prop47
 90
       50
102
RTVSPost2010PropOp47
 70
     0
102
RTVSPost2010Prop48
 90
       50
102
RTVSPost2010PropOp48
 70
     0
102
RTVSPost2010Prop49
280
     0
102
RTVSPost2010PropOp49
 70
     1
102
RTVSPost2010Prop50
 90
       50
102
RTVSPost2010PropOp50
 70
     0
102
RTVSPost2010Prop51ColorIndex
 90
      256
102
RTVSPost2010Prop51ColorRGB
 90
-16777216
102
RTVSPost2010PropOp51
 70
     0
102
RTVSPost2010Prop52
140
1.0
102
RTVSPost2010PropOp52
 70
     0
102
RTVSPost2010Prop53
 90
        2
102
RTVSPost2010PropOp53
 70
     0
102
RTVSPost2010Prop54
  1
strokes_ogs.tif
102
RTVSPost2010PropOp54
 70
     0
102
RTVSPost2010Prop55
280
     0
102
RTVSPost2010PropOp55
 70
     1
102
RTVSPost2010Prop56
140
1.0
102
RTVSPost2010PropOp56
 70
     0
102
RTVSPost2010Prop57
140
1.0
102
RTVSPost2010PropOp57
 70
     0
102
RTVSPropertyOp0
 70
     0
102
RTVSPropertyOp1
 70
     0
102
RTVSPropertyOp2
 70
     0
102
RTVSPropertyOp3
 70
     0
102
RTVSPropertyOp4
 70
     0
102
RTVSPropertyOp5
 70
     0
102
RTVSPropertyOp6
 70
     0
102
RTVSPropertyOp7
 70
     0
102
RTVSPropertyOp8
 70
     0
102
RTVSPropertyOp9
 70
     0
102
RTVSPropertyOp10
 70
     0
102
RTVSPropertyOp11
 70
     0
102
RTVSPropertyOp12
 70
     0
102
RTVSPropertyOp13
 70
     0
102
RTVSPropertyOp14
 70
     2
102
RTVSPropertyOp15
 70
     0
102
RTVSPropertyOp16
 70
     0
102
RTVSPropertyOp17
 70
     0
102
RTVSPropertyOp18
 70
     0
102
RTVSPropertyOp19
 70
     0
102
RTVSPropertyOp20
 70
     0
102
RTVSPropertyOp21
 70
     0
102
RTVSPropertyOp22
 70
     0
102
RTVSPropertyOp23
 70
     0
102
RTVSPropertyOp24
 70
     0
102
RTVSPropertyOp25
 70
     0
102
RTVSPropertyOp26
 70
     0
102
RTVSPropertyOp27
 70
     0
102
RTVSPropertyOp28
 70
     1
102
RTVSPropertyOp29
 70
     1
102
RTVSPropertyOp30
 70
     1
102
RTVSPropertyOp31
 70
     1
102
RTVSPropertyOp32
 70
     1
102
RTVSPropertyOp33
 70
     1
102
RTVSPropertyOp34
 70
     1
102
RTVSPropertyOp35
 70
     1
102
RTVSPropertyOp36
 70
     1
102
RTVSPropertyOp37
 70
     0
102
RTVSPropertyOp38
 70
     0
102
RTVSPropertyOp39
 70
     0
102
RTVSPropertyOp40
 70
     0
102
RTVSPropertyOp41
 70
     0
102
RTVSPropertyOp42
 70
     0
102
RTVSPropertyOp43
 70
     0
102
RTVSPropertyOp44
 70
     0
102
RTVSPropertyOp45
 70
     1
102
RTVSPropertyOp46
 70
     0
102
RTVSPropertyOp47
 70
     0
102
RTVSPropertyOp48
 70
     0
102
RTVSPropertyOp49
 70
     1
102
RTVSPropertyOp50
 70
     0
102
RTVSPropertyOp51
 70
     0
102
RTVSPropertyOp52
 70
     0
102
RTVSPropertyOp53
 70
     0
102
RTVSPropertyOp54
 70
     0
102
RTVSPropertyOp55
 70
     1
102
RTVSPropertyOp56
 70
     0
102
RTVSPropertyOp57
 70
     0
102
RTVSPropertyOp58
 70
     0
102
RTVSPropertyOp59
 70
     0
102
RTVSPropertyOp60
 70
     0
102
RTVSPropertyOp61
 70
     0
102
RTVSPropertyOp62
 70
     0
  0
XRECORD
  5
37A3
102
{ACAD_REACTORS
330
37A2
102
}
330
37A2
100
AcDbXrecord
280
     1
102
RTVSPost2010Prop28
280
     0
102
RTVSPost2010PropOp28
 70
     1
102
RTVSPost2010Prop29
280
     1
102
RTVSPost2010PropOp29
 70
     1
102
RTVSPost2010Prop30
280
     1
102
RTVSPost2010PropOp30
 70
     1
102
RTVSPost2010Prop31
280
     0
102
RTVSPost2010PropOp31
 70
     1
102
RTVSPost2010Prop32
280
     0
102
RTVSPost2010PropOp32
 70
     1
102
RTVSPost2010Prop33
280
     0
102
RTVSPost2010PropOp33
 70
     1
102
RTVSPost2010Prop34
280
     0
102
RTVSPost2010PropOp34
 70
     1
102
RTVSPost2010Prop35
280
     0
102
RTVSPost2010PropOp35
 70
     1
102
RTVSPost2010Prop36
280
     0
102
RTVSPost2010PropOp36
 70
     1
102
RTVSPost2010Prop37
 90
       50
102
RTVSPost2010PropOp37
 70
     1
102
RTVSPost2010Prop38
140
0.0
102
RTVSPost2010PropOp38
 70
     1
102
RTVSPost2010Prop39
140
1.0
102
RTVSPost2010PropOp39
 70
     1
102
RTVSPost2010Prop40
 90
        0
102
RTVSPost2010PropOp40
 70
     1
102
RTVSPost2010Prop41ColorIndex
 90
       18
102
RTVSPost2010Prop41ColorRGB
 90
        0
102
RTVSPost2010PropOp41
 70
     1
102
RTVSPost2010Prop42
 90
       50
102
RTVSPost2010PropOp42
 70
     1
102
RTVSPost2010Prop43
 90
        3
102
RTVSPost2010PropOp43
 70
     1
102
RTVSPost2010Prop44ColorIndex
 90
        5
102
RTVSPost2010Prop44ColorRGB
 90
      255
102
RTVSPost2010PropOp44
 70
     1
102
RTVSPost2010Prop45
280
     0
102
RTVSPost2010PropOp45
 70
     1
102
RTVSPost2010Prop46
 90
       50
102
RTVSPost2010PropOp46
 70
     1
102
RTVSPost2010Prop47
 90
       50
102
RTVSPost2010PropOp47
 70
     1
102
RTVSPost2010Prop48
 90
       50
102
RTVSPost2010PropOp48
 70
     1
102
RTVSPost2010Prop49
280
     0
102
RTVSPost2010PropOp49
 70
     1
102
RTVSPost2010Prop50
 90
       50
102
RTVSPost2010PropOp50
 70
     1
102
RTVSPost2010Prop51ColorIndex
 90
      256
102
RTVSPost2010Prop51ColorRGB
 90
-16777216
102
RTVSPost2010PropOp51
 70
     0
102
RTVSPost2010Prop52
140
1.0
102
RTVSPost2010PropOp52
 70
     0
102
RTVSPost2010Prop53
 90
        2
102
RTVSPost2010PropOp53
 70
     1
102
RTVSPost2010Prop54
  1
strokes_ogs.tif
102
RTVSPost2010PropOp54
 70
     1
102
RTVSPost2010Prop55
280
     0
102
RTVSPost2010PropOp55
 70
     1
102
RTVSPost2010Prop56
140
1.0
102
RTVSPost2010PropOp56
 70
     1
102
RTVSPost2010Prop57
140
1.0
102
RTVSPost2010PropOp57
 70
     1
102
RTVSPropertyOp0
 70
     1
102
RTVSPropertyOp1
 70
     1
102
RTVSPropertyOp2
 70
     1
102
RTVSPropertyOp3
 70
     1
102
RTVSPropertyOp4
 70
     1
102
RTVSPropertyOp5
 70
     1
102
RTVSPropertyOp6
 70
     1
102
RTVSPropertyOp7
 70
     1
102
RTVSPropertyOp8
 70
     1
102
RTVSPropertyOp9
 70
     1
102
RTVSPropertyOp10
 70
     1
102
RTVSPropertyOp11
 70
     1
102
RTVSPropertyOp12
 70
     1
102
RTVSPropertyOp13
 70
     1
102
RTVSPropertyOp14
 70
     1
102
RTVSPropertyOp15
 70
     1
102
RTVSPropertyOp16
 70
     1
102
RTVSPropertyOp17
 70
     1
102
RTVSPropertyOp18
 70
     1
102
RTVSPropertyOp19
 70
     1
102
RTVSPropertyOp20
 70
     1
102
RTVSPropertyOp21
 70
     1
102
RTVSPropertyOp22
 70
     1
102
RTVSPropertyOp23
 70
     1
102
RTVSPropertyOp24
 70
     1
102
RTVSPropertyOp25
 70
     1
102
RTVSPropertyOp26
 70
     1
102
RTVSPropertyOp27
 70
     1
102
RTVSPropertyOp28
 70
     1
102
RTVSPropertyOp29
 70
     1
102
RTVSPropertyOp30
 70
     1
102
RTVSPropertyOp31
 70
     1
102
RTVSPropertyOp32
 70
     1
102
RTVSPropertyOp33
 70
     1
102
RTVSPropertyOp34
 70
     1
102
RTVSPropertyOp35
 70
     1
102
RTVSPropertyOp36
 70
     1
102
RTVSPropertyOp37
 70
     1
102
RTVSPropertyOp38
 70
     1
102
RTVSPropertyOp39
 70
     1
102
RTVSPropertyOp40
 70
     1
102
RTVSPropertyOp41
 70
     1
102
RTVSPropertyOp42
 70
     1
102
RTVSPropertyOp43
 70
     1
102
RTVSPropertyOp44
 70
     1
102
RTVSPropertyOp45
 70
     1
102
RTVSPropertyOp46
 70
     1
102
RTVSPropertyOp47
 70
     1
102
RTVSPropertyOp48
 70
     1
102
RTVSPropertyOp49
 70
     1
102
RTVSPropertyOp50
 70
     1
102
RTVSPropertyOp51
 70
     0
102
RTVSPropertyOp52
 70
     0
102
RTVSPropertyOp53
 70
     1
102
RTVSPropertyOp54
 70
     1
102
RTVSPropertyOp55
 70
     1
102
RTVSPropertyOp56
 70
     1
102
RTVSPropertyOp57
 70
     1
102
RTVSPropertyOp58
 70
     1
102
RTVSPropertyOp59
 70
     1
102
RTVSPropertyOp60
 70
     1
102
RTVSPropertyOp61
 70
     1
102
RTVSPropertyOp62
 70
     1
  0
XRECORD
  5
3787
102
{ACAD_REACTORS
330
3786
102
}
330
3786
100
AcDbXrecord
280
     1
102
RTVSPost2010Prop28
280
     0
102
RTVSPost2010PropOp28
 70
     1
102
RTVSPost2010Prop29
280
     1
102
RTVSPost2010PropOp29
 70
     1
102
RTVSPost2010Prop30
280
     1
102
RTVSPost2010PropOp30
 70
     1
102
RTVSPost2010Prop31
280
     0
102
RTVSPost2010PropOp31
 70
     1
102
RTVSPost2010Prop32
280
     0
102
RTVSPost2010PropOp32
 70
     1
102
RTVSPost2010Prop33
280
     0
102
RTVSPost2010PropOp33
 70
     1
102
RTVSPost2010Prop34
280
     0
102
RTVSPost2010PropOp34
 70
     1
102
RTVSPost2010Prop35
280
     0
102
RTVSPost2010PropOp35
 70
     1
102
RTVSPost2010Prop36
280
     0
102
RTVSPost2010PropOp36
 70
     1
102
RTVSPost2010Prop37
 90
       50
102
RTVSPost2010PropOp37
 70
     1
102
RTVSPost2010Prop38
140
0.0
102
RTVSPost2010PropOp38
 70
     1
102
RTVSPost2010Prop39
140
1.0
102
RTVSPost2010PropOp39
 70
     1
102
RTVSPost2010Prop40
 90
        0
102
RTVSPost2010PropOp40
 70
     1
102
RTVSPost2010Prop41ColorIndex
 90
       18
102
RTVSPost2010Prop41ColorRGB
 90
        0
102
RTVSPost2010PropOp41
 70
     1
102
RTVSPost2010Prop42
 90
       50
102
RTVSPost2010PropOp42
 70
     1
102
RTVSPost2010Prop43
 90
        3
102
RTVSPost2010PropOp43
 70
     1
102
RTVSPost2010Prop44ColorIndex
 90
        5
102
RTVSPost2010Prop44ColorRGB
 90
      255
102
RTVSPost2010PropOp44
 70
     1
102
RTVSPost2010Prop45
280
     0
102
RTVSPost2010PropOp45
 70
     1
102
RTVSPost2010Prop46
 90
       50
102
RTVSPost2010PropOp46
 70
     1
102
RTVSPost2010Prop47
 90
       50
102
RTVSPost2010PropOp47
 70
     1
102
RTVSPost2010Prop48
 90
       50
102
RTVSPost2010PropOp48
 70
     1
102
RTVSPost2010Prop49
280
     0
102
RTVSPost2010PropOp49
 70
     1
102
RTVSPost2010Prop50
 90
       50
102
RTVSPost2010PropOp50
 70
     1
102
RTVSPost2010Prop51ColorIndex
 90
      256
102
RTVSPost2010Prop51ColorRGB
 90
-16777216
102
RTVSPost2010PropOp51
 70
     0
102
RTVSPost2010Prop52
140
1.0
102
RTVSPost2010PropOp52
 70
     0
102
RTVSPost2010Prop53
 90
        2
102
RTVSPost2010PropOp53
 70
     1
102
RTVSPost2010Prop54
  1
strokes_ogs.tif
102
RTVSPost2010PropOp54
 70
     1
102
RTVSPost2010Prop55
280
     0
102
RTVSPost2010PropOp55
 70
     1
102
RTVSPost2010Prop56
140
1.0
102
RTVSPost2010PropOp56
 70
     1
102
RTVSPost2010Prop57
140
1.0
102
RTVSPost2010PropOp57
 70
     1
102
RTVSPropertyOp0
 70
     1
102
RTVSPropertyOp1
 70
     1
102
RTVSPropertyOp2
 70
     1
102
RTVSPropertyOp3
 70
     1
102
RTVSPropertyOp4
 70
     1
102
RTVSPropertyOp5
 70
     1
102
RTVSPropertyOp6
 70
     1
102
RTVSPropertyOp7
 70
     1
102
RTVSPropertyOp8
 70
     1
102
RTVSPropertyOp9
 70
     1
102
RTVSPropertyOp10
 70
     1
102
RTVSPropertyOp11
 70
     1
102
RTVSPropertyOp12
 70
     1
102
RTVSPropertyOp13
 70
     1
102
RTVSPropertyOp14
 70
     1
102
RTVSPropertyOp15
 70
     1
102
RTVSPropertyOp16
 70
     1
102
RTVSPropertyOp17
 70
     1
102
RTVSPropertyOp18
 70
     1
102
RTVSPropertyOp19
 70
     1
102
RTVSPropertyOp20
 70
     1
102
RTVSPropertyOp21
 70
     1
102
RTVSPropertyOp22
 70
     1
102
RTVSPropertyOp23
 70
     1
102
RTVSPropertyOp24
 70
     1
102
RTVSPropertyOp25
 70
     1
102
RTVSPropertyOp26
 70
     1
102
RTVSPropertyOp27
 70
     1
102
RTVSPropertyOp28
 70
     1
102
RTVSPropertyOp29
 70
     1
102
RTVSPropertyOp30
 70
     1
102
RTVSPropertyOp31
 70
     1
102
RTVSPropertyOp32
 70
     1
102
RTVSPropertyOp33
 70
     1
102
RTVSPropertyOp34
 70
     1
102
RTVSPropertyOp35
 70
     1
102
RTVSPropertyOp36
 70
     1
102
RTVSPropertyOp37
 70
     1
102
RTVSPropertyOp38
 70
     1
102
RTVSPropertyOp39
 70
     1
102
RTVSPropertyOp40
 70
     1
102
RTVSPropertyOp41
 70
     1
102
RTVSPropertyOp42
 70
     1
102
RTVSPropertyOp43
 70
     1
102
RTVSPropertyOp44
 70
     1
102
RTVSPropertyOp45
 70
     1
102
RTVSPropertyOp46
 70
     1
102
RTVSPropertyOp47
 70
     1
102
RTVSPropertyOp48
 70
     1
102
RTVSPropertyOp49
 70
     1
102
RTVSPropertyOp50
 70
     1
102
RTVSPropertyOp51
 70
     0
102
RTVSPropertyOp52
 70
     0
102
RTVSPropertyOp53
 70
     1
102
RTVSPropertyOp54
 70
     1
102
RTVSPropertyOp55
 70
     1
102
RTVSPropertyOp56
 70
     1
102
RTVSPropertyOp57
 70
     1
102
RTVSPropertyOp58
 70
     1
102
RTVSPropertyOp59
 70
     1
102
RTVSPropertyOp60
 70
     1
102
RTVSPropertyOp61
 70
     1
102
RTVSPropertyOp62
 70
     1
  0
XRECORD
  5
3789
102
{ACAD_REACTORS
330
3788
102
}
330
3788
100
AcDbXrecord
280
     1
102
RTVSPost2010Prop28
280
     0
102
RTVSPost2010PropOp28
 70
     1
102
RTVSPost2010Prop29
280
     1
102
RTVSPost2010PropOp29
 70
     1
102
RTVSPost2010Prop30
280
     1
102
RTVSPost2010PropOp30
 70
     1
102
RTVSPost2010Prop31
280
     0
102
RTVSPost2010PropOp31
 70
     1
102
RTVSPost2010Prop32
280
     0
102
RTVSPost2010PropOp32
 70
     1
102
RTVSPost2010Prop33
280
     0
102
RTVSPost2010PropOp33
 70
     1
102
RTVSPost2010Prop34
280
     0
102
RTVSPost2010PropOp34
 70
     1
102
RTVSPost2010Prop35
280
     0
102
RTVSPost2010PropOp35
 70
     1
102
RTVSPost2010Prop36
280
     0
102
RTVSPost2010PropOp36
 70
     1
102
RTVSPost2010Prop37
 90
       50
102
RTVSPost2010PropOp37
 70
     1
102
RTVSPost2010Prop38
140
0.0
102
RTVSPost2010PropOp38
 70
     1
102
RTVSPost2010Prop39
140
1.0
102
RTVSPost2010PropOp39
 70
     1
102
RTVSPost2010Prop40
 90
        0
102
RTVSPost2010PropOp40
 70
     1
102
RTVSPost2010Prop41ColorIndex
 90
       18
102
RTVSPost2010Prop41ColorRGB
 90
        0
102
RTVSPost2010PropOp41
 70
     1
102
RTVSPost2010Prop42
 90
       50
102
RTVSPost2010PropOp42
 70
     1
102
RTVSPost2010Prop43
 90
        3
102
RTVSPost2010PropOp43
 70
     1
102
RTVSPost2010Prop44ColorIndex
 90
        5
102
RTVSPost2010Prop44ColorRGB
 90
      255
102
RTVSPost2010PropOp44
 70
     1
102
RTVSPost2010Prop45
280
     0
102
RTVSPost2010PropOp45
 70
     1
102
RTVSPost2010Prop46
 90
       50
102
RTVSPost2010PropOp46
 70
     1
102
RTVSPost2010Prop47
 90
       50
102
RTVSPost2010PropOp47
 70
     1
102
RTVSPost2010Prop48
 90
       50
102
RTVSPost2010PropOp48
 70
     1
102
RTVSPost2010Prop49
280
     0
102
RTVSPost2010PropOp49
 70
     1
102
RTVSPost2010Prop50
 90
       50
102
RTVSPost2010PropOp50
 70
     1
102
RTVSPost2010Prop51ColorIndex
 90
      256
102
RTVSPost2010Prop51ColorRGB
 90
-16777216
102
RTVSPost2010PropOp51
 70
     0
102
RTVSPost2010Prop52
140
1.0
102
RTVSPost2010PropOp52
 70
     0
102
RTVSPost2010Prop53
 90
        2
102
RTVSPost2010PropOp53
 70
     1
102
RTVSPost2010Prop54
  1
strokes_ogs.tif
102
RTVSPost2010PropOp54
 70
     1
102
RTVSPost2010Prop55
280
     0
102
RTVSPost2010PropOp55
 70
     1
102
RTVSPost2010Prop56
140
1.0
102
RTVSPost2010PropOp56
 70
     1
102
RTVSPost2010Prop57
140
1.0
102
RTVSPost2010PropOp57
 70
     1
102
RTVSPropertyOp0
 70
     1
102
RTVSPropertyOp1
 70
     1
102
RTVSPropertyOp2
 70
     1
102
RTVSPropertyOp3
 70
     1
102
RTVSPropertyOp4
 70
     1
102
RTVSPropertyOp5
 70
     1
102
RTVSPropertyOp6
 70
     1
102
RTVSPropertyOp7
 70
     1
102
RTVSPropertyOp8
 70
     1
102
RTVSPropertyOp9
 70
     1
102
RTVSPropertyOp10
 70
     1
102
RTVSPropertyOp11
 70
     1
102
RTVSPropertyOp12
 70
     1
102
RTVSPropertyOp13
 70
     1
102
RTVSPropertyOp14
 70
     1
102
RTVSPropertyOp15
 70
     1
102
RTVSPropertyOp16
 70
     1
102
RTVSPropertyOp17
 70
     1
102
RTVSPropertyOp18
 70
     1
102
RTVSPropertyOp19
 70
     1
102
RTVSPropertyOp20
 70
     1
102
RTVSPropertyOp21
 70
     1
102
RTVSPropertyOp22
 70
     1
102
RTVSPropertyOp23
 70
     1
102
RTVSPropertyOp24
 70
     1
102
RTVSPropertyOp25
 70
     1
102
RTVSPropertyOp26
 70
     1
102
RTVSPropertyOp27
 70
     1
102
RTVSPropertyOp28
 70
     1
102
RTVSPropertyOp29
 70
     1
102
RTVSPropertyOp30
 70
     1
102
RTVSPropertyOp31
 70
     1
102
RTVSPropertyOp32
 70
     1
102
RTVSPropertyOp33
 70
     1
102
RTVSPropertyOp34
 70
     1
102
RTVSPropertyOp35
 70
     1
102
RTVSPropertyOp36
 70
     1
102
RTVSPropertyOp37
 70
     1
102
RTVSPropertyOp38
 70
     1
102
RTVSPropertyOp39
 70
     1
102
RTVSPropertyOp40
 70
     1
102
RTVSPropertyOp41
 70
     1
102
RTVSPropertyOp42
 70
     1
102
RTVSPropertyOp43
 70
     1
102
RTVSPropertyOp44
 70
     1
102
RTVSPropertyOp45
 70
     1
102
RTVSPropertyOp46
 70
     1
102
RTVSPropertyOp47
 70
     1
102
RTVSPropertyOp48
 70
     1
102
RTVSPropertyOp49
 70
     1
102
RTVSPropertyOp50
 70
     1
102
RTVSPropertyOp51
 70
     0
102
RTVSPropertyOp52
 70
     0
102
RTVSPropertyOp53
 70
     1
102
RTVSPropertyOp54
 70
     1
102
RTVSPropertyOp55
 70
     1
102
RTVSPropertyOp56
 70
     1
102
RTVSPropertyOp57
 70
     1
102
RTVSPropertyOp58
 70
     1
102
RTVSPropertyOp59
 70
     1
102
RTVSPropertyOp60
 70
     1
102
RTVSPropertyOp61
 70
     1
102
RTVSPropertyOp62
 70
     1
  0
XRECORD
  5
378B
102
{ACAD_REACTORS
330
378A
102
}
330
378A
100
AcDbXrecord
280
     1
102
RTVSPost2010Prop28
280
     0
102
RTVSPost2010PropOp28
 70
     1
102
RTVSPost2010Prop29
280
     1
102
RTVSPost2010PropOp29
 70
     1
102
RTVSPost2010Prop30
280
     1
102
RTVSPost2010PropOp30
 70
     1
102
RTVSPost2010Prop31
280
     0
102
RTVSPost2010PropOp31
 70
     1
102
RTVSPost2010Prop32
280
     0
102
RTVSPost2010PropOp32
 70
     1
102
RTVSPost2010Prop33
280
     0
102
RTVSPost2010PropOp33
 70
     1
102
RTVSPost2010Prop34
280
     0
102
RTVSPost2010PropOp34
 70
     1
102
RTVSPost2010Prop35
280
     0
102
RTVSPost2010PropOp35
 70
     1
102
RTVSPost2010Prop36
280
     0
102
RTVSPost2010PropOp36
 70
     1
102
RTVSPost2010Prop37
 90
       50
102
RTVSPost2010PropOp37
 70
     1
102
RTVSPost2010Prop38
140
0.0
102
RTVSPost2010PropOp38
 70
     1
102
RTVSPost2010Prop39
140
1.0
102
RTVSPost2010PropOp39
 70
     1
102
RTVSPost2010Prop40
 90
        0
102
RTVSPost2010PropOp40
 70
     1
102
RTVSPost2010Prop41ColorIndex
 90
       18
102
RTVSPost2010Prop41ColorRGB
 90
        0
102
RTVSPost2010PropOp41
 70
     1
102
RTVSPost2010Prop42
 90
       50
102
RTVSPost2010PropOp42
 70
     1
102
RTVSPost2010Prop43
 90
        3
102
RTVSPost2010PropOp43
 70
     1
102
RTVSPost2010Prop44ColorIndex
 90
        5
102
RTVSPost2010Prop44ColorRGB
 90
      255
102
RTVSPost2010PropOp44
 70
     1
102
RTVSPost2010Prop45
280
     0
102
RTVSPost2010PropOp45
 70
     1
102
RTVSPost2010Prop46
 90
       50
102
RTVSPost2010PropOp46
 70
     1
102
RTVSPost2010Prop47
 90
       50
102
RTVSPost2010PropOp47
 70
     1
102
RTVSPost2010Prop48
 90
       50
102
RTVSPost2010PropOp48
 70
     1
102
RTVSPost2010Prop49
280
     0
102
RTVSPost2010PropOp49
 70
     1
102
RTVSPost2010Prop50
 90
       50
102
RTVSPost2010PropOp50
 70
     1
102
RTVSPost2010Prop51ColorIndex
 90
      256
102
RTVSPost2010Prop51ColorRGB
 90
-16777216
102
RTVSPost2010PropOp51
 70
     0
102
RTVSPost2010Prop52
140
1.0
102
RTVSPost2010PropOp52
 70
     0
102
RTVSPost2010Prop53
 90
        2
102
RTVSPost2010PropOp53
 70
     1
102
RTVSPost2010Prop54
  1
strokes_ogs.tif
102
RTVSPost2010PropOp54
 70
     1
102
RTVSPost2010Prop55
280
     0
102
RTVSPost2010PropOp55
 70
     1
102
RTVSPost2010Prop56
140
1.0
102
RTVSPost2010PropOp56
 70
     1
102
RTVSPost2010Prop57
140
1.0
102
RTVSPost2010PropOp57
 70
     1
102
RTVSPropertyOp0
 70
     1
102
RTVSPropertyOp1
 70
     1
102
RTVSPropertyOp2
 70
     1
102
RTVSPropertyOp3
 70
     1
102
RTVSPropertyOp4
 70
     1
102
RTVSPropertyOp5
 70
     1
102
RTVSPropertyOp6
 70
     1
102
RTVSPropertyOp7
 70
     1
102
RTVSPropertyOp8
 70
     1
102
RTVSPropertyOp9
 70
     1
102
RTVSPropertyOp10
 70
     1
102
RTVSPropertyOp11
 70
     1
102
RTVSPropertyOp12
 70
     1
102
RTVSPropertyOp13
 70
     1
102
RTVSPropertyOp14
 70
     1
102
RTVSPropertyOp15
 70
     1
102
RTVSPropertyOp16
 70
     1
102
RTVSPropertyOp17
 70
     1
102
RTVSPropertyOp18
 70
     1
102
RTVSPropertyOp19
 70
     1
102
RTVSPropertyOp20
 70
     1
102
RTVSPropertyOp21
 70
     1
102
RTVSPropertyOp22
 70
     1
102
RTVSPropertyOp23
 70
     1
102
RTVSPropertyOp24
 70
     1
102
RTVSPropertyOp25
 70
     1
102
RTVSPropertyOp26
 70
     1
102
RTVSPropertyOp27
 70
     1
102
RTVSPropertyOp28
 70
     1
102
RTVSPropertyOp29
 70
     1
102
RTVSPropertyOp30
 70
     1
102
RTVSPropertyOp31
 70
     1
102
RTVSPropertyOp32
 70
     1
102
RTVSPropertyOp33
 70
     1
102
RTVSPropertyOp34
 70
     1
102
RTVSPropertyOp35
 70
     1
102
RTVSPropertyOp36
 70
     1
102
RTVSPropertyOp37
 70
     1
102
RTVSPropertyOp38
 70
     1
102
RTVSPropertyOp39
 70
     1
102
RTVSPropertyOp40
 70
     1
102
RTVSPropertyOp41
 70
     1
102
RTVSPropertyOp42
 70
     1
102
RTVSPropertyOp43
 70
     1
102
RTVSPropertyOp44
 70
     1
102
RTVSPropertyOp45
 70
     1
102
RTVSPropertyOp46
 70
     1
102
RTVSPropertyOp47
 70
     1
102
RTVSPropertyOp48
 70
     1
102
RTVSPropertyOp49
 70
     1
102
RTVSPropertyOp50
 70
     1
102
RTVSPropertyOp51
 70
     0
102
RTVSPropertyOp52
 70
     0
102
RTVSPropertyOp53
 70
     1
102
RTVSPropertyOp54
 70
     1
102
RTVSPropertyOp55
 70
     1
102
RTVSPropertyOp56
 70
     1
102
RTVSPropertyOp57
 70
     1
102
RTVSPropertyOp58
 70
     1
102
RTVSPropertyOp59
 70
     1
102
RTVSPropertyOp60
 70
     1
102
RTVSPropertyOp61
 70
     1
102
RTVSPropertyOp62
 70
     1
  0
XRECORD
  5
378D
102
{ACAD_REACTORS
330
378C
102
}
330
378C
100
AcDbXrecord
280
     1
102
RTVSPost2010Prop28
280
     0
102
RTVSPost2010PropOp28
 70
     1
102
RTVSPost2010Prop29
280
     1
102
RTVSPost2010PropOp29
 70
     1
102
RTVSPost2010Prop30
280
     1
102
RTVSPost2010PropOp30
 70
     1
102
RTVSPost2010Prop31
280
     0
102
RTVSPost2010PropOp31
 70
     1
102
RTVSPost2010Prop32
280
     0
102
RTVSPost2010PropOp32
 70
     1
102
RTVSPost2010Prop33
280
     0
102
RTVSPost2010PropOp33
 70
     1
102
RTVSPost2010Prop34
280
     0
102
RTVSPost2010PropOp34
 70
     1
102
RTVSPost2010Prop35
280
     0
102
RTVSPost2010PropOp35
 70
     1
102
RTVSPost2010Prop36
280
     0
102
RTVSPost2010PropOp36
 70
     1
102
RTVSPost2010Prop37
 90
       50
102
RTVSPost2010PropOp37
 70
     1
102
RTVSPost2010Prop38
140
0.0
102
RTVSPost2010PropOp38
 70
     1
102
RTVSPost2010Prop39
140
1.0
102
RTVSPost2010PropOp39
 70
     1
102
RTVSPost2010Prop40
 90
        0
102
RTVSPost2010PropOp40
 70
     1
102
RTVSPost2010Prop41ColorIndex
 90
       18
102
RTVSPost2010Prop41ColorRGB
 90
        0
102
RTVSPost2010PropOp41
 70
     1
102
RTVSPost2010Prop42
 90
       50
102
RTVSPost2010PropOp42
 70
     1
102
RTVSPost2010Prop43
 90
        3
102
RTVSPost2010PropOp43
 70
     1
102
RTVSPost2010Prop44ColorIndex
 90
        5
102
RTVSPost2010Prop44ColorRGB
 90
      255
102
RTVSPost2010PropOp44
 70
     1
102
RTVSPost2010Prop45
280
     0
102
RTVSPost2010PropOp45
 70
     1
102
RTVSPost2010Prop46
 90
       50
102
RTVSPost2010PropOp46
 70
     1
102
RTVSPost2010Prop47
 90
       50
102
RTVSPost2010PropOp47
 70
     1
102
RTVSPost2010Prop48
 90
       50
102
RTVSPost2010PropOp48
 70
     1
102
RTVSPost2010Prop49
280
     0
102
RTVSPost2010PropOp49
 70
     1
102
RTVSPost2010Prop50
 90
       50
102
RTVSPost2010PropOp50
 70
     1
102
RTVSPost2010Prop51ColorIndex
 90
      256
102
RTVSPost2010Prop51ColorRGB
 90
-16777216
102
RTVSPost2010PropOp51
 70
     0
102
RTVSPost2010Prop52
140
1.0
102
RTVSPost2010PropOp52
 70
     0
102
RTVSPost2010Prop53
 90
        2
102
RTVSPost2010PropOp53
 70
     1
102
RTVSPost2010Prop54
  1
strokes_ogs.tif
102
RTVSPost2010PropOp54
 70
     1
102
RTVSPost2010Prop55
280
     0
102
RTVSPost2010PropOp55
 70
     1
102
RTVSPost2010Prop56
140
1.0
102
RTVSPost2010PropOp56
 70
     1
102
RTVSPost2010Prop57
140
1.0
102
RTVSPost2010PropOp57
 70
     1
102
RTVSPropertyOp0
 70
     1
102
RTVSPropertyOp1
 70
     1
102
RTVSPropertyOp2
 70
     1
102
RTVSPropertyOp3
 70
     1
102
RTVSPropertyOp4
 70
     1
102
RTVSPropertyOp5
 70
     1
102
RTVSPropertyOp6
 70
     1
102
RTVSPropertyOp7
 70
     1
102
RTVSPropertyOp8
 70
     1
102
RTVSPropertyOp9
 70
     1
102
RTVSPropertyOp10
 70
     1
102
RTVSPropertyOp11
 70
     1
102
RTVSPropertyOp12
 70
     1
102
RTVSPropertyOp13
 70
     1
102
RTVSPropertyOp14
 70
     1
102
RTVSPropertyOp15
 70
     1
102
RTVSPropertyOp16
 70
     1
102
RTVSPropertyOp17
 70
     1
102
RTVSPropertyOp18
 70
     1
102
RTVSPropertyOp19
 70
     1
102
RTVSPropertyOp20
 70
     1
102
RTVSPropertyOp21
 70
     1
102
RTVSPropertyOp22
 70
     1
102
RTVSPropertyOp23
 70
     1
102
RTVSPropertyOp24
 70
     1
102
RTVSPropertyOp25
 70
     1
102
RTVSPropertyOp26
 70
     1
102
RTVSPropertyOp27
 70
     1
102
RTVSPropertyOp28
 70
     1
102
RTVSPropertyOp29
 70
     1
102
RTVSPropertyOp30
 70
     1
102
RTVSPropertyOp31
 70
     1
102
RTVSPropertyOp32
 70
     1
102
RTVSPropertyOp33
 70
     1
102
RTVSPropertyOp34
 70
     1
102
RTVSPropertyOp35
 70
     1
102
RTVSPropertyOp36
 70
     1
102
RTVSPropertyOp37
 70
     1
102
RTVSPropertyOp38
 70
     1
102
RTVSPropertyOp39
 70
     1
102
RTVSPropertyOp40
 70
     1
102
RTVSPropertyOp41
 70
     1
102
RTVSPropertyOp42
 70
     1
102
RTVSPropertyOp43
 70
     1
102
RTVSPropertyOp44
 70
     1
102
RTVSPropertyOp45
 70
     1
102
RTVSPropertyOp46
 70
     1
102
RTVSPropertyOp47
 70
     1
102
RTVSPropertyOp48
 70
     1
102
RTVSPropertyOp49
 70
     1
102
RTVSPropertyOp50
 70
     1
102
RTVSPropertyOp51
 70
     0
102
RTVSPropertyOp52
 70
     0
102
RTVSPropertyOp53
 70
     1
102
RTVSPropertyOp54
 70
     1
102
RTVSPropertyOp55
 70
     1
102
RTVSPropertyOp56
 70
     1
102
RTVSPropertyOp57
 70
     1
102
RTVSPropertyOp58
 70
     1
102
RTVSPropertyOp59
 70
     1
102
RTVSPropertyOp60
 70
     1
102
RTVSPropertyOp61
 70
     1
102
RTVSPropertyOp62
 70
     1
  0
XRECORD
  5
3795
102
{ACAD_REACTORS
330
3794
102
}
330
3794
100
AcDbXrecord
280
     1
102
RTVSPost2010Prop28
280
     0
102
RTVSPost2010PropOp28
 70
     1
102
RTVSPost2010Prop29
280
     1
102
RTVSPost2010PropOp29
 70
     1
102
RTVSPost2010Prop30
280
     1
102
RTVSPost2010PropOp30
 70
     1
102
RTVSPost2010Prop31
280
     0
102
RTVSPost2010PropOp31
 70
     1
102
RTVSPost2010Prop32
280
     0
102
RTVSPost2010PropOp32
 70
     1
102
RTVSPost2010Prop33
280
     0
102
RTVSPost2010PropOp33
 70
     1
102
RTVSPost2010Prop34
280
     0
102
RTVSPost2010PropOp34
 70
     1
102
RTVSPost2010Prop35
280
     0
102
RTVSPost2010PropOp35
 70
     1
102
RTVSPost2010Prop36
280
     0
102
RTVSPost2010PropOp36
 70
     1
102
RTVSPost2010Prop37
 90
       50
102
RTVSPost2010PropOp37
 70
     1
102
RTVSPost2010Prop38
140
0.0
102
RTVSPost2010PropOp38
 70
     1
102
RTVSPost2010Prop39
140
1.0
102
RTVSPost2010PropOp39
 70
     1
102
RTVSPost2010Prop40
 90
        0
102
RTVSPost2010PropOp40
 70
     1
102
RTVSPost2010Prop41ColorIndex
 90
       18
102
RTVSPost2010Prop41ColorRGB
 90
        0
102
RTVSPost2010PropOp41
 70
     1
102
RTVSPost2010Prop42
 90
       50
102
RTVSPost2010PropOp42
 70
     1
102
RTVSPost2010Prop43
 90
        3
102
RTVSPost2010PropOp43
 70
     1
102
RTVSPost2010Prop44ColorIndex
 90
        5
102
RTVSPost2010Prop44ColorRGB
 90
      255
102
RTVSPost2010PropOp44
 70
     1
102
RTVSPost2010Prop45
280
     0
102
RTVSPost2010PropOp45
 70
     1
102
RTVSPost2010Prop46
 90
       50
102
RTVSPost2010PropOp46
 70
     1
102
RTVSPost2010Prop47
 90
       50
102
RTVSPost2010PropOp47
 70
     1
102
RTVSPost2010Prop48
 90
       50
102
RTVSPost2010PropOp48
 70
     1
102
RTVSPost2010Prop49
280
     0
102
RTVSPost2010PropOp49
 70
     1
102
RTVSPost2010Prop50
 90
       50
102
RTVSPost2010PropOp50
 70
     1
102
RTVSPost2010Prop51ColorIndex
 90
      256
102
RTVSPost2010Prop51ColorRGB
 90
-16777216
102
RTVSPost2010PropOp51
 70
     0
102
RTVSPost2010Prop52
140
1.0
102
RTVSPost2010PropOp52
 70
     0
102
RTVSPost2010Prop53
 90
        2
102
RTVSPost2010PropOp53
 70
     1
102
RTVSPost2010Prop54
  1
strokes_ogs.tif
102
RTVSPost2010PropOp54
 70
     1
102
RTVSPost2010Prop55
280
     0
102
RTVSPost2010PropOp55
 70
     1
102
RTVSPost2010Prop56
140
1.0
102
RTVSPost2010PropOp56
 70
     1
102
RTVSPost2010Prop57
140
1.0
102
RTVSPost2010PropOp57
 70
     1
102
RTVSPropertyOp0
 70
     1
102
RTVSPropertyOp1
 70
     1
102
RTVSPropertyOp2
 70
     1
102
RTVSPropertyOp3
 70
     1
102
RTVSPropertyOp4
 70
     1
102
RTVSPropertyOp5
 70
     1
102
RTVSPropertyOp6
 70
     1
102
RTVSPropertyOp7
 70
     1
102
RTVSPropertyOp8
 70
     1
102
RTVSPropertyOp9
 70
     1
102
RTVSPropertyOp10
 70
     1
102
RTVSPropertyOp11
 70
     1
102
RTVSPropertyOp12
 70
     1
102
RTVSPropertyOp13
 70
     1
102
RTVSPropertyOp14
 70
     1
102
RTVSPropertyOp15
 70
     1
102
RTVSPropertyOp16
 70
     1
102
RTVSPropertyOp17
 70
     1
102
RTVSPropertyOp18
 70
     1
102
RTVSPropertyOp19
 70
     1
102
RTVSPropertyOp20
 70
     1
102
RTVSPropertyOp21
 70
     1
102
RTVSPropertyOp22
 70
     1
102
RTVSPropertyOp23
 70
     1
102
RTVSPropertyOp24
 70
     1
102
RTVSPropertyOp25
 70
     1
102
RTVSPropertyOp26
 70
     1
102
RTVSPropertyOp27
 70
     1
102
RTVSPropertyOp28
 70
     1
102
RTVSPropertyOp29
 70
     1
102
RTVSPropertyOp30
 70
     1
102
RTVSPropertyOp31
 70
     1
102
RTVSPropertyOp32
 70
     1
102
RTVSPropertyOp33
 70
     1
102
RTVSPropertyOp34
 70
     1
102
RTVSPropertyOp35
 70
     1
102
RTVSPropertyOp36
 70
     1
102
RTVSPropertyOp37
 70
     1
102
RTVSPropertyOp38
 70
     1
102
RTVSPropertyOp39
 70
     1
102
RTVSPropertyOp40
 70
     1
102
RTVSPropertyOp41
 70
     1
102
RTVSPropertyOp42
 70
     1
102
RTVSPropertyOp43
 70
     1
102
RTVSPropertyOp44
 70
     1
102
RTVSPropertyOp45
 70
     1
102
RTVSPropertyOp46
 70
     1
102
RTVSPropertyOp47
 70
     1
102
RTVSPropertyOp48
 70
     1
102
RTVSPropertyOp49
 70
     1
102
RTVSPropertyOp50
 70
     1
102
RTVSPropertyOp51
 70
     0
102
RTVSPropertyOp52
 70
     0
102
RTVSPropertyOp53
 70
     1
102
RTVSPropertyOp54
 70
     1
102
RTVSPropertyOp55
 70
     1
102
RTVSPropertyOp56
 70
     1
102
RTVSPropertyOp57
 70
     1
102
RTVSPropertyOp58
 70
     1
102
RTVSPropertyOp59
 70
     1
102
RTVSPropertyOp60
 70
     1
102
RTVSPropertyOp61
 70
     1
102
RTVSPropertyOp62
 70
     1
  0
XRECORD
  5
37B1
102
{ACAD_REACTORS
330
37B0
102
}
330
37B0
100
AcDbXrecord
280
     1
102
RTVSPost2010Prop28
280
     0
102
RTVSPost2010PropOp28
 70
     1
102
RTVSPost2010Prop29
280
     1
102
RTVSPost2010PropOp29
 70
     1
102
RTVSPost2010Prop30
280
     1
102
RTVSPost2010PropOp30
 70
     1
102
RTVSPost2010Prop31
280
     0
102
RTVSPost2010PropOp31
 70
     1
102
RTVSPost2010Prop32
280
     0
102
RTVSPost2010PropOp32
 70
     1
102
RTVSPost2010Prop33
280
     0
102
RTVSPost2010PropOp33
 70
     1
102
RTVSPost2010Prop34
280
     0
102
RTVSPost2010PropOp34
 70
     1
102
RTVSPost2010Prop35
280
     0
102
RTVSPost2010PropOp35
 70
     1
102
RTVSPost2010Prop36
280
     0
102
RTVSPost2010PropOp36
 70
     1
102
RTVSPost2010Prop37
 90
       50
102
RTVSPost2010PropOp37
 70
     0
102
RTVSPost2010Prop38
140
0.0
102
RTVSPost2010PropOp38
 70
     0
102
RTVSPost2010Prop39
140
1.0
102
RTVSPost2010PropOp39
 70
     0
102
RTVSPost2010Prop40
 90
        0
102
RTVSPost2010PropOp40
 70
     0
102
RTVSPost2010Prop41ColorIndex
 90
       18
102
RTVSPost2010Prop41ColorRGB
 90
        0
102
RTVSPost2010PropOp41
 70
     0
102
RTVSPost2010Prop42
 90
       50
102
RTVSPost2010PropOp42
 70
     0
102
RTVSPost2010Prop43
 90
        3
102
RTVSPost2010PropOp43
 70
     0
102
RTVSPost2010Prop44ColorIndex
 90
        5
102
RTVSPost2010Prop44ColorRGB
 90
      255
102
RTVSPost2010PropOp44
 70
     0
102
RTVSPost2010Prop45
280
     0
102
RTVSPost2010PropOp45
 70
     1
102
RTVSPost2010Prop46
 90
       50
102
RTVSPost2010PropOp46
 70
     0
102
RTVSPost2010Prop47
 90
       50
102
RTVSPost2010PropOp47
 70
     0
102
RTVSPost2010Prop48
 90
       50
102
RTVSPost2010PropOp48
 70
     0
102
RTVSPost2010Prop49
280
     0
102
RTVSPost2010PropOp49
 70
     1
102
RTVSPost2010Prop50
 90
       50
102
RTVSPost2010PropOp50
 70
     0
102
RTVSPost2010Prop51ColorIndex
 90
      256
102
RTVSPost2010Prop51ColorRGB
 90
-16777216
102
RTVSPost2010PropOp51
 70
     0
102
RTVSPost2010Prop52
140
1.0
102
RTVSPost2010PropOp52
 70
     0
102
RTVSPost2010Prop53
 90
        2
102
RTVSPost2010PropOp53
 70
     0
102
RTVSPost2010Prop54
  1
strokes_ogs.tif
102
RTVSPost2010PropOp54
 70
     0
102
RTVSPost2010Prop55
280
     0
102
RTVSPost2010PropOp55
 70
     1
102
RTVSPost2010Prop56
140
1.0
102
RTVSPost2010PropOp56
 70
     0
102
RTVSPost2010Prop57
140
1.0
102
RTVSPost2010PropOp57
 70
     0
102
RTVSPropertyOp0
 70
     0
102
RTVSPropertyOp1
 70
     0
102
RTVSPropertyOp2
 70
     0
102
RTVSPropertyOp3
 70
     0
102
RTVSPropertyOp4
 70
     0
102
RTVSPropertyOp5
 70
     0
102
RTVSPropertyOp6
 70
     0
102
RTVSPropertyOp7
 70
     0
102
RTVSPropertyOp8
 70
     0
102
RTVSPropertyOp9
 70
     0
102
RTVSPropertyOp10
 70
     0
102
RTVSPropertyOp11
 70
     0
102
RTVSPropertyOp12
 70
     0
102
RTVSPropertyOp13
 70
     0
102
RTVSPropertyOp14
 70
     2
102
RTVSPropertyOp15
 70
     0
102
RTVSPropertyOp16
 70
     0
102
RTVSPropertyOp17
 70
     0
102
RTVSPropertyOp18
 70
     0
102
RTVSPropertyOp19
 70
     0
102
RTVSPropertyOp20
 70
     0
102
RTVSPropertyOp21
 70
     0
102
RTVSPropertyOp22
 70
     0
102
RTVSPropertyOp23
 70
     0
102
RTVSPropertyOp24
 70
     0
102
RTVSPropertyOp25
 70
     0
102
RTVSPropertyOp26
 70
     0
102
RTVSPropertyOp27
 70
     0
102
RTVSPropertyOp28
 70
     1
102
RTVSPropertyOp29
 70
     1
102
RTVSPropertyOp30
 70
     1
102
RTVSPropertyOp31
 70
     1
102
RTVSPropertyOp32
 70
     1
102
RTVSPropertyOp33
 70
     1
102
RTVSPropertyOp34
 70
     1
102
RTVSPropertyOp35
 70
     1
102
RTVSPropertyOp36
 70
     1
102
RTVSPropertyOp37
 70
     0
102
RTVSPropertyOp38
 70
     0
102
RTVSPropertyOp39
 70
     0
102
RTVSPropertyOp40
 70
     0
102
RTVSPropertyOp41
 70
     0
102
RTVSPropertyOp42
 70
     0
102
RTVSPropertyOp43
 70
     0
102
RTVSPropertyOp44
 70
     0
102
RTVSPropertyOp45
 70
     1
102
RTVSPropertyOp46
 70
     0
102
RTVSPropertyOp47
 70
     0
102
RTVSPropertyOp48
 70
     0
102
RTVSPropertyOp49
 70
     1
102
RTVSPropertyOp50
 70
     0
102
RTVSPropertyOp51
 70
     0
102
RTVSPropertyOp52
 70
     0
102
RTVSPropertyOp53
 70
     0
102
RTVSPropertyOp54
 70
     0
102
RTVSPropertyOp55
 70
     1
102
RTVSPropertyOp56
 70
     0
102
RTVSPropertyOp57
 70
     0
102
RTVSPropertyOp58
 70
     0
102
RTVSPropertyOp59
 70
     0
102
RTVSPropertyOp60
 70
     0
102
RTVSPropertyOp61
 70
     0
102
RTVSPropertyOp62
 70
     0
  0
XRECORD
  5
37A1
102
{ACAD_REACTORS
330
37A0
102
}
330
37A0
100
AcDbXrecord
280
     1
102
RTVSPost2010Prop28
280
     0
102
RTVSPost2010PropOp28
 70
     1
102
RTVSPost2010Prop29
280
     1
102
RTVSPost2010PropOp29
 70
     1
102
RTVSPost2010Prop30
280
     1
102
RTVSPost2010PropOp30
 70
     1
102
RTVSPost2010Prop31
280
     0
102
RTVSPost2010PropOp31
 70
     1
102
RTVSPost2010Prop32
280
     0
102
RTVSPost2010PropOp32
 70
     1
102
RTVSPost2010Prop33
280
     0
102
RTVSPost2010PropOp33
 70
     1
102
RTVSPost2010Prop34
280
     0
102
RTVSPost2010PropOp34
 70
     1
102
RTVSPost2010Prop35
280
     0
102
RTVSPost2010PropOp35
 70
     1
102
RTVSPost2010Prop36
280
     0
102
RTVSPost2010PropOp36
 70
     1
102
RTVSPost2010Prop37
 90
       50
102
RTVSPost2010PropOp37
 70
     1
102
RTVSPost2010Prop38
140
0.0
102
RTVSPost2010PropOp38
 70
     1
102
RTVSPost2010Prop39
140
1.0
102
RTVSPost2010PropOp39
 70
     1
102
RTVSPost2010Prop40
 90
        0
102
RTVSPost2010PropOp40
 70
     1
102
RTVSPost2010Prop41ColorIndex
 90
       18
102
RTVSPost2010Prop41ColorRGB
 90
        0
102
RTVSPost2010PropOp41
 70
     1
102
RTVSPost2010Prop42
 90
       50
102
RTVSPost2010PropOp42
 70
     1
102
RTVSPost2010Prop43
 90
        3
102
RTVSPost2010PropOp43
 70
     1
102
RTVSPost2010Prop44ColorIndex
 90
        5
102
RTVSPost2010Prop44ColorRGB
 90
      255
102
RTVSPost2010PropOp44
 70
     1
102
RTVSPost2010Prop45
280
     0
102
RTVSPost2010PropOp45
 70
     1
102
RTVSPost2010Prop46
 90
       50
102
RTVSPost2010PropOp46
 70
     1
102
RTVSPost2010Prop47
 90
       50
102
RTVSPost2010PropOp47
 70
     1
102
RTVSPost2010Prop48
 90
       50
102
RTVSPost2010PropOp48
 70
     1
102
RTVSPost2010Prop49
280
     0
102
RTVSPost2010PropOp49
 70
     1
102
RTVSPost2010Prop50
 90
       50
102
RTVSPost2010PropOp50
 70
     1
102
RTVSPost2010Prop51ColorIndex
 90
      256
102
RTVSPost2010Prop51ColorRGB
 90
-16777216
102
RTVSPost2010PropOp51
 70
     0
102
RTVSPost2010Prop52
140
1.0
102
RTVSPost2010PropOp52
 70
     0
102
RTVSPost2010Prop53
 90
        2
102
RTVSPost2010PropOp53
 70
     1
102
RTVSPost2010Prop54
  1
strokes_ogs.tif
102
RTVSPost2010PropOp54
 70
     1
102
RTVSPost2010Prop55
280
     0
102
RTVSPost2010PropOp55
 70
     1
102
RTVSPost2010Prop56
140
1.0
102
RTVSPost2010PropOp56
 70
     1
102
RTVSPost2010Prop57
140
1.0
102
RTVSPost2010PropOp57
 70
     1
102
RTVSPropertyOp0
 70
     1
102
RTVSPropertyOp1
 70
     1
102
RTVSPropertyOp2
 70
     1
102
RTVSPropertyOp3
 70
     1
102
RTVSPropertyOp4
 70
     1
102
RTVSPropertyOp5
 70
     1
102
RTVSPropertyOp6
 70
     1
102
RTVSPropertyOp7
 70
     1
102
RTVSPropertyOp8
 70
     1
102
RTVSPropertyOp9
 70
     1
102
RTVSPropertyOp10
 70
     1
102
RTVSPropertyOp11
 70
     1
102
RTVSPropertyOp12
 70
     1
102
RTVSPropertyOp13
 70
     1
102
RTVSPropertyOp14
 70
     1
102
RTVSPropertyOp15
 70
     1
102
RTVSPropertyOp16
 70
     1
102
RTVSPropertyOp17
 70
     1
102
RTVSPropertyOp18
 70
     1
102
RTVSPropertyOp19
 70
     1
102
RTVSPropertyOp20
 70
     1
102
RTVSPropertyOp21
 70
     1
102
RTVSPropertyOp22
 70
     1
102
RTVSPropertyOp23
 70
     1
102
RTVSPropertyOp24
 70
     1
102
RTVSPropertyOp25
 70
     1
102
RTVSPropertyOp26
 70
     1
102
RTVSPropertyOp27
 70
     1
102
RTVSPropertyOp28
 70
     1
102
RTVSPropertyOp29
 70
     1
102
RTVSPropertyOp30
 70
     1
102
RTVSPropertyOp31
 70
     1
102
RTVSPropertyOp32
 70
     1
102
RTVSPropertyOp33
 70
     1
102
RTVSPropertyOp34
 70
     1
102
RTVSPropertyOp35
 70
     1
102
RTVSPropertyOp36
 70
     1
102
RTVSPropertyOp37
 70
     1
102
RTVSPropertyOp38
 70
     1
102
RTVSPropertyOp39
 70
     1
102
RTVSPropertyOp40
 70
     1
102
RTVSPropertyOp41
 70
     1
102
RTVSPropertyOp42
 70
     1
102
RTVSPropertyOp43
 70
     1
102
RTVSPropertyOp44
 70
     1
102
RTVSPropertyOp45
 70
     1
102
RTVSPropertyOp46
 70
     1
102
RTVSPropertyOp47
 70
     1
102
RTVSPropertyOp48
 70
     1
102
RTVSPropertyOp49
 70
     1
102
RTVSPropertyOp50
 70
     1
102
RTVSPropertyOp51
 70
     0
102
RTVSPropertyOp52
 70
     0
102
RTVSPropertyOp53
 70
     1
102
RTVSPropertyOp54
 70
     1
102
RTVSPropertyOp55
 70
     1
102
RTVSPropertyOp56
 70
     1
102
RTVSPropertyOp57
 70
     1
102
RTVSPropertyOp58
 70
     1
102
RTVSPropertyOp59
 70
     1
102
RTVSPropertyOp60
 70
     1
102
RTVSPropertyOp61
 70
     1
102
RTVSPropertyOp62
 70
     1
  0
XRECORD
  5
37B3
102
{ACAD_REACTORS
330
37B2
102
}
330
37B2
100
AcDbXrecord
280
     1
102
RTVSPost2010Prop28
280
     0
102
RTVSPost2010PropOp28
 70
     1
102
RTVSPost2010Prop29
280
     1
102
RTVSPost2010PropOp29
 70
     1
102
RTVSPost2010Prop30
280
     1
102
RTVSPost2010PropOp30
 70
     1
102
RTVSPost2010Prop31
280
     0
102
RTVSPost2010PropOp31
 70
     1
102
RTVSPost2010Prop32
280
     0
102
RTVSPost2010PropOp32
 70
     1
102
RTVSPost2010Prop33
280
     0
102
RTVSPost2010PropOp33
 70
     1
102
RTVSPost2010Prop34
280
     0
102
RTVSPost2010PropOp34
 70
     1
102
RTVSPost2010Prop35
280
     0
102
RTVSPost2010PropOp35
 70
     1
102
RTVSPost2010Prop36
280
     0
102
RTVSPost2010PropOp36
 70
     1
102
RTVSPost2010Prop37
 90
       50
102
RTVSPost2010PropOp37
 70
     0
102
RTVSPost2010Prop38
140
0.0
102
RTVSPost2010PropOp38
 70
     0
102
RTVSPost2010Prop39
140
1.0
102
RTVSPost2010PropOp39
 70
     0
102
RTVSPost2010Prop40
 90
        0
102
RTVSPost2010PropOp40
 70
     0
102
RTVSPost2010Prop41ColorIndex
 90
       18
102
RTVSPost2010Prop41ColorRGB
 90
        0
102
RTVSPost2010PropOp41
 70
     0
102
RTVSPost2010Prop42
 90
       50
102
RTVSPost2010PropOp42
 70
     0
102
RTVSPost2010Prop43
 90
        3
102
RTVSPost2010PropOp43
 70
     0
102
RTVSPost2010Prop44ColorIndex
 90
        5
102
RTVSPost2010Prop44ColorRGB
 90
      255
102
RTVSPost2010PropOp44
 70
     0
102
RTVSPost2010Prop45
280
     0
102
RTVSPost2010PropOp45
 70
     1
102
RTVSPost2010Prop46
 90
       50
102
RTVSPost2010PropOp46
 70
     0
102
RTVSPost2010Prop47
 90
       50
102
RTVSPost2010PropOp47
 70
     0
102
RTVSPost2010Prop48
 90
       50
102
RTVSPost2010PropOp48
 70
     0
102
RTVSPost2010Prop49
280
     0
102
RTVSPost2010PropOp49
 70
     1
102
RTVSPost2010Prop50
 90
       50
102
RTVSPost2010PropOp50
 70
     0
102
RTVSPost2010Prop51ColorIndex
 90
      256
102
RTVSPost2010Prop51ColorRGB
 90
-16777216
102
RTVSPost2010PropOp51
 70
     0
102
RTVSPost2010Prop52
140
1.0
102
RTVSPost2010PropOp52
 70
     0
102
RTVSPost2010Prop53
 90
        2
102
RTVSPost2010PropOp53
 70
     0
102
RTVSPost2010Prop54
  1
strokes_ogs.tif
102
RTVSPost2010PropOp54
 70
     0
102
RTVSPost2010Prop55
280
     0
102
RTVSPost2010PropOp55
 70
     1
102
RTVSPost2010Prop56
140
1.0
102
RTVSPost2010PropOp56
 70
     0
102
RTVSPost2010Prop57
140
1.0
102
RTVSPost2010PropOp57
 70
     0
102
RTVSPropertyOp0
 70
     0
102
RTVSPropertyOp1
 70
     0
102
RTVSPropertyOp2
 70
     0
102
RTVSPropertyOp3
 70
     0
102
RTVSPropertyOp4
 70
     0
102
RTVSPropertyOp5
 70
     0
102
RTVSPropertyOp6
 70
     0
102
RTVSPropertyOp7
 70
     0
102
RTVSPropertyOp8
 70
     0
102
RTVSPropertyOp9
 70
     0
102
RTVSPropertyOp10
 70
     0
102
RTVSPropertyOp11
 70
     0
102
RTVSPropertyOp12
 70
     0
102
RTVSPropertyOp13
 70
     0
102
RTVSPropertyOp14
 70
     2
102
RTVSPropertyOp15
 70
     0
102
RTVSPropertyOp16
 70
     0
102
RTVSPropertyOp17
 70
     0
102
RTVSPropertyOp18
 70
     0
102
RTVSPropertyOp19
 70
     0
102
RTVSPropertyOp20
 70
     0
102
RTVSPropertyOp21
 70
     0
102
RTVSPropertyOp22
 70
     0
102
RTVSPropertyOp23
 70
     0
102
RTVSPropertyOp24
 70
     0
102
RTVSPropertyOp25
 70
     0
102
RTVSPropertyOp26
 70
     0
102
RTVSPropertyOp27
 70
     0
102
RTVSPropertyOp28
 70
     1
102
RTVSPropertyOp29
 70
     1
102
RTVSPropertyOp30
 70
     1
102
RTVSPropertyOp31
 70
     1
102
RTVSPropertyOp32
 70
     1
102
RTVSPropertyOp33
 70
     1
102
RTVSPropertyOp34
 70
     1
102
RTVSPropertyOp35
 70
     1
102
RTVSPropertyOp36
 70
     1
102
RTVSPropertyOp37
 70
     0
102
RTVSPropertyOp38
 70
     0
102
RTVSPropertyOp39
 70
     0
102
RTVSPropertyOp40
 70
     0
102
RTVSPropertyOp41
 70
     0
102
RTVSPropertyOp42
 70
     0
102
RTVSPropertyOp43
 70
     0
102
RTVSPropertyOp44
 70
     0
102
RTVSPropertyOp45
 70
     1
102
RTVSPropertyOp46
 70
     0
102
RTVSPropertyOp47
 70
     0
102
RTVSPropertyOp48
 70
     0
102
RTVSPropertyOp49
 70
     1
102
RTVSPropertyOp50
 70
     0
102
RTVSPropertyOp51
 70
     0
102
RTVSPropertyOp52
 70
     0
102
RTVSPropertyOp53
 70
     0
102
RTVSPropertyOp54
 70
     0
102
RTVSPropertyOp55
 70
     1
102
RTVSPropertyOp56
 70
     0
102
RTVSPropertyOp57
 70
     0
102
RTVSPropertyOp58
 70
     0
102
RTVSPropertyOp59
 70
     0
102
RTVSPropertyOp60
 70
     0
102
RTVSPropertyOp61
 70
     0
102
RTVSPropertyOp62
 70
     0
  0
XRECORD
  5
3799
102
{ACAD_REACTORS
330
3798
102
}
330
3798
100
AcDbXrecord
280
     1
102
RTVSPost2010Prop28
280
     0
102
RTVSPost2010PropOp28
 70
     1
102
RTVSPost2010Prop29
280
     1
102
RTVSPost2010PropOp29
 70
     1
102
RTVSPost2010Prop30
280
     1
102
RTVSPost2010PropOp30
 70
     1
102
RTVSPost2010Prop31
280
     0
102
RTVSPost2010PropOp31
 70
     1
102
RTVSPost2010Prop32
280
     0
102
RTVSPost2010PropOp32
 70
     1
102
RTVSPost2010Prop33
280
     0
102
RTVSPost2010PropOp33
 70
     1
102
RTVSPost2010Prop34
280
     0
102
RTVSPost2010PropOp34
 70
     1
102
RTVSPost2010Prop35
280
     0
102
RTVSPost2010PropOp35
 70
     1
102
RTVSPost2010Prop36
280
     0
102
RTVSPost2010PropOp36
 70
     1
102
RTVSPost2010Prop37
 90
       50
102
RTVSPost2010PropOp37
 70
     1
102
RTVSPost2010Prop38
140
0.0
102
RTVSPost2010PropOp38
 70
     1
102
RTVSPost2010Prop39
140
1.0
102
RTVSPost2010PropOp39
 70
     1
102
RTVSPost2010Prop40
 90
        0
102
RTVSPost2010PropOp40
 70
     1
102
RTVSPost2010Prop41ColorIndex
 90
       18
102
RTVSPost2010Prop41ColorRGB
 90
        0
102
RTVSPost2010PropOp41
 70
     1
102
RTVSPost2010Prop42
 90
       50
102
RTVSPost2010PropOp42
 70
     1
102
RTVSPost2010Prop43
 90
        3
102
RTVSPost2010PropOp43
 70
     1
102
RTVSPost2010Prop44ColorIndex
 90
        5
102
RTVSPost2010Prop44ColorRGB
 90
      255
102
RTVSPost2010PropOp44
 70
     1
102
RTVSPost2010Prop45
280
     0
102
RTVSPost2010PropOp45
 70
     1
102
RTVSPost2010Prop46
 90
       50
102
RTVSPost2010PropOp46
 70
     1
102
RTVSPost2010Prop47
 90
       50
102
RTVSPost2010PropOp47
 70
     1
102
RTVSPost2010Prop48
 90
       50
102
RTVSPost2010PropOp48
 70
     1
102
RTVSPost2010Prop49
280
     0
102
RTVSPost2010PropOp49
 70
     1
102
RTVSPost2010Prop50
 90
       50
102
RTVSPost2010PropOp50
 70
     1
102
RTVSPost2010Prop51ColorIndex
 90
      256
102
RTVSPost2010Prop51ColorRGB
 90
-16777216
102
RTVSPost2010PropOp51
 70
     0
102
RTVSPost2010Prop52
140
1.0
102
RTVSPost2010PropOp52
 70
     0
102
RTVSPost2010Prop53
 90
        2
102
RTVSPost2010PropOp53
 70
     1
102
RTVSPost2010Prop54
  1
strokes_ogs.tif
102
RTVSPost2010PropOp54
 70
     1
102
RTVSPost2010Prop55
280
     0
102
RTVSPost2010PropOp55
 70
     1
102
RTVSPost2010Prop56
140
1.0
102
RTVSPost2010PropOp56
 70
     1
102
RTVSPost2010Prop57
140
1.0
102
RTVSPost2010PropOp57
 70
     1
102
RTVSPropertyOp0
 70
     1
102
RTVSPropertyOp1
 70
     1
102
RTVSPropertyOp2
 70
     1
102
RTVSPropertyOp3
 70
     1
102
RTVSPropertyOp4
 70
     1
102
RTVSPropertyOp5
 70
     1
102
RTVSPropertyOp6
 70
     1
102
RTVSPropertyOp7
 70
     1
102
RTVSPropertyOp8
 70
     1
102
RTVSPropertyOp9
 70
     1
102
RTVSPropertyOp10
 70
     1
102
RTVSPropertyOp11
 70
     1
102
RTVSPropertyOp12
 70
     1
102
RTVSPropertyOp13
 70
     1
102
RTVSPropertyOp14
 70
     1
102
RTVSPropertyOp15
 70
     1
102
RTVSPropertyOp16
 70
     1
102
RTVSPropertyOp17
 70
     1
102
RTVSPropertyOp18
 70
     1
102
RTVSPropertyOp19
 70
     1
102
RTVSPropertyOp20
 70
     1
102
RTVSPropertyOp21
 70
     1
102
RTVSPropertyOp22
 70
     1
102
RTVSPropertyOp23
 70
     1
102
RTVSPropertyOp24
 70
     1
102
RTVSPropertyOp25
 70
     1
102
RTVSPropertyOp26
 70
     1
102
RTVSPropertyOp27
 70
     1
102
RTVSPropertyOp28
 70
     1
102
RTVSPropertyOp29
 70
     1
102
RTVSPropertyOp30
 70
     1
102
RTVSPropertyOp31
 70
     1
102
RTVSPropertyOp32
 70
     1
102
RTVSPropertyOp33
 70
     1
102
RTVSPropertyOp34
 70
     1
102
RTVSPropertyOp35
 70
     1
102
RTVSPropertyOp36
 70
     1
102
RTVSPropertyOp37
 70
     1
102
RTVSPropertyOp38
 70
     1
102
RTVSPropertyOp39
 70
     1
102
RTVSPropertyOp40
 70
     1
102
RTVSPropertyOp41
 70
     1
102
RTVSPropertyOp42
 70
     1
102
RTVSPropertyOp43
 70
     1
102
RTVSPropertyOp44
 70
     1
102
RTVSPropertyOp45
 70
     1
102
RTVSPropertyOp46
 70
     1
102
RTVSPropertyOp47
 70
     1
102
RTVSPropertyOp48
 70
     1
102
RTVSPropertyOp49
 70
     1
102
RTVSPropertyOp50
 70
     1
102
RTVSPropertyOp51
 70
     0
102
RTVSPropertyOp52
 70
     0
102
RTVSPropertyOp53
 70
     1
102
RTVSPropertyOp54
 70
     1
102
RTVSPropertyOp55
 70
     1
102
RTVSPropertyOp56
 70
     1
102
RTVSPropertyOp57
 70
     1
102
RTVSPropertyOp58
 70
     1
102
RTVSPropertyOp59
 70
     1
102
RTVSPropertyOp60
 70
     1
102
RTVSPropertyOp61
 70
     1
102
RTVSPropertyOp62
 70
     1
  0
XRECORD
  5
37AF
102
{ACAD_REACTORS
330
37AE
102
}
330
37AE
100
AcDbXrecord
280
     1
102
RTVSPost2010Prop28
280
     0
102
RTVSPost2010PropOp28
 70
     1
102
RTVSPost2010Prop29
280
     1
102
RTVSPost2010PropOp29
 70
     1
102
RTVSPost2010Prop30
280
     1
102
RTVSPost2010PropOp30
 70
     1
102
RTVSPost2010Prop31
280
     0
102
RTVSPost2010PropOp31
 70
     1
102
RTVSPost2010Prop32
280
     0
102
RTVSPost2010PropOp32
 70
     1
102
RTVSPost2010Prop33
280
     0
102
RTVSPost2010PropOp33
 70
     1
102
RTVSPost2010Prop34
280
     0
102
RTVSPost2010PropOp34
 70
     1
102
RTVSPost2010Prop35
280
     0
102
RTVSPost2010PropOp35
 70
     1
102
RTVSPost2010Prop36
280
     0
102
RTVSPost2010PropOp36
 70
     1
102
RTVSPost2010Prop37
 90
       50
102
RTVSPost2010PropOp37
 70
     1
102
RTVSPost2010Prop38
140
0.0
102
RTVSPost2010PropOp38
 70
     1
102
RTVSPost2010Prop39
140
1.0
102
RTVSPost2010PropOp39
 70
     1
102
RTVSPost2010Prop40
 90
        0
102
RTVSPost2010PropOp40
 70
     1
102
RTVSPost2010Prop41ColorIndex
 90
       18
102
RTVSPost2010Prop41ColorRGB
 90
        0
102
RTVSPost2010PropOp41
 70
     1
102
RTVSPost2010Prop42
 90
       50
102
RTVSPost2010PropOp42
 70
     1
102
RTVSPost2010Prop43
 90
        3
102
RTVSPost2010PropOp43
 70
     1
102
RTVSPost2010Prop44ColorIndex
 90
        5
102
RTVSPost2010Prop44ColorRGB
 90
      255
102
RTVSPost2010PropOp44
 70
     1
102
RTVSPost2010Prop45
280
     0
102
RTVSPost2010PropOp45
 70
     1
102
RTVSPost2010Prop46
 90
       50
102
RTVSPost2010PropOp46
 70
     1
102
RTVSPost2010Prop47
 90
       50
102
RTVSPost2010PropOp47
 70
     1
102
RTVSPost2010Prop48
 90
       50
102
RTVSPost2010PropOp48
 70
     1
102
RTVSPost2010Prop49
280
     0
102
RTVSPost2010PropOp49
 70
     1
102
RTVSPost2010Prop50
 90
       50
102
RTVSPost2010PropOp50
 70
     1
102
RTVSPost2010Prop51ColorIndex
 90
      256
102
RTVSPost2010Prop51ColorRGB
 90
-16777216
102
RTVSPost2010PropOp51
 70
     0
102
RTVSPost2010Prop52
140
1.0
102
RTVSPost2010PropOp52
 70
     0
102
RTVSPost2010Prop53
 90
        2
102
RTVSPost2010PropOp53
 70
     1
102
RTVSPost2010Prop54
  1
strokes_ogs.tif
102
RTVSPost2010PropOp54
 70
     1
102
RTVSPost2010Prop55
280
     0
102
RTVSPost2010PropOp55
 70
     1
102
RTVSPost2010Prop56
140
1.0
102
RTVSPost2010PropOp56
 70
     1
102
RTVSPost2010Prop57
140
1.0
102
RTVSPost2010PropOp57
 70
     1
102
RTVSPropertyOp0
 70
     1
102
RTVSPropertyOp1
 70
     1
102
RTVSPropertyOp2
 70
     1
102
RTVSPropertyOp3
 70
     1
102
RTVSPropertyOp4
 70
     1
102
RTVSPropertyOp5
 70
     1
102
RTVSPropertyOp6
 70
     1
102
RTVSPropertyOp7
 70
     1
102
RTVSPropertyOp8
 70
     1
102
RTVSPropertyOp9
 70
     1
102
RTVSPropertyOp10
 70
     1
102
RTVSPropertyOp11
 70
     1
102
RTVSPropertyOp12
 70
     1
102
RTVSPropertyOp13
 70
     1
102
RTVSPropertyOp14
 70
     1
102
RTVSPropertyOp15
 70
     1
102
RTVSPropertyOp16
 70
     1
102
RTVSPropertyOp17
 70
     1
102
RTVSPropertyOp18
 70
     1
102
RTVSPropertyOp19
 70
     1
102
RTVSPropertyOp20
 70
     1
102
RTVSPropertyOp21
 70
     1
102
RTVSPropertyOp22
 70
     1
102
RTVSPropertyOp23
 70
     1
102
RTVSPropertyOp24
 70
     1
102
RTVSPropertyOp25
 70
     1
102
RTVSPropertyOp26
 70
     1
102
RTVSPropertyOp27
 70
     1
102
RTVSPropertyOp28
 70
     1
102
RTVSPropertyOp29
 70
     1
102
RTVSPropertyOp30
 70
     1
102
RTVSPropertyOp31
 70
     1
102
RTVSPropertyOp32
 70
     1
102
RTVSPropertyOp33
 70
     1
102
RTVSPropertyOp34
 70
     1
102
RTVSPropertyOp35
 70
     1
102
RTVSPropertyOp36
 70
     1
102
RTVSPropertyOp37
 70
     1
102
RTVSPropertyOp38
 70
     1
102
RTVSPropertyOp39
 70
     1
102
RTVSPropertyOp40
 70
     1
102
RTVSPropertyOp41
 70
     1
102
RTVSPropertyOp42
 70
     1
102
RTVSPropertyOp43
 70
     1
102
RTVSPropertyOp44
 70
     1
102
RTVSPropertyOp45
 70
     1
102
RTVSPropertyOp46
 70
     1
102
RTVSPropertyOp47
 70
     1
102
RTVSPropertyOp48
 70
     1
102
RTVSPropertyOp49
 70
     1
102
RTVSPropertyOp50
 70
     1
102
RTVSPropertyOp51
 70
     0
102
RTVSPropertyOp52
 70
     0
102
RTVSPropertyOp53
 70
     1
102
RTVSPropertyOp54
 70
     1
102
RTVSPropertyOp55
 70
     1
102
RTVSPropertyOp56
 70
     1
102
RTVSPropertyOp57
 70
     1
102
RTVSPropertyOp58
 70
     1
102
RTVSPropertyOp59
 70
     1
102
RTVSPropertyOp60
 70
     1
102
RTVSPropertyOp61
 70
     1
102
RTVSPropertyOp62
 70
     1
  0
XRECORD
  5
37AD
102
{ACAD_REACTORS
330
37AC
102
}
330
37AC
100
AcDbXrecord
280
     1
102
RTVSPost2010Prop28
280
     0
102
RTVSPost2010PropOp28
 70
     1
102
RTVSPost2010Prop29
280
     1
102
RTVSPost2010PropOp29
 70
     1
102
RTVSPost2010Prop30
280
     1
102
RTVSPost2010PropOp30
 70
     1
102
RTVSPost2010Prop31
280
     0
102
RTVSPost2010PropOp31
 70
     1
102
RTVSPost2010Prop32
280
     0
102
RTVSPost2010PropOp32
 70
     1
102
RTVSPost2010Prop33
280
     0
102
RTVSPost2010PropOp33
 70
     1
102
RTVSPost2010Prop34
280
     0
102
RTVSPost2010PropOp34
 70
     1
102
RTVSPost2010Prop35
280
     0
102
RTVSPost2010PropOp35
 70
     1
102
RTVSPost2010Prop36
280
     0
102
RTVSPost2010PropOp36
 70
     1
102
RTVSPost2010Prop37
 90
       50
102
RTVSPost2010PropOp37
 70
     1
102
RTVSPost2010Prop38
140
0.0
102
RTVSPost2010PropOp38
 70
     1
102
RTVSPost2010Prop39
140
1.0
102
RTVSPost2010PropOp39
 70
     1
102
RTVSPost2010Prop40
 90
        0
102
RTVSPost2010PropOp40
 70
     1
102
RTVSPost2010Prop41ColorIndex
 90
       18
102
RTVSPost2010Prop41ColorRGB
 90
        0
102
RTVSPost2010PropOp41
 70
     1
102
RTVSPost2010Prop42
 90
       50
102
RTVSPost2010PropOp42
 70
     1
102
RTVSPost2010Prop43
 90
        3
102
RTVSPost2010PropOp43
 70
     1
102
RTVSPost2010Prop44ColorIndex
 90
        5
102
RTVSPost2010Prop44ColorRGB
 90
      255
102
RTVSPost2010PropOp44
 70
     1
102
RTVSPost2010Prop45
280
     0
102
RTVSPost2010PropOp45
 70
     1
102
RTVSPost2010Prop46
 90
       50
102
RTVSPost2010PropOp46
 70
     1
102
RTVSPost2010Prop47
 90
       50
102
RTVSPost2010PropOp47
 70
     1
102
RTVSPost2010Prop48
 90
       50
102
RTVSPost2010PropOp48
 70
     1
102
RTVSPost2010Prop49
280
     0
102
RTVSPost2010PropOp49
 70
     1
102
RTVSPost2010Prop50
 90
       50
102
RTVSPost2010PropOp50
 70
     1
102
RTVSPost2010Prop51ColorIndex
 90
      256
102
RTVSPost2010Prop51ColorRGB
 90
-16777216
102
RTVSPost2010PropOp51
 70
     0
102
RTVSPost2010Prop52
140
1.0
102
RTVSPost2010PropOp52
 70
     0
102
RTVSPost2010Prop53
 90
        2
102
RTVSPost2010PropOp53
 70
     1
102
RTVSPost2010Prop54
  1
strokes_ogs.tif
102
RTVSPost2010PropOp54
 70
     1
102
RTVSPost2010Prop55
280
     0
102
RTVSPost2010PropOp55
 70
     1
102
RTVSPost2010Prop56
140
1.0
102
RTVSPost2010PropOp56
 70
     1
102
RTVSPost2010Prop57
140
1.0
102
RTVSPost2010PropOp57
 70
     1
102
RTVSPropertyOp0
 70
     1
102
RTVSPropertyOp1
 70
     1
102
RTVSPropertyOp2
 70
     1
102
RTVSPropertyOp3
 70
     1
102
RTVSPropertyOp4
 70
     1
102
RTVSPropertyOp5
 70
     1
102
RTVSPropertyOp6
 70
     1
102
RTVSPropertyOp7
 70
     1
102
RTVSPropertyOp8
 70
     1
102
RTVSPropertyOp9
 70
     1
102
RTVSPropertyOp10
 70
     1
102
RTVSPropertyOp11
 70
     1
102
RTVSPropertyOp12
 70
     1
102
RTVSPropertyOp13
 70
     1
102
RTVSPropertyOp14
 70
     1
102
RTVSPropertyOp15
 70
     1
102
RTVSPropertyOp16
 70
     1
102
RTVSPropertyOp17
 70
     1
102
RTVSPropertyOp18
 70
     1
102
RTVSPropertyOp19
 70
     1
102
RTVSPropertyOp20
 70
     1
102
RTVSPropertyOp21
 70
     1
102
RTVSPropertyOp22
 70
     1
102
RTVSPropertyOp23
 70
     1
102
RTVSPropertyOp24
 70
     1
102
RTVSPropertyOp25
 70
     1
102
RTVSPropertyOp26
 70
     1
102
RTVSPropertyOp27
 70
     1
102
RTVSPropertyOp28
 70
     1
102
RTVSPropertyOp29
 70
     1
102
RTVSPropertyOp30
 70
     1
102
RTVSPropertyOp31
 70
     1
102
RTVSPropertyOp32
 70
     1
102
RTVSPropertyOp33
 70
     1
102
RTVSPropertyOp34
 70
     1
102
RTVSPropertyOp35
 70
     1
102
RTVSPropertyOp36
 70
     1
102
RTVSPropertyOp37
 70
     1
102
RTVSPropertyOp38
 70
     1
102
RTVSPropertyOp39
 70
     1
102
RTVSPropertyOp40
 70
     1
102
RTVSPropertyOp41
 70
     1
102
RTVSPropertyOp42
 70
     1
102
RTVSPropertyOp43
 70
     1
102
RTVSPropertyOp44
 70
     1
102
RTVSPropertyOp45
 70
     1
102
RTVSPropertyOp46
 70
     1
102
RTVSPropertyOp47
 70
     1
102
RTVSPropertyOp48
 70
     1
102
RTVSPropertyOp49
 70
     1
102
RTVSPropertyOp50
 70
     1
102
RTVSPropertyOp51
 70
     0
102
RTVSPropertyOp52
 70
     0
102
RTVSPropertyOp53
 70
     1
102
RTVSPropertyOp54
 70
     1
102
RTVSPropertyOp55
 70
     1
102
RTVSPropertyOp56
 70
     1
102
RTVSPropertyOp57
 70
     1
102
RTVSPropertyOp58
 70
     1
102
RTVSPropertyOp59
 70
     1
102
RTVSPropertyOp60
 70
     1
102
RTVSPropertyOp61
 70
     1
102
RTVSPropertyOp62
 70
     1
  0
XRECORD
  5
37A7
102
{ACAD_REACTORS
330
37A6
102
}
330
37A6
100
AcDbXrecord
280
     1
102
RTVSPost2010Prop28
280
     0
102
RTVSPost2010PropOp28
 70
     1
102
RTVSPost2010Prop29
280
     1
102
RTVSPost2010PropOp29
 70
     1
102
RTVSPost2010Prop30
280
     1
102
RTVSPost2010PropOp30
 70
     1
102
RTVSPost2010Prop31
280
     0
102
RTVSPost2010PropOp31
 70
     1
102
RTVSPost2010Prop32
280
     0
102
RTVSPost2010PropOp32
 70
     1
102
RTVSPost2010Prop33
280
     0
102
RTVSPost2010PropOp33
 70
     1
102
RTVSPost2010Prop34
280
     0
102
RTVSPost2010PropOp34
 70
     1
102
RTVSPost2010Prop35
280
     0
102
RTVSPost2010PropOp35
 70
     1
102
RTVSPost2010Prop36
280
     0
102
RTVSPost2010PropOp36
 70
     1
102
RTVSPost2010Prop37
 90
       50
102
RTVSPost2010PropOp37
 70
     1
102
RTVSPost2010Prop38
140
0.0
102
RTVSPost2010PropOp38
 70
     1
102
RTVSPost2010Prop39
140
1.0
102
RTVSPost2010PropOp39
 70
     1
102
RTVSPost2010Prop40
 90
        0
102
RTVSPost2010PropOp40
 70
     1
102
RTVSPost2010Prop41ColorIndex
 90
       18
102
RTVSPost2010Prop41ColorRGB
 90
        0
102
RTVSPost2010PropOp41
 70
     1
102
RTVSPost2010Prop42
 90
       50
102
RTVSPost2010PropOp42
 70
     1
102
RTVSPost2010Prop43
 90
        3
102
RTVSPost2010PropOp43
 70
     1
102
RTVSPost2010Prop44ColorIndex
 90
        5
102
RTVSPost2010Prop44ColorRGB
 90
      255
102
RTVSPost2010PropOp44
 70
     1
102
RTVSPost2010Prop45
280
     0
102
RTVSPost2010PropOp45
 70
     1
102
RTVSPost2010Prop46
 90
       50
102
RTVSPost2010PropOp46
 70
     1
102
RTVSPost2010Prop47
 90
       50
102
RTVSPost2010PropOp47
 70
     1
102
RTVSPost2010Prop48
 90
       50
102
RTVSPost2010PropOp48
 70
     1
102
RTVSPost2010Prop49
280
     0
102
RTVSPost2010PropOp49
 70
     1
102
RTVSPost2010Prop50
 90
       50
102
RTVSPost2010PropOp50
 70
     1
102
RTVSPost2010Prop51ColorIndex
 90
      256
102
RTVSPost2010Prop51ColorRGB
 90
-16777216
102
RTVSPost2010PropOp51
 70
     0
102
RTVSPost2010Prop52
140
1.0
102
RTVSPost2010PropOp52
 70
     0
102
RTVSPost2010Prop53
 90
        2
102
RTVSPost2010PropOp53
 70
     1
102
RTVSPost2010Prop54
  1
strokes_ogs.tif
102
RTVSPost2010PropOp54
 70
     1
102
RTVSPost2010Prop55
280
     0
102
RTVSPost2010PropOp55
 70
     1
102
RTVSPost2010Prop56
140
1.0
102
RTVSPost2010PropOp56
 70
     1
102
RTVSPost2010Prop57
140
1.0
102
RTVSPost2010PropOp57
 70
     1
102
RTVSPropertyOp0
 70
     1
102
RTVSPropertyOp1
 70
     1
102
RTVSPropertyOp2
 70
     1
102
RTVSPropertyOp3
 70
     1
102
RTVSPropertyOp4
 70
     1
102
RTVSPropertyOp5
 70
     1
102
RTVSPropertyOp6
 70
     1
102
RTVSPropertyOp7
 70
     1
102
RTVSPropertyOp8
 70
     1
102
RTVSPropertyOp9
 70
     1
102
RTVSPropertyOp10
 70
     1
102
RTVSPropertyOp11
 70
     1
102
RTVSPropertyOp12
 70
     1
102
RTVSPropertyOp13
 70
     1
102
RTVSPropertyOp14
 70
     1
102
RTVSPropertyOp15
 70
     1
102
RTVSPropertyOp16
 70
     1
102
RTVSPropertyOp17
 70
     1
102
RTVSPropertyOp18
 70
     1
102
RTVSPropertyOp19
 70
     1
102
RTVSPropertyOp20
 70
     1
102
RTVSPropertyOp21
 70
     1
102
RTVSPropertyOp22
 70
     1
102
RTVSPropertyOp23
 70
     1
102
RTVSPropertyOp24
 70
     1
102
RTVSPropertyOp25
 70
     1
102
RTVSPropertyOp26
 70
     1
102
RTVSPropertyOp27
 70
     1
102
RTVSPropertyOp28
 70
     1
102
RTVSPropertyOp29
 70
     1
102
RTVSPropertyOp30
 70
     1
102
RTVSPropertyOp31
 70
     1
102
RTVSPropertyOp32
 70
     1
102
RTVSPropertyOp33
 70
     1
102
RTVSPropertyOp34
 70
     1
102
RTVSPropertyOp35
 70
     1
102
RTVSPropertyOp36
 70
     1
102
RTVSPropertyOp37
 70
     1
102
RTVSPropertyOp38
 70
     1
102
RTVSPropertyOp39
 70
     1
102
RTVSPropertyOp40
 70
     1
102
RTVSPropertyOp41
 70
     1
102
RTVSPropertyOp42
 70
     1
102
RTVSPropertyOp43
 70
     1
102
RTVSPropertyOp44
 70
     1
102
RTVSPropertyOp45
 70
     1
102
RTVSPropertyOp46
 70
     1
102
RTVSPropertyOp47
 70
     1
102
RTVSPropertyOp48
 70
     1
102
RTVSPropertyOp49
 70
     1
102
RTVSPropertyOp50
 70
     1
102
RTVSPropertyOp51
 70
     0
102
RTVSPropertyOp52
 70
     0
102
RTVSPropertyOp53
 70
     1
102
RTVSPropertyOp54
 70
     1
102
RTVSPropertyOp55
 70
     1
102
RTVSPropertyOp56
 70
     1
102
RTVSPropertyOp57
 70
     1
102
RTVSPropertyOp58
 70
     1
102
RTVSPropertyOp59
 70
     1
102
RTVSPropertyOp60
 70
     1
102
RTVSPropertyOp61
 70
     1
102
RTVSPropertyOp62
 70
     1
  0
XRECORD
  5
37A9
102
{ACAD_REACTORS
330
37A8
102
}
330
37A8
100
AcDbXrecord
280
     1
102
RTVSPost2010Prop28
280
     0
102
RTVSPost2010PropOp28
 70
     1
102
RTVSPost2010Prop29
280
     1
102
RTVSPost2010PropOp29
 70
     1
102
RTVSPost2010Prop30
280
     1
102
RTVSPost2010PropOp30
 70
     1
102
RTVSPost2010Prop31
280
     0
102
RTVSPost2010PropOp31
 70
     1
102
RTVSPost2010Prop32
280
     0
102
RTVSPost2010PropOp32
 70
     1
102
RTVSPost2010Prop33
280
     0
102
RTVSPost2010PropOp33
 70
     1
102
RTVSPost2010Prop34
280
     0
102
RTVSPost2010PropOp34
 70
     1
102
RTVSPost2010Prop35
280
     0
102
RTVSPost2010PropOp35
 70
     1
102
RTVSPost2010Prop36
280
     0
102
RTVSPost2010PropOp36
 70
     1
102
RTVSPost2010Prop37
 90
       50
102
RTVSPost2010PropOp37
 70
     1
102
RTVSPost2010Prop38
140
0.0
102
RTVSPost2010PropOp38
 70
     1
102
RTVSPost2010Prop39
140
1.0
102
RTVSPost2010PropOp39
 70
     1
102
RTVSPost2010Prop40
 90
        0
102
RTVSPost2010PropOp40
 70
     1
102
RTVSPost2010Prop41ColorIndex
 90
       18
102
RTVSPost2010Prop41ColorRGB
 90
        0
102
RTVSPost2010PropOp41
 70
     1
102
RTVSPost2010Prop42
 90
       50
102
RTVSPost2010PropOp42
 70
     1
102
RTVSPost2010Prop43
 90
        3
102
RTVSPost2010PropOp43
 70
     1
102
RTVSPost2010Prop44ColorIndex
 90
        5
102
RTVSPost2010Prop44ColorRGB
 90
      255
102
RTVSPost2010PropOp44
 70
     1
102
RTVSPost2010Prop45
280
     0
102
RTVSPost2010PropOp45
 70
     1
102
RTVSPost2010Prop46
 90
       50
102
RTVSPost2010PropOp46
 70
     1
102
RTVSPost2010Prop47
 90
       50
102
RTVSPost2010PropOp47
 70
     1
102
RTVSPost2010Prop48
 90
       50
102
RTVSPost2010PropOp48
 70
     1
102
RTVSPost2010Prop49
280
     0
102
RTVSPost2010PropOp49
 70
     1
102
RTVSPost2010Prop50
 90
       50
102
RTVSPost2010PropOp50
 70
     1
102
RTVSPost2010Prop51ColorIndex
 90
      256
102
RTVSPost2010Prop51ColorRGB
 90
-16777216
102
RTVSPost2010PropOp51
 70
     0
102
RTVSPost2010Prop52
140
1.0
102
RTVSPost2010PropOp52
 70
     0
102
RTVSPost2010Prop53
 90
        2
102
RTVSPost2010PropOp53
 70
     1
102
RTVSPost2010Prop54
  1
strokes_ogs.tif
102
RTVSPost2010PropOp54
 70
     1
102
RTVSPost2010Prop55
280
     0
102
RTVSPost2010PropOp55
 70
     1
102
RTVSPost2010Prop56
140
1.0
102
RTVSPost2010PropOp56
 70
     1
102
RTVSPost2010Prop57
140
1.0
102
RTVSPost2010PropOp57
 70
     1
102
RTVSPropertyOp0
 70
     1
102
RTVSPropertyOp1
 70
     1
102
RTVSPropertyOp2
 70
     1
102
RTVSPropertyOp3
 70
     1
102
RTVSPropertyOp4
 70
     1
102
RTVSPropertyOp5
 70
     1
102
RTVSPropertyOp6
 70
     1
102
RTVSPropertyOp7
 70
     1
102
RTVSPropertyOp8
 70
     1
102
RTVSPropertyOp9
 70
     1
102
RTVSPropertyOp10
 70
     1
102
RTVSPropertyOp11
 70
     1
102
RTVSPropertyOp12
 70
     1
102
RTVSPropertyOp13
 70
     1
102
RTVSPropertyOp14
 70
     1
102
RTVSPropertyOp15
 70
     1
102
RTVSPropertyOp16
 70
     1
102
RTVSPropertyOp17
 70
     1
102
RTVSPropertyOp18
 70
     1
102
RTVSPropertyOp19
 70
     1
102
RTVSPropertyOp20
 70
     1
102
RTVSPropertyOp21
 70
     1
102
RTVSPropertyOp22
 70
     1
102
RTVSPropertyOp23
 70
     1
102
RTVSPropertyOp24
 70
     1
102
RTVSPropertyOp25
 70
     1
102
RTVSPropertyOp26
 70
     1
102
RTVSPropertyOp27
 70
     1
102
RTVSPropertyOp28
 70
     1
102
RTVSPropertyOp29
 70
     1
102
RTVSPropertyOp30
 70
     1
102
RTVSPropertyOp31
 70
     1
102
RTVSPropertyOp32
 70
     1
102
RTVSPropertyOp33
 70
     1
102
RTVSPropertyOp34
 70
     1
102
RTVSPropertyOp35
 70
     1
102
RTVSPropertyOp36
 70
     1
102
RTVSPropertyOp37
 70
     1
102
RTVSPropertyOp38
 70
     1
102
RTVSPropertyOp39
 70
     1
102
RTVSPropertyOp40
 70
     1
102
RTVSPropertyOp41
 70
     1
102
RTVSPropertyOp42
 70
     1
102
RTVSPropertyOp43
 70
     1
102
RTVSPropertyOp44
 70
     1
102
RTVSPropertyOp45
 70
     1
102
RTVSPropertyOp46
 70
     1
102
RTVSPropertyOp47
 70
     1
102
RTVSPropertyOp48
 70
     1
102
RTVSPropertyOp49
 70
     1
102
RTVSPropertyOp50
 70
     1
102
RTVSPropertyOp51
 70
     0
102
RTVSPropertyOp52
 70
     0
102
RTVSPropertyOp53
 70
     1
102
RTVSPropertyOp54
 70
     1
102
RTVSPropertyOp55
 70
     1
102
RTVSPropertyOp56
 70
     1
102
RTVSPropertyOp57
 70
     1
102
RTVSPropertyOp58
 70
     1
102
RTVSPropertyOp59
 70
     1
102
RTVSPropertyOp60
 70
     1
102
RTVSPropertyOp61
 70
     1
102
RTVSPropertyOp62
 70
     1
  0
XRECORD
  5
379F
102
{ACAD_REACTORS
330
379E
102
}
330
379E
100
AcDbXrecord
280
     1
102
RTVSPost2010Prop28
280
     0
102
RTVSPost2010PropOp28
 70
     1
102
RTVSPost2010Prop29
280
     1
102
RTVSPost2010PropOp29
 70
     1
102
RTVSPost2010Prop30
280
     1
102
RTVSPost2010PropOp30
 70
     1
102
RTVSPost2010Prop31
280
     0
102
RTVSPost2010PropOp31
 70
     1
102
RTVSPost2010Prop32
280
     0
102
RTVSPost2010PropOp32
 70
     1
102
RTVSPost2010Prop33
280
     0
102
RTVSPost2010PropOp33
 70
     1
102
RTVSPost2010Prop34
280
     0
102
RTVSPost2010PropOp34
 70
     1
102
RTVSPost2010Prop35
280
     0
102
RTVSPost2010PropOp35
 70
     1
102
RTVSPost2010Prop36
280
     0
102
RTVSPost2010PropOp36
 70
     1
102
RTVSPost2010Prop37
 90
       50
102
RTVSPost2010PropOp37
 70
     1
102
RTVSPost2010Prop38
140
0.0
102
RTVSPost2010PropOp38
 70
     1
102
RTVSPost2010Prop39
140
1.0
102
RTVSPost2010PropOp39
 70
     1
102
RTVSPost2010Prop40
 90
        0
102
RTVSPost2010PropOp40
 70
     1
102
RTVSPost2010Prop41ColorIndex
 90
       18
102
RTVSPost2010Prop41ColorRGB
 90
        0
102
RTVSPost2010PropOp41
 70
     1
102
RTVSPost2010Prop42
 90
       50
102
RTVSPost2010PropOp42
 70
     1
102
RTVSPost2010Prop43
 90
        3
102
RTVSPost2010PropOp43
 70
     1
102
RTVSPost2010Prop44ColorIndex
 90
        5
102
RTVSPost2010Prop44ColorRGB
 90
      255
102
RTVSPost2010PropOp44
 70
     1
102
RTVSPost2010Prop45
280
     0
102
RTVSPost2010PropOp45
 70
     1
102
RTVSPost2010Prop46
 90
       50
102
RTVSPost2010PropOp46
 70
     1
102
RTVSPost2010Prop47
 90
       50
102
RTVSPost2010PropOp47
 70
     1
102
RTVSPost2010Prop48
 90
       50
102
RTVSPost2010PropOp48
 70
     1
102
RTVSPost2010Prop49
280
     0
102
RTVSPost2010PropOp49
 70
     1
102
RTVSPost2010Prop50
 90
       50
102
RTVSPost2010PropOp50
 70
     1
102
RTVSPost2010Prop51ColorIndex
 90
      256
102
RTVSPost2010Prop51ColorRGB
 90
-16777216
102
RTVSPost2010PropOp51
 70
     0
102
RTVSPost2010Prop52
140
1.0
102
RTVSPost2010PropOp52
 70
     0
102
RTVSPost2010Prop53
 90
        2
102
RTVSPost2010PropOp53
 70
     1
102
RTVSPost2010Prop54
  1
strokes_ogs.tif
102
RTVSPost2010PropOp54
 70
     1
102
RTVSPost2010Prop55
280
     0
102
RTVSPost2010PropOp55
 70
     1
102
RTVSPost2010Prop56
140
1.0
102
RTVSPost2010PropOp56
 70
     1
102
RTVSPost2010Prop57
140
1.0
102
RTVSPost2010PropOp57
 70
     1
102
RTVSPropertyOp0
 70
     1
102
RTVSPropertyOp1
 70
     1
102
RTVSPropertyOp2
 70
     1
102
RTVSPropertyOp3
 70
     1
102
RTVSPropertyOp4
 70
     1
102
RTVSPropertyOp5
 70
     1
102
RTVSPropertyOp6
 70
     1
102
RTVSPropertyOp7
 70
     1
102
RTVSPropertyOp8
 70
     1
102
RTVSPropertyOp9
 70
     1
102
RTVSPropertyOp10
 70
     1
102
RTVSPropertyOp11
 70
     1
102
RTVSPropertyOp12
 70
     1
102
RTVSPropertyOp13
 70
     1
102
RTVSPropertyOp14
 70
     1
102
RTVSPropertyOp15
 70
     1
102
RTVSPropertyOp16
 70
     1
102
RTVSPropertyOp17
 70
     1
102
RTVSPropertyOp18
 70
     1
102
RTVSPropertyOp19
 70
     1
102
RTVSPropertyOp20
 70
     1
102
RTVSPropertyOp21
 70
     1
102
RTVSPropertyOp22
 70
     1
102
RTVSPropertyOp23
 70
     1
102
RTVSPropertyOp24
 70
     1
102
RTVSPropertyOp25
 70
     1
102
RTVSPropertyOp26
 70
     1
102
RTVSPropertyOp27
 70
     1
102
RTVSPropertyOp28
 70
     1
102
RTVSPropertyOp29
 70
     1
102
RTVSPropertyOp30
 70
     1
102
RTVSPropertyOp31
 70
     1
102
RTVSPropertyOp32
 70
     1
102
RTVSPropertyOp33
 70
     1
102
RTVSPropertyOp34
 70
     1
102
RTVSPropertyOp35
 70
     1
102
RTVSPropertyOp36
 70
     1
102
RTVSPropertyOp37
 70
     1
102
RTVSPropertyOp38
 70
     1
102
RTVSPropertyOp39
 70
     1
102
RTVSPropertyOp40
 70
     1
102
RTVSPropertyOp41
 70
     1
102
RTVSPropertyOp42
 70
     1
102
RTVSPropertyOp43
 70
     1
102
RTVSPropertyOp44
 70
     1
102
RTVSPropertyOp45
 70
     1
102
RTVSPropertyOp46
 70
     1
102
RTVSPropertyOp47
 70
     1
102
RTVSPropertyOp48
 70
     1
102
RTVSPropertyOp49
 70
     1
102
RTVSPropertyOp50
 70
     1
102
RTVSPropertyOp51
 70
     0
102
RTVSPropertyOp52
 70
     0
102
RTVSPropertyOp53
 70
     1
102
RTVSPropertyOp54
 70
     1
102
RTVSPropertyOp55
 70
     1
102
RTVSPropertyOp56
 70
     1
102
RTVSPropertyOp57
 70
     1
102
RTVSPropertyOp58
 70
     1
102
RTVSPropertyOp59
 70
     1
102
RTVSPropertyOp60
 70
     1
102
RTVSPropertyOp61
 70
     1
102
RTVSPropertyOp62
 70
     1
  0
XRECORD
  5
3793
102
{ACAD_REACTORS
330
3792
102
}
330
3792
100
AcDbXrecord
280
     1
102
RTVSPost2010Prop28
280
     0
102
RTVSPost2010PropOp28
 70
     1
102
RTVSPost2010Prop29
280
     1
102
RTVSPost2010PropOp29
 70
     1
102
RTVSPost2010Prop30
280
     1
102
RTVSPost2010PropOp30
 70
     1
102
RTVSPost2010Prop31
280
     0
102
RTVSPost2010PropOp31
 70
     1
102
RTVSPost2010Prop32
280
     0
102
RTVSPost2010PropOp32
 70
     1
102
RTVSPost2010Prop33
280
     0
102
RTVSPost2010PropOp33
 70
     1
102
RTVSPost2010Prop34
280
     0
102
RTVSPost2010PropOp34
 70
     1
102
RTVSPost2010Prop35
280
     0
102
RTVSPost2010PropOp35
 70
     1
102
RTVSPost2010Prop36
280
     0
102
RTVSPost2010PropOp36
 70
     1
102
RTVSPost2010Prop37
 90
       50
102
RTVSPost2010PropOp37
 70
     1
102
RTVSPost2010Prop38
140
0.0
102
RTVSPost2010PropOp38
 70
     1
102
RTVSPost2010Prop39
140
1.0
102
RTVSPost2010PropOp39
 70
     1
102
RTVSPost2010Prop40
 90
        0
102
RTVSPost2010PropOp40
 70
     1
102
RTVSPost2010Prop41ColorIndex
 90
       18
102
RTVSPost2010Prop41ColorRGB
 90
        0
102
RTVSPost2010PropOp41
 70
     1
102
RTVSPost2010Prop42
 90
       50
102
RTVSPost2010PropOp42
 70
     1
102
RTVSPost2010Prop43
 90
        3
102
RTVSPost2010PropOp43
 70
     1
102
RTVSPost2010Prop44ColorIndex
 90
        5
102
RTVSPost2010Prop44ColorRGB
 90
      255
102
RTVSPost2010PropOp44
 70
     1
102
RTVSPost2010Prop45
280
     0
102
RTVSPost2010PropOp45
 70
     1
102
RTVSPost2010Prop46
 90
       50
102
RTVSPost2010PropOp46
 70
     1
102
RTVSPost2010Prop47
 90
       50
102
RTVSPost2010PropOp47
 70
     1
102
RTVSPost2010Prop48
 90
       50
102
RTVSPost2010PropOp48
 70
     1
102
RTVSPost2010Prop49
280
     0
102
RTVSPost2010PropOp49
 70
     1
102
RTVSPost2010Prop50
 90
       50
102
RTVSPost2010PropOp50
 70
     1
102
RTVSPost2010Prop51ColorIndex
 90
      256
102
RTVSPost2010Prop51ColorRGB
 90
-16777216
102
RTVSPost2010PropOp51
 70
     0
102
RTVSPost2010Prop52
140
1.0
102
RTVSPost2010PropOp52
 70
     0
102
RTVSPost2010Prop53
 90
        2
102
RTVSPost2010PropOp53
 70
     1
102
RTVSPost2010Prop54
  1
strokes_ogs.tif
102
RTVSPost2010PropOp54
 70
     1
102
RTVSPost2010Prop55
280
     0
102
RTVSPost2010PropOp55
 70
     1
102
RTVSPost2010Prop56
140
1.0
102
RTVSPost2010PropOp56
 70
     1
102
RTVSPost2010Prop57
140
1.0
102
RTVSPost2010PropOp57
 70
     1
102
RTVSPropertyOp0
 70
     1
102
RTVSPropertyOp1
 70
     1
102
RTVSPropertyOp2
 70
     1
102
RTVSPropertyOp3
 70
     1
102
RTVSPropertyOp4
 70
     1
102
RTVSPropertyOp5
 70
     1
102
RTVSPropertyOp6
 70
     1
102
RTVSPropertyOp7
 70
     1
102
RTVSPropertyOp8
 70
     1
102
RTVSPropertyOp9
 70
     1
102
RTVSPropertyOp10
 70
     1
102
RTVSPropertyOp11
 70
     1
102
RTVSPropertyOp12
 70
     1
102
RTVSPropertyOp13
 70
     1
102
RTVSPropertyOp14
 70
     1
102
RTVSPropertyOp15
 70
     1
102
RTVSPropertyOp16
 70
     1
102
RTVSPropertyOp17
 70
     1
102
RTVSPropertyOp18
 70
     1
102
RTVSPropertyOp19
 70
     1
102
RTVSPropertyOp20
 70
     1
102
RTVSPropertyOp21
 70
     1
102
RTVSPropertyOp22
 70
     1
102
RTVSPropertyOp23
 70
     1
102
RTVSPropertyOp24
 70
     1
102
RTVSPropertyOp25
 70
     1
102
RTVSPropertyOp26
 70
     1
102
RTVSPropertyOp27
 70
     1
102
RTVSPropertyOp28
 70
     1
102
RTVSPropertyOp29
 70
     1
102
RTVSPropertyOp30
 70
     1
102
RTVSPropertyOp31
 70
     1
102
RTVSPropertyOp32
 70
     1
102
RTVSPropertyOp33
 70
     1
102
RTVSPropertyOp34
 70
     1
102
RTVSPropertyOp35
 70
     1
102
RTVSPropertyOp36
 70
     1
102
RTVSPropertyOp37
 70
     1
102
RTVSPropertyOp38
 70
     1
102
RTVSPropertyOp39
 70
     1
102
RTVSPropertyOp40
 70
     1
102
RTVSPropertyOp41
 70
     1
102
RTVSPropertyOp42
 70
     1
102
RTVSPropertyOp43
 70
     1
102
RTVSPropertyOp44
 70
     1
102
RTVSPropertyOp45
 70
     1
102
RTVSPropertyOp46
 70
     1
102
RTVSPropertyOp47
 70
     1
102
RTVSPropertyOp48
 70
     1
102
RTVSPropertyOp49
 70
     1
102
RTVSPropertyOp50
 70
     1
102
RTVSPropertyOp51
 70
     0
102
RTVSPropertyOp52
 70
     0
102
RTVSPropertyOp53
 70
     1
102
RTVSPropertyOp54
 70
     1
102
RTVSPropertyOp55
 70
     1
102
RTVSPropertyOp56
 70
     1
102
RTVSPropertyOp57
 70
     1
102
RTVSPropertyOp58
 70
     1
102
RTVSPropertyOp59
 70
     1
102
RTVSPropertyOp60
 70
     1
102
RTVSPropertyOp61
 70
     1
102
RTVSPropertyOp62
 70
     1
  0
XRECORD
  5
37AB
102
{ACAD_REACTORS
330
37AA
102
}
330
37AA
100
AcDbXrecord
280
     1
102
RTVSPost2010Prop28
280
     0
102
RTVSPost2010PropOp28
 70
     1
102
RTVSPost2010Prop29
280
     1
102
RTVSPost2010PropOp29
 70
     1
102
RTVSPost2010Prop30
280
     1
102
RTVSPost2010PropOp30
 70
     1
102
RTVSPost2010Prop31
280
     0
102
RTVSPost2010PropOp31
 70
     1
102
RTVSPost2010Prop32
280
     0
102
RTVSPost2010PropOp32
 70
     1
102
RTVSPost2010Prop33
280
     0
102
RTVSPost2010PropOp33
 70
     1
102
RTVSPost2010Prop34
280
     0
102
RTVSPost2010PropOp34
 70
     1
102
RTVSPost2010Prop35
280
     0
102
RTVSPost2010PropOp35
 70
     1
102
RTVSPost2010Prop36
280
     0
102
RTVSPost2010PropOp36
 70
     1
102
RTVSPost2010Prop37
 90
       50
102
RTVSPost2010PropOp37
 70
     1
102
RTVSPost2010Prop38
140
0.0
102
RTVSPost2010PropOp38
 70
     1
102
RTVSPost2010Prop39
140
1.0
102
RTVSPost2010PropOp39
 70
     1
102
RTVSPost2010Prop40
 90
        0
102
RTVSPost2010PropOp40
 70
     1
102
RTVSPost2010Prop41ColorIndex
 90
       18
102
RTVSPost2010Prop41ColorRGB
 90
        0
102
RTVSPost2010PropOp41
 70
     1
102
RTVSPost2010Prop42
 90
       50
102
RTVSPost2010PropOp42
 70
     1
102
RTVSPost2010Prop43
 90
        3
102
RTVSPost2010PropOp43
 70
     1
102
RTVSPost2010Prop44ColorIndex
 90
        5
102
RTVSPost2010Prop44ColorRGB
 90
      255
102
RTVSPost2010PropOp44
 70
     1
102
RTVSPost2010Prop45
280
     0
102
RTVSPost2010PropOp45
 70
     1
102
RTVSPost2010Prop46
 90
       50
102
RTVSPost2010PropOp46
 70
     1
102
RTVSPost2010Prop47
 90
       50
102
RTVSPost2010PropOp47
 70
     1
102
RTVSPost2010Prop48
 90
       50
102
RTVSPost2010PropOp48
 70
     1
102
RTVSPost2010Prop49
280
     0
102
RTVSPost2010PropOp49
 70
     1
102
RTVSPost2010Prop50
 90
       50
102
RTVSPost2010PropOp50
 70
     1
102
RTVSPost2010Prop51ColorIndex
 90
      256
102
RTVSPost2010Prop51ColorRGB
 90
-16777216
102
RTVSPost2010PropOp51
 70
     0
102
RTVSPost2010Prop52
140
1.0
102
RTVSPost2010PropOp52
 70
     0
102
RTVSPost2010Prop53
 90
        2
102
RTVSPost2010PropOp53
 70
     1
102
RTVSPost2010Prop54
  1
strokes_ogs.tif
102
RTVSPost2010PropOp54
 70
     1
102
RTVSPost2010Prop55
280
     0
102
RTVSPost2010PropOp55
 70
     1
102
RTVSPost2010Prop56
140
1.0
102
RTVSPost2010PropOp56
 70
     1
102
RTVSPost2010Prop57
140
1.0
102
RTVSPost2010PropOp57
 70
     1
102
RTVSPropertyOp0
 70
     1
102
RTVSPropertyOp1
 70
     1
102
RTVSPropertyOp2
 70
     1
102
RTVSPropertyOp3
 70
     1
102
RTVSPropertyOp4
 70
     1
102
RTVSPropertyOp5
 70
     1
102
RTVSPropertyOp6
 70
     1
102
RTVSPropertyOp7
 70
     1
102
RTVSPropertyOp8
 70
     1
102
RTVSPropertyOp9
 70
     1
102
RTVSPropertyOp10
 70
     1
102
RTVSPropertyOp11
 70
     1
102
RTVSPropertyOp12
 70
     1
102
RTVSPropertyOp13
 70
     1
102
RTVSPropertyOp14
 70
     1
102
RTVSPropertyOp15
 70
     1
102
RTVSPropertyOp16
 70
     1
102
RTVSPropertyOp17
 70
     1
102
RTVSPropertyOp18
 70
     1
102
RTVSPropertyOp19
 70
     1
102
RTVSPropertyOp20
 70
     1
102
RTVSPropertyOp21
 70
     1
102
RTVSPropertyOp22
 70
     1
102
RTVSPropertyOp23
 70
     1
102
RTVSPropertyOp24
 70
     1
102
RTVSPropertyOp25
 70
     1
102
RTVSPropertyOp26
 70
     1
102
RTVSPropertyOp27
 70
     1
102
RTVSPropertyOp28
 70
     1
102
RTVSPropertyOp29
 70
     1
102
RTVSPropertyOp30
 70
     1
102
RTVSPropertyOp31
 70
     1
102
RTVSPropertyOp32
 70
     1
102
RTVSPropertyOp33
 70
     1
102
RTVSPropertyOp34
 70
     1
102
RTVSPropertyOp35
 70
     1
102
RTVSPropertyOp36
 70
     1
102
RTVSPropertyOp37
 70
     1
102
RTVSPropertyOp38
 70
     1
102
RTVSPropertyOp39
 70
     1
102
RTVSPropertyOp40
 70
     1
102
RTVSPropertyOp41
 70
     1
102
RTVSPropertyOp42
 70
     1
102
RTVSPropertyOp43
 70
     1
102
RTVSPropertyOp44
 70
     1
102
RTVSPropertyOp45
 70
     1
102
RTVSPropertyOp46
 70
     1
102
RTVSPropertyOp47
 70
     1
102
RTVSPropertyOp48
 70
     1
102
RTVSPropertyOp49
 70
     1
102
RTVSPropertyOp50
 70
     1
102
RTVSPropertyOp51
 70
     0
102
RTVSPropertyOp52
 70
     0
102
RTVSPropertyOp53
 70
     1
102
RTVSPropertyOp54
 70
     1
102
RTVSPropertyOp55
 70
     1
102
RTVSPropertyOp56
 70
     1
102
RTVSPropertyOp57
 70
     1
102
RTVSPropertyOp58
 70
     1
102
RTVSPropertyOp59
 70
     1
102
RTVSPropertyOp60
 70
     1
102
RTVSPropertyOp61
 70
     1
102
RTVSPropertyOp62
 70
     1
  0
ENDSEC
  0
EOF
