0
SECTION
2
HEADER
9
$ACADVER
1
AC1015
9
$DWGCODEPAGE
3
ANSI_1252
9
$HANDSEED
5
195
9
$ANGBASE
50
0
9
$ANGDIR
70
0
9
$ATTMODE
70
1
9
$AUNITS
70
0
9
$AUPREC
70
0
9
$CECOLOR
62
256
9
$CELTSCALE
40
1
9
$CELTYPE
6
ByLayer
9
$CELWEIGHT
370
18
9
$CLAYER
8
0
9
$CMLJUST
70
0
9
$CMLSCALE
40
1
9
$CMLSTYLE
2
Standard
9
$DIMSTYLE
2
Standard
9
$TEXTSIZE
40
0.2
9
$TEXTSTYLE
7
Standard
9
$LUNITS
70
2
9
$LUPREC
70
4
9
$EXTNAMES
290
1
9
$INSUNITS
70
4
9
$LTSCALE
40
1
9
$LWDISPLAY
290
1
9
$PDMODE
70
0
9
$PDSIZE
40
0
9
$PLINEGEN
70
0
0
ENDSEC
0
SECTION
2
CLASSES
0
CLASS
1
RASTERVARIABLES
2
AcDbRasterVariables
3
ISM
90
0
280
0
281
0
0
ENDSEC
0
SECTION
2
TABLES
0
TABLE
2
VPORT
5
18b
100
AcDbSymbolTable
0
VPORT
5
1
100
AcDbSymbolTableRecord
100
AcDbViewportTableRecord
2
*Active
70
0
10
0
20
0
11
1
21
1
12
-1
22
1
13
0
23
0
14
0.5
24
0.5
15
10
25
10
16
0
26
0
36
1
17
0
27
0
37
0
0
ENDTAB
0
TABLE
2
LTYPE
5
18c
100
AcDbSymbolTable
0
LTYPE
5
14
100
AcDbSymbolTableRecord
100
AcDbLinetypeTableRecord
70
0
2
ByBlock
3

72
65
73
0
40
0
0
LTYPE
5
15
100
AcDbSymbolTableRecord
100
AcDbLinetypeTableRecord
70
0
2
ByLayer
3

72
65
73
0
40
0
0
LTYPE
5
16
100
AcDbSymbolTableRecord
100
AcDbLinetypeTableRecord
70
0
2
CONTINUOUS
3
Solid line
72
65
73
0
40
0
0
LTYPE
5
6A
100
AcDbSymbolTableRecord
100
AcDbLinetypeTableRecord
70
0
2
CENTER
3
____ _ ____ _ ____ _ ____
72
65
73
4
40
47.5
49
22
74
0
49
-8.5
74
0
49
8.5
74
0
49
-8.5
74
0
0
LTYPE
5
6B
100
AcDbSymbolTableRecord
100
AcDbLinetypeTableRecord
70
0
2
DASHED
3
__ __ __ __ __ __ __ __ __
72
65
73
2
40
25.72
49
12.86
74
0
49
-12.86
74
0
0
ENDTAB
0
TABLE
2
LAYER
5
18d
100
AcDbSymbolTable
0
LAYER
5
10
100
AcDbSymbolTableRecord
100
AcDbLayerTableRecord
2
0
70
0
62
7
6
CONTINUOUS
290
1
370
-3
390
0
0
LAYER
5
6D
100
AcDbSymbolTableRecord
100
AcDbLayerTableRecord
2
81
70
0
62
-3
6
CONTINUOUS
290
1
370
-3
390
0
0
LAYER
5
6F
100
AcDbSymbolTableRecord
100
AcDbLayerTableRecord
2
80
70
0
62
-6
6
CONTINUOUS
290
1
370
-3
390
0
0
LAYER
5
74
100
AcDbSymbolTableRecord
100
AcDbLayerTableRecord
2
2
70
0
62
7
6
CONTINUOUS
290
1
370
-3
390
0
0
LAYER
5
78
100
AcDbSymbolTableRecord
100
AcDbLayerTableRecord
2
1
70
0
62
4
6
CONTINUOUS
290
1
370
-3
390
0
0
LAYER
5
84
100
AcDbSymbolTableRecord
100
AcDbLayerTableRecord
2
4
70
0
62
-2
6
CENTER
290
1
370
-3
390
0
0
LAYER
5
177
100
AcDbSymbolTableRecord
100
AcDbLayerTableRecord
2
SK2
70
0
62
7
6
CONTINUOUS
290
1
370
-3
390
0
0
LAYER
5
178
100
AcDbSymbolTableRecord
100
AcDbLayerTableRecord
2
SK1
70
0
62
4
6
CONTINUOUS
290
1
370
-3
390
0
0
LAYER
5
179
100
AcDbSymbolTableRecord
100
AcDbLayerTableRecord
2
SK4
70
0
62
2
6
CENTER
290
1
370
-3
390
0
0
LAYER
5
17a
100
AcDbSymbolTableRecord
100
AcDbLayerTableRecord
2
SK6
70
0
62
5
6
CONTINUOUS
290
1
370
-3
390
0
0
ENDTAB
0
TABLE
2
STYLE
5
18e
100
AcDbSymbolTable
0
STYLE
5
11
100
AcDbSymbolTableRecord
100
AcDbTextStyleTableRecord
2
Standard
3
txt
70
0
71
0
40
0
41
1
42
0
50
0
0
STYLE
5
D3
100
AcDbSymbolTableRecord
100
AcDbTextStyleTableRecord
2
iso_b_vert
3
simplex.shx
70
0
71
0
40
0
41
1
42
0
50
0
0
STYLE
5
D4
100
AcDbSymbolTableRecord
100
AcDbTextStyleTableRecord
2
DWGDirectTextStyle
3
simplex
70
0
71
0
40
0
41
1
42
0
50
0
0
ENDTAB
0
TABLE
2
DIMSTYLE
5
18f
100
AcDbSymbolTable
100
AcDbDimStyleTable
0
DIMSTYLE
105
27
100
AcDbSymbolTableRecord
100
AcDbDimStyleTableRecord
2
Standard
70
0
3
<>
41
0.18
42
0.0625
44
0.18
140
0.18
147
0.09
73
0
74
0
77
1
271
2
275
0
278
52
280
0
340
11
0
ENDTAB
0
TABLE
2
VIEW
5
190
100
AcDbSymbolTable
0
ENDTAB
0
TABLE
2
UCS
5
191
100
AcDbSymbolTable
0
ENDTAB
0
TABLE
2
APPID
5
192
100
AcDbSymbolTable
0
APPID
5
12
100
AcDbSymbolTableRecord
100
AcDbRegAppTableRecord
2
ACAD
70
0
0
ENDTAB
0
TABLE
2
BLOCK_RECORD
5
193
100
AcDbSymbolTable
0
BLOCK_RECORD
5
1F
100
AcDbSymbolTableRecord
100
AcDbBlockTableRecord
2
*Model_Space
340
0
70
0
0
BLOCK_RECORD
5
1B
100
AcDbSymbolTableRecord
100
AcDbBlockTableRecord
2
*Paper_Space
340
0
70
0
0
BLOCK_RECORD
5
23
100
AcDbSymbolTableRecord
100
AcDbBlockTableRecord
2
*Paper_Space0
340
0
70
0
0
BLOCK_RECORD
5
D6
100
AcDbSymbolTableRecord
100
AcDbBlockTableRecord
2
DimnDraft3D1
340
0
70
0
0
BLOCK_RECORD
5
E0
100
AcDbSymbolTableRecord
100
AcDbBlockTableRecord
2
DimnDraft3D2
340
0
70
0
0
BLOCK_RECORD
5
EA
100
AcDbSymbolTableRecord
100
AcDbBlockTableRecord
2
DimnDraft3D3
340
0
70
0
0
BLOCK_RECORD
5
F4
100
AcDbSymbolTableRecord
100
AcDbBlockTableRecord
2
DimnDraft3D4
340
0
70
0
0
BLOCK_RECORD
5
FE
100
AcDbSymbolTableRecord
100
AcDbBlockTableRecord
2
DimnDraft3D5
340
0
70
0
0
BLOCK_RECORD
5
108
100
AcDbSymbolTableRecord
100
AcDbBlockTableRecord
2
DimnDraft3D6
340
0
70
0
0
BLOCK_RECORD
5
113
100
AcDbSymbolTableRecord
100
AcDbBlockTableRecord
2
DimnDraft3D7
340
0
70
0
0
ENDTAB
0
ENDSEC
0
SECTION
2
BLOCKS
0
BLOCK
5
20
100
AcDbEntity
8
0
100
AcDbBlockBegin
2
*Model_Space
70
0
10
0
20
0
30
0
3
*Model_Space
0
ENDBLK
5
21
100
AcDbEntity
8
0
100
AcDbBlockEnd
0
BLOCK
5
1C
100
AcDbEntity
8
0
100
AcDbBlockBegin
2
*Paper_Space
70
0
10
0
20
0
30
0
3
*Paper_Space
0
ENDBLK
5
1D
100
AcDbEntity
8
0
100
AcDbBlockEnd
0
BLOCK
5
24
100
AcDbEntity
8
0
100
AcDbBlockBegin
2
*Paper_Space0
70
0
10
0
20
0
30
0
3
*Paper_Space0
0
ENDBLK
5
25
100
AcDbEntity
8
0
100
AcDbBlockEnd
0
BLOCK
5
DD
100
AcDbEntity
8
0
100
AcDbBlockBegin
2
DimnDraft3D1
70
0
10
0
20
0
30
0
3
DimnDraft3D1
0
MTEXT
5
D7
100
AcDbEntity
8
SK2
62
256
6
ByLayer
370
13
48
1
60
0
100
AcDbMText
10
23.358913
20
-17.077503
30
0
210
0
220
0
230
1
1
\W0.7150;55,6
40
3.5
41
0
44
1.084337
50
0
71
7
72
5
7
iso_b_vert
0
LINE
5
D8
100
AcDbEntity
8
SK2
62
256
6
ByLayer
370
13
48
1
60
0
100
AcDbLine
10
0
20
-1.5875
30
0
11
0
21
-19.952503
31
0
39
0
210
0
220
0
230
1
0
LINE
5
D9
100
AcDbEntity
8
SK2
62
256
6
ByLayer
370
13
48
1
60
0
100
AcDbLine
10
55.6201
20
-6.7375
30
0
11
55.6201
21
-19.952503
31
0
39
0
210
0
220
0
230
1
0
LINE
5
DA
100
AcDbEntity
8
SK2
62
256
6
ByLayer
370
13
48
1
60
0
100
AcDbLine
10
0
20
-17.952503
30
0
11
55.6201
21
-17.952503
31
0
39
0
210
0
220
0
230
1
0
SOLID
5
DB
100
AcDbEntity
8
SK2
62
256
6
ByLayer
370
13
48
1
60
0
100
AcDbTrace
10
0
20
-17.952503
30
0
11
3.499998
21
-17.491719
31
0
12
3.500002
22
-18.413287
32
0
13
0
23
-17.952503
33
0
39
0
210
0
220
0
230
1
0
SOLID
5
DC
100
AcDbEntity
8
SK2
62
256
6
ByLayer
370
13
48
1
60
0
100
AcDbTrace
10
55.6201
20
-17.952503
30
0
11
52.120102
21
-18.413287
31
0
12
52.120098
22
-17.491719
32
0
13
55.6201
23
-17.952503
33
0
39
0
210
0
220
0
230
1
0
ENDBLK
5
DE
100
AcDbEntity
8
0
100
AcDbBlockEnd
0
BLOCK
5
E7
100
AcDbEntity
8
0
100
AcDbBlockBegin
2
DimnDraft3D2
70
0
10
0
20
0
30
0
3
DimnDraft3D2
0
MTEXT
5
E1
100
AcDbEntity
8
SK2
62
256
6
ByLayer
370
13
48
1
60
0
100
AcDbMText
10
1.950216
20
-38.817985
30
0
210
0
220
0
230
1
1
\W0.6713;102,0
40
3.5
41
0
44
1.084337
50
0
71
7
72
5
7
iso_b_vert
0
LINE
5
E2
100
AcDbEntity
8
SK2
62
256
6
ByLayer
370
13
48
1
60
0
100
AcDbLine
10
-45
20
-7.5875
30
0
11
-45
21
-41.692985
31
0
39
0
210
0
220
0
230
1
0
LINE
5
E3
100
AcDbEntity
8
SK2
62
256
6
ByLayer
370
13
48
1
60
0
100
AcDbLine
10
57
20
-1.5875
30
0
11
57
21
-41.692985
31
0
39
0
210
0
220
0
230
1
0
LINE
5
E4
100
AcDbEntity
8
SK2
62
256
6
ByLayer
370
13
48
1
60
0
100
AcDbLine
10
-45
20
-39.692985
30
0
11
57
21
-39.692985
31
0
39
0
210
0
220
0
230
1
0
SOLID
5
E5
100
AcDbEntity
8
SK2
62
256
6
ByLayer
370
13
48
1
60
0
100
AcDbTrace
10
-45
20
-39.692985
30
0
11
-41.500002
21
-39.232202
31
0
12
-41.499998
22
-40.153769
32
0
13
-45
23
-39.692985
33
0
39
0
210
0
220
0
230
1
0
SOLID
5
E6
100
AcDbEntity
8
SK2
62
256
6
ByLayer
370
13
48
1
60
0
100
AcDbTrace
10
57
20
-39.692985
30
0
11
53.500002
21
-40.153769
31
0
12
53.499998
22
-39.232202
32
0
13
57
23
-39.692985
33
0
39
0
210
0
220
0
230
1
0
ENDBLK
5
E8
100
AcDbEntity
8
0
100
AcDbBlockEnd
0
BLOCK
5
F1
100
AcDbEntity
8
0
100
AcDbBlockBegin
2
DimnDraft3D3
70
0
10
0
20
0
30
0
3
DimnDraft3D3
0
MTEXT
5
EB
100
AcDbEntity
8
SK2
62
256
6
ByLayer
370
13
48
1
60
0
100
AcDbMText
10
36.416316
20
17.634119
30
0
210
0
220
0
230
1
1
\W0.7317;32,27
40
3.5
41
0
44
1.084337
50
0
71
7
72
5
7
iso_b_vert
0
LINE
5
EC
100
AcDbEntity
8
SK2
62
256
6
ByLayer
370
13
48
1
60
0
100
AcDbLine
10
24.73
20
6.7375
30
0
11
24.73
21
18.759119
31
0
39
0
210
0
220
0
230
1
0
LINE
5
ED
100
AcDbEntity
8
SK2
62
256
6
ByLayer
370
13
48
1
60
0
100
AcDbLine
10
57
20
1.5875
30
0
11
57
21
18.759119
31
0
39
0
210
0
220
0
230
1
0
LINE
5
EE
100
AcDbEntity
8
SK2
62
256
6
ByLayer
370
13
48
1
60
0
100
AcDbLine
10
24.73
20
16.759119
30
0
11
57
21
16.759119
31
0
39
0
210
0
220
0
230
1
0
SOLID
5
EF
100
AcDbEntity
8
SK2
62
256
6
ByLayer
370
13
48
1
60
0
100
AcDbTrace
10
24.73
20
16.759119
30
0
11
28.229998
21
17.219903
31
0
12
28.230002
22
16.298335
32
0
13
24.73
23
16.759119
33
0
39
0
210
0
220
0
230
1
0
SOLID
5
F0
100
AcDbEntity
8
SK2
62
256
6
ByLayer
370
13
48
1
60
0
100
AcDbTrace
10
57
20
16.759119
30
0
11
53.500002
21
16.298335
31
0
12
53.499998
22
17.219903
32
0
13
57
23
16.759119
33
0
39
0
210
0
220
0
230
1
0
ENDBLK
5
F2
100
AcDbEntity
8
0
100
AcDbBlockEnd
0
BLOCK
5
FB
100
AcDbEntity
8
0
100
AcDbBlockBegin
2
DimnDraft3D4
70
0
10
0
20
0
30
0
3
DimnDraft3D4
0
MTEXT
5
F5
100
AcDbEntity
8
SK2
62
256
6
ByLayer
370
13
48
1
60
0
100
AcDbMText
10
64.278136
20
-17.077503
30
0
210
0
220
0
230
1
1
\W0.6367;1,38
40
3.5
41
0
44
1.084337
50
0
71
7
72
5
7
iso_b_vert
0
LINE
5
F6
100
AcDbEntity
8
SK2
62
256
6
ByLayer
370
13
48
1
60
0
100
AcDbLine
10
57
20
-1.5875
30
0
11
57
21
-19.952503
31
0
39
0
210
0
220
0
230
1
0
LINE
5
F7
100
AcDbEntity
8
SK2
62
256
6
ByLayer
370
13
48
1
60
0
100
AcDbLine
10
55.6201
20
-6.7375
30
0
11
55.6201
21
-19.952503
31
0
39
0
210
0
220
0
230
1
0
LINE
5
F8
100
AcDbEntity
8
SK2
62
256
6
ByLayer
370
13
48
1
60
0
100
AcDbLine
10
46.8701
20
-17.952503
30
0
11
70.559715
21
-17.952503
31
0
39
0
210
0
220
0
230
1
0
SOLID
5
F9
100
AcDbEntity
8
SK2
62
256
6
ByLayer
370
13
48
1
60
0
100
AcDbTrace
10
57
20
-17.952503
30
0
11
60.499998
21
-17.491719
31
0
12
60.500002
22
-18.413287
32
0
13
57
23
-17.952503
33
0
39
0
210
0
220
0
230
1
0
SOLID
5
FA
100
AcDbEntity
8
SK2
62
256
6
ByLayer
370
13
48
1
60
0
100
AcDbTrace
10
55.6201
20
-17.952503
30
0
11
52.120102
21
-18.413287
31
0
12
52.120098
22
-17.491719
32
0
13
55.6201
23
-17.952503
33
0
39
0
210
0
220
0
230
1
0
ENDBLK
5
FC
100
AcDbEntity
8
0
100
AcDbBlockEnd
0
BLOCK
5
105
100
AcDbEntity
8
0
100
AcDbBlockBegin
2
DimnDraft3D5
70
0
10
0
20
0
30
0
3
DimnDraft3D5
0
MTEXT
5
FF
100
AcDbEntity
8
SK2
62
256
6
ByLayer
370
13
48
1
60
0
100
AcDbMText
10
0.608916
20
-28.625
30
0
210
0
220
0
230
1
1
\W0.6713;100,6
40
3.5
41
0
44
1.084337
50
0
71
7
72
5
7
iso_b_vert
0
LINE
5
100
100
AcDbEntity
8
SK2
62
256
6
ByLayer
370
13
48
1
60
0
100
AcDbLine
10
-45
20
-7.5875
30
0
11
-45
21
-31.5
31
0
39
0
210
0
220
0
230
1
0
LINE
5
101
100
AcDbEntity
8
SK2
62
256
6
ByLayer
370
13
48
1
60
0
100
AcDbLine
10
55.6201
20
-6.7375
30
0
11
55.6201
21
-31.5
31
0
39
0
210
0
220
0
230
1
0
LINE
5
102
100
AcDbEntity
8
SK2
62
256
6
ByLayer
370
13
48
1
60
0
100
AcDbLine
10
-45
20
-29.5
30
0
11
55.6201
21
-29.5
31
0
39
0
210
0
220
0
230
1
0
SOLID
5
103
100
AcDbEntity
8
SK2
62
256
6
ByLayer
370
13
48
1
60
0
100
AcDbTrace
10
-45
20
-29.5
30
0
11
-41.500002
21
-29.039216
31
0
12
-41.499998
22
-29.960784
32
0
13
-45
23
-29.5
33
0
39
0
210
0
220
0
230
1
0
SOLID
5
104
100
AcDbEntity
8
SK2
62
256
6
ByLayer
370
13
48
1
60
0
100
AcDbTrace
10
55.6201
20
-29.5
30
0
11
52.120102
21
-29.960784
31
0
12
52.120098
22
-29.039216
32
0
13
55.6201
23
-29.5
33
0
39
0
210
0
220
0
230
1
0
ENDBLK
5
106
100
AcDbEntity
8
0
100
AcDbBlockEnd
0
BLOCK
5
110
100
AcDbEntity
8
0
100
AcDbBlockBegin
2
DimnDraft3D6
70
0
10
0
20
0
30
0
3
DimnDraft3D6
0
MTEXT
5
109
100
AcDbEntity
8
SK2
62
256
6
ByLayer
370
13
48
1
60
0
100
AcDbMText
10
-55.375163
20
25.34918
30
0
210
0
220
0
230
1
1
\W0.6713;12,00
40
3.5
41
0
44
1.084337
50
90
71
7
72
5
7
iso_b_vert
0
MTEXT
5
10A
100
AcDbEntity
8
SK2
62
256
6
ByLayer
370
13
48
1
60
0
100
AcDbMText
10
-55.375163
20
20.126524
30
0
210
0
220
0
230
1
1
%%c
40
3.5
41
0
44
1.084337
50
90
71
7
72
5
7
iso_b_vert
0
LINE
5
10B
100
AcDbEntity
8
SK2
62
256
6
ByLayer
370
13
48
1
60
0
100
AcDbLine
10
-46.5875
20
-6
30
0
11
-55.625163
21
-6
31
0
39
0
210
0
220
0
230
1
0
LINE
5
10C
100
AcDbEntity
8
SK2
62
256
6
ByLayer
370
13
48
1
60
0
100
AcDbLine
10
-46.5875
20
6
30
0
11
-55.625163
21
6
31
0
39
0
210
0
220
0
230
1
0
LINE
5
10D
100
AcDbEntity
8
SK2
62
256
6
ByLayer
370
13
48
1
60
0
100
AcDbLine
10
-53.625163
20
-6
30
0
11
-53.625163
21
34.246549
31
0
39
0
210
0
220
0
230
1
0
SOLID
5
10E
100
AcDbEntity
8
SK2
62
256
6
ByLayer
370
13
48
1
60
0
100
AcDbTrace
10
-53.625163
20
-6
30
0
11
-54.085946
21
-2.500002
31
0
12
-53.164379
22
-2.499998
32
0
13
-53.625163
23
-6
33
0
39
0
210
0
220
0
230
1
0
SOLID
5
10F
100
AcDbEntity
8
SK2
62
256
6
ByLayer
370
13
48
1
60
0
100
AcDbTrace
10
-53.625163
20
6
30
0
11
-53.164379
21
2.500002
31
0
12
-54.085946
22
2.499998
32
0
13
-53.625163
23
6
33
0
39
0
210
0
220
0
230
1
0
ENDBLK
5
111
100
AcDbEntity
8
0
100
AcDbBlockEnd
0
BLOCK
5
11B
100
AcDbEntity
8
0
100
AcDbBlockBegin
2
DimnDraft3D7
70
0
10
0
20
0
30
0
3
DimnDraft3D7
0
MTEXT
5
114
100
AcDbEntity
8
2
62
256
6
ByLayer
370
13
48
1
60
0
100
AcDbMText
10
67.333343
20
23.092266
30
0
210
0
220
0
230
1
1
\W0.6367;10,3
40
3.5
41
0
44
1.084337
50
90
71
7
72
5
7
iso_b_vert
0
MTEXT
5
115
100
AcDbEntity
8
2
62
256
6
ByLayer
370
13
48
1
60
0
100
AcDbMText
10
67.333343
20
17.86961
30
0
210
0
220
0
230
1
1
%%c
40
3.5
41
0
44
1.084337
50
90
71
7
72
5
7
iso_b_vert
0
LINE
5
116
100
AcDbEntity
8
2
62
256
6
ByLayer
370
13
48
1
60
0
100
AcDbLine
10
57.2076
20
-5.15
30
0
11
71.083343
21
-5.15
31
0
39
0
210
0
220
0
230
1
0
LINE
5
117
100
AcDbEntity
8
2
62
256
6
ByLayer
370
13
48
1
60
0
100
AcDbLine
10
57.2076
20
5.15
30
0
11
71.083343
21
5.15
31
0
39
0
210
0
220
0
230
1
0
LINE
5
118
100
AcDbEntity
8
2
62
256
6
ByLayer
370
13
48
1
60
0
100
AcDbLine
10
69.083343
20
-5.15
30
0
11
69.083343
21
29.373845
31
0
39
0
210
0
220
0
230
1
0
SOLID
5
119
100
AcDbEntity
8
2
62
256
6
ByLayer
370
13
48
1
60
0
100
AcDbTrace
10
69.083343
20
-5.15
30
0
11
68.622559
21
-1.650002
31
0
12
69.544126
22
-1.649998
32
0
13
69.083343
23
-5.15
33
0
39
0
210
0
220
0
230
1
0
SOLID
5
11A
100
AcDbEntity
8
2
62
256
6
ByLayer
370
13
48
1
60
0
100
AcDbTrace
10
69.083343
20
5.15
30
0
11
69.544126
21
1.650002
31
0
12
68.622559
22
1.649998
32
0
13
69.083343
23
5.15
33
0
39
0
210
0
220
0
230
1
0
ENDBLK
5
11C
100
AcDbEntity
8
0
100
AcDbBlockEnd
0
ENDSEC
0
SECTION
2
ENTITIES
0
ARC
5
9C
100
AcDbEntity
8
1
62
256
6
ByLayer
370
18
48
1
60
0
100
AcDbCircle
39
0
10
-0.35
20
5.46548
30
0
40
0.350000000000009
210
0
220
0
230
-1
100
AcDbArc
50
269.96419
51
0
0
ARC
5
9D
100
AcDbEntity
8
1
62
256
6
ByLayer
370
18
48
1
60
0
100
AcDbCircle
39
0
10
-0.35
20
-5.46548
30
0
40
0.350000000000009
210
0
220
0
230
-1
100
AcDbArc
50
0
51
90.03581
0
ELLIPSE
5
9E
100
AcDbEntity
8
1
62
256
6
ByLayer
370
18
48
1
60
0
100
AcDbEllipse
10
4.25
20
-5.110738
30
0
11
-0.25
21
3.06151588455594E-17
31
0
210
0
220
0
230
1
40
1
41
-1.57035329564526
42
-7.30676555715368E-05
0
ELLIPSE
5
9F
100
AcDbEntity
8
1
62
256
6
ByLayer
370
18
48
1
60
0
100
AcDbEllipse
10
4.25
20
5.110738
30
0
11
-0.25
21
3.06151588455594E-17
31
0
210
0
220
0
230
1
40
1
41
7.30676555395624E-05
42
1.57474524624504
0
ELLIPSE
5
A0
100
AcDbEntity
8
1
62
256
6
ByLayer
370
18
48
1
60
0
100
AcDbEllipse
10
54.707453
20
0.000279
30
0
11
0.47629952492165
21
5.14807013773301
31
0
210
0
220
0
230
-1
40
0.250565
41
0.184303207801502
42
0.336571026267971
0
ELLIPSE
5
A1
100
AcDbEntity
8
1
62
256
6
ByLayer
370
18
48
1
60
0
100
AcDbEllipse
10
54.707453
20
-0.000279
30
0
11
0.476299525409448
21
-5.14807014067416
31
0
210
0
220
0
230
-1
40
0.250565
41
-0.336571026161032
42
-0.184303207740071
0
ELLIPSE
5
A2
100
AcDbEntity
8
1
62
256
6
ByLayer
370
18
48
1
60
0
100
AcDbEllipse
10
56.98868
20
0.014511
30
0
11
0.0140788299367899
21
0.0302141333246954
31
0
210
0
220
0
230
-1
40
0.154454
41
1.02263605320295
42
2.13441855475523
0
ELLIPSE
5
A3
100
AcDbEntity
8
1
62
256
6
ByLayer
370
18
48
1
60
0
100
AcDbEllipse
10
57.015791
20
-0.001742
30
0
11
0.0202277240842957
21
0.0461593300309153
31
0
210
0
220
0
230
-1
40
0.094257
41
-2.47673761032276
42
-2.22716328485081
0
ELLIPSE
5
A4
100
AcDbEntity
8
1
62
256
6
ByLayer
370
18
48
1
60
0
100
AcDbEllipse
10
57.015791
20
0.001742
30
0
11
0.0202277256245232
21
-0.0461593330218585
31
0
210
0
220
0
230
-1
40
0.094257
41
2.22716331417316
42
2.47673762878073
0
POINT
5
6C
100
AcDbEntity
8
81
62
256
6
ByLayer
370
18
48
1
60
0
100
AcDbPoint
10
57
20
0
30
0
39
0
210
0
220
0
230
1
50
360
0
POINT
5
6E
100
AcDbEntity
8
80
62
256
6
ByLayer
370
18
48
1
60
0
100
AcDbPoint
10
0
20
0
30
0
39
0
210
0
220
0
230
1
50
360
0
POINT
5
70
100
AcDbEntity
8
SK2
62
256
6
ByLayer
370
18
48
1
60
1
100
AcDbPoint
10
-45
20
-6
30
0
39
0
210
0
220
0
230
1
50
360
0
POINT
5
72
100
AcDbEntity
8
SK2
62
256
6
ByLayer
370
18
48
1
60
1
100
AcDbPoint
10
-45
20
6
30
0
39
0
210
0
220
0
230
1
50
360
0
POINT
5
73
100
AcDbEntity
8
2
62
256
6
ByLayer
370
18
48
1
60
1
100
AcDbPoint
10
55.6201
20
-5.15
30
0
39
0
210
0
220
0
230
1
50
360
0
POINT
5
75
100
AcDbEntity
8
2
62
256
6
ByLayer
370
18
48
1
60
1
100
AcDbPoint
10
55.6201
20
5.15
30
0
39
0
210
0
220
0
230
1
50
360
0
SPLINE
5
A5
100
AcDbEntity
8
1
62
256
6
ByLayer
370
18
48
1
60
0
100
AcDbSpline
70
4
71
3
72
16
73
12
40
0
40
0
40
0
40
0
40
0.170826957254267
40
0.343783002918085
40
0.384089646787338
40
0.429363864936106
40
0.490048510945032
40
0.566320468610589
40
0.692270833390167
40
0.84595122057679
40
1
40
1
40
1
40
1
41
1
10
13.3992274076199
20
4.86672199400147
30
0
41
1
10
12.8783441587592
20
4.86707481919771
30
0
41
1
10
11.8300457576477
20
4.86702856096838
30
0
41
1
10
10.6586622067497
20
4.86613341620384
30
0
41
1
10
9.87022090268368
20
4.86410950470386
30
0
41
1
10
9.42416324024325
20
4.86333829939699
30
0
41
1
10
8.86842262139257
20
4.86311417522145
30
0
41
1
10
8.0666475520307
20
4.86289650751286
30
0
41
1
10
6.98126819637886
20
4.86265202808011
30
0
41
1
10
5.65869803067719
20
4.86259167189004
30
0
41
1
10
4.72023268119258
20
4.86136470206569
30
0
41
1
10
4.25043844352609
20
4.8605680566979
30
0
0
SPLINE
5
A6
100
AcDbEntity
8
1
62
256
6
ByLayer
370
18
48
1
60
0
100
AcDbSpline
70
4
71
3
72
13
73
9
40
0
40
0
40
0
40
0
40
0.0855807371880246
40
0.236244576929989
40
0.425948950171691
40
0.655371893894734
40
0.924911832279955
40
1
40
1
40
1
40
1
41
1
10
51.1227007072372
20
-4.88943694042933
30
0
41
1
10
51.2246074620578
20
-4.88931156696367
30
0
41
1
10
51.5075526848529
20
-4.88897030009778
30
0
41
1
10
52.0314704397404
20
-4.8878622108559
30
0
41
1
10
52.730931814347
20
-4.88798798883474
30
0
41
1
10
53.5770557370045
20
-4.88921365507539
30
0
41
1
10
54.2812574046727
20
-4.89089609879881
30
0
41
1
10
54.7030814648615
20
-4.89139097332287
30
0
41
1
10
54.7949546973678
20
-4.89149078254505
30
0
0
SPLINE
5
A7
100
AcDbEntity
8
1
62
256
6
ByLayer
370
18
48
1
60
0
100
AcDbSpline
70
4
71
3
72
18
73
14
40
0
40
0
40
0
40
0
40
0.108228391501004
40
0.221156462022216
40
0.311573027173392
40
0.379493437590751
40
0.434034441852307
40
0.493277422896557
40
0.557740254561061
40
0.688778904849874
40
0.819811371575961
40
0.943922534845838
40
1
40
1
40
1
40
1
41
1
10
4.25043832856937
20
-4.86061197313109
30
0
41
1
10
4.58232579977201
20
-4.86122192312269
30
0
41
1
10
5.26049983083954
20
-4.86220105360809
30
0
41
1
10
6.21591180844845
20
-4.86256449491924
30
0
41
1
10
7.04767312273339
20
-4.86265161645176
30
0
41
1
10
7.7002087785273
20
-4.86266094004992
30
0
41
1
10
8.25690746714724
20
-4.86251020136169
30
0
41
1
10
8.80353276471382
20
-4.86258024260559
30
0
41
1
10
9.5847503147674
20
-4.86277458249933
30
0
41
1
10
10.5855825911415
20
-4.86613075181717
30
0
41
1
10
11.7695246142003
20
-4.86697626316055
30
0
41
1
10
12.7239458204148
20
-4.86685729107526
30
0
41
1
10
13.2764738590397
20
-4.866821262391
30
0
41
1
10
13.4484305602694
20
-4.86679900625771
30
0
0
SPLINE
5
A8
100
AcDbEntity
8
1
62
256
6
ByLayer
370
18
48
1
60
0
100
AcDbSpline
70
4
71
3
72
8
73
4
40
0
40
0
40
0
40
0
40
1
40
1
40
1
40
1
41
1
10
55.4120794463058
20
-5.03929117137417
30
0
41
1
10
55.4044480472017
20
-4.98797030211594
30
0
41
1
10
55.3968291803536
20
-4.9366340535411
30
0
41
1
10
55.3892228118438
20
-4.88528268325729
30
0
0
SPLINE
5
A9
100
AcDbEntity
8
1
62
256
6
ByLayer
370
18
48
1
60
0
100
AcDbSpline
70
4
71
3
72
10
73
6
40
0
40
0
40
0
40
0
40
0.5
40
0.5
40
1
40
1
40
1
40
1
41
1
10
4.1942857831516
20
2.49302131835248
30
0
41
1
10
4.13907394252573
20
2.50402760749631
30
0
41
1
10
4.08978313862272
20
2.53108977822819
30
0
41
1
10
4.01920959549474
20
2.60766139119309
30
0
41
1
10
4.00000032850278
20
2.65488512078431
30
0
41
1
10
4.00000032850278
20
2.70297710562213
30
0
0
SPLINE
5
AA
100
AcDbEntity
8
1
62
256
6
ByLayer
370
13
48
1
60
0
100
AcDbSpline
70
4
71
3
72
26
73
22
40
0
40
0
40
0
40
0
40
0.107144165371145
40
0.107144165371145
40
0.214288330742289
40
0.321432496113434
40
0.321432496113434
40
0.375004578799006
40
0.375004578799006
40
0.428576661484578
40
0.428576661484578
40
0.642864992226867
40
0.642864992226867
40
0.69643707491244
40
0.69643707491244
40
0.750009157598012
40
0.750009157598012
40
0.857153322969156
40
0.9642974883403
40
0.9642974883403
40
1
40
1
40
1
40
1
41
1
10
4.25018436092918
20
2.4443097888458
30
0
41
1
10
4.25019681241398
20
2.60339121518334
30
0
41
1
10
4.25020893229399
20
2.75703648619862
30
0
41
1
10
4.25023230050326
20
3.04938018868614
30
0
41
1
10
4.25025488911092
20
3.32795902454708
30
0
41
1
10
4.25027619327705
20
3.57936795865183
30
0
41
1
10
4.25029177918381
20
3.7574799777185
30
0
41
1
10
4.25029692507158
20
3.81528066800144
30
0
41
1
10
4.25030700694347
20
3.92628518338279
30
0
41
1
10
4.25031194140416
20
3.97948093496268
30
0
41
1
10
4.2503361330416
20
4.23416581511637
30
0
41
1
10
4.25035397257253
20
4.40219676351117
30
0
41
1
10
4.25037493699068
20
4.56705542254917
30
0
41
1
10
4.25037907451886
20
4.59782758036255
30
0
41
1
10
4.2503871469082
20
4.65416900524352
30
0
41
1
10
4.25039108093998
20
4.67974785020951
30
0
41
1
10
4.25040259807284
20
4.74886944552088
30
0
41
1
10
4.25041719778298
20
4.8207711770844
30
0
41
1
10
4.25043042568956
20
4.85267697451116
30
0
41
1
10
4.25043879751712
20
4.86027828004114
30
0
41
1
10
4.25044085461982
20
4.86102114104091
30
0
41
1
10
4.25044287044625
20
4.86061043191086
30
0
0
SPLINE
5
AB
100
AcDbEntity
8
1
62
256
6
ByLayer
370
18
48
1
60
0
100
AcDbSpline
70
4
71
3
72
14
73
10
40
0
40
0
40
0
40
0
40
0.172533455843873
40
0.172533455843873
40
0.410839499422389
40
0.410839499422389
40
0.649145543000904
40
0.649145543000904
40
1
40
1
40
1
40
1
41
1
10
51.2759150757436
20
-4.88973328916435
30
0
41
1
10
50.505658008291
20
-4.88960926136699
30
0
41
1
10
49.7355367368748
20
-4.8808060635894
30
0
41
1
10
47.9015681872473
20
-4.83941623188147
30
0
41
1
10
46.8376659407635
20
-4.7989776302588
30
0
41
1
10
44.7085811166108
20
-4.68570033225822
30
0
41
1
10
43.6434797648264
20
-4.61289152800572
30
0
41
1
10
41.0112792567526
20
-4.39518807842271
30
0
41
1
10
39.4435022232286
20
-4.23216920286495
30
0
41
1
10
37.8757729332541
20
-4.03955824773308
30
0
0
SPLINE
5
AC
100
AcDbEntity
8
1
62
256
6
ByLayer
370
13
48
1
60
0
100
AcDbSpline
70
4
71
3
72
24
73
20
40
0
40
0
40
0
40
0
40
0.0545852685374301
40
0.0545852685374301
40
0.158022327319045
40
0.158022327319045
40
0.261459386100659
40
0.261459386100659
40
0.364896444882274
40
0.364896444882274
40
0.468333503663888
40
0.468333503663888
40
0.675207621227118
40
0.675207621227118
40
0.778644680008732
40
0.778644680008732
40
0.882081738790346
40
0.882081738790346
40
1
40
1
40
1
40
1
41
1
10
37.8757729332467
20
-4.03955824773214
30
0
41
1
10
37.3138478492054
20
-3.9705202270471
30
0
41
1
10
36.751928898961
20
-3.89768039836551
30
0
41
1
10
35.1252531314842
20
-3.6763097415103
30
0
41
1
10
34.060132469458
20
-3.51852073782015
30
0
41
1
10
31.9306211738843
20
-3.1801685538166
30
0
41
1
10
30.8659412320458
20
-2.99978909946392
30
0
41
1
10
28.735753992926
20
-2.62010971907773
30
0
41
1
10
27.6705855478268
20
-2.4206604287474
30
0
41
1
10
25.5410884452287
20
-2.00693009903679
30
0
41
1
10
24.4769547949493
20
-1.7928184959774
30
0
41
1
10
21.2849258240844
20
-1.13503858510396
30
0
41
1
10
19.1570338915513
20
-0.675135235615443
30
0
41
1
10
15.9618610588023
20
0.0189273720758081
30
0
41
1
10
14.897098230334
20
0.250789790765737
30
0
41
1
10
12.7672645575842
20
0.711426806778434
30
0
41
1
10
11.7019981548681
20
0.940013515699604
30
0
41
1
10
9.42374938024011
20
1.42013178140451
30
0
41
1
10
8.21057501972558
20
1.67058527445849
30
0
41
1
10
6.99713968720894
20
1.91255238746098
30
0
0
SPLINE
5
AD
100
AcDbEntity
8
1
62
256
6
ByLayer
370
18
48
1
60
0
100
AcDbSpline
70
4
71
3
72
44
73
40
40
0
40
0
40
0
40
0
40
0.0624999999999974
40
0.0624999999999974
40
0.124999999999995
40
0.124999999999995
40
0.187499999999992
40
0.187499999999992
40
0.24999999999999
40
0.24999999999999
40
0.312499999999987
40
0.312499999999987
40
0.374999999999985
40
0.374999999999985
40
0.437499999999982
40
0.437499999999982
40
0.49999999999998
40
0.49999999999998
40
0.531249999999981
40
0.531249999999981
40
0.562499999999982
40
0.562499999999982
40
0.593749999999984
40
0.593749999999984
40
0.624999999999985
40
0.624999999999985
40
0.687499999999987
40
0.687499999999987
40
0.74999999999999
40
0.74999999999999
40
0.781249999999991
40
0.781249999999991
40
0.812499999999992
40
0.812499999999992
40
0.874999999999995
40
0.874999999999995
40
0.937499999999997
40
0.937499999999997
40
1
40
1
40
1
40
1
41
1
10
55.8712560425783
20
-2.34577594042071
30
0
41
1
10
55.8377543517858
20
-2.3303528606248
30
0
41
1
10
55.8011433568687
20
-2.32242989743173
30
0
41
1
10
55.7227770108723
20
-2.31899294408754
30
0
41
1
10
55.6813606162026
20
-2.32362480225237
30
0
41
1
10
55.5968056160995
20
-2.3434595190455
30
0
41
1
10
55.553335429243
20
-2.35866628644058
30
0
41
1
10
55.4641304987288
20
-2.39912283261316
30
0
41
1
10
55.4184720604488
20
-2.42442893961888
30
0
41
1
10
55.3277239962717
20
-2.48350789210534
30
0
41
1
10
55.2822814196572
20
-2.51742196194326
30
0
41
1
10
55.1912501161271
20
-2.59457758858085
30
0
41
1
10
55.1454717915444
20
-2.63809163091719
30
0
41
1
10
55.05696754313
20
-2.73270545368206
30
0
41
1
10
55.0138632062804
20
-2.78404860246621
30
0
41
1
10
54.9304753533122
20
-2.89665442223202
30
0
41
1
10
54.8903697236514
20
-2.95791405236335
30
0
41
1
10
54.8367347276115
20
-3.05362766823944
30
0
41
1
10
54.8198466785923
20
-3.0862922073895
30
0
41
1
10
54.7883527589374
20
-3.15337276155955
30
0
41
1
10
54.7737530033938
20
-3.18785953466704
30
0
41
1
10
54.7481919704712
20
-3.25637115959438
30
0
41
1
10
54.7370848557777
20
-3.29067798511503
30
0
41
1
10
54.7186205836157
20
-3.35940595226694
30
0
41
1
10
54.7113871044623
20
-3.39355441998694
30
0
41
1
10
54.6966178785917
20
-3.49152788518799
30
0
41
1
10
54.6958489252239
20
-3.55340391605665
30
0
41
1
10
54.7117523170333
20
-3.65885174244497
30
0
41
1
10
54.7283494883306
20
-3.70351654505617
30
0
41
1
10
54.7621477137842
20
-3.75627071106334
30
0
41
1
10
54.775047771442
20
-3.77178008720586
30
0
41
1
10
54.8030038142675
20
-3.79825608211388
30
0
41
1
10
54.8180669213882
20
-3.8092976912325
30
0
41
1
10
54.8660776970496
20
-3.83671144040866
30
0
41
1
10
54.9022379853717
20
-3.8474475024793
30
0
41
1
10
54.9786484755263
20
-3.85567901898054
30
0
41
1
10
55.018804351171
20
-3.85333749679222
30
0
41
1
10
55.1024507792767
20
-3.83761548703023
30
0
41
1
10
55.1462841089656
20
-3.8240323513092
30
0
41
1
10
55.1905410755282
20
-3.80557389815408
30
0
0
SPLINE
5
AE
100
AcDbEntity
8
1
62
256
6
ByLayer
370
18
48
1
60
0
100
AcDbSpline
70
4
71
3
72
8
73
4
40
0
40
0
40
0
40
0
40
1
40
1
40
1
40
1
41
1
10
55.4589674902356
20
3.89775276154575
30
0
41
1
10
55.4953564842998
20
4.20939142120571
30
0
41
1
10
55.5369648006723
20
4.5166225808106
30
0
41
1
10
55.5830290804375
20
4.8200908651348
30
0
0
SPLINE
5
AF
100
AcDbEntity
8
1
62
256
6
ByLayer
370
18
48
1
60
0
100
AcDbSpline
70
4
71
3
72
14
73
10
40
0
40
0
40
0
40
0
40
0.0777551661089816
40
0.0777551661089816
40
0.538640076098073
40
0.538640076098073
40
0.999524986087163
40
0.999524986087163
40
1
40
1
40
1
40
1
41
1
10
26.2907962372503
20
-2.98587567217899
30
0
41
1
10
26.1858244781928
20
-3.02503164488746
30
0
41
1
10
26.0808055143555
20
-3.06397969399319
30
0
41
1
10
25.3529990301365
20
-3.33228828694189
30
0
41
1
10
24.7290774500608
20
-3.55410055728828
30
0
41
1
10
23.47799362599
20
-3.98051598869844
30
0
41
1
10
22.8503836327031
20
-4.18524978693074
30
0
41
1
10
22.2219065627408
20
-4.38074768929354
30
0
41
1
10
22.2212594853521
20
-4.38094896305432
30
0
41
1
10
22.2206124074805
20
-4.38115022689561
30
0
0
SPLINE
5
B0
100
AcDbEntity
8
1
62
256
6
ByLayer
370
18
48
1
60
0
100
AcDbSpline
70
4
71
3
72
32
73
28
40
0
40
0
40
0
40
0
40
0.0057701019835356
40
0.0057701019835356
40
0.0767865232704268
40
0.0767865232704268
40
0.147802944557318
40
0.147802944557318
40
0.218819365844209
40
0.218819365844209
40
0.2898357871311
40
0.2898357871311
40
0.360852208417991
40
0.360852208417991
40
0.431868629704883
40
0.431868629704883
40
0.573901472278664
40
0.573901472278664
40
0.644917893565553
40
0.644917893565553
40
0.715934314852443
40
0.715934314852443
40
0.857967157426222
40
0.857967157426222
40
0.928983578713111
40
0.928983578713111
40
1
40
1
40
1
40
1
41
1
10
29.2427390375203
20
3.51607644483286
30
0
41
1
10
29.2935078689373
20
3.52451190653969
30
0
41
1
10
29.3442759120511
20
3.53292187986207
30
0
41
1
10
30.0198681280416
20
3.64450377986824
30
0
41
1
10
30.6445715494305
20
3.74380155868943
30
0
41
1
10
31.8935389237148
20
3.93495635344556
30
0
41
1
10
32.517610344074
20
4.02729271567577
30
0
41
1
10
33.766589029373
20
4.20070595934331
30
0
41
1
10
34.3916057851849
20
4.28158740094676
30
0
41
1
10
35.6422510817912
20
4.43315729409781
30
0
41
1
10
36.2679160784806
20
4.50377878570222
30
0
41
1
10
37.5174789629465
20
4.63484986238498
30
0
41
1
10
38.1416630027231
20
4.6953262284045
30
0
41
1
10
39.3886035834492
20
4.80615506622004
30
0
41
1
10
40.0114241324456
20
4.85626598236504
30
0
41
1
10
41.880387846414
20
4.98722441167004
30
0
41
1
10
43.1261041112414
20
5.05077360720671
30
0
41
1
10
44.9930576735304
20
5.11216121470881
30
0
41
1
10
45.6150348528886
20
5.12691032108356
30
0
41
1
10
46.858623551829
20
5.14433353130713
30
0
41
1
10
47.4806231291207
20
5.14690196239144
30
0
41
1
10
49.3478264268221
20
5.13691797002616
30
0
41
1
10
50.5937129238181
20
5.10702261384503
30
0
41
1
10
52.4630905301038
20
5.02602720502688
30
0
41
1
10
53.0861365067819
20
4.99267482714774
30
0
41
1
10
54.3334855346505
20
4.91449435256988
30
0
41
1
10
54.9579617087316
20
4.87001934888386
30
0
41
1
10
55.5830290804504
20
4.8200908651342
30
0
0
SPLINE
5
B1
100
AcDbEntity
8
1
62
256
6
ByLayer
370
18
48
1
60
0
100
AcDbSpline
70
4
71
3
72
8
73
4
40
0
40
0
40
0
40
0
40
1
40
1
40
1
40
1
41
1
10
55.4718207862974
20
3.82057036801211
30
0
41
1
10
55.4605743725727
20
3.8447436557725
30
0
41
1
10
55.4558943082216
20
3.87143375085705
30
0
41
1
10
55.4589674902356
20
3.89775276154572
30
0
0
SPLINE
5
B2
100
AcDbEntity
8
1
62
256
6
ByLayer
370
18
48
1
60
0
100
AcDbSpline
70
4
71
3
72
26
73
22
40
0
40
0
40
0
40
0
40
0.170984193729545
40
0.170984193729545
40
0.256476290594318
40
0.256476290594318
40
0.341968387459091
40
0.341968387459091
40
0.427460484323864
40
0.427460484323864
40
0.512952581188637
40
0.512952581188637
40
0.598444678053409
40
0.598444678053409
40
0.683936774918182
40
0.683936774918182
40
0.854920968647728
40
0.854920968647728
40
0.9404130655125
40
0.9404130655125
40
1
40
1
40
1
40
1
41
1
10
25.6455140856474
20
-2.87178539690973
30
0
41
1
10
26.8952258402352
20
-3.11325987427588
30
0
41
1
10
28.1453930488682
20
-3.33491245258847
30
0
41
1
10
30.0198681280416
20
-3.64450377986824
30
0
41
1
10
30.6445715494305
20
-3.74380155868943
30
0
41
1
10
31.8935389237148
20
-3.93495635344556
30
0
41
1
10
32.5176103440741
20
-4.02729271567577
30
0
41
1
10
33.766589029373
20
-4.20070595934331
30
0
41
1
10
34.391605785185
20
-4.28158740094676
30
0
41
1
10
35.6422510817913
20
-4.43315729409781
30
0
41
1
10
36.2679160784807
20
-4.50377878570225
30
0
41
1
10
37.5174789629465
20
-4.63484986238498
30
0
41
1
10
38.1416630027232
20
-4.69532622840453
30
0
41
1
10
39.3886035834493
20
-4.80615506622004
30
0
41
1
10
40.0114241324459
20
-4.85626598236507
30
0
41
1
10
41.8803878464143
20
-4.98722441167004
30
0
41
1
10
43.1261041112416
20
-5.05077360720671
30
0
41
1
10
44.9930576735307
20
-5.11216121470881
30
0
41
1
10
45.6150348528888
20
-5.12691032108356
30
0
41
1
10
46.670212176053
20
-5.14169380724766
30
0
41
1
10
47.1036948477323
20
-5.14478138494837
30
0
41
1
10
47.5373436807912
20
-5.14496820506295
30
0
0
SPLINE
5
B3
100
AcDbEntity
8
1
62
256
6
ByLayer
370
18
48
1
60
0
100
AcDbSpline
70
4
71
3
72
14
73
10
40
0
40
0
40
0
40
0
40
0.0563838336103729
40
0.0563838336103729
40
0.528191916805183
40
0.528191916805183
40
0.764095958402592
40
0.764095958402592
40
1
40
1
40
1
40
1
41
1
10
29.2838678415614
20
-3.50715704159623
30
0
41
1
10
29.1511022685367
20
-3.52717270070176
30
0
41
1
10
29.0183441097684
20
-3.54705208487121
30
0
41
1
10
27.7747865578981
20
-3.73208681306952
30
0
41
1
10
26.6645516931864
20
-3.88545051081294
30
0
41
1
10
24.9986247068919
20
-4.08977638770421
30
0
41
1
10
24.4431666603841
20
-4.15318549228328
30
0
41
1
10
23.3320064208756
20
-4.27233677725948
30
0
41
1
10
22.7763502264207
20
-4.3286207419518
30
0
41
1
10
22.2206124074996
20
-4.38115022688967
30
0
0
SPLINE
5
B4
100
AcDbEntity
8
1
62
256
6
ByLayer
370
18
48
1
60
0
100
AcDbSpline
70
4
71
3
72
8
73
4
40
0
40
0
40
0
40
0
40
1
40
1
40
1
40
1
41
1
10
55.3505426350622
20
-4.80945132841882
30
0
41
1
10
55.3362562480454
20
-4.82070853621644
30
0
41
1
10
55.3218533787455
20
-4.83079903471557
30
0
41
1
10
55.3073355142198
20
-4.83973771857231
30
0
0
SPLINE
5
B5
100
AcDbEntity
8
1
62
256
6
ByLayer
370
18
48
1
60
0
100
AcDbSpline
70
4
71
3
72
54
73
50
40
0
40
0
40
0
40
0
40
0.24999999999999
40
0.24999999999999
40
0.312499999999988
40
0.312499999999988
40
0.374999999999986
40
0.374999999999986
40
0.437499999999985
40
0.437499999999985
40
0.499999999999983
40
0.499999999999983
40
0.562499999999981
40
0.562499999999981
40
0.593749999999979
40
0.593749999999979
40
0.624999999999976
40
0.624999999999976
40
0.640624999999977
40
0.640624999999977
40
0.656249999999977
40
0.656249999999977
40
0.671874999999977
40
0.671874999999977
40
0.687499999999977
40
0.687499999999977
40
0.703124999999977
40
0.703124999999977
40
0.718749999999977
40
0.718749999999977
40
0.734374999999977
40
0.734374999999977
40
0.749999999999977
40
0.749999999999977
40
0.78124999999998
40
0.78124999999998
40
0.812499999999982
40
0.812499999999982
40
0.828124999999984
40
0.828124999999984
40
0.843749999999985
40
0.843749999999985
40
0.874999999999987
40
0.874999999999987
40
0.937499999999995
40
0.937499999999995
40
0.968749999999997
40
0.968749999999997
40
1
40
1
40
1
40
1
41
1
10
48.8764359645
20
-0.347640994515899
30
0
41
1
10
49.6697627457862
20
-0.580404624503927
30
0
41
1
10
50.4644466878767
20
-0.796389624127556
30
0
41
1
10
51.4586893737367
20
-1.03679728186114
30
0
41
1
10
51.6575786570365
20
-1.0838229186075
30
0
41
1
10
52.0554178660113
20
-1.17309416293261
30
0
41
1
10
52.2544721863704
20
-1.21301808724715
30
0
41
1
10
52.651362854464
20
-1.28020298234134
30
0
41
1
10
52.8492425382203
20
-1.30754156852979
30
0
41
1
10
53.2434276880935
20
-1.34481410233673
30
0
41
1
10
53.4401744106915
20
-1.35467979878757
30
0
41
1
10
53.8288704471047
20
-1.35288504521435
30
0
41
1
10
54.0218066985114
20
-1.34170031081939
30
0
41
1
10
54.3018259736246
20
-1.2998225547442
30
0
41
1
10
54.3935874049854
20
-1.28165038364713
30
0
41
1
10
54.5725685160545
20
-1.23318305804517
30
0
41
1
10
54.6604310554206
20
-1.20271847877723
30
0
41
1
10
54.7838070436137
20
-1.1434650933904
30
0
41
1
10
54.8235254389932
20
-1.12144550888479
30
0
41
1
10
54.8991875649823
20
-1.0713202967479
30
0
41
1
10
54.9350531517321
20
-1.0431772190575
30
0
41
1
10
54.9994751928238
20
-0.980537288315588
30
0
41
1
10
55.0283060009071
20
-0.945899379470603
30
0
41
1
10
55.0771081713117
20
-0.8679273213599
30
0
41
1
10
55.0969787442226
20
-0.824294562930191
30
0
41
1
10
55.1232564189
20
-0.731808635033133
30
0
41
1
10
55.1299562625552
20
-0.681544997632187
30
0
41
1
10
55.1289833004373
20
-0.579349290669285
30
0
41
1
10
55.1214925270684
20
-0.526852165491732
30
0
41
1
10
55.094527391212
20
-0.422047040589518
30
0
41
1
10
55.0755197890999
20
-0.370927195439037
30
0
41
1
10
55.0292037631458
20
-0.270614662018659
30
0
41
1
10
55.0016850411131
20
-0.22121872603509
30
0
41
1
10
54.9120680301551
20
-0.0795673902523504
30
0
41
1
10
54.8424267471417
20
0.0079561005886433
30
0
41
1
10
54.6924833556054
20
0.175558702231086
30
0
41
1
10
54.6127122900186
20
0.254786874979914
30
0
41
1
10
54.4893741412557
20
0.368820081497091
30
0
41
1
10
54.4476345664393
20
0.406051078527639
30
0
41
1
10
54.36324798419
20
0.479237741636552
30
0
41
1
10
54.3207046221028
20
0.515346468499843
30
0
41
1
10
54.1949406162479
20
0.626210135474565
30
0
41
1
10
54.1123447058592
20
0.701906624270919
30
0
41
1
10
53.8695473767771
20
0.933892651454528
30
0
41
1
10
53.7140025409666
20
1.09509339231261
30
0
41
1
10
53.4936494178733
20
1.35031676317803
30
0
41
1
10
53.4221926474864
20
1.43789406493025
30
0
41
1
10
53.2860913006378
20
1.61597572915733
30
0
41
1
10
53.2212060636071
20
1.70663104807122
30
0
41
1
10
53.1589464291547
20
1.79862551905728
30
0
0
SPLINE
5
B6
100
AcDbEntity
8
1
62
256
6
ByLayer
370
18
48
1
60
0
100
AcDbSpline
70
4
71
3
72
14
73
10
40
0
40
0
40
0
40
0
40
0.250000000000007
40
0.250000000000007
40
0.375000000000007
40
0.375000000000007
40
0.500000000000007
40
0.500000000000007
40
1
40
1
40
1
40
1
41
1
10
56.542158129096
20
1.54330713630853
30
0
41
1
10
56.4567123849353
20
1.73332054608184
30
0
41
1
10
56.3696665007348
20
1.92331987575875
30
0
41
1
10
56.2364953125072
20
2.20829597133661
30
0
41
1
10
56.1916349244902
20
2.30332030024488
30
0
41
1
10
56.1014241503503
20
2.49279759663662
30
0
41
1
10
56.055948122359
20
2.587252788748
30
0
41
1
10
55.8287710626197
20
3.05968405952561
30
0
41
1
10
55.6492063564665
20
3.43929394183652
30
0
41
1
10
55.4718207862973
20
3.82057036801206
30
0
0
SPLINE
5
B7
100
AcDbEntity
8
1
62
256
6
ByLayer
370
18
48
1
60
0
100
AcDbSpline
70
4
71
3
72
10
73
6
40
0
40
0
40
0
40
0
40
0.5
40
0.5
40
1
40
1
40
1
40
1
41
1
10
55.0306972115245
20
-4.14836017071141
30
0
41
1
10
55.0243540901039
20
-4.16196303849537
30
0
41
1
10
55.02119378173
20
-4.1764171060706
30
0
41
1
10
55.0213024487742
20
-4.2002444570372
30
0
41
1
10
55.0239802909732
20
-4.20997826676455
30
0
41
1
10
55.0276910167043
20
-4.21822538702372
30
0
0
SPLINE
5
B8
100
AcDbEntity
8
1
62
256
6
ByLayer
370
18
48
1
60
0
100
AcDbSpline
70
4
71
3
72
28
73
24
40
0
40
0
40
0
40
0
40
0.0624999999999999
40
0.0624999999999999
40
0.125
40
0.125
40
0.249999999999998
40
0.249999999999998
40
0.374999999999997
40
0.374999999999997
40
0.499999999999995
40
0.499999999999995
40
0.562499999999995
40
0.562499999999995
40
0.624999999999995
40
0.624999999999995
40
0.749999999999996
40
0.749999999999996
40
0.812499999999997
40
0.812499999999997
40
0.874999999999997
40
0.874999999999997
40
1
40
1
40
1
40
1
41
1
10
22.2206124074993
20
4.38115022688979
30
0
41
1
10
22.7765868752001
20
4.3285983734211
30
0
41
1
10
23.3324357431
20
4.27229331403387
30
0
41
1
10
24.4439045389773
20
4.15310379220946
30
0
41
1
10
24.9994733634014
20
4.08967709162488
30
0
41
1
10
26.665573373556
20
3.88531560680411
30
0
41
1
10
27.7757241357098
20
3.73195193911627
30
0
41
1
10
29.996833766321
20
3.40145340964315
30
0
41
1
10
31.1086888322203
20
3.22721680357606
30
0
41
1
10
33.3319027767209
20
2.85002711900807
30
0
41
1
10
34.442513954022
20
2.64864056288005
30
0
41
1
10
36.1080254001426
20
2.33348275880042
30
0
41
1
10
36.6631998984099
20
2.22622349634762
30
0
41
1
10
37.7738972009485
20
2.00919482388247
30
0
41
1
10
38.3293758673167
20
1.89968204540315
30
0
41
1
10
39.9958685507707
20
1.56369744064295
30
0
41
1
10
41.1076915165195
20
1.33109710361862
30
0
41
1
10
42.7737853458583
20
0.975076218566642
30
0
41
1
10
43.3288977597717
20
0.85548727365375
30
0
41
1
10
44.4391855525966
20
0.617052596210925
30
0
41
1
10
44.9943163228288
20
0.497962462389097
30
0
41
1
10
46.6587781032241
20
0.137424412890141
30
0
41
1
10
47.7677172262005
20
-0.105112616013116
30
0
41
1
10
48.8764359645
20
-0.347640994515899
30
0
0
SPLINE
5
B9
100
AcDbEntity
8
1
62
256
6
ByLayer
370
18
48
1
60
0
100
AcDbSpline
70
4
71
3
72
30
73
26
40
0
40
0
40
0
40
0
40
0.124999999999996
40
0.124999999999996
40
0.187499999999994
40
0.187499999999994
40
0.249999999999992
40
0.249999999999992
40
0.374999999999987
40
0.374999999999987
40
0.43749999999999
40
0.43749999999999
40
0.499999999999992
40
0.499999999999992
40
0.624999999999996
40
0.624999999999996
40
0.750000000000001
40
0.750000000000001
40
0.812500000000001
40
0.812500000000001
40
0.875000000000001
40
0.875000000000001
40
0.9375
40
0.9375
40
1
40
1
40
1
40
1
41
1
10
55.1905410755282
20
-3.80557389815411
30
0
41
1
10
55.2163202813349
20
-3.77662972694674
30
0
41
1
10
55.2457025901981
20
-3.73749126714523
30
0
41
1
10
55.294558146201
20
-3.66525356389963
30
0
41
1
10
55.3117319132803
20
-3.63873878586333
30
0
41
1
10
55.346721837056
20
-3.58265424553164
30
0
41
1
10
55.3646451781581
20
-3.55293416205868
30
0
41
1
10
55.4196749638123
20
-3.45883985797565
30
0
41
1
10
55.4583367569283
20
-3.38893104325058
30
0
41
1
10
55.5157231780915
20
-3.27968510468338
30
0
41
1
10
55.5348735317368
20
-3.24232920657664
30
0
41
1
10
55.573219623802
20
-3.16563620370724
30
0
41
1
10
55.5925043270996
20
-3.12609711038345
30
0
41
1
10
55.6485204497833
20
-3.00824483283085
30
0
41
1
10
55.6841006447341
20
-2.92942973863535
30
0
41
1
10
55.7507934426574
20
-2.77195229291831
30
0
41
1
10
55.7799245975543
20
-2.69798503703407
30
0
41
1
10
55.8165940872996
20
-2.59498867623643
30
0
41
1
10
55.8274939516971
20
-2.56231319599752
30
0
41
1
10
55.8457319812548
20
-2.50293666651018
30
0
41
1
10
55.853216096797
20
-2.47583503435681
30
0
41
1
10
55.864742308021
20
-2.4270775128505
30
0
41
1
10
55.8686689757618
20
-2.40581102703365
30
0
41
1
10
55.872729252255
20
-2.37062700101754
30
0
41
1
10
55.8729223010394
20
-2.35646548034123
30
0
41
1
10
55.8712560425783
20
-2.34577594042068
30
0
0
SPLINE
5
BA
100
AcDbEntity
8
1
62
256
6
ByLayer
370
18
48
1
60
0
100
AcDbSpline
70
4
71
3
72
32
73
28
40
0
40
0
40
0
40
0
40
0.0625000000000009
40
0.0625000000000009
40
0.0937500000000013
40
0.0937500000000013
40
0.125000000000002
40
0.125000000000002
40
0.187500000000002
40
0.187500000000002
40
0.250000000000002
40
0.250000000000002
40
0.312500000000001
40
0.312500000000001
40
0.375000000000001
40
0.375000000000001
40
0.500000000000001
40
0.500000000000001
40
0.562500000000001
40
0.562500000000001
40
0.625000000000001
40
0.625000000000001
40
0.750000000000001
40
0.750000000000001
40
0.875
40
0.875
40
1
40
1
40
1
40
1
41
1
10
4.25049649505627
20
-3.53225337741606
30
0
41
1
10
4.57925327574696
20
-3.6881426000042
30
0
41
1
10
4.92055275379391
20
-3.8168760200893
30
0
41
1
10
5.44405025673319
20
-3.98539997337724
30
0
41
1
10
5.6205443103261
20
-4.03732293763747
30
0
41
1
10
5.97686473414731
20
-4.13413172285422
30
0
41
1
10
6.15696866750724
20
-4.1790718282829
30
0
41
1
10
6.69919142259101
20
-4.30438255700525
30
0
41
1
10
7.06312500501255
20
-4.37539986620843
30
0
41
1
10
7.79470307313537
20
-4.49921233553724
30
0
41
1
10
8.16236104837807
20
-4.55192760982524
30
0
41
1
10
8.90073149821373
20
-4.64291979300248
30
0
41
1
10
9.2714616229174
20
-4.68105958327979
30
0
41
1
10
10.0154348773787
20
-4.74643244978523
30
0
41
1
10
10.3886850228313
20
-4.77362051047845
30
0
41
1
10
11.5121856619144
20
-4.83806807440175
30
0
41
1
10
12.2660357929562
20
-4.85936110780102
30
0
41
1
10
13.4028691781485
20
-4.86806270021833
30
0
41
1
10
13.782833806784
20
-4.86703400972974
30
0
41
1
10
14.5447013784018
20
-4.85811540508649
30
0
41
1
10
14.9268040292098
20
-4.8501966600526
30
0
41
1
10
16.0733491043094
20
-4.81725307814597
30
0
41
1
10
16.8387630005857
20
-4.78504507566771
30
0
41
1
10
18.3717972549394
20
-4.69774490172861
30
0
41
1
10
19.1394512681922
20
-4.6433177742631
30
0
41
1
10
20.6777041141109
20
-4.52135522135853
30
0
41
1
10
21.4483055410634
20
-4.45392321138135
30
0
41
1
10
22.2206123014569
20
-4.38115023691307
30
0
0
SPLINE
5
BB
100
AcDbEntity
8
1
62
256
6
ByLayer
370
18
48
1
60
0
100
AcDbSpline
70
4
71
3
72
10
73
6
40
0
40
0
40
0
40
0
40
0.5
40
0.5
40
1
40
1
40
1
40
1
41
1
10
53.1871304320435
20
1.83140507059034
30
0
41
1
10
53.7462433098309
20
1.78779875284889
30
0
41
1
10
54.3053708620889
20
1.74308440629554
30
0
41
1
10
55.4237117388848
20
1.64717928483222
30
0
41
1
10
55.9829193424716
20
1.59642048316317
30
0
41
1
10
56.542158129096
20
1.54330713630853
30
0
0
SPLINE
5
BC
100
AcDbEntity
8
1
62
256
6
ByLayer
370
18
48
1
60
0
100
AcDbSpline
70
4
71
3
72
20
73
16
40
0
40
0
40
0
40
0
40
0.0624999999999993
40
0.0624999999999993
40
0.124999999999999
40
0.124999999999999
40
0.249999999999997
40
0.249999999999997
40
0.5
40
0.5
40
0.624999999999998
40
0.624999999999998
40
0.749999999999997
40
0.749999999999997
40
1
40
1
40
1
40
1
41
1
10
48.8764359644998
20
-0.347640994516183
30
0
41
1
10
48.9538431899821
20
-0.430331515079018
30
0
41
1
10
49.0336359041272
20
-0.511594187126775
30
0
41
1
10
49.1953140480335
20
-0.669444306055055
30
0
41
1
10
49.277421375637
20
-0.746280580367738
30
0
41
1
10
49.5270690201537
20
-0.971312122137107
30
0
41
1
10
49.6979123914118
20
-1.11406734218045
30
0
41
1
10
50.22101241045
20
-1.5249246342415
30
0
41
1
10
50.5836765287475
20
-1.77588586413117
30
0
41
1
10
51.1432945328253
20
-2.1265989534916
30
0
41
1
10
51.3320160433804
20
-2.23882043940344
30
0
41
1
10
51.7114063308789
20
-2.4538037080427
30
0
41
1
10
51.90238677132
20
-2.55675128470563
30
0
41
1
10
52.4787285602416
20
-2.85357194934079
30
0
41
1
10
52.8674546088321
20
-3.03554942488705
30
0
41
1
10
53.2599709905415
20
-3.2041264985335
30
0
0
SPLINE
5
BD
100
AcDbEntity
8
1
62
256
6
ByLayer
370
18
48
1
60
0
100
AcDbSpline
70
4
71
3
72
24
73
20
40
0
40
0
40
0
40
0
40
0.249999999999992
40
0.249999999999992
40
0.374999999999988
40
0.374999999999988
40
0.437499999999988
40
0.437499999999988
40
0.499999999999988
40
0.499999999999988
40
0.624999999999991
40
0.624999999999991
40
0.687499999999993
40
0.687499999999993
40
0.749999999999994
40
0.749999999999994
40
0.874999999999997
40
0.874999999999997
40
1
40
1
40
1
40
1
41
1
10
55.3073355142197
20
-4.83973771857231
30
0
41
1
10
55.050281803838
20
-4.89339930302285
30
0
41
1
10
54.8068724022171
20
-4.90686743151895
30
0
41
1
10
54.4647058818088
20
-4.85947055101798
30
0
41
1
10
54.3545098189607
20
-4.83230242636478
30
0
41
1
10
54.1957875665634
20
-4.77219088292611
30
0
41
1
10
54.1438700785307
20
-4.74882889503667
30
0
41
1
10
54.0439014850097
20
-4.69594224272677
30
0
41
1
10
53.9956710555508
20
-4.66636753913841
30
0
41
1
10
53.8563916186014
20
-4.56798103862903
30
0
41
1
10
53.7707238091317
20
-4.48956158095163
30
0
41
1
10
53.654076807151
20
-4.35076683744106
30
0
41
1
10
53.617177225187
20
-4.30096189174233
30
0
41
1
10
53.5476293633949
20
-4.19376167035907
30
0
41
1
10
53.5152021288102
20
-4.13664738792446
30
0
41
1
10
53.4262057026024
20
-3.95661490873869
30
0
41
1
10
53.3773873702483
20
-3.82430903617802
30
0
41
1
10
53.3016773549076
20
-3.5340755317481
30
0
41
1
10
53.2747457018743
20
-3.37587183758672
30
0
41
1
10
53.2599709905413
20
-3.20412649853347
30
0
0
SPLINE
5
BE
100
AcDbEntity
8
1
62
256
6
ByLayer
370
18
48
1
60
0
100
AcDbSpline
70
4
71
3
72
18
73
14
40
0
40
0
40
0
40
0
40
0.24999999999999
40
0.24999999999999
40
0.49999999999998
40
0.49999999999998
40
0.624999999999985
40
0.624999999999985
40
0.74999999999999
40
0.74999999999999
40
0.874999999999995
40
0.874999999999995
40
1
40
1
40
1
40
1
41
1
10
4.00000032850258
20
-3.85005719672404
30
0
41
1
10
4.00000032850261
20
-3.80953080693803
30
0
41
1
10
4.00347298034876
20
-3.76937098667733
30
0
41
1
10
4.01921482791275
20
-3.68996405457665
30
0
41
1
10
4.03156602127495
20
-3.6498406458706
30
0
41
1
10
4.0613631927711
20
-3.59484322369229
30
0
41
1
10
4.07325244942368
20
-3.5774210223137
30
0
41
1
10
4.10164991737102
20
-3.54738764665771
30
0
41
1
10
4.11847714753543
20
-3.53465186909491
30
0
41
1
10
4.15584479292104
20
-3.51851601619279
30
0
41
1
10
4.17587021031159
20
-3.51544743455526
30
0
41
1
10
4.21453946208121
20
-3.51832852325239
30
0
41
1
10
4.23316198155916
20
-3.52403373301874
30
0
41
1
10
4.25049649727373
20
-3.53225337846652
30
0
0
SPLINE
5
BF
100
AcDbEntity
8
1
62
256
6
ByLayer
370
18
48
1
60
0
100
AcDbSpline
70
4
71
3
72
8
73
4
40
0
40
0
40
0
40
0
40
1
40
1
40
1
40
1
41
1
10
55.4120794463057
20
5.03929117137417
30
0
41
1
10
53.8616411035724
20
5.11185346291842
30
0
41
1
10
52.3114959172093
20
5.14787468101503
30
0
41
1
10
50.761249175517
20
5.14693653529838
30
0
0
SPLINE
5
C0
100
AcDbEntity
8
1
62
256
6
ByLayer
370
18
48
1
60
0
100
AcDbSpline
70
4
71
3
72
30
73
26
40
0
40
0
40
0
40
0
40
0.125
40
0.125
40
0.250000000000001
40
0.250000000000001
40
0.312500000000001
40
0.312500000000001
40
0.375000000000001
40
0.375000000000001
40
0.437500000000001
40
0.437500000000001
40
0.500000000000001
40
0.500000000000001
40
0.625000000000002
40
0.625000000000002
40
0.687500000000002
40
0.687500000000002
40
0.750000000000001
40
0.750000000000001
40
0.875000000000001
40
0.875000000000001
40
0.9375
40
0.9375
40
1
40
1
40
1
40
1
41
1
10
55.4120794463058
20
-5.03929117137417
30
0
41
1
10
53.2780221749881
20
-5.13916749771715
30
0
41
1
10
51.1445202993231
20
-5.16981540055764
30
0
41
1
10
46.8765687737256
20
-5.0904728223093
30
0
41
1
10
44.7427019579097
20
-4.9805430832179
30
0
41
1
10
41.5418480026411
20
-4.71684233532443
30
0
41
1
10
40.4751161962414
20
-4.61265153860487
30
0
41
1
10
38.3410328249564
20
-4.37374226472022
30
0
41
1
10
37.273925212447
20
-4.23886805375446
30
0
41
1
10
35.140177759712
20
-3.94145838822385
30
0
41
1
10
34.0730112693633
20
-3.77893920805889
30
0
41
1
10
31.938905045691
20
-3.42919883161991
30
0
41
1
10
30.8721424621565
20
-3.24212583312484
30
0
41
1
10
27.6709542723067
20
-2.65029970998702
30
0
41
1
10
25.5369526602616
20
-2.21395421977684
30
0
41
1
10
22.3353906070996
20
-1.52421650242604
30
0
41
1
10
21.2685441833366
20
-1.28841091569004
30
0
41
1
10
19.1344085855891
20
-0.8097528708916
30
0
41
1
10
18.0670313900337
20
-0.566930059270845
30
0
41
1
10
14.8659688356269
20
0.164510250304659
30
0
41
1
10
12.7315236594243
20
0.656212126560945
30
0
41
1
10
9.53025561128672
20
1.3698342646432
30
0
41
1
10
8.46276819280962
20
1.60372602606645
30
0
41
1
10
6.32859663547654
20
2.05902384906989
30
0
41
1
10
5.26163489029372
20
2.28024897174268
30
0
41
1
10
4.19428578315103
20
2.49302131835259
30
0
0
SPLINE
5
C1
100
AcDbEntity
8
1
62
256
6
ByLayer
370
18
48
1
60
0
100
AcDbSpline
70
4
71
3
72
61
73
57
40
0
40
0
40
0
40
0
40
0.250000000000002
40
0.250000000000002
40
0.312500000000003
40
0.312500000000003
40
0.375000000000004
40
0.375000000000004
40
0.437500000000005
40
0.437500000000005
40
0.468750000000006
40
0.468750000000006
40
0.500000000000006
40
0.500000000000006
40
0.625000000000008
40
0.625000000000008
40
0.750000000000009
40
0.750000000000009
40
0.81250000000001
40
0.81250000000001
40
0.843750000000011
40
0.859375000000011
40
0.859375000000011
40
0.867187500000011
40
0.867187500000011
40
0.871093750000011
40
0.871093750000011
40
0.875000000000011
40
0.875000000000011
40
0.87890625000001
40
0.87890625000001
40
0.88281250000001
40
0.88281250000001
40
0.88671875000001
40
0.88671875000001
40
0.88867187500001
40
0.88867187500001
40
0.890625000000009
40
0.890625000000009
40
0.892578125000009
40
0.892578125000009
40
0.894531250000009
40
0.894531250000009
40
0.898437500000009
40
0.898437500000009
40
0.906250000000008
40
0.906250000000008
40
0.921875000000007
40
0.921875000000007
40
0.937500000000005
40
0.937500000000005
40
0.953125000000004
40
0.953125000000004
40
0.968750000000002
40
0.968750000000002
40
1
40
1
40
1
40
1
41
1
10
25.6454971950576
20
-2.87179076118034
30
0
41
1
10
23.467991696115
20
-2.45319135907587
30
0
41
1
10
21.2749887529752
20
-2.06377033258758
30
0
41
1
10
18.5004294273465
20
-1.72553806623898
30
0
41
1
10
17.9433205489113
20
-1.66529175450202
30
0
41
1
10
16.8292335096542
20
-1.56265123750225
30
0
41
1
10
16.2720598403681
20
-1.52021405248698
30
0
41
1
10
15.1574270845711
20
-1.45529246533297
30
0
41
1
10
14.599968146657
20
-1.43279950036981
30
0
41
1
10
13.7635456266767
20
-1.41562429102029
30
0
41
1
10
13.4846914880527
20
-1.41319746586254
30
0
41
1
10
12.926944399094
20
-1.41109308010567
30
0
41
1
10
12.6480529156429
20
-1.41131111176225
30
0
41
1
10
11.2535063523669
20
-1.41871267342481
30
0
41
1
10
10.1375842001712
20
-1.44483660897944
30
0
41
1
10
7.90517788179792
20
-1.53639810403098
30
0
41
1
10
6.78859734015325
20
-1.60187851700644
30
0
41
1
10
5.11736357984407
20
-1.72817747401348
30
0
41
1
10
4.56072370451537
20
-1.77495889958612
30
0
41
1
10
3.72642449245731
20
-1.85195477595587
30
0
41
1
10
3.30944007361245
20
-1.89215825403809
30
0
41
1
10
2.89270441957675
20
-1.93487870434956
30
0
41
1
10
2.68437815138949
20
-1.95665474064197
30
0
41
1
10
2.61494845019112
20
-1.96398215407402
30
0
41
1
10
2.51082647704217
20
-1.97507542680097
30
0
41
1
10
2.47612270290739
20
-1.97879023195361
30
0
41
1
10
2.40672225973842
20
-1.98625384720742
30
0
41
1
10
2.37194389640715
20
-1.98956849197819
30
0
41
1
10
2.30285376980828
20
-1.99867387904956
30
0
41
1
10
2.2685586277949
20
-2.00455289404815
30
0
41
1
10
2.20064577437586
20
-2.01989138124841
30
0
41
1
10
2.1670112571604
20
-2.02926297515859
30
0
41
1
10
2.10092606456001
20
-2.05423380112569
30
0
41
1
10
2.0678411898424
20
-2.06983651746998
30
0
41
1
10
2.02757255557816
20
-2.10223548624933
30
0
41
1
10
2.01536917851445
20
-2.11495580883025
30
0
41
1
10
2.00006172347892
20
-2.14484427545281
30
0
41
1
10
1.99798603886316
20
-2.16231551653928
30
0
41
1
10
2.00710590957849
20
-2.19368618435627
30
0
41
1
10
2.01295771030809
20
-2.20899039603586
30
0
41
1
10
2.02414222726114
20
-2.23966436291906
30
0
41
1
10
2.02997948365322
20
-2.2549076722035
30
0
41
1
10
2.04815187443714
20
-2.30022721761145
30
0
41
1
10
2.06115847945026
20
-2.32992739295551
30
0
41
1
10
2.10267657396653
20
-2.41759195197233
30
0
41
1
10
2.13368060488742
20
-2.47412367946413
30
0
41
1
10
2.23550082448682
20
-2.63866370370238
30
0
41
1
10
2.31367717929683
20
-2.73948959590714
30
0
41
1
10
2.48392353589557
20
-2.92724280953382
30
0
41
1
10
2.57621408313949
20
-3.01437230770838
30
0
41
1
10
2.77181746393347
20
-3.17829415686495
30
0
41
1
10
2.87522999326339
20
-3.25503184848768
30
0
41
1
10
3.08703509537395
20
-3.39780262761914
30
0
41
1
10
3.19594263856987
20
-3.46426218558335
30
0
41
1
10
3.52975539387569
20
-3.65207402754928
30
0
41
1
10
3.76165372099447
20
-3.76202129161993
30
0
41
1
10
4.00000032845685
20
-3.86155954817718
30
0
0
SPLINE
5
C2
100
AcDbEntity
8
1
62
256
6
ByLayer
370
18
48
1
60
0
100
AcDbSpline
70
4
71
3
72
14
73
10
40
0
40
0
40
0
40
0
40
0.25
40
0.25
40
0.375
40
0.375
40
0.5
40
0.5
40
1
40
1
40
1
40
1
41
1
10
56.542158129096
20
-1.54330713630856
30
0
41
1
10
56.4567000262591
20
-1.73334802918501
30
0
41
1
10
56.369675966479
20
-1.92329757850706
30
0
41
1
10
56.2365996443345
20
-2.20807372864388
30
0
41
1
10
56.1917688512716
20
-2.30303753562106
30
0
41
1
10
56.1015421210162
20
-2.49255127571999
30
0
41
1
10
56.0560578118113
20
-2.58702524989786
30
0
41
1
10
55.8288357542692
20
-3.05954725818893
30
0
41
1
10
55.6492375173379
20
-3.43922696397772
30
0
41
1
10
55.4718207862973
20
-3.82057036801206
30
0
0
SPLINE
5
C3
100
AcDbEntity
8
1
62
256
6
ByLayer
370
18
48
1
60
0
100
AcDbSpline
70
4
71
3
72
8
73
4
40
0
40
0
40
0
40
0
40
1
40
1
40
1
40
1
41
1
10
4.00000032850281
20
-3.8615595481962
30
0
41
1
10
4.00000032850281
20
-3.8577251821564
30
0
41
1
10
4.00000032850278
20
-3.85389106499815
30
0
41
1
10
4.00000032850278
20
-3.85005719672594
30
0
0
SPLINE
5
C4
100
AcDbEntity
8
1
62
256
6
ByLayer
370
18
48
1
60
0
100
AcDbSpline
70
4
71
3
72
22
73
18
40
0
40
0
40
0
40
0
40
0.171252641260977
40
0.171252641260977
40
0.276449672111636
40
0.276449672111636
40
0.35655426172686
40
0.35655426172686
40
0.437462129795353
40
0.437462129795353
40
0.508686972012355
40
0.508686972012355
40
0.625700326780062
40
0.625700326780062
40
0.843366100111654
40
0.843366100111654
40
1
40
1
40
1
40
1
41
1
10
53.1589464291548
20
1.79862551905728
30
0
41
1
10
53.1570135006345
20
1.8014816029106
30
0
41
1
10
53.1552999137179
20
1.8045406810229
30
0
41
1
10
53.1534259606655
20
1.80979091997878
30
0
41
1
10
53.152917822044
20
1.81189773486361
30
0
41
1
10
53.15269195719
20
1.81563366283001
30
0
41
1
10
53.1528217875355
20
1.81728961756991
30
0
41
1
10
53.1536659440822
20
1.82042526967476
30
0
41
1
10
53.1544049351459
20
1.82194209170822
30
0
41
1
10
53.1562432957428
20
1.82440209038956
30
0
41
1
10
53.1573041138887
20
1.82542327870522
30
0
41
1
10
53.1603487875779
20
1.82769395665468
30
0
41
1
10
53.1625304314687
20
1.82872634490491
30
0
41
1
10
53.1688888245738
20
1.83089304486239
30
0
41
1
10
53.1733094143355
20
1.83145767014108
30
0
41
1
10
53.180819687056
20
1.83174741889619
30
0
41
1
10
53.1839845975481
20
1.83165042043649
30
0
41
1
10
53.1871304320435
20
1.83140507059028
30
0
0
SPLINE
5
C5
100
AcDbEntity
8
1
62
256
6
ByLayer
370
13
48
1
60
0
100
AcDbSpline
70
4
71
3
72
22
73
18
40
0
40
0
40
0
40
0
40
0.108333739381928
40
0.108333739381928
40
0.405555826254618
40
0.405555826254618
40
0.479861347972791
40
0.479861347972791
40
0.554166869690963
40
0.554166869690963
40
0.702777913127309
40
0.702777913127309
40
0.851388956563654
40
0.851388956563654
40
0.925694478281827
40
0.925694478281827
40
1
40
1
40
1
40
1
41
1
10
4.2504417374272
20
-4.86071982150887
30
0
41
1
10
4.25044618065016
20
-4.86076364153661
30
0
41
1
10
4.25045043165127
20
-4.85528353085863
30
0
41
1
10
4.25046539245244
20
-4.81422261694178
30
0
41
1
10
4.25047454713675
20
-4.74383500562701
30
0
41
1
10
4.25048356708183
20
-4.60637117009088
30
0
41
1
10
4.25048524742706
20
-4.5763750067207
30
0
41
1
10
4.25048834649496
20
-4.51127788599328
30
0
41
1
10
4.25048976705477
20
-4.47608655076323
30
0
41
1
10
4.25049356511695
20
-4.36410325810743
30
0
41
1
10
4.25049550016757
20
-4.28060821289711
30
0
41
1
10
4.25049810775789
20
-4.09642406896316
30
0
41
1
10
4.25049878044578
20
-3.99573400315052
30
0
41
1
10
4.25049874401796
20
-3.83167070098051
30
0
41
1
10
4.25049855712933
20
-3.77480654472214
30
0
41
1
10
4.25049781072585
20
-3.65664011104377
30
0
41
1
10
4.2504972487545
20
-3.59520620886121
30
0
41
1
10
4.25049649727373
20
-3.53225337846652
30
0
0
SPLINE
5
C6
100
AcDbEntity
8
1
62
256
6
ByLayer
370
18
48
1
60
0
100
AcDbSpline
70
4
71
3
72
16
73
12
40
0
40
0
40
0
40
0
40
0.0967619723760954
40
0.0967619723760954
40
0.528494264869521
40
0.528494264869521
40
0.744360411116233
40
0.744360411116233
40
0.960226557362946
40
0.960226557362946
40
1
40
1
40
1
40
1
41
1
10
15.58657602027
20
0.0002178506958046
30
0
41
1
10
16.0644772840604
20
-0.10576852195382
30
0
41
1
10
16.5423979077296
20
-0.211773882252089
30
0
41
1
10
19.1530403831971
20
-0.789816665254818
30
0
41
1
10
21.283382948595
20
-1.25763232199233
30
0
41
1
10
24.4791102673475
20
-1.92469273505475
30
0
41
1
10
25.5444828571041
20
-2.14146182040039
30
0
41
1
10
27.6765344919159
20
-2.5595035401185
30
0
41
1
10
28.7429879805628
20
-2.76062964138691
30
0
41
1
10
30.0058296112791
20
-2.9868482297814
30
0
41
1
10
30.2022926591159
20
-3.02170618221931
30
0
41
1
10
30.3987441401946
20
-3.05621491048899
30
0
0
SPLINE
5
C7
100
AcDbEntity
8
1
62
256
6
ByLayer
370
13
48
1
60
0
100
AcDbSpline
70
4
71
3
72
20
73
16
40
0
40
0
40
0
40
0
40
0.104372525169709
40
0.104372525169709
40
0.232319307288321
40
0.232319307288321
40
0.488212871525547
40
0.488212871525547
40
0.61615965364416
40
0.61615965364416
40
0.744106435762774
40
0.744106435762774
40
0.872053217881387
40
0.872053217881387
40
1
40
1
40
1
40
1
41
1
10
30.3987441400788
20
-3.05621491046864
30
0
41
1
10
31.2685122601907
20
-3.20899864897703
30
0
41
1
10
32.1380536508141
20
-3.3549369588477
30
0
41
1
10
34.0736890309576
20
-3.66238095387956
30
0
41
1
10
35.1400910948613
20
-3.81981427118717
30
0
41
1
10
38.3382019957254
20
-4.25189358144777
30
0
41
1
10
40.4705879989631
20
-4.48574679764306
30
0
41
1
10
43.6684332368192
20
-4.74126188106598
30
0
41
1
10
44.7348126353473
20
-4.81069511900523
30
0
41
1
10
46.8663713604249
20
-4.91628018946076
30
0
41
1
10
47.9314974484123
20
-4.95247583101371
30
0
41
1
10
50.0615242728108
20
-4.99115077038954
30
0
41
1
10
51.1264178143462
20
-4.9936944872166
30
0
41
1
10
53.2570730195395
20
-4.96480438243503
30
0
41
1
10
54.3230661545354
20
-4.93335993050243
30
0
41
1
10
55.3892228118438
20
-4.88528268325732
30
0
0
SPLINE
5
C8
100
AcDbEntity
8
1
62
256
6
ByLayer
370
18
48
1
60
0
100
AcDbSpline
70
4
71
3
72
8
73
4
40
0
40
0
40
0
40
0
40
1
40
1
40
1
40
1
41
1
10
55.4718207862974
20
-3.82057036801211
30
0
41
1
10
55.4605743725727
20
-3.8447436557725
30
0
41
1
10
55.4558943082216
20
-3.87143375085705
30
0
41
1
10
55.4589674902356
20
-3.89775276154572
30
0
0
SPLINE
5
C9
100
AcDbEntity
8
1
62
256
6
ByLayer
370
18
48
1
60
0
100
AcDbSpline
70
4
71
3
72
8
73
4
40
0
40
0
40
0
40
0
40
1
40
1
40
1
40
1
41
1
10
55.4589674902356
20
-3.89775276154575
30
0
41
1
10
55.4953564842998
20
-4.20939142120571
30
0
41
1
10
55.5369648006723
20
-4.5166225808106
30
0
41
1
10
55.5830290804375
20
-4.8200908651348
30
0
0
SPLINE
5
CA
100
AcDbEntity
8
1
62
256
6
ByLayer
370
18
48
1
60
0
100
AcDbSpline
70
4
71
3
72
20
73
16
40
0
40
0
40
0
40
0
40
0.248339247862681
40
0.248339247862681
40
0.496678495725362
40
0.496678495725362
40
0.620848119656704
40
0.620848119656704
40
0.745017743588047
40
0.745017743588047
40
0.869187367519389
40
0.869187367519389
40
0.993356991450732
40
0.993356991450732
40
1
40
1
40
1
40
1
41
1
10
22.2206123014563
20
4.38115023691319
30
0
41
1
10
21.4472394136881
20
4.45402367050497
30
0
41
1
10
20.6757349164652
20
4.52152656467055
30
0
41
1
10
19.1359903470975
20
4.64357691185955
30
0
41
1
10
18.3677484848948
20
4.69801722030965
30
0
41
1
10
17.2173569397486
20
4.76346460264224
30
0
41
1
10
16.8342150697426
20
4.78239109543719
30
0
41
1
10
16.0685442703691
20
4.81455562616756
30
0
41
1
10
15.686037769348
20
4.82840888885823
30
0
41
1
10
14.9216112230522
20
4.85031826731861
30
0
41
1
10
14.5396590516644
20
4.85820317748303
30
0
41
1
10
13.7782725651738
20
4.86705829416331
30
0
41
1
10
13.3985986073673
20
4.86805717303224
30
0
41
1
10
12.999745291539
20
4.8649754922053
30
0
41
1
10
12.9794935205915
20
4.86480792392632
30
0
41
1
10
12.9592448128701
20
4.86462916605464
30
0
0
SPLINE
5
CB
100
AcDbEntity
8
1
62
256
6
ByLayer
370
18
48
1
60
0
100
AcDbSpline
70
4
71
3
72
10
73
6
40
0
40
0
40
0
40
0
40
0.5
40
0.5
40
1
40
1
40
1
40
1
41
1
10
55.3892228118437
20
-4.88528268325732
30
0
41
1
10
55.3852058271335
20
-4.85816360941672
30
0
41
1
10
55.3785336646923
20
-4.83565740323212
30
0
41
1
10
55.3644170709045
20
-4.80905048752467
30
0
41
1
10
55.3569101575647
20
-4.80443392801644
30
0
41
1
10
55.3505426350622
20
-4.80945132841882
30
0
0
SPLINE
5
CC
100
AcDbEntity
8
SK1
62
256
6
ByLayer
370
18
48
1
60
0
100
AcDbSpline
70
4
71
3
72
14
73
10
40
0
40
0
40
0
40
0
40
0.125000000000003
40
0.125000000000003
40
0.250000000000006
40
0.250000000000006
40
0.500000000000004
40
0.500000000000004
40
1
40
1
40
1
40
1
41
1
10
-43.6
20
-0.340463037669764
30
0
41
1
10
-43.6
20
-0.351291161442873
30
0
41
1
10
-43.6017220508865
20
-0.361761696643526
30
0
41
1
10
-43.6068954324577
20
-0.380381204427977
30
0
41
1
10
-43.610237321167
20
-0.388454450796075
30
0
41
1
10
-43.6215324998379
20
-0.410597066782714
30
0
41
1
10
-43.6303471072619
20
-0.421906246256583
30
0
41
1
10
-43.658490206513
20
-0.450439984366199
30
0
41
1
10
-43.678793979422
20
-0.461550514812615
30
0
41
1
10
-43.7
20
-0.466720998035669
30
0
0
SPLINE
5
CD
100
AcDbEntity
8
SK1
62
256
6
ByLayer
370
18
48
1
60
0
100
AcDbSpline
70
4
71
3
72
14
73
10
40
0
40
0
40
0
40
0
40
0.499999999999998
40
0.499999999999998
40
0.749999999999996
40
0.749999999999996
40
0.874999999999998
40
0.874999999999998
40
1
40
1
40
1
40
1
41
1
10
-43.7
20
-2.00956610654782
30
0
41
1
10
-43.6789021434844
20
-2.01471021704964
30
0
41
1
10
-43.6585587767126
20
-2.01391441439904
30
0
41
1
10
-43.6303722414292
20
-2.00033693280866
30
0
41
1
10
-43.6214260646625
20
-1.99367450132394
30
0
41
1
10
-43.6102968606991
20
-1.97834274554603
30
0
41
1
10
-43.6069058574072
20
-1.97223476140394
30
0
41
1
10
-43.6017309986994
20
-1.95709607461234
30
0
41
1
10
-43.6
20
-1.94802762139952
30
0
41
1
10
-43.6
20
-1.937721098547
30
0
0
SPLINE
5
CE
100
AcDbEntity
8
SK1
62
256
6
ByLayer
370
18
48
1
60
0
100
AcDbSpline
70
4
71
3
72
10
73
6
40
0
40
0
40
0
40
0
40
0.5
40
0.5
40
1
40
1
40
1
40
1
41
1
10
-43.7
20
0.466720998035669
30
0
41
1
10
-43.9194037409031
20
0.520216341834157
30
0
41
1
10
-44.1380468037168
20
0.573772736489673
30
0
41
1
10
-44.5722437292498
20
0.681118084635983
30
0
41
1
10
-44.7878999416402
20
0.734897503667071
30
0
41
1
10
-44.9999999999999
20
0.788940123539476
30
0
0
SPLINE
5
CF
100
AcDbEntity
8
SK1
62
256
6
ByLayer
370
18
48
1
60
0
100
AcDbSpline
70
4
71
3
72
14
73
10
40
0
40
0
40
0
40
0
40
0.124999999999998
40
0.124999999999998
40
0.249999999999996
40
0.249999999999996
40
0.499999999999997
40
0.499999999999997
40
1
40
1
40
1
40
1
41
1
10
-43.6
20
0.340463037669736
30
0
41
1
10
-43.6
20
0.351291161442845
30
0
41
1
10
-43.6017220508865
20
0.361761696643498
30
0
41
1
10
-43.6068954324577
20
0.380381204427948
30
0
41
1
10
-43.610237321167
20
0.388454450796047
30
0
41
1
10
-43.6215324998379
20
0.410597066782685
30
0
41
1
10
-43.6303471072619
20
0.421906246256555
30
0
41
1
10
-43.658490206513
20
0.45043998436617
30
0
41
1
10
-43.678793979422
20
0.461550514812615
30
0
41
1
10
-43.7
20
0.466720998035669
30
0
0
SPLINE
5
D0
100
AcDbEntity
8
SK1
62
256
6
ByLayer
370
18
48
1
60
0
100
AcDbSpline
70
4
71
3
72
10
73
6
40
0
40
0
40
0
40
0
40
0.5
40
0.5
40
1
40
1
40
1
40
1
41
1
10
-43.7
20
-0.466720998035669
30
0
41
1
10
-43.9194037409031
20
-0.520216341834157
30
0
41
1
10
-44.1380468037168
20
-0.573772736489673
30
0
41
1
10
-44.5722437292498
20
-0.681118084635983
30
0
41
1
10
-44.7878999416402
20
-0.734897503667071
30
0
41
1
10
-44.9999999999999
20
-0.788940123539476
30
0
0
SPLINE
5
D1
100
AcDbEntity
8
SK1
62
256
6
ByLayer
370
18
48
1
60
0
100
AcDbSpline
70
4
71
3
72
10
73
6
40
0
40
0
40
0
40
0
40
0.5
40
0.5
40
1
40
1
40
1
40
1
41
1
10
-45
20
-1.6873469810439
30
0
41
1
10
-44.7879353868371
20
-1.74138056955954
30
0
41
1
10
-44.5722907358288
20
-1.79515732228111
30
0
41
1
10
-44.1380956645797
20
-1.90250236469109
30
0
41
1
10
-43.9194304127616
20
-1.95606425957735
30
0
41
1
10
-43.7
20
-2.00956610654771
30
0
0
LINE
5
76
100
AcDbEntity
8
81
62
256
6
ByLayer
370
18
48
1
60
0
100
AcDbLine
10
57
20
0
30
0
11
62
21
0
31
0
39
0
210
0
220
0
230
1
0
LINE
5
77
100
AcDbEntity
8
1
62
256
6
ByLayer
370
18
48
1
60
0
100
AcDbLine
10
4
20
5.117761
30
0
11
0.350219
21
5.11548
31
0
39
0
210
0
220
0
230
1
0
LINE
5
79
100
AcDbEntity
8
1
62
256
6
ByLayer
370
18
48
1
60
0
100
AcDbLine
10
0.350219
20
-5.11548
30
0
11
4
21
-5.117761
31
0
39
0
210
0
220
0
230
1
0
LINE
5
7A
100
AcDbEntity
8
1
62
256
6
ByLayer
370
18
48
1
60
0
100
AcDbLine
10
50.761776
20
5.146987
30
0
11
47.532887
21
5.144969
31
0
39
0
210
0
220
0
230
1
0
LINE
5
7B
100
AcDbEntity
8
1
62
256
6
ByLayer
370
18
48
1
60
0
100
AcDbLine
10
47.532887
20
-5.144969
30
0
11
50.761776
21
-5.146987
31
0
39
0
210
0
220
0
230
1
0
LINE
5
7C
100
AcDbEntity
8
SK1
62
256
6
ByLayer
370
18
48
1
60
0
100
AcDbLine
10
-43.556624
20
6
30
0
11
-45
21
3.5
31
0
39
0
210
0
220
0
230
1
0
LINE
5
7E
100
AcDbEntity
8
SK1
62
256
6
ByLayer
370
18
48
1
60
0
100
AcDbLine
10
-45
20
-3.5
30
0
11
-43.556624
21
-6
31
0
39
0
210
0
220
0
230
1
0
LINE
5
7F
100
AcDbEntity
8
SK1
62
256
6
ByLayer
370
18
48
1
60
0
100
AcDbLine
10
0
20
6
30
0
11
-43.556624
21
6
31
0
39
0
210
0
220
0
230
1
0
LINE
5
80
100
AcDbEntity
8
SK1
62
256
6
ByLayer
370
18
48
1
60
0
100
AcDbLine
10
-43.556624
20
-6
30
0
11
0
21
-6
31
0
39
0
210
0
220
0
230
1
0
LINE
5
81
100
AcDbEntity
8
SK4
62
256
6
ByLayer
370
18
48
0.05
60
0
100
AcDbLine
10
62
20
0
30
0
11
-50
21
0
31
0
39
0
210
0
220
0
230
1
0
LINE
5
83
100
AcDbEntity
8
4
62
256
6
ByLayer
370
18
48
0.05
60
0
100
AcDbLine
10
57
20
0
30
0
11
0
21
0
31
0
39
0
210
0
220
0
230
1
0
LINE
5
85
100
AcDbEntity
8
80
62
256
6
ByLayer
370
18
48
1
60
0
100
AcDbLine
10
0
20
0
30
0
11
-5
21
0
31
0
39
0
210
0
220
0
230
1
0
LINE
5
86
100
AcDbEntity
8
1
62
256
6
ByLayer
370
18
48
1
60
0
100
AcDbLine
10
4
20
2.702977
30
0
11
4
21
5.117761
31
0
39
0
210
0
220
0
230
1
0
LINE
5
87
100
AcDbEntity
8
1
62
256
6
ByLayer
370
13
48
1
60
0
100
AcDbLine
10
53.158946
20
1.798626
30
0
11
56.985104
21
-0.003469
31
0
39
0
210
0
220
0
230
1
0
LINE
5
88
100
AcDbEntity
8
1
62
256
6
ByLayer
370
13
48
1
60
0
100
AcDbLine
10
53.18713
20
1.831405
30
0
11
56.997187
21
0.036894
31
0
39
0
210
0
220
0
230
1
0
LINE
5
89
100
AcDbEntity
8
1
62
256
6
ByLayer
370
18
48
1
60
0
100
AcDbLine
10
57
20
-0.0284
30
0
11
57
21
0.0284
31
0
39
0
210
0
220
0
230
1
0
LINE
5
8A
100
AcDbEntity
8
1
62
256
6
ByLayer
370
18
48
1
60
0
100
AcDbLine
10
55.027691
20
-4.218225
30
0
11
55.307336
21
-4.839738
31
0
39
0
210
0
220
0
230
1
0
LINE
5
8B
100
AcDbEntity
8
1
62
256
6
ByLayer
370
18
48
1
60
0
100
AcDbLine
10
56.997187
20
0.036894
30
0
11
56.542158
21
1.543307
31
0
39
0
210
0
220
0
230
1
0
LINE
5
8C
100
AcDbEntity
8
1
62
256
6
ByLayer
370
13
48
1
60
0
100
AcDbLine
10
0.350219
20
5.11548
30
0
11
0.350219
21
-5.11548
31
0
39
0
210
0
220
0
230
1
0
LINE
5
8D
100
AcDbEntity
8
1
62
256
6
ByLayer
370
18
48
1
60
0
100
AcDbLine
10
53.259971
20
-3.204126
30
0
11
56.882306
21
-0.177572
31
0
39
0
210
0
220
0
230
1
0
LINE
5
8E
100
AcDbEntity
8
1
62
256
6
ByLayer
370
18
48
1
60
0
100
AcDbLine
10
4
20
-5.117761
30
0
11
4
21
-3.86156
31
0
39
0
210
0
220
0
230
1
0
LINE
5
8F
100
AcDbEntity
8
1
62
256
6
ByLayer
370
18
48
1
60
0
100
AcDbLine
10
56.997187
20
-0.036894
30
0
11
56.542158
21
-1.543307
31
0
39
0
210
0
220
0
230
1
0
LINE
5
90
100
AcDbEntity
8
1
62
256
6
ByLayer
370
18
48
1
60
0
100
AcDbLine
10
56.882306
20
-0.177572
30
0
11
56.985104
21
-0.003469
31
0
39
0
210
0
220
0
230
1
0
LINE
5
91
100
AcDbEntity
8
1
62
256
6
ByLayer
370
18
48
1
60
0
100
AcDbLine
10
56.882306
20
-0.177572
30
0
11
55.871256
21
-2.345776
31
0
39
0
210
0
220
0
230
1
0
LINE
5
92
100
AcDbEntity
8
1
62
256
6
ByLayer
370
13
48
1
60
0
100
AcDbLine
10
55.458967
20
-3.897753
30
0
11
55.027691
21
-4.218225
31
0
39
0
210
0
220
0
230
1
0
LINE
5
93
100
AcDbEntity
8
1
62
256
6
ByLayer
370
18
48
1
60
0
100
AcDbLine
10
55.190541
20
-3.805574
30
0
11
55.030697
21
-4.14836
31
0
39
0
210
0
220
0
230
1
0
LINE
5
94
100
AcDbEntity
8
1
62
256
6
ByLayer
370
13
48
1
60
0
100
AcDbLine
10
55.471821
20
-3.82057
30
0
11
55.030697
21
-4.14836
31
0
39
0
210
0
220
0
230
1
0
LINE
5
95
100
AcDbEntity
8
SK1
62
256
6
ByLayer
370
18
48
1
60
0
100
AcDbLine
10
-45
20
3.5
30
0
11
-45
21
0.78894
31
0
39
0
210
0
220
0
230
1
0
LINE
5
96
100
AcDbEntity
8
SK1
62
256
6
ByLayer
370
18
48
1
60
0
100
AcDbLine
10
0
20
6
30
0
11
0
21
-6
31
0
39
0
210
0
220
0
230
1
0
LINE
5
97
100
AcDbEntity
8
SK1
62
256
6
ByLayer
370
13
48
1
60
0
100
AcDbLine
10
-43.7
20
-0.466721
30
0
11
-43.7
21
-2.009566
31
0
39
0
210
0
220
0
230
1
0
LINE
5
98
100
AcDbEntity
8
SK1
62
256
6
ByLayer
370
18
48
1
60
0
100
AcDbLine
10
-43.556624
20
6
30
0
11
-43.556624
21
-6
31
0
39
0
210
0
220
0
230
1
0
LINE
5
99
100
AcDbEntity
8
SK1
62
256
6
ByLayer
370
18
48
1
60
0
100
AcDbLine
10
-45
20
-3.5
30
0
11
-45
21
-1.687347
31
0
39
0
210
0
220
0
230
1
0
LINE
5
9A
100
AcDbEntity
8
SK1
62
256
6
ByLayer
370
18
48
1
60
0
100
AcDbLine
10
-43.6
20
-1.937721
30
0
11
-43.6
21
0.340463
31
0
39
0
210
0
220
0
230
1
0
LINE
5
9B
100
AcDbEntity
8
SK1
62
256
6
ByLayer
370
18
48
1
60
0
100
AcDbLine
10
-45
20
-0.78894
30
0
11
-45
21
-1.687347
31
0
39
0
210
0
220
0
230
1
0
MTEXT
5
D2
100
AcDbEntity
8
SK6
62
256
6
ByLayer
370
13
48
1
60
0
100
AcDbMText
10
8.129169
20
37.532694
30
0
210
0
220
0
230
1
1
\W0.7063;860.1-1030-031A1-NM H10F
40
3.5
41
0
44
1.084337
50
0
71
8
72
5
7
iso_b_vert
0
DIMENSION
5
DF
100
AcDbEntity
8
SK2
62
256
6
ByLayer
370
13
48
1
60
0
100
AcDbDimension
2
DimnDraft3D1
10
55.6201
20
-17.952503
30
0
11
26.499703
21
-17.952503
31
0
70
32
71
5
72
1
41
1
210
0
220
0
230
1
3
Standard
100
AcDbAlignedDimension
13
0
23
-1.5875
33
0
14
55.6201
24
-6.7375
34
0
50
0
100
AcDbRotatedDimension
1001
ACAD
1000
DSTYLE
1002
{
1070
   279
1070
     0
1070
   172
1070
     1
1070
   173
1070
     1
1070
   340
1005
D3
1070
   271
1070
     1
1070
   272
1070
     2
1070
    77
1070
     1
1070
    73
1070
     0
1070
   171
1070
     3
1070
   274
1070
     4
1070
   177
1070
    35
1070
   176
1070
    35
1070
   178
1070
    35
1070
    48
1040
-0.005
1070
    41
1041
3.5
1070
   147
1041
1.75
1070
    42
1041
1.5875
1070
    44
1041
2.0
1070
   140
1041
3.5
1070
   343
1005
0
1070
   344
1005
0
1002
}
0
DIMENSION
5
E9
100
AcDbEntity
8
SK2
62
256
6
ByLayer
370
13
48
1
60
0
100
AcDbDimension
2
DimnDraft3D2
10
57
20
-39.692985
30
0
11
5.9614
21
-39.692985
31
0
70
32
71
5
72
1
41
1
210
0
220
0
230
1
3
Standard
100
AcDbAlignedDimension
13
-45
23
-7.5875
33
0
14
57
24
-1.5875
34
0
50
0
100
AcDbRotatedDimension
1001
ACAD
1000
DSTYLE
1002
{
1070
   279
1070
     0
1070
   172
1070
     1
1070
   173
1070
     1
1070
   340
1005
D3
1070
   271
1070
     1
1070
   272
1070
     2
1070
    77
1070
     1
1070
    73
1070
     0
1070
   171
1070
     3
1070
   274
1070
     4
1070
   177
1070
    35
1070
   176
1070
    35
1070
   178
1070
    35
1070
    48
1040
-0.005
1070
    41
1041
3.5
1070
   147
1041
1.75
1070
    42
1041
1.5875
1070
    44
1041
2.0
1070
   140
1041
3.5
1070
   343
1005
0
1070
   344
1005
0
1002
}
0
DIMENSION
5
F3
100
AcDbEntity
8
SK2
62
256
6
ByLayer
370
13
48
1
60
0
100
AcDbDimension
2
DimnDraft3D3
10
57
20
16.759119
30
0
11
40.865
21
16.759119
31
0
70
32
71
5
72
1
41
1
210
0
220
0
230
1
3
Standard
100
AcDbAlignedDimension
13
24.73
23
6.7375
33
0
14
57
24
1.5875
34
0
50
0
100
AcDbRotatedDimension
1001
ACAD
1000
DSTYLE
1002
{
1070
   279
1070
     0
1070
   172
1070
     1
1070
   173
1070
     1
1070
   340
1005
D3
1070
   271
1070
     2
1070
   272
1070
     2
1070
    77
1070
     1
1070
    73
1070
     0
1070
   171
1070
     3
1070
   274
1070
     4
1070
   177
1070
    35
1070
   176
1070
    35
1070
   178
1070
    35
1070
    48
1040
-0.005
1070
    41
1041
3.5
1070
   147
1041
1.75
1070
    42
1041
1.5875
1070
    44
1041
2.0
1070
   140
1041
3.5
1070
   343
1005
0
1070
   344
1005
0
1002
}
0
DIMENSION
5
FD
100
AcDbEntity
8
SK2
62
256
6
ByLayer
370
13
48
1
60
0
100
AcDbDimension
2
DimnDraft3D4
10
55.6201
20
-17.952503
30
0
11
66.981425
21
-17.952503
31
0
70
32
71
5
72
1
41
1
210
0
220
0
230
1
3
Standard
100
AcDbAlignedDimension
13
57
23
-1.5875
33
0
14
55.6201
24
-6.7375
34
0
50
0
100
AcDbRotatedDimension
1001
ACAD
1000
DSTYLE
1002
{
1070
   279
1070
     0
1070
   172
1070
     1
1070
   173
1070
     1
1070
   340
1005
D3
1070
   271
1070
     2
1070
   272
1070
     2
1070
    77
1070
     1
1070
    73
1070
     0
1070
   171
1070
     3
1070
   274
1070
     4
1070
   177
1070
    35
1070
   176
1070
    35
1070
   178
1070
    35
1070
    48
1040
-0.005
1070
    41
1041
3.5
1070
   147
1041
1.75
1070
    42
1041
1.5875
1070
    44
1041
2.0
1070
   140
1041
3.5
1070
   343
1005
0
1070
   344
1005
0
1002
}
0
DIMENSION
5
107
100
AcDbEntity
8
SK2
62
256
6
ByLayer
370
13
48
1
60
0
100
AcDbDimension
2
DimnDraft3D5
10
55.6201
20
-29.5
30
0
11
4.6201
21
-29.5
31
0
70
32
71
5
72
1
41
1
210
0
220
0
230
1
3
Standard
100
AcDbAlignedDimension
13
-45
23
-7.5875
33
0
14
55.6201
24
-6.7375
34
0
50
0
100
AcDbRotatedDimension
1001
ACAD
1000
DSTYLE
1002
{
1070
   279
1070
     0
1070
   172
1070
     1
1070
   173
1070
     1
1070
   340
1005
D3
1070
   271
1070
     1
1070
   272
1070
     2
1070
    77
1070
     1
1070
    73
1070
     0
1070
   171
1070
     3
1070
   274
1070
     4
1070
   177
1070
    35
1070
   176
1070
    35
1070
   178
1070
    35
1070
    48
1040
-0.005
1070
    41
1041
3.5
1070
   147
1041
1.75
1070
    42
1041
1.5875
1070
    44
1041
2.0
1070
   140
1041
3.5
1070
   343
1005
0
1070
   344
1005
0
1002
}
0
DIMENSION
5
112
100
AcDbEntity
8
SK2
62
256
6
ByLayer
370
13
48
1
60
0
100
AcDbDimension
2
DimnDraft3D6
10
-55.625163
20
6
30
0
11
-56.250163
21
24.47418
31
0
70
33
71
5
72
1
41
1
210
0
220
0
230
1
3
Standard
100
AcDbAlignedDimension
13
-46.5875
23
-6
33
0
14
-46.5875
24
6
34
0
1001
ACAD
1000
DSTYLE
1002
{
1070
   279
1070
     0
1070
    74
1070
     0
1070
   173
1070
     1
1070
   340
1005
D3
1070
   271
1070
     2
1070
   272
1070
     2
1070
    77
1070
     1
1070
    73
1070
     0
1070
   171
1070
     3
1070
   274
1070
     4
1070
   177
1070
    35
1070
   176
1070
    35
1070
   178
1070
    35
1070
    48
1040
-0.005
1070
    41
1041
3.5
1070
   147
1041
1.75
1070
    42
1041
1.5875
1070
    44
1041
2.0
1070
   140
1041
3.5
1070
   343
1005
0
1070
   344
1005
0
1002
}
0
DIMENSION
5
11D
100
AcDbEntity
8
2
62
256
6
ByLayer
370
13
48
1
60
0
100
AcDbDimension
2
DimnDraft3D7
10
71.083343
20
5.15
30
0
11
66.458343
21
22.217266
31
0
70
33
71
5
72
1
41
1
210
0
220
0
230
1
3
Standard
100
AcDbAlignedDimension
13
57.2076
23
-5.15
33
0
14
57.2076
24
5.15
34
0
1001
ACAD
1000
DSTYLE
1002
{
1070
   279
1070
     0
1070
    74
1070
     0
1070
   173
1070
     1
1070
   340
1005
D3
1070
   271
1070
     1
1070
   272
1070
     2
1070
    77
1070
     1
1070
    73
1070
     0
1070
   171
1070
     3
1070
   274
1070
     4
1070
   177
1070
    35
1070
   176
1070
    35
1070
   178
1070
    35
1070
    48
1040
-0.005
1070
    41
1041
3.5
1070
   147
1041
1.75
1070
    42
1041
1.5875
1070
    44
1041
2.0
1070
   140
1041
3.5
1070
   343
1005
0
1070
   344
1005
0
1002
}
0
ENDSEC
0
SECTION
2
OBJECTS
0
DICTIONARY
5
188
330
0
100
AcDbDictionary
280
0
281
1
3
ACAD_GROUP
350
189
3
ACAD_MLINESTYLE
350
18a
0
DICTIONARY
5
189
330
0
100
AcDbDictionary
280
0
281
1
0
DICTIONARY
5
18a
330
0
100
AcDbDictionary
280
0
281
1
3
Standard
350
18
0
MLINESTYLE
5
18
330
18a
100
AcDbMlineStyle
2
Standard
70
0
3

62
256
51
90
52
90
71
2
49
-0.5
62
256
6
ByLayer
49
0.5
62
256
6
ByLayer
0
RASTERVARIABLES
5
176
330

100
AcDbRasterVariables
90
0
70
1
71
1
72
1
0
ENDSEC
0
EOF
