0
SECTION
2
HEADER
9
$ACADVER
1
AC1015
9
$DWGCODEPAGE
3
ANSI_1252
9
$HANDSEED
5
195
9
$ANGBASE
50
0
9
$ANGDIR
70
0
9
$ATTMODE
70
1
9
$AUNITS
70
0
9
$AUPREC
70
0
9
$CECOLOR
62
256
9
$CELTSCALE
40
1
9
$CELTYPE
6
ByLayer
9
$CELWEIGHT
370
18
9
$CLAYER
8
0
9
$CMLJUST
70
0
9
$CMLSCALE
40
1
9
$CMLSTYLE
2
Standard
9
$DIMSTYLE
2
Standard
9
$TEXTSIZE
40
0.2
9
$TEXTSTYLE
7
Standard
9
$LUNITS
70
2
9
$LUPREC
70
4
9
$EXTNAMES
290
1
9
$INSUNITS
70
4
9
$LTSCALE
40
1
9
$LWDISPLAY
290
1
9
$PDMODE
70
0
9
$PDSIZE
40
0
9
$PLINEGEN
70
0
0
ENDSEC
0
SECTION
2
CLASSES
0
CLASS
1
RASTERVARIABLES
2
AcDbRasterVariables
3
ISM
90
0
280
0
281
0
0
ENDSEC
0
SECTION
2
TABLES
0
TABLE
2
VPORT
5
18b
100
AcDbSymbolTable
0
VPORT
5
1
100
AcDbSymbolTableRecord
100
AcDbViewportTableRecord
2
*Active
70
0
10
0
20
0
11
1
21
1
12
-1
22
1
13
0
23
0
14
0.5
24
0.5
15
10
25
10
16
0
26
0
36
1
17
0
27
0
37
0
0
ENDTAB
0
TABLE
2
LTYPE
5
18c
100
AcDbSymbolTable
0
LTYPE
5
14
100
AcDbSymbolTableRecord
100
AcDbLinetypeTableRecord
70
0
2
ByBlock
3

72
65
73
0
40
0
0
LTYPE
5
15
100
AcDbSymbolTableRecord
100
AcDbLinetypeTableRecord
70
0
2
ByLayer
3

72
65
73
0
40
0
0
LTYPE
5
16
100
AcDbSymbolTableRecord
100
AcDbLinetypeTableRecord
70
0
2
CONTINUOUS
3
Solid line
72
65
73
0
40
0
0
LTYPE
5
6A
100
AcDbSymbolTableRecord
100
AcDbLinetypeTableRecord
70
0
2
CENTER
3
____ _ ____ _ ____ _ ____
72
65
73
4
40
47.5
49
22
74
0
49
-8.5
74
0
49
8.5
74
0
49
-8.5
74
0
0
LTYPE
5
6B
100
AcDbSymbolTableRecord
100
AcDbLinetypeTableRecord
70
0
2
DASHED
3
__ __ __ __ __ __ __ __ __
72
65
73
2
40
25.72
49
12.86
74
0
49
-12.86
74
0
0
ENDTAB
0
TABLE
2
LAYER
5
18d
100
AcDbSymbolTable
0
LAYER
5
10
100
AcDbSymbolTableRecord
100
AcDbLayerTableRecord
2
0
70
0
62
7
6
CONTINUOUS
290
1
370
-3
390
0
0
LAYER
5
6D
100
AcDbSymbolTableRecord
100
AcDbLayerTableRecord
2
81
70
0
62
-3
6
CONTINUOUS
290
1
370
-3
390
0
0
LAYER
5
6F
100
AcDbSymbolTableRecord
100
AcDbLayerTableRecord
2
80
70
0
62
-6
6
CONTINUOUS
290
1
370
-3
390
0
0
LAYER
5
74
100
AcDbSymbolTableRecord
100
AcDbLayerTableRecord
2
2
70
0
62
7
6
CONTINUOUS
290
1
370
-3
390
0
0
LAYER
5
78
100
AcDbSymbolTableRecord
100
AcDbLayerTableRecord
2
1
70
0
62
4
6
CONTINUOUS
290
1
370
-3
390
0
0
LAYER
5
82
100
AcDbSymbolTableRecord
100
AcDbLayerTableRecord
2
4
70
0
62
-2
6
CENTER
290
1
370
-3
390
0
0
LAYER
5
177
100
AcDbSymbolTableRecord
100
AcDbLayerTableRecord
2
SK2
70
0
62
7
6
CONTINUOUS
290
1
370
-3
390
0
0
LAYER
5
178
100
AcDbSymbolTableRecord
100
AcDbLayerTableRecord
2
SK1
70
0
62
4
6
CONTINUOUS
290
1
370
-3
390
0
0
LAYER
5
179
100
AcDbSymbolTableRecord
100
AcDbLayerTableRecord
2
SK4
70
0
62
2
6
CENTER
290
1
370
-3
390
0
0
LAYER
5
17a
100
AcDbSymbolTableRecord
100
AcDbLayerTableRecord
2
SK6
70
0
62
5
6
CONTINUOUS
290
1
370
-3
390
0
0
ENDTAB
0
TABLE
2
STYLE
5
18e
100
AcDbSymbolTable
0
STYLE
5
11
100
AcDbSymbolTableRecord
100
AcDbTextStyleTableRecord
2
Standard
3
txt
70
0
71
0
40
0
41
1
42
0
50
0
0
STYLE
5
D3
100
AcDbSymbolTableRecord
100
AcDbTextStyleTableRecord
2
iso_b_vert
3
simplex.shx
70
0
71
0
40
0
41
1
42
0
50
0
0
STYLE
5
D4
100
AcDbSymbolTableRecord
100
AcDbTextStyleTableRecord
2
DWGDirectTextStyle
3
simplex
70
0
71
0
40
0
41
1
42
0
50
0
0
ENDTAB
0
TABLE
2
DIMSTYLE
5
18f
100
AcDbSymbolTable
100
AcDbDimStyleTable
0
DIMSTYLE
105
27
100
AcDbSymbolTableRecord
100
AcDbDimStyleTableRecord
2
Standard
70
0
3
<>
41
0.18
42
0.0625
44
0.18
140
0.18
147
0.09
73
0
74
0
77
1
271
2
275
0
278
52
280
0
340
11
0
ENDTAB
0
TABLE
2
VIEW
5
190
100
AcDbSymbolTable
0
ENDTAB
0
TABLE
2
UCS
5
191
100
AcDbSymbolTable
0
ENDTAB
0
TABLE
2
APPID
5
192
100
AcDbSymbolTable
0
APPID
5
12
100
AcDbSymbolTableRecord
100
AcDbRegAppTableRecord
2
ACAD
70
0
0
ENDTAB
0
TABLE
2
BLOCK_RECORD
5
193
100
AcDbSymbolTable
0
BLOCK_RECORD
5
1F
100
AcDbSymbolTableRecord
100
AcDbBlockTableRecord
2
*Model_Space
340
0
70
0
0
BLOCK_RECORD
5
1B
100
AcDbSymbolTableRecord
100
AcDbBlockTableRecord
2
*Paper_Space
340
0
70
0
0
BLOCK_RECORD
5
23
100
AcDbSymbolTableRecord
100
AcDbBlockTableRecord
2
*Paper_Space0
340
0
70
0
0
BLOCK_RECORD
5
D6
100
AcDbSymbolTableRecord
100
AcDbBlockTableRecord
2
DimnDraft3D1
340
0
70
0
0
BLOCK_RECORD
5
E0
100
AcDbSymbolTableRecord
100
AcDbBlockTableRecord
2
DimnDraft3D2
340
0
70
0
0
BLOCK_RECORD
5
EA
100
AcDbSymbolTableRecord
100
AcDbBlockTableRecord
2
DimnDraft3D3
340
0
70
0
0
BLOCK_RECORD
5
F4
100
AcDbSymbolTableRecord
100
AcDbBlockTableRecord
2
DimnDraft3D4
340
0
70
0
0
BLOCK_RECORD
5
FE
100
AcDbSymbolTableRecord
100
AcDbBlockTableRecord
2
DimnDraft3D5
340
0
70
0
0
BLOCK_RECORD
5
108
100
AcDbSymbolTableRecord
100
AcDbBlockTableRecord
2
DimnDraft3D6
340
0
70
0
0
BLOCK_RECORD
5
113
100
AcDbSymbolTableRecord
100
AcDbBlockTableRecord
2
DimnDraft3D7
340
0
70
0
0
ENDTAB
0
ENDSEC
0
SECTION
2
BLOCKS
0
BLOCK
5
20
100
AcDbEntity
8
0
100
AcDbBlockBegin
2
*Model_Space
70
0
10
0
20
0
30
0
3
*Model_Space
0
ENDBLK
5
21
100
AcDbEntity
8
0
100
AcDbBlockEnd
0
BLOCK
5
1C
100
AcDbEntity
8
0
100
AcDbBlockBegin
2
*Paper_Space
70
0
10
0
20
0
30
0
3
*Paper_Space
0
ENDBLK
5
1D
100
AcDbEntity
8
0
100
AcDbBlockEnd
0
BLOCK
5
24
100
AcDbEntity
8
0
100
AcDbBlockBegin
2
*Paper_Space0
70
0
10
0
20
0
30
0
3
*Paper_Space0
0
ENDBLK
5
25
100
AcDbEntity
8
0
100
AcDbBlockEnd
0
BLOCK
5
DD
100
AcDbEntity
8
0
100
AcDbBlockBegin
2
DimnDraft3D1
70
0
10
0
20
0
30
0
3
DimnDraft3D1
0
MTEXT
5
D7
100
AcDbEntity
8
SK2
62
256
6
ByLayer
370
13
48
1
60
0
100
AcDbMText
10
19.237638
20
-16.577503
30
0
210
0
220
0
230
1
1
\W0.7493;47,8
40
3.5
41
0
44
1.084337
50
0
71
7
72
5
7
iso_b_vert
0
LINE
5
D8
100
AcDbEntity
8
SK2
62
256
6
ByLayer
370
13
48
1
60
0
100
AcDbLine
10
0
20
-1.5875
30
0
11
0
21
-19.452503
31
0
39
0
210
0
220
0
230
1
0
LINE
5
D9
100
AcDbEntity
8
SK2
62
256
6
ByLayer
370
13
48
1
60
0
100
AcDbLine
10
47.754
20
-6.2375
30
0
11
47.754
21
-19.452503
31
0
39
0
210
0
220
0
230
1
0
LINE
5
DA
100
AcDbEntity
8
SK2
62
256
6
ByLayer
370
13
48
1
60
0
100
AcDbLine
10
0
20
-17.452503
30
0
11
47.754
21
-17.452503
31
0
39
0
210
0
220
0
230
1
0
SOLID
5
DB
100
AcDbEntity
8
SK2
62
256
6
ByLayer
370
13
48
1
60
0
100
AcDbTrace
10
0
20
-17.452503
30
0
11
3.499998
21
-16.991719
31
0
12
3.500002
22
-17.913287
32
0
13
0
23
-17.452503
33
0
39
0
210
0
220
0
230
1
0
SOLID
5
DC
100
AcDbEntity
8
SK2
62
256
6
ByLayer
370
13
48
1
60
0
100
AcDbTrace
10
47.754
20
-17.452503
30
0
11
44.254002
21
-17.913287
31
0
12
44.253998
22
-16.991719
32
0
13
47.754
23
-17.452503
33
0
39
0
210
0
220
0
230
1
0
ENDBLK
5
DE
100
AcDbEntity
8
0
100
AcDbBlockEnd
0
BLOCK
5
E7
100
AcDbEntity
8
0
100
AcDbBlockBegin
2
DimnDraft3D2
70
0
10
0
20
0
30
0
3
DimnDraft3D2
0
MTEXT
5
E1
100
AcDbEntity
8
SK2
62
256
6
ByLayer
370
13
48
1
60
0
100
AcDbMText
10
1.454511
20
-37.817985
30
0
210
0
220
0
230
1
1
\W0.7150;89,0
40
3.5
41
0
44
1.084337
50
0
71
7
72
5
7
iso_b_vert
0
LINE
5
E2
100
AcDbEntity
8
SK2
62
256
6
ByLayer
370
13
48
1
60
0
100
AcDbLine
10
-40
20
-6.5875
30
0
11
-40
21
-40.692985
31
0
39
0
210
0
220
0
230
1
0
LINE
5
E3
100
AcDbEntity
8
SK2
62
256
6
ByLayer
370
13
48
1
60
0
100
AcDbLine
10
49
20
-1.5875
30
0
11
49
21
-40.692985
31
0
39
0
210
0
220
0
230
1
0
LINE
5
E4
100
AcDbEntity
8
SK2
62
256
6
ByLayer
370
13
48
1
60
0
100
AcDbLine
10
-40
20
-38.692985
30
0
11
49
21
-38.692985
31
0
39
0
210
0
220
0
230
1
0
SOLID
5
E5
100
AcDbEntity
8
SK2
62
256
6
ByLayer
370
13
48
1
60
0
100
AcDbTrace
10
-40
20
-38.692985
30
0
11
-36.500002
21
-38.232202
31
0
12
-36.499998
22
-39.153769
32
0
13
-40
23
-38.692985
33
0
39
0
210
0
220
0
230
1
0
SOLID
5
E6
100
AcDbEntity
8
SK2
62
256
6
ByLayer
370
13
48
1
60
0
100
AcDbTrace
10
49
20
-38.692985
30
0
11
45.500002
21
-39.153769
31
0
12
45.499998
22
-38.232202
32
0
13
49
23
-38.692985
33
0
39
0
210
0
220
0
230
1
0
ENDBLK
5
E8
100
AcDbEntity
8
0
100
AcDbBlockEnd
0
BLOCK
5
F1
100
AcDbEntity
8
0
100
AcDbBlockBegin
2
DimnDraft3D3
70
0
10
0
20
0
30
0
3
DimnDraft3D3
0
MTEXT
5
EB
100
AcDbEntity
8
SK2
62
256
6
ByLayer
370
13
48
1
60
0
100
AcDbMText
10
30.234605
20
17.134119
30
0
210
0
220
0
230
1
1
\W0.6898;29,14
40
3.5
41
0
44
1.084337
50
0
71
7
72
5
7
iso_b_vert
0
LINE
5
EC
100
AcDbEntity
8
SK2
62
256
6
ByLayer
370
13
48
1
60
0
100
AcDbLine
10
19.86
20
6.2375
30
0
11
19.86
21
18.259119
31
0
39
0
210
0
220
0
230
1
0
LINE
5
ED
100
AcDbEntity
8
SK2
62
256
6
ByLayer
370
13
48
1
60
0
100
AcDbLine
10
49
20
1.5875
30
0
11
49
21
18.259119
31
0
39
0
210
0
220
0
230
1
0
LINE
5
EE
100
AcDbEntity
8
SK2
62
256
6
ByLayer
370
13
48
1
60
0
100
AcDbLine
10
19.86
20
16.259119
30
0
11
49
21
16.259119
31
0
39
0
210
0
220
0
230
1
0
SOLID
5
EF
100
AcDbEntity
8
SK2
62
256
6
ByLayer
370
13
48
1
60
0
100
AcDbTrace
10
19.86
20
16.259119
30
0
11
23.359998
21
16.719903
31
0
12
23.360002
22
15.798335
32
0
13
19.86
23
16.259119
33
0
39
0
210
0
220
0
230
1
0
SOLID
5
F0
100
AcDbEntity
8
SK2
62
256
6
ByLayer
370
13
48
1
60
0
100
AcDbTrace
10
49
20
16.259119
30
0
11
45.500002
21
15.798335
31
0
12
45.499998
22
16.719903
32
0
13
49
23
16.259119
33
0
39
0
210
0
220
0
230
1
0
ENDBLK
5
F2
100
AcDbEntity
8
0
100
AcDbBlockEnd
0
BLOCK
5
FB
100
AcDbEntity
8
0
100
AcDbBlockBegin
2
DimnDraft3D4
70
0
10
0
20
0
30
0
3
DimnDraft3D4
0
MTEXT
5
F5
100
AcDbEntity
8
SK2
62
256
6
ByLayer
370
13
48
1
60
0
100
AcDbMText
10
56.278136
20
-16.577503
30
0
210
0
220
0
230
1
1
\W0.6367;1,25
40
3.5
41
0
44
1.084337
50
0
71
7
72
5
7
iso_b_vert
0
LINE
5
F6
100
AcDbEntity
8
SK2
62
256
6
ByLayer
370
13
48
1
60
0
100
AcDbLine
10
49
20
-1.5875
30
0
11
49
21
-19.452503
31
0
39
0
210
0
220
0
230
1
0
LINE
5
F7
100
AcDbEntity
8
SK2
62
256
6
ByLayer
370
13
48
1
60
0
100
AcDbLine
10
47.754
20
-6.2375
30
0
11
47.754
21
-19.452503
31
0
39
0
210
0
220
0
230
1
0
LINE
5
F8
100
AcDbEntity
8
SK2
62
256
6
ByLayer
370
13
48
1
60
0
100
AcDbLine
10
39.004
20
-17.452503
30
0
11
62.559715
21
-17.452503
31
0
39
0
210
0
220
0
230
1
0
SOLID
5
F9
100
AcDbEntity
8
SK2
62
256
6
ByLayer
370
13
48
1
60
0
100
AcDbTrace
10
49
20
-17.452503
30
0
11
52.499998
21
-16.991719
31
0
12
52.500002
22
-17.913287
32
0
13
49
23
-17.452503
33
0
39
0
210
0
220
0
230
1
0
SOLID
5
FA
100
AcDbEntity
8
SK2
62
256
6
ByLayer
370
13
48
1
60
0
100
AcDbTrace
10
47.754
20
-17.452503
30
0
11
44.254002
21
-17.913287
31
0
12
44.253998
22
-16.991719
32
0
13
47.754
23
-17.452503
33
0
39
0
210
0
220
0
230
1
0
ENDBLK
5
FC
100
AcDbEntity
8
0
100
AcDbBlockEnd
0
BLOCK
5
105
100
AcDbEntity
8
0
100
AcDbBlockBegin
2
DimnDraft3D5
70
0
10
0
20
0
30
0
3
DimnDraft3D5
0
MTEXT
5
FF
100
AcDbEntity
8
SK2
62
256
6
ByLayer
370
13
48
1
60
0
100
AcDbMText
10
0.113211
20
-27.625
30
0
210
0
220
0
230
1
1
\W0.7150;87,8
40
3.5
41
0
44
1.084337
50
0
71
7
72
5
7
iso_b_vert
0
LINE
5
100
100
AcDbEntity
8
SK2
62
256
6
ByLayer
370
13
48
1
60
0
100
AcDbLine
10
-40
20
-6.5875
30
0
11
-40
21
-30.5
31
0
39
0
210
0
220
0
230
1
0
LINE
5
101
100
AcDbEntity
8
SK2
62
256
6
ByLayer
370
13
48
1
60
0
100
AcDbLine
10
47.754
20
-6.2375
30
0
11
47.754
21
-30.5
31
0
39
0
210
0
220
0
230
1
0
LINE
5
102
100
AcDbEntity
8
SK2
62
256
6
ByLayer
370
13
48
1
60
0
100
AcDbLine
10
-40
20
-28.5
30
0
11
47.754
21
-28.5
31
0
39
0
210
0
220
0
230
1
0
SOLID
5
103
100
AcDbEntity
8
SK2
62
256
6
ByLayer
370
13
48
1
60
0
100
AcDbTrace
10
-40
20
-28.5
30
0
11
-36.500002
21
-28.039216
31
0
12
-36.499998
22
-28.960784
32
0
13
-40
23
-28.5
33
0
39
0
210
0
220
0
230
1
0
SOLID
5
104
100
AcDbEntity
8
SK2
62
256
6
ByLayer
370
13
48
1
60
0
100
AcDbTrace
10
47.754
20
-28.5
30
0
11
44.254002
21
-28.960784
31
0
12
44.253998
22
-28.039216
32
0
13
47.754
23
-28.5
33
0
39
0
210
0
220
0
230
1
0
ENDBLK
5
106
100
AcDbEntity
8
0
100
AcDbBlockEnd
0
BLOCK
5
110
100
AcDbEntity
8
0
100
AcDbBlockBegin
2
DimnDraft3D6
70
0
10
0
20
0
30
0
3
DimnDraft3D6
0
MTEXT
5
109
100
AcDbEntity
8
SK2
62
256
6
ByLayer
370
13
48
1
60
0
100
AcDbMText
10
-50.375163
20
24.34918
30
0
210
0
220
0
230
1
1
\W0.6713;10,00
40
3.5
41
0
44
1.084337
50
90
71
7
72
5
7
iso_b_vert
0
MTEXT
5
10A
100
AcDbEntity
8
SK2
62
256
6
ByLayer
370
13
48
1
60
0
100
AcDbMText
10
-50.375163
20
19.126524
30
0
210
0
220
0
230
1
1
%%c
40
3.5
41
0
44
1.084337
50
90
71
7
72
5
7
iso_b_vert
0
LINE
5
10B
100
AcDbEntity
8
SK2
62
256
6
ByLayer
370
13
48
1
60
0
100
AcDbLine
10
-41.5875
20
-5
30
0
11
-50.625163
21
-5
31
0
39
0
210
0
220
0
230
1
0
LINE
5
10C
100
AcDbEntity
8
SK2
62
256
6
ByLayer
370
13
48
1
60
0
100
AcDbLine
10
-41.5875
20
5
30
0
11
-50.625163
21
5
31
0
39
0
210
0
220
0
230
1
0
LINE
5
10D
100
AcDbEntity
8
SK2
62
256
6
ByLayer
370
13
48
1
60
0
100
AcDbLine
10
-48.625163
20
-5
30
0
11
-48.625163
21
33.246549
31
0
39
0
210
0
220
0
230
1
0
SOLID
5
10E
100
AcDbEntity
8
SK2
62
256
6
ByLayer
370
13
48
1
60
0
100
AcDbTrace
10
-48.625163
20
-5
30
0
11
-49.085946
21
-1.500002
31
0
12
-48.164379
22
-1.499998
32
0
13
-48.625163
23
-5
33
0
39
0
210
0
220
0
230
1
0
SOLID
5
10F
100
AcDbEntity
8
SK2
62
256
6
ByLayer
370
13
48
1
60
0
100
AcDbTrace
10
-48.625163
20
5
30
0
11
-48.164379
21
1.500002
31
0
12
-49.085946
22
1.499998
32
0
13
-48.625163
23
5
33
0
39
0
210
0
220
0
230
1
0
ENDBLK
5
111
100
AcDbEntity
8
0
100
AcDbBlockEnd
0
BLOCK
5
11B
100
AcDbEntity
8
0
100
AcDbBlockBegin
2
DimnDraft3D7
70
0
10
0
20
0
30
0
3
DimnDraft3D7
0
MTEXT
5
114
100
AcDbEntity
8
2
62
256
6
ByLayer
370
13
48
1
60
0
100
AcDbMText
10
59.333343
20
22.592266
30
0
210
0
220
0
230
1
1
\W0.6912;9,3
40
3.5
41
0
44
1.084337
50
90
71
7
72
5
7
iso_b_vert
0
MTEXT
5
115
100
AcDbEntity
8
2
62
256
6
ByLayer
370
13
48
1
60
0
100
AcDbMText
10
59.333343
20
17.36961
30
0
210
0
220
0
230
1
1
%%c
40
3.5
41
0
44
1.084337
50
90
71
7
72
5
7
iso_b_vert
0
LINE
5
116
100
AcDbEntity
8
2
62
256
6
ByLayer
370
13
48
1
60
0
100
AcDbLine
10
49.3415
20
-4.65
30
0
11
63.083343
21
-4.65
31
0
39
0
210
0
220
0
230
1
0
LINE
5
117
100
AcDbEntity
8
2
62
256
6
ByLayer
370
13
48
1
60
0
100
AcDbLine
10
49.3415
20
4.65
30
0
11
63.083343
21
4.65
31
0
39
0
210
0
220
0
230
1
0
LINE
5
118
100
AcDbEntity
8
2
62
256
6
ByLayer
370
13
48
1
60
0
100
AcDbLine
10
61.083343
20
-4.65
30
0
11
61.083343
21
27.133056
31
0
39
0
210
0
220
0
230
1
0
SOLID
5
119
100
AcDbEntity
8
2
62
256
6
ByLayer
370
13
48
1
60
0
100
AcDbTrace
10
61.083343
20
-4.65
30
0
11
60.622559
21
-1.150002
31
0
12
61.544126
22
-1.149998
32
0
13
61.083343
23
-4.65
33
0
39
0
210
0
220
0
230
1
0
SOLID
5
11A
100
AcDbEntity
8
2
62
256
6
ByLayer
370
13
48
1
60
0
100
AcDbTrace
10
61.083343
20
4.65
30
0
11
61.544126
21
1.150002
31
0
12
60.622559
22
1.149998
32
0
13
61.083343
23
4.65
33
0
39
0
210
0
220
0
230
1
0
ENDBLK
5
11C
100
AcDbEntity
8
0
100
AcDbBlockEnd
0
ENDSEC
0
SECTION
2
ENTITIES
0
ARC
5
9A
100
AcDbEntity
8
1
62
256
6
ByLayer
370
18
48
1
60
0
100
AcDbCircle
39
0
10
-0.233333
20
4.853651
30
0
40
0.233333000000002
210
0
220
0
230
-1
100
AcDbArc
50
269.96419
51
0
0
ARC
5
9B
100
AcDbEntity
8
1
62
256
6
ByLayer
370
18
48
1
60
0
100
AcDbCircle
39
0
10
-0.233333
20
-4.853651
30
0
40
0.233333000000002
210
0
220
0
230
-1
100
AcDbArc
50
0
51
90.03581
0
ELLIPSE
5
9C
100
AcDbEntity
8
1
62
256
6
ByLayer
370
18
48
1
60
0
100
AcDbEllipse
10
4.25
20
-4.640658
30
0
11
-0.25
21
3.06151588455594E-17
31
0
210
0
220
0
230
1
40
0.999998
41
-1.56357013032803
42
-0.00103318017599631
0
ELLIPSE
5
9D
100
AcDbEntity
8
1
62
256
6
ByLayer
370
18
48
1
60
0
100
AcDbEllipse
10
4.25
20
4.640658
30
0
11
-0.25
21
3.06151588455594E-17
31
0
210
0
220
0
230
1
40
0.999998
41
0.00103318017596788
42
1.58158924246923
0
ELLIPSE
5
9E
100
AcDbEntity
8
1
62
256
6
ByLayer
370
18
48
1
60
0
100
AcDbEllipse
10
49.015791
20
-0.001742
30
0
11
0.0202277259821158
21
0.0461593337097463
31
0
210
0
220
0
230
-1
40
0.094257
41
-2.47673763206377
42
-2.22716332013089
0
ELLIPSE
5
9F
100
AcDbEntity
8
1
62
256
6
ByLayer
370
18
48
1
60
0
100
AcDbEllipse
10
46.93003
20
-0.000252
30
0
11
0.430056608295285
21
-4.64825485085884
31
0
210
0
220
0
230
-1
40
0.250565
41
-0.341303941148229
42
-0.187418280837596
0
ELLIPSE
5
A0
100
AcDbEntity
8
1
62
256
6
ByLayer
370
18
48
1
60
0
100
AcDbEllipse
10
48.98868
20
0.014511
30
0
11
0.0140788299370795
21
0.030214133325436
31
0
210
0
220
0
230
-1
40
0.154454
41
1.02263605327668
42
2.1344185547485
0
ELLIPSE
5
A1
100
AcDbEntity
8
1
62
256
6
ByLayer
370
18
48
1
60
0
100
AcDbEllipse
10
46.93003
20
0.000252
30
0
11
0.430056605585554
21
4.64825483425441
31
0
210
0
220
0
230
-1
40
0.250565
41
0.187418281227345
42
0.34130394182448
0
ELLIPSE
5
A2
100
AcDbEntity
8
1
62
256
6
ByLayer
370
18
48
1
60
0
100
AcDbEllipse
10
49.015791
20
0.001742
30
0
11
0.0202277263415062
21
-0.0461593343960346
31
0
210
0
220
0
230
-1
40
0.094257
41
2.22716332613149
42
2.47673763535165
0
POINT
5
6C
100
AcDbEntity
8
81
62
256
6
ByLayer
370
18
48
1
60
0
100
AcDbPoint
10
49
20
0
30
0
39
0
210
0
220
0
230
1
50
360
0
POINT
5
6E
100
AcDbEntity
8
80
62
256
6
ByLayer
370
18
48
1
60
0
100
AcDbPoint
10
0
20
0
30
0
39
0
210
0
220
0
230
1
50
360
0
POINT
5
70
100
AcDbEntity
8
SK2
62
256
6
ByLayer
370
18
48
1
60
1
100
AcDbPoint
10
-40
20
-5
30
0
39
0
210
0
220
0
230
1
50
360
0
POINT
5
72
100
AcDbEntity
8
SK2
62
256
6
ByLayer
370
18
48
1
60
1
100
AcDbPoint
10
-40
20
5
30
0
39
0
210
0
220
0
230
1
50
360
0
POINT
5
73
100
AcDbEntity
8
2
62
256
6
ByLayer
370
18
48
1
60
1
100
AcDbPoint
10
47.754
20
-4.65
30
0
39
0
210
0
220
0
230
1
50
360
0
POINT
5
75
100
AcDbEntity
8
2
62
256
6
ByLayer
370
18
48
1
60
1
100
AcDbPoint
10
47.754
20
4.65
30
0
39
0
210
0
220
0
230
1
50
360
0
SPLINE
5
A3
100
AcDbEntity
8
1
62
256
6
ByLayer
370
18
48
1
60
0
100
AcDbSpline
70
4
71
3
72
18
73
14
40
0
40
0
40
0
40
0
40
0.0627497973472851
40
0.144407777022636
40
0.277980399428814
40
0.432221951801349
40
0.571669080280017
40
0.619448000294604
40
0.668331784760143
40
0.733273463758758
40
0.815288761293511
40
0.914392031945456
40
1
40
1
40
1
40
1
41
1
10
12.4335986774526
20
4.39570538110101
30
0
41
1
10
12.2623930243593
20
4.39571744931365
30
0
41
1
10
11.8683882152836
20
4.39576202527508
30
0
41
1
10
11.1099422884997
20
4.39590095508169
30
0
41
1
10
10.1017519809823
20
4.3963077411066
30
0
41
1
10
8.93740183941881
20
4.39231349294576
30
0
41
1
10
8.00520406206451
20
4.39168946231868
30
0
41
1
10
7.36136537461257
20
4.39195999808069
30
0
41
1
10
6.92118838152462
20
4.39216712509784
30
0
41
1
10
6.386962089685
20
4.39218561697302
30
0
41
1
10
5.71572685859036
20
4.39212665503837
30
0
41
1
10
4.98798365741715
20
4.39179055290504
30
0
41
1
10
4.48401231861973
20
4.39100677508574
30
0
41
1
10
4.25043005541312
20
4.39055206781416
30
0
0
SPLINE
5
A4
100
AcDbEntity
8
1
62
256
6
ByLayer
370
18
48
1
60
0
100
AcDbSpline
70
4
71
3
72
18
73
14
40
0
40
0
40
0
40
0
40
0.114206809346535
40
0.231312180721276
40
0.320779795312394
40
0.384314240015663
40
0.446192769031925
40
0.514463746321149
40
0.634534638550568
40
0.751793141946501
40
0.854670744559492
40
0.948286275327526
40
1
40
1
40
1
40
1
41
1
10
4.25043227693979
20
-4.39051812823413
30
0
41
1
10
4.56239040094712
20
-4.39110511979368
30
0
41
1
10
5.19420785456612
20
-4.39201699829371
30
0
41
1
10
6.07028652038062
20
-4.3921732767036
30
0
41
1
10
6.80804296095087
20
-4.39221036118394
30
0
41
1
10
7.39400727920813
20
-4.39192719981341
30
0
41
1
10
7.92285980165499
20
-4.39179536617669
30
0
41
1
10
8.60645703678011
20
-4.39179589851548
30
0
41
1
10
9.44064408495765
20
-4.39474597746445
30
0
41
1
10
10.3692636342089
20
-4.3960023298587
30
0
41
1
10
11.2262836913218
20
-4.39592309416665
30
0
41
1
10
11.9042386197397
20
-4.39573543999845
30
0
41
1
10
12.3011859870098
20
-4.3957179743262
30
0
41
1
10
12.4424339830244
20
-4.39571619121728
30
0
0
SPLINE
5
A5
100
AcDbEntity
8
1
62
256
6
ByLayer
370
18
48
1
60
0
100
AcDbSpline
70
4
71
3
72
13
73
9
40
0
40
0
40
0
40
0
40
0.0831084950323079
40
0.232146062198809
40
0.422301114256969
40
0.654364177043395
40
0.928784477552186
40
1
40
1
40
1
40
1
41
1
10
43.9884403705534
20
-4.41492807592249
30
0
41
1
10
44.0697666903068
20
-4.41481413611274
30
0
41
1
10
44.2985343348787
20
-4.41450642281472
30
0
41
1
10
44.7286365030046
20
-4.41357240241766
30
0
41
1
10
45.308599063406
20
-4.41373221117468
30
0
41
1
10
46.0166258315274
20
-4.41481273632468
30
0
41
1
10
46.6026687254152
20
-4.41624653382749
30
0
41
1
10
46.9524395117935
20
-4.41660552279947
30
0
41
1
10
47.0244782863324
20
-4.41667180983319
30
0
0
SPLINE
5
A6
100
AcDbEntity
8
1
62
256
6
ByLayer
370
18
48
1
60
0
100
AcDbSpline
70
4
71
3
72
14
73
10
40
0
40
0
40
0
40
0
40
0.250000000000004
40
0.250000000000004
40
0.375000000000002
40
0.375000000000002
40
0.499999999999999
40
0.499999999999999
40
1
40
1
40
1
40
1
41
1
10
48.5996746149747
20
1.35289371098176
30
0
41
1
10
48.5219288020954
20
1.52795727355951
30
0
41
1
10
48.4421096469232
20
1.70374077074825
30
0
41
1
10
48.3198374843948
20
1.96650467892107
30
0
41
1
10
48.2786401641141
20
2.05392442964811
30
0
41
1
10
48.1957130000173
20
2.22801753475966
30
0
41
1
10
48.1538572882942
20
2.31468824871919
30
0
41
1
10
47.9454639328891
20
2.74875874647142
30
0
41
1
10
47.7810320514278
20
3.09762328685522
30
0
41
1
10
47.6189726637368
20
3.44815915303354
30
0
0
SPLINE
5
A7
100
AcDbEntity
8
1
62
256
6
ByLayer
370
18
48
1
60
0
100
AcDbSpline
70
4
71
3
72
16
73
12
40
0
40
0
40
0
40
0
40
0.141185341290822
40
0.141185341290822
40
0.546453860903384
40
0.546453860903384
40
0.749088120709663
40
0.749088120709663
40
0.951722380515943
40
0.951722380515943
40
1
40
1
40
1
40
1
41
1
10
43.9849339167831
20
-4.4150565716414
30
0
41
1
10
43.3569058645258
20
-4.4139456570739
30
0
41
1
10
42.7291951364578
20
-4.40530705362968
30
0
41
1
10
40.3001916055475
20
-4.34311655107368
30
0
41
1
10
38.4998156516651
20
-4.23499565325679
30
0
41
1
10
35.7951735577142
20
-3.98632308864066
30
0
41
1
10
34.8927483671403
20
-3.88908305458583
30
0
41
1
10
33.0901663083293
20
-3.66830659397556
30
0
41
1
10
32.1895062501995
20
-3.54461768097099
30
0
41
1
10
31.0743597596808
20
-3.37676845719523
30
0
41
1
10
30.8598007912625
20
-3.3437927947235
30
0
41
1
10
30.6452398527972
20
-3.31015885905145
30
0
0
SPLINE
5
A8
100
AcDbEntity
8
1
62
256
6
ByLayer
370
13
48
1
60
0
100
AcDbSpline
70
4
71
3
72
18
73
14
40
0
40
0
40
0
40
0
40
0.197234690781833
40
0.197234690781833
40
0.421142436638753
40
0.421142436638753
40
0.645050182495672
40
0.645050182495672
40
0.757004055424132
40
0.757004055424132
40
0.868957928352592
40
0.868957928352592
40
1
40
1
40
1
40
1
41
1
10
30.6452388649303
20
-3.31015870419637
30
0
41
1
10
29.0586592556076
20
-3.06145118033655
30
0
41
1
10
27.4719719250486
20
-2.77674978437378
30
0
41
1
10
24.0778792404421
20
-2.11076265962282
30
0
41
1
10
22.2735258919751
20
-1.7214936887157
30
0
41
1
10
18.6697995956146
20
-0.908365894143287
30
0
41
1
10
16.869336502808
20
-0.483527868423977
30
0
41
1
10
14.1645709722056
20
0.155103502051332
30
0
41
1
10
13.2619188832988
20
0.368294583485948
30
0
41
1
10
11.4589011492451
20
0.790214639365189
30
0
41
1
10
10.5579975749718
20
0.998835099654229
30
0
41
1
10
8.6028522724344
20
1.44213477854478
30
0
41
1
10
7.54868255773377
20
1.67530536701719
30
0
41
1
10
6.49389593269589
20
1.89935596523472
30
0
0
SPLINE
5
A9
100
AcDbEntity
8
1
62
256
6
ByLayer
370
18
48
1
60
0
100
AcDbSpline
70
4
71
3
72
14
73
10
40
0
40
0
40
0
40
0
40
0.250000000000004
40
0.250000000000004
40
0.375000000000001
40
0.375000000000001
40
0.499999999999999
40
0.499999999999999
40
1
40
1
40
1
40
1
41
1
10
48.5996746149747
20
-1.35289371098179
30
0
41
1
10
48.5219678509048
20
-1.52786934568994
30
0
41
1
10
48.442145336078
20
-1.70366090769099
30
0
41
1
10
48.3199568028606
20
-1.96624984324868
30
0
41
1
10
48.2787458981145
20
-2.05370085288527
30
0
41
1
10
48.195831953268
20
-2.22776941010071
30
0
41
1
10
48.154011358343
20
-2.31436840280966
30
0
41
1
10
47.9456910361791
20
-2.74828142519465
30
0
41
1
10
47.7809333998676
20
-3.09783667103861
30
0
41
1
10
47.6189726637299
20
-3.44815915304829
30
0
0
SPLINE
5
AA
100
AcDbEntity
8
1
62
256
6
ByLayer
370
18
48
1
60
0
100
AcDbSpline
70
4
71
3
72
40
73
36
40
0
40
0
40
0
40
0
40
0.125
40
0.125
40
0.25
40
0.25
40
0.312499999999999
40
0.312499999999999
40
0.374999999999999
40
0.374999999999999
40
0.437499999999999
40
0.437499999999999
40
0.499999999999999
40
0.499999999999999
40
0.531249999999999
40
0.531249999999999
40
0.562499999999999
40
0.562499999999999
40
0.593749999999999
40
0.593749999999999
40
0.624999999999999
40
0.624999999999999
40
0.656249999999999
40
0.656249999999999
40
0.687499999999999
40
0.687499999999999
40
0.718749999999999
40
0.718749999999999
40
0.749999999999999
40
0.749999999999999
40
0.812499999999999
40
0.812499999999999
40
0.874999999999999
40
0.874999999999999
40
1
40
1
40
1
40
1
41
1
10
48.1776063648799
20
-1.68880555414398
30
0
41
1
10
48.1180832436207
20
-1.65987993225198
30
0
41
1
10
48.0458627941686
20
-1.6577869582429
30
0
41
1
10
47.8942658654138
20
-1.69219915721939
30
0
41
1
10
47.8126517362844
20
-1.72928789354501
30
0
41
1
10
47.6904184419483
20
-1.80880085478839
30
0
41
1
10
47.6494931198975
20
-1.83936045720171
30
0
41
1
10
47.5672503051244
20
-1.90927150980119
30
0
41
1
10
47.5264999665708
20
-1.94818445917105
30
0
41
1
10
47.4471917981556
20
-2.03332596988554
30
0
41
1
10
47.4082432005666
20
-2.07993822902131
30
0
41
1
10
47.3333224977929
20
-2.18169107623606
30
0
41
1
10
47.2982181867481
20
-2.23557837197038
30
0
41
1
10
47.2499644186327
20
-2.32203568869332
30
0
41
1
10
47.2345688496356
20
-2.35195978989344
30
0
41
1
10
47.2064298041135
20
-2.41215846561812
30
0
41
1
10
47.1935688846883
20
-2.44261784173656
30
0
41
1
10
47.1705643294042
20
-2.50434606223129
30
0
41
1
10
47.160376357635
20
-2.53587170349906
30
0
41
1
10
47.1438683542105
20
-2.59721794229998
30
0
41
1
10
47.1374252122844
20
-2.62730148162788
30
0
41
1
10
47.1283385293305
20
-2.68623148550287
30
0
41
1
10
47.1257166936665
20
-2.71536923079347
30
0
41
1
10
47.1246456215077
20
-2.76986001803272
30
0
41
1
10
47.1261191160188
20
-2.79545138074732
30
0
41
1
10
47.1329031861685
20
-2.84347504488596
30
0
41
1
10
47.1382550984097
20
-2.86584086198246
30
0
41
1
10
47.1521300825748
20
-2.90601842383825
30
0
41
1
10
47.1606798815536
20
-2.9240763922721
30
0
41
1
10
47.1907416980034
20
-2.9726925487989
30
0
41
1
10
47.2157884087067
20
-2.99649834110085
30
0
41
1
10
47.2730830229654
20
-3.03056324694327
30
0
41
1
10
47.3054616010371
20
-3.04063880332842
30
0
41
1
10
47.4076244461582
20
-3.05282842889628
30
0
41
1
10
47.4849254036507
20
-3.0375359595372
30
0
41
1
10
47.5640014703214
20
-3.00468549696899
30
0
0
SPLINE
5
AB
100
AcDbEntity
8
1
62
256
6
ByLayer
370
18
48
1
60
0
100
AcDbSpline
70
4
71
3
72
16
73
12
40
0
40
0
40
0
40
0
40
0.0597091917587664
40
0.0597091917587664
40
0.247767353407014
40
0.247767353407014
40
0.435825515055263
40
0.435825515055263
40
0.623883676703509
40
0.623883676703509
40
1
40
1
40
1
40
1
41
1
10
25.8912638181802
20
-3.20974189592207
30
0
41
1
10
25.7370637479944
20
-3.23440422102868
30
0
41
1
10
25.5828710077932
20
-3.25877331116396
30
0
41
1
10
24.9430695916659
20
-3.35879328774263
30
0
41
1
10
24.4575586040447
20
-3.43192717637942
30
0
41
1
10
23.4867798854215
20
-3.57189902959769
30
0
41
1
10
23.0014132742529
20
-3.63849019644468
30
0
41
1
10
22.0303828679426
20
-3.76330776302856
30
0
41
1
10
21.5447434252507
20
-3.82134357526863
30
0
41
1
10
20.0869475151787
20
-3.98235507988883
30
0
41
1
10
19.1140951114467
20
-4.07503228802995
30
0
41
1
10
18.1399818763789
20
-4.15032022713356
30
0
0
SPLINE
5
AC
100
AcDbEntity
8
1
62
256
6
ByLayer
370
18
48
1
60
0
100
AcDbSpline
70
4
71
3
72
21
73
17
40
0
40
0
40
0
40
0
40
0.107715174475135
40
0.107715174475135
40
0.21543034895027
40
0.323145523425406
40
0.323145523425406
40
0.430860697900541
40
0.430860697900541
40
0.646291046850812
40
0.646291046850812
40
0.754006221325947
40
0.754006221325947
40
0.861721395801082
40
0.861721395801082
40
1
40
1
40
1
40
1
41
1
10
4.00062699332872
20
2.60327108832249
30
0
41
1
10
4.00062798563076
20
2.73764968341578
30
0
41
1
10
4.00062895678806
20
2.8675898139949
30
0
41
1
10
4.00063083406408
20
3.11442774291484
30
0
41
1
10
4.00063264905052
20
3.34862454759917
30
0
41
1
10
4.00063436071727
20
3.55813544481592
30
0
41
1
10
4.00063602983937
20
3.75519371677581
30
0
41
1
10
4.00063684654762
20
3.84786415958234
30
0
41
1
10
4.00063922100745
20
4.10385282774408
30
0
41
1
10
4.00064068072132
20
4.2429804321888
30
0
41
1
10
4.00064274078196
20
4.40576710312186
30
0
41
1
10
4.00064340551515
20
4.4523159658543
30
0
41
1
10
4.00064469628191
20
4.52944373025187
30
0
41
1
10
4.00064531350014
20
4.55946409454685
30
0
41
1
10
4.00064665743787
20
4.60869138720076
30
0
41
1
10
4.00064736849978
20
4.62265855701142
30
0
41
1
10
4.00064803671549
20
4.622731088059
30
0
0
SPLINE
5
AD
100
AcDbEntity
8
1
62
256
6
ByLayer
370
18
48
1
60
0
100
AcDbSpline
70
4
71
3
72
34
73
30
40
0
40
0
40
0
40
0
40
0.0625000000000003
40
0.0625000000000003
40
0.125000000000001
40
0.125000000000001
40
0.250000000000001
40
0.250000000000001
40
0.312500000000001
40
0.312500000000001
40
0.375000000000001
40
0.375000000000001
40
0.437500000000001
40
0.437500000000001
40
0.500000000000001
40
0.500000000000001
40
0.562500000000001
40
0.562500000000001
40
0.625000000000001
40
0.625000000000001
40
0.687500000000001
40
0.687500000000001
40
0.75
40
0.75
40
0.8125
40
0.8125
40
0.875
40
0.875
40
1
40
1
40
1
40
1
41
1
10
47.5695641685448
20
-4.5470313701293
30
0
41
1
10
46.6653106293317
20
-4.59372076913198
30
0
41
1
10
45.760801030956
20
-4.62426380068996
30
0
41
1
10
43.9530477392739
20
-4.65247413535209
30
0
41
1
10
43.0500375665961
20
-4.65015281428322
30
0
41
1
10
40.3417599733116
20
-4.59413891888832
30
0
41
1
10
38.5372586803047
20
-4.49123950019654
30
0
41
1
10
35.8256281432712
20
-4.24418850615891
30
0
41
1
10
34.9211055266449
20
-4.14651363496714
30
0
41
1
10
33.1144431286268
20
-3.92307322219787
30
0
41
1
10
32.2117468334834
20
-3.79707998098476
30
0
41
1
10
30.4063582419991
20
-3.51943247767861
30
0
41
1
10
29.5036413974314
20
-3.36786596697021
30
0
41
1
10
27.6972389228662
20
-3.04174693123869
30
0
41
1
10
26.793140117931
20
-2.86721701349492
30
0
41
1
10
24.9844425908955
20
-2.49949225809547
30
0
41
1
10
24.0804935246259
20
-2.30624313639998
30
0
41
1
10
22.272309502185
20
-1.90470998632915
30
0
41
1
10
21.3677369529199
20
-1.69643005540368
30
0
41
1
10
19.5592932303883
20
-1.26991661138652
30
0
41
1
10
18.6553491015895
20
-1.05147683688753
30
0
41
1
10
16.8468597500674
20
-0.608745727439327
30
0
41
1
10
15.9422300369705
20
-0.384489716916221
30
0
41
1
10
14.1343298773142
20
0.0647742530755124
30
0
41
1
10
13.2306604216616
20
0.289782286003543
30
0
41
1
10
11.4228245892728
20
0.736276691741409
30
0
41
1
10
10.5181931649996
20
0.957708364392971
30
0
41
1
10
7.80540431365188
20
1.60909033344825
30
0
41
1
10
5.99880811736483
20
2.02580170569388
30
0
41
1
10
4.18975114348424
20
2.40863096306168
30
0
0
SPLINE
5
AE
100
AcDbEntity
8
1
62
256
6
ByLayer
370
13
48
1
60
0
100
AcDbSpline
70
4
71
3
72
20
73
16
40
0
40
0
40
0
40
0
40
0.114247549355826
40
0.114247549355826
40
0.228495098711652
40
0.342742648067479
40
0.342742648067479
40
0.456990197423305
40
0.456990197423305
40
0.685485296134957
40
0.685485296134957
40
0.799732845490783
40
0.799732845490783
40
0.91398039484661
40
1
40
1
40
1
40
1
41
1
10
4.25018852432393
20
2.36080033037012
30
0
41
1
10
4.25020129174109
20
2.49648033446854
30
0
41
1
10
4.2502136715058
20
2.62731173488521
30
0
41
1
10
4.25023746010592
20
2.87579485431326
30
0
41
1
10
4.25026036872319
20
3.11207362381038
30
0
41
1
10
4.25028183969448
20
3.32430472704465
30
0
41
1
10
4.25030273316398
20
3.52426255809772
30
0
41
1
10
4.25031292779832
20
3.61838349060608
30
0
41
1
10
4.25034215228061
20
3.87548401834619
30
0
41
1
10
4.25036007343303
20
4.01580904240078
30
0
41
1
10
4.25038543854723
20
4.179743415438
30
0
41
1
10
4.25039367903275
20
4.22672199835205
30
0
41
1
10
4.25040939032229
20
4.30272522322096
30
0
41
1
10
4.25042254053528
20
4.3540867747806
30
0
41
1
10
4.25043474845143
20
4.37928995448527
30
0
41
1
10
4.25043982684534
20
4.38523931091831
30
0
0
SPLINE
5
AF
100
AcDbEntity
8
1
62
256
6
ByLayer
370
18
48
1
60
0
100
AcDbSpline
70
4
71
3
72
8
73
4
40
0
40
0
40
0
40
0
40
1
40
1
40
1
40
1
41
1
10
47.5695641685449
20
-4.54703137012928
30
0
41
1
10
47.5630687272713
20
-4.50384241347103
30
0
41
1
10
47.5565840959911
20
-4.4606398217708
30
0
41
1
10
47.5501102458389
20
-4.41742382452122
30
0
0
SPLINE
5
B0
100
AcDbEntity
8
1
62
256
6
ByLayer
370
18
48
1
60
0
100
AcDbSpline
70
4
71
3
72
24
73
20
40
0
40
0
40
0
40
0
40
0.171394523958685
40
0.171394523958685
40
0.257091785938029
40
0.257091785938029
40
0.342789047917372
40
0.342789047917372
40
0.514183571876057
40
0.514183571876057
40
0.599880833855401
40
0.599880833855401
40
0.685578095834744
40
0.685578095834744
40
0.856972619793429
40
0.856972619793429
40
0.942669881772772
40
0.942669881772772
40
1
40
1
40
1
40
1
41
1
10
22.6616038161538
20
-2.57611998483128
30
0
41
1
10
23.7062037357711
20
-2.79597339372788
30
0
41
1
10
24.7511205251248
20
-2.99789605010616
30
0
41
1
10
26.3176299580937
20
-3.27985817536953
30
0
41
1
10
26.8396638751236
20
-3.37027918741964
30
0
41
1
10
27.8832861631963
20
-3.54427410161415
30
0
41
1
10
28.4046960849667
20
-3.62826245160306
30
0
41
1
10
29.969895482568
20
-3.86534658745447
30
0
41
1
10
31.0156856398192
20
-4.00274753158391
30
0
41
1
10
32.5839940702921
20
-4.18195132975092
30
0
41
1
10
33.1064129145729
20
-4.23705488654045
30
0
41
1
10
34.1503507768424
20
-4.33796866452968
30
0
41
1
10
34.671824320953
20
-4.38373665162359
30
0
41
1
10
36.2375446444799
20
-4.50330928877091
30
0
41
1
10
37.2822130369915
20
-4.56115976520746
30
0
41
1
10
38.8492326111227
20
-4.61674021532332
30
0
41
1
10
39.3715554328047
20
-4.63000397863806
30
0
41
1
10
40.2433250448077
20
-4.64292437411797
30
0
41
1
10
40.5926740953463
20
-4.64557412263025
30
0
41
1
10
40.9420374589906
20
-4.64575494944256
30
0
0
SPLINE
5
B1
100
AcDbEntity
8
1
62
256
6
ByLayer
370
18
48
1
60
0
100
AcDbSpline
70
4
71
3
72
24
73
20
40
0
40
0
40
0
40
0
40
0.0624999999999995
40
0.0624999999999995
40
0.124999999999999
40
0.124999999999999
40
0.187499999999999
40
0.187499999999999
40
0.249999999999998
40
0.249999999999998
40
0.374999999999998
40
0.374999999999998
40
0.499999999999999
40
0.499999999999999
40
0.624999999999999
40
0.624999999999999
40
0.749999999999999
40
0.749999999999999
40
1
40
1
40
1
40
1
41
1
10
4.25052094657761
20
-3.24230393140343
30
0
41
1
10
4.50893488797416
20
-3.35727103859227
30
0
41
1
10
4.7748004591044
20
-3.455466575316
30
0
41
1
10
5.31643111197866
20
-3.62983312129413
30
0
41
1
10
5.59227176808957
20
-3.70583115142253
30
0
41
1
10
6.15142234139796
20
-3.84144522733175
30
0
41
1
10
6.43357777969456
20
-3.90071029307202
30
0
41
1
10
6.99953259563736
20
-4.00586660507219
30
0
41
1
10
7.28376955744713
20
-4.05183041264951
30
0
41
1
10
8.13961174256019
20
-4.17383023272367
30
0
41
1
10
8.7142988515576
20
-4.2342834910464
30
0
41
1
10
9.86986244599868
20
-4.3271565485106
30
0
41
1
10
10.4510406428445
20
-4.35706166760926
30
0
41
1
10
11.6190442036518
20
-4.39264085009523
30
0
41
1
10
12.2058723786108
20
-4.39832709730348
30
0
41
1
10
13.3846312550138
20
-4.39096933515856
30
0
41
1
10
13.977145080912
20
-4.3774547141754
30
0
41
1
10
15.7569409707708
20
-4.3179835575892
30
0
41
1
10
16.9462422525985
20
-4.24248400525732
30
0
41
1
10
18.1397447614974
20
-4.15033855309687
30
0
0
SPLINE
5
B2
100
AcDbEntity
8
1
62
256
6
ByLayer
370
18
48
1
60
0
100
AcDbSpline
70
4
71
3
72
12
73
8
40
0
40
0
40
0
40
0
40
0.292022806474658
40
0.292022806474658
40
0.65274721347154
40
0.65274721347154
40
1
40
1
40
1
40
1
41
1
10
23.0798144499628
20
-2.62934397039965
30
0
41
1
10
22.5999742838802
20
-2.79234560129669
30
0
41
1
10
22.1195107381704
20
-2.95166096599817
30
0
41
1
10
21.0453128689859
20
-3.29778122334994
30
0
41
1
10
20.4515723759006
20
-3.48222826840913
30
0
41
1
10
19.2853615184947
20
-3.82983185387207
30
0
41
1
10
18.7129248810383
20
-3.99352779209468
30
0
41
1
10
18.1398682896799
20
-4.15035131153081
30
0
0
SPLINE
5
B3
100
AcDbEntity
8
1
62
256
6
ByLayer
370
13
48
1
60
0
100
AcDbSpline
70
4
71
3
72
20
73
16
40
0
40
0
40
0
40
0
40
0.115428119687405
40
0.115428119687405
40
0.262856766406172
40
0.262856766406172
40
0.410285413124938
40
0.410285413124938
40
0.557714059843704
40
0.557714059843704
40
0.631428383203087
40
0.631428383203087
40
0.70514270656247
40
0.70514270656247
40
1
40
1
40
1
40
1
41
1
10
4.25044903402008
20
-4.39066091157051
30
0
41
1
10
4.25045410958927
20
-4.39055093945805
30
0
41
1
10
4.2504590104505
20
-4.38508519357575
30
0
41
1
10
4.25046967381812
20
-4.36025051629164
30
0
41
1
10
4.25047526493051
20
-4.33757233019142
30
0
41
1
10
4.25048559872241
20
-4.2756160547988
30
0
41
1
10
4.25049035455928
20
-4.23630785779324
30
0
41
1
10
4.25049899870308
20
-4.14113379208851
30
0
41
1
10
4.25050288724279
20
-4.08526907168547
30
0
41
1
10
4.25050798799654
20
-3.98868465493038
30
0
41
1
10
4.25050956746884
20
-3.95427828568177
30
0
41
1
10
4.2505124291221
20
-3.88199717477488
30
0
41
1
10
4.25051371650559
20
-3.84404050770692
30
0
41
1
10
4.25051941342744
20
-3.6453408284801
30
0
41
1
10
4.2505216423053
20
-3.45816299741423
30
0
41
1
10
4.25052094683457
20
-3.24230393140388
30
0
0
SPLINE
5
B4
100
AcDbEntity
8
1
62
256
6
ByLayer
370
18
48
1
60
0
100
AcDbSpline
70
4
71
3
72
19
73
15
40
0
40
0
40
0
40
0
40
0.10669882859714
40
0.10669882859714
40
0.181140592880711
40
0.181140592880711
40
0.255582357164283
40
0.255582357164283
40
0.404465885731426
40
0.55334941429857
40
0.55334941429857
40
0.702232942865713
40
0.702232942865713
40
1
40
1
40
1
40
1
41
1
10
4.00064803608652
20
-4.62273101568996
30
0
41
1
10
4.00064840913822
20
-4.62277637383264
30
0
41
1
10
4.00064876883667
20
-4.61849145976521
30
0
41
1
10
4.00064935727804
20
-4.60380948687273
30
0
41
1
10
4.00064959319482
20
-4.59559447423044
30
0
41
1
10
4.00065004693065
20
-4.57500218747481
30
0
41
1
10
4.00065026514295
20
-4.56262880966636
30
0
41
1
10
4.00065089398492
20
-4.51939417679762
30
0
41
1
10
4.00065166391394
20
-4.44547506006575
30
0
41
1
10
4.00065229239354
20
-4.33943313898558
30
0
41
1
10
4.00065284361952
20
-4.21701020818349
30
0
41
1
10
4.00065308114768
20
-4.14718133753289
30
0
41
1
10
4.00065365028502
20
-3.91736582929167
30
0
41
1
10
4.00065384689694
20
-3.73648781901571
30
0
41
1
10
4.00065382748409
20
-3.52816272875958
30
0
0
SPLINE
5
B5
100
AcDbEntity
8
1
62
256
6
ByLayer
370
18
48
1
60
0
100
AcDbSpline
70
4
71
3
72
8
73
4
40
0
40
0
40
0
40
0
40
1
40
1
40
1
40
1
41
1
10
47.6065783349646
20
-3.52500049746911
30
0
41
1
10
47.6413036471413
20
-3.80303713807228
30
0
41
1
10
47.6811003190539
20
-4.07585370947538
30
0
41
1
10
47.7251206289736
20
-4.34432279148285
30
0
0
SPLINE
5
B6
100
AcDbEntity
8
1
62
256
6
ByLayer
370
18
48
1
60
0
100
AcDbSpline
70
4
71
3
72
48
73
44
40
0
40
0
40
0
40
0
40
0.249999999999995
40
0.249999999999995
40
0.312499999999994
40
0.312499999999994
40
0.374999999999993
40
0.374999999999993
40
0.437499999999992
40
0.437499999999992
40
0.499999999999991
40
0.499999999999991
40
0.56249999999999
40
0.56249999999999
40
0.593749999999991
40
0.593749999999991
40
0.624999999999992
40
0.624999999999992
40
0.656249999999993
40
0.656249999999993
40
0.687499999999995
40
0.687499999999995
40
0.703124999999995
40
0.703124999999995
40
0.718749999999996
40
0.718749999999996
40
0.734374999999997
40
0.734374999999997
40
0.749999999999998
40
0.749999999999998
40
0.765624999999998
40
0.765624999999998
40
0.781249999999999
40
0.781249999999999
40
0.796875
40
0.796875
40
0.8125
40
0.8125
40
0.875
40
0.875
40
0.9375
40
0.9375
40
1
40
1
40
1
40
1
41
1
10
41.4768488744338
20
-0.088641840900749
30
0
41
1
10
42.1708375305104
20
-0.284793198004962
30
0
41
1
10
42.8655476813498
20
-0.470088058429468
30
0
41
1
10
43.7346321353716
20
-0.680502171971852
30
0
41
1
10
43.9084678139955
20
-0.72153787008898
30
0
41
1
10
44.2561793986133
20
-0.801367224975877
30
0
41
1
10
44.4300867096419
20
-0.841262397941478
30
0
41
1
10
44.7777750069633
20
-0.910734116316263
30
0
41
1
10
44.9513864037681
20
-0.940649655605398
30
0
41
1
10
45.2979845636224
20
-0.987544491381158
30
0
41
1
10
45.4705865272619
20
-1.00429691870173
30
0
41
1
10
45.8130577111919
20
-1.01903266935702
30
0
41
1
10
45.9830584622405
20
-1.01732818263412
30
0
41
1
10
46.2324009278695
20
-0.997087443043512
30
0
41
1
10
46.3146712764284
20
-0.987339401789285
30
0
41
1
10
46.4769985458925
20
-0.959970923598007
30
0
41
1
10
46.5573715269139
20
-0.94227258063691
30
0
41
1
10
46.7125438009343
20
-0.895939070441585
30
0
41
1
10
46.7876773074177
20
-0.867361034430672
30
0
41
1
10
46.9288402497907
20
-0.793103789139252
30
0
41
1
10
46.993615115063
20
-0.748441841203601
30
0
41
1
10
47.074968205865
20
-0.660938503841152
30
0
41
1
10
47.0989180843645
20
-0.628590443193247
30
0
41
1
10
47.1379038321802
20
-0.557785001424634
30
0
41
1
10
47.153236463175
20
-0.518509981942827
30
0
41
1
10
47.1727861370623
20
-0.436239130176915
30
0
41
1
10
47.1771992969614
20
-0.393184075598725
30
0
41
1
10
47.1750405840248
20
-0.303141020858192
30
0
41
1
10
47.1684397604571
20
-0.257357331376767
30
0
41
1
10
47.1461315382518
20
-0.166429809570076
30
0
41
1
10
47.1302457735973
20
-0.120740885386596
30
0
41
1
10
47.0922911962435
20
-0.0326547097942296
30
0
41
1
10
47.0701376535109
20
0.0102144691279875
30
0
41
1
10
47.0209167100682
20
0.0941367186307787
30
0
41
1
10
46.9937014185951
20
0.135339243327053
30
0
41
1
10
46.936550466161
20
0.214692598484447
30
0
41
1
10
46.9064972091785
20
0.253048715763299
30
0
41
1
10
46.7508294820232
20
0.440002517052363
30
0
41
1
10
46.608819277422
20
0.574491851995674
30
0
41
1
10
46.3163415386748
20
0.831486426816269
30
0
41
1
10
46.1752065506653
20
0.96614877109559
30
0
41
1
10
45.9061801695745
20
1.25147060184128
30
0
41
1
10
45.7798341734238
20
1.40123183425015
30
0
41
1
10
45.6649825704052
20
1.56028583968248
30
0
0
SPLINE
5
B7
100
AcDbEntity
8
1
62
256
6
ByLayer
370
18
48
1
60
0
100
AcDbSpline
70
4
71
3
72
8
73
4
40
0
40
0
40
0
40
0
40
1
40
1
40
1
40
1
41
1
10
47.6065783349646
20
3.52500049746911
30
0
41
1
10
47.6413036471413
20
3.80303713807226
30
0
41
1
10
47.6811003190539
20
4.07585370947538
30
0
41
1
10
47.7251206289736
20
4.34432279148285
30
0
0
SPLINE
5
B8
100
AcDbEntity
8
1
62
256
6
ByLayer
370
18
48
1
60
0
100
AcDbSpline
70
4
71
3
72
10
73
6
40
0
40
0
40
0
40
0
40
0.5
40
0.5
40
1
40
1
40
1
40
1
41
1
10
45.6903258027928
20
1.59440337535386
30
0
41
1
10
46.1751599470271
20
1.55837204084369
30
0
41
1
10
46.6600221748162
20
1.52027317087666
30
0
41
1
10
47.6298093707785
20
1.43945642995899
30
0
41
1
10
48.1147316876026
20
1.39693375360153
30
0
41
1
10
48.5996746149747
20
1.35289371098176
30
0
0
SPLINE
5
B9
100
AcDbEntity
8
1
62
256
6
ByLayer
370
18
48
1
60
0
100
AcDbSpline
70
4
71
3
72
10
73
6
40
0
40
0
40
0
40
0
40
0.5
40
0.5
40
1
40
1
40
1
40
1
41
1
10
47.5501102458389
20
-4.41742382452122
30
0
41
1
10
47.5460363870804
20
-4.39022889959105
30
0
41
1
10
47.5392860622264
20
-4.36784058049668
30
0
41
1
10
47.5250828124523
20
-4.34154454659728
30
0
41
1
10
47.5175587512538
20
-4.33708008190058
30
0
41
1
10
47.5111652187276
20
-4.34213194867593
30
0
0
SPLINE
5
BA
100
AcDbEntity
8
1
62
256
6
ByLayer
370
18
48
1
60
0
100
AcDbSpline
70
4
71
3
72
34
73
30
40
0
40
0
40
0
40
0
40
0.125
40
0.125
40
0.1875
40
0.1875
40
0.25
40
0.25
40
0.312499999999999
40
0.312499999999999
40
0.374999999999998
40
0.374999999999998
40
0.499999999999997
40
0.499999999999997
40
0.562499999999998
40
0.562499999999998
40
0.624999999999998
40
0.624999999999998
40
0.687499999999998
40
0.687499999999998
40
0.749999999999999
40
0.749999999999999
40
0.812499999999999
40
0.812499999999999
40
0.874999999999999
40
0.874999999999999
40
0.9375
40
0.9375
40
1
40
1
40
1
40
1
41
1
10
18.1399818763796
20
4.15032022713336
30
0
41
1
10
19.1140560286068
20
4.07503530869144
30
0
41
1
10
20.0873422166305
20
3.98232542121357
30
0
41
1
10
21.5463949660197
20
3.82115418389304
30
0
41
1
10
22.0325739096014
20
3.76304239273611
30
0
41
1
10
23.004957784812
20
3.63801821481758
30
0
41
1
10
23.4911287835819
20
3.57129557347847
30
0
41
1
10
24.463755049408
20
3.43100989358615
30
0
41
1
10
24.9503100165642
20
3.35769391052219
30
0
41
1
10
25.9238394847487
20
3.20543672275664
30
0
41
1
10
26.4108975298974
20
3.12662803367337
30
0
41
1
10
27.8710338704312
20
2.8798145613678
30
0
41
1
10
28.8431990186885
20
2.69931623666761
30
0
41
1
10
30.3015269862711
20
2.41468633387834
30
0
41
1
10
30.7877713530808
20
2.31805850035332
30
0
41
1
10
31.7604282305333
20
2.12022377539438
30
0
41
1
10
32.2468319168914
20
2.01892292281033
30
0
41
1
10
33.2198010515184
20
1.81297196583546
30
0
41
1
10
33.7063591762548
20
1.70772487675873
30
0
41
1
10
34.6797930294763
20
1.49248772456764
30
0
41
1
10
35.1660850182428
20
1.38280132359145
30
0
41
1
10
36.1381713883362
20
1.16153710421091
30
0
41
1
10
36.6240599210353
20
1.0502469305124
30
0
41
1
10
37.5955141654234
20
0.826290188190029
30
0
41
1
10
38.081098015128
20
0.713700968467123
30
0
41
1
10
39.0519043758037
20
0.486979107020716
30
0
41
1
10
39.5370295900759
20
0.372430326098026
30
0
41
1
10
40.50705077342
20
0.142361388780444
30
0
41
1
10
40.9919021593993
20
0.0266492162947145
30
0
41
1
10
41.4768488744338
20
-0.0886418409007774
30
0
0
SPLINE
5
BB
100
AcDbEntity
8
1
62
256
6
ByLayer
370
18
48
1
60
0
100
AcDbSpline
70
4
71
3
72
24
73
20
40
0
40
0
40
0
40
0
40
0.250000000000001
40
0.250000000000001
40
0.375000000000001
40
0.375000000000001
40
0.437500000000002
40
0.437500000000002
40
0.500000000000002
40
0.500000000000002
40
0.625000000000003
40
0.625000000000003
40
0.687500000000001
40
0.687500000000001
40
0.75
40
0.75
40
0.875
40
0.875
40
1
40
1
40
1
40
1
41
1
10
47.4662323005118
20
-4.37314310551676
30
0
41
1
10
47.235898291718
20
-4.41966194307363
30
0
41
1
10
47.0178268116618
20
-4.4302176715762
30
0
41
1
10
46.711366057904
20
-4.38550004068026
30
0
41
1
10
46.6126847255039
20
-4.3604108657434
30
0
41
1
10
46.4705756886109
20
-4.30543577910865
30
0
41
1
10
46.4241014166593
20
-4.28413346155892
30
0
41
1
10
46.3346260698193
20
-4.23602347309978
30
0
41
1
10
46.2914625101904
20
-4.20916857150115
30
0
41
1
10
46.1668283412336
20
-4.11996549633278
30
0
41
1
10
46.0901870373614
20
-4.04902734152583
30
0
41
1
10
45.9858567609277
20
-3.9237093306979
30
0
41
1
10
45.9528581361344
20
-3.8787738582362
30
0
41
1
10
45.8906713043536
20
-3.78212524771325
30
0
41
1
10
45.8616668449137
20
-3.73064181712206
30
0
41
1
10
45.7820839829527
20
-3.56846390148652
30
0
41
1
10
45.738441486106
20
-3.44938732946579
30
0
41
1
10
45.670767074999
20
-3.18840428583678
30
0
41
1
10
45.6467078144767
20
-3.04634756496813
30
0
41
1
10
45.6334851815809
20
-2.89204575990826
30
0
0
SPLINE
5
BC
100
AcDbEntity
8
1
62
256
6
ByLayer
370
18
48
1
60
0
100
AcDbSpline
70
4
71
3
72
14
73
10
40
0
40
0
40
0
40
0
40
0.0465281227274849
40
0.0465281227274849
40
0.424440400825541
40
0.424440400825541
40
0.802352678923598
40
0.802352678923598
40
1
40
1
40
1
40
1
41
1
10
14.391163917405
20
0.0009905879149983
30
0
41
1
10
14.6135904356632
20
-0.0527041208582375
30
0
41
1
10
14.8359833899921
20
-0.10639684991034
30
0
41
1
10
16.8640838222218
20
-0.595813573913802
30
0
41
1
10
18.6670660079147
20
-1.0290602533909
30
0
41
1
10
22.2759425420308
20
-1.85550296477439
30
0
41
1
10
24.0830553980824
20
-2.24957447325843
30
0
41
1
10
26.8353702568276
20
-2.79296174032683
30
0
41
1
10
27.7794625599986
20
-2.96937978137356
30
0
41
1
10
28.723108385109
20
-3.13378016665067
30
0
0
SPLINE
5
BD
100
AcDbEntity
8
1
62
256
6
ByLayer
370
13
48
1
60
0
100
AcDbSpline
70
4
71
3
72
18
73
14
40
0
40
0
40
0
40
0
40
0.137187755921482
40
0.137187755921482
40
0.280989796601235
40
0.280989796601235
40
0.424791837280987
40
0.424791837280987
40
0.712395918640493
40
0.712395918640493
40
0.856197959320247
40
0.856197959320247
40
1
40
1
40
1
40
1
41
1
10
28.7231083850131
20
-3.13378016663398
30
0
41
1
10
29.5837639870577
20
-3.28372213511688
30
0
41
1
10
30.4440481899763
20
-3.423667314862
30
0
41
1
10
32.2062761576535
20
-3.68697573544668
30
0
41
1
10
33.1082149168225
20
-3.80932569371194
30
0
41
1
10
34.9134395534871
20
-4.02634106063937
30
0
41
1
10
35.8172393837862
20
-4.12120650217963
30
0
41
1
10
38.5257464719218
20
-4.36116423274063
30
0
41
1
10
40.3285922354892
20
-4.46140589130127
30
0
41
1
10
43.0346070672152
20
-4.51626334063471
30
0
41
1
10
43.9369101078707
20
-4.51879461408234
30
0
41
1
10
45.7432579256996
20
-4.49190102784567
30
0
41
1
10
46.646750942887
20
-4.46246495549693
30
0
41
1
10
47.5501102458389
20
-4.41742382452122
30
0
0
SPLINE
5
BE
100
AcDbEntity
8
1
62
256
6
ByLayer
370
18
48
1
60
0
100
AcDbSpline
70
4
71
3
72
28
73
24
40
0
40
0
40
0
40
0
40
0.0663434752321869
40
0.0663434752321869
40
0.138163207906634
40
0.138163207906634
40
0.281802673255529
40
0.281802673255529
40
0.353622405929976
40
0.353622405929976
40
0.425442138604423
40
0.425442138604423
40
0.569081603953318
40
0.569081603953318
40
0.640901336627765
40
0.640901336627765
40
0.712721069302211
40
0.712721069302211
40
0.856360534651105
40
0.856360534651105
40
0.928180267325553
40
0.928180267325553
40
1
40
1
40
1
40
1
41
1
10
25.9149041441983
20
3.20730828150027
30
0
41
1
10
26.3972388763035
20
3.29362748203957
30
0
41
1
10
26.8794519953877
20
3.37691274694635
30
0
41
1
10
27.8832861631963
20
3.54427410161418
30
0
41
1
10
28.4046960849668
20
3.62826245160306
30
0
41
1
10
29.969895482568
20
3.86534658745447
30
0
41
1
10
31.0156856398193
20
4.00274753158394
30
0
41
1
10
32.5839940702922
20
4.18195132975095
30
0
41
1
10
33.106412914573
20
4.23705488654045
30
0
41
1
10
34.1503507768425
20
4.33796866452968
30
0
41
1
10
34.6718243209531
20
4.38373665162359
30
0
41
1
10
36.23754464448
20
4.50330928877091
30
0
41
1
10
37.2822130369916
20
4.56115976520746
30
0
41
1
10
38.8492326111228
20
4.61674021532332
30
0
41
1
10
39.3715554328048
20
4.63000397863806
30
0
41
1
10
40.416226302362
20
4.64548692343811
30
0
41
1
10
40.9383715268791
20
4.64757711325234
30
0
41
1
10
42.5052329697987
20
4.63749757681776
30
0
41
1
10
43.5497622569183
20
4.60935626357042
30
0
41
1
10
45.115432604547
20
4.5343641170175
30
0
41
1
10
45.6369927034733
20
4.5036722626443
30
0
41
1
10
46.6803852176577
20
4.43141897264843
30
0
41
1
10
47.202559801983
20
4.39030462706469
30
0
41
1
10
47.7251206289872
20
4.34432279148166
30
0
0
SPLINE
5
BF
100
AcDbEntity
8
1
62
256
6
ByLayer
370
18
48
1
60
0
100
AcDbSpline
70
4
71
3
72
8
73
4
40
0
40
0
40
0
40
0
40
1
40
1
40
1
40
1
41
1
10
4.001639799515
20
2.58867900176639
30
0
41
1
10
4.00096712598096
20
2.59352528960866
30
0
41
1
10
4.00062695739749
20
2.59840524315081
30
0
41
1
10
4.00062699332872
20
2.60327108830686
30
0
0
SPLINE
5
C0
100
AcDbEntity
8
1
62
256
6
ByLayer
370
18
48
1
60
0
100
AcDbSpline
70
4
71
3
72
10
73
6
40
0
40
0
40
0
40
0
40
0.5
40
0.5
40
1
40
1
40
1
40
1
41
1
10
4.18975114348424
20
2.40863096306168
30
0
41
1
10
4.14022792892993
20
2.41911097321281
30
0
41
1
10
4.09562892738538
20
2.44238619321791
30
0
41
1
10
4.02886959529258
20
2.50650936379506
30
0
41
1
10
4.00740186434246
20
2.54716610834757
30
0
41
1
10
4.00163979951432
20
2.58867900177344
30
0
0
SPLINE
5
C1
100
AcDbEntity
8
1
62
256
6
ByLayer
370
18
48
1
60
0
100
AcDbSpline
70
4
71
3
72
18
73
14
40
0
40
0
40
0
40
0
40
0.250000000000011
40
0.250000000000011
40
0.500000000000021
40
0.500000000000021
40
0.625000000000016
40
0.625000000000016
40
0.750000000000011
40
0.750000000000011
40
0.875000000000005
40
0.875000000000005
40
1
40
1
40
1
40
1
41
1
10
4.00065382748411
20
-3.52816272875978
30
0
41
1
10
4.00235363605373
20
-3.49069713382255
30
0
41
1
10
4.00726637405731
20
-3.45356722258126
30
0
41
1
10
4.02571332210584
20
-3.3801910963808
30
0
41
1
10
4.03931469510113
20
-3.34341536723838
30
0
41
1
10
4.07044327539012
20
-3.29401665441432
30
0
41
1
10
4.08238736695768
20
-3.27892158825463
30
0
41
1
10
4.11074302179736
20
-3.25292467889491
30
0
41
1
10
4.12704746475262
20
-3.24235851380732
30
0
41
1
10
4.16252230130956
20
-3.22931583033389
30
0
41
1
10
4.18105520240738
20
-3.22710621992121
30
0
41
1
10
4.21693986788964
20
-3.2300524614341
30
0
41
1
10
4.2342117703835
20
-3.23504805814326
30
0
41
1
10
4.2505209468346
20
-3.2423039315178
30
0
0
SPLINE
5
C2
100
AcDbEntity
8
1
62
256
6
ByLayer
370
18
48
1
60
0
100
AcDbSpline
70
4
71
3
72
8
73
4
40
0
40
0
40
0
40
0
40
1
40
1
40
1
40
1
41
1
10
47.5111652187276
20
-4.34213194867593
30
0
41
1
10
47.4963256330972
20
-4.35385748683487
30
0
41
1
10
47.4813473195635
20
-4.3641877590189
30
0
41
1
10
47.466232300512
20
-4.37314310551673
30
0
0
SPLINE
5
C3
100
AcDbEntity
8
1
62
256
6
ByLayer
370
18
48
1
60
0
100
AcDbSpline
70
4
71
3
72
10
73
6
40
0
40
0
40
0
40
0
40
0.69060731422795
40
0.69060731422795
40
1
40
1
40
1
40
1
41
1
10
47.5695641685448
20
4.54703137012928
30
0
41
1
10
46.6653106293317
20
4.59372076913198
30
0
41
1
10
45.7608010309561
20
4.62426380068996
30
0
41
1
10
44.4519868507131
20
4.6446880954237
30
0
41
1
10
44.0472232216256
20
4.64771034791966
30
0
41
1
10
43.6425781547595
20
4.64744260506643
30
0
0
SPLINE
5
C4
100
AcDbEntity
8
1
62
256
6
ByLayer
370
18
48
1
60
0
100
AcDbSpline
70
4
71
3
72
30
73
26
40
0
40
0
40
0
40
0
40
0.124999999999992
40
0.124999999999992
40
0.187499999999992
40
0.187499999999992
40
0.249999999999993
40
0.249999999999993
40
0.374999999999993
40
0.374999999999993
40
0.437499999999994
40
0.437499999999994
40
0.499999999999995
40
0.499999999999995
40
0.624999999999996
40
0.624999999999996
40
0.749999999999998
40
0.749999999999998
40
0.812499999999998
40
0.812499999999998
40
0.874999999999999
40
0.874999999999999
40
0.937499999999999
40
0.937499999999999
40
1
40
1
40
1
40
1
41
1
10
47.5640014703297
20
-3.00468549696555
30
0
41
1
10
47.5871428804951
20
-2.97878572705201
30
0
41
1
10
47.6135519358415
20
-2.94365373937535
30
0
41
1
10
47.6575120733117
20
-2.87867525154798
30
0
41
1
10
47.672966123672
20
-2.85481546427232
30
0
41
1
10
47.7044537758909
20
-2.80433328967854
30
0
41
1
10
47.7205874365035
20
-2.77756990966884
30
0
41
1
10
47.7701351965244
20
-2.69280163325959
30
0
41
1
10
47.8049322777233
20
-2.62982940832535
30
0
41
1
10
47.8565801073952
20
-2.53141892058918
30
0
41
1
10
47.8738183700535
20
-2.49776102607643
30
0
41
1
10
47.9083419095934
20
-2.42864551015106
30
0
41
1
10
47.9256770965555
20
-2.39306704798057
30
0
41
1
10
47.9760233257997
20
-2.28704287940224
30
0
41
1
10
48.0081148408551
20
-2.21588394579271
30
0
41
1
10
48.0679777943054
20
-2.07444886729661
30
0
41
1
10
48.0941933215545
20
-2.0078910720645
30
0
41
1
10
48.1272971423695
20
-1.91501663839782
30
0
41
1
10
48.1371255555395
20
-1.88561516609164
30
0
41
1
10
48.1536523848295
20
-1.8320181982653
30
0
41
1
10
48.1604691961388
20
-1.80749672988395
30
0
41
1
10
48.171047460707
20
-1.76326305739443
30
0
41
1
10
48.1746999043316
20
-1.74392549617491
30
0
41
1
10
48.1786244967451
20
-1.71176695714271
30
0
41
1
10
48.1789478896523
20
-1.6987372642827
30
0
41
1
10
48.1776063648799
20
-1.68880555414398
30
0
0
SPLINE
5
C5
100
AcDbEntity
8
1
62
256
6
ByLayer
370
18
48
1
60
0
100
AcDbSpline
70
4
71
3
72
10
73
6
40
0
40
0
40
0
40
0
40
0.5
40
0.5
40
1
40
1
40
1
40
1
41
1
10
47.2184098679301
20
-3.74580907998148
30
0
41
1
10
47.2120667465097
20
-3.75941194776544
30
0
41
1
10
47.2089064381356
20
-3.77386601534067
30
0
41
1
10
47.2090151051798
20
-3.7976933663073
30
0
41
1
10
47.2116929473789
20
-3.80742717603459
30
0
41
1
10
47.2154036731099
20
-3.81567429629376
30
0
0
SPLINE
5
C6
100
AcDbEntity
8
1
62
256
6
ByLayer
370
18
48
1
60
0
100
AcDbSpline
70
4
71
3
72
8
73
4
40
0
40
0
40
0
40
0
40
1
40
1
40
1
40
1
41
1
10
47.6189726637368
20
-3.44815915303357
30
0
41
1
10
47.6078196476302
20
-3.47228322395068
30
0
41
1
10
47.6033178003945
20
-3.49889423602374
30
0
41
1
10
47.6065783349647
20
-3.52500049746908
30
0
0
SPLINE
5
C7
100
AcDbEntity
8
1
62
256
6
ByLayer
370
18
48
1
60
0
100
AcDbSpline
70
4
71
3
72
64
73
60
40
0
40
0
40
0
40
0
40
0.124999999999996
40
0.124999999999996
40
0.249999999999992
40
0.249999999999992
40
0.31249999999999
40
0.31249999999999
40
0.374999999999988
40
0.374999999999988
40
0.437499999999985
40
0.437499999999985
40
0.468749999999985
40
0.468749999999985
40
0.499999999999984
40
0.499999999999984
40
0.624999999999982
40
0.624999999999982
40
0.74999999999998
40
0.74999999999998
40
0.812499999999979
40
0.812499999999979
40
0.828124999999978
40
0.828124999999978
40
0.835937499999979
40
0.835937499999979
40
0.839843749999978
40
0.839843749999978
40
0.843749999999978
40
0.843749999999978
40
0.847656249999978
40
0.847656249999978
40
0.851562499999978
40
0.851562499999978
40
0.853515624999978
40
0.853515624999978
40
0.855468749999977
40
0.855468749999977
40
0.856445312499978
40
0.856445312499978
40
0.857421874999978
40
0.857421874999978
40
0.859374999999978
40
0.859374999999978
40
0.874999999999981
40
0.874999999999981
40
0.890624999999983
40
0.890624999999983
40
0.898437499999984
40
0.898437499999984
40
0.906249999999986
40
0.906249999999986
40
0.921874999999988
40
0.921874999999988
40
0.93749999999999
40
0.93749999999999
40
0.968749999999995
40
0.968749999999995
40
1
40
1
40
1
40
1
41
1
10
22.6615855067026
20
-2.57613689937926
30
0
41
1
10
21.6772423595061
20
-2.3704881896823
30
0
41
1
10
20.6895509222481
20
-2.16855927643752
30
0
41
1
10
18.7040189574464
20
-1.79503166723992
30
0
41
1
10
17.7061412451967
20
-1.6236292205204
30
0
41
1
10
16.1991396499544
20
-1.40766444996115
30
0
41
1
10
15.6945897928901
20
-1.34246703634426
30
0
41
1
10
14.6848240060306
20
-1.22884118814699
30
0
41
1
10
14.1796553571807
20
-1.18039651004867
30
0
41
1
10
13.1686880248003
20
-1.10245933081913
30
0
41
1
10
12.6628897016055
20
-1.07295761592604
30
0
41
1
10
11.9036757587103
20
-1.04448078371266
30
0
41
1
10
11.6505019731421
20
-1.03811924901601
30
0
41
1
10
11.1441055755832
20
-1.02688968451167
30
0
41
1
10
10.8908731726277
20
-1.02232067705427
30
0
41
1
10
9.62454142752532
20
-1.00467659994698
30
0
41
1
10
8.61093357729524
20
-1.00720434995941
30
0
41
1
10
6.5826543871928
20
-1.04484777109585
30
0
41
1
10
5.56783075461837
20
-1.07998968080813
30
0
41
1
10
4.04731952355797
20
-1.15640466730056
30
0
41
1
10
3.54066933601658
20
-1.18582654960434
30
0
41
1
10
2.90771555604005
20
-1.22744265803303
30
0
41
1
10
2.78114116406203
20
-1.23600785965493
30
0
41
1
10
2.59131044328771
20
-1.2492163085893
30
0
41
1
10
2.52803841644268
20
-1.25367924919607
30
0
41
1
10
2.43313769622736
20
-1.26046360259167
30
0
41
1
10
2.4014767301413
20
-1.26237694412836
30
0
41
1
10
2.33831576563836
20
-1.26824538297973
30
0
41
1
10
2.30679256532767
20
-1.27231010346785
30
0
41
1
10
2.24450184940443
20
-1.2831345405711
30
0
41
1
10
2.21367087043763
20
-1.28987086262256
30
0
41
1
10
2.15293371013502
20
-1.30722643173394
30
0
41
1
10
2.12289975244306
20
-1.31778305924496
30
0
41
1
10
2.08047514853229
20
-1.33876644928
30
0
41
1
10
2.06681742638355
20
-1.34661987416695
30
0
41
1
10
2.04168555635911
20
-1.36491145481943
30
0
41
1
10
2.02984154696455
20
-1.375623139299
30
0
41
1
10
2.0166897896278
20
-1.39446035718754
30
0
41
1
10
2.01302948525972
20
-1.40131558471148
30
0
41
1
10
2.00824137139531
20
-1.41590517183778
30
0
41
1
10
2.00761993934162
20
-1.42338815381393
30
0
41
1
10
2.00531866424893
20
-1.44577023092717
30
0
41
1
10
2.00403932152116
20
-1.46069454164294
30
0
41
1
10
1.99484329176201
20
-1.59503979826391
30
0
41
1
10
2.00338986849653
20
-1.71203001961658
30
0
41
1
10
2.05190304242123
20
-1.93937199035187
30
0
41
1
10
2.09086283800545
20
-2.04599692881837
30
0
41
1
10
2.16662169795219
20
-2.19763786354287
30
0
41
1
10
2.19492872938517
20
-2.24700346576864
30
0
41
1
10
2.25609290253414
20
-2.3421337722873
30
0
41
1
10
2.28881517655114
20
-2.38775730220985
30
0
41
1
10
2.39239274875482
20
-2.51972234559992
30
0
41
1
10
2.46860907278011
20
-2.6012035081819
30
0
41
1
10
2.63182405578797
20
-2.75440774634191
30
0
41
1
10
2.71927261246768
20
-2.82638085464572
30
0
41
1
10
2.99001979134556
20
-3.02744281519333
30
0
41
1
10
3.18225515268213
20
-3.14303156065793
30
0
41
1
10
3.58132700070971
20
-3.35139556533707
30
0
41
1
10
3.78832205356852
20
-3.44391958858157
30
0
41
1
10
4.0006538273538
20
-3.52816272870768
30
0
0
SPLINE
5
C8
100
AcDbEntity
8
1
62
256
6
ByLayer
370
18
48
1
60
0
100
AcDbSpline
70
4
71
3
72
12
73
8
40
0
40
0
40
0
40
0
40
0.623991006567099
40
0.623991006567099
40
0.935986509850649
40
0.935986509850649
40
1
40
1
40
1
40
1
41
1
10
18.1397447614854
20
4.15033855309767
30
0
41
1
10
16.9458836833027
20
4.24251168892729
30
0
41
1
10
15.7570248285691
20
4.31795426561104
30
0
41
1
10
13.9794902234277
20
4.3773895704843
30
0
41
1
10
13.3879881140288
20
4.39092550873889
30
0
41
1
10
12.6761904247363
20
4.39539603592976
30
0
41
1
10
12.5550989688002
20
4.39576101425072
30
0
41
1
10
12.4341062906996
20
4.3957061770079
30
0
0
SPLINE
5
C9
100
AcDbEntity
8
1
62
256
6
ByLayer
370
18
48
1
60
0
100
AcDbSpline
70
4
71
3
72
22
73
18
40
0
40
0
40
0
40
0
40
0.201415198102698
40
0.201415198102698
40
0.299618571554192
40
0.299618571554192
40
0.381764250062497
40
0.381764250062497
40
0.451682965880342
40
0.451682965880342
40
0.521379870794783
40
0.521379870794783
40
0.625204147953969
40
0.625204147953969
40
0.809963861093442
40
0.809963861093442
40
1
40
1
40
1
40
1
41
1
10
45.6649825704053
20
1.56028583968253
30
0
41
1
10
45.6625976028055
20
1.56358869867273
30
0
41
1
10
45.6604604459463
20
1.56715256296758
30
0
41
1
10
45.6583729038776
20
1.57285692422758
30
0
41
1
10
45.6578627228753
20
1.57482329812626
30
0
41
1
10
45.6575127378548
20
1.57847259629733
30
0
41
1
10
45.6575820633583
20
1.58018362611764
30
0
41
1
10
45.6582861061302
20
1.58318957589336
30
0
41
1
10
45.6588478476304
20
1.5845372152466
30
0
41
1
10
45.6603718084148
20
1.58692843157297
30
0
41
1
10
45.6613466809984
20
1.58800108198645
30
0
41
1
10
45.6640448911171
20
1.59025443709251
30
0
41
1
10
45.665935726272
20
1.59128253589415
30
0
41
1
10
45.6713428524373
20
1.5934354634399
30
0
41
1
10
45.675087356926
20
1.59410574223423
30
0
41
1
10
45.682624295686
20
1.5947466922137
30
0
41
1
10
45.6864923393229
20
1.59468826618974
30
0
41
1
10
45.6903258027928
20
1.59440337535386
30
0
0
SPLINE
5
CA
100
AcDbEntity
8
1
62
256
6
ByLayer
370
18
48
1
60
0
100
AcDbSpline
70
4
71
3
72
18
73
14
40
0
40
0
40
0
40
0
40
0.125
40
0.125
40
0.25
40
0.25
40
0.375
40
0.375
40
0.5
40
0.5
40
0.75
40
0.75
40
1
40
1
40
1
40
1
41
1
10
41.4768488744338
20
-0.0886418409007774
30
0
41
1
10
41.6182997489754
20
-0.255700560203422
30
0
41
1
10
41.767542564343
20
-0.412640805922308
30
0
41
1
10
42.0774409738339
20
-0.711700869056926
30
0
41
1
10
42.238144958634
20
-0.853757847214041
30
0
41
1
10
42.5686779899397
20
-1.12602216325499
30
0
41
1
10
42.7387207641699
20
-1.25635510003497
30
0
41
1
10
43.0855611925181
20
-1.50655417018606
30
0
41
1
10
43.2610090887309
20
-1.62547304389383
30
0
41
1
10
43.7924255883684
20
-1.9667670202999
30
0
41
1
10
44.1534129084517
20
-2.17384436547329
30
0
41
1
10
44.8859919206512
20
-2.55567543145494
30
0
41
1
10
45.2575480475242
20
-2.73053756015003
30
0
41
1
10
45.6334851815812
20
-2.8920457599084
30
0
0
SPLINE
5
CB
100
AcDbEntity
8
1
62
256
6
ByLayer
370
18
48
1
60
0
100
AcDbSpline
70
4
71
3
72
8
73
4
40
0
40
0
40
0
40
0
40
1
40
1
40
1
40
1
41
1
10
47.6189726637368
20
3.44815915303357
30
0
41
1
10
47.6078196476279
20
3.4722832239556
30
0
41
1
10
47.6033178003939
20
3.4988942360184
30
0
41
1
10
47.6065783349647
20
3.52500049746908
30
0
0
SPLINE
5
CC
100
AcDbEntity
8
SK1
62
256
6
ByLayer
370
18
48
1
60
0
100
AcDbSpline
70
4
71
3
72
10
73
6
40
0
40
0
40
0
40
0
40
0.5
40
0.5
40
1
40
1
40
1
40
1
41
1
10
-40
20
-0.889721238537703
30
0
41
1
10
-39.8300125789989
20
-0.84816160829331
30
0
41
1
10
-39.6561824967249
20
-0.806876805732941
30
0
41
1
10
-39.3052678362557
20
-0.724539962626181
30
0
41
1
10
-39.1280772878367
20
-0.683495501085332
30
0
41
1
10
-38.95
20
-0.642514459274508
30
0
0
SPLINE
5
CD
100
AcDbEntity
8
SK1
62
256
6
ByLayer
370
18
48
1
60
0
100
AcDbSpline
70
4
71
3
72
10
73
6
40
0
40
0
40
0
40
0
40
0.5
40
0.5
40
1
40
1
40
1
40
1
41
1
10
-38.95
20
1.83681833040893
30
0
41
1
10
-39.128099184549
20
1.79583224949349
30
0
41
1
10
-39.3053220088291
20
1.75478024649871
30
0
41
1
10
-39.6562526916486
20
1.67243938350168
30
0
41
1
10
-39.8300697208132
20
1.63115721098774
30
0
41
1
10
-39.9999999999999
20
1.58961155114576
30
0
0
SPLINE
5
CE
100
AcDbEntity
8
SK1
62
256
6
ByLayer
370
18
48
1
60
0
100
AcDbSpline
70
4
71
3
72
14
73
10
40
0
40
0
40
0
40
0
40
0.125000000000003
40
0.125000000000003
40
0.250000000000006
40
0.250000000000006
40
0.500000000000005
40
0.500000000000005
40
1
40
1
40
1
40
1
41
1
10
-38.85
20
1.76380736345217
30
0
41
1
10
-38.85
20
1.77412859645153
30
0
41
1
10
-38.8517453396943
20
1.78320712838107
30
0
41
1
10
-38.8568901241518
20
1.79829659769857
30
0
41
1
10
-38.860211966304
20
1.8043510603965
30
0
41
1
10
-38.8714485682306
20
1.81998703330433
30
0
41
1
10
-38.880205404054
20
1.82657628927223
30
0
41
1
10
-38.9082792076553
20
1.84054793329463
30
0
41
1
10
-38.9286347141253
20
1.84173513751199
30
0
41
1
10
-38.95
20
1.83681833040893
30
0
0
SPLINE
5
CF
100
AcDbEntity
8
SK1
62
256
6
ByLayer
370
18
48
1
60
0
100
AcDbSpline
70
4
71
3
72
14
73
10
40
0
40
0
40
0
40
0
40
0.500000000000002
40
0.500000000000002
40
0.750000000000004
40
0.750000000000004
40
0.875000000000002
40
0.875000000000002
40
1
40
1
40
1
40
1
41
1
10
-38.9500000000001
20
-0.642514459274622
30
0
41
1
10
-38.9287234691649
20
-0.637618077426396
30
0
41
1
10
-38.9083432483059
20
-0.626674428613313
30
0
41
1
10
-38.880223151313
20
-0.598377895032002
30
0
41
1
10
-38.8713218079587
20
-0.586915461889248
30
0
41
1
10
-38.8602667834558
20
-0.565269523704018
30
0
41
1
10
-38.8569157654531
20
-0.557217554097718
30
0
41
1
10
-38.851744720606
20
-0.53864868975154
30
0
41
1
10
-38.8499999999999
20
-0.52817838869484
30
0
41
1
10
-38.8499999999999
20
-0.517178803056623
30
0
0
SPLINE
5
D0
100
AcDbEntity
8
SK1
62
256
6
ByLayer
370
18
48
1
60
0
100
AcDbSpline
70
4
71
3
72
10
73
6
40
0
40
0
40
0
40
0
40
0.5
40
0.5
40
1
40
1
40
1
40
1
41
1
10
-40
20
0.889721238537675
30
0
41
1
10
-39.8300125789989
20
0.848161608293282
30
0
41
1
10
-39.6561824967249
20
0.806876805732941
30
0
41
1
10
-39.3052678362557
20
0.724539962626181
30
0
41
1
10
-39.1280772878367
20
0.683495501085332
30
0
41
1
10
-38.95
20
0.642514459274508
30
0
0
SPLINE
5
D1
100
AcDbEntity
8
SK1
62
256
6
ByLayer
370
18
48
1
60
0
100
AcDbSpline
70
4
71
3
72
14
73
10
40
0
40
0
40
0
40
0
40
0.5
40
0.5
40
0.75
40
0.75
40
0.875
40
0.875
40
1
40
1
40
1
40
1
41
1
10
-38.9500000000001
20
0.642514459274594
30
0
41
1
10
-38.9287234691649
20
0.637618077426396
30
0
41
1
10
-38.9083432483059
20
0.626674428613285
30
0
41
1
10
-38.880223151313
20
0.598377895031973
30
0
41
1
10
-38.8713218079587
20
0.58691546188922
30
0
41
1
10
-38.8602667834558
20
0.565269523703989
30
0
41
1
10
-38.8569157654531
20
0.557217554097718
30
0
41
1
10
-38.851744720606
20
0.53864868975154
30
0
41
1
10
-38.8499999999999
20
0.52817838869484
30
0
41
1
10
-38.8499999999999
20
0.517178803056595
30
0
0
LINE
5
76
100
AcDbEntity
8
81
62
256
6
ByLayer
370
18
48
1
60
0
100
AcDbLine
10
49
20
0
30
0
11
54
21
0
31
0
39
0
210
0
220
0
230
1
0
LINE
5
77
100
AcDbEntity
8
1
62
256
6
ByLayer
370
18
48
1
60
0
100
AcDbLine
10
4.000638
20
4.622673
30
0
11
0.233479
21
4.620318
31
0
39
0
210
0
220
0
230
1
0
LINE
5
79
100
AcDbEntity
8
1
62
256
6
ByLayer
370
18
48
1
60
0
100
AcDbLine
10
43.644848
20
4.647451
30
0
11
40.941647
21
4.645761
31
0
39
0
210
0
220
0
230
1
0
LINE
5
7A
100
AcDbEntity
8
1
62
256
6
ByLayer
370
18
48
1
60
0
100
AcDbLine
10
40.941647
20
-4.645761
30
0
11
43.644848
21
-4.647451
31
0
39
0
210
0
220
0
230
1
0
LINE
5
7B
100
AcDbEntity
8
1
62
256
6
ByLayer
370
18
48
1
60
0
100
AcDbLine
10
0.233479
20
-4.620318
30
0
11
4.000638
21
-4.622673
31
0
39
0
210
0
220
0
230
1
0
LINE
5
7C
100
AcDbEntity
8
SK1
62
256
6
ByLayer
370
18
48
1
60
0
100
AcDbLine
10
-38.845299
20
5
30
0
11
-40
21
3
31
0
39
0
210
0
220
0
230
1
0
LINE
5
7E
100
AcDbEntity
8
SK1
62
256
6
ByLayer
370
18
48
1
60
0
100
AcDbLine
10
-40
20
-3
30
0
11
-38.845299
21
-5
31
0
39
0
210
0
220
0
230
1
0
LINE
5
7F
100
AcDbEntity
8
SK1
62
256
6
ByLayer
370
18
48
1
60
0
100
AcDbLine
10
0
20
5
30
0
11
-38.845299
21
5
31
0
39
0
210
0
220
0
230
1
0
LINE
5
80
100
AcDbEntity
8
SK1
62
256
6
ByLayer
370
18
48
1
60
0
100
AcDbLine
10
-38.845299
20
-5
30
0
11
0
21
-5
31
0
39
0
210
0
220
0
230
1
0
LINE
5
81
100
AcDbEntity
8
4
62
256
6
ByLayer
370
18
48
0.05
60
0
100
AcDbLine
10
49
20
0
30
0
11
0
21
0
31
0
39
0
210
0
220
0
230
1
0
LINE
5
83
100
AcDbEntity
8
SK4
62
256
6
ByLayer
370
18
48
0.05
60
0
100
AcDbLine
10
54
20
0
30
0
11
-45
21
0
31
0
39
0
210
0
220
0
230
1
0
LINE
5
85
100
AcDbEntity
8
80
62
256
6
ByLayer
370
18
48
1
60
0
100
AcDbLine
10
0
20
0
30
0
11
-5
21
0
31
0
39
0
210
0
220
0
230
1
0
LINE
5
86
100
AcDbEntity
8
1
62
256
6
ByLayer
370
13
48
1
60
0
100
AcDbLine
10
45.690326
20
1.594403
30
0
11
48.997187
21
0.036894
31
0
39
0
210
0
220
0
230
1
0
LINE
5
87
100
AcDbEntity
8
1
62
256
6
ByLayer
370
18
48
1
60
0
100
AcDbLine
10
48.882306
20
-0.177572
30
0
11
48.985104
21
-0.003469
31
0
39
0
210
0
220
0
230
1
0
LINE
5
88
100
AcDbEntity
8
1
62
256
6
ByLayer
370
18
48
1
60
0
100
AcDbLine
10
48.997187
20
0.036894
30
0
11
48.599675
21
1.352894
31
0
39
0
210
0
220
0
230
1
0
LINE
5
89
100
AcDbEntity
8
1
62
256
6
ByLayer
370
13
48
1
60
0
100
AcDbLine
10
47.606578
20
-3.525
30
0
11
47.215404
21
-3.815674
31
0
39
0
210
0
220
0
230
1
0
LINE
5
8A
100
AcDbEntity
8
1
62
256
6
ByLayer
370
18
48
1
60
0
100
AcDbLine
10
47.564001
20
-3.004685
30
0
11
47.21841
21
-3.745809
31
0
39
0
210
0
220
0
230
1
0
LINE
5
8B
100
AcDbEntity
8
1
62
256
6
ByLayer
370
13
48
1
60
0
100
AcDbLine
10
47.618973
20
-3.448159
30
0
11
47.21841
21
-3.745809
31
0
39
0
210
0
220
0
230
1
0
LINE
5
8C
100
AcDbEntity
8
1
62
256
6
ByLayer
370
18
48
1
60
0
100
AcDbLine
10
48.997187
20
-0.036894
30
0
11
48.599675
21
-1.352894
31
0
39
0
210
0
220
0
230
1
0
LINE
5
8D
100
AcDbEntity
8
1
62
256
6
ByLayer
370
18
48
1
60
0
100
AcDbLine
10
47.215404
20
-3.815674
30
0
11
47.466232
21
-4.373143
31
0
39
0
210
0
220
0
230
1
0
LINE
5
8E
100
AcDbEntity
8
1
62
256
6
ByLayer
370
13
48
1
60
0
100
AcDbLine
10
45.664983
20
1.560286
30
0
11
48.985104
21
-0.003469
31
0
39
0
210
0
220
0
230
1
0
LINE
5
8F
100
AcDbEntity
8
1
62
256
6
ByLayer
370
18
48
1
60
0
100
AcDbLine
10
48.882306
20
-0.177572
30
0
11
48.177606
21
-1.688806
31
0
39
0
210
0
220
0
230
1
0
LINE
5
90
100
AcDbEntity
8
1
62
256
6
ByLayer
370
13
48
1
60
0
100
AcDbLine
10
0.233479
20
4.620318
30
0
11
0.233479
21
-4.620318
31
0
39
0
210
0
220
0
230
1
0
LINE
5
91
100
AcDbEntity
8
1
62
256
6
ByLayer
370
18
48
1
60
0
100
AcDbLine
10
45.633485
20
-2.892046
30
0
11
48.882306
21
-0.177572
31
0
39
0
210
0
220
0
230
1
0
LINE
5
92
100
AcDbEntity
8
1
62
256
6
ByLayer
370
18
48
1
60
0
100
AcDbLine
10
49
20
-0.0284
30
0
11
49
21
0.0284
31
0
39
0
210
0
220
0
230
1
0
LINE
5
93
100
AcDbEntity
8
SK1
62
256
6
ByLayer
370
18
48
1
60
0
100
AcDbLine
10
-40
20
3
30
0
11
-40
21
1.589612
31
0
39
0
210
0
220
0
230
1
0
LINE
5
94
100
AcDbEntity
8
SK1
62
256
6
ByLayer
370
18
48
1
60
0
100
AcDbLine
10
-38.85
20
-0.517179
30
0
11
-38.85
21
1.763807
31
0
39
0
210
0
220
0
230
1
0
LINE
5
95
100
AcDbEntity
8
SK1
62
256
6
ByLayer
370
13
48
1
60
0
100
AcDbLine
10
-38.95
20
1.836818
30
0
11
-38.95
21
0.642514
31
0
39
0
210
0
220
0
230
1
0
LINE
5
96
100
AcDbEntity
8
SK1
62
256
6
ByLayer
370
18
48
1
60
0
100
AcDbLine
10
0
20
5
30
0
11
0
21
-5
31
0
39
0
210
0
220
0
230
1
0
LINE
5
97
100
AcDbEntity
8
SK1
62
256
6
ByLayer
370
18
48
1
60
0
100
AcDbLine
10
-40
20
-0.889721
30
0
11
-40
21
-3
31
0
39
0
210
0
220
0
230
1
0
LINE
5
98
100
AcDbEntity
8
SK1
62
256
6
ByLayer
370
18
48
1
60
0
100
AcDbLine
10
-38.845299
20
5
30
0
11
-38.845299
21
-5
31
0
39
0
210
0
220
0
230
1
0
LINE
5
99
100
AcDbEntity
8
SK1
62
256
6
ByLayer
370
18
48
1
60
0
100
AcDbLine
10
-40
20
1.589612
30
0
11
-40
21
0.889721
31
0
39
0
210
0
220
0
230
1
0
MTEXT
5
D2
100
AcDbEntity
8
SK6
62
256
6
ByLayer
370
13
48
1
60
0
100
AcDbMText
10
6.629169
20
37.032694
30
0
210
0
220
0
230
1
1
\W0.7276;860.1-0930-028A1-NM H10F
40
3.5
41
0
44
1.084337
50
0
71
8
72
5
7
iso_b_vert
0
DIMENSION
5
DF
100
AcDbEntity
8
SK2
62
256
6
ByLayer
370
13
48
1
60
0
100
AcDbDimension
2
DimnDraft3D1
10
47.754
20
-17.452503
30
0
11
22.562638
21
-17.452503
31
0
70
32
71
5
72
1
41
1
210
0
220
0
230
1
3
Standard
100
AcDbAlignedDimension
13
0
23
-1.5875
33
0
14
47.754
24
-6.2375
34
0
50
0
100
AcDbRotatedDimension
1001
ACAD
1000
DSTYLE
1002
{
1070
   279
1070
     0
1070
   172
1070
     1
1070
   173
1070
     1
1070
   340
1005
D3
1070
   271
1070
     1
1070
   272
1070
     2
1070
    77
1070
     1
1070
    73
1070
     0
1070
   171
1070
     3
1070
   274
1070
     4
1070
   177
1070
    35
1070
   176
1070
    35
1070
   178
1070
    35
1070
    48
1040
-0.005
1070
    41
1041
3.5
1070
   147
1041
1.75
1070
    42
1041
1.5875
1070
    44
1041
2.0
1070
   140
1041
3.5
1070
   343
1005
0
1070
   344
1005
0
1002
}
0
DIMENSION
5
E9
100
AcDbEntity
8
SK2
62
256
6
ByLayer
370
13
48
1
60
0
100
AcDbDimension
2
DimnDraft3D2
10
49
20
-38.692985
30
0
11
4.5953
21
-38.692985
31
0
70
32
71
5
72
1
41
1
210
0
220
0
230
1
3
Standard
100
AcDbAlignedDimension
13
-40
23
-6.5875
33
0
14
49
24
-1.5875
34
0
50
0
100
AcDbRotatedDimension
1001
ACAD
1000
DSTYLE
1002
{
1070
   279
1070
     0
1070
   172
1070
     1
1070
   173
1070
     1
1070
   340
1005
D3
1070
   271
1070
     1
1070
   272
1070
     2
1070
    77
1070
     1
1070
    73
1070
     0
1070
   171
1070
     3
1070
   274
1070
     4
1070
   177
1070
    35
1070
   176
1070
    35
1070
   178
1070
    35
1070
    48
1040
-0.005
1070
    41
1041
3.5
1070
   147
1041
1.75
1070
    42
1041
1.5875
1070
    44
1041
2.0
1070
   140
1041
3.5
1070
   343
1005
0
1070
   344
1005
0
1002
}
0
DIMENSION
5
F3
100
AcDbEntity
8
SK2
62
256
6
ByLayer
370
13
48
1
60
0
100
AcDbDimension
2
DimnDraft3D3
10
49
20
16.259119
30
0
11
34.43
21
16.259119
31
0
70
32
71
5
72
1
41
1
210
0
220
0
230
1
3
Standard
100
AcDbAlignedDimension
13
19.86
23
6.2375
33
0
14
49
24
1.5875
34
0
50
0
100
AcDbRotatedDimension
1001
ACAD
1000
DSTYLE
1002
{
1070
   279
1070
     0
1070
   172
1070
     1
1070
   173
1070
     1
1070
   340
1005
D3
1070
   271
1070
     2
1070
   272
1070
     2
1070
    77
1070
     1
1070
    73
1070
     0
1070
   171
1070
     3
1070
   274
1070
     4
1070
   177
1070
    35
1070
   176
1070
    35
1070
   178
1070
    35
1070
    48
1040
-0.005
1070
    41
1041
3.5
1070
   147
1041
1.75
1070
    42
1041
1.5875
1070
    44
1041
2.0
1070
   140
1041
3.5
1070
   343
1005
0
1070
   344
1005
0
1002
}
0
DIMENSION
5
FD
100
AcDbEntity
8
SK2
62
256
6
ByLayer
370
13
48
1
60
0
100
AcDbDimension
2
DimnDraft3D4
10
47.754
20
-17.452503
30
0
11
58.981425
21
-17.452503
31
0
70
32
71
5
72
1
41
1
210
0
220
0
230
1
3
Standard
100
AcDbAlignedDimension
13
49
23
-1.5875
33
0
14
47.754
24
-6.2375
34
0
50
0
100
AcDbRotatedDimension
1001
ACAD
1000
DSTYLE
1002
{
1070
   279
1070
     0
1070
   172
1070
     1
1070
   173
1070
     1
1070
   340
1005
D3
1070
   271
1070
     2
1070
   272
1070
     2
1070
    77
1070
     1
1070
    73
1070
     0
1070
   171
1070
     3
1070
   274
1070
     4
1070
   177
1070
    35
1070
   176
1070
    35
1070
   178
1070
    35
1070
    48
1040
-0.005
1070
    41
1041
3.5
1070
   147
1041
1.75
1070
    42
1041
1.5875
1070
    44
1041
2.0
1070
   140
1041
3.5
1070
   343
1005
0
1070
   344
1005
0
1002
}
0
DIMENSION
5
107
100
AcDbEntity
8
SK2
62
256
6
ByLayer
370
13
48
1
60
0
100
AcDbDimension
2
DimnDraft3D5
10
47.754
20
-28.5
30
0
11
3.254
21
-28.5
31
0
70
32
71
5
72
1
41
1
210
0
220
0
230
1
3
Standard
100
AcDbAlignedDimension
13
-40
23
-6.5875
33
0
14
47.754
24
-6.2375
34
0
50
0
100
AcDbRotatedDimension
1001
ACAD
1000
DSTYLE
1002
{
1070
   279
1070
     0
1070
   172
1070
     1
1070
   173
1070
     1
1070
   340
1005
D3
1070
   271
1070
     1
1070
   272
1070
     2
1070
    77
1070
     1
1070
    73
1070
     0
1070
   171
1070
     3
1070
   274
1070
     4
1070
   177
1070
    35
1070
   176
1070
    35
1070
   178
1070
    35
1070
    48
1040
-0.005
1070
    41
1041
3.5
1070
   147
1041
1.75
1070
    42
1041
1.5875
1070
    44
1041
2.0
1070
   140
1041
3.5
1070
   343
1005
0
1070
   344
1005
0
1002
}
0
DIMENSION
5
112
100
AcDbEntity
8
SK2
62
256
6
ByLayer
370
13
48
1
60
0
100
AcDbDimension
2
DimnDraft3D6
10
-50.625163
20
5
30
0
11
-51.250163
21
23.47418
31
0
70
33
71
5
72
1
41
1
210
0
220
0
230
1
3
Standard
100
AcDbAlignedDimension
13
-41.5875
23
-5
33
0
14
-41.5875
24
5
34
0
1001
ACAD
1000
DSTYLE
1002
{
1070
   279
1070
     0
1070
    74
1070
     0
1070
   173
1070
     1
1070
   340
1005
D3
1070
   271
1070
     2
1070
   272
1070
     2
1070
    77
1070
     1
1070
    73
1070
     0
1070
   171
1070
     3
1070
   274
1070
     4
1070
   177
1070
    35
1070
   176
1070
    35
1070
   178
1070
    35
1070
    48
1040
-0.005
1070
    41
1041
3.5
1070
   147
1041
1.75
1070
    42
1041
1.5875
1070
    44
1041
2.0
1070
   140
1041
3.5
1070
   343
1005
0
1070
   344
1005
0
1002
}
0
DIMENSION
5
11D
100
AcDbEntity
8
2
62
256
6
ByLayer
370
13
48
1
60
0
100
AcDbDimension
2
DimnDraft3D7
10
63.083343
20
4.65
30
0
11
58.458343
21
21.717266
31
0
70
33
71
5
72
1
41
1
210
0
220
0
230
1
3
Standard
100
AcDbAlignedDimension
13
49.3415
23
-4.65
33
0
14
49.3415
24
4.65
34
0
1001
ACAD
1000
DSTYLE
1002
{
1070
   279
1070
     0
1070
    74
1070
     0
1070
   173
1070
     1
1070
   340
1005
D3
1070
   271
1070
     1
1070
   272
1070
     2
1070
    77
1070
     1
1070
    73
1070
     0
1070
   171
1070
     3
1070
   274
1070
     4
1070
   177
1070
    35
1070
   176
1070
    35
1070
   178
1070
    35
1070
    48
1040
-0.005
1070
    41
1041
3.5
1070
   147
1041
1.75
1070
    42
1041
1.5875
1070
    44
1041
2.0
1070
   140
1041
3.5
1070
   343
1005
0
1070
   344
1005
0
1002
}
0
ENDSEC
0
SECTION
2
OBJECTS
0
DICTIONARY
5
188
330
0
100
AcDbDictionary
280
0
281
1
3
ACAD_GROUP
350
189
3
ACAD_MLINESTYLE
350
18a
0
DICTIONARY
5
189
330
0
100
AcDbDictionary
280
0
281
1
0
DICTIONARY
5
18a
330
0
100
AcDbDictionary
280
0
281
1
3
Standard
350
18
0
MLINESTYLE
5
18
330
18a
100
AcDbMlineStyle
2
Standard
70
0
3

62
256
51
90
52
90
71
2
49
-0.5
62
256
6
ByLayer
49
0.5
62
256
6
ByLayer
0
RASTERVARIABLES
5
176
330

100
AcDbRasterVariables
90
0
70
1
71
1
72
1
0
ENDSEC
0
EOF
